  0
SECTION
  2
HEADER
  9
$ACADVER
  1
AC1015
  9
$ACADMAINTVER
 70
    20
  9
$DWGCODEPAGE
  3
ANSI_932
  9
$INSBASE
 10
0.0
 20
0.0
 30
0.0
  9
$EXTMIN
 10
139.9999999999995
 20
-0.0000000000000909
 30
0.0
  9
$EXTMAX
 10
16307.2
 20
11409.6
 30
0.0
  9
$LIMMIN
 10
0.0
 20
0.0
  9
$LIMMAX
 10
16800.0
 20
11880.0
  9
$ORTHOMODE
 70
     0
  9
$REGENMODE
 70
     1
  9
$FILLMODE
 70
     1
  9
$QTEXTMODE
 70
     0
  9
$MIRRTEXT
 70
     1
  9
$LTSCALE
 40
20.0
  9
$ATTMODE
 70
     1
  9
$TEXTSIZE
 40
3.5
  9
$TRACEWID
 40
1.0
  9
$TEXTSTYLE
  7
MSGOTHIC
  9
$CLAYER
  8
部品1
  9
$CELTYPE
  6
BYLAYER
  9
$CECOLOR
 62
   256
  9
$CELTSCALE
 40
50.0
  9
$DISPSILH
 70
     0
  9
$DIMSCALE
 40
40.0
  9
$DIMASZ
 40
2.5
  9
$DIMEXO
 40
0.5
  9
$DIMDLI
 40
7.0
  9
$DIMRND
 40
0.0
  9
$DIMDLE
 40
0.0
  9
$DIMEXE
 40
1.5
  9
$DIMTP
 40
0.0
  9
$DIMTM
 40
0.0
  9
$DIMTXT
 40
3.0
  9
$DIMCEN
 40
0.0
  9
$DIMTSZ
 40
0.0
  9
$DIMTOL
 70
     0
  9
$DIMLIM
 70
     0
  9
$DIMTIH
 70
     0
  9
$DIMTOH
 70
     0
  9
$DIMSE1
 70
     0
  9
$DIMSE2
 70
     0
  9
$DIMTAD
 70
     3
  9
$DIMZIN
 70
     8
  9
$DIMBLK
  1

  9
$DIMASO
 70
     1
  9
$DIMSHO
 70
     1
  9
$DIMPOST
  1

  9
$DIMAPOST
  1

  9
$DIMALT
 70
     0
  9
$DIMALTD
 70
     2
  9
$DIMALTF
 40
0.0394
  9
$DIMLFAC
 40
1.0
  9
$DIMTOFL
 70
     1
  9
$DIMTVP
 40
0.0
  9
$DIMTIX
 70
     1
  9
$DIMSOXD
 70
     0
  9
$DIMSAH
 70
     1
  9
$DIMBLK1
  1
DOTSMALL
  9
$DIMBLK2
  1
DOTSMALL
  9
$DIMSTYLE
  2
INABA_S40G
  9
$DIMCLRD
 70
     0
  9
$DIMCLRE
 70
     0
  9
$DIMCLRT
 70
     7
  9
$DIMTFAC
 40
1.0
  9
$DIMGAP
 40
1.0
  9
$DIMJUST
 70
     0
  9
$DIMSD1
 70
     0
  9
$DIMSD2
 70
     0
  9
$DIMTOLJ
 70
     1
  9
$DIMTZIN
 70
     0
  9
$DIMALTZ
 70
     0
  9
$DIMALTTZ
 70
     0
  9
$DIMUPT
 70
     0
  9
$DIMDEC
 70
     1
  9
$DIMTDEC
 70
     4
  9
$DIMALTU
 70
     2
  9
$DIMALTTD
 70
     2
  9
$DIMTXSTY
  7
STYLE1
  9
$DIMAUNIT
 70
     0
  9
$DIMADEC
 70
     0
  9
$DIMALTRND
 40
0.0
  9
$DIMAZIN
 70
     0
  9
$DIMDSEP
 70
    46
  9
$DIMATFIT
 70
     3
  9
$DIMFRAC
 70
     0
  9
$DIMLDRBLK
  1

  9
$DIMLUNIT
 70
     2
  9
$DIMLWD
 70
    -2
  9
$DIMLWE
 70
    -2
  9
$DIMTMOVE
 70
     0
  9
$LUNITS
 70
     2
  9
$LUPREC
 70
     1
  9
$SKETCHINC
 40
1.0
  9
$FILLETRAD
 40
3.0
  9
$AUNITS
 70
     0
  9
$AUPREC
 70
     0
  9
$MENU
  1
acad
  9
$ELEVATION
 40
0.0
  9
$PELEVATION
 40
0.0
  9
$THICKNESS
 40
0.0
  9
$LIMCHECK
 70
     0
  9
$CHAMFERA
 40
0.0
  9
$CHAMFERB
 40
0.0
  9
$CHAMFERC
 40
0.0
  9
$CHAMFERD
 40
0.0
  9
$SKPOLY
 70
     0
  9
$TDCREATE
 40
2451368.612993866
  9
$TDUCREATE
 40
2451368.237993866
  9
$TDUPDATE
 40
2455569.643675486
  9
$TDUUPDATE
 40
2455569.268675486
  9
$TDINDWG
 40
0.6541748727
  9
$TDUSRTIMER
 40
0.6541748727
  9
$USRTIMER
 70
     1
  9
$ANGBASE
 50
0.0
  9
$ANGDIR
 70
     0
  9
$PDMODE
 70
     3
  9
$PDSIZE
 40
2.0
  9
$PLINEWID
 40
0.0
  9
$SPLFRAME
 70
     0
  9
$SPLINETYPE
 70
     6
  9
$SPLINESEGS
 70
     8
  9
$HANDSEED
  5
17989
  9
$SURFTAB1
 70
     6
  9
$SURFTAB2
 70
     6
  9
$SURFTYPE
 70
     6
  9
$SURFU
 70
     6
  9
$SURFV
 70
     6
  9
$UCSBASE
  2

  9
$UCSNAME
  2

  9
$UCSORG
 10
0.0
 20
0.0
 30
0.0
  9
$UCSXDIR
 10
1.0
 20
0.0
 30
0.0
  9
$UCSYDIR
 10
0.0
 20
1.0
 30
0.0
  9
$UCSORTHOREF
  2

  9
$UCSORTHOVIEW
 70
     0
  9
$UCSORGTOP
 10
0.0
 20
0.0
 30
0.0
  9
$UCSORGBOTTOM
 10
0.0
 20
0.0
 30
0.0
  9
$UCSORGLEFT
 10
0.0
 20
0.0
 30
0.0
  9
$UCSORGRIGHT
 10
0.0
 20
0.0
 30
0.0
  9
$UCSORGFRONT
 10
0.0
 20
0.0
 30
0.0
  9
$UCSORGBACK
 10
0.0
 20
0.0
 30
0.0
  9
$PUCSBASE
  2

  9
$PUCSNAME
  2

  9
$PUCSORG
 10
0.0
 20
0.0
 30
0.0
  9
$PUCSXDIR
 10
1.0
 20
0.0
 30
0.0
  9
$PUCSYDIR
 10
0.0
 20
1.0
 30
0.0
  9
$PUCSORTHOREF
  2

  9
$PUCSORTHOVIEW
 70
     0
  9
$PUCSORGTOP
 10
0.0
 20
0.0
 30
0.0
  9
$PUCSORGBOTTOM
 10
0.0
 20
0.0
 30
0.0
  9
$PUCSORGLEFT
 10
0.0
 20
0.0
 30
0.0
  9
$PUCSORGRIGHT
 10
0.0
 20
0.0
 30
0.0
  9
$PUCSORGFRONT
 10
0.0
 20
0.0
 30
0.0
  9
$PUCSORGBACK
 10
0.0
 20
0.0
 30
0.0
  9
$USERI1
 70
     0
  9
$USERI2
 70
     0
  9
$USERI3
 70
     0
  9
$USERI4
 70
     0
  9
$USERI5
 70
     0
  9
$USERR1
 40
0.0
  9
$USERR2
 40
0.0
  9
$USERR3
 40
0.0
  9
$USERR4
 40
0.0
  9
$USERR5
 40
0.0
  9
$WORLDVIEW
 70
     1
  9
$SHADEDGE
 70
     3
  9
$SHADEDIF
 70
    70
  9
$TILEMODE
 70
     1
  9
$MAXACTVP
 70
    16
  9
$PINSBASE
 10
0.0
 20
0.0
 30
0.0
  9
$PLIMCHECK
 70
     0
  9
$PEXTMIN
 10
1.000000000000000E+20
 20
1.000000000000000E+20
 30
1.000000000000000E+20
  9
$PEXTMAX
 10
-1.000000000000000E+20
 20
-1.000000000000000E+20
 30
-1.000000000000000E+20
  9
$PLIMMIN
 10
0.0
 20
0.0
  9
$PLIMMAX
 10
420.0
 20
297.0
  9
$UNITMODE
 70
     0
  9
$VISRETAIN
 70
     0
  9
$PLINEGEN
 70
     0
  9
$PSLTSCALE
 70
     0
  9
$TREEDEPTH
 70
  3020
  9
$CMLSTYLE
  2
STANDARD
  9
$CMLJUST
 70
     0
  9
$CMLSCALE
 40
1.0
  9
$PROXYGRAPHICS
 70
     1
  9
$MEASUREMENT
 70
     1
  9
$CELWEIGHT
370
    -1
  9
$ENDCAPS
280
     0
  9
$JOINSTYLE
280
     0
  9
$LWDISPLAY
290
     0
  9
$INSUNITS
 70
     0
  9
$HYPERLINKBASE
  1

  9
$STYLESHEET
  1
inaba.ctb
  9
$XEDIT
290
     1
  9
$CEPSNTYPE
380
     0
  9
$PSTYLEMODE
290
     1
  9
$FINGERPRINTGUID
  2
{77ABBCC8-E499-47A5-842F-55F583DC8CE7}
  9
$VERSIONGUID
  2
{0CA35086-CA57-4BC9-99EF-B25C173E4700}
  9
$EXTNAMES
290
     1
  9
$PSVPSCALE
 40
0.0
  9
$OLESTARTUP
290
     0
  0
ENDSEC
  0
SECTION
  2
CLASSES
  0
CLASS
  1
ACDBDICTIONARYWDFLT
  2
AcDbDictionaryWithDefault
  3
ObjectDBX Classes
 90
        0
280
     0
281
     0
  0
CLASS
  1
DICTIONARYVAR
  2
AcDbDictionaryVar
  3
ObjectDBX Classes
 90
        0
280
     0
281
     0
  0
CLASS
  1
ACDBPLACEHOLDER
  2
AcDbPlaceHolder
  3
ObjectDBX Classes
 90
        0
280
     0
281
     0
  0
CLASS
  1
LAYOUT
  2
AcDbLayout
  3
ObjectDBX Classes
 90
        0
280
     0
281
     0
  0
ENDSEC
  0
SECTION
  2
TABLES
  0
TABLE
  2
VPORT
  5
746D
330
0
100
AcDbSymbolTable
 70
     2
  0
VPORT
  5
17981
330
746D
100
AcDbSymbolTableRecord
100
AcDbViewportTableRecord
  2
*Active
 70
     0
 10
0.0
 20
0.0
 11
1.0
 21
1.0
 12
11720.08798000114
 22
5704.77863699966
 13
0.0
 23
0.0
 14
10.0
 24
10.0
 15
10.0
 25
10.0
 16
0.0
 26
0.0
 36
1.0
 17
0.0
 27
0.0
 37
0.0
 40
11513.38691418082
 41
2.234800838574423
 42
50.0
 43
0.0
 44
0.0
 50
0.0
 51
0.0
 71
     0
 72
     0
 73
     1
 74
     0
 75
     0
 76
     0
 77
     0
 78
     0
281
     0
 65
     1
110
0.0
120
0.0
130
0.0
111
1.0
121
0.0
131
0.0
112
0.0
122
1.0
132
0.0
 79
     0
146
0.0
  0
ENDTAB
  0
TABLE
  2
LTYPE
  5
746A
330
0
100
AcDbSymbolTable
 70
     3
  0
LTYPE
  5
7477
330
746A
100
AcDbSymbolTableRecord
100
AcDbLinetypeTableRecord
  2
BYBLOCK
 70
     0
  3

 72
    65
 73
     0
 40
0.0
  0
LTYPE
  5
7478
330
746A
100
AcDbSymbolTableRecord
100
AcDbLinetypeTableRecord
  2
BYLAYER
 70
     0
  3

 72
    65
 73
     0
 40
0.0
  0
LTYPE
  5
7479
330
746A
100
AcDbSymbolTableRecord
100
AcDbLinetypeTableRecord
  2
CONTINUOUS
 70
     0
  3
Solid line
 72
    65
 73
     0
 40
0.0
  0
LTYPE
  5
781A
330
746A
100
AcDbSymbolTableRecord
100
AcDbLinetypeTableRecord
  2
HIDDEN
 70
     0
  3
__ __ __ __ __ __ __ __ __ __ __ __ __ __ __ __
 72
    65
 73
     2
 40
0.375
 49
0.25
 74
     0
 49
-0.125
 74
     0
  0
LTYPE
  5
781B
330
746A
100
AcDbSymbolTableRecord
100
AcDbLinetypeTableRecord
  2
PHANTOM
 70
     0
  3
______  __  __  ______  __  __  ______  __  __ 
 72
    65
 73
     6
 40
2.5
 49
1.25
 74
     0
 49
-0.25
 74
     0
 49
0.25
 74
     0
 49
-0.25
 74
     0
 49
0.25
 74
     0
 49
-0.25
 74
     0
  0
ENDTAB
  0
TABLE
  2
LAYER
  5
7467
102
{ACAD_XDICTIONARY
360
16DED
102
}
330
0
100
AcDbSymbolTable
 70
    10
  0
LAYER
  5
7474
330
7467
100
AcDbSymbolTableRecord
100
AcDbLayerTableRecord
  2
0
 70
     0
 62
     7
  6
CONTINUOUS
370
    -3
390
166AC
  0
LAYER
  5
DEB3
330
7467
100
AcDbSymbolTableRecord
100
AcDbLayerTableRecord
  2
寸法
 70
     0
 62
     4
  6
CONTINUOUS
370
    -3
390
166AC
  0
LAYER
  5
DEB4
330
7467
100
AcDbSymbolTableRecord
100
AcDbLayerTableRecord
  2
部品1
 70
     0
 62
     7
  6
CONTINUOUS
370
    -3
390
166AC
  0
LAYER
  5
DEB5
330
7467
100
AcDbSymbolTableRecord
100
AcDbLayerTableRecord
  2
補助
 70
     0
 62
    -1
  6
CONTINUOUS
370
    -3
390
166AC
  0
LAYER
  5
DEB6
330
7467
100
AcDbSymbolTableRecord
100
AcDbLayerTableRecord
  2
文字
 70
     0
 62
     7
  6
CONTINUOUS
370
    -3
390
166AC
  0
LAYER
  5
F255
330
7467
100
AcDbSymbolTableRecord
100
AcDbLayerTableRecord
  2
DEFPOINTS
 70
     0
 62
     7
  6
CONTINUOUS
290
     0
370
    -3
390
166AC
  0
LAYER
  5
10B54
330
7467
100
AcDbSymbolTableRecord
100
AcDbLayerTableRecord
  2
仕様書枠
 70
     0
 62
   230
  6
CONTINUOUS
370
    -3
390
166AC
  0
LAYER
  5
11729
330
7467
100
AcDbSymbolTableRecord
100
AcDbLayerTableRecord
  2
Ｇ．Ｌ
 70
     0
 62
    30
  6
CONTINUOUS
370
    -3
390
166AC
  0
LAYER
  5
1173F
330
7467
100
AcDbSymbolTableRecord
100
AcDbLayerTableRecord
  2
細線
 70
     0
 62
     5
  6
CONTINUOUS
370
    -3
390
166AC
  0
LAYER
  5
142E2
330
7467
100
AcDbSymbolTableRecord
100
AcDbLayerTableRecord
  2
破線
 70
     0
 62
     2
  6
HIDDEN
370
    -3
390
166AC
  0
ENDTAB
  0
TABLE
  2
STYLE
  5
7468
330
0
100
AcDbSymbolTable
 70
     6
  0
STYLE
  5
7475
330
7468
100
AcDbSymbolTableRecord
100
AcDbTextStyleTableRecord
  2
STANDARD
 70
     0
 40
0.0
 41
1.0
 50
0.0
 71
     0
 42
4.0
  3
txt
  4
C:\AutoCAD LT\bigfont.shx
  0
STYLE
  5
763C
330
7468
100
AcDbSymbolTableRecord
100
AcDbTextStyleTableRecord
  2
MSMINCHO
 70
     0
 40
0.0
 41
1.0
 50
0.0
 71
     0
 42
1.199999999999999
  3
C:\AutoCAD LT\msminch2.TTF
  4

  0
STYLE
  5
F706
330
7468
100
AcDbSymbolTableRecord
100
AcDbTextStyleTableRecord
  2
STYLE1
 70
     0
 40
0.0
 41
1.0
 50
0.0
 71
     0
 42
4.0
  3
isocp.shx
  4
bigfont.shx
  0
STYLE
  5
103BF
330
7468
100
AcDbSymbolTableRecord
100
AcDbTextStyleTableRecord
  2
STYLE2
 70
     0
 40
0.0
 41
1.0
 50
0.0
 71
     0
 42
100.0
  3
MS PGothic.ttf
  4

1001
ACAD
1000
MS PGothic
1071
    32818
  0
STYLE
  5
10BAA
330
7468
100
AcDbSymbolTableRecord
100
AcDbTextStyleTableRecord
  2
STYLE3
 70
     0
 40
0.0
 41
1.0
 50
0.0
 71
     0
 42
100.0
  3
DFPGothic-EB.ttf
  4

1001
ACAD
1000
DFPGothic-EB
1071
    32818
  0
STYLE
  5
11A15
330
7468
100
AcDbSymbolTableRecord
100
AcDbTextStyleTableRecord
  2
MSGOTHIC
 70
     0
 40
0.0
 41
1.0
 50
0.0
 71
     0
 42
3.5
  3
MS PGothic.ttf
  4

1001
ACAD
1000
MS PGothic
1071
    32818
  0
ENDTAB
  0
TABLE
  2
VIEW
  5
746B
330
0
100
AcDbSymbolTable
 70
     0
  0
ENDTAB
  0
TABLE
  2
UCS
  5
746C
330
0
100
AcDbSymbolTable
 70
     0
  0
ENDTAB
  0
TABLE
  2
APPID
  5
746E
330
0
100
AcDbSymbolTable
 70
     6
  0
APPID
  5
7476
330
746E
100
AcDbSymbolTableRecord
100
AcDbRegAppTableRecord
  2
ACAD
 70
     0
  0
APPID
  5
DEA9
330
746E
100
AcDbSymbolTableRecord
100
AcDbRegAppTableRecord
  2
CONTENTBLOCKICON
 70
     0
  0
APPID
  5
DEAA
330
746E
100
AcDbSymbolTableRecord
100
AcDbRegAppTableRecord
  2
CONTENTBLOCKDESCRIPTION
 70
     0
  0
APPID
  5
E71D
330
746E
100
AcDbSymbolTableRecord
100
AcDbRegAppTableRecord
  2
CONTENTTABDATA
 70
     0
  0
APPID
  5
E71E
330
746E
100
AcDbSymbolTableRecord
100
AcDbRegAppTableRecord
  2
CONTENTCURRENTTAB
 70
     0
  0
APPID
  5
F3BA
330
746E
100
AcDbSymbolTableRecord
100
AcDbRegAppTableRecord
  2
DRAWINGVARIABLESXDATA
 70
     0
  0
ENDTAB
  0
TABLE
  2
DIMSTYLE
  5
746F
330
0
100
AcDbSymbolTable
 70
     1
100
AcDbDimStyleTable
 71
     1
340
F71F
  0
DIMSTYLE
105
F71F
102
{ACAD_REACTORS
330
16452
330
16459
330
1645E
330
16460
330
16461
330
16462
330
16475
330
16476
330
16477
330
1648F
330
16492
330
164BD
330
164BE
330
16FDA
330
16FE9
330
16FF7
330
16FF8
330
16FF9
330
16FFD
330
1702D
330
1702E
330
1702F
330
175E3
330
175E2
330
175E4
330
175E1
330
177D9
330
177DA
330
177DB
102
}
330
746F
100
AcDbSymbolTableRecord
100
AcDbDimStyleTableRecord
  2
INABA_S40G
 70
     0
 40
40.0
 41
2.5
 42
0.5
 43
7.0
 44
1.5
 73
     0
 74
     0
 77
     3
 78
     8
140
3.0
141
0.0
143
0.0394
147
1.0
172
     1
173
     1
174
     1
178
     7
271
     1
340
F706
341
F770
343
F770
344
F770
  0
ENDTAB
  0
TABLE
  2
BLOCK_RECORD
  5
7466
330
0
100
AcDbSymbolTable
 70
    30
  0
BLOCK_RECORD
  5
747D
330
7466
100
AcDbSymbolTableRecord
100
AcDbBlockTableRecord
  2
*MODEL_SPACE
340
166B1
  0
BLOCK_RECORD
  5
747A
330
7466
100
AcDbSymbolTableRecord
100
AcDbBlockTableRecord
  2
*PAPER_SPACE
340
166B2
  0
BLOCK_RECORD
  5
F770
330
7466
100
AcDbSymbolTableRecord
100
AcDbBlockTableRecord
  2
_DOTSMALL
340
0
102
{BLKREFS
331
16B07
331
16B08
331
16B12
331
16B13
331
16B1D
331
16B1E
331
16B26
331
16B27
331
16B31
331
16B32
331
16B3C
331
16B3D
331
16B48
331
16B49
331
16B53
331
16B54
331
16B5D
331
16B5E
331
16B66
331
16B67
331
16B6E
331
16B6F
331
16B77
331
16B78
331
16B80
331
16B81
331
1757B
331
1757C
331
17584
331
17585
331
1758D
331
1758E
331
17598
331
17599
331
175AC
331
175AD
331
175BF
331
175C0
331
175C9
331
175CA
331
17661
331
17662
331
1766C
331
1766D
331
17677
331
17678
331
17680
331
17681
331
178FB
331
178FC
331
1793F
331
17940
331
17948
331
17949
331
17966
331
17967
331
17972
331
17973
102
}
  0
BLOCK_RECORD
  5
164C6
330
7466
100
AcDbSymbolTableRecord
100
AcDbBlockTableRecord
  2
*D1
340
0
  0
BLOCK_RECORD
  5
164D2
330
7466
100
AcDbSymbolTableRecord
100
AcDbBlockTableRecord
  2
*D2
340
0
  0
BLOCK_RECORD
  5
164F6
330
7466
100
AcDbSymbolTableRecord
100
AcDbBlockTableRecord
  2
*D3
340
0
  0
BLOCK_RECORD
  5
16501
330
7466
100
AcDbSymbolTableRecord
100
AcDbBlockTableRecord
  2
*D4
340
0
  0
BLOCK_RECORD
  5
1650D
330
7466
100
AcDbSymbolTableRecord
100
AcDbBlockTableRecord
  2
*D5
340
0
  0
BLOCK_RECORD
  5
1651B
330
7466
100
AcDbSymbolTableRecord
100
AcDbBlockTableRecord
  2
*D6
340
0
  0
BLOCK_RECORD
  5
1652A
330
7466
100
AcDbSymbolTableRecord
100
AcDbBlockTableRecord
  2
*D7
340
0
  0
BLOCK_RECORD
  5
16539
330
7466
100
AcDbSymbolTableRecord
100
AcDbBlockTableRecord
  2
*D8
340
0
  0
BLOCK_RECORD
  5
16547
330
7466
100
AcDbSymbolTableRecord
100
AcDbBlockTableRecord
  2
*D9
340
0
  0
BLOCK_RECORD
  5
16555
330
7466
100
AcDbSymbolTableRecord
100
AcDbBlockTableRecord
  2
*D10
340
0
  0
BLOCK_RECORD
  5
16561
330
7466
100
AcDbSymbolTableRecord
100
AcDbBlockTableRecord
  2
*D11
340
0
  0
BLOCK_RECORD
  5
1656F
330
7466
100
AcDbSymbolTableRecord
100
AcDbBlockTableRecord
  2
*D12
340
0
  0
BLOCK_RECORD
  5
1657D
330
7466
100
AcDbSymbolTableRecord
100
AcDbBlockTableRecord
  2
*D13
340
0
  0
BLOCK_RECORD
  5
17163
330
7466
100
AcDbSymbolTableRecord
100
AcDbBlockTableRecord
  2
*D14
340
0
  0
BLOCK_RECORD
  5
17170
330
7466
100
AcDbSymbolTableRecord
100
AcDbBlockTableRecord
  2
*D15
340
0
  0
BLOCK_RECORD
  5
1717D
330
7466
100
AcDbSymbolTableRecord
100
AcDbBlockTableRecord
  2
*D16
340
0
  0
BLOCK_RECORD
  5
17189
330
7466
100
AcDbSymbolTableRecord
100
AcDbBlockTableRecord
  2
*D17
340
0
  0
BLOCK_RECORD
  5
17197
330
7466
100
AcDbSymbolTableRecord
100
AcDbBlockTableRecord
  2
*D18
340
0
  0
BLOCK_RECORD
  5
171A3
330
7466
100
AcDbSymbolTableRecord
100
AcDbBlockTableRecord
  2
*D19
340
0
  0
BLOCK_RECORD
  5
171B1
330
7466
100
AcDbSymbolTableRecord
100
AcDbBlockTableRecord
  2
*D20
340
0
  0
BLOCK_RECORD
  5
171BD
330
7466
100
AcDbSymbolTableRecord
100
AcDbBlockTableRecord
  2
*D21
340
0
  0
BLOCK_RECORD
  5
171C9
330
7466
100
AcDbSymbolTableRecord
100
AcDbBlockTableRecord
  2
*D22
340
0
  0
BLOCK_RECORD
  5
1762A
330
7466
100
AcDbSymbolTableRecord
100
AcDbBlockTableRecord
  2
*D23
340
0
  0
BLOCK_RECORD
  5
17636
330
7466
100
AcDbSymbolTableRecord
100
AcDbBlockTableRecord
  2
*D24
340
0
  0
BLOCK_RECORD
  5
17644
330
7466
100
AcDbSymbolTableRecord
100
AcDbBlockTableRecord
  2
*D25
340
0
  0
BLOCK_RECORD
  5
17652
330
7466
100
AcDbSymbolTableRecord
100
AcDbBlockTableRecord
  2
*D26
340
0
  0
BLOCK_RECORD
  5
17839
330
7466
100
AcDbSymbolTableRecord
100
AcDbBlockTableRecord
  2
*D27
340
0
  0
BLOCK_RECORD
  5
17845
330
7466
100
AcDbSymbolTableRecord
100
AcDbBlockTableRecord
  2
*D28
340
0
  0
BLOCK_RECORD
  5
17853
330
7466
100
AcDbSymbolTableRecord
100
AcDbBlockTableRecord
  2
*D29
340
0
  0
ENDTAB
  0
ENDSEC
  0
SECTION
  2
BLOCKS
  0
BLOCK
  5
7489
330
747D
100
AcDbEntity
  8
0
100
AcDbBlockBegin
  2
*MODEL_SPACE
 70
     0
 10
0.0
 20
0.0
 30
0.0
  3
*MODEL_SPACE
  1

  0
ENDBLK
  5
748A
330
747D
100
AcDbEntity
  8
0
100
AcDbBlockEnd
  0
BLOCK
  5
7487
330
747A
100
AcDbEntity
 67
     1
  8
0
100
AcDbBlockBegin
  2
*PAPER_SPACE
 70
     0
 10
0.0
 20
0.0
 30
0.0
  3
*PAPER_SPACE
  1

  0
ENDBLK
  5
7488
330
747A
100
AcDbEntity
 67
     1
  8
0
100
AcDbBlockEnd
  0
BLOCK
  5
F771
330
F770
100
AcDbEntity
  8
0
 48
50.0
100
AcDbBlockBegin
  2
_DOTSMALL
 70
     0
 10
0.0
 20
0.0
 30
0.0
  3
_DOTSMALL
  1

  0
LWPOLYLINE
  5
F772
330
F770
100
AcDbEntity
  8
0
  6
ByBlock
 62
     0
 48
50.0
100
AcDbPolyline
 90
        2
 70
     1
 43
0.5
 10
-0.0625
 20
0.0
 42
1.0
 10
0.0625
 20
0.0
 42
1.0
  0
ENDBLK
  5
F776
330
F770
100
AcDbEntity
  8
0
 48
50.0
100
AcDbBlockEnd
  0
BLOCK
  5
16663
330
164C6
100
AcDbEntity
  8
0
 48
50.0
100
AcDbBlockBegin
  2
*D1
 70
     1
 10
0.0
 20
0.0
 30
0.0
  3
*D1
  1

  0
LINE
  5
16B7D
330
164C6
100
AcDbEntity
  8
寸法
 62
     0
 48
50.0
370
    -2
100
AcDbLine
 10
6446.506566978178
 20
9928.326626276241
 30
0.0
 11
7499.039854452224
 21
9928.326626276241
 31
0.0
  0
LINE
  5
16B7E
330
164C6
100
AcDbEntity
  8
寸法
 62
     0
 48
50.0
370
    -2
100
AcDbLine
 10
6446.506566978152
 20
7298.326626276234
 30
0.0
 11
7499.039854452224
 21
7298.326626276234
 31
0.0
  0
LINE
  5
16B7F
330
164C6
100
AcDbEntity
  8
寸法
 62
     0
 48
50.0
370
    -2
100
AcDbLine
 10
7439.039854452222
 20
9928.326626276241
 30
0.0
 11
7439.039854452222
 21
7298.326626276234
 31
0.0
  0
INSERT
  5
16B80
330
164C6
100
AcDbEntity
  8
寸法
 62
     0
 48
50.0
370
    -2
100
AcDbBlockReference
  2
_DOTSMALL
 10
7439.039854452222
 20
9928.326626276241
 30
0.0
 41
100.0
 42
100.0
 43
100.0
 50
90.0
  0
INSERT
  5
16B81
330
164C6
100
AcDbEntity
  8
寸法
 62
     0
 48
50.0
370
    -2
100
AcDbBlockReference
  2
_DOTSMALL
 10
7439.039854452222
 20
7298.326626276234
 30
0.0
 41
100.0
 42
100.0
 43
100.0
 50
270.0
  0
MTEXT
  5
16B82
330
164C6
100
AcDbEntity
  8
寸法
 62
     7
 48
50.0
100
AcDbMText
 10
7339.028043428601
 20
8613.326626276238
 30
0.0
 40
120.0
 41
0.0
 71
     5
 72
     1
  1
\A1;2630
  7
STYLE1
 11
0.0000000000000001
 21
1.0
 31
0.0
 73
     1
 44
1.0
1001
ACAD
1000
MTEXTBEGIN
1070
    73
1070
     1
1070
    44
1040
1.0
1070
    74
1070
     0
1000
MTEXTEND
  0
POINT
  5
16B83
330
164C6
100
AcDbEntity
  8
DEFPOINTS
 62
     0
 48
50.0
100
AcDbPoint
 10
6426.506566978178
 20
9928.326626276241
 30
0.0
  0
POINT
  5
16B84
330
164C6
100
AcDbEntity
  8
DEFPOINTS
 62
     0
 48
50.0
100
AcDbPoint
 10
6426.506566978152
 20
7298.326626276234
 30
0.0
  0
POINT
  5
16B85
330
164C6
100
AcDbEntity
  8
DEFPOINTS
 62
     0
 48
50.0
100
AcDbPoint
 10
7439.039854452222
 20
7298.326626276234
 30
0.0
  0
ENDBLK
  5
1666D
330
164C6
100
AcDbEntity
  8
0
 48
50.0
100
AcDbBlockEnd
  0
BLOCK
  5
1666E
330
164D2
100
AcDbEntity
  8
0
 48
50.0
100
AcDbBlockBegin
  2
*D2
 70
     1
 10
0.0
 20
0.0
 30
0.0
  3
*D2
  1

  0
LINE
  5
16B74
330
164D2
100
AcDbEntity
  8
寸法
 62
     0
 48
50.0
370
    -2
100
AcDbLine
 10
6446.506566978178
 20
9873.326626276245
 30
0.0
 11
7133.932912712587
 21
9873.326626276245
 31
0.0
  0
LINE
  5
16B75
330
164D2
100
AcDbEntity
  8
寸法
 62
     0
 48
50.0
370
    -2
100
AcDbLine
 10
6446.506566978152
 20
7353.32662627623
 30
0.0
 11
7133.932912712587
 21
7353.32662627623
 31
0.0
  0
LINE
  5
16B76
330
164D2
100
AcDbEntity
  8
寸法
 62
     0
 48
50.0
370
    -2
100
AcDbLine
 10
7073.932912712587
 20
9873.326626276245
 30
0.0
 11
7073.932912712587
 21
7353.32662627623
 31
0.0
  0
INSERT
  5
16B77
330
164D2
100
AcDbEntity
  8
寸法
 62
     0
 48
50.0
370
    -2
100
AcDbBlockReference
  2
_DOTSMALL
 10
7073.932912712587
 20
9873.326626276245
 30
0.0
 41
100.0
 42
100.0
 43
100.0
 50
90.0
  0
INSERT
  5
16B78
330
164D2
100
AcDbEntity
  8
寸法
 62
     0
 48
50.0
370
    -2
100
AcDbBlockReference
  2
_DOTSMALL
 10
7073.932912712587
 20
7353.32662627623
 30
0.0
 41
100.0
 42
100.0
 43
100.0
 50
270.0
  0
MTEXT
  5
16B79
330
164D2
100
AcDbEntity
  8
寸法
 62
     7
 48
50.0
100
AcDbMText
 10
6973.921101688964
 20
8613.326626276238
 30
0.0
 40
120.0
 41
0.0
 71
     5
 72
     1
  1
\A1;6X420=2520
  7
STYLE1
 11
0.0000000000000001
 21
1.0
 31
0.0
 73
     1
 44
1.0
1001
ACAD
1000
MTEXTBEGIN
1070
    73
1070
     1
1070
    44
1040
1.0
1070
    74
1070
     0
1000
MTEXTEND
  0
POINT
  5
16B7A
330
164D2
100
AcDbEntity
  8
DEFPOINTS
 62
     0
 48
50.0
100
AcDbPoint
 10
6426.506566978178
 20
9873.326626276245
 30
0.0
  0
POINT
  5
16B7B
330
164D2
100
AcDbEntity
  8
DEFPOINTS
 62
     0
 48
50.0
100
AcDbPoint
 10
6426.506566978152
 20
7353.32662627623
 30
0.0
  0
POINT
  5
16B7C
330
164D2
100
AcDbEntity
  8
DEFPOINTS
 62
     0
 48
50.0
100
AcDbPoint
 10
7073.932912712587
 20
7353.32662627623
 30
0.0
  0
ENDBLK
  5
16678
330
164D2
100
AcDbEntity
  8
0
 48
50.0
100
AcDbBlockEnd
  0
BLOCK
  5
165C3
330
164F6
100
AcDbEntity
  8
0
 48
50.0
100
AcDbBlockBegin
  2
*D3
 70
     1
 10
0.0
 20
0.0
 30
0.0
  3
*D3
  1

  0
LINE
  5
16B6C
330
164F6
100
AcDbEntity
  8
寸法
 62
     0
 48
50.0
370
    -2
100
AcDbLine
 10
4739.50656697817
 20
7304.326626276142
 30
0.0
 11
4739.50656697817
 21
6703.895855509978
 31
0.0
  0
LINE
  5
16B6D
330
164F6
100
AcDbEntity
  8
寸法
 62
     0
 48
50.0
370
    -2
100
AcDbLine
 10
6323.506566978153
 20
6763.895855509978
 30
0.0
 11
4739.50656697817
 21
6763.895855509978
 31
0.0
  0
INSERT
  5
16B6E
330
164F6
100
AcDbEntity
  8
寸法
 62
     0
 48
50.0
370
    -2
100
AcDbBlockReference
  2
_DOTSMALL
 10
6323.506566978153
 20
6763.895855509978
 30
0.0
 41
100.0
 42
100.0
 43
100.0
  0
INSERT
  5
16B6F
330
164F6
100
AcDbEntity
  8
寸法
 62
     0
 48
50.0
370
    -2
100
AcDbBlockReference
  2
_DOTSMALL
 10
4739.50656697817
 20
6763.895855509978
 30
0.0
 41
100.0
 42
100.0
 43
100.0
 50
180.0
  0
MTEXT
  5
16B70
330
164F6
100
AcDbEntity
  8
寸法
 62
     7
 48
50.0
100
AcDbMText
 10
5531.506566978162
 20
6963.895855509978
 30
0.0
 40
120.0
 41
0.0
 71
     5
 72
     1
  1
\A1;有効開口部間口\P1584
  7
STYLE1
 73
     1
 44
1.0
1001
ACAD
1000
MTEXTBEGIN
1070
    73
1070
     1
1070
    44
1040
1.0
1070
    74
1070
     0
1000
MTEXTEND
  0
POINT
  5
16B71
330
164F6
100
AcDbEntity
  8
DEFPOINTS
 62
     0
 48
50.0
100
AcDbPoint
 10
6323.506566978153
 20
7324.326626276143
 30
0.0
  0
POINT
  5
16B72
330
164F6
100
AcDbEntity
  8
DEFPOINTS
 62
     0
 48
50.0
100
AcDbPoint
 10
4739.50656697817
 20
7324.326626276143
 30
0.0
  0
POINT
  5
16B73
330
164F6
100
AcDbEntity
  8
DEFPOINTS
 62
     0
 48
50.0
100
AcDbPoint
 10
4739.50656697817
 20
6763.895855509978
 30
0.0
  0
ENDBLK
  5
165CC
330
164F6
100
AcDbEntity
  8
0
 48
50.0
100
AcDbBlockEnd
  0
BLOCK
  5
165CD
330
16501
100
AcDbEntity
  8
0
 48
50.0
100
AcDbBlockBegin
  2
*D4
 70
     1
 10
0.0
 20
0.0
 30
0.0
  3
*D4
  1

  0
LINE
  5
16B63
330
16501
100
AcDbEntity
  8
寸法
 62
     0
 48
50.0
370
    -2
100
AcDbLine
 10
4636.50656697817
 20
7278.32662627607
 30
0.0
 11
4636.50656697817
 21
6417.722859919104
 31
0.0
  0
LINE
  5
16B64
330
16501
100
AcDbEntity
  8
寸法
 62
     0
 48
50.0
370
    -2
100
AcDbLine
 10
6426.506566978152
 20
7278.326626276196
 30
0.0
 11
6426.506566978152
 21
6417.722859919104
 31
0.0
  0
LINE
  5
16B65
330
16501
100
AcDbEntity
  8
寸法
 62
     0
 48
50.0
370
    -2
100
AcDbLine
 10
4636.50656697817
 20
6477.722859919103
 30
0.0
 11
6426.506566978152
 21
6477.722859919103
 31
0.0
  0
INSERT
  5
16B66
330
16501
100
AcDbEntity
  8
寸法
 62
     0
 48
50.0
370
    -2
100
AcDbBlockReference
  2
_DOTSMALL
 10
4636.50656697817
 20
6477.722859919103
 30
0.0
 41
100.0
 42
100.0
 43
100.0
 50
180.0
  0
INSERT
  5
16B67
330
16501
100
AcDbEntity
  8
寸法
 62
     0
 48
50.0
370
    -2
100
AcDbBlockReference
  2
_DOTSMALL
 10
6426.506566978152
 20
6477.722859919103
 30
0.0
 41
100.0
 42
100.0
 43
100.0
  0
MTEXT
  5
16B68
330
16501
100
AcDbEntity
  8
寸法
 62
     7
 48
50.0
100
AcDbMText
 10
5531.506566978162
 20
6577.722859919103
 30
0.0
 40
120.0
 41
0.0
 71
     5
 72
     1
  1
\A1;1790
  7
STYLE1
 73
     1
 44
1.0
1001
ACAD
1000
MTEXTBEGIN
1070
    73
1070
     1
1070
    44
1040
1.0
1070
    74
1070
     0
1000
MTEXTEND
  0
POINT
  5
16B69
330
16501
100
AcDbEntity
  8
DEFPOINTS
 62
     0
 48
50.0
100
AcDbPoint
 10
4636.50656697817
 20
7298.326626276069
 30
0.0
  0
POINT
  5
16B6A
330
16501
100
AcDbEntity
  8
DEFPOINTS
 62
     0
 48
50.0
100
AcDbPoint
 10
6426.506566978152
 20
7298.326626276197
 30
0.0
  0
POINT
  5
16B6B
330
16501
100
AcDbEntity
  8
DEFPOINTS
 62
     0
 48
50.0
100
AcDbPoint
 10
6426.506566978152
 20
6477.722859919103
 30
0.0
  0
ENDBLK
  5
165D7
330
16501
100
AcDbEntity
  8
0
 48
50.0
100
AcDbBlockEnd
  0
BLOCK
  5
165D8
330
1650D
100
AcDbEntity
  8
0
 48
50.0
100
AcDbBlockBegin
  2
*D5
 70
     1
 10
0.0
 20
0.0
 30
0.0
  3
*D5
  1

  0
LINE
  5
16B58
330
1650D
100
AcDbEntity
  8
寸法
 62
     0
 48
50.0
370
    -2
100
AcDbLine
 10
4691.506566978167
 20
7278.326626276141
 30
0.0
 11
4691.506566978167
 21
6703.895855509978
 31
0.0
  0
LINE
  5
16B59
330
1650D
100
AcDbEntity
  8
寸法
 62
     0
 48
50.0
370
    -2
100
AcDbLine
 10
4636.50656697817
 20
7278.326626276139
 30
0.0
 11
4636.50656697817
 21
6703.895855509978
 31
0.0
  0
LINE
  5
16B5A
330
1650D
100
AcDbEntity
  8
寸法
 62
     0
 48
50.0
370
    -2
100
AcDbLine
 10
4691.506566978167
 20
6763.895855509978
 30
0.0
 11
4791.506566978166
 21
6763.895855509978
 31
0.0
  0
LINE
  5
16B5B
330
1650D
100
AcDbEntity
  8
寸法
 62
     0
 48
50.0
370
    -2
100
AcDbLine
 10
4636.50656697817
 20
6763.895855509978
 30
0.0
 11
4219.536004229693
 21
6763.895855509978
 31
0.0
  0
LINE
  5
16B5C
330
1650D
100
AcDbEntity
  8
寸法
 62
     0
 48
50.0
370
    -2
100
AcDbLine
 10
4691.506566978167
 20
6763.895855509978
 30
0.0
 11
4636.50656697817
 21
6763.895855509978
 31
0.0
  0
INSERT
  5
16B5D
330
1650D
100
AcDbEntity
  8
寸法
 62
     0
 48
50.0
370
    -2
100
AcDbBlockReference
  2
_DOTSMALL
 10
4691.506566978167
 20
6763.895855509978
 30
0.0
 41
100.0
 42
100.0
 43
100.0
 50
180.0
  0
INSERT
  5
16B5E
330
1650D
100
AcDbEntity
  8
寸法
 62
     0
 48
50.0
370
    -2
100
AcDbBlockReference
  2
_DOTSMALL
 10
4636.50656697817
 20
6763.895855509978
 30
0.0
 41
100.0
 42
100.0
 43
100.0
  0
MTEXT
  5
16B5F
330
1650D
100
AcDbEntity
  8
寸法
 62
     7
 48
50.0
100
AcDbMText
 10
4328.021285603933
 20
6863.895855509977
 30
0.0
 40
120.0
 41
0.0
 71
     5
 72
     1
  1
\A1;55
  7
STYLE1
 73
     1
 44
1.0
1001
ACAD
1000
MTEXTBEGIN
1070
    73
1070
     1
1070
    44
1040
1.0
1070
    74
1070
     0
1000
MTEXTEND
  0
POINT
  5
16B60
330
1650D
100
AcDbEntity
  8
DEFPOINTS
 62
     0
 48
50.0
100
AcDbPoint
 10
4691.506566978167
 20
7298.326626276142
 30
0.0
  0
POINT
  5
16B61
330
1650D
100
AcDbEntity
  8
DEFPOINTS
 62
     0
 48
50.0
100
AcDbPoint
 10
4636.50656697817
 20
7298.326626276139
 30
0.0
  0
POINT
  5
16B62
330
1650D
100
AcDbEntity
  8
DEFPOINTS
 62
     0
 48
50.0
100
AcDbPoint
 10
4636.50656697817
 20
6763.895855509978
 30
0.0
  0
ENDBLK
  5
165E4
330
1650D
100
AcDbEntity
  8
0
 48
50.0
100
AcDbBlockEnd
  0
BLOCK
  5
165E5
330
1651B
100
AcDbEntity
  8
0
 48
50.0
100
AcDbBlockBegin
  2
*D6
 70
     1
 10
0.0
 20
0.0
 30
0.0
  3
*D6
  1

  0
LINE
  5
16B4D
330
1651B
100
AcDbEntity
  8
寸法
 62
     0
 48
50.0
370
    -2
100
AcDbLine
 10
4739.50656697817
 20
7304.326626276142
 30
0.0
 11
4739.50656697817
 21
6703.895855509978
 31
0.0
  0
LINE
  5
16B4E
330
1651B
100
AcDbEntity
  8
寸法
 62
     0
 48
50.0
370
    -2
100
AcDbLine
 10
4691.506566978167
 20
7278.326626276141
 30
0.0
 11
4691.506566978167
 21
6703.895855509978
 31
0.0
  0
LINE
  5
16B4F
330
1651B
100
AcDbEntity
  8
寸法
 62
     0
 48
50.0
370
    -2
100
AcDbLine
 10
4739.50656697817
 20
6763.895855509978
 30
0.0
 11
4839.506566978171
 21
6763.895855509978
 31
0.0
  0
LINE
  5
16B50
330
1651B
100
AcDbEntity
  8
寸法
 62
     0
 48
50.0
370
    -2
100
AcDbLine
 10
4691.506566978167
 20
6763.895855509978
 30
0.0
 11
4591.506566978167
 21
6763.895855509978
 31
0.0
  0
MTEXT
  5
16B51
330
1651B
100
AcDbEntity
  8
寸法
 62
     7
 48
50.0
100
AcDbMText
 10
4852.408537978228
 20
6863.895855509977
 30
0.0
 40
120.0
 41
0.0
 71
     5
 72
     1
  1
\A1;48
  7
STYLE1
 73
     1
 44
1.0
1001
ACAD
1000
MTEXTBEGIN
1070
    73
1070
     1
1070
    44
1040
1.0
1070
    74
1070
     0
1000
MTEXTEND
  0
LINE
  5
16B52
330
1651B
100
AcDbEntity
  8
寸法
 62
     0
 48
50.0
370
    -2
100
AcDbLine
 10
4739.50656697817
 20
6763.895855509978
 30
0.0
 11
4691.506566978167
 21
6763.895855509978
 31
0.0
  0
INSERT
  5
16B53
330
1651B
100
AcDbEntity
  8
寸法
 62
     0
 48
50.0
370
    -2
100
AcDbBlockReference
  2
_DOTSMALL
 10
4739.50656697817
 20
6763.895855509978
 30
0.0
 41
100.0
 42
100.0
 43
100.0
 50
180.0
  0
INSERT
  5
16B54
330
1651B
100
AcDbEntity
  8
寸法
 62
     0
 48
50.0
370
    -2
100
AcDbBlockReference
  2
_DOTSMALL
 10
4691.506566978167
 20
6763.895855509978
 30
0.0
 41
100.0
 42
100.0
 43
100.0
  0
POINT
  5
16B55
330
1651B
100
AcDbEntity
  8
DEFPOINTS
 62
     0
 48
50.0
100
AcDbPoint
 10
4739.50656697817
 20
7324.326626276143
 30
0.0
  0
POINT
  5
16B56
330
1651B
100
AcDbEntity
  8
DEFPOINTS
 62
     0
 48
50.0
100
AcDbPoint
 10
4691.506566978167
 20
7298.326626276142
 30
0.0
  0
POINT
  5
16B57
330
1651B
100
AcDbEntity
  8
DEFPOINTS
 62
     0
 48
50.0
100
AcDbPoint
 10
4691.506566978167
 20
6763.895855509978
 30
0.0
  0
ENDBLK
  5
165F2
330
1651B
100
AcDbEntity
  8
0
 48
50.0
100
AcDbBlockEnd
  0
BLOCK
  5
165F3
330
1652A
100
AcDbEntity
  8
0
 48
50.0
100
AcDbBlockBegin
  2
*D7
 70
     1
 10
0.0
 20
0.0
 30
0.0
  3
*D7
  1

  0
LINE
  5
16B42
330
1652A
100
AcDbEntity
  8
寸法
 62
     0
 48
50.0
370
    -2
100
AcDbLine
 10
6371.506566978155
 20
7278.326626276229
 30
0.0
 11
6371.506566978155
 21
6703.895855509978
 31
0.0
  0
LINE
  5
16B43
330
1652A
100
AcDbEntity
  8
寸法
 62
     0
 48
50.0
370
    -2
100
AcDbLine
 10
6323.506566978153
 20
7304.326626276143
 30
0.0
 11
6323.506566978153
 21
6703.895855509978
 31
0.0
  0
LINE
  5
16B44
330
1652A
100
AcDbEntity
  8
寸法
 62
     0
 48
50.0
370
    -2
100
AcDbLine
 10
6371.506566978155
 20
6763.895855509978
 30
0.0
 11
6471.506566978153
 21
6763.895855509978
 31
0.0
  0
LINE
  5
16B45
330
1652A
100
AcDbEntity
  8
寸法
 62
     0
 48
50.0
370
    -2
100
AcDbLine
 10
6323.506566978153
 20
6763.895855509978
 30
0.0
 11
6223.506566978152
 21
6763.895855509978
 31
0.0
  0
MTEXT
  5
16B46
330
1652A
100
AcDbEntity
  8
寸法
 62
     7
 48
50.0
100
AcDbMText
 10
6212.543669329405
 20
6863.895855509977
 30
0.0
 40
120.0
 41
0.0
 71
     5
 72
     1
  1
\A1;48
  7
STYLE1
 73
     1
 44
1.0
1001
ACAD
1000
MTEXTBEGIN
1070
    73
1070
     1
1070
    44
1040
1.0
1070
    74
1070
     0
1000
MTEXTEND
  0
LINE
  5
16B47
330
1652A
100
AcDbEntity
  8
寸法
 62
     0
 48
50.0
370
    -2
100
AcDbLine
 10
6371.506566978155
 20
6763.895855509978
 30
0.0
 11
6323.506566978153
 21
6763.895855509978
 31
0.0
  0
INSERT
  5
16B48
330
1652A
100
AcDbEntity
  8
寸法
 62
     0
 48
50.0
370
    -2
100
AcDbBlockReference
  2
_DOTSMALL
 10
6371.506566978155
 20
6763.895855509978
 30
0.0
 41
100.0
 42
100.0
 43
100.0
 50
180.0
  0
INSERT
  5
16B49
330
1652A
100
AcDbEntity
  8
寸法
 62
     0
 48
50.0
370
    -2
100
AcDbBlockReference
  2
_DOTSMALL
 10
6323.506566978153
 20
6763.895855509978
 30
0.0
 41
100.0
 42
100.0
 43
100.0
  0
POINT
  5
16B4A
330
1652A
100
AcDbEntity
  8
DEFPOINTS
 62
     0
 48
50.0
100
AcDbPoint
 10
6371.506566978155
 20
7298.32662627623
 30
0.0
  0
POINT
  5
16B4B
330
1652A
100
AcDbEntity
  8
DEFPOINTS
 62
     0
 48
50.0
100
AcDbPoint
 10
6323.506566978153
 20
7324.326626276143
 30
0.0
  0
POINT
  5
16B4C
330
1652A
100
AcDbEntity
  8
DEFPOINTS
 62
     0
 48
50.0
100
AcDbPoint
 10
6323.506566978153
 20
6763.895855509978
 30
0.0
  0
ENDBLK
  5
16600
330
1652A
100
AcDbEntity
  8
0
 48
50.0
100
AcDbBlockEnd
  0
BLOCK
  5
16601
330
16539
100
AcDbEntity
  8
0
 48
50.0
100
AcDbBlockBegin
  2
*D8
 70
     1
 10
0.0
 20
0.0
 30
0.0
  3
*D8
  1

  0
LINE
  5
16B37
330
16539
100
AcDbEntity
  8
寸法
 62
     0
 48
50.0
370
    -2
100
AcDbLine
 10
6426.506566978152
 20
7278.326626276234
 30
0.0
 11
6426.506566978152
 21
6703.89585550998
 31
0.0
  0
LINE
  5
16B38
330
16539
100
AcDbEntity
  8
寸法
 62
     0
 48
50.0
370
    -2
100
AcDbLine
 10
6371.506566978155
 20
7278.326626276229
 30
0.0
 11
6371.506566978155
 21
6703.89585550998
 31
0.0
  0
LINE
  5
16B39
330
16539
100
AcDbEntity
  8
寸法
 62
     0
 48
50.0
370
    -2
100
AcDbLine
 10
6371.506566978155
 20
6763.895855509979
 30
0.0
 11
6271.506566978154
 21
6763.895855509979
 31
0.0
  0
LINE
  5
16B3A
330
16539
100
AcDbEntity
  8
寸法
 62
     0
 48
50.0
370
    -2
100
AcDbLine
 10
6426.506566978152
 20
6763.895855509979
 30
0.0
 11
6843.477129726629
 21
6763.895855509979
 31
0.0
  0
LINE
  5
16B3B
330
16539
100
AcDbEntity
  8
寸法
 62
     0
 48
50.0
370
    -2
100
AcDbLine
 10
6371.506566978155
 20
6763.895855509979
 30
0.0
 11
6426.506566978152
 21
6763.895855509979
 31
0.0
  0
INSERT
  5
16B3C
330
16539
100
AcDbEntity
  8
寸法
 62
     0
 48
50.0
370
    -2
100
AcDbBlockReference
  2
_DOTSMALL
 10
6371.506566978155
 20
6763.895855509979
 30
0.0
 41
100.0
 42
100.0
 43
100.0
  0
INSERT
  5
16B3D
330
16539
100
AcDbEntity
  8
寸法
 62
     0
 48
50.0
370
    -2
100
AcDbBlockReference
  2
_DOTSMALL
 10
6426.506566978152
 20
6763.895855509979
 30
0.0
 41
100.0
 42
100.0
 43
100.0
 50
180.0
  0
MTEXT
  5
16B3E
330
16539
100
AcDbEntity
  8
寸法
 62
     7
 48
50.0
100
AcDbMText
 10
6734.99184835239
 20
6863.895855509979
 30
0.0
 40
120.0
 41
0.0
 71
     5
 72
     1
  1
\A1;55
  7
STYLE1
 73
     1
 44
1.0
1001
ACAD
1000
MTEXTBEGIN
1070
    73
1070
     1
1070
    44
1040
1.0
1070
    74
1070
     0
1000
MTEXTEND
  0
POINT
  5
16B3F
330
16539
100
AcDbEntity
  8
DEFPOINTS
 62
     0
 48
50.0
100
AcDbPoint
 10
6426.506566978152
 20
7298.326626276234
 30
0.0
  0
POINT
  5
16B40
330
16539
100
AcDbEntity
  8
DEFPOINTS
 62
     0
 48
50.0
100
AcDbPoint
 10
6371.506566978155
 20
7298.32662627623
 30
0.0
  0
POINT
  5
16B41
330
16539
100
AcDbEntity
  8
DEFPOINTS
 62
     0
 48
50.0
100
AcDbPoint
 10
6371.506566978155
 20
6763.895855509979
 30
0.0
  0
ENDBLK
  5
1660D
330
16539
100
AcDbEntity
  8
0
 48
50.0
100
AcDbBlockEnd
  0
BLOCK
  5
1660E
330
16547
100
AcDbEntity
  8
0
 48
50.0
100
AcDbBlockBegin
  2
*D9
 70
     1
 10
0.0
 20
0.0
 30
0.0
  3
*D9
  1

  0
LINE
  5
16B2C
330
16547
100
AcDbEntity
  8
寸法
 62
     0
 48
50.0
370
    -2
100
AcDbLine
 10
6446.506566978152
 20
7353.32662627623
 30
0.0
 11
7133.932912712563
 21
7353.32662627623
 31
0.0
  0
LINE
  5
16B2D
330
16547
100
AcDbEntity
  8
寸法
 62
     0
 48
50.0
370
    -2
100
AcDbLine
 10
6446.506566978152
 20
7298.326626276234
 30
0.0
 11
7133.932912712563
 21
7298.326626276234
 31
0.0
  0
LINE
  5
16B2E
330
16547
100
AcDbEntity
  8
寸法
 62
     0
 48
50.0
370
    -2
100
AcDbLine
 10
7073.932912712564
 20
7353.32662627623
 30
0.0
 11
7073.932912712564
 21
7453.326626276229
 31
0.0
  0
LINE
  5
16B2F
330
16547
100
AcDbEntity
  8
寸法
 62
     0
 48
50.0
370
    -2
100
AcDbLine
 10
7073.932912712564
 20
7298.326626276234
 30
0.0
 11
7073.932912712564
 21
6811.979877997131
 31
0.0
  0
LINE
  5
16B30
330
16547
100
AcDbEntity
  8
寸法
 62
     0
 48
50.0
370
    -2
100
AcDbLine
 10
7073.932912712564
 20
7353.32662627623
 30
0.0
 11
7073.932912712564
 21
7298.326626276234
 31
0.0
  0
INSERT
  5
16B31
330
16547
100
AcDbEntity
  8
寸法
 62
     0
 48
50.0
370
    -2
100
AcDbBlockReference
  2
_DOTSMALL
 10
7073.932912712564
 20
7353.32662627623
 30
0.0
 41
100.0
 42
100.0
 43
100.0
 50
270.0
  0
INSERT
  5
16B32
330
16547
100
AcDbEntity
  8
寸法
 62
     0
 48
50.0
370
    -2
100
AcDbBlockReference
  2
_DOTSMALL
 10
7073.932912712564
 20
7298.326626276234
 30
0.0
 41
100.0
 42
100.0
 43
100.0
 50
90.0
  0
MTEXT
  5
16B33
330
16547
100
AcDbEntity
  8
寸法
 62
     7
 48
50.0
100
AcDbMText
 10
6973.932912712562
 20
6920.465159371372
 30
0.0
 40
120.0
 41
0.0
 71
     5
 72
     1
  1
\A1;55
  7
STYLE1
 11
0.0000000000000001
 21
1.0
 31
0.0
 73
     1
 44
1.0
1001
ACAD
1000
MTEXTBEGIN
1070
    73
1070
     1
1070
    44
1040
1.0
1070
    74
1070
     0
1000
MTEXTEND
  0
POINT
  5
16B34
330
16547
100
AcDbEntity
  8
DEFPOINTS
 62
     0
 48
50.0
100
AcDbPoint
 10
6426.506566978152
 20
7353.32662627623
 30
0.0
  0
POINT
  5
16B35
330
16547
100
AcDbEntity
  8
DEFPOINTS
 62
     0
 48
50.0
100
AcDbPoint
 10
6426.506566978152
 20
7298.326626276234
 30
0.0
  0
POINT
  5
16B36
330
16547
100
AcDbEntity
  8
DEFPOINTS
 62
     0
 48
50.0
100
AcDbPoint
 10
7073.932912712564
 20
7298.326626276234
 30
0.0
  0
ENDBLK
  5
1661A
330
16547
100
AcDbEntity
  8
0
 48
50.0
100
AcDbBlockEnd
  0
BLOCK
  5
1661B
330
16555
100
AcDbEntity
  8
0
 48
50.0
100
AcDbBlockBegin
  2
*D10
 70
     1
 10
0.0
 20
0.0
 30
0.0
  3
*D10
  1

  0
LINE
  5
16B23
330
16555
100
AcDbEntity
  8
寸法
 62
     0
 48
50.0
370
    -2
100
AcDbLine
 10
4691.506566978176
 20
9948.326626276147
 30
0.0
 11
4691.506566978176
 21
10204.13484590124
 31
0.0
  0
LINE
  5
16B24
330
16555
100
AcDbEntity
  8
寸法
 62
     0
 48
50.0
370
    -2
100
AcDbLine
 10
6371.506566978178
 20
9948.326626276241
 30
0.0
 11
6371.506566978178
 21
10204.13484590124
 31
0.0
  0
LINE
  5
16B25
330
16555
100
AcDbEntity
  8
寸法
 62
     0
 48
50.0
370
    -2
100
AcDbLine
 10
4691.506566978176
 20
10144.13484590124
 30
0.0
 11
6371.506566978178
 21
10144.13484590124
 31
0.0
  0
INSERT
  5
16B26
330
16555
100
AcDbEntity
  8
寸法
 62
     0
 48
50.0
370
    -2
100
AcDbBlockReference
  2
_DOTSMALL
 10
4691.506566978176
 20
10144.13484590124
 30
0.0
 41
100.0
 42
100.0
 43
100.0
 50
180.0
  0
INSERT
  5
16B27
330
16555
100
AcDbEntity
  8
寸法
 62
     0
 48
50.0
370
    -2
100
AcDbBlockReference
  2
_DOTSMALL
 10
6371.506566978178
 20
10144.13484590124
 30
0.0
 41
100.0
 42
100.0
 43
100.0
  0
MTEXT
  5
16B28
330
16555
100
AcDbEntity
  8
寸法
 62
     7
 48
50.0
100
AcDbMText
 10
5531.506566978178
 20
10244.14665692486
 30
0.0
 40
120.0
 41
0.0
 71
     5
 72
     1
  1
\A1;4X420=1680
  7
STYLE1
 73
     1
 44
1.0
1001
ACAD
1000
MTEXTBEGIN
1070
    73
1070
     1
1070
    44
1040
1.0
1070
    74
1070
     0
1000
MTEXTEND
  0
POINT
  5
16B29
330
16555
100
AcDbEntity
  8
DEFPOINTS
 62
     0
 48
50.0
100
AcDbPoint
 10
4691.506566978176
 20
9928.326626276145
 30
0.0
  0
POINT
  5
16B2A
330
16555
100
AcDbEntity
  8
DEFPOINTS
 62
     0
 48
50.0
100
AcDbPoint
 10
6371.506566978178
 20
9928.326626276241
 30
0.0
  0
POINT
  5
16B2B
330
16555
100
AcDbEntity
  8
DEFPOINTS
 62
     0
 48
50.0
100
AcDbPoint
 10
6371.506566978178
 20
10144.13484590124
 30
0.0
  0
ENDBLK
  5
16625
330
16555
100
AcDbEntity
  8
0
 48
50.0
100
AcDbBlockEnd
  0
BLOCK
  5
16626
330
16561
100
AcDbEntity
  8
0
 48
50.0
100
AcDbBlockBegin
  2
*D11
 70
     1
 10
0.0
 20
0.0
 30
0.0
  3
*D11
  1

  0
LINE
  5
16B18
330
16561
100
AcDbEntity
  8
寸法
 62
     0
 48
50.0
370
    -2
100
AcDbLine
 10
4636.506566978142
 20
9948.326626276147
 30
0.0
 11
4636.506566978142
 21
10204.13484590113
 31
0.0
  0
LINE
  5
16B19
330
16561
100
AcDbEntity
  8
寸法
 62
     0
 48
50.0
370
    -2
100
AcDbLine
 10
4691.506566978176
 20
9948.326626276147
 30
0.0
 11
4691.506566978176
 21
10204.13484590113
 31
0.0
  0
LINE
  5
16B1A
330
16561
100
AcDbEntity
  8
寸法
 62
     0
 48
50.0
370
    -2
100
AcDbLine
 10
4691.506566978176
 20
10144.13484590113
 30
0.0
 11
4791.506566978177
 21
10144.13484590113
 31
0.0
  0
LINE
  5
16B1B
330
16561
100
AcDbEntity
  8
寸法
 62
     0
 48
50.0
370
    -2
100
AcDbLine
 10
4636.506566978142
 20
10144.13484590113
 30
0.0
 11
4219.536004229664
 21
10144.13484590113
 31
0.0
  0
LINE
  5
16B1C
330
16561
100
AcDbEntity
  8
寸法
 62
     0
 48
50.0
370
    -2
100
AcDbLine
 10
4691.506566978176
 20
10144.13484590113
 30
0.0
 11
4636.506566978142
 21
10144.13484590113
 31
0.0
  0
INSERT
  5
16B1D
330
16561
100
AcDbEntity
  8
寸法
 62
     0
 48
50.0
370
    -2
100
AcDbBlockReference
  2
_DOTSMALL
 10
4691.506566978176
 20
10144.13484590113
 30
0.0
 41
100.0
 42
100.0
 43
100.0
 50
180.0
  0
INSERT
  5
16B1E
330
16561
100
AcDbEntity
  8
寸法
 62
     0
 48
50.0
370
    -2
100
AcDbBlockReference
  2
_DOTSMALL
 10
4636.506566978142
 20
10144.13484590113
 30
0.0
 41
100.0
 42
100.0
 43
100.0
  0
MTEXT
  5
16B1F
330
16561
100
AcDbEntity
  8
寸法
 62
     7
 48
50.0
100
AcDbMText
 10
4328.021285603903
 20
10244.13484590113
 30
0.0
 40
120.0
 41
0.0
 71
     5
 72
     1
  1
\A1;55
  7
STYLE1
 73
     1
 44
1.0
1001
ACAD
1000
MTEXTBEGIN
1070
    73
1070
     1
1070
    44
1040
1.0
1070
    74
1070
     0
1000
MTEXTEND
  0
POINT
  5
16B20
330
16561
100
AcDbEntity
  8
DEFPOINTS
 62
     0
 48
50.0
100
AcDbPoint
 10
4636.506566978142
 20
9928.326626276145
 30
0.0
  0
POINT
  5
16B21
330
16561
100
AcDbEntity
  8
DEFPOINTS
 62
     0
 48
50.0
100
AcDbPoint
 10
4691.506566978176
 20
9928.326626276145
 30
0.0
  0
POINT
  5
16B22
330
16561
100
AcDbEntity
  8
DEFPOINTS
 62
     0
 48
50.0
100
AcDbPoint
 10
4691.506566978176
 20
10144.13484590113
 30
0.0
  0
ENDBLK
  5
16632
330
16561
100
AcDbEntity
  8
0
 48
50.0
100
AcDbBlockEnd
  0
BLOCK
  5
16633
330
1656F
100
AcDbEntity
  8
0
 48
50.0
100
AcDbBlockBegin
  2
*D12
 70
     1
 10
0.0
 20
0.0
 30
0.0
  3
*D12
  1

  0
LINE
  5
16B0D
330
1656F
100
AcDbEntity
  8
寸法
 62
     0
 48
50.0
370
    -2
100
AcDbLine
 10
6446.506566978178
 20
9928.326626276241
 30
0.0
 11
7133.932912712587
 21
9928.326626276241
 31
0.0
  0
LINE
  5
16B0E
330
1656F
100
AcDbEntity
  8
寸法
 62
     0
 48
50.0
370
    -2
100
AcDbLine
 10
6446.506566978178
 20
9873.326626276245
 30
0.0
 11
7133.932912712587
 21
9873.326626276245
 31
0.0
  0
LINE
  5
16B0F
330
1656F
100
AcDbEntity
  8
寸法
 62
     0
 48
50.0
370
    -2
100
AcDbLine
 10
7073.932912712589
 20
9873.326626276245
 30
0.0
 11
7073.932912712589
 21
9773.326626276244
 31
0.0
  0
LINE
  5
16B10
330
1656F
100
AcDbEntity
  8
寸法
 62
     0
 48
50.0
370
    -2
100
AcDbLine
 10
7073.932912712589
 20
9928.326626276241
 30
0.0
 11
7073.93291271259
 21
10345.29718902472
 31
0.0
  0
LINE
  5
16B11
330
1656F
100
AcDbEntity
  8
寸法
 62
     0
 48
50.0
370
    -2
100
AcDbLine
 10
7073.932912712589
 20
9873.326626276245
 30
0.0
 11
7073.932912712589
 21
9928.326626276241
 31
0.0
  0
INSERT
  5
16B12
330
1656F
100
AcDbEntity
  8
寸法
 62
     0
 48
50.0
370
    -2
100
AcDbBlockReference
  2
_DOTSMALL
 10
7073.932912712589
 20
9873.326626276245
 30
0.0
 41
100.0
 42
100.0
 43
100.0
 50
90.0
  0
INSERT
  5
16B13
330
1656F
100
AcDbEntity
  8
寸法
 62
     0
 48
50.0
370
    -2
100
AcDbBlockReference
  2
_DOTSMALL
 10
7073.932912712589
 20
9928.326626276241
 30
0.0
 41
100.0
 42
100.0
 43
100.0
 50
270.0
  0
MTEXT
  5
16B14
330
1656F
100
AcDbEntity
  8
寸法
 62
     7
 48
50.0
100
AcDbMText
 10
6973.932912712587
 20
10236.81190765048
 30
0.0
 40
120.0
 41
0.0
 71
     5
 72
     1
  1
\A1;55
  7
STYLE1
 11
0.0000000000000001
 21
1.0
 31
0.0
 73
     1
 44
1.0
1001
ACAD
1000
MTEXTBEGIN
1070
    73
1070
     1
1070
    44
1040
1.0
1070
    74
1070
     0
1000
MTEXTEND
  0
POINT
  5
16B15
330
1656F
100
AcDbEntity
  8
DEFPOINTS
 62
     0
 48
50.0
100
AcDbPoint
 10
6426.506566978178
 20
9928.326626276241
 30
0.0
  0
POINT
  5
16B16
330
1656F
100
AcDbEntity
  8
DEFPOINTS
 62
     0
 48
50.0
100
AcDbPoint
 10
6426.506566978178
 20
9873.326626276245
 30
0.0
  0
POINT
  5
16B17
330
1656F
100
AcDbEntity
  8
DEFPOINTS
 62
     0
 48
50.0
100
AcDbPoint
 10
7073.932912712589
 20
9873.326626276245
 30
0.0
  0
ENDBLK
  5
1663F
330
1656F
100
AcDbEntity
  8
0
 48
50.0
100
AcDbBlockEnd
  0
BLOCK
  5
16640
330
1657D
100
AcDbEntity
  8
0
 48
50.0
100
AcDbBlockBegin
  2
*D13
 70
     1
 10
0.0
 20
0.0
 30
0.0
  3
*D13
  1

  0
LINE
  5
16B02
330
1657D
100
AcDbEntity
  8
寸法
 62
     0
 48
50.0
370
    -2
100
AcDbLine
 10
6371.506566978178
 20
9948.326626276241
 30
0.0
 11
6371.506566978178
 21
10204.13484590122
 31
0.0
  0
LINE
  5
16B03
330
1657D
100
AcDbEntity
  8
寸法
 62
     0
 48
50.0
370
    -2
100
AcDbLine
 10
6426.506566978178
 20
9948.326626276241
 30
0.0
 11
6426.506566978178
 21
10204.13484590122
 31
0.0
  0
LINE
  5
16B04
330
1657D
100
AcDbEntity
  8
寸法
 62
     0
 48
50.0
370
    -2
100
AcDbLine
 10
6371.506566978178
 20
10144.13484590122
 30
0.0
 11
6271.506566978178
 21
10144.13484590122
 31
0.0
  0
LINE
  5
16B05
330
1657D
100
AcDbEntity
  8
寸法
 62
     0
 48
50.0
370
    -2
100
AcDbLine
 10
6426.506566978178
 20
10144.13484590122
 30
0.0
 11
6843.477129726655
 21
10144.13484590122
 31
0.0
  0
LINE
  5
16B06
330
1657D
100
AcDbEntity
  8
寸法
 62
     0
 48
50.0
370
    -2
100
AcDbLine
 10
6371.506566978178
 20
10144.13484590122
 30
0.0
 11
6426.506566978178
 21
10144.13484590122
 31
0.0
  0
INSERT
  5
16B07
330
1657D
100
AcDbEntity
  8
寸法
 62
     0
 48
50.0
370
    -2
100
AcDbBlockReference
  2
_DOTSMALL
 10
6371.506566978178
 20
10144.13484590122
 30
0.0
 41
100.0
 42
100.0
 43
100.0
  0
INSERT
  5
16B08
330
1657D
100
AcDbEntity
  8
寸法
 62
     0
 48
50.0
370
    -2
100
AcDbBlockReference
  2
_DOTSMALL
 10
6426.506566978178
 20
10144.13484590122
 30
0.0
 41
100.0
 42
100.0
 43
100.0
 50
180.0
  0
MTEXT
  5
16B09
330
1657D
100
AcDbEntity
  8
寸法
 62
     7
 48
50.0
100
AcDbMText
 10
6734.991848352416
 20
10244.13484590122
 30
0.0
 40
120.0
 41
0.0
 71
     5
 72
     1
  1
\A1;55
  7
STYLE1
 73
     1
 44
1.0
1001
ACAD
1000
MTEXTBEGIN
1070
    73
1070
     1
1070
    44
1040
1.0
1070
    74
1070
     0
1000
MTEXTEND
  0
POINT
  5
16B0A
330
1657D
100
AcDbEntity
  8
DEFPOINTS
 62
     0
 48
50.0
100
AcDbPoint
 10
6371.506566978178
 20
9928.326626276241
 30
0.0
  0
POINT
  5
16B0B
330
1657D
100
AcDbEntity
  8
DEFPOINTS
 62
     0
 48
50.0
100
AcDbPoint
 10
6426.506566978178
 20
9928.326626276241
 30
0.0
  0
POINT
  5
16B0C
330
1657D
100
AcDbEntity
  8
DEFPOINTS
 62
     0
 48
50.0
100
AcDbPoint
 10
6426.506566978178
 20
10144.13484590122
 30
0.0
  0
ENDBLK
  5
1664C
330
1657D
100
AcDbEntity
  8
0
 48
50.0
100
AcDbBlockEnd
  0
BLOCK
  5
1716E
330
17163
100
AcDbEntity
  8
0
 48
50.0
100
AcDbBlockBegin
  2
*D14
 70
     1
 10
0.0
 20
0.0
 30
0.0
  3
*D14
  1

  0
LINE
  5
175C5
330
17163
100
AcDbEntity
  8
寸法
 62
     0
 48
50.0
370
    -2
100
AcDbLine
 10
8993.087626658892
 20
4912.229305782924
 30
0.0
 11
8377.153187553608
 21
4929.943456057253
 31
0.0
  0
LINE
  5
175C6
330
17163
100
AcDbEntity
  8
寸法
 62
     0
 48
50.0
370
    -2
100
AcDbLine
 10
8989.034171102268
 20
4771.28758201721
 30
0.0
 11
8373.099731996981
 21
4789.001732291541
 31
0.0
  0
LINE
  5
175C7
330
17163
100
AcDbEntity
  8
寸法
 62
     0
 48
50.0
370
    -2
100
AcDbLine
 10
8433.074933599412
 20
4787.276857586593
 30
0.0
 11
8437.12838915604
 21
4928.218581352306
 31
0.0
  0
LINE
  5
175C8
330
17163
100
AcDbEntity
  8
寸法
 62
     0
 48
50.0
370
    -2
100
AcDbLine
 10
8437.12838915604
 20
4928.218581352306
 30
0.0
 11
8447.477637385723
 21
5288.069790966893
 31
0.0
  0
INSERT
  5
175C9
330
17163
100
AcDbEntity
  8
寸法
 62
     0
 48
50.0
370
    -2
100
AcDbBlockReference
  2
_DOTSMALL
 10
8433.074933599412
 20
4787.276857586593
 30
0.0
 41
100.0
 42
100.0
 43
100.0
 50
268.3526390256378
  0
INSERT
  5
175CA
330
17163
100
AcDbEntity
  8
寸法
 62
     0
 48
50.0
370
    -2
100
AcDbBlockReference
  2
_DOTSMALL
 10
8437.12838915604
 20
4928.218581352306
 30
0.0
 41
100.0
 42
100.0
 43
100.0
 50
88.35263902563776
  0
MTEXT
  5
175CB
330
17163
100
AcDbEntity
  8
寸法
 62
     7
 48
50.0
100
AcDbMText
 10
8343.781739520954
 20
5160.998312003205
 30
0.0
 40
120.0
 41
0.0
 71
     5
 72
     1
  1
\A1;141
  7
STYLE1
 11
0.0287479117491237
 21
0.9995866933738488
 31
0.0
 73
     1
 44
1.0
1001
ACAD
1000
MTEXTBEGIN
1070
    73
1070
     1
1070
    44
1040
1.0
1070
    74
1070
     0
1000
MTEXTEND
  0
POINT
  5
175CC
330
17163
100
AcDbEntity
  8
DEFPOINTS
 62
     0
 48
50.0
100
AcDbPoint
 10
9013.07936052637
 20
4911.654347547942
 30
0.0
  0
POINT
  5
175CD
330
17163
100
AcDbEntity
  8
DEFPOINTS
 62
     0
 48
50.0
100
AcDbPoint
 10
9009.025904969744
 20
4770.712623782229
 30
0.0
  0
POINT
  5
175CE
330
17163
100
AcDbEntity
  8
DEFPOINTS
 62
     0
 48
50.0
100
AcDbPoint
 10
8433.074933599412
 20
4787.276857586593
 30
0.0
  0
ENDBLK
  5
1716F
330
17163
100
AcDbEntity
  8
0
 48
50.0
100
AcDbBlockEnd
  0
BLOCK
  5
1717B
330
17170
100
AcDbEntity
  8
0
 48
50.0
100
AcDbBlockBegin
  2
*D15
 70
     1
 10
0.0
 20
0.0
 30
0.0
  3
*D15
  1

  0
LINE
  5
175BB
330
17170
100
AcDbEntity
  8
寸法
 62
     0
 48
50.0
370
    -2
100
AcDbLine
 10
11683.68334036779
 20
4879.742278324916
 30
0.0
 11
11683.68334036779
 21
5371.589052292568
 31
0.0
  0
LINE
  5
175BC
330
17170
100
AcDbEntity
  8
寸法
 62
     0
 48
50.0
370
    -2
100
AcDbLine
 10
11763.68334036779
 20
4877.931598713264
 30
0.0
 11
11763.68334036779
 21
5371.589052292568
 31
0.0
  0
LINE
  5
175BD
330
17170
100
AcDbEntity
  8
寸法
 62
     0
 48
50.0
370
    -2
100
AcDbLine
 10
11683.68334036779
 20
5311.589052292568
 30
0.0
 11
11763.68334036779
 21
5311.589052292568
 31
0.0
  0
LINE
  5
175BE
330
17170
100
AcDbEntity
  8
寸法
 62
     0
 48
50.0
370
    -2
100
AcDbLine
 10
11763.68334036779
 20
5311.589052292568
 30
0.0
 11
12075.77782855677
 21
5311.589052292568
 31
0.0
  0
INSERT
  5
175BF
330
17170
100
AcDbEntity
  8
寸法
 62
     0
 48
50.0
370
    -2
100
AcDbBlockReference
  2
_DOTSMALL
 10
11683.68334036779
 20
5311.589052292568
 30
0.0
 41
100.0
 42
100.0
 43
100.0
 50
180.0
  0
INSERT
  5
175C0
330
17170
100
AcDbEntity
  8
寸法
 62
     0
 48
50.0
370
    -2
100
AcDbBlockReference
  2
_DOTSMALL
 10
11763.68334036779
 20
5311.589052292568
 30
0.0
 41
100.0
 42
100.0
 43
100.0
  0
MTEXT
  5
175C1
330
17170
100
AcDbEntity
  8
寸法
 62
     7
 48
50.0
100
AcDbMText
 10
11969.73058446228
 20
5411.589052292568
 30
0.0
 40
120.0
 41
0.0
 71
     5
 72
     1
  1
\A1;80
  7
STYLE1
 73
     1
 44
1.0
1001
ACAD
1000
MTEXTBEGIN
1070
    73
1070
     1
1070
    44
1040
1.0
1070
    74
1070
     0
1000
MTEXTEND
  0
POINT
  5
175C2
330
17170
100
AcDbEntity
  8
DEFPOINTS
 62
     0
 48
50.0
100
AcDbPoint
 10
11683.68334036779
 20
4859.742278324915
 30
0.0
  0
POINT
  5
175C3
330
17170
100
AcDbEntity
  8
DEFPOINTS
 62
     0
 48
50.0
100
AcDbPoint
 10
11763.68334036779
 20
4857.931598713264
 30
0.0
  0
POINT
  5
175C4
330
17170
100
AcDbEntity
  8
DEFPOINTS
 62
     0
 48
50.0
100
AcDbPoint
 10
11763.68334036779
 20
5311.589052292568
 30
0.0
  0
ENDBLK
  5
1717C
330
17170
100
AcDbEntity
  8
0
 48
50.0
100
AcDbBlockEnd
  0
BLOCK
  5
17187
330
1717D
100
AcDbEntity
  8
0
 48
50.0
100
AcDbBlockBegin
  2
*D16
 70
     1
 10
0.0
 20
0.0
 30
0.0
  3
*D16
  1

  0
LINE
  5
17945
330
1717D
100
AcDbEntity
  8
寸法
 62
     0
 48
50.0
370
    -2
100
AcDbLine
 10
11763.68334036779
 20
4877.931598713264
 30
0.0
 11
11763.68334036779
 21
5591.799739024184
 31
0.0
  0
LINE
  5
17946
330
1717D
100
AcDbEntity
  8
寸法
 62
     0
 48
50.0
370
    -2
100
AcDbLine
 10
8993.683340367793
 20
4932.931598713268
 30
0.0
 11
8993.683340367793
 21
5591.799739024184
 31
0.0
  0
LINE
  5
17947
330
1717D
100
AcDbEntity
  8
寸法
 62
     0
 48
50.0
370
    -2
100
AcDbLine
 10
11763.68334036779
 20
5531.799739024184
 30
0.0
 11
8993.683340367793
 21
5531.799739024184
 31
0.0
  0
INSERT
  5
17948
330
1717D
100
AcDbEntity
  8
寸法
 62
     0
 48
50.0
370
    -2
100
AcDbBlockReference
  2
_DOTSMALL
 10
11763.68334036779
 20
5531.799739024184
 30
0.0
 41
100.0
 42
100.0
 43
100.0
  0
INSERT
  5
17949
330
1717D
100
AcDbEntity
  8
寸法
 62
     0
 48
50.0
370
    -2
100
AcDbBlockReference
  2
_DOTSMALL
 10
8993.683340367793
 20
5531.799739024184
 30
0.0
 41
100.0
 42
100.0
 43
100.0
 50
180.0
  0
MTEXT
  5
1794A
330
1717D
100
AcDbEntity
  8
寸法
 62
     7
 48
50.0
100
AcDbMText
 10
10378.68334036779
 20
5631.811550047807
 30
0.0
 40
120.0
 41
0.0
 71
     5
 72
     1
  1
\A1;2770
  7
STYLE1
 73
     1
 44
1.0
1001
ACAD
1000
MTEXTBEGIN
1070
    73
1070
     1
1070
    44
1040
1.0
1070
    74
1070
     0
1000
MTEXTEND
  0
POINT
  5
1794B
330
1717D
100
AcDbEntity
  8
DEFPOINTS
 62
     0
 48
50.0
100
AcDbPoint
 10
11763.68334036779
 20
4857.931598713264
 30
0.0
  0
POINT
  5
1794C
330
1717D
100
AcDbEntity
  8
DEFPOINTS
 62
     0
 48
50.0
100
AcDbPoint
 10
8993.683340367793
 20
4912.931598713267
 30
0.0
  0
POINT
  5
1794D
330
1717D
100
AcDbEntity
  8
DEFPOINTS
 62
     0
 48
50.0
100
AcDbPoint
 10
8993.683340367793
 20
5531.799739024184
 30
0.0
  0
ENDBLK
  5
17188
330
1717D
100
AcDbEntity
  8
0
 48
50.0
100
AcDbBlockEnd
  0
BLOCK
  5
17195
330
17189
100
AcDbEntity
  8
0
 48
50.0
100
AcDbBlockBegin
  2
*D17
 70
     1
 10
0.0
 20
0.0
 30
0.0
  3
*D17
  1

  0
LINE
  5
175A7
330
17189
100
AcDbEntity
  8
寸法
 62
     0
 48
50.0
370
    -2
100
AcDbLine
 10
9053.683340367792
 20
4928.933216836239
 30
0.0
 11
9053.683340367792
 21
5371.589052292566
 31
0.0
  0
LINE
  5
175A8
330
17189
100
AcDbEntity
  8
寸法
 62
     0
 48
50.0
370
    -2
100
AcDbLine
 10
8993.683340367793
 20
4932.931598713268
 30
0.0
 11
8993.683340367793
 21
5371.589052292566
 31
0.0
  0
LINE
  5
175A9
330
17189
100
AcDbEntity
  8
寸法
 62
     0
 48
50.0
370
    -2
100
AcDbLine
 10
9053.683340367792
 20
5311.589052292567
 30
0.0
 11
9153.683340367791
 21
5311.589052292567
 31
0.0
  0
LINE
  5
175AA
330
17189
100
AcDbEntity
  8
寸法
 62
     0
 48
50.0
370
    -2
100
AcDbLine
 10
8993.683340367793
 20
5311.589052292567
 30
0.0
 11
8574.407749816613
 21
5311.589052292567
 31
0.0
  0
LINE
  5
175AB
330
17189
100
AcDbEntity
  8
寸法
 62
     0
 48
50.0
370
    -2
100
AcDbLine
 10
9053.683340367792
 20
5311.589052292567
 30
0.0
 11
8993.683340367793
 21
5311.589052292567
 31
0.0
  0
INSERT
  5
175AC
330
17189
100
AcDbEntity
  8
寸法
 62
     0
 48
50.0
370
    -2
100
AcDbBlockReference
  2
_DOTSMALL
 10
9053.683340367792
 20
5311.589052292567
 30
0.0
 41
100.0
 42
100.0
 43
100.0
 50
180.0
  0
INSERT
  5
175AD
330
17189
100
AcDbEntity
  8
寸法
 62
     0
 48
50.0
370
    -2
100
AcDbBlockReference
  2
_DOTSMALL
 10
8993.683340367793
 20
5311.589052292567
 30
0.0
 41
100.0
 42
100.0
 43
100.0
  0
MTEXT
  5
175AE
330
17189
100
AcDbEntity
  8
寸法
 62
     7
 48
50.0
100
AcDbMText
 10
8684.045545092201
 20
5411.589052292566
 30
0.0
 40
120.0
 41
0.0
 71
     5
 72
     1
  1
\A1;60
  7
STYLE1
 73
     1
 44
1.0
1001
ACAD
1000
MTEXTBEGIN
1070
    73
1070
     1
1070
    44
1040
1.0
1070
    74
1070
     0
1000
MTEXTEND
  0
POINT
  5
175AF
330
17189
100
AcDbEntity
  8
DEFPOINTS
 62
     0
 48
50.0
100
AcDbPoint
 10
9053.683340367792
 20
4908.933216836238
 30
0.0
  0
POINT
  5
175B0
330
17189
100
AcDbEntity
  8
DEFPOINTS
 62
     0
 48
50.0
100
AcDbPoint
 10
8993.683340367793
 20
4912.931598713267
 30
0.0
  0
POINT
  5
175B1
330
17189
100
AcDbEntity
  8
DEFPOINTS
 62
     0
 48
50.0
100
AcDbPoint
 10
8993.683340367793
 20
5311.589052292567
 30
0.0
  0
ENDBLK
  5
17196
330
17189
100
AcDbEntity
  8
0
 48
50.0
100
AcDbBlockEnd
  0
BLOCK
  5
171A1
330
17197
100
AcDbEntity
  8
0
 48
50.0
100
AcDbBlockBegin
  2
*D18
 70
     1
 10
0.0
 20
0.0
 30
0.0
  3
*D18
  1

  0
LINE
  5
1793C
330
17197
100
AcDbEntity
  8
寸法
 62
     0
 48
50.0
370
    -2
100
AcDbLine
 10
11683.68334036779
 20
4879.742278324916
 30
0.0
 11
11683.68334036779
 21
5371.589052292568
 31
0.0
  0
LINE
  5
1793D
330
17197
100
AcDbEntity
  8
寸法
 62
     0
 48
50.0
370
    -2
100
AcDbLine
 10
9053.683340367792
 20
4928.933216836239
 30
0.0
 11
9053.683340367792
 21
5371.589052292568
 31
0.0
  0
LINE
  5
1793E
330
17197
100
AcDbEntity
  8
寸法
 62
     0
 48
50.0
370
    -2
100
AcDbLine
 10
11683.68334036779
 20
5311.589052292568
 30
0.0
 11
9053.683340367792
 21
5311.589052292568
 31
0.0
  0
INSERT
  5
1793F
330
17197
100
AcDbEntity
  8
寸法
 62
     0
 48
50.0
370
    -2
100
AcDbBlockReference
  2
_DOTSMALL
 10
11683.68334036779
 20
5311.589052292568
 30
0.0
 41
100.0
 42
100.0
 43
100.0
  0
INSERT
  5
17940
330
17197
100
AcDbEntity
  8
寸法
 62
     0
 48
50.0
370
    -2
100
AcDbBlockReference
  2
_DOTSMALL
 10
9053.683340367792
 20
5311.589052292568
 30
0.0
 41
100.0
 42
100.0
 43
100.0
 50
180.0
  0
MTEXT
  5
17941
330
17197
100
AcDbEntity
  8
寸法
 62
     7
 48
50.0
100
AcDbMText
 10
10368.68334036779
 20
5411.60086331619
 30
0.0
 40
120.0
 41
0.0
 71
     5
 72
     1
  1
\A1;柱外寸法2630
  7
STYLE1
 73
     1
 44
1.0
1001
ACAD
1000
MTEXTBEGIN
1070
    73
1070
     1
1070
    44
1040
1.0
1070
    74
1070
     0
1000
MTEXTEND
  0
POINT
  5
17942
330
17197
100
AcDbEntity
  8
DEFPOINTS
 62
     0
 48
50.0
100
AcDbPoint
 10
11683.68334036779
 20
4859.742278324915
 30
0.0
  0
POINT
  5
17943
330
17197
100
AcDbEntity
  8
DEFPOINTS
 62
     0
 48
50.0
100
AcDbPoint
 10
9053.683340367792
 20
4908.933216836238
 30
0.0
  0
POINT
  5
17944
330
17197
100
AcDbEntity
  8
DEFPOINTS
 62
     0
 48
50.0
100
AcDbPoint
 10
9053.683340367792
 20
5311.589052292568
 30
0.0
  0
ENDBLK
  5
171A2
330
17197
100
AcDbEntity
  8
0
 48
50.0
100
AcDbBlockEnd
  0
BLOCK
  5
171AF
330
171A3
100
AcDbEntity
  8
0
 48
50.0
100
AcDbBlockBegin
  2
*D19
 70
     1
 10
0.0
 20
0.0
 30
0.0
  3
*D19
  1

  0
LINE
  5
17593
330
171A3
100
AcDbEntity
  8
寸法
 62
     0
 48
50.0
370
    -2
100
AcDbLine
 10
9033.683340367792
 20
2587.931598713263
 30
0.0
 11
8149.933211184533
 21
2587.931598713263
 31
0.0
  0
LINE
  5
17594
330
171A3
100
AcDbEntity
  8
寸法
 62
     0
 48
50.0
370
    -2
100
AcDbLine
 10
8978.683340367792
 20
2537.931598713262
 30
0.0
 11
8149.933211184533
 21
2537.931598713262
 31
0.0
  0
LINE
  5
17595
330
171A3
100
AcDbEntity
  8
寸法
 62
     0
 48
50.0
370
    -2
100
AcDbLine
 10
8209.933211184532
 20
2587.931598713263
 30
0.0
 11
8209.933211184532
 21
2687.931598713263
 31
0.0
  0
LINE
  5
17596
330
171A3
100
AcDbEntity
  8
寸法
 62
     0
 48
50.0
370
    -2
100
AcDbLine
 10
8209.933211184532
 20
2537.931598713262
 30
0.0
 11
8209.933211184532
 21
2125.837110524282
 31
0.0
  0
LINE
  5
17597
330
171A3
100
AcDbEntity
  8
寸法
 62
     0
 48
50.0
370
    -2
100
AcDbLine
 10
8209.933211184532
 20
2587.931598713263
 30
0.0
 11
8209.933211184532
 21
2537.931598713262
 31
0.0
  0
INSERT
  5
17598
330
171A3
100
AcDbEntity
  8
寸法
 62
     0
 48
50.0
370
    -2
100
AcDbBlockReference
  2
_DOTSMALL
 10
8209.933211184532
 20
2587.931598713263
 30
0.0
 41
100.0
 42
100.0
 43
100.0
 50
270.0
  0
INSERT
  5
17599
330
171A3
100
AcDbEntity
  8
寸法
 62
     0
 48
50.0
370
    -2
100
AcDbBlockReference
  2
_DOTSMALL
 10
8209.933211184532
 20
2537.931598713262
 30
0.0
 41
100.0
 42
100.0
 43
100.0
 50
90.0
  0
MTEXT
  5
1759A
330
171A3
100
AcDbEntity
  8
寸法
 62
     7
 48
50.0
100
AcDbMText
 10
8109.933211184532
 20
2231.884354618772
 30
0.0
 40
120.0
 41
0.0
 71
     5
 72
     1
  1
\A1;50
  7
STYLE1
 11
0.0000000000000001
 21
1.0
 31
0.0
 73
     1
 44
1.0
1001
ACAD
1000
MTEXTBEGIN
1070
    73
1070
     1
1070
    44
1040
1.0
1070
    74
1070
     0
1000
MTEXTEND
  0
POINT
  5
1759B
330
171A3
100
AcDbEntity
  8
DEFPOINTS
 62
     0
 48
50.0
100
AcDbPoint
 10
9053.683340367792
 20
2587.931598713263
 30
0.0
  0
POINT
  5
1759C
330
171A3
100
AcDbEntity
  8
DEFPOINTS
 62
     0
 48
50.0
100
AcDbPoint
 10
8998.683340367792
 20
2537.931598713262
 30
0.0
  0
POINT
  5
1759D
330
171A3
100
AcDbEntity
  8
DEFPOINTS
 62
     0
 48
50.0
100
AcDbPoint
 10
8209.933211184532
 20
2537.931598713262
 30
0.0
  0
ENDBLK
  5
171B0
330
171A3
100
AcDbEntity
  8
0
 48
50.0
100
AcDbBlockEnd
  0
BLOCK
  5
171BB
330
171B1
100
AcDbEntity
  8
0
 48
50.0
100
AcDbBlockBegin
  2
*D20
 70
     1
 10
0.0
 20
0.0
 30
0.0
  3
*D20
  1

  0
LINE
  5
1758A
330
171B1
100
AcDbEntity
  8
寸法
 62
     0
 48
50.0
370
    -2
100
AcDbLine
 10
11703.68334036779
 20
2537.931598713264
 30
0.0
 11
12448.61049833992
 21
2537.931598713264
 31
0.0
  0
LINE
  5
1758B
330
171B1
100
AcDbEntity
  8
寸法
 62
     0
 48
50.0
370
    -2
100
AcDbLine
 10
11783.68334036779
 20
4857.931598713264
 30
0.0
 11
12448.61049833992
 21
4857.931598713264
 31
0.0
  0
LINE
  5
1758C
330
171B1
100
AcDbEntity
  8
寸法
 62
     0
 48
50.0
370
    -2
100
AcDbLine
 10
12388.61049833992
 20
2537.931598713264
 30
0.0
 11
12388.61049833992
 21
4857.931598713264
 31
0.0
  0
INSERT
  5
1758D
330
171B1
100
AcDbEntity
  8
寸法
 62
     0
 48
50.0
370
    -2
100
AcDbBlockReference
  2
_DOTSMALL
 10
12388.61049833992
 20
2537.931598713264
 30
0.0
 41
100.0
 42
100.0
 43
100.0
 50
270.0
  0
INSERT
  5
1758E
330
171B1
100
AcDbEntity
  8
寸法
 62
     0
 48
50.0
370
    -2
100
AcDbBlockReference
  2
_DOTSMALL
 10
12388.61049833992
 20
4857.931598713264
 30
0.0
 41
100.0
 42
100.0
 43
100.0
 50
90.0
  0
MTEXT
  5
1758F
330
171B1
100
AcDbEntity
  8
寸法
 62
     7
 48
50.0
100
AcDbMText
 10
12288.5986873163
 20
3697.931598713266
 30
0.0
 40
120.0
 41
0.0
 71
     5
 72
     1
  1
\A1;2320
  7
STYLE1
 11
0.0000000000000001
 21
1.0
 31
0.0
 73
     1
 44
1.0
1001
ACAD
1000
MTEXTBEGIN
1070
    73
1070
     1
1070
    44
1040
1.0
1070
    74
1070
     0
1000
MTEXTEND
  0
POINT
  5
17590
330
171B1
100
AcDbEntity
  8
DEFPOINTS
 62
     0
 48
50.0
100
AcDbPoint
 10
11683.68334036779
 20
2537.931598713264
 30
0.0
  0
POINT
  5
17591
330
171B1
100
AcDbEntity
  8
DEFPOINTS
 62
     0
 48
50.0
100
AcDbPoint
 10
11763.68334036779
 20
4857.931598713264
 30
0.0
  0
POINT
  5
17592
330
171B1
100
AcDbEntity
  8
DEFPOINTS
 62
     0
 48
50.0
100
AcDbPoint
 10
12388.61049833992
 20
4857.931598713264
 30
0.0
  0
ENDBLK
  5
171BC
330
171B1
100
AcDbEntity
  8
0
 48
50.0
100
AcDbBlockEnd
  0
BLOCK
  5
171C7
330
171BD
100
AcDbEntity
  8
0
 48
50.0
100
AcDbBlockBegin
  2
*D21
 70
     1
 10
0.0
 20
0.0
 30
0.0
  3
*D21
  1

  0
LINE
  5
17581
330
171BD
100
AcDbEntity
  8
寸法
 62
     0
 48
50.0
370
    -2
100
AcDbLine
 10
9033.683340367792
 20
2537.931598713257
 30
0.0
 11
7849.933211184532
 21
2537.931598713257
 31
0.0
  0
LINE
  5
17582
330
171BD
100
AcDbEntity
  8
寸法
 62
     0
 48
50.0
370
    -2
100
AcDbLine
 10
8973.683340367792
 20
4912.931598713262
 30
0.0
 11
7849.933211184532
 21
4912.931598713262
 31
0.0
  0
LINE
  5
17583
330
171BD
100
AcDbEntity
  8
寸法
 62
     0
 48
50.0
370
    -2
100
AcDbLine
 10
7909.933211184533
 20
2537.931598713257
 30
0.0
 11
7909.933211184533
 21
4912.931598713262
 31
0.0
  0
INSERT
  5
17584
330
171BD
100
AcDbEntity
  8
寸法
 62
     0
 48
50.0
370
    -2
100
AcDbBlockReference
  2
_DOTSMALL
 10
7909.933211184533
 20
2537.931598713257
 30
0.0
 41
100.0
 42
100.0
 43
100.0
 50
270.0
  0
INSERT
  5
17585
330
171BD
100
AcDbEntity
  8
寸法
 62
     0
 48
50.0
370
    -2
100
AcDbBlockReference
  2
_DOTSMALL
 10
7909.933211184533
 20
4912.931598713262
 30
0.0
 41
100.0
 42
100.0
 43
100.0
 50
90.0
  0
MTEXT
  5
17586
330
171BD
100
AcDbEntity
  8
寸法
 62
     7
 48
50.0
100
AcDbMText
 10
7809.921400160909
 20
3725.431598713261
 30
0.0
 40
120.0
 41
0.0
 71
     5
 72
     1
  1
\A1;2375
  7
STYLE1
 11
0.0000000000000001
 21
1.0
 31
0.0
 73
     1
 44
1.0
1001
ACAD
1000
MTEXTBEGIN
1070
    73
1070
     1
1070
    44
1040
1.0
1070
    74
1070
     0
1000
MTEXTEND
  0
POINT
  5
17587
330
171BD
100
AcDbEntity
  8
DEFPOINTS
 62
     0
 48
50.0
100
AcDbPoint
 10
9053.683340367792
 20
2537.931598713257
 30
0.0
  0
POINT
  5
17588
330
171BD
100
AcDbEntity
  8
DEFPOINTS
 62
     0
 48
50.0
100
AcDbPoint
 10
8993.683340367793
 20
4912.931598713262
 30
0.0
  0
POINT
  5
17589
330
171BD
100
AcDbEntity
  8
DEFPOINTS
 62
     0
 48
50.0
100
AcDbPoint
 10
7909.933211184533
 20
4912.931598713262
 30
0.0
  0
ENDBLK
  5
171C8
330
171BD
100
AcDbEntity
  8
0
 48
50.0
100
AcDbBlockEnd
  0
BLOCK
  5
171D3
330
171C9
100
AcDbEntity
  8
0
 48
50.0
100
AcDbBlockBegin
  2
*D22
 70
     1
 10
0.0
 20
0.0
 30
0.0
  3
*D22
  1

  0
LINE
  5
17578
330
171C9
100
AcDbEntity
  8
寸法
 62
     0
 48
50.0
370
    -2
100
AcDbLine
 10
9033.683340367792
 20
4677.931598713258
 30
0.0
 11
8149.933211184533
 21
4677.931598713258
 31
0.0
  0
LINE
  5
17579
330
171C9
100
AcDbEntity
  8
寸法
 62
     0
 48
50.0
370
    -2
100
AcDbLine
 10
9033.683340367792
 20
2587.931598713257
 30
0.0
 11
8149.933211184533
 21
2587.931598713257
 31
0.0
  0
LINE
  5
1757A
330
171C9
100
AcDbEntity
  8
寸法
 62
     0
 48
50.0
370
    -2
100
AcDbLine
 10
8209.933211184534
 20
4677.931598713258
 30
0.0
 11
8209.933211184532
 21
2587.931598713257
 31
0.0
  0
INSERT
  5
1757B
330
171C9
100
AcDbEntity
  8
寸法
 62
     0
 48
50.0
370
    -2
100
AcDbBlockReference
  2
_DOTSMALL
 10
8209.933211184534
 20
4677.931598713258
 30
0.0
 41
100.0
 42
100.0
 43
100.0
 50
90.0
  0
INSERT
  5
1757C
330
171C9
100
AcDbEntity
  8
寸法
 62
     0
 48
50.0
370
    -2
100
AcDbBlockReference
  2
_DOTSMALL
 10
8209.933211184532
 20
2587.931598713257
 30
0.0
 41
100.0
 42
100.0
 43
100.0
 50
270.0
  0
MTEXT
  5
1757D
330
171C9
100
AcDbEntity
  8
寸法
 62
     7
 48
50.0
100
AcDbMText
 10
8109.921400160912
 20
3632.931598713259
 30
0.0
 40
120.0
 41
0.0
 71
     5
 72
     1
  1
\A1;2090
  7
STYLE1
 11
0.0000000000000001
 21
1.0
 31
0.0
 73
     1
 44
1.0
1001
ACAD
1000
MTEXTBEGIN
1070
    73
1070
     1
1070
    44
1040
1.0
1070
    74
1070
     0
1000
MTEXTEND
  0
POINT
  5
1757E
330
171C9
100
AcDbEntity
  8
DEFPOINTS
 62
     0
 48
50.0
100
AcDbPoint
 10
9053.683340367792
 20
4677.931598713258
 30
0.0
  0
POINT
  5
1757F
330
171C9
100
AcDbEntity
  8
DEFPOINTS
 62
     0
 48
50.0
100
AcDbPoint
 10
9053.683340367792
 20
2587.931598713257
 30
0.0
  0
POINT
  5
17580
330
171C9
100
AcDbEntity
  8
DEFPOINTS
 62
     0
 48
50.0
100
AcDbPoint
 10
8209.933211184532
 20
2587.931598713257
 30
0.0
  0
ENDBLK
  5
171D4
330
171C9
100
AcDbEntity
  8
0
 48
50.0
100
AcDbBlockEnd
  0
BLOCK
  5
17634
330
1762A
100
AcDbEntity
  8
0
 48
50.0
100
AcDbBlockBegin
  2
*D23
 70
     1
 10
0.0
 20
0.0
 30
0.0
  3
*D23
  1

  0
LINE
  5
1765E
330
1762A
100
AcDbEntity
  8
寸法
 62
     0
 48
50.0
370
    -2
100
AcDbLine
 10
4586.506566978178
 20
4932.931598713268
 30
0.0
 11
4586.506566978178
 21
5578.566791659262
 31
0.0
  0
LINE
  5
1765F
330
1762A
100
AcDbEntity
  8
寸法
 62
     0
 48
50.0
370
    -2
100
AcDbLine
 10
6476.506566978172
 20
4932.931598713265
 30
0.0
 11
6476.506566978172
 21
5578.566791659262
 31
0.0
  0
LINE
  5
17660
330
1762A
100
AcDbEntity
  8
寸法
 62
     0
 48
50.0
370
    -2
100
AcDbLine
 10
4586.506566978178
 20
5518.566791659262
 30
0.0
 11
6476.506566978172
 21
5518.566791659262
 31
0.0
  0
INSERT
  5
17661
330
1762A
100
AcDbEntity
  8
寸法
 62
     0
 48
50.0
370
    -2
100
AcDbBlockReference
  2
_DOTSMALL
 10
4586.506566978178
 20
5518.566791659262
 30
0.0
 41
100.0
 42
100.0
 43
100.0
 50
180.0
  0
INSERT
  5
17662
330
1762A
100
AcDbEntity
  8
寸法
 62
     0
 48
50.0
370
    -2
100
AcDbBlockReference
  2
_DOTSMALL
 10
6476.506566978172
 20
5518.566791659262
 30
0.0
 41
100.0
 42
100.0
 43
100.0
  0
MTEXT
  5
17663
330
1762A
100
AcDbEntity
  8
寸法
 62
     7
 48
50.0
100
AcDbMText
 10
5531.506566978178
 20
5618.566791659262
 30
0.0
 40
120.0
 41
0.0
 71
     5
 72
     1
  1
\A1;1890
  7
STYLE1
 73
     1
 44
1.0
1001
ACAD
1000
MTEXTBEGIN
1070
    73
1070
     1
1070
    44
1040
1.0
1070
    74
1070
     0
1000
MTEXTEND
  0
POINT
  5
17664
330
1762A
100
AcDbEntity
  8
DEFPOINTS
 62
     0
 48
50.0
100
AcDbPoint
 10
4586.506566978178
 20
4912.931598713267
 30
0.0
  0
POINT
  5
17665
330
1762A
100
AcDbEntity
  8
DEFPOINTS
 62
     0
 48
50.0
100
AcDbPoint
 10
6476.506566978172
 20
4912.931598713265
 30
0.0
  0
POINT
  5
17666
330
1762A
100
AcDbEntity
  8
DEFPOINTS
 62
     0
 48
50.0
100
AcDbPoint
 10
6476.506566978172
 20
5518.566791659262
 30
0.0
  0
ENDBLK
  5
17635
330
1762A
100
AcDbEntity
  8
0
 48
50.0
100
AcDbBlockEnd
  0
BLOCK
  5
17642
330
17636
100
AcDbEntity
  8
0
 48
50.0
100
AcDbBlockBegin
  2
*D24
 70
     1
 10
0.0
 20
0.0
 30
0.0
  3
*D24
  1

  0
LINE
  5
17667
330
17636
100
AcDbEntity
  8
寸法
 62
     0
 48
50.0
370
    -2
100
AcDbLine
 10
6476.506566978172
 20
4932.931598713265
 30
0.0
 11
6476.506566978172
 21
5378.657870445172
 31
0.0
  0
LINE
  5
17668
330
17636
100
AcDbEntity
  8
寸法
 62
     0
 48
50.0
370
    -2
100
AcDbLine
 10
6426.506566978176
 20
4932.931598713268
 30
0.0
 11
6426.506566978176
 21
5378.657870445172
 31
0.0
  0
LINE
  5
17669
330
17636
100
AcDbEntity
  8
寸法
 62
     0
 48
50.0
370
    -2
100
AcDbLine
 10
6426.506566978176
 20
5318.657870445172
 30
0.0
 11
6326.506566978176
 21
5318.657870445172
 31
0.0
  0
LINE
  5
1766A
330
17636
100
AcDbEntity
  8
寸法
 62
     0
 48
50.0
370
    -2
100
AcDbLine
 10
6476.506566978172
 20
5318.657870445172
 30
0.0
 11
6896.039092446901
 21
5318.657870445172
 31
0.0
  0
LINE
  5
1766B
330
17636
100
AcDbEntity
  8
寸法
 62
     0
 48
50.0
370
    -2
100
AcDbLine
 10
6426.506566978176
 20
5318.657870445172
 30
0.0
 11
6476.506566978172
 21
5318.657870445172
 31
0.0
  0
INSERT
  5
1766C
330
17636
100
AcDbEntity
  8
寸法
 62
     0
 48
50.0
370
    -2
100
AcDbBlockReference
  2
_DOTSMALL
 10
6426.506566978176
 20
5318.657870445172
 30
0.0
 41
100.0
 42
100.0
 43
100.0
  0
INSERT
  5
1766D
330
17636
100
AcDbEntity
  8
寸法
 62
     0
 48
50.0
370
    -2
100
AcDbBlockReference
  2
_DOTSMALL
 10
6476.506566978172
 20
5318.657870445172
 30
0.0
 41
100.0
 42
100.0
 43
100.0
 50
180.0
  0
MTEXT
  5
1766E
330
17636
100
AcDbEntity
  8
寸法
 62
     7
 48
50.0
100
AcDbMText
 10
6789.991848352413
 20
5418.657870445173
 30
0.0
 40
120.0
 41
0.0
 71
     5
 72
     1
  1
\A1;50
  7
STYLE1
 73
     1
 44
1.0
1001
ACAD
1000
MTEXTBEGIN
1070
    73
1070
     1
1070
    44
1040
1.0
1070
    74
1070
     0
1000
MTEXTEND
  0
POINT
  5
1766F
330
17636
100
AcDbEntity
  8
DEFPOINTS
 62
     0
 48
50.0
100
AcDbPoint
 10
6476.506566978172
 20
4912.931598713265
 30
0.0
  0
POINT
  5
17670
330
17636
100
AcDbEntity
  8
DEFPOINTS
 62
     0
 48
50.0
100
AcDbPoint
 10
6426.506566978176
 20
4912.931598713267
 30
0.0
  0
POINT
  5
17671
330
17636
100
AcDbEntity
  8
DEFPOINTS
 62
     0
 48
50.0
100
AcDbPoint
 10
6426.506566978176
 20
5318.657870445172
 30
0.0
  0
ENDBLK
  5
17643
330
17636
100
AcDbEntity
  8
0
 48
50.0
100
AcDbBlockEnd
  0
BLOCK
  5
17650
330
17644
100
AcDbEntity
  8
0
 48
50.0
100
AcDbBlockBegin
  2
*D25
 70
     1
 10
0.0
 20
0.0
 30
0.0
  3
*D25
  1

  0
LINE
  5
17672
330
17644
100
AcDbEntity
  8
寸法
 62
     0
 48
50.0
370
    -2
100
AcDbLine
 10
4636.506566978177
 20
4932.931598713269
 30
0.0
 11
4636.506566978177
 21
5378.657870445172
 31
0.0
  0
LINE
  5
17673
330
17644
100
AcDbEntity
  8
寸法
 62
     0
 48
50.0
370
    -2
100
AcDbLine
 10
4586.506566978178
 20
4932.931598713268
 30
0.0
 11
4586.506566978178
 21
5378.657870445172
 31
0.0
  0
LINE
  5
17674
330
17644
100
AcDbEntity
  8
寸法
 62
     0
 48
50.0
370
    -2
100
AcDbLine
 10
4636.506566978177
 20
5318.657870445172
 30
0.0
 11
4736.506566978177
 21
5318.657870445172
 31
0.0
  0
LINE
  5
17675
330
17644
100
AcDbEntity
  8
寸法
 62
     0
 48
50.0
370
    -2
100
AcDbLine
 10
4586.506566978178
 20
5318.657870445172
 30
0.0
 11
4166.974041509443
 21
5318.657870445172
 31
0.0
  0
LINE
  5
17676
330
17644
100
AcDbEntity
  8
寸法
 62
     0
 48
50.0
370
    -2
100
AcDbLine
 10
4636.506566978177
 20
5318.657870445172
 30
0.0
 11
4586.506566978178
 21
5318.657870445172
 31
0.0
  0
INSERT
  5
17677
330
17644
100
AcDbEntity
  8
寸法
 62
     0
 48
50.0
370
    -2
100
AcDbBlockReference
  2
_DOTSMALL
 10
4636.506566978177
 20
5318.657870445172
 30
0.0
 41
100.0
 42
100.0
 43
100.0
 50
180.0
  0
INSERT
  5
17678
330
17644
100
AcDbEntity
  8
寸法
 62
     0
 48
50.0
370
    -2
100
AcDbBlockReference
  2
_DOTSMALL
 10
4586.506566978178
 20
5318.657870445172
 30
0.0
 41
100.0
 42
100.0
 43
100.0
  0
MTEXT
  5
17679
330
17644
100
AcDbEntity
  8
寸法
 62
     7
 48
50.0
100
AcDbMText
 10
4273.02128560393
 20
5418.657870445173
 30
0.0
 40
120.0
 41
0.0
 71
     5
 72
     1
  1
\A1;50
  7
STYLE1
 73
     1
 44
1.0
1001
ACAD
1000
MTEXTBEGIN
1070
    73
1070
     1
1070
    44
1040
1.0
1070
    74
1070
     0
1000
MTEXTEND
  0
POINT
  5
1767A
330
17644
100
AcDbEntity
  8
DEFPOINTS
 62
     0
 48
50.0
100
AcDbPoint
 10
4636.506566978177
 20
4912.931598713268
 30
0.0
  0
POINT
  5
1767B
330
17644
100
AcDbEntity
  8
DEFPOINTS
 62
     0
 48
50.0
100
AcDbPoint
 10
4586.506566978178
 20
4912.931598713267
 30
0.0
  0
POINT
  5
1767C
330
17644
100
AcDbEntity
  8
DEFPOINTS
 62
     0
 48
50.0
100
AcDbPoint
 10
4586.506566978178
 20
5318.657870445172
 30
0.0
  0
ENDBLK
  5
17651
330
17644
100
AcDbEntity
  8
0
 48
50.0
100
AcDbBlockEnd
  0
BLOCK
  5
1765C
330
17652
100
AcDbEntity
  8
0
 48
50.0
100
AcDbBlockBegin
  2
*D26
 70
     1
 10
0.0
 20
0.0
 30
0.0
  3
*D26
  1

  0
LINE
  5
1767D
330
17652
100
AcDbEntity
  8
寸法
 62
     0
 48
50.0
370
    -2
100
AcDbLine
 10
6426.506566978176
 20
4932.931598713268
 30
0.0
 11
6426.506566978176
 21
5378.657870445172
 31
0.0
  0
LINE
  5
1767E
330
17652
100
AcDbEntity
  8
寸法
 62
     0
 48
50.0
370
    -2
100
AcDbLine
 10
4636.506566978177
 20
4932.931598713269
 30
0.0
 11
4636.506566978177
 21
5378.657870445172
 31
0.0
  0
LINE
  5
1767F
330
17652
100
AcDbEntity
  8
寸法
 62
     0
 48
50.0
370
    -2
100
AcDbLine
 10
6426.506566978176
 20
5318.657870445172
 30
0.0
 11
4636.506566978177
 21
5318.657870445172
 31
0.0
  0
INSERT
  5
17680
330
17652
100
AcDbEntity
  8
寸法
 62
     0
 48
50.0
370
    -2
100
AcDbBlockReference
  2
_DOTSMALL
 10
6426.506566978176
 20
5318.657870445172
 30
0.0
 41
100.0
 42
100.0
 43
100.0
  0
INSERT
  5
17681
330
17652
100
AcDbEntity
  8
寸法
 62
     0
 48
50.0
370
    -2
100
AcDbBlockReference
  2
_DOTSMALL
 10
4636.506566978177
 20
5318.657870445172
 30
0.0
 41
100.0
 42
100.0
 43
100.0
 50
180.0
  0
MTEXT
  5
17682
330
17652
100
AcDbEntity
  8
寸法
 62
     7
 48
50.0
100
AcDbMText
 10
5531.506566978178
 20
5418.657870445173
 30
0.0
 40
120.0
 41
0.0
 71
     5
 72
     1
  1
\A1;柱外寸法1790
  7
STYLE1
 73
     1
 44
1.0
1001
ACAD
1000
MTEXTBEGIN
1070
    73
1070
     1
1070
    44
1040
1.0
1070
    74
1070
     0
1000
MTEXTEND
  0
POINT
  5
17683
330
17652
100
AcDbEntity
  8
DEFPOINTS
 62
     0
 48
50.0
100
AcDbPoint
 10
6426.506566978176
 20
4912.931598713267
 30
0.0
  0
POINT
  5
17684
330
17652
100
AcDbEntity
  8
DEFPOINTS
 62
     0
 48
50.0
100
AcDbPoint
 10
4636.506566978177
 20
4912.931598713268
 30
0.0
  0
POINT
  5
17685
330
17652
100
AcDbEntity
  8
DEFPOINTS
 62
     0
 48
50.0
100
AcDbPoint
 10
4636.506566978177
 20
5318.657870445172
 30
0.0
  0
ENDBLK
  5
1765D
330
17652
100
AcDbEntity
  8
0
 48
50.0
100
AcDbBlockEnd
  0
BLOCK
  5
17843
330
17839
100
AcDbEntity
  8
0
 48
50.0
100
AcDbBlockBegin
  2
*D27
 70
     1
 10
0.0
 20
0.0
 30
0.0
  3
*D27
  1

  0
LINE
  5
178F8
330
17839
100
AcDbEntity
  8
寸法
 62
     0
 48
50.0
370
    -2
100
AcDbLine
 10
6446.506566978171
 20
2537.931598713262
 30
0.0
 11
6774.049669299917
 21
2537.931598713262
 31
0.0
  0
LINE
  5
178F9
330
17839
100
AcDbEntity
  8
寸法
 62
     0
 48
50.0
370
    -2
100
AcDbLine
 10
6446.506566978171
 20
4485.931598713261
 30
0.0
 11
6774.049669299917
 21
4485.931598713261
 31
0.0
  0
LINE
  5
178FA
330
17839
100
AcDbEntity
  8
寸法
 62
     0
 48
50.0
370
    -2
100
AcDbLine
 10
6714.049669299916
 20
2537.931598713262
 30
0.0
 11
6714.049669299916
 21
4485.931598713261
 31
0.0
  0
INSERT
  5
178FB
330
17839
100
AcDbEntity
  8
寸法
 62
     0
 48
50.0
370
    -2
100
AcDbBlockReference
  2
_DOTSMALL
 10
6714.049669299916
 20
2537.931598713262
 30
0.0
 41
100.0
 42
100.0
 43
100.0
 50
270.0
  0
INSERT
  5
178FC
330
17839
100
AcDbEntity
  8
寸法
 62
     0
 48
50.0
370
    -2
100
AcDbBlockReference
  2
_DOTSMALL
 10
6714.049669299916
 20
4485.931598713261
 30
0.0
 41
100.0
 42
100.0
 43
100.0
 50
90.0
  0
MTEXT
  5
178FD
330
17839
100
AcDbEntity
  8
寸法
 62
     7
 48
50.0
100
AcDbMText
 10
6614.049669299916
 20
3511.931598713263
 30
0.0
 40
120.0
 41
0.0
 71
     5
 72
     1
  1
\A1;有効開口部高サ 1948
  7
STYLE1
 11
0.0000000000000001
 21
1.0
 31
0.0
 73
     1
 44
1.0
1001
ACAD
1000
MTEXTBEGIN
1070
    73
1070
     1
1070
    44
1040
1.0
1070
    74
1070
     0
1000
MTEXTEND
  0
POINT
  5
178FE
330
17839
100
AcDbEntity
  8
DEFPOINTS
 62
     0
 48
50.0
100
AcDbPoint
 10
6426.50656697817
 20
2537.931598713262
 30
0.0
  0
POINT
  5
178FF
330
17839
100
AcDbEntity
  8
DEFPOINTS
 62
     0
 48
50.0
100
AcDbPoint
 10
6426.50656697817
 20
4485.931598713261
 30
0.0
  0
POINT
  5
17900
330
17839
100
AcDbEntity
  8
DEFPOINTS
 62
     0
 48
50.0
100
AcDbPoint
 10
6714.049669299916
 20
4485.931598713261
 30
0.0
  0
ENDBLK
  5
17844
330
17839
100
AcDbEntity
  8
0
 48
50.0
100
AcDbBlockEnd
  0
BLOCK
  5
17851
330
17845
100
AcDbEntity
  8
0
 48
50.0
100
AcDbBlockBegin
  2
*D28
 70
     1
 10
0.0
 20
0.0
 30
0.0
  3
*D28
  1

  0
LINE
  5
1796C
330
17845
100
AcDbEntity
  8
寸法
 62
     0
 48
50.0
370
    -2
100
AcDbLine
 10
6446.506566978171
 20
4485.931598713261
 30
0.0
 11
6774.049669299917
 21
4485.931598713261
 31
0.0
  0
LINE
  5
1796D
330
17845
100
AcDbEntity
  8
寸法
 62
     0
 48
50.0
370
    -2
100
AcDbLine
 10
6446.506566978169
 20
4512.931598713262
 30
0.0
 11
6774.049669299917
 21
4512.931598713262
 31
0.0
  0
LINE
  5
1796E
330
17845
100
AcDbEntity
  8
寸法
 62
     0
 48
50.0
370
    -2
100
AcDbLine
 10
6714.049669299916
 20
4485.931598713261
 30
0.0
 11
6714.049669299916
 21
4385.931598713261
 31
0.0
  0
LINE
  5
1796F
330
17845
100
AcDbEntity
  8
寸法
 62
     0
 48
50.0
370
    -2
100
AcDbLine
 10
6714.049669299916
 20
4512.931598713262
 30
0.0
 11
6714.049669299916
 21
4612.931598713262
 31
0.0
  0
MTEXT
  5
17970
330
17845
100
AcDbEntity
  8
寸法
 62
     7
 48
50.0
100
AcDbMText
 10
6854.219492546282
 20
4513.89879855292
 30
0.0
 40
120.0
 41
0.0
 71
     5
 72
     1
  1
\A1;27
  7
STYLE1
 11
0.0000000000000001
 21
1.0
 31
0.0
 73
     1
 44
1.0
1001
ACAD
1000
MTEXTBEGIN
1070
    73
1070
     1
1070
    44
1040
1.0
1070
    74
1070
     0
1000
MTEXTEND
  0
LINE
  5
17971
330
17845
100
AcDbEntity
  8
寸法
 62
     0
 48
50.0
370
    -2
100
AcDbLine
 10
6714.049669299916
 20
4485.931598713261
 30
0.0
 11
6714.049669299916
 21
4512.931598713262
 31
0.0
  0
INSERT
  5
17972
330
17845
100
AcDbEntity
  8
寸法
 62
     0
 48
50.0
370
    -2
100
AcDbBlockReference
  2
_DOTSMALL
 10
6714.049669299916
 20
4485.931598713261
 30
0.0
 41
100.0
 42
100.0
 43
100.0
 50
90.0
  0
INSERT
  5
17973
330
17845
100
AcDbEntity
  8
寸法
 62
     0
 48
50.0
370
    -2
100
AcDbBlockReference
  2
_DOTSMALL
 10
6714.049669299916
 20
4512.931598713262
 30
0.0
 41
100.0
 42
100.0
 43
100.0
 50
270.0
  0
POINT
  5
17974
330
17845
100
AcDbEntity
  8
DEFPOINTS
 62
     0
 48
50.0
100
AcDbPoint
 10
6426.50656697817
 20
4485.931598713261
 30
0.0
  0
POINT
  5
17975
330
17845
100
AcDbEntity
  8
DEFPOINTS
 62
     0
 48
50.0
100
AcDbPoint
 10
6426.50656697817
 20
4512.931598713262
 30
0.0
  0
POINT
  5
17976
330
17845
100
AcDbEntity
  8
DEFPOINTS
 62
     0
 48
50.0
100
AcDbPoint
 10
6714.049669299916
 20
4512.931598713262
 30
0.0
  0
ENDBLK
  5
17852
330
17845
100
AcDbEntity
  8
0
 48
50.0
100
AcDbBlockEnd
  0
BLOCK
  5
1785E
330
17853
100
AcDbEntity
  8
0
 48
50.0
100
AcDbBlockBegin
  2
*D29
 70
     1
 10
0.0
 20
0.0
 30
0.0
  3
*D29
  1

  0
LINE
  5
17962
330
17853
100
AcDbEntity
  8
寸法
 62
     0
 48
50.0
370
    -2
100
AcDbLine
 10
6446.506566978169
 20
4512.931598713262
 30
0.0
 11
6774.049669299917
 21
4512.931598713262
 31
0.0
  0
LINE
  5
17963
330
17853
100
AcDbEntity
  8
寸法
 62
     0
 48
50.0
370
    -2
100
AcDbLine
 10
6446.506566978171
 20
4677.931598713261
 30
0.0
 11
6774.049669299917
 21
4677.931598713261
 31
0.0
  0
LINE
  5
17964
330
17853
100
AcDbEntity
  8
寸法
 62
     0
 48
50.0
370
    -2
100
AcDbLine
 10
6714.049669299917
 20
4512.931598713262
 30
0.0
 11
6714.049669299917
 21
4677.931598713261
 31
0.0
  0
LINE
  5
17965
330
17853
100
AcDbEntity
  8
寸法
 62
     0
 48
50.0
370
    -2
100
AcDbLine
 10
6714.049669299917
 20
4677.931598713261
 30
0.0
 11
6714.049669299917
 21
5054.902161461739
 31
0.0
  0
INSERT
  5
17966
330
17853
100
AcDbEntity
  8
寸法
 62
     0
 48
50.0
370
    -2
100
AcDbBlockReference
  2
_DOTSMALL
 10
6714.049669299917
 20
4512.931598713262
 30
0.0
 41
100.0
 42
100.0
 43
100.0
 50
270.0
  0
INSERT
  5
17967
330
17853
100
AcDbEntity
  8
寸法
 62
     0
 48
50.0
370
    -2
100
AcDbBlockReference
  2
_DOTSMALL
 10
6714.049669299917
 20
4677.931598713261
 30
0.0
 41
100.0
 42
100.0
 43
100.0
 50
90.0
  0
MTEXT
  5
17968
330
17853
100
AcDbEntity
  8
寸法
 62
     7
 48
50.0
100
AcDbMText
 10
6614.049669299916
 20
4916.416880087502
 30
0.0
 40
120.0
 41
0.0
 71
     5
 72
     1
  1
\A1;165
  7
STYLE1
 11
0.0000000000000001
 21
1.0
 31
0.0
 73
     1
 44
1.0
1001
ACAD
1000
MTEXTBEGIN
1070
    73
1070
     1
1070
    44
1040
1.0
1070
    74
1070
     0
1000
MTEXTEND
  0
POINT
  5
17969
330
17853
100
AcDbEntity
  8
DEFPOINTS
 62
     0
 48
50.0
100
AcDbPoint
 10
6426.50656697817
 20
4512.931598713262
 30
0.0
  0
POINT
  5
1796A
330
17853
100
AcDbEntity
  8
DEFPOINTS
 62
     0
 48
50.0
100
AcDbPoint
 10
6426.50656697817
 20
4677.931598713261
 30
0.0
  0
POINT
  5
1796B
330
17853
100
AcDbEntity
  8
DEFPOINTS
 62
     0
 48
50.0
100
AcDbPoint
 10
6714.049669299917
 20
4677.931598713261
 30
0.0
  0
ENDBLK
  5
1785F
330
17853
100
AcDbEntity
  8
0
 48
50.0
100
AcDbBlockEnd
  0
ENDSEC
  0
SECTION
  2
ENTITIES
  0
MTEXT
  5
763F
330
747D
100
AcDbEntity
  8
0
100
AcDbMText
 10
302.846345836809
 20
280.1983726409901
 30
0.0
 40
3.5
 41
5.323721266742722
 71
     1
 72
     5
  1

  7
MSMINCHO
 73
     1
 44
1.0
1001
ACAD
1000
MTEXTBEGIN
1070
    73
1070
     1
1070
    44
1040
1.0
1070
    74
1070
     0
1000
MTEXTEND
  0
LINE
  5
10B57
330
747D
100
AcDbEntity
  8
補助
  6
PHANTOM
 62
   230
 48
50.0
100
AcDbLine
 10
139.9999999999995
 20
11409.6
 30
0.0
 11
16307.2
 21
11409.6
 31
0.0
  0
LINE
  5
10B59
330
747D
100
AcDbEntity
  8
仕様書枠
  6
Continuous
 48
50.0
100
AcDbLine
 10
13107.2
 20
1200.0
 30
0.0
 11
13107.2
 21
-0.0000000000000729
 31
0.0
  0
LINE
  5
10B5C
330
747D
100
AcDbEntity
  8
仕様書枠
 48
50.0
100
AcDbLine
 10
16307.2
 20
1200.0
 30
0.0
 11
16307.2
 21
-0.0000000000000909
 31
0.0
  0
LINE
  5
10B5D
330
747D
100
AcDbEntity
  8
仕様書枠
 48
50.0
100
AcDbLine
 10
140.0
 20
0.0
 30
0.0
 11
16307.2
 21
-0.0000000000000909
 31
0.0
  0
LINE
  5
10B5E
330
747D
100
AcDbEntity
  8
補助
  6
PHANTOM
 62
   230
 48
50.0
100
AcDbLine
 10
16307.2
 20
11409.6
 30
0.0
 11
16307.2
 21
1200.0
 31
0.0
  0
LINE
  5
10B6C
330
747D
100
AcDbEntity
  8
仕様書枠
 48
50.0
100
AcDbLine
 10
13107.2
 20
1200.0
 30
0.0
 11
16307.2
 21
1200.0
 31
0.0
  0
LINE
  5
10B6D
330
747D
100
AcDbEntity
  8
補助
  6
PHANTOM
 62
   230
 48
50.0
100
AcDbLine
 10
13107.2
 20
11409.6
 30
0.0
 11
13107.2
 21
4800.0
 31
0.0
  0
LINE
  5
10B6F
330
747D
100
AcDbEntity
  8
補助
  6
PHANTOM
 62
   230
 48
50.0
100
AcDbLine
 10
13107.2
 20
4800.0
 30
0.0
 11
16307.2
 21
4800.0
 31
0.0
  0
LINE
  5
10B72
330
747D
100
AcDbEntity
  8
文字
 62
     7
 48
50.0
100
AcDbLine
 10
13187.2
 20
400.0
 30
0.0
 11
16227.2
 21
400.0
 31
0.0
  0
TEXT
  5
10B73
330
747D
100
AcDbEntity
  8
文字
 62
     7
 48
50.0
100
AcDbText
 10
13162.9790565769
 20
895.0906074299405
 30
0.0
 40
200.0
  1
外 形 図
  7
STYLE2
100
AcDbText
  0
TEXT
  5
10B74
330
747D
100
AcDbEntity
  8
文字
 62
     7
 48
50.0
100
AcDbText
 10
13201.43669998441
 20
477.2740661031255
 30
0.0
 40
160.0
  1
機種名
  7
STYLE2
100
AcDbText
  0
TEXT
  5
10B75
330
747D
100
AcDbEntity
  8
文字
 62
     7
 48
50.0
100
AcDbText
 10
13209.4053442172
 20
228.5435242569016
 30
0.0
 40
100.0
  1
○有効開口寸法 ： 1584×1948(mm)
  7
STYLE2
100
AcDbText
  0
TEXT
  5
10B76
330
747D
100
AcDbEntity
  8
文字
 62
     7
 48
50.0
100
AcDbText
 10
13209.4053442172
 20
76.09434707649343
 30
0.0
 40
100.0
  1
○床面積 ： 4.70㎡(1.43坪) 　
  7
STYLE2
100
AcDbText
  0
TEXT
  5
10B79
330
747D
100
AcDbEntity
  8
文字
 62
     7
 48
50.0
100
AcDbText
 10
14524.131837222
 20
1031.557706291228
 30
0.0
 40
100.0
  1
NO.16      <縮尺> S=1/40
  7
STYLE2
100
AcDbText
  0
LINE
  5
10B7B
330
747D
100
AcDbEntity
  8
仕様書枠
 48
50.0
100
AcDbLine
 10
13107.2
 20
800.0
 30
0.0
 11
14251.2
 21
800.0
 31
0.0
  0
LINE
  5
10B88
330
747D
100
AcDbEntity
  8
仕様書枠
  6
Continuous
 48
50.0
100
AcDbLine
 10
14251.2
 20
1200.0
 30
0.0
 11
14251.2
 21
800.0
 31
0.0
  0
LINE
  5
12765
330
747D
100
AcDbEntity
  8
Ｇ．Ｌ
100
AcDbLine
 10
3548.239964307688
 20
2437.931598713261
 30
0.0
 11
12682.62705540134
 21
2437.931598713261
 31
0.0
  0
LINE
  5
127A8
330
747D
100
AcDbEntity
  8
部品1
100
AcDbLine
 10
3647.736975631788
 20
2567.835409280926
 30
0.0
 11
3797.736975631788
 21
2567.835409280926
 31
0.0
  0
LINE
  5
127A9
330
747D
100
AcDbEntity
  8
部品1
100
AcDbLine
 10
3722.736975631788
 20
2437.931598713261
 30
0.0
 11
3647.736975631788
 21
2567.835409280926
 31
0.0
  0
TEXT
  5
127AA
330
747D
100
AcDbEntity
  8
部品1
100
AcDbText
 10
3825.841917756561
 20
2474.038502319163
 30
0.0
 40
125.0
  1
G.L
  7
MSGOTHIC
100
AcDbText
  0
LINE
  5
127AB
330
747D
100
AcDbEntity
  8
部品1
100
AcDbLine
 10
3797.736975631788
 20
2567.835409280926
 30
0.0
 11
3722.736975631788
 21
2437.931598713261
 31
0.0
  0
LINE
  5
13BE8
330
747D
100
AcDbEntity
  8
部品1
100
AcDbLine
 10
4636.50656697817
 20
2537.931598713262
 30
0.0
 11
6426.50656697817
 21
2537.931598713262
 31
0.0
  0
LINE
  5
13C1F
330
747D
100
AcDbEntity
  8
部品1
100
AcDbLine
 10
4636.50656697817
 20
4771.931598713268
 30
0.0
 11
4636.50656697817
 21
2437.931598713261
 31
0.0
  0
LINE
  5
13CFC
330
747D
100
AcDbEntity
  8
部品1
100
AcDbLine
 10
6371.506566978171
 20
4512.931598713262
 30
0.0
 11
6371.50656697817
 21
2537.931598713262
 31
0.0
  0
LINE
  5
13CFE
330
747D
100
AcDbEntity
  8
部品1
100
AcDbLine
 10
4691.50656697817
 20
4512.931598713261
 30
0.0
 11
4691.50656697817
 21
2537.931598713262
 31
0.0
  0
LINE
  5
13D18
330
747D
100
AcDbEntity
  8
部品1
100
AcDbLine
 10
6426.50656697817
 20
4771.931598713268
 30
0.0
 11
6426.50656697817
 21
2437.931598713261
 31
0.0
  0
LINE
  5
146B2
330
747D
100
AcDbEntity
  8
破線
 48
5.0
100
AcDbLine
 10
6426.50656697817
 20
2437.931598713261
 30
0.0
 11
6426.50656697817
 21
2187.931598713261
 31
0.0
  0
LINE
  5
146B3
330
747D
100
AcDbEntity
  8
破線
 48
5.0
100
AcDbLine
 10
4636.50656697817
 20
2437.931598713261
 30
0.0
 11
4636.506566978169
 21
2187.931598713261
 31
0.0
  0
TEXT
  5
149A1
330
747D
100
AcDbEntity
  8
部品1
100
AcDbText
 10
5241.658448363283
 20
1595.038069494744
 30
0.0
 40
135.0
  1
正面図
  7
MSGOTHIC
100
AcDbText
  0
LWPOLYLINE
  5
149A2
330
747D
100
AcDbEntity
  8
部品1
100
AcDbPolyline
 90
        4
 70
     1
 43
0.0
 10
5148.372052044259
 20
1787.931598713268
 10
5148.372052044259
 20
1548.039277167736
 10
5911.842718272698
 20
1548.039277167736
 10
5911.842718272698
 20
1787.931598713268
  0
TEXT
  5
14E88
330
747D
100
AcDbEntity
  8
部品1
100
AcDbText
 10
5241.052654454366
 20
6118.208060581359
 30
0.0
 40
135.0
  1
平面図
  7
MSGOTHIC
100
AcDbText
  0
LWPOLYLINE
  5
14E89
330
747D
100
AcDbEntity
  8
部品1
100
AcDbPolyline
 90
        4
 70
     1
 43
0.0
 10
5148.372052044259
 20
6311.101589799882
 10
5148.372052044259
 20
6071.209268254349
 10
5911.842718272698
 20
6071.209268254349
 10
5911.842718272698
 20
6311.101589799882
  0
TEXT
  5
15550
330
747D
100
AcDbEntity
  8
文字
 62
     7
 48
50.0
100
AcDbText
 10
14722.34803910275
 20
871.9640646083623
 30
0.0
 40
100.0
  1
～一般型・多雪地型～
  7
STYLE2
100
AcDbText
  0
LINE
  5
15CE5
330
747D
100
AcDbEntity
  8
破線
 48
5.0
100
AcDbLine
 10
6371.50656697817
 20
2537.931598713262
 30
0.0
 11
6371.506566978171
 21
2187.931598713261
 31
0.0
  0
LINE
  5
15CE6
330
747D
100
AcDbEntity
  8
破線
 48
5.0
100
AcDbLine
 10
4691.50656697817
 20
2537.931598713262
 30
0.0
 11
4691.506566978169
 21
2187.931598713261
 31
0.0
  0
LINE
  5
15CE7
330
747D
100
AcDbEntity
  8
破線
 48
5.0
100
AcDbLine
 10
6426.50656697817
 20
2187.931598713261
 30
0.0
 11
6371.506566978171
 21
2187.931598713261
 31
0.0
  0
LINE
  5
15CE8
330
747D
100
AcDbEntity
  8
破線
 48
5.0
100
AcDbLine
 10
4691.506566978168
 20
2187.931598713269
 30
0.0
 11
4636.506566978169
 21
2187.931598713269
 31
0.0
  0
LINE
  5
15CE9
330
747D
100
AcDbEntity
  8
部品1
100
AcDbLine
 10
4739.50656697817
 20
4512.931598713261
 30
0.0
 11
4739.50656697817
 21
2537.931598713262
 31
0.0
  0
LINE
  5
15CEA
330
747D
100
AcDbEntity
  8
破線
 48
5.0
100
AcDbLine
 10
4739.50656697817
 20
2537.931598713262
 30
0.0
 11
4739.506566978168
 21
2287.931598713267
 31
0.0
  0
LINE
  5
15CEB
330
747D
100
AcDbEntity
  8
部品1
100
AcDbLine
 10
6323.506566978172
 20
4512.931598713262
 30
0.0
 11
6323.50656697817
 21
2537.931598713262
 31
0.0
  0
LINE
  5
15CEC
330
747D
100
AcDbEntity
  8
破線
 48
5.0
100
AcDbLine
 10
6323.50656697817
 20
2537.931598713262
 30
0.0
 11
6323.506566978171
 21
2287.931598713262
 31
0.0
  0
LINE
  5
15CED
330
747D
100
AcDbEntity
  8
破線
 48
5.0
100
AcDbLine
 10
6371.506566978172
 20
2287.931598713262
 30
0.0
 11
6323.506566978171
 21
2287.931598713262
 31
0.0
  0
LINE
  5
15CEE
330
747D
100
AcDbEntity
  8
破線
 48
5.0
100
AcDbLine
 10
4739.50656697817
 20
2287.931598713267
 30
0.0
 11
4691.506566978168
 21
2287.931598713267
 31
0.0
  0
LINE
  5
15CF0
330
747D
100
AcDbEntity
  8
部品1
100
AcDbLine
 10
4636.506566978169
 20
4512.931598713261
 30
0.0
 11
6426.50656697817
 21
4512.931598713262
 31
0.0
  0
LINE
  5
15D20
330
747D
100
AcDbEntity
  8
細線
100
AcDbLine
 10
4739.506566978167
 20
4172.931598713261
 30
0.0
 11
6323.506566978169
 21
4172.931598713261
 31
0.0
  0
LINE
  5
15D21
330
747D
100
AcDbEntity
  8
細線
100
AcDbLine
 10
4739.506566978167
 20
4237.931598713261
 30
0.0
 11
6323.506566978169
 21
4237.931598713261
 31
0.0
  0
LINE
  5
15D22
330
747D
100
AcDbEntity
  8
細線
100
AcDbLine
 10
4739.506566978167
 20
4302.931598713261
 30
0.0
 11
6323.506566978169
 21
4302.931598713261
 31
0.0
  0
LINE
  5
15D23
330
747D
100
AcDbEntity
  8
細線
100
AcDbLine
 10
4739.506566978167
 20
3782.931598713262
 30
0.0
 11
6323.506566978169
 21
3782.931598713262
 31
0.0
  0
LINE
  5
15D24
330
747D
100
AcDbEntity
  8
細線
100
AcDbLine
 10
4739.506566978167
 20
3847.931598713262
 30
0.0
 11
6323.506566978169
 21
3847.931598713262
 31
0.0
  0
LINE
  5
15D25
330
747D
100
AcDbEntity
  8
細線
100
AcDbLine
 10
4739.506566978167
 20
3912.931598713262
 30
0.0
 11
6323.506566978169
 21
3912.931598713262
 31
0.0
  0
LINE
  5
15D26
330
747D
100
AcDbEntity
  8
細線
100
AcDbLine
 10
4739.506566978167
 20
3977.931598713261
 30
0.0
 11
6323.506566978169
 21
3977.931598713261
 31
0.0
  0
LINE
  5
15D27
330
747D
100
AcDbEntity
  8
細線
100
AcDbLine
 10
4739.506566978167
 20
4042.931598713261
 30
0.0
 11
6323.506566978169
 21
4042.931598713261
 31
0.0
  0
LINE
  5
15D28
330
747D
100
AcDbEntity
  8
細線
100
AcDbLine
 10
4739.506566978167
 20
4107.931598713261
 30
0.0
 11
6323.506566978169
 21
4107.931598713261
 31
0.0
  0
LINE
  5
15D29
330
747D
100
AcDbEntity
  8
細線
100
AcDbLine
 10
4739.506566978167
 20
3132.931598713261
 30
0.0
 11
6323.506566978169
 21
3132.931598713261
 31
0.0
  0
LINE
  5
15D2A
330
747D
100
AcDbEntity
  8
細線
100
AcDbLine
 10
4739.506566978167
 20
3197.931598713262
 30
0.0
 11
6323.506566978169
 21
3197.931598713262
 31
0.0
  0
LINE
  5
15D2B
330
747D
100
AcDbEntity
  8
細線
100
AcDbLine
 10
4739.506566978167
 20
3262.931598713262
 30
0.0
 11
6323.506566978169
 21
3262.931598713262
 31
0.0
  0
LINE
  5
15D2C
330
747D
100
AcDbEntity
  8
細線
100
AcDbLine
 10
4739.506566978167
 20
3327.931598713262
 30
0.0
 11
6323.506566978169
 21
3327.931598713262
 31
0.0
  0
LINE
  5
15D2D
330
747D
100
AcDbEntity
  8
細線
100
AcDbLine
 10
4739.506566978167
 20
3392.931598713261
 30
0.0
 11
6323.506566978169
 21
3392.931598713261
 31
0.0
  0
LINE
  5
15D2E
330
747D
100
AcDbEntity
  8
細線
100
AcDbLine
 10
4739.506566978167
 20
3457.931598713262
 30
0.0
 11
6323.506566978169
 21
3457.931598713262
 31
0.0
  0
LINE
  5
15D2F
330
747D
100
AcDbEntity
  8
細線
100
AcDbLine
 10
4739.506566978167
 20
3522.931598713262
 30
0.0
 11
6323.506566978169
 21
3522.931598713262
 31
0.0
  0
LINE
  5
15D30
330
747D
100
AcDbEntity
  8
細線
100
AcDbLine
 10
4739.506566978167
 20
3587.931598713261
 30
0.0
 11
6323.506566978169
 21
3587.931598713261
 31
0.0
  0
LINE
  5
15D31
330
747D
100
AcDbEntity
  8
細線
100
AcDbLine
 10
4739.506566978167
 20
3652.931598713261
 30
0.0
 11
6323.506566978169
 21
3652.931598713261
 31
0.0
  0
LINE
  5
15D32
330
747D
100
AcDbEntity
  8
細線
100
AcDbLine
 10
4739.506566978167
 20
3717.931598713261
 30
0.0
 11
6323.506566978169
 21
3717.931598713261
 31
0.0
  0
LINE
  5
15D33
330
747D
100
AcDbEntity
  8
細線
100
AcDbLine
 10
4739.506566978167
 20
4432.931598713262
 30
0.0
 11
6323.506566978169
 21
4432.931598713262
 31
0.0
  0
LINE
  5
15D34
330
747D
100
AcDbEntity
  8
細線
100
AcDbLine
 10
4739.506566978167
 20
4497.931598713261
 30
0.0
 11
6323.506566978169
 21
4497.931598713261
 31
0.0
  0
LINE
  5
15D35
330
747D
100
AcDbEntity
  8
細線
100
AcDbLine
 10
4739.506566978167
 20
4367.931598713261
 30
0.0
 11
6323.506566978169
 21
4367.931598713261
 31
0.0
  0
LINE
  5
15D36
330
747D
100
AcDbEntity
  8
細線
100
AcDbLine
 10
4739.506566978167
 20
2547.931598713262
 30
0.0
 11
6323.506566978169
 21
2547.931598713262
 31
0.0
  0
LINE
  5
15D37
330
747D
100
AcDbEntity
  8
細線
100
AcDbLine
 10
4739.506566978167
 20
2612.931598713262
 30
0.0
 11
6323.506566978169
 21
2612.931598713262
 31
0.0
  0
LINE
  5
15D38
330
747D
100
AcDbEntity
  8
細線
100
AcDbLine
 10
4739.506566978167
 20
2677.931598713261
 30
0.0
 11
6323.506566978169
 21
2677.931598713261
 31
0.0
  0
LINE
  5
15D39
330
747D
100
AcDbEntity
  8
細線
100
AcDbLine
 10
4739.506566978167
 20
2742.931598713262
 30
0.0
 11
6323.506566978169
 21
2742.931598713262
 31
0.0
  0
LINE
  5
15D3A
330
747D
100
AcDbEntity
  8
細線
100
AcDbLine
 10
4739.506566978167
 20
2807.931598713262
 30
0.0
 11
6323.506566978169
 21
2807.931598713262
 31
0.0
  0
LINE
  5
15D3B
330
747D
100
AcDbEntity
  8
細線
100
AcDbLine
 10
4739.506566978167
 20
2872.931598713261
 30
0.0
 11
6323.506566978169
 21
2872.931598713261
 31
0.0
  0
LINE
  5
15D3C
330
747D
100
AcDbEntity
  8
細線
100
AcDbLine
 10
4739.506566978167
 20
2937.931598713261
 30
0.0
 11
6323.506566978169
 21
2937.931598713261
 31
0.0
  0
LINE
  5
15D3D
330
747D
100
AcDbEntity
  8
細線
100
AcDbLine
 10
4739.506566978167
 20
3002.931598713261
 30
0.0
 11
6323.506566978169
 21
3002.931598713261
 31
0.0
  0
LINE
  5
15D3E
330
747D
100
AcDbEntity
  8
細線
100
AcDbLine
 10
4739.506566978167
 20
3067.931598713262
 30
0.0
 11
6323.506566978169
 21
3067.931598713262
 31
0.0
  0
LINE
  5
15D3F
330
747D
100
AcDbEntity
  8
細線
100
AcDbLine
 10
6323.506566978171
 20
2547.931598713262
 30
0.0
 11
4739.506566978165
 21
2547.931598713262
 31
0.0
  0
DIMENSION
  5
16452
330
747D
100
AcDbEntity
  8
寸法
100
AcDbDimension
  2
*D1
 10
7439.039854452222
 20
7298.326626276234
 30
0.0
 11
7339.028043428601
 21
8613.326626276238
 31
0.0
 70
    32
 71
     5
 42
2630.000000000007
  3
INABA_S40G
100
AcDbAlignedDimension
 13
6426.506566978178
 23
9928.326626276241
 33
0.0
 14
6426.506566978152
 24
7298.326626276234
 34
0.0
 50
90.0
100
AcDbRotatedDimension
1001
ACAD
1000
DSTYLE
1002
{
1002
}
  0
LINE
  5
16453
330
747D
100
AcDbEntity
  8
部品1
100
AcDbLine
 10
6346.506566978175
 20
9873.326626276101
 30
0.0
 11
6346.506566978153
 21
7363.326626276142
 31
0.0
  0
LINE
  5
16454
330
747D
100
AcDbEntity
  8
部品1
100
AcDbLine
 10
4716.506566978152
 20
9873.326626276117
 30
0.0
 11
4716.50656697817
 21
7363.32662627614
 31
0.0
  0
LINE
  5
16455
330
747D
100
AcDbEntity
  8
部品1
100
AcDbLine
 10
4691.506566978151
 20
9873.326626276117
 30
0.0
 11
4691.506566978169
 21
7363.32662627614
 31
0.0
  0
LINE
  5
16456
330
747D
100
AcDbEntity
  8
部品1
100
AcDbLine
 10
6371.506566978169
 20
9873.326626276101
 30
0.0
 11
6371.506566978155
 21
7298.32662627623
 31
0.0
  0
LINE
  5
16457
330
747D
100
AcDbEntity
  8
部品1
100
AcDbLine
 10
6398.506566978165
 20
9900.326626276241
 30
0.0
 11
6398.506566978154
 21
7353.32662627623
 31
0.0
  0
LINE
  5
16458
330
747D
100
AcDbEntity
  8
部品1
100
AcDbLine
 10
6426.506566978178
 20
9928.326626276241
 30
0.0
 11
6426.506566978152
 21
7298.326626276234
 31
0.0
  0
DIMENSION
  5
16459
330
747D
100
AcDbEntity
  8
寸法
100
AcDbDimension
  2
*D2
 10
7073.932912712587
 20
7353.32662627623
 30
0.0
 11
6973.921101688964
 21
8613.326626276238
 31
0.0
 70
    32
  1
6X420=<>
 71
     5
 42
2520.000000000015
  3
INABA_S40G
100
AcDbAlignedDimension
 13
6426.506566978178
 23
9873.326626276245
 33
0.0
 14
6426.506566978152
 24
7353.32662627623
 34
0.0
 50
90.0
100
AcDbRotatedDimension
1001
ACAD
1000
DSTYLE
1002
{
1002
}
  0
LINE
  5
1645B
330
747D
100
AcDbEntity
  8
部品1
100
AcDbLine
 10
4636.506566978142
 20
9928.326626276113
 30
0.0
 11
4636.50656697817
 21
7298.326626276104
 31
0.0
  0
LINE
  5
1645C
330
747D
100
AcDbEntity
  8
部品1
100
AcDbLine
 10
4664.506566978152
 20
7353.326626276099
 30
0.0
 11
4664.506566978165
 21
9900.326626276147
 31
0.0
  0
DIMENSION
  5
1645E
330
747D
100
AcDbEntity
  8
寸法
 48
50.0
100
AcDbDimension
  2
*D3
 10
4739.50656697817
 20
6763.895855509978
 30
0.0
 11
5531.506566978162
 21
6963.895855509978
 31
0.0
 70
    32
  1
有効開口部間口\P<>
 71
     5
 42
1583.999999999982
  3
INABA_S40G
100
AcDbAlignedDimension
 13
6323.506566978153
 23
7324.326626276143
 33
0.0
 14
4739.50656697817
 24
7324.326626276143
 34
0.0
100
AcDbRotatedDimension
1001
ACAD
1000
DSTYLE
1002
{
1070
    75
1070
     1
1070
   279
1070
     2
1002
}
  0
LINE
  5
1645F
330
747D
100
AcDbEntity
  8
部品1
 48
50.0
100
AcDbLine
 10
4703.50656697817
 20
7343.826626276142
 30
0.0
 11
6359.506566978153
 21
7343.826626276142
 31
0.0
  0
DIMENSION
  5
16460
330
747D
100
AcDbEntity
  8
寸法
100
AcDbDimension
  2
*D4
 10
6426.506566978152
 20
6477.722859919103
 30
0.0
 11
5531.506566978162
 21
6577.722859919103
 31
0.0
 70
    32
 71
     5
 42
1789.999999999982
  3
INABA_S40G
100
AcDbAlignedDimension
 13
4636.50656697817
 23
7298.326626276069
 33
0.0
 14
6426.506566978152
 24
7298.326626276197
 34
0.0
100
AcDbRotatedDimension
1001
ACAD
1000
DSTYLE
1002
{
1002
}
  0
DIMENSION
  5
16461
330
747D
100
AcDbEntity
  8
寸法
 48
50.0
100
AcDbDimension
  2
*D5
 10
4636.50656697817
 20
6763.895855509978
 30
0.0
 11
4328.021285603933
 21
6763.895855509978
 31
0.0
 70
   160
 71
     5
 42
54.99999999999636
  3
INABA_S40G
100
AcDbAlignedDimension
 13
4691.506566978167
 23
7298.326626276142
 33
0.0
 14
4636.50656697817
 24
7298.326626276139
 34
0.0
100
AcDbRotatedDimension
1001
ACAD
1000
DSTYLE
1002
{
1002
}
  0
DIMENSION
  5
16462
330
747D
100
AcDbEntity
  8
寸法
 48
50.0
100
AcDbDimension
  2
*D6
 10
4691.506566978167
 20
6763.895855509978
 30
0.0
 11
4852.408537978228
 21
6863.895855509977
 31
0.0
 70
   160
 71
     5
 42
48.00000000000363
  3
INABA_S40G
100
AcDbAlignedDimension
 13
4739.50656697817
 23
7324.326626276143
 33
0.0
 14
4691.506566978167
 24
7298.326626276142
 34
0.0
100
AcDbRotatedDimension
1001
ACAD
1000
DSTYLE
1002
{
1070
   279
1070
     2
1002
}
  0
LINE
  5
16463
330
747D
100
AcDbEntity
  8
部品1
100
AcDbLine
 10
4691.506566978166
 20
7298.326626276142
 30
0.0
 11
4636.50656697817
 21
7298.326626276139
 31
0.0
  0
LINE
  5
16464
330
747D
100
AcDbEntity
  8
部品1
 48
50.0
100
AcDbLine
 10
4691.50656697817
 20
7334.326626276141
 30
0.0
 11
4668.50656697817
 21
7334.326626276141
 31
0.0
  0
LINE
  5
16465
330
747D
100
AcDbEntity
  8
部品1
 48
50.0
100
AcDbLine
 10
4701.50656697817
 20
7324.326626276143
 30
0.0
 11
4691.50656697817
 21
7303.326626276142
 31
0.0
  0
LINE
  5
16466
330
747D
100
AcDbEntity
  8
部品1
 48
50.0
100
AcDbLine
 10
4691.50656697817
 20
7363.32662627614
 30
0.0
 11
4691.506566978167
 21
7298.326626276142
 31
0.0
  0
LINE
  5
16467
330
747D
100
AcDbEntity
  8
部品1
 48
50.0
100
AcDbLine
 10
4739.50656697817
 20
7324.326626276143
 30
0.0
 11
4739.50656697817
 21
7333.326626276143
 31
0.0
  0
LINE
  5
16468
330
747D
100
AcDbEntity
  8
部品1
 48
50.0
100
AcDbLine
 10
4739.50656697817
 20
7363.326626276142
 30
0.0
 11
4739.50656697817
 21
7354.326626276144
 31
0.0
  0
LINE
  5
16469
330
747D
100
AcDbEntity
  8
部品1
100
AcDbLine
 10
4739.50656697817
 20
7363.326626276142
 30
0.0
 11
4691.50656697817
 21
7363.326626276142
 31
0.0
  0
LINE
  5
1646A
330
747D
100
AcDbEntity
  8
部品1
100
AcDbLine
 10
4739.50656697817
 20
7324.326626276143
 30
0.0
 11
4691.50656697817
 21
7324.326626276143
 31
0.0
  0
LINE
  5
1646B
330
747D
100
AcDbEntity
  8
部品1
100
AcDbLine
 10
4691.506566978169
 20
7334.326626276141
 30
0.0
 11
4668.50656697817
 21
7334.326626276141
 31
0.0
  0
LINE
  5
1646C
330
747D
100
AcDbEntity
  8
部品1
100
AcDbLine
 10
4691.506566978169
 20
7353.326626276066
 30
0.0
 11
4636.506566978169
 21
7353.326626276066
 31
0.0
  0
LINE
  5
1646D
330
747D
100
AcDbEntity
  8
部品1
100
AcDbLine
 10
4664.506566978152
 20
7353.326626276103
 30
0.0
 11
4636.506566978169
 21
7353.326626276103
 31
0.0
  0
LINE
  5
1646E
330
747D
100
AcDbEntity
  8
部品1
100
AcDbLine
 10
4664.506566978168
 20
7353.326626276118
 30
0.0
 11
4636.506566978169
 21
7353.326626276118
 31
0.0
  0
LINE
  5
1646F
330
747D
100
AcDbEntity
  8
部品1
100
AcDbLine
 10
4636.506566978154
 20
7773.326626276257
 30
0.0
 11
4664.506566978154
 21
7773.326626276257
 31
0.0
  0
LINE
  5
16472
330
747D
100
AcDbEntity
  8
部品1
100
AcDbLine
 10
4636.506566978154
 20
8193.326626276256
 30
0.0
 11
4664.506566978154
 21
8193.326626276256
 31
0.0
  0
LINE
  5
16473
330
747D
100
AcDbEntity
  8
部品1
100
AcDbLine
 10
4636.506566978154
 20
8613.326626276256
 30
0.0
 11
4664.506566978154
 21
8613.326626276256
 31
0.0
  0
LINE
  5
16474
330
747D
100
AcDbEntity
  8
部品1
100
AcDbLine
 10
4664.506566978157
 20
9033.326626276117
 30
0.0
 11
4636.506566978157
 21
9033.326626276117
 31
0.0
  0
DIMENSION
  5
16475
330
747D
100
AcDbEntity
  8
寸法
 48
50.0
100
AcDbDimension
  2
*D7
 10
6323.506566978153
 20
6763.895855509978
 30
0.0
 11
6212.543669329405
 21
6863.895855509977
 31
0.0
 70
   160
 71
     5
 42
48.00000000000181
  3
INABA_S40G
100
AcDbAlignedDimension
 13
6371.506566978155
 23
7298.32662627623
 33
0.0
 14
6323.506566978153
 24
7324.326626276143
 34
0.0
100
AcDbRotatedDimension
1001
ACAD
1000
DSTYLE
1002
{
1070
   279
1070
     2
1002
}
  0
DIMENSION
  5
16476
330
747D
100
AcDbEntity
  8
寸法
 48
50.0
100
AcDbDimension
  2
*D8
 10
6371.506566978155
 20
6763.895855509979
 30
0.0
 11
6734.99184835239
 21
6763.895855509979
 31
0.0
 70
   160
 71
     5
 42
54.99999999999818
  3
INABA_S40G
100
AcDbAlignedDimension
 13
6426.506566978152
 23
7298.326626276234
 33
0.0
 14
6371.506566978155
 24
7298.32662627623
 34
0.0
100
AcDbRotatedDimension
1001
ACAD
1000
DSTYLE
1002
{
1002
}
  0
DIMENSION
  5
16477
330
747D
100
AcDbEntity
  8
寸法
100
AcDbDimension
  2
*D9
 10
7073.932912712564
 20
7298.326626276234
 30
0.0
 11
7073.932912712563
 21
6920.465159371372
 31
0.0
 70
   160
 71
     5
 42
54.99999999999636
  3
INABA_S40G
100
AcDbAlignedDimension
 13
6426.506566978152
 23
7353.32662627623
 33
0.0
 14
6426.506566978152
 24
7298.326626276234
 34
0.0
 50
90.0
100
AcDbRotatedDimension
1001
ACAD
1000
DSTYLE
1002
{
1002
}
  0
LINE
  5
16478
330
747D
100
AcDbEntity
  8
部品1
 48
50.0
100
AcDbLine
 10
6361.506566978153
 20
7324.326626276143
 30
0.0
 11
6371.506566978152
 21
7303.326626276142
 31
0.0
  0
LINE
  5
16479
330
747D
100
AcDbEntity
  8
部品1
100
AcDbLine
 10
6371.506566978152
 20
7334.326626276141
 30
0.0
 11
6394.506566978153
 21
7334.326626276141
 31
0.0
  0
LINE
  5
1647A
330
747D
100
AcDbEntity
  8
部品1
 48
50.0
100
AcDbLine
 10
6323.506566978153
 20
7363.326626276142
 30
0.0
 11
6323.506566978153
 21
7354.326626276144
 31
0.0
  0
LINE
  5
1647B
330
747D
100
AcDbEntity
  8
部品1
100
AcDbLine
 10
6323.506566978153
 20
7363.326626276142
 30
0.0
 11
6371.506566978154
 21
7363.326626276142
 31
0.0
  0
LINE
  5
1647C
330
747D
100
AcDbEntity
  8
部品1
 48
50.0
100
AcDbLine
 10
6323.506566978153
 20
7324.326626276143
 30
0.0
 11
6323.506566978153
 21
7333.326626276143
 31
0.0
  0
LINE
  5
1647D
330
747D
100
AcDbEntity
  8
部品1
100
AcDbLine
 10
6323.506566978153
 20
7324.326626276143
 30
0.0
 11
6371.506566978152
 21
7324.326626276143
 31
0.0
  0
LINE
  5
1647E
330
747D
100
AcDbEntity
  8
部品1
100
AcDbLine
 10
6371.506566978152
 20
7353.326626276246
 30
0.0
 11
6426.506566978185
 21
7353.326626276246
 31
0.0
  0
LINE
  5
1647F
330
747D
100
AcDbEntity
  8
部品1
100
AcDbLine
 10
6426.506566978152
 20
7298.326626276234
 30
0.0
 11
6371.506566978155
 21
7298.326626276232
 31
0.0
  0
LINE
  5
16480
330
747D
100
AcDbEntity
  8
部品1
100
AcDbLine
 10
6398.506566978181
 20
7773.326626276244
 30
0.0
 11
6426.506566978182
 21
7773.326626276244
 31
0.0
  0
LINE
  5
16483
330
747D
100
AcDbEntity
  8
部品1
100
AcDbLine
 10
6398.506566978181
 20
8193.326626276244
 30
0.0
 11
6426.506566978182
 21
8193.326626276244
 31
0.0
  0
LINE
  5
16484
330
747D
100
AcDbEntity
  8
部品1
100
AcDbLine
 10
6398.506566978181
 20
8613.326626276245
 30
0.0
 11
6426.506566978182
 21
8613.326626276245
 31
0.0
  0
LINE
  5
16485
330
747D
100
AcDbEntity
  8
部品1
100
AcDbLine
 10
6398.506566978181
 20
9033.326626276245
 30
0.0
 11
6426.506566978182
 21
9033.326626276245
 31
0.0
  0
LINE
  5
16489
330
747D
100
AcDbEntity
  8
部品1
100
AcDbLine
 10
4691.506566978176
 20
9900.326626276262
 30
0.0
 11
5519.006566978175
 21
9900.326626276253
 31
0.0
  0
LINE
  5
1648A
330
747D
100
AcDbEntity
  8
部品1
100
AcDbLine
 10
4636.506566978177
 20
9928.326626276145
 30
0.0
 11
6426.506566978178
 21
9928.326626276241
 31
0.0
  0
DIMENSION
  5
1648F
330
747D
100
AcDbEntity
  8
寸法
100
AcDbDimension
  2
*D10
 10
6371.506566978178
 20
10144.13484590124
 30
0.0
 11
5531.506566978178
 21
10244.14665692486
 31
0.0
 70
    32
  1
4X420=<>
 71
     5
 42
1680.000000000001
  3
INABA_S40G
100
AcDbAlignedDimension
 13
4691.506566978176
 23
9928.326626276145
 33
0.0
 14
6371.506566978178
 24
9928.326626276241
 34
0.0
100
AcDbRotatedDimension
1001
ACAD
1000
DSTYLE
1002
{
1002
}
  0
LINE
  5
16491
330
747D
100
AcDbEntity
  8
部品1
100
AcDbLine
 10
4664.506566978177
 20
9900.326626276147
 30
0.0
 11
5321.506566978177
 21
9900.32662627615
 31
0.0
  0
DIMENSION
  5
16492
330
747D
100
AcDbEntity
  8
寸法
100
AcDbDimension
  2
*D11
 10
4691.506566978176
 20
10144.13484590113
 30
0.0
 11
4328.021285603903
 21
10144.13484590113
 31
0.0
 70
   160
 71
     5
 42
55.00000000003456
  3
INABA_S40G
100
AcDbAlignedDimension
 13
4636.506566978142
 23
9928.326626276145
 33
0.0
 14
4691.506566978176
 24
9928.326626276145
 34
0.0
100
AcDbRotatedDimension
1001
ACAD
1000
DSTYLE
1002
{
1002
}
  0
LINE
  5
16495
330
747D
100
AcDbEntity
  8
部品1
100
AcDbLine
 10
4664.506566978151
 20
9453.326626276117
 30
0.0
 11
4636.506566978151
 21
9453.326626276117
 31
0.0
  0
LINE
  5
16496
330
747D
100
AcDbEntity
  8
部品1
100
AcDbLine
 10
4691.506566978143
 20
9928.326626276113
 30
0.0
 11
4691.506566978143
 21
9900.326626276115
 31
0.0
  0
LINE
  5
16497
330
747D
100
AcDbEntity
  8
部品1
100
AcDbLine
 10
4691.506566978176
 20
9928.326626276145
 30
0.0
 11
4691.506566978176
 21
9900.326626276147
 31
0.0
  0
LINE
  5
16498
330
747D
100
AcDbEntity
  8
部品1
100
AcDbLine
 10
4664.506566978144
 20
9873.326626276117
 30
0.0
 11
4636.506566978144
 21
9873.326626276117
 31
0.0
  0
LINE
  5
164B8
330
747D
100
AcDbEntity
  8
部品1
100
AcDbLine
 10
5111.506566978177
 20
9928.326626276263
 30
0.0
 11
5111.506566978177
 21
9900.326626276262
 31
0.0
  0
LINE
  5
164BB
330
747D
100
AcDbEntity
  8
部品1
100
AcDbLine
 10
5531.506566978177
 20
9928.326626276263
 30
0.0
 11
5531.506566978177
 21
9900.326626276262
 31
0.0
  0
LINE
  5
164BC
330
747D
100
AcDbEntity
  8
部品1
100
AcDbLine
 10
5951.506566978177
 20
9928.326626276263
 30
0.0
 11
5951.506566978177
 21
9900.326626276262
 31
0.0
  0
DIMENSION
  5
164BD
330
747D
100
AcDbEntity
  8
寸法
100
AcDbDimension
  2
*D12
 10
7073.932912712589
 20
9873.326626276245
 30
0.0
 11
7073.932912712587
 21
10236.81190765048
 31
0.0
 70
   160
 71
     5
 42
54.99999999999636
  3
INABA_S40G
100
AcDbAlignedDimension
 13
6426.506566978178
 23
9928.326626276241
 33
0.0
 14
6426.506566978178
 24
9873.326626276245
 34
0.0
 50
90.0
100
AcDbRotatedDimension
1001
ACAD
1000
DSTYLE
1002
{
1002
}
  0
DIMENSION
  5
164BE
330
747D
100
AcDbEntity
  8
寸法
100
AcDbDimension
  2
*D13
 10
6426.506566978178
 20
10144.13484590122
 30
0.0
 11
6734.991848352416
 21
10144.13484590122
 31
0.0
 70
   160
 71
     5
 42
55.0
  3
INABA_S40G
100
AcDbAlignedDimension
 13
6371.506566978178
 23
9928.326626276241
 33
0.0
 14
6426.506566978178
 24
9928.326626276241
 34
0.0
100
AcDbRotatedDimension
1001
ACAD
1000
DSTYLE
1002
{
1002
}
  0
LINE
  5
164C2
330
747D
100
AcDbEntity
  8
部品1
100
AcDbLine
 10
6398.506566978178
 20
9453.326626276245
 30
0.0
 11
6426.506566978178
 21
9453.326626276245
 31
0.0
  0
LINE
  5
164C3
330
747D
100
AcDbEntity
  8
部品1
100
AcDbLine
 10
6371.506566978178
 20
9928.326626276241
 30
0.0
 11
6371.506566978178
 21
9900.326626276241
 31
0.0
  0
LINE
  5
164C4
330
747D
100
AcDbEntity
  8
部品1
100
AcDbLine
 10
6371.506566978178
 20
9928.326626276263
 30
0.0
 11
6371.506566978178
 21
9900.326626276262
 31
0.0
  0
LINE
  5
164C5
330
747D
100
AcDbEntity
  8
部品1
100
AcDbLine
 10
6398.506566978178
 20
9873.326626276245
 30
0.0
 11
6426.506566978178
 21
9873.326626276245
 31
0.0
  0
LINE
  5
166A1
330
747D
100
AcDbEntity
  8
部品1
 48
50.0
100
AcDbLine
 10
6346.506566978175
 20
9848.326626276062
 30
0.0
 11
4716.506566978152
 21
9848.326626276033
 31
0.0
  0
LINE
  5
166A5
330
747D
100
AcDbEntity
  8
部品1
100
AcDbLine
 10
6371.506566978169
 20
9873.326626276101
 30
0.0
 11
4691.506566978152
 21
9873.326626276117
 31
0.0
  0
LINE
  5
166A6
330
747D
100
AcDbEntity
  8
部品1
 48
50.0
100
AcDbLine
 10
4691.506566978151
 20
9873.326626276117
 30
0.0
 11
4664.506566978177
 21
9900.326626276147
 31
0.0
  0
LINE
  5
166A7
330
747D
100
AcDbEntity
  8
部品1
 48
50.0
100
AcDbLine
 10
6398.506566978165
 20
9900.326626276241
 30
0.0
 11
6371.506566978169
 21
9873.326626276101
 31
0.0
  0
LINE
  5
16728
330
747D
100
AcDbEntity
  8
部品1
 48
50.0
100
AcDbLine
 10
5544.006566978177
 20
9892.326626276188
 30
0.0
 11
5544.006566978177
 21
9900.3266262762
 31
0.0
  0
LINE
  5
16729
330
747D
100
AcDbEntity
  8
部品1
 48
50.0
100
AcDbLine
 10
5519.006566978177
 20
9892.326626276185
 30
0.0
 11
5519.006566978176
 21
9900.326626276203
 31
0.0
  0
LINE
  5
1672A
330
747D
100
AcDbEntity
  8
部品1
100
AcDbLine
 10
5496.506566978177
 20
9918.32662627619
 30
0.0
 11
5496.506566978177
 21
9900.326626276189
 31
0.0
  0
LINE
  5
1672B
330
747D
100
AcDbEntity
  8
部品1
100
AcDbLine
 10
5496.506566978177
 20
9918.32662627619
 30
0.0
 11
5502.506566978177
 21
9918.32662627619
 31
0.0
  0
LINE
  5
1672C
330
747D
100
AcDbEntity
  8
部品1
100
AcDbLine
 10
5566.506566978176
 20
9918.32662627619
 30
0.0
 11
5566.506566978176
 21
9900.326626276189
 31
0.0
  0
LINE
  5
1672D
330
747D
100
AcDbEntity
  8
部品1
100
AcDbLine
 10
5560.506566978177
 20
9918.32662627619
 30
0.0
 11
5566.506566978176
 21
9918.32662627619
 31
0.0
  0
LINE
  5
1672E
330
747D
100
AcDbEntity
  8
部品1
100
AcDbLine
 10
5519.006566978177
 20
9892.326626276185
 30
0.0
 11
5544.006566978177
 21
9892.326626276188
 31
0.0
  0
LINE
  5
1672F
330
747D
100
AcDbEntity
  8
部品1
100
AcDbLine
 10
5531.506566978177
 20
9928.326626276202
 30
0.0
 11
5531.506566978177
 21
9900.326626276203
 31
0.0
  0
LINE
  5
16730
330
747D
100
AcDbEntity
  8
部品1
100
AcDbLine
 10
5531.506566978177
 20
9928.326626276263
 30
0.0
 11
5531.506566978177
 21
9900.326626276262
 31
0.0
  0
LINE
  5
16731
330
747D
100
AcDbEntity
  8
部品1
100
AcDbLine
 10
5544.006566978175
 20
9900.326626276253
 30
0.0
 11
6398.506566978165
 21
9900.326626276241
 31
0.0
  0
ARC
  5
167FE
330
747D
100
AcDbEntity
  8
細線
 48
50.0
100
AcDbCircle
 10
5231.506566978168
 20
3100.431598713262
 30
0.0
 40
15.0
100
AcDbArc
 50
90.0
 51
270.0
  0
ARC
  5
167FF
330
747D
100
AcDbEntity
  8
細線
 48
50.0
100
AcDbCircle
 10
5331.506566978168
 20
3100.431598713262
 30
0.0
 40
15.0
100
AcDbArc
 50
270.0
 51
90.0
  0
LINE
  5
16800
330
747D
100
AcDbEntity
  8
細線
 48
50.0
100
AcDbLine
 10
5231.506566978168
 20
3115.431598713261
 30
0.0
 11
5331.506566978168
 21
3115.431598713261
 31
0.0
  0
LINE
  5
16801
330
747D
100
AcDbEntity
  8
細線
 48
50.0
100
AcDbLine
 10
5331.506566978168
 20
3085.431598713262
 30
0.0
 11
5231.506566978168
 21
3085.431598713262
 31
0.0
  0
LINE
  5
16802
330
747D
100
AcDbEntity
  8
細線
 48
50.0
100
AcDbLine
 10
5831.506566978168
 20
3085.431598713262
 30
0.0
 11
5731.506566978168
 21
3085.431598713262
 31
0.0
  0
LINE
  5
16803
330
747D
100
AcDbEntity
  8
細線
 48
50.0
100
AcDbLine
 10
5731.506566978168
 20
3115.431598713261
 30
0.0
 11
5831.506566978168
 21
3115.431598713261
 31
0.0
  0
ARC
  5
16804
330
747D
100
AcDbEntity
  8
細線
 48
50.0
100
AcDbCircle
 10
5731.506566978168
 20
3100.431598713262
 30
0.0
 40
15.0
100
AcDbArc
 50
90.0
 51
270.0
  0
ARC
  5
16805
330
747D
100
AcDbEntity
  8
細線
 48
50.0
100
AcDbCircle
 10
5831.506566978168
 20
3100.431598713262
 30
0.0
 40
15.0
100
AcDbArc
 50
270.0
 51
90.0
  0
CIRCLE
  5
16806
330
747D
100
AcDbEntity
  8
細線
 48
50.0
100
AcDbCircle
 10
5531.506566978168
 20
3425.431598713262
 30
0.0
 40
18.0
  0
LINE
  5
16884
330
747D
100
AcDbEntity
  8
仕様書枠
 48
50.0
100
AcDbLine
 10
16307.19999999999
 20
9709.6
 30
0.0
 11
13127.19999999999
 21
9709.600000000001
 31
0.0
  0
TEXT
  5
16885
330
747D
100
AcDbEntity
  8
文字
 62
     7
 48
50.0
100
AcDbText
 10
13229.83081656555
 20
8380.013745883728
 30
0.0
 40
100.0
  1
Z08→塗装溶融亜鉛めっき鋼板(JIS G 3313)
  7
STYLE1
100
AcDbText
  0
TEXT
  5
16886
330
747D
100
AcDbEntity
  8
文字
 62
     7
 48
50.0
100
AcDbText
 10
13229.83081656555
 20
8550.013745883727
 30
0.0
 40
100.0
  1
Y10→溶融亜鉛-5％アルミニウム合金めっき鋼板(JIS G 3317)
 41
0.9
  7
STYLE1
100
AcDbText
  0
TEXT
  5
16887
330
747D
100
AcDbEntity
  8
文字
 62
     7
 48
50.0
100
AcDbText
 10
13229.83081656555
 20
8720.013745883727
 30
0.0
 40
100.0
  1
F12→溶融亜鉛めっき鋼板(JIS G 3302)
  7
STYLE1
100
AcDbText
  0
LINE
  5
16888
330
747D
100
AcDbEntity
  8
仕様書枠
 48
50.0
100
AcDbLine
 10
16307.19999999999
 20
8349.599999999998
 30
0.0
 11
13127.19999999999
 21
8349.6
 31
0.0
  0
LINE
  5
16889
330
747D
100
AcDbEntity
  8
仕様書枠
 48
50.0
100
AcDbLine
 10
16307.19999999999
 20
8519.599999999998
 30
0.0
 11
13127.19999999999
 21
8519.600000000002
 31
0.0
  0
LINE
  5
1688A
330
747D
100
AcDbEntity
  8
仕様書枠
 48
50.0
100
AcDbLine
 10
16307.19999999999
 20
8689.599999999998
 30
0.0
 11
13127.19999999999
 21
8689.6
 31
0.0
  0
TEXT
  5
1688B
330
747D
100
AcDbEntity
  8
文字
 62
     7
 48
50.0
100
AcDbText
 10
15022.63965474515
 20
8890.013745883727
 30
0.0
 40
100.0
  1
F12            0.6
  7
STYLE1
100
AcDbText
  0
TEXT
  5
1688C
330
747D
100
AcDbEntity
  8
文字
 62
     7
 48
50.0
100
AcDbText
 10
15022.63965474516
 20
9400.013745883722
 30
0.0
 40
100.0
  1
Z08            0.5
  7
STYLE1
100
AcDbText
  0
TEXT
  5
1688E
330
747D
100
AcDbEntity
  8
文字
 62
     7
 48
50.0
100
AcDbText
 10
14850.83183167176
 20
9060.013745883729
 30
0.0
 40
100.0
  1
アルミニウム合金押出形材
  7
STYLE1
100
AcDbText
  0
TEXT
  5
1688F
330
747D
100
AcDbEntity
  8
文字
 62
     7
 48
50.0
100
AcDbText
 10
15022.63965474516
 20
9570.013745883725
 30
0.0
 40
100.0
  1
F12            0.7
  7
STYLE1
100
AcDbText
  0
TEXT
  5
16890
330
747D
100
AcDbEntity
  8
文字
 62
     7
 48
50.0
100
AcDbText
 10
15022.63965474517
 20
9740.013745883725
 30
0.0
 40
100.0
  1
Y10            0.5
  7
STYLE1
100
AcDbText
  0
TEXT
  5
16891
330
747D
100
AcDbEntity
  8
文字
 62
     7
 48
50.0
100
AcDbText
 10
15022.63965474517
 20
9910.013745883725
 30
0.0
 40
100.0
  1
F12            1.0
  7
STYLE1
100
AcDbText
  0
TEXT
  5
16892
330
747D
100
AcDbEntity
  8
文字
 62
     7
 48
50.0
100
AcDbText
 10
15022.63965474516
 20
10080.01374588372
 30
0.0
 40
100.0
  1
Y10            0.7
  7
STYLE1
100
AcDbText
  0
TEXT
  5
16893
330
747D
100
AcDbEntity
  8
文字
 62
     7
 48
50.0
100
AcDbText
 10
15022.63965474516
 20
10250.01374588372
 30
0.0
 40
100.0
  1
Y10            0.7
  7
STYLE1
100
AcDbText
  0
TEXT
  5
16894
330
747D
100
AcDbEntity
  8
文字
 62
     7
 48
50.0
100
AcDbText
 10
15022.63965474516
 20
10420.01374588372
 30
0.0
 40
100.0
  1
Y10            1.0
  7
STYLE1
100
AcDbText
  0
TEXT
  5
16895
330
747D
100
AcDbEntity
  8
文字
 62
     7
 48
50.0
100
AcDbText
 10
15022.63965474516
 20
10590.01374588372
 30
0.0
 40
100.0
  1
Y10            1.0
  7
STYLE1
100
AcDbText
  0
TEXT
  5
16897
330
747D
100
AcDbEntity
  8
文字
 62
     7
 48
50.0
100
AcDbText
 10
15022.63965474517
 20
10930.01374588372
 30
0.0
 40
100.0
  1
F12            1.2
  7
STYLE1
100
AcDbText
  0
TEXT
  5
16898
330
747D
100
AcDbEntity
  8
文字
 62
     7
 48
50.0
100
AcDbText
 10
13248.77747366448
 20
9060.013745883729
 30
0.0
 40
100.0
  1
12
  7
STYLE1
100
AcDbText
  0
TEXT
  5
16899
330
747D
100
AcDbEntity
  8
文字
 62
     7
 48
50.0
100
AcDbText
 10
13248.77747366448
 20
8890.013745883729
 30
0.0
 40
100.0
  1
13
  7
STYLE1
100
AcDbText
  0
TEXT
  5
1689A
330
747D
100
AcDbEntity
  8
文字
 62
     7
 48
50.0
100
AcDbText
 10
13583.1181901657
 20
9400.013745883725
 30
0.0
 40
100.0
  1
シャッター
  7
STYLE1
100
AcDbText
  0
LINE
  5
1689B
330
747D
100
AcDbEntity
  8
仕様書枠
 48
50.0
100
AcDbLine
 10
16307.19999999999
 20
9029.6
 30
0.0
 11
13127.19999999999
 21
9029.600000000002
 31
0.0
  0
TEXT
  5
1689C
330
747D
100
AcDbEntity
  8
文字
 62
     7
 48
50.0
100
AcDbText
 10
13583.11819016569
 20
8890.013745883729
 30
0.0
 40
100.0
  1
棚板（別売）
  7
STYLE1
100
AcDbText
  0
LINE
  5
1689E
330
747D
100
AcDbEntity
  8
仕様書枠
 48
50.0
100
AcDbLine
 10
16307.19999999999
 20
9199.599999999998
 30
0.0
 11
13127.19999999999
 21
9199.600000000001
 31
0.0
  0
TEXT
  5
1689F
330
747D
100
AcDbEntity
  8
文字
 62
     7
 48
50.0
100
AcDbText
 10
13583.11819016569
 20
9230.013745883727
 30
0.0
 40
100.0
  1
シャッターカバー
 41
0.9
  7
STYLE1
100
AcDbText
  0
TEXT
  5
168A0
330
747D
100
AcDbEntity
  8
文字
 62
     7
 48
50.0
100
AcDbText
 10
13248.77747366448
 20
9230.013745883727
 30
0.0
 40
100.0
  1
11
  7
STYLE1
100
AcDbText
  0
LINE
  5
168A1
330
747D
100
AcDbEntity
  8
仕様書枠
 48
50.0
100
AcDbLine
 10
16307.19999999999
 20
9879.599999999999
 30
0.0
 11
13127.2
 21
9879.600000000001
 31
0.0
  0
LINE
  5
168A2
330
747D
100
AcDbEntity
  8
仕様書枠
 48
50.0
100
AcDbLine
 10
16307.19999999999
 20
10049.6
 30
0.0
 11
13127.2
 21
10049.6
 31
0.0
  0
LINE
  5
168A3
330
747D
100
AcDbEntity
  8
仕様書枠
 48
50.0
100
AcDbLine
 10
16307.19999999999
 20
9539.599999999998
 30
0.0
 11
13127.19999999999
 21
9539.6
 31
0.0
  0
LINE
  5
168A4
330
747D
100
AcDbEntity
  8
仕様書枠
 48
50.0
100
AcDbLine
 10
16307.19999999999
 20
9369.599999999998
 30
0.0
 11
13127.19999999999
 21
9369.600000000001
 31
0.0
  0
TEXT
  5
168A5
330
747D
100
AcDbEntity
  8
文字
 62
     7
 48
50.0
100
AcDbText
 10
13271.19032244792
 20
10080.01374588373
 30
0.0
 40
100.0
  1
6
  7
STYLE1
100
AcDbText
  0
TEXT
  5
168A6
330
747D
100
AcDbEntity
  8
文字
 62
     7
 48
50.0
100
AcDbText
 10
13271.19032244792
 20
9910.01374588373
 30
0.0
 40
100.0
  1
7
  7
STYLE1
100
AcDbText
  0
TEXT
  5
168A7
330
747D
100
AcDbEntity
  8
文字
 62
     7
 48
50.0
100
AcDbText
 10
13271.19032244792
 20
9570.013745883729
 30
0.0
 40
100.0
  1
9
  7
STYLE1
100
AcDbText
  0
TEXT
  5
168A8
330
747D
100
AcDbEntity
  8
文字
 62
     7
 48
50.0
100
AcDbText
 10
13271.19032244792
 20
9740.013745883729
 30
0.0
 40
100.0
  1
8
  7
STYLE1
100
AcDbText
  0
TEXT
  5
168A9
330
747D
100
AcDbEntity
  8
文字
 62
     7
 48
50.0
100
AcDbText
 10
13583.11819016569
 20
10080.01374588372
 30
0.0
 40
100.0
  1
鼻隠シ前後
  7
STYLE1
100
AcDbText
  0
TEXT
  5
168AA
330
747D
100
AcDbEntity
  8
文字
 62
     7
 48
50.0
100
AcDbText
 10
13583.11819016569
 20
9910.013745883727
 30
0.0
 40
100.0
  1
母屋中
  7
STYLE1
100
AcDbText
  0
TEXT
  5
168AB
330
747D
100
AcDbEntity
  8
文字
 62
     7
 48
50.0
100
AcDbText
 10
13583.11819016569
 20
9740.013745883729
 30
0.0
 40
100.0
  1
屋根パネル
  7
STYLE1
100
AcDbText
  0
TEXT
  5
168AC
330
747D
100
AcDbEntity
  8
文字
 62
     7
 48
50.0
100
AcDbText
 10
13583.11819016569
 20
9570.013745883729
 30
0.0
 40
100.0
  1
壁パネル
  7
STYLE1
100
AcDbText
  0
TEXT
  5
168AD
330
747D
100
AcDbEntity
  8
文字
 62
     7
 48
50.0
100
AcDbText
 10
13248.77747366448
 20
9400.013745883727
 30
0.0
 40
100.0
  1
10
  7
STYLE1
100
AcDbText
  0
TEXT
  5
168AE
330
747D
100
AcDbEntity
  8
文字
 62
     7
 48
50.0
100
AcDbText
 10
13583.11819016569
 20
9060.013745883731
 30
0.0
 40
100.0
  1
シャッターレール
  7
STYLE1
100
AcDbText
  0
TEXT
  5
168AF
330
747D
100
AcDbEntity
  8
文字
 62
     7
 48
50.0
100
AcDbText
 10
13583.11819016569
 20
10250.01374588373
 30
0.0
 40
100.0
  1
妻板左右
  7
STYLE1
100
AcDbText
  0
TEXT
  5
168B0
330
747D
100
AcDbEntity
  8
文字
 62
     7
 48
50.0
100
AcDbText
 10
13271.19032244792
 20
10250.01374588373
 30
0.0
 40
100.0
  1
5
  7
STYLE1
100
AcDbText
  0
TEXT
  5
168B1
330
747D
100
AcDbEntity
  8
文字
 62
     7
 48
50.0
100
AcDbText
 10
13583.11819016569
 20
10420.01374588373
 30
0.0
 40
100.0
  1
桁後
  7
STYLE1
100
AcDbText
  0
TEXT
  5
168B2
330
747D
100
AcDbEntity
  8
文字
 62
     7
 48
50.0
100
AcDbText
 10
13583.11819016569
 20
10590.01374588373
 30
0.0
 40
100.0
  1
桁前
  7
STYLE1
100
AcDbText
  0
TEXT
  5
168B3
330
747D
100
AcDbEntity
  8
文字
 62
     7
 48
50.0
100
AcDbText
 10
13583.11819016569
 20
10760.01374588372
 30
0.0
 40
100.0
  1
柱
  7
STYLE1
100
AcDbText
  0
TEXT
  5
168B4
330
747D
100
AcDbEntity
  8
文字
 62
     7
 48
50.0
100
AcDbText
 10
13583.11819016569
 20
10930.01374588372
 30
0.0
 40
100.0
  1
土台枠
  7
STYLE1
100
AcDbText
  0
TEXT
  5
168B5
330
747D
100
AcDbEntity
  8
文字
 62
     7
 48
50.0
100
AcDbText
 10
14859.79774614482
 20
11100.01374588373
 30
0.0
 40
100.0
  1
材料（材質）　　単位mm
  7
STYLE1
100
AcDbText
  0
TEXT
  5
168B6
330
747D
100
AcDbEntity
  8
文字
 62
     7
 48
50.0
100
AcDbText
 10
13732.03840939434
 20
11100.01374588373
 30
0.0
 40
100.0
  1
部　　品　　名
  7
STYLE1
100
AcDbText
  0
TEXT
  5
168B7
330
747D
100
AcDbEntity
  8
文字
 62
     7
 48
50.0
100
AcDbText
 10
13271.19032244792
 20
10590.01374588373
 30
0.0
 40
100.0
  1
3
  7
STYLE1
100
AcDbText
  0
TEXT
  5
168B8
330
747D
100
AcDbEntity
  8
文字
 62
     7
 48
50.0
100
AcDbText
 10
13271.19032244792
 20
10420.01374588373
 30
0.0
 40
100.0
  1
4
  7
STYLE1
100
AcDbText
  0
TEXT
  5
168B9
330
747D
100
AcDbEntity
  8
文字
 62
     7
 48
50.0
100
AcDbText
 10
13271.19032244792
 20
10760.01374588373
 30
0.0
 40
100.0
  1
2
  7
STYLE1
100
AcDbText
  0
TEXT
  5
168BA
330
747D
100
AcDbEntity
  8
文字
 62
     7
 48
50.0
100
AcDbText
 10
13271.19032244792
 20
10930.01374588373
 30
0.0
 40
100.0
  1
1
  7
STYLE1
100
AcDbText
  0
TEXT
  5
168BB
330
747D
100
AcDbEntity
  8
文字
 62
     7
 48
50.0
100
AcDbText
 10
13197.42518560407
 20
11100.01374588373
 30
0.0
 40
100.0
  1
品番
  7
STYLE1
100
AcDbText
  0
LINE
  5
168BC
330
747D
100
AcDbEntity
  8
仕様書枠
 48
50.0
100
AcDbLine
 10
16307.19999999999
 20
10559.6
 30
0.0
 11
13127.19999999999
 21
10559.6
 31
0.0
  0
LINE
  5
168BD
330
747D
100
AcDbEntity
  8
仕様書枠
 48
50.0
100
AcDbLine
 10
16307.19999999999
 20
10219.6
 30
0.0
 11
13127.19999999999
 21
10219.6
 31
0.0
  0
LINE
  5
168BE
330
747D
100
AcDbEntity
  8
仕様書枠
 48
50.0
100
AcDbLine
 10
16307.19999999999
 20
10389.6
 30
0.0
 11
13127.19999999999
 21
10389.6
 31
0.0
  0
LINE
  5
168BF
330
747D
100
AcDbEntity
  8
仕様書枠
 48
50.0
100
AcDbLine
 10
16307.19999999999
 20
10899.6
 30
0.0
 11
13127.2
 21
10899.6
 31
0.0
  0
LINE
  5
168C0
330
747D
100
AcDbEntity
  8
仕様書枠
 48
50.0
100
AcDbLine
 10
16307.19999999999
 20
10729.6
 30
0.0
 11
13127.2
 21
10729.6
 31
0.0
  0
LINE
  5
168C1
330
747D
100
AcDbEntity
  8
仕様書枠
 48
50.0
100
AcDbLine
 10
16307.19999999999
 20
11069.6
 30
0.0
 11
13127.2
 21
11069.6
 31
0.0
  0
LINE
  5
168C2
330
747D
100
AcDbEntity
  8
仕様書枠
 48
50.0
100
AcDbLine
 10
13490.2
 20
11239.6
 30
0.0
 11
13490.20000000001
 21
8859.600000000005
 31
0.0
  0
LINE
  5
168C3
330
747D
100
AcDbEntity
  8
仕様書枠
 48
50.0
100
AcDbLine
 10
14785.2
 20
11239.59999999999
 30
0.0
 11
14785.2
 21
8859.600000000005
 31
0.0
  0
LINE
  5
168C4
330
747D
100
AcDbEntity
  8
仕様書枠
 48
50.0
100
AcDbLine
 10
16307.2
 20
8349.6
 30
0.0
 11
16307.2
 21
11239.6
 31
0.0
  0
LINE
  5
168C5
330
747D
100
AcDbEntity
  8
仕様書枠
 48
50.0
100
AcDbLine
 10
13127.2
 20
11239.6
 30
0.0
 11
13127.2
 21
8349.600000000002
 31
0.0
  0
LINE
  5
168C6
330
747D
100
AcDbEntity
  8
仕様書枠
 48
50.0
100
AcDbLine
 10
16307.19999999999
 20
11239.6
 30
0.0
 11
13127.2
 21
11239.6
 31
0.0
  0
TEXT
  5
16FCE
330
747D
100
AcDbEntity
  8
部品1
100
AcDbText
 10
10089.15510125825
 20
1595.038069494748
 30
0.0
 40
135.0
  1
側面図
  7
MSGOTHIC
100
AcDbText
  0
LWPOLYLINE
  5
16FCF
330
747D
100
AcDbEntity
  8
部品1
100
AcDbPolyline
 90
        4
 70
     1
 43
0.0
 10
9996.948007253573
 20
1787.931598713272
 10
9996.948007253573
 20
1548.03927716774
 10
10760.41867348201
 20
1548.03927716774
 10
10760.41867348201
 20
1787.931598713272
  0
TEXT
  5
16FD0
330
747D
100
AcDbEntity
  8
文字
 62
     7
 48
50.0
100
AcDbText
 10
14528.81784699908
 20
483.8967129911416
 30
0.0
 40
160.0
  1
FXN-1726H
  7
MSGOTHIC
100
AcDbText
  0
LINE
  5
16FD1
330
747D
100
AcDbEntity
  8
部品1
100
AcDbLine
 10
9053.683340367792
 20
2537.931598713262
 30
0.0
 11
8660.686126158944
 21
2437.931598713261
 31
0.0
  0
LINE
  5
16FD2
330
747D
100
AcDbEntity
  8
破線
 48
5.0
100
AcDbLine
 10
9053.683340367792
 20
2187.931598713261
 30
0.0
 11
9108.683340367791
 21
2187.931598713261
 31
0.0
  0
LINE
  5
16FD3
330
747D
100
AcDbEntity
  8
破線
 48
5.0
100
AcDbLine
 10
9108.683340367791
 20
2437.931598713261
 30
0.0
 11
9108.683340367791
 21
2187.931598713261
 31
0.0
  0
LINE
  5
16FD4
330
747D
100
AcDbEntity
  8
破線
 48
5.0
100
AcDbLine
 10
9053.683340367792
 20
2437.931598713261
 30
0.0
 11
9053.683340367792
 21
2187.931598713261
 31
0.0
  0
DIMENSION
  5
16FDA
330
747D
100
AcDbEntity
  8
寸法
 48
50.0
100
AcDbDimension
  2
*D14
 10
8433.074933599412
 20
4787.276857586593
 30
0.0
 11
8443.740408858339
 21
5158.123520828294
 31
0.0
 70
   161
 71
     5
 42
141.0000000000009
  3
INABA_S40G
100
AcDbAlignedDimension
 13
9013.079360526372
 23
4911.654347547942
 33
0.0
 14
9009.025904969744
 24
4770.712623782229
 34
0.0
1001
ACAD
1000
DSTYLE
1002
{
1070
   174
1070
     0
1070
   272
1070
     1
1070
   288
1070
     0
1070
   341
1005
0
1002
}
  0
LINE
  5
16FDB
330
747D
100
AcDbEntity
  8
細線
 48
50.0
100
AcDbLine
 10
11551.1833403678
 20
4677.931598713261
 30
0.0
 11
11551.1833403678
 21
2587.931598713265
 31
0.0
  0
LINE
  5
16FDC
330
747D
100
AcDbEntity
  8
細線
 48
50.0
100
AcDbLine
 10
11566.1833403678
 20
4677.931598713261
 30
0.0
 11
11566.1833403678
 21
2587.931598713265
 31
0.0
  0
LINE
  5
16FDD
330
747D
100
AcDbEntity
  8
細線
 48
50.0
100
AcDbLine
 10
11426.1833403678
 20
4677.931598713261
 30
0.0
 11
11426.1833403678
 21
2587.931598713265
 31
0.0
  0
LINE
  5
16FDE
330
747D
100
AcDbEntity
  8
細線
 48
50.0
100
AcDbLine
 10
11411.1833403678
 20
4677.931598713261
 30
0.0
 11
11411.1833403678
 21
2587.931598713265
 31
0.0
  0
LINE
  5
16FDF
330
747D
100
AcDbEntity
  8
細線
 48
50.0
100
AcDbLine
 10
11271.1833403678
 20
4677.931598713261
 30
0.0
 11
11271.1833403678
 21
2587.931598713265
 31
0.0
  0
LINE
  5
16FE0
330
747D
100
AcDbEntity
  8
細線
 48
50.0
100
AcDbLine
 10
11286.1833403678
 20
4677.931598713261
 30
0.0
 11
11286.1833403678
 21
2587.931598713265
 31
0.0
  0
LINE
  5
16FE1
330
747D
100
AcDbEntity
  8
部品1
100
AcDbLine
 10
10368.68334036779
 20
4677.931598713261
 30
0.0
 11
10368.68334036779
 21
2587.931598713261
 31
0.0
  0
LINE
  5
16FE2
330
747D
100
AcDbEntity
  8
細線
 48
50.0
100
AcDbLine
 10
10026.18334036779
 20
4677.931598713261
 30
0.0
 11
10026.18334036779
 21
2587.931598713261
 31
0.0
  0
LINE
  5
16FE3
330
747D
100
AcDbEntity
  8
細線
 48
50.0
100
AcDbLine
 10
10011.18334036779
 20
4677.931598713261
 30
0.0
 11
10011.18334036779
 21
2587.931598713261
 31
0.0
  0
LINE
  5
16FE4
330
747D
100
AcDbEntity
  8
細線
 48
50.0
100
AcDbLine
 10
10151.18334036779
 20
4677.931598713261
 30
0.0
 11
10151.18334036779
 21
2587.931598713261
 31
0.0
  0
LINE
  5
16FE5
330
747D
100
AcDbEntity
  8
細線
 48
50.0
100
AcDbLine
 10
10166.18334036779
 20
4677.931598713261
 30
0.0
 11
10166.18334036779
 21
2587.931598713261
 31
0.0
  0
LINE
  5
16FE6
330
747D
100
AcDbEntity
  8
細線
 48
50.0
100
AcDbLine
 10
10306.18334036779
 20
4677.931598713261
 30
0.0
 11
10306.18334036779
 21
2587.931598713261
 31
0.0
  0
LINE
  5
16FE7
330
747D
100
AcDbEntity
  8
細線
 48
50.0
100
AcDbLine
 10
10291.18334036779
 20
4677.931598713261
 30
0.0
 11
10291.18334036779
 21
2587.931598713261
 31
0.0
  0
LINE
  5
16FE8
330
747D
100
AcDbEntity
  8
部品1
100
AcDbLine
 10
9948.683340367793
 20
4677.931598713261
 30
0.0
 11
9948.683340367793
 21
2587.931598713261
 31
0.0
  0
DIMENSION
  5
16FE9
330
747D
100
AcDbEntity
  8
寸法
 48
50.0
100
AcDbDimension
  2
*D15
 10
11763.68334036779
 20
5311.589052292568
 30
0.0
 11
11969.73058446228
 21
5311.589052292568
 31
0.0
 70
   160
 71
     5
 42
80.0
  3
INABA_S40G
100
AcDbAlignedDimension
 13
11683.68334036779
 23
4859.742278324915
 33
0.0
 14
11763.68334036779
 24
4857.931598713264
 34
0.0
100
AcDbRotatedDimension
1001
ACAD
1000
DSTYLE
1002
{
1070
   174
1070
     0
1070
   272
1070
     1
1070
   288
1070
     0
1070
   341
1005
0
1002
}
  0
LINE
  5
16FEA
330
747D
100
AcDbEntity
  8
細線
 48
50.0
100
AcDbLine
 10
9186.183340367792
 20
4677.931598713261
 30
0.0
 11
9186.183340367792
 21
2587.931598713261
 31
0.0
  0
LINE
  5
16FEB
330
747D
100
AcDbEntity
  8
細線
 48
50.0
100
AcDbLine
 10
9171.183340367791
 20
4677.931598713261
 30
0.0
 11
9171.183340367791
 21
2587.931598713261
 31
0.0
  0
LINE
  5
16FEC
330
747D
100
AcDbEntity
  8
細線
 48
50.0
100
AcDbLine
 10
9311.183340367792
 20
4677.931598713261
 30
0.0
 11
9311.183340367792
 21
2587.931598713261
 31
0.0
  0
LINE
  5
16FED
330
747D
100
AcDbEntity
  8
細線
 48
50.0
100
AcDbLine
 10
9326.183340367792
 20
4677.931598713261
 30
0.0
 11
9326.183340367792
 21
2587.931598713261
 31
0.0
  0
LINE
  5
16FEE
330
747D
100
AcDbEntity
  8
細線
 48
50.0
100
AcDbLine
 10
9466.183340367791
 20
4677.931598713261
 30
0.0
 11
9466.183340367791
 21
2587.931598713261
 31
0.0
  0
LINE
  5
16FEF
330
747D
100
AcDbEntity
  8
細線
 48
50.0
100
AcDbLine
 10
9451.183340367792
 20
4677.931598713261
 30
0.0
 11
9451.183340367792
 21
2587.931598713261
 31
0.0
  0
LINE
  5
16FF0
330
747D
100
AcDbEntity
  8
細線
 48
50.0
100
AcDbLine
 10
9871.183340367792
 20
4677.931598713261
 30
0.0
 11
9871.183340367792
 21
2587.931598713261
 31
0.0
  0
LINE
  5
16FF1
330
747D
100
AcDbEntity
  8
細線
 48
50.0
100
AcDbLine
 10
9886.183340367793
 20
4677.931598713261
 30
0.0
 11
9886.183340367793
 21
2587.931598713261
 31
0.0
  0
LINE
  5
16FF2
330
747D
100
AcDbEntity
  8
細線
 48
50.0
100
AcDbLine
 10
9746.183340367792
 20
4677.931598713261
 30
0.0
 11
9746.183340367792
 21
2587.931598713261
 31
0.0
  0
LINE
  5
16FF3
330
747D
100
AcDbEntity
  8
細線
 48
50.0
100
AcDbLine
 10
9731.183340367792
 20
4677.931598713261
 30
0.0
 11
9731.183340367792
 21
2587.931598713261
 31
0.0
  0
LINE
  5
16FF4
330
747D
100
AcDbEntity
  8
細線
 48
50.0
100
AcDbLine
 10
9591.183340367791
 20
4677.931598713261
 30
0.0
 11
9591.183340367791
 21
2587.931598713261
 31
0.0
  0
LINE
  5
16FF5
330
747D
100
AcDbEntity
  8
細線
 48
50.0
100
AcDbLine
 10
9606.183340367792
 20
4677.931598713261
 30
0.0
 11
9606.183340367792
 21
2587.931598713261
 31
0.0
  0
LINE
  5
16FF6
330
747D
100
AcDbEntity
  8
部品1
100
AcDbLine
 10
9108.683340367791
 20
2537.931598713262
 30
0.0
 11
11683.68334036779
 21
2537.931598713262
 31
0.0
  0
DIMENSION
  5
16FF7
330
747D
100
AcDbEntity
  8
寸法
 48
50.0
100
AcDbDimension
  2
*D16
 10
8993.683340367793
 20
5531.799739024184
 30
0.0
 11
10378.68334036779
 21
5531.799739024184
 31
0.0
 70
   160
 71
     5
 42
2770.0
  3
INABA_S40G
100
AcDbAlignedDimension
 13
11763.68334036779
 23
4857.931598713264
 33
0.0
 14
8993.683340367793
 24
4912.931598713267
 34
0.0
100
AcDbRotatedDimension
1001
ACAD
1000
DSTYLE
1002
{
1070
   174
1070
     0
1070
   272
1070
     1
1070
   288
1070
     0
1070
   341
1005
0
1002
}
  0
DIMENSION
  5
16FF8
330
747D
100
AcDbEntity
  8
寸法
 48
50.0
100
AcDbDimension
  2
*D17
 10
8993.683340367793
 20
5311.589052292567
 30
0.0
 11
8684.045545092201
 21
5311.589052292567
 31
0.0
 70
   160
 71
     5
 42
60.0
  3
INABA_S40G
100
AcDbAlignedDimension
 13
9053.683340367792
 23
4908.933216836238
 33
0.0
 14
8993.683340367793
 24
4912.931598713267
 34
0.0
100
AcDbRotatedDimension
1001
ACAD
1000
DSTYLE
1002
{
1070
   174
1070
     0
1070
   272
1070
     1
1070
   288
1070
     0
1070
   341
1005
0
1002
}
  0
DIMENSION
  5
16FF9
330
747D
100
AcDbEntity
  8
寸法
 48
50.0
100
AcDbDimension
  2
*D18
 10
9053.683340367792
 20
5311.589052292568
 30
0.0
 11
10368.68334036779
 21
5311.589052292568
 31
0.0
 70
   160
  1
柱外寸法<>
 71
     5
 42
2630.0
  3
INABA_S40G
100
AcDbAlignedDimension
 13
11683.68334036779
 23
4859.742278324915
 33
0.0
 14
9053.683340367792
 24
4908.933216836238
 34
0.0
100
AcDbRotatedDimension
1001
ACAD
1000
DSTYLE
1002
{
1070
   174
1070
     0
1070
   272
1070
     1
1070
   288
1070
     0
1070
   341
1005
0
1002
}
  0
LINE
  5
16FFA
330
747D
100
AcDbEntity
  8
部品1
100
AcDbLine
 10
11628.68334036779
 20
4677.931598713261
 30
0.0
 11
11628.68334036779
 21
2587.931598713265
 31
0.0
  0
LINE
  5
16FFB
330
747D
100
AcDbEntity
  8
部品1
100
AcDbLine
 10
11683.68334036779
 20
4732.465872101001
 30
0.0
 11
11683.68334036779
 21
2437.931598713265
 31
0.0
  0
LINE
  5
16FFC
330
747D
100
AcDbEntity
  8
部品1
100
AcDbLine
 10
9528.683340367791
 20
4677.931598713261
 30
0.0
 11
9528.683340367791
 21
2587.931598713261
 31
0.0
  0
DIMENSION
  5
16FFD
330
747D
100
AcDbEntity
  8
寸法
100
AcDbDimension
  2
*D19
 10
8209.933211184532
 20
2537.931598713262
 30
0.0
 11
8209.933211184532
 21
2231.884354618772
 31
0.0
 70
   160
 71
     5
 42
50.0
  3
INABA_S40G
100
AcDbAlignedDimension
 13
9053.683340367792
 23
2587.931598713263
 33
0.0
 14
8998.683340367792
 24
2537.931598713262
 34
0.0
 50
90.0
100
AcDbRotatedDimension
1001
ACAD
1000
DSTYLE
1002
{
1070
   174
1070
     0
1070
   272
1070
     1
1070
   288
1070
     0
1070
   341
1005
0
1002
}
  0
LINE
  5
16FFE
330
747D
100
AcDbEntity
  8
部品1
100
AcDbLine
 10
9053.683340367792
 20
4770.074036642141
 30
0.0
 11
9053.683340367792
 21
2437.931598713261
 31
0.0
  0
LINE
  5
16FFF
330
747D
100
AcDbEntity
  8
部品1
100
AcDbLine
 10
9108.683340367791
 20
4677.931598713261
 30
0.0
 11
9108.683340367791
 21
2437.931598713265
 31
0.0
  0
LINE
  5
17000
330
747D
100
AcDbEntity
  8
部品1
100
AcDbLine
 10
9108.683340367788
 20
2587.931598713261
 30
0.0
 11
11683.68334036779
 21
2587.931598713265
 31
0.0
  0
LINE
  5
17001
330
747D
100
AcDbEntity
  8
部品1
100
AcDbLine
 10
9053.683340367792
 20
4677.931598713261
 30
0.0
 11
11683.68334036779
 21
4677.931598713261
 31
0.0
  0
LINE
  5
17002
330
747D
100
AcDbEntity
  8
部品1
100
AcDbLine
 10
11208.68334036779
 20
4677.931598713261
 30
0.0
 11
11208.68334036779
 21
2587.931598713265
 31
0.0
  0
LINE
  5
17003
330
747D
100
AcDbEntity
  8
細線
 48
50.0
100
AcDbLine
 10
10711.18334036779
 20
4677.931598713261
 30
0.0
 11
10711.18334036779
 21
2587.931598713261
 31
0.0
  0
LINE
  5
17004
330
747D
100
AcDbEntity
  8
細線
 48
50.0
100
AcDbLine
 10
10726.18334036779
 20
4677.931598713261
 30
0.0
 11
10726.18334036779
 21
2587.931598713261
 31
0.0
  0
LINE
  5
17005
330
747D
100
AcDbEntity
  8
細線
 48
50.0
100
AcDbLine
 10
10586.18334036779
 20
4677.931598713261
 30
0.0
 11
10586.18334036779
 21
2587.931598713261
 31
0.0
  0
LINE
  5
17006
330
747D
100
AcDbEntity
  8
細線
 48
50.0
100
AcDbLine
 10
10571.18334036779
 20
4677.931598713261
 30
0.0
 11
10571.18334036779
 21
2587.931598713261
 31
0.0
  0
LINE
  5
17007
330
747D
100
AcDbEntity
  8
細線
 48
50.0
100
AcDbLine
 10
10431.18334036779
 20
4677.931598713261
 30
0.0
 11
10431.18334036779
 21
2587.931598713261
 31
0.0
  0
LINE
  5
17008
330
747D
100
AcDbEntity
  8
細線
 48
50.0
100
AcDbLine
 10
10446.18334036779
 20
4677.931598713261
 30
0.0
 11
10446.18334036779
 21
2587.931598713261
 31
0.0
  0
TEXT
  5
17009
330
747D
100
AcDbEntity
  8
部品1
 48
50.0
100
AcDbText
 10
10720.26434232888
 20
4935.200691651571
 30
0.0
 40
120.0
  1
37
 50
90.0
  7
STYLE1
100
AcDbText
  0
TEXT
  5
1700A
330
747D
100
AcDbEntity
  8
部品1
 48
50.0
100
AcDbText
 10
10242.63131966379
 20
5072.701949869854
 30
0.0
 40
120.0
  1
1000
  7
STYLE1
100
AcDbText
  0
LINE
  5
1700B
330
747D
100
AcDbEntity
  8
部品1
 48
50.0
100
AcDbLine
 10
10554.36348444007
 20
5036.817927717421
 30
0.0
 11
10554.36348444007
 21
5020.61792771742
 31
0.0
  0
LINE
  5
1700C
330
747D
100
AcDbEntity
  8
部品1
 48
50.0
100
AcDbLine
 10
10254.36348444007
 20
5036.817927717421
 30
0.0
 11
10554.36348444007
 21
5036.817927717421
 31
0.0
  0
LINE
  5
1700D
330
747D
100
AcDbEntity
  8
部品1
100
AcDbLine
 10
9001.228326724755
 20
4911.649334047528
 30
0.0
 11
11756.29521722926
 21
4856.572396422402
 31
0.0
  0
LINE
  5
1700E
330
747D
100
AcDbEntity
  8
部品1
100
AcDbLine
 10
9009.025904969744
 20
4770.712623782229
 30
0.0
 11
11738.34704090764
 21
4731.684198548024
 31
0.0
  0
LINE
  5
1700F
330
747D
100
AcDbEntity
  8
細線
 48
50.0
100
AcDbLine
 10
9026.683340367792
 20
4910.331275088669
 30
0.0
 11
9021.394238812284
 21
4770.245642461311
 31
0.0
  0
LINE
  5
17010
330
747D
100
AcDbEntity
  8
細線
 48
50.0
100
AcDbLine
 10
11730.65262356148
 20
4857.085021192732
 30
0.0
 11
11725.9356574798
 21
4732.152805257814
 31
0.0
  0
LINE
  5
17011
330
747D
100
AcDbEntity
  8
部品1
 48
50.0
100
AcDbLine
 10
8993.867626280898
 20
4904.525144877957
 30
0.0
 11
8994.247886058712
 21
4884.598180431545
 31
0.0
  0
LINE
  5
17012
330
747D
100
AcDbEntity
  8
部品1
 48
50.0
100
AcDbLine
 10
8997.316658164956
 20
4881.02289893807
 30
0.0
 11
8999.020559656321
 21
4791.732402231423
 31
0.0
  0
LINE
  5
17013
330
747D
100
AcDbEntity
  8
細線
 48
50.0
100
AcDbLine
 10
8994.722763468606
 20
4883.948680554626
 30
0.0
 11
11760.35874821377
 21
4828.324475913796
 31
0.0
  0
LINE
  5
17014
330
747D
100
AcDbEntity
  8
細線
 48
50.0
100
AcDbLine
 10
8999.483238705892
 20
4791.08716885676
 30
0.0
 11
11749.48690313653
 21
4751.277849882266
 31
0.0
  0
LINE
  5
17015
330
747D
100
AcDbEntity
  8
部品1
 48
50.0
100
AcDbLine
 10
9002.089331762563
 20
4788.157120737952
 30
0.0
 11
9002.291284382994
 21
4777.574085344858
 31
0.0
  0
ARC
  5
17016
330
747D
100
AcDbEntity
  8
部品1
 48
50.0
100
AcDbCircle
 10
9000.866352109239
 20
4904.658699285384
 30
0.0
 40
7.0
100
AcDbArc
 50
87.03587545283093
 51
181.0932240293156
  0
ARC
  5
17017
330
747D
100
AcDbEntity
  8
部品1
 48
50.0
100
AcDbCircle
 10
9009.290010211335
 20
4777.707639752287
 30
0.0
 40
7.0
100
AcDbArc
 50
181.0932240293156
 51
267.8377559869492
  0
ARC
  5
17018
330
747D
100
AcDbEntity
  8
部品1
100
AcDbCircle
 10
8999.089877836134
 20
4788.099883134768
 30
0.0
 40
3.0
100
AcDbArc
 50
1.093224029315636
 51
80.18775403169875
  0
ARC
  5
17019
330
747D
100
AcDbEntity
  8
部品1
100
AcDbCircle
 10
8994.317204238527
 20
4880.965661334889
 30
0.0
 40
3.0
100
AcDbArc
 50
1.093224029315636
 51
80.18775403169875
  0
ARC
  5
1701A
330
747D
100
AcDbEntity
  8
部品1
100
AcDbCircle
 10
8994.947758641549
 20
4884.611535872285
 30
0.0
 40
0.7
100
AcDbArc
 50
181.0932240292114
 51
260.1877540314845
  0
ARC
  5
1701B
330
747D
100
AcDbEntity
  8
部品1
100
AcDbCircle
 10
8999.720432239159
 20
4791.745757672168
 30
0.0
 40
0.7
100
AcDbArc
 50
181.0932240293156
 51
260.1877540314845
  0
LINE
  5
1701C
330
747D
100
AcDbEntity
  8
部品1
 48
50.0
100
AcDbLine
 10
11762.8972431785
 20
4848.872750987481
 30
0.0
 11
11760.86662198752
 21
4828.927709729701
 31
0.0
  0
LINE
  5
1701D
330
747D
100
AcDbEntity
  8
部品1
 48
50.0
100
AcDbLine
 10
11757.51405550304
 20
4825.617075656792
 30
0.0
 11
11750.00727623821
 21
4751.884454911782
 31
0.0
  0
LINE
  5
1701E
330
747D
100
AcDbEntity
  8
部品1
 48
50.0
100
AcDbLine
 10
11746.65470975372
 20
4748.573820838868
 30
0.0
 11
11745.57514671398
 21
4737.97020384531
 31
0.0
  0
ARC
  5
1701F
330
747D
100
AcDbEntity
  8
部品1
 48
50.0
100
AcDbCircle
 10
11755.93324261374
 20
4849.581761660258
 30
0.0
 40
7.0
100
AcDbArc
 50
354.1866997665532
 51
87.03587545283093
  0
ARC
  5
17020
330
747D
100
AcDbEntity
  8
部品1
 48
50.0
100
AcDbCircle
 10
11738.61114614922
 20
4738.679214518084
 30
0.0
 40
7.0
100
AcDbArc
 50
267.8377559869492
 51
354.1866997665532
  0
ARC
  5
17021
330
747D
100
AcDbEntity
  8
部品1
100
AcDbCircle
 10
11749.63928142432
 20
4748.269959121964
 30
0.0
 40
3.0
100
AcDbArc
 50
95.0921697642102
 51
174.1866997665532
  0
ARC
  5
17022
330
747D
100
AcDbEntity
  8
部品1
100
AcDbCircle
 10
11760.49862717365
 20
4825.313213939891
 30
0.0
 40
3.0
100
AcDbArc
 50
95.0921697642102
 51
174.1866997665532
  0
ARC
  5
17023
330
747D
100
AcDbEntity
  8
部品1
100
AcDbCircle
 10
11760.17022193105
 20
4828.998610796978
 30
0.0
 40
0.7
100
AcDbArc
 50
275.0921697642102
 51
354.1866997665532
  0
ARC
  5
17024
330
747D
100
AcDbEntity
  8
部品1
100
AcDbCircle
 10
11749.31087618173
 20
4751.955355979054
 30
0.0
 40
0.7
100
AcDbArc
 50
275.0921697642102
 51
354.1866997667606
  0
LINE
  5
17025
330
747D
100
AcDbEntity
  8
部品1
100
AcDbLine
 10
10228.90847079703
 20
5038.13598667628
 30
0.0
 11
10554.36348444007
 21
5020.61792771742
 31
0.0
  0
LINE
  5
17026
330
747D
100
AcDbEntity
  8
部品1
100
AcDbLine
 10
10788.68334036778
 20
4677.931598713261
 30
0.0
 11
10788.68334036778
 21
2587.931598713265
 31
0.0
  0
LINE
  5
17027
330
747D
100
AcDbEntity
  8
細線
 48
50.0
100
AcDbLine
 10
10866.18334036779
 20
4677.931598713261
 30
0.0
 11
10866.18334036779
 21
2587.931598713265
 31
0.0
  0
LINE
  5
17028
330
747D
100
AcDbEntity
  8
細線
 48
50.0
100
AcDbLine
 10
10851.18334036779
 20
4677.931598713261
 30
0.0
 11
10851.18334036779
 21
2587.931598713265
 31
0.0
  0
LINE
  5
17029
330
747D
100
AcDbEntity
  8
細線
 48
50.0
100
AcDbLine
 10
10991.18334036779
 20
4677.931598713261
 30
0.0
 11
10991.18334036779
 21
2587.931598713265
 31
0.0
  0
LINE
  5
1702A
330
747D
100
AcDbEntity
  8
細線
 48
50.0
100
AcDbLine
 10
11006.18334036779
 20
4677.931598713261
 30
0.0
 11
11006.18334036779
 21
2587.931598713265
 31
0.0
  0
LINE
  5
1702B
330
747D
100
AcDbEntity
  8
細線
 48
50.0
100
AcDbLine
 10
11146.18334036779
 20
4677.931598713261
 30
0.0
 11
11146.18334036779
 21
2587.931598713265
 31
0.0
  0
LINE
  5
1702C
330
747D
100
AcDbEntity
  8
細線
 48
50.0
100
AcDbLine
 10
11131.18334036779
 20
4677.931598713261
 30
0.0
 11
11131.18334036779
 21
2587.931598713265
 31
0.0
  0
DIMENSION
  5
1702D
330
747D
100
AcDbEntity
  8
寸法
100
AcDbDimension
  2
*D20
 10
12388.61049833992
 20
4857.931598713264
 30
0.0
 11
12288.5986873163
 21
3697.931598713266
 31
0.0
 70
    32
 71
     5
 42
2320.0
  3
INABA_S40G
100
AcDbAlignedDimension
 13
11683.68334036779
 23
2537.931598713264
 33
0.0
 14
11763.68334036779
 24
4857.931598713264
 34
0.0
 50
90.0
100
AcDbRotatedDimension
1001
ACAD
1000
DSTYLE
1002
{
1070
   174
1070
     0
1070
   272
1070
     1
1070
   288
1070
     0
1070
   341
1005
0
1002
}
  0
DIMENSION
  5
1702E
330
747D
100
AcDbEntity
  8
寸法
100
AcDbDimension
  2
*D21
 10
7909.933211184533
 20
4912.931598713262
 30
0.0
 11
7809.921400160909
 21
3725.431598713261
 31
0.0
 70
    32
 71
     5
 42
2375.000000000005
  3
INABA_S40G
100
AcDbAlignedDimension
 13
9053.683340367792
 23
2537.931598713257
 33
0.0
 14
8993.683340367793
 24
4912.931598713262
 34
0.0
 50
90.0
100
AcDbRotatedDimension
1001
ACAD
1000
DSTYLE
1002
{
1070
   174
1070
     0
1070
   272
1070
     1
1070
   288
1070
     0
1070
   341
1005
0
1002
}
  0
DIMENSION
  5
1702F
330
747D
100
AcDbEntity
  8
寸法
100
AcDbDimension
  2
*D22
 10
8209.933211184532
 20
2587.931598713257
 30
0.0
 11
8109.921400160912
 21
3632.931598713259
 31
0.0
 70
    32
 71
     5
 42
2090.000000000002
  3
INABA_S40G
100
AcDbAlignedDimension
 13
9053.683340367792
 23
4677.931598713258
 33
0.0
 14
9053.683340367792
 24
2587.931598713257
 34
0.0
 50
90.0
100
AcDbRotatedDimension
1001
ACAD
1000
DSTYLE
1002
{
1070
   174
1070
     0
1070
   272
1070
     1
1070
   288
1070
     0
1070
   341
1005
0
1002
}
  0
LINE
  5
1752B
330
747D
100
AcDbEntity
  8
補助
  6
PHANTOM
 62
   230
 48
50.0
100
AcDbLine
 10
140.0
 20
0.0
 30
0.0
 11
139.9999999999995
 21
11409.6
 31
0.0
  0
DIMENSION
  5
175E1
330
747D
100
AcDbEntity
  8
寸法
 48
50.0
100
AcDbDimension
  2
*D26
 10
4636.506566978177
 20
5318.657870445172
 30
0.0
 11
5531.506566978178
 21
5318.657870445172
 31
0.0
 70
   160
  1
柱外寸法<>
 71
     5
 42
1789.999999999998
  3
INABA_S40G
100
AcDbAlignedDimension
 13
6426.506566978176
 23
4912.931598713267
 33
0.0
 14
4636.506566978177
 24
4912.931598713268
 34
0.0
100
AcDbRotatedDimension
  0
DIMENSION
  5
175E2
330
747D
100
AcDbEntity
  8
寸法
 48
50.0
100
AcDbDimension
  2
*D24
 10
6426.506566978176
 20
5318.657870445172
 30
0.0
 11
6789.991848352413
 21
5318.657870445172
 31
0.0
 70
   160
 71
     5
 42
49.99999999999636
  3
INABA_S40G
100
AcDbAlignedDimension
 13
6476.506566978172
 23
4912.931598713265
 33
0.0
 14
6426.506566978176
 24
4912.931598713267
 34
0.0
100
AcDbRotatedDimension
  0
DIMENSION
  5
175E3
330
747D
100
AcDbEntity
  8
寸法
 48
50.0
100
AcDbDimension
  2
*D23
 10
6476.506566978172
 20
5518.566791659262
 30
0.0
 11
5531.506566978178
 21
5518.566791659262
 31
0.0
 70
   160
 71
     5
 42
1889.999999999994
  3
INABA_S40G
100
AcDbAlignedDimension
 13
4586.506566978178
 23
4912.931598713267
 33
0.0
 14
6476.506566978172
 24
4912.931598713265
 34
0.0
100
AcDbRotatedDimension
  0
DIMENSION
  5
175E4
330
747D
100
AcDbEntity
  8
寸法
 48
50.0
100
AcDbDimension
  2
*D25
 10
4586.506566978178
 20
5318.657870445172
 30
0.0
 11
4273.02128560393
 21
5318.657870445172
 31
0.0
 70
   160
 71
     5
 42
50.0
  3
INABA_S40G
100
AcDbAlignedDimension
 13
4636.506566978177
 23
4912.931598713268
 33
0.0
 14
4586.506566978178
 24
4912.931598713267
 34
0.0
100
AcDbRotatedDimension
1001
ACAD
1000
DSTYLE
1002
{
1002
}
  0
ARC
  5
175E5
330
747D
100
AcDbEntity
  8
部品1
 48
0.01
100
AcDbCircle
 10
5214.506566978171
 20
4710.431598713261
 30
0.0
 40
2.0
100
AcDbArc
 50
270.0
 51
0.0
  0
ARC
  5
175E6
330
747D
100
AcDbEntity
  8
部品1
 48
0.01
100
AcDbCircle
 10
5214.506566978178
 20
4741.931598713261
 30
0.0
 40
2.0
100
AcDbArc
 50
0.0
 51
90.0
  0
ARC
  5
175E7
330
747D
100
AcDbEntity
  8
部品1
 48
0.01
100
AcDbCircle
 10
5038.506566978178
 20
4710.431598713261
 30
0.0
 40
2.0
100
AcDbArc
 50
180.0
 51
270.0
  0
ARC
  5
175E8
330
747D
100
AcDbEntity
  8
部品1
 48
0.01
100
AcDbCircle
 10
5038.506566978178
 20
4741.931598713261
 30
0.0
 40
2.0
100
AcDbArc
 50
90.0
 51
180.0
  0
LINE
  5
175E9
330
747D
100
AcDbEntity
  8
細線
100
AcDbLine
 10
5126.506566978171
 20
4714.431598713261
 30
0.0
 11
5200.506566978178
 21
4714.431598713261
 31
0.0
  0
LINE
  5
175EA
330
747D
100
AcDbEntity
  8
細線
100
AcDbLine
 10
5126.506566978179
 20
4737.431598713261
 30
0.0
 11
5052.506566978178
 21
4737.431598713261
 31
0.0
  0
LINE
  5
175EB
330
747D
100
AcDbEntity
  8
細線
100
AcDbLine
 10
5052.506566978178
 20
4714.431598713261
 30
0.0
 11
5126.506566978179
 21
4714.431598713261
 31
0.0
  0
LINE
  5
175EC
330
747D
100
AcDbEntity
  8
細線
100
AcDbLine
 10
5200.506566978178
 20
4737.431598713261
 30
0.0
 11
5126.506566978179
 21
4737.431598713261
 31
0.0
  0
LINE
  5
175ED
330
747D
100
AcDbEntity
  8
細線
100
AcDbLine
 10
5200.506566978178
 20
4714.431598713261
 30
0.0
 11
5200.506566978178
 21
4737.431598713261
 31
0.0
  0
LINE
  5
175EE
330
747D
100
AcDbEntity
  8
細線
100
AcDbLine
 10
5052.506566978178
 20
4737.431598713261
 30
0.0
 11
5052.506566978178
 21
4714.431598713261
 31
0.0
  0
LINE
  5
175EF
330
747D
100
AcDbEntity
  8
部品1
 48
0.01
100
AcDbLine
 10
5216.506566978171
 20
4710.431598713261
 30
0.0
 11
5216.506566978178
 21
4741.931598713261
 31
0.0
  0
LINE
  5
175F0
330
747D
100
AcDbEntity
  8
部品1
 48
0.01
100
AcDbLine
 10
5038.506566978178
 20
4708.431598713261
 30
0.0
 11
5214.506566978171
 21
4708.431598713261
 31
0.0
  0
LINE
  5
175F1
330
747D
100
AcDbEntity
  8
部品1
 48
0.01
100
AcDbLine
 10
5036.506566978178
 20
4741.931598713261
 30
0.0
 11
5036.506566978178
 21
4710.431598713261
 31
0.0
  0
LINE
  5
175F2
330
747D
100
AcDbEntity
  8
部品1
 48
0.01
100
AcDbLine
 10
5214.506566978178
 20
4743.931598713261
 30
0.0
 11
5038.506566978178
 21
4743.931598713261
 31
0.0
  0
LINE
  5
175F3
330
747D
100
AcDbEntity
  8
細線
100
AcDbLine
 10
5052.506566978178
 20
4731.431598713261
 30
0.0
 11
5126.506566978179
 21
4731.431598713261
 31
0.0
  0
LINE
  5
175F4
330
747D
100
AcDbEntity
  8
細線
100
AcDbLine
 10
5052.506566978178
 20
4725.431598713261
 30
0.0
 11
5126.506566978179
 21
4725.431598713261
 31
0.0
  0
LINE
  5
175F5
330
747D
100
AcDbEntity
  8
細線
100
AcDbLine
 10
5052.506566978171
 20
4719.431598713261
 30
0.0
 11
5126.506566978179
 21
4719.431598713261
 31
0.0
  0
LINE
  5
175F6
330
747D
100
AcDbEntity
  8
細線
100
AcDbLine
 10
5052.506566978178
 20
4731.431598713261
 30
0.0
 11
5121.506566978178
 21
4731.431598713261
 31
0.0
  0
LINE
  5
175F7
330
747D
100
AcDbEntity
  8
細線
100
AcDbLine
 10
5200.50656697817
 20
4731.431598713261
 30
0.0
 11
5126.506566978179
 21
4731.431598713261
 31
0.0
  0
LINE
  5
175F8
330
747D
100
AcDbEntity
  8
細線
100
AcDbLine
 10
5200.50656697817
 20
4719.431598713261
 30
0.0
 11
5126.506566978179
 21
4719.431598713261
 31
0.0
  0
LINE
  5
175F9
330
747D
100
AcDbEntity
  8
細線
100
AcDbLine
 10
5200.50656697817
 20
4725.431598713261
 30
0.0
 11
5126.506566978179
 21
4725.431598713261
 31
0.0
  0
LINE
  5
175FA
330
747D
100
AcDbEntity
  8
細線
100
AcDbLine
 10
5126.506566978179
 20
4737.431598713261
 30
0.0
 11
5126.506566978171
 21
4714.431598713261
 31
0.0
  0
LINE
  5
175FB
330
747D
100
AcDbEntity
  8
細線
100
AcDbLine
 10
5936.50656697817
 20
4737.431598713261
 30
0.0
 11
5936.506566978177
 21
4714.431598713261
 31
0.0
  0
LINE
  5
175FC
330
747D
100
AcDbEntity
  8
細線
100
AcDbLine
 10
5862.506566978178
 20
4725.431598713261
 30
0.0
 11
5936.50656697817
 21
4725.431598713261
 31
0.0
  0
LINE
  5
175FD
330
747D
100
AcDbEntity
  8
細線
100
AcDbLine
 10
5862.506566978178
 20
4719.431598713261
 30
0.0
 11
5936.50656697817
 21
4719.431598713261
 31
0.0
  0
LINE
  5
175FE
330
747D
100
AcDbEntity
  8
細線
100
AcDbLine
 10
5862.506566978178
 20
4731.431598713261
 30
0.0
 11
5936.50656697817
 21
4731.431598713261
 31
0.0
  0
LINE
  5
175FF
330
747D
100
AcDbEntity
  8
細線
100
AcDbLine
 10
6010.506566978171
 20
4731.431598713261
 30
0.0
 11
5941.506566978171
 21
4731.431598713261
 31
0.0
  0
LINE
  5
17600
330
747D
100
AcDbEntity
  8
細線
100
AcDbLine
 10
6010.506566978178
 20
4719.431598713261
 30
0.0
 11
5936.50656697817
 21
4719.431598713261
 31
0.0
  0
LINE
  5
17601
330
747D
100
AcDbEntity
  8
細線
100
AcDbLine
 10
6010.506566978171
 20
4725.431598713261
 30
0.0
 11
5936.50656697817
 21
4725.431598713261
 31
0.0
  0
LINE
  5
17602
330
747D
100
AcDbEntity
  8
細線
100
AcDbLine
 10
6010.506566978171
 20
4731.431598713261
 30
0.0
 11
5936.50656697817
 21
4731.431598713261
 31
0.0
  0
LINE
  5
17603
330
747D
100
AcDbEntity
  8
部品1
 48
0.01
100
AcDbLine
 10
5848.50656697817
 20
4743.931598713261
 30
0.0
 11
6024.506566978171
 21
4743.931598713261
 31
0.0
  0
LINE
  5
17604
330
747D
100
AcDbEntity
  8
部品1
 48
0.01
100
AcDbLine
 10
6026.50656697817
 20
4741.931598713261
 30
0.0
 11
6026.50656697817
 21
4710.431598713261
 31
0.0
  0
LINE
  5
17605
330
747D
100
AcDbEntity
  8
部品1
 48
0.01
100
AcDbLine
 10
6024.506566978171
 20
4708.431598713261
 30
0.0
 11
5848.506566978178
 21
4708.431598713261
 31
0.0
  0
LINE
  5
17606
330
747D
100
AcDbEntity
  8
部品1
 48
0.01
100
AcDbLine
 10
5846.506566978177
 20
4710.431598713261
 30
0.0
 11
5846.50656697817
 21
4741.931598713261
 31
0.0
  0
LINE
  5
17607
330
747D
100
AcDbEntity
  8
細線
100
AcDbLine
 10
6010.506566978171
 20
4737.431598713261
 30
0.0
 11
6010.506566978171
 21
4714.431598713261
 31
0.0
  0
LINE
  5
17608
330
747D
100
AcDbEntity
  8
細線
100
AcDbLine
 10
5862.50656697817
 20
4714.431598713261
 30
0.0
 11
5862.50656697817
 21
4737.431598713261
 31
0.0
  0
LINE
  5
17609
330
747D
100
AcDbEntity
  8
細線
100
AcDbLine
 10
5862.50656697817
 20
4737.431598713261
 30
0.0
 11
5936.50656697817
 21
4737.431598713261
 31
0.0
  0
LINE
  5
1760A
330
747D
100
AcDbEntity
  8
細線
100
AcDbLine
 10
6010.506566978171
 20
4714.431598713261
 30
0.0
 11
5936.50656697817
 21
4714.431598713261
 31
0.0
  0
LINE
  5
1760B
330
747D
100
AcDbEntity
  8
細線
100
AcDbLine
 10
5936.50656697817
 20
4737.431598713261
 30
0.0
 11
6010.506566978171
 21
4737.431598713261
 31
0.0
  0
LINE
  5
1760C
330
747D
100
AcDbEntity
  8
細線
100
AcDbLine
 10
5936.506566978177
 20
4714.431598713261
 30
0.0
 11
5862.50656697817
 21
4714.431598713261
 31
0.0
  0
ARC
  5
1760D
330
747D
100
AcDbEntity
  8
部品1
 48
0.01
100
AcDbCircle
 10
6024.506566978171
 20
4741.931598713261
 30
0.0
 40
2.0
100
AcDbArc
 50
0.0
 51
90.0
  0
ARC
  5
1760E
330
747D
100
AcDbEntity
  8
部品1
 48
0.01
100
AcDbCircle
 10
6024.506566978171
 20
4710.431598713261
 30
0.0
 40
2.0
100
AcDbArc
 50
270.0
 51
0.0
  0
ARC
  5
1760F
330
747D
100
AcDbEntity
  8
部品1
 48
0.01
100
AcDbCircle
 10
5848.50656697817
 20
4741.931598713261
 30
0.0
 40
2.0
100
AcDbArc
 50
90.0
 51
180.0
  0
ARC
  5
17610
330
747D
100
AcDbEntity
  8
部品1
 48
0.01
100
AcDbCircle
 10
5848.506566978178
 20
4710.431598713261
 30
0.0
 40
2.0
100
AcDbArc
 50
180.0
 51
270.0
  0
LINE
  5
17611
330
747D
100
AcDbEntity
  8
部品1
100
AcDbLine
 10
4586.926227993508
 20
4905.535073318027
 30
0.0
 11
4588.059625325857
 21
4885.558945335428
 31
0.0
  0
LINE
  5
17612
330
747D
100
AcDbEntity
  8
部品1
100
AcDbLine
 10
4599.496645647429
 20
4789.901538168368
 30
0.0
 11
4600.141551454538
 21
4778.535073318027
 31
0.0
  0
LINE
  5
17613
330
747D
100
AcDbEntity
  8
部品1
100
AcDbLine
 10
4591.260615122586
 20
4882.10153816837
 30
0.0
 11
4596.295655850694
 21
4793.358945335425
 31
0.0
  0
ARC
  5
17614
330
747D
100
AcDbEntity
  8
部品1
 48
50.0
100
AcDbCircle
 10
4588.265432226401
 20
4881.931598713268
 30
0.0
 40
3.0
100
AcDbArc
 50
3.247342790337682
 51
82.3418727926348
  0
ARC
  5
17615
330
747D
100
AcDbEntity
  8
部品1
 48
50.0
100
AcDbCircle
 10
4596.501462751244
 20
4789.731598713264
 30
0.0
 40
3.0
100
AcDbArc
 50
3.247342790337682
 51
82.3418727926348
  0
ARC
  5
17616
330
747D
100
AcDbEntity
  8
部品1
 48
50.0
100
AcDbCircle
 10
4596.994531859805
 20
4793.39859787495
 30
0.0
 40
0.7
100
AcDbArc
 50
183.2473427903116
 51
262.3418727926349
  0
ARC
  5
17617
330
747D
100
AcDbEntity
  8
部品1
 48
50.0
100
AcDbCircle
 10
4588.758501334961
 20
4885.598597874952
 30
0.0
 40
0.7
100
AcDbArc
 50
183.2473427903897
 51
262.3418727926349
  0
ARC
  5
17618
330
747D
100
AcDbEntity
  8
部品1
100
AcDbCircle
 10
4607.130311545641
 20
4778.931598713269
 30
0.0
 40
7.0
100
AcDbArc
 50
183.2473427903377
 51
270.0
  0
ARC
  5
17619
330
747D
100
AcDbEntity
  8
部品1
100
AcDbCircle
 10
4593.914988084604
 20
4905.931598713267
 30
0.0
 40
7.0
100
AcDbArc
 50
90.0
 51
183.2473427903377
  0
ARC
  5
1761A
330
747D
100
AcDbEntity
  8
部品1
100
AcDbCircle
 10
6469.098145871743
 20
4905.931598713267
 30
0.0
 40
7.0
100
AcDbArc
 50
356.7526572096623
 51
90.0
  0
ARC
  5
1761B
330
747D
100
AcDbEntity
  8
部品1
100
AcDbCircle
 10
6455.882822410709
 20
4778.931598713269
 30
0.0
 40
7.0
100
AcDbArc
 50
270.0
 51
356.7526572096623
  0
ARC
  5
1761C
330
747D
100
AcDbEntity
  8
部品1
 48
50.0
100
AcDbCircle
 10
6474.254632621385
 20
4885.598597874952
 30
0.0
 40
0.7
100
AcDbArc
 50
277.6581272073652
 51
356.7526572096103
  0
ARC
  5
1761D
330
747D
100
AcDbEntity
  8
部品1
 48
50.0
100
AcDbCircle
 10
6466.018602096545
 20
4793.39859787495
 30
0.0
 40
0.7
100
AcDbArc
 50
277.6581272073652
 51
356.7526572096883
  0
ARC
  5
1761E
330
747D
100
AcDbEntity
  8
部品1
 48
50.0
100
AcDbCircle
 10
6466.511671205106
 20
4789.731598713264
 30
0.0
 40
3.0
100
AcDbArc
 50
97.65812720736519
 51
176.7526572096623
  0
ARC
  5
1761F
330
747D
100
AcDbEntity
  8
部品1
 48
50.0
100
AcDbCircle
 10
6474.74770172995
 20
4881.931598713268
 30
0.0
 40
3.0
100
AcDbArc
 50
97.65812720736519
 51
176.7526572096623
  0
LINE
  5
17620
330
747D
100
AcDbEntity
  8
部品1
100
AcDbLine
 10
6471.752518833764
 20
4882.10153816837
 30
0.0
 11
6466.717478105653
 21
4793.358945335425
 31
0.0
  0
LINE
  5
17621
330
747D
100
AcDbEntity
  8
部品1
100
AcDbLine
 10
6463.516488308916
 20
4789.901538168368
 30
0.0
 11
6462.871582501808
 21
4778.535073318027
 31
0.0
  0
LINE
  5
17622
330
747D
100
AcDbEntity
  8
細線
 48
50.0
100
AcDbLine
 10
4619.506566978178
 20
4912.931598713267
 30
0.0
 11
4619.506566978178
 21
4771.931598713266
 31
0.0
  0
LINE
  5
17623
330
747D
100
AcDbEntity
  8
細線
 48
50.0
100
AcDbLine
 10
6443.506566978172
 20
4912.931598713267
 30
0.0
 11
6443.506566978172
 21
4771.931598713266
 31
0.0
  0
LINE
  5
17624
330
747D
100
AcDbEntity
  8
部品1
100
AcDbLine
 10
6476.086905962842
 20
4905.535073318027
 30
0.0
 11
6474.953508630493
 21
4885.558945335428
 31
0.0
  0
LINE
  5
17625
330
747D
100
AcDbEntity
  8
細線
 48
50.0
100
AcDbLine
 10
6466.230998231887
 20
4792.731598713262
 30
0.0
 11
4596.782135724448
 21
4792.731598713268
 31
0.0
  0
LINE
  5
17626
330
747D
100
AcDbEntity
  8
細線
 48
50.0
100
AcDbLine
 10
6474.467028756738
 20
4884.931598713269
 30
0.0
 11
4588.546105199618
 21
4884.931598713265
 31
0.0
  0
LINE
  5
17627
330
747D
100
AcDbEntity
  8
部品1
 48
50.0
100
AcDbLine
 10
6455.882822410709
 20
4771.931598713268
 30
0.0
 11
4607.130311545641
 21
4771.931598713268
 31
0.0
  0
LINE
  5
17628
330
747D
100
AcDbEntity
  8
部品1
 48
50.0
100
AcDbLine
 10
6469.098145871743
 20
4912.931598713267
 30
0.0
 11
4593.914988084604
 21
4912.931598713268
 31
0.0
  0
LINE
  5
17629
330
747D
100
AcDbEntity
  8
部品1
100
AcDbLine
 10
4636.50656697817
 20
4677.931598713261
 30
0.0
 11
6426.506566978175
 21
4677.931598713261
 31
0.0
  0
DIMENSION
  5
177D9
330
747D
100
AcDbEntity
  8
寸法
 48
50.0
100
AcDbDimension
  2
*D27
 10
6714.049669299916
 20
4485.931598713261
 30
0.0
 11
6614.049669299916
 21
3511.931598713263
 31
0.0
 70
    32
  1
有効開口部高サ <>
 71
     5
 42
1948.0
  3
INABA_S40G
100
AcDbAlignedDimension
 13
6426.50656697817
 23
2537.931598713262
 33
0.0
 14
6426.50656697817
 24
4485.931598713261
 34
0.0
 50
90.0
100
AcDbRotatedDimension
  0
DIMENSION
  5
177DA
330
747D
100
AcDbEntity
  8
寸法
 48
50.0
100
AcDbDimension
  2
*D28
 10
6714.049669299916
 20
4512.931598713262
 30
0.0
 11
6854.219492546282
 21
4513.89879855292
 31
0.0
 70
   160
 71
     5
 42
27.00000000000091
  3
INABA_S40G
100
AcDbAlignedDimension
 13
6426.50656697817
 23
4485.931598713261
 33
0.0
 14
6426.50656697817
 24
4512.931598713262
 34
0.0
 50
90.0
100
AcDbRotatedDimension
1001
ACAD
1000
DSTYLE
1002
{
1070
   279
1070
     2
1002
}
  0
DIMENSION
  5
177DB
330
747D
100
AcDbEntity
  8
寸法
 48
50.0
100
AcDbDimension
  2
*D29
 10
6714.049669299917
 20
4677.931598713261
 30
0.0
 11
6714.049669299916
 21
4916.416880087502
 31
0.0
 70
   160
 71
     5
 42
164.9999999999991
  3
INABA_S40G
100
AcDbAlignedDimension
 13
6426.50656697817
 23
4512.931598713262
 33
0.0
 14
6426.50656697817
 24
4677.931598713261
 34
0.0
 50
90.0
100
AcDbRotatedDimension
1001
ACAD
1000
DSTYLE
1002
{
1002
}
  0
TEXT
  5
17917
330
747D
100
AcDbEntity
  8
文字
 62
     7
 48
50.0
100
AcDbText
 10
15022.63965474517
 20
10760.01374588372
 30
0.0
 40
100.0
  1
F12         1.0,1.2
  7
STYLE1
100
AcDbText
  0
LINE
  5
17919
330
747D
100
AcDbEntity
  8
仕様書枠
 48
50.0
100
AcDbLine
 10
16307.19999999999
 20
8859.600000000002
 30
0.0
 11
13127.19999999999
 21
8859.600000000005
 31
0.0
  0
TEXT
  5
1791B
330
747D
100
AcDbEntity
  8
文字
 62
     7
 48
50.0
100
AcDbText
 10
15022.63965474516
 20
9230.013745883729
 30
0.0
 40
100.0
  1
F12            0.7
  7
STYLE1
100
AcDbText
  0
ENDSEC
  0
SECTION
  2
OBJECTS
  0
DICTIONARY
  5
7471
330
0
100
AcDbDictionary
281
     1
  3
ACAD_COLOR
350
166AE
  3
ACAD_GROUP
350
7472
  3
ACAD_LAYOUT
350
166AF
  3
ACAD_MATERIAL
350
166AD
  3
ACAD_MLINESTYLE
350
7473
  3
ACAD_PLOTSETTINGS
350
166B0
  3
ACAD_PLOTSTYLENAME
350
166AB
  3
ACDBHEADERROUNDTRIPXREC
350
17982
  3
AcDbVariableDictionary
350
16832
  3
CONTENTDICTIONARY
350
E71C
  3
DRAWINGVARIABLESDICT
350
F3B9
  0
DICTIONARY
  5
16DED
330
7467
100
AcDbDictionary
280
     1
281
     1
  3
ACAD_LAYERSTATES
360
16DEE
  0
DICTIONARY
  5
166AE
102
{ACAD_REACTORS
330
7471
102
}
330
7471
100
AcDbDictionary
281
     1
  0
DICTIONARY
  5
7472
102
{ACAD_REACTORS
330
7471
102
}
330
7471
100
AcDbDictionary
281
     1
  0
DICTIONARY
  5
166AF
102
{ACAD_REACTORS
330
7471
102
}
330
7471
100
AcDbDictionary
281
     1
  3
Model
350
166B1
  3
レイアウト1
350
166B2
  0
DICTIONARY
  5
166AD
102
{ACAD_REACTORS
330
7471
102
}
330
7471
100
AcDbDictionary
281
     1
  0
DICTIONARY
  5
7473
102
{ACAD_REACTORS
330
7471
102
}
330
7471
100
AcDbDictionary
281
     1
  3
STANDARD
350
7480
  0
DICTIONARY
  5
166B0
102
{ACAD_REACTORS
330
7471
102
}
330
7471
100
AcDbDictionary
281
     1
  0
ACDBDICTIONARYWDFLT
  5
166AB
102
{ACAD_REACTORS
330
7471
102
}
330
7471
100
AcDbDictionary
281
     1
  3
Normal
350
166AC
100
AcDbDictionaryWithDefault
340
166AC
  0
DICTIONARY
  5
17982
102
{ACAD_REACTORS
330
7471
102
}
330
7471
100
AcDbDictionary
281
     1
  3
COLORDICT
350
17984
  3
MATERIALDICT
350
17983
  0
DICTIONARY
  5
16832
102
{ACAD_REACTORS
330
7471
102
}
330
7471
100
AcDbDictionary
281
     1
  3
DIMASSOC
350
16833
  3
PROJECTNAME
350
16834
  0
DICTIONARY
  5
E71C
102
{ACAD_REACTORS
330
7471
102
}
330
7471
100
AcDbDictionary
281
     1
  0
DICTIONARY
  5
F3B9
102
{ACAD_REACTORS
330
7471
102
}
330
7471
100
AcDbDictionary
281
     1
1001
DRAWINGVARIABLESXDATA
1000
POLARMODE
1000
1
  0
DICTIONARY
  5
16DEE
102
{ACAD_REACTORS
330
16DED
102
}
330
16DED
100
AcDbDictionary
281
     1
  0
LAYOUT
  5
166B1
102
{ACAD_XDICTIONARY
360
17985
102
}
102
{ACAD_REACTORS
330
166AF
102
}
330
166AF
100
AcDbPlotSettings
  1

  2
Canon iR C3880/C4580 LIPSLX
  4
A3
  6

 40
5.873749732971191
 41
5.873747825622558
 42
5.873748779296875
 43
5.873748779296875
 44
296.9259948730469
 45
419.9466552734374
 46
0.0
 47
0.0
 48
0.0
 49
0.0
140
0.0
141
0.0
142
1.0
143
40.0
 70
 11952
 72
     1
 73
     1
 74
     2
  7
inaba.ctb
 75
    24
147
0.025
148
0.0
149
0.0
100
AcDbLayout
  1
Model
 70
     1
 71
     0
 10
0.0
 20
0.0
 11
12.0
 21
9.0
 12
0.0
 22
0.0
 32
0.0
 14
0.0
 24
0.0
 34
0.0
 15
0.0
 25
0.0
 35
0.0
146
0.0
 13
0.0
 23
0.0
 33
0.0
 16
1.0
 26
0.0
 36
0.0
 17
0.0
 27
1.0
 37
0.0
 76
     0
330
747D
  0
LAYOUT
  5
166B2
102
{ACAD_XDICTIONARY
360
17987
102
}
102
{ACAD_REACTORS
330
166AF
102
}
330
166AF
100
AcDbPlotSettings
  1

  2
EPSON LP-7000C
  4

  6

 40
0.0
 41
0.0
 42
0.0
 43
0.0
 44
0.0
 45
0.0
 46
0.0
 47
0.0
 48
0.0
 49
0.0
140
0.0
141
0.0
142
1.0
143
1.0
 70
   688
 72
     0
 73
     0
 74
     5
  7
inaba.ctb
 75
    16
147
1.0
148
0.0
149
0.0
100
AcDbLayout
  1
レイアウト1
 70
     0
 71
     1
 10
0.0
 20
0.0
 11
420.0
 21
297.0
 12
0.0
 22
0.0
 32
0.0
 14
1.000000000000000E+20
 24
1.000000000000000E+20
 34
1.000000000000000E+20
 15
-1.000000000000000E+20
 25
-1.000000000000000E+20
 35
-1.000000000000000E+20
146
0.0
 13
0.0
 23
0.0
 33
0.0
 16
1.0
 26
0.0
 36
0.0
 17
0.0
 27
1.0
 37
0.0
 76
     0
330
747A
  0
MLINESTYLE
  5
7480
102
{ACAD_REACTORS
330
7473
102
}
330
7473
100
AcDbMlineStyle
  2
STANDARD
 70
     0
  3

 62
     0
 51
90.0
 52
90.0
 71
     2
 49
0.5
 62
   256
  6
BYLAYER
 49
-0.5
 62
   256
  6
BYLAYER
  0
ACDBPLACEHOLDER
  5
166AC
102
{ACAD_REACTORS
330
166AB
102
}
330
166AB
  0
XRECORD
  5
17984
102
{ACAD_REACTORS
330
17982
102
}
330
17982
100
AcDbXrecord
280
     1
340
166AE
  0
XRECORD
  5
17983
102
{ACAD_REACTORS
330
17982
102
}
330
17982
100
AcDbXrecord
280
     1
340
166AD
  0
DICTIONARYVAR
  5
16833
102
{ACAD_REACTORS
330
16832
102
}
330
16832
100
DictionaryVariables
280
     0
  1
1
  0
DICTIONARYVAR
  5
16834
102
{ACAD_REACTORS
330
16832
102
}
330
16832
100
DictionaryVariables
280
     0
  1

  0
DICTIONARY
  5
17985
330
166B1
100
AcDbDictionary
280
     1
281
     1
  3
ACAD_XREC_ROUNDTRIP
360
17986
  0
DICTIONARY
  5
17987
330
166B2
100
AcDbDictionary
280
     1
281
     1
  3
ACAD_XREC_ROUNDTRIP
360
17988
  0
XRECORD
  5
17986
102
{ACAD_REACTORS
330
17985
102
}
330
17985
100
AcDbXrecord
280
     1
102
SHADEPLOT
 70
     0
102
SHADEPLOTRESLEVEL
 70
     2
102
SHADEPLOTCUSTOMDPI
 70
   300
  0
XRECORD
  5
17988
102
{ACAD_REACTORS
330
17987
102
}
330
17987
100
AcDbXrecord
280
     1
102
SHADEPLOT
 70
     0
102
SHADEPLOTRESLEVEL
 70
     2
102
SHADEPLOTCUSTOMDPI
 70
   300
  0
ENDSEC
  0
EOF
