  0
SECTION
  2
HEADER
  9
$ACADVER
  1
AC1015
  9
$ACADMAINTVER
 70
    20
  9
$DWGCODEPAGE
  3
ANSI_932
  9
$INSBASE
 10
0.0
 20
0.0
 30
0.0
  9
$EXTMIN
 10
139.9999999999995
 20
-0.0000000000000909
 30
0.0
  9
$EXTMAX
 10
16307.2
 20
11409.6
 30
0.0
  9
$LIMMIN
 10
0.0
 20
0.0
  9
$LIMMAX
 10
16800.0
 20
11880.0
  9
$ORTHOMODE
 70
     0
  9
$REGENMODE
 70
     1
  9
$FILLMODE
 70
     1
  9
$QTEXTMODE
 70
     0
  9
$MIRRTEXT
 70
     1
  9
$LTSCALE
 40
20.0
  9
$ATTMODE
 70
     1
  9
$TEXTSIZE
 40
4.0
  9
$TRACEWID
 40
1.0
  9
$TEXTSTYLE
  7
MSPゴシック
  9
$CLAYER
  8
寸法
  9
$CELTYPE
  6
BYLAYER
  9
$CECOLOR
 62
   256
  9
$CELTSCALE
 40
50.0
  9
$DISPSILH
 70
     0
  9
$DIMSCALE
 40
40.0
  9
$DIMASZ
 40
2.5
  9
$DIMEXO
 40
0.5
  9
$DIMDLI
 40
7.0
  9
$DIMRND
 40
0.0
  9
$DIMDLE
 40
0.0
  9
$DIMEXE
 40
1.5
  9
$DIMTP
 40
0.0
  9
$DIMTM
 40
0.0
  9
$DIMTXT
 40
3.0
  9
$DIMCEN
 40
0.0
  9
$DIMTSZ
 40
0.0
  9
$DIMTOL
 70
     0
  9
$DIMLIM
 70
     0
  9
$DIMTIH
 70
     0
  9
$DIMTOH
 70
     0
  9
$DIMSE1
 70
     0
  9
$DIMSE2
 70
     0
  9
$DIMTAD
 70
     3
  9
$DIMZIN
 70
     8
  9
$DIMBLK
  1

  9
$DIMASO
 70
     1
  9
$DIMSHO
 70
     1
  9
$DIMPOST
  1

  9
$DIMAPOST
  1

  9
$DIMALT
 70
     0
  9
$DIMALTD
 70
     2
  9
$DIMALTF
 40
0.0394
  9
$DIMLFAC
 40
1.0
  9
$DIMTOFL
 70
     1
  9
$DIMTVP
 40
0.0
  9
$DIMTIX
 70
     1
  9
$DIMSOXD
 70
     0
  9
$DIMSAH
 70
     1
  9
$DIMBLK1
  1
DOTSMALL
  9
$DIMBLK2
  1
DOTSMALL
  9
$DIMSTYLE
  2
INABA_S40G
  9
$DIMCLRD
 70
     0
  9
$DIMCLRE
 70
     0
  9
$DIMCLRT
 70
     7
  9
$DIMTFAC
 40
1.0
  9
$DIMGAP
 40
1.0
  9
$DIMJUST
 70
     0
  9
$DIMSD1
 70
     0
  9
$DIMSD2
 70
     0
  9
$DIMTOLJ
 70
     1
  9
$DIMTZIN
 70
     0
  9
$DIMALTZ
 70
     0
  9
$DIMALTTZ
 70
     0
  9
$DIMUPT
 70
     0
  9
$DIMDEC
 70
     1
  9
$DIMTDEC
 70
     4
  9
$DIMALTU
 70
     2
  9
$DIMALTTD
 70
     2
  9
$DIMTXSTY
  7
STYLE1
  9
$DIMAUNIT
 70
     0
  9
$DIMADEC
 70
     0
  9
$DIMALTRND
 40
0.0
  9
$DIMAZIN
 70
     0
  9
$DIMDSEP
 70
    46
  9
$DIMATFIT
 70
     3
  9
$DIMFRAC
 70
     0
  9
$DIMLDRBLK
  1

  9
$DIMLUNIT
 70
     2
  9
$DIMLWD
 70
    -2
  9
$DIMLWE
 70
    -2
  9
$DIMTMOVE
 70
     2
  9
$LUNITS
 70
     2
  9
$LUPREC
 70
     1
  9
$SKETCHINC
 40
1.0
  9
$FILLETRAD
 40
3.0
  9
$AUNITS
 70
     0
  9
$AUPREC
 70
     0
  9
$MENU
  1
acad
  9
$ELEVATION
 40
0.0
  9
$PELEVATION
 40
0.0
  9
$THICKNESS
 40
0.0
  9
$LIMCHECK
 70
     0
  9
$CHAMFERA
 40
0.0
  9
$CHAMFERB
 40
0.0
  9
$CHAMFERC
 40
0.0
  9
$CHAMFERD
 40
0.0
  9
$SKPOLY
 70
     0
  9
$TDCREATE
 40
2451368.612993866
  9
$TDUCREATE
 40
2451368.237993866
  9
$TDUPDATE
 40
2455569.643373472
  9
$TDUUPDATE
 40
2455569.268373472
  9
$TDINDWG
 40
0.8868546644
  9
$TDUSRTIMER
 40
0.8868546644
  9
$USRTIMER
 70
     1
  9
$ANGBASE
 50
0.0
  9
$ANGDIR
 70
     0
  9
$PDMODE
 70
     3
  9
$PDSIZE
 40
2.0
  9
$PLINEWID
 40
0.0
  9
$SPLFRAME
 70
     0
  9
$SPLINETYPE
 70
     6
  9
$SPLINESEGS
 70
     8
  9
$HANDSEED
  5
1A464
  9
$SURFTAB1
 70
     6
  9
$SURFTAB2
 70
     6
  9
$SURFTYPE
 70
     6
  9
$SURFU
 70
     6
  9
$SURFV
 70
     6
  9
$UCSBASE
  2

  9
$UCSNAME
  2

  9
$UCSORG
 10
0.0
 20
0.0
 30
0.0
  9
$UCSXDIR
 10
1.0
 20
0.0
 30
0.0
  9
$UCSYDIR
 10
0.0
 20
1.0
 30
0.0
  9
$UCSORTHOREF
  2

  9
$UCSORTHOVIEW
 70
     0
  9
$UCSORGTOP
 10
0.0
 20
0.0
 30
0.0
  9
$UCSORGBOTTOM
 10
0.0
 20
0.0
 30
0.0
  9
$UCSORGLEFT
 10
0.0
 20
0.0
 30
0.0
  9
$UCSORGRIGHT
 10
0.0
 20
0.0
 30
0.0
  9
$UCSORGFRONT
 10
0.0
 20
0.0
 30
0.0
  9
$UCSORGBACK
 10
0.0
 20
0.0
 30
0.0
  9
$PUCSBASE
  2

  9
$PUCSNAME
  2

  9
$PUCSORG
 10
0.0
 20
0.0
 30
0.0
  9
$PUCSXDIR
 10
1.0
 20
0.0
 30
0.0
  9
$PUCSYDIR
 10
0.0
 20
1.0
 30
0.0
  9
$PUCSORTHOREF
  2

  9
$PUCSORTHOVIEW
 70
     0
  9
$PUCSORGTOP
 10
0.0
 20
0.0
 30
0.0
  9
$PUCSORGBOTTOM
 10
0.0
 20
0.0
 30
0.0
  9
$PUCSORGLEFT
 10
0.0
 20
0.0
 30
0.0
  9
$PUCSORGRIGHT
 10
0.0
 20
0.0
 30
0.0
  9
$PUCSORGFRONT
 10
0.0
 20
0.0
 30
0.0
  9
$PUCSORGBACK
 10
0.0
 20
0.0
 30
0.0
  9
$USERI1
 70
     0
  9
$USERI2
 70
     0
  9
$USERI3
 70
     0
  9
$USERI4
 70
     0
  9
$USERI5
 70
     0
  9
$USERR1
 40
0.0
  9
$USERR2
 40
0.0
  9
$USERR3
 40
0.0
  9
$USERR4
 40
0.0
  9
$USERR5
 40
0.0
  9
$WORLDVIEW
 70
     1
  9
$SHADEDGE
 70
     3
  9
$SHADEDIF
 70
    70
  9
$TILEMODE
 70
     1
  9
$MAXACTVP
 70
    16
  9
$PINSBASE
 10
0.0
 20
0.0
 30
0.0
  9
$PLIMCHECK
 70
     0
  9
$PEXTMIN
 10
26.66999878883363
 20
20.31999878883363
 30
0.0
  9
$PEXTMAX
 10
240.0299890995026
 20
182.8799890995025
 30
0.0
  9
$PLIMMIN
 10
-6.350006103515625
 20
-6.349999904632568
  9
$PLIMMAX
 10
273.0499877929688
 20
209.5499939918518
  9
$UNITMODE
 70
     0
  9
$VISRETAIN
 70
     0
  9
$PLINEGEN
 70
     0
  9
$PSLTSCALE
 70
     0
  9
$TREEDEPTH
 70
  3020
  9
$CMLSTYLE
  2
STANDARD
  9
$CMLJUST
 70
     0
  9
$CMLSCALE
 40
1.0
  9
$PROXYGRAPHICS
 70
     1
  9
$MEASUREMENT
 70
     1
  9
$CELWEIGHT
370
    -1
  9
$ENDCAPS
280
     0
  9
$JOINSTYLE
280
     0
  9
$LWDISPLAY
290
     0
  9
$INSUNITS
 70
     0
  9
$HYPERLINKBASE
  1

  9
$STYLESHEET
  1
inaba.ctb
  9
$XEDIT
290
     1
  9
$CEPSNTYPE
380
     0
  9
$PSTYLEMODE
290
     1
  9
$FINGERPRINTGUID
  2
{0E4A3AB3-ADAA-44DC-861C-9525B65BB1EC}
  9
$VERSIONGUID
  2
{CA42FD45-7EF7-439E-8148-9BC9C86CC2E8}
  9
$EXTNAMES
290
     1
  9
$PSVPSCALE
 40
0.0
  9
$OLESTARTUP
290
     0
  0
ENDSEC
  0
SECTION
  2
CLASSES
  0
CLASS
  1
ACDBDICTIONARYWDFLT
  2
AcDbDictionaryWithDefault
  3
ObjectDBX Classes
 90
        0
280
     0
281
     0
  0
CLASS
  1
DICTIONARYVAR
  2
AcDbDictionaryVar
  3
ObjectDBX Classes
 90
        0
280
     0
281
     0
  0
CLASS
  1
ACDBPLACEHOLDER
  2
AcDbPlaceHolder
  3
ObjectDBX Classes
 90
        0
280
     0
281
     0
  0
CLASS
  1
LAYOUT
  2
AcDbLayout
  3
ObjectDBX Classes
 90
        0
280
     0
281
     0
  0
ENDSEC
  0
SECTION
  2
TABLES
  0
TABLE
  2
VPORT
  5
746D
330
0
100
AcDbSymbolTable
 70
     2
  0
VPORT
  5
1A458
330
746D
100
AcDbSymbolTableRecord
100
AcDbViewportTableRecord
  2
*Active
 70
     0
 10
0.0
 20
0.0
 11
1.0
 21
1.0
 12
11720.08798000114
 22
5704.77863699966
 13
0.0
 23
0.0
 14
10.0
 24
10.0
 15
10.0
 25
10.0
 16
0.0
 26
0.0
 36
1.0
 17
0.0
 27
0.0
 37
0.0
 40
11513.38691418082
 41
2.234800838574423
 42
50.0
 43
0.0
 44
0.0
 50
0.0
 51
0.0
 71
     0
 72
     0
 73
     1
 74
     0
 75
     0
 76
     0
 77
     0
 78
     0
281
     0
 65
     1
110
0.0
120
0.0
130
0.0
111
1.0
121
0.0
131
0.0
112
0.0
122
1.0
132
0.0
 79
     0
146
0.0
  0
ENDTAB
  0
TABLE
  2
LTYPE
  5
746A
330
0
100
AcDbSymbolTable
 70
     3
  0
LTYPE
  5
7477
330
746A
100
AcDbSymbolTableRecord
100
AcDbLinetypeTableRecord
  2
BYBLOCK
 70
     0
  3

 72
    65
 73
     0
 40
0.0
  0
LTYPE
  5
7478
330
746A
100
AcDbSymbolTableRecord
100
AcDbLinetypeTableRecord
  2
BYLAYER
 70
     0
  3

 72
    65
 73
     0
 40
0.0
  0
LTYPE
  5
7479
330
746A
100
AcDbSymbolTableRecord
100
AcDbLinetypeTableRecord
  2
CONTINUOUS
 70
     0
  3
Solid line
 72
    65
 73
     0
 40
0.0
  0
LTYPE
  5
781A
330
746A
100
AcDbSymbolTableRecord
100
AcDbLinetypeTableRecord
  2
HIDDEN
 70
     0
  3
__ __ __ __ __ __ __ __ __ __ __ __ __ __ __ __
 72
    65
 73
     2
 40
0.375
 49
0.25
 74
     0
 49
-0.125
 74
     0
  0
LTYPE
  5
781B
330
746A
100
AcDbSymbolTableRecord
100
AcDbLinetypeTableRecord
  2
PHANTOM
 70
     0
  3
______  __  __  ______  __  __  ______  __  __ 
 72
    65
 73
     6
 40
2.5
 49
1.25
 74
     0
 49
-0.25
 74
     0
 49
0.25
 74
     0
 49
-0.25
 74
     0
 49
0.25
 74
     0
 49
-0.25
 74
     0
  0
ENDTAB
  0
TABLE
  2
LAYER
  5
7467
102
{ACAD_XDICTIONARY
360
19214
102
}
330
0
100
AcDbSymbolTable
 70
    10
  0
LAYER
  5
7474
330
7467
100
AcDbSymbolTableRecord
100
AcDbLayerTableRecord
  2
0
 70
     0
 62
     7
  6
CONTINUOUS
370
    -3
390
17AE0
  0
LAYER
  5
DEB3
330
7467
100
AcDbSymbolTableRecord
100
AcDbLayerTableRecord
  2
寸法
 70
     0
 62
     4
  6
CONTINUOUS
370
    -3
390
17AE0
  0
LAYER
  5
DEB4
330
7467
100
AcDbSymbolTableRecord
100
AcDbLayerTableRecord
  2
部品1
 70
     0
 62
     7
  6
CONTINUOUS
370
    -3
390
17AE0
  0
LAYER
  5
DEB5
330
7467
100
AcDbSymbolTableRecord
100
AcDbLayerTableRecord
  2
補助
 70
     0
 62
    -1
  6
CONTINUOUS
370
    -3
390
17AE0
  0
LAYER
  5
DEB6
330
7467
100
AcDbSymbolTableRecord
100
AcDbLayerTableRecord
  2
文字
 70
     0
 62
     7
  6
CONTINUOUS
370
    -3
390
17AE0
  0
LAYER
  5
F255
330
7467
100
AcDbSymbolTableRecord
100
AcDbLayerTableRecord
  2
DEFPOINTS
 70
     0
 62
     7
  6
CONTINUOUS
290
     0
370
    -3
390
17AE0
  0
LAYER
  5
10B54
330
7467
100
AcDbSymbolTableRecord
100
AcDbLayerTableRecord
  2
仕様書枠
 70
     0
 62
   230
  6
CONTINUOUS
370
    -3
390
17AE0
  0
LAYER
  5
11729
330
7467
100
AcDbSymbolTableRecord
100
AcDbLayerTableRecord
  2
Ｇ．Ｌ
 70
     0
 62
    30
  6
CONTINUOUS
370
    -3
390
17AE0
  0
LAYER
  5
1173F
330
7467
100
AcDbSymbolTableRecord
100
AcDbLayerTableRecord
  2
細線
 70
     0
 62
     5
  6
CONTINUOUS
370
    -3
390
17AE0
  0
LAYER
  5
142E2
330
7467
100
AcDbSymbolTableRecord
100
AcDbLayerTableRecord
  2
破線
 70
     0
 62
     2
  6
HIDDEN
370
    -3
390
17AE0
  0
ENDTAB
  0
TABLE
  2
STYLE
  5
7468
330
0
100
AcDbSymbolTable
 70
     7
  0
STYLE
  5
7475
330
7468
100
AcDbSymbolTableRecord
100
AcDbTextStyleTableRecord
  2
STANDARD
 70
     0
 40
0.0
 41
1.0
 50
0.0
 71
     0
 42
4.0
  3
txt
  4
C:\AutoCAD LT\bigfont.shx
  0
STYLE
  5
763C
330
7468
100
AcDbSymbolTableRecord
100
AcDbTextStyleTableRecord
  2
MSMINCHO
 70
     0
 40
0.0
 41
1.0
 50
0.0
 71
     0
 42
1.199999999999999
  3
MS PMincho.ttf
  4

1001
ACAD
1000
MS PMincho
1071
    32786
  0
STYLE
  5
F706
330
7468
100
AcDbSymbolTableRecord
100
AcDbTextStyleTableRecord
  2
STYLE1
 70
     0
 40
0.0
 41
1.0
 50
0.0
 71
     0
 42
4.0
  3
isocp.shx
  4
bigfont.shx
  0
STYLE
  5
103BF
330
7468
100
AcDbSymbolTableRecord
100
AcDbTextStyleTableRecord
  2
STYLE2
 70
     0
 40
0.0
 41
1.0
 50
0.0
 71
     0
 42
100.0
  3
MS PGothic.ttf
  4

1001
ACAD
1000
MS PGothic
1071
    32818
  0
STYLE
  5
10BAA
330
7468
100
AcDbSymbolTableRecord
100
AcDbTextStyleTableRecord
  2
STYLE3
 70
     0
 40
0.0
 41
1.0
 50
0.0
 71
     0
 42
100.0
  3
DFPGothic-EB.ttf
  4

1001
ACAD
1000
DFPGothic-EB
1071
    32818
  0
STYLE
  5
11A15
330
7468
100
AcDbSymbolTableRecord
100
AcDbTextStyleTableRecord
  2
MSGOTHIC
 70
     0
 40
0.0
 41
1.0
 50
0.0
 71
     0
 42
3.5
  3
MS PGothic.ttf
  4

1001
ACAD
1000
MS PGothic
1071
    32818
  0
STYLE
  5
13E96
330
7468
100
AcDbSymbolTableRecord
100
AcDbTextStyleTableRecord
  2
MSPゴシック
 70
     0
 40
0.0
 41
1.0
 50
0.0
 71
     0
 42
4.0
  3
MS PGothic.ttf
  4

1001
ACAD
1000
MS PGothic
1071
    32818
  0
ENDTAB
  0
TABLE
  2
VIEW
  5
746B
330
0
100
AcDbSymbolTable
 70
     0
  0
ENDTAB
  0
TABLE
  2
UCS
  5
746C
330
0
100
AcDbSymbolTable
 70
     0
  0
ENDTAB
  0
TABLE
  2
APPID
  5
746E
330
0
100
AcDbSymbolTable
 70
     6
  0
APPID
  5
7476
330
746E
100
AcDbSymbolTableRecord
100
AcDbRegAppTableRecord
  2
ACAD
 70
     0
  0
APPID
  5
DEA9
330
746E
100
AcDbSymbolTableRecord
100
AcDbRegAppTableRecord
  2
CONTENTBLOCKICON
 70
     0
  0
APPID
  5
DEAA
330
746E
100
AcDbSymbolTableRecord
100
AcDbRegAppTableRecord
  2
CONTENTBLOCKDESCRIPTION
 70
     0
  0
APPID
  5
E71D
330
746E
100
AcDbSymbolTableRecord
100
AcDbRegAppTableRecord
  2
CONTENTTABDATA
 70
     0
  0
APPID
  5
E71E
330
746E
100
AcDbSymbolTableRecord
100
AcDbRegAppTableRecord
  2
CONTENTCURRENTTAB
 70
     0
  0
APPID
  5
F3BA
330
746E
100
AcDbSymbolTableRecord
100
AcDbRegAppTableRecord
  2
DRAWINGVARIABLESXDATA
 70
     0
  0
ENDTAB
  0
TABLE
  2
DIMSTYLE
  5
746F
330
0
100
AcDbSymbolTable
 70
     1
100
AcDbDimStyleTable
 71
     1
340
F71F
  0
DIMSTYLE
105
F71F
102
{ACAD_REACTORS
330
162CD
330
162CE
330
162CF
330
162D0
330
162E4
330
162E7
330
162EA
330
162EB
330
16301
330
16302
330
1631F
330
16320
330
16333
330
1659C
330
1659A
330
165E9
330
166DD
330
16913
330
17BC4
330
17BC3
330
17B87
330
17B88
330
17B86
330
17C47
330
17C46
330
194C4
330
194D3
330
194E1
330
194E2
330
194E3
330
194E7
330
19517
330
19518
330
19519
330
19FA4
330
19E20
330
19EC2
330
19EC3
330
1A215
330
1A216
330
1A217
102
}
330
746F
100
AcDbSymbolTableRecord
100
AcDbDimStyleTableRecord
  2
INABA_S40G
 70
     0
 40
40.0
 41
2.5
 42
0.5
 43
7.0
 44
1.5
 73
     0
 74
     0
 77
     3
 78
     8
140
3.0
141
0.0
143
0.0394
147
1.0
172
     1
173
     1
174
     1
178
     7
271
     1
340
F706
341
F770
343
F770
344
F770
  0
ENDTAB
  0
TABLE
  2
BLOCK_RECORD
  5
7466
330
0
100
AcDbSymbolTable
 70
    43
  0
BLOCK_RECORD
  5
747D
330
7466
100
AcDbSymbolTableRecord
100
AcDbBlockTableRecord
  2
*MODEL_SPACE
340
17AE5
  0
BLOCK_RECORD
  5
747A
330
7466
100
AcDbSymbolTableRecord
100
AcDbBlockTableRecord
  2
*PAPER_SPACE
340
17AE6
  0
BLOCK_RECORD
  5
F770
330
7466
100
AcDbSymbolTableRecord
100
AcDbBlockTableRecord
  2
_DOTSMALL
340
0
102
{BLKREFS
331
18D7A
331
18D7B
331
18D83
331
18D84
331
18D8E
331
18D8F
331
18D95
331
18D96
331
18DA0
331
18DA1
331
18DA9
331
18DAA
331
18DB2
331
18DB3
331
18DBA
331
18DBB
331
18DC5
331
18DC6
331
18DCF
331
18DD0
331
18DDA
331
18DDB
331
18DE5
331
18DE6
331
18DEF
331
18DF0
331
18DFA
331
18DFB
331
18E03
331
18E04
331
18E0E
331
18E0F
331
18E1A
331
18E1B
331
18E25
331
18E26
331
18E2F
331
18E30
331
18E40
331
18E41
331
18E49
331
18E4A
331
18E54
331
18E55
331
18E5F
331
18E60
331
18E68
331
18E69
331
18EF5
331
18EF6
331
19B9F
331
19BA0
331
19BA8
331
19BA9
331
19BB1
331
19BB2
331
19BBC
331
19BBD
331
19BD0
331
19BD1
331
19BE3
331
19BE4
331
19BED
331
19BEE
331
1A079
331
1A07A
331
1A084
331
1A085
331
1A08F
331
1A090
331
1A098
331
1A099
331
1A30A
331
1A30B
331
1A406
331
1A407
331
1A40F
331
1A410
331
1A437
331
1A438
331
1A440
331
1A441
102
}
  0
BLOCK_RECORD
  5
16338
330
7466
100
AcDbSymbolTableRecord
100
AcDbBlockTableRecord
  2
*D1
340
0
  0
BLOCK_RECORD
  5
16344
330
7466
100
AcDbSymbolTableRecord
100
AcDbBlockTableRecord
  2
*D2
340
0
  0
BLOCK_RECORD
  5
16352
330
7466
100
AcDbSymbolTableRecord
100
AcDbBlockTableRecord
  2
*D3
340
0
  0
BLOCK_RECORD
  5
16360
330
7466
100
AcDbSymbolTableRecord
100
AcDbBlockTableRecord
  2
*D4
340
0
  0
BLOCK_RECORD
  5
16384
330
7466
100
AcDbSymbolTableRecord
100
AcDbBlockTableRecord
  2
*D5
340
0
  0
BLOCK_RECORD
  5
1638F
330
7466
100
AcDbSymbolTableRecord
100
AcDbBlockTableRecord
  2
*D6
340
0
  0
BLOCK_RECORD
  5
1639B
330
7466
100
AcDbSymbolTableRecord
100
AcDbBlockTableRecord
  2
*D7
340
0
  0
BLOCK_RECORD
  5
163A9
330
7466
100
AcDbSymbolTableRecord
100
AcDbBlockTableRecord
  2
*D8
340
0
  0
BLOCK_RECORD
  5
163B8
330
7466
100
AcDbSymbolTableRecord
100
AcDbBlockTableRecord
  2
*D9
340
0
  0
BLOCK_RECORD
  5
163C7
330
7466
100
AcDbSymbolTableRecord
100
AcDbBlockTableRecord
  2
*D10
340
0
  0
BLOCK_RECORD
  5
163E1
330
7466
100
AcDbSymbolTableRecord
100
AcDbBlockTableRecord
  2
*D11
340
0
  0
BLOCK_RECORD
  5
163ED
330
7466
100
AcDbSymbolTableRecord
100
AcDbBlockTableRecord
  2
*D12
340
0
  0
BLOCK_RECORD
  5
163FB
330
7466
100
AcDbSymbolTableRecord
100
AcDbBlockTableRecord
  2
*D13
340
0
  0
BLOCK_RECORD
  5
165B5
330
7466
100
AcDbSymbolTableRecord
100
AcDbBlockTableRecord
  2
*D14
340
0
  0
BLOCK_RECORD
  5
165C4
330
7466
100
AcDbSymbolTableRecord
100
AcDbBlockTableRecord
  2
*D15
340
0
  0
BLOCK_RECORD
  5
165EA
330
7466
100
AcDbSymbolTableRecord
100
AcDbBlockTableRecord
  2
*D16
340
0
  0
BLOCK_RECORD
  5
166CF
330
7466
100
AcDbSymbolTableRecord
100
AcDbBlockTableRecord
  2
*D17
340
0
  0
BLOCK_RECORD
  5
16908
330
7466
100
AcDbSymbolTableRecord
100
AcDbBlockTableRecord
  2
*D18
340
0
  0
BLOCK_RECORD
  5
17BC5
330
7466
100
AcDbSymbolTableRecord
100
AcDbBlockTableRecord
  2
*D19
340
0
  0
BLOCK_RECORD
  5
17BD3
330
7466
100
AcDbSymbolTableRecord
100
AcDbBlockTableRecord
  2
*D20
340
0
  0
BLOCK_RECORD
  5
17BDE
330
7466
100
AcDbSymbolTableRecord
100
AcDbBlockTableRecord
  2
*D21
340
0
  0
BLOCK_RECORD
  5
17BEA
330
7466
100
AcDbSymbolTableRecord
100
AcDbBlockTableRecord
  2
*D22
340
0
  0
BLOCK_RECORD
  5
17BF8
330
7466
100
AcDbSymbolTableRecord
100
AcDbBlockTableRecord
  2
*D23
340
0
  0
BLOCK_RECORD
  5
17C48
330
7466
100
AcDbSymbolTableRecord
100
AcDbBlockTableRecord
  2
*D24
340
0
  0
BLOCK_RECORD
  5
17C56
330
7466
100
AcDbSymbolTableRecord
100
AcDbBlockTableRecord
  2
*D25
340
0
  0
BLOCK_RECORD
  5
196B8
330
7466
100
AcDbSymbolTableRecord
100
AcDbBlockTableRecord
  2
*D26
340
0
  0
BLOCK_RECORD
  5
196C5
330
7466
100
AcDbSymbolTableRecord
100
AcDbBlockTableRecord
  2
*D27
340
0
  0
BLOCK_RECORD
  5
196D2
330
7466
100
AcDbSymbolTableRecord
100
AcDbBlockTableRecord
  2
*D28
340
0
  0
BLOCK_RECORD
  5
196DE
330
7466
100
AcDbSymbolTableRecord
100
AcDbBlockTableRecord
  2
*D29
340
0
  0
BLOCK_RECORD
  5
196EC
330
7466
100
AcDbSymbolTableRecord
100
AcDbBlockTableRecord
  2
*D30
340
0
  0
BLOCK_RECORD
  5
196F8
330
7466
100
AcDbSymbolTableRecord
100
AcDbBlockTableRecord
  2
*D31
340
0
  0
BLOCK_RECORD
  5
19706
330
7466
100
AcDbSymbolTableRecord
100
AcDbBlockTableRecord
  2
*D32
340
0
  0
BLOCK_RECORD
  5
19712
330
7466
100
AcDbSymbolTableRecord
100
AcDbBlockTableRecord
  2
*D33
340
0
  0
BLOCK_RECORD
  5
1971E
330
7466
100
AcDbSymbolTableRecord
100
AcDbBlockTableRecord
  2
*D34
340
0
  0
BLOCK_RECORD
  5
19FAB
330
7466
100
AcDbSymbolTableRecord
100
AcDbBlockTableRecord
  2
*D35
340
0
  0
BLOCK_RECORD
  5
19FB7
330
7466
100
AcDbSymbolTableRecord
100
AcDbBlockTableRecord
  2
*D36
340
0
  0
BLOCK_RECORD
  5
19FC3
330
7466
100
AcDbSymbolTableRecord
100
AcDbBlockTableRecord
  2
*D37
340
0
  0
BLOCK_RECORD
  5
19FD1
330
7466
100
AcDbSymbolTableRecord
100
AcDbBlockTableRecord
  2
*D38
340
0
  0
BLOCK_RECORD
  5
1A285
330
7466
100
AcDbSymbolTableRecord
100
AcDbBlockTableRecord
  2
*D39
340
0
  0
BLOCK_RECORD
  5
1A292
330
7466
100
AcDbSymbolTableRecord
100
AcDbBlockTableRecord
  2
*D40
340
0
  0
BLOCK_RECORD
  5
1A2A0
330
7466
100
AcDbSymbolTableRecord
100
AcDbBlockTableRecord
  2
*D41
340
0
  0
BLOCK_RECORD
  5
1A3CC
330
7466
100
AcDbSymbolTableRecord
100
AcDbBlockTableRecord
  2
A$C39E04ECA
340
0
  0
ENDTAB
  0
ENDSEC
  0
SECTION
  2
BLOCKS
  0
BLOCK
  5
7489
330
747D
100
AcDbEntity
  8
0
100
AcDbBlockBegin
  2
*MODEL_SPACE
 70
     0
 10
0.0
 20
0.0
 30
0.0
  3
*MODEL_SPACE
  1

  0
ENDBLK
  5
748A
330
747D
100
AcDbEntity
  8
0
100
AcDbBlockEnd
  0
BLOCK
  5
7487
330
747A
100
AcDbEntity
 67
     1
  8
0
100
AcDbBlockBegin
  2
*PAPER_SPACE
 70
     0
 10
0.0
 20
0.0
 30
0.0
  3
*PAPER_SPACE
  1

  0
ENDBLK
  5
7488
330
747A
100
AcDbEntity
 67
     1
  8
0
100
AcDbBlockEnd
  0
BLOCK
  5
F771
330
F770
100
AcDbEntity
  8
0
 48
50.0
100
AcDbBlockBegin
  2
_DOTSMALL
 70
     0
 10
0.0
 20
0.0
 30
0.0
  3
_DOTSMALL
  1

  0
LWPOLYLINE
  5
F772
330
F770
100
AcDbEntity
  8
0
  6
ByBlock
 62
     0
 48
50.0
100
AcDbPolyline
 90
        2
 70
     1
 43
0.5
 10
-0.0625
 20
0.0
 42
1.0
 10
0.0625
 20
0.0
 42
1.0
  0
ENDBLK
  5
F776
330
F770
100
AcDbEntity
  8
0
 48
50.0
100
AcDbBlockEnd
  0
BLOCK
  5
164EB
330
16338
100
AcDbEntity
  8
0
 48
50.0
100
AcDbBlockBegin
  2
*D1
 70
     1
 10
0.0
 20
0.0
 30
0.0
  3
*D1
  1

  0
LINE
  5
18E65
330
16338
100
AcDbEntity
  8
寸法
 62
     0
 48
50.0
370
    -2
100
AcDbLine
 10
7869.673057123664
 20
10132.02169339953
 30
0.0
 11
8557.099402858069
 21
10132.02169339953
 31
0.0
  0
LINE
  5
18E66
330
16338
100
AcDbEntity
  8
寸法
 62
     0
 48
50.0
370
    -2
100
AcDbLine
 10
7869.673057123638
 20
7612.021693399518
 30
0.0
 11
8557.099402858069
 21
7612.021693399518
 31
0.0
  0
LINE
  5
18E67
330
16338
100
AcDbEntity
  8
寸法
 62
     0
 48
50.0
370
    -2
100
AcDbLine
 10
8497.09940285807
 20
10132.02169339953
 30
0.0
 11
8497.09940285807
 21
7612.021693399518
 31
0.0
  0
INSERT
  5
18E68
330
16338
100
AcDbEntity
  8
寸法
 62
     0
 48
50.0
370
    -2
100
AcDbBlockReference
  2
_DOTSMALL
 10
8497.09940285807
 20
10132.02169339953
 30
0.0
 41
100.0
 42
100.0
 43
100.0
 50
90.0
  0
INSERT
  5
18E69
330
16338
100
AcDbEntity
  8
寸法
 62
     0
 48
50.0
370
    -2
100
AcDbBlockReference
  2
_DOTSMALL
 10
8497.09940285807
 20
7612.021693399518
 30
0.0
 41
100.0
 42
100.0
 43
100.0
 50
270.0
  0
MTEXT
  5
18E6A
330
16338
100
AcDbEntity
  8
寸法
 62
     7
 48
50.0
100
AcDbMText
 10
8397.087591834447
 20
8872.021693399528
 30
0.0
 40
120.0
 41
0.0
 71
     5
 72
     1
  1
\A1;6X420=2520
  7
STYLE1
 11
0.0000000000000001
 21
1.0
 31
0.0
 73
     1
 44
1.0
1001
ACAD
1000
MTEXTBEGIN
1070
    73
1070
     1
1070
    44
1040
1.0
1070
    74
1070
     0
1000
MTEXTEND
  0
POINT
  5
18E6B
330
16338
100
AcDbEntity
  8
DEFPOINTS
 62
     0
 48
50.0
100
AcDbPoint
 10
7849.673057123664
 20
10132.02169339953
 30
0.0
  0
POINT
  5
18E6C
330
16338
100
AcDbEntity
  8
DEFPOINTS
 62
     0
 48
50.0
100
AcDbPoint
 10
7849.673057123638
 20
7612.021693399518
 30
0.0
  0
POINT
  5
18E6D
330
16338
100
AcDbEntity
  8
DEFPOINTS
 62
     0
 48
50.0
100
AcDbPoint
 10
8497.09940285807
 20
7612.021693399518
 30
0.0
  0
ENDBLK
  5
164F5
330
16338
100
AcDbEntity
  8
0
 48
50.0
100
AcDbBlockEnd
  0
BLOCK
  5
16414
330
16344
100
AcDbEntity
  8
0
 48
50.0
100
AcDbBlockBegin
  2
*D2
 70
     1
 10
0.0
 20
0.0
 30
0.0
  3
*D2
  1

  0
LINE
  5
18E5A
330
16344
100
AcDbEntity
  8
寸法
 62
     0
 48
50.0
370
    -2
100
AcDbLine
 10
7869.673057123638
 20
7612.021693399518
 30
0.0
 11
8557.09940285805
 21
7612.021693399518
 31
0.0
  0
LINE
  5
18E5B
330
16344
100
AcDbEntity
  8
寸法
 62
     0
 48
50.0
370
    -2
100
AcDbLine
 10
7869.673057123638
 20
7557.021693399521
 30
0.0
 11
8557.09940285805
 21
7557.021693399521
 31
0.0
  0
LINE
  5
18E5C
330
16344
100
AcDbEntity
  8
寸法
 62
     0
 48
50.0
370
    -2
100
AcDbLine
 10
8497.099402858051
 20
7612.021693399518
 30
0.0
 11
8497.099402858051
 21
7712.021693399518
 31
0.0
  0
LINE
  5
18E5D
330
16344
100
AcDbEntity
  8
寸法
 62
     0
 48
50.0
370
    -2
100
AcDbLine
 10
8497.099402858051
 20
7557.021693399521
 30
0.0
 11
8497.099402858051
 21
7070.67494512042
 31
0.0
  0
LINE
  5
18E5E
330
16344
100
AcDbEntity
  8
寸法
 62
     0
 48
50.0
370
    -2
100
AcDbLine
 10
8497.099402858051
 20
7612.021693399518
 30
0.0
 11
8497.099402858051
 21
7557.021693399521
 31
0.0
  0
INSERT
  5
18E5F
330
16344
100
AcDbEntity
  8
寸法
 62
     0
 48
50.0
370
    -2
100
AcDbBlockReference
  2
_DOTSMALL
 10
8497.099402858051
 20
7612.021693399518
 30
0.0
 41
100.0
 42
100.0
 43
100.0
 50
270.0
  0
INSERT
  5
18E60
330
16344
100
AcDbEntity
  8
寸法
 62
     0
 48
50.0
370
    -2
100
AcDbBlockReference
  2
_DOTSMALL
 10
8497.099402858051
 20
7557.021693399521
 30
0.0
 41
100.0
 42
100.0
 43
100.0
 50
90.0
  0
MTEXT
  5
18E61
330
16344
100
AcDbEntity
  8
寸法
 62
     7
 48
50.0
100
AcDbMText
 10
8397.099402858048
 20
7179.16022649466
 30
0.0
 40
120.0
 41
0.0
 71
     5
 72
     1
  1
\A1;55
  7
STYLE1
 11
0.0000000000000001
 21
1.0
 31
0.0
 73
     1
 44
1.0
1001
ACAD
1000
MTEXTBEGIN
1070
    73
1070
     1
1070
    44
1040
1.0
1070
    74
1070
     0
1000
MTEXTEND
  0
POINT
  5
18E62
330
16344
100
AcDbEntity
  8
DEFPOINTS
 62
     0
 48
50.0
100
AcDbPoint
 10
7849.673057123638
 20
7612.021693399518
 30
0.0
  0
POINT
  5
18E63
330
16344
100
AcDbEntity
  8
DEFPOINTS
 62
     0
 48
50.0
100
AcDbPoint
 10
7849.673057123638
 20
7557.021693399521
 30
0.0
  0
POINT
  5
18E64
330
16344
100
AcDbEntity
  8
DEFPOINTS
 62
     0
 48
50.0
100
AcDbPoint
 10
8497.099402858051
 20
7557.021693399521
 30
0.0
  0
ENDBLK
  5
16420
330
16344
100
AcDbEntity
  8
0
 48
50.0
100
AcDbBlockEnd
  0
BLOCK
  5
16421
330
16352
100
AcDbEntity
  8
0
 48
50.0
100
AcDbBlockBegin
  2
*D3
 70
     1
 10
0.0
 20
0.0
 30
0.0
  3
*D3
  1

  0
LINE
  5
18E4F
330
16352
100
AcDbEntity
  8
寸法
 62
     0
 48
50.0
370
    -2
100
AcDbLine
 10
7869.673057123664
 20
10187.02169339953
 30
0.0
 11
8557.099402858076
 21
10187.02169339953
 31
0.0
  0
LINE
  5
18E50
330
16352
100
AcDbEntity
  8
寸法
 62
     0
 48
50.0
370
    -2
100
AcDbLine
 10
7869.673057123664
 20
10132.02169339953
 30
0.0
 11
8557.099402858076
 21
10132.02169339953
 31
0.0
  0
LINE
  5
18E51
330
16352
100
AcDbEntity
  8
寸法
 62
     0
 48
50.0
370
    -2
100
AcDbLine
 10
8497.099402858076
 20
10132.02169339953
 30
0.0
 11
8497.099402858076
 21
10032.02169339953
 31
0.0
  0
LINE
  5
18E52
330
16352
100
AcDbEntity
  8
寸法
 62
     0
 48
50.0
370
    -2
100
AcDbLine
 10
8497.099402858076
 20
10187.02169339953
 30
0.0
 11
8497.099402858076
 21
10603.992256148
 31
0.0
  0
LINE
  5
18E53
330
16352
100
AcDbEntity
  8
寸法
 62
     0
 48
50.0
370
    -2
100
AcDbLine
 10
8497.099402858076
 20
10132.02169339953
 30
0.0
 11
8497.099402858076
 21
10187.02169339953
 31
0.0
  0
INSERT
  5
18E54
330
16352
100
AcDbEntity
  8
寸法
 62
     0
 48
50.0
370
    -2
100
AcDbBlockReference
  2
_DOTSMALL
 10
8497.099402858076
 20
10132.02169339953
 30
0.0
 41
100.0
 42
100.0
 43
100.0
 50
90.0
  0
INSERT
  5
18E55
330
16352
100
AcDbEntity
  8
寸法
 62
     0
 48
50.0
370
    -2
100
AcDbBlockReference
  2
_DOTSMALL
 10
8497.099402858076
 20
10187.02169339953
 30
0.0
 41
100.0
 42
100.0
 43
100.0
 50
270.0
  0
MTEXT
  5
18E56
330
16352
100
AcDbEntity
  8
寸法
 62
     7
 48
50.0
100
AcDbMText
 10
8397.099402858072
 20
10495.50697477377
 30
0.0
 40
120.0
 41
0.0
 71
     5
 72
     1
  1
\A1;55
  7
STYLE1
 11
0.0000000000000001
 21
1.0
 31
0.0
 73
     1
 44
1.0
1001
ACAD
1000
MTEXTBEGIN
1070
    73
1070
     1
1070
    44
1040
1.0
1070
    74
1070
     0
1000
MTEXTEND
  0
POINT
  5
18E57
330
16352
100
AcDbEntity
  8
DEFPOINTS
 62
     0
 48
50.0
100
AcDbPoint
 10
7849.673057123664
 20
10187.02169339953
 30
0.0
  0
POINT
  5
18E58
330
16352
100
AcDbEntity
  8
DEFPOINTS
 62
     0
 48
50.0
100
AcDbPoint
 10
7849.673057123664
 20
10132.02169339953
 30
0.0
  0
POINT
  5
18E59
330
16352
100
AcDbEntity
  8
DEFPOINTS
 62
     0
 48
50.0
100
AcDbPoint
 10
8497.099402858076
 20
10132.02169339953
 30
0.0
  0
ENDBLK
  5
1642D
330
16352
100
AcDbEntity
  8
0
 48
50.0
100
AcDbBlockEnd
  0
BLOCK
  5
164CA
330
16360
100
AcDbEntity
  8
0
 48
50.0
100
AcDbBlockBegin
  2
*D4
 70
     1
 10
0.0
 20
0.0
 30
0.0
  3
*D4
  1

  0
LINE
  5
18E46
330
16360
100
AcDbEntity
  8
寸法
 62
     0
 48
50.0
370
    -2
100
AcDbLine
 10
7869.673057123664
 20
10187.02169339953
 30
0.0
 11
8922.206344597709
 21
10187.02169339953
 31
0.0
  0
LINE
  5
18E47
330
16360
100
AcDbEntity
  8
寸法
 62
     0
 48
50.0
370
    -2
100
AcDbLine
 10
7869.673057123638
 20
7557.021693399521
 30
0.0
 11
8922.206344597709
 21
7557.021693399521
 31
0.0
  0
LINE
  5
18E48
330
16360
100
AcDbEntity
  8
寸法
 62
     0
 48
50.0
370
    -2
100
AcDbLine
 10
8862.206344597709
 20
10187.02169339953
 30
0.0
 11
8862.206344597709
 21
7557.021693399521
 31
0.0
  0
INSERT
  5
18E49
330
16360
100
AcDbEntity
  8
寸法
 62
     0
 48
50.0
370
    -2
100
AcDbBlockReference
  2
_DOTSMALL
 10
8862.206344597709
 20
10187.02169339953
 30
0.0
 41
100.0
 42
100.0
 43
100.0
 50
90.0
  0
INSERT
  5
18E4A
330
16360
100
AcDbEntity
  8
寸法
 62
     0
 48
50.0
370
    -2
100
AcDbBlockReference
  2
_DOTSMALL
 10
8862.206344597709
 20
7557.021693399521
 30
0.0
 41
100.0
 42
100.0
 43
100.0
 50
270.0
  0
MTEXT
  5
18E4B
330
16360
100
AcDbEntity
  8
寸法
 62
     7
 48
50.0
100
AcDbMText
 10
8762.194533574087
 20
8872.021693399528
 30
0.0
 40
120.0
 41
0.0
 71
     5
 72
     1
  1
\A1;2630
  7
STYLE1
 11
0.0000000000000001
 21
1.0
 31
0.0
 73
     1
 44
1.0
1001
ACAD
1000
MTEXTBEGIN
1070
    73
1070
     1
1070
    44
1040
1.0
1070
    74
1070
     0
1000
MTEXTEND
  0
POINT
  5
18E4C
330
16360
100
AcDbEntity
  8
DEFPOINTS
 62
     0
 48
50.0
100
AcDbPoint
 10
7849.673057123664
 20
10187.02169339953
 30
0.0
  0
POINT
  5
18E4D
330
16360
100
AcDbEntity
  8
DEFPOINTS
 62
     0
 48
50.0
100
AcDbPoint
 10
7849.673057123638
 20
7557.021693399521
 30
0.0
  0
POINT
  5
18E4E
330
16360
100
AcDbEntity
  8
DEFPOINTS
 62
     0
 48
50.0
100
AcDbPoint
 10
8862.206344597709
 20
7557.021693399521
 30
0.0
  0
ENDBLK
  5
164D4
330
16360
100
AcDbEntity
  8
0
 48
50.0
100
AcDbBlockEnd
  0
BLOCK
  5
1728C
330
16384
100
AcDbEntity
  8
0
 48
50.0
100
AcDbBlockBegin
  2
*D5
 70
     1
 10
0.0
 20
0.0
 30
0.0
  3
*D5
  1

  0
LINE
  5
18E3E
330
16384
100
AcDbEntity
  8
寸法
 62
     0
 48
50.0
370
    -2
100
AcDbLine
 10
6582.673057123656
 20
7563.021693399431
 30
0.0
 11
6582.673057123656
 21
6962.590922633267
 31
0.0
  0
LINE
  5
18E3F
330
16384
100
AcDbEntity
  8
寸法
 62
     0
 48
50.0
370
    -2
100
AcDbLine
 10
7746.673057123638
 20
7022.590922633266
 30
0.0
 11
6582.673057123656
 21
7022.590922633266
 31
0.0
  0
INSERT
  5
18E40
330
16384
100
AcDbEntity
  8
寸法
 62
     0
 48
50.0
370
    -2
100
AcDbBlockReference
  2
_DOTSMALL
 10
7746.673057123638
 20
7022.590922633266
 30
0.0
 41
100.0
 42
100.0
 43
100.0
  0
INSERT
  5
18E41
330
16384
100
AcDbEntity
  8
寸法
 62
     0
 48
50.0
370
    -2
100
AcDbBlockReference
  2
_DOTSMALL
 10
6582.673057123656
 20
7022.590922633266
 30
0.0
 41
100.0
 42
100.0
 43
100.0
 50
180.0
  0
MTEXT
  5
18E42
330
16384
100
AcDbEntity
  8
寸法
 62
     7
 48
50.0
100
AcDbMText
 10
7164.673057123647
 20
7222.590922633266
 30
0.0
 40
120.0
 41
0.0
 71
     5
 72
     1
  1
\A1;有効開口部間口\P 1164
  7
STYLE1
 73
     1
 44
1.0
1001
ACAD
1000
MTEXTBEGIN
1070
    73
1070
     1
1070
    44
1040
1.0
1070
    74
1070
     0
1000
MTEXTEND
  0
POINT
  5
18E43
330
16384
100
AcDbEntity
  8
DEFPOINTS
 62
     0
 48
50.0
100
AcDbPoint
 10
7746.673057123638
 20
7583.02169339943
 30
0.0
  0
POINT
  5
18E44
330
16384
100
AcDbEntity
  8
DEFPOINTS
 62
     0
 48
50.0
100
AcDbPoint
 10
6582.673057123656
 20
7583.021693399429
 30
0.0
  0
POINT
  5
18E45
330
16384
100
AcDbEntity
  8
DEFPOINTS
 62
     0
 48
50.0
100
AcDbPoint
 10
6582.673057123656
 20
7022.590922633266
 30
0.0
  0
ENDBLK
  5
17295
330
16384
100
AcDbEntity
  8
0
 48
50.0
100
AcDbBlockEnd
  0
BLOCK
  5
17261
330
1638F
100
AcDbEntity
  8
0
 48
50.0
100
AcDbBlockBegin
  2
*D6
 70
     1
 10
0.0
 20
0.0
 30
0.0
  3
*D6
  1

  0
LINE
  5
18EF2
330
1638F
100
AcDbEntity
  8
寸法
 62
     0
 48
50.0
370
    -2
100
AcDbLine
 10
3739.673057123657
 20
7537.021693399427
 30
0.0
 11
3739.673057123657
 21
6516.417927042391
 31
0.0
  0
LINE
  5
18EF3
330
1638F
100
AcDbEntity
  8
寸法
 62
     0
 48
50.0
370
    -2
100
AcDbLine
 10
7849.673057123628
 20
7537.021693399522
 30
0.0
 11
7849.673057123628
 21
6516.417927042391
 31
0.0
  0
LINE
  5
18EF4
330
1638F
100
AcDbEntity
  8
寸法
 62
     0
 48
50.0
370
    -2
100
AcDbLine
 10
3739.673057123657
 20
6576.417927042392
 30
0.0
 11
7849.673057123628
 21
6576.417927042392
 31
0.0
  0
INSERT
  5
18EF5
330
1638F
100
AcDbEntity
  8
寸法
 62
     0
 48
50.0
370
    -2
100
AcDbBlockReference
  2
_DOTSMALL
 10
3739.673057123657
 20
6576.417927042392
 30
0.0
 41
100.0
 42
100.0
 43
100.0
 50
180.0
  0
INSERT
  5
18EF6
330
1638F
100
AcDbEntity
  8
寸法
 62
     0
 48
50.0
370
    -2
100
AcDbBlockReference
  2
_DOTSMALL
 10
7849.673057123628
 20
6576.417927042392
 30
0.0
 41
100.0
 42
100.0
 43
100.0
  0
MTEXT
  5
18EF7
330
1638F
100
AcDbEntity
  8
寸法
 62
     7
 48
50.0
100
AcDbMText
 10
5794.673057123642
 20
6676.417927042392
 30
0.0
 40
120.0
 41
0.0
 71
     5
 72
     1
  1
\A1;N X 1370
  7
STYLE1
 73
     1
 44
1.0
1001
ACAD
1000
MTEXTBEGIN
1070
    73
1070
     1
1070
    44
1040
1.0
1070
    74
1070
     0
1000
MTEXTEND
  0
POINT
  5
18EF8
330
1638F
100
AcDbEntity
  8
DEFPOINTS
 62
     0
 48
50.0
100
AcDbPoint
 10
3739.673057123657
 20
7557.021693399427
 30
0.0
  0
POINT
  5
18EF9
330
1638F
100
AcDbEntity
  8
DEFPOINTS
 62
     0
 48
50.0
100
AcDbPoint
 10
7849.673057123628
 20
7557.021693399521
 30
0.0
  0
POINT
  5
18EFA
330
1638F
100
AcDbEntity
  8
DEFPOINTS
 62
     0
 48
50.0
100
AcDbPoint
 10
7849.673057123628
 20
6576.417927042392
 30
0.0
  0
ENDBLK
  5
1726B
330
1638F
100
AcDbEntity
  8
0
 48
50.0
100
AcDbBlockEnd
  0
BLOCK
  5
16464
330
1639B
100
AcDbEntity
  8
0
 48
50.0
100
AcDbBlockBegin
  2
*D7
 70
     1
 10
0.0
 20
0.0
 30
0.0
  3
*D7
  1

  0
LINE
  5
18E2A
330
1639B
100
AcDbEntity
  8
寸法
 62
     0
 48
50.0
370
    -2
100
AcDbLine
 10
3794.673057123653
 20
7537.02169339943
 30
0.0
 11
3794.673057123653
 21
6962.590922633267
 31
0.0
  0
LINE
  5
18E2B
330
1639B
100
AcDbEntity
  8
寸法
 62
     0
 48
50.0
370
    -2
100
AcDbLine
 10
3739.673057123657
 20
7537.021693399427
 30
0.0
 11
3739.673057123657
 21
6962.590922633267
 31
0.0
  0
LINE
  5
18E2C
330
1639B
100
AcDbEntity
  8
寸法
 62
     0
 48
50.0
370
    -2
100
AcDbLine
 10
3794.673057123653
 20
7022.590922633266
 30
0.0
 11
3894.673057123653
 21
7022.590922633266
 31
0.0
  0
LINE
  5
18E2D
330
1639B
100
AcDbEntity
  8
寸法
 62
     0
 48
50.0
370
    -2
100
AcDbLine
 10
3739.673057123657
 20
7022.590922633266
 30
0.0
 11
3322.702494375179
 21
7022.590922633266
 31
0.0
  0
LINE
  5
18E2E
330
1639B
100
AcDbEntity
  8
寸法
 62
     0
 48
50.0
370
    -2
100
AcDbLine
 10
3794.673057123653
 20
7022.590922633266
 30
0.0
 11
3739.673057123657
 21
7022.590922633266
 31
0.0
  0
INSERT
  5
18E2F
330
1639B
100
AcDbEntity
  8
寸法
 62
     0
 48
50.0
370
    -2
100
AcDbBlockReference
  2
_DOTSMALL
 10
3794.673057123653
 20
7022.590922633266
 30
0.0
 41
100.0
 42
100.0
 43
100.0
 50
180.0
  0
INSERT
  5
18E30
330
1639B
100
AcDbEntity
  8
寸法
 62
     0
 48
50.0
370
    -2
100
AcDbBlockReference
  2
_DOTSMALL
 10
3739.673057123657
 20
7022.590922633266
 30
0.0
 41
100.0
 42
100.0
 43
100.0
  0
MTEXT
  5
18E31
330
1639B
100
AcDbEntity
  8
寸法
 62
     7
 48
50.0
100
AcDbMText
 10
3431.187775749418
 20
7122.590922633266
 30
0.0
 40
120.0
 41
0.0
 71
     5
 72
     1
  1
\A1;55
  7
STYLE1
 73
     1
 44
1.0
1001
ACAD
1000
MTEXTBEGIN
1070
    73
1070
     1
1070
    44
1040
1.0
1070
    74
1070
     0
1000
MTEXTEND
  0
POINT
  5
18E32
330
1639B
100
AcDbEntity
  8
DEFPOINTS
 62
     0
 48
50.0
100
AcDbPoint
 10
3794.673057123653
 20
7557.02169339943
 30
0.0
  0
POINT
  5
18E33
330
1639B
100
AcDbEntity
  8
DEFPOINTS
 62
     0
 48
50.0
100
AcDbPoint
 10
3739.673057123657
 20
7557.021693399427
 30
0.0
  0
POINT
  5
18E34
330
1639B
100
AcDbEntity
  8
DEFPOINTS
 62
     0
 48
50.0
100
AcDbPoint
 10
3739.673057123657
 20
7022.590922633266
 30
0.0
  0
ENDBLK
  5
16470
330
1639B
100
AcDbEntity
  8
0
 48
50.0
100
AcDbBlockEnd
  0
BLOCK
  5
16471
330
163A9
100
AcDbEntity
  8
0
 48
50.0
100
AcDbBlockBegin
  2
*D8
 70
     1
 10
0.0
 20
0.0
 30
0.0
  3
*D8
  1

  0
LINE
  5
18E1F
330
163A9
100
AcDbEntity
  8
寸法
 62
     0
 48
50.0
370
    -2
100
AcDbLine
 10
6582.673057123656
 20
7563.021693399431
 30
0.0
 11
6582.673057123656
 21
6962.590922633267
 31
0.0
  0
LINE
  5
18E20
330
163A9
100
AcDbEntity
  8
寸法
 62
     0
 48
50.0
370
    -2
100
AcDbLine
 10
6534.673057123653
 20
7537.02169339943
 30
0.0
 11
6534.673057123653
 21
6962.590922633267
 31
0.0
  0
LINE
  5
18E21
330
163A9
100
AcDbEntity
  8
寸法
 62
     0
 48
50.0
370
    -2
100
AcDbLine
 10
6582.673057123656
 20
7022.590922633266
 30
0.0
 11
6682.673057123657
 21
7022.590922633266
 31
0.0
  0
LINE
  5
18E22
330
163A9
100
AcDbEntity
  8
寸法
 62
     0
 48
50.0
370
    -2
100
AcDbLine
 10
6534.673057123653
 20
7022.590922633266
 30
0.0
 11
6434.673057123653
 21
7022.590922633266
 31
0.0
  0
MTEXT
  5
18E23
330
163A9
100
AcDbEntity
  8
寸法
 62
     7
 48
50.0
100
AcDbMText
 10
6695.575028123714
 20
7122.590922633266
 30
0.0
 40
120.0
 41
0.0
 71
     5
 72
     1
  1
\A1;48
  7
STYLE1
 73
     1
 44
1.0
1001
ACAD
1000
MTEXTBEGIN
1070
    73
1070
     1
1070
    44
1040
1.0
1070
    74
1070
     0
1000
MTEXTEND
  0
LINE
  5
18E24
330
163A9
100
AcDbEntity
  8
寸法
 62
     0
 48
50.0
370
    -2
100
AcDbLine
 10
6582.673057123656
 20
7022.590922633266
 30
0.0
 11
6534.673057123653
 21
7022.590922633266
 31
0.0
  0
INSERT
  5
18E25
330
163A9
100
AcDbEntity
  8
寸法
 62
     0
 48
50.0
370
    -2
100
AcDbBlockReference
  2
_DOTSMALL
 10
6582.673057123656
 20
7022.590922633266
 30
0.0
 41
100.0
 42
100.0
 43
100.0
 50
180.0
  0
INSERT
  5
18E26
330
163A9
100
AcDbEntity
  8
寸法
 62
     0
 48
50.0
370
    -2
100
AcDbBlockReference
  2
_DOTSMALL
 10
6534.673057123653
 20
7022.590922633266
 30
0.0
 41
100.0
 42
100.0
 43
100.0
  0
POINT
  5
18E27
330
163A9
100
AcDbEntity
  8
DEFPOINTS
 62
     0
 48
50.0
100
AcDbPoint
 10
6582.673057123656
 20
7583.021693399429
 30
0.0
  0
POINT
  5
18E28
330
163A9
100
AcDbEntity
  8
DEFPOINTS
 62
     0
 48
50.0
100
AcDbPoint
 10
6534.673057123653
 20
7557.02169339943
 30
0.0
  0
POINT
  5
18E29
330
163A9
100
AcDbEntity
  8
DEFPOINTS
 62
     0
 48
50.0
100
AcDbPoint
 10
6534.673057123653
 20
7022.590922633266
 30
0.0
  0
ENDBLK
  5
1647E
330
163A9
100
AcDbEntity
  8
0
 48
50.0
100
AcDbBlockEnd
  0
BLOCK
  5
1647F
330
163B8
100
AcDbEntity
  8
0
 48
50.0
100
AcDbBlockBegin
  2
*D9
 70
     1
 10
0.0
 20
0.0
 30
0.0
  3
*D9
  1

  0
LINE
  5
18E14
330
163B8
100
AcDbEntity
  8
寸法
 62
     0
 48
50.0
370
    -2
100
AcDbLine
 10
7794.67305712364
 20
7537.021693399518
 30
0.0
 11
7794.67305712364
 21
6962.590922633267
 31
0.0
  0
LINE
  5
18E15
330
163B8
100
AcDbEntity
  8
寸法
 62
     0
 48
50.0
370
    -2
100
AcDbLine
 10
7746.673057123638
 20
7563.021693399431
 30
0.0
 11
7746.673057123638
 21
6962.590922633267
 31
0.0
  0
LINE
  5
18E16
330
163B8
100
AcDbEntity
  8
寸法
 62
     0
 48
50.0
370
    -2
100
AcDbLine
 10
7794.67305712364
 20
7022.590922633266
 30
0.0
 11
7894.67305712364
 21
7022.590922633266
 31
0.0
  0
LINE
  5
18E17
330
163B8
100
AcDbEntity
  8
寸法
 62
     0
 48
50.0
370
    -2
100
AcDbLine
 10
7746.673057123638
 20
7022.590922633266
 30
0.0
 11
7646.673057123638
 21
7022.590922633266
 31
0.0
  0
MTEXT
  5
18E18
330
163B8
100
AcDbEntity
  8
寸法
 62
     7
 48
50.0
100
AcDbMText
 10
7635.710159474891
 20
7122.590922633266
 30
0.0
 40
120.0
 41
0.0
 71
     5
 72
     1
  1
\A1;48
  7
STYLE1
 73
     1
 44
1.0
1001
ACAD
1000
MTEXTBEGIN
1070
    73
1070
     1
1070
    44
1040
1.0
1070
    74
1070
     0
1000
MTEXTEND
  0
LINE
  5
18E19
330
163B8
100
AcDbEntity
  8
寸法
 62
     0
 48
50.0
370
    -2
100
AcDbLine
 10
7794.67305712364
 20
7022.590922633266
 30
0.0
 11
7746.673057123638
 21
7022.590922633266
 31
0.0
  0
INSERT
  5
18E1A
330
163B8
100
AcDbEntity
  8
寸法
 62
     0
 48
50.0
370
    -2
100
AcDbBlockReference
  2
_DOTSMALL
 10
7794.67305712364
 20
7022.590922633266
 30
0.0
 41
100.0
 42
100.0
 43
100.0
 50
180.0
  0
INSERT
  5
18E1B
330
163B8
100
AcDbEntity
  8
寸法
 62
     0
 48
50.0
370
    -2
100
AcDbBlockReference
  2
_DOTSMALL
 10
7746.673057123638
 20
7022.590922633266
 30
0.0
 41
100.0
 42
100.0
 43
100.0
  0
POINT
  5
18E1C
330
163B8
100
AcDbEntity
  8
DEFPOINTS
 62
     0
 48
50.0
100
AcDbPoint
 10
7794.67305712364
 20
7557.021693399518
 30
0.0
  0
POINT
  5
18E1D
330
163B8
100
AcDbEntity
  8
DEFPOINTS
 62
     0
 48
50.0
100
AcDbPoint
 10
7746.673057123638
 20
7583.02169339943
 30
0.0
  0
POINT
  5
18E1E
330
163B8
100
AcDbEntity
  8
DEFPOINTS
 62
     0
 48
50.0
100
AcDbPoint
 10
7746.673057123638
 20
7022.590922633266
 30
0.0
  0
ENDBLK
  5
1648C
330
163B8
100
AcDbEntity
  8
0
 48
50.0
100
AcDbBlockEnd
  0
BLOCK
  5
1648D
330
163C7
100
AcDbEntity
  8
0
 48
50.0
100
AcDbBlockBegin
  2
*D10
 70
     1
 10
0.0
 20
0.0
 30
0.0
  3
*D10
  1

  0
LINE
  5
18E09
330
163C7
100
AcDbEntity
  8
寸法
 62
     0
 48
50.0
370
    -2
100
AcDbLine
 10
7849.673057123638
 20
7537.021693399522
 30
0.0
 11
7849.673057123638
 21
6962.590922633267
 31
0.0
  0
LINE
  5
18E0A
330
163C7
100
AcDbEntity
  8
寸法
 62
     0
 48
50.0
370
    -2
100
AcDbLine
 10
7794.67305712364
 20
7537.021693399518
 30
0.0
 11
7794.67305712364
 21
6962.590922633267
 31
0.0
  0
LINE
  5
18E0B
330
163C7
100
AcDbEntity
  8
寸法
 62
     0
 48
50.0
370
    -2
100
AcDbLine
 10
7794.67305712364
 20
7022.590922633267
 30
0.0
 11
7694.67305712364
 21
7022.590922633267
 31
0.0
  0
LINE
  5
18E0C
330
163C7
100
AcDbEntity
  8
寸法
 62
     0
 48
50.0
370
    -2
100
AcDbLine
 10
7849.673057123638
 20
7022.590922633267
 30
0.0
 11
8266.643619872114
 21
7022.590922633267
 31
0.0
  0
LINE
  5
18E0D
330
163C7
100
AcDbEntity
  8
寸法
 62
     0
 48
50.0
370
    -2
100
AcDbLine
 10
7794.67305712364
 20
7022.590922633267
 30
0.0
 11
7849.673057123638
 21
7022.590922633267
 31
0.0
  0
INSERT
  5
18E0E
330
163C7
100
AcDbEntity
  8
寸法
 62
     0
 48
50.0
370
    -2
100
AcDbBlockReference
  2
_DOTSMALL
 10
7794.67305712364
 20
7022.590922633267
 30
0.0
 41
100.0
 42
100.0
 43
100.0
  0
INSERT
  5
18E0F
330
163C7
100
AcDbEntity
  8
寸法
 62
     0
 48
50.0
370
    -2
100
AcDbBlockReference
  2
_DOTSMALL
 10
7849.673057123638
 20
7022.590922633267
 30
0.0
 41
100.0
 42
100.0
 43
100.0
 50
180.0
  0
MTEXT
  5
18E10
330
163C7
100
AcDbEntity
  8
寸法
 62
     7
 48
50.0
100
AcDbMText
 10
8158.158338497877
 20
7122.590922633268
 30
0.0
 40
120.0
 41
0.0
 71
     5
 72
     1
  1
\A1;55
  7
STYLE1
 73
     1
 44
1.0
1001
ACAD
1000
MTEXTBEGIN
1070
    73
1070
     1
1070
    44
1040
1.0
1070
    74
1070
     0
1000
MTEXTEND
  0
POINT
  5
18E11
330
163C7
100
AcDbEntity
  8
DEFPOINTS
 62
     0
 48
50.0
100
AcDbPoint
 10
7849.673057123638
 20
7557.021693399521
 30
0.0
  0
POINT
  5
18E12
330
163C7
100
AcDbEntity
  8
DEFPOINTS
 62
     0
 48
50.0
100
AcDbPoint
 10
7794.67305712364
 20
7557.021693399518
 30
0.0
  0
POINT
  5
18E13
330
163C7
100
AcDbEntity
  8
DEFPOINTS
 62
     0
 48
50.0
100
AcDbPoint
 10
7794.67305712364
 20
7022.590922633267
 30
0.0
  0
ENDBLK
  5
16499
330
163C7
100
AcDbEntity
  8
0
 48
50.0
100
AcDbBlockEnd
  0
BLOCK
  5
172A1
330
163E1
100
AcDbEntity
  8
0
 48
50.0
100
AcDbBlockBegin
  2
*D11
 70
     1
 10
0.0
 20
0.0
 30
0.0
  3
*D11
  1

  0
LINE
  5
18E00
330
163E1
100
AcDbEntity
  8
寸法
 62
     0
 48
50.0
370
    -2
100
AcDbLine
 10
6534.673057123663
 20
10207.02169339943
 30
0.0
 11
6534.673057123663
 21
10462.82991302453
 31
0.0
  0
LINE
  5
18E01
330
163E1
100
AcDbEntity
  8
寸法
 62
     0
 48
50.0
370
    -2
100
AcDbLine
 10
7794.673057123664
 20
10207.02169339953
 30
0.0
 11
7794.673057123664
 21
10462.82991302453
 31
0.0
  0
LINE
  5
18E02
330
163E1
100
AcDbEntity
  8
寸法
 62
     0
 48
50.0
370
    -2
100
AcDbLine
 10
6534.673057123663
 20
10402.82991302453
 30
0.0
 11
7794.673057123664
 21
10402.82991302453
 31
0.0
  0
INSERT
  5
18E03
330
163E1
100
AcDbEntity
  8
寸法
 62
     0
 48
50.0
370
    -2
100
AcDbBlockReference
  2
_DOTSMALL
 10
6534.673057123663
 20
10402.82991302453
 30
0.0
 41
100.0
 42
100.0
 43
100.0
 50
180.0
  0
INSERT
  5
18E04
330
163E1
100
AcDbEntity
  8
寸法
 62
     0
 48
50.0
370
    -2
100
AcDbBlockReference
  2
_DOTSMALL
 10
7794.673057123664
 20
10402.82991302453
 30
0.0
 41
100.0
 42
100.0
 43
100.0
  0
MTEXT
  5
18E05
330
163E1
100
AcDbEntity
  8
寸法
 62
     7
 48
50.0
100
AcDbMText
 10
7164.673057123664
 20
10502.84172404815
 30
0.0
 40
120.0
 41
0.0
 71
     5
 72
     1
  1
\A1;3X420=1260
  7
STYLE1
 73
     1
 44
1.0
1001
ACAD
1000
MTEXTBEGIN
1070
    73
1070
     1
1070
    44
1040
1.0
1070
    74
1070
     0
1000
MTEXTEND
  0
POINT
  5
18E06
330
163E1
100
AcDbEntity
  8
DEFPOINTS
 62
     0
 48
50.0
100
AcDbPoint
 10
6534.673057123663
 20
10187.02169339943
 30
0.0
  0
POINT
  5
18E07
330
163E1
100
AcDbEntity
  8
DEFPOINTS
 62
     0
 48
50.0
100
AcDbPoint
 10
7794.673057123664
 20
10187.02169339953
 30
0.0
  0
POINT
  5
18E08
330
163E1
100
AcDbEntity
  8
DEFPOINTS
 62
     0
 48
50.0
100
AcDbPoint
 10
7794.673057123664
 20
10402.82991302453
 30
0.0
  0
ENDBLK
  5
172AB
330
163E1
100
AcDbEntity
  8
0
 48
50.0
100
AcDbBlockEnd
  0
BLOCK
  5
164B0
330
163ED
100
AcDbEntity
  8
0
 48
50.0
100
AcDbBlockBegin
  2
*D12
 70
     1
 10
0.0
 20
0.0
 30
0.0
  3
*D12
  1

  0
LINE
  5
18DF5
330
163ED
100
AcDbEntity
  8
寸法
 62
     0
 48
50.0
370
    -2
100
AcDbLine
 10
3739.673057123628
 20
10207.02169339943
 30
0.0
 11
3739.673057123628
 21
10462.82991302441
 31
0.0
  0
LINE
  5
18DF6
330
163ED
100
AcDbEntity
  8
寸法
 62
     0
 48
50.0
370
    -2
100
AcDbLine
 10
3794.673057123663
 20
10207.02169339943
 30
0.0
 11
3794.673057123663
 21
10462.82991302441
 31
0.0
  0
LINE
  5
18DF7
330
163ED
100
AcDbEntity
  8
寸法
 62
     0
 48
50.0
370
    -2
100
AcDbLine
 10
3794.673057123663
 20
10402.82991302441
 30
0.0
 11
3894.673057123663
 21
10402.82991302441
 31
0.0
  0
LINE
  5
18DF8
330
163ED
100
AcDbEntity
  8
寸法
 62
     0
 48
50.0
370
    -2
100
AcDbLine
 10
3739.673057123628
 20
10402.82991302441
 30
0.0
 11
3322.702494375152
 21
10402.82991302441
 31
0.0
  0
LINE
  5
18DF9
330
163ED
100
AcDbEntity
  8
寸法
 62
     0
 48
50.0
370
    -2
100
AcDbLine
 10
3794.673057123663
 20
10402.82991302441
 30
0.0
 11
3739.673057123628
 21
10402.82991302441
 31
0.0
  0
INSERT
  5
18DFA
330
163ED
100
AcDbEntity
  8
寸法
 62
     0
 48
50.0
370
    -2
100
AcDbBlockReference
  2
_DOTSMALL
 10
3794.673057123663
 20
10402.82991302441
 30
0.0
 41
100.0
 42
100.0
 43
100.0
 50
180.0
  0
INSERT
  5
18DFB
330
163ED
100
AcDbEntity
  8
寸法
 62
     0
 48
50.0
370
    -2
100
AcDbBlockReference
  2
_DOTSMALL
 10
3739.673057123628
 20
10402.82991302441
 30
0.0
 41
100.0
 42
100.0
 43
100.0
  0
MTEXT
  5
18DFC
330
163ED
100
AcDbEntity
  8
寸法
 62
     7
 48
50.0
100
AcDbMText
 10
3431.18777574939
 20
10502.82991302441
 30
0.0
 40
120.0
 41
0.0
 71
     5
 72
     1
  1
\A1;55
  7
STYLE1
 73
     1
 44
1.0
1001
ACAD
1000
MTEXTBEGIN
1070
    73
1070
     1
1070
    44
1040
1.0
1070
    74
1070
     0
1000
MTEXTEND
  0
POINT
  5
18DFD
330
163ED
100
AcDbEntity
  8
DEFPOINTS
 62
     0
 48
50.0
100
AcDbPoint
 10
3739.673057123628
 20
10187.02169339943
 30
0.0
  0
POINT
  5
18DFE
330
163ED
100
AcDbEntity
  8
DEFPOINTS
 62
     0
 48
50.0
100
AcDbPoint
 10
3794.673057123663
 20
10187.02169339943
 30
0.0
  0
POINT
  5
18DFF
330
163ED
100
AcDbEntity
  8
DEFPOINTS
 62
     0
 48
50.0
100
AcDbPoint
 10
3794.673057123663
 20
10402.82991302441
 30
0.0
  0
ENDBLK
  5
164BC
330
163ED
100
AcDbEntity
  8
0
 48
50.0
100
AcDbBlockEnd
  0
BLOCK
  5
164BD
330
163FB
100
AcDbEntity
  8
0
 48
50.0
100
AcDbBlockBegin
  2
*D13
 70
     1
 10
0.0
 20
0.0
 30
0.0
  3
*D13
  1

  0
LINE
  5
18DEA
330
163FB
100
AcDbEntity
  8
寸法
 62
     0
 48
50.0
370
    -2
100
AcDbLine
 10
7794.673057123664
 20
10207.02169339953
 30
0.0
 11
7794.673057123664
 21
10462.82991302451
 31
0.0
  0
LINE
  5
18DEB
330
163FB
100
AcDbEntity
  8
寸法
 62
     0
 48
50.0
370
    -2
100
AcDbLine
 10
7849.673057123664
 20
10207.02169339953
 30
0.0
 11
7849.673057123664
 21
10462.82991302451
 31
0.0
  0
LINE
  5
18DEC
330
163FB
100
AcDbEntity
  8
寸法
 62
     0
 48
50.0
370
    -2
100
AcDbLine
 10
7794.673057123664
 20
10402.82991302451
 30
0.0
 11
7694.673057123664
 21
10402.82991302451
 31
0.0
  0
LINE
  5
18DED
330
163FB
100
AcDbEntity
  8
寸法
 62
     0
 48
50.0
370
    -2
100
AcDbLine
 10
7849.673057123664
 20
10402.82991302451
 30
0.0
 11
8266.643619872139
 21
10402.82991302451
 31
0.0
  0
LINE
  5
18DEE
330
163FB
100
AcDbEntity
  8
寸法
 62
     0
 48
50.0
370
    -2
100
AcDbLine
 10
7794.673057123664
 20
10402.82991302451
 30
0.0
 11
7849.673057123664
 21
10402.82991302451
 31
0.0
  0
INSERT
  5
18DEF
330
163FB
100
AcDbEntity
  8
寸法
 62
     0
 48
50.0
370
    -2
100
AcDbBlockReference
  2
_DOTSMALL
 10
7794.673057123664
 20
10402.82991302451
 30
0.0
 41
100.0
 42
100.0
 43
100.0
  0
INSERT
  5
18DF0
330
163FB
100
AcDbEntity
  8
寸法
 62
     0
 48
50.0
370
    -2
100
AcDbBlockReference
  2
_DOTSMALL
 10
7849.673057123664
 20
10402.82991302451
 30
0.0
 41
100.0
 42
100.0
 43
100.0
 50
180.0
  0
MTEXT
  5
18DF1
330
163FB
100
AcDbEntity
  8
寸法
 62
     7
 48
50.0
100
AcDbMText
 10
8158.158338497903
 20
10502.82991302451
 30
0.0
 40
120.0
 41
0.0
 71
     5
 72
     1
  1
\A1;55
  7
STYLE1
 73
     1
 44
1.0
1001
ACAD
1000
MTEXTBEGIN
1070
    73
1070
     1
1070
    44
1040
1.0
1070
    74
1070
     0
1000
MTEXTEND
  0
POINT
  5
18DF2
330
163FB
100
AcDbEntity
  8
DEFPOINTS
 62
     0
 48
50.0
100
AcDbPoint
 10
7794.673057123664
 20
10187.02169339953
 30
0.0
  0
POINT
  5
18DF3
330
163FB
100
AcDbEntity
  8
DEFPOINTS
 62
     0
 48
50.0
100
AcDbPoint
 10
7849.673057123664
 20
10187.02169339953
 30
0.0
  0
POINT
  5
18DF4
330
163FB
100
AcDbEntity
  8
DEFPOINTS
 62
     0
 48
50.0
100
AcDbPoint
 10
7849.673057123664
 20
10402.82991302451
 30
0.0
  0
ENDBLK
  5
164C9
330
163FB
100
AcDbEntity
  8
0
 48
50.0
100
AcDbBlockEnd
  0
BLOCK
  5
165B6
330
165B5
100
AcDbEntity
  8
0
 48
50.0
100
AcDbBlockBegin
  2
*D14
 70
     1
 10
0.0
 20
0.0
 30
0.0
  3
*D14
  1

  0
LINE
  5
18DD4
330
165B5
100
AcDbEntity
  8
寸法
 62
     0
 48
50.0
370
    -2
100
AcDbLine
 10
3842.673057123657
 20
7563.021693399431
 30
0.0
 11
3842.673057123657
 21
6962.590922633267
 31
0.0
  0
LINE
  5
18DD5
330
165B5
100
AcDbEntity
  8
寸法
 62
     0
 48
50.0
370
    -2
100
AcDbLine
 10
3794.673057123653
 20
7537.02169339943
 30
0.0
 11
3794.673057123653
 21
6962.590922633267
 31
0.0
  0
LINE
  5
18DD6
330
165B5
100
AcDbEntity
  8
寸法
 62
     0
 48
50.0
370
    -2
100
AcDbLine
 10
3842.673057123657
 20
7022.590922633266
 30
0.0
 11
3942.673057123657
 21
7022.590922633266
 31
0.0
  0
LINE
  5
18DD7
330
165B5
100
AcDbEntity
  8
寸法
 62
     0
 48
50.0
370
    -2
100
AcDbLine
 10
3794.673057123653
 20
7022.590922633266
 30
0.0
 11
3694.673057123653
 21
7022.590922633266
 31
0.0
  0
MTEXT
  5
18DD8
330
165B5
100
AcDbEntity
  8
寸法
 62
     7
 48
50.0
100
AcDbMText
 10
3955.575028123714
 20
7122.590922633266
 30
0.0
 40
120.0
 41
0.0
 71
     5
 72
     1
  1
\A1;48
  7
STYLE1
 73
     1
 44
1.0
1001
ACAD
1000
MTEXTBEGIN
1070
    73
1070
     1
1070
    44
1040
1.0
1070
    74
1070
     0
1000
MTEXTEND
  0
LINE
  5
18DD9
330
165B5
100
AcDbEntity
  8
寸法
 62
     0
 48
50.0
370
    -2
100
AcDbLine
 10
3842.673057123657
 20
7022.590922633266
 30
0.0
 11
3794.673057123653
 21
7022.590922633266
 31
0.0
  0
INSERT
  5
18DDA
330
165B5
100
AcDbEntity
  8
寸法
 62
     0
 48
50.0
370
    -2
100
AcDbBlockReference
  2
_DOTSMALL
 10
3842.673057123657
 20
7022.590922633266
 30
0.0
 41
100.0
 42
100.0
 43
100.0
 50
180.0
  0
INSERT
  5
18DDB
330
165B5
100
AcDbEntity
  8
寸法
 62
     0
 48
50.0
370
    -2
100
AcDbBlockReference
  2
_DOTSMALL
 10
3794.673057123653
 20
7022.590922633266
 30
0.0
 41
100.0
 42
100.0
 43
100.0
  0
POINT
  5
18DDC
330
165B5
100
AcDbEntity
  8
DEFPOINTS
 62
     0
 48
50.0
100
AcDbPoint
 10
3842.673057123657
 20
7583.021693399429
 30
0.0
  0
POINT
  5
18DDD
330
165B5
100
AcDbEntity
  8
DEFPOINTS
 62
     0
 48
50.0
100
AcDbPoint
 10
3794.673057123653
 20
7557.02169339943
 30
0.0
  0
POINT
  5
18DDE
330
165B5
100
AcDbEntity
  8
DEFPOINTS
 62
     0
 48
50.0
100
AcDbPoint
 10
3794.673057123653
 20
7022.590922633266
 30
0.0
  0
ENDBLK
  5
165C3
330
165B5
100
AcDbEntity
  8
0
 48
50.0
100
AcDbBlockEnd
  0
BLOCK
  5
165C5
330
165C4
100
AcDbEntity
  8
0
 48
50.0
100
AcDbBlockBegin
  2
*D15
 70
     1
 10
0.0
 20
0.0
 30
0.0
  3
*D15
  1

  0
LINE
  5
18DDF
330
165C4
100
AcDbEntity
  8
寸法
 62
     0
 48
50.0
370
    -2
100
AcDbLine
 10
6424.67305712364
 20
7537.021693399518
 30
0.0
 11
6424.67305712364
 21
6962.590922633267
 31
0.0
  0
LINE
  5
18DE0
330
165C4
100
AcDbEntity
  8
寸法
 62
     0
 48
50.0
370
    -2
100
AcDbLine
 10
6376.673057123639
 20
7563.021693399431
 30
0.0
 11
6376.673057123639
 21
6962.590922633267
 31
0.0
  0
LINE
  5
18DE1
330
165C4
100
AcDbEntity
  8
寸法
 62
     0
 48
50.0
370
    -2
100
AcDbLine
 10
6424.67305712364
 20
7022.590922633266
 30
0.0
 11
6524.673057123639
 21
7022.590922633266
 31
0.0
  0
LINE
  5
18DE2
330
165C4
100
AcDbEntity
  8
寸法
 62
     0
 48
50.0
370
    -2
100
AcDbLine
 10
6376.673057123639
 20
7022.590922633266
 30
0.0
 11
6276.673057123638
 21
7022.590922633266
 31
0.0
  0
MTEXT
  5
18DE3
330
165C4
100
AcDbEntity
  8
寸法
 62
     7
 48
50.0
100
AcDbMText
 10
6265.710159474891
 20
7122.590922633266
 30
0.0
 40
120.0
 41
0.0
 71
     5
 72
     1
  1
\A1;48
  7
STYLE1
 73
     1
 44
1.0
1001
ACAD
1000
MTEXTBEGIN
1070
    73
1070
     1
1070
    44
1040
1.0
1070
    74
1070
     0
1000
MTEXTEND
  0
LINE
  5
18DE4
330
165C4
100
AcDbEntity
  8
寸法
 62
     0
 48
50.0
370
    -2
100
AcDbLine
 10
6424.67305712364
 20
7022.590922633266
 30
0.0
 11
6376.673057123639
 21
7022.590922633266
 31
0.0
  0
INSERT
  5
18DE5
330
165C4
100
AcDbEntity
  8
寸法
 62
     0
 48
50.0
370
    -2
100
AcDbBlockReference
  2
_DOTSMALL
 10
6424.67305712364
 20
7022.590922633266
 30
0.0
 41
100.0
 42
100.0
 43
100.0
 50
180.0
  0
INSERT
  5
18DE6
330
165C4
100
AcDbEntity
  8
寸法
 62
     0
 48
50.0
370
    -2
100
AcDbBlockReference
  2
_DOTSMALL
 10
6376.673057123639
 20
7022.590922633266
 30
0.0
 41
100.0
 42
100.0
 43
100.0
  0
POINT
  5
18DE7
330
165C4
100
AcDbEntity
  8
DEFPOINTS
 62
     0
 48
50.0
100
AcDbPoint
 10
6424.67305712364
 20
7557.021693399518
 30
0.0
  0
POINT
  5
18DE8
330
165C4
100
AcDbEntity
  8
DEFPOINTS
 62
     0
 48
50.0
100
AcDbPoint
 10
6376.673057123639
 20
7583.02169339943
 30
0.0
  0
POINT
  5
18DE9
330
165C4
100
AcDbEntity
  8
DEFPOINTS
 62
     0
 48
50.0
100
AcDbPoint
 10
6376.673057123639
 20
7022.590922633266
 30
0.0
  0
ENDBLK
  5
165D2
330
165C4
100
AcDbEntity
  8
0
 48
50.0
100
AcDbBlockEnd
  0
BLOCK
  5
1663F
330
165EA
100
AcDbEntity
  8
0
 48
50.0
100
AcDbBlockBegin
  2
*D16
 70
     1
 10
0.0
 20
0.0
 30
0.0
  3
*D16
  1

  0
LINE
  5
18DCB
330
165EA
100
AcDbEntity
  8
寸法
 62
     0
 48
50.0
370
    -2
100
AcDbLine
 10
6534.673057123653
 20
7537.02169339943
 30
0.0
 11
6534.673057123653
 21
6962.590922633267
 31
0.0
  0
LINE
  5
18DCC
330
165EA
100
AcDbEntity
  8
寸法
 62
     0
 48
50.0
370
    -2
100
AcDbLine
 10
6424.67305712364
 20
7537.021693399518
 30
0.0
 11
6424.67305712364
 21
6962.590922633267
 31
0.0
  0
LINE
  5
18DCD
330
165EA
100
AcDbEntity
  8
寸法
 62
     0
 48
50.0
370
    -2
100
AcDbLine
 10
6534.673057123653
 20
7022.590922633267
 30
0.0
 11
6424.67305712364
 21
7022.590922633267
 31
0.0
  0
MTEXT
  5
18DCE
330
165EA
100
AcDbEntity
  8
寸法
 62
     7
 48
50.0
100
AcDbMText
 10
6479.673057123647
 20
6870.899027597035
 30
0.0
 40
120.0
 41
0.0
 71
     5
 72
     1
  1
\A1;110
  7
STYLE1
 73
     1
 44
1.0
1001
ACAD
1000
MTEXTBEGIN
1070
    73
1070
     1
1070
    44
1040
1.0
1070
    74
1070
     0
1000
MTEXTEND
  0
INSERT
  5
18DCF
330
165EA
100
AcDbEntity
  8
寸法
 62
     0
 48
50.0
370
    -2
100
AcDbBlockReference
  2
_DOTSMALL
 10
6534.673057123653
 20
7022.590922633267
 30
0.0
 41
100.0
 42
100.0
 43
100.0
  0
INSERT
  5
18DD0
330
165EA
100
AcDbEntity
  8
寸法
 62
     0
 48
50.0
370
    -2
100
AcDbBlockReference
  2
_DOTSMALL
 10
6424.67305712364
 20
7022.590922633267
 30
0.0
 41
100.0
 42
100.0
 43
100.0
 50
180.0
  0
POINT
  5
18DD1
330
165EA
100
AcDbEntity
  8
DEFPOINTS
 62
     0
 48
50.0
100
AcDbPoint
 10
6534.673057123653
 20
7557.02169339943
 30
0.0
  0
POINT
  5
18DD2
330
165EA
100
AcDbEntity
  8
DEFPOINTS
 62
     0
 48
50.0
100
AcDbPoint
 10
6424.67305712364
 20
7557.021693399518
 30
0.0
  0
POINT
  5
18DD3
330
165EA
100
AcDbEntity
  8
DEFPOINTS
 62
     0
 48
50.0
100
AcDbPoint
 10
6424.67305712364
 20
7022.590922633267
 30
0.0
  0
ENDBLK
  5
16649
330
165EA
100
AcDbEntity
  8
0
 48
50.0
100
AcDbBlockEnd
  0
BLOCK
  5
166D0
330
166CF
100
AcDbEntity
  8
0
 48
50.0
100
AcDbBlockBegin
  2
*D17
 70
     1
 10
0.0
 20
0.0
 30
0.0
  3
*D17
  1

  0
LINE
  5
18DC0
330
166CF
100
AcDbEntity
  8
寸法
 62
     0
 48
50.0
370
    -2
100
AcDbLine
 10
6534.673057123663
 20
10207.02169339948
 30
0.0
 11
6534.673057123663
 21
10462.82991302453
 31
0.0
  0
LINE
  5
18DC1
330
166CF
100
AcDbEntity
  8
寸法
 62
     0
 48
50.0
370
    -2
100
AcDbLine
 10
6424.673057123664
 20
10207.02169339948
 30
0.0
 11
6424.673057123664
 21
10462.82991302453
 31
0.0
  0
LINE
  5
18DC2
330
166CF
100
AcDbEntity
  8
寸法
 62
     0
 48
50.0
370
    -2
100
AcDbLine
 10
6534.673057123663
 20
10402.82991302453
 30
0.0
 11
6634.673057123663
 21
10402.82991302453
 31
0.0
  0
LINE
  5
18DC3
330
166CF
100
AcDbEntity
  8
寸法
 62
     0
 48
50.0
370
    -2
100
AcDbLine
 10
6424.673057123664
 20
10402.82991302453
 30
0.0
 11
6324.673057123664
 21
10402.82991302453
 31
0.0
  0
LINE
  5
18DC4
330
166CF
100
AcDbEntity
  8
寸法
 62
     0
 48
50.0
370
    -2
100
AcDbLine
 10
6534.673057123663
 20
10402.82991302453
 30
0.0
 11
6424.673057123664
 21
10402.82991302453
 31
0.0
  0
INSERT
  5
18DC5
330
166CF
100
AcDbEntity
  8
寸法
 62
     0
 48
50.0
370
    -2
100
AcDbBlockReference
  2
_DOTSMALL
 10
6534.673057123663
 20
10402.82991302453
 30
0.0
 41
100.0
 42
100.0
 43
100.0
 50
180.0
  0
INSERT
  5
18DC6
330
166CF
100
AcDbEntity
  8
寸法
 62
     0
 48
50.0
370
    -2
100
AcDbBlockReference
  2
_DOTSMALL
 10
6424.673057123664
 20
10402.82991302453
 30
0.0
 41
100.0
 42
100.0
 43
100.0
  0
MTEXT
  5
18DC7
330
166CF
100
AcDbEntity
  8
寸法
 62
     7
 48
50.0
100
AcDbMText
 10
6479.673057123664
 20
10502.82991302453
 30
0.0
 40
120.0
 41
0.0
 71
     5
 72
     1
  1
\A1;110
  7
STYLE1
 73
     1
 44
1.0
1001
ACAD
1000
MTEXTBEGIN
1070
    73
1070
     1
1070
    44
1040
1.0
1070
    74
1070
     0
1000
MTEXTEND
  0
POINT
  5
18DC8
330
166CF
100
AcDbEntity
  8
DEFPOINTS
 62
     0
 48
50.0
100
AcDbPoint
 10
6534.673057123663
 20
10187.02169339948
 30
0.0
  0
POINT
  5
18DC9
330
166CF
100
AcDbEntity
  8
DEFPOINTS
 62
     0
 48
50.0
100
AcDbPoint
 10
6424.673057123664
 20
10187.02169339948
 30
0.0
  0
POINT
  5
18DCA
330
166CF
100
AcDbEntity
  8
DEFPOINTS
 62
     0
 48
50.0
100
AcDbPoint
 10
6424.673057123664
 20
10402.82991302453
 30
0.0
  0
ENDBLK
  5
166DC
330
166CF
100
AcDbEntity
  8
0
 48
50.0
100
AcDbBlockEnd
  0
BLOCK
  5
1726C
330
16908
100
AcDbEntity
  8
0
 48
50.0
100
AcDbBlockBegin
  2
*D18
 70
     1
 10
0.0
 20
0.0
 30
0.0
  3
*D18
  1

  0
LINE
  5
18DB8
330
16908
100
AcDbEntity
  8
寸法
 62
     0
 48
50.0
370
    -2
100
AcDbLine
 10
7849.673057123664
 20
10207.02169339953
 30
0.0
 11
7849.673057123664
 21
10712.15138658082
 31
0.0
  0
LINE
  5
18DB9
330
16908
100
AcDbEntity
  8
寸法
 62
     0
 48
50.0
370
    -2
100
AcDbLine
 10
6479.673057123664
 20
10652.15138658082
 30
0.0
 11
7849.673057123664
 21
10652.15138658082
 31
0.0
  0
INSERT
  5
18DBA
330
16908
100
AcDbEntity
  8
寸法
 62
     0
 48
50.0
370
    -2
100
AcDbBlockReference
  2
_DOTSMALL
 10
6479.673057123664
 20
10652.15138658082
 30
0.0
 41
100.0
 42
100.0
 43
100.0
 50
180.0
  0
INSERT
  5
18DBB
330
16908
100
AcDbEntity
  8
寸法
 62
     0
 48
50.0
370
    -2
100
AcDbBlockReference
  2
_DOTSMALL
 10
7849.673057123664
 20
10652.15138658082
 30
0.0
 41
100.0
 42
100.0
 43
100.0
  0
MTEXT
  5
18DBC
330
16908
100
AcDbEntity
  8
寸法
 62
     7
 48
50.0
100
AcDbMText
 10
7164.673057123664
 20
10752.15138658082
 30
0.0
 40
120.0
 41
0.0
 71
     5
 72
     1
  1
\A1;1370
  7
STYLE1
 73
     1
 44
1.0
1001
ACAD
1000
MTEXTBEGIN
1070
    73
1070
     1
1070
    44
1040
1.0
1070
    74
1070
     0
1000
MTEXTEND
  0
POINT
  5
18DBD
330
16908
100
AcDbEntity
  8
DEFPOINTS
 62
     0
 48
50.0
100
AcDbPoint
 10
6479.673057123664
 20
10561.81782738248
 30
0.0
  0
POINT
  5
18DBE
330
16908
100
AcDbEntity
  8
DEFPOINTS
 62
     0
 48
50.0
100
AcDbPoint
 10
7849.673057123664
 20
10187.02169339953
 30
0.0
  0
POINT
  5
18DBF
330
16908
100
AcDbEntity
  8
DEFPOINTS
 62
     0
 48
50.0
100
AcDbPoint
 10
7849.673057123664
 20
10652.15138658082
 30
0.0
  0
ENDBLK
  5
17275
330
16908
100
AcDbEntity
  8
0
 48
50.0
100
AcDbBlockEnd
  0
BLOCK
  5
17BD1
330
17BC5
100
AcDbEntity
  8
0
 48
50.0
100
AcDbBlockBegin
  2
*D19
 70
     1
 10
0.0
 20
0.0
 30
0.0
  3
*D19
  1

  0
LINE
  5
18D88
330
17BC5
100
AcDbEntity
  8
寸法
 62
     0
 48
50.0
370
    -2
100
AcDbLine
 10
5054.67305712364
 20
7537.021693399518
 30
0.0
 11
5054.67305712364
 21
6962.590922633267
 31
0.0
  0
LINE
  5
18D89
330
17BC5
100
AcDbEntity
  8
寸法
 62
     0
 48
50.0
370
    -2
100
AcDbLine
 10
5006.673057123638
 20
7563.021693399431
 30
0.0
 11
5006.673057123638
 21
6962.590922633267
 31
0.0
  0
LINE
  5
18D8A
330
17BC5
100
AcDbEntity
  8
寸法
 62
     0
 48
50.0
370
    -2
100
AcDbLine
 10
5054.67305712364
 20
7022.590922633266
 30
0.0
 11
5154.67305712364
 21
7022.590922633266
 31
0.0
  0
LINE
  5
18D8B
330
17BC5
100
AcDbEntity
  8
寸法
 62
     0
 48
50.0
370
    -2
100
AcDbLine
 10
5006.673057123638
 20
7022.590922633266
 30
0.0
 11
4906.673057123638
 21
7022.590922633266
 31
0.0
  0
MTEXT
  5
18D8C
330
17BC5
100
AcDbEntity
  8
寸法
 62
     7
 48
50.0
100
AcDbMText
 10
4895.710159474891
 20
7122.590922633266
 30
0.0
 40
120.0
 41
0.0
 71
     5
 72
     1
  1
\A1;48
  7
STYLE1
 73
     1
 44
1.0
1001
ACAD
1000
MTEXTBEGIN
1070
    73
1070
     1
1070
    44
1040
1.0
1070
    74
1070
     0
1000
MTEXTEND
  0
LINE
  5
18D8D
330
17BC5
100
AcDbEntity
  8
寸法
 62
     0
 48
50.0
370
    -2
100
AcDbLine
 10
5054.67305712364
 20
7022.590922633266
 30
0.0
 11
5006.673057123638
 21
7022.590922633266
 31
0.0
  0
INSERT
  5
18D8E
330
17BC5
100
AcDbEntity
  8
寸法
 62
     0
 48
50.0
370
    -2
100
AcDbBlockReference
  2
_DOTSMALL
 10
5054.67305712364
 20
7022.590922633266
 30
0.0
 41
100.0
 42
100.0
 43
100.0
 50
180.0
  0
INSERT
  5
18D8F
330
17BC5
100
AcDbEntity
  8
寸法
 62
     0
 48
50.0
370
    -2
100
AcDbBlockReference
  2
_DOTSMALL
 10
5006.673057123638
 20
7022.590922633266
 30
0.0
 41
100.0
 42
100.0
 43
100.0
  0
POINT
  5
18D90
330
17BC5
100
AcDbEntity
  8
DEFPOINTS
 62
     0
 48
50.0
100
AcDbPoint
 10
5054.67305712364
 20
7557.021693399518
 30
0.0
  0
POINT
  5
18D91
330
17BC5
100
AcDbEntity
  8
DEFPOINTS
 62
     0
 48
50.0
100
AcDbPoint
 10
5006.673057123638
 20
7583.02169339943
 30
0.0
  0
POINT
  5
18D92
330
17BC5
100
AcDbEntity
  8
DEFPOINTS
 62
     0
 48
50.0
100
AcDbPoint
 10
5006.673057123638
 20
7022.590922633266
 30
0.0
  0
ENDBLK
  5
17BD2
330
17BC5
100
AcDbEntity
  8
0
 48
50.0
100
AcDbBlockEnd
  0
BLOCK
  5
17BDC
330
17BD3
100
AcDbEntity
  8
0
 48
50.0
100
AcDbBlockBegin
  2
*D20
 70
     1
 10
0.0
 20
0.0
 30
0.0
  3
*D20
  1

  0
LINE
  5
18D93
330
17BD3
100
AcDbEntity
  8
寸法
 62
     0
 48
50.0
370
    -2
100
AcDbLine
 10
3842.673057123657
 20
7563.021693399431
 30
0.0
 11
3842.673057123657
 21
6962.590922633267
 31
0.0
  0
LINE
  5
18D94
330
17BD3
100
AcDbEntity
  8
寸法
 62
     0
 48
50.0
370
    -2
100
AcDbLine
 10
5006.673057123638
 20
7022.590922633266
 30
0.0
 11
3842.673057123657
 21
7022.590922633266
 31
0.0
  0
INSERT
  5
18D95
330
17BD3
100
AcDbEntity
  8
寸法
 62
     0
 48
50.0
370
    -2
100
AcDbBlockReference
  2
_DOTSMALL
 10
5006.673057123638
 20
7022.590922633266
 30
0.0
 41
100.0
 42
100.0
 43
100.0
  0
INSERT
  5
18D96
330
17BD3
100
AcDbEntity
  8
寸法
 62
     0
 48
50.0
370
    -2
100
AcDbBlockReference
  2
_DOTSMALL
 10
3842.673057123657
 20
7022.590922633266
 30
0.0
 41
100.0
 42
100.0
 43
100.0
 50
180.0
  0
MTEXT
  5
18D97
330
17BD3
100
AcDbEntity
  8
寸法
 62
     7
 48
50.0
100
AcDbMText
 10
4424.673057123647
 20
7222.590922633266
 30
0.0
 40
120.0
 41
0.0
 71
     5
 72
     1
  1
\A1;有効開口部間口\P 1164
  7
STYLE1
 73
     1
 44
1.0
1001
ACAD
1000
MTEXTBEGIN
1070
    73
1070
     1
1070
    44
1040
1.0
1070
    74
1070
     0
1000
MTEXTEND
  0
POINT
  5
18D98
330
17BD3
100
AcDbEntity
  8
DEFPOINTS
 62
     0
 48
50.0
100
AcDbPoint
 10
5006.673057123638
 20
7583.02169339943
 30
0.0
  0
POINT
  5
18D99
330
17BD3
100
AcDbEntity
  8
DEFPOINTS
 62
     0
 48
50.0
100
AcDbPoint
 10
3842.673057123657
 20
7583.021693399429
 30
0.0
  0
POINT
  5
18D9A
330
17BD3
100
AcDbEntity
  8
DEFPOINTS
 62
     0
 48
50.0
100
AcDbPoint
 10
3842.673057123657
 20
7022.590922633266
 30
0.0
  0
ENDBLK
  5
17BDD
330
17BD3
100
AcDbEntity
  8
0
 48
50.0
100
AcDbBlockEnd
  0
BLOCK
  5
17BE8
330
17BDE
100
AcDbEntity
  8
0
 48
50.0
100
AcDbBlockBegin
  2
*D21
 70
     1
 10
0.0
 20
0.0
 30
0.0
  3
*D21
  1

  0
LINE
  5
18DA6
330
17BDE
100
AcDbEntity
  8
寸法
 62
     0
 48
50.0
370
    -2
100
AcDbLine
 10
3794.673057123663
 20
10207.02169339943
 30
0.0
 11
3794.673057123663
 21
10462.82991302453
 31
0.0
  0
LINE
  5
18DA7
330
17BDE
100
AcDbEntity
  8
寸法
 62
     0
 48
50.0
370
    -2
100
AcDbLine
 10
5054.673057123665
 20
10207.02169339953
 30
0.0
 11
5054.673057123665
 21
10462.82991302453
 31
0.0
  0
LINE
  5
18DA8
330
17BDE
100
AcDbEntity
  8
寸法
 62
     0
 48
50.0
370
    -2
100
AcDbLine
 10
3794.673057123663
 20
10402.82991302453
 30
0.0
 11
5054.673057123665
 21
10402.82991302453
 31
0.0
  0
INSERT
  5
18DA9
330
17BDE
100
AcDbEntity
  8
寸法
 62
     0
 48
50.0
370
    -2
100
AcDbBlockReference
  2
_DOTSMALL
 10
3794.673057123663
 20
10402.82991302453
 30
0.0
 41
100.0
 42
100.0
 43
100.0
 50
180.0
  0
INSERT
  5
18DAA
330
17BDE
100
AcDbEntity
  8
寸法
 62
     0
 48
50.0
370
    -2
100
AcDbBlockReference
  2
_DOTSMALL
 10
5054.673057123665
 20
10402.82991302453
 30
0.0
 41
100.0
 42
100.0
 43
100.0
  0
MTEXT
  5
18DAB
330
17BDE
100
AcDbEntity
  8
寸法
 62
     7
 48
50.0
100
AcDbMText
 10
4424.673057123664
 20
10502.84172404815
 30
0.0
 40
120.0
 41
0.0
 71
     5
 72
     1
  1
\A1;3X420=1260
  7
STYLE1
 73
     1
 44
1.0
1001
ACAD
1000
MTEXTBEGIN
1070
    73
1070
     1
1070
    44
1040
1.0
1070
    74
1070
     0
1000
MTEXTEND
  0
POINT
  5
18DAC
330
17BDE
100
AcDbEntity
  8
DEFPOINTS
 62
     0
 48
50.0
100
AcDbPoint
 10
3794.673057123663
 20
10187.02169339943
 30
0.0
  0
POINT
  5
18DAD
330
17BDE
100
AcDbEntity
  8
DEFPOINTS
 62
     0
 48
50.0
100
AcDbPoint
 10
5054.673057123665
 20
10187.02169339953
 30
0.0
  0
POINT
  5
18DAE
330
17BDE
100
AcDbEntity
  8
DEFPOINTS
 62
     0
 48
50.0
100
AcDbPoint
 10
5054.673057123665
 20
10402.82991302453
 30
0.0
  0
ENDBLK
  5
17BE9
330
17BDE
100
AcDbEntity
  8
0
 48
50.0
100
AcDbBlockEnd
  0
BLOCK
  5
17BF6
330
17BEA
100
AcDbEntity
  8
0
 48
50.0
100
AcDbBlockBegin
  2
*D22
 70
     1
 10
0.0
 20
0.0
 30
0.0
  3
*D22
  1

  0
LINE
  5
18D9B
330
17BEA
100
AcDbEntity
  8
寸法
 62
     0
 48
50.0
370
    -2
100
AcDbLine
 10
5164.673057123663
 20
10207.02169339948
 30
0.0
 11
5164.673057123663
 21
10462.82991302453
 31
0.0
  0
LINE
  5
18D9C
330
17BEA
100
AcDbEntity
  8
寸法
 62
     0
 48
50.0
370
    -2
100
AcDbLine
 10
5054.673057123665
 20
10207.02169339948
 30
0.0
 11
5054.673057123665
 21
10462.82991302453
 31
0.0
  0
LINE
  5
18D9D
330
17BEA
100
AcDbEntity
  8
寸法
 62
     0
 48
50.0
370
    -2
100
AcDbLine
 10
5164.673057123663
 20
10402.82991302453
 30
0.0
 11
5264.673057123663
 21
10402.82991302453
 31
0.0
  0
LINE
  5
18D9E
330
17BEA
100
AcDbEntity
  8
寸法
 62
     0
 48
50.0
370
    -2
100
AcDbLine
 10
5054.673057123665
 20
10402.82991302453
 30
0.0
 11
4954.673057123664
 21
10402.82991302453
 31
0.0
  0
LINE
  5
18D9F
330
17BEA
100
AcDbEntity
  8
寸法
 62
     0
 48
50.0
370
    -2
100
AcDbLine
 10
5164.673057123663
 20
10402.82991302453
 30
0.0
 11
5054.673057123665
 21
10402.82991302453
 31
0.0
  0
INSERT
  5
18DA0
330
17BEA
100
AcDbEntity
  8
寸法
 62
     0
 48
50.0
370
    -2
100
AcDbBlockReference
  2
_DOTSMALL
 10
5164.673057123663
 20
10402.82991302453
 30
0.0
 41
100.0
 42
100.0
 43
100.0
 50
180.0
  0
INSERT
  5
18DA1
330
17BEA
100
AcDbEntity
  8
寸法
 62
     0
 48
50.0
370
    -2
100
AcDbBlockReference
  2
_DOTSMALL
 10
5054.673057123665
 20
10402.82991302453
 30
0.0
 41
100.0
 42
100.0
 43
100.0
  0
MTEXT
  5
18DA2
330
17BEA
100
AcDbEntity
  8
寸法
 62
     7
 48
50.0
100
AcDbMText
 10
5109.673057123664
 20
10502.82991302453
 30
0.0
 40
120.0
 41
0.0
 71
     5
 72
     1
  1
\A1;110
  7
STYLE1
 73
     1
 44
1.0
1001
ACAD
1000
MTEXTBEGIN
1070
    73
1070
     1
1070
    44
1040
1.0
1070
    74
1070
     0
1000
MTEXTEND
  0
POINT
  5
18DA3
330
17BEA
100
AcDbEntity
  8
DEFPOINTS
 62
     0
 48
50.0
100
AcDbPoint
 10
5164.673057123663
 20
10187.02169339948
 30
0.0
  0
POINT
  5
18DA4
330
17BEA
100
AcDbEntity
  8
DEFPOINTS
 62
     0
 48
50.0
100
AcDbPoint
 10
5054.673057123665
 20
10187.02169339948
 30
0.0
  0
POINT
  5
18DA5
330
17BEA
100
AcDbEntity
  8
DEFPOINTS
 62
     0
 48
50.0
100
AcDbPoint
 10
5054.673057123665
 20
10402.82991302453
 30
0.0
  0
ENDBLK
  5
17BF7
330
17BEA
100
AcDbEntity
  8
0
 48
50.0
100
AcDbBlockEnd
  0
BLOCK
  5
17C02
330
17BF8
100
AcDbEntity
  8
0
 48
50.0
100
AcDbBlockBegin
  2
*D23
 70
     1
 10
0.0
 20
0.0
 30
0.0
  3
*D23
  1

  0
LINE
  5
18DAF
330
17BF8
100
AcDbEntity
  8
寸法
 62
     0
 48
50.0
370
    -2
100
AcDbLine
 10
3739.673057123628
 20
10207.0216933994
 30
0.0
 11
3739.673057123628
 21
10712.15138658082
 31
0.0
  0
LINE
  5
18DB0
330
17BF8
100
AcDbEntity
  8
寸法
 62
     0
 48
50.0
370
    -2
100
AcDbLine
 10
5109.673057123664
 20
10581.81782738248
 30
0.0
 11
5109.673057123664
 21
10712.15138658082
 31
0.0
  0
LINE
  5
18DB1
330
17BF8
100
AcDbEntity
  8
寸法
 62
     0
 48
50.0
370
    -2
100
AcDbLine
 10
3739.673057123628
 20
10652.15138658082
 30
0.0
 11
5109.673057123664
 21
10652.15138658082
 31
0.0
  0
INSERT
  5
18DB2
330
17BF8
100
AcDbEntity
  8
寸法
 62
     0
 48
50.0
370
    -2
100
AcDbBlockReference
  2
_DOTSMALL
 10
3739.673057123628
 20
10652.15138658082
 30
0.0
 41
100.0
 42
100.0
 43
100.0
 50
180.0
  0
INSERT
  5
18DB3
330
17BF8
100
AcDbEntity
  8
寸法
 62
     0
 48
50.0
370
    -2
100
AcDbBlockReference
  2
_DOTSMALL
 10
5109.673057123664
 20
10652.15138658082
 30
0.0
 41
100.0
 42
100.0
 43
100.0
  0
MTEXT
  5
18DB4
330
17BF8
100
AcDbEntity
  8
寸法
 62
     7
 48
50.0
100
AcDbMText
 10
4424.673057123646
 20
10752.15138658082
 30
0.0
 40
120.0
 41
0.0
 71
     5
 72
     1
  1
\A1;1370
  7
STYLE1
 73
     1
 44
1.0
1001
ACAD
1000
MTEXTBEGIN
1070
    73
1070
     1
1070
    44
1040
1.0
1070
    74
1070
     0
1000
MTEXTEND
  0
POINT
  5
18DB5
330
17BF8
100
AcDbEntity
  8
DEFPOINTS
 62
     0
 48
50.0
100
AcDbPoint
 10
3739.673057123628
 20
10187.0216933994
 30
0.0
  0
POINT
  5
18DB6
330
17BF8
100
AcDbEntity
  8
DEFPOINTS
 62
     0
 48
50.0
100
AcDbPoint
 10
5109.673057123664
 20
10561.81782738248
 30
0.0
  0
POINT
  5
18DB7
330
17BF8
100
AcDbEntity
  8
DEFPOINTS
 62
     0
 48
50.0
100
AcDbPoint
 10
5109.673057123664
 20
10652.15138658082
 30
0.0
  0
ENDBLK
  5
17C03
330
17BF8
100
AcDbEntity
  8
0
 48
50.0
100
AcDbBlockEnd
  0
BLOCK
  5
17C54
330
17C48
100
AcDbEntity
  8
0
 48
50.0
100
AcDbBlockBegin
  2
*D24
 70
     1
 10
0.0
 20
0.0
 30
0.0
  3
*D24
  1

  0
LINE
  5
18D74
330
17C48
100
AcDbEntity
  8
寸法
 62
     0
 48
50.0
370
    -2
100
AcDbLine
 10
5212.673057123657
 20
7563.021693399431
 30
0.0
 11
5212.673057123657
 21
6962.590922633267
 31
0.0
  0
LINE
  5
18D75
330
17C48
100
AcDbEntity
  8
寸法
 62
     0
 48
50.0
370
    -2
100
AcDbLine
 10
5164.673057123653
 20
7537.02169339943
 30
0.0
 11
5164.673057123653
 21
6962.590922633267
 31
0.0
  0
LINE
  5
18D76
330
17C48
100
AcDbEntity
  8
寸法
 62
     0
 48
50.0
370
    -2
100
AcDbLine
 10
5212.673057123657
 20
7022.590922633266
 30
0.0
 11
5312.673057123657
 21
7022.590922633266
 31
0.0
  0
LINE
  5
18D77
330
17C48
100
AcDbEntity
  8
寸法
 62
     0
 48
50.0
370
    -2
100
AcDbLine
 10
5164.673057123653
 20
7022.590922633266
 30
0.0
 11
5064.673057123653
 21
7022.590922633266
 31
0.0
  0
MTEXT
  5
18D78
330
17C48
100
AcDbEntity
  8
寸法
 62
     7
 48
50.0
100
AcDbMText
 10
5325.575028123714
 20
7122.590922633266
 30
0.0
 40
120.0
 41
0.0
 71
     5
 72
     1
  1
\A1;48
  7
STYLE1
 73
     1
 44
1.0
1001
ACAD
1000
MTEXTBEGIN
1070
    73
1070
     1
1070
    44
1040
1.0
1070
    74
1070
     0
1000
MTEXTEND
  0
LINE
  5
18D79
330
17C48
100
AcDbEntity
  8
寸法
 62
     0
 48
50.0
370
    -2
100
AcDbLine
 10
5212.673057123657
 20
7022.590922633266
 30
0.0
 11
5164.673057123653
 21
7022.590922633266
 31
0.0
  0
INSERT
  5
18D7A
330
17C48
100
AcDbEntity
  8
寸法
 62
     0
 48
50.0
370
    -2
100
AcDbBlockReference
  2
_DOTSMALL
 10
5212.673057123657
 20
7022.590922633266
 30
0.0
 41
100.0
 42
100.0
 43
100.0
 50
180.0
  0
INSERT
  5
18D7B
330
17C48
100
AcDbEntity
  8
寸法
 62
     0
 48
50.0
370
    -2
100
AcDbBlockReference
  2
_DOTSMALL
 10
5164.673057123653
 20
7022.590922633266
 30
0.0
 41
100.0
 42
100.0
 43
100.0
  0
POINT
  5
18D7C
330
17C48
100
AcDbEntity
  8
DEFPOINTS
 62
     0
 48
50.0
100
AcDbPoint
 10
5212.673057123657
 20
7583.021693399429
 30
0.0
  0
POINT
  5
18D7D
330
17C48
100
AcDbEntity
  8
DEFPOINTS
 62
     0
 48
50.0
100
AcDbPoint
 10
5164.673057123653
 20
7557.02169339943
 30
0.0
  0
POINT
  5
18D7E
330
17C48
100
AcDbEntity
  8
DEFPOINTS
 62
     0
 48
50.0
100
AcDbPoint
 10
5164.673057123653
 20
7022.590922633266
 30
0.0
  0
ENDBLK
  5
17C55
330
17C48
100
AcDbEntity
  8
0
 48
50.0
100
AcDbBlockEnd
  0
BLOCK
  5
17C60
330
17C56
100
AcDbEntity
  8
0
 48
50.0
100
AcDbBlockBegin
  2
*D25
 70
     1
 10
0.0
 20
0.0
 30
0.0
  3
*D25
  1

  0
LINE
  5
18D7F
330
17C56
100
AcDbEntity
  8
寸法
 62
     0
 48
50.0
370
    -2
100
AcDbLine
 10
5164.673057123653
 20
7537.02169339943
 30
0.0
 11
5164.673057123653
 21
6962.590922633267
 31
0.0
  0
LINE
  5
18D80
330
17C56
100
AcDbEntity
  8
寸法
 62
     0
 48
50.0
370
    -2
100
AcDbLine
 10
5054.67305712364
 20
7537.021693399518
 30
0.0
 11
5054.67305712364
 21
6962.590922633267
 31
0.0
  0
LINE
  5
18D81
330
17C56
100
AcDbEntity
  8
寸法
 62
     0
 48
50.0
370
    -2
100
AcDbLine
 10
5164.673057123653
 20
7022.590922633267
 30
0.0
 11
5054.67305712364
 21
7022.590922633267
 31
0.0
  0
MTEXT
  5
18D82
330
17C56
100
AcDbEntity
  8
寸法
 62
     7
 48
50.0
100
AcDbMText
 10
5109.673057123647
 20
6870.899027597035
 30
0.0
 40
120.0
 41
0.0
 71
     5
 72
     1
  1
\A1;110
  7
STYLE1
 73
     1
 44
1.0
1001
ACAD
1000
MTEXTBEGIN
1070
    73
1070
     1
1070
    44
1040
1.0
1070
    74
1070
     0
1000
MTEXTEND
  0
INSERT
  5
18D83
330
17C56
100
AcDbEntity
  8
寸法
 62
     0
 48
50.0
370
    -2
100
AcDbBlockReference
  2
_DOTSMALL
 10
5164.673057123653
 20
7022.590922633267
 30
0.0
 41
100.0
 42
100.0
 43
100.0
  0
INSERT
  5
18D84
330
17C56
100
AcDbEntity
  8
寸法
 62
     0
 48
50.0
370
    -2
100
AcDbBlockReference
  2
_DOTSMALL
 10
5054.67305712364
 20
7022.590922633267
 30
0.0
 41
100.0
 42
100.0
 43
100.0
 50
180.0
  0
POINT
  5
18D85
330
17C56
100
AcDbEntity
  8
DEFPOINTS
 62
     0
 48
50.0
100
AcDbPoint
 10
5164.673057123653
 20
7557.02169339943
 30
0.0
  0
POINT
  5
18D86
330
17C56
100
AcDbEntity
  8
DEFPOINTS
 62
     0
 48
50.0
100
AcDbPoint
 10
5054.67305712364
 20
7557.021693399518
 30
0.0
  0
POINT
  5
18D87
330
17C56
100
AcDbEntity
  8
DEFPOINTS
 62
     0
 48
50.0
100
AcDbPoint
 10
5054.67305712364
 20
7022.590922633267
 30
0.0
  0
ENDBLK
  5
17C61
330
17C56
100
AcDbEntity
  8
0
 48
50.0
100
AcDbBlockEnd
  0
BLOCK
  5
196C3
330
196B8
100
AcDbEntity
  8
0
 48
50.0
100
AcDbBlockBegin
  2
*D26
 70
     1
 10
0.0
 20
0.0
 30
0.0
  3
*D26
  1

  0
LINE
  5
19BE9
330
196B8
100
AcDbEntity
  8
寸法
 62
     0
 48
50.0
370
    -2
100
AcDbLine
 10
10612.57685120614
 20
4612.229305782924
 30
0.0
 11
9996.642412100857
 21
4629.943456057254
 31
0.0
  0
LINE
  5
19BEA
330
196B8
100
AcDbEntity
  8
寸法
 62
     0
 48
50.0
370
    -2
100
AcDbLine
 10
10608.52339564951
 20
4471.28758201721
 30
0.0
 11
9992.588956544231
 21
4489.00173229154
 31
0.0
  0
LINE
  5
19BEB
330
196B8
100
AcDbEntity
  8
寸法
 62
     0
 48
50.0
370
    -2
100
AcDbLine
 10
10052.56415814666
 20
4487.276857586593
 30
0.0
 11
10056.61761370328
 21
4628.218581352306
 31
0.0
  0
LINE
  5
19BEC
330
196B8
100
AcDbEntity
  8
寸法
 62
     0
 48
50.0
370
    -2
100
AcDbLine
 10
10056.61761370328
 20
4628.218581352306
 30
0.0
 11
10066.96686193297
 21
4988.069790966892
 31
0.0
  0
INSERT
  5
19BED
330
196B8
100
AcDbEntity
  8
寸法
 62
     0
 48
50.0
370
    -2
100
AcDbBlockReference
  2
_DOTSMALL
 10
10052.56415814666
 20
4487.276857586593
 30
0.0
 41
100.0
 42
100.0
 43
100.0
 50
268.3526390256378
  0
INSERT
  5
19BEE
330
196B8
100
AcDbEntity
  8
寸法
 62
     0
 48
50.0
370
    -2
100
AcDbBlockReference
  2
_DOTSMALL
 10
10056.61761370328
 20
4628.218581352306
 30
0.0
 41
100.0
 42
100.0
 43
100.0
 50
88.35263902563776
  0
MTEXT
  5
19BEF
330
196B8
100
AcDbEntity
  8
寸法
 62
     7
 48
50.0
100
AcDbMText
 10
9963.2709640682
 20
4860.998312003204
 30
0.0
 40
120.0
 41
0.0
 71
     5
 72
     1
  1
\A1;141
  7
STYLE1
 11
0.0287479117491237
 21
0.9995866933738488
 31
0.0
 73
     1
 44
1.0
1001
ACAD
1000
MTEXTBEGIN
1070
    73
1070
     1
1070
    44
1040
1.0
1070
    74
1070
     0
1000
MTEXTEND
  0
POINT
  5
19BF0
330
196B8
100
AcDbEntity
  8
DEFPOINTS
 62
     0
 48
50.0
100
AcDbPoint
 10
10632.56858507362
 20
4611.654347547941
 30
0.0
  0
POINT
  5
19BF1
330
196B8
100
AcDbEntity
  8
DEFPOINTS
 62
     0
 48
50.0
100
AcDbPoint
 10
10628.51512951699
 20
4470.712623782228
 30
0.0
  0
POINT
  5
19BF2
330
196B8
100
AcDbEntity
  8
DEFPOINTS
 62
     0
 48
50.0
100
AcDbPoint
 10
10052.56415814666
 20
4487.276857586593
 30
0.0
  0
ENDBLK
  5
196C4
330
196B8
100
AcDbEntity
  8
0
 48
50.0
100
AcDbBlockEnd
  0
BLOCK
  5
196D0
330
196C5
100
AcDbEntity
  8
0
 48
50.0
100
AcDbBlockBegin
  2
*D27
 70
     1
 10
0.0
 20
0.0
 30
0.0
  3
*D27
  1

  0
LINE
  5
19BDF
330
196C5
100
AcDbEntity
  8
寸法
 62
     0
 48
50.0
370
    -2
100
AcDbLine
 10
13303.17256491504
 20
4579.742278324914
 30
0.0
 11
13303.17256491504
 21
5071.589052292567
 31
0.0
  0
LINE
  5
19BE0
330
196C5
100
AcDbEntity
  8
寸法
 62
     0
 48
50.0
370
    -2
100
AcDbLine
 10
13383.17256491504
 20
4577.931598713263
 30
0.0
 11
13383.17256491504
 21
5071.589052292567
 31
0.0
  0
LINE
  5
19BE1
330
196C5
100
AcDbEntity
  8
寸法
 62
     0
 48
50.0
370
    -2
100
AcDbLine
 10
13303.17256491504
 20
5011.589052292567
 30
0.0
 11
13383.17256491504
 21
5011.589052292567
 31
0.0
  0
LINE
  5
19BE2
330
196C5
100
AcDbEntity
  8
寸法
 62
     0
 48
50.0
370
    -2
100
AcDbLine
 10
13383.17256491504
 20
5011.589052292567
 30
0.0
 11
13695.26705310402
 21
5011.589052292567
 31
0.0
  0
INSERT
  5
19BE3
330
196C5
100
AcDbEntity
  8
寸法
 62
     0
 48
50.0
370
    -2
100
AcDbBlockReference
  2
_DOTSMALL
 10
13303.17256491504
 20
5011.589052292567
 30
0.0
 41
100.0
 42
100.0
 43
100.0
 50
180.0
  0
INSERT
  5
19BE4
330
196C5
100
AcDbEntity
  8
寸法
 62
     0
 48
50.0
370
    -2
100
AcDbBlockReference
  2
_DOTSMALL
 10
13383.17256491504
 20
5011.589052292567
 30
0.0
 41
100.0
 42
100.0
 43
100.0
  0
MTEXT
  5
19BE5
330
196C5
100
AcDbEntity
  8
寸法
 62
     7
 48
50.0
100
AcDbMText
 10
13589.21980900953
 20
5111.589052292567
 30
0.0
 40
120.0
 41
0.0
 71
     5
 72
     1
  1
\A1;80
  7
STYLE1
 73
     1
 44
1.0
1001
ACAD
1000
MTEXTBEGIN
1070
    73
1070
     1
1070
    44
1040
1.0
1070
    74
1070
     0
1000
MTEXTEND
  0
POINT
  5
19BE6
330
196C5
100
AcDbEntity
  8
DEFPOINTS
 62
     0
 48
50.0
100
AcDbPoint
 10
13303.17256491504
 20
4559.742278324915
 30
0.0
  0
POINT
  5
19BE7
330
196C5
100
AcDbEntity
  8
DEFPOINTS
 62
     0
 48
50.0
100
AcDbPoint
 10
13383.17256491504
 20
4557.931598713262
 30
0.0
  0
POINT
  5
19BE8
330
196C5
100
AcDbEntity
  8
DEFPOINTS
 62
     0
 48
50.0
100
AcDbPoint
 10
13383.17256491504
 20
5011.589052292567
 30
0.0
  0
ENDBLK
  5
196D1
330
196C5
100
AcDbEntity
  8
0
 48
50.0
100
AcDbBlockEnd
  0
BLOCK
  5
196DC
330
196D2
100
AcDbEntity
  8
0
 48
50.0
100
AcDbBlockBegin
  2
*D28
 70
     1
 10
0.0
 20
0.0
 30
0.0
  3
*D28
  1

  0
LINE
  5
1A403
330
196D2
100
AcDbEntity
  8
寸法
 62
     0
 48
50.0
370
    -2
100
AcDbLine
 10
13383.17256491504
 20
4577.931598713263
 30
0.0
 11
13383.17256491504
 21
5291.799739024184
 31
0.0
  0
LINE
  5
1A404
330
196D2
100
AcDbEntity
  8
寸法
 62
     0
 48
50.0
370
    -2
100
AcDbLine
 10
10613.17256491504
 20
4632.931598713266
 30
0.0
 11
10613.17256491504
 21
5291.799739024184
 31
0.0
  0
LINE
  5
1A405
330
196D2
100
AcDbEntity
  8
寸法
 62
     0
 48
50.0
370
    -2
100
AcDbLine
 10
13383.17256491504
 20
5231.799739024183
 30
0.0
 11
10613.17256491504
 21
5231.799739024183
 31
0.0
  0
INSERT
  5
1A406
330
196D2
100
AcDbEntity
  8
寸法
 62
     0
 48
50.0
370
    -2
100
AcDbBlockReference
  2
_DOTSMALL
 10
13383.17256491504
 20
5231.799739024183
 30
0.0
 41
100.0
 42
100.0
 43
100.0
  0
INSERT
  5
1A407
330
196D2
100
AcDbEntity
  8
寸法
 62
     0
 48
50.0
370
    -2
100
AcDbBlockReference
  2
_DOTSMALL
 10
10613.17256491504
 20
5231.799739024183
 30
0.0
 41
100.0
 42
100.0
 43
100.0
 50
180.0
  0
MTEXT
  5
1A408
330
196D2
100
AcDbEntity
  8
寸法
 62
     7
 48
50.0
100
AcDbMText
 10
11998.17256491504
 20
5331.811550047805
 30
0.0
 40
120.0
 41
0.0
 71
     5
 72
     1
  1
\A1;2770
  7
STYLE1
 73
     1
 44
1.0
1001
ACAD
1000
MTEXTBEGIN
1070
    73
1070
     1
1070
    44
1040
1.0
1070
    74
1070
     0
1000
MTEXTEND
  0
POINT
  5
1A409
330
196D2
100
AcDbEntity
  8
DEFPOINTS
 62
     0
 48
50.0
100
AcDbPoint
 10
13383.17256491504
 20
4557.931598713262
 30
0.0
  0
POINT
  5
1A40A
330
196D2
100
AcDbEntity
  8
DEFPOINTS
 62
     0
 48
50.0
100
AcDbPoint
 10
10613.17256491504
 20
4612.931598713267
 30
0.0
  0
POINT
  5
1A40B
330
196D2
100
AcDbEntity
  8
DEFPOINTS
 62
     0
 48
50.0
100
AcDbPoint
 10
10613.17256491504
 20
5231.799739024183
 30
0.0
  0
ENDBLK
  5
196DD
330
196D2
100
AcDbEntity
  8
0
 48
50.0
100
AcDbBlockEnd
  0
BLOCK
  5
196EA
330
196DE
100
AcDbEntity
  8
0
 48
50.0
100
AcDbBlockBegin
  2
*D29
 70
     1
 10
0.0
 20
0.0
 30
0.0
  3
*D29
  1

  0
LINE
  5
19BCB
330
196DE
100
AcDbEntity
  8
寸法
 62
     0
 48
50.0
370
    -2
100
AcDbLine
 10
10673.17256491504
 20
4628.933216836237
 30
0.0
 11
10673.17256491504
 21
5071.589052292566
 31
0.0
  0
LINE
  5
19BCC
330
196DE
100
AcDbEntity
  8
寸法
 62
     0
 48
50.0
370
    -2
100
AcDbLine
 10
10613.17256491504
 20
4632.931598713266
 30
0.0
 11
10613.17256491504
 21
5071.589052292566
 31
0.0
  0
LINE
  5
19BCD
330
196DE
100
AcDbEntity
  8
寸法
 62
     0
 48
50.0
370
    -2
100
AcDbLine
 10
10673.17256491504
 20
5011.589052292566
 30
0.0
 11
10773.17256491504
 21
5011.589052292566
 31
0.0
  0
LINE
  5
19BCE
330
196DE
100
AcDbEntity
  8
寸法
 62
     0
 48
50.0
370
    -2
100
AcDbLine
 10
10613.17256491504
 20
5011.589052292566
 30
0.0
 11
10193.89697436386
 21
5011.589052292566
 31
0.0
  0
LINE
  5
19BCF
330
196DE
100
AcDbEntity
  8
寸法
 62
     0
 48
50.0
370
    -2
100
AcDbLine
 10
10673.17256491504
 20
5011.589052292566
 30
0.0
 11
10613.17256491504
 21
5011.589052292566
 31
0.0
  0
INSERT
  5
19BD0
330
196DE
100
AcDbEntity
  8
寸法
 62
     0
 48
50.0
370
    -2
100
AcDbBlockReference
  2
_DOTSMALL
 10
10673.17256491504
 20
5011.589052292566
 30
0.0
 41
100.0
 42
100.0
 43
100.0
 50
180.0
  0
INSERT
  5
19BD1
330
196DE
100
AcDbEntity
  8
寸法
 62
     0
 48
50.0
370
    -2
100
AcDbBlockReference
  2
_DOTSMALL
 10
10613.17256491504
 20
5011.589052292566
 30
0.0
 41
100.0
 42
100.0
 43
100.0
  0
MTEXT
  5
19BD2
330
196DE
100
AcDbEntity
  8
寸法
 62
     7
 48
50.0
100
AcDbMText
 10
10303.53476963945
 20
5111.589052292566
 30
0.0
 40
120.0
 41
0.0
 71
     5
 72
     1
  1
\A1;60
  7
STYLE1
 73
     1
 44
1.0
1001
ACAD
1000
MTEXTBEGIN
1070
    73
1070
     1
1070
    44
1040
1.0
1070
    74
1070
     0
1000
MTEXTEND
  0
POINT
  5
19BD3
330
196DE
100
AcDbEntity
  8
DEFPOINTS
 62
     0
 48
50.0
100
AcDbPoint
 10
10673.17256491504
 20
4608.933216836238
 30
0.0
  0
POINT
  5
19BD4
330
196DE
100
AcDbEntity
  8
DEFPOINTS
 62
     0
 48
50.0
100
AcDbPoint
 10
10613.17256491504
 20
4612.931598713267
 30
0.0
  0
POINT
  5
19BD5
330
196DE
100
AcDbEntity
  8
DEFPOINTS
 62
     0
 48
50.0
100
AcDbPoint
 10
10613.17256491504
 20
5011.589052292566
 30
0.0
  0
ENDBLK
  5
196EB
330
196DE
100
AcDbEntity
  8
0
 48
50.0
100
AcDbBlockEnd
  0
BLOCK
  5
196F6
330
196EC
100
AcDbEntity
  8
0
 48
50.0
100
AcDbBlockBegin
  2
*D30
 70
     1
 10
0.0
 20
0.0
 30
0.0
  3
*D30
  1

  0
LINE
  5
1A40C
330
196EC
100
AcDbEntity
  8
寸法
 62
     0
 48
50.0
370
    -2
100
AcDbLine
 10
13303.17256491504
 20
4579.742278324914
 30
0.0
 11
13303.17256491504
 21
5071.589052292567
 31
0.0
  0
LINE
  5
1A40D
330
196EC
100
AcDbEntity
  8
寸法
 62
     0
 48
50.0
370
    -2
100
AcDbLine
 10
10673.17256491504
 20
4628.933216836237
 30
0.0
 11
10673.17256491504
 21
5071.589052292567
 31
0.0
  0
LINE
  5
1A40E
330
196EC
100
AcDbEntity
  8
寸法
 62
     0
 48
50.0
370
    -2
100
AcDbLine
 10
13303.17256491504
 20
5011.589052292567
 30
0.0
 11
10673.17256491504
 21
5011.589052292567
 31
0.0
  0
INSERT
  5
1A40F
330
196EC
100
AcDbEntity
  8
寸法
 62
     0
 48
50.0
370
    -2
100
AcDbBlockReference
  2
_DOTSMALL
 10
13303.17256491504
 20
5011.589052292567
 30
0.0
 41
100.0
 42
100.0
 43
100.0
  0
INSERT
  5
1A410
330
196EC
100
AcDbEntity
  8
寸法
 62
     0
 48
50.0
370
    -2
100
AcDbBlockReference
  2
_DOTSMALL
 10
10673.17256491504
 20
5011.589052292567
 30
0.0
 41
100.0
 42
100.0
 43
100.0
 50
180.0
  0
MTEXT
  5
1A411
330
196EC
100
AcDbEntity
  8
寸法
 62
     7
 48
50.0
100
AcDbMText
 10
11988.17256491504
 20
5111.600863316189
 30
0.0
 40
120.0
 41
0.0
 71
     5
 72
     1
  1
\A1;柱外寸法2630
  7
STYLE1
 73
     1
 44
1.0
1001
ACAD
1000
MTEXTBEGIN
1070
    73
1070
     1
1070
    44
1040
1.0
1070
    74
1070
     0
1000
MTEXTEND
  0
POINT
  5
1A412
330
196EC
100
AcDbEntity
  8
DEFPOINTS
 62
     0
 48
50.0
100
AcDbPoint
 10
13303.17256491504
 20
4559.742278324915
 30
0.0
  0
POINT
  5
1A413
330
196EC
100
AcDbEntity
  8
DEFPOINTS
 62
     0
 48
50.0
100
AcDbPoint
 10
10673.17256491504
 20
4608.933216836238
 30
0.0
  0
POINT
  5
1A414
330
196EC
100
AcDbEntity
  8
DEFPOINTS
 62
     0
 48
50.0
100
AcDbPoint
 10
10673.17256491504
 20
5011.589052292567
 30
0.0
  0
ENDBLK
  5
196F7
330
196EC
100
AcDbEntity
  8
0
 48
50.0
100
AcDbBlockEnd
  0
BLOCK
  5
19704
330
196F8
100
AcDbEntity
  8
0
 48
50.0
100
AcDbBlockBegin
  2
*D31
 70
     1
 10
0.0
 20
0.0
 30
0.0
  3
*D31
  1

  0
LINE
  5
19BB7
330
196F8
100
AcDbEntity
  8
寸法
 62
     0
 48
50.0
370
    -2
100
AcDbLine
 10
10653.17256491504
 20
2587.931598713261
 30
0.0
 11
9769.422435731781
 21
2587.931598713261
 31
0.0
  0
LINE
  5
19BB8
330
196F8
100
AcDbEntity
  8
寸法
 62
     0
 48
50.0
370
    -2
100
AcDbLine
 10
10598.17256491504
 20
2537.931598713262
 30
0.0
 11
9769.422435731781
 21
2537.931598713262
 31
0.0
  0
LINE
  5
19BB9
330
196F8
100
AcDbEntity
  8
寸法
 62
     0
 48
50.0
370
    -2
100
AcDbLine
 10
9829.42243573178
 20
2587.931598713261
 30
0.0
 11
9829.42243573178
 21
2687.931598713261
 31
0.0
  0
LINE
  5
19BBA
330
196F8
100
AcDbEntity
  8
寸法
 62
     0
 48
50.0
370
    -2
100
AcDbLine
 10
9829.42243573178
 20
2537.931598713262
 30
0.0
 11
9829.42243573178
 21
2125.837110524281
 31
0.0
  0
LINE
  5
19BBB
330
196F8
100
AcDbEntity
  8
寸法
 62
     0
 48
50.0
370
    -2
100
AcDbLine
 10
9829.42243573178
 20
2587.931598713261
 30
0.0
 11
9829.42243573178
 21
2537.931598713262
 31
0.0
  0
INSERT
  5
19BBC
330
196F8
100
AcDbEntity
  8
寸法
 62
     0
 48
50.0
370
    -2
100
AcDbBlockReference
  2
_DOTSMALL
 10
9829.42243573178
 20
2587.931598713261
 30
0.0
 41
100.0
 42
100.0
 43
100.0
 50
270.0
  0
INSERT
  5
19BBD
330
196F8
100
AcDbEntity
  8
寸法
 62
     0
 48
50.0
370
    -2
100
AcDbBlockReference
  2
_DOTSMALL
 10
9829.42243573178
 20
2537.931598713262
 30
0.0
 41
100.0
 42
100.0
 43
100.0
 50
90.0
  0
MTEXT
  5
19BBE
330
196F8
100
AcDbEntity
  8
寸法
 62
     7
 48
50.0
100
AcDbMText
 10
9729.42243573178
 20
2231.884354618772
 30
0.0
 40
120.0
 41
0.0
 71
     5
 72
     1
  1
\A1;50
  7
STYLE1
 11
0.0000000000000001
 21
1.0
 31
0.0
 73
     1
 44
1.0
1001
ACAD
1000
MTEXTBEGIN
1070
    73
1070
     1
1070
    44
1040
1.0
1070
    74
1070
     0
1000
MTEXTEND
  0
POINT
  5
19BBF
330
196F8
100
AcDbEntity
  8
DEFPOINTS
 62
     0
 48
50.0
100
AcDbPoint
 10
10673.17256491504
 20
2587.931598713261
 30
0.0
  0
POINT
  5
19BC0
330
196F8
100
AcDbEntity
  8
DEFPOINTS
 62
     0
 48
50.0
100
AcDbPoint
 10
10618.17256491504
 20
2537.931598713262
 30
0.0
  0
POINT
  5
19BC1
330
196F8
100
AcDbEntity
  8
DEFPOINTS
 62
     0
 48
50.0
100
AcDbPoint
 10
9829.42243573178
 20
2537.931598713262
 30
0.0
  0
ENDBLK
  5
19705
330
196F8
100
AcDbEntity
  8
0
 48
50.0
100
AcDbBlockEnd
  0
BLOCK
  5
19710
330
19706
100
AcDbEntity
  8
0
 48
50.0
100
AcDbBlockBegin
  2
*D32
 70
     1
 10
0.0
 20
0.0
 30
0.0
  3
*D32
  1

  0
LINE
  5
19BAE
330
19706
100
AcDbEntity
  8
寸法
 62
     0
 48
50.0
370
    -2
100
AcDbLine
 10
13323.17256491504
 20
2537.931598713263
 30
0.0
 11
14068.09972288717
 21
2537.931598713263
 31
0.0
  0
LINE
  5
19BAF
330
19706
100
AcDbEntity
  8
寸法
 62
     0
 48
50.0
370
    -2
100
AcDbLine
 10
13403.17256491504
 20
4557.931598713262
 30
0.0
 11
14068.09972288717
 21
4557.931598713262
 31
0.0
  0
LINE
  5
19BB0
330
19706
100
AcDbEntity
  8
寸法
 62
     0
 48
50.0
370
    -2
100
AcDbLine
 10
14008.09972288717
 20
2537.931598713263
 30
0.0
 11
14008.09972288717
 21
4557.931598713262
 31
0.0
  0
INSERT
  5
19BB1
330
19706
100
AcDbEntity
  8
寸法
 62
     0
 48
50.0
370
    -2
100
AcDbBlockReference
  2
_DOTSMALL
 10
14008.09972288717
 20
2537.931598713263
 30
0.0
 41
100.0
 42
100.0
 43
100.0
 50
270.0
  0
INSERT
  5
19BB2
330
19706
100
AcDbEntity
  8
寸法
 62
     0
 48
50.0
370
    -2
100
AcDbBlockReference
  2
_DOTSMALL
 10
14008.09972288717
 20
4557.931598713262
 30
0.0
 41
100.0
 42
100.0
 43
100.0
 50
90.0
  0
MTEXT
  5
19BB3
330
19706
100
AcDbEntity
  8
寸法
 62
     7
 48
50.0
100
AcDbMText
 10
13908.08791186355
 20
3547.931598713265
 30
0.0
 40
120.0
 41
0.0
 71
     5
 72
     1
  1
\A1;2020
  7
STYLE1
 11
0.0000000000000001
 21
1.0
 31
0.0
 73
     1
 44
1.0
1001
ACAD
1000
MTEXTBEGIN
1070
    73
1070
     1
1070
    44
1040
1.0
1070
    74
1070
     0
1000
MTEXTEND
  0
POINT
  5
19BB4
330
19706
100
AcDbEntity
  8
DEFPOINTS
 62
     0
 48
50.0
100
AcDbPoint
 10
13303.17256491504
 20
2537.931598713263
 30
0.0
  0
POINT
  5
19BB5
330
19706
100
AcDbEntity
  8
DEFPOINTS
 62
     0
 48
50.0
100
AcDbPoint
 10
13383.17256491504
 20
4557.931598713262
 30
0.0
  0
POINT
  5
19BB6
330
19706
100
AcDbEntity
  8
DEFPOINTS
 62
     0
 48
50.0
100
AcDbPoint
 10
14008.09972288717
 20
4557.931598713262
 30
0.0
  0
ENDBLK
  5
19711
330
19706
100
AcDbEntity
  8
0
 48
50.0
100
AcDbBlockEnd
  0
BLOCK
  5
1971C
330
19712
100
AcDbEntity
  8
0
 48
50.0
100
AcDbBlockBegin
  2
*D33
 70
     1
 10
0.0
 20
0.0
 30
0.0
  3
*D33
  1

  0
LINE
  5
19BA5
330
19712
100
AcDbEntity
  8
寸法
 62
     0
 48
50.0
370
    -2
100
AcDbLine
 10
10653.17256491504
 20
2537.931598713256
 30
0.0
 11
9469.422435731777
 21
2537.931598713256
 31
0.0
  0
LINE
  5
19BA6
330
19712
100
AcDbEntity
  8
寸法
 62
     0
 48
50.0
370
    -2
100
AcDbLine
 10
10593.17256491504
 20
4612.931598713261
 30
0.0
 11
9469.422435731779
 21
4612.931598713262
 31
0.0
  0
LINE
  5
19BA7
330
19712
100
AcDbEntity
  8
寸法
 62
     0
 48
50.0
370
    -2
100
AcDbLine
 10
9529.422435731779
 20
2537.931598713256
 30
0.0
 11
9529.422435731779
 21
4612.931598713262
 31
0.0
  0
INSERT
  5
19BA8
330
19712
100
AcDbEntity
  8
寸法
 62
     0
 48
50.0
370
    -2
100
AcDbBlockReference
  2
_DOTSMALL
 10
9529.422435731779
 20
2537.931598713256
 30
0.0
 41
100.0
 42
100.0
 43
100.0
 50
270.0
  0
INSERT
  5
19BA9
330
19712
100
AcDbEntity
  8
寸法
 62
     0
 48
50.0
370
    -2
100
AcDbBlockReference
  2
_DOTSMALL
 10
9529.422435731779
 20
4612.931598713262
 30
0.0
 41
100.0
 42
100.0
 43
100.0
 50
90.0
  0
MTEXT
  5
19BAA
330
19712
100
AcDbEntity
  8
寸法
 62
     7
 48
50.0
100
AcDbMText
 10
9429.410624708156
 20
3575.431598713261
 30
0.0
 40
120.0
 41
0.0
 71
     5
 72
     1
  1
\A1;2075
  7
STYLE1
 11
0.0000000000000001
 21
1.0
 31
0.0
 73
     1
 44
1.0
1001
ACAD
1000
MTEXTBEGIN
1070
    73
1070
     1
1070
    44
1040
1.0
1070
    74
1070
     0
1000
MTEXTEND
  0
POINT
  5
19BAB
330
19712
100
AcDbEntity
  8
DEFPOINTS
 62
     0
 48
50.0
100
AcDbPoint
 10
10673.17256491504
 20
2537.931598713256
 30
0.0
  0
POINT
  5
19BAC
330
19712
100
AcDbEntity
  8
DEFPOINTS
 62
     0
 48
50.0
100
AcDbPoint
 10
10613.17256491504
 20
4612.931598713261
 30
0.0
  0
POINT
  5
19BAD
330
19712
100
AcDbEntity
  8
DEFPOINTS
 62
     0
 48
50.0
100
AcDbPoint
 10
9529.422435731779
 20
4612.931598713262
 30
0.0
  0
ENDBLK
  5
1971D
330
19712
100
AcDbEntity
  8
0
 48
50.0
100
AcDbBlockEnd
  0
BLOCK
  5
19728
330
1971E
100
AcDbEntity
  8
0
 48
50.0
100
AcDbBlockBegin
  2
*D34
 70
     1
 10
0.0
 20
0.0
 30
0.0
  3
*D34
  1

  0
LINE
  5
19B9C
330
1971E
100
AcDbEntity
  8
寸法
 62
     0
 48
50.0
370
    -2
100
AcDbLine
 10
10653.17256491504
 20
4377.931598713257
 30
0.0
 11
9769.422435731783
 21
4377.931598713258
 31
0.0
  0
LINE
  5
19B9D
330
1971E
100
AcDbEntity
  8
寸法
 62
     0
 48
50.0
370
    -2
100
AcDbLine
 10
10653.17256491504
 20
2587.931598713256
 30
0.0
 11
9769.422435731781
 21
2587.931598713256
 31
0.0
  0
LINE
  5
19B9E
330
1971E
100
AcDbEntity
  8
寸法
 62
     0
 48
50.0
370
    -2
100
AcDbLine
 10
9829.422435731782
 20
4377.931598713258
 30
0.0
 11
9829.42243573178
 21
2587.931598713256
 31
0.0
  0
INSERT
  5
19B9F
330
1971E
100
AcDbEntity
  8
寸法
 62
     0
 48
50.0
370
    -2
100
AcDbBlockReference
  2
_DOTSMALL
 10
9829.422435731782
 20
4377.931598713258
 30
0.0
 41
100.0
 42
100.0
 43
100.0
 50
90.0
  0
INSERT
  5
19BA0
330
1971E
100
AcDbEntity
  8
寸法
 62
     0
 48
50.0
370
    -2
100
AcDbBlockReference
  2
_DOTSMALL
 10
9829.42243573178
 20
2587.931598713256
 30
0.0
 41
100.0
 42
100.0
 43
100.0
 50
270.0
  0
MTEXT
  5
19BA1
330
1971E
100
AcDbEntity
  8
寸法
 62
     7
 48
50.0
100
AcDbMText
 10
9729.42243573178
 20
3482.931598713259
 30
0.0
 40
120.0
 41
0.0
 71
     5
 72
     1
  1
\A1;1790
  7
STYLE1
 11
0.0000000000000001
 21
1.0
 31
0.0
 73
     1
 44
1.0
1001
ACAD
1000
MTEXTBEGIN
1070
    73
1070
     1
1070
    44
1040
1.0
1070
    74
1070
     0
1000
MTEXTEND
  0
POINT
  5
19BA2
330
1971E
100
AcDbEntity
  8
DEFPOINTS
 62
     0
 48
50.0
100
AcDbPoint
 10
10673.17256491504
 20
4377.931598713257
 30
0.0
  0
POINT
  5
19BA3
330
1971E
100
AcDbEntity
  8
DEFPOINTS
 62
     0
 48
50.0
100
AcDbPoint
 10
10673.17256491504
 20
2587.931598713256
 30
0.0
  0
POINT
  5
19BA4
330
1971E
100
AcDbEntity
  8
DEFPOINTS
 62
     0
 48
50.0
100
AcDbPoint
 10
9829.42243573178
 20
2587.931598713256
 30
0.0
  0
ENDBLK
  5
19729
330
1971E
100
AcDbEntity
  8
0
 48
50.0
100
AcDbBlockEnd
  0
BLOCK
  5
19FB5
330
19FAB
100
AcDbEntity
  8
0
 48
50.0
100
AcDbBlockBegin
  2
*D35
 70
     1
 10
0.0
 20
0.0
 30
0.0
  3
*D35
  1

  0
LINE
  5
1A076
330
19FAB
100
AcDbEntity
  8
寸法
 62
     0
 48
50.0
370
    -2
100
AcDbLine
 10
3689.673057123657
 20
4632.931598713266
 30
0.0
 11
3689.673057123657
 21
5278.566791659262
 31
0.0
  0
LINE
  5
1A077
330
19FAB
100
AcDbEntity
  8
寸法
 62
     0
 48
50.0
370
    -2
100
AcDbLine
 10
7899.673057123656
 20
4632.931598713265
 30
0.0
 11
7899.673057123656
 21
5278.566791659262
 31
0.0
  0
LINE
  5
1A078
330
19FAB
100
AcDbEntity
  8
寸法
 62
     0
 48
50.0
370
    -2
100
AcDbLine
 10
3689.673057123657
 20
5218.566791659261
 30
0.0
 11
7899.673057123656
 21
5218.566791659261
 31
0.0
  0
INSERT
  5
1A079
330
19FAB
100
AcDbEntity
  8
寸法
 62
     0
 48
50.0
370
    -2
100
AcDbBlockReference
  2
_DOTSMALL
 10
3689.673057123657
 20
5218.566791659261
 30
0.0
 41
100.0
 42
100.0
 43
100.0
 50
180.0
  0
INSERT
  5
1A07A
330
19FAB
100
AcDbEntity
  8
寸法
 62
     0
 48
50.0
370
    -2
100
AcDbBlockReference
  2
_DOTSMALL
 10
7899.673057123656
 20
5218.566791659261
 30
0.0
 41
100.0
 42
100.0
 43
100.0
  0
MTEXT
  5
1A07B
330
19FAB
100
AcDbEntity
  8
寸法
 62
     7
 48
50.0
100
AcDbMText
 10
5794.673057123657
 20
5318.566791659261
 30
0.0
 40
120.0
 41
0.0
 71
     5
 72
     1
  1
\A1;N X 1370+100
  7
STYLE1
 73
     1
 44
1.0
1001
ACAD
1000
MTEXTBEGIN
1070
    73
1070
     1
1070
    44
1040
1.0
1070
    74
1070
     0
1000
MTEXTEND
  0
POINT
  5
1A07C
330
19FAB
100
AcDbEntity
  8
DEFPOINTS
 62
     0
 48
50.0
100
AcDbPoint
 10
3689.673057123657
 20
4612.931598713267
 30
0.0
  0
POINT
  5
1A07D
330
19FAB
100
AcDbEntity
  8
DEFPOINTS
 62
     0
 48
50.0
100
AcDbPoint
 10
7899.673057123656
 20
4612.931598713266
 30
0.0
  0
POINT
  5
1A07E
330
19FAB
100
AcDbEntity
  8
DEFPOINTS
 62
     0
 48
50.0
100
AcDbPoint
 10
7899.673057123656
 20
5218.566791659261
 30
0.0
  0
ENDBLK
  5
19FB6
330
19FAB
100
AcDbEntity
  8
0
 48
50.0
100
AcDbBlockEnd
  0
BLOCK
  5
19FC1
330
19FB7
100
AcDbEntity
  8
0
 48
50.0
100
AcDbBlockBegin
  2
*D36
 70
     1
 10
0.0
 20
0.0
 30
0.0
  3
*D36
  1

  0
LINE
  5
1A095
330
19FB7
100
AcDbEntity
  8
寸法
 62
     0
 48
50.0
370
    -2
100
AcDbLine
 10
7849.673057123657
 20
4632.9315987048
 30
0.0
 11
7849.673057123657
 21
5078.657870445171
 31
0.0
  0
LINE
  5
1A096
330
19FB7
100
AcDbEntity
  8
寸法
 62
     0
 48
50.0
370
    -2
100
AcDbLine
 10
3739.673057123657
 20
4632.931598713268
 30
0.0
 11
3739.673057123657
 21
5078.657870445171
 31
0.0
  0
LINE
  5
1A097
330
19FB7
100
AcDbEntity
  8
寸法
 62
     0
 48
50.0
370
    -2
100
AcDbLine
 10
7849.673057123657
 20
5018.657870445171
 30
0.0
 11
3739.673057123657
 21
5018.657870445171
 31
0.0
  0
INSERT
  5
1A098
330
19FB7
100
AcDbEntity
  8
寸法
 62
     0
 48
50.0
370
    -2
100
AcDbBlockReference
  2
_DOTSMALL
 10
7849.673057123657
 20
5018.657870445171
 30
0.0
 41
100.0
 42
100.0
 43
100.0
  0
INSERT
  5
1A099
330
19FB7
100
AcDbEntity
  8
寸法
 62
     0
 48
50.0
370
    -2
100
AcDbBlockReference
  2
_DOTSMALL
 10
3739.673057123657
 20
5018.657870445171
 30
0.0
 41
100.0
 42
100.0
 43
100.0
 50
180.0
  0
MTEXT
  5
1A09A
330
19FB7
100
AcDbEntity
  8
寸法
 62
     7
 48
50.0
100
AcDbMText
 10
5794.673057123657
 20
5118.657870445171
 30
0.0
 40
120.0
 41
0.0
 71
     5
 72
     1
  1
\A1;柱外寸法 N X 1370
  7
STYLE1
 73
     1
 44
1.0
1001
ACAD
1000
MTEXTBEGIN
1070
    73
1070
     1
1070
    44
1040
1.0
1070
    74
1070
     0
1000
MTEXTEND
  0
POINT
  5
1A09B
330
19FB7
100
AcDbEntity
  8
DEFPOINTS
 62
     0
 48
50.0
100
AcDbPoint
 10
7849.673057123657
 20
4612.9315987048
 30
0.0
  0
POINT
  5
1A09C
330
19FB7
100
AcDbEntity
  8
DEFPOINTS
 62
     0
 48
50.0
100
AcDbPoint
 10
3739.673057123657
 20
4612.931598713267
 30
0.0
  0
POINT
  5
1A09D
330
19FB7
100
AcDbEntity
  8
DEFPOINTS
 62
     0
 48
50.0
100
AcDbPoint
 10
3739.673057123657
 20
5018.657870445171
 30
0.0
  0
ENDBLK
  5
19FC2
330
19FB7
100
AcDbEntity
  8
0
 48
50.0
100
AcDbBlockEnd
  0
BLOCK
  5
19FCF
330
19FC3
100
AcDbEntity
  8
0
 48
50.0
100
AcDbBlockBegin
  2
*D37
 70
     1
 10
0.0
 20
0.0
 30
0.0
  3
*D37
  1

  0
LINE
  5
1A08A
330
19FC3
100
AcDbEntity
  8
寸法
 62
     0
 48
50.0
370
    -2
100
AcDbLine
 10
3739.673057123657
 20
4632.931598713268
 30
0.0
 11
3739.673057123657
 21
5078.657870445171
 31
0.0
  0
LINE
  5
1A08B
330
19FC3
100
AcDbEntity
  8
寸法
 62
     0
 48
50.0
370
    -2
100
AcDbLine
 10
3689.673057123657
 20
4632.931598713266
 30
0.0
 11
3689.673057123657
 21
5078.657870445171
 31
0.0
  0
LINE
  5
1A08C
330
19FC3
100
AcDbEntity
  8
寸法
 62
     0
 48
50.0
370
    -2
100
AcDbLine
 10
3739.673057123657
 20
5018.657870445171
 30
0.0
 11
3839.673057123657
 21
5018.657870445171
 31
0.0
  0
LINE
  5
1A08D
330
19FC3
100
AcDbEntity
  8
寸法
 62
     0
 48
50.0
370
    -2
100
AcDbLine
 10
3689.673057123657
 20
5018.657870445171
 30
0.0
 11
3270.140531654921
 21
5018.657870445171
 31
0.0
  0
LINE
  5
1A08E
330
19FC3
100
AcDbEntity
  8
寸法
 62
     0
 48
50.0
370
    -2
100
AcDbLine
 10
3739.673057123657
 20
5018.657870445171
 30
0.0
 11
3689.673057123657
 21
5018.657870445171
 31
0.0
  0
INSERT
  5
1A08F
330
19FC3
100
AcDbEntity
  8
寸法
 62
     0
 48
50.0
370
    -2
100
AcDbBlockReference
  2
_DOTSMALL
 10
3739.673057123657
 20
5018.657870445171
 30
0.0
 41
100.0
 42
100.0
 43
100.0
 50
180.0
  0
INSERT
  5
1A090
330
19FC3
100
AcDbEntity
  8
寸法
 62
     0
 48
50.0
370
    -2
100
AcDbBlockReference
  2
_DOTSMALL
 10
3689.673057123657
 20
5018.657870445171
 30
0.0
 41
100.0
 42
100.0
 43
100.0
  0
MTEXT
  5
1A091
330
19FC3
100
AcDbEntity
  8
寸法
 62
     7
 48
50.0
100
AcDbMText
 10
3376.18777574941
 20
5118.657870445171
 30
0.0
 40
120.0
 41
0.0
 71
     5
 72
     1
  1
\A1;50
  7
STYLE1
 73
     1
 44
1.0
1001
ACAD
1000
MTEXTBEGIN
1070
    73
1070
     1
1070
    44
1040
1.0
1070
    74
1070
     0
1000
MTEXTEND
  0
POINT
  5
1A092
330
19FC3
100
AcDbEntity
  8
DEFPOINTS
 62
     0
 48
50.0
100
AcDbPoint
 10
3739.673057123657
 20
4612.931598713267
 30
0.0
  0
POINT
  5
1A093
330
19FC3
100
AcDbEntity
  8
DEFPOINTS
 62
     0
 48
50.0
100
AcDbPoint
 10
3689.673057123657
 20
4612.931598713267
 30
0.0
  0
POINT
  5
1A094
330
19FC3
100
AcDbEntity
  8
DEFPOINTS
 62
     0
 48
50.0
100
AcDbPoint
 10
3689.673057123657
 20
5018.657870445171
 30
0.0
  0
ENDBLK
  5
19FD0
330
19FC3
100
AcDbEntity
  8
0
 48
50.0
100
AcDbBlockEnd
  0
BLOCK
  5
19FDD
330
19FD1
100
AcDbEntity
  8
0
 48
50.0
100
AcDbBlockBegin
  2
*D38
 70
     1
 10
0.0
 20
0.0
 30
0.0
  3
*D38
  1

  0
LINE
  5
1A07F
330
19FD1
100
AcDbEntity
  8
寸法
 62
     0
 48
50.0
370
    -2
100
AcDbLine
 10
7899.673057123656
 20
4632.931598713265
 30
0.0
 11
7899.673057123656
 21
5078.657870445173
 31
0.0
  0
LINE
  5
1A080
330
19FD1
100
AcDbEntity
  8
寸法
 62
     0
 48
50.0
370
    -2
100
AcDbLine
 10
7849.673057123657
 20
4632.931598713269
 30
0.0
 11
7849.673057123657
 21
5078.657870445173
 31
0.0
  0
LINE
  5
1A081
330
19FD1
100
AcDbEntity
  8
寸法
 62
     0
 48
50.0
370
    -2
100
AcDbLine
 10
7849.673057123657
 20
5018.657870445173
 30
0.0
 11
7749.673057123657
 21
5018.657870445173
 31
0.0
  0
LINE
  5
1A082
330
19FD1
100
AcDbEntity
  8
寸法
 62
     0
 48
50.0
370
    -2
100
AcDbLine
 10
7899.673057123656
 20
5018.657870445173
 30
0.0
 11
8319.205582592386
 21
5018.657870445173
 31
0.0
  0
LINE
  5
1A083
330
19FD1
100
AcDbEntity
  8
寸法
 62
     0
 48
50.0
370
    -2
100
AcDbLine
 10
7849.673057123657
 20
5018.657870445173
 30
0.0
 11
7899.673057123656
 21
5018.657870445173
 31
0.0
  0
INSERT
  5
1A084
330
19FD1
100
AcDbEntity
  8
寸法
 62
     0
 48
50.0
370
    -2
100
AcDbBlockReference
  2
_DOTSMALL
 10
7849.673057123657
 20
5018.657870445173
 30
0.0
 41
100.0
 42
100.0
 43
100.0
  0
INSERT
  5
1A085
330
19FD1
100
AcDbEntity
  8
寸法
 62
     0
 48
50.0
370
    -2
100
AcDbBlockReference
  2
_DOTSMALL
 10
7899.673057123656
 20
5018.657870445173
 30
0.0
 41
100.0
 42
100.0
 43
100.0
 50
180.0
  0
MTEXT
  5
1A086
330
19FD1
100
AcDbEntity
  8
寸法
 62
     7
 48
50.0
100
AcDbMText
 10
8213.158338497896
 20
5118.657870445173
 30
0.0
 40
120.0
 41
0.0
 71
     5
 72
     1
  1
\A1;50
  7
STYLE1
 73
     1
 44
1.0
1001
ACAD
1000
MTEXTBEGIN
1070
    73
1070
     1
1070
    44
1040
1.0
1070
    74
1070
     0
1000
MTEXTEND
  0
POINT
  5
1A087
330
19FD1
100
AcDbEntity
  8
DEFPOINTS
 62
     0
 48
50.0
100
AcDbPoint
 10
7899.673057123656
 20
4612.931598713266
 30
0.0
  0
POINT
  5
1A088
330
19FD1
100
AcDbEntity
  8
DEFPOINTS
 62
     0
 48
50.0
100
AcDbPoint
 10
7849.673057123657
 20
4612.931598713268
 30
0.0
  0
POINT
  5
1A089
330
19FD1
100
AcDbEntity
  8
DEFPOINTS
 62
     0
 48
50.0
100
AcDbPoint
 10
7849.673057123657
 20
5018.657870445173
 30
0.0
  0
ENDBLK
  5
19FDE
330
19FD1
100
AcDbEntity
  8
0
 48
50.0
100
AcDbBlockEnd
  0
BLOCK
  5
1A290
330
1A285
100
AcDbEntity
  8
0
 48
50.0
100
AcDbBlockBegin
  2
*D39
 70
     1
 10
0.0
 20
0.0
 30
0.0
  3
*D39
  1

  0
LINE
  5
1A43C
330
1A285
100
AcDbEntity
  8
寸法
 62
     0
 48
50.0
370
    -2
100
AcDbLine
 10
7869.673057123657
 20
4212.931598713262
 30
0.0
 11
8197.216159445405
 21
4212.931598713262
 31
0.0
  0
LINE
  5
1A43D
330
1A285
100
AcDbEntity
  8
寸法
 62
     0
 48
50.0
370
    -2
100
AcDbLine
 10
7869.673057123657
 20
4377.931598713261
 30
0.0
 11
8197.216159445405
 21
4377.931598713261
 31
0.0
  0
LINE
  5
1A43E
330
1A285
100
AcDbEntity
  8
寸法
 62
     0
 48
50.0
370
    -2
100
AcDbLine
 10
8137.216159445404
 20
4212.931598713262
 30
0.0
 11
8137.216159445404
 21
4377.931598713261
 31
0.0
  0
LINE
  5
1A43F
330
1A285
100
AcDbEntity
  8
寸法
 62
     0
 48
50.0
370
    -2
100
AcDbLine
 10
8137.216159445404
 20
4377.931598713261
 30
0.0
 11
8137.216159445404
 21
4754.902161461738
 31
0.0
  0
INSERT
  5
1A440
330
1A285
100
AcDbEntity
  8
寸法
 62
     0
 48
50.0
370
    -2
100
AcDbBlockReference
  2
_DOTSMALL
 10
8137.216159445404
 20
4212.931598713262
 30
0.0
 41
100.0
 42
100.0
 43
100.0
 50
270.0
  0
INSERT
  5
1A441
330
1A285
100
AcDbEntity
  8
寸法
 62
     0
 48
50.0
370
    -2
100
AcDbBlockReference
  2
_DOTSMALL
 10
8137.216159445404
 20
4377.931598713261
 30
0.0
 41
100.0
 42
100.0
 43
100.0
 50
90.0
  0
MTEXT
  5
1A442
330
1A285
100
AcDbEntity
  8
寸法
 62
     7
 48
50.0
100
AcDbMText
 10
8037.216159445403
 20
4616.4168800875
 30
0.0
 40
120.0
 41
0.0
 71
     5
 72
     1
  1
\A1;165
  7
STYLE1
 11
0.0000000000000001
 21
1.0
 31
0.0
 73
     1
 44
1.0
1001
ACAD
1000
MTEXTBEGIN
1070
    73
1070
     1
1070
    44
1040
1.0
1070
    74
1070
     0
1000
MTEXTEND
  0
POINT
  5
1A443
330
1A285
100
AcDbEntity
  8
DEFPOINTS
 62
     0
 48
50.0
100
AcDbPoint
 10
7849.673057123657
 20
4212.931598713262
 30
0.0
  0
POINT
  5
1A444
330
1A285
100
AcDbEntity
  8
DEFPOINTS
 62
     0
 48
50.0
100
AcDbPoint
 10
7849.673057123657
 20
4377.931598713261
 30
0.0
  0
POINT
  5
1A445
330
1A285
100
AcDbEntity
  8
DEFPOINTS
 62
     0
 48
50.0
100
AcDbPoint
 10
8137.216159445404
 20
4377.931598713261
 30
0.0
  0
ENDBLK
  5
1A291
330
1A285
100
AcDbEntity
  8
0
 48
50.0
100
AcDbBlockEnd
  0
BLOCK
  5
1A29E
330
1A292
100
AcDbEntity
  8
0
 48
50.0
100
AcDbBlockBegin
  2
*D40
 70
     1
 10
0.0
 20
0.0
 30
0.0
  3
*D40
  1

  0
LINE
  5
1A431
330
1A292
100
AcDbEntity
  8
寸法
 62
     0
 48
50.0
370
    -2
100
AcDbLine
 10
7869.673057123657
 20
4185.931598713261
 30
0.0
 11
8197.216159445403
 21
4185.931598713261
 31
0.0
  0
LINE
  5
1A432
330
1A292
100
AcDbEntity
  8
寸法
 62
     0
 48
50.0
370
    -2
100
AcDbLine
 10
7869.673057123657
 20
4212.931598713262
 30
0.0
 11
8197.216159445403
 21
4212.931598713262
 31
0.0
  0
LINE
  5
1A433
330
1A292
100
AcDbEntity
  8
寸法
 62
     0
 48
50.0
370
    -2
100
AcDbLine
 10
8137.216159445403
 20
4185.931598713261
 30
0.0
 11
8137.216159445403
 21
4085.931598713261
 31
0.0
  0
LINE
  5
1A434
330
1A292
100
AcDbEntity
  8
寸法
 62
     0
 48
50.0
370
    -2
100
AcDbLine
 10
8137.216159445403
 20
4212.931598713262
 30
0.0
 11
8137.216159445403
 21
4312.931598713261
 31
0.0
  0
MTEXT
  5
1A435
330
1A292
100
AcDbEntity
  8
寸法
 62
     7
 48
50.0
100
AcDbMText
 10
8277.385982691768
 20
4213.898798552921
 30
0.0
 40
120.0
 41
0.0
 71
     5
 72
     1
  1
\A1;27
  7
STYLE1
 11
0.0000000000000001
 21
1.0
 31
0.0
 73
     1
 44
1.0
1001
ACAD
1000
MTEXTBEGIN
1070
    73
1070
     1
1070
    44
1040
1.0
1070
    74
1070
     0
1000
MTEXTEND
  0
LINE
  5
1A436
330
1A292
100
AcDbEntity
  8
寸法
 62
     0
 48
50.0
370
    -2
100
AcDbLine
 10
8137.216159445403
 20
4185.931598713261
 30
0.0
 11
8137.216159445403
 21
4212.931598713262
 31
0.0
  0
INSERT
  5
1A437
330
1A292
100
AcDbEntity
  8
寸法
 62
     0
 48
50.0
370
    -2
100
AcDbBlockReference
  2
_DOTSMALL
 10
8137.216159445403
 20
4185.931598713261
 30
0.0
 41
100.0
 42
100.0
 43
100.0
 50
90.0
  0
INSERT
  5
1A438
330
1A292
100
AcDbEntity
  8
寸法
 62
     0
 48
50.0
370
    -2
100
AcDbBlockReference
  2
_DOTSMALL
 10
8137.216159445403
 20
4212.931598713262
 30
0.0
 41
100.0
 42
100.0
 43
100.0
 50
270.0
  0
POINT
  5
1A439
330
1A292
100
AcDbEntity
  8
DEFPOINTS
 62
     0
 48
50.0
100
AcDbPoint
 10
7849.673057123657
 20
4185.931598713261
 30
0.0
  0
POINT
  5
1A43A
330
1A292
100
AcDbEntity
  8
DEFPOINTS
 62
     0
 48
50.0
100
AcDbPoint
 10
7849.673057123657
 20
4212.931598713262
 30
0.0
  0
POINT
  5
1A43B
330
1A292
100
AcDbEntity
  8
DEFPOINTS
 62
     0
 48
50.0
100
AcDbPoint
 10
8137.216159445403
 20
4212.931598713262
 30
0.0
  0
ENDBLK
  5
1A29F
330
1A292
100
AcDbEntity
  8
0
 48
50.0
100
AcDbBlockEnd
  0
BLOCK
  5
1A2AA
330
1A2A0
100
AcDbEntity
  8
0
 48
50.0
100
AcDbBlockBegin
  2
*D41
 70
     1
 10
0.0
 20
0.0
 30
0.0
  3
*D41
  1

  0
LINE
  5
1A307
330
1A2A0
100
AcDbEntity
  8
寸法
 62
     0
 48
50.0
370
    -2
100
AcDbLine
 10
7869.673057123657
 20
2537.931598713262
 30
0.0
 11
8197.216159445401
 21
2537.931598713262
 31
0.0
  0
LINE
  5
1A308
330
1A2A0
100
AcDbEntity
  8
寸法
 62
     0
 48
50.0
370
    -2
100
AcDbLine
 10
7869.673057123657
 20
4185.931598713261
 30
0.0
 11
8197.216159445403
 21
4185.931598713261
 31
0.0
  0
LINE
  5
1A309
330
1A2A0
100
AcDbEntity
  8
寸法
 62
     0
 48
50.0
370
    -2
100
AcDbLine
 10
8137.216159445403
 20
2537.931598713262
 30
0.0
 11
8137.216159445403
 21
4185.931598713261
 31
0.0
  0
INSERT
  5
1A30A
330
1A2A0
100
AcDbEntity
  8
寸法
 62
     0
 48
50.0
370
    -2
100
AcDbBlockReference
  2
_DOTSMALL
 10
8137.216159445403
 20
2537.931598713262
 30
0.0
 41
100.0
 42
100.0
 43
100.0
 50
270.0
  0
INSERT
  5
1A30B
330
1A2A0
100
AcDbEntity
  8
寸法
 62
     0
 48
50.0
370
    -2
100
AcDbBlockReference
  2
_DOTSMALL
 10
8137.216159445403
 20
4185.931598713261
 30
0.0
 41
100.0
 42
100.0
 43
100.0
 50
90.0
  0
MTEXT
  5
1A30C
330
1A2A0
100
AcDbEntity
  8
寸法
 62
     7
 48
50.0
100
AcDbMText
 10
8037.216159445403
 20
3361.931598713263
 30
0.0
 40
120.0
 41
0.0
 71
     5
 72
     1
  1
\A1;有効開口部高サ 1648
  7
STYLE1
 11
0.0000000000000001
 21
1.0
 31
0.0
 73
     1
 44
1.0
1001
ACAD
1000
MTEXTBEGIN
1070
    73
1070
     1
1070
    44
1040
1.0
1070
    74
1070
     0
1000
MTEXTEND
  0
POINT
  5
1A30D
330
1A2A0
100
AcDbEntity
  8
DEFPOINTS
 62
     0
 48
50.0
100
AcDbPoint
 10
7849.673057123657
 20
2537.931598713262
 30
0.0
  0
POINT
  5
1A30E
330
1A2A0
100
AcDbEntity
  8
DEFPOINTS
 62
     0
 48
50.0
100
AcDbPoint
 10
7849.673057123657
 20
4185.931598713261
 30
0.0
  0
POINT
  5
1A30F
330
1A2A0
100
AcDbEntity
  8
DEFPOINTS
 62
     0
 48
50.0
100
AcDbPoint
 10
8137.216159445403
 20
4185.931598713261
 30
0.0
  0
ENDBLK
  5
1A2AB
330
1A2A0
100
AcDbEntity
  8
0
 48
50.0
100
AcDbBlockEnd
  0
BLOCK
  5
1A3CF
330
1A3CC
100
AcDbEntity
  8
0
 48
50.0
100
AcDbBlockBegin
  2
A$C39E04ECA
 70
     0
 10
0.0
 20
0.0
 30
0.0
  3
A$C39E04ECA
  1

  0
LINE
  5
1A3CD
330
1A3CC
100
AcDbEntity
  8
部品1
 48
50.0
100
AcDbLine
 10
46.5327395555505
 20
173.6625482366816
 30
0.0
 11
-46.5327395555505
 21
-173.6625482366835
 31
0.0
  0
SPLINE
  5
1A3CE
330
1A3CC
100
AcDbEntity
  8
部品1
 48
50.0
100
AcDbSpline
210
0.0
220
0.0
230
1.0
 70
     8
 71
     3
 72
    10
 73
     6
 74
     4
 42
0.0000000001
 43
0.0000000001
 44
0.0000000001
 40
0.0
 40
0.0
 40
0.0
 40
0.0
 40
147.8767566010009
 40
301.8091093202477
 40
466.5049223087716
 40
466.5049223087716
 40
466.5049223087716
 40
466.5049223087716
 10
67.57032773305036
 20
81.24115252579214
 30
0.0
 10
-9.311354761784436
 20
72.33671886795416
 30
0.0
 10
-166.2230469719117
 20
54.16321240862245
 30
0.0
 10
156.5903629724302
 20
-48.3573722307205
 30
0.0
 10
-13.25225669694174
 20
-66.99246094292395
 30
0.0
 10
-101.0422619038345
 20
-76.62475782023284
 30
0.0
 11
67.57032773305036
 21
81.24115252579214
 31
0.0
 11
-75.26765057571902
 21
42.96783158946346
 31
0.0
 11
58.04167734345537
 21
-33.99834477015975
 31
0.0
 11
-101.0422619038345
 21
-76.62475782023284
 31
0.0
  0
ENDBLK
  5
1A3D0
330
1A3CC
100
AcDbEntity
  8
0
 48
50.0
100
AcDbBlockEnd
  0
ENDSEC
  0
SECTION
  2
ENTITIES
  0
MTEXT
  5
763F
330
747D
100
AcDbEntity
  8
0
100
AcDbMText
 10
302.846345836809
 20
280.1983726409901
 30
0.0
 40
3.5
 41
5.323721266742722
 71
     1
 72
     5
  1

  7
MSMINCHO
 73
     1
 44
1.0
1001
ACAD
1000
MTEXTBEGIN
1070
    73
1070
     1
1070
    44
1040
1.0
1070
    74
1070
     0
1000
MTEXTEND
  0
LINE
  5
10B57
330
747D
100
AcDbEntity
  8
補助
  6
PHANTOM
 62
   230
 48
50.0
100
AcDbLine
 10
139.9999999999995
 20
11409.6
 30
0.0
 11
16307.2
 21
11409.6
 31
0.0
  0
LINE
  5
10B59
330
747D
100
AcDbEntity
  8
仕様書枠
  6
Continuous
 48
50.0
100
AcDbLine
 10
13107.2
 20
1200.0
 30
0.0
 11
13107.2
 21
-0.0000000000000729
 31
0.0
  0
LINE
  5
10B5C
330
747D
100
AcDbEntity
  8
仕様書枠
 48
50.0
100
AcDbLine
 10
16307.2
 20
1200.0
 30
0.0
 11
16307.2
 21
-0.0000000000000909
 31
0.0
  0
LINE
  5
10B5D
330
747D
100
AcDbEntity
  8
仕様書枠
 48
50.0
100
AcDbLine
 10
140.0
 20
0.0
 30
0.0
 11
16307.2
 21
-0.0000000000000909
 31
0.0
  0
LINE
  5
10B5E
330
747D
100
AcDbEntity
  8
補助
  6
PHANTOM
 62
   230
 48
50.0
100
AcDbLine
 10
16307.2
 20
11409.6
 30
0.0
 11
16307.2
 21
1200.0
 31
0.0
  0
LINE
  5
10B6C
330
747D
100
AcDbEntity
  8
仕様書枠
 48
50.0
100
AcDbLine
 10
13107.2
 20
1200.0
 30
0.0
 11
16307.2
 21
1200.0
 31
0.0
  0
LINE
  5
10B6D
330
747D
100
AcDbEntity
  8
補助
  6
PHANTOM
 62
   230
 48
50.0
100
AcDbLine
 10
13107.2
 20
11409.6
 30
0.0
 11
13107.2
 21
4800.0
 31
0.0
  0
LINE
  5
10B6F
330
747D
100
AcDbEntity
  8
補助
  6
PHANTOM
 62
   230
 48
50.0
100
AcDbLine
 10
13107.2
 20
4800.0
 30
0.0
 11
16307.2
 21
4800.0
 31
0.0
  0
LINE
  5
10B72
330
747D
100
AcDbEntity
  8
文字
 62
     7
 48
50.0
100
AcDbLine
 10
13187.2
 20
400.0
 30
0.0
 11
16227.2
 21
400.0
 31
0.0
  0
TEXT
  5
10B73
330
747D
100
AcDbEntity
  8
文字
 62
     7
 48
50.0
100
AcDbText
 10
13162.9790565769
 20
895.0906074299405
 30
0.0
 40
200.0
  1
外 形 図
  7
STYLE2
100
AcDbText
  0
TEXT
  5
10B74
330
747D
100
AcDbEntity
  8
文字
 62
     7
 48
50.0
100
AcDbText
 10
13201.43669998441
 20
477.2740661031255
 30
0.0
 40
160.0
  1
機種名
  7
STYLE2
100
AcDbText
  0
TEXT
  5
10B75
330
747D
100
AcDbEntity
  8
文字
 62
     7
 48
50.0
100
AcDbText
 10
13209.4053442172
 20
228.5435242569016
 30
0.0
 40
100.0
  1
○有効開口寸法 ： 1164×1648(mm)
  7
STYLE2
100
AcDbText
  0
TEXT
  5
10B79
330
747D
100
AcDbEntity
  8
文字
 62
     7
 48
50.0
100
AcDbText
 10
14524.131837222
 20
1031.557706291228
 30
0.0
 40
100.0
  1
NO.09      <縮尺> S=1/40
  7
STYLE2
100
AcDbText
  0
LINE
  5
10B7B
330
747D
100
AcDbEntity
  8
仕様書枠
 48
50.0
100
AcDbLine
 10
13107.2
 20
800.0
 30
0.0
 11
14251.2
 21
800.0
 31
0.0
  0
LINE
  5
10B88
330
747D
100
AcDbEntity
  8
仕様書枠
  6
Continuous
 48
50.0
100
AcDbLine
 10
14251.2
 20
1200.0
 30
0.0
 11
14251.2
 21
800.0
 31
0.0
  0
LINE
  5
127A8
330
747D
100
AcDbEntity
  8
部品1
100
AcDbLine
 10
2750.903465777274
 20
2567.835409280926
 30
0.0
 11
2900.903465777274
 21
2567.835409280926
 31
0.0
  0
LINE
  5
127A9
330
747D
100
AcDbEntity
  8
部品1
100
AcDbLine
 10
2825.903465777274
 20
2437.931598713261
 30
0.0
 11
2750.903465777274
 21
2567.835409280926
 31
0.0
  0
TEXT
  5
127AA
330
747D
100
AcDbEntity
  8
部品1
100
AcDbText
 10
2929.008407902047
 20
2474.038502319163
 30
0.0
 40
125.0
  1
G.L
  7
MSGOTHIC
100
AcDbText
  0
LINE
  5
127AB
330
747D
100
AcDbEntity
  8
部品1
100
AcDbLine
 10
2900.903465777274
 20
2567.835409280926
 30
0.0
 11
2825.903465777274
 21
2437.931598713261
 31
0.0
  0
LINE
  5
13C1F
330
747D
100
AcDbEntity
  8
部品1
100
AcDbLine
 10
3739.673057123657
 20
4471.931598713267
 30
0.0
 11
3739.673057123657
 21
2437.931598713261
 31
0.0
  0
LINE
  5
13CFC
330
747D
100
AcDbEntity
  8
部品1
100
AcDbLine
 10
7794.673057123657
 20
4212.931598713261
 30
0.0
 11
7794.673057123656
 21
2537.931598713262
 31
0.0
  0
LINE
  5
13CFE
330
747D
100
AcDbEntity
  8
部品1
100
AcDbLine
 10
3794.673057123656
 20
4212.931598713261
 30
0.0
 11
3794.673057123656
 21
2537.931598713262
 31
0.0
  0
LINE
  5
13D18
330
747D
100
AcDbEntity
  8
部品1
100
AcDbLine
 10
7849.673057123658
 20
4471.931598713269
 30
0.0
 11
7849.673057123657
 21
2437.931598713261
 31
0.0
  0
LINE
  5
146B2
330
747D
100
AcDbEntity
  8
破線
 48
5.0
100
AcDbLine
 10
7849.673057123657
 20
2437.931598713261
 30
0.0
 11
7849.673057123657
 21
2187.931598713261
 31
0.0
  0
LINE
  5
146B3
330
747D
100
AcDbEntity
  8
破線
 48
5.0
100
AcDbLine
 10
3739.673057123657
 20
2437.931598713261
 30
0.0
 11
3739.673057123656
 21
2187.931598713261
 31
0.0
  0
TEXT
  5
149A1
330
747D
100
AcDbEntity
  8
部品1
100
AcDbText
 10
5454.531393724808
 20
1652.272217552549
 30
0.0
 40
135.0
  1
正面図
  7
MSGOTHIC
100
AcDbText
  0
LWPOLYLINE
  5
149A2
330
747D
100
AcDbEntity
  8
部品1
100
AcDbPolyline
 90
        4
 70
     1
 43
0.0
 10
5364.005989986853
 20
1845.165746771073
 10
5364.005989986853
 20
1605.273425225541
 10
6127.476656215292
 20
1605.273425225541
 10
6127.476656215292
 20
1845.165746771073
  0
TEXT
  5
149A3
330
747D
100
AcDbEntity
  8
部品1
100
AcDbText
 10
11695.88333322443
 20
1652.272217552549
 30
0.0
 40
135.0
  1
側面図
  7
MSGOTHIC
100
AcDbText
  0
LWPOLYLINE
  5
149A4
330
747D
100
AcDbEntity
  8
部品1
100
AcDbPolyline
 90
        4
 70
     1
 43
0.0
 10
11606.43723180082
 20
1845.165746771073
 10
11606.43723180082
 20
1605.273425225541
 10
12369.90789802926
 20
1605.273425225541
 10
12369.90789802926
 20
1845.165746771073
  0
TEXT
  5
14E88
330
747D
100
AcDbEntity
  8
部品1
100
AcDbText
 10
5453.925599815891
 20
6216.903127704578
 30
0.0
 40
135.0
  1
平面図
  7
MSGOTHIC
100
AcDbText
  0
LWPOLYLINE
  5
14E89
330
747D
100
AcDbEntity
  8
部品1
100
AcDbPolyline
 90
        4
 70
     1
 43
0.0
 10
5364.005989986853
 20
6409.796656923102
 10
5364.005989986853
 20
6169.904335377569
 10
6127.476656215293
 20
6169.904335377569
 10
6127.476656215293
 20
6409.796656923102
  0
TEXT
  5
15550
330
747D
100
AcDbEntity
  8
文字
 62
     7
 48
50.0
100
AcDbText
 10
14647.81206407149
 20
871.9640646083623
 30
0.0
 40
100.0
  1
～一般型・多雪地型～
  7
STYLE2
100
AcDbText
  0
LINE
  5
15CE5
330
747D
100
AcDbEntity
  8
破線
 48
5.0
100
AcDbLine
 10
7794.673057123656
 20
2537.931598713262
 30
0.0
 11
7794.673057123657
 21
2187.931598713261
 31
0.0
  0
LINE
  5
15CE6
330
747D
100
AcDbEntity
  8
破線
 48
5.0
100
AcDbLine
 10
3794.673057123656
 20
2537.931598713262
 30
0.0
 11
3794.673057123656
 21
2187.931598713261
 31
0.0
  0
LINE
  5
15CE7
330
747D
100
AcDbEntity
  8
破線
 48
5.0
100
AcDbLine
 10
7849.673057123656
 20
2187.931598713261
 30
0.0
 11
7794.673057123657
 21
2187.931598713261
 31
0.0
  0
LINE
  5
15CE8
330
747D
100
AcDbEntity
  8
破線
 48
5.0
100
AcDbLine
 10
3794.673057123655
 20
2187.931598713269
 30
0.0
 11
3739.673057123656
 21
2187.931598713269
 31
0.0
  0
LINE
  5
15CE9
330
747D
100
AcDbEntity
  8
部品1
100
AcDbLine
 10
3842.673057123657
 20
4212.931598713261
 30
0.0
 11
3842.673057123657
 21
2537.931598713262
 31
0.0
  0
LINE
  5
15CEA
330
747D
100
AcDbEntity
  8
破線
 48
5.0
100
AcDbLine
 10
3842.673057123657
 20
2537.931598713262
 30
0.0
 11
3842.673057123656
 21
2287.931598713267
 31
0.0
  0
LINE
  5
15CEB
330
747D
100
AcDbEntity
  8
部品1
100
AcDbLine
 10
7746.673057123658
 20
4212.931598713262
 30
0.0
 11
7746.673057123655
 21
2537.931598713262
 31
0.0
  0
LINE
  5
15CEC
330
747D
100
AcDbEntity
  8
破線
 48
5.0
100
AcDbLine
 10
7746.673057123655
 20
2537.931598713262
 30
0.0
 11
7746.673057123658
 21
2287.931598713262
 31
0.0
  0
LINE
  5
15CED
330
747D
100
AcDbEntity
  8
破線
 48
5.0
100
AcDbLine
 10
7794.673057123659
 20
2287.931598713262
 30
0.0
 11
7746.673057123657
 21
2287.931598713262
 31
0.0
  0
LINE
  5
15CEE
330
747D
100
AcDbEntity
  8
破線
 48
5.0
100
AcDbLine
 10
3842.673057123656
 20
2287.931598713267
 30
0.0
 11
3794.673057123655
 21
2287.931598713267
 31
0.0
  0
LINE
  5
15D20
330
747D
100
AcDbEntity
  8
細線
100
AcDbLine
 10
6582.673057123654
 20
4172.931598713261
 30
0.0
 11
7746.673057123655
 21
4172.931598713261
 31
0.0
  0
LINE
  5
15D23
330
747D
100
AcDbEntity
  8
細線
100
AcDbLine
 10
6582.673057123654
 20
3782.931598713262
 30
0.0
 11
7746.673057123655
 21
3782.931598713262
 31
0.0
  0
LINE
  5
15D24
330
747D
100
AcDbEntity
  8
細線
100
AcDbLine
 10
6582.673057123654
 20
3847.931598713262
 30
0.0
 11
7746.673057123655
 21
3847.931598713262
 31
0.0
  0
LINE
  5
15D25
330
747D
100
AcDbEntity
  8
細線
100
AcDbLine
 10
6582.673057123654
 20
3912.931598713262
 30
0.0
 11
7746.673057123655
 21
3912.931598713262
 31
0.0
  0
LINE
  5
15D26
330
747D
100
AcDbEntity
  8
細線
100
AcDbLine
 10
6582.673057123654
 20
3977.931598713261
 30
0.0
 11
7746.673057123655
 21
3977.931598713261
 31
0.0
  0
LINE
  5
15D27
330
747D
100
AcDbEntity
  8
細線
100
AcDbLine
 10
6582.673057123654
 20
4042.931598713261
 30
0.0
 11
7746.673057123655
 21
4042.931598713261
 31
0.0
  0
LINE
  5
15D28
330
747D
100
AcDbEntity
  8
細線
100
AcDbLine
 10
6582.673057123654
 20
4107.931598713261
 30
0.0
 11
7746.673057123655
 21
4107.931598713261
 31
0.0
  0
LINE
  5
15D29
330
747D
100
AcDbEntity
  8
細線
100
AcDbLine
 10
6582.673057123654
 20
3132.931598713261
 30
0.0
 11
7746.673057123655
 21
3132.931598713261
 31
0.0
  0
LINE
  5
15D2A
330
747D
100
AcDbEntity
  8
細線
100
AcDbLine
 10
6582.673057123654
 20
3197.931598713262
 30
0.0
 11
7746.673057123655
 21
3197.931598713262
 31
0.0
  0
LINE
  5
15D2B
330
747D
100
AcDbEntity
  8
細線
100
AcDbLine
 10
6582.673057123654
 20
3262.931598713262
 30
0.0
 11
7746.673057123655
 21
3262.931598713262
 31
0.0
  0
LINE
  5
15D2C
330
747D
100
AcDbEntity
  8
細線
100
AcDbLine
 10
6582.673057123654
 20
3327.931598713262
 30
0.0
 11
7746.673057123655
 21
3327.931598713262
 31
0.0
  0
LINE
  5
15D2D
330
747D
100
AcDbEntity
  8
細線
100
AcDbLine
 10
6582.673057123654
 20
3392.931598713261
 30
0.0
 11
7746.673057123655
 21
3392.931598713261
 31
0.0
  0
LINE
  5
15D2E
330
747D
100
AcDbEntity
  8
細線
100
AcDbLine
 10
6582.673057123654
 20
3457.931598713262
 30
0.0
 11
7746.673057123655
 21
3457.931598713262
 31
0.0
  0
LINE
  5
15D2F
330
747D
100
AcDbEntity
  8
細線
100
AcDbLine
 10
6582.673057123654
 20
3522.931598713262
 30
0.0
 11
7746.673057123655
 21
3522.931598713262
 31
0.0
  0
LINE
  5
15D30
330
747D
100
AcDbEntity
  8
細線
100
AcDbLine
 10
6582.673057123654
 20
3587.931598713261
 30
0.0
 11
7746.673057123655
 21
3587.931598713261
 31
0.0
  0
LINE
  5
15D31
330
747D
100
AcDbEntity
  8
細線
100
AcDbLine
 10
6582.673057123654
 20
3652.931598713261
 30
0.0
 11
7746.673057123655
 21
3652.931598713261
 31
0.0
  0
LINE
  5
15D32
330
747D
100
AcDbEntity
  8
細線
100
AcDbLine
 10
6582.673057123654
 20
3717.931598713261
 30
0.0
 11
7746.673057123655
 21
3717.931598713261
 31
0.0
  0
LINE
  5
15D36
330
747D
100
AcDbEntity
  8
細線
100
AcDbLine
 10
6582.673057123654
 20
2547.931598713262
 30
0.0
 11
7746.673057123655
 21
2547.931598713262
 31
0.0
  0
LINE
  5
15D37
330
747D
100
AcDbEntity
  8
細線
100
AcDbLine
 10
6582.673057123654
 20
2612.931598713262
 30
0.0
 11
7746.673057123655
 21
2612.931598713262
 31
0.0
  0
LINE
  5
15D38
330
747D
100
AcDbEntity
  8
細線
100
AcDbLine
 10
6582.673057123654
 20
2677.931598713261
 30
0.0
 11
7746.673057123655
 21
2677.931598713261
 31
0.0
  0
LINE
  5
15D39
330
747D
100
AcDbEntity
  8
細線
100
AcDbLine
 10
6582.673057123654
 20
2742.931598713262
 30
0.0
 11
7746.673057123655
 21
2742.931598713262
 31
0.0
  0
LINE
  5
15D3A
330
747D
100
AcDbEntity
  8
細線
100
AcDbLine
 10
6582.673057123654
 20
2807.931598713262
 30
0.0
 11
7746.673057123655
 21
2807.931598713262
 31
0.0
  0
LINE
  5
15D3B
330
747D
100
AcDbEntity
  8
細線
100
AcDbLine
 10
6582.673057123654
 20
2872.931598713261
 30
0.0
 11
7746.673057123655
 21
2872.931598713261
 31
0.0
  0
LINE
  5
15D3C
330
747D
100
AcDbEntity
  8
細線
100
AcDbLine
 10
6582.673057123654
 20
2937.931598713261
 30
0.0
 11
7746.673057123655
 21
2937.931598713261
 31
0.0
  0
LINE
  5
15D3D
330
747D
100
AcDbEntity
  8
細線
100
AcDbLine
 10
6582.673057123654
 20
3002.931598713261
 30
0.0
 11
7746.673057123655
 21
3002.931598713261
 31
0.0
  0
LINE
  5
15D3E
330
747D
100
AcDbEntity
  8
細線
100
AcDbLine
 10
6582.673057123654
 20
3067.931598713262
 30
0.0
 11
7746.673057123655
 21
3067.931598713262
 31
0.0
  0
LINE
  5
15D3F
330
747D
100
AcDbEntity
  8
細線
100
AcDbLine
 10
7746.673057123657
 20
2547.931598713262
 30
0.0
 11
6582.673057123651
 21
2547.931598713262
 31
0.0
  0
DIMENSION
  5
162CD
330
747D
100
AcDbEntity
  8
寸法
100
AcDbDimension
  2
*D1
 10
8497.09940285807
 20
7612.021693399518
 30
0.0
 11
8397.087591834447
 21
8872.021693399528
 31
0.0
 70
    32
  1
6X420=<>
 71
     5
 42
2520.000000000015
  3
INABA_S40G
100
AcDbAlignedDimension
 13
7849.673057123664
 23
10132.02169339953
 33
0.0
 14
7849.673057123638
 24
7612.021693399518
 34
0.0
 50
90.0
100
AcDbRotatedDimension
1001
ACAD
1000
DSTYLE
1002
{
1002
}
  0
DIMENSION
  5
162CE
330
747D
100
AcDbEntity
  8
寸法
100
AcDbDimension
  2
*D2
 10
8497.099402858051
 20
7557.021693399521
 30
0.0
 11
8497.099402858047
 21
7179.16022649466
 31
0.0
 70
   160
 71
     5
 42
54.99999999999636
  3
INABA_S40G
100
AcDbAlignedDimension
 13
7849.673057123638
 23
7612.021693399518
 33
0.0
 14
7849.673057123638
 24
7557.021693399521
 34
0.0
 50
90.0
100
AcDbRotatedDimension
1001
ACAD
1000
DSTYLE
1002
{
1002
}
  0
DIMENSION
  5
162CF
330
747D
100
AcDbEntity
  8
寸法
100
AcDbDimension
  2
*D3
 10
8497.099402858076
 20
10132.02169339953
 30
0.0
 11
8497.099402858074
 21
10495.50697477377
 31
0.0
 70
   160
 71
     5
 42
54.99999999999636
  3
INABA_S40G
100
AcDbAlignedDimension
 13
7849.673057123664
 23
10187.02169339953
 33
0.0
 14
7849.673057123664
 24
10132.02169339953
 34
0.0
 50
90.0
100
AcDbRotatedDimension
1001
ACAD
1000
DSTYLE
1002
{
1002
}
  0
DIMENSION
  5
162D0
330
747D
100
AcDbEntity
  8
寸法
100
AcDbDimension
  2
*D4
 10
8862.206344597709
 20
7557.021693399521
 30
0.0
 11
8762.194533574087
 21
8872.021693399528
 31
0.0
 70
    32
 71
     5
 42
2630.000000000007
  3
INABA_S40G
100
AcDbAlignedDimension
 13
7849.673057123664
 23
10187.02169339953
 33
0.0
 14
7849.673057123638
 24
7557.021693399521
 34
0.0
 50
90.0
100
AcDbRotatedDimension
1001
ACAD
1000
DSTYLE
1002
{
1002
}
  0
LINE
  5
162DC
330
747D
100
AcDbEntity
  8
部品1
100
AcDbLine
 10
7821.673057123648
 20
10159.02169339953
 30
0.0
 11
7821.673057123641
 21
7612.021693399518
 31
0.0
  0
LINE
  5
162DD
330
747D
100
AcDbEntity
  8
部品1
100
AcDbLine
 10
3767.673057123638
 20
7612.021693399388
 30
0.0
 11
3767.67305712365
 21
10159.02169339943
 31
0.0
  0
LINE
  5
162DE
330
747D
100
AcDbEntity
  8
部品1
100
AcDbLine
 10
7849.673057123664
 20
10187.02169339953
 30
0.0
 11
7849.673057123638
 21
7557.021693399521
 31
0.0
  0
LINE
  5
162DF
330
747D
100
AcDbEntity
  8
部品1
100
AcDbLine
 10
3739.67305712363
 20
10187.0216933994
 30
0.0
 11
3739.673057123657
 21
7557.021693399391
 31
0.0
  0
DIMENSION
  5
162E4
330
747D
100
AcDbEntity
  8
寸法
 48
50.0
100
AcDbDimension
  2
*D5
 10
6582.673057123656
 20
7022.590922633266
 30
0.0
 11
7164.673057123647
 21
7222.590922633266
 31
0.0
 70
    32
  1
有効開口部間口\P <>
 71
     5
 42
1163.999999999981
  3
INABA_S40G
100
AcDbAlignedDimension
 13
7746.673057123638
 23
7583.02169339943
 33
0.0
 14
6582.673057123656
 24
7583.021693399429
 34
0.0
100
AcDbRotatedDimension
1001
ACAD
1000
DSTYLE
1002
{
1070
    75
1070
     1
1070
   279
1070
     2
1002
}
  0
LINE
  5
162E6
330
747D
100
AcDbEntity
  8
部品1
 48
50.0
100
AcDbLine
 10
6546.673057123655
 20
7602.521693399428
 30
0.0
 11
7782.673057123641
 21
7602.521693399428
 31
0.0
  0
DIMENSION
  5
162E7
330
747D
100
AcDbEntity
  8
寸法
100
AcDbDimension
  2
*D6
 10
7849.673057123628
 20
6576.417927042392
 30
0.0
 11
5794.673057123642
 21
6676.417927042392
 31
0.0
 70
    32
  1
N X 1370
 71
     5
 42
4109.999999999971
  3
INABA_S40G
100
AcDbAlignedDimension
 13
3739.673057123657
 23
7557.021693399427
 33
0.0
 14
7849.673057123628
 24
7557.021693399521
 34
0.0
100
AcDbRotatedDimension
1001
ACAD
1000
DSTYLE
1002
{
1002
}
  0
LINE
  5
162E8
330
747D
100
AcDbEntity
  8
部品1
100
AcDbLine
 10
3794.673057123633
 20
10132.02169339945
 30
0.0
 11
3794.673057123655
 21
7622.021693399429
 31
0.0
  0
LINE
  5
162E9
330
747D
100
AcDbEntity
  8
部品1
100
AcDbLine
 10
3819.673057123635
 20
10132.02169339945
 30
0.0
 11
3819.673057123655
 21
7622.021693399429
 31
0.0
  0
DIMENSION
  5
162EA
330
747D
100
AcDbEntity
  8
寸法
 48
50.0
100
AcDbDimension
  2
*D7
 10
3739.673057123657
 20
7022.590922633266
 30
0.0
 11
3431.187775749418
 21
7022.590922633266
 31
0.0
 70
   160
 71
     5
 42
54.99999999999636
  3
INABA_S40G
100
AcDbAlignedDimension
 13
3794.673057123653
 23
7557.02169339943
 33
0.0
 14
3739.673057123657
 24
7557.021693399427
 34
0.0
100
AcDbRotatedDimension
1001
ACAD
1000
DSTYLE
1002
{
1002
}
  0
DIMENSION
  5
162EB
330
747D
100
AcDbEntity
  8
寸法
 48
50.0
100
AcDbDimension
  2
*D8
 10
6534.673057123653
 20
7022.590922633266
 30
0.0
 11
6695.575028123714
 21
7122.590922633266
 31
0.0
 70
   160
 71
     5
 42
48.00000000000363
  3
INABA_S40G
100
AcDbAlignedDimension
 13
6582.673057123656
 23
7583.021693399429
 33
0.0
 14
6534.673057123653
 24
7557.02169339943
 34
0.0
100
AcDbRotatedDimension
1001
ACAD
1000
DSTYLE
1002
{
1070
   279
1070
     2
1002
}
  0
LINE
  5
162EC
330
747D
100
AcDbEntity
  8
部品1
100
AcDbLine
 10
3794.673057123651
 20
7557.02169339943
 30
0.0
 11
3739.673057123657
 21
7557.021693399427
 31
0.0
  0
LINE
  5
162ED
330
747D
100
AcDbEntity
  8
部品1
 48
50.0
100
AcDbLine
 10
3794.673057123656
 20
7593.021693399428
 30
0.0
 11
3771.673057123657
 21
7593.021693399428
 31
0.0
  0
LINE
  5
162EE
330
747D
100
AcDbEntity
  8
部品1
 48
50.0
100
AcDbLine
 10
3804.673057123657
 20
7583.021693399429
 30
0.0
 11
3794.673057123656
 21
7562.021693399429
 31
0.0
  0
LINE
  5
162EF
330
747D
100
AcDbEntity
  8
部品1
 48
50.0
100
AcDbLine
 10
3794.673057123656
 20
7622.021693399429
 30
0.0
 11
3794.673057123653
 21
7557.02169339943
 31
0.0
  0
LINE
  5
162F0
330
747D
100
AcDbEntity
  8
部品1
 48
50.0
100
AcDbLine
 10
3842.673057123657
 20
7583.02169339943
 30
0.0
 11
3842.673057123657
 21
7592.021693399431
 31
0.0
  0
LINE
  5
162F1
330
747D
100
AcDbEntity
  8
部品1
 48
50.0
100
AcDbLine
 10
3842.673057123657
 20
7622.021693399431
 30
0.0
 11
3842.673057123657
 21
7613.021693399431
 31
0.0
  0
LINE
  5
162F2
330
747D
100
AcDbEntity
  8
部品1
100
AcDbLine
 10
3842.673057123657
 20
7622.021693399431
 30
0.0
 11
3794.673057123656
 21
7622.021693399429
 31
0.0
  0
LINE
  5
162F3
330
747D
100
AcDbEntity
  8
部品1
100
AcDbLine
 10
3842.673057123657
 20
7583.02169339943
 30
0.0
 11
3794.673057123656
 21
7583.021693399429
 31
0.0
  0
LINE
  5
162F4
330
747D
100
AcDbEntity
  8
部品1
100
AcDbLine
 10
3794.673057123655
 20
7593.021693399428
 30
0.0
 11
3771.673057123657
 21
7593.021693399428
 31
0.0
  0
LINE
  5
162F5
330
747D
100
AcDbEntity
  8
部品1
100
AcDbLine
 10
3794.673057123655
 20
7612.021693399355
 30
0.0
 11
3739.673057123655
 21
7612.021693399355
 31
0.0
  0
LINE
  5
162F6
330
747D
100
AcDbEntity
  8
部品1
100
AcDbLine
 10
3767.673057123638
 20
7612.02169339939
 30
0.0
 11
3739.673057123655
 21
7612.02169339939
 31
0.0
  0
LINE
  5
162F7
330
747D
100
AcDbEntity
  8
部品1
100
AcDbLine
 10
3767.673057123655
 20
7612.021693399405
 30
0.0
 11
3739.673057123655
 21
7612.021693399405
 31
0.0
  0
LINE
  5
162FB
330
747D
100
AcDbEntity
  8
部品1
100
AcDbLine
 10
3767.673057123644
 20
8032.021693399405
 30
0.0
 11
3739.673057123644
 21
8032.021693399405
 31
0.0
  0
LINE
  5
162FC
330
747D
100
AcDbEntity
  8
部品1
100
AcDbLine
 10
3767.673057123644
 20
8452.021693399405
 30
0.0
 11
3739.673057123644
 21
8452.021693399405
 31
0.0
  0
LINE
  5
162FE
330
747D
100
AcDbEntity
  8
部品1
100
AcDbLine
 10
3767.673057123637
 20
8872.021693399405
 30
0.0
 11
3739.673057123637
 21
8872.021693399405
 31
0.0
  0
LINE
  5
162FF
330
747D
100
AcDbEntity
  8
部品1
100
AcDbLine
 10
7794.673057123659
 20
10132.02169339945
 30
0.0
 11
7794.67305712364
 21
7557.021693399518
 31
0.0
  0
LINE
  5
16300
330
747D
100
AcDbEntity
  8
部品1
100
AcDbLine
 10
7769.673057123664
 20
10132.02169339945
 30
0.0
 11
7769.67305712364
 21
7622.021693399429
 31
0.0
  0
DIMENSION
  5
16301
330
747D
100
AcDbEntity
  8
寸法
 48
50.0
100
AcDbDimension
  2
*D9
 10
7746.673057123638
 20
7022.590922633266
 30
0.0
 11
7635.710159474891
 21
7122.590922633266
 31
0.0
 70
   160
 71
     5
 42
48.00000000000181
  3
INABA_S40G
100
AcDbAlignedDimension
 13
7794.67305712364
 23
7557.021693399518
 33
0.0
 14
7746.673057123638
 24
7583.02169339943
 34
0.0
100
AcDbRotatedDimension
1001
ACAD
1000
DSTYLE
1002
{
1070
   279
1070
     2
1002
}
  0
DIMENSION
  5
16302
330
747D
100
AcDbEntity
  8
寸法
 48
50.0
100
AcDbDimension
  2
*D10
 10
7794.67305712364
 20
7022.590922633267
 30
0.0
 11
8158.158338497877
 21
7022.590922633267
 31
0.0
 70
   160
 71
     5
 42
54.99999999999818
  3
INABA_S40G
100
AcDbAlignedDimension
 13
7849.673057123638
 23
7557.021693399521
 33
0.0
 14
7794.67305712364
 24
7557.021693399518
 34
0.0
100
AcDbRotatedDimension
1001
ACAD
1000
DSTYLE
1002
{
1002
}
  0
LINE
  5
16303
330
747D
100
AcDbEntity
  8
部品1
 48
50.0
100
AcDbLine
 10
7784.673057123639
 20
7583.021693399429
 30
0.0
 11
7794.673057123638
 21
7562.021693399429
 31
0.0
  0
LINE
  5
16304
330
747D
100
AcDbEntity
  8
部品1
100
AcDbLine
 10
7746.673057123638
 20
7622.021693399431
 30
0.0
 11
7794.67305712364
 21
7622.021693399429
 31
0.0
  0
LINE
  5
16305
330
747D
100
AcDbEntity
  8
部品1
100
AcDbLine
 10
7746.673057123638
 20
7583.02169339943
 30
0.0
 11
7794.673057123638
 21
7583.021693399429
 31
0.0
  0
LINE
  5
16306
330
747D
100
AcDbEntity
  8
部品1
 48
50.0
100
AcDbLine
 10
7746.673057123638
 20
7622.021693399431
 30
0.0
 11
7746.673057123638
 21
7613.021693399431
 31
0.0
  0
LINE
  5
16307
330
747D
100
AcDbEntity
  8
部品1
 48
50.0
100
AcDbLine
 10
7746.673057123638
 20
7583.02169339943
 30
0.0
 11
7746.673057123638
 21
7592.021693399431
 31
0.0
  0
LINE
  5
16308
330
747D
100
AcDbEntity
  8
部品1
100
AcDbLine
 10
7794.673057123638
 20
7593.021693399428
 30
0.0
 11
7817.673057123639
 21
7593.021693399428
 31
0.0
  0
LINE
  5
16309
330
747D
100
AcDbEntity
  8
部品1
100
AcDbLine
 10
7794.673057123638
 20
7612.021693399532
 30
0.0
 11
7849.673057123671
 21
7612.021693399532
 31
0.0
  0
LINE
  5
1630A
330
747D
100
AcDbEntity
  8
部品1
100
AcDbLine
 10
7849.673057123638
 20
7557.021693399521
 30
0.0
 11
7794.67305712364
 21
7557.021693399518
 31
0.0
  0
LINE
  5
16317
330
747D
100
AcDbEntity
  8
部品1
100
AcDbLine
 10
7821.673057123668
 20
8032.021693399533
 30
0.0
 11
7849.673057123668
 21
8032.021693399533
 31
0.0
  0
LINE
  5
16319
330
747D
100
AcDbEntity
  8
部品1
100
AcDbLine
 10
7821.673057123668
 20
8452.021693399533
 30
0.0
 11
7849.673057123668
 21
8452.021693399533
 31
0.0
  0
LINE
  5
1631A
330
747D
100
AcDbEntity
  8
部品1
100
AcDbLine
 10
7821.673057123664
 20
8872.021693399533
 30
0.0
 11
7849.673057123664
 21
8872.021693399533
 31
0.0
  0
LINE
  5
1631B
330
747D
100
AcDbEntity
  8
部品1
100
AcDbLine
 10
6534.673057123663
 20
10159.02169339955
 30
0.0
 11
6954.673057123663
 21
10159.02169339955
 31
0.0
  0
LINE
  5
1631C
330
747D
100
AcDbEntity
  8
部品1
100
AcDbLine
 10
6507.673057123664
 20
10159.02169339943
 30
0.0
 11
6744.673057123662
 21
10159.02169339944
 31
0.0
  0
LINE
  5
1631D
330
747D
100
AcDbEntity
  8
部品1
100
AcDbLine
 10
3739.673057123662
 20
10187.02169339943
 30
0.0
 11
7849.673057123664
 21
10187.02169339953
 31
0.0
  0
DIMENSION
  5
1631F
330
747D
100
AcDbEntity
  8
寸法
100
AcDbDimension
  2
*D11
 10
7794.673057123664
 20
10402.82991302453
 30
0.0
 11
7164.673057123664
 21
10502.84172404815
 31
0.0
 70
    32
  1
3X420=<>
 71
     5
 42
1260.000000000001
  3
INABA_S40G
100
AcDbAlignedDimension
 13
6534.673057123663
 23
10187.02169339943
 33
0.0
 14
7794.673057123664
 24
10187.02169339953
 34
0.0
100
AcDbRotatedDimension
1001
ACAD
1000
DSTYLE
1002
{
1002
}
  0
DIMENSION
  5
16320
330
747D
100
AcDbEntity
  8
寸法
100
AcDbDimension
  2
*D12
 10
3794.673057123663
 20
10402.82991302441
 30
0.0
 11
3431.18777574939
 21
10402.82991302441
 31
0.0
 70
   160
 71
     5
 42
55.00000000003456
  3
INABA_S40G
100
AcDbAlignedDimension
 13
3739.673057123628
 23
10187.02169339943
 33
0.0
 14
3794.673057123663
 24
10187.02169339943
 34
0.0
100
AcDbRotatedDimension
1001
ACAD
1000
DSTYLE
1002
{
1002
}
  0
LINE
  5
16321
330
747D
100
AcDbEntity
  8
部品1
100
AcDbLine
 10
3794.67305712363
 20
10187.0216933994
 30
0.0
 11
3794.67305712363
 21
10159.0216933994
 31
0.0
  0
LINE
  5
16322
330
747D
100
AcDbEntity
  8
部品1
100
AcDbLine
 10
3794.673057123662
 20
10187.02169339943
 30
0.0
 11
3794.673057123662
 21
10159.02169339943
 31
0.0
  0
LINE
  5
16323
330
747D
100
AcDbEntity
  8
部品1
100
AcDbLine
 10
3767.67305712363
 20
10132.0216933994
 30
0.0
 11
3739.67305712363
 21
10132.0216933994
 31
0.0
  0
LINE
  5
16327
330
747D
100
AcDbEntity
  8
部品1
100
AcDbLine
 10
6954.673057123663
 20
10159.02169339955
 30
0.0
 11
7821.673057123664
 21
10159.02169339953
 31
0.0
  0
LINE
  5
1632C
330
747D
100
AcDbEntity
  8
部品1
100
AcDbLine
 10
6954.673057123663
 20
10187.02169339955
 30
0.0
 11
6954.673057123663
 21
10159.02169339955
 31
0.0
  0
DIMENSION
  5
16333
330
747D
100
AcDbEntity
  8
寸法
100
AcDbDimension
  2
*D13
 10
7849.673057123664
 20
10402.82991302451
 30
0.0
 11
8158.158338497903
 21
10402.82991302451
 31
0.0
 70
   160
 71
     5
 42
55.0
  3
INABA_S40G
100
AcDbAlignedDimension
 13
7794.673057123664
 23
10187.02169339953
 33
0.0
 14
7849.673057123664
 24
10187.02169339953
 34
0.0
100
AcDbRotatedDimension
1001
ACAD
1000
DSTYLE
1002
{
1002
}
  0
LINE
  5
16334
330
747D
100
AcDbEntity
  8
部品1
100
AcDbLine
 10
7374.673057123662
 20
10187.02169339955
 30
0.0
 11
7374.673057123662
 21
10159.02169339955
 31
0.0
  0
LINE
  5
16335
330
747D
100
AcDbEntity
  8
部品1
100
AcDbLine
 10
7794.673057123664
 20
10187.02169339953
 30
0.0
 11
7794.673057123664
 21
10159.02169339953
 31
0.0
  0
LINE
  5
16336
330
747D
100
AcDbEntity
  8
部品1
100
AcDbLine
 10
7794.673057123664
 20
10187.02169339955
 30
0.0
 11
7794.673057123664
 21
10159.02169339955
 31
0.0
  0
LINE
  5
16337
330
747D
100
AcDbEntity
  8
部品1
100
AcDbLine
 10
7821.673057123664
 20
10132.02169339953
 30
0.0
 11
7849.673057123664
 21
10132.02169339953
 31
0.0
  0
LINE
  5
1655C
330
747D
100
AcDbEntity
  8
部品1
100
AcDbLine
 10
6376.673057123658
 20
4212.931598713262
 30
0.0
 11
6376.673057123656
 21
2537.931598713262
 31
0.0
  0
LINE
  5
1655D
330
747D
100
AcDbEntity
  8
部品1
100
AcDbLine
 10
6424.673057123655
 20
4212.931598713261
 30
0.0
 11
6424.673057123655
 21
2537.931598713262
 31
0.0
  0
LINE
  5
1655E
330
747D
100
AcDbEntity
  8
破線
 48
5.0
100
AcDbLine
 10
6376.673057123656
 20
2537.931598713262
 30
0.0
 11
6376.673057123656
 21
2287.931598713262
 31
0.0
  0
LINE
  5
1655F
330
747D
100
AcDbEntity
  8
破線
 48
5.0
100
AcDbLine
 10
6424.673057123658
 20
2287.931598713262
 30
0.0
 11
6376.673057123657
 21
2287.931598713262
 31
0.0
  0
LINE
  5
16560
330
747D
100
AcDbEntity
  8
破線
 48
5.0
100
AcDbLine
 10
6424.673057123655
 20
2537.931598713262
 30
0.0
 11
6424.673057123655
 21
2262.931598713262
 31
0.0
  0
LINE
  5
16561
330
747D
100
AcDbEntity
  8
破線
 48
5.0
100
AcDbLine
 10
6534.673057123656
 20
2262.931598713262
 30
0.0
 11
6424.673057123657
 21
2262.931598713262
 31
0.0
  0
LINE
  5
16562
330
747D
100
AcDbEntity
  8
部品1
100
AcDbLine
 10
6582.673057123656
 20
4212.931598713261
 30
0.0
 11
6582.673057123656
 21
2537.931598713262
 31
0.0
  0
LINE
  5
16563
330
747D
100
AcDbEntity
  8
破線
 48
5.0
100
AcDbLine
 10
6582.673057123656
 20
2537.931598713262
 30
0.0
 11
6582.673057123655
 21
2287.931598713267
 31
0.0
  0
LINE
  5
16564
330
747D
100
AcDbEntity
  8
破線
 48
5.0
100
AcDbLine
 10
6582.673057123655
 20
2287.931598713267
 30
0.0
 11
6534.673057123654
 21
2287.931598713267
 31
0.0
  0
LINE
  5
16565
330
747D
100
AcDbEntity
  8
破線
 48
5.0
100
AcDbLine
 10
6534.673057123656
 20
2537.931598713262
 30
0.0
 11
6534.673057123656
 21
2262.931598713262
 31
0.0
  0
LINE
  5
16566
330
747D
100
AcDbEntity
  8
部品1
100
AcDbLine
 10
6534.673057123656
 20
4212.931598713261
 30
0.0
 11
6534.673057123656
 21
2537.931598713262
 31
0.0
  0
LINE
  5
16567
330
747D
100
AcDbEntity
  8
部品1
100
AcDbLine
 10
6534.673057123656
 20
4212.931598713261
 30
0.0
 11
7849.673057123658
 21
4212.931598713264
 31
0.0
  0
DIMENSION
  5
1659A
330
747D
100
AcDbEntity
  8
寸法
 48
50.0
100
AcDbDimension
  2
*D15
 10
6376.673057123639
 20
7022.590922633266
 30
0.0
 11
6265.710159474891
 21
7122.590922633266
 31
0.0
 70
   160
 71
     5
 42
48.00000000000181
  3
INABA_S40G
100
AcDbAlignedDimension
 13
6424.67305712364
 23
7557.021693399518
 33
0.0
 14
6376.673057123639
 24
7583.02169339943
 34
0.0
100
AcDbRotatedDimension
1001
ACAD
1000
DSTYLE
1002
{
1070
   279
1070
     2
1002
}
  0
DIMENSION
  5
1659C
330
747D
100
AcDbEntity
  8
寸法
 48
50.0
100
AcDbDimension
  2
*D14
 10
3794.673057123653
 20
7022.590922633266
 30
0.0
 11
3955.575028123714
 21
7122.590922633266
 31
0.0
 70
   160
 71
     5
 42
48.00000000000363
  3
INABA_S40G
100
AcDbAlignedDimension
 13
3842.673057123657
 23
7583.021693399429
 33
0.0
 14
3794.673057123653
 24
7557.02169339943
 34
0.0
100
AcDbRotatedDimension
1001
ACAD
1000
DSTYLE
1002
{
1070
   279
1070
     2
1002
}
  0
DIMENSION
  5
165E9
330
747D
100
AcDbEntity
  8
寸法
 48
50.0
100
AcDbDimension
  2
*D16
 10
6424.67305712364
 20
7022.590922633267
 30
0.0
 11
6479.673057123647
 21
6870.899027597035
 31
0.0
 70
   160
 71
     5
 42
110.0000000000127
  3
INABA_S40G
100
AcDbAlignedDimension
 13
6534.673057123653
 23
7557.02169339943
 33
0.0
 14
6424.67305712364
 24
7557.021693399518
 34
0.0
100
AcDbRotatedDimension
1001
ACAD
1000
DSTYLE
1002
{
1070
   279
1070
     2
1002
}
  0
LINE
  5
16656
330
747D
100
AcDbEntity
  8
部品1
100
AcDbLine
 10
6376.673057123639
 20
7622.021693399431
 30
0.0
 11
6424.67305712364
 21
7622.021693399429
 31
0.0
  0
LINE
  5
16657
330
747D
100
AcDbEntity
  8
部品1
 48
50.0
100
AcDbLine
 10
6376.673057123639
 20
7622.021693399431
 30
0.0
 11
6376.673057123639
 21
7613.021693399431
 31
0.0
  0
LINE
  5
16658
330
747D
100
AcDbEntity
  8
部品1
100
AcDbLine
 10
6376.673057123639
 20
7583.02169339943
 30
0.0
 11
6424.673057123638
 21
7583.021693399429
 31
0.0
  0
LINE
  5
16659
330
747D
100
AcDbEntity
  8
部品1
 48
50.0
100
AcDbLine
 10
6376.673057123639
 20
7583.02169339943
 30
0.0
 11
6376.673057123639
 21
7592.021693399431
 31
0.0
  0
LINE
  5
1665A
330
747D
100
AcDbEntity
  8
部品1
 48
50.0
100
AcDbLine
 10
6414.673057123639
 20
7583.021693399429
 30
0.0
 11
6424.673057123638
 21
7562.021693399429
 31
0.0
  0
LINE
  5
1665B
330
747D
100
AcDbEntity
  8
部品1
100
AcDbLine
 10
6424.673057123638
 20
7593.021693399428
 30
0.0
 11
6447.673057123639
 21
7593.021693399428
 31
0.0
  0
LINE
  5
1665C
330
747D
100
AcDbEntity
  8
部品1
100
AcDbLine
 10
6582.673057123656
 20
7622.021693399431
 30
0.0
 11
6534.673057123656
 21
7622.021693399429
 31
0.0
  0
LINE
  5
1665D
330
747D
100
AcDbEntity
  8
部品1
 48
50.0
100
AcDbLine
 10
6582.673057123656
 20
7622.021693399431
 30
0.0
 11
6582.673057123656
 21
7613.021693399431
 31
0.0
  0
LINE
  5
1665E
330
747D
100
AcDbEntity
  8
部品1
100
AcDbLine
 10
6582.673057123656
 20
7583.02169339943
 30
0.0
 11
6534.673057123656
 21
7583.021693399429
 31
0.0
  0
LINE
  5
1665F
330
747D
100
AcDbEntity
  8
部品1
 48
50.0
100
AcDbLine
 10
6544.673057123657
 20
7583.021693399429
 30
0.0
 11
6534.673057123656
 21
7562.021693399429
 31
0.0
  0
LINE
  5
16660
330
747D
100
AcDbEntity
  8
部品1
100
AcDbLine
 10
6534.673057123656
 20
7593.021693399428
 30
0.0
 11
6511.673057123657
 21
7593.021693399428
 31
0.0
  0
LINE
  5
16661
330
747D
100
AcDbEntity
  8
部品1
 48
50.0
100
AcDbLine
 10
6534.673057123656
 20
7622.021693399429
 30
0.0
 11
6534.673057123653
 21
7557.02169339943
 31
0.0
  0
LINE
  5
16662
330
747D
100
AcDbEntity
  8
部品1
 48
50.0
100
AcDbLine
 10
6582.673057123656
 20
7583.02169339943
 30
0.0
 11
6582.673057123656
 21
7592.021693399431
 31
0.0
  0
LINE
  5
16663
330
747D
100
AcDbEntity
  8
部品1
100
AcDbLine
 10
6534.673057123652
 20
7557.02169339943
 30
0.0
 11
6424.673057123643
 21
7557.021693399424
 31
0.0
  0
LINE
  5
16664
330
747D
100
AcDbEntity
  8
部品1
 48
50.0
100
AcDbLine
 10
6424.673057123645
 20
7622.021693399517
 30
0.0
 11
6424.673057123641
 21
7557.021693399518
 31
0.0
  0
LINE
  5
16666
330
747D
100
AcDbEntity
  8
部品1
100
AcDbLine
 10
6534.673057123663
 20
10187.02169339943
 30
0.0
 11
6534.673057123663
 21
10159.02169339943
 31
0.0
  0
LINE
  5
16688
330
747D
100
AcDbEntity
  8
部品1
100
AcDbLine
 10
5137.673057123649
 20
10159.02169339955
 30
0.0
 11
6451.673057123631
 21
10159.02169339955
 31
0.0
  0
LINE
  5
16691
330
747D
100
AcDbEntity
  8
部品1
100
AcDbLine
 10
6004.673057123662
 20
10187.02169339955
 30
0.0
 11
6004.673057123662
 21
10159.02169339955
 31
0.0
  0
LINE
  5
16692
330
747D
100
AcDbEntity
  8
部品1
100
AcDbLine
 10
6424.673057123664
 20
10187.02169339953
 30
0.0
 11
6424.673057123664
 21
10159.02169339953
 31
0.0
  0
DIMENSION
  5
166DD
330
747D
100
AcDbEntity
  8
寸法
 48
50.0
100
AcDbDimension
  2
*D17
 10
6424.673057123664
 20
10402.82991302453
 30
0.0
 11
6479.673057123664
 21
10502.82991302453
 31
0.0
 70
    32
 71
     5
 42
109.9999999999991
  3
INABA_S40G
100
AcDbAlignedDimension
 13
6534.673057123663
 23
10187.02169339948
 33
0.0
 14
6424.673057123664
 24
10187.02169339948
 34
0.0
100
AcDbRotatedDimension
1001
ACAD
1000
DSTYLE
1002
{
1070
   279
1070
     2
1002
}
  0
LINE
  5
16760
330
747D
100
AcDbEntity
  8
部品1
 48
50.0
100
AcDbLine
 10
6479.67305712363
 20
10159.02169339947
 30
0.0
 11
6451.673057123631
 21
10187.02169339953
 31
0.0
  0
LINE
  5
16761
330
747D
100
AcDbEntity
  8
部品1
100
AcDbLine
 10
7794.673057123659
 20
10132.02169339945
 30
0.0
 11
6534.673057123644
 21
10132.02169339945
 31
0.0
  0
LINE
  5
16762
330
747D
100
AcDbEntity
  8
部品1
 48
50.0
100
AcDbLine
 10
6451.673057123631
 20
10159.02169339958
 30
0.0
 11
6451.673057123631
 21
10187.02169339953
 31
0.0
  0
LINE
  5
16763
330
747D
100
AcDbEntity
  8
部品1
 48
50.0
100
AcDbLine
 10
6451.673057123631
 20
10159.02169339947
 30
0.0
 11
6479.67305712363
 21
10159.02169339948
 31
0.0
  0
LINE
  5
168C3
330
747D
100
AcDbEntity
  8
部品1
100
AcDbLine
 10
6503.673057123648
 20
7612.021693399426
 30
0.0
 11
6455.673057123647
 21
7612.021693399426
 31
0.0
  0
LINE
  5
168C4
330
747D
100
AcDbEntity
  8
部品1
 48
50.0
100
AcDbLine
 10
6455.673057123647
 20
7612.021693399427
 30
0.0
 11
6455.67305712365
 21
7557.021693399427
 31
0.0
  0
LINE
  5
168C5
330
747D
100
AcDbEntity
  8
部品1
 48
50.0
100
AcDbLine
 10
6503.673057123648
 20
7612.021693399427
 30
0.0
 11
6503.67305712365
 21
7557.021693399427
 31
0.0
  0
DIMENSION
  5
16913
330
747D
100
AcDbEntity
  8
寸法
 48
50.0
100
AcDbDimension
  2
*D18
 10
7849.673057123664
 20
10652.15138658082
 30
0.0
 11
7164.673057123664
 21
10752.15138658082
 31
0.0
 70
    32
 71
     5
 42
1370.0
  3
INABA_S40G
100
AcDbAlignedDimension
 13
6479.673057123664
 23
10561.81782738248
 33
0.0
 14
7849.673057123664
 24
10187.02169339953
 34
0.0
100
AcDbRotatedDimension
1001
ACAD
1000
DSTYLE
1002
{
1070
    75
1070
     1
1070
   279
1070
     2
1002
}
  0
LINE
  5
172BC
330
747D
100
AcDbEntity
  8
部品1
 48
50.0
100
AcDbLine
 10
6507.673057123631
 20
10132.02169339945
 30
0.0
 11
6507.673057123696
 21
10187.02169339948
 31
0.0
  0
LINE
  5
172BD
330
747D
100
AcDbEntity
  8
部品1
 48
50.0
100
AcDbLine
 10
6451.673057123631
 20
10132.02169339945
 30
0.0
 11
6451.673057123631
 21
10159.02169339947
 31
0.0
  0
LINE
  5
174C8
330
747D
100
AcDbEntity
  8
部品1
 48
50.0
100
AcDbLine
 10
7769.673057123664
 20
10107.0216933994
 30
0.0
 11
6559.673057123617
 21
10107.02169339938
 31
0.0
  0
LINE
  5
174C9
330
747D
100
AcDbEntity
  8
部品1
 48
50.0
100
AcDbLine
 10
7821.673057123664
 20
10159.02169339953
 30
0.0
 11
7794.673057123659
 21
10132.02169339945
 31
0.0
  0
LINE
  5
174CA
330
747D
100
AcDbEntity
  8
部品1
 48
50.0
100
AcDbLine
 10
3794.673057123633
 20
10132.02169339945
 30
0.0
 11
3767.67305712365
 21
10159.02169339955
 31
0.0
  0
LINE
  5
17B10
330
747D
100
AcDbEntity
  8
細線
100
AcDbLine
 10
5006.673057123657
 20
2547.931598713262
 30
0.0
 11
3842.673057123651
 21
2547.931598713262
 31
0.0
  0
LINE
  5
17B13
330
747D
100
AcDbEntity
  8
部品1
100
AcDbLine
 10
5164.673057123657
 20
4212.931598713261
 30
0.0
 11
5164.673057123657
 21
2537.931598713262
 31
0.0
  0
LINE
  5
17B14
330
747D
100
AcDbEntity
  8
部品1
100
AcDbLine
 10
5212.673057123657
 20
4212.931598713261
 30
0.0
 11
5212.673057123657
 21
2537.931598713262
 31
0.0
  0
LINE
  5
17B15
330
747D
100
AcDbEntity
  8
部品1
100
AcDbLine
 10
5054.673057123657
 20
4212.931598713261
 30
0.0
 11
5054.673057123656
 21
2537.931598713262
 31
0.0
  0
LINE
  5
17B16
330
747D
100
AcDbEntity
  8
部品1
100
AcDbLine
 10
5006.673057123657
 20
4212.931598713264
 30
0.0
 11
5006.673057123656
 21
2537.931598713262
 31
0.0
  0
LINE
  5
17B1E
330
747D
100
AcDbEntity
  8
細線
100
AcDbLine
 10
3842.673057123653
 20
4172.931598713261
 30
0.0
 11
5006.673057123655
 21
4172.931598713261
 31
0.0
  0
LINE
  5
17B21
330
747D
100
AcDbEntity
  8
細線
100
AcDbLine
 10
3842.673057123653
 20
3782.931598713262
 30
0.0
 11
5006.673057123655
 21
3782.931598713262
 31
0.0
  0
LINE
  5
17B22
330
747D
100
AcDbEntity
  8
細線
100
AcDbLine
 10
3842.673057123653
 20
3847.931598713262
 30
0.0
 11
5006.673057123655
 21
3847.931598713262
 31
0.0
  0
LINE
  5
17B23
330
747D
100
AcDbEntity
  8
細線
100
AcDbLine
 10
3842.673057123653
 20
3912.931598713262
 30
0.0
 11
5006.673057123655
 21
3912.931598713262
 31
0.0
  0
LINE
  5
17B24
330
747D
100
AcDbEntity
  8
細線
100
AcDbLine
 10
3842.673057123653
 20
3977.931598713262
 30
0.0
 11
5006.673057123655
 21
3977.931598713262
 31
0.0
  0
LINE
  5
17B25
330
747D
100
AcDbEntity
  8
細線
100
AcDbLine
 10
3842.673057123653
 20
4042.931598713262
 30
0.0
 11
5006.673057123655
 21
4042.931598713262
 31
0.0
  0
LINE
  5
17B26
330
747D
100
AcDbEntity
  8
細線
100
AcDbLine
 10
3842.673057123653
 20
4107.931598713261
 30
0.0
 11
5006.673057123655
 21
4107.931598713261
 31
0.0
  0
LINE
  5
17B27
330
747D
100
AcDbEntity
  8
細線
100
AcDbLine
 10
3842.673057123653
 20
3132.931598713262
 30
0.0
 11
5006.673057123655
 21
3132.931598713262
 31
0.0
  0
LINE
  5
17B28
330
747D
100
AcDbEntity
  8
細線
100
AcDbLine
 10
3842.673057123653
 20
3197.931598713262
 30
0.0
 11
5006.673057123655
 21
3197.931598713262
 31
0.0
  0
LINE
  5
17B29
330
747D
100
AcDbEntity
  8
細線
100
AcDbLine
 10
3842.673057123653
 20
3262.931598713262
 30
0.0
 11
5006.673057123655
 21
3262.931598713262
 31
0.0
  0
LINE
  5
17B2A
330
747D
100
AcDbEntity
  8
細線
100
AcDbLine
 10
3842.673057123653
 20
3327.931598713262
 30
0.0
 11
5006.673057123655
 21
3327.931598713262
 31
0.0
  0
LINE
  5
17B2B
330
747D
100
AcDbEntity
  8
細線
100
AcDbLine
 10
3842.673057123653
 20
3392.931598713262
 30
0.0
 11
5006.673057123655
 21
3392.931598713262
 31
0.0
  0
LINE
  5
17B2C
330
747D
100
AcDbEntity
  8
細線
100
AcDbLine
 10
3842.673057123653
 20
3457.931598713262
 30
0.0
 11
5006.673057123655
 21
3457.931598713262
 31
0.0
  0
LINE
  5
17B2D
330
747D
100
AcDbEntity
  8
細線
100
AcDbLine
 10
3842.673057123653
 20
3522.931598713262
 30
0.0
 11
5006.673057123655
 21
3522.931598713262
 31
0.0
  0
LINE
  5
17B2E
330
747D
100
AcDbEntity
  8
細線
100
AcDbLine
 10
3842.673057123653
 20
3587.931598713262
 30
0.0
 11
5006.673057123655
 21
3587.931598713262
 31
0.0
  0
LINE
  5
17B2F
330
747D
100
AcDbEntity
  8
細線
100
AcDbLine
 10
3842.673057123653
 20
3652.931598713262
 30
0.0
 11
5006.673057123655
 21
3652.931598713262
 31
0.0
  0
LINE
  5
17B30
330
747D
100
AcDbEntity
  8
細線
100
AcDbLine
 10
3842.673057123653
 20
3717.931598713262
 30
0.0
 11
5006.673057123655
 21
3717.931598713262
 31
0.0
  0
LINE
  5
17B33
330
747D
100
AcDbEntity
  8
細線
100
AcDbLine
 10
3842.673057123653
 20
2612.931598713262
 30
0.0
 11
5006.673057123655
 21
2612.931598713262
 31
0.0
  0
LINE
  5
17B34
330
747D
100
AcDbEntity
  8
細線
100
AcDbLine
 10
3842.673057123653
 20
2677.931598713262
 30
0.0
 11
5006.673057123655
 21
2677.931598713262
 31
0.0
  0
LINE
  5
17B35
330
747D
100
AcDbEntity
  8
細線
100
AcDbLine
 10
3842.673057123653
 20
2742.931598713262
 30
0.0
 11
5006.673057123655
 21
2742.931598713262
 31
0.0
  0
LINE
  5
17B36
330
747D
100
AcDbEntity
  8
細線
100
AcDbLine
 10
3842.673057123653
 20
2807.931598713262
 30
0.0
 11
5006.673057123655
 21
2807.931598713262
 31
0.0
  0
LINE
  5
17B37
330
747D
100
AcDbEntity
  8
細線
100
AcDbLine
 10
3842.673057123653
 20
2872.931598713262
 30
0.0
 11
5006.673057123655
 21
2872.931598713262
 31
0.0
  0
LINE
  5
17B38
330
747D
100
AcDbEntity
  8
細線
100
AcDbLine
 10
3842.673057123653
 20
2937.931598713262
 30
0.0
 11
5006.673057123655
 21
2937.931598713262
 31
0.0
  0
LINE
  5
17B39
330
747D
100
AcDbEntity
  8
細線
100
AcDbLine
 10
3842.673057123653
 20
3002.931598713262
 30
0.0
 11
5006.673057123655
 21
3002.931598713262
 31
0.0
  0
LINE
  5
17B3A
330
747D
100
AcDbEntity
  8
細線
100
AcDbLine
 10
3842.673057123653
 20
3067.931598713262
 30
0.0
 11
5006.673057123655
 21
3067.931598713262
 31
0.0
  0
LINE
  5
17B5A
330
747D
100
AcDbEntity
  8
部品1
100
AcDbLine
 10
3739.673057123657
 20
4212.931598713261
 30
0.0
 11
5164.673057123657
 21
4212.931598713261
 31
0.0
  0
LINE
  5
17B5E
330
747D
100
AcDbEntity
  8
破線
 48
5.0
100
AcDbLine
 10
5164.673057123657
 20
2537.931598713262
 30
0.0
 11
5164.673057123657
 21
2262.931598713262
 31
0.0
  0
LINE
  5
17B5F
330
747D
100
AcDbEntity
  8
破線
 48
5.0
100
AcDbLine
 10
5212.673057123655
 20
2287.931598713267
 30
0.0
 11
5164.673057123655
 21
2287.931598713267
 31
0.0
  0
LINE
  5
17B60
330
747D
100
AcDbEntity
  8
破線
 48
5.0
100
AcDbLine
 10
5212.673057123657
 20
2537.931598713262
 30
0.0
 11
5212.673057123655
 21
2287.931598713267
 31
0.0
  0
LINE
  5
17B61
330
747D
100
AcDbEntity
  8
破線
 48
5.0
100
AcDbLine
 10
5164.673057123656
 20
2262.931598713262
 30
0.0
 11
5054.673057123657
 21
2262.931598713262
 31
0.0
  0
LINE
  5
17B62
330
747D
100
AcDbEntity
  8
破線
 48
5.0
100
AcDbLine
 10
5054.673057123656
 20
2537.931598713262
 30
0.0
 11
5054.673057123656
 21
2262.931598713262
 31
0.0
  0
LINE
  5
17B63
330
747D
100
AcDbEntity
  8
破線
 48
5.0
100
AcDbLine
 10
5054.673057123657
 20
2287.931598713262
 30
0.0
 11
5006.673057123657
 21
2287.931598713262
 31
0.0
  0
LINE
  5
17B64
330
747D
100
AcDbEntity
  8
破線
 48
5.0
100
AcDbLine
 10
5006.673057123656
 20
2537.931598713262
 30
0.0
 11
5006.673057123656
 21
2287.931598713262
 31
0.0
  0
DIMENSION
  5
17B86
330
747D
100
AcDbEntity
  8
寸法
 48
50.0
100
AcDbDimension
  2
*D23
 10
5109.673057123664
 20
10652.15138658082
 30
0.0
 11
4424.673057123646
 21
10752.15138658082
 31
0.0
 70
    32
 71
     5
 42
1370.000000000035
  3
INABA_S40G
100
AcDbAlignedDimension
 13
3739.673057123628
 23
10187.0216933994
 33
0.0
 14
5109.673057123664
 24
10561.81782738248
 34
0.0
100
AcDbRotatedDimension
1001
ACAD
1000
DSTYLE
1002
{
1070
   279
1070
     2
1002
}
  0
DIMENSION
  5
17B87
330
747D
100
AcDbEntity
  8
寸法
100
AcDbDimension
  2
*D21
 10
5054.673057123665
 20
10402.82991302453
 30
0.0
 11
4424.673057123664
 21
10502.84172404815
 31
0.0
 70
    32
  1
3X420=<>
 71
     5
 42
1260.000000000001
  3
INABA_S40G
100
AcDbAlignedDimension
 13
3794.673057123663
 23
10187.02169339943
 33
0.0
 14
5054.673057123665
 24
10187.02169339953
 34
0.0
100
AcDbRotatedDimension
1001
ACAD
1000
DSTYLE
1002
{
1002
}
  0
DIMENSION
  5
17B88
330
747D
100
AcDbEntity
  8
寸法
 48
50.0
100
AcDbDimension
  2
*D22
 10
5054.673057123665
 20
10402.82991302453
 30
0.0
 11
5109.673057123664
 21
10502.82991302453
 31
0.0
 70
    32
 71
     5
 42
109.9999999999991
  3
INABA_S40G
100
AcDbAlignedDimension
 13
5164.673057123663
 23
10187.02169339948
 33
0.0
 14
5054.673057123665
 24
10187.02169339948
 34
0.0
100
AcDbRotatedDimension
1001
ACAD
1000
DSTYLE
1002
{
1070
   279
1070
     2
1002
}
  0
LINE
  5
17B89
330
747D
100
AcDbEntity
  8
部品1
100
AcDbLine
 10
5137.67305712363
 20
10132.02169339945
 30
0.0
 11
5081.673057123631
 21
10132.02169339945
 31
0.0
  0
LINE
  5
17B8B
330
747D
100
AcDbEntity
  8
部品1
 48
50.0
100
AcDbLine
 10
5029.673057123634
 20
10107.02169339935
 30
0.0
 11
3819.673057123633
 21
10107.02169339935
 31
0.0
  0
LINE
  5
17B9A
330
747D
100
AcDbEntity
  8
部品1
 48
50.0
100
AcDbLine
 10
5081.673057123631
 20
10132.02169339945
 30
0.0
 11
5081.673057123631
 21
10159.02169339947
 31
0.0
  0
LINE
  5
17B9B
330
747D
100
AcDbEntity
  8
部品1
 48
50.0
100
AcDbLine
 10
5137.673057123631
 20
10132.02169339945
 30
0.0
 11
5137.673057123697
 21
10187.02169339948
 31
0.0
  0
LINE
  5
17B9C
330
747D
100
AcDbEntity
  8
部品1
 48
50.0
100
AcDbLine
 10
5133.673057123647
 20
7612.021693399427
 30
0.0
 11
5133.67305712365
 21
7557.021693399427
 31
0.0
  0
LINE
  5
17B9D
330
747D
100
AcDbEntity
  8
部品1
 48
50.0
100
AcDbLine
 10
5085.673057123647
 20
7612.021693399427
 30
0.0
 11
5085.67305712365
 21
7557.021693399427
 31
0.0
  0
LINE
  5
17B9E
330
747D
100
AcDbEntity
  8
部品1
100
AcDbLine
 10
5133.673057123647
 20
7612.021693399426
 30
0.0
 11
5085.673057123647
 21
7612.021693399426
 31
0.0
  0
LINE
  5
17B9F
330
747D
100
AcDbEntity
  8
部品1
 48
50.0
100
AcDbLine
 10
5081.673057123631
 20
10159.02169339947
 30
0.0
 11
5109.673057123629
 21
10159.02169339948
 31
0.0
  0
LINE
  5
17BA0
330
747D
100
AcDbEntity
  8
部品1
 48
50.0
100
AcDbLine
 10
5081.673057123631
 20
10159.02169339958
 30
0.0
 11
5081.67305712363
 21
10187.02169339953
 31
0.0
  0
LINE
  5
17BA1
330
747D
100
AcDbEntity
  8
部品1
 48
50.0
100
AcDbLine
 10
5109.673057123629
 20
10159.02169339947
 30
0.0
 11
5081.673057123631
 21
10187.02169339953
 31
0.0
  0
LINE
  5
17BA2
330
747D
100
AcDbEntity
  8
部品1
100
AcDbLine
 10
5054.673057123665
 20
10187.02169339953
 30
0.0
 11
5054.673057123665
 21
10159.02169339953
 31
0.0
  0
LINE
  5
17BA3
330
747D
100
AcDbEntity
  8
部品1
100
AcDbLine
 10
4634.673057123662
 20
10187.02169339955
 30
0.0
 11
4634.673057123662
 21
10159.02169339955
 31
0.0
  0
LINE
  5
17BA4
330
747D
100
AcDbEntity
  8
部品1
100
AcDbLine
 10
4214.673057123662
 20
10187.02169339943
 30
0.0
 11
4214.673057123662
 21
10159.02169339943
 31
0.0
  0
LINE
  5
17BA5
330
747D
100
AcDbEntity
  8
部品1
100
AcDbLine
 10
4214.673057123662
 20
10187.02169339943
 30
0.0
 11
4214.673057123662
 21
10159.02169339943
 31
0.0
  0
LINE
  5
17BA6
330
747D
100
AcDbEntity
  8
部品1
100
AcDbLine
 10
4214.673057123662
 20
10187.02169339955
 30
0.0
 11
4214.673057123662
 21
10159.02169339955
 31
0.0
  0
LINE
  5
17BA7
330
747D
100
AcDbEntity
  8
部品1
100
AcDbLine
 10
4214.673057123662
 20
10187.02169339943
 30
0.0
 11
4214.673057123662
 21
10159.02169339943
 31
0.0
  0
LINE
  5
17BA8
330
747D
100
AcDbEntity
  8
部品1
100
AcDbLine
 10
4214.673057123662
 20
10187.02169339943
 30
0.0
 11
4214.673057123662
 21
10159.02169339943
 31
0.0
  0
LINE
  5
17BA9
330
747D
100
AcDbEntity
  8
部品1
100
AcDbLine
 10
4214.673057123662
 20
10187.02169339955
 30
0.0
 11
4214.673057123662
 21
10159.02169339955
 31
0.0
  0
LINE
  5
17BAA
330
747D
100
AcDbEntity
  8
部品1
100
AcDbLine
 10
3767.67305712365
 20
10159.02169339955
 30
0.0
 11
5081.673057123631
 21
10159.02169339955
 31
0.0
  0
LINE
  5
17BB2
330
747D
100
AcDbEntity
  8
部品1
100
AcDbLine
 10
5164.673057123663
 20
10187.02169339943
 30
0.0
 11
5164.673057123663
 21
10159.02169339943
 31
0.0
  0
LINE
  5
17BB3
330
747D
100
AcDbEntity
  8
部品1
 48
50.0
100
AcDbLine
 10
5054.673057123645
 20
7622.021693399517
 30
0.0
 11
5054.673057123642
 21
7557.021693399518
 31
0.0
  0
LINE
  5
17BB4
330
747D
100
AcDbEntity
  8
部品1
100
AcDbLine
 10
5164.673057123652
 20
7557.02169339943
 30
0.0
 11
5054.673057123642
 21
7557.021693399424
 31
0.0
  0
LINE
  5
17BB5
330
747D
100
AcDbEntity
  8
部品1
 48
50.0
100
AcDbLine
 10
5212.673057123657
 20
7583.02169339943
 30
0.0
 11
5212.673057123657
 21
7592.021693399431
 31
0.0
  0
LINE
  5
17BB6
330
747D
100
AcDbEntity
  8
部品1
 48
50.0
100
AcDbLine
 10
5164.673057123657
 20
7622.021693399429
 30
0.0
 11
5164.673057123653
 21
7557.02169339943
 31
0.0
  0
LINE
  5
17BB7
330
747D
100
AcDbEntity
  8
部品1
100
AcDbLine
 10
5164.673057123656
 20
7593.021693399428
 30
0.0
 11
5141.673057123657
 21
7593.021693399428
 31
0.0
  0
LINE
  5
17BB8
330
747D
100
AcDbEntity
  8
部品1
 48
50.0
100
AcDbLine
 10
5174.673057123657
 20
7583.021693399429
 30
0.0
 11
5164.673057123657
 21
7562.021693399429
 31
0.0
  0
LINE
  5
17BB9
330
747D
100
AcDbEntity
  8
部品1
100
AcDbLine
 10
5212.673057123657
 20
7583.02169339943
 30
0.0
 11
5164.673057123657
 21
7583.021693399429
 31
0.0
  0
LINE
  5
17BBA
330
747D
100
AcDbEntity
  8
部品1
 48
50.0
100
AcDbLine
 10
5212.673057123657
 20
7622.021693399431
 30
0.0
 11
5212.673057123657
 21
7613.021693399431
 31
0.0
  0
LINE
  5
17BBB
330
747D
100
AcDbEntity
  8
部品1
100
AcDbLine
 10
5212.673057123657
 20
7622.021693399431
 30
0.0
 11
5164.673057123657
 21
7622.021693399429
 31
0.0
  0
LINE
  5
17BBC
330
747D
100
AcDbEntity
  8
部品1
100
AcDbLine
 10
5054.673057123639
 20
7593.021693399428
 30
0.0
 11
5077.673057123639
 21
7593.021693399428
 31
0.0
  0
LINE
  5
17BBD
330
747D
100
AcDbEntity
  8
部品1
 48
50.0
100
AcDbLine
 10
5044.673057123638
 20
7583.021693399429
 30
0.0
 11
5054.673057123639
 21
7562.021693399429
 31
0.0
  0
LINE
  5
17BBE
330
747D
100
AcDbEntity
  8
部品1
 48
50.0
100
AcDbLine
 10
5006.673057123638
 20
7583.02169339943
 30
0.0
 11
5006.673057123638
 21
7592.021693399431
 31
0.0
  0
LINE
  5
17BBF
330
747D
100
AcDbEntity
  8
部品1
100
AcDbLine
 10
5006.673057123638
 20
7583.02169339943
 30
0.0
 11
5054.673057123639
 21
7583.021693399429
 31
0.0
  0
LINE
  5
17BC0
330
747D
100
AcDbEntity
  8
部品1
 48
50.0
100
AcDbLine
 10
5006.673057123638
 20
7622.021693399431
 30
0.0
 11
5006.673057123638
 21
7613.021693399431
 31
0.0
  0
LINE
  5
17BC1
330
747D
100
AcDbEntity
  8
部品1
100
AcDbLine
 10
5006.673057123638
 20
7622.021693399431
 30
0.0
 11
5054.67305712364
 21
7622.021693399429
 31
0.0
  0
LINE
  5
17BC2
330
747D
100
AcDbEntity
  8
部品1
 48
50.0
100
AcDbLine
 10
3806.673057123655
 20
7602.521693399428
 30
0.0
 11
5042.67305712364
 21
7602.521693399428
 31
0.0
  0
DIMENSION
  5
17BC3
330
747D
100
AcDbEntity
  8
寸法
 48
50.0
100
AcDbDimension
  2
*D20
 10
3842.673057123657
 20
7022.590922633266
 30
0.0
 11
4424.673057123647
 21
7222.590922633266
 31
0.0
 70
    32
  1
有効開口部間口\P <>
 71
     5
 42
1163.999999999981
  3
INABA_S40G
100
AcDbAlignedDimension
 13
5006.673057123638
 23
7583.02169339943
 33
0.0
 14
3842.673057123657
 24
7583.021693399429
 34
0.0
100
AcDbRotatedDimension
1001
ACAD
1000
DSTYLE
1002
{
1070
    75
1070
     1
1070
   279
1070
     2
1002
}
  0
DIMENSION
  5
17BC4
330
747D
100
AcDbEntity
  8
寸法
 48
50.0
100
AcDbDimension
  2
*D19
 10
5006.673057123638
 20
7022.590922633266
 30
0.0
 11
4895.710159474891
 21
7122.590922633266
 31
0.0
 70
   160
 71
     5
 42
48.00000000000181
  3
INABA_S40G
100
AcDbAlignedDimension
 13
5054.67305712364
 23
7557.021693399518
 33
0.0
 14
5006.673057123638
 24
7583.02169339943
 34
0.0
100
AcDbRotatedDimension
1001
ACAD
1000
DSTYLE
1002
{
1070
   279
1070
     2
1002
}
  0
DIMENSION
  5
17C46
330
747D
100
AcDbEntity
  8
寸法
 48
50.0
100
AcDbDimension
  2
*D25
 10
5054.67305712364
 20
7022.590922633267
 30
0.0
 11
5109.673057123647
 21
6870.899027597035
 31
0.0
 70
   160
 71
     5
 42
110.0000000000127
  3
INABA_S40G
100
AcDbAlignedDimension
 13
5164.673057123653
 23
7557.02169339943
 33
0.0
 14
5054.67305712364
 24
7557.021693399518
 34
0.0
100
AcDbRotatedDimension
1001
ACAD
1000
DSTYLE
1002
{
1070
   279
1070
     2
1002
}
  0
DIMENSION
  5
17C47
330
747D
100
AcDbEntity
  8
寸法
 48
50.0
100
AcDbDimension
  2
*D24
 10
5164.673057123653
 20
7022.590922633266
 30
0.0
 11
5325.575028123714
 21
7122.590922633266
 31
0.0
 70
   160
 71
     5
 42
48.00000000000363
  3
INABA_S40G
100
AcDbAlignedDimension
 13
5212.673057123657
 23
7583.021693399429
 33
0.0
 14
5164.673057123653
 24
7557.02169339943
 34
0.0
100
AcDbRotatedDimension
1001
ACAD
1000
DSTYLE
1002
{
1070
   279
1070
     2
1002
}
  0
LINE
  5
17D0F
330
747D
100
AcDbEntity
  8
部品1
100
AcDbLine
 10
7821.673057123655
 20
9712.021693399524
 30
0.0
 11
7849.673057123656
 21
9712.021693399524
 31
0.0
  0
LINE
  5
17D10
330
747D
100
AcDbEntity
  8
部品1
100
AcDbLine
 10
7821.673057123658
 20
9292.021693399524
 30
0.0
 11
7849.673057123658
 21
9292.021693399524
 31
0.0
  0
LINE
  5
17D11
330
747D
100
AcDbEntity
  8
部品1
100
AcDbLine
 10
3767.67305712363
 20
9712.021693399396
 30
0.0
 11
3739.67305712363
 21
9712.021693399396
 31
0.0
  0
LINE
  5
17D12
330
747D
100
AcDbEntity
  8
部品1
100
AcDbLine
 10
3767.673057123634
 20
9292.021693399396
 30
0.0
 11
3739.673057123634
 21
9292.021693399396
 31
0.0
  0
LINE
  5
18097
330
747D
100
AcDbEntity
  8
寸法
 48
50.0
100
AcDbLine
 10
6324.673057123664
 20
10402.82991302453
 30
0.0
 11
5943.497709859141
 21
10402.82991302453
 31
0.0
  0
LINE
  5
18098
330
747D
100
AcDbEntity
  8
寸法
 48
50.0
100
AcDbLine
 10
5708.90012020417
 20
10402.82991302453
 30
0.0
 11
5264.673057123663
 21
10402.82991302453
 31
0.0
  0
TEXT
  5
180AB
330
747D
100
AcDbEntity
  8
文字
 48
50.0
100
AcDbText
 10
5993.356325043227
 20
10433.51467855346
 30
0.0
 40
120.0
  1
1260
  7
STYLE1
100
AcDbText
  0
TEXT
  5
180AD
330
747D
100
AcDbEntity
  8
文字
 48
50.0
100
AcDbText
 10
5818.104667075852
 20
7058.060047237015
 30
0.0
 40
120.0
  1
1164
  7
STYLE1
100
AcDbText
  0
TEXT
  5
180D7
330
747D
100
AcDbEntity
  8
文字
 48
50.0
100
AcDbText
 10
5346.11461961997
 20
10433.51467855346
 30
0.0
 40
120.0
  1
1260
  7
STYLE1
100
AcDbText
  0
LINE
  5
180D8
330
747D
100
AcDbEntity
  8
寸法
 48
50.0
100
AcDbLine
 10
6276.673057123638
 20
7022.590922633266
 30
0.0
 11
5829.216253288978
 21
7022.590922633266
 31
0.0
  0
LINE
  5
180D9
330
747D
100
AcDbEntity
  8
寸法
 48
50.0
100
AcDbLine
 10
5766.651605096413
 20
7022.590922633266
 30
0.0
 11
5216.673057123638
 21
7022.590922633266
 31
0.0
  0
TEXT
  5
180DA
330
747D
100
AcDbEntity
  8
文字
 48
50.0
100
AcDbText
 10
5464.159355185788
 20
7058.060047237015
 30
0.0
 40
120.0
  1
1164
  7
STYLE1
100
AcDbText
  0
LINE
  5
180FF
330
747D
100
AcDbEntity
  8
部品1
100
AcDbLine
 10
3739.673057123656
 20
2537.931598713262
 30
0.0
 11
7849.673057123657
 21
2537.931598713262
 31
0.0
  0
LINE
  5
18100
330
747D
100
AcDbEntity
  8
Ｇ．Ｌ
100
AcDbLine
 10
2651.406454453172
 20
2437.931598713263
 30
0.0
 11
13982.96374664891
 21
2437.931598713261
 31
0.0
  0
LINE
  5
18102
330
747D
100
AcDbEntity
  8
部品1
 48
50.0
100
AcDbLine
 10
6399.673057123631
 20
10107.02169339938
 30
0.0
 11
5189.673057123634
 21
10107.02169339935
 31
0.0
  0
LINE
  5
18103
330
747D
100
AcDbEntity
  8
部品1
100
AcDbLine
 10
6424.673057123643
 20
10132.02169339945
 30
0.0
 11
5164.673057123643
 21
10132.02169339945
 31
0.0
  0
LINE
  5
18106
330
747D
100
AcDbEntity
  8
寸法
 48
50.0
100
AcDbLine
 10
6479.563357233136
 20
10579.29412436544
 30
0.0
 11
6479.563357233136
 21
10718.44525197339
 31
0.0
  0
LINE
  5
18107
330
747D
100
AcDbEntity
  8
寸法
 48
50.0
100
AcDbLine
 10
6479.673057123664
 20
10652.15138658082
 30
0.0
 11
5939.308473318088
 21
10652.15138658082
 31
0.0
  0
LINE
  5
18108
330
747D
100
AcDbEntity
  8
寸法
 48
50.0
100
AcDbLine
 10
5109.673057123664
 20
10652.15138658082
 30
0.0
 11
5706.419703089108
 21
10652.15138658082
 31
0.0
  0
TEXT
  5
18109
330
747D
100
AcDbEntity
  8
文字
 48
50.0
100
AcDbText
 10
5981.200887779472
 20
10696.00859930808
 30
0.0
 40
120.0
  1
1370
  7
STYLE1
100
AcDbText
  0
TEXT
  5
1810A
330
747D
100
AcDbEntity
  8
文字
 48
50.0
100
AcDbText
 10
5344.436001573136
 20
10696.00859930808
 30
0.0
 40
120.0
  1
1370
  7
STYLE1
100
AcDbText
  0
LINE
  5
18157
330
747D
100
AcDbEntity
  8
部品1
100
AcDbLine
 10
5081.673057123651
 20
9712.02169339948
 30
0.0
 11
5109.673057123651
 21
9712.02169339948
 31
0.0
  0
LINE
  5
18158
330
747D
100
AcDbEntity
  8
部品1
100
AcDbLine
 10
5081.673057123651
 20
9292.02169339948
 30
0.0
 11
5109.673057123651
 21
9292.02169339948
 31
0.0
  0
LINE
  5
18159
330
747D
100
AcDbEntity
  8
部品1
100
AcDbLine
 10
5081.673057123651
 20
8872.02169339948
 30
0.0
 11
5109.673057123651
 21
8872.02169339948
 31
0.0
  0
LINE
  5
1815A
330
747D
100
AcDbEntity
  8
部品1
100
AcDbLine
 10
5054.67305712365
 20
7622.021693399378
 30
0.0
 11
5054.673057123642
 21
10132.02169339938
 31
0.0
  0
LINE
  5
1815B
330
747D
100
AcDbEntity
  8
部品1
 48
10.0
100
AcDbLine
 10
5029.673057123659
 20
7622.021693399378
 30
0.0
 11
5029.673057123633
 21
10132.02169339938
 31
0.0
  0
LINE
  5
1815C
330
747D
100
AcDbEntity
  8
部品1
100
AcDbLine
 10
5081.673057123631
 20
10159.02169339947
 30
0.0
 11
5081.673057123615
 21
7557.021693399372
 31
0.0
  0
LINE
  5
1815D
330
747D
100
AcDbEntity
  8
部品1
100
AcDbLine
 10
5164.673057123669
 20
7622.021693399378
 30
0.0
 11
5164.673057123643
 21
10132.02169339937
 31
0.0
  0
LINE
  5
1815E
330
747D
100
AcDbEntity
  8
部品1
 48
10.0
100
AcDbLine
 10
5189.673057123664
 20
7622.021693399378
 30
0.0
 11
5189.673057123616
 21
10132.0216933994
 31
0.0
  0
LINE
  5
1815F
330
747D
100
AcDbEntity
  8
部品1
100
AcDbLine
 10
5137.67305712361
 20
7557.021693399377
 30
0.0
 11
5137.673057123633
 21
10187.02169339942
 31
0.0
  0
LINE
  5
18160
330
747D
100
AcDbEntity
  8
部品1
100
AcDbLine
 10
5109.673057123649
 20
10132.0216933994
 30
0.0
 11
5109.673057123622
 21
7612.021693399373
 31
0.0
  0
LINE
  5
18161
330
747D
100
AcDbEntity
  8
部品1
100
AcDbLine
 10
6479.673057123649
 20
10132.0216933994
 30
0.0
 11
6479.673057123623
 21
7612.021693399373
 31
0.0
  0
LINE
  5
18162
330
747D
100
AcDbEntity
  8
部品1
100
AcDbLine
 10
6507.67305712361
 20
7557.021693399377
 30
0.0
 11
6507.673057123632
 21
10187.02169339942
 31
0.0
  0
LINE
  5
18163
330
747D
100
AcDbEntity
  8
部品1
 48
10.0
100
AcDbLine
 10
6559.673057123664
 20
7622.021693399378
 30
0.0
 11
6559.673057123617
 21
10132.0216933994
 31
0.0
  0
LINE
  5
18164
330
747D
100
AcDbEntity
  8
部品1
100
AcDbLine
 10
6534.673057123669
 20
7622.021693399378
 30
0.0
 11
6534.673057123642
 21
10132.02169339937
 31
0.0
  0
LINE
  5
18165
330
747D
100
AcDbEntity
  8
部品1
100
AcDbLine
 10
6451.673057123631
 20
10159.02169339947
 30
0.0
 11
6451.673057123615
 21
7557.021693399372
 31
0.0
  0
LINE
  5
18166
330
747D
100
AcDbEntity
  8
部品1
 48
10.0
100
AcDbLine
 10
6399.673057123659
 20
7622.021693399378
 30
0.0
 11
6399.673057123633
 21
10132.02169339938
 31
0.0
  0
LINE
  5
18167
330
747D
100
AcDbEntity
  8
部品1
100
AcDbLine
 10
6424.67305712365
 20
7622.021693399378
 30
0.0
 11
6424.673057123643
 21
10132.02169339938
 31
0.0
  0
LINE
  5
18168
330
747D
100
AcDbEntity
  8
部品1
100
AcDbLine
 10
6451.673057123651
 20
8872.02169339948
 30
0.0
 11
6479.673057123651
 21
8872.02169339948
 31
0.0
  0
LINE
  5
18169
330
747D
100
AcDbEntity
  8
部品1
100
AcDbLine
 10
6451.673057123651
 20
9292.02169339948
 30
0.0
 11
6479.673057123651
 21
9292.02169339948
 31
0.0
  0
LINE
  5
1816A
330
747D
100
AcDbEntity
  8
部品1
100
AcDbLine
 10
6451.673057123651
 20
9712.02169339948
 30
0.0
 11
6479.673057123651
 21
9712.02169339948
 31
0.0
  0
LINE
  5
1816B
330
747D
100
AcDbEntity
  8
部品1
 48
50.0
100
AcDbLine
 10
6507.673057123684
 20
10159.02169339929
 30
0.0
 11
6534.673057123673
 21
10132.0216933993
 31
0.0
  0
LINE
  5
1816C
330
747D
100
AcDbEntity
  8
部品1
 48
50.0
100
AcDbLine
 10
6451.673057123699
 20
10159.02169339938
 30
0.0
 11
6424.673057123695
 21
10132.02169339938
 31
0.0
  0
LINE
  5
1816D
330
747D
100
AcDbEntity
  8
部品1
 48
50.0
100
AcDbLine
 10
5137.673057123684
 20
10159.02169339929
 30
0.0
 11
5164.673057123673
 21
10132.0216933993
 31
0.0
  0
LINE
  5
1816E
330
747D
100
AcDbEntity
  8
部品1
 48
50.0
100
AcDbLine
 10
5081.673057123698
 20
10159.02169339938
 30
0.0
 11
5054.673057123695
 21
10132.02169339938
 31
0.0
  0
LINE
  5
1816F
330
747D
100
AcDbEntity
  8
部品1
100
AcDbLine
 10
5054.673057123642
 20
10132.02169339945
 30
0.0
 11
3794.673057123633
 21
10132.02169339945
 31
0.0
  0
LINE
  5
18170
330
747D
100
AcDbEntity
  8
部品1
100
AcDbLine
 10
6507.673057123632
 20
10132.02169339945
 30
0.0
 11
6451.673057123631
 21
10132.02169339945
 31
0.0
  0
LINE
  5
18171
330
747D
100
AcDbEntity
  8
部品1
100
AcDbLine
 10
6451.673057123658
 20
8452.02169339948
 30
0.0
 11
6479.673057123658
 21
8452.02169339948
 31
0.0
  0
LINE
  5
18172
330
747D
100
AcDbEntity
  8
部品1
100
AcDbLine
 10
6451.673057123658
 20
8032.02169339948
 30
0.0
 11
6479.673057123658
 21
8032.02169339948
 31
0.0
  0
LINE
  5
18173
330
747D
100
AcDbEntity
  8
部品1
100
AcDbLine
 10
5081.673057123658
 20
8032.02169339948
 30
0.0
 11
5109.673057123657
 21
8032.02169339948
 31
0.0
  0
LINE
  5
18174
330
747D
100
AcDbEntity
  8
部品1
100
AcDbLine
 10
5081.673057123658
 20
8452.02169339948
 30
0.0
 11
5109.673057123657
 21
8452.02169339948
 31
0.0
  0
LINE
  5
18A12
330
747D
100
AcDbEntity
  8
部品1
100
AcDbLine
 10
5584.673057123663
 20
10187.02169339943
 30
0.0
 11
5584.673057123663
 21
10159.02169339943
 31
0.0
  0
ARC
  5
18C61
330
747D
100
AcDbEntity
  8
細線
 48
50.0
100
AcDbCircle
 10
4124.673057123657
 20
3100.431598713262
 30
0.0
 40
15.0
100
AcDbArc
 50
90.0
 51
270.0
  0
ARC
  5
18C62
330
747D
100
AcDbEntity
  8
細線
 48
50.0
100
AcDbCircle
 10
4224.673057123657
 20
3100.431598713262
 30
0.0
 40
15.0
100
AcDbArc
 50
270.0
 51
90.0
  0
LINE
  5
18C63
330
747D
100
AcDbEntity
  8
細線
 48
50.0
100
AcDbLine
 10
4124.673057123657
 20
3115.431598713261
 30
0.0
 11
4224.673057123657
 21
3115.431598713261
 31
0.0
  0
LINE
  5
18C64
330
747D
100
AcDbEntity
  8
細線
 48
50.0
100
AcDbLine
 10
4224.673057123657
 20
3085.431598713262
 30
0.0
 11
4124.673057123657
 21
3085.431598713262
 31
0.0
  0
LINE
  5
18C65
330
747D
100
AcDbEntity
  8
細線
 48
50.0
100
AcDbLine
 10
4724.673057123657
 20
3085.431598713262
 30
0.0
 11
4624.673057123657
 21
3085.431598713262
 31
0.0
  0
LINE
  5
18C66
330
747D
100
AcDbEntity
  8
細線
 48
50.0
100
AcDbLine
 10
4624.673057123657
 20
3115.431598713261
 30
0.0
 11
4724.673057123657
 21
3115.431598713261
 31
0.0
  0
ARC
  5
18C67
330
747D
100
AcDbEntity
  8
細線
 48
50.0
100
AcDbCircle
 10
4624.673057123657
 20
3100.431598713262
 30
0.0
 40
15.0
100
AcDbArc
 50
90.0
 51
270.0
  0
ARC
  5
18C68
330
747D
100
AcDbEntity
  8
細線
 48
50.0
100
AcDbCircle
 10
4724.673057123657
 20
3100.431598713262
 30
0.0
 40
15.0
100
AcDbArc
 50
270.0
 51
90.0
  0
CIRCLE
  5
18C69
330
747D
100
AcDbEntity
  8
細線
 48
50.0
100
AcDbCircle
 10
4424.673057123658
 20
3425.431598713262
 30
0.0
 40
18.0
  0
ARC
  5
18C86
330
747D
100
AcDbEntity
  8
細線
 48
50.0
100
AcDbCircle
 10
6864.673057123654
 20
3100.431598713262
 30
0.0
 40
15.0
100
AcDbArc
 50
90.0
 51
270.0
  0
ARC
  5
18C87
330
747D
100
AcDbEntity
  8
細線
 48
50.0
100
AcDbCircle
 10
6964.673057123654
 20
3100.431598713262
 30
0.0
 40
15.0
100
AcDbArc
 50
270.0
 51
90.0
  0
LINE
  5
18C88
330
747D
100
AcDbEntity
  8
細線
 48
50.0
100
AcDbLine
 10
6864.673057123654
 20
3115.431598713261
 30
0.0
 11
6964.673057123654
 21
3115.431598713261
 31
0.0
  0
LINE
  5
18C89
330
747D
100
AcDbEntity
  8
細線
 48
50.0
100
AcDbLine
 10
6964.673057123654
 20
3085.431598713262
 30
0.0
 11
6864.673057123654
 21
3085.431598713262
 31
0.0
  0
LINE
  5
18C8A
330
747D
100
AcDbEntity
  8
細線
 48
50.0
100
AcDbLine
 10
7464.673057123654
 20
3085.431598713262
 30
0.0
 11
7364.673057123654
 21
3085.431598713262
 31
0.0
  0
LINE
  5
18C8B
330
747D
100
AcDbEntity
  8
細線
 48
50.0
100
AcDbLine
 10
7364.673057123654
 20
3115.431598713261
 30
0.0
 11
7464.673057123654
 21
3115.431598713261
 31
0.0
  0
ARC
  5
18C8C
330
747D
100
AcDbEntity
  8
細線
 48
50.0
100
AcDbCircle
 10
7364.673057123654
 20
3100.431598713262
 30
0.0
 40
15.0
100
AcDbArc
 50
90.0
 51
270.0
  0
ARC
  5
18C8D
330
747D
100
AcDbEntity
  8
細線
 48
50.0
100
AcDbCircle
 10
7464.673057123654
 20
3100.431598713262
 30
0.0
 40
15.0
100
AcDbArc
 50
270.0
 51
90.0
  0
CIRCLE
  5
18C8E
330
747D
100
AcDbEntity
  8
細線
 48
50.0
100
AcDbCircle
 10
7164.673057123654
 20
3425.431598713262
 30
0.0
 40
18.0
  0
TEXT
  5
18D2D
330
747D
100
AcDbEntity
  8
文字
 62
     7
 48
50.0
100
AcDbText
 10
15022.63965474516
 20
9910.013745883727
 30
0.0
 40
100.0
  1
F12,Y10        1.0
  7
STYLE1
100
AcDbText
  0
TEXT
  5
18D2E
330
747D
100
AcDbEntity
  8
文字
 62
     7
 48
50.0
100
AcDbText
 10
13583.11819016569
 20
9910.01374588373
 30
0.0
 40
100.0
  1
梁中
  7
STYLE1
100
AcDbText
  0
TEXT
  5
18D2F
330
747D
100
AcDbEntity
  8
文字
 62
     7
 48
50.0
100
AcDbText
 10
13248.77747366448
 20
8720.013745883731
 30
0.0
 40
100.0
  1
14
  7
STYLE1
100
AcDbText
  0
LINE
  5
18D30
330
747D
100
AcDbEntity
  8
仕様書枠
 48
50.0
100
AcDbLine
 10
16307.19999999999
 20
9879.599999999999
 30
0.0
 11
13127.2
 21
9879.600000000001
 31
0.0
  0
LINE
  5
18D31
330
747D
100
AcDbEntity
  8
仕様書枠
 48
50.0
100
AcDbLine
 10
16307.19999999999
 20
11239.6
 30
0.0
 11
13127.2
 21
11239.6
 31
0.0
  0
LINE
  5
18D32
330
747D
100
AcDbEntity
  8
仕様書枠
 48
50.0
100
AcDbLine
 10
16307.2
 20
8179.6
 30
0.0
 11
16307.2
 21
11239.6
 31
0.0
  0
LINE
  5
18D33
330
747D
100
AcDbEntity
  8
仕様書枠
 48
50.0
100
AcDbLine
 10
14785.2
 20
11239.59999999999
 30
0.0
 11
14785.2
 21
8689.6
 31
0.0
  0
LINE
  5
18D34
330
747D
100
AcDbEntity
  8
仕様書枠
 48
50.0
100
AcDbLine
 10
13490.2
 20
11239.6
 30
0.0
 11
13490.2
 21
8689.600000000003
 31
0.0
  0
LINE
  5
18D35
330
747D
100
AcDbEntity
  8
仕様書枠
 48
50.0
100
AcDbLine
 10
16307.19999999999
 20
11069.6
 30
0.0
 11
13127.2
 21
11069.6
 31
0.0
  0
LINE
  5
18D36
330
747D
100
AcDbEntity
  8
仕様書枠
 48
50.0
100
AcDbLine
 10
16307.19999999999
 20
10729.6
 30
0.0
 11
13127.2
 21
10729.6
 31
0.0
  0
LINE
  5
18D37
330
747D
100
AcDbEntity
  8
仕様書枠
 48
50.0
100
AcDbLine
 10
16307.19999999999
 20
10899.6
 30
0.0
 11
13127.2
 21
10899.6
 31
0.0
  0
LINE
  5
18D38
330
747D
100
AcDbEntity
  8
仕様書枠
 48
50.0
100
AcDbLine
 10
16307.19999999999
 20
10389.6
 30
0.0
 11
13127.19999999999
 21
10389.6
 31
0.0
  0
LINE
  5
18D39
330
747D
100
AcDbEntity
  8
仕様書枠
 48
50.0
100
AcDbLine
 10
16307.19999999999
 20
10219.6
 30
0.0
 11
13127.19999999999
 21
10219.6
 31
0.0
  0
LINE
  5
18D3A
330
747D
100
AcDbEntity
  8
仕様書枠
 48
50.0
100
AcDbLine
 10
16307.19999999999
 20
10559.6
 30
0.0
 11
13127.19999999999
 21
10559.6
 31
0.0
  0
TEXT
  5
18D3B
330
747D
100
AcDbEntity
  8
文字
 62
     7
 48
50.0
100
AcDbText
 10
13197.42518560407
 20
11100.01374588373
 30
0.0
 40
100.0
  1
品番
  7
STYLE1
100
AcDbText
  0
TEXT
  5
18D3C
330
747D
100
AcDbEntity
  8
文字
 62
     7
 48
50.0
100
AcDbText
 10
13271.19032244792
 20
10930.01374588373
 30
0.0
 40
100.0
  1
1
  7
STYLE1
100
AcDbText
  0
TEXT
  5
18D3D
330
747D
100
AcDbEntity
  8
文字
 62
     7
 48
50.0
100
AcDbText
 10
13271.19032244792
 20
10760.01374588373
 30
0.0
 40
100.0
  1
2
  7
STYLE1
100
AcDbText
  0
TEXT
  5
18D3E
330
747D
100
AcDbEntity
  8
文字
 62
     7
 48
50.0
100
AcDbText
 10
13271.19032244792
 20
10420.01374588373
 30
0.0
 40
100.0
  1
4
  7
STYLE1
100
AcDbText
  0
TEXT
  5
18D3F
330
747D
100
AcDbEntity
  8
文字
 62
     7
 48
50.0
100
AcDbText
 10
13271.19032244792
 20
10590.01374588373
 30
0.0
 40
100.0
  1
3
  7
STYLE1
100
AcDbText
  0
TEXT
  5
18D40
330
747D
100
AcDbEntity
  8
文字
 62
     7
 48
50.0
100
AcDbText
 10
13732.03840939434
 20
11100.01374588373
 30
0.0
 40
100.0
  1
部　　品　　名
  7
STYLE1
100
AcDbText
  0
TEXT
  5
18D41
330
747D
100
AcDbEntity
  8
文字
 62
     7
 48
50.0
100
AcDbText
 10
14859.79774614482
 20
11100.01374588373
 30
0.0
 40
100.0
  1
材料（材質）　　単位mm
  7
STYLE1
100
AcDbText
  0
TEXT
  5
18D42
330
747D
100
AcDbEntity
  8
文字
 62
     7
 48
50.0
100
AcDbText
 10
13583.11819016569
 20
10930.01374588372
 30
0.0
 40
100.0
  1
土台枠
  7
STYLE1
100
AcDbText
  0
TEXT
  5
18D43
330
747D
100
AcDbEntity
  8
文字
 62
     7
 48
50.0
100
AcDbText
 10
13583.11819016569
 20
10760.01374588372
 30
0.0
 40
100.0
  1
柱
  7
STYLE1
100
AcDbText
  0
TEXT
  5
18D44
330
747D
100
AcDbEntity
  8
文字
 62
     7
 48
50.0
100
AcDbText
 10
13583.11819016569
 20
10590.01374588373
 30
0.0
 40
100.0
  1
桁前
  7
STYLE1
100
AcDbText
  0
TEXT
  5
18D45
330
747D
100
AcDbEntity
  8
文字
 62
     7
 48
50.0
100
AcDbText
 10
13583.11819016569
 20
10420.01374588373
 30
0.0
 40
100.0
  1
桁後
  7
STYLE1
100
AcDbText
  0
TEXT
  5
18D46
330
747D
100
AcDbEntity
  8
文字
 62
     7
 48
50.0
100
AcDbText
 10
13271.19032244792
 20
10250.01374588373
 30
0.0
 40
100.0
  1
5
  7
STYLE1
100
AcDbText
  0
TEXT
  5
18D47
330
747D
100
AcDbEntity
  8
文字
 62
     7
 48
50.0
100
AcDbText
 10
13583.11819016569
 20
10250.01374588373
 30
0.0
 40
100.0
  1
妻板左右
  7
STYLE1
100
AcDbText
  0
TEXT
  5
18D48
330
747D
100
AcDbEntity
  8
文字
 62
     7
 48
50.0
100
AcDbText
 10
13583.11819016569
 20
8890.013745883727
 30
0.0
 40
100.0
  1
シャッターレール
  7
STYLE1
100
AcDbText
  0
TEXT
  5
18D49
330
747D
100
AcDbEntity
  8
文字
 62
     7
 48
50.0
100
AcDbText
 10
13248.77747366448
 20
9400.013745883727
 30
0.0
 40
100.0
  1
10
  7
STYLE1
100
AcDbText
  0
TEXT
  5
18D4A
330
747D
100
AcDbEntity
  8
文字
 62
     7
 48
50.0
100
AcDbText
 10
13583.11819016569
 20
9400.013745883729
 30
0.0
 40
100.0
  1
壁パネル
  7
STYLE1
100
AcDbText
  0
TEXT
  5
18D4B
330
747D
100
AcDbEntity
  8
文字
 62
     7
 48
50.0
100
AcDbText
 10
13583.11819016569
 20
9570.013745883727
 30
0.0
 40
100.0
  1
屋根パネル
  7
STYLE1
100
AcDbText
  0
TEXT
  5
18D4C
330
747D
100
AcDbEntity
  8
文字
 62
     7
 48
50.0
100
AcDbText
 10
13583.11819016569
 20
9740.013745883729
 30
0.0
 40
100.0
  1
母屋中
  7
STYLE1
100
AcDbText
  0
TEXT
  5
18D4D
330
747D
100
AcDbEntity
  8
文字
 62
     7
 48
50.0
100
AcDbText
 10
13583.11819016569
 20
10080.01374588372
 30
0.0
 40
100.0
  1
鼻隠シ前後
  7
STYLE1
100
AcDbText
  0
TEXT
  5
18D4E
330
747D
100
AcDbEntity
  8
文字
 62
     7
 48
50.0
100
AcDbText
 10
13271.19032244792
 20
9740.013745883729
 30
0.0
 40
100.0
  1
8
  7
STYLE1
100
AcDbText
  0
TEXT
  5
18D4F
330
747D
100
AcDbEntity
  8
文字
 62
     7
 48
50.0
100
AcDbText
 10
13271.19032244792
 20
9570.013745883729
 30
0.0
 40
100.0
  1
9
  7
STYLE1
100
AcDbText
  0
TEXT
  5
18D50
330
747D
100
AcDbEntity
  8
文字
 62
     7
 48
50.0
100
AcDbText
 10
13271.19032244792
 20
9910.01374588373
 30
0.0
 40
100.0
  1
7
  7
STYLE1
100
AcDbText
  0
TEXT
  5
18D51
330
747D
100
AcDbEntity
  8
文字
 62
     7
 48
50.0
100
AcDbText
 10
13271.19032244792
 20
10080.01374588373
 30
0.0
 40
100.0
  1
6
  7
STYLE1
100
AcDbText
  0
LINE
  5
18D52
330
747D
100
AcDbEntity
  8
仕様書枠
 48
50.0
100
AcDbLine
 10
16307.19999999999
 20
9539.599999999998
 30
0.0
 11
13127.19999999999
 21
9539.6
 31
0.0
  0
LINE
  5
18D53
330
747D
100
AcDbEntity
  8
仕様書枠
 48
50.0
100
AcDbLine
 10
16307.19999999999
 20
9199.599999999998
 30
0.0
 11
13127.19999999999
 21
9199.600000000001
 31
0.0
  0
LINE
  5
18D54
330
747D
100
AcDbEntity
  8
仕様書枠
 48
50.0
100
AcDbLine
 10
16307.19999999999
 20
9369.599999999998
 30
0.0
 11
13127.19999999999
 21
9369.600000000001
 31
0.0
  0
LINE
  5
18D55
330
747D
100
AcDbEntity
  8
仕様書枠
 48
50.0
100
AcDbLine
 10
16307.19999999999
 20
10049.6
 30
0.0
 11
13127.2
 21
10049.6
 31
0.0
  0
LINE
  5
18D56
330
747D
100
AcDbEntity
  8
仕様書枠
 48
50.0
100
AcDbLine
 10
16307.19999999999
 20
9709.6
 30
0.0
 11
13127.2
 21
9709.600000000001
 31
0.0
  0
TEXT
  5
18D57
330
747D
100
AcDbEntity
  8
文字
 62
     7
 48
50.0
100
AcDbText
 10
13248.77747366448
 20
9230.013745883727
 30
0.0
 40
100.0
  1
11
  7
STYLE1
100
AcDbText
  0
TEXT
  5
18D58
330
747D
100
AcDbEntity
  8
文字
 62
     7
 48
50.0
100
AcDbText
 10
13583.11819016569
 20
9060.013745883727
 30
0.0
 40
100.0
  1
シャッターカバー
 41
0.9
  7
STYLE1
100
AcDbText
  0
LINE
  5
18D59
330
747D
100
AcDbEntity
  8
仕様書枠
 48
50.0
100
AcDbLine
 10
16307.19999999999
 20
9029.6
 30
0.0
 11
13127.19999999999
 21
9029.6
 31
0.0
  0
TEXT
  5
18D5B
330
747D
100
AcDbEntity
  8
文字
 62
     7
 48
50.0
100
AcDbText
 10
13583.11819016569
 20
8720.013745883729
 30
0.0
 40
100.0
  1
棚板（別売）
  7
STYLE1
100
AcDbText
  0
LINE
  5
18D5C
330
747D
100
AcDbEntity
  8
仕様書枠
 48
50.0
100
AcDbLine
 10
16307.19999999999
 20
8859.6
 30
0.0
 11
13127.19999999999
 21
8859.600000000002
 31
0.0
  0
TEXT
  5
18D5D
330
747D
100
AcDbEntity
  8
文字
 62
     7
 48
50.0
100
AcDbText
 10
13583.11819016569
 20
9230.013745883729
 30
0.0
 40
100.0
  1
シャッター
  7
STYLE1
100
AcDbText
  0
TEXT
  5
18D5E
330
747D
100
AcDbEntity
  8
文字
 62
     7
 48
50.0
100
AcDbText
 10
13248.77747366448
 20
8890.013745883729
 30
0.0
 40
100.0
  1
13
  7
STYLE1
100
AcDbText
  0
TEXT
  5
18D5F
330
747D
100
AcDbEntity
  8
文字
 62
     7
 48
50.0
100
AcDbText
 10
13248.77747366448
 20
9060.013745883729
 30
0.0
 40
100.0
  1
12
  7
STYLE1
100
AcDbText
  0
TEXT
  5
18D60
330
747D
100
AcDbEntity
  8
文字
 62
     7
 48
50.0
100
AcDbText
 10
15022.63965474517
 20
10930.01374588372
 30
0.0
 40
100.0
  1
F12            1.2
  7
STYLE1
100
AcDbText
  0
TEXT
  5
18D62
330
747D
100
AcDbEntity
  8
文字
 62
     7
 48
50.0
100
AcDbText
 10
15022.63965474516
 20
10590.01374588372
 30
0.0
 40
100.0
  1
Y10            1.0
  7
STYLE1
100
AcDbText
  0
TEXT
  5
18D63
330
747D
100
AcDbEntity
  8
文字
 62
     7
 48
50.0
100
AcDbText
 10
15022.63965474516
 20
10420.01374588372
 30
0.0
 40
100.0
  1
Y10            1.0
  7
STYLE1
100
AcDbText
  0
TEXT
  5
18D64
330
747D
100
AcDbEntity
  8
文字
 62
     7
 48
50.0
100
AcDbText
 10
15022.63965474516
 20
10250.01374588372
 30
0.0
 40
100.0
  1
Y10            0.7
  7
STYLE1
100
AcDbText
  0
TEXT
  5
18D65
330
747D
100
AcDbEntity
  8
文字
 62
     7
 48
50.0
100
AcDbText
 10
15022.63965474516
 20
10080.01374588372
 30
0.0
 40
100.0
  1
Y10            0.7
  7
STYLE1
100
AcDbText
  0
TEXT
  5
18D66
330
747D
100
AcDbEntity
  8
文字
 62
     7
 48
50.0
100
AcDbText
 10
15022.63965474517
 20
9740.013745883725
 30
0.0
 40
100.0
  1
F12            1.0
  7
STYLE1
100
AcDbText
  0
TEXT
  5
18D67
330
747D
100
AcDbEntity
  8
文字
 62
     7
 48
50.0
100
AcDbText
 10
15022.63965474517
 20
9570.013745883725
 30
0.0
 40
100.0
  1
Y10            0.5
  7
STYLE1
100
AcDbText
  0
TEXT
  5
18D68
330
747D
100
AcDbEntity
  8
文字
 62
     7
 48
50.0
100
AcDbText
 10
15022.63965474516
 20
9400.013745883725
 30
0.0
 40
100.0
  1
F12            0.6
  7
STYLE1
100
AcDbText
  0
TEXT
  5
18D69
330
747D
100
AcDbEntity
  8
文字
 62
     7
 48
50.0
100
AcDbText
 10
14850.83183167176
 20
8890.013745883726
 30
0.0
 40
100.0
  1
アルミニウム合金押出形材
  7
STYLE1
100
AcDbText
  0
TEXT
  5
18D6B
330
747D
100
AcDbEntity
  8
文字
 62
     7
 48
50.0
100
AcDbText
 10
15022.63965474515
 20
9230.013745883725
 30
0.0
 40
100.0
  1
Z08            0.5
  7
STYLE1
100
AcDbText
  0
TEXT
  5
18D6C
330
747D
100
AcDbEntity
  8
文字
 62
     7
 48
50.0
100
AcDbText
 10
15022.63965474515
 20
8720.013745883727
 30
0.0
 40
100.0
  1
F12            0.6
  7
STYLE1
100
AcDbText
  0
LINE
  5
18D6D
330
747D
100
AcDbEntity
  8
仕様書枠
 48
50.0
100
AcDbLine
 10
16307.19999999998
 20
8519.599999999998
 30
0.0
 11
13127.19999999998
 21
8519.600000000002
 31
0.0
  0
LINE
  5
18D6E
330
747D
100
AcDbEntity
  8
仕様書枠
 48
50.0
100
AcDbLine
 10
16307.19999999998
 20
8349.599999999998
 30
0.0
 11
13127.19999999998
 21
8349.6
 31
0.0
  0
LINE
  5
18D6F
330
747D
100
AcDbEntity
  8
仕様書枠
 48
50.0
100
AcDbLine
 10
16307.19999999998
 20
8179.599999999998
 30
0.0
 11
13127.19999999998
 21
8179.6
 31
0.0
  0
TEXT
  5
18D70
330
747D
100
AcDbEntity
  8
文字
 62
     7
 48
50.0
100
AcDbText
 10
13229.83081656554
 20
8550.013745883727
 30
0.0
 40
100.0
  1
F12→溶融亜鉛めっき鋼板(JIS G 3302)
  7
STYLE1
100
AcDbText
  0
TEXT
  5
18D71
330
747D
100
AcDbEntity
  8
文字
 62
     7
 48
50.0
100
AcDbText
 10
13229.83081656553
 20
8380.013745883728
 30
0.0
 40
100.0
  1
Y10→溶融亜鉛-5％アルミニウム合金めっき鋼板(JIS G 3317)
 41
0.9
  7
STYLE1
100
AcDbText
  0
TEXT
  5
18D72
330
747D
100
AcDbEntity
  8
文字
 62
     7
 48
50.0
100
AcDbText
 10
13229.83081656554
 20
8210.013745883729
 30
0.0
 40
100.0
  1
Z08→塗装溶融亜鉛めっき鋼板(JIS G 3313)
  7
STYLE1
100
AcDbText
  0
LINE
  5
18D73
330
747D
100
AcDbEntity
  8
仕様書枠
 48
50.0
100
AcDbLine
 10
13127.2
 20
11239.6
 30
0.0
 11
13127.2
 21
8179.600000000002
 31
0.0
  0
TEXT
  5
18EF1
330
747D
100
AcDbEntity
  8
文字
 62
     7
 48
50.0
100
AcDbText
 10
13208.66940634409
 20
75.99010014536543
 30
0.0
 40
100.0
  1
○床面積 ： Ｎ［連続数］×3.60㎡(1.09坪)
  7
STYLE2
100
AcDbText
  0
TEXT
  5
194BA
330
747D
100
AcDbEntity
  8
文字
 62
     7
 48
50.0
100
AcDbText
 10
14271.37116236434
 20
483.8967129911416
 30
0.0
 40
160.0
  1
FXN-1326SL-N
  7
MSPゴシック
100
AcDbText
  0
LINE
  5
194BB
330
747D
100
AcDbEntity
  8
部品1
100
AcDbLine
 10
10673.17256491504
 20
2537.931598713261
 30
0.0
 11
10280.17535070619
 21
2437.931598713261
 31
0.0
  0
LINE
  5
194BC
330
747D
100
AcDbEntity
  8
破線
 48
5.0
100
AcDbLine
 10
10673.17256491504
 20
2187.931598713261
 30
0.0
 11
10728.17256491504
 21
2187.931598713261
 31
0.0
  0
LINE
  5
194BD
330
747D
100
AcDbEntity
  8
破線
 48
5.0
100
AcDbLine
 10
10728.17256491504
 20
2437.931598713261
 30
0.0
 11
10728.17256491504
 21
2187.931598713261
 31
0.0
  0
LINE
  5
194BE
330
747D
100
AcDbEntity
  8
破線
 48
5.0
100
AcDbLine
 10
10673.17256491504
 20
2437.931598713261
 30
0.0
 11
10673.17256491504
 21
2187.931598713261
 31
0.0
  0
DIMENSION
  5
194C4
330
747D
100
AcDbEntity
  8
寸法
 48
50.0
100
AcDbDimension
  2
*D26
 10
10052.56415814666
 20
4487.276857586593
 30
0.0
 11
10063.22963340558
 21
4858.123520828292
 31
0.0
 70
   161
 71
     5
 42
141.0000000000009
  3
INABA_S40G
100
AcDbAlignedDimension
 13
10632.56858507362
 23
4611.654347547941
 33
0.0
 14
10628.51512951699
 24
4470.712623782229
 34
0.0
1001
ACAD
1000
DSTYLE
1002
{
1070
   174
1070
     0
1070
   272
1070
     1
1070
   288
1070
     0
1070
   341
1005
0
1002
}
  0
LINE
  5
194C5
330
747D
100
AcDbEntity
  8
細線
 48
50.0
100
AcDbLine
 10
13170.67256491504
 20
4377.93159871326
 30
0.0
 11
13170.67256491504
 21
2587.931598713264
 31
0.0
  0
LINE
  5
194C6
330
747D
100
AcDbEntity
  8
細線
 48
50.0
100
AcDbLine
 10
13185.67256491504
 20
4377.93159871326
 30
0.0
 11
13185.67256491504
 21
2587.931598713264
 31
0.0
  0
LINE
  5
194C7
330
747D
100
AcDbEntity
  8
細線
 48
50.0
100
AcDbLine
 10
13045.67256491504
 20
4377.93159871326
 30
0.0
 11
13045.67256491504
 21
2587.931598713264
 31
0.0
  0
LINE
  5
194C8
330
747D
100
AcDbEntity
  8
細線
 48
50.0
100
AcDbLine
 10
13030.67256491504
 20
4377.93159871326
 30
0.0
 11
13030.67256491504
 21
2587.931598713264
 31
0.0
  0
LINE
  5
194C9
330
747D
100
AcDbEntity
  8
細線
 48
50.0
100
AcDbLine
 10
12890.67256491504
 20
4377.93159871326
 30
0.0
 11
12890.67256491504
 21
2587.931598713264
 31
0.0
  0
LINE
  5
194CA
330
747D
100
AcDbEntity
  8
細線
 48
50.0
100
AcDbLine
 10
12905.67256491504
 20
4377.93159871326
 30
0.0
 11
12905.67256491504
 21
2587.931598713264
 31
0.0
  0
LINE
  5
194CB
330
747D
100
AcDbEntity
  8
部品1
100
AcDbLine
 10
11988.17256491504
 20
4377.93159871326
 30
0.0
 11
11988.17256491504
 21
2587.93159871326
 31
0.0
  0
LINE
  5
194CC
330
747D
100
AcDbEntity
  8
細線
 48
50.0
100
AcDbLine
 10
11645.67256491504
 20
4377.93159871326
 30
0.0
 11
11645.67256491504
 21
2587.93159871326
 31
0.0
  0
LINE
  5
194CD
330
747D
100
AcDbEntity
  8
細線
 48
50.0
100
AcDbLine
 10
11630.67256491504
 20
4377.93159871326
 30
0.0
 11
11630.67256491504
 21
2587.93159871326
 31
0.0
  0
LINE
  5
194CE
330
747D
100
AcDbEntity
  8
細線
 48
50.0
100
AcDbLine
 10
11770.67256491504
 20
4377.93159871326
 30
0.0
 11
11770.67256491504
 21
2587.93159871326
 31
0.0
  0
LINE
  5
194CF
330
747D
100
AcDbEntity
  8
細線
 48
50.0
100
AcDbLine
 10
11785.67256491504
 20
4377.93159871326
 30
0.0
 11
11785.67256491504
 21
2587.93159871326
 31
0.0
  0
LINE
  5
194D0
330
747D
100
AcDbEntity
  8
細線
 48
50.0
100
AcDbLine
 10
11925.67256491504
 20
4377.93159871326
 30
0.0
 11
11925.67256491504
 21
2587.93159871326
 31
0.0
  0
LINE
  5
194D1
330
747D
100
AcDbEntity
  8
細線
 48
50.0
100
AcDbLine
 10
11910.67256491504
 20
4377.93159871326
 30
0.0
 11
11910.67256491504
 21
2587.93159871326
 31
0.0
  0
LINE
  5
194D2
330
747D
100
AcDbEntity
  8
部品1
100
AcDbLine
 10
11568.17256491504
 20
4377.93159871326
 30
0.0
 11
11568.17256491504
 21
2587.93159871326
 31
0.0
  0
DIMENSION
  5
194D3
330
747D
100
AcDbEntity
  8
寸法
 48
50.0
100
AcDbDimension
  2
*D27
 10
13383.17256491504
 20
5011.589052292567
 30
0.0
 11
13589.21980900953
 21
5011.589052292567
 31
0.0
 70
   160
 71
     5
 42
80.0
  3
INABA_S40G
100
AcDbAlignedDimension
 13
13303.17256491504
 23
4559.742278324915
 33
0.0
 14
13383.17256491504
 24
4557.931598713262
 34
0.0
100
AcDbRotatedDimension
1001
ACAD
1000
DSTYLE
1002
{
1070
   174
1070
     0
1070
   272
1070
     1
1070
   288
1070
     0
1070
   341
1005
0
1002
}
  0
LINE
  5
194D4
330
747D
100
AcDbEntity
  8
細線
 48
50.0
100
AcDbLine
 10
10805.67256491504
 20
4377.93159871326
 30
0.0
 11
10805.67256491504
 21
2587.93159871326
 31
0.0
  0
LINE
  5
194D5
330
747D
100
AcDbEntity
  8
細線
 48
50.0
100
AcDbLine
 10
10790.67256491504
 20
4377.93159871326
 30
0.0
 11
10790.67256491504
 21
2587.93159871326
 31
0.0
  0
LINE
  5
194D6
330
747D
100
AcDbEntity
  8
細線
 48
50.0
100
AcDbLine
 10
10930.67256491504
 20
4377.93159871326
 30
0.0
 11
10930.67256491504
 21
2587.93159871326
 31
0.0
  0
LINE
  5
194D7
330
747D
100
AcDbEntity
  8
細線
 48
50.0
100
AcDbLine
 10
10945.67256491504
 20
4377.93159871326
 30
0.0
 11
10945.67256491504
 21
2587.93159871326
 31
0.0
  0
LINE
  5
194D8
330
747D
100
AcDbEntity
  8
細線
 48
50.0
100
AcDbLine
 10
11085.67256491504
 20
4377.93159871326
 30
0.0
 11
11085.67256491504
 21
2587.93159871326
 31
0.0
  0
LINE
  5
194D9
330
747D
100
AcDbEntity
  8
細線
 48
50.0
100
AcDbLine
 10
11070.67256491504
 20
4377.93159871326
 30
0.0
 11
11070.67256491504
 21
2587.93159871326
 31
0.0
  0
LINE
  5
194DA
330
747D
100
AcDbEntity
  8
細線
 48
50.0
100
AcDbLine
 10
11490.67256491504
 20
4377.93159871326
 30
0.0
 11
11490.67256491504
 21
2587.93159871326
 31
0.0
  0
LINE
  5
194DB
330
747D
100
AcDbEntity
  8
細線
 48
50.0
100
AcDbLine
 10
11505.67256491504
 20
4377.93159871326
 30
0.0
 11
11505.67256491504
 21
2587.93159871326
 31
0.0
  0
LINE
  5
194DC
330
747D
100
AcDbEntity
  8
細線
 48
50.0
100
AcDbLine
 10
11365.67256491504
 20
4377.93159871326
 30
0.0
 11
11365.67256491504
 21
2587.93159871326
 31
0.0
  0
LINE
  5
194DD
330
747D
100
AcDbEntity
  8
細線
 48
50.0
100
AcDbLine
 10
11350.67256491504
 20
4377.93159871326
 30
0.0
 11
11350.67256491504
 21
2587.93159871326
 31
0.0
  0
LINE
  5
194DE
330
747D
100
AcDbEntity
  8
細線
 48
50.0
100
AcDbLine
 10
11210.67256491504
 20
4377.93159871326
 30
0.0
 11
11210.67256491504
 21
2587.93159871326
 31
0.0
  0
LINE
  5
194DF
330
747D
100
AcDbEntity
  8
細線
 48
50.0
100
AcDbLine
 10
11225.67256491504
 20
4377.93159871326
 30
0.0
 11
11225.67256491504
 21
2587.93159871326
 31
0.0
  0
LINE
  5
194E0
330
747D
100
AcDbEntity
  8
部品1
100
AcDbLine
 10
10728.17256491504
 20
2537.931598713261
 30
0.0
 11
13303.17256491504
 21
2537.931598713261
 31
0.0
  0
DIMENSION
  5
194E1
330
747D
100
AcDbEntity
  8
寸法
 48
50.0
100
AcDbDimension
  2
*D28
 10
10613.17256491504
 20
5231.799739024183
 30
0.0
 11
11998.17256491504
 21
5231.799739024183
 31
0.0
 70
   160
 71
     5
 42
2770.0
  3
INABA_S40G
100
AcDbAlignedDimension
 13
13383.17256491504
 23
4557.931598713262
 33
0.0
 14
10613.17256491504
 24
4612.931598713267
 34
0.0
100
AcDbRotatedDimension
1001
ACAD
1000
DSTYLE
1002
{
1070
   174
1070
     0
1070
   272
1070
     1
1070
   288
1070
     0
1070
   341
1005
0
1002
}
  0
DIMENSION
  5
194E2
330
747D
100
AcDbEntity
  8
寸法
 48
50.0
100
AcDbDimension
  2
*D29
 10
10613.17256491504
 20
5011.589052292566
 30
0.0
 11
10303.53476963945
 21
5011.589052292566
 31
0.0
 70
   160
 71
     5
 42
60.0
  3
INABA_S40G
100
AcDbAlignedDimension
 13
10673.17256491504
 23
4608.933216836238
 33
0.0
 14
10613.17256491504
 24
4612.931598713267
 34
0.0
100
AcDbRotatedDimension
1001
ACAD
1000
DSTYLE
1002
{
1070
   174
1070
     0
1070
   272
1070
     1
1070
   288
1070
     0
1070
   341
1005
0
1002
}
  0
DIMENSION
  5
194E3
330
747D
100
AcDbEntity
  8
寸法
 48
50.0
100
AcDbDimension
  2
*D30
 10
10673.17256491504
 20
5011.589052292567
 30
0.0
 11
11988.17256491504
 21
5011.589052292567
 31
0.0
 70
   160
  1
柱外寸法<>
 71
     5
 42
2630.0
  3
INABA_S40G
100
AcDbAlignedDimension
 13
13303.17256491504
 23
4559.742278324915
 33
0.0
 14
10673.17256491504
 24
4608.933216836238
 34
0.0
100
AcDbRotatedDimension
1001
ACAD
1000
DSTYLE
1002
{
1070
   174
1070
     0
1070
   272
1070
     1
1070
   288
1070
     0
1070
   341
1005
0
1002
}
  0
LINE
  5
194E4
330
747D
100
AcDbEntity
  8
部品1
100
AcDbLine
 10
13248.17256491504
 20
4377.93159871326
 30
0.0
 11
13248.17256491504
 21
2587.931598713264
 31
0.0
  0
LINE
  5
194E5
330
747D
100
AcDbEntity
  8
部品1
100
AcDbLine
 10
13303.17256491504
 20
4432.465872101
 30
0.0
 11
13303.17256491504
 21
2437.931598713265
 31
0.0
  0
LINE
  5
194E6
330
747D
100
AcDbEntity
  8
部品1
100
AcDbLine
 10
11148.17256491504
 20
4377.93159871326
 30
0.0
 11
11148.17256491504
 21
2587.93159871326
 31
0.0
  0
DIMENSION
  5
194E7
330
747D
100
AcDbEntity
  8
寸法
100
AcDbDimension
  2
*D31
 10
9829.42243573178
 20
2537.931598713262
 30
0.0
 11
9829.42243573178
 21
2231.884354618772
 31
0.0
 70
   160
 71
     5
 42
50.0
  3
INABA_S40G
100
AcDbAlignedDimension
 13
10673.17256491504
 23
2587.931598713261
 33
0.0
 14
10618.17256491504
 24
2537.931598713262
 34
0.0
 50
90.0
100
AcDbRotatedDimension
1001
ACAD
1000
DSTYLE
1002
{
1070
   174
1070
     0
1070
   272
1070
     1
1070
   288
1070
     0
1070
   341
1005
0
1002
}
  0
LINE
  5
194E8
330
747D
100
AcDbEntity
  8
部品1
100
AcDbLine
 10
10673.17256491504
 20
4470.074036642141
 30
0.0
 11
10673.17256491504
 21
2437.931598713261
 31
0.0
  0
LINE
  5
194E9
330
747D
100
AcDbEntity
  8
部品1
100
AcDbLine
 10
10728.17256491504
 20
4377.93159871326
 30
0.0
 11
10728.17256491504
 21
2437.931598713265
 31
0.0
  0
LINE
  5
194EA
330
747D
100
AcDbEntity
  8
部品1
100
AcDbLine
 10
10728.17256491503
 20
2587.93159871326
 30
0.0
 11
13303.17256491504
 21
2587.931598713264
 31
0.0
  0
LINE
  5
194EB
330
747D
100
AcDbEntity
  8
部品1
100
AcDbLine
 10
10673.17256491504
 20
4377.93159871326
 30
0.0
 11
13303.17256491504
 21
4377.93159871326
 31
0.0
  0
LINE
  5
194EC
330
747D
100
AcDbEntity
  8
部品1
100
AcDbLine
 10
12828.17256491504
 20
4377.93159871326
 30
0.0
 11
12828.17256491504
 21
2587.931598713264
 31
0.0
  0
LINE
  5
194ED
330
747D
100
AcDbEntity
  8
細線
 48
50.0
100
AcDbLine
 10
12330.67256491504
 20
4377.93159871326
 30
0.0
 11
12330.67256491504
 21
2587.93159871326
 31
0.0
  0
LINE
  5
194EE
330
747D
100
AcDbEntity
  8
細線
 48
50.0
100
AcDbLine
 10
12345.67256491504
 20
4377.93159871326
 30
0.0
 11
12345.67256491504
 21
2587.93159871326
 31
0.0
  0
LINE
  5
194EF
330
747D
100
AcDbEntity
  8
細線
 48
50.0
100
AcDbLine
 10
12205.67256491504
 20
4377.93159871326
 30
0.0
 11
12205.67256491504
 21
2587.93159871326
 31
0.0
  0
LINE
  5
194F0
330
747D
100
AcDbEntity
  8
細線
 48
50.0
100
AcDbLine
 10
12190.67256491504
 20
4377.93159871326
 30
0.0
 11
12190.67256491504
 21
2587.93159871326
 31
0.0
  0
LINE
  5
194F1
330
747D
100
AcDbEntity
  8
細線
 48
50.0
100
AcDbLine
 10
12050.67256491504
 20
4377.93159871326
 30
0.0
 11
12050.67256491504
 21
2587.93159871326
 31
0.0
  0
LINE
  5
194F2
330
747D
100
AcDbEntity
  8
細線
 48
50.0
100
AcDbLine
 10
12065.67256491504
 20
4377.93159871326
 30
0.0
 11
12065.67256491504
 21
2587.93159871326
 31
0.0
  0
TEXT
  5
194F3
330
747D
100
AcDbEntity
  8
部品1
 48
50.0
100
AcDbText
 10
12339.75356687613
 20
4635.20069165157
 30
0.0
 40
120.0
  1
37
 50
90.0
  7
STYLE1
100
AcDbText
  0
TEXT
  5
194F4
330
747D
100
AcDbEntity
  8
部品1
 48
50.0
100
AcDbText
 10
11862.12054421104
 20
4772.701949869853
 30
0.0
 40
120.0
  1
1000
  7
STYLE1
100
AcDbText
  0
LINE
  5
194F5
330
747D
100
AcDbEntity
  8
部品1
 48
50.0
100
AcDbLine
 10
12173.85270898732
 20
4736.817927717419
 30
0.0
 11
12173.85270898732
 21
4720.617927717419
 31
0.0
  0
LINE
  5
194F6
330
747D
100
AcDbEntity
  8
部品1
 48
50.0
100
AcDbLine
 10
11873.85270898732
 20
4736.817927717419
 30
0.0
 11
12173.85270898732
 21
4736.817927717419
 31
0.0
  0
LINE
  5
194F7
330
747D
100
AcDbEntity
  8
部品1
100
AcDbLine
 10
10620.717551272
 20
4611.649334047527
 30
0.0
 11
13375.78444177651
 21
4556.5723964224
 31
0.0
  0
LINE
  5
194F8
330
747D
100
AcDbEntity
  8
部品1
100
AcDbLine
 10
10628.51512951699
 20
4470.712623782229
 30
0.0
 11
13357.83626545489
 21
4431.684198548023
 31
0.0
  0
LINE
  5
194F9
330
747D
100
AcDbEntity
  8
細線
 48
50.0
100
AcDbLine
 10
10646.17256491504
 20
4610.331275088667
 30
0.0
 11
10640.88346335953
 21
4470.245642461311
 31
0.0
  0
LINE
  5
194FA
330
747D
100
AcDbEntity
  8
細線
 48
50.0
100
AcDbLine
 10
13350.14184810873
 20
4557.08502119273
 30
0.0
 11
13345.42488202704
 21
4432.152805257813
 31
0.0
  0
LINE
  5
194FB
330
747D
100
AcDbEntity
  8
部品1
 48
50.0
100
AcDbLine
 10
10613.35685082814
 20
4604.525144877955
 30
0.0
 11
10613.73711060596
 21
4584.598180431544
 31
0.0
  0
LINE
  5
194FC
330
747D
100
AcDbEntity
  8
部品1
 48
50.0
100
AcDbLine
 10
10616.8058827122
 20
4581.022898938069
 30
0.0
 11
10618.50978420357
 21
4491.732402231423
 31
0.0
  0
LINE
  5
194FD
330
747D
100
AcDbEntity
  8
細線
 48
50.0
100
AcDbLine
 10
10614.21198801585
 20
4583.948680554625
 30
0.0
 11
13379.84797276102
 21
4528.324475913795
 31
0.0
  0
LINE
  5
194FE
330
747D
100
AcDbEntity
  8
細線
 48
50.0
100
AcDbLine
 10
10618.97246325314
 20
4491.087168856759
 30
0.0
 11
13368.97612768378
 21
4451.277849882266
 31
0.0
  0
LINE
  5
194FF
330
747D
100
AcDbEntity
  8
部品1
 48
50.0
100
AcDbLine
 10
10621.57855630981
 20
4488.157120737952
 30
0.0
 11
10621.78050893024
 21
4477.574085344858
 31
0.0
  0
ARC
  5
19500
330
747D
100
AcDbEntity
  8
部品1
 48
50.0
100
AcDbCircle
 10
10620.35557665648
 20
4604.658699285383
 30
0.0
 40
7.0
100
AcDbArc
 50
87.03587545283093
 51
181.0932240293156
  0
ARC
  5
19501
330
747D
100
AcDbEntity
  8
部品1
 48
50.0
100
AcDbCircle
 10
10628.77923475858
 20
4477.707639752286
 30
0.0
 40
7.0
100
AcDbArc
 50
181.0932240293156
 51
267.8377559869492
  0
ARC
  5
19502
330
747D
100
AcDbEntity
  8
部品1
100
AcDbCircle
 10
10618.57910238338
 20
4488.099883134767
 30
0.0
 40
3.0
100
AcDbArc
 50
1.093224029315636
 51
80.18775403169875
  0
ARC
  5
19503
330
747D
100
AcDbEntity
  8
部品1
100
AcDbCircle
 10
10613.80642878577
 20
4580.965661334888
 30
0.0
 40
3.0
100
AcDbArc
 50
1.093224029315636
 51
80.18775403169875
  0
ARC
  5
19504
330
747D
100
AcDbEntity
  8
部品1
100
AcDbCircle
 10
10614.43698318879
 20
4584.611535872284
 30
0.0
 40
0.7
100
AcDbArc
 50
181.0932240292114
 51
260.1877540314845
  0
ARC
  5
19505
330
747D
100
AcDbEntity
  8
部品1
100
AcDbCircle
 10
10619.2096567864
 20
4491.745757672167
 30
0.0
 40
0.7
100
AcDbArc
 50
181.0932240293156
 51
260.1877540314845
  0
LINE
  5
19506
330
747D
100
AcDbEntity
  8
部品1
 48
50.0
100
AcDbLine
 10
13382.38646772574
 20
4548.87275098748
 30
0.0
 11
13380.35584653477
 21
4528.927709729701
 31
0.0
  0
LINE
  5
19507
330
747D
100
AcDbEntity
  8
部品1
 48
50.0
100
AcDbLine
 10
13377.00328005029
 20
4525.617075656791
 30
0.0
 11
13369.49650078545
 21
4451.884454911781
 31
0.0
  0
LINE
  5
19508
330
747D
100
AcDbEntity
  8
部品1
 48
50.0
100
AcDbLine
 10
13366.14393430097
 20
4448.573820838867
 30
0.0
 11
13365.06437126123
 21
4437.970203845309
 31
0.0
  0
ARC
  5
19509
330
747D
100
AcDbEntity
  8
部品1
 48
50.0
100
AcDbCircle
 10
13375.42246716098
 20
4549.581761660257
 30
0.0
 40
7.0
100
AcDbArc
 50
354.1866997665532
 51
87.03587545283093
  0
ARC
  5
1950A
330
747D
100
AcDbEntity
  8
部品1
 48
50.0
100
AcDbCircle
 10
13358.10037069647
 20
4438.679214518083
 30
0.0
 40
7.0
100
AcDbArc
 50
267.8377559869492
 51
354.1866997665532
  0
ARC
  5
1950B
330
747D
100
AcDbEntity
  8
部品1
100
AcDbCircle
 10
13369.12850597157
 20
4448.269959121963
 30
0.0
 40
3.0
100
AcDbArc
 50
95.0921697642102
 51
174.1866997665532
  0
ARC
  5
1950C
330
747D
100
AcDbEntity
  8
部品1
100
AcDbCircle
 10
13379.9878517209
 20
4525.313213939891
 30
0.0
 40
3.0
100
AcDbArc
 50
95.0921697642102
 51
174.1866997665532
  0
ARC
  5
1950D
330
747D
100
AcDbEntity
  8
部品1
100
AcDbCircle
 10
13379.6594464783
 20
4528.998610796977
 30
0.0
 40
0.7
100
AcDbArc
 50
275.0921697642102
 51
354.1866997665532
  0
ARC
  5
1950E
330
747D
100
AcDbEntity
  8
部品1
100
AcDbCircle
 10
13368.80010072898
 20
4451.955355979054
 30
0.0
 40
0.7
100
AcDbArc
 50
275.0921697642102
 51
354.1866997667606
  0
LINE
  5
1950F
330
747D
100
AcDbEntity
  8
部品1
100
AcDbLine
 10
11848.39769534428
 20
4738.135986676279
 30
0.0
 11
12173.85270898732
 21
4720.617927717419
 31
0.0
  0
LINE
  5
19510
330
747D
100
AcDbEntity
  8
部品1
100
AcDbLine
 10
12408.17256491503
 20
4377.93159871326
 30
0.0
 11
12408.17256491503
 21
2587.931598713264
 31
0.0
  0
LINE
  5
19511
330
747D
100
AcDbEntity
  8
細線
 48
50.0
100
AcDbLine
 10
12485.67256491504
 20
4377.93159871326
 30
0.0
 11
12485.67256491504
 21
2587.931598713264
 31
0.0
  0
LINE
  5
19512
330
747D
100
AcDbEntity
  8
細線
 48
50.0
100
AcDbLine
 10
12470.67256491504
 20
4377.93159871326
 30
0.0
 11
12470.67256491504
 21
2587.931598713264
 31
0.0
  0
LINE
  5
19513
330
747D
100
AcDbEntity
  8
細線
 48
50.0
100
AcDbLine
 10
12610.67256491504
 20
4377.93159871326
 30
0.0
 11
12610.67256491504
 21
2587.931598713264
 31
0.0
  0
LINE
  5
19514
330
747D
100
AcDbEntity
  8
細線
 48
50.0
100
AcDbLine
 10
12625.67256491504
 20
4377.93159871326
 30
0.0
 11
12625.67256491504
 21
2587.931598713264
 31
0.0
  0
LINE
  5
19515
330
747D
100
AcDbEntity
  8
細線
 48
50.0
100
AcDbLine
 10
12765.67256491504
 20
4377.93159871326
 30
0.0
 11
12765.67256491504
 21
2587.931598713264
 31
0.0
  0
LINE
  5
19516
330
747D
100
AcDbEntity
  8
細線
 48
50.0
100
AcDbLine
 10
12750.67256491504
 20
4377.93159871326
 30
0.0
 11
12750.67256491504
 21
2587.931598713264
 31
0.0
  0
DIMENSION
  5
19517
330
747D
100
AcDbEntity
  8
寸法
100
AcDbDimension
  2
*D32
 10
14008.09972288717
 20
4557.931598713262
 30
0.0
 11
13908.08791186355
 21
3547.931598713265
 31
0.0
 70
    32
 71
     5
 42
2020.0
  3
INABA_S40G
100
AcDbAlignedDimension
 13
13303.17256491504
 23
2537.931598713263
 33
0.0
 14
13383.17256491504
 24
4557.931598713262
 34
0.0
 50
90.0
100
AcDbRotatedDimension
1001
ACAD
1000
DSTYLE
1002
{
1070
   174
1070
     0
1070
   272
1070
     1
1070
   288
1070
     0
1070
   341
1005
0
1002
}
  0
DIMENSION
  5
19518
330
747D
100
AcDbEntity
  8
寸法
100
AcDbDimension
  2
*D33
 10
9529.422435731779
 20
4612.931598713262
 30
0.0
 11
9429.410624708156
 21
3575.431598713261
 31
0.0
 70
    32
 71
     5
 42
2075.000000000006
  3
INABA_S40G
100
AcDbAlignedDimension
 13
10673.17256491504
 23
2537.931598713256
 33
0.0
 14
10613.17256491504
 24
4612.931598713261
 34
0.0
 50
90.0
100
AcDbRotatedDimension
1001
ACAD
1000
DSTYLE
1002
{
1070
   174
1070
     0
1070
   272
1070
     1
1070
   288
1070
     0
1070
   341
1005
0
1002
}
  0
DIMENSION
  5
19519
330
747D
100
AcDbEntity
  8
寸法
100
AcDbDimension
  2
*D34
 10
9829.42243573178
 20
2587.931598713256
 30
0.0
 11
9729.42243573178
 21
3482.931598713259
 31
0.0
 70
    32
 71
     5
 42
1790.000000000002
  3
INABA_S40G
100
AcDbAlignedDimension
 13
10673.17256491504
 23
4377.931598713257
 33
0.0
 14
10673.17256491504
 24
2587.931598713256
 34
0.0
 50
90.0
100
AcDbRotatedDimension
1001
ACAD
1000
DSTYLE
1002
{
1070
   174
1070
     0
1070
   272
1070
     1
1070
   288
1070
     0
1070
   341
1005
0
1002
}
  0
LINE
  5
19A09
330
747D
100
AcDbEntity
  8
補助
  6
PHANTOM
 62
   230
 48
50.0
100
AcDbLine
 10
140.0
 20
0.0
 30
0.0
 11
139.9999999999995
 21
11409.6
 31
0.0
  0
LINE
  5
19E1B
330
747D
100
AcDbEntity
  8
部品1
 48
50.0
100
AcDbLine
 10
7879.049312556194
 20
4471.931598713267
 30
0.0
 11
3710.29680169112
 21
4471.931598713267
 31
0.0
  0
LINE
  5
19E1C
330
747D
100
AcDbEntity
  8
部品1
 48
50.0
100
AcDbLine
 10
7892.264636017223
 20
4612.931598713263
 30
0.0
 11
3697.08147823009
 21
4612.931598713268
 31
0.0
  0
LINE
  5
19E1D
330
747D
100
AcDbEntity
  8
細線
 48
50.0
100
AcDbLine
 10
7897.633518902226
 20
4584.931598713271
 30
0.0
 11
3691.712595345098
 21
4584.931598713264
 31
0.0
  0
LINE
  5
19E1E
330
747D
100
AcDbEntity
  8
細線
 48
50.0
100
AcDbLine
 10
7889.397488377362
 20
4492.731598713261
 30
0.0
 11
3699.948625869927
 21
4492.731598713265
 31
0.0
  0
DIMENSION
  5
19E20
330
747D
100
AcDbEntity
  8
寸法
 48
50.0
100
AcDbDimension
  2
*D36
 10
3739.673057123657
 20
5018.657870445171
 30
0.0
 11
5794.673057123657
 21
5118.657870445171
 31
0.0
 70
    32
  1
柱外寸法 N X 1370
 71
     5
 42
4110.0
  3
INABA_S40G
100
AcDbAlignedDimension
 13
7849.673057123657
 23
4612.9315987048
 33
0.0
 14
3739.673057123657
 24
4612.931598713267
 34
0.0
100
AcDbRotatedDimension
  0
LINE
  5
19E21
330
747D
100
AcDbEntity
  8
部品1
 48
50.0
100
AcDbLine
 10
6469.67305712366
 20
4471.931598713264
 30
0.0
 11
6469.673057123657
 21
4612.931598713264
 31
0.0
  0
LINE
  5
19E22
330
747D
100
AcDbEntity
  8
部品1
 48
50.0
100
AcDbLine
 10
6479.673057123661
 20
4212.931598713261
 30
0.0
 11
6479.673057123661
 21
4471.931598713264
 31
0.0
  0
ARC
  5
19E23
330
747D
100
AcDbEntity
  8
部品1
 48
0.01
100
AcDbCircle
 10
6942.673057123657
 20
4410.431598713262
 30
0.0
 40
2.0
100
AcDbArc
 50
270.0
 51
0.0
  0
ARC
  5
19E24
330
747D
100
AcDbEntity
  8
部品1
 48
0.01
100
AcDbCircle
 10
6942.673057123657
 20
4441.931598713261
 30
0.0
 40
2.0
100
AcDbArc
 50
0.0
 51
90.0
  0
ARC
  5
19E25
330
747D
100
AcDbEntity
  8
部品1
 48
0.01
100
AcDbCircle
 10
6766.673057123657
 20
4410.431598713262
 30
0.0
 40
2.0
100
AcDbArc
 50
180.0
 51
270.0
  0
ARC
  5
19E26
330
747D
100
AcDbEntity
  8
部品1
 48
0.01
100
AcDbCircle
 10
6766.673057123657
 20
4441.931598713261
 30
0.0
 40
2.0
100
AcDbArc
 50
90.0
 51
180.0
  0
LINE
  5
19E27
330
747D
100
AcDbEntity
  8
細線
100
AcDbLine
 10
6854.673057123656
 20
4414.431598713261
 30
0.0
 11
6928.673057123657
 21
4414.431598713261
 31
0.0
  0
LINE
  5
19E28
330
747D
100
AcDbEntity
  8
細線
100
AcDbLine
 10
6854.673057123656
 20
4437.431598713261
 30
0.0
 11
6780.673057123657
 21
4437.431598713261
 31
0.0
  0
LINE
  5
19E29
330
747D
100
AcDbEntity
  8
細線
100
AcDbLine
 10
6780.673057123657
 20
4414.431598713261
 30
0.0
 11
6854.673057123656
 21
4414.431598713261
 31
0.0
  0
LINE
  5
19E2A
330
747D
100
AcDbEntity
  8
細線
100
AcDbLine
 10
6928.673057123657
 20
4437.431598713261
 30
0.0
 11
6854.673057123656
 21
4437.431598713261
 31
0.0
  0
LINE
  5
19E2B
330
747D
100
AcDbEntity
  8
細線
100
AcDbLine
 10
6928.673057123657
 20
4414.431598713261
 30
0.0
 11
6928.673057123657
 21
4437.431598713261
 31
0.0
  0
LINE
  5
19E2C
330
747D
100
AcDbEntity
  8
細線
100
AcDbLine
 10
6780.673057123657
 20
4437.431598713261
 30
0.0
 11
6780.673057123657
 21
4414.431598713261
 31
0.0
  0
LINE
  5
19E2D
330
747D
100
AcDbEntity
  8
部品1
 48
0.01
100
AcDbLine
 10
6944.673057123657
 20
4410.431598713262
 30
0.0
 11
6944.673057123657
 21
4441.931598713261
 31
0.0
  0
LINE
  5
19E2E
330
747D
100
AcDbEntity
  8
部品1
 48
0.01
100
AcDbLine
 10
6766.673057123657
 20
4408.431598713261
 30
0.0
 11
6942.673057123657
 21
4408.431598713261
 31
0.0
  0
LINE
  5
19E2F
330
747D
100
AcDbEntity
  8
部品1
 48
0.01
100
AcDbLine
 10
6764.673057123657
 20
4441.931598713261
 30
0.0
 11
6764.673057123657
 21
4410.431598713262
 31
0.0
  0
LINE
  5
19E30
330
747D
100
AcDbEntity
  8
部品1
 48
0.01
100
AcDbLine
 10
6942.673057123657
 20
4443.931598713262
 30
0.0
 11
6766.673057123657
 21
4443.931598713262
 31
0.0
  0
LINE
  5
19E31
330
747D
100
AcDbEntity
  8
細線
100
AcDbLine
 10
6780.673057123657
 20
4431.431598713261
 30
0.0
 11
6854.673057123656
 21
4431.431598713261
 31
0.0
  0
LINE
  5
19E32
330
747D
100
AcDbEntity
  8
細線
100
AcDbLine
 10
6780.673057123657
 20
4425.431598713261
 30
0.0
 11
6854.673057123656
 21
4425.431598713261
 31
0.0
  0
LINE
  5
19E33
330
747D
100
AcDbEntity
  8
細線
100
AcDbLine
 10
6780.673057123657
 20
4419.431598713261
 30
0.0
 11
6854.673057123656
 21
4419.431598713261
 31
0.0
  0
LINE
  5
19E34
330
747D
100
AcDbEntity
  8
細線
100
AcDbLine
 10
6780.673057123657
 20
4431.431598713261
 30
0.0
 11
6849.673057123657
 21
4431.431598713261
 31
0.0
  0
LINE
  5
19E35
330
747D
100
AcDbEntity
  8
細線
100
AcDbLine
 10
6928.673057123657
 20
4431.431598713261
 30
0.0
 11
6854.673057123656
 21
4431.431598713261
 31
0.0
  0
LINE
  5
19E36
330
747D
100
AcDbEntity
  8
細線
100
AcDbLine
 10
6928.673057123657
 20
4419.431598713261
 30
0.0
 11
6854.673057123656
 21
4419.431598713261
 31
0.0
  0
LINE
  5
19E37
330
747D
100
AcDbEntity
  8
細線
100
AcDbLine
 10
6928.673057123657
 20
4425.431598713261
 30
0.0
 11
6854.673057123656
 21
4425.431598713261
 31
0.0
  0
LINE
  5
19E38
330
747D
100
AcDbEntity
  8
細線
100
AcDbLine
 10
6854.673057123656
 20
4437.431598713261
 30
0.0
 11
6854.673057123656
 21
4414.431598713261
 31
0.0
  0
LINE
  5
19E39
330
747D
100
AcDbEntity
  8
細線
100
AcDbLine
 10
7474.673057123657
 20
4437.431598713261
 30
0.0
 11
7474.673057123657
 21
4414.431598713261
 31
0.0
  0
LINE
  5
19E3A
330
747D
100
AcDbEntity
  8
細線
100
AcDbLine
 10
7400.673057123658
 20
4425.431598713261
 30
0.0
 11
7474.673057123657
 21
4425.431598713261
 31
0.0
  0
LINE
  5
19E3B
330
747D
100
AcDbEntity
  8
細線
100
AcDbLine
 10
7400.673057123658
 20
4419.431598713261
 30
0.0
 11
7474.673057123657
 21
4419.431598713261
 31
0.0
  0
LINE
  5
19E3C
330
747D
100
AcDbEntity
  8
細線
100
AcDbLine
 10
7400.673057123658
 20
4431.431598713261
 30
0.0
 11
7474.673057123657
 21
4431.431598713261
 31
0.0
  0
LINE
  5
19E3D
330
747D
100
AcDbEntity
  8
細線
100
AcDbLine
 10
7548.673057123656
 20
4431.431598713261
 30
0.0
 11
7479.673057123656
 21
4431.431598713261
 31
0.0
  0
LINE
  5
19E3E
330
747D
100
AcDbEntity
  8
細線
100
AcDbLine
 10
7548.673057123656
 20
4419.431598713261
 30
0.0
 11
7474.673057123657
 21
4419.431598713261
 31
0.0
  0
LINE
  5
19E3F
330
747D
100
AcDbEntity
  8
細線
100
AcDbLine
 10
7548.673057123656
 20
4425.431598713261
 30
0.0
 11
7474.673057123657
 21
4425.431598713261
 31
0.0
  0
LINE
  5
19E40
330
747D
100
AcDbEntity
  8
細線
100
AcDbLine
 10
7548.673057123656
 20
4431.431598713261
 30
0.0
 11
7474.673057123657
 21
4431.431598713261
 31
0.0
  0
LINE
  5
19E41
330
747D
100
AcDbEntity
  8
部品1
 48
0.01
100
AcDbLine
 10
7386.673057123657
 20
4443.931598713262
 30
0.0
 11
7562.673057123657
 21
4443.931598713262
 31
0.0
  0
LINE
  5
19E42
330
747D
100
AcDbEntity
  8
部品1
 48
0.01
100
AcDbLine
 10
7564.673057123657
 20
4441.931598713261
 30
0.0
 11
7564.673057123657
 21
4410.431598713262
 31
0.0
  0
LINE
  5
19E43
330
747D
100
AcDbEntity
  8
部品1
 48
0.01
100
AcDbLine
 10
7562.673057123657
 20
4408.431598713261
 30
0.0
 11
7386.673057123657
 21
4408.431598713261
 31
0.0
  0
LINE
  5
19E44
330
747D
100
AcDbEntity
  8
部品1
 48
0.01
100
AcDbLine
 10
7384.673057123656
 20
4410.431598713262
 30
0.0
 11
7384.673057123656
 21
4441.931598713261
 31
0.0
  0
LINE
  5
19E45
330
747D
100
AcDbEntity
  8
細線
100
AcDbLine
 10
7548.673057123656
 20
4437.431598713261
 30
0.0
 11
7548.673057123656
 21
4414.431598713261
 31
0.0
  0
LINE
  5
19E46
330
747D
100
AcDbEntity
  8
細線
100
AcDbLine
 10
7400.673057123658
 20
4414.431598713261
 30
0.0
 11
7400.673057123658
 21
4437.431598713261
 31
0.0
  0
LINE
  5
19E47
330
747D
100
AcDbEntity
  8
細線
100
AcDbLine
 10
7400.673057123658
 20
4437.431598713261
 30
0.0
 11
7474.673057123657
 21
4437.431598713261
 31
0.0
  0
LINE
  5
19E48
330
747D
100
AcDbEntity
  8
細線
100
AcDbLine
 10
7548.673057123656
 20
4414.431598713261
 30
0.0
 11
7474.673057123657
 21
4414.431598713261
 31
0.0
  0
LINE
  5
19E49
330
747D
100
AcDbEntity
  8
細線
100
AcDbLine
 10
7474.673057123657
 20
4437.431598713261
 30
0.0
 11
7548.673057123656
 21
4437.431598713261
 31
0.0
  0
LINE
  5
19E4A
330
747D
100
AcDbEntity
  8
細線
100
AcDbLine
 10
7474.673057123657
 20
4414.431598713261
 30
0.0
 11
7400.673057123658
 21
4414.431598713261
 31
0.0
  0
ARC
  5
19E4B
330
747D
100
AcDbEntity
  8
部品1
 48
0.01
100
AcDbCircle
 10
7562.673057123657
 20
4441.931598713261
 30
0.0
 40
2.0
100
AcDbArc
 50
0.0
 51
90.0
  0
ARC
  5
19E4C
330
747D
100
AcDbEntity
  8
部品1
 48
0.01
100
AcDbCircle
 10
7562.673057123657
 20
4410.431598713262
 30
0.0
 40
2.0
100
AcDbArc
 50
270.0
 51
0.0
  0
ARC
  5
19E4D
330
747D
100
AcDbEntity
  8
部品1
 48
0.01
100
AcDbCircle
 10
7386.673057123657
 20
4441.931598713261
 30
0.0
 40
2.0
100
AcDbArc
 50
90.0
 51
180.0
  0
ARC
  5
19E4E
330
747D
100
AcDbEntity
  8
部品1
 48
0.01
100
AcDbCircle
 10
7386.673057123657
 20
4410.431598713262
 30
0.0
 40
2.0
100
AcDbArc
 50
180.0
 51
270.0
  0
LINE
  5
19E4F
330
747D
100
AcDbEntity
  8
部品1
 48
50.0
100
AcDbLine
 10
5109.673057123661
 20
4212.931598713261
 30
0.0
 11
5109.673057123661
 21
4471.931598713265
 31
0.0
  0
LINE
  5
19E50
330
747D
100
AcDbEntity
  8
部品1
 48
50.0
100
AcDbLine
 10
5099.67305712366
 20
4471.931598713265
 30
0.0
 11
5099.673057123657
 21
4612.931598713265
 31
0.0
  0
LINE
  5
19E7D
330
747D
100
AcDbEntity
  8
部品1
100
AcDbLine
 10
3739.673057123657
 20
4377.931598713261
 30
0.0
 11
7849.673057123656
 21
4377.931598713259
 31
0.0
  0
LINE
  5
19E82
330
747D
100
AcDbEntity
  8
部品1
100
AcDbLine
 10
7899.253396108327
 20
4605.535073318028
 30
0.0
 11
7898.119998775978
 21
4585.558945335429
 31
0.0
  0
LINE
  5
19E83
330
747D
100
AcDbEntity
  8
細線
 48
50.0
100
AcDbLine
 10
7866.673057123657
 20
4612.931598713267
 30
0.0
 11
7866.673057123657
 21
4471.931598713267
 31
0.0
  0
LINE
  5
19E84
330
747D
100
AcDbEntity
  8
細線
 48
50.0
100
AcDbLine
 10
3722.673057123657
 20
4612.931598713265
 30
0.0
 11
3722.673057123657
 21
4471.931598713265
 31
0.0
  0
LINE
  5
19E85
330
747D
100
AcDbEntity
  8
部品1
100
AcDbLine
 10
7886.682978454401
 20
4489.901538168368
 30
0.0
 11
7886.038072647288
 21
4478.535073318028
 31
0.0
  0
LINE
  5
19E86
330
747D
100
AcDbEntity
  8
部品1
100
AcDbLine
 10
7894.919008979248
 20
4582.10153816837
 30
0.0
 11
7889.883968251133
 21
4493.358945335426
 31
0.0
  0
ARC
  5
19E87
330
747D
100
AcDbEntity
  8
部品1
 48
50.0
100
AcDbCircle
 10
7897.914191875433
 20
4581.93159871327
 30
0.0
 40
3.0
100
AcDbArc
 50
97.65812720736519
 51
176.7526572096653
  0
ARC
  5
19E88
330
747D
100
AcDbEntity
  8
部品1
 48
50.0
100
AcDbCircle
 10
7889.678161350591
 20
4489.731598713265
 30
0.0
 40
3.0
100
AcDbArc
 50
97.65812720736519
 51
176.7526572096653
  0
ARC
  5
19E89
330
747D
100
AcDbEntity
  8
部品1
 48
50.0
100
AcDbCircle
 10
7889.185092242029
 20
4493.39859787495
 30
0.0
 40
0.7
100
AcDbArc
 50
277.6581272073652
 51
356.7526572096653
  0
ARC
  5
19E8A
330
747D
100
AcDbEntity
  8
部品1
 48
50.0
100
AcDbCircle
 10
7897.421122766869
 20
4585.598597874953
 30
0.0
 40
0.7
100
AcDbArc
 50
277.6581272073652
 51
356.7526572096132
  0
ARC
  5
19E8B
330
747D
100
AcDbEntity
  8
部品1
100
AcDbCircle
 10
7879.049312556194
 20
4478.931598713269
 30
0.0
 40
7.0
100
AcDbArc
 50
270.0
 51
356.7526572096653
  0
ARC
  5
19E8C
330
747D
100
AcDbEntity
  8
部品1
100
AcDbCircle
 10
7892.264636017223
 20
4605.931598713268
 30
0.0
 40
7.0
100
AcDbArc
 50
356.7526572096653
 51
90.0
  0
ARC
  5
19E8D
330
747D
100
AcDbEntity
  8
部品1
100
AcDbCircle
 10
3697.08147823009
 20
4605.931598713264
 30
0.0
 40
7.0
100
AcDbArc
 50
90.0
 51
183.2473427903347
  0
ARC
  5
19E8E
330
747D
100
AcDbEntity
  8
部品1
100
AcDbCircle
 10
3710.29680169112
 20
4478.931598713266
 30
0.0
 40
7.0
100
AcDbArc
 50
183.2473427903347
 51
270.0
  0
ARC
  5
19E8F
330
747D
100
AcDbEntity
  8
部品1
 48
50.0
100
AcDbCircle
 10
3691.924991480448
 20
4585.598597874952
 30
0.0
 40
0.7
100
AcDbArc
 50
183.2473427903867
 51
262.3418727926349
  0
ARC
  5
19E90
330
747D
100
AcDbEntity
  8
部品1
 48
50.0
100
AcDbCircle
 10
3700.161022005285
 20
4493.398597874948
 30
0.0
 40
0.7
100
AcDbArc
 50
183.2473427903347
 51
262.3418727926349
  0
ARC
  5
19E91
330
747D
100
AcDbEntity
  8
部品1
 48
50.0
100
AcDbCircle
 10
3699.667952896724
 20
4489.731598713264
 30
0.0
 40
3.0
100
AcDbArc
 50
3.24734279033473
 51
82.3418727926348
  0
ARC
  5
19E92
330
747D
100
AcDbEntity
  8
部品1
 48
50.0
100
AcDbCircle
 10
3691.431922371879
 20
4581.931598713267
 30
0.0
 40
3.0
100
AcDbArc
 50
3.24734279033473
 51
82.3418727926348
  0
LINE
  5
19E93
330
747D
100
AcDbEntity
  8
部品1
100
AcDbLine
 10
3694.427105268065
 20
4582.101538168369
 30
0.0
 11
3699.46214599618
 21
4493.358945335425
 31
0.0
  0
LINE
  5
19E94
330
747D
100
AcDbEntity
  8
部品1
100
AcDbLine
 10
3702.663135792916
 20
4489.901538168367
 30
0.0
 11
3703.308041600025
 21
4478.535073318027
 31
0.0
  0
LINE
  5
19E95
330
747D
100
AcDbEntity
  8
部品1
100
AcDbLine
 10
3690.092718138987
 20
4605.535073318026
 30
0.0
 11
3691.226115471336
 21
4585.558945335426
 31
0.0
  0
ARC
  5
19E96
330
747D
100
AcDbEntity
  8
部品1
 48
0.01
100
AcDbCircle
 10
4646.673057123656
 20
4410.431598713262
 30
0.0
 40
2.0
100
AcDbArc
 50
180.0
 51
270.0
  0
ARC
  5
19E97
330
747D
100
AcDbEntity
  8
部品1
 48
0.01
100
AcDbCircle
 10
4646.673057123656
 20
4441.931598713261
 30
0.0
 40
2.0
100
AcDbArc
 50
90.0
 51
180.0
  0
ARC
  5
19E98
330
747D
100
AcDbEntity
  8
部品1
 48
0.01
100
AcDbCircle
 10
4822.673057123656
 20
4410.431598713262
 30
0.0
 40
2.0
100
AcDbArc
 50
270.0
 51
0.0
  0
ARC
  5
19E99
330
747D
100
AcDbEntity
  8
部品1
 48
0.01
100
AcDbCircle
 10
4822.673057123656
 20
4441.931598713261
 30
0.0
 40
2.0
100
AcDbArc
 50
0.0
 51
90.0
  0
LINE
  5
19E9A
330
747D
100
AcDbEntity
  8
細線
100
AcDbLine
 10
4734.673057123656
 20
4414.431598713261
 30
0.0
 11
4660.673057123656
 21
4414.431598713261
 31
0.0
  0
LINE
  5
19E9B
330
747D
100
AcDbEntity
  8
細線
100
AcDbLine
 10
4734.673057123656
 20
4437.431598713261
 30
0.0
 11
4808.673057123656
 21
4437.431598713261
 31
0.0
  0
LINE
  5
19E9C
330
747D
100
AcDbEntity
  8
細線
100
AcDbLine
 10
4808.673057123656
 20
4414.431598713261
 30
0.0
 11
4734.673057123656
 21
4414.431598713261
 31
0.0
  0
LINE
  5
19E9D
330
747D
100
AcDbEntity
  8
細線
100
AcDbLine
 10
4660.673057123656
 20
4437.431598713261
 30
0.0
 11
4734.673057123656
 21
4437.431598713261
 31
0.0
  0
LINE
  5
19E9E
330
747D
100
AcDbEntity
  8
細線
100
AcDbLine
 10
4660.673057123656
 20
4414.431598713261
 30
0.0
 11
4660.673057123656
 21
4437.431598713261
 31
0.0
  0
LINE
  5
19E9F
330
747D
100
AcDbEntity
  8
細線
100
AcDbLine
 10
4808.673057123656
 20
4437.431598713261
 30
0.0
 11
4808.673057123656
 21
4414.431598713261
 31
0.0
  0
LINE
  5
19EA0
330
747D
100
AcDbEntity
  8
部品1
 48
0.01
100
AcDbLine
 10
4644.673057123656
 20
4410.431598713262
 30
0.0
 11
4644.673057123656
 21
4441.931598713261
 31
0.0
  0
LINE
  5
19EA1
330
747D
100
AcDbEntity
  8
部品1
 48
0.01
100
AcDbLine
 10
4822.673057123656
 20
4408.431598713261
 30
0.0
 11
4646.673057123656
 21
4408.431598713261
 31
0.0
  0
LINE
  5
19EA2
330
747D
100
AcDbEntity
  8
部品1
 48
0.01
100
AcDbLine
 10
4824.673057123657
 20
4441.931598713261
 30
0.0
 11
4824.673057123657
 21
4410.431598713262
 31
0.0
  0
LINE
  5
19EA3
330
747D
100
AcDbEntity
  8
部品1
 48
0.01
100
AcDbLine
 10
4646.673057123656
 20
4443.931598713262
 30
0.0
 11
4822.673057123656
 21
4443.931598713262
 31
0.0
  0
LINE
  5
19EA4
330
747D
100
AcDbEntity
  8
細線
100
AcDbLine
 10
4808.673057123656
 20
4431.431598713261
 30
0.0
 11
4734.673057123656
 21
4431.431598713261
 31
0.0
  0
LINE
  5
19EA5
330
747D
100
AcDbEntity
  8
細線
100
AcDbLine
 10
4808.673057123656
 20
4425.431598713261
 30
0.0
 11
4734.673057123656
 21
4425.431598713261
 31
0.0
  0
LINE
  5
19EA6
330
747D
100
AcDbEntity
  8
細線
100
AcDbLine
 10
4808.673057123656
 20
4419.431598713261
 30
0.0
 11
4734.673057123656
 21
4419.431598713261
 31
0.0
  0
LINE
  5
19EA7
330
747D
100
AcDbEntity
  8
細線
100
AcDbLine
 10
4808.673057123656
 20
4431.431598713261
 30
0.0
 11
4739.673057123656
 21
4431.431598713261
 31
0.0
  0
LINE
  5
19EA8
330
747D
100
AcDbEntity
  8
細線
100
AcDbLine
 10
4660.673057123656
 20
4431.431598713261
 30
0.0
 11
4734.673057123656
 21
4431.431598713261
 31
0.0
  0
LINE
  5
19EA9
330
747D
100
AcDbEntity
  8
細線
100
AcDbLine
 10
4660.673057123656
 20
4419.431598713261
 30
0.0
 11
4734.673057123656
 21
4419.431598713261
 31
0.0
  0
LINE
  5
19EAA
330
747D
100
AcDbEntity
  8
細線
100
AcDbLine
 10
4660.673057123656
 20
4425.431598713261
 30
0.0
 11
4734.673057123656
 21
4425.431598713261
 31
0.0
  0
LINE
  5
19EAB
330
747D
100
AcDbEntity
  8
細線
100
AcDbLine
 10
4734.673057123656
 20
4437.431598713261
 30
0.0
 11
4734.673057123656
 21
4414.431598713261
 31
0.0
  0
LINE
  5
19EAC
330
747D
100
AcDbEntity
  8
細線
100
AcDbLine
 10
4114.673057123656
 20
4437.431598713261
 30
0.0
 11
4114.673057123656
 21
4414.431598713261
 31
0.0
  0
LINE
  5
19EAD
330
747D
100
AcDbEntity
  8
細線
100
AcDbLine
 10
4188.673057123657
 20
4425.431598713261
 30
0.0
 11
4114.673057123656
 21
4425.431598713261
 31
0.0
  0
LINE
  5
19EAE
330
747D
100
AcDbEntity
  8
細線
100
AcDbLine
 10
4188.673057123657
 20
4419.431598713261
 30
0.0
 11
4114.673057123656
 21
4419.431598713261
 31
0.0
  0
LINE
  5
19EAF
330
747D
100
AcDbEntity
  8
細線
100
AcDbLine
 10
4188.673057123657
 20
4431.431598713261
 30
0.0
 11
4114.673057123656
 21
4431.431598713261
 31
0.0
  0
LINE
  5
19EB0
330
747D
100
AcDbEntity
  8
細線
100
AcDbLine
 10
4040.673057123656
 20
4431.431598713261
 30
0.0
 11
4109.673057123656
 21
4431.431598713261
 31
0.0
  0
LINE
  5
19EB1
330
747D
100
AcDbEntity
  8
細線
100
AcDbLine
 10
4040.673057123656
 20
4419.431598713261
 30
0.0
 11
4114.673057123656
 21
4419.431598713261
 31
0.0
  0
LINE
  5
19EB2
330
747D
100
AcDbEntity
  8
細線
100
AcDbLine
 10
4040.673057123656
 20
4425.431598713261
 30
0.0
 11
4114.673057123656
 21
4425.431598713261
 31
0.0
  0
LINE
  5
19EB3
330
747D
100
AcDbEntity
  8
細線
100
AcDbLine
 10
4040.673057123656
 20
4431.431598713261
 30
0.0
 11
4114.673057123656
 21
4431.431598713261
 31
0.0
  0
LINE
  5
19EB4
330
747D
100
AcDbEntity
  8
部品1
 48
0.01
100
AcDbLine
 10
4202.673057123656
 20
4443.931598713262
 30
0.0
 11
4026.673057123656
 21
4443.931598713262
 31
0.0
  0
LINE
  5
19EB5
330
747D
100
AcDbEntity
  8
部品1
 48
0.01
100
AcDbLine
 10
4024.673057123656
 20
4441.931598713261
 30
0.0
 11
4024.673057123656
 21
4410.431598713262
 31
0.0
  0
LINE
  5
19EB6
330
747D
100
AcDbEntity
  8
部品1
 48
0.01
100
AcDbLine
 10
4026.673057123656
 20
4408.431598713261
 30
0.0
 11
4202.673057123656
 21
4408.431598713261
 31
0.0
  0
LINE
  5
19EB7
330
747D
100
AcDbEntity
  8
部品1
 48
0.01
100
AcDbLine
 10
4204.673057123656
 20
4410.431598713262
 30
0.0
 11
4204.673057123656
 21
4441.931598713261
 31
0.0
  0
LINE
  5
19EB8
330
747D
100
AcDbEntity
  8
細線
100
AcDbLine
 10
4040.673057123656
 20
4437.431598713261
 30
0.0
 11
4040.673057123656
 21
4414.431598713261
 31
0.0
  0
LINE
  5
19EB9
330
747D
100
AcDbEntity
  8
細線
100
AcDbLine
 10
4188.673057123657
 20
4414.431598713261
 30
0.0
 11
4188.673057123657
 21
4437.431598713261
 31
0.0
  0
LINE
  5
19EBA
330
747D
100
AcDbEntity
  8
細線
100
AcDbLine
 10
4188.673057123657
 20
4437.431598713261
 30
0.0
 11
4114.673057123656
 21
4437.431598713261
 31
0.0
  0
LINE
  5
19EBB
330
747D
100
AcDbEntity
  8
細線
100
AcDbLine
 10
4040.673057123656
 20
4414.431598713261
 30
0.0
 11
4114.673057123656
 21
4414.431598713261
 31
0.0
  0
LINE
  5
19EBC
330
747D
100
AcDbEntity
  8
細線
100
AcDbLine
 10
4114.673057123656
 20
4437.431598713261
 30
0.0
 11
4040.673057123656
 21
4437.431598713261
 31
0.0
  0
LINE
  5
19EBD
330
747D
100
AcDbEntity
  8
細線
100
AcDbLine
 10
4114.673057123656
 20
4414.431598713261
 30
0.0
 11
4188.673057123657
 21
4414.431598713261
 31
0.0
  0
ARC
  5
19EBE
330
747D
100
AcDbEntity
  8
部品1
 48
0.01
100
AcDbCircle
 10
4026.673057123656
 20
4441.931598713261
 30
0.0
 40
2.0
100
AcDbArc
 50
90.0
 51
180.0
  0
ARC
  5
19EBF
330
747D
100
AcDbEntity
  8
部品1
 48
0.01
100
AcDbCircle
 10
4026.673057123656
 20
4410.431598713262
 30
0.0
 40
2.0
100
AcDbArc
 50
180.0
 51
270.0
  0
ARC
  5
19EC0
330
747D
100
AcDbEntity
  8
部品1
 48
0.01
100
AcDbCircle
 10
4202.673057123656
 20
4441.931598713261
 30
0.0
 40
2.0
100
AcDbArc
 50
0.0
 51
90.0
  0
ARC
  5
19EC1
330
747D
100
AcDbEntity
  8
部品1
 48
0.01
100
AcDbCircle
 10
4202.673057123656
 20
4410.431598713262
 30
0.0
 40
2.0
100
AcDbArc
 50
270.0
 51
0.0
  0
DIMENSION
  5
19EC2
330
747D
100
AcDbEntity
  8
寸法
 48
50.0
100
AcDbDimension
  2
*D37
 10
3689.673057123657
 20
5018.657870445171
 30
0.0
 11
3376.18777574941
 21
5018.657870445171
 31
0.0
 70
   160
 71
     5
 42
50.0
  3
INABA_S40G
100
AcDbAlignedDimension
 13
3739.673057123657
 23
4612.931598713267
 33
0.0
 14
3689.673057123657
 24
4612.931598713267
 34
0.0
100
AcDbRotatedDimension
1001
ACAD
1000
DSTYLE
1002
{
1002
}
  0
DIMENSION
  5
19EC3
330
747D
100
AcDbEntity
  8
寸法
 48
50.0
100
AcDbDimension
  2
*D38
 10
7849.673057123657
 20
5018.657870445173
 30
0.0
 11
8213.158338497896
 21
5018.657870445173
 31
0.0
 70
   160
 71
     5
 42
50.0
  3
INABA_S40G
100
AcDbAlignedDimension
 13
7899.673057123656
 23
4612.931598713266
 33
0.0
 14
7849.673057123657
 24
4612.931598713268
 34
0.0
100
AcDbRotatedDimension
  0
DIMENSION
  5
19FA4
330
747D
100
AcDbEntity
  8
寸法
 48
50.0
100
AcDbDimension
  2
*D35
 10
7899.673057123656
 20
5218.566791659261
 30
0.0
 11
5794.673057123657
 21
5218.566791659261
 31
0.0
 70
   160
  1
N X 1370+100
 71
     5
 42
4210.0
  3
INABA_S40G
100
AcDbAlignedDimension
 13
3689.673057123657
 23
4612.931598713267
 33
0.0
 14
7899.673057123656
 24
4612.931598713266
 34
0.0
100
AcDbRotatedDimension
  0
DIMENSION
  5
1A215
330
747D
100
AcDbEntity
  8
寸法
 48
50.0
100
AcDbDimension
  2
*D39
 10
8137.216159445404
 20
4377.931598713261
 30
0.0
 11
8137.216159445403
 21
4616.4168800875
 31
0.0
 70
   160
 71
     5
 42
164.9999999999991
  3
INABA_S40G
100
AcDbAlignedDimension
 13
7849.673057123657
 23
4212.931598713262
 33
0.0
 14
7849.673057123657
 24
4377.931598713261
 34
0.0
 50
90.0
100
AcDbRotatedDimension
1001
ACAD
1000
DSTYLE
1002
{
1002
}
  0
DIMENSION
  5
1A216
330
747D
100
AcDbEntity
  8
寸法
 48
50.0
100
AcDbDimension
  2
*D40
 10
8137.216159445403
 20
4212.931598713262
 30
0.0
 11
8277.385982691768
 21
4213.898798552921
 31
0.0
 70
   160
 71
     5
 42
27.00000000000091
  3
INABA_S40G
100
AcDbAlignedDimension
 13
7849.673057123657
 23
4185.931598713261
 33
0.0
 14
7849.673057123657
 24
4212.931598713262
 34
0.0
 50
90.0
100
AcDbRotatedDimension
1001
ACAD
1000
DSTYLE
1002
{
1070
   279
1070
     2
1002
}
  0
DIMENSION
  5
1A217
330
747D
100
AcDbEntity
  8
寸法
 48
50.0
100
AcDbDimension
  2
*D41
 10
8137.216159445403
 20
4185.931598713261
 30
0.0
 11
8037.216159445403
 21
3361.931598713263
 31
0.0
 70
    32
  1
有効開口部高サ <>
 71
     5
 42
1648.0
  3
INABA_S40G
100
AcDbAlignedDimension
 13
7849.673057123657
 23
2537.931598713262
 33
0.0
 14
7849.673057123657
 24
4185.931598713261
 34
0.0
 50
90.0
100
AcDbRotatedDimension
  0
LINE
  5
1A33C
330
747D
100
AcDbEntity
  8
破線
 48
5.0
100
AcDbLine
 10
5109.673057123657
 20
2262.931598713262
 30
0.0
 11
5109.673057123657
 21
2187.931598713262
 31
0.0
  0
LINE
  5
1A33D
330
747D
100
AcDbEntity
  8
破線
 48
5.0
100
AcDbLine
 10
6479.673057123656
 20
2262.931598713262
 30
0.0
 11
6479.673057123656
 21
2187.931598713261
 31
0.0
  0
LINE
  5
1A33E
330
747D
100
AcDbEntity
  8
破線
 48
5.0
100
AcDbLine
 10
5059.673057123657
 20
2187.931598713262
 30
0.0
 11
5159.673057123657
 21
2187.931598713262
 31
0.0
  0
LINE
  5
1A33F
330
747D
100
AcDbEntity
  8
破線
 48
5.0
100
AcDbLine
 10
6429.673057123657
 20
2187.931598713261
 30
0.0
 11
6529.673057123656
 21
2187.931598713261
 31
0.0
  0
TEXT
  5
1A345
330
747D
100
AcDbEntity
  8
文字
 62
     7
 48
50.0
100
AcDbText
 10
15022.63965474517
 20
10760.01374588372
 30
0.0
 40
100.0
  1
F12         1.0,1.2
  7
STYLE1
100
AcDbText
  0
LINE
  5
1A348
330
747D
100
AcDbEntity
  8
仕様書枠
 48
50.0
100
AcDbLine
 10
16307.19999999999
 20
8689.6
 30
0.0
 11
13127.19999999999
 21
8689.600000000003
 31
0.0
  0
TEXT
  5
1A34E
330
747D
100
AcDbEntity
  8
文字
 62
     7
 48
50.0
100
AcDbText
 10
15022.63965474516
 20
9060.013745883727
 30
0.0
 40
100.0
  1
F12            0.7
  7
STYLE1
100
AcDbText
  0
LINE
  5
1A365
330
747D
100
AcDbEntity
  8
部品1
 48
50.0
100
AcDbLine
 10
5176.673057123655
 20
7602.521693399428
 30
0.0
 11
6412.67305712364
 21
7602.521693399428
 31
0.0
  0
ARC
  5
1A366
330
747D
100
AcDbEntity
  8
部品1
 48
0.01
100
AcDbCircle
 10
5572.673057123656
 20
4410.431598713262
 30
0.0
 40
2.0
100
AcDbArc
 50
270.0
 51
0.0
  0
ARC
  5
1A367
330
747D
100
AcDbEntity
  8
部品1
 48
0.01
100
AcDbCircle
 10
5572.673057123656
 20
4441.931598713261
 30
0.0
 40
2.0
100
AcDbArc
 50
0.0
 51
90.0
  0
ARC
  5
1A368
330
747D
100
AcDbEntity
  8
部品1
 48
0.01
100
AcDbCircle
 10
5396.673057123656
 20
4410.431598713262
 30
0.0
 40
2.0
100
AcDbArc
 50
180.0
 51
270.0
  0
ARC
  5
1A369
330
747D
100
AcDbEntity
  8
部品1
 48
0.01
100
AcDbCircle
 10
5396.673057123656
 20
4441.931598713261
 30
0.0
 40
2.0
100
AcDbArc
 50
90.0
 51
180.0
  0
LINE
  5
1A36A
330
747D
100
AcDbEntity
  8
細線
100
AcDbLine
 10
5484.673057123657
 20
4414.431598713261
 30
0.0
 11
5558.673057123656
 21
4414.431598713261
 31
0.0
  0
LINE
  5
1A36B
330
747D
100
AcDbEntity
  8
細線
100
AcDbLine
 10
5484.673057123657
 20
4437.431598713261
 30
0.0
 11
5410.673057123656
 21
4437.431598713261
 31
0.0
  0
LINE
  5
1A36C
330
747D
100
AcDbEntity
  8
細線
100
AcDbLine
 10
5410.673057123656
 20
4414.431598713261
 30
0.0
 11
5484.673057123657
 21
4414.431598713261
 31
0.0
  0
LINE
  5
1A36D
330
747D
100
AcDbEntity
  8
細線
100
AcDbLine
 10
5558.673057123656
 20
4437.431598713261
 30
0.0
 11
5484.673057123657
 21
4437.431598713261
 31
0.0
  0
LINE
  5
1A36E
330
747D
100
AcDbEntity
  8
細線
100
AcDbLine
 10
5558.673057123656
 20
4414.431598713261
 30
0.0
 11
5558.673057123656
 21
4437.431598713261
 31
0.0
  0
LINE
  5
1A36F
330
747D
100
AcDbEntity
  8
細線
100
AcDbLine
 10
5410.673057123656
 20
4437.431598713261
 30
0.0
 11
5410.673057123656
 21
4414.431598713261
 31
0.0
  0
LINE
  5
1A370
330
747D
100
AcDbEntity
  8
部品1
 48
0.01
100
AcDbLine
 10
5574.673057123657
 20
4410.431598713262
 30
0.0
 11
5574.673057123657
 21
4441.931598713261
 31
0.0
  0
LINE
  5
1A371
330
747D
100
AcDbEntity
  8
部品1
 48
0.01
100
AcDbLine
 10
5396.673057123656
 20
4408.431598713261
 30
0.0
 11
5572.673057123656
 21
4408.431598713261
 31
0.0
  0
LINE
  5
1A372
330
747D
100
AcDbEntity
  8
部品1
 48
0.01
100
AcDbLine
 10
5394.673057123657
 20
4441.931598713261
 30
0.0
 11
5394.673057123657
 21
4410.431598713262
 31
0.0
  0
LINE
  5
1A373
330
747D
100
AcDbEntity
  8
部品1
 48
0.01
100
AcDbLine
 10
5572.673057123656
 20
4443.931598713262
 30
0.0
 11
5396.673057123656
 21
4443.931598713262
 31
0.0
  0
LINE
  5
1A374
330
747D
100
AcDbEntity
  8
細線
100
AcDbLine
 10
5410.673057123656
 20
4431.431598713261
 30
0.0
 11
5484.673057123657
 21
4431.431598713261
 31
0.0
  0
LINE
  5
1A375
330
747D
100
AcDbEntity
  8
細線
100
AcDbLine
 10
5410.673057123656
 20
4425.431598713261
 30
0.0
 11
5484.673057123657
 21
4425.431598713261
 31
0.0
  0
LINE
  5
1A376
330
747D
100
AcDbEntity
  8
細線
100
AcDbLine
 10
5410.673057123656
 20
4419.431598713261
 30
0.0
 11
5484.673057123657
 21
4419.431598713261
 31
0.0
  0
LINE
  5
1A377
330
747D
100
AcDbEntity
  8
細線
100
AcDbLine
 10
5410.673057123656
 20
4431.431598713261
 30
0.0
 11
5479.673057123656
 21
4431.431598713261
 31
0.0
  0
LINE
  5
1A378
330
747D
100
AcDbEntity
  8
細線
100
AcDbLine
 10
5558.673057123656
 20
4431.431598713261
 30
0.0
 11
5484.673057123657
 21
4431.431598713261
 31
0.0
  0
LINE
  5
1A379
330
747D
100
AcDbEntity
  8
細線
100
AcDbLine
 10
5558.673057123656
 20
4419.431598713261
 30
0.0
 11
5484.673057123657
 21
4419.431598713261
 31
0.0
  0
LINE
  5
1A37A
330
747D
100
AcDbEntity
  8
細線
100
AcDbLine
 10
5558.673057123656
 20
4425.431598713261
 30
0.0
 11
5484.673057123657
 21
4425.431598713261
 31
0.0
  0
LINE
  5
1A37B
330
747D
100
AcDbEntity
  8
細線
100
AcDbLine
 10
5484.673057123657
 20
4437.431598713261
 30
0.0
 11
5484.673057123657
 21
4414.431598713261
 31
0.0
  0
LINE
  5
1A37C
330
747D
100
AcDbEntity
  8
細線
100
AcDbLine
 10
6104.673057123656
 20
4437.431598713261
 30
0.0
 11
6104.673057123656
 21
4414.431598713261
 31
0.0
  0
LINE
  5
1A37D
330
747D
100
AcDbEntity
  8
細線
100
AcDbLine
 10
6030.673057123657
 20
4425.431598713261
 30
0.0
 11
6104.673057123656
 21
4425.431598713261
 31
0.0
  0
LINE
  5
1A37E
330
747D
100
AcDbEntity
  8
細線
100
AcDbLine
 10
6030.673057123657
 20
4419.431598713261
 30
0.0
 11
6104.673057123656
 21
4419.431598713261
 31
0.0
  0
LINE
  5
1A37F
330
747D
100
AcDbEntity
  8
細線
100
AcDbLine
 10
6030.673057123657
 20
4431.431598713261
 30
0.0
 11
6104.673057123656
 21
4431.431598713261
 31
0.0
  0
LINE
  5
1A380
330
747D
100
AcDbEntity
  8
細線
100
AcDbLine
 10
6178.673057123656
 20
4431.431598713261
 30
0.0
 11
6109.673057123657
 21
4431.431598713261
 31
0.0
  0
LINE
  5
1A381
330
747D
100
AcDbEntity
  8
細線
100
AcDbLine
 10
6178.673057123656
 20
4419.431598713261
 30
0.0
 11
6104.673057123656
 21
4419.431598713261
 31
0.0
  0
LINE
  5
1A382
330
747D
100
AcDbEntity
  8
細線
100
AcDbLine
 10
6178.673057123656
 20
4425.431598713261
 30
0.0
 11
6104.673057123656
 21
4425.431598713261
 31
0.0
  0
LINE
  5
1A383
330
747D
100
AcDbEntity
  8
細線
100
AcDbLine
 10
6178.673057123656
 20
4431.431598713261
 30
0.0
 11
6104.673057123656
 21
4431.431598713261
 31
0.0
  0
LINE
  5
1A384
330
747D
100
AcDbEntity
  8
部品1
 48
0.01
100
AcDbLine
 10
6016.673057123657
 20
4443.931598713262
 30
0.0
 11
6192.673057123657
 21
4443.931598713262
 31
0.0
  0
LINE
  5
1A385
330
747D
100
AcDbEntity
  8
部品1
 48
0.01
100
AcDbLine
 10
6194.673057123657
 20
4441.931598713261
 30
0.0
 11
6194.673057123657
 21
4410.431598713262
 31
0.0
  0
LINE
  5
1A386
330
747D
100
AcDbEntity
  8
部品1
 48
0.01
100
AcDbLine
 10
6192.673057123657
 20
4408.431598713261
 30
0.0
 11
6016.673057123657
 21
4408.431598713261
 31
0.0
  0
LINE
  5
1A387
330
747D
100
AcDbEntity
  8
部品1
 48
0.01
100
AcDbLine
 10
6014.673057123657
 20
4410.431598713262
 30
0.0
 11
6014.673057123657
 21
4441.931598713261
 31
0.0
  0
LINE
  5
1A388
330
747D
100
AcDbEntity
  8
細線
100
AcDbLine
 10
6178.673057123656
 20
4437.431598713261
 30
0.0
 11
6178.673057123656
 21
4414.431598713261
 31
0.0
  0
LINE
  5
1A389
330
747D
100
AcDbEntity
  8
細線
100
AcDbLine
 10
6030.673057123657
 20
4414.431598713261
 30
0.0
 11
6030.673057123657
 21
4437.431598713261
 31
0.0
  0
LINE
  5
1A38A
330
747D
100
AcDbEntity
  8
細線
100
AcDbLine
 10
6030.673057123657
 20
4437.431598713261
 30
0.0
 11
6104.673057123656
 21
4437.431598713261
 31
0.0
  0
LINE
  5
1A38B
330
747D
100
AcDbEntity
  8
細線
100
AcDbLine
 10
6178.673057123656
 20
4414.431598713261
 30
0.0
 11
6104.673057123656
 21
4414.431598713261
 31
0.0
  0
LINE
  5
1A38C
330
747D
100
AcDbEntity
  8
細線
100
AcDbLine
 10
6104.673057123656
 20
4437.431598713261
 30
0.0
 11
6178.673057123656
 21
4437.431598713261
 31
0.0
  0
LINE
  5
1A38D
330
747D
100
AcDbEntity
  8
細線
100
AcDbLine
 10
6104.673057123656
 20
4414.431598713261
 30
0.0
 11
6030.673057123657
 21
4414.431598713261
 31
0.0
  0
ARC
  5
1A38E
330
747D
100
AcDbEntity
  8
部品1
 48
0.01
100
AcDbCircle
 10
6192.673057123657
 20
4441.931598713261
 30
0.0
 40
2.0
100
AcDbArc
 50
0.0
 51
90.0
  0
ARC
  5
1A38F
330
747D
100
AcDbEntity
  8
部品1
 48
0.01
100
AcDbCircle
 10
6192.673057123657
 20
4410.431598713262
 30
0.0
 40
2.0
100
AcDbArc
 50
270.0
 51
0.0
  0
ARC
  5
1A390
330
747D
100
AcDbEntity
  8
部品1
 48
0.01
100
AcDbCircle
 10
6016.673057123657
 20
4441.931598713261
 30
0.0
 40
2.0
100
AcDbArc
 50
90.0
 51
180.0
  0
ARC
  5
1A391
330
747D
100
AcDbEntity
  8
部品1
 48
0.01
100
AcDbCircle
 10
6016.673057123657
 20
4410.431598713262
 30
0.0
 40
2.0
100
AcDbArc
 50
180.0
 51
270.0
  0
CIRCLE
  5
1A392
330
747D
100
AcDbEntity
  8
細線
 48
50.0
100
AcDbCircle
 10
5794.673057123658
 20
3425.431598713262
 30
0.0
 40
18.0
  0
ARC
  5
1A393
330
747D
100
AcDbEntity
  8
細線
 48
50.0
100
AcDbCircle
 10
6094.673057123658
 20
3100.431598713262
 30
0.0
 40
15.0
100
AcDbArc
 50
270.0
 51
90.0
  0
ARC
  5
1A394
330
747D
100
AcDbEntity
  8
細線
 48
50.0
100
AcDbCircle
 10
5994.673057123658
 20
3100.431598713262
 30
0.0
 40
15.0
100
AcDbArc
 50
90.0
 51
270.0
  0
LINE
  5
1A395
330
747D
100
AcDbEntity
  8
細線
 48
50.0
100
AcDbLine
 10
5994.673057123658
 20
3115.431598713261
 30
0.0
 11
6094.673057123658
 21
3115.431598713261
 31
0.0
  0
LINE
  5
1A396
330
747D
100
AcDbEntity
  8
細線
 48
50.0
100
AcDbLine
 10
6094.673057123658
 20
3085.431598713262
 30
0.0
 11
5994.673057123658
 21
3085.431598713262
 31
0.0
  0
LINE
  5
1A397
330
747D
100
AcDbEntity
  8
細線
 48
50.0
100
AcDbLine
 10
5594.673057123658
 20
3085.431598713262
 30
0.0
 11
5494.673057123658
 21
3085.431598713262
 31
0.0
  0
LINE
  5
1A398
330
747D
100
AcDbEntity
  8
細線
 48
50.0
100
AcDbLine
 10
5494.673057123658
 20
3115.431598713261
 30
0.0
 11
5594.673057123658
 21
3115.431598713261
 31
0.0
  0
ARC
  5
1A399
330
747D
100
AcDbEntity
  8
細線
 48
50.0
100
AcDbCircle
 10
5594.673057123658
 20
3100.431598713262
 30
0.0
 40
15.0
100
AcDbArc
 50
270.0
 51
90.0
  0
ARC
  5
1A39A
330
747D
100
AcDbEntity
  8
細線
 48
50.0
100
AcDbCircle
 10
5494.673057123658
 20
3100.431598713262
 30
0.0
 40
15.0
100
AcDbArc
 50
90.0
 51
270.0
  0
LINE
  5
1A39B
330
747D
100
AcDbEntity
  8
部品1
100
AcDbLine
 10
5164.673057123657
 20
4212.931598713261
 30
0.0
 11
6534.673057123656
 21
4212.931598713261
 31
0.0
  0
LINE
  5
1A39C
330
747D
100
AcDbEntity
  8
細線
100
AcDbLine
 10
5212.673057123653
 20
3067.931598713262
 30
0.0
 11
6376.673057123655
 21
3067.931598713262
 31
0.0
  0
LINE
  5
1A39D
330
747D
100
AcDbEntity
  8
細線
100
AcDbLine
 10
5212.673057123653
 20
3002.931598713262
 30
0.0
 11
6376.673057123655
 21
3002.931598713262
 31
0.0
  0
LINE
  5
1A39E
330
747D
100
AcDbEntity
  8
細線
100
AcDbLine
 10
5212.673057123653
 20
2937.931598713262
 30
0.0
 11
6376.673057123655
 21
2937.931598713262
 31
0.0
  0
LINE
  5
1A39F
330
747D
100
AcDbEntity
  8
細線
100
AcDbLine
 10
5212.673057123653
 20
2872.931598713262
 30
0.0
 11
6376.673057123655
 21
2872.931598713262
 31
0.0
  0
LINE
  5
1A3A0
330
747D
100
AcDbEntity
  8
細線
100
AcDbLine
 10
5212.673057123653
 20
2807.931598713262
 30
0.0
 11
6376.673057123655
 21
2807.931598713262
 31
0.0
  0
LINE
  5
1A3A1
330
747D
100
AcDbEntity
  8
細線
100
AcDbLine
 10
5212.673057123653
 20
2742.931598713262
 30
0.0
 11
6376.673057123655
 21
2742.931598713262
 31
0.0
  0
LINE
  5
1A3A2
330
747D
100
AcDbEntity
  8
細線
100
AcDbLine
 10
5212.673057123653
 20
2677.931598713262
 30
0.0
 11
6376.673057123655
 21
2677.931598713262
 31
0.0
  0
LINE
  5
1A3A3
330
747D
100
AcDbEntity
  8
細線
100
AcDbLine
 10
5212.673057123653
 20
2612.931598713262
 30
0.0
 11
6376.673057123655
 21
2612.931598713262
 31
0.0
  0
LINE
  5
1A3A4
330
747D
100
AcDbEntity
  8
細線
100
AcDbLine
 10
5212.673057123653
 20
3717.931598713262
 30
0.0
 11
6376.673057123655
 21
3717.931598713262
 31
0.0
  0
LINE
  5
1A3A5
330
747D
100
AcDbEntity
  8
細線
100
AcDbLine
 10
5212.673057123653
 20
3652.931598713262
 30
0.0
 11
6376.673057123655
 21
3652.931598713262
 31
0.0
  0
LINE
  5
1A3A6
330
747D
100
AcDbEntity
  8
細線
100
AcDbLine
 10
5212.673057123653
 20
3587.931598713262
 30
0.0
 11
6376.673057123655
 21
3587.931598713262
 31
0.0
  0
LINE
  5
1A3A7
330
747D
100
AcDbEntity
  8
細線
100
AcDbLine
 10
5212.673057123653
 20
3522.931598713262
 30
0.0
 11
6376.673057123655
 21
3522.931598713262
 31
0.0
  0
LINE
  5
1A3A8
330
747D
100
AcDbEntity
  8
細線
100
AcDbLine
 10
5212.673057123653
 20
3457.931598713262
 30
0.0
 11
6376.673057123655
 21
3457.931598713262
 31
0.0
  0
LINE
  5
1A3A9
330
747D
100
AcDbEntity
  8
細線
100
AcDbLine
 10
5212.673057123653
 20
3392.931598713262
 30
0.0
 11
6376.673057123655
 21
3392.931598713262
 31
0.0
  0
LINE
  5
1A3AA
330
747D
100
AcDbEntity
  8
細線
100
AcDbLine
 10
5212.673057123653
 20
3327.931598713262
 30
0.0
 11
6376.673057123655
 21
3327.931598713262
 31
0.0
  0
LINE
  5
1A3AB
330
747D
100
AcDbEntity
  8
細線
100
AcDbLine
 10
5212.673057123653
 20
3262.931598713262
 30
0.0
 11
6376.673057123655
 21
3262.931598713262
 31
0.0
  0
LINE
  5
1A3AC
330
747D
100
AcDbEntity
  8
細線
100
AcDbLine
 10
5212.673057123653
 20
3197.931598713262
 30
0.0
 11
6376.673057123655
 21
3197.931598713262
 31
0.0
  0
LINE
  5
1A3AD
330
747D
100
AcDbEntity
  8
細線
100
AcDbLine
 10
5212.673057123653
 20
3132.931598713262
 30
0.0
 11
6376.673057123655
 21
3132.931598713262
 31
0.0
  0
LINE
  5
1A3AE
330
747D
100
AcDbEntity
  8
細線
100
AcDbLine
 10
5212.673057123653
 20
4107.931598713261
 30
0.0
 11
6376.673057123655
 21
4107.931598713261
 31
0.0
  0
LINE
  5
1A3AF
330
747D
100
AcDbEntity
  8
細線
100
AcDbLine
 10
5212.673057123653
 20
4042.931598713262
 30
0.0
 11
6376.673057123655
 21
4042.931598713262
 31
0.0
  0
LINE
  5
1A3B0
330
747D
100
AcDbEntity
  8
細線
100
AcDbLine
 10
5212.673057123653
 20
3977.931598713262
 30
0.0
 11
6376.673057123655
 21
3977.931598713262
 31
0.0
  0
LINE
  5
1A3B1
330
747D
100
AcDbEntity
  8
細線
100
AcDbLine
 10
5212.673057123653
 20
3912.931598713262
 30
0.0
 11
6376.673057123655
 21
3912.931598713262
 31
0.0
  0
LINE
  5
1A3B2
330
747D
100
AcDbEntity
  8
細線
100
AcDbLine
 10
5212.673057123653
 20
3847.931598713262
 30
0.0
 11
6376.673057123655
 21
3847.931598713262
 31
0.0
  0
LINE
  5
1A3B3
330
747D
100
AcDbEntity
  8
細線
100
AcDbLine
 10
5212.673057123653
 20
3782.931598713262
 30
0.0
 11
6376.673057123655
 21
3782.931598713262
 31
0.0
  0
LINE
  5
1A3B4
330
747D
100
AcDbEntity
  8
細線
100
AcDbLine
 10
5212.673057123653
 20
4172.931598713261
 30
0.0
 11
6376.673057123655
 21
4172.931598713261
 31
0.0
  0
LINE
  5
1A3B5
330
747D
100
AcDbEntity
  8
細線
100
AcDbLine
 10
6376.673057123657
 20
2547.931598713262
 30
0.0
 11
5212.673057123652
 21
2547.931598713262
 31
0.0
  0
LINE
  5
1A3C2
330
747D
100
AcDbEntity
  8
部品1
 48
50.0
100
AcDbLine
 10
5841.20579667919
 20
10319.18424163623
 30
0.0
 11
5748.14031756809
 21
9971.859145162866
 31
0.0
  0
SPLINE
  5
1A3C3
330
747D
100
AcDbEntity
  8
部品1
 48
50.0
100
AcDbSpline
210
0.0
220
0.0
230
1.0
 70
     8
 71
     3
 72
    10
 73
     6
 74
     4
 42
0.0000000001
 43
0.0000000001
 44
0.0000000001
 40
0.0
 40
0.0
 40
0.0
 40
0.0
 40
147.8767566010009
 40
301.8091093202477
 40
466.5049223087716
 40
466.5049223087716
 40
466.5049223087716
 40
466.5049223087716
 10
5862.24338485669
 20
10226.76284592534
 30
0.0
 10
5785.361702361855
 20
10217.8584122675
 30
0.0
 10
5628.450010151728
 20
10199.68490580817
 30
0.0
 10
5951.263420096071
 20
10097.16432116883
 30
0.0
 10
5781.420800426698
 20
10078.52923245662
 30
0.0
 10
5693.630795219806
 20
10068.89693557931
 30
0.0
 11
5862.24338485669
 21
10226.76284592534
 31
0.0
 11
5719.405406547921
 21
10188.48952498901
 31
0.0
 11
5852.714734467095
 21
10111.52334862939
 31
0.0
 11
5693.630795219806
 21
10068.89693557931
 31
0.0
  0
LINE
  5
1A3CA
330
747D
100
AcDbEntity
  8
部品1
 48
50.0
100
AcDbLine
 10
5841.205796679198
 20
7776.18424163611
 30
0.0
 11
5748.140317568097
 21
7428.859145162745
 31
0.0
  0
SPLINE
  5
1A3CB
330
747D
100
AcDbEntity
  8
部品1
 48
50.0
100
AcDbSpline
210
0.0
220
0.0
230
1.0
 70
     8
 71
     3
 72
    10
 73
     6
 74
     4
 42
0.0000000001
 43
0.0000000001
 44
0.0000000001
 40
0.0
 40
0.0
 40
0.0
 40
0.0
 40
147.8767566010009
 40
301.8091093202477
 40
466.5049223087716
 40
466.5049223087716
 40
466.5049223087716
 40
466.5049223087716
 10
5862.243384856697
 20
7683.762845925222
 30
0.0
 10
5785.361702361862
 20
7674.858412267383
 30
0.0
 10
5628.450010151735
 20
7656.684905808052
 30
0.0
 10
5951.263420096078
 20
7554.16432116871
 30
0.0
 10
5781.420800426706
 20
7535.529232456504
 30
0.0
 10
5693.630795219814
 20
7525.896935579196
 30
0.0
 11
5862.243384856697
 21
7683.762845925222
 31
0.0
 11
5719.405406547928
 21
7645.489524988892
 31
0.0
 11
5852.714734467102
 21
7568.523348629269
 31
0.0
 11
5693.630795219814
 21
7525.896935579196
 31
0.0
  0
LINE
  5
1A3D7
330
747D
100
AcDbEntity
  8
部品1
 48
50.0
100
AcDbLine
 10
6149.962621336512
 20
4751.390303754639
 30
0.0
 11
5439.383492910803
 21
2099.472893671883
 31
0.0
  0
SPLINE
  5
1A3D8
330
747D
100
AcDbEntity
  8
部品1
 48
50.0
100
AcDbSpline
210
0.0
220
0.0
230
1.0
 70
     8
 71
     3
 72
    10
 73
     6
 74
     4
 42
0.0000000001
 43
0.0000000001
 44
0.0000000001
 40
0.0
 40
0.0
 40
0.0
 40
0.0
 40
147.8767566010009
 40
301.8091093202477
 40
466.5049223087734
 40
466.5049223087734
 40
466.5049223087734
 40
466.5049223087734
 10
5862.243384856709
 20
3506.672751239054
 30
0.0
 10
5785.361702361874
 20
3497.768317581216
 30
0.0
 10
5628.450010151746
 20
3479.594811121885
 30
0.0
 10
5951.26342009609
 20
3377.074226482542
 30
0.0
 10
5781.420800426716
 20
3358.439137770338
 30
0.0
 10
5693.630795219822
 20
3348.80684089303
 30
0.0
 11
5862.243384856709
 21
3506.672751239054
 31
0.0
 11
5719.40540654794
 21
3468.399430302726
 31
0.0
 11
5852.714734467114
 21
3391.433253943102
 31
0.0
 11
5693.630795219822
 21
3348.80684089303
 31
0.0
  0
VIEWPORT
  5
1A3B9
102
{ACAD_XDICTIONARY
360
1A460
102
}
330
747A
100
AcDbEntity
 67
     1
  8
0
 48
50.0
100
AcDbViewport
 10
133.3499908447265
 20
101.5999970436096
 30
0.0
 40
295.6051935424804
 41
232.2398739964685
 68
     1
 69
     1
 12
133.3499908447265
 22
101.5999970436096
 13
0.0
 23
0.0
 14
10.0
 24
10.0
 15
10.0
 25
10.0
 16
0.0
 26
0.0
 36
1.0
 17
0.0
 27
0.0
 37
0.0
 42
50.0
 43
0.0
 44
0.0
 45
232.2398739964685
 50
0.0
 51
0.0
 72
     0
 90
    32800
  1

281
     0
 71
     1
 74
     0
110
0.0
120
0.0
130
0.0
111
1.0
121
0.0
131
0.0
112
0.0
122
1.0
132
0.0
 79
     0
146
0.0
  0
VIEWPORT
  5
1A3BB
102
{ACAD_XDICTIONARY
360
1A462
102
}
330
747A
100
AcDbEntity
 67
     1
  8
寸法
 48
50.0
100
AcDbViewport
 10
133.3499939441681
 20
101.5999939441681
 30
0.0
 40
213.3599903106689
 41
162.5599903106689
 68
     2
 69
     2
 12
8223.600000000001
 22
5704.8
 13
0.0
 23
0.0
 14
10.0
 24
10.0
 15
10.0
 25
10.0
 16
0.0
 26
0.0
 36
1.0
 17
0.0
 27
0.0
 37
0.0
 42
50.0
 43
0.0
 44
0.0
 45
12421.66873757453
 50
0.0
 51
0.0
 72
     0
 90
    32768
  1

281
     0
 71
     1
 74
     0
110
0.0
120
0.0
130
0.0
111
1.0
121
0.0
131
0.0
112
0.0
122
1.0
132
0.0
 79
     0
146
0.0
  0
ENDSEC
  0
SECTION
  2
OBJECTS
  0
DICTIONARY
  5
7471
330
0
100
AcDbDictionary
281
     1
  3
ACAD_COLOR
350
17AE2
  3
ACAD_GROUP
350
7472
  3
ACAD_LAYOUT
350
17AE3
  3
ACAD_MATERIAL
350
17AE1
  3
ACAD_MLINESTYLE
350
7473
  3
ACAD_PLOTSETTINGS
350
17AE4
  3
ACAD_PLOTSTYLENAME
350
17ADF
  3
ACDBHEADERROUNDTRIPXREC
350
1A459
  3
AcDbVariableDictionary
350
1A455
  3
CONTENTDICTIONARY
350
E71C
  3
DRAWINGVARIABLESDICT
350
F3B9
  0
DICTIONARY
  5
19214
330
7467
100
AcDbDictionary
280
     1
281
     1
  3
ACAD_LAYERSTATES
360
19215
  0
DICTIONARY
  5
1A460
330
1A3B9
100
AcDbDictionary
280
     1
281
     1
  3
ACAD_XREC_ROUNDTRIP
360
1A461
  0
DICTIONARY
  5
1A462
330
1A3BB
100
AcDbDictionary
280
     1
281
     1
  3
ACAD_XREC_ROUNDTRIP
360
1A463
  0
DICTIONARY
  5
17AE2
102
{ACAD_REACTORS
330
7471
102
}
330
7471
100
AcDbDictionary
281
     1
  0
DICTIONARY
  5
7472
102
{ACAD_REACTORS
330
7471
102
}
330
7471
100
AcDbDictionary
281
     1
  3
*A1
350
17FA7
  3
*A2
350
180C7
  3
*A3
350
180D2
  0
DICTIONARY
  5
17AE3
102
{ACAD_REACTORS
330
7471
102
}
330
7471
100
AcDbDictionary
281
     1
  3
Model
350
17AE5
  3
レイアウト1
350
17AE6
  0
DICTIONARY
  5
17AE1
102
{ACAD_REACTORS
330
7471
102
}
330
7471
100
AcDbDictionary
281
     1
  0
DICTIONARY
  5
7473
102
{ACAD_REACTORS
330
7471
102
}
330
7471
100
AcDbDictionary
281
     1
  3
STANDARD
350
7480
  0
DICTIONARY
  5
17AE4
102
{ACAD_REACTORS
330
7471
102
}
330
7471
100
AcDbDictionary
281
     1
  0
ACDBDICTIONARYWDFLT
  5
17ADF
102
{ACAD_REACTORS
330
7471
102
}
330
7471
100
AcDbDictionary
281
     1
  3
Normal
350
17AE0
100
AcDbDictionaryWithDefault
340
17AE0
  0
DICTIONARY
  5
1A459
102
{ACAD_REACTORS
330
7471
102
}
330
7471
100
AcDbDictionary
281
     1
  3
COLORDICT
350
1A45B
  3
MATERIALDICT
350
1A45A
  0
DICTIONARY
  5
1A455
102
{ACAD_REACTORS
330
7471
102
}
330
7471
100
AcDbDictionary
281
     1
  3
DIMASSOC
350
1A456
  3
PROJECTNAME
350
1A457
  0
DICTIONARY
  5
E71C
102
{ACAD_REACTORS
330
7471
102
}
330
7471
100
AcDbDictionary
281
     1
  0
DICTIONARY
  5
F3B9
102
{ACAD_REACTORS
330
7471
102
}
330
7471
100
AcDbDictionary
281
     1
1001
DRAWINGVARIABLESXDATA
1000
POLARMODE
1000
1
  0
DICTIONARY
  5
19215
102
{ACAD_REACTORS
330
19214
102
}
330
19214
100
AcDbDictionary
281
     1
  0
XRECORD
  5
1A461
102
{ACAD_REACTORS
330
1A460
102
}
330
1A460
100
AcDbXrecord
280
     1
102
SHADEPLOT
 70
     0
  0
XRECORD
  5
1A463
102
{ACAD_REACTORS
330
1A462
102
}
330
1A462
100
AcDbXrecord
280
     1
102
SHADEPLOT
 70
     0
  0
GROUP
  5
17FA7
102
{ACAD_REACTORS
330
7472
102
}
330
7472
100
AcDbGroup
300

 70
     1
 71
     1
  0
GROUP
  5
180C7
102
{ACAD_REACTORS
330
7472
102
}
330
7472
100
AcDbGroup
300

 70
     1
 71
     1
  0
GROUP
  5
180D2
102
{ACAD_REACTORS
330
7472
102
}
330
7472
100
AcDbGroup
300

 70
     1
 71
     1
  0
LAYOUT
  5
17AE5
102
{ACAD_XDICTIONARY
360
1A45C
102
}
102
{ACAD_REACTORS
330
17AE3
102
}
330
17AE3
100
AcDbPlotSettings
  1

  2
Canon iR C3880/C4580 LIPSLX
  4
A3
  6

 40
5.873749732971191
 41
5.873747825622558
 42
5.873748779296875
 43
5.873748779296875
 44
296.9259948730469
 45
419.9466552734374
 46
0.0
 47
0.0
 48
0.0
 49
0.0
140
0.0
141
0.0
142
1.0
143
40.0
 70
 11952
 72
     1
 73
     1
 74
     1
  7
inaba.ctb
 75
    24
147
0.025
148
-139.196816621341
149
0.7250533989645192
100
AcDbLayout
  1
Model
 70
     1
 71
     0
 10
0.0
 20
0.0
 11
12.0
 21
9.0
 12
0.0
 22
0.0
 32
0.0
 14
0.0
 24
0.0
 34
0.0
 15
0.0
 25
0.0
 35
0.0
146
0.0
 13
0.0
 23
0.0
 33
0.0
 16
1.0
 26
0.0
 36
0.0
 17
0.0
 27
1.0
 37
0.0
 76
     0
330
747D
  0
LAYOUT
  5
17AE6
102
{ACAD_XDICTIONARY
360
1A45E
102
}
102
{ACAD_REACTORS
330
17AE3
102
}
330
17AE3
100
AcDbPlotSettings
  1

  2
none_device
  4
Letter_(8.50_x_11.00_Inches)
  6

 40
6.349999904632568
 41
6.349999904632568
 42
6.350006103515625
 43
6.350006103515625
 44
215.8999938964844
 45
279.3999938964844
 46
0.0
 47
0.0
 48
0.0
 49
0.0
140
0.0
141
0.0
142
1.0
143
1.0
 70
   688
 72
     1
 73
     1
 74
     5
  7
inaba.ctb
 75
    16
147
1.0
148
0.0
149
0.0
100
AcDbLayout
  1
レイアウト1
 70
     0
 71
     1
 10
-6.350006103515625
 20
-6.349999904632568
 11
273.0499877929688
 21
209.5499939918518
 12
0.0
 22
0.0
 32
0.0
 14
26.66999878883363
 24
20.31999878883363
 34
0.0
 15
240.0299890995026
 25
182.8799890995025
 35
0.0
146
0.0
 13
0.0
 23
0.0
 33
0.0
 16
1.0
 26
0.0
 36
0.0
 17
0.0
 27
1.0
 37
0.0
 76
     0
330
747A
331
1A3B9
  0
MLINESTYLE
  5
7480
102
{ACAD_REACTORS
330
7473
102
}
330
7473
100
AcDbMlineStyle
  2
STANDARD
 70
     0
  3

 62
     0
 51
90.0
 52
90.0
 71
     2
 49
0.5
 62
   256
  6
BYLAYER
 49
-0.5
 62
   256
  6
BYLAYER
  0
ACDBPLACEHOLDER
  5
17AE0
102
{ACAD_REACTORS
330
17ADF
102
}
330
17ADF
  0
XRECORD
  5
1A45B
102
{ACAD_REACTORS
330
1A459
102
}
330
1A459
100
AcDbXrecord
280
     1
340
17AE2
  0
XRECORD
  5
1A45A
102
{ACAD_REACTORS
330
1A459
102
}
330
1A459
100
AcDbXrecord
280
     1
340
17AE1
  0
DICTIONARYVAR
  5
1A456
102
{ACAD_REACTORS
330
1A455
102
}
330
1A455
100
DictionaryVariables
280
     0
  1
1
  0
DICTIONARYVAR
  5
1A457
102
{ACAD_REACTORS
330
1A455
102
}
330
1A455
100
DictionaryVariables
280
     0
  1

  0
DICTIONARY
  5
1A45C
330
17AE5
100
AcDbDictionary
280
     1
281
     1
  3
ACAD_XREC_ROUNDTRIP
360
1A45D
  0
DICTIONARY
  5
1A45E
330
17AE6
100
AcDbDictionary
280
     1
281
     1
  3
ACAD_XREC_ROUNDTRIP
360
1A45F
  0
XRECORD
  5
1A45D
102
{ACAD_REACTORS
330
1A45C
102
}
330
1A45C
100
AcDbXrecord
280
     1
102
SHADEPLOT
 70
     0
102
SHADEPLOTRESLEVEL
 70
     2
102
SHADEPLOTCUSTOMDPI
 70
   300
  0
XRECORD
  5
1A45F
102
{ACAD_REACTORS
330
1A45E
102
}
330
1A45E
100
AcDbXrecord
280
     1
102
SHADEPLOT
 70
     0
102
SHADEPLOTRESLEVEL
 70
     2
102
SHADEPLOTCUSTOMDPI
 70
   300
  0
ENDSEC
  0
EOF
