  0
SECTION
  2
HEADER
  9
$ACADVER
  1
AC1015
  9
$ACADMAINTVER
 70
    20
  9
$DWGCODEPAGE
  3
ANSI_932
  9
$INSBASE
 10
0.0
 20
0.0
 30
0.0
  9
$EXTMIN
 10
139.9999999999995
 20
-0.0000000000000909
 30
0.0
  9
$EXTMAX
 10
16307.2
 20
11409.6
 30
0.0
  9
$LIMMIN
 10
0.0
 20
0.0
  9
$LIMMAX
 10
16800.0
 20
11880.0
  9
$ORTHOMODE
 70
     0
  9
$REGENMODE
 70
     1
  9
$FILLMODE
 70
     1
  9
$QTEXTMODE
 70
     0
  9
$MIRRTEXT
 70
     1
  9
$LTSCALE
 40
20.0
  9
$ATTMODE
 70
     1
  9
$TEXTSIZE
 40
4.0
  9
$TRACEWID
 40
1.0
  9
$TEXTSTYLE
  7
MSPゴシック
  9
$CLAYER
  8
寸法
  9
$CELTYPE
  6
BYLAYER
  9
$CECOLOR
 62
   256
  9
$CELTSCALE
 40
50.0
  9
$DISPSILH
 70
     0
  9
$DIMSCALE
 40
40.0
  9
$DIMASZ
 40
2.5
  9
$DIMEXO
 40
0.5
  9
$DIMDLI
 40
7.0
  9
$DIMRND
 40
0.0
  9
$DIMDLE
 40
0.0
  9
$DIMEXE
 40
1.5
  9
$DIMTP
 40
0.0
  9
$DIMTM
 40
0.0
  9
$DIMTXT
 40
3.0
  9
$DIMCEN
 40
0.0
  9
$DIMTSZ
 40
0.0
  9
$DIMTOL
 70
     0
  9
$DIMLIM
 70
     0
  9
$DIMTIH
 70
     0
  9
$DIMTOH
 70
     0
  9
$DIMSE1
 70
     0
  9
$DIMSE2
 70
     0
  9
$DIMTAD
 70
     3
  9
$DIMZIN
 70
     8
  9
$DIMBLK
  1

  9
$DIMASO
 70
     1
  9
$DIMSHO
 70
     1
  9
$DIMPOST
  1

  9
$DIMAPOST
  1

  9
$DIMALT
 70
     0
  9
$DIMALTD
 70
     2
  9
$DIMALTF
 40
0.0394
  9
$DIMLFAC
 40
1.0
  9
$DIMTOFL
 70
     1
  9
$DIMTVP
 40
0.0
  9
$DIMTIX
 70
     1
  9
$DIMSOXD
 70
     0
  9
$DIMSAH
 70
     1
  9
$DIMBLK1
  1
DOTSMALL
  9
$DIMBLK2
  1
DOTSMALL
  9
$DIMSTYLE
  2
INABA_S40G
  9
$DIMCLRD
 70
     0
  9
$DIMCLRE
 70
     0
  9
$DIMCLRT
 70
     7
  9
$DIMTFAC
 40
1.0
  9
$DIMGAP
 40
1.0
  9
$DIMJUST
 70
     0
  9
$DIMSD1
 70
     0
  9
$DIMSD2
 70
     0
  9
$DIMTOLJ
 70
     1
  9
$DIMTZIN
 70
     0
  9
$DIMALTZ
 70
     0
  9
$DIMALTTZ
 70
     0
  9
$DIMUPT
 70
     0
  9
$DIMDEC
 70
     1
  9
$DIMTDEC
 70
     4
  9
$DIMALTU
 70
     2
  9
$DIMALTTD
 70
     2
  9
$DIMTXSTY
  7
STYLE1
  9
$DIMAUNIT
 70
     0
  9
$DIMADEC
 70
     0
  9
$DIMALTRND
 40
0.0
  9
$DIMAZIN
 70
     0
  9
$DIMDSEP
 70
    46
  9
$DIMATFIT
 70
     3
  9
$DIMFRAC
 70
     0
  9
$DIMLDRBLK
  1

  9
$DIMLUNIT
 70
     2
  9
$DIMLWD
 70
    -2
  9
$DIMLWE
 70
    -2
  9
$DIMTMOVE
 70
     2
  9
$LUNITS
 70
     2
  9
$LUPREC
 70
     1
  9
$SKETCHINC
 40
1.0
  9
$FILLETRAD
 40
3.0
  9
$AUNITS
 70
     0
  9
$AUPREC
 70
     0
  9
$MENU
  1
acad
  9
$ELEVATION
 40
0.0
  9
$PELEVATION
 40
0.0
  9
$THICKNESS
 40
0.0
  9
$LIMCHECK
 70
     0
  9
$CHAMFERA
 40
0.0
  9
$CHAMFERB
 40
0.0
  9
$CHAMFERC
 40
0.0
  9
$CHAMFERD
 40
0.0
  9
$SKPOLY
 70
     0
  9
$TDCREATE
 40
2451368.612993866
  9
$TDUCREATE
 40
2451368.237993866
  9
$TDUPDATE
 40
2455569.643330254
  9
$TDUUPDATE
 40
2455569.268330255
  9
$TDINDWG
 40
0.8903670255
  9
$TDUSRTIMER
 40
0.8903670255
  9
$USRTIMER
 70
     1
  9
$ANGBASE
 50
0.0
  9
$ANGDIR
 70
     0
  9
$PDMODE
 70
     3
  9
$PDSIZE
 40
2.0
  9
$PLINEWID
 40
0.0
  9
$SPLFRAME
 70
     0
  9
$SPLINETYPE
 70
     6
  9
$SPLINESEGS
 70
     8
  9
$HANDSEED
  5
1AC24
  9
$SURFTAB1
 70
     6
  9
$SURFTAB2
 70
     6
  9
$SURFTYPE
 70
     6
  9
$SURFU
 70
     6
  9
$SURFV
 70
     6
  9
$UCSBASE
  2

  9
$UCSNAME
  2

  9
$UCSORG
 10
0.0
 20
0.0
 30
0.0
  9
$UCSXDIR
 10
1.0
 20
0.0
 30
0.0
  9
$UCSYDIR
 10
0.0
 20
1.0
 30
0.0
  9
$UCSORTHOREF
  2

  9
$UCSORTHOVIEW
 70
     0
  9
$UCSORGTOP
 10
0.0
 20
0.0
 30
0.0
  9
$UCSORGBOTTOM
 10
0.0
 20
0.0
 30
0.0
  9
$UCSORGLEFT
 10
0.0
 20
0.0
 30
0.0
  9
$UCSORGRIGHT
 10
0.0
 20
0.0
 30
0.0
  9
$UCSORGFRONT
 10
0.0
 20
0.0
 30
0.0
  9
$UCSORGBACK
 10
0.0
 20
0.0
 30
0.0
  9
$PUCSBASE
  2

  9
$PUCSNAME
  2

  9
$PUCSORG
 10
0.0
 20
0.0
 30
0.0
  9
$PUCSXDIR
 10
1.0
 20
0.0
 30
0.0
  9
$PUCSYDIR
 10
0.0
 20
1.0
 30
0.0
  9
$PUCSORTHOREF
  2

  9
$PUCSORTHOVIEW
 70
     0
  9
$PUCSORGTOP
 10
0.0
 20
0.0
 30
0.0
  9
$PUCSORGBOTTOM
 10
0.0
 20
0.0
 30
0.0
  9
$PUCSORGLEFT
 10
0.0
 20
0.0
 30
0.0
  9
$PUCSORGRIGHT
 10
0.0
 20
0.0
 30
0.0
  9
$PUCSORGFRONT
 10
0.0
 20
0.0
 30
0.0
  9
$PUCSORGBACK
 10
0.0
 20
0.0
 30
0.0
  9
$USERI1
 70
     0
  9
$USERI2
 70
     0
  9
$USERI3
 70
     0
  9
$USERI4
 70
     0
  9
$USERI5
 70
     0
  9
$USERR1
 40
0.0
  9
$USERR2
 40
0.0
  9
$USERR3
 40
0.0
  9
$USERR4
 40
0.0
  9
$USERR5
 40
0.0
  9
$WORLDVIEW
 70
     1
  9
$SHADEDGE
 70
     3
  9
$SHADEDIF
 70
    70
  9
$TILEMODE
 70
     1
  9
$MAXACTVP
 70
    16
  9
$PINSBASE
 10
0.0
 20
0.0
 30
0.0
  9
$PLIMCHECK
 70
     0
  9
$PEXTMIN
 10
1.000000000000000E+20
 20
1.000000000000000E+20
 30
1.000000000000000E+20
  9
$PEXTMAX
 10
-1.000000000000000E+20
 20
-1.000000000000000E+20
 30
-1.000000000000000E+20
  9
$PLIMMIN
 10
0.0
 20
0.0
  9
$PLIMMAX
 10
420.0
 20
297.0
  9
$UNITMODE
 70
     0
  9
$VISRETAIN
 70
     0
  9
$PLINEGEN
 70
     0
  9
$PSLTSCALE
 70
     0
  9
$TREEDEPTH
 70
  3020
  9
$CMLSTYLE
  2
STANDARD
  9
$CMLJUST
 70
     0
  9
$CMLSCALE
 40
1.0
  9
$PROXYGRAPHICS
 70
     1
  9
$MEASUREMENT
 70
     1
  9
$CELWEIGHT
370
    -1
  9
$ENDCAPS
280
     0
  9
$JOINSTYLE
280
     0
  9
$LWDISPLAY
290
     0
  9
$INSUNITS
 70
     0
  9
$HYPERLINKBASE
  1

  9
$STYLESHEET
  1
inaba.ctb
  9
$XEDIT
290
     1
  9
$CEPSNTYPE
380
     0
  9
$PSTYLEMODE
290
     1
  9
$FINGERPRINTGUID
  2
{0E4A3AB3-ADAA-44DC-861C-9525B65BB1EC}
  9
$VERSIONGUID
  2
{0E4D672B-9AE2-477C-89DA-327FE0DC5702}
  9
$EXTNAMES
290
     1
  9
$PSVPSCALE
 40
0.0
  9
$OLESTARTUP
290
     0
  0
ENDSEC
  0
SECTION
  2
CLASSES
  0
CLASS
  1
ACDBDICTIONARYWDFLT
  2
AcDbDictionaryWithDefault
  3
ObjectDBX Classes
 90
        0
280
     0
281
     0
  0
CLASS
  1
DICTIONARYVAR
  2
AcDbDictionaryVar
  3
ObjectDBX Classes
 90
        0
280
     0
281
     0
  0
CLASS
  1
ACDBPLACEHOLDER
  2
AcDbPlaceHolder
  3
ObjectDBX Classes
 90
        0
280
     0
281
     0
  0
CLASS
  1
LAYOUT
  2
AcDbLayout
  3
ObjectDBX Classes
 90
        0
280
     0
281
     0
  0
ENDSEC
  0
SECTION
  2
TABLES
  0
TABLE
  2
VPORT
  5
746D
330
0
100
AcDbSymbolTable
 70
     2
  0
VPORT
  5
1AC1C
330
746D
100
AcDbSymbolTableRecord
100
AcDbViewportTableRecord
  2
*Active
 70
     0
 10
0.0
 20
0.0
 11
1.0
 21
1.0
 12
11720.03460912035
 22
5704.872900782047
 13
0.0
 23
0.0
 14
10.0
 24
10.0
 15
10.0
 25
10.0
 16
0.0
 26
0.0
 36
1.0
 17
0.0
 27
0.0
 37
0.0
 40
11513.2111641413
 41
2.234800838574423
 42
50.0
 43
0.0
 44
0.0
 50
0.0
 51
0.0
 71
     0
 72
     0
 73
     1
 74
     0
 75
     0
 76
     0
 77
     0
 78
     0
281
     0
 65
     1
110
0.0
120
0.0
130
0.0
111
1.0
121
0.0
131
0.0
112
0.0
122
1.0
132
0.0
 79
     0
146
0.0
  0
ENDTAB
  0
TABLE
  2
LTYPE
  5
746A
330
0
100
AcDbSymbolTable
 70
     3
  0
LTYPE
  5
7477
330
746A
100
AcDbSymbolTableRecord
100
AcDbLinetypeTableRecord
  2
BYBLOCK
 70
     0
  3

 72
    65
 73
     0
 40
0.0
  0
LTYPE
  5
7478
330
746A
100
AcDbSymbolTableRecord
100
AcDbLinetypeTableRecord
  2
BYLAYER
 70
     0
  3

 72
    65
 73
     0
 40
0.0
  0
LTYPE
  5
7479
330
746A
100
AcDbSymbolTableRecord
100
AcDbLinetypeTableRecord
  2
CONTINUOUS
 70
     0
  3
Solid line
 72
    65
 73
     0
 40
0.0
  0
LTYPE
  5
781A
330
746A
100
AcDbSymbolTableRecord
100
AcDbLinetypeTableRecord
  2
HIDDEN
 70
     0
  3
__ __ __ __ __ __ __ __ __ __ __ __ __ __ __ __
 72
    65
 73
     2
 40
0.375
 49
0.25
 74
     0
 49
-0.125
 74
     0
  0
LTYPE
  5
781B
330
746A
100
AcDbSymbolTableRecord
100
AcDbLinetypeTableRecord
  2
PHANTOM
 70
     0
  3
______  __  __  ______  __  __  ______  __  __ 
 72
    65
 73
     6
 40
2.5
 49
1.25
 74
     0
 49
-0.25
 74
     0
 49
0.25
 74
     0
 49
-0.25
 74
     0
 49
0.25
 74
     0
 49
-0.25
 74
     0
  0
ENDTAB
  0
TABLE
  2
LAYER
  5
7467
102
{ACAD_XDICTIONARY
360
19388
102
}
330
0
100
AcDbSymbolTable
 70
    10
  0
LAYER
  5
7474
330
7467
100
AcDbSymbolTableRecord
100
AcDbLayerTableRecord
  2
0
 70
     0
 62
     7
  6
CONTINUOUS
370
    -3
390
17AE0
  0
LAYER
  5
DEB3
330
7467
100
AcDbSymbolTableRecord
100
AcDbLayerTableRecord
  2
寸法
 70
     0
 62
     4
  6
CONTINUOUS
370
    -3
390
17AE0
  0
LAYER
  5
DEB4
330
7467
100
AcDbSymbolTableRecord
100
AcDbLayerTableRecord
  2
部品1
 70
     0
 62
     7
  6
CONTINUOUS
370
    -3
390
17AE0
  0
LAYER
  5
DEB5
330
7467
100
AcDbSymbolTableRecord
100
AcDbLayerTableRecord
  2
補助
 70
     0
 62
    -1
  6
CONTINUOUS
370
    -3
390
17AE0
  0
LAYER
  5
DEB6
330
7467
100
AcDbSymbolTableRecord
100
AcDbLayerTableRecord
  2
文字
 70
     0
 62
     7
  6
CONTINUOUS
370
    -3
390
17AE0
  0
LAYER
  5
F255
330
7467
100
AcDbSymbolTableRecord
100
AcDbLayerTableRecord
  2
DEFPOINTS
 70
     0
 62
     7
  6
CONTINUOUS
290
     0
370
    -3
390
17AE0
  0
LAYER
  5
10B54
330
7467
100
AcDbSymbolTableRecord
100
AcDbLayerTableRecord
  2
仕様書枠
 70
     0
 62
   230
  6
CONTINUOUS
370
    -3
390
17AE0
  0
LAYER
  5
11729
330
7467
100
AcDbSymbolTableRecord
100
AcDbLayerTableRecord
  2
Ｇ．Ｌ
 70
     0
 62
    30
  6
CONTINUOUS
370
    -3
390
17AE0
  0
LAYER
  5
1173F
330
7467
100
AcDbSymbolTableRecord
100
AcDbLayerTableRecord
  2
細線
 70
     0
 62
     5
  6
CONTINUOUS
370
    -3
390
17AE0
  0
LAYER
  5
142E2
330
7467
100
AcDbSymbolTableRecord
100
AcDbLayerTableRecord
  2
破線
 70
     0
 62
     2
  6
HIDDEN
370
    -3
390
17AE0
  0
ENDTAB
  0
TABLE
  2
STYLE
  5
7468
330
0
100
AcDbSymbolTable
 70
     7
  0
STYLE
  5
7475
330
7468
100
AcDbSymbolTableRecord
100
AcDbTextStyleTableRecord
  2
STANDARD
 70
     0
 40
0.0
 41
1.0
 50
0.0
 71
     0
 42
4.0
  3
txt
  4
C:\AutoCAD LT\bigfont.shx
  0
STYLE
  5
763C
330
7468
100
AcDbSymbolTableRecord
100
AcDbTextStyleTableRecord
  2
MSMINCHO
 70
     0
 40
0.0
 41
1.0
 50
0.0
 71
     0
 42
1.199999999999999
  3
MS PMincho.ttf
  4

1001
ACAD
1000
MS PMincho
1071
    32786
  0
STYLE
  5
F706
330
7468
100
AcDbSymbolTableRecord
100
AcDbTextStyleTableRecord
  2
STYLE1
 70
     0
 40
0.0
 41
1.0
 50
0.0
 71
     0
 42
4.0
  3
isocp.shx
  4
bigfont.shx
  0
STYLE
  5
103BF
330
7468
100
AcDbSymbolTableRecord
100
AcDbTextStyleTableRecord
  2
STYLE2
 70
     0
 40
0.0
 41
1.0
 50
0.0
 71
     0
 42
100.0
  3
MS PGothic.ttf
  4

1001
ACAD
1000
MS PGothic
1071
    32818
  0
STYLE
  5
10BAA
330
7468
100
AcDbSymbolTableRecord
100
AcDbTextStyleTableRecord
  2
STYLE3
 70
     0
 40
0.0
 41
1.0
 50
0.0
 71
     0
 42
100.0
  3
DFPGothic-EB.ttf
  4

1001
ACAD
1000
DFPGothic-EB
1071
    32818
  0
STYLE
  5
11A15
330
7468
100
AcDbSymbolTableRecord
100
AcDbTextStyleTableRecord
  2
MSGOTHIC
 70
     0
 40
0.0
 41
1.0
 50
0.0
 71
     0
 42
3.5
  3
MS PGothic.ttf
  4

1001
ACAD
1000
MS PGothic
1071
    32818
  0
STYLE
  5
13E96
330
7468
100
AcDbSymbolTableRecord
100
AcDbTextStyleTableRecord
  2
MSPゴシック
 70
     0
 40
0.0
 41
1.0
 50
0.0
 71
     0
 42
4.0
  3
MS PGothic.ttf
  4

1001
ACAD
1000
MS PGothic
1071
    32818
  0
ENDTAB
  0
TABLE
  2
VIEW
  5
746B
330
0
100
AcDbSymbolTable
 70
     0
  0
ENDTAB
  0
TABLE
  2
UCS
  5
746C
330
0
100
AcDbSymbolTable
 70
     0
  0
ENDTAB
  0
TABLE
  2
APPID
  5
746E
330
0
100
AcDbSymbolTable
 70
     6
  0
APPID
  5
7476
330
746E
100
AcDbSymbolTableRecord
100
AcDbRegAppTableRecord
  2
ACAD
 70
     0
  0
APPID
  5
DEA9
330
746E
100
AcDbSymbolTableRecord
100
AcDbRegAppTableRecord
  2
CONTENTBLOCKICON
 70
     0
  0
APPID
  5
DEAA
330
746E
100
AcDbSymbolTableRecord
100
AcDbRegAppTableRecord
  2
CONTENTBLOCKDESCRIPTION
 70
     0
  0
APPID
  5
E71D
330
746E
100
AcDbSymbolTableRecord
100
AcDbRegAppTableRecord
  2
CONTENTTABDATA
 70
     0
  0
APPID
  5
E71E
330
746E
100
AcDbSymbolTableRecord
100
AcDbRegAppTableRecord
  2
CONTENTCURRENTTAB
 70
     0
  0
APPID
  5
F3BA
330
746E
100
AcDbSymbolTableRecord
100
AcDbRegAppTableRecord
  2
DRAWINGVARIABLESXDATA
 70
     0
  0
ENDTAB
  0
TABLE
  2
DIMSTYLE
  5
746F
330
0
100
AcDbSymbolTable
 70
     1
100
AcDbDimStyleTable
 71
     1
340
F71F
  0
DIMSTYLE
105
F71F
102
{ACAD_REACTORS
330
1A53A
330
1A53B
330
1A53C
330
1A53D
330
1A543
330
1A552
330
1A560
330
1A561
330
1A562
330
1A566
330
1A596
330
1A597
330
1A598
330
1A609
330
1A613
330
1A614
330
1A635
330
1A63D
330
1A64F
330
1A650
330
1A651
330
1A662
330
1A668
330
1A669
330
1A677
330
1A678
330
1A68A
330
1A68B
330
1A68E
330
1A690
330
1A695
330
1A696
330
1A697
330
1A698
330
1A4C4
330
1A4C5
330
1A4C6
102
}
330
746F
100
AcDbSymbolTableRecord
100
AcDbDimStyleTableRecord
  2
INABA_S40G
 70
     0
 40
40.0
 41
2.5
 42
0.5
 43
7.0
 44
1.5
 73
     0
 74
     0
 77
     3
 78
     8
140
3.0
141
0.0
143
0.0394
147
1.0
172
     1
173
     1
174
     1
178
     7
271
     1
340
F706
341
F770
343
F770
344
F770
  0
ENDTAB
  0
TABLE
  2
BLOCK_RECORD
  5
7466
330
0
100
AcDbSymbolTable
 70
    38
  0
BLOCK_RECORD
  5
747D
330
7466
100
AcDbSymbolTableRecord
100
AcDbBlockTableRecord
  2
*MODEL_SPACE
340
17AE5
  0
BLOCK_RECORD
  5
747A
330
7466
100
AcDbSymbolTableRecord
100
AcDbBlockTableRecord
  2
*PAPER_SPACE
340
17AE6
  0
BLOCK_RECORD
  5
F770
330
7466
100
AcDbSymbolTableRecord
100
AcDbBlockTableRecord
  2
_DOTSMALL
340
0
102
{BLKREFS
331
1AA26
331
1AA27
331
1AA31
331
1AA32
331
1AA3C
331
1AA3D
331
1AA45
331
1AA46
331
1AA4D
331
1AA4E
331
1AA56
331
1AA57
331
1AA61
331
1AA62
331
1AA6D
331
1AA6E
331
1AA78
331
1AA79
331
1AA82
331
1AA83
331
1AA8B
331
1AA8C
331
1AA96
331
1AA97
331
1AAA1
331
1AAA2
331
1AAAD
331
1AAAE
331
1AAB8
331
1AAB9
331
1AAC1
331
1AAC2
331
1AACB
331
1AACC
331
1AAD3
331
1AAD4
331
1AADC
331
1AADD
331
1AAE5
331
1AAE6
331
1AAED
331
1AAEE
331
1AAF6
331
1AAF7
331
1AAFF
331
1AB00
331
1AB08
331
1AB09
331
1AB13
331
1AB14
331
1AB27
331
1AB28
331
1AB3A
331
1AB3B
331
1AB44
331
1AB45
331
1AB4D
331
1AB4E
331
1AB58
331
1AB59
331
1AB63
331
1AB64
331
1AB6C
331
1AB6D
331
1AB8A
331
1AB8B
331
1ABD4
331
1ABD5
331
1ABDD
331
1ABDE
331
1ABFD
331
1ABFE
331
1AC09
331
1AC0A
102
}
  0
BLOCK_RECORD
  5
1A6DA
330
7466
100
AcDbSymbolTableRecord
100
AcDbBlockTableRecord
  2
*D1
340
0
  0
BLOCK_RECORD
  5
1A6E6
330
7466
100
AcDbSymbolTableRecord
100
AcDbBlockTableRecord
  2
*D2
340
0
  0
BLOCK_RECORD
  5
1A6F4
330
7466
100
AcDbSymbolTableRecord
100
AcDbBlockTableRecord
  2
*D3
340
0
  0
BLOCK_RECORD
  5
1A702
330
7466
100
AcDbSymbolTableRecord
100
AcDbBlockTableRecord
  2
*D4
340
0
  0
BLOCK_RECORD
  5
1A70E
330
7466
100
AcDbSymbolTableRecord
100
AcDbBlockTableRecord
  2
*D5
340
0
  0
BLOCK_RECORD
  5
1A71B
330
7466
100
AcDbSymbolTableRecord
100
AcDbBlockTableRecord
  2
*D6
340
0
  0
BLOCK_RECORD
  5
1A728
330
7466
100
AcDbSymbolTableRecord
100
AcDbBlockTableRecord
  2
*D7
340
0
  0
BLOCK_RECORD
  5
1A734
330
7466
100
AcDbSymbolTableRecord
100
AcDbBlockTableRecord
  2
*D8
340
0
  0
BLOCK_RECORD
  5
1A742
330
7466
100
AcDbSymbolTableRecord
100
AcDbBlockTableRecord
  2
*D9
340
0
  0
BLOCK_RECORD
  5
1A74E
330
7466
100
AcDbSymbolTableRecord
100
AcDbBlockTableRecord
  2
*D10
340
0
  0
BLOCK_RECORD
  5
1A75C
330
7466
100
AcDbSymbolTableRecord
100
AcDbBlockTableRecord
  2
*D11
340
0
  0
BLOCK_RECORD
  5
1A768
330
7466
100
AcDbSymbolTableRecord
100
AcDbBlockTableRecord
  2
*D12
340
0
  0
BLOCK_RECORD
  5
1A774
330
7466
100
AcDbSymbolTableRecord
100
AcDbBlockTableRecord
  2
*D13
340
0
  0
BLOCK_RECORD
  5
1A780
330
7466
100
AcDbSymbolTableRecord
100
AcDbBlockTableRecord
  2
*D14
340
0
  0
BLOCK_RECORD
  5
1A78B
330
7466
100
AcDbSymbolTableRecord
100
AcDbBlockTableRecord
  2
*D15
340
0
  0
BLOCK_RECORD
  5
1A797
330
7466
100
AcDbSymbolTableRecord
100
AcDbBlockTableRecord
  2
*D16
340
0
  0
BLOCK_RECORD
  5
1A7A3
330
7466
100
AcDbSymbolTableRecord
100
AcDbBlockTableRecord
  2
*D17
340
0
  0
BLOCK_RECORD
  5
1A7AE
330
7466
100
AcDbSymbolTableRecord
100
AcDbBlockTableRecord
  2
*D18
340
0
  0
BLOCK_RECORD
  5
1A7BC
330
7466
100
AcDbSymbolTableRecord
100
AcDbBlockTableRecord
  2
*D19
340
0
  0
BLOCK_RECORD
  5
1A7C8
330
7466
100
AcDbSymbolTableRecord
100
AcDbBlockTableRecord
  2
*D20
340
0
  0
BLOCK_RECORD
  5
1A7D6
330
7466
100
AcDbSymbolTableRecord
100
AcDbBlockTableRecord
  2
*D21
340
0
  0
BLOCK_RECORD
  5
1A7E4
330
7466
100
AcDbSymbolTableRecord
100
AcDbBlockTableRecord
  2
*D22
340
0
  0
BLOCK_RECORD
  5
1A7F2
330
7466
100
AcDbSymbolTableRecord
100
AcDbBlockTableRecord
  2
*D23
340
0
  0
BLOCK_RECORD
  5
1A800
330
7466
100
AcDbSymbolTableRecord
100
AcDbBlockTableRecord
  2
*D24
340
0
  0
BLOCK_RECORD
  5
1A80C
330
7466
100
AcDbSymbolTableRecord
100
AcDbBlockTableRecord
  2
*D25
340
0
  0
BLOCK_RECORD
  5
1A81A
330
7466
100
AcDbSymbolTableRecord
100
AcDbBlockTableRecord
  2
*D26
340
0
  0
BLOCK_RECORD
  5
1A828
330
7466
100
AcDbSymbolTableRecord
100
AcDbBlockTableRecord
  2
*D27
340
0
  0
BLOCK_RECORD
  5
1A836
330
7466
100
AcDbSymbolTableRecord
100
AcDbBlockTableRecord
  2
*D28
340
0
  0
BLOCK_RECORD
  5
1A844
330
7466
100
AcDbSymbolTableRecord
100
AcDbBlockTableRecord
  2
*D29
340
0
  0
BLOCK_RECORD
  5
1A850
330
7466
100
AcDbSymbolTableRecord
100
AcDbBlockTableRecord
  2
*D30
340
0
  0
BLOCK_RECORD
  5
1A85B
330
7466
100
AcDbSymbolTableRecord
100
AcDbBlockTableRecord
  2
*D31
340
0
  0
BLOCK_RECORD
  5
1A867
330
7466
100
AcDbSymbolTableRecord
100
AcDbBlockTableRecord
  2
*D32
340
0
  0
BLOCK_RECORD
  5
1A875
330
7466
100
AcDbSymbolTableRecord
100
AcDbBlockTableRecord
  2
*D33
340
0
  0
BLOCK_RECORD
  5
1A883
330
7466
100
AcDbSymbolTableRecord
100
AcDbBlockTableRecord
  2
*D34
340
0
  0
BLOCK_RECORD
  5
1A88F
330
7466
100
AcDbSymbolTableRecord
100
AcDbBlockTableRecord
  2
*D35
340
0
  0
BLOCK_RECORD
  5
1A89B
330
7466
100
AcDbSymbolTableRecord
100
AcDbBlockTableRecord
  2
*D36
340
0
  0
BLOCK_RECORD
  5
1A8A9
330
7466
100
AcDbSymbolTableRecord
100
AcDbBlockTableRecord
  2
*D37
340
0
  0
ENDTAB
  0
ENDSEC
  0
SECTION
  2
BLOCKS
  0
BLOCK
  5
7489
330
747D
100
AcDbEntity
  8
0
100
AcDbBlockBegin
  2
*MODEL_SPACE
 70
     0
 10
0.0
 20
0.0
 30
0.0
  3
*MODEL_SPACE
  1

  0
ENDBLK
  5
748A
330
747D
100
AcDbEntity
  8
0
100
AcDbBlockEnd
  0
BLOCK
  5
7487
330
747A
100
AcDbEntity
 67
     1
  8
0
100
AcDbBlockBegin
  2
*PAPER_SPACE
 70
     0
 10
0.0
 20
0.0
 30
0.0
  3
*PAPER_SPACE
  1

  0
ENDBLK
  5
7488
330
747A
100
AcDbEntity
 67
     1
  8
0
100
AcDbBlockEnd
  0
BLOCK
  5
F771
330
F770
100
AcDbEntity
  8
0
 48
50.0
100
AcDbBlockBegin
  2
_DOTSMALL
 70
     0
 10
0.0
 20
0.0
 30
0.0
  3
_DOTSMALL
  1

  0
LWPOLYLINE
  5
F772
330
F770
100
AcDbEntity
  8
0
  6
ByBlock
 62
     0
 48
50.0
100
AcDbPolyline
 90
        2
 70
     1
 43
0.5
 10
-0.0625
 20
0.0
 42
1.0
 10
0.0625
 20
0.0
 42
1.0
  0
ENDBLK
  5
F776
330
F770
100
AcDbEntity
  8
0
 48
50.0
100
AcDbBlockEnd
  0
BLOCK
  5
1A6E4
330
1A6DA
100
AcDbEntity
  8
0
 48
50.0
100
AcDbBlockBegin
  2
*D1
 70
     1
 10
0.0
 20
0.0
 30
0.0
  3
*D1
  1

  0
LINE
  5
1AB69
330
1A6DA
100
AcDbEntity
  8
寸法
 62
     0
 48
50.0
370
    -2
100
AcDbLine
 10
4402.473137055711
 20
4632.931598713269
 30
0.0
 11
4402.473137055711
 21
5278.566791659262
 31
0.0
  0
LINE
  5
1AB6A
330
1A6DA
100
AcDbEntity
  8
寸法
 62
     0
 48
50.0
370
    -2
100
AcDbLine
 10
7242.473137055707
 20
4632.931598713265
 30
0.0
 11
7242.473137055707
 21
5278.566791659262
 31
0.0
  0
LINE
  5
1AB6B
330
1A6DA
100
AcDbEntity
  8
寸法
 62
     0
 48
50.0
370
    -2
100
AcDbLine
 10
4402.473137055711
 20
5218.566791659261
 30
0.0
 11
7242.473137055707
 21
5218.566791659261
 31
0.0
  0
INSERT
  5
1AB6C
330
1A6DA
100
AcDbEntity
  8
寸法
 62
     0
 48
50.0
370
    -2
100
AcDbBlockReference
  2
_DOTSMALL
 10
4402.473137055711
 20
5218.566791659261
 30
0.0
 41
100.0
 42
100.0
 43
100.0
 50
180.0
  0
INSERT
  5
1AB6D
330
1A6DA
100
AcDbEntity
  8
寸法
 62
     0
 48
50.0
370
    -2
100
AcDbBlockReference
  2
_DOTSMALL
 10
7242.473137055707
 20
5218.566791659261
 30
0.0
 41
100.0
 42
100.0
 43
100.0
  0
MTEXT
  5
1AB6E
330
1A6DA
100
AcDbEntity
  8
寸法
 62
     7
 48
50.0
100
AcDbMText
 10
5822.473137055709
 20
5318.578602682883
 30
0.0
 40
120.0
 41
0.0
 71
     5
 72
     1
  1
\A1;2840
  7
STYLE1
 73
     1
 44
1.0
1001
ACAD
1000
MTEXTBEGIN
1070
    73
1070
     1
1070
    44
1040
1.0
1070
    74
1070
     0
1000
MTEXTEND
  0
POINT
  5
1AB6F
330
1A6DA
100
AcDbEntity
  8
DEFPOINTS
 62
     0
 48
50.0
100
AcDbPoint
 10
4402.473137055711
 20
4612.931598713268
 30
0.0
  0
POINT
  5
1AB70
330
1A6DA
100
AcDbEntity
  8
DEFPOINTS
 62
     0
 48
50.0
100
AcDbPoint
 10
7242.473137055707
 20
4612.931598713265
 30
0.0
  0
POINT
  5
1AB71
330
1A6DA
100
AcDbEntity
  8
DEFPOINTS
 62
     0
 48
50.0
100
AcDbPoint
 10
7242.473137055707
 20
5218.566791659261
 30
0.0
  0
ENDBLK
  5
1A6E5
330
1A6DA
100
AcDbEntity
  8
0
 48
50.0
100
AcDbBlockEnd
  0
BLOCK
  5
1A6F2
330
1A6E6
100
AcDbEntity
  8
0
 48
50.0
100
AcDbBlockBegin
  2
*D2
 70
     1
 10
0.0
 20
0.0
 30
0.0
  3
*D2
  1

  0
LINE
  5
1AB5E
330
1A6E6
100
AcDbEntity
  8
寸法
 62
     0
 48
50.0
370
    -2
100
AcDbLine
 10
7242.473137055707
 20
4632.931598713265
 30
0.0
 11
7242.473137055707
 21
5078.657870445175
 31
0.0
  0
LINE
  5
1AB5F
330
1A6E6
100
AcDbEntity
  8
寸法
 62
     0
 48
50.0
370
    -2
100
AcDbLine
 10
7192.473137055711
 20
4632.931598713269
 30
0.0
 11
7192.473137055711
 21
5078.657870445175
 31
0.0
  0
LINE
  5
1AB60
330
1A6E6
100
AcDbEntity
  8
寸法
 62
     0
 48
50.0
370
    -2
100
AcDbLine
 10
7192.473137055711
 20
5018.657870445174
 30
0.0
 11
7092.473137055711
 21
5018.657870445174
 31
0.0
  0
LINE
  5
1AB61
330
1A6E6
100
AcDbEntity
  8
寸法
 62
     0
 48
50.0
370
    -2
100
AcDbLine
 10
7242.473137055707
 20
5018.657870445174
 30
0.0
 11
7662.005662524435
 21
5018.657870445174
 31
0.0
  0
LINE
  5
1AB62
330
1A6E6
100
AcDbEntity
  8
寸法
 62
     0
 48
50.0
370
    -2
100
AcDbLine
 10
7192.473137055711
 20
5018.657870445174
 30
0.0
 11
7242.473137055707
 21
5018.657870445174
 31
0.0
  0
INSERT
  5
1AB63
330
1A6E6
100
AcDbEntity
  8
寸法
 62
     0
 48
50.0
370
    -2
100
AcDbBlockReference
  2
_DOTSMALL
 10
7192.473137055711
 20
5018.657870445174
 30
0.0
 41
100.0
 42
100.0
 43
100.0
  0
INSERT
  5
1AB64
330
1A6E6
100
AcDbEntity
  8
寸法
 62
     0
 48
50.0
370
    -2
100
AcDbBlockReference
  2
_DOTSMALL
 10
7242.473137055707
 20
5018.657870445174
 30
0.0
 41
100.0
 42
100.0
 43
100.0
 50
180.0
  0
MTEXT
  5
1AB65
330
1A6E6
100
AcDbEntity
  8
寸法
 62
     7
 48
50.0
100
AcDbMText
 10
7555.958418429948
 20
5118.657870445175
 30
0.0
 40
120.0
 41
0.0
 71
     5
 72
     1
  1
\A1;50
  7
STYLE1
 73
     1
 44
1.0
1001
ACAD
1000
MTEXTBEGIN
1070
    73
1070
     1
1070
    44
1040
1.0
1070
    74
1070
     0
1000
MTEXTEND
  0
POINT
  5
1AB66
330
1A6E6
100
AcDbEntity
  8
DEFPOINTS
 62
     0
 48
50.0
100
AcDbPoint
 10
7242.473137055707
 20
4612.931598713265
 30
0.0
  0
POINT
  5
1AB67
330
1A6E6
100
AcDbEntity
  8
DEFPOINTS
 62
     0
 48
50.0
100
AcDbPoint
 10
7192.473137055711
 20
4612.931598713268
 30
0.0
  0
POINT
  5
1AB68
330
1A6E6
100
AcDbEntity
  8
DEFPOINTS
 62
     0
 48
50.0
100
AcDbPoint
 10
7192.473137055711
 20
5018.657870445174
 30
0.0
  0
ENDBLK
  5
1A6F3
330
1A6E6
100
AcDbEntity
  8
0
 48
50.0
100
AcDbBlockEnd
  0
BLOCK
  5
1A700
330
1A6F4
100
AcDbEntity
  8
0
 48
50.0
100
AcDbBlockBegin
  2
*D3
 70
     1
 10
0.0
 20
0.0
 30
0.0
  3
*D3
  1

  0
LINE
  5
1AB53
330
1A6F4
100
AcDbEntity
  8
寸法
 62
     0
 48
50.0
370
    -2
100
AcDbLine
 10
4452.473137055711
 20
4632.931598713269
 30
0.0
 11
4452.473137055711
 21
5078.657870445171
 31
0.0
  0
LINE
  5
1AB54
330
1A6F4
100
AcDbEntity
  8
寸法
 62
     0
 48
50.0
370
    -2
100
AcDbLine
 10
4402.473137055711
 20
4632.931598713269
 30
0.0
 11
4402.473137055711
 21
5078.657870445171
 31
0.0
  0
LINE
  5
1AB55
330
1A6F4
100
AcDbEntity
  8
寸法
 62
     0
 48
50.0
370
    -2
100
AcDbLine
 10
4452.473137055711
 20
5018.657870445171
 30
0.0
 11
4552.473137055711
 21
5018.657870445171
 31
0.0
  0
LINE
  5
1AB56
330
1A6F4
100
AcDbEntity
  8
寸法
 62
     0
 48
50.0
370
    -2
100
AcDbLine
 10
4402.473137055711
 20
5018.657870445171
 30
0.0
 11
3982.940611586976
 21
5018.657870445171
 31
0.0
  0
LINE
  5
1AB57
330
1A6F4
100
AcDbEntity
  8
寸法
 62
     0
 48
50.0
370
    -2
100
AcDbLine
 10
4452.473137055711
 20
5018.657870445171
 30
0.0
 11
4402.473137055711
 21
5018.657870445171
 31
0.0
  0
INSERT
  5
1AB58
330
1A6F4
100
AcDbEntity
  8
寸法
 62
     0
 48
50.0
370
    -2
100
AcDbBlockReference
  2
_DOTSMALL
 10
4452.473137055711
 20
5018.657870445171
 30
0.0
 41
100.0
 42
100.0
 43
100.0
 50
180.0
  0
INSERT
  5
1AB59
330
1A6F4
100
AcDbEntity
  8
寸法
 62
     0
 48
50.0
370
    -2
100
AcDbBlockReference
  2
_DOTSMALL
 10
4402.473137055711
 20
5018.657870445171
 30
0.0
 41
100.0
 42
100.0
 43
100.0
  0
MTEXT
  5
1AB5A
330
1A6F4
100
AcDbEntity
  8
寸法
 62
     7
 48
50.0
100
AcDbMText
 10
4088.987855681463
 20
5118.657870445171
 30
0.0
 40
120.0
 41
0.0
 71
     5
 72
     1
  1
\A1;50
  7
STYLE1
 73
     1
 44
1.0
1001
ACAD
1000
MTEXTBEGIN
1070
    73
1070
     1
1070
    44
1040
1.0
1070
    74
1070
     0
1000
MTEXTEND
  0
POINT
  5
1AB5B
330
1A6F4
100
AcDbEntity
  8
DEFPOINTS
 62
     0
 48
50.0
100
AcDbPoint
 10
4452.473137055711
 20
4612.931598713268
 30
0.0
  0
POINT
  5
1AB5C
330
1A6F4
100
AcDbEntity
  8
DEFPOINTS
 62
     0
 48
50.0
100
AcDbPoint
 10
4402.473137055711
 20
4612.931598713268
 30
0.0
  0
POINT
  5
1AB5D
330
1A6F4
100
AcDbEntity
  8
DEFPOINTS
 62
     0
 48
50.0
100
AcDbPoint
 10
4402.473137055711
 20
5018.657870445171
 30
0.0
  0
ENDBLK
  5
1A701
330
1A6F4
100
AcDbEntity
  8
0
 48
50.0
100
AcDbBlockEnd
  0
BLOCK
  5
1A70C
330
1A702
100
AcDbEntity
  8
0
 48
50.0
100
AcDbBlockBegin
  2
*D4
 70
     1
 10
0.0
 20
0.0
 30
0.0
  3
*D4
  1

  0
LINE
  5
1AB4A
330
1A702
100
AcDbEntity
  8
寸法
 62
     0
 48
50.0
370
    -2
100
AcDbLine
 10
7192.473137055711
 20
4632.931598713269
 30
0.0
 11
7192.473137055711
 21
5078.657870445171
 31
0.0
  0
LINE
  5
1AB4B
330
1A702
100
AcDbEntity
  8
寸法
 62
     0
 48
50.0
370
    -2
100
AcDbLine
 10
4452.473137055711
 20
4632.931598713269
 30
0.0
 11
4452.473137055711
 21
5078.657870445171
 31
0.0
  0
LINE
  5
1AB4C
330
1A702
100
AcDbEntity
  8
寸法
 62
     0
 48
50.0
370
    -2
100
AcDbLine
 10
7192.473137055711
 20
5018.657870445171
 30
0.0
 11
4452.473137055711
 21
5018.657870445171
 31
0.0
  0
INSERT
  5
1AB4D
330
1A702
100
AcDbEntity
  8
寸法
 62
     0
 48
50.0
370
    -2
100
AcDbBlockReference
  2
_DOTSMALL
 10
7192.473137055711
 20
5018.657870445171
 30
0.0
 41
100.0
 42
100.0
 43
100.0
  0
INSERT
  5
1AB4E
330
1A702
100
AcDbEntity
  8
寸法
 62
     0
 48
50.0
370
    -2
100
AcDbBlockReference
  2
_DOTSMALL
 10
4452.473137055711
 20
5018.657870445171
 30
0.0
 41
100.0
 42
100.0
 43
100.0
 50
180.0
  0
MTEXT
  5
1AB4F
330
1A702
100
AcDbEntity
  8
寸法
 62
     7
 48
50.0
100
AcDbMText
 10
5822.473137055711
 20
5118.669681468793
 30
0.0
 40
120.0
 41
0.0
 71
     5
 72
     1
  1
\A1;柱外寸法2740
  7
STYLE1
 73
     1
 44
1.0
1001
ACAD
1000
MTEXTBEGIN
1070
    73
1070
     1
1070
    44
1040
1.0
1070
    74
1070
     0
1000
MTEXTEND
  0
POINT
  5
1AB50
330
1A702
100
AcDbEntity
  8
DEFPOINTS
 62
     0
 48
50.0
100
AcDbPoint
 10
7192.473137055711
 20
4612.931598713268
 30
0.0
  0
POINT
  5
1AB51
330
1A702
100
AcDbEntity
  8
DEFPOINTS
 62
     0
 48
50.0
100
AcDbPoint
 10
4452.473137055711
 20
4612.931598713268
 30
0.0
  0
POINT
  5
1AB52
330
1A702
100
AcDbEntity
  8
DEFPOINTS
 62
     0
 48
50.0
100
AcDbPoint
 10
4452.473137055711
 20
5018.657870445171
 30
0.0
  0
ENDBLK
  5
1A70D
330
1A702
100
AcDbEntity
  8
0
 48
50.0
100
AcDbBlockEnd
  0
BLOCK
  5
1A719
330
1A70E
100
AcDbEntity
  8
0
 48
50.0
100
AcDbBlockBegin
  2
*D5
 70
     1
 10
0.0
 20
0.0
 30
0.0
  3
*D5
  1

  0
LINE
  5
1AB40
330
1A70E
100
AcDbEntity
  8
寸法
 62
     0
 48
50.0
370
    -2
100
AcDbLine
 10
9759.054196736432
 20
4612.229305782924
 30
0.0
 11
9143.119757631145
 21
4629.943456057254
 31
0.0
  0
LINE
  5
1AB41
330
1A70E
100
AcDbEntity
  8
寸法
 62
     0
 48
50.0
370
    -2
100
AcDbLine
 10
9755.000741179804
 20
4471.287582017212
 30
0.0
 11
9139.066302074517
 21
4489.001732291542
 31
0.0
  0
LINE
  5
1AB42
330
1A70E
100
AcDbEntity
  8
寸法
 62
     0
 48
50.0
370
    -2
100
AcDbLine
 10
9199.041503676948
 20
4487.276857586595
 30
0.0
 11
9203.094959233574
 21
4628.218581352306
 31
0.0
  0
LINE
  5
1AB43
330
1A70E
100
AcDbEntity
  8
寸法
 62
     0
 48
50.0
370
    -2
100
AcDbLine
 10
9203.094959233574
 20
4628.218581352306
 30
0.0
 11
9213.444207463259
 21
4988.069790966892
 31
0.0
  0
INSERT
  5
1AB44
330
1A70E
100
AcDbEntity
  8
寸法
 62
     0
 48
50.0
370
    -2
100
AcDbBlockReference
  2
_DOTSMALL
 10
9199.041503676948
 20
4487.276857586595
 30
0.0
 41
100.0
 42
100.0
 43
100.0
 50
268.3526390256377
  0
INSERT
  5
1AB45
330
1A70E
100
AcDbEntity
  8
寸法
 62
     0
 48
50.0
370
    -2
100
AcDbBlockReference
  2
_DOTSMALL
 10
9203.094959233574
 20
4628.218581352306
 30
0.0
 41
100.0
 42
100.0
 43
100.0
 50
88.35263902563776
  0
MTEXT
  5
1AB46
330
1A70E
100
AcDbEntity
  8
寸法
 62
     7
 48
50.0
100
AcDbMText
 10
9109.748309598488
 20
4860.998312003204
 30
0.0
 40
120.0
 41
0.0
 71
     5
 72
     1
  1
\A1;141
  7
STYLE1
 11
0.0287479117491245
 21
0.9995866933738486
 31
0.0
 73
     1
 44
1.0
1001
ACAD
1000
MTEXTBEGIN
1070
    73
1070
     1
1070
    44
1040
1.0
1070
    74
1070
     0
1000
MTEXTEND
  0
POINT
  5
1AB47
330
1A70E
100
AcDbEntity
  8
DEFPOINTS
 62
     0
 48
50.0
100
AcDbPoint
 10
9779.045930603912
 20
4611.654347547941
 30
0.0
  0
POINT
  5
1AB48
330
1A70E
100
AcDbEntity
  8
DEFPOINTS
 62
     0
 48
50.0
100
AcDbPoint
 10
9774.992475047282
 20
4470.712623782229
 30
0.0
  0
POINT
  5
1AB49
330
1A70E
100
AcDbEntity
  8
DEFPOINTS
 62
     0
 48
50.0
100
AcDbPoint
 10
9199.041503676948
 20
4487.276857586595
 30
0.0
  0
ENDBLK
  5
1A71A
330
1A70E
100
AcDbEntity
  8
0
 48
50.0
100
AcDbBlockEnd
  0
BLOCK
  5
1A726
330
1A71B
100
AcDbEntity
  8
0
 48
50.0
100
AcDbBlockBegin
  2
*D6
 70
     1
 10
0.0
 20
0.0
 30
0.0
  3
*D6
  1

  0
LINE
  5
1AB36
330
1A71B
100
AcDbEntity
  8
寸法
 62
     0
 48
50.0
370
    -2
100
AcDbLine
 10
12449.64991044533
 20
4579.742278324917
 30
0.0
 11
12449.64991044533
 21
5071.589052292569
 31
0.0
  0
LINE
  5
1AB37
330
1A71B
100
AcDbEntity
  8
寸法
 62
     0
 48
50.0
370
    -2
100
AcDbLine
 10
12529.64991044533
 20
4577.931598713265
 30
0.0
 11
12529.64991044533
 21
5071.589052292569
 31
0.0
  0
LINE
  5
1AB38
330
1A71B
100
AcDbEntity
  8
寸法
 62
     0
 48
50.0
370
    -2
100
AcDbLine
 10
12449.64991044533
 20
5011.58905229257
 30
0.0
 11
12529.64991044533
 21
5011.58905229257
 31
0.0
  0
LINE
  5
1AB39
330
1A71B
100
AcDbEntity
  8
寸法
 62
     0
 48
50.0
370
    -2
100
AcDbLine
 10
12529.64991044533
 20
5011.58905229257
 30
0.0
 11
12841.74439863431
 21
5011.58905229257
 31
0.0
  0
INSERT
  5
1AB3A
330
1A71B
100
AcDbEntity
  8
寸法
 62
     0
 48
50.0
370
    -2
100
AcDbBlockReference
  2
_DOTSMALL
 10
12449.64991044533
 20
5011.58905229257
 30
0.0
 41
100.0
 42
100.0
 43
100.0
 50
180.0
  0
INSERT
  5
1AB3B
330
1A71B
100
AcDbEntity
  8
寸法
 62
     0
 48
50.0
370
    -2
100
AcDbBlockReference
  2
_DOTSMALL
 10
12529.64991044533
 20
5011.58905229257
 30
0.0
 41
100.0
 42
100.0
 43
100.0
  0
MTEXT
  5
1AB3C
330
1A71B
100
AcDbEntity
  8
寸法
 62
     7
 48
50.0
100
AcDbMText
 10
12735.69715453982
 20
5111.589052292569
 30
0.0
 40
120.0
 41
0.0
 71
     5
 72
     1
  1
\A1;80
  7
STYLE1
 73
     1
 44
1.0
1001
ACAD
1000
MTEXTBEGIN
1070
    73
1070
     1
1070
    44
1040
1.0
1070
    74
1070
     0
1000
MTEXTEND
  0
POINT
  5
1AB3D
330
1A71B
100
AcDbEntity
  8
DEFPOINTS
 62
     0
 48
50.0
100
AcDbPoint
 10
12449.64991044533
 20
4559.742278324916
 30
0.0
  0
POINT
  5
1AB3E
330
1A71B
100
AcDbEntity
  8
DEFPOINTS
 62
     0
 48
50.0
100
AcDbPoint
 10
12529.64991044533
 20
4557.931598713265
 30
0.0
  0
POINT
  5
1AB3F
330
1A71B
100
AcDbEntity
  8
DEFPOINTS
 62
     0
 48
50.0
100
AcDbPoint
 10
12529.64991044533
 20
5011.58905229257
 30
0.0
  0
ENDBLK
  5
1A727
330
1A71B
100
AcDbEntity
  8
0
 48
50.0
100
AcDbBlockEnd
  0
BLOCK
  5
1A732
330
1A728
100
AcDbEntity
  8
0
 48
50.0
100
AcDbBlockBegin
  2
*D7
 70
     1
 10
0.0
 20
0.0
 30
0.0
  3
*D7
  1

  0
LINE
  5
1ABD1
330
1A728
100
AcDbEntity
  8
寸法
 62
     0
 48
50.0
370
    -2
100
AcDbLine
 10
12529.64991044533
 20
4577.931598713265
 30
0.0
 11
12529.64991044533
 21
5291.799739024184
 31
0.0
  0
LINE
  5
1ABD2
330
1A728
100
AcDbEntity
  8
寸法
 62
     0
 48
50.0
370
    -2
100
AcDbLine
 10
9759.649910445329
 20
4632.931598713269
 30
0.0
 11
9759.649910445329
 21
5291.799739024184
 31
0.0
  0
LINE
  5
1ABD3
330
1A728
100
AcDbEntity
  8
寸法
 62
     0
 48
50.0
370
    -2
100
AcDbLine
 10
12529.64991044533
 20
5231.799739024183
 30
0.0
 11
9759.649910445329
 21
5231.799739024183
 31
0.0
  0
INSERT
  5
1ABD4
330
1A728
100
AcDbEntity
  8
寸法
 62
     0
 48
50.0
370
    -2
100
AcDbBlockReference
  2
_DOTSMALL
 10
12529.64991044533
 20
5231.799739024183
 30
0.0
 41
100.0
 42
100.0
 43
100.0
  0
INSERT
  5
1ABD5
330
1A728
100
AcDbEntity
  8
寸法
 62
     0
 48
50.0
370
    -2
100
AcDbBlockReference
  2
_DOTSMALL
 10
9759.649910445329
 20
5231.799739024183
 30
0.0
 41
100.0
 42
100.0
 43
100.0
 50
180.0
  0
MTEXT
  5
1ABD6
330
1A728
100
AcDbEntity
  8
寸法
 62
     7
 48
50.0
100
AcDbMText
 10
11144.64991044533
 20
5331.811550047805
 30
0.0
 40
120.0
 41
0.0
 71
     5
 72
     1
  1
\A1;2770
  7
STYLE1
 73
     1
 44
1.0
1001
ACAD
1000
MTEXTBEGIN
1070
    73
1070
     1
1070
    44
1040
1.0
1070
    74
1070
     0
1000
MTEXTEND
  0
POINT
  5
1ABD7
330
1A728
100
AcDbEntity
  8
DEFPOINTS
 62
     0
 48
50.0
100
AcDbPoint
 10
12529.64991044533
 20
4557.931598713265
 30
0.0
  0
POINT
  5
1ABD8
330
1A728
100
AcDbEntity
  8
DEFPOINTS
 62
     0
 48
50.0
100
AcDbPoint
 10
9759.649910445329
 20
4612.931598713268
 30
0.0
  0
POINT
  5
1ABD9
330
1A728
100
AcDbEntity
  8
DEFPOINTS
 62
     0
 48
50.0
100
AcDbPoint
 10
9759.649910445329
 20
5231.799739024183
 30
0.0
  0
ENDBLK
  5
1A733
330
1A728
100
AcDbEntity
  8
0
 48
50.0
100
AcDbBlockEnd
  0
BLOCK
  5
1A740
330
1A734
100
AcDbEntity
  8
0
 48
50.0
100
AcDbBlockBegin
  2
*D8
 70
     1
 10
0.0
 20
0.0
 30
0.0
  3
*D8
  1

  0
LINE
  5
1AB22
330
1A734
100
AcDbEntity
  8
寸法
 62
     0
 48
50.0
370
    -2
100
AcDbLine
 10
9819.649910445329
 20
4628.933216836237
 30
0.0
 11
9819.649910445329
 21
5071.589052292566
 31
0.0
  0
LINE
  5
1AB23
330
1A734
100
AcDbEntity
  8
寸法
 62
     0
 48
50.0
370
    -2
100
AcDbLine
 10
9759.649910445329
 20
4632.931598713269
 30
0.0
 11
9759.649910445329
 21
5071.589052292566
 31
0.0
  0
LINE
  5
1AB24
330
1A734
100
AcDbEntity
  8
寸法
 62
     0
 48
50.0
370
    -2
100
AcDbLine
 10
9819.649910445329
 20
5011.589052292566
 30
0.0
 11
9919.649910445329
 21
5011.589052292566
 31
0.0
  0
LINE
  5
1AB25
330
1A734
100
AcDbEntity
  8
寸法
 62
     0
 48
50.0
370
    -2
100
AcDbLine
 10
9759.649910445329
 20
5011.589052292566
 30
0.0
 11
9340.374319894149
 21
5011.589052292566
 31
0.0
  0
LINE
  5
1AB26
330
1A734
100
AcDbEntity
  8
寸法
 62
     0
 48
50.0
370
    -2
100
AcDbLine
 10
9819.649910445329
 20
5011.589052292566
 30
0.0
 11
9759.649910445329
 21
5011.589052292566
 31
0.0
  0
INSERT
  5
1AB27
330
1A734
100
AcDbEntity
  8
寸法
 62
     0
 48
50.0
370
    -2
100
AcDbBlockReference
  2
_DOTSMALL
 10
9819.649910445329
 20
5011.589052292566
 30
0.0
 41
100.0
 42
100.0
 43
100.0
 50
180.0
  0
INSERT
  5
1AB28
330
1A734
100
AcDbEntity
  8
寸法
 62
     0
 48
50.0
370
    -2
100
AcDbBlockReference
  2
_DOTSMALL
 10
9759.649910445329
 20
5011.589052292566
 30
0.0
 41
100.0
 42
100.0
 43
100.0
  0
MTEXT
  5
1AB29
330
1A734
100
AcDbEntity
  8
寸法
 62
     7
 48
50.0
100
AcDbMText
 10
9450.012115169739
 20
5111.589052292566
 30
0.0
 40
120.0
 41
0.0
 71
     5
 72
     1
  1
\A1;60
  7
STYLE1
 73
     1
 44
1.0
1001
ACAD
1000
MTEXTBEGIN
1070
    73
1070
     1
1070
    44
1040
1.0
1070
    74
1070
     0
1000
MTEXTEND
  0
POINT
  5
1AB2A
330
1A734
100
AcDbEntity
  8
DEFPOINTS
 62
     0
 48
50.0
100
AcDbPoint
 10
9819.649910445329
 20
4608.933216836238
 30
0.0
  0
POINT
  5
1AB2B
330
1A734
100
AcDbEntity
  8
DEFPOINTS
 62
     0
 48
50.0
100
AcDbPoint
 10
9759.649910445329
 20
4612.931598713268
 30
0.0
  0
POINT
  5
1AB2C
330
1A734
100
AcDbEntity
  8
DEFPOINTS
 62
     0
 48
50.0
100
AcDbPoint
 10
9759.649910445329
 20
5011.589052292566
 30
0.0
  0
ENDBLK
  5
1A741
330
1A734
100
AcDbEntity
  8
0
 48
50.0
100
AcDbBlockEnd
  0
BLOCK
  5
1A74C
330
1A742
100
AcDbEntity
  8
0
 48
50.0
100
AcDbBlockBegin
  2
*D9
 70
     1
 10
0.0
 20
0.0
 30
0.0
  3
*D9
  1

  0
LINE
  5
1ABDA
330
1A742
100
AcDbEntity
  8
寸法
 62
     0
 48
50.0
370
    -2
100
AcDbLine
 10
12449.64991044533
 20
4579.742278324917
 30
0.0
 11
12449.64991044533
 21
5071.589052292569
 31
0.0
  0
LINE
  5
1ABDB
330
1A742
100
AcDbEntity
  8
寸法
 62
     0
 48
50.0
370
    -2
100
AcDbLine
 10
9819.649910445329
 20
4628.933216836237
 30
0.0
 11
9819.649910445329
 21
5071.589052292569
 31
0.0
  0
LINE
  5
1ABDC
330
1A742
100
AcDbEntity
  8
寸法
 62
     0
 48
50.0
370
    -2
100
AcDbLine
 10
12449.64991044533
 20
5011.58905229257
 30
0.0
 11
9819.649910445329
 21
5011.58905229257
 31
0.0
  0
INSERT
  5
1ABDD
330
1A742
100
AcDbEntity
  8
寸法
 62
     0
 48
50.0
370
    -2
100
AcDbBlockReference
  2
_DOTSMALL
 10
12449.64991044533
 20
5011.58905229257
 30
0.0
 41
100.0
 42
100.0
 43
100.0
  0
INSERT
  5
1ABDE
330
1A742
100
AcDbEntity
  8
寸法
 62
     0
 48
50.0
370
    -2
100
AcDbBlockReference
  2
_DOTSMALL
 10
9819.649910445329
 20
5011.58905229257
 30
0.0
 41
100.0
 42
100.0
 43
100.0
 50
180.0
  0
MTEXT
  5
1ABDF
330
1A742
100
AcDbEntity
  8
寸法
 62
     7
 48
50.0
100
AcDbMText
 10
11134.64991044533
 20
5111.600863316191
 30
0.0
 40
120.0
 41
0.0
 71
     5
 72
     1
  1
\A1;柱外寸法2630
  7
STYLE1
 73
     1
 44
1.0
1001
ACAD
1000
MTEXTBEGIN
1070
    73
1070
     1
1070
    44
1040
1.0
1070
    74
1070
     0
1000
MTEXTEND
  0
POINT
  5
1ABE0
330
1A742
100
AcDbEntity
  8
DEFPOINTS
 62
     0
 48
50.0
100
AcDbPoint
 10
12449.64991044533
 20
4559.742278324916
 30
0.0
  0
POINT
  5
1ABE1
330
1A742
100
AcDbEntity
  8
DEFPOINTS
 62
     0
 48
50.0
100
AcDbPoint
 10
9819.649910445329
 20
4608.933216836238
 30
0.0
  0
POINT
  5
1ABE2
330
1A742
100
AcDbEntity
  8
DEFPOINTS
 62
     0
 48
50.0
100
AcDbPoint
 10
9819.649910445329
 20
5011.58905229257
 30
0.0
  0
ENDBLK
  5
1A74D
330
1A742
100
AcDbEntity
  8
0
 48
50.0
100
AcDbBlockEnd
  0
BLOCK
  5
1A75A
330
1A74E
100
AcDbEntity
  8
0
 48
50.0
100
AcDbBlockBegin
  2
*D10
 70
     1
 10
0.0
 20
0.0
 30
0.0
  3
*D10
  1

  0
LINE
  5
1AB0E
330
1A74E
100
AcDbEntity
  8
寸法
 62
     0
 48
50.0
370
    -2
100
AcDbLine
 10
9799.64991044533
 20
2587.931598713261
 30
0.0
 11
8915.899781262069
 21
2587.931598713262
 31
0.0
  0
LINE
  5
1AB0F
330
1A74E
100
AcDbEntity
  8
寸法
 62
     0
 48
50.0
370
    -2
100
AcDbLine
 10
9744.64991044533
 20
2537.931598713262
 30
0.0
 11
8915.899781262069
 21
2537.931598713262
 31
0.0
  0
LINE
  5
1AB10
330
1A74E
100
AcDbEntity
  8
寸法
 62
     0
 48
50.0
370
    -2
100
AcDbLine
 10
8975.89978126207
 20
2587.931598713262
 30
0.0
 11
8975.89978126207
 21
2687.931598713262
 31
0.0
  0
LINE
  5
1AB11
330
1A74E
100
AcDbEntity
  8
寸法
 62
     0
 48
50.0
370
    -2
100
AcDbLine
 10
8975.89978126207
 20
2537.931598713262
 30
0.0
 11
8975.89978126207
 21
2125.837110524281
 31
0.0
  0
LINE
  5
1AB12
330
1A74E
100
AcDbEntity
  8
寸法
 62
     0
 48
50.0
370
    -2
100
AcDbLine
 10
8975.89978126207
 20
2587.931598713262
 30
0.0
 11
8975.89978126207
 21
2537.931598713262
 31
0.0
  0
INSERT
  5
1AB13
330
1A74E
100
AcDbEntity
  8
寸法
 62
     0
 48
50.0
370
    -2
100
AcDbBlockReference
  2
_DOTSMALL
 10
8975.89978126207
 20
2587.931598713262
 30
0.0
 41
100.0
 42
100.0
 43
100.0
 50
270.0
  0
INSERT
  5
1AB14
330
1A74E
100
AcDbEntity
  8
寸法
 62
     0
 48
50.0
370
    -2
100
AcDbBlockReference
  2
_DOTSMALL
 10
8975.89978126207
 20
2537.931598713262
 30
0.0
 41
100.0
 42
100.0
 43
100.0
 50
90.0
  0
MTEXT
  5
1AB15
330
1A74E
100
AcDbEntity
  8
寸法
 62
     7
 48
50.0
100
AcDbMText
 10
8875.899781262068
 20
2231.884354618771
 30
0.0
 40
120.0
 41
0.0
 71
     5
 72
     1
  1
\A1;50
  7
STYLE1
 11
0.0000000000000001
 21
1.0
 31
0.0
 73
     1
 44
1.0
1001
ACAD
1000
MTEXTBEGIN
1070
    73
1070
     1
1070
    44
1040
1.0
1070
    74
1070
     0
1000
MTEXTEND
  0
POINT
  5
1AB16
330
1A74E
100
AcDbEntity
  8
DEFPOINTS
 62
     0
 48
50.0
100
AcDbPoint
 10
9819.649910445329
 20
2587.931598713261
 30
0.0
  0
POINT
  5
1AB17
330
1A74E
100
AcDbEntity
  8
DEFPOINTS
 62
     0
 48
50.0
100
AcDbPoint
 10
9764.649910445328
 20
2537.931598713262
 30
0.0
  0
POINT
  5
1AB18
330
1A74E
100
AcDbEntity
  8
DEFPOINTS
 62
     0
 48
50.0
100
AcDbPoint
 10
8975.89978126207
 20
2537.931598713262
 30
0.0
  0
ENDBLK
  5
1A75B
330
1A74E
100
AcDbEntity
  8
0
 48
50.0
100
AcDbBlockEnd
  0
BLOCK
  5
1A766
330
1A75C
100
AcDbEntity
  8
0
 48
50.0
100
AcDbBlockBegin
  2
*D11
 70
     1
 10
0.0
 20
0.0
 30
0.0
  3
*D11
  1

  0
LINE
  5
1AB05
330
1A75C
100
AcDbEntity
  8
寸法
 62
     0
 48
50.0
370
    -2
100
AcDbLine
 10
12469.64991044533
 20
2537.931598713265
 30
0.0
 11
13214.57706841746
 21
2537.931598713265
 31
0.0
  0
LINE
  5
1AB06
330
1A75C
100
AcDbEntity
  8
寸法
 62
     0
 48
50.0
370
    -2
100
AcDbLine
 10
12549.64991044533
 20
4557.931598713265
 30
0.0
 11
13214.57706841746
 21
4557.931598713265
 31
0.0
  0
LINE
  5
1AB07
330
1A75C
100
AcDbEntity
  8
寸法
 62
     0
 48
50.0
370
    -2
100
AcDbLine
 10
13154.57706841746
 20
2537.931598713265
 30
0.0
 11
13154.57706841746
 21
4557.931598713265
 31
0.0
  0
INSERT
  5
1AB08
330
1A75C
100
AcDbEntity
  8
寸法
 62
     0
 48
50.0
370
    -2
100
AcDbBlockReference
  2
_DOTSMALL
 10
13154.57706841746
 20
2537.931598713265
 30
0.0
 41
100.0
 42
100.0
 43
100.0
 50
270.0
  0
INSERT
  5
1AB09
330
1A75C
100
AcDbEntity
  8
寸法
 62
     0
 48
50.0
370
    -2
100
AcDbBlockReference
  2
_DOTSMALL
 10
13154.57706841746
 20
4557.931598713265
 30
0.0
 41
100.0
 42
100.0
 43
100.0
 50
90.0
  0
MTEXT
  5
1AB0A
330
1A75C
100
AcDbEntity
  8
寸法
 62
     7
 48
50.0
100
AcDbMText
 10
13054.56525739383
 20
3547.931598713268
 30
0.0
 40
120.0
 41
0.0
 71
     5
 72
     1
  1
\A1;2020
  7
STYLE1
 11
0.0000000000000001
 21
1.0
 31
0.0
 73
     1
 44
1.0
1001
ACAD
1000
MTEXTBEGIN
1070
    73
1070
     1
1070
    44
1040
1.0
1070
    74
1070
     0
1000
MTEXTEND
  0
POINT
  5
1AB0B
330
1A75C
100
AcDbEntity
  8
DEFPOINTS
 62
     0
 48
50.0
100
AcDbPoint
 10
12449.64991044533
 20
2537.931598713265
 30
0.0
  0
POINT
  5
1AB0C
330
1A75C
100
AcDbEntity
  8
DEFPOINTS
 62
     0
 48
50.0
100
AcDbPoint
 10
12529.64991044533
 20
4557.931598713265
 30
0.0
  0
POINT
  5
1AB0D
330
1A75C
100
AcDbEntity
  8
DEFPOINTS
 62
     0
 48
50.0
100
AcDbPoint
 10
13154.57706841746
 20
4557.931598713265
 30
0.0
  0
ENDBLK
  5
1A767
330
1A75C
100
AcDbEntity
  8
0
 48
50.0
100
AcDbBlockEnd
  0
BLOCK
  5
1A772
330
1A768
100
AcDbEntity
  8
0
 48
50.0
100
AcDbBlockBegin
  2
*D12
 70
     1
 10
0.0
 20
0.0
 30
0.0
  3
*D12
  1

  0
LINE
  5
1AAFC
330
1A768
100
AcDbEntity
  8
寸法
 62
     0
 48
50.0
370
    -2
100
AcDbLine
 10
9799.64991044533
 20
2537.931598713258
 30
0.0
 11
8615.899781262067
 21
2537.931598713258
 31
0.0
  0
LINE
  5
1AAFD
330
1A768
100
AcDbEntity
  8
寸法
 62
     0
 48
50.0
370
    -2
100
AcDbLine
 10
9739.649910445329
 20
4612.931598713261
 30
0.0
 11
8615.89978126207
 21
4612.931598713261
 31
0.0
  0
LINE
  5
1AAFE
330
1A768
100
AcDbEntity
  8
寸法
 62
     0
 48
50.0
370
    -2
100
AcDbLine
 10
8675.899781262067
 20
2537.931598713258
 30
0.0
 11
8675.899781262069
 21
4612.931598713261
 31
0.0
  0
INSERT
  5
1AAFF
330
1A768
100
AcDbEntity
  8
寸法
 62
     0
 48
50.0
370
    -2
100
AcDbBlockReference
  2
_DOTSMALL
 10
8675.899781262067
 20
2537.931598713258
 30
0.0
 41
100.0
 42
100.0
 43
100.0
 50
270.0
  0
INSERT
  5
1AB00
330
1A768
100
AcDbEntity
  8
寸法
 62
     0
 48
50.0
370
    -2
100
AcDbBlockReference
  2
_DOTSMALL
 10
8675.899781262069
 20
4612.931598713261
 30
0.0
 41
100.0
 42
100.0
 43
100.0
 50
90.0
  0
MTEXT
  5
1AB01
330
1A768
100
AcDbEntity
  8
寸法
 62
     7
 48
50.0
100
AcDbMText
 10
8575.887970238445
 20
3575.431598713261
 30
0.0
 40
120.0
 41
0.0
 71
     5
 72
     1
  1
\A1;2075
  7
STYLE1
 11
0.0000000000000001
 21
1.0
 31
0.0
 73
     1
 44
1.0
1001
ACAD
1000
MTEXTBEGIN
1070
    73
1070
     1
1070
    44
1040
1.0
1070
    74
1070
     0
1000
MTEXTEND
  0
POINT
  5
1AB02
330
1A768
100
AcDbEntity
  8
DEFPOINTS
 62
     0
 48
50.0
100
AcDbPoint
 10
9819.649910445329
 20
2537.931598713258
 30
0.0
  0
POINT
  5
1AB03
330
1A768
100
AcDbEntity
  8
DEFPOINTS
 62
     0
 48
50.0
100
AcDbPoint
 10
9759.649910445329
 20
4612.931598713261
 30
0.0
  0
POINT
  5
1AB04
330
1A768
100
AcDbEntity
  8
DEFPOINTS
 62
     0
 48
50.0
100
AcDbPoint
 10
8675.899781262069
 20
4612.931598713261
 30
0.0
  0
ENDBLK
  5
1A773
330
1A768
100
AcDbEntity
  8
0
 48
50.0
100
AcDbBlockEnd
  0
BLOCK
  5
1A77E
330
1A774
100
AcDbEntity
  8
0
 48
50.0
100
AcDbBlockBegin
  2
*D13
 70
     1
 10
0.0
 20
0.0
 30
0.0
  3
*D13
  1

  0
LINE
  5
1AAF3
330
1A774
100
AcDbEntity
  8
寸法
 62
     0
 48
50.0
370
    -2
100
AcDbLine
 10
9799.64991044533
 20
4377.931598713257
 30
0.0
 11
8915.899781262071
 21
4377.931598713257
 31
0.0
  0
LINE
  5
1AAF4
330
1A774
100
AcDbEntity
  8
寸法
 62
     0
 48
50.0
370
    -2
100
AcDbLine
 10
9799.64991044533
 20
2587.931598713258
 30
0.0
 11
8915.899781262069
 21
2587.931598713258
 31
0.0
  0
LINE
  5
1AAF5
330
1A774
100
AcDbEntity
  8
寸法
 62
     0
 48
50.0
370
    -2
100
AcDbLine
 10
8975.89978126207
 20
4377.931598713257
 30
0.0
 11
8975.89978126207
 21
2587.931598713258
 31
0.0
  0
INSERT
  5
1AAF6
330
1A774
100
AcDbEntity
  8
寸法
 62
     0
 48
50.0
370
    -2
100
AcDbBlockReference
  2
_DOTSMALL
 10
8975.89978126207
 20
4377.931598713257
 30
0.0
 41
100.0
 42
100.0
 43
100.0
 50
90.0
  0
INSERT
  5
1AAF7
330
1A774
100
AcDbEntity
  8
寸法
 62
     0
 48
50.0
370
    -2
100
AcDbBlockReference
  2
_DOTSMALL
 10
8975.89978126207
 20
2587.931598713258
 30
0.0
 41
100.0
 42
100.0
 43
100.0
 50
270.0
  0
MTEXT
  5
1AAF8
330
1A774
100
AcDbEntity
  8
寸法
 62
     7
 48
50.0
100
AcDbMText
 10
8875.899781262068
 20
3482.931598713259
 30
0.0
 40
120.0
 41
0.0
 71
     5
 72
     1
  1
\A1;1790
  7
STYLE1
 11
0.0000000000000001
 21
1.0
 31
0.0
 73
     1
 44
1.0
1001
ACAD
1000
MTEXTBEGIN
1070
    73
1070
     1
1070
    44
1040
1.0
1070
    74
1070
     0
1000
MTEXTEND
  0
POINT
  5
1AAF9
330
1A774
100
AcDbEntity
  8
DEFPOINTS
 62
     0
 48
50.0
100
AcDbPoint
 10
9819.649910445329
 20
4377.931598713257
 30
0.0
  0
POINT
  5
1AAFA
330
1A774
100
AcDbEntity
  8
DEFPOINTS
 62
     0
 48
50.0
100
AcDbPoint
 10
9819.649910445329
 20
2587.931598713258
 30
0.0
  0
POINT
  5
1AAFB
330
1A774
100
AcDbEntity
  8
DEFPOINTS
 62
     0
 48
50.0
100
AcDbPoint
 10
8975.89978126207
 20
2587.931598713258
 30
0.0
  0
ENDBLK
  5
1A77F
330
1A774
100
AcDbEntity
  8
0
 48
50.0
100
AcDbBlockEnd
  0
BLOCK
  5
1A789
330
1A780
100
AcDbEntity
  8
0
 48
50.0
100
AcDbBlockBegin
  2
*D14
 70
     1
 10
0.0
 20
0.0
 30
0.0
  3
*D14
  1

  0
LINE
  5
1AAEB
330
1A780
100
AcDbEntity
  8
寸法
 62
     0
 48
50.0
370
    -2
100
AcDbLine
 10
4555.473137055707
 20
7563.021693399431
 30
0.0
 11
4555.473137055707
 21
6962.590922633267
 31
0.0
  0
LINE
  5
1AAEC
330
1A780
100
AcDbEntity
  8
寸法
 62
     0
 48
50.0
370
    -2
100
AcDbLine
 10
5719.47313705569
 20
7022.590922633266
 30
0.0
 11
4555.473137055707
 21
7022.590922633266
 31
0.0
  0
INSERT
  5
1AAED
330
1A780
100
AcDbEntity
  8
寸法
 62
     0
 48
50.0
370
    -2
100
AcDbBlockReference
  2
_DOTSMALL
 10
5719.47313705569
 20
7022.590922633266
 30
0.0
 41
100.0
 42
100.0
 43
100.0
  0
INSERT
  5
1AAEE
330
1A780
100
AcDbEntity
  8
寸法
 62
     0
 48
50.0
370
    -2
100
AcDbBlockReference
  2
_DOTSMALL
 10
4555.473137055707
 20
7022.590922633266
 30
0.0
 41
100.0
 42
100.0
 43
100.0
 50
180.0
  0
MTEXT
  5
1AAEF
330
1A780
100
AcDbEntity
  8
寸法
 62
     7
 48
50.0
100
AcDbMText
 10
5137.473137055699
 20
7222.590922633266
 30
0.0
 40
120.0
 41
0.0
 71
     5
 72
     1
  1
\A1;有効開口部間口\P 1164
  7
STYLE1
 73
     1
 44
1.0
1001
ACAD
1000
MTEXTBEGIN
1070
    73
1070
     1
1070
    44
1040
1.0
1070
    74
1070
     0
1000
MTEXTEND
  0
POINT
  5
1AAF0
330
1A780
100
AcDbEntity
  8
DEFPOINTS
 62
     0
 48
50.0
100
AcDbPoint
 10
5719.47313705569
 20
7583.02169339943
 30
0.0
  0
POINT
  5
1AAF1
330
1A780
100
AcDbEntity
  8
DEFPOINTS
 62
     0
 48
50.0
100
AcDbPoint
 10
4555.473137055707
 20
7583.02169339943
 30
0.0
  0
POINT
  5
1AAF2
330
1A780
100
AcDbEntity
  8
DEFPOINTS
 62
     0
 48
50.0
100
AcDbPoint
 10
4555.473137055707
 20
7022.590922633266
 30
0.0
  0
ENDBLK
  5
1A78A
330
1A780
100
AcDbEntity
  8
0
 48
50.0
100
AcDbBlockEnd
  0
BLOCK
  5
1A795
330
1A78B
100
AcDbEntity
  8
0
 48
50.0
100
AcDbBlockBegin
  2
*D15
 70
     1
 10
0.0
 20
0.0
 30
0.0
  3
*D15
  1

  0
LINE
  5
1AAE2
330
1A78B
100
AcDbEntity
  8
寸法
 62
     0
 48
50.0
370
    -2
100
AcDbLine
 10
4507.473137055714
 20
10207.02169339943
 30
0.0
 11
4507.473137055714
 21
10462.82991302453
 31
0.0
  0
LINE
  5
1AAE3
330
1A78B
100
AcDbEntity
  8
寸法
 62
     0
 48
50.0
370
    -2
100
AcDbLine
 10
5767.473137055715
 20
10207.02169339953
 30
0.0
 11
5767.473137055715
 21
10462.82991302453
 31
0.0
  0
LINE
  5
1AAE4
330
1A78B
100
AcDbEntity
  8
寸法
 62
     0
 48
50.0
370
    -2
100
AcDbLine
 10
4507.473137055714
 20
10402.82991302453
 30
0.0
 11
5767.473137055715
 21
10402.82991302453
 31
0.0
  0
INSERT
  5
1AAE5
330
1A78B
100
AcDbEntity
  8
寸法
 62
     0
 48
50.0
370
    -2
100
AcDbBlockReference
  2
_DOTSMALL
 10
4507.473137055714
 20
10402.82991302453
 30
0.0
 41
100.0
 42
100.0
 43
100.0
 50
180.0
  0
INSERT
  5
1AAE6
330
1A78B
100
AcDbEntity
  8
寸法
 62
     0
 48
50.0
370
    -2
100
AcDbBlockReference
  2
_DOTSMALL
 10
5767.473137055715
 20
10402.82991302453
 30
0.0
 41
100.0
 42
100.0
 43
100.0
  0
MTEXT
  5
1AAE7
330
1A78B
100
AcDbEntity
  8
寸法
 62
     7
 48
50.0
100
AcDbMText
 10
5137.473137055715
 20
10502.84172404815
 30
0.0
 40
120.0
 41
0.0
 71
     5
 72
     1
  1
\A1;3X420=1260
  7
STYLE1
 73
     1
 44
1.0
1001
ACAD
1000
MTEXTBEGIN
1070
    73
1070
     1
1070
    44
1040
1.0
1070
    74
1070
     0
1000
MTEXTEND
  0
POINT
  5
1AAE8
330
1A78B
100
AcDbEntity
  8
DEFPOINTS
 62
     0
 48
50.0
100
AcDbPoint
 10
4507.473137055714
 20
10187.02169339943
 30
0.0
  0
POINT
  5
1AAE9
330
1A78B
100
AcDbEntity
  8
DEFPOINTS
 62
     0
 48
50.0
100
AcDbPoint
 10
5767.473137055715
 20
10187.02169339953
 30
0.0
  0
POINT
  5
1AAEA
330
1A78B
100
AcDbEntity
  8
DEFPOINTS
 62
     0
 48
50.0
100
AcDbPoint
 10
5767.473137055715
 20
10402.82991302453
 30
0.0
  0
ENDBLK
  5
1A796
330
1A78B
100
AcDbEntity
  8
0
 48
50.0
100
AcDbBlockEnd
  0
BLOCK
  5
1A7A1
330
1A797
100
AcDbEntity
  8
0
 48
50.0
100
AcDbBlockBegin
  2
*D16
 70
     1
 10
0.0
 20
0.0
 30
0.0
  3
*D16
  1

  0
LINE
  5
1AAD9
330
1A797
100
AcDbEntity
  8
寸法
 62
     0
 48
50.0
370
    -2
100
AcDbLine
 10
4452.473137055679
 20
10207.0216933994
 30
0.0
 11
4452.473137055679
 21
10712.15138658082
 31
0.0
  0
LINE
  5
1AADA
330
1A797
100
AcDbEntity
  8
寸法
 62
     0
 48
50.0
370
    -2
100
AcDbLine
 10
5822.473137055715
 20
10581.81782738248
 30
0.0
 11
5822.473137055715
 21
10712.15138658082
 31
0.0
  0
LINE
  5
1AADB
330
1A797
100
AcDbEntity
  8
寸法
 62
     0
 48
50.0
370
    -2
100
AcDbLine
 10
4452.473137055679
 20
10652.15138658082
 30
0.0
 11
5822.473137055715
 21
10652.15138658082
 31
0.0
  0
INSERT
  5
1AADC
330
1A797
100
AcDbEntity
  8
寸法
 62
     0
 48
50.0
370
    -2
100
AcDbBlockReference
  2
_DOTSMALL
 10
4452.473137055679
 20
10652.15138658082
 30
0.0
 41
100.0
 42
100.0
 43
100.0
 50
180.0
  0
INSERT
  5
1AADD
330
1A797
100
AcDbEntity
  8
寸法
 62
     0
 48
50.0
370
    -2
100
AcDbBlockReference
  2
_DOTSMALL
 10
5822.473137055715
 20
10652.15138658082
 30
0.0
 41
100.0
 42
100.0
 43
100.0
  0
MTEXT
  5
1AADE
330
1A797
100
AcDbEntity
  8
寸法
 62
     7
 48
50.0
100
AcDbMText
 10
5137.473137055696
 20
10752.15138658082
 30
0.0
 40
120.0
 41
0.0
 71
     5
 72
     1
  1
\A1;1370
  7
STYLE1
 73
     1
 44
1.0
1001
ACAD
1000
MTEXTBEGIN
1070
    73
1070
     1
1070
    44
1040
1.0
1070
    74
1070
     0
1000
MTEXTEND
  0
POINT
  5
1AADF
330
1A797
100
AcDbEntity
  8
DEFPOINTS
 62
     0
 48
50.0
100
AcDbPoint
 10
4452.473137055679
 20
10187.0216933994
 30
0.0
  0
POINT
  5
1AAE0
330
1A797
100
AcDbEntity
  8
DEFPOINTS
 62
     0
 48
50.0
100
AcDbPoint
 10
5822.473137055715
 20
10561.81782738248
 30
0.0
  0
POINT
  5
1AAE1
330
1A797
100
AcDbEntity
  8
DEFPOINTS
 62
     0
 48
50.0
100
AcDbPoint
 10
5822.473137055715
 20
10652.15138658082
 30
0.0
  0
ENDBLK
  5
1A7A2
330
1A797
100
AcDbEntity
  8
0
 48
50.0
100
AcDbBlockEnd
  0
BLOCK
  5
1A7AC
330
1A7A3
100
AcDbEntity
  8
0
 48
50.0
100
AcDbBlockBegin
  2
*D17
 70
     1
 10
0.0
 20
0.0
 30
0.0
  3
*D17
  1

  0
LINE
  5
1AAD1
330
1A7A3
100
AcDbEntity
  8
寸法
 62
     0
 48
50.0
370
    -2
100
AcDbLine
 10
7192.473137055715
 20
10207.02169339953
 30
0.0
 11
7192.473137055715
 21
10712.15138658082
 31
0.0
  0
LINE
  5
1AAD2
330
1A7A3
100
AcDbEntity
  8
寸法
 62
     0
 48
50.0
370
    -2
100
AcDbLine
 10
5822.473137055715
 20
10652.15138658082
 30
0.0
 11
7192.473137055715
 21
10652.15138658082
 31
0.0
  0
INSERT
  5
1AAD3
330
1A7A3
100
AcDbEntity
  8
寸法
 62
     0
 48
50.0
370
    -2
100
AcDbBlockReference
  2
_DOTSMALL
 10
5822.473137055715
 20
10652.15138658082
 30
0.0
 41
100.0
 42
100.0
 43
100.0
 50
180.0
  0
INSERT
  5
1AAD4
330
1A7A3
100
AcDbEntity
  8
寸法
 62
     0
 48
50.0
370
    -2
100
AcDbBlockReference
  2
_DOTSMALL
 10
7192.473137055715
 20
10652.15138658082
 30
0.0
 41
100.0
 42
100.0
 43
100.0
  0
MTEXT
  5
1AAD5
330
1A7A3
100
AcDbEntity
  8
寸法
 62
     7
 48
50.0
100
AcDbMText
 10
6507.473137055715
 20
10752.15138658082
 30
0.0
 40
120.0
 41
0.0
 71
     5
 72
     1
  1
\A1;1370
  7
STYLE1
 73
     1
 44
1.0
1001
ACAD
1000
MTEXTBEGIN
1070
    73
1070
     1
1070
    44
1040
1.0
1070
    74
1070
     0
1000
MTEXTEND
  0
POINT
  5
1AAD6
330
1A7A3
100
AcDbEntity
  8
DEFPOINTS
 62
     0
 48
50.0
100
AcDbPoint
 10
5822.473137055715
 20
10561.81782738248
 30
0.0
  0
POINT
  5
1AAD7
330
1A7A3
100
AcDbEntity
  8
DEFPOINTS
 62
     0
 48
50.0
100
AcDbPoint
 10
7192.473137055715
 20
10187.02169339953
 30
0.0
  0
POINT
  5
1AAD8
330
1A7A3
100
AcDbEntity
  8
DEFPOINTS
 62
     0
 48
50.0
100
AcDbPoint
 10
7192.473137055715
 20
10652.15138658082
 30
0.0
  0
ENDBLK
  5
1A7AD
330
1A7A3
100
AcDbEntity
  8
0
 48
50.0
100
AcDbBlockEnd
  0
BLOCK
  5
1A7BA
330
1A7AE
100
AcDbEntity
  8
0
 48
50.0
100
AcDbBlockBegin
  2
*D18
 70
     1
 10
0.0
 20
0.0
 30
0.0
  3
*D18
  1

  0
LINE
  5
1AAC6
330
1A7AE
100
AcDbEntity
  8
寸法
 62
     0
 48
50.0
370
    -2
100
AcDbLine
 10
5877.473137055714
 20
10207.02169339948
 30
0.0
 11
5877.473137055714
 21
10462.82991302453
 31
0.0
  0
LINE
  5
1AAC7
330
1A7AE
100
AcDbEntity
  8
寸法
 62
     0
 48
50.0
370
    -2
100
AcDbLine
 10
5767.473137055715
 20
10207.02169339948
 30
0.0
 11
5767.473137055715
 21
10462.82991302453
 31
0.0
  0
LINE
  5
1AAC8
330
1A7AE
100
AcDbEntity
  8
寸法
 62
     0
 48
50.0
370
    -2
100
AcDbLine
 10
5877.473137055714
 20
10402.82991302453
 30
0.0
 11
5977.473137055714
 21
10402.82991302453
 31
0.0
  0
LINE
  5
1AAC9
330
1A7AE
100
AcDbEntity
  8
寸法
 62
     0
 48
50.0
370
    -2
100
AcDbLine
 10
5767.473137055715
 20
10402.82991302453
 30
0.0
 11
5667.473137055715
 21
10402.82991302453
 31
0.0
  0
LINE
  5
1AACA
330
1A7AE
100
AcDbEntity
  8
寸法
 62
     0
 48
50.0
370
    -2
100
AcDbLine
 10
5877.473137055714
 20
10402.82991302453
 30
0.0
 11
5767.473137055715
 21
10402.82991302453
 31
0.0
  0
INSERT
  5
1AACB
330
1A7AE
100
AcDbEntity
  8
寸法
 62
     0
 48
50.0
370
    -2
100
AcDbBlockReference
  2
_DOTSMALL
 10
5877.473137055714
 20
10402.82991302453
 30
0.0
 41
100.0
 42
100.0
 43
100.0
 50
180.0
  0
INSERT
  5
1AACC
330
1A7AE
100
AcDbEntity
  8
寸法
 62
     0
 48
50.0
370
    -2
100
AcDbBlockReference
  2
_DOTSMALL
 10
5767.473137055715
 20
10402.82991302453
 30
0.0
 41
100.0
 42
100.0
 43
100.0
  0
MTEXT
  5
1AACD
330
1A7AE
100
AcDbEntity
  8
寸法
 62
     7
 48
50.0
100
AcDbMText
 10
5822.473137055715
 20
10502.82991302453
 30
0.0
 40
120.0
 41
0.0
 71
     5
 72
     1
  1
\A1;110
  7
STYLE1
 73
     1
 44
1.0
1001
ACAD
1000
MTEXTBEGIN
1070
    73
1070
     1
1070
    44
1040
1.0
1070
    74
1070
     0
1000
MTEXTEND
  0
POINT
  5
1AACE
330
1A7AE
100
AcDbEntity
  8
DEFPOINTS
 62
     0
 48
50.0
100
AcDbPoint
 10
5877.473137055714
 20
10187.02169339948
 30
0.0
  0
POINT
  5
1AACF
330
1A7AE
100
AcDbEntity
  8
DEFPOINTS
 62
     0
 48
50.0
100
AcDbPoint
 10
5767.473137055715
 20
10187.02169339948
 30
0.0
  0
POINT
  5
1AAD0
330
1A7AE
100
AcDbEntity
  8
DEFPOINTS
 62
     0
 48
50.0
100
AcDbPoint
 10
5767.473137055715
 20
10402.82991302453
 30
0.0
  0
ENDBLK
  5
1A7BB
330
1A7AE
100
AcDbEntity
  8
0
 48
50.0
100
AcDbBlockEnd
  0
BLOCK
  5
1A7C6
330
1A7BC
100
AcDbEntity
  8
0
 48
50.0
100
AcDbBlockBegin
  2
*D19
 70
     1
 10
0.0
 20
0.0
 30
0.0
  3
*D19
  1

  0
LINE
  5
1AABD
330
1A7BC
100
AcDbEntity
  8
寸法
 62
     0
 48
50.0
370
    -2
100
AcDbLine
 10
5877.473137055704
 20
7537.021693399431
 30
0.0
 11
5877.473137055704
 21
6962.590922633267
 31
0.0
  0
LINE
  5
1AABE
330
1A7BC
100
AcDbEntity
  8
寸法
 62
     0
 48
50.0
370
    -2
100
AcDbLine
 10
5767.473137055691
 20
7537.021693399518
 30
0.0
 11
5767.473137055691
 21
6962.590922633267
 31
0.0
  0
LINE
  5
1AABF
330
1A7BC
100
AcDbEntity
  8
寸法
 62
     0
 48
50.0
370
    -2
100
AcDbLine
 10
5877.473137055704
 20
7022.590922633266
 30
0.0
 11
5767.473137055691
 21
7022.590922633266
 31
0.0
  0
MTEXT
  5
1AAC0
330
1A7BC
100
AcDbEntity
  8
寸法
 62
     7
 48
50.0
100
AcDbMText
 10
5822.473137055697
 20
6870.899027597035
 30
0.0
 40
120.0
 41
0.0
 71
     5
 72
     1
  1
\A1;110
  7
STYLE1
 73
     1
 44
1.0
1001
ACAD
1000
MTEXTBEGIN
1070
    73
1070
     1
1070
    44
1040
1.0
1070
    74
1070
     0
1000
MTEXTEND
  0
INSERT
  5
1AAC1
330
1A7BC
100
AcDbEntity
  8
寸法
 62
     0
 48
50.0
370
    -2
100
AcDbBlockReference
  2
_DOTSMALL
 10
5877.473137055704
 20
7022.590922633266
 30
0.0
 41
100.0
 42
100.0
 43
100.0
  0
INSERT
  5
1AAC2
330
1A7BC
100
AcDbEntity
  8
寸法
 62
     0
 48
50.0
370
    -2
100
AcDbBlockReference
  2
_DOTSMALL
 10
5767.473137055691
 20
7022.590922633266
 30
0.0
 41
100.0
 42
100.0
 43
100.0
 50
180.0
  0
POINT
  5
1AAC3
330
1A7BC
100
AcDbEntity
  8
DEFPOINTS
 62
     0
 48
50.0
100
AcDbPoint
 10
5877.473137055704
 20
7557.02169339943
 30
0.0
  0
POINT
  5
1AAC4
330
1A7BC
100
AcDbEntity
  8
DEFPOINTS
 62
     0
 48
50.0
100
AcDbPoint
 10
5767.473137055691
 20
7557.021693399518
 30
0.0
  0
POINT
  5
1AAC5
330
1A7BC
100
AcDbEntity
  8
DEFPOINTS
 62
     0
 48
50.0
100
AcDbPoint
 10
5767.473137055691
 20
7022.590922633266
 30
0.0
  0
ENDBLK
  5
1A7C7
330
1A7BC
100
AcDbEntity
  8
0
 48
50.0
100
AcDbBlockEnd
  0
BLOCK
  5
1A7D4
330
1A7C8
100
AcDbEntity
  8
0
 48
50.0
100
AcDbBlockBegin
  2
*D20
 70
     1
 10
0.0
 20
0.0
 30
0.0
  3
*D20
  1

  0
LINE
  5
1AAB2
330
1A7C8
100
AcDbEntity
  8
寸法
 62
     0
 48
50.0
370
    -2
100
AcDbLine
 10
4555.473137055707
 20
7563.021693399431
 30
0.0
 11
4555.473137055707
 21
6962.590922633267
 31
0.0
  0
LINE
  5
1AAB3
330
1A7C8
100
AcDbEntity
  8
寸法
 62
     0
 48
50.0
370
    -2
100
AcDbLine
 10
4507.473137055703
 20
7537.021693399431
 30
0.0
 11
4507.473137055703
 21
6962.590922633267
 31
0.0
  0
LINE
  5
1AAB4
330
1A7C8
100
AcDbEntity
  8
寸法
 62
     0
 48
50.0
370
    -2
100
AcDbLine
 10
4555.473137055707
 20
7022.590922633266
 30
0.0
 11
4655.473137055706
 21
7022.590922633266
 31
0.0
  0
LINE
  5
1AAB5
330
1A7C8
100
AcDbEntity
  8
寸法
 62
     0
 48
50.0
370
    -2
100
AcDbLine
 10
4507.473137055703
 20
7022.590922633266
 30
0.0
 11
4407.473137055704
 21
7022.590922633266
 31
0.0
  0
MTEXT
  5
1AAB6
330
1A7C8
100
AcDbEntity
  8
寸法
 62
     7
 48
50.0
100
AcDbMText
 10
4668.375108055765
 20
7122.590922633266
 30
0.0
 40
120.0
 41
0.0
 71
     5
 72
     1
  1
\A1;48
  7
STYLE1
 73
     1
 44
1.0
1001
ACAD
1000
MTEXTBEGIN
1070
    73
1070
     1
1070
    44
1040
1.0
1070
    74
1070
     0
1000
MTEXTEND
  0
LINE
  5
1AAB7
330
1A7C8
100
AcDbEntity
  8
寸法
 62
     0
 48
50.0
370
    -2
100
AcDbLine
 10
4555.473137055707
 20
7022.590922633266
 30
0.0
 11
4507.473137055703
 21
7022.590922633266
 31
0.0
  0
INSERT
  5
1AAB8
330
1A7C8
100
AcDbEntity
  8
寸法
 62
     0
 48
50.0
370
    -2
100
AcDbBlockReference
  2
_DOTSMALL
 10
4555.473137055707
 20
7022.590922633266
 30
0.0
 41
100.0
 42
100.0
 43
100.0
 50
180.0
  0
INSERT
  5
1AAB9
330
1A7C8
100
AcDbEntity
  8
寸法
 62
     0
 48
50.0
370
    -2
100
AcDbBlockReference
  2
_DOTSMALL
 10
4507.473137055703
 20
7022.590922633266
 30
0.0
 41
100.0
 42
100.0
 43
100.0
  0
POINT
  5
1AABA
330
1A7C8
100
AcDbEntity
  8
DEFPOINTS
 62
     0
 48
50.0
100
AcDbPoint
 10
4555.473137055707
 20
7583.02169339943
 30
0.0
  0
POINT
  5
1AABB
330
1A7C8
100
AcDbEntity
  8
DEFPOINTS
 62
     0
 48
50.0
100
AcDbPoint
 10
4507.473137055703
 20
7557.02169339943
 30
0.0
  0
POINT
  5
1AABC
330
1A7C8
100
AcDbEntity
  8
DEFPOINTS
 62
     0
 48
50.0
100
AcDbPoint
 10
4507.473137055703
 20
7022.590922633266
 30
0.0
  0
ENDBLK
  5
1A7D5
330
1A7C8
100
AcDbEntity
  8
0
 48
50.0
100
AcDbBlockEnd
  0
BLOCK
  5
1A7E2
330
1A7D6
100
AcDbEntity
  8
0
 48
50.0
100
AcDbBlockBegin
  2
*D21
 70
     1
 10
0.0
 20
0.0
 30
0.0
  3
*D21
  1

  0
LINE
  5
1AAA7
330
1A7D6
100
AcDbEntity
  8
寸法
 62
     0
 48
50.0
370
    -2
100
AcDbLine
 10
5767.473137055691
 20
7537.021693399518
 30
0.0
 11
5767.473137055691
 21
6962.590922633267
 31
0.0
  0
LINE
  5
1AAA8
330
1A7D6
100
AcDbEntity
  8
寸法
 62
     0
 48
50.0
370
    -2
100
AcDbLine
 10
5719.47313705569
 20
7563.021693399431
 30
0.0
 11
5719.47313705569
 21
6962.590922633267
 31
0.0
  0
LINE
  5
1AAA9
330
1A7D6
100
AcDbEntity
  8
寸法
 62
     0
 48
50.0
370
    -2
100
AcDbLine
 10
5767.473137055691
 20
7022.590922633266
 30
0.0
 11
5867.473137055691
 21
7022.590922633266
 31
0.0
  0
LINE
  5
1AAAA
330
1A7D6
100
AcDbEntity
  8
寸法
 62
     0
 48
50.0
370
    -2
100
AcDbLine
 10
5719.47313705569
 20
7022.590922633266
 30
0.0
 11
5619.473137055689
 21
7022.590922633266
 31
0.0
  0
MTEXT
  5
1AAAB
330
1A7D6
100
AcDbEntity
  8
寸法
 62
     7
 48
50.0
100
AcDbMText
 10
5608.510239406942
 20
7122.590922633266
 30
0.0
 40
120.0
 41
0.0
 71
     5
 72
     1
  1
\A1;48
  7
STYLE1
 73
     1
 44
1.0
1001
ACAD
1000
MTEXTBEGIN
1070
    73
1070
     1
1070
    44
1040
1.0
1070
    74
1070
     0
1000
MTEXTEND
  0
LINE
  5
1AAAC
330
1A7D6
100
AcDbEntity
  8
寸法
 62
     0
 48
50.0
370
    -2
100
AcDbLine
 10
5767.473137055691
 20
7022.590922633266
 30
0.0
 11
5719.47313705569
 21
7022.590922633266
 31
0.0
  0
INSERT
  5
1AAAD
330
1A7D6
100
AcDbEntity
  8
寸法
 62
     0
 48
50.0
370
    -2
100
AcDbBlockReference
  2
_DOTSMALL
 10
5767.473137055691
 20
7022.590922633266
 30
0.0
 41
100.0
 42
100.0
 43
100.0
 50
180.0
  0
INSERT
  5
1AAAE
330
1A7D6
100
AcDbEntity
  8
寸法
 62
     0
 48
50.0
370
    -2
100
AcDbBlockReference
  2
_DOTSMALL
 10
5719.47313705569
 20
7022.590922633266
 30
0.0
 41
100.0
 42
100.0
 43
100.0
  0
POINT
  5
1AAAF
330
1A7D6
100
AcDbEntity
  8
DEFPOINTS
 62
     0
 48
50.0
100
AcDbPoint
 10
5767.473137055691
 20
7557.021693399518
 30
0.0
  0
POINT
  5
1AAB0
330
1A7D6
100
AcDbEntity
  8
DEFPOINTS
 62
     0
 48
50.0
100
AcDbPoint
 10
5719.47313705569
 20
7583.02169339943
 30
0.0
  0
POINT
  5
1AAB1
330
1A7D6
100
AcDbEntity
  8
DEFPOINTS
 62
     0
 48
50.0
100
AcDbPoint
 10
5719.47313705569
 20
7022.590922633266
 30
0.0
  0
ENDBLK
  5
1A7E3
330
1A7D6
100
AcDbEntity
  8
0
 48
50.0
100
AcDbBlockEnd
  0
BLOCK
  5
1A7F0
330
1A7E4
100
AcDbEntity
  8
0
 48
50.0
100
AcDbBlockBegin
  2
*D22
 70
     1
 10
0.0
 20
0.0
 30
0.0
  3
*D22
  1

  0
LINE
  5
1AA9C
330
1A7E4
100
AcDbEntity
  8
寸法
 62
     0
 48
50.0
370
    -2
100
AcDbLine
 10
7137.473137055714
 20
10207.02169339953
 30
0.0
 11
7137.473137055714
 21
10462.82991302451
 31
0.0
  0
LINE
  5
1AA9D
330
1A7E4
100
AcDbEntity
  8
寸法
 62
     0
 48
50.0
370
    -2
100
AcDbLine
 10
7192.473137055715
 20
10207.02169339953
 30
0.0
 11
7192.473137055715
 21
10462.82991302451
 31
0.0
  0
LINE
  5
1AA9E
330
1A7E4
100
AcDbEntity
  8
寸法
 62
     0
 48
50.0
370
    -2
100
AcDbLine
 10
7137.473137055714
 20
10402.82991302451
 30
0.0
 11
7037.473137055714
 21
10402.82991302451
 31
0.0
  0
LINE
  5
1AA9F
330
1A7E4
100
AcDbEntity
  8
寸法
 62
     0
 48
50.0
370
    -2
100
AcDbLine
 10
7192.473137055715
 20
10402.82991302451
 30
0.0
 11
7609.443699804192
 21
10402.82991302451
 31
0.0
  0
LINE
  5
1AAA0
330
1A7E4
100
AcDbEntity
  8
寸法
 62
     0
 48
50.0
370
    -2
100
AcDbLine
 10
7137.473137055714
 20
10402.82991302451
 30
0.0
 11
7192.473137055715
 21
10402.82991302451
 31
0.0
  0
INSERT
  5
1AAA1
330
1A7E4
100
AcDbEntity
  8
寸法
 62
     0
 48
50.0
370
    -2
100
AcDbBlockReference
  2
_DOTSMALL
 10
7137.473137055714
 20
10402.82991302451
 30
0.0
 41
100.0
 42
100.0
 43
100.0
  0
INSERT
  5
1AAA2
330
1A7E4
100
AcDbEntity
  8
寸法
 62
     0
 48
50.0
370
    -2
100
AcDbBlockReference
  2
_DOTSMALL
 10
7192.473137055715
 20
10402.82991302451
 30
0.0
 41
100.0
 42
100.0
 43
100.0
 50
180.0
  0
MTEXT
  5
1AAA3
330
1A7E4
100
AcDbEntity
  8
寸法
 62
     7
 48
50.0
100
AcDbMText
 10
7500.958418429952
 20
10502.82991302451
 30
0.0
 40
120.0
 41
0.0
 71
     5
 72
     1
  1
\A1;55
  7
STYLE1
 73
     1
 44
1.0
1001
ACAD
1000
MTEXTBEGIN
1070
    73
1070
     1
1070
    44
1040
1.0
1070
    74
1070
     0
1000
MTEXTEND
  0
POINT
  5
1AAA4
330
1A7E4
100
AcDbEntity
  8
DEFPOINTS
 62
     0
 48
50.0
100
AcDbPoint
 10
7137.473137055714
 20
10187.02169339953
 30
0.0
  0
POINT
  5
1AAA5
330
1A7E4
100
AcDbEntity
  8
DEFPOINTS
 62
     0
 48
50.0
100
AcDbPoint
 10
7192.473137055715
 20
10187.02169339953
 30
0.0
  0
POINT
  5
1AAA6
330
1A7E4
100
AcDbEntity
  8
DEFPOINTS
 62
     0
 48
50.0
100
AcDbPoint
 10
7192.473137055715
 20
10402.82991302451
 30
0.0
  0
ENDBLK
  5
1A7F1
330
1A7E4
100
AcDbEntity
  8
0
 48
50.0
100
AcDbBlockEnd
  0
BLOCK
  5
1A7FE
330
1A7F2
100
AcDbEntity
  8
0
 48
50.0
100
AcDbBlockBegin
  2
*D23
 70
     1
 10
0.0
 20
0.0
 30
0.0
  3
*D23
  1

  0
LINE
  5
1AA91
330
1A7F2
100
AcDbEntity
  8
寸法
 62
     0
 48
50.0
370
    -2
100
AcDbLine
 10
4452.473137055679
 20
10207.02169339943
 30
0.0
 11
4452.473137055679
 21
10462.82991302441
 31
0.0
  0
LINE
  5
1AA92
330
1A7F2
100
AcDbEntity
  8
寸法
 62
     0
 48
50.0
370
    -2
100
AcDbLine
 10
4507.473137055714
 20
10207.02169339943
 30
0.0
 11
4507.473137055714
 21
10462.82991302441
 31
0.0
  0
LINE
  5
1AA93
330
1A7F2
100
AcDbEntity
  8
寸法
 62
     0
 48
50.0
370
    -2
100
AcDbLine
 10
4507.473137055714
 20
10402.82991302441
 30
0.0
 11
4607.473137055714
 21
10402.82991302441
 31
0.0
  0
LINE
  5
1AA94
330
1A7F2
100
AcDbEntity
  8
寸法
 62
     0
 48
50.0
370
    -2
100
AcDbLine
 10
4452.473137055679
 20
10402.82991302441
 30
0.0
 11
4035.502574307201
 21
10402.82991302441
 31
0.0
  0
LINE
  5
1AA95
330
1A7F2
100
AcDbEntity
  8
寸法
 62
     0
 48
50.0
370
    -2
100
AcDbLine
 10
4507.473137055714
 20
10402.82991302441
 30
0.0
 11
4452.473137055679
 21
10402.82991302441
 31
0.0
  0
INSERT
  5
1AA96
330
1A7F2
100
AcDbEntity
  8
寸法
 62
     0
 48
50.0
370
    -2
100
AcDbBlockReference
  2
_DOTSMALL
 10
4507.473137055714
 20
10402.82991302441
 30
0.0
 41
100.0
 42
100.0
 43
100.0
 50
180.0
  0
INSERT
  5
1AA97
330
1A7F2
100
AcDbEntity
  8
寸法
 62
     0
 48
50.0
370
    -2
100
AcDbBlockReference
  2
_DOTSMALL
 10
4452.473137055679
 20
10402.82991302441
 30
0.0
 41
100.0
 42
100.0
 43
100.0
  0
MTEXT
  5
1AA98
330
1A7F2
100
AcDbEntity
  8
寸法
 62
     7
 48
50.0
100
AcDbMText
 10
4143.98785568144
 20
10502.82991302441
 30
0.0
 40
120.0
 41
0.0
 71
     5
 72
     1
  1
\A1;55
  7
STYLE1
 73
     1
 44
1.0
1001
ACAD
1000
MTEXTBEGIN
1070
    73
1070
     1
1070
    44
1040
1.0
1070
    74
1070
     0
1000
MTEXTEND
  0
POINT
  5
1AA99
330
1A7F2
100
AcDbEntity
  8
DEFPOINTS
 62
     0
 48
50.0
100
AcDbPoint
 10
4452.473137055679
 20
10187.02169339943
 30
0.0
  0
POINT
  5
1AA9A
330
1A7F2
100
AcDbEntity
  8
DEFPOINTS
 62
     0
 48
50.0
100
AcDbPoint
 10
4507.473137055714
 20
10187.02169339943
 30
0.0
  0
POINT
  5
1AA9B
330
1A7F2
100
AcDbEntity
  8
DEFPOINTS
 62
     0
 48
50.0
100
AcDbPoint
 10
4507.473137055714
 20
10402.82991302441
 30
0.0
  0
ENDBLK
  5
1A7FF
330
1A7F2
100
AcDbEntity
  8
0
 48
50.0
100
AcDbBlockEnd
  0
BLOCK
  5
1A80A
330
1A800
100
AcDbEntity
  8
0
 48
50.0
100
AcDbBlockBegin
  2
*D24
 70
     1
 10
0.0
 20
0.0
 30
0.0
  3
*D24
  1

  0
LINE
  5
1AA88
330
1A800
100
AcDbEntity
  8
寸法
 62
     0
 48
50.0
370
    -2
100
AcDbLine
 10
5877.473137055714
 20
10207.02169339943
 30
0.0
 11
5877.473137055714
 21
10462.82991302453
 31
0.0
  0
LINE
  5
1AA89
330
1A800
100
AcDbEntity
  8
寸法
 62
     0
 48
50.0
370
    -2
100
AcDbLine
 10
7137.473137055714
 20
10207.02169339953
 30
0.0
 11
7137.473137055714
 21
10462.82991302453
 31
0.0
  0
LINE
  5
1AA8A
330
1A800
100
AcDbEntity
  8
寸法
 62
     0
 48
50.0
370
    -2
100
AcDbLine
 10
5877.473137055714
 20
10402.82991302453
 30
0.0
 11
7137.473137055714
 21
10402.82991302453
 31
0.0
  0
INSERT
  5
1AA8B
330
1A800
100
AcDbEntity
  8
寸法
 62
     0
 48
50.0
370
    -2
100
AcDbBlockReference
  2
_DOTSMALL
 10
5877.473137055714
 20
10402.82991302453
 30
0.0
 41
100.0
 42
100.0
 43
100.0
 50
180.0
  0
INSERT
  5
1AA8C
330
1A800
100
AcDbEntity
  8
寸法
 62
     0
 48
50.0
370
    -2
100
AcDbBlockReference
  2
_DOTSMALL
 10
7137.473137055714
 20
10402.82991302453
 30
0.0
 41
100.0
 42
100.0
 43
100.0
  0
MTEXT
  5
1AA8D
330
1A800
100
AcDbEntity
  8
寸法
 62
     7
 48
50.0
100
AcDbMText
 10
6507.473137055715
 20
10502.84172404815
 30
0.0
 40
120.0
 41
0.0
 71
     5
 72
     1
  1
\A1;3X420=1260
  7
STYLE1
 73
     1
 44
1.0
1001
ACAD
1000
MTEXTBEGIN
1070
    73
1070
     1
1070
    44
1040
1.0
1070
    74
1070
     0
1000
MTEXTEND
  0
POINT
  5
1AA8E
330
1A800
100
AcDbEntity
  8
DEFPOINTS
 62
     0
 48
50.0
100
AcDbPoint
 10
5877.473137055714
 20
10187.02169339943
 30
0.0
  0
POINT
  5
1AA8F
330
1A800
100
AcDbEntity
  8
DEFPOINTS
 62
     0
 48
50.0
100
AcDbPoint
 10
7137.473137055714
 20
10187.02169339953
 30
0.0
  0
POINT
  5
1AA90
330
1A800
100
AcDbEntity
  8
DEFPOINTS
 62
     0
 48
50.0
100
AcDbPoint
 10
7137.473137055714
 20
10402.82991302453
 30
0.0
  0
ENDBLK
  5
1A80B
330
1A800
100
AcDbEntity
  8
0
 48
50.0
100
AcDbBlockEnd
  0
BLOCK
  5
1A818
330
1A80C
100
AcDbEntity
  8
0
 48
50.0
100
AcDbBlockBegin
  2
*D25
 70
     1
 10
0.0
 20
0.0
 30
0.0
  3
*D25
  1

  0
LINE
  5
1AA7D
330
1A80C
100
AcDbEntity
  8
寸法
 62
     0
 48
50.0
370
    -2
100
AcDbLine
 10
7192.47313705569
 20
7537.021693399522
 30
0.0
 11
7192.47313705569
 21
6962.590922633267
 31
0.0
  0
LINE
  5
1AA7E
330
1A80C
100
AcDbEntity
  8
寸法
 62
     0
 48
50.0
370
    -2
100
AcDbLine
 10
7137.473137055692
 20
7537.021693399518
 30
0.0
 11
7137.473137055692
 21
6962.590922633267
 31
0.0
  0
LINE
  5
1AA7F
330
1A80C
100
AcDbEntity
  8
寸法
 62
     0
 48
50.0
370
    -2
100
AcDbLine
 10
7137.473137055692
 20
7022.590922633266
 30
0.0
 11
7037.473137055691
 21
7022.590922633266
 31
0.0
  0
LINE
  5
1AA80
330
1A80C
100
AcDbEntity
  8
寸法
 62
     0
 48
50.0
370
    -2
100
AcDbLine
 10
7192.47313705569
 20
7022.590922633266
 30
0.0
 11
7609.443699804167
 21
7022.590922633266
 31
0.0
  0
LINE
  5
1AA81
330
1A80C
100
AcDbEntity
  8
寸法
 62
     0
 48
50.0
370
    -2
100
AcDbLine
 10
7137.473137055692
 20
7022.590922633266
 30
0.0
 11
7192.47313705569
 21
7022.590922633266
 31
0.0
  0
INSERT
  5
1AA82
330
1A80C
100
AcDbEntity
  8
寸法
 62
     0
 48
50.0
370
    -2
100
AcDbBlockReference
  2
_DOTSMALL
 10
7137.473137055692
 20
7022.590922633266
 30
0.0
 41
100.0
 42
100.0
 43
100.0
  0
INSERT
  5
1AA83
330
1A80C
100
AcDbEntity
  8
寸法
 62
     0
 48
50.0
370
    -2
100
AcDbBlockReference
  2
_DOTSMALL
 10
7192.47313705569
 20
7022.590922633266
 30
0.0
 41
100.0
 42
100.0
 43
100.0
 50
180.0
  0
MTEXT
  5
1AA84
330
1A80C
100
AcDbEntity
  8
寸法
 62
     7
 48
50.0
100
AcDbMText
 10
7500.958418429927
 20
7122.590922633266
 30
0.0
 40
120.0
 41
0.0
 71
     5
 72
     1
  1
\A1;55
  7
STYLE1
 73
     1
 44
1.0
1001
ACAD
1000
MTEXTBEGIN
1070
    73
1070
     1
1070
    44
1040
1.0
1070
    74
1070
     0
1000
MTEXTEND
  0
POINT
  5
1AA85
330
1A80C
100
AcDbEntity
  8
DEFPOINTS
 62
     0
 48
50.0
100
AcDbPoint
 10
7192.47313705569
 20
7557.021693399521
 30
0.0
  0
POINT
  5
1AA86
330
1A80C
100
AcDbEntity
  8
DEFPOINTS
 62
     0
 48
50.0
100
AcDbPoint
 10
7137.473137055692
 20
7557.021693399518
 30
0.0
  0
POINT
  5
1AA87
330
1A80C
100
AcDbEntity
  8
DEFPOINTS
 62
     0
 48
50.0
100
AcDbPoint
 10
7137.473137055692
 20
7022.590922633266
 30
0.0
  0
ENDBLK
  5
1A819
330
1A80C
100
AcDbEntity
  8
0
 48
50.0
100
AcDbBlockEnd
  0
BLOCK
  5
1A826
330
1A81A
100
AcDbEntity
  8
0
 48
50.0
100
AcDbBlockBegin
  2
*D26
 70
     1
 10
0.0
 20
0.0
 30
0.0
  3
*D26
  1

  0
LINE
  5
1AA72
330
1A81A
100
AcDbEntity
  8
寸法
 62
     0
 48
50.0
370
    -2
100
AcDbLine
 10
7137.473137055692
 20
7537.021693399518
 30
0.0
 11
7137.473137055692
 21
6962.590922633267
 31
0.0
  0
LINE
  5
1AA73
330
1A81A
100
AcDbEntity
  8
寸法
 62
     0
 48
50.0
370
    -2
100
AcDbLine
 10
7089.47313705569
 20
7563.021693399431
 30
0.0
 11
7089.47313705569
 21
6962.590922633267
 31
0.0
  0
LINE
  5
1AA74
330
1A81A
100
AcDbEntity
  8
寸法
 62
     0
 48
50.0
370
    -2
100
AcDbLine
 10
7137.473137055692
 20
7022.590922633266
 30
0.0
 11
7237.473137055691
 21
7022.590922633266
 31
0.0
  0
LINE
  5
1AA75
330
1A81A
100
AcDbEntity
  8
寸法
 62
     0
 48
50.0
370
    -2
100
AcDbLine
 10
7089.47313705569
 20
7022.590922633266
 30
0.0
 11
6989.473137055689
 21
7022.590922633266
 31
0.0
  0
MTEXT
  5
1AA76
330
1A81A
100
AcDbEntity
  8
寸法
 62
     7
 48
50.0
100
AcDbMText
 10
6978.510239406943
 20
7122.590922633266
 30
0.0
 40
120.0
 41
0.0
 71
     5
 72
     1
  1
\A1;48
  7
STYLE1
 73
     1
 44
1.0
1001
ACAD
1000
MTEXTBEGIN
1070
    73
1070
     1
1070
    44
1040
1.0
1070
    74
1070
     0
1000
MTEXTEND
  0
LINE
  5
1AA77
330
1A81A
100
AcDbEntity
  8
寸法
 62
     0
 48
50.0
370
    -2
100
AcDbLine
 10
7137.473137055692
 20
7022.590922633266
 30
0.0
 11
7089.47313705569
 21
7022.590922633266
 31
0.0
  0
INSERT
  5
1AA78
330
1A81A
100
AcDbEntity
  8
寸法
 62
     0
 48
50.0
370
    -2
100
AcDbBlockReference
  2
_DOTSMALL
 10
7137.473137055692
 20
7022.590922633266
 30
0.0
 41
100.0
 42
100.0
 43
100.0
 50
180.0
  0
INSERT
  5
1AA79
330
1A81A
100
AcDbEntity
  8
寸法
 62
     0
 48
50.0
370
    -2
100
AcDbBlockReference
  2
_DOTSMALL
 10
7089.47313705569
 20
7022.590922633266
 30
0.0
 41
100.0
 42
100.0
 43
100.0
  0
POINT
  5
1AA7A
330
1A81A
100
AcDbEntity
  8
DEFPOINTS
 62
     0
 48
50.0
100
AcDbPoint
 10
7137.473137055692
 20
7557.021693399518
 30
0.0
  0
POINT
  5
1AA7B
330
1A81A
100
AcDbEntity
  8
DEFPOINTS
 62
     0
 48
50.0
100
AcDbPoint
 10
7089.47313705569
 20
7583.02169339943
 30
0.0
  0
POINT
  5
1AA7C
330
1A81A
100
AcDbEntity
  8
DEFPOINTS
 62
     0
 48
50.0
100
AcDbPoint
 10
7089.47313705569
 20
7022.590922633266
 30
0.0
  0
ENDBLK
  5
1A827
330
1A81A
100
AcDbEntity
  8
0
 48
50.0
100
AcDbBlockEnd
  0
BLOCK
  5
1A834
330
1A828
100
AcDbEntity
  8
0
 48
50.0
100
AcDbBlockBegin
  2
*D27
 70
     1
 10
0.0
 20
0.0
 30
0.0
  3
*D27
  1

  0
LINE
  5
1AA67
330
1A828
100
AcDbEntity
  8
寸法
 62
     0
 48
50.0
370
    -2
100
AcDbLine
 10
5925.473137055707
 20
7563.021693399431
 30
0.0
 11
5925.473137055707
 21
6962.590922633267
 31
0.0
  0
LINE
  5
1AA68
330
1A828
100
AcDbEntity
  8
寸法
 62
     0
 48
50.0
370
    -2
100
AcDbLine
 10
5877.473137055704
 20
7537.021693399431
 30
0.0
 11
5877.473137055704
 21
6962.590922633267
 31
0.0
  0
LINE
  5
1AA69
330
1A828
100
AcDbEntity
  8
寸法
 62
     0
 48
50.0
370
    -2
100
AcDbLine
 10
5925.473137055707
 20
7022.590922633266
 30
0.0
 11
6025.473137055707
 21
7022.590922633266
 31
0.0
  0
LINE
  5
1AA6A
330
1A828
100
AcDbEntity
  8
寸法
 62
     0
 48
50.0
370
    -2
100
AcDbLine
 10
5877.473137055704
 20
7022.590922633266
 30
0.0
 11
5777.473137055704
 21
7022.590922633266
 31
0.0
  0
MTEXT
  5
1AA6B
330
1A828
100
AcDbEntity
  8
寸法
 62
     7
 48
50.0
100
AcDbMText
 10
6038.375108055765
 20
7122.590922633266
 30
0.0
 40
120.0
 41
0.0
 71
     5
 72
     1
  1
\A1;48
  7
STYLE1
 73
     1
 44
1.0
1001
ACAD
1000
MTEXTBEGIN
1070
    73
1070
     1
1070
    44
1040
1.0
1070
    74
1070
     0
1000
MTEXTEND
  0
LINE
  5
1AA6C
330
1A828
100
AcDbEntity
  8
寸法
 62
     0
 48
50.0
370
    -2
100
AcDbLine
 10
5925.473137055707
 20
7022.590922633266
 30
0.0
 11
5877.473137055704
 21
7022.590922633266
 31
0.0
  0
INSERT
  5
1AA6D
330
1A828
100
AcDbEntity
  8
寸法
 62
     0
 48
50.0
370
    -2
100
AcDbBlockReference
  2
_DOTSMALL
 10
5925.473137055707
 20
7022.590922633266
 30
0.0
 41
100.0
 42
100.0
 43
100.0
 50
180.0
  0
INSERT
  5
1AA6E
330
1A828
100
AcDbEntity
  8
寸法
 62
     0
 48
50.0
370
    -2
100
AcDbBlockReference
  2
_DOTSMALL
 10
5877.473137055704
 20
7022.590922633266
 30
0.0
 41
100.0
 42
100.0
 43
100.0
  0
POINT
  5
1AA6F
330
1A828
100
AcDbEntity
  8
DEFPOINTS
 62
     0
 48
50.0
100
AcDbPoint
 10
5925.473137055707
 20
7583.02169339943
 30
0.0
  0
POINT
  5
1AA70
330
1A828
100
AcDbEntity
  8
DEFPOINTS
 62
     0
 48
50.0
100
AcDbPoint
 10
5877.473137055704
 20
7557.02169339943
 30
0.0
  0
POINT
  5
1AA71
330
1A828
100
AcDbEntity
  8
DEFPOINTS
 62
     0
 48
50.0
100
AcDbPoint
 10
5877.473137055704
 20
7022.590922633266
 30
0.0
  0
ENDBLK
  5
1A835
330
1A828
100
AcDbEntity
  8
0
 48
50.0
100
AcDbBlockEnd
  0
BLOCK
  5
1A842
330
1A836
100
AcDbEntity
  8
0
 48
50.0
100
AcDbBlockBegin
  2
*D28
 70
     1
 10
0.0
 20
0.0
 30
0.0
  3
*D28
  1

  0
LINE
  5
1AA5C
330
1A836
100
AcDbEntity
  8
寸法
 62
     0
 48
50.0
370
    -2
100
AcDbLine
 10
4507.473137055703
 20
7537.021693399431
 30
0.0
 11
4507.473137055703
 21
6962.590922633267
 31
0.0
  0
LINE
  5
1AA5D
330
1A836
100
AcDbEntity
  8
寸法
 62
     0
 48
50.0
370
    -2
100
AcDbLine
 10
4452.473137055707
 20
7537.021693399427
 30
0.0
 11
4452.473137055707
 21
6962.590922633267
 31
0.0
  0
LINE
  5
1AA5E
330
1A836
100
AcDbEntity
  8
寸法
 62
     0
 48
50.0
370
    -2
100
AcDbLine
 10
4507.473137055703
 20
7022.590922633266
 30
0.0
 11
4607.473137055704
 21
7022.590922633266
 31
0.0
  0
LINE
  5
1AA5F
330
1A836
100
AcDbEntity
  8
寸法
 62
     0
 48
50.0
370
    -2
100
AcDbLine
 10
4452.473137055707
 20
7022.590922633266
 30
0.0
 11
4035.50257430723
 21
7022.590922633266
 31
0.0
  0
LINE
  5
1AA60
330
1A836
100
AcDbEntity
  8
寸法
 62
     0
 48
50.0
370
    -2
100
AcDbLine
 10
4507.473137055703
 20
7022.590922633266
 30
0.0
 11
4452.473137055707
 21
7022.590922633266
 31
0.0
  0
INSERT
  5
1AA61
330
1A836
100
AcDbEntity
  8
寸法
 62
     0
 48
50.0
370
    -2
100
AcDbBlockReference
  2
_DOTSMALL
 10
4507.473137055703
 20
7022.590922633266
 30
0.0
 41
100.0
 42
100.0
 43
100.0
 50
180.0
  0
INSERT
  5
1AA62
330
1A836
100
AcDbEntity
  8
寸法
 62
     0
 48
50.0
370
    -2
100
AcDbBlockReference
  2
_DOTSMALL
 10
4452.473137055707
 20
7022.590922633266
 30
0.0
 41
100.0
 42
100.0
 43
100.0
  0
MTEXT
  5
1AA63
330
1A836
100
AcDbEntity
  8
寸法
 62
     7
 48
50.0
100
AcDbMText
 10
4143.987855681468
 20
7122.590922633266
 30
0.0
 40
120.0
 41
0.0
 71
     5
 72
     1
  1
\A1;55
  7
STYLE1
 73
     1
 44
1.0
1001
ACAD
1000
MTEXTBEGIN
1070
    73
1070
     1
1070
    44
1040
1.0
1070
    74
1070
     0
1000
MTEXTEND
  0
POINT
  5
1AA64
330
1A836
100
AcDbEntity
  8
DEFPOINTS
 62
     0
 48
50.0
100
AcDbPoint
 10
4507.473137055703
 20
7557.02169339943
 30
0.0
  0
POINT
  5
1AA65
330
1A836
100
AcDbEntity
  8
DEFPOINTS
 62
     0
 48
50.0
100
AcDbPoint
 10
4452.473137055707
 20
7557.021693399427
 30
0.0
  0
POINT
  5
1AA66
330
1A836
100
AcDbEntity
  8
DEFPOINTS
 62
     0
 48
50.0
100
AcDbPoint
 10
4452.473137055707
 20
7022.590922633266
 30
0.0
  0
ENDBLK
  5
1A843
330
1A836
100
AcDbEntity
  8
0
 48
50.0
100
AcDbBlockEnd
  0
BLOCK
  5
1A84E
330
1A844
100
AcDbEntity
  8
0
 48
50.0
100
AcDbBlockBegin
  2
*D29
 70
     1
 10
0.0
 20
0.0
 30
0.0
  3
*D29
  1

  0
LINE
  5
1AA53
330
1A844
100
AcDbEntity
  8
寸法
 62
     0
 48
50.0
370
    -2
100
AcDbLine
 10
4452.473137055707
 20
7537.021693399427
 30
0.0
 11
4452.473137055707
 21
6516.417927042391
 31
0.0
  0
LINE
  5
1AA54
330
1A844
100
AcDbEntity
  8
寸法
 62
     0
 48
50.0
370
    -2
100
AcDbLine
 10
7192.473137055678
 20
7537.021693399522
 30
0.0
 11
7192.473137055678
 21
6516.417927042391
 31
0.0
  0
LINE
  5
1AA55
330
1A844
100
AcDbEntity
  8
寸法
 62
     0
 48
50.0
370
    -2
100
AcDbLine
 10
4452.473137055707
 20
6576.417927042392
 30
0.0
 11
7192.473137055678
 21
6576.417927042392
 31
0.0
  0
INSERT
  5
1AA56
330
1A844
100
AcDbEntity
  8
寸法
 62
     0
 48
50.0
370
    -2
100
AcDbBlockReference
  2
_DOTSMALL
 10
4452.473137055707
 20
6576.417927042392
 30
0.0
 41
100.0
 42
100.0
 43
100.0
 50
180.0
  0
INSERT
  5
1AA57
330
1A844
100
AcDbEntity
  8
寸法
 62
     0
 48
50.0
370
    -2
100
AcDbBlockReference
  2
_DOTSMALL
 10
7192.473137055678
 20
6576.417927042392
 30
0.0
 41
100.0
 42
100.0
 43
100.0
  0
MTEXT
  5
1AA58
330
1A844
100
AcDbEntity
  8
寸法
 62
     7
 48
50.0
100
AcDbMText
 10
5822.473137055693
 20
6676.429738066014
 30
0.0
 40
120.0
 41
0.0
 71
     5
 72
     1
  1
\A1;2740
  7
STYLE1
 73
     1
 44
1.0
1001
ACAD
1000
MTEXTBEGIN
1070
    73
1070
     1
1070
    44
1040
1.0
1070
    74
1070
     0
1000
MTEXTEND
  0
POINT
  5
1AA59
330
1A844
100
AcDbEntity
  8
DEFPOINTS
 62
     0
 48
50.0
100
AcDbPoint
 10
4452.473137055707
 20
7557.021693399427
 30
0.0
  0
POINT
  5
1AA5A
330
1A844
100
AcDbEntity
  8
DEFPOINTS
 62
     0
 48
50.0
100
AcDbPoint
 10
7192.473137055678
 20
7557.021693399521
 30
0.0
  0
POINT
  5
1AA5B
330
1A844
100
AcDbEntity
  8
DEFPOINTS
 62
     0
 48
50.0
100
AcDbPoint
 10
7192.473137055678
 20
6576.417927042392
 30
0.0
  0
ENDBLK
  5
1A84F
330
1A844
100
AcDbEntity
  8
0
 48
50.0
100
AcDbBlockEnd
  0
BLOCK
  5
1A859
330
1A850
100
AcDbEntity
  8
0
 48
50.0
100
AcDbBlockBegin
  2
*D30
 70
     1
 10
0.0
 20
0.0
 30
0.0
  3
*D30
  1

  0
LINE
  5
1AA4B
330
1A850
100
AcDbEntity
  8
寸法
 62
     0
 48
50.0
370
    -2
100
AcDbLine
 10
5925.473137055707
 20
7563.021693399431
 30
0.0
 11
5925.473137055707
 21
6962.590922633267
 31
0.0
  0
LINE
  5
1AA4C
330
1A850
100
AcDbEntity
  8
寸法
 62
     0
 48
50.0
370
    -2
100
AcDbLine
 10
7089.47313705569
 20
7022.590922633266
 30
0.0
 11
5925.473137055707
 21
7022.590922633266
 31
0.0
  0
INSERT
  5
1AA4D
330
1A850
100
AcDbEntity
  8
寸法
 62
     0
 48
50.0
370
    -2
100
AcDbBlockReference
  2
_DOTSMALL
 10
7089.47313705569
 20
7022.590922633266
 30
0.0
 41
100.0
 42
100.0
 43
100.0
  0
INSERT
  5
1AA4E
330
1A850
100
AcDbEntity
  8
寸法
 62
     0
 48
50.0
370
    -2
100
AcDbBlockReference
  2
_DOTSMALL
 10
5925.473137055707
 20
7022.590922633266
 30
0.0
 41
100.0
 42
100.0
 43
100.0
 50
180.0
  0
MTEXT
  5
1AA4F
330
1A850
100
AcDbEntity
  8
寸法
 62
     7
 48
50.0
100
AcDbMText
 10
6507.473137055699
 20
7222.590922633266
 30
0.0
 40
120.0
 41
0.0
 71
     5
 72
     1
  1
\A1;有効開口部間口\P 1164
  7
STYLE1
 73
     1
 44
1.0
1001
ACAD
1000
MTEXTBEGIN
1070
    73
1070
     1
1070
    44
1040
1.0
1070
    74
1070
     0
1000
MTEXTEND
  0
POINT
  5
1AA50
330
1A850
100
AcDbEntity
  8
DEFPOINTS
 62
     0
 48
50.0
100
AcDbPoint
 10
7089.47313705569
 20
7583.02169339943
 30
0.0
  0
POINT
  5
1AA51
330
1A850
100
AcDbEntity
  8
DEFPOINTS
 62
     0
 48
50.0
100
AcDbPoint
 10
5925.473137055707
 20
7583.02169339943
 30
0.0
  0
POINT
  5
1AA52
330
1A850
100
AcDbEntity
  8
DEFPOINTS
 62
     0
 48
50.0
100
AcDbPoint
 10
5925.473137055707
 20
7022.590922633266
 30
0.0
  0
ENDBLK
  5
1A85A
330
1A850
100
AcDbEntity
  8
0
 48
50.0
100
AcDbBlockEnd
  0
BLOCK
  5
1A865
330
1A85B
100
AcDbEntity
  8
0
 48
50.0
100
AcDbBlockBegin
  2
*D31
 70
     1
 10
0.0
 20
0.0
 30
0.0
  3
*D31
  1

  0
LINE
  5
1AA42
330
1A85B
100
AcDbEntity
  8
寸法
 62
     0
 48
50.0
370
    -2
100
AcDbLine
 10
7212.473137055714
 20
10187.02169339953
 30
0.0
 11
8265.00642452976
 21
10187.02169339953
 31
0.0
  0
LINE
  5
1AA43
330
1A85B
100
AcDbEntity
  8
寸法
 62
     0
 48
50.0
370
    -2
100
AcDbLine
 10
7212.473137055688
 20
7557.021693399521
 30
0.0
 11
8265.00642452976
 21
7557.021693399521
 31
0.0
  0
LINE
  5
1AA44
330
1A85B
100
AcDbEntity
  8
寸法
 62
     0
 48
50.0
370
    -2
100
AcDbLine
 10
8205.006424529761
 20
10187.02169339953
 30
0.0
 11
8205.006424529761
 21
7557.021693399521
 31
0.0
  0
INSERT
  5
1AA45
330
1A85B
100
AcDbEntity
  8
寸法
 62
     0
 48
50.0
370
    -2
100
AcDbBlockReference
  2
_DOTSMALL
 10
8205.006424529761
 20
10187.02169339953
 30
0.0
 41
100.0
 42
100.0
 43
100.0
 50
90.0
  0
INSERT
  5
1AA46
330
1A85B
100
AcDbEntity
  8
寸法
 62
     0
 48
50.0
370
    -2
100
AcDbBlockReference
  2
_DOTSMALL
 10
8205.006424529761
 20
7557.021693399521
 30
0.0
 41
100.0
 42
100.0
 43
100.0
 50
270.0
  0
MTEXT
  5
1AA47
330
1A85B
100
AcDbEntity
  8
寸法
 62
     7
 48
50.0
100
AcDbMText
 10
8104.994613506137
 20
8872.021693399528
 30
0.0
 40
120.0
 41
0.0
 71
     5
 72
     1
  1
\A1;2630
  7
STYLE1
 11
0.0000000000000001
 21
1.0
 31
0.0
 73
     1
 44
1.0
1001
ACAD
1000
MTEXTBEGIN
1070
    73
1070
     1
1070
    44
1040
1.0
1070
    74
1070
     0
1000
MTEXTEND
  0
POINT
  5
1AA48
330
1A85B
100
AcDbEntity
  8
DEFPOINTS
 62
     0
 48
50.0
100
AcDbPoint
 10
7192.473137055715
 20
10187.02169339953
 30
0.0
  0
POINT
  5
1AA49
330
1A85B
100
AcDbEntity
  8
DEFPOINTS
 62
     0
 48
50.0
100
AcDbPoint
 10
7192.47313705569
 20
7557.021693399521
 30
0.0
  0
POINT
  5
1AA4A
330
1A85B
100
AcDbEntity
  8
DEFPOINTS
 62
     0
 48
50.0
100
AcDbPoint
 10
8205.006424529761
 20
7557.021693399521
 30
0.0
  0
ENDBLK
  5
1A866
330
1A85B
100
AcDbEntity
  8
0
 48
50.0
100
AcDbBlockEnd
  0
BLOCK
  5
1A873
330
1A867
100
AcDbEntity
  8
0
 48
50.0
100
AcDbBlockBegin
  2
*D32
 70
     1
 10
0.0
 20
0.0
 30
0.0
  3
*D32
  1

  0
LINE
  5
1AA37
330
1A867
100
AcDbEntity
  8
寸法
 62
     0
 48
50.0
370
    -2
100
AcDbLine
 10
7212.473137055714
 20
10187.02169339953
 30
0.0
 11
7899.899482790125
 21
10187.02169339953
 31
0.0
  0
LINE
  5
1AA38
330
1A867
100
AcDbEntity
  8
寸法
 62
     0
 48
50.0
370
    -2
100
AcDbLine
 10
7212.473137055714
 20
10132.02169339953
 30
0.0
 11
7899.899482790125
 21
10132.02169339953
 31
0.0
  0
LINE
  5
1AA39
330
1A867
100
AcDbEntity
  8
寸法
 62
     0
 48
50.0
370
    -2
100
AcDbLine
 10
7839.899482790125
 20
10132.02169339953
 30
0.0
 11
7839.899482790125
 21
10032.02169339953
 31
0.0
  0
LINE
  5
1AA3A
330
1A867
100
AcDbEntity
  8
寸法
 62
     0
 48
50.0
370
    -2
100
AcDbLine
 10
7839.899482790125
 20
10187.02169339953
 30
0.0
 11
7839.899482790126
 21
10603.992256148
 31
0.0
  0
LINE
  5
1AA3B
330
1A867
100
AcDbEntity
  8
寸法
 62
     0
 48
50.0
370
    -2
100
AcDbLine
 10
7839.899482790125
 20
10132.02169339953
 30
0.0
 11
7839.899482790125
 21
10187.02169339953
 31
0.0
  0
INSERT
  5
1AA3C
330
1A867
100
AcDbEntity
  8
寸法
 62
     0
 48
50.0
370
    -2
100
AcDbBlockReference
  2
_DOTSMALL
 10
7839.899482790125
 20
10132.02169339953
 30
0.0
 41
100.0
 42
100.0
 43
100.0
 50
90.0
  0
INSERT
  5
1AA3D
330
1A867
100
AcDbEntity
  8
寸法
 62
     0
 48
50.0
370
    -2
100
AcDbBlockReference
  2
_DOTSMALL
 10
7839.899482790125
 20
10187.02169339953
 30
0.0
 41
100.0
 42
100.0
 43
100.0
 50
270.0
  0
MTEXT
  5
1AA3E
330
1A867
100
AcDbEntity
  8
寸法
 62
     7
 48
50.0
100
AcDbMText
 10
7739.899482790125
 20
10495.50697477377
 30
0.0
 40
120.0
 41
0.0
 71
     5
 72
     1
  1
\A1;55
  7
STYLE1
 11
0.0000000000000001
 21
1.0
 31
0.0
 73
     1
 44
1.0
1001
ACAD
1000
MTEXTBEGIN
1070
    73
1070
     1
1070
    44
1040
1.0
1070
    74
1070
     0
1000
MTEXTEND
  0
POINT
  5
1AA3F
330
1A867
100
AcDbEntity
  8
DEFPOINTS
 62
     0
 48
50.0
100
AcDbPoint
 10
7192.473137055715
 20
10187.02169339953
 30
0.0
  0
POINT
  5
1AA40
330
1A867
100
AcDbEntity
  8
DEFPOINTS
 62
     0
 48
50.0
100
AcDbPoint
 10
7192.473137055715
 20
10132.02169339953
 30
0.0
  0
POINT
  5
1AA41
330
1A867
100
AcDbEntity
  8
DEFPOINTS
 62
     0
 48
50.0
100
AcDbPoint
 10
7839.899482790125
 20
10132.02169339953
 30
0.0
  0
ENDBLK
  5
1A874
330
1A867
100
AcDbEntity
  8
0
 48
50.0
100
AcDbBlockEnd
  0
BLOCK
  5
1A881
330
1A875
100
AcDbEntity
  8
0
 48
50.0
100
AcDbBlockBegin
  2
*D33
 70
     1
 10
0.0
 20
0.0
 30
0.0
  3
*D33
  1

  0
LINE
  5
1AA2C
330
1A875
100
AcDbEntity
  8
寸法
 62
     0
 48
50.0
370
    -2
100
AcDbLine
 10
7212.473137055688
 20
7612.021693399518
 30
0.0
 11
7899.8994827901
 21
7612.021693399518
 31
0.0
  0
LINE
  5
1AA2D
330
1A875
100
AcDbEntity
  8
寸法
 62
     0
 48
50.0
370
    -2
100
AcDbLine
 10
7212.473137055688
 20
7557.021693399521
 30
0.0
 11
7899.8994827901
 21
7557.021693399521
 31
0.0
  0
LINE
  5
1AA2E
330
1A875
100
AcDbEntity
  8
寸法
 62
     0
 48
50.0
370
    -2
100
AcDbLine
 10
7839.899482790101
 20
7612.021693399518
 30
0.0
 11
7839.899482790101
 21
7712.021693399518
 31
0.0
  0
LINE
  5
1AA2F
330
1A875
100
AcDbEntity
  8
寸法
 62
     0
 48
50.0
370
    -2
100
AcDbLine
 10
7839.899482790101
 20
7557.021693399521
 30
0.0
 11
7839.899482790101
 21
7070.67494512042
 31
0.0
  0
LINE
  5
1AA30
330
1A875
100
AcDbEntity
  8
寸法
 62
     0
 48
50.0
370
    -2
100
AcDbLine
 10
7839.899482790101
 20
7612.021693399518
 30
0.0
 11
7839.899482790101
 21
7557.021693399521
 31
0.0
  0
INSERT
  5
1AA31
330
1A875
100
AcDbEntity
  8
寸法
 62
     0
 48
50.0
370
    -2
100
AcDbBlockReference
  2
_DOTSMALL
 10
7839.899482790101
 20
7612.021693399518
 30
0.0
 41
100.0
 42
100.0
 43
100.0
 50
270.0
  0
INSERT
  5
1AA32
330
1A875
100
AcDbEntity
  8
寸法
 62
     0
 48
50.0
370
    -2
100
AcDbBlockReference
  2
_DOTSMALL
 10
7839.899482790101
 20
7557.021693399521
 30
0.0
 41
100.0
 42
100.0
 43
100.0
 50
90.0
  0
MTEXT
  5
1AA33
330
1A875
100
AcDbEntity
  8
寸法
 62
     7
 48
50.0
100
AcDbMText
 10
7739.899482790099
 20
7179.16022649466
 30
0.0
 40
120.0
 41
0.0
 71
     5
 72
     1
  1
\A1;55
  7
STYLE1
 11
0.0000000000000001
 21
1.0
 31
0.0
 73
     1
 44
1.0
1001
ACAD
1000
MTEXTBEGIN
1070
    73
1070
     1
1070
    44
1040
1.0
1070
    74
1070
     0
1000
MTEXTEND
  0
POINT
  5
1AA34
330
1A875
100
AcDbEntity
  8
DEFPOINTS
 62
     0
 48
50.0
100
AcDbPoint
 10
7192.47313705569
 20
7612.021693399518
 30
0.0
  0
POINT
  5
1AA35
330
1A875
100
AcDbEntity
  8
DEFPOINTS
 62
     0
 48
50.0
100
AcDbPoint
 10
7192.47313705569
 20
7557.021693399521
 30
0.0
  0
POINT
  5
1AA36
330
1A875
100
AcDbEntity
  8
DEFPOINTS
 62
     0
 48
50.0
100
AcDbPoint
 10
7839.899482790101
 20
7557.021693399521
 30
0.0
  0
ENDBLK
  5
1A882
330
1A875
100
AcDbEntity
  8
0
 48
50.0
100
AcDbBlockEnd
  0
BLOCK
  5
1A88D
330
1A883
100
AcDbEntity
  8
0
 48
50.0
100
AcDbBlockBegin
  2
*D34
 70
     1
 10
0.0
 20
0.0
 30
0.0
  3
*D34
  1

  0
LINE
  5
1AA23
330
1A883
100
AcDbEntity
  8
寸法
 62
     0
 48
50.0
370
    -2
100
AcDbLine
 10
7212.473137055714
 20
10132.02169339953
 30
0.0
 11
7899.899482790122
 21
10132.02169339953
 31
0.0
  0
LINE
  5
1AA24
330
1A883
100
AcDbEntity
  8
寸法
 62
     0
 48
50.0
370
    -2
100
AcDbLine
 10
7212.473137055688
 20
7612.021693399518
 30
0.0
 11
7899.899482790122
 21
7612.021693399518
 31
0.0
  0
LINE
  5
1AA25
330
1A883
100
AcDbEntity
  8
寸法
 62
     0
 48
50.0
370
    -2
100
AcDbLine
 10
7839.89948279012
 20
10132.02169339953
 30
0.0
 11
7839.89948279012
 21
7612.021693399518
 31
0.0
  0
INSERT
  5
1AA26
330
1A883
100
AcDbEntity
  8
寸法
 62
     0
 48
50.0
370
    -2
100
AcDbBlockReference
  2
_DOTSMALL
 10
7839.89948279012
 20
10132.02169339953
 30
0.0
 41
100.0
 42
100.0
 43
100.0
 50
90.0
  0
INSERT
  5
1AA27
330
1A883
100
AcDbEntity
  8
寸法
 62
     0
 48
50.0
370
    -2
100
AcDbBlockReference
  2
_DOTSMALL
 10
7839.89948279012
 20
7612.021693399518
 30
0.0
 41
100.0
 42
100.0
 43
100.0
 50
270.0
  0
MTEXT
  5
1AA28
330
1A883
100
AcDbEntity
  8
寸法
 62
     7
 48
50.0
100
AcDbMText
 10
7739.887671766497
 20
8872.021693399528
 30
0.0
 40
120.0
 41
0.0
 71
     5
 72
     1
  1
\A1;6X420=2520
  7
STYLE1
 11
0.0000000000000001
 21
1.0
 31
0.0
 73
     1
 44
1.0
1001
ACAD
1000
MTEXTBEGIN
1070
    73
1070
     1
1070
    44
1040
1.0
1070
    74
1070
     0
1000
MTEXTEND
  0
POINT
  5
1AA29
330
1A883
100
AcDbEntity
  8
DEFPOINTS
 62
     0
 48
50.0
100
AcDbPoint
 10
7192.473137055715
 20
10132.02169339953
 30
0.0
  0
POINT
  5
1AA2A
330
1A883
100
AcDbEntity
  8
DEFPOINTS
 62
     0
 48
50.0
100
AcDbPoint
 10
7192.47313705569
 20
7612.021693399518
 30
0.0
  0
POINT
  5
1AA2B
330
1A883
100
AcDbEntity
  8
DEFPOINTS
 62
     0
 48
50.0
100
AcDbPoint
 10
7839.89948279012
 20
7612.021693399518
 30
0.0
  0
ENDBLK
  5
1A88E
330
1A883
100
AcDbEntity
  8
0
 48
50.0
100
AcDbBlockEnd
  0
BLOCK
  5
1A899
330
1A88F
100
AcDbEntity
  8
0
 48
50.0
100
AcDbBlockBegin
  2
*D35
 70
     1
 10
0.0
 20
0.0
 30
0.0
  3
*D35
  1

  0
LINE
  5
1AB87
330
1A88F
100
AcDbEntity
  8
寸法
 62
     0
 48
50.0
370
    -2
100
AcDbLine
 10
7212.473137055707
 20
2537.931598713262
 30
0.0
 11
7540.016239377454
 21
2537.931598713262
 31
0.0
  0
LINE
  5
1AB88
330
1A88F
100
AcDbEntity
  8
寸法
 62
     0
 48
50.0
370
    -2
100
AcDbLine
 10
7212.473137055707
 20
4185.931598713261
 30
0.0
 11
7540.016239377454
 21
4185.931598713261
 31
0.0
  0
LINE
  5
1AB89
330
1A88F
100
AcDbEntity
  8
寸法
 62
     0
 48
50.0
370
    -2
100
AcDbLine
 10
7480.016239377454
 20
2537.931598713262
 30
0.0
 11
7480.016239377454
 21
4185.931598713261
 31
0.0
  0
INSERT
  5
1AB8A
330
1A88F
100
AcDbEntity
  8
寸法
 62
     0
 48
50.0
370
    -2
100
AcDbBlockReference
  2
_DOTSMALL
 10
7480.016239377454
 20
2537.931598713262
 30
0.0
 41
100.0
 42
100.0
 43
100.0
 50
270.0
  0
INSERT
  5
1AB8B
330
1A88F
100
AcDbEntity
  8
寸法
 62
     0
 48
50.0
370
    -2
100
AcDbBlockReference
  2
_DOTSMALL
 10
7480.016239377454
 20
4185.931598713261
 30
0.0
 41
100.0
 42
100.0
 43
100.0
 50
90.0
  0
MTEXT
  5
1AB8C
330
1A88F
100
AcDbEntity
  8
寸法
 62
     7
 48
50.0
100
AcDbMText
 10
7380.016239377453
 20
3361.931598713263
 30
0.0
 40
120.0
 41
0.0
 71
     5
 72
     1
  1
\A1;有効開口部高サ 1648
  7
STYLE1
 11
0.0000000000000001
 21
1.0
 31
0.0
 73
     1
 44
1.0
1001
ACAD
1000
MTEXTBEGIN
1070
    73
1070
     1
1070
    44
1040
1.0
1070
    74
1070
     0
1000
MTEXTEND
  0
POINT
  5
1AB8D
330
1A88F
100
AcDbEntity
  8
DEFPOINTS
 62
     0
 48
50.0
100
AcDbPoint
 10
7192.473137055706
 20
2537.931598713262
 30
0.0
  0
POINT
  5
1AB8E
330
1A88F
100
AcDbEntity
  8
DEFPOINTS
 62
     0
 48
50.0
100
AcDbPoint
 10
7192.473137055706
 20
4185.931598713261
 30
0.0
  0
POINT
  5
1AB8F
330
1A88F
100
AcDbEntity
  8
DEFPOINTS
 62
     0
 48
50.0
100
AcDbPoint
 10
7480.016239377454
 20
4185.931598713261
 30
0.0
  0
ENDBLK
  5
1A89A
330
1A88F
100
AcDbEntity
  8
0
 48
50.0
100
AcDbBlockEnd
  0
BLOCK
  5
1A8A7
330
1A89B
100
AcDbEntity
  8
0
 48
50.0
100
AcDbBlockBegin
  2
*D36
 70
     1
 10
0.0
 20
0.0
 30
0.0
  3
*D36
  1

  0
LINE
  5
1AC03
330
1A89B
100
AcDbEntity
  8
寸法
 62
     0
 48
50.0
370
    -2
100
AcDbLine
 10
7212.473137055707
 20
4185.931598713261
 30
0.0
 11
7540.016239377454
 21
4185.931598713261
 31
0.0
  0
LINE
  5
1AC04
330
1A89B
100
AcDbEntity
  8
寸法
 62
     0
 48
50.0
370
    -2
100
AcDbLine
 10
7212.473137055707
 20
4212.931598713261
 30
0.0
 11
7540.016239377454
 21
4212.931598713261
 31
0.0
  0
LINE
  5
1AC05
330
1A89B
100
AcDbEntity
  8
寸法
 62
     0
 48
50.0
370
    -2
100
AcDbLine
 10
7480.016239377454
 20
4185.931598713261
 30
0.0
 11
7480.016239377454
 21
4085.931598713261
 31
0.0
  0
LINE
  5
1AC06
330
1A89B
100
AcDbEntity
  8
寸法
 62
     0
 48
50.0
370
    -2
100
AcDbLine
 10
7480.016239377454
 20
4212.931598713261
 30
0.0
 11
7480.016239377454
 21
4312.931598713261
 31
0.0
  0
MTEXT
  5
1AC07
330
1A89B
100
AcDbEntity
  8
寸法
 62
     7
 48
50.0
100
AcDbMText
 10
7620.18606262382
 20
4213.898798552921
 30
0.0
 40
120.0
 41
0.0
 71
     5
 72
     1
  1
\A1;27
  7
STYLE1
 11
0.0000000000000001
 21
1.0
 31
0.0
 73
     1
 44
1.0
1001
ACAD
1000
MTEXTBEGIN
1070
    73
1070
     1
1070
    44
1040
1.0
1070
    74
1070
     0
1000
MTEXTEND
  0
LINE
  5
1AC08
330
1A89B
100
AcDbEntity
  8
寸法
 62
     0
 48
50.0
370
    -2
100
AcDbLine
 10
7480.016239377454
 20
4185.931598713261
 30
0.0
 11
7480.016239377454
 21
4212.931598713261
 31
0.0
  0
INSERT
  5
1AC09
330
1A89B
100
AcDbEntity
  8
寸法
 62
     0
 48
50.0
370
    -2
100
AcDbBlockReference
  2
_DOTSMALL
 10
7480.016239377454
 20
4185.931598713261
 30
0.0
 41
100.0
 42
100.0
 43
100.0
 50
90.0
  0
INSERT
  5
1AC0A
330
1A89B
100
AcDbEntity
  8
寸法
 62
     0
 48
50.0
370
    -2
100
AcDbBlockReference
  2
_DOTSMALL
 10
7480.016239377454
 20
4212.931598713261
 30
0.0
 41
100.0
 42
100.0
 43
100.0
 50
270.0
  0
POINT
  5
1AC0B
330
1A89B
100
AcDbEntity
  8
DEFPOINTS
 62
     0
 48
50.0
100
AcDbPoint
 10
7192.473137055706
 20
4185.931598713261
 30
0.0
  0
POINT
  5
1AC0C
330
1A89B
100
AcDbEntity
  8
DEFPOINTS
 62
     0
 48
50.0
100
AcDbPoint
 10
7192.473137055706
 20
4212.931598713261
 30
0.0
  0
POINT
  5
1AC0D
330
1A89B
100
AcDbEntity
  8
DEFPOINTS
 62
     0
 48
50.0
100
AcDbPoint
 10
7480.016239377454
 20
4212.931598713261
 30
0.0
  0
ENDBLK
  5
1A8A8
330
1A89B
100
AcDbEntity
  8
0
 48
50.0
100
AcDbBlockEnd
  0
BLOCK
  5
1A8B4
330
1A8A9
100
AcDbEntity
  8
0
 48
50.0
100
AcDbBlockBegin
  2
*D37
 70
     1
 10
0.0
 20
0.0
 30
0.0
  3
*D37
  1

  0
LINE
  5
1ABF9
330
1A8A9
100
AcDbEntity
  8
寸法
 62
     0
 48
50.0
370
    -2
100
AcDbLine
 10
7212.473137055707
 20
4212.931598713261
 30
0.0
 11
7540.016239377455
 21
4212.931598713261
 31
0.0
  0
LINE
  5
1ABFA
330
1A8A9
100
AcDbEntity
  8
寸法
 62
     0
 48
50.0
370
    -2
100
AcDbLine
 10
7212.473137055707
 20
4377.931598713261
 30
0.0
 11
7540.016239377455
 21
4377.931598713261
 31
0.0
  0
LINE
  5
1ABFB
330
1A8A9
100
AcDbEntity
  8
寸法
 62
     0
 48
50.0
370
    -2
100
AcDbLine
 10
7480.016239377454
 20
4212.931598713261
 30
0.0
 11
7480.016239377454
 21
4377.931598713261
 31
0.0
  0
LINE
  5
1ABFC
330
1A8A9
100
AcDbEntity
  8
寸法
 62
     0
 48
50.0
370
    -2
100
AcDbLine
 10
7480.016239377454
 20
4377.931598713261
 30
0.0
 11
7480.016239377454
 21
4754.902161461739
 31
0.0
  0
INSERT
  5
1ABFD
330
1A8A9
100
AcDbEntity
  8
寸法
 62
     0
 48
50.0
370
    -2
100
AcDbBlockReference
  2
_DOTSMALL
 10
7480.016239377454
 20
4212.931598713261
 30
0.0
 41
100.0
 42
100.0
 43
100.0
 50
270.0
  0
INSERT
  5
1ABFE
330
1A8A9
100
AcDbEntity
  8
寸法
 62
     0
 48
50.0
370
    -2
100
AcDbBlockReference
  2
_DOTSMALL
 10
7480.016239377454
 20
4377.931598713261
 30
0.0
 41
100.0
 42
100.0
 43
100.0
 50
90.0
  0
MTEXT
  5
1ABFF
330
1A8A9
100
AcDbEntity
  8
寸法
 62
     7
 48
50.0
100
AcDbMText
 10
7380.016239377454
 20
4616.416880087502
 30
0.0
 40
120.0
 41
0.0
 71
     5
 72
     1
  1
\A1;165
  7
STYLE1
 11
0.0000000000000001
 21
1.0
 31
0.0
 73
     1
 44
1.0
1001
ACAD
1000
MTEXTBEGIN
1070
    73
1070
     1
1070
    44
1040
1.0
1070
    74
1070
     0
1000
MTEXTEND
  0
POINT
  5
1AC00
330
1A8A9
100
AcDbEntity
  8
DEFPOINTS
 62
     0
 48
50.0
100
AcDbPoint
 10
7192.473137055706
 20
4212.931598713261
 30
0.0
  0
POINT
  5
1AC01
330
1A8A9
100
AcDbEntity
  8
DEFPOINTS
 62
     0
 48
50.0
100
AcDbPoint
 10
7192.473137055706
 20
4377.931598713261
 30
0.0
  0
POINT
  5
1AC02
330
1A8A9
100
AcDbEntity
  8
DEFPOINTS
 62
     0
 48
50.0
100
AcDbPoint
 10
7480.016239377454
 20
4377.931598713261
 30
0.0
  0
ENDBLK
  5
1A8B5
330
1A8A9
100
AcDbEntity
  8
0
 48
50.0
100
AcDbBlockEnd
  0
ENDSEC
  0
SECTION
  2
ENTITIES
  0
MTEXT
  5
763F
330
747D
100
AcDbEntity
  8
0
100
AcDbMText
 10
302.846345836809
 20
280.1983726409901
 30
0.0
 40
3.5
 41
5.323721266742722
 71
     1
 72
     5
  1

  7
MSMINCHO
 73
     1
 44
1.0
1001
ACAD
1000
MTEXTBEGIN
1070
    73
1070
     1
1070
    44
1040
1.0
1070
    74
1070
     0
1000
MTEXTEND
  0
LINE
  5
10B57
330
747D
100
AcDbEntity
  8
補助
  6
PHANTOM
 62
   230
 48
50.0
100
AcDbLine
 10
139.9999999999995
 20
11409.6
 30
0.0
 11
16307.2
 21
11409.6
 31
0.0
  0
LINE
  5
10B5D
330
747D
100
AcDbEntity
  8
仕様書枠
 48
50.0
100
AcDbLine
 10
140.0
 20
0.0
 30
0.0
 11
16307.2
 21
-0.0000000000000909
 31
0.0
  0
LINE
  5
10B5E
330
747D
100
AcDbEntity
  8
補助
  6
PHANTOM
 62
   230
 48
50.0
100
AcDbLine
 10
16307.2
 20
11409.6
 30
0.0
 11
16307.2
 21
1200.0
 31
0.0
  0
LINE
  5
10B6D
330
747D
100
AcDbEntity
  8
補助
  6
PHANTOM
 62
   230
 48
50.0
100
AcDbLine
 10
13107.2
 20
11409.6
 30
0.0
 11
13107.2
 21
4800.0
 31
0.0
  0
LINE
  5
10B6F
330
747D
100
AcDbEntity
  8
補助
  6
PHANTOM
 62
   230
 48
50.0
100
AcDbLine
 10
13107.2
 20
4800.0
 30
0.0
 11
16307.2
 21
4800.0
 31
0.0
  0
LINE
  5
1997A
330
747D
100
AcDbEntity
  8
補助
  6
PHANTOM
 62
   230
 48
50.0
100
AcDbLine
 10
140.0
 20
0.0
 30
0.0
 11
140.0
 21
11409.6
 31
0.0
  0
LINE
  5
1A4B3
330
747D
100
AcDbEntity
  8
破線
 48
5.0
100
AcDbLine
 10
5772.473137055706
 20
2187.931598713261
 30
0.0
 11
5872.473137055706
 21
2187.931598713261
 31
0.0
  0
LINE
  5
1A4B4
330
747D
100
AcDbEntity
  8
破線
 48
5.0
100
AcDbLine
 10
5822.473137055706
 20
2262.931598713262
 30
0.0
 11
5822.473137055706
 21
2187.931598713261
 31
0.0
  0
TEXT
  5
1A4B5
330
747D
100
AcDbEntity
  8
文字
 62
     7
 48
50.0
100
AcDbText
 10
15022.63965474516
 20
9060.013745883727
 30
0.0
 40
100.0
  1
F12            0.7
  7
STYLE1
100
AcDbText
  0
TEXT
  5
1A4B6
330
747D
100
AcDbEntity
  8
文字
 62
     7
 48
50.0
100
AcDbText
 10
15022.63965474515
 20
9230.013745883727
 30
0.0
 40
100.0
  1
Z08            0.5
  7
STYLE1
100
AcDbText
  0
TEXT
  5
1A4B7
330
747D
100
AcDbEntity
  8
文字
 62
     7
 48
50.0
100
AcDbText
 10
13583.11819016568
 20
9230.013745883727
 30
0.0
 40
100.0
  1
シャッター
  7
STYLE1
100
AcDbText
  0
TEXT
  5
1A4BD
330
747D
100
AcDbEntity
  8
文字
 62
     7
 48
50.0
100
AcDbText
 10
15022.63965474517
 20
10760.01374588372
 30
0.0
 40
100.0
  1
F12         1.0,1.2
  7
STYLE1
100
AcDbText
  0
LINE
  5
1A4C1
330
747D
100
AcDbEntity
  8
仕様書枠
 48
50.0
100
AcDbLine
 10
16307.19999999999
 20
8689.599999999998
 30
0.0
 11
13127.19999999999
 21
8689.600000000003
 31
0.0
  0
DIMENSION
  5
1A4C4
330
747D
100
AcDbEntity
  8
寸法
 48
50.0
100
AcDbDimension
  2
*D35
 10
7480.016239377454
 20
4185.931598713261
 30
0.0
 11
7380.016239377453
 21
3361.931598713263
 31
0.0
 70
    32
  1
有効開口部高サ <>
 71
     5
 42
1648.0
  3
INABA_S40G
100
AcDbAlignedDimension
 13
7192.473137055706
 23
2537.931598713262
 33
0.0
 14
7192.473137055706
 24
4185.931598713261
 34
0.0
 50
90.0
100
AcDbRotatedDimension
  0
DIMENSION
  5
1A4C5
330
747D
100
AcDbEntity
  8
寸法
 48
50.0
100
AcDbDimension
  2
*D36
 10
7480.016239377454
 20
4212.931598713261
 30
0.0
 11
7620.18606262382
 21
4213.898798552921
 31
0.0
 70
   160
 71
     5
 42
27.0
  3
INABA_S40G
100
AcDbAlignedDimension
 13
7192.473137055706
 23
4185.931598713261
 33
0.0
 14
7192.473137055706
 24
4212.931598713261
 34
0.0
 50
90.0
100
AcDbRotatedDimension
1001
ACAD
1000
DSTYLE
1002
{
1070
   279
1070
     2
1002
}
  0
DIMENSION
  5
1A4C6
330
747D
100
AcDbEntity
  8
寸法
 48
50.0
100
AcDbDimension
  2
*D37
 10
7480.016239377454
 20
4377.931598713261
 30
0.0
 11
7480.016239377454
 21
4616.416880087501
 31
0.0
 70
   160
 71
     5
 42
165.0
  3
INABA_S40G
100
AcDbAlignedDimension
 13
7192.473137055706
 23
4212.931598713261
 33
0.0
 14
7192.473137055706
 24
4377.931598713261
 34
0.0
 50
90.0
100
AcDbRotatedDimension
1001
ACAD
1000
DSTYLE
1002
{
1002
}
  0
LINE
  5
1A4C7
330
747D
100
AcDbEntity
  8
部品1
 48
50.0
100
AcDbLine
 10
5822.47313705571
 20
4212.931598713261
 30
0.0
 11
5822.473137055709
 21
4471.931598713265
 31
0.0
  0
LINE
  5
1A4C8
330
747D
100
AcDbEntity
  8
部品1
 48
50.0
100
AcDbLine
 10
5812.473137055709
 20
4471.931598713265
 30
0.0
 11
5812.473137055707
 21
4612.931598713265
 31
0.0
  0
ARC
  5
1A4C9
330
747D
100
AcDbEntity
  8
部品1
 48
0.01
100
AcDbCircle
 10
6285.473137055707
 20
4410.431598713262
 30
0.0
 40
2.0
100
AcDbArc
 50
270.0
 51
0.0
  0
ARC
  5
1A4CA
330
747D
100
AcDbEntity
  8
部品1
 48
0.01
100
AcDbCircle
 10
6285.473137055711
 20
4441.931598713261
 30
0.0
 40
2.0
100
AcDbArc
 50
0.0
 51
90.0
  0
ARC
  5
1A4CB
330
747D
100
AcDbEntity
  8
部品1
 48
0.01
100
AcDbCircle
 10
6109.473137055712
 20
4410.431598713262
 30
0.0
 40
2.0
100
AcDbArc
 50
180.0
 51
270.0
  0
ARC
  5
1A4CC
330
747D
100
AcDbEntity
  8
部品1
 48
0.01
100
AcDbCircle
 10
6109.473137055712
 20
4441.931598713261
 30
0.0
 40
2.0
100
AcDbArc
 50
90.0
 51
180.0
  0
LINE
  5
1A4CD
330
747D
100
AcDbEntity
  8
細線
100
AcDbLine
 10
6197.473137055707
 20
4414.431598713261
 30
0.0
 11
6271.473137055711
 21
4414.431598713261
 31
0.0
  0
LINE
  5
1A4CE
330
747D
100
AcDbEntity
  8
細線
100
AcDbLine
 10
6197.473137055711
 20
4437.431598713261
 30
0.0
 11
6123.473137055711
 21
4437.431598713261
 31
0.0
  0
LINE
  5
1A4CF
330
747D
100
AcDbEntity
  8
細線
100
AcDbLine
 10
6123.473137055711
 20
4414.431598713261
 30
0.0
 11
6197.473137055711
 21
4414.431598713261
 31
0.0
  0
LINE
  5
1A4D0
330
747D
100
AcDbEntity
  8
細線
100
AcDbLine
 10
6271.473137055711
 20
4437.431598713261
 30
0.0
 11
6197.473137055711
 21
4437.431598713261
 31
0.0
  0
LINE
  5
1A4D1
330
747D
100
AcDbEntity
  8
細線
100
AcDbLine
 10
6271.473137055711
 20
4414.431598713261
 30
0.0
 11
6271.473137055711
 21
4437.431598713261
 31
0.0
  0
LINE
  5
1A4D2
330
747D
100
AcDbEntity
  8
細線
100
AcDbLine
 10
6123.473137055711
 20
4437.431598713261
 30
0.0
 11
6123.473137055711
 21
4414.431598713261
 31
0.0
  0
LINE
  5
1A4D3
330
747D
100
AcDbEntity
  8
部品1
 48
0.01
100
AcDbLine
 10
6287.473137055708
 20
4410.431598713262
 30
0.0
 11
6287.473137055711
 21
4441.931598713261
 31
0.0
  0
LINE
  5
1A4D4
330
747D
100
AcDbEntity
  8
部品1
 48
0.01
100
AcDbLine
 10
6109.473137055712
 20
4408.431598713261
 30
0.0
 11
6285.473137055707
 21
4408.431598713261
 31
0.0
  0
LINE
  5
1A4D5
330
747D
100
AcDbEntity
  8
部品1
 48
0.01
100
AcDbLine
 10
6107.473137055711
 20
4441.931598713261
 30
0.0
 11
6107.473137055711
 21
4410.431598713262
 31
0.0
  0
LINE
  5
1A4D6
330
747D
100
AcDbEntity
  8
部品1
 48
0.01
100
AcDbLine
 10
6285.473137055711
 20
4443.931598713262
 30
0.0
 11
6109.473137055712
 21
4443.931598713262
 31
0.0
  0
LINE
  5
1A4D7
330
747D
100
AcDbEntity
  8
細線
100
AcDbLine
 10
6123.473137055711
 20
4431.431598713261
 30
0.0
 11
6197.473137055711
 21
4431.431598713261
 31
0.0
  0
LINE
  5
1A4D8
330
747D
100
AcDbEntity
  8
細線
100
AcDbLine
 10
6123.473137055711
 20
4425.431598713261
 30
0.0
 11
6197.473137055711
 21
4425.431598713261
 31
0.0
  0
LINE
  5
1A4D9
330
747D
100
AcDbEntity
  8
細線
100
AcDbLine
 10
6123.473137055707
 20
4419.431598713261
 30
0.0
 11
6197.473137055711
 21
4419.431598713261
 31
0.0
  0
LINE
  5
1A4DA
330
747D
100
AcDbEntity
  8
細線
100
AcDbLine
 10
6123.473137055711
 20
4431.431598713261
 30
0.0
 11
6192.473137055711
 21
4431.431598713261
 31
0.0
  0
LINE
  5
1A4DB
330
747D
100
AcDbEntity
  8
細線
100
AcDbLine
 10
6271.473137055707
 20
4431.431598713261
 30
0.0
 11
6197.473137055711
 21
4431.431598713261
 31
0.0
  0
LINE
  5
1A4DC
330
747D
100
AcDbEntity
  8
細線
100
AcDbLine
 10
6271.473137055707
 20
4419.431598713261
 30
0.0
 11
6197.473137055711
 21
4419.431598713261
 31
0.0
  0
LINE
  5
1A4DD
330
747D
100
AcDbEntity
  8
細線
100
AcDbLine
 10
6271.473137055707
 20
4425.431598713261
 30
0.0
 11
6197.473137055711
 21
4425.431598713261
 31
0.0
  0
LINE
  5
1A4DE
330
747D
100
AcDbEntity
  8
細線
100
AcDbLine
 10
6197.473137055711
 20
4437.431598713261
 30
0.0
 11
6197.473137055707
 21
4414.431598713261
 31
0.0
  0
LINE
  5
1A4DF
330
747D
100
AcDbEntity
  8
細線
100
AcDbLine
 10
6817.473137055706
 20
4437.431598713261
 30
0.0
 11
6817.473137055711
 21
4414.431598713261
 31
0.0
  0
LINE
  5
1A4E0
330
747D
100
AcDbEntity
  8
細線
100
AcDbLine
 10
6743.473137055712
 20
4425.431598713261
 30
0.0
 11
6817.473137055706
 21
4425.431598713261
 31
0.0
  0
LINE
  5
1A4E1
330
747D
100
AcDbEntity
  8
細線
100
AcDbLine
 10
6743.473137055712
 20
4419.431598713261
 30
0.0
 11
6817.473137055706
 21
4419.431598713261
 31
0.0
  0
LINE
  5
1A4E2
330
747D
100
AcDbEntity
  8
細線
100
AcDbLine
 10
6743.473137055712
 20
4431.431598713261
 30
0.0
 11
6817.473137055706
 21
4431.431598713261
 31
0.0
  0
LINE
  5
1A4E3
330
747D
100
AcDbEntity
  8
細線
100
AcDbLine
 10
6891.473137055708
 20
4431.431598713261
 30
0.0
 11
6822.473137055708
 21
4431.431598713261
 31
0.0
  0
LINE
  5
1A4E4
330
747D
100
AcDbEntity
  8
細線
100
AcDbLine
 10
6891.473137055711
 20
4419.431598713261
 30
0.0
 11
6817.473137055706
 21
4419.431598713261
 31
0.0
  0
LINE
  5
1A4E5
330
747D
100
AcDbEntity
  8
細線
100
AcDbLine
 10
6891.473137055708
 20
4425.431598713261
 30
0.0
 11
6817.473137055706
 21
4425.431598713261
 31
0.0
  0
LINE
  5
1A4E6
330
747D
100
AcDbEntity
  8
細線
100
AcDbLine
 10
6891.473137055708
 20
4431.431598713261
 30
0.0
 11
6817.473137055706
 21
4431.431598713261
 31
0.0
  0
LINE
  5
1A4E7
330
747D
100
AcDbEntity
  8
部品1
 48
0.01
100
AcDbLine
 10
6729.473137055707
 20
4443.931598713262
 30
0.0
 11
6905.473137055707
 21
4443.931598713262
 31
0.0
  0
LINE
  5
1A4E8
330
747D
100
AcDbEntity
  8
部品1
 48
0.01
100
AcDbLine
 10
6907.473137055707
 20
4441.931598713261
 30
0.0
 11
6907.473137055707
 21
4410.431598713262
 31
0.0
  0
LINE
  5
1A4E9
330
747D
100
AcDbEntity
  8
部品1
 48
0.01
100
AcDbLine
 10
6905.473137055707
 20
4408.431598713261
 30
0.0
 11
6729.473137055712
 21
4408.431598713261
 31
0.0
  0
LINE
  5
1A4EA
330
747D
100
AcDbEntity
  8
部品1
 48
0.01
100
AcDbLine
 10
6727.47313705571
 20
4410.431598713262
 30
0.0
 11
6727.473137055707
 21
4441.931598713261
 31
0.0
  0
LINE
  5
1A4EB
330
747D
100
AcDbEntity
  8
細線
100
AcDbLine
 10
6891.473137055708
 20
4437.431598713261
 30
0.0
 11
6891.473137055708
 21
4414.431598713261
 31
0.0
  0
LINE
  5
1A4EC
330
747D
100
AcDbEntity
  8
細線
100
AcDbLine
 10
6743.473137055707
 20
4414.431598713261
 30
0.0
 11
6743.473137055707
 21
4437.431598713261
 31
0.0
  0
LINE
  5
1A4ED
330
747D
100
AcDbEntity
  8
細線
100
AcDbLine
 10
6743.473137055707
 20
4437.431598713261
 30
0.0
 11
6817.473137055706
 21
4437.431598713261
 31
0.0
  0
LINE
  5
1A4EE
330
747D
100
AcDbEntity
  8
細線
100
AcDbLine
 10
6891.473137055708
 20
4414.431598713261
 30
0.0
 11
6817.473137055706
 21
4414.431598713261
 31
0.0
  0
LINE
  5
1A4EF
330
747D
100
AcDbEntity
  8
細線
100
AcDbLine
 10
6817.473137055706
 20
4437.431598713261
 30
0.0
 11
6891.473137055708
 21
4437.431598713261
 31
0.0
  0
LINE
  5
1A4F0
330
747D
100
AcDbEntity
  8
細線
100
AcDbLine
 10
6817.473137055711
 20
4414.431598713261
 30
0.0
 11
6743.473137055707
 21
4414.431598713261
 31
0.0
  0
ARC
  5
1A4F1
330
747D
100
AcDbEntity
  8
部品1
 48
0.01
100
AcDbCircle
 10
6905.473137055707
 20
4441.931598713261
 30
0.0
 40
2.0
100
AcDbArc
 50
0.0
 51
90.0
  0
ARC
  5
1A4F2
330
747D
100
AcDbEntity
  8
部品1
 48
0.01
100
AcDbCircle
 10
6905.473137055707
 20
4410.431598713262
 30
0.0
 40
2.0
100
AcDbArc
 50
270.0
 51
0.0
  0
ARC
  5
1A4F3
330
747D
100
AcDbEntity
  8
部品1
 48
0.01
100
AcDbCircle
 10
6729.473137055707
 20
4441.931598713261
 30
0.0
 40
2.0
100
AcDbArc
 50
90.0
 51
180.0
  0
ARC
  5
1A4F4
330
747D
100
AcDbEntity
  8
部品1
 48
0.01
100
AcDbCircle
 10
6729.473137055712
 20
4410.431598713262
 30
0.0
 40
2.0
100
AcDbArc
 50
180.0
 51
270.0
  0
LINE
  5
1A4F5
330
747D
100
AcDbEntity
  8
部品1
100
AcDbLine
 10
4452.473137055707
 20
4377.931598713261
 30
0.0
 11
7192.473137055708
 21
4377.931598713261
 31
0.0
  0
LINE
  5
1A4F6
330
747D
100
AcDbEntity
  8
部品1
 48
50.0
100
AcDbLine
 10
7235.064715949278
 20
4612.931598713265
 30
0.0
 11
4409.88155816214
 21
4612.931598713268
 31
0.0
  0
LINE
  5
1A4F7
330
747D
100
AcDbEntity
  8
部品1
 48
50.0
100
AcDbLine
 10
7221.849392488244
 20
4471.931598713268
 30
0.0
 11
4423.096881623174
 21
4471.931598713268
 31
0.0
  0
LINE
  5
1A4F8
330
747D
100
AcDbEntity
  8
細線
 48
50.0
100
AcDbLine
 10
7240.433598834271
 20
4584.931598713268
 30
0.0
 11
4404.512675277152
 21
4584.931598713264
 31
0.0
  0
LINE
  5
1A4F9
330
747D
100
AcDbEntity
  8
細線
 48
50.0
100
AcDbLine
 10
7232.197568309413
 20
4492.731598713261
 30
0.0
 11
4412.748705801981
 21
4492.731598713268
 31
0.0
  0
LINE
  5
1A4FA
330
747D
100
AcDbEntity
  8
部品1
100
AcDbLine
 10
7242.053476040377
 20
4605.535073318027
 30
0.0
 11
7240.920078708028
 21
4585.55894533543
 31
0.0
  0
LINE
  5
1A4FB
330
747D
100
AcDbEntity
  8
細線
 48
50.0
100
AcDbLine
 10
7209.473137055707
 20
4612.931598713268
 30
0.0
 11
7209.473137055707
 21
4471.931598713268
 31
0.0
  0
LINE
  5
1A4FC
330
747D
100
AcDbEntity
  8
細線
 48
50.0
100
AcDbLine
 10
4435.473137055711
 20
4612.931598713265
 30
0.0
 11
4435.473137055711
 21
4471.931598713265
 31
0.0
  0
LINE
  5
1A4FD
330
747D
100
AcDbEntity
  8
部品1
100
AcDbLine
 10
7229.483058386451
 20
4489.901538168367
 30
0.0
 11
7228.838152579342
 21
4478.535073318027
 31
0.0
  0
LINE
  5
1A4FE
330
747D
100
AcDbEntity
  8
部品1
100
AcDbLine
 10
7237.719088911299
 20
4582.101538168372
 30
0.0
 11
7232.684048183187
 21
4493.358945335425
 31
0.0
  0
ARC
  5
1A4FF
330
747D
100
AcDbEntity
  8
部品1
 48
50.0
100
AcDbCircle
 10
7240.714271807485
 20
4581.931598713269
 30
0.0
 40
3.0
100
AcDbArc
 50
97.65812720736519
 51
176.7526572096655
  0
ARC
  5
1A500
330
747D
100
AcDbEntity
  8
部品1
 48
50.0
100
AcDbCircle
 10
7232.478241282641
 20
4489.731598713264
 30
0.0
 40
3.0
100
AcDbArc
 50
97.65812720736519
 51
176.7526572096655
  0
ARC
  5
1A501
330
747D
100
AcDbEntity
  8
部品1
 48
50.0
100
AcDbCircle
 10
7231.985172174081
 20
4493.398597874952
 30
0.0
 40
0.7
100
AcDbArc
 50
277.6581272073652
 51
356.7526572096656
  0
ARC
  5
1A502
330
747D
100
AcDbEntity
  8
部品1
 48
50.0
100
AcDbCircle
 10
7240.22120269892
 20
4585.598597874952
 30
0.0
 40
0.7
100
AcDbArc
 50
277.6581272073652
 51
356.7526572096654
  0
ARC
  5
1A503
330
747D
100
AcDbEntity
  8
部品1
100
AcDbCircle
 10
7221.849392488244
 20
4478.931598713269
 30
0.0
 40
7.0
100
AcDbArc
 50
270.0
 51
356.7526572096655
  0
ARC
  5
1A504
330
747D
100
AcDbEntity
  8
部品1
100
AcDbCircle
 10
7235.064715949278
 20
4605.931598713268
 30
0.0
 40
7.0
100
AcDbArc
 50
356.7526572096655
 51
90.0
  0
ARC
  5
1A505
330
747D
100
AcDbEntity
  8
部品1
100
AcDbCircle
 10
4409.88155816214
 20
4605.931598713264
 30
0.0
 40
7.0
100
AcDbArc
 50
90.0
 51
183.2473427903344
  0
ARC
  5
1A506
330
747D
100
AcDbEntity
  8
部品1
100
AcDbCircle
 10
4423.096881623174
 20
4478.931598713269
 30
0.0
 40
7.0
100
AcDbArc
 50
183.2473427903344
 51
270.0
  0
ARC
  5
1A507
330
747D
100
AcDbEntity
  8
部品1
 48
50.0
100
AcDbCircle
 10
4404.725071412499
 20
4585.598597874952
 30
0.0
 40
0.7
100
AcDbArc
 50
183.2473427903346
 51
262.3418727926349
  0
ARC
  5
1A508
330
747D
100
AcDbEntity
  8
部品1
 48
50.0
100
AcDbCircle
 10
4412.961101937338
 20
4493.398597874948
 30
0.0
 40
0.7
100
AcDbArc
 50
183.2473427903344
 51
262.3418727926349
  0
ARC
  5
1A509
330
747D
100
AcDbEntity
  8
部品1
 48
50.0
100
AcDbCircle
 10
4412.468032828778
 20
4489.731598713264
 30
0.0
 40
3.0
100
AcDbArc
 50
3.247342790334498
 51
82.3418727926348
  0
ARC
  5
1A50A
330
747D
100
AcDbEntity
  8
部品1
 48
50.0
100
AcDbCircle
 10
4404.232002303934
 20
4581.931598713269
 30
0.0
 40
3.0
100
AcDbArc
 50
3.247342790334498
 51
82.3418727926348
  0
LINE
  5
1A50B
330
747D
100
AcDbEntity
  8
部品1
100
AcDbLine
 10
4407.227185200119
 20
4582.101538168369
 30
0.0
 11
4412.26222592823
 21
4493.358945335425
 31
0.0
  0
LINE
  5
1A50C
330
747D
100
AcDbEntity
  8
部品1
100
AcDbLine
 10
4415.463215724967
 20
4489.901538168367
 30
0.0
 11
4416.108121532075
 21
4478.535073318027
 31
0.0
  0
LINE
  5
1A50D
330
747D
100
AcDbEntity
  8
部品1
100
AcDbLine
 10
4402.892798071041
 20
4605.535073318027
 30
0.0
 11
4404.02619540339
 21
4585.558945335426
 31
0.0
  0
ARC
  5
1A50E
330
747D
100
AcDbEntity
  8
部品1
 48
0.01
100
AcDbCircle
 10
5359.473137055712
 20
4410.431598713262
 30
0.0
 40
2.0
100
AcDbArc
 50
180.0
 51
270.0
  0
ARC
  5
1A50F
330
747D
100
AcDbEntity
  8
部品1
 48
0.01
100
AcDbCircle
 10
5359.473137055708
 20
4441.931598713261
 30
0.0
 40
2.0
100
AcDbArc
 50
90.0
 51
180.0
  0
ARC
  5
1A510
330
747D
100
AcDbEntity
  8
部品1
 48
0.01
100
AcDbCircle
 10
5535.473137055707
 20
4410.431598713262
 30
0.0
 40
2.0
100
AcDbArc
 50
270.0
 51
0.0
  0
ARC
  5
1A511
330
747D
100
AcDbEntity
  8
部品1
 48
0.01
100
AcDbCircle
 10
5535.473137055707
 20
4441.931598713261
 30
0.0
 40
2.0
100
AcDbArc
 50
0.0
 51
90.0
  0
LINE
  5
1A512
330
747D
100
AcDbEntity
  8
細線
100
AcDbLine
 10
5447.473137055711
 20
4414.431598713261
 30
0.0
 11
5373.473137055707
 21
4414.431598713261
 31
0.0
  0
LINE
  5
1A513
330
747D
100
AcDbEntity
  8
細線
100
AcDbLine
 10
5447.473137055707
 20
4437.431598713261
 30
0.0
 11
5521.473137055707
 21
4437.431598713261
 31
0.0
  0
LINE
  5
1A514
330
747D
100
AcDbEntity
  8
細線
100
AcDbLine
 10
5521.473137055707
 20
4414.431598713261
 30
0.0
 11
5447.473137055707
 21
4414.431598713261
 31
0.0
  0
LINE
  5
1A515
330
747D
100
AcDbEntity
  8
細線
100
AcDbLine
 10
5373.473137055707
 20
4437.431598713261
 30
0.0
 11
5447.473137055707
 21
4437.431598713261
 31
0.0
  0
LINE
  5
1A516
330
747D
100
AcDbEntity
  8
細線
100
AcDbLine
 10
5373.473137055707
 20
4414.431598713261
 30
0.0
 11
5373.473137055707
 21
4437.431598713261
 31
0.0
  0
LINE
  5
1A517
330
747D
100
AcDbEntity
  8
細線
100
AcDbLine
 10
5521.473137055707
 20
4437.431598713261
 30
0.0
 11
5521.473137055707
 21
4414.431598713261
 31
0.0
  0
LINE
  5
1A518
330
747D
100
AcDbEntity
  8
部品1
 48
0.01
100
AcDbLine
 10
5357.473137055711
 20
4410.431598713262
 30
0.0
 11
5357.473137055707
 21
4441.931598713261
 31
0.0
  0
LINE
  5
1A519
330
747D
100
AcDbEntity
  8
部品1
 48
0.01
100
AcDbLine
 10
5535.473137055707
 20
4408.431598713261
 30
0.0
 11
5359.473137055712
 21
4408.431598713261
 31
0.0
  0
LINE
  5
1A51A
330
747D
100
AcDbEntity
  8
部品1
 48
0.01
100
AcDbLine
 10
5537.473137055707
 20
4441.931598713261
 30
0.0
 11
5537.473137055707
 21
4410.431598713262
 31
0.0
  0
LINE
  5
1A51B
330
747D
100
AcDbEntity
  8
部品1
 48
0.01
100
AcDbLine
 10
5359.473137055708
 20
4443.931598713262
 30
0.0
 11
5535.473137055707
 21
4443.931598713262
 31
0.0
  0
LINE
  5
1A51C
330
747D
100
AcDbEntity
  8
細線
100
AcDbLine
 10
5521.473137055707
 20
4431.431598713261
 30
0.0
 11
5447.473137055707
 21
4431.431598713261
 31
0.0
  0
LINE
  5
1A51D
330
747D
100
AcDbEntity
  8
細線
100
AcDbLine
 10
5521.473137055707
 20
4425.431598713261
 30
0.0
 11
5447.473137055707
 21
4425.431598713261
 31
0.0
  0
LINE
  5
1A51E
330
747D
100
AcDbEntity
  8
細線
100
AcDbLine
 10
5521.473137055711
 20
4419.431598713261
 30
0.0
 11
5447.473137055707
 21
4419.431598713261
 31
0.0
  0
LINE
  5
1A51F
330
747D
100
AcDbEntity
  8
細線
100
AcDbLine
 10
5521.473137055707
 20
4431.431598713261
 30
0.0
 11
5452.473137055708
 21
4431.431598713261
 31
0.0
  0
LINE
  5
1A520
330
747D
100
AcDbEntity
  8
細線
100
AcDbLine
 10
5373.473137055711
 20
4431.431598713261
 30
0.0
 11
5447.473137055707
 21
4431.431598713261
 31
0.0
  0
LINE
  5
1A521
330
747D
100
AcDbEntity
  8
細線
100
AcDbLine
 10
5373.473137055711
 20
4419.431598713261
 30
0.0
 11
5447.473137055707
 21
4419.431598713261
 31
0.0
  0
LINE
  5
1A522
330
747D
100
AcDbEntity
  8
細線
100
AcDbLine
 10
5373.473137055711
 20
4425.431598713261
 30
0.0
 11
5447.473137055707
 21
4425.431598713261
 31
0.0
  0
LINE
  5
1A523
330
747D
100
AcDbEntity
  8
細線
100
AcDbLine
 10
5447.473137055707
 20
4437.431598713261
 30
0.0
 11
5447.473137055711
 21
4414.431598713261
 31
0.0
  0
LINE
  5
1A524
330
747D
100
AcDbEntity
  8
細線
100
AcDbLine
 10
4827.473137055712
 20
4437.431598713261
 30
0.0
 11
4827.473137055708
 21
4414.431598713261
 31
0.0
  0
LINE
  5
1A525
330
747D
100
AcDbEntity
  8
細線
100
AcDbLine
 10
4901.473137055707
 20
4425.431598713261
 30
0.0
 11
4827.473137055712
 21
4425.431598713261
 31
0.0
  0
LINE
  5
1A526
330
747D
100
AcDbEntity
  8
細線
100
AcDbLine
 10
4901.473137055707
 20
4419.431598713261
 30
0.0
 11
4827.473137055712
 21
4419.431598713261
 31
0.0
  0
LINE
  5
1A527
330
747D
100
AcDbEntity
  8
細線
100
AcDbLine
 10
4901.473137055707
 20
4431.431598713261
 30
0.0
 11
4827.473137055712
 21
4431.431598713261
 31
0.0
  0
LINE
  5
1A528
330
747D
100
AcDbEntity
  8
細線
100
AcDbLine
 10
4753.473137055711
 20
4431.431598713261
 30
0.0
 11
4822.473137055711
 21
4431.431598713261
 31
0.0
  0
LINE
  5
1A529
330
747D
100
AcDbEntity
  8
細線
100
AcDbLine
 10
4753.473137055707
 20
4419.431598713261
 30
0.0
 11
4827.473137055712
 21
4419.431598713261
 31
0.0
  0
LINE
  5
1A52A
330
747D
100
AcDbEntity
  8
細線
100
AcDbLine
 10
4753.473137055711
 20
4425.431598713261
 30
0.0
 11
4827.473137055712
 21
4425.431598713261
 31
0.0
  0
LINE
  5
1A52B
330
747D
100
AcDbEntity
  8
細線
100
AcDbLine
 10
4753.473137055711
 20
4431.431598713261
 30
0.0
 11
4827.473137055712
 21
4431.431598713261
 31
0.0
  0
LINE
  5
1A52C
330
747D
100
AcDbEntity
  8
部品1
 48
0.01
100
AcDbLine
 10
4915.473137055711
 20
4443.931598713262
 30
0.0
 11
4739.473137055711
 21
4443.931598713262
 31
0.0
  0
LINE
  5
1A52D
330
747D
100
AcDbEntity
  8
部品1
 48
0.01
100
AcDbLine
 10
4737.473137055711
 20
4441.931598713261
 30
0.0
 11
4737.473137055711
 21
4410.431598713262
 31
0.0
  0
LINE
  5
1A52E
330
747D
100
AcDbEntity
  8
部品1
 48
0.01
100
AcDbLine
 10
4739.473137055711
 20
4408.431598713261
 30
0.0
 11
4915.473137055707
 21
4408.431598713261
 31
0.0
  0
LINE
  5
1A52F
330
747D
100
AcDbEntity
  8
部品1
 48
0.01
100
AcDbLine
 10
4917.473137055708
 20
4410.431598713262
 30
0.0
 11
4917.473137055711
 21
4441.931598713261
 31
0.0
  0
LINE
  5
1A530
330
747D
100
AcDbEntity
  8
細線
100
AcDbLine
 10
4753.473137055711
 20
4437.431598713261
 30
0.0
 11
4753.473137055711
 21
4414.431598713261
 31
0.0
  0
LINE
  5
1A531
330
747D
100
AcDbEntity
  8
細線
100
AcDbLine
 10
4901.473137055711
 20
4414.431598713261
 30
0.0
 11
4901.473137055711
 21
4437.431598713261
 31
0.0
  0
LINE
  5
1A532
330
747D
100
AcDbEntity
  8
細線
100
AcDbLine
 10
4901.473137055711
 20
4437.431598713261
 30
0.0
 11
4827.473137055712
 21
4437.431598713261
 31
0.0
  0
LINE
  5
1A533
330
747D
100
AcDbEntity
  8
細線
100
AcDbLine
 10
4753.473137055711
 20
4414.431598713261
 30
0.0
 11
4827.473137055712
 21
4414.431598713261
 31
0.0
  0
LINE
  5
1A534
330
747D
100
AcDbEntity
  8
細線
100
AcDbLine
 10
4827.473137055712
 20
4437.431598713261
 30
0.0
 11
4753.473137055711
 21
4437.431598713261
 31
0.0
  0
LINE
  5
1A535
330
747D
100
AcDbEntity
  8
細線
100
AcDbLine
 10
4827.473137055708
 20
4414.431598713261
 30
0.0
 11
4901.473137055711
 21
4414.431598713261
 31
0.0
  0
ARC
  5
1A536
330
747D
100
AcDbEntity
  8
部品1
 48
0.01
100
AcDbCircle
 10
4739.473137055711
 20
4441.931598713261
 30
0.0
 40
2.0
100
AcDbArc
 50
90.0
 51
180.0
  0
ARC
  5
1A537
330
747D
100
AcDbEntity
  8
部品1
 48
0.01
100
AcDbCircle
 10
4739.473137055711
 20
4410.431598713262
 30
0.0
 40
2.0
100
AcDbArc
 50
180.0
 51
270.0
  0
ARC
  5
1A538
330
747D
100
AcDbEntity
  8
部品1
 48
0.01
100
AcDbCircle
 10
4915.473137055711
 20
4441.931598713261
 30
0.0
 40
2.0
100
AcDbArc
 50
0.0
 51
90.0
  0
ARC
  5
1A539
330
747D
100
AcDbEntity
  8
部品1
 48
0.01
100
AcDbCircle
 10
4915.473137055707
 20
4410.431598713262
 30
0.0
 40
2.0
100
AcDbArc
 50
270.0
 51
0.0
  0
DIMENSION
  5
1A53A
330
747D
100
AcDbEntity
  8
寸法
 48
50.0
100
AcDbDimension
  2
*D1
 10
7242.473137055707
 20
5218.566791659261
 30
0.0
 11
5822.473137055709
 21
5218.566791659261
 31
0.0
 70
   160
 71
     5
 42
2839.999999999996
  3
INABA_S40G
100
AcDbAlignedDimension
 13
4402.473137055711
 23
4612.931598713268
 33
0.0
 14
7242.473137055707
 24
4612.931598713265
 34
0.0
100
AcDbRotatedDimension
  0
DIMENSION
  5
1A53B
330
747D
100
AcDbEntity
  8
寸法
 48
50.0
100
AcDbDimension
  2
*D2
 10
7192.473137055711
 20
5018.657870445174
 30
0.0
 11
7555.958418429948
 21
5018.657870445174
 31
0.0
 70
   160
 71
     5
 42
49.99999999999636
  3
INABA_S40G
100
AcDbAlignedDimension
 13
7242.473137055707
 23
4612.931598713265
 33
0.0
 14
7192.473137055711
 24
4612.931598713268
 34
0.0
100
AcDbRotatedDimension
  0
DIMENSION
  5
1A53C
330
747D
100
AcDbEntity
  8
寸法
 48
50.0
100
AcDbDimension
  2
*D3
 10
4402.473137055711
 20
5018.657870445171
 30
0.0
 11
4088.987855681463
 21
5018.657870445171
 31
0.0
 70
   160
 71
     5
 42
50.0
  3
INABA_S40G
100
AcDbAlignedDimension
 13
4452.473137055711
 23
4612.931598713268
 33
0.0
 14
4402.473137055711
 24
4612.931598713268
 34
0.0
100
AcDbRotatedDimension
1001
ACAD
1000
DSTYLE
1002
{
1002
}
  0
DIMENSION
  5
1A53D
330
747D
100
AcDbEntity
  8
寸法
 48
50.0
100
AcDbDimension
  2
*D4
 10
4452.473137055711
 20
5018.657870445171
 30
0.0
 11
5822.473137055711
 21
5018.657870445171
 31
0.0
 70
   160
  1
柱外寸法<>
 71
     5
 42
2740.0
  3
INABA_S40G
100
AcDbAlignedDimension
 13
7192.473137055711
 23
4612.931598713268
 33
0.0
 14
4452.473137055711
 24
4612.931598713268
 34
0.0
100
AcDbRotatedDimension
  0
TEXT
  5
1A53E
330
747D
100
AcDbEntity
  8
文字
 62
     7
 48
50.0
100
AcDbText
 10
14271.37116236434
 20
483.8967129911416
 30
0.0
 40
160.0
  1
FXN-1326SL-2
  7
MSPゴシック
100
AcDbText
  0
LINE
  5
1A53F
330
747D
100
AcDbEntity
  8
部品1
100
AcDbLine
 10
9819.649910445329
 20
2537.931598713262
 30
0.0
 11
9426.65269623648
 21
2437.931598713261
 31
0.0
  0
LINE
  5
1A540
330
747D
100
AcDbEntity
  8
破線
 48
5.0
100
AcDbLine
 10
9819.649910445329
 20
2187.931598713261
 30
0.0
 11
9874.649910445329
 21
2187.931598713261
 31
0.0
  0
LINE
  5
1A541
330
747D
100
AcDbEntity
  8
破線
 48
5.0
100
AcDbLine
 10
9874.649910445329
 20
2437.931598713261
 30
0.0
 11
9874.649910445329
 21
2187.931598713261
 31
0.0
  0
LINE
  5
1A542
330
747D
100
AcDbEntity
  8
破線
 48
5.0
100
AcDbLine
 10
9819.649910445329
 20
2437.931598713261
 30
0.0
 11
9819.649910445329
 21
2187.931598713261
 31
0.0
  0
DIMENSION
  5
1A543
330
747D
100
AcDbEntity
  8
寸法
 48
50.0
100
AcDbDimension
  2
*D5
 10
9199.041503676948
 20
4487.276857586595
 30
0.0
 11
9209.706978935873
 21
4858.123520828293
 31
0.0
 70
   161
 71
     5
 42
140.9999999999991
  3
INABA_S40G
100
AcDbAlignedDimension
 13
9779.045930603908
 23
4611.654347547941
 33
0.0
 14
9774.992475047282
 24
4470.71262378223
 34
0.0
1001
ACAD
1000
DSTYLE
1002
{
1070
   174
1070
     0
1070
   272
1070
     1
1070
   288
1070
     0
1070
   341
1005
0
1002
}
  0
LINE
  5
1A544
330
747D
100
AcDbEntity
  8
細線
 48
50.0
100
AcDbLine
 10
12317.14991044533
 20
4377.931598713261
 30
0.0
 11
12317.14991044533
 21
2587.931598713265
 31
0.0
  0
LINE
  5
1A545
330
747D
100
AcDbEntity
  8
細線
 48
50.0
100
AcDbLine
 10
12332.14991044533
 20
4377.931598713261
 30
0.0
 11
12332.14991044533
 21
2587.931598713265
 31
0.0
  0
LINE
  5
1A546
330
747D
100
AcDbEntity
  8
細線
 48
50.0
100
AcDbLine
 10
12192.14991044533
 20
4377.931598713261
 30
0.0
 11
12192.14991044533
 21
2587.931598713265
 31
0.0
  0
LINE
  5
1A547
330
747D
100
AcDbEntity
  8
細線
 48
50.0
100
AcDbLine
 10
12177.14991044533
 20
4377.931598713261
 30
0.0
 11
12177.14991044533
 21
2587.931598713265
 31
0.0
  0
LINE
  5
1A548
330
747D
100
AcDbEntity
  8
細線
 48
50.0
100
AcDbLine
 10
12037.14991044533
 20
4377.931598713261
 30
0.0
 11
12037.14991044533
 21
2587.931598713265
 31
0.0
  0
LINE
  5
1A549
330
747D
100
AcDbEntity
  8
細線
 48
50.0
100
AcDbLine
 10
12052.14991044533
 20
4377.931598713261
 30
0.0
 11
12052.14991044533
 21
2587.931598713265
 31
0.0
  0
LINE
  5
1A54A
330
747D
100
AcDbEntity
  8
部品1
100
AcDbLine
 10
11134.64991044533
 20
4377.931598713261
 30
0.0
 11
11134.64991044533
 21
2587.931598713261
 31
0.0
  0
LINE
  5
1A54B
330
747D
100
AcDbEntity
  8
細線
 48
50.0
100
AcDbLine
 10
10792.14991044533
 20
4377.931598713261
 30
0.0
 11
10792.14991044533
 21
2587.931598713261
 31
0.0
  0
LINE
  5
1A54C
330
747D
100
AcDbEntity
  8
細線
 48
50.0
100
AcDbLine
 10
10777.14991044533
 20
4377.931598713261
 30
0.0
 11
10777.14991044533
 21
2587.931598713261
 31
0.0
  0
LINE
  5
1A54D
330
747D
100
AcDbEntity
  8
細線
 48
50.0
100
AcDbLine
 10
10917.14991044533
 20
4377.931598713261
 30
0.0
 11
10917.14991044533
 21
2587.931598713261
 31
0.0
  0
LINE
  5
1A54E
330
747D
100
AcDbEntity
  8
細線
 48
50.0
100
AcDbLine
 10
10932.14991044533
 20
4377.931598713261
 30
0.0
 11
10932.14991044533
 21
2587.931598713261
 31
0.0
  0
LINE
  5
1A54F
330
747D
100
AcDbEntity
  8
細線
 48
50.0
100
AcDbLine
 10
11072.14991044533
 20
4377.931598713261
 30
0.0
 11
11072.14991044533
 21
2587.931598713261
 31
0.0
  0
LINE
  5
1A550
330
747D
100
AcDbEntity
  8
細線
 48
50.0
100
AcDbLine
 10
11057.14991044533
 20
4377.931598713261
 30
0.0
 11
11057.14991044533
 21
2587.931598713261
 31
0.0
  0
LINE
  5
1A551
330
747D
100
AcDbEntity
  8
部品1
100
AcDbLine
 10
10714.64991044533
 20
4377.931598713261
 30
0.0
 11
10714.64991044533
 21
2587.931598713261
 31
0.0
  0
DIMENSION
  5
1A552
330
747D
100
AcDbEntity
  8
寸法
 48
50.0
100
AcDbDimension
  2
*D6
 10
12529.64991044533
 20
5011.58905229257
 30
0.0
 11
12735.69715453982
 21
5011.58905229257
 31
0.0
 70
   160
 71
     5
 42
80.0
  3
INABA_S40G
100
AcDbAlignedDimension
 13
12449.64991044533
 23
4559.742278324916
 33
0.0
 14
12529.64991044533
 24
4557.931598713265
 34
0.0
100
AcDbRotatedDimension
1001
ACAD
1000
DSTYLE
1002
{
1070
   174
1070
     0
1070
   272
1070
     1
1070
   288
1070
     0
1070
   341
1005
0
1002
}
  0
LINE
  5
1A553
330
747D
100
AcDbEntity
  8
細線
 48
50.0
100
AcDbLine
 10
9952.149910445328
 20
4377.931598713261
 30
0.0
 11
9952.149910445328
 21
2587.931598713261
 31
0.0
  0
LINE
  5
1A554
330
747D
100
AcDbEntity
  8
細線
 48
50.0
100
AcDbLine
 10
9937.149910445329
 20
4377.931598713261
 30
0.0
 11
9937.149910445329
 21
2587.931598713261
 31
0.0
  0
LINE
  5
1A555
330
747D
100
AcDbEntity
  8
細線
 48
50.0
100
AcDbLine
 10
10077.14991044533
 20
4377.931598713261
 30
0.0
 11
10077.14991044533
 21
2587.931598713261
 31
0.0
  0
LINE
  5
1A556
330
747D
100
AcDbEntity
  8
細線
 48
50.0
100
AcDbLine
 10
10092.14991044533
 20
4377.931598713261
 30
0.0
 11
10092.14991044533
 21
2587.931598713261
 31
0.0
  0
LINE
  5
1A557
330
747D
100
AcDbEntity
  8
細線
 48
50.0
100
AcDbLine
 10
10232.14991044533
 20
4377.931598713261
 30
0.0
 11
10232.14991044533
 21
2587.931598713261
 31
0.0
  0
LINE
  5
1A558
330
747D
100
AcDbEntity
  8
細線
 48
50.0
100
AcDbLine
 10
10217.14991044533
 20
4377.931598713261
 30
0.0
 11
10217.14991044533
 21
2587.931598713261
 31
0.0
  0
LINE
  5
1A559
330
747D
100
AcDbEntity
  8
細線
 48
50.0
100
AcDbLine
 10
10637.14991044533
 20
4377.931598713261
 30
0.0
 11
10637.14991044533
 21
2587.931598713261
 31
0.0
  0
LINE
  5
1A55A
330
747D
100
AcDbEntity
  8
細線
 48
50.0
100
AcDbLine
 10
10652.14991044533
 20
4377.931598713261
 30
0.0
 11
10652.14991044533
 21
2587.931598713261
 31
0.0
  0
LINE
  5
1A55B
330
747D
100
AcDbEntity
  8
細線
 48
50.0
100
AcDbLine
 10
10512.14991044533
 20
4377.931598713261
 30
0.0
 11
10512.14991044533
 21
2587.931598713261
 31
0.0
  0
LINE
  5
1A55C
330
747D
100
AcDbEntity
  8
細線
 48
50.0
100
AcDbLine
 10
10497.14991044533
 20
4377.931598713261
 30
0.0
 11
10497.14991044533
 21
2587.931598713261
 31
0.0
  0
LINE
  5
1A55D
330
747D
100
AcDbEntity
  8
細線
 48
50.0
100
AcDbLine
 10
10357.14991044533
 20
4377.931598713261
 30
0.0
 11
10357.14991044533
 21
2587.931598713261
 31
0.0
  0
LINE
  5
1A55E
330
747D
100
AcDbEntity
  8
細線
 48
50.0
100
AcDbLine
 10
10372.14991044533
 20
4377.931598713261
 30
0.0
 11
10372.14991044533
 21
2587.931598713261
 31
0.0
  0
LINE
  5
1A55F
330
747D
100
AcDbEntity
  8
部品1
100
AcDbLine
 10
9874.649910445329
 20
2537.931598713262
 30
0.0
 11
12449.64991044533
 21
2537.931598713262
 31
0.0
  0
DIMENSION
  5
1A560
330
747D
100
AcDbEntity
  8
寸法
 48
50.0
100
AcDbDimension
  2
*D7
 10
9759.649910445329
 20
5231.799739024183
 30
0.0
 11
11144.64991044533
 21
5231.799739024183
 31
0.0
 70
   160
 71
     5
 42
2770.0
  3
INABA_S40G
100
AcDbAlignedDimension
 13
12529.64991044533
 23
4557.931598713265
 33
0.0
 14
9759.649910445329
 24
4612.931598713268
 34
0.0
100
AcDbRotatedDimension
1001
ACAD
1000
DSTYLE
1002
{
1070
   174
1070
     0
1070
   272
1070
     1
1070
   288
1070
     0
1070
   341
1005
0
1002
}
  0
DIMENSION
  5
1A561
330
747D
100
AcDbEntity
  8
寸法
 48
50.0
100
AcDbDimension
  2
*D8
 10
9759.649910445329
 20
5011.589052292566
 30
0.0
 11
9450.012115169739
 21
5011.589052292566
 31
0.0
 70
   160
 71
     5
 42
60.0
  3
INABA_S40G
100
AcDbAlignedDimension
 13
9819.649910445329
 23
4608.933216836238
 33
0.0
 14
9759.649910445329
 24
4612.931598713268
 34
0.0
100
AcDbRotatedDimension
1001
ACAD
1000
DSTYLE
1002
{
1070
   174
1070
     0
1070
   272
1070
     1
1070
   288
1070
     0
1070
   341
1005
0
1002
}
  0
DIMENSION
  5
1A562
330
747D
100
AcDbEntity
  8
寸法
 48
50.0
100
AcDbDimension
  2
*D9
 10
9819.649910445329
 20
5011.58905229257
 30
0.0
 11
11134.64991044533
 21
5011.58905229257
 31
0.0
 70
   160
  1
柱外寸法<>
 71
     5
 42
2630.0
  3
INABA_S40G
100
AcDbAlignedDimension
 13
12449.64991044533
 23
4559.742278324916
 33
0.0
 14
9819.649910445329
 24
4608.933216836238
 34
0.0
100
AcDbRotatedDimension
1001
ACAD
1000
DSTYLE
1002
{
1070
   174
1070
     0
1070
   272
1070
     1
1070
   288
1070
     0
1070
   341
1005
0
1002
}
  0
LINE
  5
1A563
330
747D
100
AcDbEntity
  8
部品1
100
AcDbLine
 10
12394.64991044533
 20
4377.931598713261
 30
0.0
 11
12394.64991044533
 21
2587.931598713265
 31
0.0
  0
LINE
  5
1A564
330
747D
100
AcDbEntity
  8
部品1
100
AcDbLine
 10
12449.64991044533
 20
4432.465872101001
 30
0.0
 11
12449.64991044533
 21
2437.931598713265
 31
0.0
  0
LINE
  5
1A565
330
747D
100
AcDbEntity
  8
部品1
100
AcDbLine
 10
10294.64991044533
 20
4377.931598713261
 30
0.0
 11
10294.64991044533
 21
2587.931598713261
 31
0.0
  0
DIMENSION
  5
1A566
330
747D
100
AcDbEntity
  8
寸法
100
AcDbDimension
  2
*D10
 10
8975.89978126207
 20
2537.931598713262
 30
0.0
 11
8975.89978126207
 21
2231.884354618771
 31
0.0
 70
   160
 71
     5
 42
50.0
  3
INABA_S40G
100
AcDbAlignedDimension
 13
9819.649910445329
 23
2587.931598713261
 33
0.0
 14
9764.649910445328
 24
2537.931598713262
 34
0.0
 50
90.0
100
AcDbRotatedDimension
1001
ACAD
1000
DSTYLE
1002
{
1070
   174
1070
     0
1070
   272
1070
     1
1070
   288
1070
     0
1070
   341
1005
0
1002
}
  0
LINE
  5
1A567
330
747D
100
AcDbEntity
  8
部品1
100
AcDbLine
 10
9819.649910445329
 20
4470.074036642141
 30
0.0
 11
9819.649910445329
 21
2437.931598713261
 31
0.0
  0
LINE
  5
1A568
330
747D
100
AcDbEntity
  8
部品1
100
AcDbLine
 10
9874.649910445329
 20
4377.931598713261
 30
0.0
 11
9874.649910445329
 21
2437.931598713265
 31
0.0
  0
LINE
  5
1A569
330
747D
100
AcDbEntity
  8
部品1
100
AcDbLine
 10
9874.649910445326
 20
2587.931598713261
 30
0.0
 11
12449.64991044533
 21
2587.931598713265
 31
0.0
  0
LINE
  5
1A56A
330
747D
100
AcDbEntity
  8
部品1
100
AcDbLine
 10
9819.649910445329
 20
4377.931598713261
 30
0.0
 11
12449.64991044533
 21
4377.931598713261
 31
0.0
  0
LINE
  5
1A56B
330
747D
100
AcDbEntity
  8
部品1
100
AcDbLine
 10
11974.64991044533
 20
4377.931598713261
 30
0.0
 11
11974.64991044533
 21
2587.931598713265
 31
0.0
  0
LINE
  5
1A56C
330
747D
100
AcDbEntity
  8
細線
 48
50.0
100
AcDbLine
 10
11477.14991044533
 20
4377.931598713261
 30
0.0
 11
11477.14991044533
 21
2587.931598713261
 31
0.0
  0
LINE
  5
1A56D
330
747D
100
AcDbEntity
  8
細線
 48
50.0
100
AcDbLine
 10
11492.14991044533
 20
4377.931598713261
 30
0.0
 11
11492.14991044533
 21
2587.931598713261
 31
0.0
  0
LINE
  5
1A56E
330
747D
100
AcDbEntity
  8
細線
 48
50.0
100
AcDbLine
 10
11352.14991044533
 20
4377.931598713261
 30
0.0
 11
11352.14991044533
 21
2587.931598713261
 31
0.0
  0
LINE
  5
1A56F
330
747D
100
AcDbEntity
  8
細線
 48
50.0
100
AcDbLine
 10
11337.14991044533
 20
4377.931598713261
 30
0.0
 11
11337.14991044533
 21
2587.931598713261
 31
0.0
  0
LINE
  5
1A570
330
747D
100
AcDbEntity
  8
細線
 48
50.0
100
AcDbLine
 10
11197.14991044533
 20
4377.931598713261
 30
0.0
 11
11197.14991044533
 21
2587.931598713261
 31
0.0
  0
LINE
  5
1A571
330
747D
100
AcDbEntity
  8
細線
 48
50.0
100
AcDbLine
 10
11212.14991044533
 20
4377.931598713261
 30
0.0
 11
11212.14991044533
 21
2587.931598713261
 31
0.0
  0
TEXT
  5
1A572
330
747D
100
AcDbEntity
  8
部品1
 48
50.0
100
AcDbText
 10
11486.23091240642
 20
4635.200691651571
 30
0.0
 40
120.0
  1
37
 50
90.0
  7
STYLE1
100
AcDbText
  0
TEXT
  5
1A573
330
747D
100
AcDbEntity
  8
部品1
 48
50.0
100
AcDbText
 10
11008.59788974133
 20
4772.701949869854
 30
0.0
 40
120.0
  1
1000
  7
STYLE1
100
AcDbText
  0
LINE
  5
1A574
330
747D
100
AcDbEntity
  8
部品1
 48
50.0
100
AcDbLine
 10
11320.3300545176
 20
4736.81792771742
 30
0.0
 11
11320.3300545176
 21
4720.61792771742
 31
0.0
  0
LINE
  5
1A575
330
747D
100
AcDbEntity
  8
部品1
 48
50.0
100
AcDbLine
 10
11020.3300545176
 20
4736.81792771742
 30
0.0
 11
11320.3300545176
 21
4736.81792771742
 31
0.0
  0
LINE
  5
1A576
330
747D
100
AcDbEntity
  8
部品1
100
AcDbLine
 10
9767.194896802292
 20
4611.649334047528
 30
0.0
 11
12522.2617873068
 21
4556.572396422402
 31
0.0
  0
LINE
  5
1A577
330
747D
100
AcDbEntity
  8
部品1
100
AcDbLine
 10
9774.992475047282
 20
4470.71262378223
 30
0.0
 11
12504.31361098518
 21
4431.684198548024
 31
0.0
  0
LINE
  5
1A578
330
747D
100
AcDbEntity
  8
細線
 48
50.0
100
AcDbLine
 10
9792.649910445328
 20
4610.331275088668
 30
0.0
 11
9787.360808889822
 21
4470.245642461311
 31
0.0
  0
LINE
  5
1A579
330
747D
100
AcDbEntity
  8
細線
 48
50.0
100
AcDbLine
 10
12496.61919363902
 20
4557.085021192732
 30
0.0
 11
12491.90222755733
 21
4432.152805257814
 31
0.0
  0
LINE
  5
1A57A
330
747D
100
AcDbEntity
  8
部品1
 48
50.0
100
AcDbLine
 10
9759.834196358436
 20
4604.525144877956
 30
0.0
 11
9760.214456136248
 21
4584.598180431544
 31
0.0
  0
LINE
  5
1A57B
330
747D
100
AcDbEntity
  8
部品1
 48
50.0
100
AcDbLine
 10
9763.283228242494
 20
4581.02289893807
 30
0.0
 11
9764.987129733858
 21
4491.732402231424
 31
0.0
  0
LINE
  5
1A57C
330
747D
100
AcDbEntity
  8
細線
 48
50.0
100
AcDbLine
 10
9760.689333546144
 20
4583.948680554626
 30
0.0
 11
12526.32531829131
 21
4528.324475913796
 31
0.0
  0
LINE
  5
1A57D
330
747D
100
AcDbEntity
  8
細線
 48
50.0
100
AcDbLine
 10
9765.449808783429
 20
4491.08716885676
 30
0.0
 11
12515.45347321407
 21
4451.277849882266
 31
0.0
  0
LINE
  5
1A57E
330
747D
100
AcDbEntity
  8
部品1
 48
50.0
100
AcDbLine
 10
9768.055901840099
 20
4488.157120737953
 30
0.0
 11
9768.257854460532
 21
4477.574085344858
 31
0.0
  0
ARC
  5
1A57F
330
747D
100
AcDbEntity
  8
部品1
 48
50.0
100
AcDbCircle
 10
9766.832922186775
 20
4604.658699285384
 30
0.0
 40
7.0
100
AcDbArc
 50
87.03587545282958
 51
181.0932240293152
  0
ARC
  5
1A580
330
747D
100
AcDbEntity
  8
部品1
 48
50.0
100
AcDbCircle
 10
9775.256580288871
 20
4477.707639752287
 30
0.0
 40
7.0
100
AcDbArc
 50
181.0932240293152
 51
267.8377559869492
  0
ARC
  5
1A581
330
747D
100
AcDbEntity
  8
部品1
100
AcDbCircle
 10
9765.056447913671
 20
4488.099883134768
 30
0.0
 40
3.0
100
AcDbArc
 50
1.093224029315264
 51
80.18775403168987
  0
ARC
  5
1A582
330
747D
100
AcDbEntity
  8
部品1
100
AcDbCircle
 10
9760.283774316064
 20
4580.965661334889
 30
0.0
 40
3.0
100
AcDbArc
 50
1.093224029315264
 51
80.18775403168987
  0
ARC
  5
1A583
330
747D
100
AcDbEntity
  8
部品1
100
AcDbCircle
 10
9760.914328719087
 20
4584.611535872285
 30
0.0
 40
0.7
100
AcDbArc
 50
181.093224029211
 51
260.1877540314861
  0
ARC
  5
1A584
330
747D
100
AcDbEntity
  8
部品1
100
AcDbCircle
 10
9765.687002316695
 20
4491.745757672168
 30
0.0
 40
0.7
100
AcDbArc
 50
181.0932240293152
 51
260.1877540314861
  0
LINE
  5
1A585
330
747D
100
AcDbEntity
  8
部品1
 48
50.0
100
AcDbLine
 10
12528.86381325603
 20
4548.87275098748
 30
0.0
 11
12526.83319206506
 21
4528.927709729702
 31
0.0
  0
LINE
  5
1A586
330
747D
100
AcDbEntity
  8
部品1
 48
50.0
100
AcDbLine
 10
12523.48062558058
 20
4525.617075656792
 30
0.0
 11
12515.97384631574
 21
4451.884454911782
 31
0.0
  0
LINE
  5
1A587
330
747D
100
AcDbEntity
  8
部品1
 48
50.0
100
AcDbLine
 10
12512.62127983126
 20
4448.573820838868
 30
0.0
 11
12511.54171679152
 21
4437.97020384531
 31
0.0
  0
ARC
  5
1A588
330
747D
100
AcDbEntity
  8
部品1
 48
50.0
100
AcDbCircle
 10
12521.89981269127
 20
4549.581761660258
 30
0.0
 40
7.0
100
AcDbArc
 50
354.1866997665485
 51
87.03587545282958
  0
ARC
  5
1A589
330
747D
100
AcDbEntity
  8
部品1
 48
50.0
100
AcDbCircle
 10
12504.57771622676
 20
4438.679214518084
 30
0.0
 40
7.0
100
AcDbArc
 50
267.8377559869492
 51
354.1866997665485
  0
ARC
  5
1A58A
330
747D
100
AcDbEntity
  8
部品1
100
AcDbCircle
 10
12515.60585150186
 20
4448.269959121964
 30
0.0
 40
3.0
100
AcDbArc
 50
95.09216976420788
 51
174.1866997665485
  0
ARC
  5
1A58B
330
747D
100
AcDbEntity
  8
部品1
100
AcDbCircle
 10
12526.46519725119
 20
4525.313213939891
 30
0.0
 40
3.0
100
AcDbArc
 50
95.09216976420788
 51
174.1866997665485
  0
ARC
  5
1A58C
330
747D
100
AcDbEntity
  8
部品1
100
AcDbCircle
 10
12526.13679200858
 20
4528.998610796977
 30
0.0
 40
0.7
100
AcDbArc
 50
275.0921697642079
 51
354.1866997665485
  0
ARC
  5
1A58D
330
747D
100
AcDbEntity
  8
部品1
100
AcDbCircle
 10
12515.27744625926
 20
4451.955355979055
 30
0.0
 40
0.7
100
AcDbArc
 50
275.0921697642079
 51
354.186699766758
  0
LINE
  5
1A58E
330
747D
100
AcDbEntity
  8
部品1
100
AcDbLine
 10
10994.87504087457
 20
4738.135986676279
 30
0.0
 11
11320.3300545176
 21
4720.61792771742
 31
0.0
  0
LINE
  5
1A58F
330
747D
100
AcDbEntity
  8
部品1
100
AcDbLine
 10
11554.64991044532
 20
4377.931598713261
 30
0.0
 11
11554.64991044532
 21
2587.931598713265
 31
0.0
  0
LINE
  5
1A590
330
747D
100
AcDbEntity
  8
細線
 48
50.0
100
AcDbLine
 10
11632.14991044533
 20
4377.931598713261
 30
0.0
 11
11632.14991044533
 21
2587.931598713265
 31
0.0
  0
LINE
  5
1A591
330
747D
100
AcDbEntity
  8
細線
 48
50.0
100
AcDbLine
 10
11617.14991044533
 20
4377.931598713261
 30
0.0
 11
11617.14991044533
 21
2587.931598713265
 31
0.0
  0
LINE
  5
1A592
330
747D
100
AcDbEntity
  8
細線
 48
50.0
100
AcDbLine
 10
11757.14991044533
 20
4377.931598713261
 30
0.0
 11
11757.14991044533
 21
2587.931598713265
 31
0.0
  0
LINE
  5
1A593
330
747D
100
AcDbEntity
  8
細線
 48
50.0
100
AcDbLine
 10
11772.14991044533
 20
4377.931598713261
 30
0.0
 11
11772.14991044533
 21
2587.931598713265
 31
0.0
  0
LINE
  5
1A594
330
747D
100
AcDbEntity
  8
細線
 48
50.0
100
AcDbLine
 10
11912.14991044533
 20
4377.931598713261
 30
0.0
 11
11912.14991044533
 21
2587.931598713265
 31
0.0
  0
LINE
  5
1A595
330
747D
100
AcDbEntity
  8
細線
 48
50.0
100
AcDbLine
 10
11897.14991044533
 20
4377.931598713261
 30
0.0
 11
11897.14991044533
 21
2587.931598713265
 31
0.0
  0
DIMENSION
  5
1A596
330
747D
100
AcDbEntity
  8
寸法
100
AcDbDimension
  2
*D11
 10
13154.57706841746
 20
4557.931598713265
 30
0.0
 11
13054.56525739383
 21
3547.931598713268
 31
0.0
 70
    32
 71
     5
 42
2020.0
  3
INABA_S40G
100
AcDbAlignedDimension
 13
12449.64991044533
 23
2537.931598713265
 33
0.0
 14
12529.64991044533
 24
4557.931598713265
 34
0.0
 50
90.0
100
AcDbRotatedDimension
1001
ACAD
1000
DSTYLE
1002
{
1070
   174
1070
     0
1070
   272
1070
     1
1070
   288
1070
     0
1070
   341
1005
0
1002
}
  0
DIMENSION
  5
1A597
330
747D
100
AcDbEntity
  8
寸法
100
AcDbDimension
  2
*D12
 10
8675.899781262069
 20
4612.931598713261
 30
0.0
 11
8575.887970238445
 21
3575.431598713261
 31
0.0
 70
    32
 71
     5
 42
2075.000000000003
  3
INABA_S40G
100
AcDbAlignedDimension
 13
9819.649910445329
 23
2537.931598713258
 33
0.0
 14
9759.649910445329
 24
4612.931598713261
 34
0.0
 50
90.0
100
AcDbRotatedDimension
1001
ACAD
1000
DSTYLE
1002
{
1070
   174
1070
     0
1070
   272
1070
     1
1070
   288
1070
     0
1070
   341
1005
0
1002
}
  0
DIMENSION
  5
1A598
330
747D
100
AcDbEntity
  8
寸法
100
AcDbDimension
  2
*D13
 10
8975.89978126207
 20
2587.931598713258
 30
0.0
 11
8875.899781262068
 21
3482.931598713259
 31
0.0
 70
    32
 71
     5
 42
1789.999999999999
  3
INABA_S40G
100
AcDbAlignedDimension
 13
9819.649910445329
 23
4377.931598713257
 33
0.0
 14
9819.649910445329
 24
2587.931598713258
 34
0.0
 50
90.0
100
AcDbRotatedDimension
1001
ACAD
1000
DSTYLE
1002
{
1070
   174
1070
     0
1070
   272
1070
     1
1070
   288
1070
     0
1070
   341
1005
0
1002
}
  0
TEXT
  5
1A599
330
747D
100
AcDbEntity
  8
文字
 62
     7
 48
50.0
100
AcDbText
 10
13208.66940634409
 20
75.99010014536543
 30
0.0
 40
100.0
  1
○床面積 ： 7.21㎡(2.18坪)
  7
STYLE2
100
AcDbText
  0
LINE
  5
1A59A
330
747D
100
AcDbEntity
  8
仕様書枠
 48
50.0
100
AcDbLine
 10
13127.2
 20
11239.6
 30
0.0
 11
13127.2
 21
8179.600000000002
 31
0.0
  0
TEXT
  5
1A59B
330
747D
100
AcDbEntity
  8
文字
 62
     7
 48
50.0
100
AcDbText
 10
13229.83081656554
 20
8210.013745883726
 30
0.0
 40
100.0
  1
Z08→塗装溶融亜鉛めっき鋼板(JIS G 3313)
  7
STYLE1
100
AcDbText
  0
TEXT
  5
1A59C
330
747D
100
AcDbEntity
  8
文字
 62
     7
 48
50.0
100
AcDbText
 10
13229.83081656553
 20
8380.013745883724
 30
0.0
 40
100.0
  1
Y10→溶融亜鉛-5％アルミニウム合金めっき鋼板(JIS G 3317)
 41
0.9
  7
STYLE1
100
AcDbText
  0
TEXT
  5
1A59D
330
747D
100
AcDbEntity
  8
文字
 62
     7
 48
50.0
100
AcDbText
 10
13229.83081656554
 20
8550.013745883722
 30
0.0
 40
100.0
  1
F12→溶融亜鉛めっき鋼板(JIS G 3302)
  7
STYLE1
100
AcDbText
  0
LINE
  5
1A59E
330
747D
100
AcDbEntity
  8
仕様書枠
 48
50.0
100
AcDbLine
 10
16307.19999999998
 20
8179.599999999995
 30
0.0
 11
13127.19999999998
 21
8179.599999999998
 31
0.0
  0
LINE
  5
1A59F
330
747D
100
AcDbEntity
  8
仕様書枠
 48
50.0
100
AcDbLine
 10
16307.19999999998
 20
8349.599999999995
 30
0.0
 11
13127.19999999998
 21
8349.599999999998
 31
0.0
  0
LINE
  5
1A5A0
330
747D
100
AcDbEntity
  8
仕様書枠
 48
50.0
100
AcDbLine
 10
16307.19999999998
 20
8519.599999999995
 30
0.0
 11
13127.19999999998
 21
8519.599999999998
 31
0.0
  0
TEXT
  5
1A5A1
330
747D
100
AcDbEntity
  8
文字
 62
     7
 48
50.0
100
AcDbText
 10
15022.63965474515
 20
8720.013745883727
 30
0.0
 40
100.0
  1
F12            0.6
  7
STYLE1
100
AcDbText
  0
TEXT
  5
1A5A2
330
747D
100
AcDbEntity
  8
文字
 62
     7
 48
50.0
100
AcDbText
 10
14850.83183167176
 20
8890.013745883727
 30
0.0
 40
100.0
  1
アルミニウム合金押出形材
  7
STYLE1
100
AcDbText
  0
TEXT
  5
1A5A3
330
747D
100
AcDbEntity
  8
文字
 62
     7
 48
50.0
100
AcDbText
 10
15022.63965474516
 20
9400.013745883727
 30
0.0
 40
100.0
  1
F12            0.6
  7
STYLE1
100
AcDbText
  0
TEXT
  5
1A5A4
330
747D
100
AcDbEntity
  8
文字
 62
     7
 48
50.0
100
AcDbText
 10
15022.63965474517
 20
9570.013745883727
 30
0.0
 40
100.0
  1
Y10            0.5
  7
STYLE1
100
AcDbText
  0
TEXT
  5
1A5A5
330
747D
100
AcDbEntity
  8
文字
 62
     7
 48
50.0
100
AcDbText
 10
15022.63965474517
 20
9740.013745883729
 30
0.0
 40
100.0
  1
F12            1.0
  7
STYLE1
100
AcDbText
  0
TEXT
  5
1A5A6
330
747D
100
AcDbEntity
  8
文字
 62
     7
 48
50.0
100
AcDbText
 10
15022.63965474516
 20
10080.01374588372
 30
0.0
 40
100.0
  1
Y10            0.7
  7
STYLE1
100
AcDbText
  0
TEXT
  5
1A5A7
330
747D
100
AcDbEntity
  8
文字
 62
     7
 48
50.0
100
AcDbText
 10
15022.63965474516
 20
10250.01374588373
 30
0.0
 40
100.0
  1
Y10            0.7
  7
STYLE1
100
AcDbText
  0
TEXT
  5
1A5A8
330
747D
100
AcDbEntity
  8
文字
 62
     7
 48
50.0
100
AcDbText
 10
15022.63965474516
 20
10420.01374588372
 30
0.0
 40
100.0
  1
Y10            1.0
  7
STYLE1
100
AcDbText
  0
TEXT
  5
1A5A9
330
747D
100
AcDbEntity
  8
文字
 62
     7
 48
50.0
100
AcDbText
 10
15022.63965474516
 20
10590.01374588373
 30
0.0
 40
100.0
  1
Y10            1.0
  7
STYLE1
100
AcDbText
  0
TEXT
  5
1A5AB
330
747D
100
AcDbEntity
  8
文字
 62
     7
 48
50.0
100
AcDbText
 10
15022.63965474517
 20
10930.01374588372
 30
0.0
 40
100.0
  1
F12            1.2
  7
STYLE1
100
AcDbText
  0
TEXT
  5
1A5AC
330
747D
100
AcDbEntity
  8
文字
 62
     7
 48
50.0
100
AcDbText
 10
13248.77747366448
 20
9060.013745883727
 30
0.0
 40
100.0
  1
12
  7
STYLE1
100
AcDbText
  0
TEXT
  5
1A5AD
330
747D
100
AcDbEntity
  8
文字
 62
     7
 48
50.0
100
AcDbText
 10
13248.77747366448
 20
8890.013745883727
 30
0.0
 40
100.0
  1
13
  7
STYLE1
100
AcDbText
  0
LINE
  5
1A5AE
330
747D
100
AcDbEntity
  8
仕様書枠
 48
50.0
100
AcDbLine
 10
16307.19999999999
 20
8859.599999999998
 30
0.0
 11
13127.19999999999
 21
8859.600000000002
 31
0.0
  0
TEXT
  5
1A5AF
330
747D
100
AcDbEntity
  8
文字
 62
     7
 48
50.0
100
AcDbText
 10
13583.11819016569
 20
8720.013745883727
 30
0.0
 40
100.0
  1
棚板（別売）
  7
STYLE1
100
AcDbText
  0
LINE
  5
1A5B1
330
747D
100
AcDbEntity
  8
仕様書枠
 48
50.0
100
AcDbLine
 10
16307.19999999999
 20
9029.6
 30
0.0
 11
13127.19999999999
 21
9029.6
 31
0.0
  0
TEXT
  5
1A5B2
330
747D
100
AcDbEntity
  8
文字
 62
     7
 48
50.0
100
AcDbText
 10
13583.11819016569
 20
9060.013745883727
 30
0.0
 40
100.0
  1
シャッターカバー
 41
0.9
  7
STYLE1
100
AcDbText
  0
TEXT
  5
1A5B3
330
747D
100
AcDbEntity
  8
文字
 62
     7
 48
50.0
100
AcDbText
 10
13248.77747366448
 20
9230.013745883727
 30
0.0
 40
100.0
  1
11
  7
STYLE1
100
AcDbText
  0
LINE
  5
1A5B4
330
747D
100
AcDbEntity
  8
仕様書枠
 48
50.0
100
AcDbLine
 10
16307.19999999999
 20
9709.6
 30
0.0
 11
13127.2
 21
9709.6
 31
0.0
  0
LINE
  5
1A5B5
330
747D
100
AcDbEntity
  8
仕様書枠
 48
50.0
100
AcDbLine
 10
16307.19999999999
 20
10049.6
 30
0.0
 11
13127.2
 21
10049.6
 31
0.0
  0
LINE
  5
1A5B6
330
747D
100
AcDbEntity
  8
仕様書枠
 48
50.0
100
AcDbLine
 10
16307.19999999999
 20
9369.599999999998
 30
0.0
 11
13127.19999999999
 21
9369.599999999998
 31
0.0
  0
LINE
  5
1A5B7
330
747D
100
AcDbEntity
  8
仕様書枠
 48
50.0
100
AcDbLine
 10
16307.19999999999
 20
9199.599999999998
 30
0.0
 11
13127.19999999999
 21
9199.599999999998
 31
0.0
  0
LINE
  5
1A5B8
330
747D
100
AcDbEntity
  8
仕様書枠
 48
50.0
100
AcDbLine
 10
16307.19999999999
 20
9539.599999999998
 30
0.0
 11
13127.19999999999
 21
9539.599999999998
 31
0.0
  0
TEXT
  5
1A5B9
330
747D
100
AcDbEntity
  8
文字
 62
     7
 48
50.0
100
AcDbText
 10
13271.19032244792
 20
10080.01374588372
 30
0.0
 40
100.0
  1
6
  7
STYLE1
100
AcDbText
  0
TEXT
  5
1A5BA
330
747D
100
AcDbEntity
  8
文字
 62
     7
 48
50.0
100
AcDbText
 10
13271.19032244792
 20
9910.013745883727
 30
0.0
 40
100.0
  1
7
  7
STYLE1
100
AcDbText
  0
TEXT
  5
1A5BB
330
747D
100
AcDbEntity
  8
文字
 62
     7
 48
50.0
100
AcDbText
 10
13271.19032244792
 20
9570.013745883727
 30
0.0
 40
100.0
  1
9
  7
STYLE1
100
AcDbText
  0
TEXT
  5
1A5BC
330
747D
100
AcDbEntity
  8
文字
 62
     7
 48
50.0
100
AcDbText
 10
13271.19032244792
 20
9740.013745883729
 30
0.0
 40
100.0
  1
8
  7
STYLE1
100
AcDbText
  0
TEXT
  5
1A5BD
330
747D
100
AcDbEntity
  8
文字
 62
     7
 48
50.0
100
AcDbText
 10
13583.11819016569
 20
10080.01374588372
 30
0.0
 40
100.0
  1
鼻隠シ前後
  7
STYLE1
100
AcDbText
  0
TEXT
  5
1A5BE
330
747D
100
AcDbEntity
  8
文字
 62
     7
 48
50.0
100
AcDbText
 10
13583.11819016569
 20
9740.013745883729
 30
0.0
 40
100.0
  1
母屋中
  7
STYLE1
100
AcDbText
  0
TEXT
  5
1A5BF
330
747D
100
AcDbEntity
  8
文字
 62
     7
 48
50.0
100
AcDbText
 10
13583.11819016569
 20
9570.013745883727
 30
0.0
 40
100.0
  1
屋根パネル
  7
STYLE1
100
AcDbText
  0
TEXT
  5
1A5C0
330
747D
100
AcDbEntity
  8
文字
 62
     7
 48
50.0
100
AcDbText
 10
13583.11819016569
 20
9400.013745883727
 30
0.0
 40
100.0
  1
壁パネル
  7
STYLE1
100
AcDbText
  0
TEXT
  5
1A5C1
330
747D
100
AcDbEntity
  8
文字
 62
     7
 48
50.0
100
AcDbText
 10
13248.77747366448
 20
9400.013745883727
 30
0.0
 40
100.0
  1
10
  7
STYLE1
100
AcDbText
  0
TEXT
  5
1A5C2
330
747D
100
AcDbEntity
  8
文字
 62
     7
 48
50.0
100
AcDbText
 10
13583.11819016569
 20
8890.013745883727
 30
0.0
 40
100.0
  1
シャッターレール
  7
STYLE1
100
AcDbText
  0
TEXT
  5
1A5C3
330
747D
100
AcDbEntity
  8
文字
 62
     7
 48
50.0
100
AcDbText
 10
13583.11819016569
 20
10250.01374588373
 30
0.0
 40
100.0
  1
妻板左右
  7
STYLE1
100
AcDbText
  0
TEXT
  5
1A5C4
330
747D
100
AcDbEntity
  8
文字
 62
     7
 48
50.0
100
AcDbText
 10
13271.19032244792
 20
10250.01374588373
 30
0.0
 40
100.0
  1
5
  7
STYLE1
100
AcDbText
  0
TEXT
  5
1A5C5
330
747D
100
AcDbEntity
  8
文字
 62
     7
 48
50.0
100
AcDbText
 10
13583.11819016569
 20
10420.01374588372
 30
0.0
 40
100.0
  1
桁後
  7
STYLE1
100
AcDbText
  0
TEXT
  5
1A5C6
330
747D
100
AcDbEntity
  8
文字
 62
     7
 48
50.0
100
AcDbText
 10
13583.11819016569
 20
10590.01374588373
 30
0.0
 40
100.0
  1
桁前
  7
STYLE1
100
AcDbText
  0
TEXT
  5
1A5C7
330
747D
100
AcDbEntity
  8
文字
 62
     7
 48
50.0
100
AcDbText
 10
13583.11819016569
 20
10760.01374588372
 30
0.0
 40
100.0
  1
柱
  7
STYLE1
100
AcDbText
  0
TEXT
  5
1A5C8
330
747D
100
AcDbEntity
  8
文字
 62
     7
 48
50.0
100
AcDbText
 10
13583.11819016569
 20
10930.01374588372
 30
0.0
 40
100.0
  1
土台枠
  7
STYLE1
100
AcDbText
  0
TEXT
  5
1A5C9
330
747D
100
AcDbEntity
  8
文字
 62
     7
 48
50.0
100
AcDbText
 10
14859.79774614482
 20
11100.01374588373
 30
0.0
 40
100.0
  1
材料（材質）　　単位mm
  7
STYLE1
100
AcDbText
  0
TEXT
  5
1A5CA
330
747D
100
AcDbEntity
  8
文字
 62
     7
 48
50.0
100
AcDbText
 10
13732.03840939434
 20
11100.01374588373
 30
0.0
 40
100.0
  1
部　　品　　名
  7
STYLE1
100
AcDbText
  0
TEXT
  5
1A5CB
330
747D
100
AcDbEntity
  8
文字
 62
     7
 48
50.0
100
AcDbText
 10
13271.19032244792
 20
10590.01374588373
 30
0.0
 40
100.0
  1
3
  7
STYLE1
100
AcDbText
  0
TEXT
  5
1A5CC
330
747D
100
AcDbEntity
  8
文字
 62
     7
 48
50.0
100
AcDbText
 10
13271.19032244792
 20
10420.01374588372
 30
0.0
 40
100.0
  1
4
  7
STYLE1
100
AcDbText
  0
TEXT
  5
1A5CD
330
747D
100
AcDbEntity
  8
文字
 62
     7
 48
50.0
100
AcDbText
 10
13271.19032244792
 20
10760.01374588372
 30
0.0
 40
100.0
  1
2
  7
STYLE1
100
AcDbText
  0
TEXT
  5
1A5CE
330
747D
100
AcDbEntity
  8
文字
 62
     7
 48
50.0
100
AcDbText
 10
13271.19032244792
 20
10930.01374588372
 30
0.0
 40
100.0
  1
1
  7
STYLE1
100
AcDbText
  0
TEXT
  5
1A5CF
330
747D
100
AcDbEntity
  8
文字
 62
     7
 48
50.0
100
AcDbText
 10
13197.42518560407
 20
11100.01374588373
 30
0.0
 40
100.0
  1
品番
  7
STYLE1
100
AcDbText
  0
LINE
  5
1A5D0
330
747D
100
AcDbEntity
  8
仕様書枠
 48
50.0
100
AcDbLine
 10
16307.19999999999
 20
10559.6
 30
0.0
 11
13127.19999999999
 21
10559.6
 31
0.0
  0
LINE
  5
1A5D1
330
747D
100
AcDbEntity
  8
仕様書枠
 48
50.0
100
AcDbLine
 10
16307.19999999999
 20
10219.6
 30
0.0
 11
13127.19999999999
 21
10219.6
 31
0.0
  0
LINE
  5
1A5D2
330
747D
100
AcDbEntity
  8
仕様書枠
 48
50.0
100
AcDbLine
 10
16307.19999999999
 20
10389.6
 30
0.0
 11
13127.19999999999
 21
10389.6
 31
0.0
  0
LINE
  5
1A5D3
330
747D
100
AcDbEntity
  8
仕様書枠
 48
50.0
100
AcDbLine
 10
16307.19999999999
 20
10899.6
 30
0.0
 11
13127.2
 21
10899.6
 31
0.0
  0
LINE
  5
1A5D4
330
747D
100
AcDbEntity
  8
仕様書枠
 48
50.0
100
AcDbLine
 10
16307.19999999999
 20
10729.6
 30
0.0
 11
13127.2
 21
10729.6
 31
0.0
  0
LINE
  5
1A5D5
330
747D
100
AcDbEntity
  8
仕様書枠
 48
50.0
100
AcDbLine
 10
16307.19999999999
 20
11069.6
 30
0.0
 11
13127.2
 21
11069.6
 31
0.0
  0
LINE
  5
1A5D6
330
747D
100
AcDbEntity
  8
仕様書枠
 48
50.0
100
AcDbLine
 10
13490.2
 20
11239.6
 30
0.0
 11
13490.2
 21
8689.6
 31
0.0
  0
LINE
  5
1A5D7
330
747D
100
AcDbEntity
  8
仕様書枠
 48
50.0
100
AcDbLine
 10
14785.2
 20
11239.6
 30
0.0
 11
14785.2
 21
8689.6
 31
0.0
  0
LINE
  5
1A5D8
330
747D
100
AcDbEntity
  8
仕様書枠
 48
50.0
100
AcDbLine
 10
16307.2
 20
8179.599999999998
 30
0.0
 11
16307.2
 21
11239.6
 31
0.0
  0
LINE
  5
1A5D9
330
747D
100
AcDbEntity
  8
仕様書枠
 48
50.0
100
AcDbLine
 10
16307.19999999999
 20
11239.6
 30
0.0
 11
13127.2
 21
11239.6
 31
0.0
  0
LINE
  5
1A5DA
330
747D
100
AcDbEntity
  8
仕様書枠
 48
50.0
100
AcDbLine
 10
16307.19999999999
 20
9879.599999999999
 30
0.0
 11
13127.2
 21
9879.599999999999
 31
0.0
  0
TEXT
  5
1A5DB
330
747D
100
AcDbEntity
  8
文字
 62
     7
 48
50.0
100
AcDbText
 10
13248.77747366448
 20
8720.013745883731
 30
0.0
 40
100.0
  1
14
  7
STYLE1
100
AcDbText
  0
TEXT
  5
1A5DC
330
747D
100
AcDbEntity
  8
文字
 62
     7
 48
50.0
100
AcDbText
 10
13583.11819016569
 20
9910.013745883727
 30
0.0
 40
100.0
  1
梁中
  7
STYLE1
100
AcDbText
  0
TEXT
  5
1A5DD
330
747D
100
AcDbEntity
  8
文字
 62
     7
 48
50.0
100
AcDbText
 10
15022.63965474516
 20
9910.013745883727
 30
0.0
 40
100.0
  1
F12,Y10        1.0
  7
STYLE1
100
AcDbText
  0
CIRCLE
  5
1A5DE
330
747D
100
AcDbEntity
  8
細線
 48
50.0
100
AcDbCircle
 10
6507.473137055706
 20
3425.431598713262
 30
0.0
 40
18.0
  0
ARC
  5
1A5DF
330
747D
100
AcDbEntity
  8
細線
 48
50.0
100
AcDbCircle
 10
6807.473137055706
 20
3100.431598713262
 30
0.0
 40
15.0
100
AcDbArc
 50
270.0
 51
90.0
  0
ARC
  5
1A5E0
330
747D
100
AcDbEntity
  8
細線
 48
50.0
100
AcDbCircle
 10
6707.473137055706
 20
3100.431598713262
 30
0.0
 40
15.0
100
AcDbArc
 50
90.0
 51
270.0
  0
LINE
  5
1A5E1
330
747D
100
AcDbEntity
  8
細線
 48
50.0
100
AcDbLine
 10
6707.473137055706
 20
3115.431598713261
 30
0.0
 11
6807.473137055706
 21
3115.431598713261
 31
0.0
  0
LINE
  5
1A5E2
330
747D
100
AcDbEntity
  8
細線
 48
50.0
100
AcDbLine
 10
6807.473137055706
 20
3085.431598713262
 30
0.0
 11
6707.473137055706
 21
3085.431598713262
 31
0.0
  0
LINE
  5
1A5E3
330
747D
100
AcDbEntity
  8
細線
 48
50.0
100
AcDbLine
 10
6307.473137055706
 20
3085.431598713262
 30
0.0
 11
6207.473137055706
 21
3085.431598713262
 31
0.0
  0
LINE
  5
1A5E4
330
747D
100
AcDbEntity
  8
細線
 48
50.0
100
AcDbLine
 10
6207.473137055706
 20
3115.431598713261
 30
0.0
 11
6307.473137055706
 21
3115.431598713261
 31
0.0
  0
ARC
  5
1A5E5
330
747D
100
AcDbEntity
  8
細線
 48
50.0
100
AcDbCircle
 10
6307.473137055706
 20
3100.431598713262
 30
0.0
 40
15.0
100
AcDbArc
 50
270.0
 51
90.0
  0
ARC
  5
1A5E6
330
747D
100
AcDbEntity
  8
細線
 48
50.0
100
AcDbCircle
 10
6207.473137055706
 20
3100.431598713262
 30
0.0
 40
15.0
100
AcDbArc
 50
90.0
 51
270.0
  0
CIRCLE
  5
1A5E7
330
747D
100
AcDbEntity
  8
細線
 48
50.0
100
AcDbCircle
 10
5137.473137055709
 20
3425.431598713262
 30
0.0
 40
18.0
  0
ARC
  5
1A5E8
330
747D
100
AcDbEntity
  8
細線
 48
50.0
100
AcDbCircle
 10
5437.473137055709
 20
3100.431598713262
 30
0.0
 40
15.0
100
AcDbArc
 50
270.0
 51
90.0
  0
ARC
  5
1A5E9
330
747D
100
AcDbEntity
  8
細線
 48
50.0
100
AcDbCircle
 10
5337.47313705571
 20
3100.431598713262
 30
0.0
 40
15.0
100
AcDbArc
 50
90.0
 51
270.0
  0
LINE
  5
1A5EA
330
747D
100
AcDbEntity
  8
細線
 48
50.0
100
AcDbLine
 10
5337.47313705571
 20
3115.431598713261
 30
0.0
 11
5437.473137055709
 21
3115.431598713261
 31
0.0
  0
LINE
  5
1A5EB
330
747D
100
AcDbEntity
  8
細線
 48
50.0
100
AcDbLine
 10
5437.473137055709
 20
3085.431598713262
 30
0.0
 11
5337.47313705571
 21
3085.431598713262
 31
0.0
  0
LINE
  5
1A5EC
330
747D
100
AcDbEntity
  8
細線
 48
50.0
100
AcDbLine
 10
4937.473137055709
 20
3085.431598713262
 30
0.0
 11
4837.47313705571
 21
3085.431598713262
 31
0.0
  0
LINE
  5
1A5ED
330
747D
100
AcDbEntity
  8
細線
 48
50.0
100
AcDbLine
 10
4837.47313705571
 20
3115.431598713261
 30
0.0
 11
4937.473137055709
 21
3115.431598713261
 31
0.0
  0
ARC
  5
1A5EE
330
747D
100
AcDbEntity
  8
細線
 48
50.0
100
AcDbCircle
 10
4937.473137055709
 20
3100.431598713262
 30
0.0
 40
15.0
100
AcDbArc
 50
270.0
 51
90.0
  0
ARC
  5
1A5EF
330
747D
100
AcDbEntity
  8
細線
 48
50.0
100
AcDbCircle
 10
4837.47313705571
 20
3100.431598713262
 30
0.0
 40
15.0
100
AcDbArc
 50
90.0
 51
270.0
  0
LINE
  5
1A5F0
330
747D
100
AcDbEntity
  8
部品1
100
AcDbLine
 10
5794.473137055709
 20
8032.021693399482
 30
0.0
 11
5822.473137055709
 21
8032.021693399482
 31
0.0
  0
LINE
  5
1A5F1
330
747D
100
AcDbEntity
  8
部品1
100
AcDbLine
 10
5794.473137055709
 20
8452.021693399482
 30
0.0
 11
5822.473137055709
 21
8452.021693399482
 31
0.0
  0
LINE
  5
1A5F2
330
747D
100
AcDbEntity
  8
部品1
100
AcDbLine
 10
5850.473137055684
 20
10132.02169339945
 30
0.0
 11
5794.47313705568
 21
10132.02169339945
 31
0.0
  0
LINE
  5
1A5F3
330
747D
100
AcDbEntity
  8
部品1
100
AcDbLine
 10
5767.473137055692
 20
10132.02169339945
 30
0.0
 11
4507.473137055684
 21
10132.02169339945
 31
0.0
  0
LINE
  5
1A5F4
330
747D
100
AcDbEntity
  8
部品1
 48
50.0
100
AcDbLine
 10
5794.473137055749
 20
10159.02169339938
 30
0.0
 11
5767.473137055746
 21
10132.02169339938
 31
0.0
  0
LINE
  5
1A5F5
330
747D
100
AcDbEntity
  8
部品1
 48
50.0
100
AcDbLine
 10
5850.473137055735
 20
10159.02169339929
 30
0.0
 11
5877.473137055724
 21
10132.0216933993
 31
0.0
  0
LINE
  5
1A5F6
330
747D
100
AcDbEntity
  8
部品1
100
AcDbLine
 10
5794.473137055702
 20
9712.021693399481
 30
0.0
 11
5822.473137055702
 21
9712.021693399481
 31
0.0
  0
LINE
  5
1A5F7
330
747D
100
AcDbEntity
  8
部品1
100
AcDbLine
 10
5794.473137055702
 20
9292.021693399481
 30
0.0
 11
5822.473137055702
 21
9292.021693399481
 31
0.0
  0
LINE
  5
1A5F8
330
747D
100
AcDbEntity
  8
部品1
100
AcDbLine
 10
5794.473137055702
 20
8872.021693399481
 30
0.0
 11
5822.473137055702
 21
8872.021693399481
 31
0.0
  0
LINE
  5
1A5F9
330
747D
100
AcDbEntity
  8
部品1
100
AcDbLine
 10
5767.4731370557
 20
7622.021693399379
 30
0.0
 11
5767.473137055692
 21
10132.02169339938
 31
0.0
  0
LINE
  5
1A5FA
330
747D
100
AcDbEntity
  8
部品1
 48
10.0
100
AcDbLine
 10
5742.473137055709
 20
7622.021693399379
 30
0.0
 11
5742.473137055684
 21
10132.02169339938
 31
0.0
  0
LINE
  5
1A5FB
330
747D
100
AcDbEntity
  8
部品1
100
AcDbLine
 10
5794.473137055682
 20
10159.02169339947
 30
0.0
 11
5794.473137055666
 21
7557.021693399372
 31
0.0
  0
LINE
  5
1A5FC
330
747D
100
AcDbEntity
  8
部品1
100
AcDbLine
 10
5877.47313705572
 20
7622.021693399379
 30
0.0
 11
5877.473137055693
 21
10132.02169339937
 31
0.0
  0
LINE
  5
1A5FD
330
747D
100
AcDbEntity
  8
部品1
 48
10.0
100
AcDbLine
 10
5902.473137055714
 20
7622.021693399379
 30
0.0
 11
5902.473137055667
 21
10132.0216933994
 31
0.0
  0
LINE
  5
1A5FE
330
747D
100
AcDbEntity
  8
部品1
100
AcDbLine
 10
5850.473137055661
 20
7557.021693399381
 30
0.0
 11
5850.473137055684
 21
10187.02169339942
 31
0.0
  0
LINE
  5
1A5FF
330
747D
100
AcDbEntity
  8
部品1
100
AcDbLine
 10
5822.4731370557
 20
10132.0216933994
 30
0.0
 11
5822.473137055673
 21
7612.021693399373
 31
0.0
  0
LINE
  5
1A600
330
747D
100
AcDbEntity
  8
寸法
 48
50.0
100
AcDbLine
 10
5822.363437165186
 20
10579.29412436544
 30
0.0
 11
5822.363437165186
 21
10718.44525197339
 31
0.0
  0
LINE
  5
1A601
330
747D
100
AcDbEntity
  8
部品1
100
AcDbLine
 10
4452.47313705568
 20
10187.02169339948
 30
0.0
 11
7192.473137055715
 21
10187.02169339953
 31
0.0
  0
LINE
  5
1A602
330
747D
100
AcDbEntity
  8
Ｇ．Ｌ
100
AcDbLine
 10
3364.206534385225
 20
2437.931598713261
 30
0.0
 11
13325.76382658096
 21
2437.931598713261
 31
0.0
  0
LINE
  5
1A603
330
747D
100
AcDbEntity
  8
部品1
100
AcDbLine
 10
4452.473137055707
 20
2537.931598713262
 30
0.0
 11
7192.473137055706
 21
2537.931598713262
 31
0.0
  0
LINE
  5
1A604
330
747D
100
AcDbEntity
  8
部品1
100
AcDbLine
 10
5435.036188732933
 20
4212.931598713261
 30
0.0
 11
5767.473137055707
 21
4212.931598713261
 31
0.0
  0
LINE
  5
1A605
330
747D
100
AcDbEntity
  8
部品1
100
AcDbLine
 10
4480.473137055684
 20
9292.021693399394
 30
0.0
 11
4452.473137055683
 21
9292.021693399394
 31
0.0
  0
LINE
  5
1A606
330
747D
100
AcDbEntity
  8
部品1
100
AcDbLine
 10
4480.47313705568
 20
9712.021693399394
 30
0.0
 11
4452.47313705568
 21
9712.021693399394
 31
0.0
  0
LINE
  5
1A607
330
747D
100
AcDbEntity
  8
部品1
100
AcDbLine
 10
7164.473137055709
 20
9292.021693399524
 30
0.0
 11
7192.47313705571
 21
9292.021693399524
 31
0.0
  0
LINE
  5
1A608
330
747D
100
AcDbEntity
  8
部品1
100
AcDbLine
 10
7164.473137055705
 20
9712.021693399526
 30
0.0
 11
7192.473137055706
 21
9712.021693399526
 31
0.0
  0
DIMENSION
  5
1A609
330
747D
100
AcDbEntity
  8
寸法
 48
50.0
100
AcDbDimension
  2
*D14
 10
4555.473137055707
 20
7022.590922633266
 30
0.0
 11
5137.473137055699
 21
7222.590922633266
 31
0.0
 70
    32
  1
有効開口部間口\P <>
 71
     5
 42
1163.999999999981
  3
INABA_S40G
100
AcDbAlignedDimension
 13
5719.47313705569
 23
7583.02169339943
 33
0.0
 14
4555.473137055707
 24
7583.02169339943
 34
0.0
100
AcDbRotatedDimension
1001
ACAD
1000
DSTYLE
1002
{
1070
    75
1070
     1
1070
   279
1070
     2
1002
}
  0
LINE
  5
1A60A
330
747D
100
AcDbEntity
  8
部品1
 48
50.0
100
AcDbLine
 10
4519.473137055705
 20
7602.521693399431
 30
0.0
 11
5755.473137055691
 21
7602.521693399431
 31
0.0
  0
LINE
  5
1A60B
330
747D
100
AcDbEntity
  8
部品1
100
AcDbLine
 10
4927.473137055713
 20
10187.02169339955
 30
0.0
 11
4927.473137055713
 21
10159.02169339955
 31
0.0
  0
LINE
  5
1A60C
330
747D
100
AcDbEntity
  8
部品1
100
AcDbLine
 10
4927.473137055713
 20
10187.02169339943
 30
0.0
 11
4927.473137055713
 21
10159.02169339943
 31
0.0
  0
LINE
  5
1A60D
330
747D
100
AcDbEntity
  8
部品1
100
AcDbLine
 10
4927.473137055713
 20
10187.02169339943
 30
0.0
 11
4927.473137055713
 21
10159.02169339943
 31
0.0
  0
LINE
  5
1A60E
330
747D
100
AcDbEntity
  8
部品1
100
AcDbLine
 10
4927.473137055713
 20
10187.02169339955
 30
0.0
 11
4927.473137055713
 21
10159.02169339955
 31
0.0
  0
LINE
  5
1A60F
330
747D
100
AcDbEntity
  8
部品1
100
AcDbLine
 10
4927.473137055713
 20
10187.02169339943
 30
0.0
 11
4927.473137055713
 21
10159.02169339943
 31
0.0
  0
LINE
  5
1A610
330
747D
100
AcDbEntity
  8
部品1
100
AcDbLine
 10
4927.473137055713
 20
10187.02169339943
 30
0.0
 11
4927.473137055713
 21
10159.02169339943
 31
0.0
  0
LINE
  5
1A611
330
747D
100
AcDbEntity
  8
部品1
100
AcDbLine
 10
5347.473137055713
 20
10187.02169339955
 30
0.0
 11
5347.473137055713
 21
10159.02169339955
 31
0.0
  0
LINE
  5
1A612
330
747D
100
AcDbEntity
  8
部品1
 48
50.0
100
AcDbLine
 10
5742.473137055684
 20
10107.02169339936
 30
0.0
 11
4532.473137055684
 21
10107.02169339935
 31
0.0
  0
DIMENSION
  5
1A613
330
747D
100
AcDbEntity
  8
寸法
100
AcDbDimension
  2
*D15
 10
5767.473137055715
 20
10402.82991302453
 30
0.0
 11
5137.473137055715
 21
10502.84172404815
 31
0.0
 70
    32
  1
3X420=<>
 71
     5
 42
1260.000000000001
  3
INABA_S40G
100
AcDbAlignedDimension
 13
4507.473137055714
 23
10187.02169339943
 33
0.0
 14
5767.473137055715
 24
10187.02169339953
 34
0.0
100
AcDbRotatedDimension
1001
ACAD
1000
DSTYLE
1002
{
1002
}
  0
DIMENSION
  5
1A614
330
747D
100
AcDbEntity
  8
寸法
 48
50.0
100
AcDbDimension
  2
*D16
 10
5822.473137055715
 20
10652.15138658082
 30
0.0
 11
5137.473137055696
 21
10752.15138658082
 31
0.0
 70
    32
 71
     5
 42
1370.000000000035
  3
INABA_S40G
100
AcDbAlignedDimension
 13
4452.473137055679
 23
10187.0216933994
 33
0.0
 14
5822.473137055715
 24
10561.81782738248
 34
0.0
100
AcDbRotatedDimension
1001
ACAD
1000
DSTYLE
1002
{
1070
   279
1070
     2
1002
}
  0
LINE
  5
1A615
330
747D
100
AcDbEntity
  8
部品1
100
AcDbLine
 10
4452.473137055706
 20
4212.931598713261
 30
0.0
 11
5877.473137055708
 21
4212.931598713261
 31
0.0
  0
LINE
  5
1A616
330
747D
100
AcDbEntity
  8
細線
100
AcDbLine
 10
4555.473137055703
 20
3067.931598713262
 30
0.0
 11
5719.473137055706
 21
3067.931598713262
 31
0.0
  0
LINE
  5
1A617
330
747D
100
AcDbEntity
  8
細線
100
AcDbLine
 10
4555.473137055703
 20
3002.931598713261
 30
0.0
 11
5719.473137055706
 21
3002.931598713261
 31
0.0
  0
LINE
  5
1A618
330
747D
100
AcDbEntity
  8
細線
100
AcDbLine
 10
4555.473137055703
 20
2937.931598713261
 30
0.0
 11
5719.473137055706
 21
2937.931598713261
 31
0.0
  0
LINE
  5
1A619
330
747D
100
AcDbEntity
  8
細線
100
AcDbLine
 10
4555.473137055703
 20
2872.931598713261
 30
0.0
 11
5719.473137055706
 21
2872.931598713261
 31
0.0
  0
LINE
  5
1A61A
330
747D
100
AcDbEntity
  8
細線
100
AcDbLine
 10
4555.473137055703
 20
2807.931598713262
 30
0.0
 11
5719.473137055706
 21
2807.931598713262
 31
0.0
  0
LINE
  5
1A61B
330
747D
100
AcDbEntity
  8
細線
100
AcDbLine
 10
4555.473137055703
 20
2742.931598713262
 30
0.0
 11
5719.473137055706
 21
2742.931598713262
 31
0.0
  0
LINE
  5
1A61C
330
747D
100
AcDbEntity
  8
細線
100
AcDbLine
 10
4555.473137055703
 20
2677.931598713261
 30
0.0
 11
5719.473137055706
 21
2677.931598713261
 31
0.0
  0
LINE
  5
1A61D
330
747D
100
AcDbEntity
  8
細線
100
AcDbLine
 10
4555.473137055703
 20
2612.931598713262
 30
0.0
 11
5719.473137055706
 21
2612.931598713262
 31
0.0
  0
LINE
  5
1A61E
330
747D
100
AcDbEntity
  8
細線
100
AcDbLine
 10
4555.473137055703
 20
3717.931598713261
 30
0.0
 11
5719.473137055706
 21
3717.931598713261
 31
0.0
  0
LINE
  5
1A61F
330
747D
100
AcDbEntity
  8
細線
100
AcDbLine
 10
4555.473137055703
 20
3652.931598713261
 30
0.0
 11
5719.473137055706
 21
3652.931598713261
 31
0.0
  0
LINE
  5
1A620
330
747D
100
AcDbEntity
  8
細線
100
AcDbLine
 10
4555.473137055703
 20
3587.931598713261
 30
0.0
 11
5719.473137055706
 21
3587.931598713261
 31
0.0
  0
LINE
  5
1A621
330
747D
100
AcDbEntity
  8
細線
100
AcDbLine
 10
4555.473137055703
 20
3522.931598713262
 30
0.0
 11
5719.473137055706
 21
3522.931598713262
 31
0.0
  0
LINE
  5
1A622
330
747D
100
AcDbEntity
  8
細線
100
AcDbLine
 10
4555.473137055703
 20
3457.931598713262
 30
0.0
 11
5719.473137055706
 21
3457.931598713262
 31
0.0
  0
LINE
  5
1A623
330
747D
100
AcDbEntity
  8
細線
100
AcDbLine
 10
4555.473137055703
 20
3392.931598713261
 30
0.0
 11
5719.473137055706
 21
3392.931598713261
 31
0.0
  0
LINE
  5
1A624
330
747D
100
AcDbEntity
  8
細線
100
AcDbLine
 10
4555.473137055703
 20
3327.931598713262
 30
0.0
 11
5719.473137055706
 21
3327.931598713262
 31
0.0
  0
LINE
  5
1A625
330
747D
100
AcDbEntity
  8
細線
100
AcDbLine
 10
4555.473137055703
 20
3262.931598713262
 30
0.0
 11
5719.473137055706
 21
3262.931598713262
 31
0.0
  0
LINE
  5
1A626
330
747D
100
AcDbEntity
  8
細線
100
AcDbLine
 10
4555.473137055703
 20
3197.931598713262
 30
0.0
 11
5719.473137055706
 21
3197.931598713262
 31
0.0
  0
LINE
  5
1A627
330
747D
100
AcDbEntity
  8
細線
100
AcDbLine
 10
4555.473137055703
 20
3132.931598713261
 30
0.0
 11
5719.473137055706
 21
3132.931598713261
 31
0.0
  0
LINE
  5
1A628
330
747D
100
AcDbEntity
  8
細線
100
AcDbLine
 10
4555.473137055703
 20
4107.931598713261
 30
0.0
 11
5719.473137055706
 21
4107.931598713261
 31
0.0
  0
LINE
  5
1A629
330
747D
100
AcDbEntity
  8
細線
100
AcDbLine
 10
4555.473137055703
 20
4042.931598713261
 30
0.0
 11
5719.473137055706
 21
4042.931598713261
 31
0.0
  0
LINE
  5
1A62A
330
747D
100
AcDbEntity
  8
細線
100
AcDbLine
 10
4555.473137055703
 20
3977.931598713261
 30
0.0
 11
5719.473137055706
 21
3977.931598713261
 31
0.0
  0
LINE
  5
1A62B
330
747D
100
AcDbEntity
  8
細線
100
AcDbLine
 10
4555.473137055703
 20
3912.931598713262
 30
0.0
 11
5719.473137055706
 21
3912.931598713262
 31
0.0
  0
LINE
  5
1A62C
330
747D
100
AcDbEntity
  8
細線
100
AcDbLine
 10
4555.473137055703
 20
3847.931598713262
 30
0.0
 11
5719.473137055706
 21
3847.931598713262
 31
0.0
  0
LINE
  5
1A62D
330
747D
100
AcDbEntity
  8
細線
100
AcDbLine
 10
4555.473137055703
 20
3782.931598713262
 30
0.0
 11
5719.473137055706
 21
3782.931598713262
 31
0.0
  0
LINE
  5
1A62E
330
747D
100
AcDbEntity
  8
細線
100
AcDbLine
 10
4555.473137055703
 20
4172.931598713261
 30
0.0
 11
5719.473137055706
 21
4172.931598713261
 31
0.0
  0
LINE
  5
1A62F
330
747D
100
AcDbEntity
  8
細線
100
AcDbLine
 10
5719.473137055707
 20
2547.931598713262
 30
0.0
 11
4555.473137055702
 21
2547.931598713262
 31
0.0
  0
LINE
  5
1A630
330
747D
100
AcDbEntity
  8
部品1
 48
50.0
100
AcDbLine
 10
4507.473137055684
 20
10132.02169339945
 30
0.0
 11
4480.4731370557
 21
10159.02169339955
 31
0.0
  0
LINE
  5
1A631
330
747D
100
AcDbEntity
  8
部品1
 48
50.0
100
AcDbLine
 10
7164.473137055715
 20
10159.02169339953
 30
0.0
 11
7137.47313705571
 21
10132.02169339945
 31
0.0
  0
LINE
  5
1A632
330
747D
100
AcDbEntity
  8
部品1
 48
50.0
100
AcDbLine
 10
7112.473137055714
 20
10107.02169339941
 30
0.0
 11
5902.473137055667
 21
10107.02169339938
 31
0.0
  0
LINE
  5
1A633
330
747D
100
AcDbEntity
  8
部品1
 48
50.0
100
AcDbLine
 10
5794.473137055682
 20
10132.02169339945
 30
0.0
 11
5794.473137055682
 21
10159.02169339947
 31
0.0
  0
LINE
  5
1A634
330
747D
100
AcDbEntity
  8
部品1
 48
50.0
100
AcDbLine
 10
5850.473137055682
 20
10132.02169339945
 30
0.0
 11
5850.473137055747
 21
10187.02169339948
 31
0.0
  0
DIMENSION
  5
1A635
330
747D
100
AcDbEntity
  8
寸法
 48
50.0
100
AcDbDimension
  2
*D17
 10
7192.473137055715
 20
10652.15138658082
 30
0.0
 11
6507.473137055715
 21
10752.15138658082
 31
0.0
 70
    32
 71
     5
 42
1370.0
  3
INABA_S40G
100
AcDbAlignedDimension
 13
5822.473137055715
 23
10561.81782738248
 33
0.0
 14
7192.473137055715
 24
10187.02169339953
 34
0.0
100
AcDbRotatedDimension
1001
ACAD
1000
DSTYLE
1002
{
1070
    75
1070
     1
1070
   279
1070
     2
1002
}
  0
LINE
  5
1A636
330
747D
100
AcDbEntity
  8
部品1
 48
50.0
100
AcDbLine
 10
5846.473137055698
 20
7612.021693399427
 30
0.0
 11
5846.473137055702
 21
7557.021693399427
 31
0.0
  0
LINE
  5
1A637
330
747D
100
AcDbEntity
  8
部品1
 48
50.0
100
AcDbLine
 10
5798.473137055698
 20
7612.021693399427
 30
0.0
 11
5798.473137055702
 21
7557.021693399427
 31
0.0
  0
LINE
  5
1A638
330
747D
100
AcDbEntity
  8
部品1
100
AcDbLine
 10
5846.473137055698
 20
7612.021693399427
 30
0.0
 11
5798.473137055698
 21
7612.021693399423
 31
0.0
  0
LINE
  5
1A639
330
747D
100
AcDbEntity
  8
部品1
 48
50.0
100
AcDbLine
 10
4480.473137055774
 20
10159.02169339947
 30
0.0
 11
5822.473137055681
 21
10159.02169339948
 31
0.0
  0
LINE
  5
1A63A
330
747D
100
AcDbEntity
  8
部品1
 48
50.0
100
AcDbLine
 10
5794.473137055682
 20
10159.02169339958
 30
0.0
 11
5794.47313705568
 21
10187.02169339953
 31
0.0
  0
LINE
  5
1A63B
330
747D
100
AcDbEntity
  8
部品1
100
AcDbLine
 10
7137.47313705571
 20
10132.02169339945
 30
0.0
 11
5877.473137055694
 21
10132.02169339945
 31
0.0
  0
LINE
  5
1A63C
330
747D
100
AcDbEntity
  8
部品1
 48
50.0
100
AcDbLine
 10
5822.473137055681
 20
10159.02169339947
 30
0.0
 11
5794.473137055682
 21
10187.02169339953
 31
0.0
  0
DIMENSION
  5
1A63D
330
747D
100
AcDbEntity
  8
寸法
 48
50.0
100
AcDbDimension
  2
*D18
 10
5767.473137055715
 20
10402.82991302453
 30
0.0
 11
5822.473137055715
 21
10502.82991302453
 31
0.0
 70
    32
 71
     5
 42
109.9999999999991
  3
INABA_S40G
100
AcDbAlignedDimension
 13
5877.473137055714
 23
10187.02169339948
 33
0.0
 14
5767.473137055715
 24
10187.02169339948
 34
0.0
100
AcDbRotatedDimension
1001
ACAD
1000
DSTYLE
1002
{
1070
   279
1070
     2
1002
}
  0
LINE
  5
1A63E
330
747D
100
AcDbEntity
  8
部品1
100
AcDbLine
 10
5767.473137055715
 20
10187.02169339953
 30
0.0
 11
5767.473137055715
 21
10159.02169339953
 31
0.0
  0
LINE
  5
1A63F
330
747D
100
AcDbEntity
  8
部品1
100
AcDbLine
 10
5877.473137055712
 20
10187.02169339943
 30
0.0
 11
5877.473137055712
 21
10159.02169339943
 31
0.0
  0
LINE
  5
1A640
330
747D
100
AcDbEntity
  8
部品1
 48
50.0
100
AcDbLine
 10
5767.473137055695
 20
7622.021693399517
 30
0.0
 11
5767.473137055691
 21
7557.021693399518
 31
0.0
  0
LINE
  5
1A641
330
747D
100
AcDbEntity
  8
部品1
100
AcDbLine
 10
5877.473137055702
 20
7557.02169339943
 30
0.0
 11
5767.473137055692
 21
7557.021693399423
 31
0.0
  0
LINE
  5
1A642
330
747D
100
AcDbEntity
  8
部品1
 48
50.0
100
AcDbLine
 10
5925.473137055707
 20
7583.02169339943
 30
0.0
 11
5925.473137055707
 21
7592.021693399431
 31
0.0
  0
LINE
  5
1A643
330
747D
100
AcDbEntity
  8
部品1
 48
50.0
100
AcDbLine
 10
5877.473137055708
 20
7622.021693399431
 30
0.0
 11
5877.473137055704
 21
7557.02169339943
 31
0.0
  0
LINE
  5
1A644
330
747D
100
AcDbEntity
  8
部品1
100
AcDbLine
 10
5877.473137055705
 20
7593.02169339943
 30
0.0
 11
5854.473137055707
 21
7593.02169339943
 31
0.0
  0
LINE
  5
1A645
330
747D
100
AcDbEntity
  8
部品1
 48
50.0
100
AcDbLine
 10
5887.473137055707
 20
7583.02169339943
 30
0.0
 11
5877.473137055708
 21
7562.021693399431
 31
0.0
  0
LINE
  5
1A646
330
747D
100
AcDbEntity
  8
部品1
100
AcDbLine
 10
5925.473137055707
 20
7583.02169339943
 30
0.0
 11
5877.473137055708
 21
7583.02169339943
 31
0.0
  0
LINE
  5
1A647
330
747D
100
AcDbEntity
  8
部品1
 48
50.0
100
AcDbLine
 10
5925.473137055707
 20
7622.021693399431
 30
0.0
 11
5925.473137055707
 21
7613.021693399431
 31
0.0
  0
LINE
  5
1A648
330
747D
100
AcDbEntity
  8
部品1
100
AcDbLine
 10
5925.473137055707
 20
7622.021693399431
 30
0.0
 11
5877.473137055708
 21
7622.021693399431
 31
0.0
  0
LINE
  5
1A649
330
747D
100
AcDbEntity
  8
部品1
100
AcDbLine
 10
5767.473137055689
 20
7593.021693399427
 30
0.0
 11
5790.473137055689
 21
7593.02169339943
 31
0.0
  0
LINE
  5
1A64A
330
747D
100
AcDbEntity
  8
部品1
 48
50.0
100
AcDbLine
 10
5757.473137055689
 20
7583.02169339943
 30
0.0
 11
5767.473137055689
 21
7562.021693399431
 31
0.0
  0
LINE
  5
1A64B
330
747D
100
AcDbEntity
  8
部品1
 48
50.0
100
AcDbLine
 10
5719.47313705569
 20
7583.02169339943
 30
0.0
 11
5719.47313705569
 21
7592.021693399431
 31
0.0
  0
LINE
  5
1A64C
330
747D
100
AcDbEntity
  8
部品1
100
AcDbLine
 10
5719.47313705569
 20
7583.02169339943
 30
0.0
 11
5767.473137055689
 21
7583.02169339943
 31
0.0
  0
LINE
  5
1A64D
330
747D
100
AcDbEntity
  8
部品1
 48
50.0
100
AcDbLine
 10
5719.47313705569
 20
7622.021693399431
 30
0.0
 11
5719.47313705569
 21
7613.021693399431
 31
0.0
  0
LINE
  5
1A64E
330
747D
100
AcDbEntity
  8
部品1
100
AcDbLine
 10
5719.47313705569
 20
7622.021693399431
 30
0.0
 11
5767.473137055691
 21
7622.021693399431
 31
0.0
  0
DIMENSION
  5
1A64F
330
747D
100
AcDbEntity
  8
寸法
 48
50.0
100
AcDbDimension
  2
*D19
 10
5767.473137055691
 20
7022.590922633266
 30
0.0
 11
5822.473137055697
 21
6870.899027597035
 31
0.0
 70
   160
 71
     5
 42
110.0000000000127
  3
INABA_S40G
100
AcDbAlignedDimension
 13
5877.473137055704
 23
7557.02169339943
 33
0.0
 14
5767.473137055691
 24
7557.021693399518
 34
0.0
100
AcDbRotatedDimension
1001
ACAD
1000
DSTYLE
1002
{
1070
   279
1070
     2
1002
}
  0
DIMENSION
  5
1A650
330
747D
100
AcDbEntity
  8
寸法
 48
50.0
100
AcDbDimension
  2
*D20
 10
4507.473137055703
 20
7022.590922633266
 30
0.0
 11
4668.375108055765
 21
7122.590922633266
 31
0.0
 70
   160
 71
     5
 42
48.00000000000363
  3
INABA_S40G
100
AcDbAlignedDimension
 13
4555.473137055707
 23
7583.02169339943
 33
0.0
 14
4507.473137055703
 24
7557.02169339943
 34
0.0
100
AcDbRotatedDimension
1001
ACAD
1000
DSTYLE
1002
{
1070
   279
1070
     2
1002
}
  0
DIMENSION
  5
1A651
330
747D
100
AcDbEntity
  8
寸法
 48
50.0
100
AcDbDimension
  2
*D21
 10
5719.47313705569
 20
7022.590922633266
 30
0.0
 11
5608.510239406942
 21
7122.590922633266
 31
0.0
 70
   160
 71
     5
 42
48.00000000000181
  3
INABA_S40G
100
AcDbAlignedDimension
 13
5767.473137055691
 23
7557.021693399518
 33
0.0
 14
5719.47313705569
 24
7583.02169339943
 34
0.0
100
AcDbRotatedDimension
1001
ACAD
1000
DSTYLE
1002
{
1070
   279
1070
     2
1002
}
  0
LINE
  5
1A652
330
747D
100
AcDbEntity
  8
部品1
100
AcDbLine
 10
5877.473137055708
 20
4212.931598713261
 30
0.0
 11
7192.473137055706
 21
4212.931598713261
 31
0.0
  0
LINE
  5
1A653
330
747D
100
AcDbEntity
  8
部品1
100
AcDbLine
 10
5877.473137055706
 20
4212.93159871326
 30
0.0
 11
5877.473137055708
 21
2537.931598713262
 31
0.0
  0
LINE
  5
1A654
330
747D
100
AcDbEntity
  8
破線
 48
5.0
100
AcDbLine
 10
5877.473137055708
 20
2537.931598713262
 30
0.0
 11
5877.473137055705
 21
2262.931598713262
 31
0.0
  0
LINE
  5
1A655
330
747D
100
AcDbEntity
  8
破線
 48
5.0
100
AcDbLine
 10
5925.473137055706
 20
2287.931598713265
 30
0.0
 11
5877.473137055705
 21
2287.931598713265
 31
0.0
  0
LINE
  5
1A656
330
747D
100
AcDbEntity
  8
破線
 48
5.0
100
AcDbLine
 10
5925.473137055707
 20
2537.931598713262
 30
0.0
 11
5925.473137055704
 21
2287.931598713265
 31
0.0
  0
LINE
  5
1A657
330
747D
100
AcDbEntity
  8
部品1
100
AcDbLine
 10
5925.473137055707
 20
4212.931598713261
 30
0.0
 11
5925.473137055707
 21
2537.931598713262
 31
0.0
  0
LINE
  5
1A658
330
747D
100
AcDbEntity
  8
破線
 48
5.0
100
AcDbLine
 10
5877.473137055705
 20
2262.931598713262
 30
0.0
 11
5767.473137055707
 21
2262.931598713262
 31
0.0
  0
LINE
  5
1A659
330
747D
100
AcDbEntity
  8
破線
 48
5.0
100
AcDbLine
 10
5767.473137055706
 20
2537.931598713262
 30
0.0
 11
5767.473137055707
 21
2262.931598713262
 31
0.0
  0
LINE
  5
1A65A
330
747D
100
AcDbEntity
  8
破線
 48
5.0
100
AcDbLine
 10
5767.473137055709
 20
2287.931598713262
 30
0.0
 11
5719.473137055707
 21
2287.931598713262
 31
0.0
  0
LINE
  5
1A65B
330
747D
100
AcDbEntity
  8
破線
 48
5.0
100
AcDbLine
 10
5719.473137055706
 20
2537.931598713262
 30
0.0
 11
5719.473137055707
 21
2287.931598713262
 31
0.0
  0
LINE
  5
1A65C
330
747D
100
AcDbEntity
  8
部品1
100
AcDbLine
 10
5767.473137055707
 20
4212.93159871326
 30
0.0
 11
5767.473137055706
 21
2537.931598713262
 31
0.0
  0
LINE
  5
1A65D
330
747D
100
AcDbEntity
  8
部品1
100
AcDbLine
 10
5719.473137055709
 20
4212.931598713261
 30
0.0
 11
5719.473137055706
 21
2537.931598713262
 31
0.0
  0
LINE
  5
1A65E
330
747D
100
AcDbEntity
  8
部品1
100
AcDbLine
 10
7164.473137055715
 20
10132.02169339953
 30
0.0
 11
7192.473137055715
 21
10132.02169339953
 31
0.0
  0
LINE
  5
1A65F
330
747D
100
AcDbEntity
  8
部品1
100
AcDbLine
 10
7137.473137055714
 20
10187.02169339955
 30
0.0
 11
7137.473137055714
 21
10159.02169339955
 31
0.0
  0
LINE
  5
1A660
330
747D
100
AcDbEntity
  8
部品1
100
AcDbLine
 10
7137.473137055714
 20
10187.02169339953
 30
0.0
 11
7137.473137055714
 21
10159.02169339953
 31
0.0
  0
LINE
  5
1A661
330
747D
100
AcDbEntity
  8
部品1
100
AcDbLine
 10
6717.473137055712
 20
10187.02169339955
 30
0.0
 11
6717.473137055712
 21
10159.02169339955
 31
0.0
  0
DIMENSION
  5
1A662
330
747D
100
AcDbEntity
  8
寸法
100
AcDbDimension
  2
*D22
 10
7192.473137055715
 20
10402.82991302451
 30
0.0
 11
7500.958418429952
 21
10402.82991302451
 31
0.0
 70
   160
 71
     5
 42
55.0
  3
INABA_S40G
100
AcDbAlignedDimension
 13
7137.473137055714
 23
10187.02169339953
 33
0.0
 14
7192.473137055715
 24
10187.02169339953
 34
0.0
100
AcDbRotatedDimension
1001
ACAD
1000
DSTYLE
1002
{
1002
}
  0
LINE
  5
1A663
330
747D
100
AcDbEntity
  8
部品1
100
AcDbLine
 10
6297.473137055713
 20
10187.02169339955
 30
0.0
 11
6297.473137055713
 21
10159.02169339955
 31
0.0
  0
LINE
  5
1A664
330
747D
100
AcDbEntity
  8
部品1
100
AcDbLine
 10
6297.473137055715
 20
10159.02169339955
 30
0.0
 11
7164.473137055715
 21
10159.02169339953
 31
0.0
  0
LINE
  5
1A665
330
747D
100
AcDbEntity
  8
部品1
100
AcDbLine
 10
4480.47313705568
 20
10132.0216933994
 30
0.0
 11
4452.47313705568
 21
10132.0216933994
 31
0.0
  0
LINE
  5
1A666
330
747D
100
AcDbEntity
  8
部品1
100
AcDbLine
 10
4507.473137055713
 20
10187.02169339943
 30
0.0
 11
4507.473137055713
 21
10159.02169339943
 31
0.0
  0
LINE
  5
1A667
330
747D
100
AcDbEntity
  8
部品1
100
AcDbLine
 10
4507.47313705568
 20
10187.0216933994
 30
0.0
 11
4507.47313705568
 21
10159.0216933994
 31
0.0
  0
DIMENSION
  5
1A668
330
747D
100
AcDbEntity
  8
寸法
100
AcDbDimension
  2
*D23
 10
4507.473137055714
 20
10402.82991302441
 30
0.0
 11
4143.98785568144
 21
10402.82991302441
 31
0.0
 70
   160
 71
     5
 42
55.00000000003456
  3
INABA_S40G
100
AcDbAlignedDimension
 13
4452.473137055679
 23
10187.02169339943
 33
0.0
 14
4507.473137055714
 24
10187.02169339943
 34
0.0
100
AcDbRotatedDimension
1001
ACAD
1000
DSTYLE
1002
{
1002
}
  0
DIMENSION
  5
1A669
330
747D
100
AcDbEntity
  8
寸法
100
AcDbDimension
  2
*D24
 10
7137.473137055714
 20
10402.82991302453
 30
0.0
 11
6507.473137055715
 21
10502.84172404815
 31
0.0
 70
    32
  1
3X420=<>
 71
     5
 42
1260.000000000001
  3
INABA_S40G
100
AcDbAlignedDimension
 13
5877.473137055714
 23
10187.02169339943
 33
0.0
 14
7137.473137055714
 24
10187.02169339953
 34
0.0
100
AcDbRotatedDimension
1001
ACAD
1000
DSTYLE
1002
{
1002
}
  0
LINE
  5
1A66A
330
747D
100
AcDbEntity
  8
部品1
100
AcDbLine
 10
5850.473137055713
 20
10159.02169339943
 30
0.0
 11
6087.473137055713
 21
10159.02169339944
 31
0.0
  0
LINE
  5
1A66B
330
747D
100
AcDbEntity
  8
部品1
100
AcDbLine
 10
5877.473137055712
 20
10159.02169339955
 30
0.0
 11
6297.473137055713
 21
10159.02169339955
 31
0.0
  0
LINE
  5
1A66C
330
747D
100
AcDbEntity
  8
部品1
100
AcDbLine
 10
7164.473137055715
 20
8872.021693399533
 30
0.0
 11
7192.473137055715
 21
8872.021693399533
 31
0.0
  0
LINE
  5
1A66D
330
747D
100
AcDbEntity
  8
部品1
100
AcDbLine
 10
7164.473137055718
 20
8452.021693399533
 30
0.0
 11
7192.473137055718
 21
8452.021693399533
 31
0.0
  0
LINE
  5
1A66E
330
747D
100
AcDbEntity
  8
部品1
100
AcDbLine
 10
7164.473137055718
 20
8032.021693399533
 30
0.0
 11
7192.473137055718
 21
8032.021693399533
 31
0.0
  0
LINE
  5
1A66F
330
747D
100
AcDbEntity
  8
部品1
100
AcDbLine
 10
7192.47313705569
 20
7557.021693399521
 30
0.0
 11
7137.473137055692
 21
7557.021693399518
 31
0.0
  0
LINE
  5
1A670
330
747D
100
AcDbEntity
  8
部品1
100
AcDbLine
 10
7137.473137055689
 20
7612.021693399532
 30
0.0
 11
7192.473137055722
 21
7612.021693399532
 31
0.0
  0
LINE
  5
1A671
330
747D
100
AcDbEntity
  8
部品1
100
AcDbLine
 10
7137.473137055689
 20
7593.021693399427
 30
0.0
 11
7160.473137055689
 21
7593.02169339943
 31
0.0
  0
LINE
  5
1A672
330
747D
100
AcDbEntity
  8
部品1
 48
50.0
100
AcDbLine
 10
7089.47313705569
 20
7583.02169339943
 30
0.0
 11
7089.47313705569
 21
7592.021693399431
 31
0.0
  0
LINE
  5
1A673
330
747D
100
AcDbEntity
  8
部品1
 48
50.0
100
AcDbLine
 10
7089.47313705569
 20
7622.021693399431
 30
0.0
 11
7089.47313705569
 21
7613.021693399431
 31
0.0
  0
LINE
  5
1A674
330
747D
100
AcDbEntity
  8
部品1
100
AcDbLine
 10
7089.47313705569
 20
7583.02169339943
 30
0.0
 11
7137.473137055689
 21
7583.02169339943
 31
0.0
  0
LINE
  5
1A675
330
747D
100
AcDbEntity
  8
部品1
100
AcDbLine
 10
7089.47313705569
 20
7622.021693399431
 30
0.0
 11
7137.473137055692
 21
7622.021693399431
 31
0.0
  0
LINE
  5
1A676
330
747D
100
AcDbEntity
  8
部品1
 48
50.0
100
AcDbLine
 10
7127.473137055689
 20
7583.02169339943
 30
0.0
 11
7137.473137055689
 21
7562.021693399431
 31
0.0
  0
DIMENSION
  5
1A677
330
747D
100
AcDbEntity
  8
寸法
 48
50.0
100
AcDbDimension
  2
*D25
 10
7137.473137055692
 20
7022.590922633266
 30
0.0
 11
7500.958418429927
 21
7022.590922633266
 31
0.0
 70
   160
 71
     5
 42
54.99999999999818
  3
INABA_S40G
100
AcDbAlignedDimension
 13
7192.47313705569
 23
7557.021693399521
 33
0.0
 14
7137.473137055692
 24
7557.021693399518
 34
0.0
100
AcDbRotatedDimension
1001
ACAD
1000
DSTYLE
1002
{
1002
}
  0
DIMENSION
  5
1A678
330
747D
100
AcDbEntity
  8
寸法
 48
50.0
100
AcDbDimension
  2
*D26
 10
7089.47313705569
 20
7022.590922633266
 30
0.0
 11
6978.510239406943
 21
7122.590922633266
 31
0.0
 70
   160
 71
     5
 42
48.00000000000181
  3
INABA_S40G
100
AcDbAlignedDimension
 13
7137.473137055692
 23
7557.021693399518
 33
0.0
 14
7089.47313705569
 24
7583.02169339943
 34
0.0
100
AcDbRotatedDimension
1001
ACAD
1000
DSTYLE
1002
{
1070
   279
1070
     2
1002
}
  0
LINE
  5
1A679
330
747D
100
AcDbEntity
  8
部品1
100
AcDbLine
 10
7112.473137055714
 20
10132.02169339945
 30
0.0
 11
7112.473137055691
 21
7622.021693399431
 31
0.0
  0
LINE
  5
1A67A
330
747D
100
AcDbEntity
  8
部品1
100
AcDbLine
 10
7137.473137055711
 20
10132.02169339945
 30
0.0
 11
7137.473137055692
 21
7557.021693399518
 31
0.0
  0
LINE
  5
1A67B
330
747D
100
AcDbEntity
  8
部品1
100
AcDbLine
 10
4480.473137055687
 20
8872.021693399405
 30
0.0
 11
4452.473137055687
 21
8872.021693399405
 31
0.0
  0
LINE
  5
1A67C
330
747D
100
AcDbEntity
  8
部品1
100
AcDbLine
 10
4480.473137055695
 20
8452.021693399405
 30
0.0
 11
4452.473137055695
 21
8452.021693399405
 31
0.0
  0
LINE
  5
1A67D
330
747D
100
AcDbEntity
  8
部品1
100
AcDbLine
 10
4480.473137055695
 20
8032.021693399405
 30
0.0
 11
4452.473137055695
 21
8032.021693399405
 31
0.0
  0
LINE
  5
1A67E
330
747D
100
AcDbEntity
  8
部品1
100
AcDbLine
 10
4480.473137055706
 20
7612.021693399405
 30
0.0
 11
4452.473137055705
 21
7612.021693399405
 31
0.0
  0
LINE
  5
1A67F
330
747D
100
AcDbEntity
  8
部品1
100
AcDbLine
 10
4480.473137055689
 20
7612.02169339939
 30
0.0
 11
4452.473137055705
 21
7612.02169339939
 31
0.0
  0
LINE
  5
1A680
330
747D
100
AcDbEntity
  8
部品1
100
AcDbLine
 10
4507.473137055705
 20
7612.021693399355
 30
0.0
 11
4452.473137055705
 21
7612.021693399355
 31
0.0
  0
LINE
  5
1A681
330
747D
100
AcDbEntity
  8
部品1
100
AcDbLine
 10
4507.473137055705
 20
7593.02169339943
 30
0.0
 11
4484.473137055707
 21
7593.02169339943
 31
0.0
  0
LINE
  5
1A682
330
747D
100
AcDbEntity
  8
部品1
100
AcDbLine
 10
4555.473137055707
 20
7583.02169339943
 30
0.0
 11
4507.473137055707
 21
7583.02169339943
 31
0.0
  0
LINE
  5
1A683
330
747D
100
AcDbEntity
  8
部品1
100
AcDbLine
 10
4555.473137055707
 20
7622.021693399431
 30
0.0
 11
4507.473137055707
 21
7622.021693399431
 31
0.0
  0
LINE
  5
1A684
330
747D
100
AcDbEntity
  8
部品1
 48
50.0
100
AcDbLine
 10
4555.473137055707
 20
7622.021693399431
 30
0.0
 11
4555.473137055707
 21
7613.021693399431
 31
0.0
  0
LINE
  5
1A685
330
747D
100
AcDbEntity
  8
部品1
 48
50.0
100
AcDbLine
 10
4555.473137055707
 20
7583.02169339943
 30
0.0
 11
4555.473137055707
 21
7592.021693399431
 31
0.0
  0
LINE
  5
1A686
330
747D
100
AcDbEntity
  8
部品1
 48
50.0
100
AcDbLine
 10
4507.473137055707
 20
7622.021693399431
 30
0.0
 11
4507.473137055703
 21
7557.02169339943
 31
0.0
  0
LINE
  5
1A687
330
747D
100
AcDbEntity
  8
部品1
 48
50.0
100
AcDbLine
 10
4517.473137055707
 20
7583.02169339943
 30
0.0
 11
4507.473137055707
 21
7562.021693399431
 31
0.0
  0
LINE
  5
1A688
330
747D
100
AcDbEntity
  8
部品1
 48
50.0
100
AcDbLine
 10
4507.473137055707
 20
7593.02169339943
 30
0.0
 11
4484.473137055707
 21
7593.02169339943
 31
0.0
  0
LINE
  5
1A689
330
747D
100
AcDbEntity
  8
部品1
100
AcDbLine
 10
4507.473137055701
 20
7557.02169339943
 30
0.0
 11
4452.473137055707
 21
7557.021693399427
 31
0.0
  0
DIMENSION
  5
1A68A
330
747D
100
AcDbEntity
  8
寸法
 48
50.0
100
AcDbDimension
  2
*D27
 10
5877.473137055704
 20
7022.590922633266
 30
0.0
 11
6038.375108055765
 21
7122.590922633266
 31
0.0
 70
   160
 71
     5
 42
48.00000000000363
  3
INABA_S40G
100
AcDbAlignedDimension
 13
5925.473137055707
 23
7583.02169339943
 33
0.0
 14
5877.473137055704
 24
7557.02169339943
 34
0.0
100
AcDbRotatedDimension
1001
ACAD
1000
DSTYLE
1002
{
1070
   279
1070
     2
1002
}
  0
DIMENSION
  5
1A68B
330
747D
100
AcDbEntity
  8
寸法
 48
50.0
100
AcDbDimension
  2
*D28
 10
4452.473137055707
 20
7022.590922633266
 30
0.0
 11
4143.987855681468
 21
7022.590922633266
 31
0.0
 70
   160
 71
     5
 42
54.99999999999636
  3
INABA_S40G
100
AcDbAlignedDimension
 13
4507.473137055703
 23
7557.02169339943
 33
0.0
 14
4452.473137055707
 24
7557.021693399427
 34
0.0
100
AcDbRotatedDimension
1001
ACAD
1000
DSTYLE
1002
{
1002
}
  0
LINE
  5
1A68C
330
747D
100
AcDbEntity
  8
部品1
100
AcDbLine
 10
4532.473137055685
 20
10132.02169339945
 30
0.0
 11
4532.473137055705
 21
7622.021693399431
 31
0.0
  0
LINE
  5
1A68D
330
747D
100
AcDbEntity
  8
部品1
100
AcDbLine
 10
4507.473137055684
 20
10132.02169339945
 30
0.0
 11
4507.473137055705
 21
7622.021693399431
 31
0.0
  0
DIMENSION
  5
1A68E
330
747D
100
AcDbEntity
  8
寸法
100
AcDbDimension
  2
*D29
 10
7192.473137055678
 20
6576.417927042392
 30
0.0
 11
5822.473137055693
 21
6676.429738066014
 31
0.0
 70
    32
 71
     5
 42
2739.999999999971
  3
INABA_S40G
100
AcDbAlignedDimension
 13
4452.473137055707
 23
7557.021693399427
 33
0.0
 14
7192.473137055678
 24
7557.021693399521
 34
0.0
100
AcDbRotatedDimension
1001
ACAD
1000
DSTYLE
1002
{
1002
}
  0
LINE
  5
1A68F
330
747D
100
AcDbEntity
  8
部品1
 48
50.0
100
AcDbLine
 10
5889.473137055706
 20
7602.521693399431
 30
0.0
 11
7125.473137055691
 21
7602.521693399431
 31
0.0
  0
DIMENSION
  5
1A690
330
747D
100
AcDbEntity
  8
寸法
 48
50.0
100
AcDbDimension
  2
*D30
 10
5925.473137055707
 20
7022.590922633266
 30
0.0
 11
6507.473137055699
 21
7222.590922633266
 31
0.0
 70
    32
  1
有効開口部間口\P <>
 71
     5
 42
1163.999999999981
  3
INABA_S40G
100
AcDbAlignedDimension
 13
7089.47313705569
 23
7583.02169339943
 33
0.0
 14
5925.473137055707
 24
7583.02169339943
 34
0.0
100
AcDbRotatedDimension
1001
ACAD
1000
DSTYLE
1002
{
1070
    75
1070
     1
1070
   279
1070
     2
1002
}
  0
LINE
  5
1A691
330
747D
100
AcDbEntity
  8
部品1
100
AcDbLine
 10
4452.47313705568
 20
10187.0216933994
 30
0.0
 11
4452.473137055707
 21
7557.021693399391
 31
0.0
  0
LINE
  5
1A692
330
747D
100
AcDbEntity
  8
部品1
100
AcDbLine
 10
7192.473137055715
 20
10187.02169339953
 30
0.0
 11
7192.47313705569
 21
7557.021693399521
 31
0.0
  0
LINE
  5
1A693
330
747D
100
AcDbEntity
  8
部品1
100
AcDbLine
 10
4480.473137055689
 20
7612.021693399388
 30
0.0
 11
4480.4731370557
 21
10159.02169339944
 31
0.0
  0
LINE
  5
1A694
330
747D
100
AcDbEntity
  8
部品1
100
AcDbLine
 10
7164.473137055698
 20
10159.02169339953
 30
0.0
 11
7164.473137055691
 21
7612.021693399518
 31
0.0
  0
DIMENSION
  5
1A695
330
747D
100
AcDbEntity
  8
寸法
100
AcDbDimension
  2
*D31
 10
8205.006424529761
 20
7557.021693399521
 30
0.0
 11
8104.994613506137
 21
8872.021693399528
 31
0.0
 70
    32
 71
     5
 42
2630.000000000007
  3
INABA_S40G
100
AcDbAlignedDimension
 13
7192.473137055715
 23
10187.02169339953
 33
0.0
 14
7192.47313705569
 24
7557.021693399521
 34
0.0
 50
90.0
100
AcDbRotatedDimension
1001
ACAD
1000
DSTYLE
1002
{
1002
}
  0
DIMENSION
  5
1A696
330
747D
100
AcDbEntity
  8
寸法
100
AcDbDimension
  2
*D32
 10
7839.899482790125
 20
10132.02169339953
 30
0.0
 11
7839.899482790125
 21
10495.50697477377
 31
0.0
 70
   160
 71
     5
 42
54.99999999999636
  3
INABA_S40G
100
AcDbAlignedDimension
 13
7192.473137055715
 23
10187.02169339953
 33
0.0
 14
7192.473137055715
 24
10132.02169339953
 34
0.0
 50
90.0
100
AcDbRotatedDimension
1001
ACAD
1000
DSTYLE
1002
{
1002
}
  0
DIMENSION
  5
1A697
330
747D
100
AcDbEntity
  8
寸法
100
AcDbDimension
  2
*D33
 10
7839.899482790101
 20
7557.021693399521
 30
0.0
 11
7839.899482790099
 21
7179.16022649466
 31
0.0
 70
   160
 71
     5
 42
54.99999999999636
  3
INABA_S40G
100
AcDbAlignedDimension
 13
7192.47313705569
 23
7612.021693399518
 33
0.0
 14
7192.47313705569
 24
7557.021693399521
 34
0.0
 50
90.0
100
AcDbRotatedDimension
1001
ACAD
1000
DSTYLE
1002
{
1002
}
  0
DIMENSION
  5
1A698
330
747D
100
AcDbEntity
  8
寸法
100
AcDbDimension
  2
*D34
 10
7839.89948279012
 20
7612.021693399518
 30
0.0
 11
7739.887671766497
 21
8872.021693399528
 31
0.0
 70
    32
  1
6X420=<>
 71
     5
 42
2520.000000000015
  3
INABA_S40G
100
AcDbAlignedDimension
 13
7192.473137055715
 23
10132.02169339953
 33
0.0
 14
7192.47313705569
 24
7612.021693399518
 34
0.0
 50
90.0
100
AcDbRotatedDimension
1001
ACAD
1000
DSTYLE
1002
{
1002
}
  0
LINE
  5
1A699
330
747D
100
AcDbEntity
  8
細線
100
AcDbLine
 10
7089.473137055708
 20
2547.931598713262
 30
0.0
 11
5925.473137055702
 21
2547.931598713262
 31
0.0
  0
LINE
  5
1A69A
330
747D
100
AcDbEntity
  8
細線
100
AcDbLine
 10
5925.473137055703
 20
3067.931598713262
 30
0.0
 11
7089.473137055705
 21
3067.931598713262
 31
0.0
  0
LINE
  5
1A69B
330
747D
100
AcDbEntity
  8
細線
100
AcDbLine
 10
5925.473137055703
 20
3002.931598713261
 30
0.0
 11
7089.473137055705
 21
3002.931598713261
 31
0.0
  0
LINE
  5
1A69C
330
747D
100
AcDbEntity
  8
細線
100
AcDbLine
 10
5925.473137055703
 20
2937.931598713261
 30
0.0
 11
7089.473137055705
 21
2937.931598713261
 31
0.0
  0
LINE
  5
1A69D
330
747D
100
AcDbEntity
  8
細線
100
AcDbLine
 10
5925.473137055703
 20
2872.931598713261
 30
0.0
 11
7089.473137055705
 21
2872.931598713261
 31
0.0
  0
LINE
  5
1A69E
330
747D
100
AcDbEntity
  8
細線
100
AcDbLine
 10
5925.473137055703
 20
2807.931598713262
 30
0.0
 11
7089.473137055705
 21
2807.931598713262
 31
0.0
  0
LINE
  5
1A69F
330
747D
100
AcDbEntity
  8
細線
100
AcDbLine
 10
5925.473137055703
 20
2742.931598713262
 30
0.0
 11
7089.473137055705
 21
2742.931598713262
 31
0.0
  0
LINE
  5
1A6A0
330
747D
100
AcDbEntity
  8
細線
100
AcDbLine
 10
5925.473137055703
 20
2677.931598713261
 30
0.0
 11
7089.473137055705
 21
2677.931598713261
 31
0.0
  0
LINE
  5
1A6A1
330
747D
100
AcDbEntity
  8
細線
100
AcDbLine
 10
5925.473137055703
 20
2612.931598713262
 30
0.0
 11
7089.473137055705
 21
2612.931598713262
 31
0.0
  0
LINE
  5
1A6A2
330
747D
100
AcDbEntity
  8
細線
100
AcDbLine
 10
5925.473137055703
 20
2547.931598713262
 30
0.0
 11
7089.473137055705
 21
2547.931598713262
 31
0.0
  0
LINE
  5
1A6A3
330
747D
100
AcDbEntity
  8
細線
100
AcDbLine
 10
5925.473137055703
 20
3717.931598713261
 30
0.0
 11
7089.473137055705
 21
3717.931598713261
 31
0.0
  0
LINE
  5
1A6A4
330
747D
100
AcDbEntity
  8
細線
100
AcDbLine
 10
5925.473137055703
 20
3652.931598713261
 30
0.0
 11
7089.473137055705
 21
3652.931598713261
 31
0.0
  0
LINE
  5
1A6A5
330
747D
100
AcDbEntity
  8
細線
100
AcDbLine
 10
5925.473137055703
 20
3587.931598713261
 30
0.0
 11
7089.473137055705
 21
3587.931598713261
 31
0.0
  0
LINE
  5
1A6A6
330
747D
100
AcDbEntity
  8
細線
100
AcDbLine
 10
5925.473137055703
 20
3522.931598713262
 30
0.0
 11
7089.473137055705
 21
3522.931598713262
 31
0.0
  0
LINE
  5
1A6A7
330
747D
100
AcDbEntity
  8
細線
100
AcDbLine
 10
5925.473137055703
 20
3457.931598713262
 30
0.0
 11
7089.473137055705
 21
3457.931598713262
 31
0.0
  0
LINE
  5
1A6A8
330
747D
100
AcDbEntity
  8
細線
100
AcDbLine
 10
5925.473137055703
 20
3392.931598713261
 30
0.0
 11
7089.473137055705
 21
3392.931598713261
 31
0.0
  0
LINE
  5
1A6A9
330
747D
100
AcDbEntity
  8
細線
100
AcDbLine
 10
5925.473137055703
 20
3327.931598713262
 30
0.0
 11
7089.473137055705
 21
3327.931598713262
 31
0.0
  0
LINE
  5
1A6AA
330
747D
100
AcDbEntity
  8
細線
100
AcDbLine
 10
5925.473137055703
 20
3262.931598713262
 30
0.0
 11
7089.473137055705
 21
3262.931598713262
 31
0.0
  0
LINE
  5
1A6AB
330
747D
100
AcDbEntity
  8
細線
100
AcDbLine
 10
5925.473137055703
 20
3197.931598713262
 30
0.0
 11
7089.473137055705
 21
3197.931598713262
 31
0.0
  0
LINE
  5
1A6AC
330
747D
100
AcDbEntity
  8
細線
100
AcDbLine
 10
5925.473137055703
 20
3132.931598713261
 30
0.0
 11
7089.473137055705
 21
3132.931598713261
 31
0.0
  0
LINE
  5
1A6AD
330
747D
100
AcDbEntity
  8
細線
100
AcDbLine
 10
5925.473137055703
 20
4107.931598713261
 30
0.0
 11
7089.473137055705
 21
4107.931598713261
 31
0.0
  0
LINE
  5
1A6AE
330
747D
100
AcDbEntity
  8
細線
100
AcDbLine
 10
5925.473137055703
 20
4042.931598713261
 30
0.0
 11
7089.473137055705
 21
4042.931598713261
 31
0.0
  0
LINE
  5
1A6AF
330
747D
100
AcDbEntity
  8
細線
100
AcDbLine
 10
5925.473137055703
 20
3977.931598713261
 30
0.0
 11
7089.473137055705
 21
3977.931598713261
 31
0.0
  0
LINE
  5
1A6B0
330
747D
100
AcDbEntity
  8
細線
100
AcDbLine
 10
5925.473137055703
 20
3912.931598713262
 30
0.0
 11
7089.473137055705
 21
3912.931598713262
 31
0.0
  0
LINE
  5
1A6B1
330
747D
100
AcDbEntity
  8
細線
100
AcDbLine
 10
5925.473137055703
 20
3847.931598713262
 30
0.0
 11
7089.473137055705
 21
3847.931598713262
 31
0.0
  0
LINE
  5
1A6B2
330
747D
100
AcDbEntity
  8
細線
100
AcDbLine
 10
5925.473137055703
 20
3782.931598713262
 30
0.0
 11
7089.473137055705
 21
3782.931598713262
 31
0.0
  0
LINE
  5
1A6B3
330
747D
100
AcDbEntity
  8
細線
100
AcDbLine
 10
5925.473137055703
 20
4172.931598713261
 30
0.0
 11
7089.473137055705
 21
4172.931598713261
 31
0.0
  0
LINE
  5
1A6B4
330
747D
100
AcDbEntity
  8
破線
 48
5.0
100
AcDbLine
 10
4555.473137055705
 20
2287.931598713265
 30
0.0
 11
4507.473137055705
 21
2287.931598713265
 31
0.0
  0
LINE
  5
1A6B5
330
747D
100
AcDbEntity
  8
破線
 48
5.0
100
AcDbLine
 10
7137.47313705571
 20
2287.931598713262
 30
0.0
 11
7089.473137055708
 21
2287.931598713262
 31
0.0
  0
LINE
  5
1A6B6
330
747D
100
AcDbEntity
  8
破線
 48
5.0
100
AcDbLine
 10
7089.473137055705
 20
2537.931598713262
 30
0.0
 11
7089.473137055708
 21
2287.931598713262
 31
0.0
  0
LINE
  5
1A6B7
330
747D
100
AcDbEntity
  8
部品1
100
AcDbLine
 10
7089.473137055709
 20
4212.931598713261
 30
0.0
 11
7089.473137055705
 21
2537.931598713262
 31
0.0
  0
LINE
  5
1A6B8
330
747D
100
AcDbEntity
  8
破線
 48
5.0
100
AcDbLine
 10
4555.473137055707
 20
2537.931598713262
 30
0.0
 11
4555.473137055705
 21
2287.931598713265
 31
0.0
  0
LINE
  5
1A6B9
330
747D
100
AcDbEntity
  8
部品1
100
AcDbLine
 10
4555.473137055707
 20
4212.931598713261
 30
0.0
 11
4555.473137055707
 21
2537.931598713262
 31
0.0
  0
LINE
  5
1A6BA
330
747D
100
AcDbEntity
  8
破線
 48
5.0
100
AcDbLine
 10
4507.473137055705
 20
2187.931598713269
 30
0.0
 11
4452.473137055705
 21
2187.931598713269
 31
0.0
  0
LINE
  5
1A6BB
330
747D
100
AcDbEntity
  8
破線
 48
5.0
100
AcDbLine
 10
7192.473137055706
 20
2187.931598713261
 30
0.0
 11
7137.473137055707
 21
2187.931598713261
 31
0.0
  0
LINE
  5
1A6BC
330
747D
100
AcDbEntity
  8
破線
 48
5.0
100
AcDbLine
 10
4507.473137055707
 20
2537.931598713262
 30
0.0
 11
4507.473137055705
 21
2187.931598713261
 31
0.0
  0
LINE
  5
1A6BD
330
747D
100
AcDbEntity
  8
破線
 48
5.0
100
AcDbLine
 10
7137.473137055706
 20
2537.931598713262
 30
0.0
 11
7137.473137055707
 21
2187.931598713261
 31
0.0
  0
TEXT
  5
1A6BE
330
747D
100
AcDbEntity
  8
文字
 62
     7
 48
50.0
100
AcDbText
 10
14647.81206407149
 20
871.9640646083625
 30
0.0
 40
100.0
  1
～一般型・多雪地型～
  7
STYLE2
100
AcDbText
  0
LWPOLYLINE
  5
1A6BF
330
747D
100
AcDbEntity
  8
部品1
100
AcDbPolyline
 90
        4
 70
     1
 43
0.0
 10
5440.737803941473
 20
6409.796656923099
 10
5440.737803941473
 20
6169.90433537757
 10
6204.208470169913
 20
6169.90433537757
 10
6204.208470169913
 20
6409.796656923099
  0
TEXT
  5
1A6C0
330
747D
100
AcDbEntity
  8
部品1
100
AcDbText
 10
5530.65741377051
 20
6216.903127704579
 30
0.0
 40
135.0
  1
平面図
  7
MSGOTHIC
100
AcDbText
  0
LWPOLYLINE
  5
1A6C1
330
747D
100
AcDbEntity
  8
部品1
100
AcDbPolyline
 90
        4
 70
     1
 43
0.0
 10
10762.91457733111
 20
1787.931598713261
 10
10762.91457733111
 20
1548.039277167729
 10
11526.38524355954
 20
1548.039277167729
 10
11526.38524355954
 20
1787.931598713261
  0
TEXT
  5
1A6C2
330
747D
100
AcDbEntity
  8
部品1
100
AcDbText
 10
10852.36067875471
 20
1595.038069494738
 30
0.0
 40
135.0
  1
側面図
  7
MSGOTHIC
100
AcDbText
  0
LWPOLYLINE
  5
1A6C3
330
747D
100
AcDbEntity
  8
部品1
100
AcDbPolyline
 90
        4
 70
     1
 43
0.0
 10
5440.737803941472
 20
1787.931598713261
 10
5440.737803941472
 20
1548.039277167729
 10
6204.208470169912
 20
1548.039277167729
 10
6204.208470169912
 20
1787.931598713261
  0
TEXT
  5
1A6C4
330
747D
100
AcDbEntity
  8
部品1
100
AcDbText
 10
5531.263207679429
 20
1595.038069494738
 30
0.0
 40
135.0
  1
正面図
  7
MSGOTHIC
100
AcDbText
  0
LINE
  5
1A6C5
330
747D
100
AcDbEntity
  8
破線
 48
5.0
100
AcDbLine
 10
4452.473137055707
 20
2437.931598713261
 30
0.0
 11
4452.473137055705
 21
2187.931598713261
 31
0.0
  0
LINE
  5
1A6C6
330
747D
100
AcDbEntity
  8
破線
 48
5.0
100
AcDbLine
 10
7192.473137055706
 20
2437.931598713261
 30
0.0
 11
7192.473137055706
 21
2187.931598713261
 31
0.0
  0
LINE
  5
1A6C7
330
747D
100
AcDbEntity
  8
部品1
100
AcDbLine
 10
7192.473137055708
 20
4471.931598713272
 30
0.0
 11
7192.473137055706
 21
2437.931598713261
 31
0.0
  0
LINE
  5
1A6C8
330
747D
100
AcDbEntity
  8
部品1
100
AcDbLine
 10
4507.473137055707
 20
4212.93159871326
 30
0.0
 11
4507.473137055707
 21
2537.931598713262
 31
0.0
  0
LINE
  5
1A6C9
330
747D
100
AcDbEntity
  8
部品1
100
AcDbLine
 10
7137.473137055707
 20
4212.93159871326
 30
0.0
 11
7137.473137055706
 21
2537.931598713262
 31
0.0
  0
LINE
  5
1A6CA
330
747D
100
AcDbEntity
  8
部品1
100
AcDbLine
 10
4452.473137055706
 20
4471.931598713268
 30
0.0
 11
4452.473137055707
 21
2437.931598713261
 31
0.0
  0
LINE
  5
1A6CB
330
747D
100
AcDbEntity
  8
部品1
100
AcDbLine
 10
3613.703545709324
 20
2567.835409280924
 30
0.0
 11
3538.703545709324
 21
2437.931598713261
 31
0.0
  0
TEXT
  5
1A6CC
330
747D
100
AcDbEntity
  8
部品1
100
AcDbText
 10
3641.808487834098
 20
2474.038502319163
 30
0.0
 40
125.0
  1
G.L
  7
MSGOTHIC
100
AcDbText
  0
LINE
  5
1A6CD
330
747D
100
AcDbEntity
  8
部品1
100
AcDbLine
 10
3538.703545709324
 20
2437.931598713261
 30
0.0
 11
3463.703545709324
 21
2567.835409280924
 31
0.0
  0
LINE
  5
1A6CE
330
747D
100
AcDbEntity
  8
部品1
100
AcDbLine
 10
3463.703545709324
 20
2567.835409280924
 30
0.0
 11
3613.703545709324
 21
2567.835409280924
 31
0.0
  0
LINE
  5
1A6CF
330
747D
100
AcDbEntity
  8
仕様書枠
  6
Continuous
 48
50.0
100
AcDbLine
 10
14251.2
 20
1200.0
 30
0.0
 11
14251.2
 21
800.0
 31
0.0
  0
LINE
  5
1A6D0
330
747D
100
AcDbEntity
  8
仕様書枠
 48
50.0
100
AcDbLine
 10
13107.2
 20
800.0
 30
0.0
 11
14251.2
 21
800.0
 31
0.0
  0
TEXT
  5
1A6D1
330
747D
100
AcDbEntity
  8
文字
 62
     7
 48
50.0
100
AcDbText
 10
14524.131837222
 20
1031.557706291229
 30
0.0
 40
100.0
  1
NO.08      <縮尺> S=1/40
  7
STYLE2
100
AcDbText
  0
TEXT
  5
1A6D2
330
747D
100
AcDbEntity
  8
文字
 62
     7
 48
50.0
100
AcDbText
 10
13209.4053442172
 20
228.543524256902
 30
0.0
 40
100.0
  1
○有効開口寸法 ： 1164×1648(mm)
  7
STYLE2
100
AcDbText
  0
TEXT
  5
1A6D3
330
747D
100
AcDbEntity
  8
文字
 62
     7
 48
50.0
100
AcDbText
 10
13201.43669998441
 20
477.2740661031257
 30
0.0
 40
160.0
  1
機種名
  7
STYLE2
100
AcDbText
  0
TEXT
  5
1A6D4
330
747D
100
AcDbEntity
  8
文字
 62
     7
 48
50.0
100
AcDbText
 10
13162.9790565769
 20
895.09060742994
 30
0.0
 40
200.0
  1
外 形 図
  7
STYLE2
100
AcDbText
  0
LINE
  5
1A6D5
330
747D
100
AcDbEntity
  8
文字
 62
     7
 48
50.0
100
AcDbLine
 10
13187.2
 20
400.0
 30
0.0
 11
16227.2
 21
400.0
 31
0.0
  0
LINE
  5
1A6D6
330
747D
100
AcDbEntity
  8
仕様書枠
 48
50.0
100
AcDbLine
 10
13107.2
 20
1200.0
 30
0.0
 11
16307.2
 21
1200.0
 31
0.0
  0
LINE
  5
1A6D8
330
747D
100
AcDbEntity
  8
仕様書枠
 48
50.0
100
AcDbLine
 10
16307.2
 20
1200.0
 30
0.0
 11
16307.2
 21
0.0
 31
0.0
  0
LINE
  5
1A6D9
330
747D
100
AcDbEntity
  8
仕様書枠
  6
Continuous
 48
50.0
100
AcDbLine
 10
13107.2
 20
1200.0
 30
0.0
 11
13107.2
 21
0.0
 31
0.0
  0
ENDSEC
  0
SECTION
  2
OBJECTS
  0
DICTIONARY
  5
7471
330
0
100
AcDbDictionary
281
     1
  3
ACAD_COLOR
350
17AE2
  3
ACAD_GROUP
350
7472
  3
ACAD_LAYOUT
350
17AE3
  3
ACAD_MATERIAL
350
17AE1
  3
ACAD_MLINESTYLE
350
7473
  3
ACAD_PLOTSETTINGS
350
17AE4
  3
ACAD_PLOTSTYLENAME
350
17ADF
  3
ACDBHEADERROUNDTRIPXREC
350
1AC1D
  3
AcDbVariableDictionary
350
1AC19
  3
CONTENTDICTIONARY
350
E71C
  3
DRAWINGVARIABLESDICT
350
F3B9
  0
DICTIONARY
  5
19388
330
7467
100
AcDbDictionary
280
     1
281
     1
  3
ACAD_LAYERSTATES
360
19389
  0
DICTIONARY
  5
17AE2
102
{ACAD_REACTORS
330
7471
102
}
330
7471
100
AcDbDictionary
281
     1
  0
DICTIONARY
  5
7472
102
{ACAD_REACTORS
330
7471
102
}
330
7471
100
AcDbDictionary
281
     1
  3
*A1
350
17FA7
  3
*A2
350
180C7
  3
*A3
350
180D2
  3
*A4
350
191E0
  0
DICTIONARY
  5
17AE3
102
{ACAD_REACTORS
330
7471
102
}
330
7471
100
AcDbDictionary
281
     1
  3
Model
350
17AE5
  3
レイアウト1
350
17AE6
  0
DICTIONARY
  5
17AE1
102
{ACAD_REACTORS
330
7471
102
}
330
7471
100
AcDbDictionary
281
     1
  0
DICTIONARY
  5
7473
102
{ACAD_REACTORS
330
7471
102
}
330
7471
100
AcDbDictionary
281
     1
  3
STANDARD
350
7480
  0
DICTIONARY
  5
17AE4
102
{ACAD_REACTORS
330
7471
102
}
330
7471
100
AcDbDictionary
281
     1
  0
ACDBDICTIONARYWDFLT
  5
17ADF
102
{ACAD_REACTORS
330
7471
102
}
330
7471
100
AcDbDictionary
281
     1
  3
Normal
350
17AE0
100
AcDbDictionaryWithDefault
340
17AE0
  0
DICTIONARY
  5
1AC1D
102
{ACAD_REACTORS
330
7471
102
}
330
7471
100
AcDbDictionary
281
     1
  3
COLORDICT
350
1AC1F
  3
MATERIALDICT
350
1AC1E
  0
DICTIONARY
  5
1AC19
102
{ACAD_REACTORS
330
7471
102
}
330
7471
100
AcDbDictionary
281
     1
  3
DIMASSOC
350
1AC1A
  3
PROJECTNAME
350
1AC1B
  0
DICTIONARY
  5
E71C
102
{ACAD_REACTORS
330
7471
102
}
330
7471
100
AcDbDictionary
281
     1
  0
DICTIONARY
  5
F3B9
102
{ACAD_REACTORS
330
7471
102
}
330
7471
100
AcDbDictionary
281
     1
1001
DRAWINGVARIABLESXDATA
1000
POLARMODE
1000
1
  0
DICTIONARY
  5
19389
102
{ACAD_REACTORS
330
19388
102
}
330
19388
100
AcDbDictionary
281
     1
  0
GROUP
  5
17FA7
102
{ACAD_REACTORS
330
7472
102
}
330
7472
100
AcDbGroup
300

 70
     1
 71
     1
  0
GROUP
  5
180C7
102
{ACAD_REACTORS
330
7472
102
}
330
7472
100
AcDbGroup
300

 70
     1
 71
     1
  0
GROUP
  5
180D2
102
{ACAD_REACTORS
330
7472
102
}
330
7472
100
AcDbGroup
300

 70
     1
 71
     1
  0
GROUP
  5
191E0
102
{ACAD_REACTORS
330
7472
102
}
330
7472
100
AcDbGroup
300

 70
     1
 71
     1
  0
LAYOUT
  5
17AE5
102
{ACAD_XDICTIONARY
360
1AC20
102
}
102
{ACAD_REACTORS
330
17AE3
102
}
330
17AE3
100
AcDbPlotSettings
  1

  2
Canon iR C3880/C4580 LIPSLX
  4
A3
  6

 40
5.873749732971191
 41
5.873747825622558
 42
5.873748779296875
 43
5.873748779296875
 44
296.9259948730469
 45
419.9466552734374
 46
0.0
 47
0.0
 48
0.0
 49
0.0
140
0.0
141
0.0
142
1.0
143
40.0
 70
 11952
 72
     1
 73
     1
 74
     2
  7
inaba.ctb
 75
    24
147
0.025
148
0.0
149
0.0
100
AcDbLayout
  1
Model
 70
     1
 71
     0
 10
0.0
 20
0.0
 11
12.0
 21
9.0
 12
0.0
 22
0.0
 32
0.0
 14
0.0
 24
0.0
 34
0.0
 15
0.0
 25
0.0
 35
0.0
146
0.0
 13
0.0
 23
0.0
 33
0.0
 16
1.0
 26
0.0
 36
0.0
 17
0.0
 27
1.0
 37
0.0
 76
     0
330
747D
  0
LAYOUT
  5
17AE6
102
{ACAD_XDICTIONARY
360
1AC22
102
}
102
{ACAD_REACTORS
330
17AE3
102
}
330
17AE3
100
AcDbPlotSettings
  1

  2
EPSON LP-8300
  4

  6

 40
0.0
 41
0.0
 42
0.0
 43
0.0
 44
0.0
 45
0.0
 46
0.0
 47
0.0
 48
0.0
 49
0.0
140
0.0
141
0.0
142
1.0
143
1.0
 70
   688
 72
     0
 73
     0
 74
     5
  7
inaba.ctb
 75
    16
147
1.0
148
0.0
149
0.0
100
AcDbLayout
  1
レイアウト1
 70
     0
 71
     1
 10
0.0
 20
0.0
 11
420.0
 21
297.0
 12
0.0
 22
0.0
 32
0.0
 14
1.000000000000000E+20
 24
1.000000000000000E+20
 34
1.000000000000000E+20
 15
-1.000000000000000E+20
 25
-1.000000000000000E+20
 35
-1.000000000000000E+20
146
0.0
 13
0.0
 23
0.0
 33
0.0
 16
1.0
 26
0.0
 36
0.0
 17
0.0
 27
1.0
 37
0.0
 76
     0
330
747A
  0
MLINESTYLE
  5
7480
102
{ACAD_REACTORS
330
7473
102
}
330
7473
100
AcDbMlineStyle
  2
STANDARD
 70
     0
  3

 62
     0
 51
90.0
 52
90.0
 71
     2
 49
0.5
 62
   256
  6
BYLAYER
 49
-0.5
 62
   256
  6
BYLAYER
  0
ACDBPLACEHOLDER
  5
17AE0
102
{ACAD_REACTORS
330
17ADF
102
}
330
17ADF
  0
XRECORD
  5
1AC1F
102
{ACAD_REACTORS
330
1AC1D
102
}
330
1AC1D
100
AcDbXrecord
280
     1
340
17AE2
  0
XRECORD
  5
1AC1E
102
{ACAD_REACTORS
330
1AC1D
102
}
330
1AC1D
100
AcDbXrecord
280
     1
340
17AE1
  0
DICTIONARYVAR
  5
1AC1A
102
{ACAD_REACTORS
330
1AC19
102
}
330
1AC19
100
DictionaryVariables
280
     0
  1
1
  0
DICTIONARYVAR
  5
1AC1B
102
{ACAD_REACTORS
330
1AC19
102
}
330
1AC19
100
DictionaryVariables
280
     0
  1

  0
DICTIONARY
  5
1AC20
330
17AE5
100
AcDbDictionary
280
     1
281
     1
  3
ACAD_XREC_ROUNDTRIP
360
1AC21
  0
DICTIONARY
  5
1AC22
330
17AE6
100
AcDbDictionary
280
     1
281
     1
  3
ACAD_XREC_ROUNDTRIP
360
1AC23
  0
XRECORD
  5
1AC21
102
{ACAD_REACTORS
330
1AC20
102
}
330
1AC20
100
AcDbXrecord
280
     1
102
SHADEPLOT
 70
     0
102
SHADEPLOTRESLEVEL
 70
     2
102
SHADEPLOTCUSTOMDPI
 70
   300
  0
XRECORD
  5
1AC23
102
{ACAD_REACTORS
330
1AC22
102
}
330
1AC22
100
AcDbXrecord
280
     1
102
SHADEPLOT
 70
     0
102
SHADEPLOTRESLEVEL
 70
     2
102
SHADEPLOTCUSTOMDPI
 70
   300
  0
ENDSEC
  0
EOF
