  0
SECTION
  2
HEADER
  9
$ACADVER
  1
AC1015
  9
$ACADMAINTVER
 70
    20
  9
$DWGCODEPAGE
  3
ANSI_932
  9
$INSBASE
 10
0.0
 20
0.0
 30
0.0
  9
$EXTMIN
 10
139.9999999999995
 20
-0.0000000000000909
 30
0.0
  9
$EXTMAX
 10
16307.2
 20
11409.6
 30
0.0
  9
$LIMMIN
 10
0.0
 20
0.0
  9
$LIMMAX
 10
16800.0
 20
11880.0
  9
$ORTHOMODE
 70
     0
  9
$REGENMODE
 70
     1
  9
$FILLMODE
 70
     1
  9
$QTEXTMODE
 70
     0
  9
$MIRRTEXT
 70
     1
  9
$LTSCALE
 40
20.0
  9
$ATTMODE
 70
     1
  9
$TEXTSIZE
 40
3.5
  9
$TRACEWID
 40
1.0
  9
$TEXTSTYLE
  7
MSGOTHIC
  9
$CLAYER
  8
部品1
  9
$CELTYPE
  6
BYLAYER
  9
$CECOLOR
 62
   256
  9
$CELTSCALE
 40
50.0
  9
$DISPSILH
 70
     0
  9
$DIMSCALE
 40
40.0
  9
$DIMASZ
 40
2.5
  9
$DIMEXO
 40
0.5
  9
$DIMDLI
 40
7.0
  9
$DIMRND
 40
0.0
  9
$DIMDLE
 40
0.0
  9
$DIMEXE
 40
1.5
  9
$DIMTP
 40
0.0
  9
$DIMTM
 40
0.0
  9
$DIMTXT
 40
3.0
  9
$DIMCEN
 40
0.0
  9
$DIMTSZ
 40
0.0
  9
$DIMTOL
 70
     0
  9
$DIMLIM
 70
     0
  9
$DIMTIH
 70
     0
  9
$DIMTOH
 70
     0
  9
$DIMSE1
 70
     0
  9
$DIMSE2
 70
     0
  9
$DIMTAD
 70
     3
  9
$DIMZIN
 70
     8
  9
$DIMBLK
  1

  9
$DIMASO
 70
     1
  9
$DIMSHO
 70
     1
  9
$DIMPOST
  1

  9
$DIMAPOST
  1

  9
$DIMALT
 70
     0
  9
$DIMALTD
 70
     2
  9
$DIMALTF
 40
0.0394
  9
$DIMLFAC
 40
1.0
  9
$DIMTOFL
 70
     1
  9
$DIMTVP
 40
0.0
  9
$DIMTIX
 70
     1
  9
$DIMSOXD
 70
     0
  9
$DIMSAH
 70
     1
  9
$DIMBLK1
  1
DOTSMALL
  9
$DIMBLK2
  1
DOTSMALL
  9
$DIMSTYLE
  2
INABA_S40G
  9
$DIMCLRD
 70
     0
  9
$DIMCLRE
 70
     0
  9
$DIMCLRT
 70
     7
  9
$DIMTFAC
 40
1.0
  9
$DIMGAP
 40
1.0
  9
$DIMJUST
 70
     0
  9
$DIMSD1
 70
     0
  9
$DIMSD2
 70
     0
  9
$DIMTOLJ
 70
     1
  9
$DIMTZIN
 70
     0
  9
$DIMALTZ
 70
     0
  9
$DIMALTTZ
 70
     0
  9
$DIMUPT
 70
     0
  9
$DIMDEC
 70
     1
  9
$DIMTDEC
 70
     4
  9
$DIMALTU
 70
     2
  9
$DIMALTTD
 70
     2
  9
$DIMTXSTY
  7
STYLE1
  9
$DIMAUNIT
 70
     0
  9
$DIMADEC
 70
     0
  9
$DIMALTRND
 40
0.0
  9
$DIMAZIN
 70
     0
  9
$DIMDSEP
 70
    46
  9
$DIMATFIT
 70
     3
  9
$DIMFRAC
 70
     0
  9
$DIMLDRBLK
  1

  9
$DIMLUNIT
 70
     2
  9
$DIMLWD
 70
    -2
  9
$DIMLWE
 70
    -2
  9
$DIMTMOVE
 70
     0
  9
$LUNITS
 70
     2
  9
$LUPREC
 70
     1
  9
$SKETCHINC
 40
1.0
  9
$FILLETRAD
 40
3.0
  9
$AUNITS
 70
     0
  9
$AUPREC
 70
     0
  9
$MENU
  1
acad
  9
$ELEVATION
 40
0.0
  9
$PELEVATION
 40
0.0
  9
$THICKNESS
 40
0.0
  9
$LIMCHECK
 70
     0
  9
$CHAMFERA
 40
0.0
  9
$CHAMFERB
 40
0.0
  9
$CHAMFERC
 40
0.0
  9
$CHAMFERD
 40
0.0
  9
$SKPOLY
 70
     0
  9
$TDCREATE
 40
2451368.612993866
  9
$TDUCREATE
 40
2451368.237993866
  9
$TDUPDATE
 40
2455569.643289931
  9
$TDUUPDATE
 40
2455569.268289931
  9
$TDINDWG
 40
0.6596984259
  9
$TDUSRTIMER
 40
0.6596984259
  9
$USRTIMER
 70
     1
  9
$ANGBASE
 50
0.0
  9
$ANGDIR
 70
     0
  9
$PDMODE
 70
     3
  9
$PDSIZE
 40
2.0
  9
$PLINEWID
 40
0.0
  9
$SPLFRAME
 70
     0
  9
$SPLINETYPE
 70
     6
  9
$SPLINESEGS
 70
     8
  9
$HANDSEED
  5
17E9A
  9
$SURFTAB1
 70
     6
  9
$SURFTAB2
 70
     6
  9
$SURFTYPE
 70
     6
  9
$SURFU
 70
     6
  9
$SURFV
 70
     6
  9
$UCSBASE
  2

  9
$UCSNAME
  2

  9
$UCSORG
 10
0.0
 20
0.0
 30
0.0
  9
$UCSXDIR
 10
1.0
 20
0.0
 30
0.0
  9
$UCSYDIR
 10
0.0
 20
1.0
 30
0.0
  9
$UCSORTHOREF
  2

  9
$UCSORTHOVIEW
 70
     0
  9
$UCSORGTOP
 10
0.0
 20
0.0
 30
0.0
  9
$UCSORGBOTTOM
 10
0.0
 20
0.0
 30
0.0
  9
$UCSORGLEFT
 10
0.0
 20
0.0
 30
0.0
  9
$UCSORGRIGHT
 10
0.0
 20
0.0
 30
0.0
  9
$UCSORGFRONT
 10
0.0
 20
0.0
 30
0.0
  9
$UCSORGBACK
 10
0.0
 20
0.0
 30
0.0
  9
$PUCSBASE
  2

  9
$PUCSNAME
  2

  9
$PUCSORG
 10
0.0
 20
0.0
 30
0.0
  9
$PUCSXDIR
 10
1.0
 20
0.0
 30
0.0
  9
$PUCSYDIR
 10
0.0
 20
1.0
 30
0.0
  9
$PUCSORTHOREF
  2

  9
$PUCSORTHOVIEW
 70
     0
  9
$PUCSORGTOP
 10
0.0
 20
0.0
 30
0.0
  9
$PUCSORGBOTTOM
 10
0.0
 20
0.0
 30
0.0
  9
$PUCSORGLEFT
 10
0.0
 20
0.0
 30
0.0
  9
$PUCSORGRIGHT
 10
0.0
 20
0.0
 30
0.0
  9
$PUCSORGFRONT
 10
0.0
 20
0.0
 30
0.0
  9
$PUCSORGBACK
 10
0.0
 20
0.0
 30
0.0
  9
$USERI1
 70
     0
  9
$USERI2
 70
     0
  9
$USERI3
 70
     0
  9
$USERI4
 70
     0
  9
$USERI5
 70
     0
  9
$USERR1
 40
0.0
  9
$USERR2
 40
0.0
  9
$USERR3
 40
0.0
  9
$USERR4
 40
0.0
  9
$USERR5
 40
0.0
  9
$WORLDVIEW
 70
     1
  9
$SHADEDGE
 70
     3
  9
$SHADEDIF
 70
    70
  9
$TILEMODE
 70
     1
  9
$MAXACTVP
 70
    16
  9
$PINSBASE
 10
0.0
 20
0.0
 30
0.0
  9
$PLIMCHECK
 70
     0
  9
$PEXTMIN
 10
1.000000000000000E+20
 20
1.000000000000000E+20
 30
1.000000000000000E+20
  9
$PEXTMAX
 10
-1.000000000000000E+20
 20
-1.000000000000000E+20
 30
-1.000000000000000E+20
  9
$PLIMMIN
 10
0.0
 20
0.0
  9
$PLIMMAX
 10
420.0
 20
297.0
  9
$UNITMODE
 70
     0
  9
$VISRETAIN
 70
     0
  9
$PLINEGEN
 70
     0
  9
$PSLTSCALE
 70
     0
  9
$TREEDEPTH
 70
  3020
  9
$CMLSTYLE
  2
STANDARD
  9
$CMLJUST
 70
     0
  9
$CMLSCALE
 40
1.0
  9
$PROXYGRAPHICS
 70
     1
  9
$MEASUREMENT
 70
     1
  9
$CELWEIGHT
370
    -1
  9
$ENDCAPS
280
     0
  9
$JOINSTYLE
280
     0
  9
$LWDISPLAY
290
     0
  9
$INSUNITS
 70
     0
  9
$HYPERLINKBASE
  1

  9
$STYLESHEET
  1
inaba.ctb
  9
$XEDIT
290
     1
  9
$CEPSNTYPE
380
     0
  9
$PSTYLEMODE
290
     1
  9
$FINGERPRINTGUID
  2
{77ABBCC8-E499-47A5-842F-55F583DC8CE7}
  9
$VERSIONGUID
  2
{2CF0439F-C10C-4C7D-80CD-D2C6B0ADC49A}
  9
$EXTNAMES
290
     1
  9
$PSVPSCALE
 40
0.0
  9
$OLESTARTUP
290
     0
  0
ENDSEC
  0
SECTION
  2
CLASSES
  0
CLASS
  1
ACDBDICTIONARYWDFLT
  2
AcDbDictionaryWithDefault
  3
ObjectDBX Classes
 90
        0
280
     0
281
     0
  0
CLASS
  1
DICTIONARYVAR
  2
AcDbDictionaryVar
  3
ObjectDBX Classes
 90
        0
280
     0
281
     0
  0
CLASS
  1
ACDBPLACEHOLDER
  2
AcDbPlaceHolder
  3
ObjectDBX Classes
 90
        0
280
     0
281
     0
  0
CLASS
  1
LAYOUT
  2
AcDbLayout
  3
ObjectDBX Classes
 90
        0
280
     0
281
     0
  0
ENDSEC
  0
SECTION
  2
TABLES
  0
TABLE
  2
VPORT
  5
746D
330
0
100
AcDbSymbolTable
 70
     2
  0
VPORT
  5
17E92
330
746D
100
AcDbSymbolTableRecord
100
AcDbViewportTableRecord
  2
*Active
 70
     0
 10
0.0
 20
0.0
 11
1.0
 21
1.0
 12
11720.15228811286
 22
5704.702397105601
 13
0.0
 23
0.0
 14
10.0
 24
10.0
 15
10.0
 25
10.0
 16
0.0
 26
0.0
 36
1.0
 17
0.0
 27
0.0
 37
0.0
 40
11513.59868046627
 41
2.234800838574423
 42
50.0
 43
0.0
 44
0.0
 50
0.0
 51
0.0
 71
     0
 72
     0
 73
     1
 74
     0
 75
     0
 76
     0
 77
     0
 78
     0
281
     0
 65
     1
110
0.0
120
0.0
130
0.0
111
1.0
121
0.0
131
0.0
112
0.0
122
1.0
132
0.0
 79
     0
146
0.0
  0
ENDTAB
  0
TABLE
  2
LTYPE
  5
746A
330
0
100
AcDbSymbolTable
 70
     3
  0
LTYPE
  5
7477
330
746A
100
AcDbSymbolTableRecord
100
AcDbLinetypeTableRecord
  2
BYBLOCK
 70
     0
  3

 72
    65
 73
     0
 40
0.0
  0
LTYPE
  5
7478
330
746A
100
AcDbSymbolTableRecord
100
AcDbLinetypeTableRecord
  2
BYLAYER
 70
     0
  3

 72
    65
 73
     0
 40
0.0
  0
LTYPE
  5
7479
330
746A
100
AcDbSymbolTableRecord
100
AcDbLinetypeTableRecord
  2
CONTINUOUS
 70
     0
  3
Solid line
 72
    65
 73
     0
 40
0.0
  0
LTYPE
  5
781A
330
746A
100
AcDbSymbolTableRecord
100
AcDbLinetypeTableRecord
  2
HIDDEN
 70
     0
  3
__ __ __ __ __ __ __ __ __ __ __ __ __ __ __ __
 72
    65
 73
     2
 40
0.375
 49
0.25
 74
     0
 49
-0.125
 74
     0
  0
LTYPE
  5
781B
330
746A
100
AcDbSymbolTableRecord
100
AcDbLinetypeTableRecord
  2
PHANTOM
 70
     0
  3
______  __  __  ______  __  __  ______  __  __ 
 72
    65
 73
     6
 40
2.5
 49
1.25
 74
     0
 49
-0.25
 74
     0
 49
0.25
 74
     0
 49
-0.25
 74
     0
 49
0.25
 74
     0
 49
-0.25
 74
     0
  0
ENDTAB
  0
TABLE
  2
LAYER
  5
7467
102
{ACAD_XDICTIONARY
360
16E5B
102
}
330
0
100
AcDbSymbolTable
 70
    10
  0
LAYER
  5
7474
330
7467
100
AcDbSymbolTableRecord
100
AcDbLayerTableRecord
  2
0
 70
     0
 62
     7
  6
CONTINUOUS
370
    -3
390
166AC
  0
LAYER
  5
DEB3
330
7467
100
AcDbSymbolTableRecord
100
AcDbLayerTableRecord
  2
寸法
 70
     0
 62
     4
  6
CONTINUOUS
370
    -3
390
166AC
  0
LAYER
  5
DEB4
330
7467
100
AcDbSymbolTableRecord
100
AcDbLayerTableRecord
  2
部品1
 70
     0
 62
     7
  6
CONTINUOUS
370
    -3
390
166AC
  0
LAYER
  5
DEB5
330
7467
100
AcDbSymbolTableRecord
100
AcDbLayerTableRecord
  2
補助
 70
     0
 62
    -1
  6
CONTINUOUS
370
    -3
390
166AC
  0
LAYER
  5
DEB6
330
7467
100
AcDbSymbolTableRecord
100
AcDbLayerTableRecord
  2
文字
 70
     0
 62
     7
  6
CONTINUOUS
370
    -3
390
166AC
  0
LAYER
  5
F255
330
7467
100
AcDbSymbolTableRecord
100
AcDbLayerTableRecord
  2
DEFPOINTS
 70
     0
 62
     7
  6
CONTINUOUS
290
     0
370
    -3
390
166AC
  0
LAYER
  5
10B54
330
7467
100
AcDbSymbolTableRecord
100
AcDbLayerTableRecord
  2
仕様書枠
 70
     0
 62
   230
  6
CONTINUOUS
370
    -3
390
166AC
  0
LAYER
  5
11729
330
7467
100
AcDbSymbolTableRecord
100
AcDbLayerTableRecord
  2
Ｇ．Ｌ
 70
     0
 62
    30
  6
CONTINUOUS
370
    -3
390
166AC
  0
LAYER
  5
1173F
330
7467
100
AcDbSymbolTableRecord
100
AcDbLayerTableRecord
  2
細線
 70
     0
 62
     5
  6
CONTINUOUS
370
    -3
390
166AC
  0
LAYER
  5
142E2
330
7467
100
AcDbSymbolTableRecord
100
AcDbLayerTableRecord
  2
破線
 70
     0
 62
     2
  6
HIDDEN
370
    -3
390
166AC
  0
ENDTAB
  0
TABLE
  2
STYLE
  5
7468
330
0
100
AcDbSymbolTable
 70
     6
  0
STYLE
  5
7475
330
7468
100
AcDbSymbolTableRecord
100
AcDbTextStyleTableRecord
  2
STANDARD
 70
     0
 40
0.0
 41
1.0
 50
0.0
 71
     0
 42
4.0
  3
txt
  4
C:\AutoCAD LT\bigfont.shx
  0
STYLE
  5
763C
330
7468
100
AcDbSymbolTableRecord
100
AcDbTextStyleTableRecord
  2
MSMINCHO
 70
     0
 40
0.0
 41
1.0
 50
0.0
 71
     0
 42
1.199999999999999
  3
C:\AutoCAD LT\msminch2.TTF
  4

  0
STYLE
  5
F706
330
7468
100
AcDbSymbolTableRecord
100
AcDbTextStyleTableRecord
  2
STYLE1
 70
     0
 40
0.0
 41
1.0
 50
0.0
 71
     0
 42
4.0
  3
isocp.shx
  4
bigfont.shx
  0
STYLE
  5
103BF
330
7468
100
AcDbSymbolTableRecord
100
AcDbTextStyleTableRecord
  2
STYLE2
 70
     0
 40
0.0
 41
1.0
 50
0.0
 71
     0
 42
100.0
  3
MS PGothic.ttf
  4

1001
ACAD
1000
MS PGothic
1071
    32818
  0
STYLE
  5
10BAA
330
7468
100
AcDbSymbolTableRecord
100
AcDbTextStyleTableRecord
  2
STYLE3
 70
     0
 40
0.0
 41
1.0
 50
0.0
 71
     0
 42
100.0
  3
DFPGothic-EB.ttf
  4

1001
ACAD
1000
DFPGothic-EB
1071
    32818
  0
STYLE
  5
11A15
330
7468
100
AcDbSymbolTableRecord
100
AcDbTextStyleTableRecord
  2
MSGOTHIC
 70
     0
 40
0.0
 41
1.0
 50
0.0
 71
     0
 42
3.5
  3
MS PGothic.ttf
  4

1001
ACAD
1000
MS PGothic
1071
    32818
  0
ENDTAB
  0
TABLE
  2
VIEW
  5
746B
330
0
100
AcDbSymbolTable
 70
     0
  0
ENDTAB
  0
TABLE
  2
UCS
  5
746C
330
0
100
AcDbSymbolTable
 70
     0
  0
ENDTAB
  0
TABLE
  2
APPID
  5
746E
330
0
100
AcDbSymbolTable
 70
     6
  0
APPID
  5
7476
330
746E
100
AcDbSymbolTableRecord
100
AcDbRegAppTableRecord
  2
ACAD
 70
     0
  0
APPID
  5
DEA9
330
746E
100
AcDbSymbolTableRecord
100
AcDbRegAppTableRecord
  2
CONTENTBLOCKICON
 70
     0
  0
APPID
  5
DEAA
330
746E
100
AcDbSymbolTableRecord
100
AcDbRegAppTableRecord
  2
CONTENTBLOCKDESCRIPTION
 70
     0
  0
APPID
  5
E71D
330
746E
100
AcDbSymbolTableRecord
100
AcDbRegAppTableRecord
  2
CONTENTTABDATA
 70
     0
  0
APPID
  5
E71E
330
746E
100
AcDbSymbolTableRecord
100
AcDbRegAppTableRecord
  2
CONTENTCURRENTTAB
 70
     0
  0
APPID
  5
F3BA
330
746E
100
AcDbSymbolTableRecord
100
AcDbRegAppTableRecord
  2
DRAWINGVARIABLESXDATA
 70
     0
  0
ENDTAB
  0
TABLE
  2
DIMSTYLE
  5
746F
330
0
100
AcDbSymbolTable
 70
     1
100
AcDbDimStyleTable
 71
     1
340
F71F
  0
DIMSTYLE
105
F71F
102
{ACAD_REACTORS
330
16452
330
16459
330
1645E
330
16460
330
16461
330
16462
330
16475
330
16476
330
16477
330
1648F
330
16492
330
164BD
330
164BE
330
1706C
330
1706D
330
1706E
330
1706F
330
1778B
330
1779A
330
177A8
330
177A9
330
177AA
330
177AE
330
177DE
330
177DF
330
177E0
330
17CD9
330
17CDA
330
17CDB
102
}
330
746F
100
AcDbSymbolTableRecord
100
AcDbDimStyleTableRecord
  2
INABA_S40G
 70
     0
 40
40.0
 41
2.5
 42
0.5
 43
7.0
 44
1.5
 73
     0
 74
     0
 77
     3
 78
     8
140
3.0
141
0.0
143
0.0394
147
1.0
172
     1
173
     1
174
     1
178
     7
271
     1
340
F706
341
F770
343
F770
344
F770
  0
ENDTAB
  0
TABLE
  2
BLOCK_RECORD
  5
7466
330
0
100
AcDbSymbolTable
 70
    30
  0
BLOCK_RECORD
  5
747D
330
7466
100
AcDbSymbolTableRecord
100
AcDbBlockTableRecord
  2
*MODEL_SPACE
340
166B1
  0
BLOCK_RECORD
  5
747A
330
7466
100
AcDbSymbolTableRecord
100
AcDbBlockTableRecord
  2
*PAPER_SPACE
340
166B2
  0
BLOCK_RECORD
  5
F770
330
7466
100
AcDbSymbolTableRecord
100
AcDbBlockTableRecord
  2
_DOTSMALL
340
0
102
{BLKREFS
331
16B12
331
16B13
331
16B1D
331
16B1E
331
16B28
331
16B29
331
16B31
331
16B32
331
16B3C
331
16B3D
331
16B47
331
16B48
331
16B53
331
16B54
331
16B5E
331
16B5F
331
16B68
331
16B69
331
16B71
331
16B72
331
16B79
331
16B7A
331
16B82
331
16B83
331
16B8B
331
16B8C
331
17A6C
331
17A6D
331
17A75
331
17A76
331
17A7E
331
17A7F
331
17A89
331
17A8A
331
17A9D
331
17A9E
331
17AB0
331
17AB1
331
17ABA
331
17ABB
331
17B58
331
17B59
331
17B63
331
17B64
331
17B6C
331
17B6D
331
17DCE
331
17DCF
331
17E3D
331
17E3E
331
17E46
331
17E47
331
17E59
331
17E5A
331
17E79
331
17E7A
331
17E82
331
17E83
102
}
  0
BLOCK_RECORD
  5
164C6
330
7466
100
AcDbSymbolTableRecord
100
AcDbBlockTableRecord
  2
*D1
340
0
  0
BLOCK_RECORD
  5
164D2
330
7466
100
AcDbSymbolTableRecord
100
AcDbBlockTableRecord
  2
*D2
340
0
  0
BLOCK_RECORD
  5
164F6
330
7466
100
AcDbSymbolTableRecord
100
AcDbBlockTableRecord
  2
*D3
340
0
  0
BLOCK_RECORD
  5
16501
330
7466
100
AcDbSymbolTableRecord
100
AcDbBlockTableRecord
  2
*D4
340
0
  0
BLOCK_RECORD
  5
1650D
330
7466
100
AcDbSymbolTableRecord
100
AcDbBlockTableRecord
  2
*D5
340
0
  0
BLOCK_RECORD
  5
1651B
330
7466
100
AcDbSymbolTableRecord
100
AcDbBlockTableRecord
  2
*D6
340
0
  0
BLOCK_RECORD
  5
1652A
330
7466
100
AcDbSymbolTableRecord
100
AcDbBlockTableRecord
  2
*D7
340
0
  0
BLOCK_RECORD
  5
16539
330
7466
100
AcDbSymbolTableRecord
100
AcDbBlockTableRecord
  2
*D8
340
0
  0
BLOCK_RECORD
  5
16547
330
7466
100
AcDbSymbolTableRecord
100
AcDbBlockTableRecord
  2
*D9
340
0
  0
BLOCK_RECORD
  5
16555
330
7466
100
AcDbSymbolTableRecord
100
AcDbBlockTableRecord
  2
*D10
340
0
  0
BLOCK_RECORD
  5
16561
330
7466
100
AcDbSymbolTableRecord
100
AcDbBlockTableRecord
  2
*D11
340
0
  0
BLOCK_RECORD
  5
1656F
330
7466
100
AcDbSymbolTableRecord
100
AcDbBlockTableRecord
  2
*D12
340
0
  0
BLOCK_RECORD
  5
1657D
330
7466
100
AcDbSymbolTableRecord
100
AcDbBlockTableRecord
  2
*D13
340
0
  0
BLOCK_RECORD
  5
171B1
330
7466
100
AcDbSymbolTableRecord
100
AcDbBlockTableRecord
  2
*D14
340
0
  0
BLOCK_RECORD
  5
171BD
330
7466
100
AcDbSymbolTableRecord
100
AcDbBlockTableRecord
  2
*D15
340
0
  0
BLOCK_RECORD
  5
171CB
330
7466
100
AcDbSymbolTableRecord
100
AcDbBlockTableRecord
  2
*D16
340
0
  0
BLOCK_RECORD
  5
171D9
330
7466
100
AcDbSymbolTableRecord
100
AcDbBlockTableRecord
  2
*D17
340
0
  0
BLOCK_RECORD
  5
1788C
330
7466
100
AcDbSymbolTableRecord
100
AcDbBlockTableRecord
  2
*D18
340
0
  0
BLOCK_RECORD
  5
17899
330
7466
100
AcDbSymbolTableRecord
100
AcDbBlockTableRecord
  2
*D19
340
0
  0
BLOCK_RECORD
  5
178A6
330
7466
100
AcDbSymbolTableRecord
100
AcDbBlockTableRecord
  2
*D20
340
0
  0
BLOCK_RECORD
  5
178B2
330
7466
100
AcDbSymbolTableRecord
100
AcDbBlockTableRecord
  2
*D21
340
0
  0
BLOCK_RECORD
  5
178C0
330
7466
100
AcDbSymbolTableRecord
100
AcDbBlockTableRecord
  2
*D22
340
0
  0
BLOCK_RECORD
  5
178CC
330
7466
100
AcDbSymbolTableRecord
100
AcDbBlockTableRecord
  2
*D23
340
0
  0
BLOCK_RECORD
  5
178DA
330
7466
100
AcDbSymbolTableRecord
100
AcDbBlockTableRecord
  2
*D24
340
0
  0
BLOCK_RECORD
  5
178E6
330
7466
100
AcDbSymbolTableRecord
100
AcDbBlockTableRecord
  2
*D25
340
0
  0
BLOCK_RECORD
  5
178F2
330
7466
100
AcDbSymbolTableRecord
100
AcDbBlockTableRecord
  2
*D26
340
0
  0
BLOCK_RECORD
  5
17D49
330
7466
100
AcDbSymbolTableRecord
100
AcDbBlockTableRecord
  2
*D27
340
0
  0
BLOCK_RECORD
  5
17D56
330
7466
100
AcDbSymbolTableRecord
100
AcDbBlockTableRecord
  2
*D28
340
0
  0
BLOCK_RECORD
  5
17D64
330
7466
100
AcDbSymbolTableRecord
100
AcDbBlockTableRecord
  2
*D29
340
0
  0
ENDTAB
  0
ENDSEC
  0
SECTION
  2
BLOCKS
  0
BLOCK
  5
7489
330
747D
100
AcDbEntity
  8
0
100
AcDbBlockBegin
  2
*MODEL_SPACE
 70
     0
 10
0.0
 20
0.0
 30
0.0
  3
*MODEL_SPACE
  1

  0
ENDBLK
  5
748A
330
747D
100
AcDbEntity
  8
0
100
AcDbBlockEnd
  0
BLOCK
  5
7487
330
747A
100
AcDbEntity
 67
     1
  8
0
100
AcDbBlockBegin
  2
*PAPER_SPACE
 70
     0
 10
0.0
 20
0.0
 30
0.0
  3
*PAPER_SPACE
  1

  0
ENDBLK
  5
7488
330
747A
100
AcDbEntity
 67
     1
  8
0
100
AcDbBlockEnd
  0
BLOCK
  5
F771
330
F770
100
AcDbEntity
  8
0
 48
50.0
100
AcDbBlockBegin
  2
_DOTSMALL
 70
     0
 10
0.0
 20
0.0
 30
0.0
  3
_DOTSMALL
  1

  0
LWPOLYLINE
  5
F772
330
F770
100
AcDbEntity
  8
0
  6
ByBlock
 62
     0
 48
50.0
100
AcDbPolyline
 90
        2
 70
     1
 43
0.5
 10
-0.0625
 20
0.0
 42
1.0
 10
0.0625
 20
0.0
 42
1.0
  0
ENDBLK
  5
F776
330
F770
100
AcDbEntity
  8
0
 48
50.0
100
AcDbBlockEnd
  0
BLOCK
  5
16663
330
164C6
100
AcDbEntity
  8
0
 48
50.0
100
AcDbBlockBegin
  2
*D1
 70
     1
 10
0.0
 20
0.0
 30
0.0
  3
*D1
  1

  0
LINE
  5
16B88
330
164C6
100
AcDbEntity
  8
寸法
 62
     0
 48
50.0
370
    -2
100
AcDbLine
 10
5811.842050292749
 20
10244.15582800658
 30
0.0
 11
6864.375337766794
 21
10244.15582800658
 31
0.0
  0
LINE
  5
16B89
330
164C6
100
AcDbEntity
  8
寸法
 62
     0
 48
50.0
370
    -2
100
AcDbLine
 10
5811.842050292724
 20
7614.15582800658
 30
0.0
 11
6864.375337766794
 21
7614.155828006579
 31
0.0
  0
LINE
  5
16B8A
330
164C6
100
AcDbEntity
  8
寸法
 62
     0
 48
50.0
370
    -2
100
AcDbLine
 10
6804.375337766796
 20
10244.15582800658
 30
0.0
 11
6804.375337766794
 21
7614.155828006579
 31
0.0
  0
INSERT
  5
16B8B
330
164C6
100
AcDbEntity
  8
寸法
 62
     0
 48
50.0
370
    -2
100
AcDbBlockReference
  2
_DOTSMALL
 10
6804.375337766796
 20
10244.15582800658
 30
0.0
 41
100.0
 42
100.0
 43
100.0
 50
90.0
  0
INSERT
  5
16B8C
330
164C6
100
AcDbEntity
  8
寸法
 62
     0
 48
50.0
370
    -2
100
AcDbBlockReference
  2
_DOTSMALL
 10
6804.375337766794
 20
7614.155828006579
 30
0.0
 41
100.0
 42
100.0
 43
100.0
 50
270.0
  0
MTEXT
  5
16B8D
330
164C6
100
AcDbEntity
  8
寸法
 62
     7
 48
50.0
100
AcDbMText
 10
6704.363526743172
 20
8929.155828006585
 30
0.0
 40
120.0
 41
0.0
 71
     5
 72
     1
  1
\A1;2630
  7
STYLE1
 11
0.0000000000000001
 21
1.0
 31
0.0
 73
     1
 44
1.0
1001
ACAD
1000
MTEXTBEGIN
1070
    73
1070
     1
1070
    44
1040
1.0
1070
    74
1070
     0
1000
MTEXTEND
  0
POINT
  5
16B8E
330
164C6
100
AcDbEntity
  8
DEFPOINTS
 62
     0
 48
50.0
100
AcDbPoint
 10
5791.84205029275
 20
10244.15582800658
 30
0.0
  0
POINT
  5
16B8F
330
164C6
100
AcDbEntity
  8
DEFPOINTS
 62
     0
 48
50.0
100
AcDbPoint
 10
5791.842050292724
 20
7614.15582800658
 30
0.0
  0
POINT
  5
16B90
330
164C6
100
AcDbEntity
  8
DEFPOINTS
 62
     0
 48
50.0
100
AcDbPoint
 10
6804.375337766794
 20
7614.155828006579
 30
0.0
  0
ENDBLK
  5
1666D
330
164C6
100
AcDbEntity
  8
0
 48
50.0
100
AcDbBlockEnd
  0
BLOCK
  5
1666E
330
164D2
100
AcDbEntity
  8
0
 48
50.0
100
AcDbBlockBegin
  2
*D2
 70
     1
 10
0.0
 20
0.0
 30
0.0
  3
*D2
  1

  0
LINE
  5
16B7F
330
164D2
100
AcDbEntity
  8
寸法
 62
     0
 48
50.0
370
    -2
100
AcDbLine
 10
5811.842050292749
 20
10189.15582800659
 30
0.0
 11
6499.268396027158
 21
10189.15582800659
 31
0.0
  0
LINE
  5
16B80
330
164D2
100
AcDbEntity
  8
寸法
 62
     0
 48
50.0
370
    -2
100
AcDbLine
 10
5811.842050292724
 20
7669.155828006577
 30
0.0
 11
6499.268396027158
 21
7669.155828006577
 31
0.0
  0
LINE
  5
16B81
330
164D2
100
AcDbEntity
  8
寸法
 62
     0
 48
50.0
370
    -2
100
AcDbLine
 10
6439.268396027158
 20
10189.15582800659
 30
0.0
 11
6439.268396027158
 21
7669.155828006577
 31
0.0
  0
INSERT
  5
16B82
330
164D2
100
AcDbEntity
  8
寸法
 62
     0
 48
50.0
370
    -2
100
AcDbBlockReference
  2
_DOTSMALL
 10
6439.268396027158
 20
10189.15582800659
 30
0.0
 41
100.0
 42
100.0
 43
100.0
 50
90.0
  0
INSERT
  5
16B83
330
164D2
100
AcDbEntity
  8
寸法
 62
     0
 48
50.0
370
    -2
100
AcDbBlockReference
  2
_DOTSMALL
 10
6439.268396027158
 20
7669.155828006577
 30
0.0
 41
100.0
 42
100.0
 43
100.0
 50
270.0
  0
MTEXT
  5
16B84
330
164D2
100
AcDbEntity
  8
寸法
 62
     7
 48
50.0
100
AcDbMText
 10
6339.256585003536
 20
8929.155828006585
 30
0.0
 40
120.0
 41
0.0
 71
     5
 72
     1
  1
\A1;6X420=2520
  7
STYLE1
 11
0.0000000000000001
 21
1.0
 31
0.0
 73
     1
 44
1.0
1001
ACAD
1000
MTEXTBEGIN
1070
    73
1070
     1
1070
    44
1040
1.0
1070
    74
1070
     0
1000
MTEXTEND
  0
POINT
  5
16B85
330
164D2
100
AcDbEntity
  8
DEFPOINTS
 62
     0
 48
50.0
100
AcDbPoint
 10
5791.84205029275
 20
10189.15582800659
 30
0.0
  0
POINT
  5
16B86
330
164D2
100
AcDbEntity
  8
DEFPOINTS
 62
     0
 48
50.0
100
AcDbPoint
 10
5791.842050292724
 20
7669.155828006577
 30
0.0
  0
POINT
  5
16B87
330
164D2
100
AcDbEntity
  8
DEFPOINTS
 62
     0
 48
50.0
100
AcDbPoint
 10
6439.268396027158
 20
7669.155828006577
 30
0.0
  0
ENDBLK
  5
16678
330
164D2
100
AcDbEntity
  8
0
 48
50.0
100
AcDbBlockEnd
  0
BLOCK
  5
165C3
330
164F6
100
AcDbEntity
  8
0
 48
50.0
100
AcDbBlockBegin
  2
*D3
 70
     1
 10
0.0
 20
0.0
 30
0.0
  3
*D3
  1

  0
LINE
  5
16B77
330
164F6
100
AcDbEntity
  8
寸法
 62
     0
 48
50.0
370
    -2
100
AcDbLine
 10
4524.842050292742
 20
7620.155828006488
 30
0.0
 11
4524.842050292742
 21
7019.725057240325
 31
0.0
  0
LINE
  5
16B78
330
164F6
100
AcDbEntity
  8
寸法
 62
     0
 48
50.0
370
    -2
100
AcDbLine
 10
5688.842050292723
 20
7079.725057240324
 30
0.0
 11
4524.842050292742
 21
7079.725057240324
 31
0.0
  0
INSERT
  5
16B79
330
164F6
100
AcDbEntity
  8
寸法
 62
     0
 48
50.0
370
    -2
100
AcDbBlockReference
  2
_DOTSMALL
 10
5688.842050292723
 20
7079.725057240324
 30
0.0
 41
100.0
 42
100.0
 43
100.0
  0
INSERT
  5
16B7A
330
164F6
100
AcDbEntity
  8
寸法
 62
     0
 48
50.0
370
    -2
100
AcDbBlockReference
  2
_DOTSMALL
 10
4524.842050292742
 20
7079.725057240324
 30
0.0
 41
100.0
 42
100.0
 43
100.0
 50
180.0
  0
MTEXT
  5
16B7B
330
164F6
100
AcDbEntity
  8
寸法
 62
     7
 48
50.0
100
AcDbMText
 10
5106.842050292733
 20
7279.725057240324
 30
0.0
 40
120.0
 41
0.0
 71
     5
 72
     1
  1
\A1;有効開口部間口\P1164
  7
STYLE1
 73
     1
 44
1.0
1001
ACAD
1000
MTEXTBEGIN
1070
    73
1070
     1
1070
    44
1040
1.0
1070
    74
1070
     0
1000
MTEXTEND
  0
POINT
  5
16B7C
330
164F6
100
AcDbEntity
  8
DEFPOINTS
 62
     0
 48
50.0
100
AcDbPoint
 10
5688.842050292723
 20
7640.155828006489
 30
0.0
  0
POINT
  5
16B7D
330
164F6
100
AcDbEntity
  8
DEFPOINTS
 62
     0
 48
50.0
100
AcDbPoint
 10
4524.842050292742
 20
7640.155828006489
 30
0.0
  0
POINT
  5
16B7E
330
164F6
100
AcDbEntity
  8
DEFPOINTS
 62
     0
 48
50.0
100
AcDbPoint
 10
4524.842050292742
 20
7079.725057240324
 30
0.0
  0
ENDBLK
  5
165CC
330
164F6
100
AcDbEntity
  8
0
 48
50.0
100
AcDbBlockEnd
  0
BLOCK
  5
165CD
330
16501
100
AcDbEntity
  8
0
 48
50.0
100
AcDbBlockBegin
  2
*D4
 70
     1
 10
0.0
 20
0.0
 30
0.0
  3
*D4
  1

  0
LINE
  5
16B6E
330
16501
100
AcDbEntity
  8
寸法
 62
     0
 48
50.0
370
    -2
100
AcDbLine
 10
4421.842050292742
 20
7594.155828006417
 30
0.0
 11
4421.842050292742
 21
6733.552061649451
 31
0.0
  0
LINE
  5
16B6F
330
16501
100
AcDbEntity
  8
寸法
 62
     0
 48
50.0
370
    -2
100
AcDbLine
 10
5791.842050292724
 20
7594.155828006543
 30
0.0
 11
5791.842050292724
 21
6733.552061649451
 31
0.0
  0
LINE
  5
16B70
330
16501
100
AcDbEntity
  8
寸法
 62
     0
 48
50.0
370
    -2
100
AcDbLine
 10
4421.842050292742
 20
6793.55206164945
 30
0.0
 11
5791.842050292724
 21
6793.55206164945
 31
0.0
  0
INSERT
  5
16B71
330
16501
100
AcDbEntity
  8
寸法
 62
     0
 48
50.0
370
    -2
100
AcDbBlockReference
  2
_DOTSMALL
 10
4421.842050292742
 20
6793.55206164945
 30
0.0
 41
100.0
 42
100.0
 43
100.0
 50
180.0
  0
INSERT
  5
16B72
330
16501
100
AcDbEntity
  8
寸法
 62
     0
 48
50.0
370
    -2
100
AcDbBlockReference
  2
_DOTSMALL
 10
5791.842050292724
 20
6793.55206164945
 30
0.0
 41
100.0
 42
100.0
 43
100.0
  0
MTEXT
  5
16B73
330
16501
100
AcDbEntity
  8
寸法
 62
     7
 48
50.0
100
AcDbMText
 10
5106.842050292733
 20
6893.55206164945
 30
0.0
 40
120.0
 41
0.0
 71
     5
 72
     1
  1
\A1;1370
  7
STYLE1
 73
     1
 44
1.0
1001
ACAD
1000
MTEXTBEGIN
1070
    73
1070
     1
1070
    44
1040
1.0
1070
    74
1070
     0
1000
MTEXTEND
  0
POINT
  5
16B74
330
16501
100
AcDbEntity
  8
DEFPOINTS
 62
     0
 48
50.0
100
AcDbPoint
 10
4421.842050292742
 20
7614.155828006416
 30
0.0
  0
POINT
  5
16B75
330
16501
100
AcDbEntity
  8
DEFPOINTS
 62
     0
 48
50.0
100
AcDbPoint
 10
5791.842050292724
 20
7614.155828006544
 30
0.0
  0
POINT
  5
16B76
330
16501
100
AcDbEntity
  8
DEFPOINTS
 62
     0
 48
50.0
100
AcDbPoint
 10
5791.842050292724
 20
6793.55206164945
 30
0.0
  0
ENDBLK
  5
165D7
330
16501
100
AcDbEntity
  8
0
 48
50.0
100
AcDbBlockEnd
  0
BLOCK
  5
165D8
330
1650D
100
AcDbEntity
  8
0
 48
50.0
100
AcDbBlockBegin
  2
*D5
 70
     1
 10
0.0
 20
0.0
 30
0.0
  3
*D5
  1

  0
LINE
  5
16B63
330
1650D
100
AcDbEntity
  8
寸法
 62
     0
 48
50.0
370
    -2
100
AcDbLine
 10
4476.842050292738
 20
7594.155828006488
 30
0.0
 11
4476.842050292738
 21
7019.725057240325
 31
0.0
  0
LINE
  5
16B64
330
1650D
100
AcDbEntity
  8
寸法
 62
     0
 48
50.0
370
    -2
100
AcDbLine
 10
4421.842050292742
 20
7594.155828006485
 30
0.0
 11
4421.842050292742
 21
7019.725057240325
 31
0.0
  0
LINE
  5
16B65
330
1650D
100
AcDbEntity
  8
寸法
 62
     0
 48
50.0
370
    -2
100
AcDbLine
 10
4476.842050292738
 20
7079.725057240324
 30
0.0
 11
4576.842050292738
 21
7079.725057240324
 31
0.0
  0
LINE
  5
16B66
330
1650D
100
AcDbEntity
  8
寸法
 62
     0
 48
50.0
370
    -2
100
AcDbLine
 10
4421.842050292742
 20
7079.725057240324
 30
0.0
 11
4004.871487544265
 21
7079.725057240324
 31
0.0
  0
LINE
  5
16B67
330
1650D
100
AcDbEntity
  8
寸法
 62
     0
 48
50.0
370
    -2
100
AcDbLine
 10
4476.842050292738
 20
7079.725057240324
 30
0.0
 11
4421.842050292742
 21
7079.725057240324
 31
0.0
  0
INSERT
  5
16B68
330
1650D
100
AcDbEntity
  8
寸法
 62
     0
 48
50.0
370
    -2
100
AcDbBlockReference
  2
_DOTSMALL
 10
4476.842050292738
 20
7079.725057240324
 30
0.0
 41
100.0
 42
100.0
 43
100.0
 50
180.0
  0
INSERT
  5
16B69
330
1650D
100
AcDbEntity
  8
寸法
 62
     0
 48
50.0
370
    -2
100
AcDbBlockReference
  2
_DOTSMALL
 10
4421.842050292742
 20
7079.725057240324
 30
0.0
 41
100.0
 42
100.0
 43
100.0
  0
MTEXT
  5
16B6A
330
1650D
100
AcDbEntity
  8
寸法
 62
     7
 48
50.0
100
AcDbMText
 10
4113.356768918503
 20
7179.725057240324
 30
0.0
 40
120.0
 41
0.0
 71
     5
 72
     1
  1
\A1;55
  7
STYLE1
 73
     1
 44
1.0
1001
ACAD
1000
MTEXTBEGIN
1070
    73
1070
     1
1070
    44
1040
1.0
1070
    74
1070
     0
1000
MTEXTEND
  0
POINT
  5
16B6B
330
1650D
100
AcDbEntity
  8
DEFPOINTS
 62
     0
 48
50.0
100
AcDbPoint
 10
4476.842050292738
 20
7614.155828006488
 30
0.0
  0
POINT
  5
16B6C
330
1650D
100
AcDbEntity
  8
DEFPOINTS
 62
     0
 48
50.0
100
AcDbPoint
 10
4421.842050292742
 20
7614.155828006485
 30
0.0
  0
POINT
  5
16B6D
330
1650D
100
AcDbEntity
  8
DEFPOINTS
 62
     0
 48
50.0
100
AcDbPoint
 10
4421.842050292742
 20
7079.725057240324
 30
0.0
  0
ENDBLK
  5
165E4
330
1650D
100
AcDbEntity
  8
0
 48
50.0
100
AcDbBlockEnd
  0
BLOCK
  5
165E5
330
1651B
100
AcDbEntity
  8
0
 48
50.0
100
AcDbBlockBegin
  2
*D6
 70
     1
 10
0.0
 20
0.0
 30
0.0
  3
*D6
  1

  0
LINE
  5
16B58
330
1651B
100
AcDbEntity
  8
寸法
 62
     0
 48
50.0
370
    -2
100
AcDbLine
 10
4524.842050292742
 20
7620.155828006488
 30
0.0
 11
4524.842050292742
 21
7019.725057240325
 31
0.0
  0
LINE
  5
16B59
330
1651B
100
AcDbEntity
  8
寸法
 62
     0
 48
50.0
370
    -2
100
AcDbLine
 10
4476.842050292738
 20
7594.155828006488
 30
0.0
 11
4476.842050292738
 21
7019.725057240325
 31
0.0
  0
LINE
  5
16B5A
330
1651B
100
AcDbEntity
  8
寸法
 62
     0
 48
50.0
370
    -2
100
AcDbLine
 10
4524.842050292742
 20
7079.725057240324
 30
0.0
 11
4624.842050292742
 21
7079.725057240324
 31
0.0
  0
LINE
  5
16B5B
330
1651B
100
AcDbEntity
  8
寸法
 62
     0
 48
50.0
370
    -2
100
AcDbLine
 10
4476.842050292738
 20
7079.725057240324
 30
0.0
 11
4376.842050292738
 21
7079.725057240324
 31
0.0
  0
MTEXT
  5
16B5C
330
1651B
100
AcDbEntity
  8
寸法
 62
     7
 48
50.0
100
AcDbMText
 10
4637.744021292799
 20
7179.725057240324
 30
0.0
 40
120.0
 41
0.0
 71
     5
 72
     1
  1
\A1;48
  7
STYLE1
 73
     1
 44
1.0
1001
ACAD
1000
MTEXTBEGIN
1070
    73
1070
     1
1070
    44
1040
1.0
1070
    74
1070
     0
1000
MTEXTEND
  0
LINE
  5
16B5D
330
1651B
100
AcDbEntity
  8
寸法
 62
     0
 48
50.0
370
    -2
100
AcDbLine
 10
4524.842050292742
 20
7079.725057240324
 30
0.0
 11
4476.842050292738
 21
7079.725057240324
 31
0.0
  0
INSERT
  5
16B5E
330
1651B
100
AcDbEntity
  8
寸法
 62
     0
 48
50.0
370
    -2
100
AcDbBlockReference
  2
_DOTSMALL
 10
4524.842050292742
 20
7079.725057240324
 30
0.0
 41
100.0
 42
100.0
 43
100.0
 50
180.0
  0
INSERT
  5
16B5F
330
1651B
100
AcDbEntity
  8
寸法
 62
     0
 48
50.0
370
    -2
100
AcDbBlockReference
  2
_DOTSMALL
 10
4476.842050292738
 20
7079.725057240324
 30
0.0
 41
100.0
 42
100.0
 43
100.0
  0
POINT
  5
16B60
330
1651B
100
AcDbEntity
  8
DEFPOINTS
 62
     0
 48
50.0
100
AcDbPoint
 10
4524.842050292742
 20
7640.155828006489
 30
0.0
  0
POINT
  5
16B61
330
1651B
100
AcDbEntity
  8
DEFPOINTS
 62
     0
 48
50.0
100
AcDbPoint
 10
4476.842050292738
 20
7614.155828006488
 30
0.0
  0
POINT
  5
16B62
330
1651B
100
AcDbEntity
  8
DEFPOINTS
 62
     0
 48
50.0
100
AcDbPoint
 10
4476.842050292738
 20
7079.725057240324
 30
0.0
  0
ENDBLK
  5
165F2
330
1651B
100
AcDbEntity
  8
0
 48
50.0
100
AcDbBlockEnd
  0
BLOCK
  5
165F3
330
1652A
100
AcDbEntity
  8
0
 48
50.0
100
AcDbBlockBegin
  2
*D7
 70
     1
 10
0.0
 20
0.0
 30
0.0
  3
*D7
  1

  0
LINE
  5
16B4D
330
1652A
100
AcDbEntity
  8
寸法
 62
     0
 48
50.0
370
    -2
100
AcDbLine
 10
5736.842050292725
 20
7594.155828006576
 30
0.0
 11
5736.842050292725
 21
7019.725057240325
 31
0.0
  0
LINE
  5
16B4E
330
1652A
100
AcDbEntity
  8
寸法
 62
     0
 48
50.0
370
    -2
100
AcDbLine
 10
5688.842050292723
 20
7620.155828006488
 30
0.0
 11
5688.842050292723
 21
7019.725057240325
 31
0.0
  0
LINE
  5
16B4F
330
1652A
100
AcDbEntity
  8
寸法
 62
     0
 48
50.0
370
    -2
100
AcDbLine
 10
5736.842050292725
 20
7079.725057240324
 30
0.0
 11
5836.842050292726
 21
7079.725057240324
 31
0.0
  0
LINE
  5
16B50
330
1652A
100
AcDbEntity
  8
寸法
 62
     0
 48
50.0
370
    -2
100
AcDbLine
 10
5688.842050292723
 20
7079.725057240324
 30
0.0
 11
5588.842050292724
 21
7079.725057240324
 31
0.0
  0
MTEXT
  5
16B51
330
1652A
100
AcDbEntity
  8
寸法
 62
     7
 48
50.0
100
AcDbMText
 10
5577.879152643976
 20
7179.725057240324
 30
0.0
 40
120.0
 41
0.0
 71
     5
 72
     1
  1
\A1;48
  7
STYLE1
 73
     1
 44
1.0
1001
ACAD
1000
MTEXTBEGIN
1070
    73
1070
     1
1070
    44
1040
1.0
1070
    74
1070
     0
1000
MTEXTEND
  0
LINE
  5
16B52
330
1652A
100
AcDbEntity
  8
寸法
 62
     0
 48
50.0
370
    -2
100
AcDbLine
 10
5736.842050292725
 20
7079.725057240324
 30
0.0
 11
5688.842050292723
 21
7079.725057240324
 31
0.0
  0
INSERT
  5
16B53
330
1652A
100
AcDbEntity
  8
寸法
 62
     0
 48
50.0
370
    -2
100
AcDbBlockReference
  2
_DOTSMALL
 10
5736.842050292725
 20
7079.725057240324
 30
0.0
 41
100.0
 42
100.0
 43
100.0
 50
180.0
  0
INSERT
  5
16B54
330
1652A
100
AcDbEntity
  8
寸法
 62
     0
 48
50.0
370
    -2
100
AcDbBlockReference
  2
_DOTSMALL
 10
5688.842050292723
 20
7079.725057240324
 30
0.0
 41
100.0
 42
100.0
 43
100.0
  0
POINT
  5
16B55
330
1652A
100
AcDbEntity
  8
DEFPOINTS
 62
     0
 48
50.0
100
AcDbPoint
 10
5736.842050292725
 20
7614.155828006577
 30
0.0
  0
POINT
  5
16B56
330
1652A
100
AcDbEntity
  8
DEFPOINTS
 62
     0
 48
50.0
100
AcDbPoint
 10
5688.842050292723
 20
7640.155828006489
 30
0.0
  0
POINT
  5
16B57
330
1652A
100
AcDbEntity
  8
DEFPOINTS
 62
     0
 48
50.0
100
AcDbPoint
 10
5688.842050292723
 20
7079.725057240324
 30
0.0
  0
ENDBLK
  5
16600
330
1652A
100
AcDbEntity
  8
0
 48
50.0
100
AcDbBlockEnd
  0
BLOCK
  5
16601
330
16539
100
AcDbEntity
  8
0
 48
50.0
100
AcDbBlockBegin
  2
*D8
 70
     1
 10
0.0
 20
0.0
 30
0.0
  3
*D8
  1

  0
LINE
  5
16B42
330
16539
100
AcDbEntity
  8
寸法
 62
     0
 48
50.0
370
    -2
100
AcDbLine
 10
5791.842050292724
 20
7594.155828006581
 30
0.0
 11
5791.842050292724
 21
7019.725057240326
 31
0.0
  0
LINE
  5
16B43
330
16539
100
AcDbEntity
  8
寸法
 62
     0
 48
50.0
370
    -2
100
AcDbLine
 10
5736.842050292725
 20
7594.155828006576
 30
0.0
 11
5736.842050292725
 21
7019.725057240326
 31
0.0
  0
LINE
  5
16B44
330
16539
100
AcDbEntity
  8
寸法
 62
     0
 48
50.0
370
    -2
100
AcDbLine
 10
5736.842050292725
 20
7079.725057240326
 30
0.0
 11
5636.842050292726
 21
7079.725057240326
 31
0.0
  0
LINE
  5
16B45
330
16539
100
AcDbEntity
  8
寸法
 62
     0
 48
50.0
370
    -2
100
AcDbLine
 10
5791.842050292724
 20
7079.725057240326
 30
0.0
 11
6208.812613041201
 21
7079.725057240326
 31
0.0
  0
LINE
  5
16B46
330
16539
100
AcDbEntity
  8
寸法
 62
     0
 48
50.0
370
    -2
100
AcDbLine
 10
5736.842050292725
 20
7079.725057240326
 30
0.0
 11
5791.842050292724
 21
7079.725057240326
 31
0.0
  0
INSERT
  5
16B47
330
16539
100
AcDbEntity
  8
寸法
 62
     0
 48
50.0
370
    -2
100
AcDbBlockReference
  2
_DOTSMALL
 10
5736.842050292725
 20
7079.725057240326
 30
0.0
 41
100.0
 42
100.0
 43
100.0
  0
INSERT
  5
16B48
330
16539
100
AcDbEntity
  8
寸法
 62
     0
 48
50.0
370
    -2
100
AcDbBlockReference
  2
_DOTSMALL
 10
5791.842050292724
 20
7079.725057240326
 30
0.0
 41
100.0
 42
100.0
 43
100.0
 50
180.0
  0
MTEXT
  5
16B49
330
16539
100
AcDbEntity
  8
寸法
 62
     7
 48
50.0
100
AcDbMText
 10
6100.327331666962
 20
7179.725057240325
 30
0.0
 40
120.0
 41
0.0
 71
     5
 72
     1
  1
\A1;55
  7
STYLE1
 73
     1
 44
1.0
1001
ACAD
1000
MTEXTBEGIN
1070
    73
1070
     1
1070
    44
1040
1.0
1070
    74
1070
     0
1000
MTEXTEND
  0
POINT
  5
16B4A
330
16539
100
AcDbEntity
  8
DEFPOINTS
 62
     0
 48
50.0
100
AcDbPoint
 10
5791.842050292724
 20
7614.15582800658
 30
0.0
  0
POINT
  5
16B4B
330
16539
100
AcDbEntity
  8
DEFPOINTS
 62
     0
 48
50.0
100
AcDbPoint
 10
5736.842050292725
 20
7614.155828006577
 30
0.0
  0
POINT
  5
16B4C
330
16539
100
AcDbEntity
  8
DEFPOINTS
 62
     0
 48
50.0
100
AcDbPoint
 10
5736.842050292725
 20
7079.725057240326
 30
0.0
  0
ENDBLK
  5
1660D
330
16539
100
AcDbEntity
  8
0
 48
50.0
100
AcDbBlockEnd
  0
BLOCK
  5
1660E
330
16547
100
AcDbEntity
  8
0
 48
50.0
100
AcDbBlockBegin
  2
*D9
 70
     1
 10
0.0
 20
0.0
 30
0.0
  3
*D9
  1

  0
LINE
  5
16B37
330
16547
100
AcDbEntity
  8
寸法
 62
     0
 48
50.0
370
    -2
100
AcDbLine
 10
5811.842050292724
 20
7669.155828006577
 30
0.0
 11
6499.268396027135
 21
7669.155828006577
 31
0.0
  0
LINE
  5
16B38
330
16547
100
AcDbEntity
  8
寸法
 62
     0
 48
50.0
370
    -2
100
AcDbLine
 10
5811.842050292724
 20
7614.15582800658
 30
0.0
 11
6499.268396027135
 21
7614.155828006579
 31
0.0
  0
LINE
  5
16B39
330
16547
100
AcDbEntity
  8
寸法
 62
     0
 48
50.0
370
    -2
100
AcDbLine
 10
6439.268396027135
 20
7669.155828006577
 30
0.0
 11
6439.268396027135
 21
7769.155828006576
 31
0.0
  0
LINE
  5
16B3A
330
16547
100
AcDbEntity
  8
寸法
 62
     0
 48
50.0
370
    -2
100
AcDbLine
 10
6439.268396027135
 20
7614.155828006579
 30
0.0
 11
6439.268396027135
 21
7127.809079727477
 31
0.0
  0
LINE
  5
16B3B
330
16547
100
AcDbEntity
  8
寸法
 62
     0
 48
50.0
370
    -2
100
AcDbLine
 10
6439.268396027135
 20
7669.155828006577
 30
0.0
 11
6439.268396027135
 21
7614.155828006579
 31
0.0
  0
INSERT
  5
16B3C
330
16547
100
AcDbEntity
  8
寸法
 62
     0
 48
50.0
370
    -2
100
AcDbBlockReference
  2
_DOTSMALL
 10
6439.268396027135
 20
7669.155828006577
 30
0.0
 41
100.0
 42
100.0
 43
100.0
 50
270.0
  0
INSERT
  5
16B3D
330
16547
100
AcDbEntity
  8
寸法
 62
     0
 48
50.0
370
    -2
100
AcDbBlockReference
  2
_DOTSMALL
 10
6439.268396027135
 20
7614.155828006579
 30
0.0
 41
100.0
 42
100.0
 43
100.0
 50
90.0
  0
MTEXT
  5
16B3E
330
16547
100
AcDbEntity
  8
寸法
 62
     7
 48
50.0
100
AcDbMText
 10
6339.268396027133
 20
7236.294361101719
 30
0.0
 40
120.0
 41
0.0
 71
     5
 72
     1
  1
\A1;55
  7
STYLE1
 11
0.0000000000000001
 21
1.0
 31
0.0
 73
     1
 44
1.0
1001
ACAD
1000
MTEXTBEGIN
1070
    73
1070
     1
1070
    44
1040
1.0
1070
    74
1070
     0
1000
MTEXTEND
  0
POINT
  5
16B3F
330
16547
100
AcDbEntity
  8
DEFPOINTS
 62
     0
 48
50.0
100
AcDbPoint
 10
5791.842050292724
 20
7669.155828006577
 30
0.0
  0
POINT
  5
16B40
330
16547
100
AcDbEntity
  8
DEFPOINTS
 62
     0
 48
50.0
100
AcDbPoint
 10
5791.842050292724
 20
7614.15582800658
 30
0.0
  0
POINT
  5
16B41
330
16547
100
AcDbEntity
  8
DEFPOINTS
 62
     0
 48
50.0
100
AcDbPoint
 10
6439.268396027135
 20
7614.155828006579
 30
0.0
  0
ENDBLK
  5
1661A
330
16547
100
AcDbEntity
  8
0
 48
50.0
100
AcDbBlockEnd
  0
BLOCK
  5
1661B
330
16555
100
AcDbEntity
  8
0
 48
50.0
100
AcDbBlockBegin
  2
*D10
 70
     1
 10
0.0
 20
0.0
 30
0.0
  3
*D10
  1

  0
LINE
  5
16B2E
330
16555
100
AcDbEntity
  8
寸法
 62
     0
 48
50.0
370
    -2
100
AcDbLine
 10
4476.842050292748
 20
10264.15582800649
 30
0.0
 11
4476.842050292748
 21
10519.96404763159
 31
0.0
  0
LINE
  5
16B2F
330
16555
100
AcDbEntity
  8
寸法
 62
     0
 48
50.0
370
    -2
100
AcDbLine
 10
5736.842050292749
 20
10264.15582800658
 30
0.0
 11
5736.842050292749
 21
10519.96404763159
 31
0.0
  0
LINE
  5
16B30
330
16555
100
AcDbEntity
  8
寸法
 62
     0
 48
50.0
370
    -2
100
AcDbLine
 10
4476.842050292748
 20
10459.96404763159
 30
0.0
 11
5736.842050292749
 21
10459.96404763159
 31
0.0
  0
INSERT
  5
16B31
330
16555
100
AcDbEntity
  8
寸法
 62
     0
 48
50.0
370
    -2
100
AcDbBlockReference
  2
_DOTSMALL
 10
4476.842050292748
 20
10459.96404763159
 30
0.0
 41
100.0
 42
100.0
 43
100.0
 50
180.0
  0
INSERT
  5
16B32
330
16555
100
AcDbEntity
  8
寸法
 62
     0
 48
50.0
370
    -2
100
AcDbBlockReference
  2
_DOTSMALL
 10
5736.842050292749
 20
10459.96404763159
 30
0.0
 41
100.0
 42
100.0
 43
100.0
  0
MTEXT
  5
16B33
330
16555
100
AcDbEntity
  8
寸法
 62
     7
 48
50.0
100
AcDbMText
 10
5106.842050292749
 20
10559.97585865521
 30
0.0
 40
120.0
 41
0.0
 71
     5
 72
     1
  1
\A1;3X420=1260
  7
STYLE1
 73
     1
 44
1.0
1001
ACAD
1000
MTEXTBEGIN
1070
    73
1070
     1
1070
    44
1040
1.0
1070
    74
1070
     0
1000
MTEXTEND
  0
POINT
  5
16B34
330
16555
100
AcDbEntity
  8
DEFPOINTS
 62
     0
 48
50.0
100
AcDbPoint
 10
4476.842050292748
 20
10244.15582800649
 30
0.0
  0
POINT
  5
16B35
330
16555
100
AcDbEntity
  8
DEFPOINTS
 62
     0
 48
50.0
100
AcDbPoint
 10
5736.842050292749
 20
10244.15582800658
 30
0.0
  0
POINT
  5
16B36
330
16555
100
AcDbEntity
  8
DEFPOINTS
 62
     0
 48
50.0
100
AcDbPoint
 10
5736.842050292749
 20
10459.96404763159
 30
0.0
  0
ENDBLK
  5
16625
330
16555
100
AcDbEntity
  8
0
 48
50.0
100
AcDbBlockEnd
  0
BLOCK
  5
16626
330
16561
100
AcDbEntity
  8
0
 48
50.0
100
AcDbBlockBegin
  2
*D11
 70
     1
 10
0.0
 20
0.0
 30
0.0
  3
*D11
  1

  0
LINE
  5
16B23
330
16561
100
AcDbEntity
  8
寸法
 62
     0
 48
50.0
370
    -2
100
AcDbLine
 10
4421.842050292713
 20
10264.15582800649
 30
0.0
 11
4421.842050292713
 21
10519.96404763147
 31
0.0
  0
LINE
  5
16B24
330
16561
100
AcDbEntity
  8
寸法
 62
     0
 48
50.0
370
    -2
100
AcDbLine
 10
4476.842050292748
 20
10264.15582800649
 30
0.0
 11
4476.842050292748
 21
10519.96404763147
 31
0.0
  0
LINE
  5
16B25
330
16561
100
AcDbEntity
  8
寸法
 62
     0
 48
50.0
370
    -2
100
AcDbLine
 10
4476.842050292748
 20
10459.96404763147
 30
0.0
 11
4576.842050292748
 21
10459.96404763147
 31
0.0
  0
LINE
  5
16B26
330
16561
100
AcDbEntity
  8
寸法
 62
     0
 48
50.0
370
    -2
100
AcDbLine
 10
4421.842050292713
 20
10459.96404763147
 30
0.0
 11
4004.871487544235
 21
10459.96404763147
 31
0.0
  0
LINE
  5
16B27
330
16561
100
AcDbEntity
  8
寸法
 62
     0
 48
50.0
370
    -2
100
AcDbLine
 10
4476.842050292748
 20
10459.96404763147
 30
0.0
 11
4421.842050292713
 21
10459.96404763147
 31
0.0
  0
INSERT
  5
16B28
330
16561
100
AcDbEntity
  8
寸法
 62
     0
 48
50.0
370
    -2
100
AcDbBlockReference
  2
_DOTSMALL
 10
4476.842050292748
 20
10459.96404763147
 30
0.0
 41
100.0
 42
100.0
 43
100.0
 50
180.0
  0
INSERT
  5
16B29
330
16561
100
AcDbEntity
  8
寸法
 62
     0
 48
50.0
370
    -2
100
AcDbBlockReference
  2
_DOTSMALL
 10
4421.842050292713
 20
10459.96404763147
 30
0.0
 41
100.0
 42
100.0
 43
100.0
  0
MTEXT
  5
16B2A
330
16561
100
AcDbEntity
  8
寸法
 62
     7
 48
50.0
100
AcDbMText
 10
4113.356768918475
 20
10559.96404763147
 30
0.0
 40
120.0
 41
0.0
 71
     5
 72
     1
  1
\A1;55
  7
STYLE1
 73
     1
 44
1.0
1001
ACAD
1000
MTEXTBEGIN
1070
    73
1070
     1
1070
    44
1040
1.0
1070
    74
1070
     0
1000
MTEXTEND
  0
POINT
  5
16B2B
330
16561
100
AcDbEntity
  8
DEFPOINTS
 62
     0
 48
50.0
100
AcDbPoint
 10
4421.842050292713
 20
10244.15582800649
 30
0.0
  0
POINT
  5
16B2C
330
16561
100
AcDbEntity
  8
DEFPOINTS
 62
     0
 48
50.0
100
AcDbPoint
 10
4476.842050292748
 20
10244.15582800649
 30
0.0
  0
POINT
  5
16B2D
330
16561
100
AcDbEntity
  8
DEFPOINTS
 62
     0
 48
50.0
100
AcDbPoint
 10
4476.842050292748
 20
10459.96404763147
 30
0.0
  0
ENDBLK
  5
16632
330
16561
100
AcDbEntity
  8
0
 48
50.0
100
AcDbBlockEnd
  0
BLOCK
  5
16633
330
1656F
100
AcDbEntity
  8
0
 48
50.0
100
AcDbBlockBegin
  2
*D12
 70
     1
 10
0.0
 20
0.0
 30
0.0
  3
*D12
  1

  0
LINE
  5
16B18
330
1656F
100
AcDbEntity
  8
寸法
 62
     0
 48
50.0
370
    -2
100
AcDbLine
 10
5811.842050292749
 20
10244.15582800658
 30
0.0
 11
6499.268396027161
 21
10244.15582800658
 31
0.0
  0
LINE
  5
16B19
330
1656F
100
AcDbEntity
  8
寸法
 62
     0
 48
50.0
370
    -2
100
AcDbLine
 10
5811.842050292749
 20
10189.15582800659
 30
0.0
 11
6499.268396027159
 21
10189.15582800659
 31
0.0
  0
LINE
  5
16B1A
330
1656F
100
AcDbEntity
  8
寸法
 62
     0
 48
50.0
370
    -2
100
AcDbLine
 10
6439.268396027159
 20
10189.15582800659
 30
0.0
 11
6439.268396027159
 21
10089.15582800659
 31
0.0
  0
LINE
  5
16B1B
330
1656F
100
AcDbEntity
  8
寸法
 62
     0
 48
50.0
370
    -2
100
AcDbLine
 10
6439.268396027161
 20
10244.15582800658
 30
0.0
 11
6439.268396027161
 21
10661.12639075506
 31
0.0
  0
LINE
  5
16B1C
330
1656F
100
AcDbEntity
  8
寸法
 62
     0
 48
50.0
370
    -2
100
AcDbLine
 10
6439.268396027159
 20
10189.15582800659
 30
0.0
 11
6439.268396027161
 21
10244.15582800658
 31
0.0
  0
INSERT
  5
16B1D
330
1656F
100
AcDbEntity
  8
寸法
 62
     0
 48
50.0
370
    -2
100
AcDbBlockReference
  2
_DOTSMALL
 10
6439.268396027159
 20
10189.15582800659
 30
0.0
 41
100.0
 42
100.0
 43
100.0
 50
90.0
  0
INSERT
  5
16B1E
330
1656F
100
AcDbEntity
  8
寸法
 62
     0
 48
50.0
370
    -2
100
AcDbBlockReference
  2
_DOTSMALL
 10
6439.268396027161
 20
10244.15582800658
 30
0.0
 41
100.0
 42
100.0
 43
100.0
 50
270.0
  0
MTEXT
  5
16B1F
330
1656F
100
AcDbEntity
  8
寸法
 62
     7
 48
50.0
100
AcDbMText
 10
6339.268396027159
 20
10552.64110938082
 30
0.0
 40
120.0
 41
0.0
 71
     5
 72
     1
  1
\A1;55
  7
STYLE1
 11
0.0000000000000001
 21
1.0
 31
0.0
 73
     1
 44
1.0
1001
ACAD
1000
MTEXTBEGIN
1070
    73
1070
     1
1070
    44
1040
1.0
1070
    74
1070
     0
1000
MTEXTEND
  0
POINT
  5
16B20
330
1656F
100
AcDbEntity
  8
DEFPOINTS
 62
     0
 48
50.0
100
AcDbPoint
 10
5791.84205029275
 20
10244.15582800658
 30
0.0
  0
POINT
  5
16B21
330
1656F
100
AcDbEntity
  8
DEFPOINTS
 62
     0
 48
50.0
100
AcDbPoint
 10
5791.84205029275
 20
10189.15582800659
 30
0.0
  0
POINT
  5
16B22
330
1656F
100
AcDbEntity
  8
DEFPOINTS
 62
     0
 48
50.0
100
AcDbPoint
 10
6439.268396027159
 20
10189.15582800659
 30
0.0
  0
ENDBLK
  5
1663F
330
1656F
100
AcDbEntity
  8
0
 48
50.0
100
AcDbBlockEnd
  0
BLOCK
  5
16640
330
1657D
100
AcDbEntity
  8
0
 48
50.0
100
AcDbBlockBegin
  2
*D13
 70
     1
 10
0.0
 20
0.0
 30
0.0
  3
*D13
  1

  0
LINE
  5
16B0D
330
1657D
100
AcDbEntity
  8
寸法
 62
     0
 48
50.0
370
    -2
100
AcDbLine
 10
5736.842050292749
 20
10264.15582800658
 30
0.0
 11
5736.842050292749
 21
10519.96404763157
 31
0.0
  0
LINE
  5
16B0E
330
1657D
100
AcDbEntity
  8
寸法
 62
     0
 48
50.0
370
    -2
100
AcDbLine
 10
5791.84205029275
 20
10264.15582800658
 30
0.0
 11
5791.84205029275
 21
10519.96404763157
 31
0.0
  0
LINE
  5
16B0F
330
1657D
100
AcDbEntity
  8
寸法
 62
     0
 48
50.0
370
    -2
100
AcDbLine
 10
5736.842050292749
 20
10459.96404763157
 30
0.0
 11
5636.842050292749
 21
10459.96404763157
 31
0.0
  0
LINE
  5
16B10
330
1657D
100
AcDbEntity
  8
寸法
 62
     0
 48
50.0
370
    -2
100
AcDbLine
 10
5791.84205029275
 20
10459.96404763157
 30
0.0
 11
6208.812613041227
 21
10459.96404763157
 31
0.0
  0
LINE
  5
16B11
330
1657D
100
AcDbEntity
  8
寸法
 62
     0
 48
50.0
370
    -2
100
AcDbLine
 10
5736.842050292749
 20
10459.96404763157
 30
0.0
 11
5791.84205029275
 21
10459.96404763157
 31
0.0
  0
INSERT
  5
16B12
330
1657D
100
AcDbEntity
  8
寸法
 62
     0
 48
50.0
370
    -2
100
AcDbBlockReference
  2
_DOTSMALL
 10
5736.842050292749
 20
10459.96404763157
 30
0.0
 41
100.0
 42
100.0
 43
100.0
  0
INSERT
  5
16B13
330
1657D
100
AcDbEntity
  8
寸法
 62
     0
 48
50.0
370
    -2
100
AcDbBlockReference
  2
_DOTSMALL
 10
5791.84205029275
 20
10459.96404763157
 30
0.0
 41
100.0
 42
100.0
 43
100.0
 50
180.0
  0
MTEXT
  5
16B14
330
1657D
100
AcDbEntity
  8
寸法
 62
     7
 48
50.0
100
AcDbMText
 10
6100.327331666988
 20
10559.96404763157
 30
0.0
 40
120.0
 41
0.0
 71
     5
 72
     1
  1
\A1;55
  7
STYLE1
 73
     1
 44
1.0
1001
ACAD
1000
MTEXTBEGIN
1070
    73
1070
     1
1070
    44
1040
1.0
1070
    74
1070
     0
1000
MTEXTEND
  0
POINT
  5
16B15
330
1657D
100
AcDbEntity
  8
DEFPOINTS
 62
     0
 48
50.0
100
AcDbPoint
 10
5736.842050292749
 20
10244.15582800658
 30
0.0
  0
POINT
  5
16B16
330
1657D
100
AcDbEntity
  8
DEFPOINTS
 62
     0
 48
50.0
100
AcDbPoint
 10
5791.84205029275
 20
10244.15582800658
 30
0.0
  0
POINT
  5
16B17
330
1657D
100
AcDbEntity
  8
DEFPOINTS
 62
     0
 48
50.0
100
AcDbPoint
 10
5791.84205029275
 20
10459.96404763157
 30
0.0
  0
ENDBLK
  5
1664C
330
1657D
100
AcDbEntity
  8
0
 48
50.0
100
AcDbBlockEnd
  0
BLOCK
  5
171BB
330
171B1
100
AcDbEntity
  8
0
 48
50.0
100
AcDbBlockBegin
  2
*D14
 70
     1
 10
0.0
 20
0.0
 30
0.0
  3
*D14
  1

  0
LINE
  5
17B69
330
171B1
100
AcDbEntity
  8
寸法
 62
     0
 48
50.0
370
    -2
100
AcDbLine
 10
5791.842050292714
 20
4632.931598713263
 30
0.0
 11
5791.842050292714
 21
5078.657870445169
 31
0.0
  0
LINE
  5
17B6A
330
171B1
100
AcDbEntity
  8
寸法
 62
     0
 48
50.0
370
    -2
100
AcDbLine
 10
4421.842050292713
 20
4632.931598713265
 30
0.0
 11
4421.842050292713
 21
5078.657870445169
 31
0.0
  0
LINE
  5
17B6B
330
171B1
100
AcDbEntity
  8
寸法
 62
     0
 48
50.0
370
    -2
100
AcDbLine
 10
5791.842050292714
 20
5018.657870445168
 30
0.0
 11
4421.842050292713
 21
5018.657870445168
 31
0.0
  0
INSERT
  5
17B6C
330
171B1
100
AcDbEntity
  8
寸法
 62
     0
 48
50.0
370
    -2
100
AcDbBlockReference
  2
_DOTSMALL
 10
5791.842050292714
 20
5018.657870445168
 30
0.0
 41
100.0
 42
100.0
 43
100.0
  0
INSERT
  5
17B6D
330
171B1
100
AcDbEntity
  8
寸法
 62
     0
 48
50.0
370
    -2
100
AcDbBlockReference
  2
_DOTSMALL
 10
4421.842050292713
 20
5018.657870445168
 30
0.0
 41
100.0
 42
100.0
 43
100.0
 50
180.0
  0
MTEXT
  5
17B6E
330
171B1
100
AcDbEntity
  8
寸法
 62
     7
 48
50.0
100
AcDbMText
 10
5110.434590660568
 20
5118.657870445169
 30
0.0
 40
120.0
 41
0.0
 71
     5
 72
     1
  1
\A1;柱外寸法1370
  7
STYLE1
 73
     1
 44
1.0
1001
ACAD
1000
MTEXTBEGIN
1070
    73
1070
     1
1070
    44
1040
1.0
1070
    74
1070
     0
1000
MTEXTEND
  0
POINT
  5
17B6F
330
171B1
100
AcDbEntity
  8
DEFPOINTS
 62
     0
 48
50.0
100
AcDbPoint
 10
5791.842050292714
 20
4612.931598713264
 30
0.0
  0
POINT
  5
17B70
330
171B1
100
AcDbEntity
  8
DEFPOINTS
 62
     0
 48
50.0
100
AcDbPoint
 10
4421.842050292713
 20
4612.931598713265
 30
0.0
  0
POINT
  5
17B71
330
171B1
100
AcDbEntity
  8
DEFPOINTS
 62
     0
 48
50.0
100
AcDbPoint
 10
4421.842050292713
 20
5018.657870445168
 30
0.0
  0
ENDBLK
  5
171BC
330
171B1
100
AcDbEntity
  8
0
 48
50.0
100
AcDbBlockEnd
  0
BLOCK
  5
171C9
330
171BD
100
AcDbEntity
  8
0
 48
50.0
100
AcDbBlockBegin
  2
*D15
 70
     1
 10
0.0
 20
0.0
 30
0.0
  3
*D15
  1

  0
LINE
  5
17B5E
330
171BD
100
AcDbEntity
  8
寸法
 62
     0
 48
50.0
370
    -2
100
AcDbLine
 10
4421.842050292713
 20
4632.931598713265
 30
0.0
 11
4421.842050292713
 21
5078.657870445169
 31
0.0
  0
LINE
  5
17B5F
330
171BD
100
AcDbEntity
  8
寸法
 62
     0
 48
50.0
370
    -2
100
AcDbLine
 10
4371.842050292713
 20
4632.931598713263
 30
0.0
 11
4371.842050292713
 21
5078.657870445169
 31
0.0
  0
LINE
  5
17B60
330
171BD
100
AcDbEntity
  8
寸法
 62
     0
 48
50.0
370
    -2
100
AcDbLine
 10
4421.842050292713
 20
5018.657870445168
 30
0.0
 11
4521.842050292714
 21
5018.657870445168
 31
0.0
  0
LINE
  5
17B61
330
171BD
100
AcDbEntity
  8
寸法
 62
     0
 48
50.0
370
    -2
100
AcDbLine
 10
4371.842050292713
 20
5018.657870445168
 30
0.0
 11
3952.309524823978
 21
5018.657870445168
 31
0.0
  0
LINE
  5
17B62
330
171BD
100
AcDbEntity
  8
寸法
 62
     0
 48
50.0
370
    -2
100
AcDbLine
 10
4421.842050292713
 20
5018.657870445168
 30
0.0
 11
4371.842050292713
 21
5018.657870445168
 31
0.0
  0
INSERT
  5
17B63
330
171BD
100
AcDbEntity
  8
寸法
 62
     0
 48
50.0
370
    -2
100
AcDbBlockReference
  2
_DOTSMALL
 10
4421.842050292713
 20
5018.657870445168
 30
0.0
 41
100.0
 42
100.0
 43
100.0
 50
180.0
  0
INSERT
  5
17B64
330
171BD
100
AcDbEntity
  8
寸法
 62
     0
 48
50.0
370
    -2
100
AcDbBlockReference
  2
_DOTSMALL
 10
4371.842050292713
 20
5018.657870445168
 30
0.0
 41
100.0
 42
100.0
 43
100.0
  0
MTEXT
  5
17B65
330
171BD
100
AcDbEntity
  8
寸法
 62
     7
 48
50.0
100
AcDbMText
 10
4058.356768918467
 20
5118.657870445169
 30
0.0
 40
120.0
 41
0.0
 71
     5
 72
     1
  1
\A1;50
  7
STYLE1
 73
     1
 44
1.0
1001
ACAD
1000
MTEXTBEGIN
1070
    73
1070
     1
1070
    44
1040
1.0
1070
    74
1070
     0
1000
MTEXTEND
  0
POINT
  5
17B66
330
171BD
100
AcDbEntity
  8
DEFPOINTS
 62
     0
 48
50.0
100
AcDbPoint
 10
4421.842050292713
 20
4612.931598713265
 30
0.0
  0
POINT
  5
17B67
330
171BD
100
AcDbEntity
  8
DEFPOINTS
 62
     0
 48
50.0
100
AcDbPoint
 10
4371.842050292713
 20
4612.931598713264
 30
0.0
  0
POINT
  5
17B68
330
171BD
100
AcDbEntity
  8
DEFPOINTS
 62
     0
 48
50.0
100
AcDbPoint
 10
4371.842050292713
 20
5018.657870445168
 30
0.0
  0
ENDBLK
  5
171CA
330
171BD
100
AcDbEntity
  8
0
 48
50.0
100
AcDbBlockEnd
  0
BLOCK
  5
171D7
330
171CB
100
AcDbEntity
  8
0
 48
50.0
100
AcDbBlockBegin
  2
*D16
 70
     1
 10
0.0
 20
0.0
 30
0.0
  3
*D16
  1

  0
LINE
  5
17B53
330
171CB
100
AcDbEntity
  8
寸法
 62
     0
 48
50.0
370
    -2
100
AcDbLine
 10
5841.842050292711
 20
4632.931598713262
 30
0.0
 11
5841.842050292711
 21
5078.657870445169
 31
0.0
  0
LINE
  5
17B54
330
171CB
100
AcDbEntity
  8
寸法
 62
     0
 48
50.0
370
    -2
100
AcDbLine
 10
5791.842050292714
 20
4632.931598713263
 30
0.0
 11
5791.842050292714
 21
5078.657870445169
 31
0.0
  0
LINE
  5
17B55
330
171CB
100
AcDbEntity
  8
寸法
 62
     0
 48
50.0
370
    -2
100
AcDbLine
 10
5791.842050292714
 20
5018.657870445168
 30
0.0
 11
5691.842050292714
 21
5018.657870445168
 31
0.0
  0
LINE
  5
17B56
330
171CB
100
AcDbEntity
  8
寸法
 62
     0
 48
50.0
370
    -2
100
AcDbLine
 10
5841.842050292711
 20
5018.657870445168
 30
0.0
 11
6261.374575761439
 21
5018.657870445168
 31
0.0
  0
LINE
  5
17B57
330
171CB
100
AcDbEntity
  8
寸法
 62
     0
 48
50.0
370
    -2
100
AcDbLine
 10
5791.842050292714
 20
5018.657870445168
 30
0.0
 11
5841.842050292711
 21
5018.657870445168
 31
0.0
  0
INSERT
  5
17B58
330
171CB
100
AcDbEntity
  8
寸法
 62
     0
 48
50.0
370
    -2
100
AcDbBlockReference
  2
_DOTSMALL
 10
5791.842050292714
 20
5018.657870445168
 30
0.0
 41
100.0
 42
100.0
 43
100.0
  0
INSERT
  5
17B59
330
171CB
100
AcDbEntity
  8
寸法
 62
     0
 48
50.0
370
    -2
100
AcDbBlockReference
  2
_DOTSMALL
 10
5841.842050292711
 20
5018.657870445168
 30
0.0
 41
100.0
 42
100.0
 43
100.0
 50
180.0
  0
MTEXT
  5
17B5A
330
171CB
100
AcDbEntity
  8
寸法
 62
     7
 48
50.0
100
AcDbMText
 10
6155.32733166695
 20
5118.657870445169
 30
0.0
 40
120.0
 41
0.0
 71
     5
 72
     1
  1
\A1;50
  7
STYLE1
 73
     1
 44
1.0
1001
ACAD
1000
MTEXTBEGIN
1070
    73
1070
     1
1070
    44
1040
1.0
1070
    74
1070
     0
1000
MTEXTEND
  0
POINT
  5
17B5B
330
171CB
100
AcDbEntity
  8
DEFPOINTS
 62
     0
 48
50.0
100
AcDbPoint
 10
5841.842050292711
 20
4612.931598713261
 30
0.0
  0
POINT
  5
17B5C
330
171CB
100
AcDbEntity
  8
DEFPOINTS
 62
     0
 48
50.0
100
AcDbPoint
 10
5791.842050292714
 20
4612.931598713264
 30
0.0
  0
POINT
  5
17B5D
330
171CB
100
AcDbEntity
  8
DEFPOINTS
 62
     0
 48
50.0
100
AcDbPoint
 10
5791.842050292714
 20
5018.657870445168
 30
0.0
  0
ENDBLK
  5
171D8
330
171CB
100
AcDbEntity
  8
0
 48
50.0
100
AcDbBlockEnd
  0
BLOCK
  5
171E3
330
171D9
100
AcDbEntity
  8
0
 48
50.0
100
AcDbBlockBegin
  2
*D17
 70
     1
 10
0.0
 20
0.0
 30
0.0
  3
*D17
  1

  0
LINE
  5
17E3A
330
171D9
100
AcDbEntity
  8
寸法
 62
     0
 48
50.0
370
    -2
100
AcDbLine
 10
4371.842050292713
 20
4632.931598713263
 30
0.0
 11
4371.842050292713
 21
5278.566791659258
 31
0.0
  0
LINE
  5
17E3B
330
171D9
100
AcDbEntity
  8
寸法
 62
     0
 48
50.0
370
    -2
100
AcDbLine
 10
5841.842050292711
 20
4632.931598713262
 30
0.0
 11
5841.842050292711
 21
5278.566791659258
 31
0.0
  0
LINE
  5
17E3C
330
171D9
100
AcDbEntity
  8
寸法
 62
     0
 48
50.0
370
    -2
100
AcDbLine
 10
4371.842050292713
 20
5218.566791659259
 30
0.0
 11
5841.842050292711
 21
5218.566791659259
 31
0.0
  0
INSERT
  5
17E3D
330
171D9
100
AcDbEntity
  8
寸法
 62
     0
 48
50.0
370
    -2
100
AcDbBlockReference
  2
_DOTSMALL
 10
4371.842050292713
 20
5218.566791659259
 30
0.0
 41
100.0
 42
100.0
 43
100.0
 50
180.0
  0
INSERT
  5
17E3E
330
171D9
100
AcDbEntity
  8
寸法
 62
     0
 48
50.0
370
    -2
100
AcDbBlockReference
  2
_DOTSMALL
 10
5841.842050292711
 20
5218.566791659259
 30
0.0
 41
100.0
 42
100.0
 43
100.0
  0
MTEXT
  5
17E3F
330
171D9
100
AcDbEntity
  8
寸法
 62
     7
 48
50.0
100
AcDbMText
 10
5106.842050292713
 20
5318.566791659258
 30
0.0
 40
120.0
 41
0.0
 71
     5
 72
     1
  1
\A1;1470
  7
STYLE1
 73
     1
 44
1.0
1001
ACAD
1000
MTEXTBEGIN
1070
    73
1070
     1
1070
    44
1040
1.0
1070
    74
1070
     0
1000
MTEXTEND
  0
POINT
  5
17E40
330
171D9
100
AcDbEntity
  8
DEFPOINTS
 62
     0
 48
50.0
100
AcDbPoint
 10
4371.842050292713
 20
4612.931598713264
 30
0.0
  0
POINT
  5
17E41
330
171D9
100
AcDbEntity
  8
DEFPOINTS
 62
     0
 48
50.0
100
AcDbPoint
 10
5841.842050292711
 20
4612.931598713261
 30
0.0
  0
POINT
  5
17E42
330
171D9
100
AcDbEntity
  8
DEFPOINTS
 62
     0
 48
50.0
100
AcDbPoint
 10
5841.842050292711
 20
5218.566791659259
 30
0.0
  0
ENDBLK
  5
171E4
330
171D9
100
AcDbEntity
  8
0
 48
50.0
100
AcDbBlockEnd
  0
BLOCK
  5
17897
330
1788C
100
AcDbEntity
  8
0
 48
50.0
100
AcDbBlockBegin
  2
*D18
 70
     1
 10
0.0
 20
0.0
 30
0.0
  3
*D18
  1

  0
LINE
  5
17AB6
330
1788C
100
AcDbEntity
  8
寸法
 62
     0
 48
50.0
370
    -2
100
AcDbLine
 10
8358.423109973434
 20
4612.22930578292
 30
0.0
 11
7742.488670868151
 21
4629.94345605725
 31
0.0
  0
LINE
  5
17AB7
330
1788C
100
AcDbEntity
  8
寸法
 62
     0
 48
50.0
370
    -2
100
AcDbLine
 10
8354.369654416808
 20
4471.287582017207
 30
0.0
 11
7738.435215311525
 21
4489.001732291537
 31
0.0
  0
LINE
  5
17AB8
330
1788C
100
AcDbEntity
  8
寸法
 62
     0
 48
50.0
370
    -2
100
AcDbLine
 10
7798.410416913957
 20
4487.27685758659
 30
0.0
 11
7802.463872470582
 21
4628.218581352302
 31
0.0
  0
LINE
  5
17AB9
330
1788C
100
AcDbEntity
  8
寸法
 62
     0
 48
50.0
370
    -2
100
AcDbLine
 10
7802.463872470582
 20
4628.218581352302
 30
0.0
 11
7812.813120700268
 21
4988.069790966891
 31
0.0
  0
INSERT
  5
17ABA
330
1788C
100
AcDbEntity
  8
寸法
 62
     0
 48
50.0
370
    -2
100
AcDbBlockReference
  2
_DOTSMALL
 10
7798.410416913957
 20
4487.27685758659
 30
0.0
 41
100.0
 42
100.0
 43
100.0
 50
268.3526390256378
  0
INSERT
  5
17ABB
330
1788C
100
AcDbEntity
  8
寸法
 62
     0
 48
50.0
370
    -2
100
AcDbBlockReference
  2
_DOTSMALL
 10
7802.463872470582
 20
4628.218581352302
 30
0.0
 41
100.0
 42
100.0
 43
100.0
 50
88.35263902563776
  0
MTEXT
  5
17ABC
330
1788C
100
AcDbEntity
  8
寸法
 62
     7
 48
50.0
100
AcDbMText
 10
7709.117222835496
 20
4860.998312003202
 30
0.0
 40
120.0
 41
0.0
 71
     5
 72
     1
  1
\A1;141
  7
STYLE1
 11
0.0287479117491237
 21
0.9995866933738488
 31
0.0
 73
     1
 44
1.0
1001
ACAD
1000
MTEXTBEGIN
1070
    73
1070
     1
1070
    44
1040
1.0
1070
    74
1070
     0
1000
MTEXTEND
  0
POINT
  5
17ABD
330
1788C
100
AcDbEntity
  8
DEFPOINTS
 62
     0
 48
50.0
100
AcDbPoint
 10
8378.414843840912
 20
4611.654347547937
 30
0.0
  0
POINT
  5
17ABE
330
1788C
100
AcDbEntity
  8
DEFPOINTS
 62
     0
 48
50.0
100
AcDbPoint
 10
8374.361388284285
 20
4470.712623782225
 30
0.0
  0
POINT
  5
17ABF
330
1788C
100
AcDbEntity
  8
DEFPOINTS
 62
     0
 48
50.0
100
AcDbPoint
 10
7798.410416913957
 20
4487.27685758659
 30
0.0
  0
ENDBLK
  5
17898
330
1788C
100
AcDbEntity
  8
0
 48
50.0
100
AcDbBlockEnd
  0
BLOCK
  5
178A4
330
17899
100
AcDbEntity
  8
0
 48
50.0
100
AcDbBlockBegin
  2
*D19
 70
     1
 10
0.0
 20
0.0
 30
0.0
  3
*D19
  1

  0
LINE
  5
17AAC
330
17899
100
AcDbEntity
  8
寸法
 62
     0
 48
50.0
370
    -2
100
AcDbLine
 10
11049.01882368233
 20
4579.742278324912
 30
0.0
 11
11049.01882368233
 21
5071.589052292565
 31
0.0
  0
LINE
  5
17AAD
330
17899
100
AcDbEntity
  8
寸法
 62
     0
 48
50.0
370
    -2
100
AcDbLine
 10
11129.01882368233
 20
4577.93159871326
 30
0.0
 11
11129.01882368233
 21
5071.589052292565
 31
0.0
  0
LINE
  5
17AAE
330
17899
100
AcDbEntity
  8
寸法
 62
     0
 48
50.0
370
    -2
100
AcDbLine
 10
11049.01882368233
 20
5011.589052292564
 30
0.0
 11
11129.01882368233
 21
5011.589052292564
 31
0.0
  0
LINE
  5
17AAF
330
17899
100
AcDbEntity
  8
寸法
 62
     0
 48
50.0
370
    -2
100
AcDbLine
 10
11129.01882368233
 20
5011.589052292564
 30
0.0
 11
11441.11331187131
 21
5011.589052292564
 31
0.0
  0
INSERT
  5
17AB0
330
17899
100
AcDbEntity
  8
寸法
 62
     0
 48
50.0
370
    -2
100
AcDbBlockReference
  2
_DOTSMALL
 10
11049.01882368233
 20
5011.589052292564
 30
0.0
 41
100.0
 42
100.0
 43
100.0
 50
180.0
  0
INSERT
  5
17AB1
330
17899
100
AcDbEntity
  8
寸法
 62
     0
 48
50.0
370
    -2
100
AcDbBlockReference
  2
_DOTSMALL
 10
11129.01882368233
 20
5011.589052292564
 30
0.0
 41
100.0
 42
100.0
 43
100.0
  0
MTEXT
  5
17AB2
330
17899
100
AcDbEntity
  8
寸法
 62
     7
 48
50.0
100
AcDbMText
 10
11335.06606777682
 20
5111.589052292565
 30
0.0
 40
120.0
 41
0.0
 71
     5
 72
     1
  1
\A1;80
  7
STYLE1
 73
     1
 44
1.0
1001
ACAD
1000
MTEXTBEGIN
1070
    73
1070
     1
1070
    44
1040
1.0
1070
    74
1070
     0
1000
MTEXTEND
  0
POINT
  5
17AB3
330
17899
100
AcDbEntity
  8
DEFPOINTS
 62
     0
 48
50.0
100
AcDbPoint
 10
11049.01882368233
 20
4559.742278324912
 30
0.0
  0
POINT
  5
17AB4
330
17899
100
AcDbEntity
  8
DEFPOINTS
 62
     0
 48
50.0
100
AcDbPoint
 10
11129.01882368233
 20
4557.93159871326
 30
0.0
  0
POINT
  5
17AB5
330
17899
100
AcDbEntity
  8
DEFPOINTS
 62
     0
 48
50.0
100
AcDbPoint
 10
11129.01882368233
 20
5011.589052292564
 30
0.0
  0
ENDBLK
  5
178A5
330
17899
100
AcDbEntity
  8
0
 48
50.0
100
AcDbBlockEnd
  0
BLOCK
  5
178B0
330
178A6
100
AcDbEntity
  8
0
 48
50.0
100
AcDbBlockBegin
  2
*D20
 70
     1
 10
0.0
 20
0.0
 30
0.0
  3
*D20
  1

  0
LINE
  5
17E43
330
178A6
100
AcDbEntity
  8
寸法
 62
     0
 48
50.0
370
    -2
100
AcDbLine
 10
11129.01882368233
 20
4577.93159871326
 30
0.0
 11
11129.01882368233
 21
5291.799739024181
 31
0.0
  0
LINE
  5
17E44
330
178A6
100
AcDbEntity
  8
寸法
 62
     0
 48
50.0
370
    -2
100
AcDbLine
 10
8359.018823682333
 20
4632.931598713263
 30
0.0
 11
8359.018823682333
 21
5291.799739024181
 31
0.0
  0
LINE
  5
17E45
330
178A6
100
AcDbEntity
  8
寸法
 62
     0
 48
50.0
370
    -2
100
AcDbLine
 10
11129.01882368233
 20
5231.799739024181
 30
0.0
 11
8359.018823682333
 21
5231.799739024181
 31
0.0
  0
INSERT
  5
17E46
330
178A6
100
AcDbEntity
  8
寸法
 62
     0
 48
50.0
370
    -2
100
AcDbBlockReference
  2
_DOTSMALL
 10
11129.01882368233
 20
5231.799739024181
 30
0.0
 41
100.0
 42
100.0
 43
100.0
  0
INSERT
  5
17E47
330
178A6
100
AcDbEntity
  8
寸法
 62
     0
 48
50.0
370
    -2
100
AcDbBlockReference
  2
_DOTSMALL
 10
8359.018823682333
 20
5231.799739024181
 30
0.0
 41
100.0
 42
100.0
 43
100.0
 50
180.0
  0
MTEXT
  5
17E48
330
178A6
100
AcDbEntity
  8
寸法
 62
     7
 48
50.0
100
AcDbMText
 10
9744.018823682335
 20
5331.811550047802
 30
0.0
 40
120.0
 41
0.0
 71
     5
 72
     1
  1
\A1;2770
  7
STYLE1
 73
     1
 44
1.0
1001
ACAD
1000
MTEXTBEGIN
1070
    73
1070
     1
1070
    44
1040
1.0
1070
    74
1070
     0
1000
MTEXTEND
  0
POINT
  5
17E49
330
178A6
100
AcDbEntity
  8
DEFPOINTS
 62
     0
 48
50.0
100
AcDbPoint
 10
11129.01882368233
 20
4557.93159871326
 30
0.0
  0
POINT
  5
17E4A
330
178A6
100
AcDbEntity
  8
DEFPOINTS
 62
     0
 48
50.0
100
AcDbPoint
 10
8359.018823682333
 20
4612.931598713264
 30
0.0
  0
POINT
  5
17E4B
330
178A6
100
AcDbEntity
  8
DEFPOINTS
 62
     0
 48
50.0
100
AcDbPoint
 10
8359.018823682333
 20
5231.799739024181
 30
0.0
  0
ENDBLK
  5
178B1
330
178A6
100
AcDbEntity
  8
0
 48
50.0
100
AcDbBlockEnd
  0
BLOCK
  5
178BE
330
178B2
100
AcDbEntity
  8
0
 48
50.0
100
AcDbBlockBegin
  2
*D21
 70
     1
 10
0.0
 20
0.0
 30
0.0
  3
*D21
  1

  0
LINE
  5
17A98
330
178B2
100
AcDbEntity
  8
寸法
 62
     0
 48
50.0
370
    -2
100
AcDbLine
 10
8419.018823682334
 20
4628.933216836236
 30
0.0
 11
8419.018823682334
 21
5071.589052292563
 31
0.0
  0
LINE
  5
17A99
330
178B2
100
AcDbEntity
  8
寸法
 62
     0
 48
50.0
370
    -2
100
AcDbLine
 10
8359.018823682333
 20
4632.931598713263
 30
0.0
 11
8359.018823682333
 21
5071.589052292563
 31
0.0
  0
LINE
  5
17A9A
330
178B2
100
AcDbEntity
  8
寸法
 62
     0
 48
50.0
370
    -2
100
AcDbLine
 10
8419.018823682334
 20
5011.589052292563
 30
0.0
 11
8519.018823682335
 21
5011.589052292563
 31
0.0
  0
LINE
  5
17A9B
330
178B2
100
AcDbEntity
  8
寸法
 62
     0
 48
50.0
370
    -2
100
AcDbLine
 10
8359.018823682333
 20
5011.589052292563
 30
0.0
 11
7939.743233131152
 21
5011.589052292563
 31
0.0
  0
LINE
  5
17A9C
330
178B2
100
AcDbEntity
  8
寸法
 62
     0
 48
50.0
370
    -2
100
AcDbLine
 10
8419.018823682334
 20
5011.589052292563
 30
0.0
 11
8359.018823682333
 21
5011.589052292563
 31
0.0
  0
INSERT
  5
17A9D
330
178B2
100
AcDbEntity
  8
寸法
 62
     0
 48
50.0
370
    -2
100
AcDbBlockReference
  2
_DOTSMALL
 10
8419.018823682334
 20
5011.589052292563
 30
0.0
 41
100.0
 42
100.0
 43
100.0
 50
180.0
  0
INSERT
  5
17A9E
330
178B2
100
AcDbEntity
  8
寸法
 62
     0
 48
50.0
370
    -2
100
AcDbBlockReference
  2
_DOTSMALL
 10
8359.018823682333
 20
5011.589052292563
 30
0.0
 41
100.0
 42
100.0
 43
100.0
  0
MTEXT
  5
17A9F
330
178B2
100
AcDbEntity
  8
寸法
 62
     7
 48
50.0
100
AcDbMText
 10
8049.381028406743
 20
5111.589052292563
 30
0.0
 40
120.0
 41
0.0
 71
     5
 72
     1
  1
\A1;60
  7
STYLE1
 73
     1
 44
1.0
1001
ACAD
1000
MTEXTBEGIN
1070
    73
1070
     1
1070
    44
1040
1.0
1070
    74
1070
     0
1000
MTEXTEND
  0
POINT
  5
17AA0
330
178B2
100
AcDbEntity
  8
DEFPOINTS
 62
     0
 48
50.0
100
AcDbPoint
 10
8419.018823682334
 20
4608.933216836235
 30
0.0
  0
POINT
  5
17AA1
330
178B2
100
AcDbEntity
  8
DEFPOINTS
 62
     0
 48
50.0
100
AcDbPoint
 10
8359.018823682333
 20
4612.931598713264
 30
0.0
  0
POINT
  5
17AA2
330
178B2
100
AcDbEntity
  8
DEFPOINTS
 62
     0
 48
50.0
100
AcDbPoint
 10
8359.018823682333
 20
5011.589052292563
 30
0.0
  0
ENDBLK
  5
178BF
330
178B2
100
AcDbEntity
  8
0
 48
50.0
100
AcDbBlockEnd
  0
BLOCK
  5
178CA
330
178C0
100
AcDbEntity
  8
0
 48
50.0
100
AcDbBlockBegin
  2
*D22
 70
     1
 10
0.0
 20
0.0
 30
0.0
  3
*D22
  1

  0
LINE
  5
17E56
330
178C0
100
AcDbEntity
  8
寸法
 62
     0
 48
50.0
370
    -2
100
AcDbLine
 10
11049.01882368233
 20
4579.742278324912
 30
0.0
 11
11049.01882368233
 21
5071.589052292565
 31
0.0
  0
LINE
  5
17E57
330
178C0
100
AcDbEntity
  8
寸法
 62
     0
 48
50.0
370
    -2
100
AcDbLine
 10
8419.018823682334
 20
4628.933216836236
 30
0.0
 11
8419.018823682334
 21
5071.589052292565
 31
0.0
  0
LINE
  5
17E58
330
178C0
100
AcDbEntity
  8
寸法
 62
     0
 48
50.0
370
    -2
100
AcDbLine
 10
11049.01882368233
 20
5011.589052292564
 30
0.0
 11
8419.018823682334
 21
5011.589052292564
 31
0.0
  0
INSERT
  5
17E59
330
178C0
100
AcDbEntity
  8
寸法
 62
     0
 48
50.0
370
    -2
100
AcDbBlockReference
  2
_DOTSMALL
 10
11049.01882368233
 20
5011.589052292564
 30
0.0
 41
100.0
 42
100.0
 43
100.0
  0
INSERT
  5
17E5A
330
178C0
100
AcDbEntity
  8
寸法
 62
     0
 48
50.0
370
    -2
100
AcDbBlockReference
  2
_DOTSMALL
 10
8419.018823682334
 20
5011.589052292564
 30
0.0
 41
100.0
 42
100.0
 43
100.0
 50
180.0
  0
MTEXT
  5
17E5B
330
178C0
100
AcDbEntity
  8
寸法
 62
     7
 48
50.0
100
AcDbMText
 10
9734.018823682333
 20
5111.600863316187
 30
0.0
 40
120.0
 41
0.0
 71
     5
 72
     1
  1
\A1;柱外寸法2630
  7
STYLE1
 73
     1
 44
1.0
1001
ACAD
1000
MTEXTBEGIN
1070
    73
1070
     1
1070
    44
1040
1.0
1070
    74
1070
     0
1000
MTEXTEND
  0
POINT
  5
17E5C
330
178C0
100
AcDbEntity
  8
DEFPOINTS
 62
     0
 48
50.0
100
AcDbPoint
 10
11049.01882368233
 20
4559.742278324912
 30
0.0
  0
POINT
  5
17E5D
330
178C0
100
AcDbEntity
  8
DEFPOINTS
 62
     0
 48
50.0
100
AcDbPoint
 10
8419.018823682334
 20
4608.933216836235
 30
0.0
  0
POINT
  5
17E5E
330
178C0
100
AcDbEntity
  8
DEFPOINTS
 62
     0
 48
50.0
100
AcDbPoint
 10
8419.018823682334
 20
5011.589052292564
 30
0.0
  0
ENDBLK
  5
178CB
330
178C0
100
AcDbEntity
  8
0
 48
50.0
100
AcDbBlockEnd
  0
BLOCK
  5
178D8
330
178CC
100
AcDbEntity
  8
0
 48
50.0
100
AcDbBlockBegin
  2
*D23
 70
     1
 10
0.0
 20
0.0
 30
0.0
  3
*D23
  1

  0
LINE
  5
17A84
330
178CC
100
AcDbEntity
  8
寸法
 62
     0
 48
50.0
370
    -2
100
AcDbLine
 10
8399.018823682334
 20
2587.931598713259
 30
0.0
 11
7515.268694499074
 21
2587.931598713259
 31
0.0
  0
LINE
  5
17A85
330
178CC
100
AcDbEntity
  8
寸法
 62
     0
 48
50.0
370
    -2
100
AcDbLine
 10
8344.018823682334
 20
2537.931598713259
 30
0.0
 11
7515.268694499074
 21
2537.931598713259
 31
0.0
  0
LINE
  5
17A86
330
178CC
100
AcDbEntity
  8
寸法
 62
     0
 48
50.0
370
    -2
100
AcDbLine
 10
7575.268694499074
 20
2587.931598713259
 30
0.0
 11
7575.268694499074
 21
2687.931598713259
 31
0.0
  0
LINE
  5
17A87
330
178CC
100
AcDbEntity
  8
寸法
 62
     0
 48
50.0
370
    -2
100
AcDbLine
 10
7575.268694499074
 20
2537.931598713259
 30
0.0
 11
7575.268694499074
 21
2125.837110524281
 31
0.0
  0
LINE
  5
17A88
330
178CC
100
AcDbEntity
  8
寸法
 62
     0
 48
50.0
370
    -2
100
AcDbLine
 10
7575.268694499074
 20
2587.931598713259
 30
0.0
 11
7575.268694499074
 21
2537.931598713259
 31
0.0
  0
INSERT
  5
17A89
330
178CC
100
AcDbEntity
  8
寸法
 62
     0
 48
50.0
370
    -2
100
AcDbBlockReference
  2
_DOTSMALL
 10
7575.268694499074
 20
2587.931598713259
 30
0.0
 41
100.0
 42
100.0
 43
100.0
 50
270.0
  0
INSERT
  5
17A8A
330
178CC
100
AcDbEntity
  8
寸法
 62
     0
 48
50.0
370
    -2
100
AcDbBlockReference
  2
_DOTSMALL
 10
7575.268694499074
 20
2537.931598713259
 30
0.0
 41
100.0
 42
100.0
 43
100.0
 50
90.0
  0
MTEXT
  5
17A8B
330
178CC
100
AcDbEntity
  8
寸法
 62
     7
 48
50.0
100
AcDbMText
 10
7475.268694499074
 20
2231.88435461877
 30
0.0
 40
120.0
 41
0.0
 71
     5
 72
     1
  1
\A1;50
  7
STYLE1
 11
0.0000000000000001
 21
1.0
 31
0.0
 73
     1
 44
1.0
1001
ACAD
1000
MTEXTBEGIN
1070
    73
1070
     1
1070
    44
1040
1.0
1070
    74
1070
     0
1000
MTEXTEND
  0
POINT
  5
17A8C
330
178CC
100
AcDbEntity
  8
DEFPOINTS
 62
     0
 48
50.0
100
AcDbPoint
 10
8419.018823682334
 20
2587.931598713259
 30
0.0
  0
POINT
  5
17A8D
330
178CC
100
AcDbEntity
  8
DEFPOINTS
 62
     0
 48
50.0
100
AcDbPoint
 10
8364.018823682334
 20
2537.931598713259
 30
0.0
  0
POINT
  5
17A8E
330
178CC
100
AcDbEntity
  8
DEFPOINTS
 62
     0
 48
50.0
100
AcDbPoint
 10
7575.268694499074
 20
2537.931598713259
 30
0.0
  0
ENDBLK
  5
178D9
330
178CC
100
AcDbEntity
  8
0
 48
50.0
100
AcDbBlockEnd
  0
BLOCK
  5
178E4
330
178DA
100
AcDbEntity
  8
0
 48
50.0
100
AcDbBlockBegin
  2
*D24
 70
     1
 10
0.0
 20
0.0
 30
0.0
  3
*D24
  1

  0
LINE
  5
17A7B
330
178DA
100
AcDbEntity
  8
寸法
 62
     0
 48
50.0
370
    -2
100
AcDbLine
 10
11069.01882368233
 20
2537.931598713261
 30
0.0
 11
11813.94598165446
 21
2537.93159871326
 31
0.0
  0
LINE
  5
17A7C
330
178DA
100
AcDbEntity
  8
寸法
 62
     0
 48
50.0
370
    -2
100
AcDbLine
 10
11149.01882368233
 20
4557.93159871326
 30
0.0
 11
11813.94598165446
 21
4557.93159871326
 31
0.0
  0
LINE
  5
17A7D
330
178DA
100
AcDbEntity
  8
寸法
 62
     0
 48
50.0
370
    -2
100
AcDbLine
 10
11753.94598165446
 20
2537.93159871326
 30
0.0
 11
11753.94598165446
 21
4557.93159871326
 31
0.0
  0
INSERT
  5
17A7E
330
178DA
100
AcDbEntity
  8
寸法
 62
     0
 48
50.0
370
    -2
100
AcDbBlockReference
  2
_DOTSMALL
 10
11753.94598165446
 20
2537.93159871326
 30
0.0
 41
100.0
 42
100.0
 43
100.0
 50
270.0
  0
INSERT
  5
17A7F
330
178DA
100
AcDbEntity
  8
寸法
 62
     0
 48
50.0
370
    -2
100
AcDbBlockReference
  2
_DOTSMALL
 10
11753.94598165446
 20
4557.93159871326
 30
0.0
 41
100.0
 42
100.0
 43
100.0
 50
90.0
  0
MTEXT
  5
17A80
330
178DA
100
AcDbEntity
  8
寸法
 62
     7
 48
50.0
100
AcDbMText
 10
11653.93417063084
 20
3547.931598713262
 30
0.0
 40
120.0
 41
0.0
 71
     5
 72
     1
  1
\A1;2020
  7
STYLE1
 11
0.0000000000000001
 21
1.0
 31
0.0
 73
     1
 44
1.0
1001
ACAD
1000
MTEXTBEGIN
1070
    73
1070
     1
1070
    44
1040
1.0
1070
    74
1070
     0
1000
MTEXTEND
  0
POINT
  5
17A81
330
178DA
100
AcDbEntity
  8
DEFPOINTS
 62
     0
 48
50.0
100
AcDbPoint
 10
11049.01882368233
 20
2537.931598713261
 30
0.0
  0
POINT
  5
17A82
330
178DA
100
AcDbEntity
  8
DEFPOINTS
 62
     0
 48
50.0
100
AcDbPoint
 10
11129.01882368233
 20
4557.93159871326
 30
0.0
  0
POINT
  5
17A83
330
178DA
100
AcDbEntity
  8
DEFPOINTS
 62
     0
 48
50.0
100
AcDbPoint
 10
11753.94598165446
 20
4557.93159871326
 30
0.0
  0
ENDBLK
  5
178E5
330
178DA
100
AcDbEntity
  8
0
 48
50.0
100
AcDbBlockEnd
  0
BLOCK
  5
178F0
330
178E6
100
AcDbEntity
  8
0
 48
50.0
100
AcDbBlockBegin
  2
*D25
 70
     1
 10
0.0
 20
0.0
 30
0.0
  3
*D25
  1

  0
LINE
  5
17A72
330
178E6
100
AcDbEntity
  8
寸法
 62
     0
 48
50.0
370
    -2
100
AcDbLine
 10
8399.018823682334
 20
2537.931598713254
 30
0.0
 11
7215.268694499073
 21
2537.931598713254
 31
0.0
  0
LINE
  5
17A73
330
178E6
100
AcDbEntity
  8
寸法
 62
     0
 48
50.0
370
    -2
100
AcDbLine
 10
8339.018823682335
 20
4612.931598713259
 30
0.0
 11
7215.268694499073
 21
4612.931598713259
 31
0.0
  0
LINE
  5
17A74
330
178E6
100
AcDbEntity
  8
寸法
 62
     0
 48
50.0
370
    -2
100
AcDbLine
 10
7275.268694499074
 20
2537.931598713254
 30
0.0
 11
7275.268694499074
 21
4612.931598713259
 31
0.0
  0
INSERT
  5
17A75
330
178E6
100
AcDbEntity
  8
寸法
 62
     0
 48
50.0
370
    -2
100
AcDbBlockReference
  2
_DOTSMALL
 10
7275.268694499074
 20
2537.931598713254
 30
0.0
 41
100.0
 42
100.0
 43
100.0
 50
270.0
  0
INSERT
  5
17A76
330
178E6
100
AcDbEntity
  8
寸法
 62
     0
 48
50.0
370
    -2
100
AcDbBlockReference
  2
_DOTSMALL
 10
7275.268694499074
 20
4612.931598713259
 30
0.0
 41
100.0
 42
100.0
 43
100.0
 50
90.0
  0
MTEXT
  5
17A77
330
178E6
100
AcDbEntity
  8
寸法
 62
     7
 48
50.0
100
AcDbMText
 10
7175.256883475451
 20
3575.431598713257
 30
0.0
 40
120.0
 41
0.0
 71
     5
 72
     1
  1
\A1;2075
  7
STYLE1
 11
0.0000000000000001
 21
1.0
 31
0.0
 73
     1
 44
1.0
1001
ACAD
1000
MTEXTBEGIN
1070
    73
1070
     1
1070
    44
1040
1.0
1070
    74
1070
     0
1000
MTEXTEND
  0
POINT
  5
17A78
330
178E6
100
AcDbEntity
  8
DEFPOINTS
 62
     0
 48
50.0
100
AcDbPoint
 10
8419.018823682334
 20
2537.931598713254
 30
0.0
  0
POINT
  5
17A79
330
178E6
100
AcDbEntity
  8
DEFPOINTS
 62
     0
 48
50.0
100
AcDbPoint
 10
8359.018823682333
 20
4612.931598713259
 30
0.0
  0
POINT
  5
17A7A
330
178E6
100
AcDbEntity
  8
DEFPOINTS
 62
     0
 48
50.0
100
AcDbPoint
 10
7275.268694499074
 20
4612.931598713259
 30
0.0
  0
ENDBLK
  5
178F1
330
178E6
100
AcDbEntity
  8
0
 48
50.0
100
AcDbBlockEnd
  0
BLOCK
  5
178FC
330
178F2
100
AcDbEntity
  8
0
 48
50.0
100
AcDbBlockBegin
  2
*D26
 70
     1
 10
0.0
 20
0.0
 30
0.0
  3
*D26
  1

  0
LINE
  5
17A69
330
178F2
100
AcDbEntity
  8
寸法
 62
     0
 48
50.0
370
    -2
100
AcDbLine
 10
8399.018823682334
 20
4377.931598713255
 30
0.0
 11
7515.268694499074
 21
4377.931598713255
 31
0.0
  0
LINE
  5
17A6A
330
178F2
100
AcDbEntity
  8
寸法
 62
     0
 48
50.0
370
    -2
100
AcDbLine
 10
8399.018823682334
 20
2587.931598713253
 30
0.0
 11
7515.268694499074
 21
2587.931598713253
 31
0.0
  0
LINE
  5
17A6B
330
178F2
100
AcDbEntity
  8
寸法
 62
     0
 48
50.0
370
    -2
100
AcDbLine
 10
7575.268694499074
 20
4377.931598713255
 30
0.0
 11
7575.268694499074
 21
2587.931598713253
 31
0.0
  0
INSERT
  5
17A6C
330
178F2
100
AcDbEntity
  8
寸法
 62
     0
 48
50.0
370
    -2
100
AcDbBlockReference
  2
_DOTSMALL
 10
7575.268694499074
 20
4377.931598713255
 30
0.0
 41
100.0
 42
100.0
 43
100.0
 50
90.0
  0
INSERT
  5
17A6D
330
178F2
100
AcDbEntity
  8
寸法
 62
     0
 48
50.0
370
    -2
100
AcDbBlockReference
  2
_DOTSMALL
 10
7575.268694499074
 20
2587.931598713253
 30
0.0
 41
100.0
 42
100.0
 43
100.0
 50
270.0
  0
MTEXT
  5
17A6E
330
178F2
100
AcDbEntity
  8
寸法
 62
     7
 48
50.0
100
AcDbMText
 10
7475.268694499073
 20
3482.931598713256
 30
0.0
 40
120.0
 41
0.0
 71
     5
 72
     1
  1
\A1;1790
  7
STYLE1
 11
0.0000000000000001
 21
1.0
 31
0.0
 73
     1
 44
1.0
1001
ACAD
1000
MTEXTBEGIN
1070
    73
1070
     1
1070
    44
1040
1.0
1070
    74
1070
     0
1000
MTEXTEND
  0
POINT
  5
17A6F
330
178F2
100
AcDbEntity
  8
DEFPOINTS
 62
     0
 48
50.0
100
AcDbPoint
 10
8419.018823682334
 20
4377.931598713255
 30
0.0
  0
POINT
  5
17A70
330
178F2
100
AcDbEntity
  8
DEFPOINTS
 62
     0
 48
50.0
100
AcDbPoint
 10
8419.018823682334
 20
2587.931598713253
 30
0.0
  0
POINT
  5
17A71
330
178F2
100
AcDbEntity
  8
DEFPOINTS
 62
     0
 48
50.0
100
AcDbPoint
 10
7575.268694499074
 20
2587.931598713253
 30
0.0
  0
ENDBLK
  5
178FD
330
178F2
100
AcDbEntity
  8
0
 48
50.0
100
AcDbBlockEnd
  0
BLOCK
  5
17D54
330
17D49
100
AcDbEntity
  8
0
 48
50.0
100
AcDbBlockBegin
  2
*D27
 70
     1
 10
0.0
 20
0.0
 30
0.0
  3
*D27
  1

  0
LINE
  5
17E7E
330
17D49
100
AcDbEntity
  8
寸法
 62
     0
 48
50.0
370
    -2
100
AcDbLine
 10
5811.842050292712
 20
4212.931598713257
 30
0.0
 11
6139.385152614459
 21
4212.931598713257
 31
0.0
  0
LINE
  5
17E7F
330
17D49
100
AcDbEntity
  8
寸法
 62
     0
 48
50.0
370
    -2
100
AcDbLine
 10
5811.842050292712
 20
4377.931598713258
 30
0.0
 11
6139.385152614459
 21
4377.931598713258
 31
0.0
  0
LINE
  5
17E80
330
17D49
100
AcDbEntity
  8
寸法
 62
     0
 48
50.0
370
    -2
100
AcDbLine
 10
6079.385152614459
 20
4212.931598713257
 30
0.0
 11
6079.385152614459
 21
4377.931598713258
 31
0.0
  0
LINE
  5
17E81
330
17D49
100
AcDbEntity
  8
寸法
 62
     0
 48
50.0
370
    -2
100
AcDbLine
 10
6079.385152614459
 20
4377.931598713258
 30
0.0
 11
6079.385152614459
 21
4754.902161461735
 31
0.0
  0
INSERT
  5
17E82
330
17D49
100
AcDbEntity
  8
寸法
 62
     0
 48
50.0
370
    -2
100
AcDbBlockReference
  2
_DOTSMALL
 10
6079.385152614459
 20
4212.931598713257
 30
0.0
 41
100.0
 42
100.0
 43
100.0
 50
270.0
  0
INSERT
  5
17E83
330
17D49
100
AcDbEntity
  8
寸法
 62
     0
 48
50.0
370
    -2
100
AcDbBlockReference
  2
_DOTSMALL
 10
6079.385152614459
 20
4377.931598713258
 30
0.0
 41
100.0
 42
100.0
 43
100.0
 50
90.0
  0
MTEXT
  5
17E84
330
17D49
100
AcDbEntity
  8
寸法
 62
     7
 48
50.0
100
AcDbMText
 10
5979.385152614458
 20
4616.416880087498
 30
0.0
 40
120.0
 41
0.0
 71
     5
 72
     1
  1
\A1;165
  7
STYLE1
 11
0.0000000000000001
 21
1.0
 31
0.0
 73
     1
 44
1.0
1001
ACAD
1000
MTEXTBEGIN
1070
    73
1070
     1
1070
    44
1040
1.0
1070
    74
1070
     0
1000
MTEXTEND
  0
POINT
  5
17E85
330
17D49
100
AcDbEntity
  8
DEFPOINTS
 62
     0
 48
50.0
100
AcDbPoint
 10
5791.842050292712
 20
4212.931598713257
 30
0.0
  0
POINT
  5
17E86
330
17D49
100
AcDbEntity
  8
DEFPOINTS
 62
     0
 48
50.0
100
AcDbPoint
 10
5791.842050292712
 20
4377.931598713258
 30
0.0
  0
POINT
  5
17E87
330
17D49
100
AcDbEntity
  8
DEFPOINTS
 62
     0
 48
50.0
100
AcDbPoint
 10
6079.385152614459
 20
4377.931598713258
 30
0.0
  0
ENDBLK
  5
17D55
330
17D49
100
AcDbEntity
  8
0
 48
50.0
100
AcDbBlockEnd
  0
BLOCK
  5
17D62
330
17D56
100
AcDbEntity
  8
0
 48
50.0
100
AcDbBlockBegin
  2
*D28
 70
     1
 10
0.0
 20
0.0
 30
0.0
  3
*D28
  1

  0
LINE
  5
17E73
330
17D56
100
AcDbEntity
  8
寸法
 62
     0
 48
50.0
370
    -2
100
AcDbLine
 10
5811.842050292712
 20
4185.931598713259
 30
0.0
 11
6139.385152614458
 21
4185.931598713259
 31
0.0
  0
LINE
  5
17E74
330
17D56
100
AcDbEntity
  8
寸法
 62
     0
 48
50.0
370
    -2
100
AcDbLine
 10
5811.842050292712
 20
4212.931598713257
 30
0.0
 11
6139.385152614458
 21
4212.931598713257
 31
0.0
  0
LINE
  5
17E75
330
17D56
100
AcDbEntity
  8
寸法
 62
     0
 48
50.0
370
    -2
100
AcDbLine
 10
6079.385152614458
 20
4185.931598713259
 30
0.0
 11
6079.385152614458
 21
4085.931598713258
 31
0.0
  0
LINE
  5
17E76
330
17D56
100
AcDbEntity
  8
寸法
 62
     0
 48
50.0
370
    -2
100
AcDbLine
 10
6079.385152614458
 20
4212.931598713257
 30
0.0
 11
6079.385152614458
 21
4312.931598713258
 31
0.0
  0
MTEXT
  5
17E77
330
17D56
100
AcDbEntity
  8
寸法
 62
     7
 48
50.0
100
AcDbMText
 10
6219.554975860824
 20
4213.898798552917
 30
0.0
 40
120.0
 41
0.0
 71
     5
 72
     1
  1
\A1;27
  7
STYLE1
 11
0.0000000000000001
 21
1.0
 31
0.0
 73
     1
 44
1.0
1001
ACAD
1000
MTEXTBEGIN
1070
    73
1070
     1
1070
    44
1040
1.0
1070
    74
1070
     0
1000
MTEXTEND
  0
LINE
  5
17E78
330
17D56
100
AcDbEntity
  8
寸法
 62
     0
 48
50.0
370
    -2
100
AcDbLine
 10
6079.385152614458
 20
4185.931598713259
 30
0.0
 11
6079.385152614458
 21
4212.931598713257
 31
0.0
  0
INSERT
  5
17E79
330
17D56
100
AcDbEntity
  8
寸法
 62
     0
 48
50.0
370
    -2
100
AcDbBlockReference
  2
_DOTSMALL
 10
6079.385152614458
 20
4185.931598713259
 30
0.0
 41
100.0
 42
100.0
 43
100.0
 50
90.0
  0
INSERT
  5
17E7A
330
17D56
100
AcDbEntity
  8
寸法
 62
     0
 48
50.0
370
    -2
100
AcDbBlockReference
  2
_DOTSMALL
 10
6079.385152614458
 20
4212.931598713257
 30
0.0
 41
100.0
 42
100.0
 43
100.0
 50
270.0
  0
POINT
  5
17E7B
330
17D56
100
AcDbEntity
  8
DEFPOINTS
 62
     0
 48
50.0
100
AcDbPoint
 10
5791.842050292712
 20
4185.931598713259
 30
0.0
  0
POINT
  5
17E7C
330
17D56
100
AcDbEntity
  8
DEFPOINTS
 62
     0
 48
50.0
100
AcDbPoint
 10
5791.842050292712
 20
4212.931598713257
 30
0.0
  0
POINT
  5
17E7D
330
17D56
100
AcDbEntity
  8
DEFPOINTS
 62
     0
 48
50.0
100
AcDbPoint
 10
6079.385152614458
 20
4212.931598713257
 30
0.0
  0
ENDBLK
  5
17D63
330
17D56
100
AcDbEntity
  8
0
 48
50.0
100
AcDbBlockEnd
  0
BLOCK
  5
17D6E
330
17D64
100
AcDbEntity
  8
0
 48
50.0
100
AcDbBlockBegin
  2
*D29
 70
     1
 10
0.0
 20
0.0
 30
0.0
  3
*D29
  1

  0
LINE
  5
17DCB
330
17D64
100
AcDbEntity
  8
寸法
 62
     0
 48
50.0
370
    -2
100
AcDbLine
 10
5811.842050292712
 20
2537.931598713259
 30
0.0
 11
6139.385152614458
 21
2537.931598713259
 31
0.0
  0
LINE
  5
17DCC
330
17D64
100
AcDbEntity
  8
寸法
 62
     0
 48
50.0
370
    -2
100
AcDbLine
 10
5811.842050292712
 20
4185.931598713259
 30
0.0
 11
6139.385152614458
 21
4185.931598713259
 31
0.0
  0
LINE
  5
17DCD
330
17D64
100
AcDbEntity
  8
寸法
 62
     0
 48
50.0
370
    -2
100
AcDbLine
 10
6079.385152614458
 20
2537.931598713259
 30
0.0
 11
6079.385152614458
 21
4185.931598713259
 31
0.0
  0
INSERT
  5
17DCE
330
17D64
100
AcDbEntity
  8
寸法
 62
     0
 48
50.0
370
    -2
100
AcDbBlockReference
  2
_DOTSMALL
 10
6079.385152614458
 20
2537.931598713259
 30
0.0
 41
100.0
 42
100.0
 43
100.0
 50
270.0
  0
INSERT
  5
17DCF
330
17D64
100
AcDbEntity
  8
寸法
 62
     0
 48
50.0
370
    -2
100
AcDbBlockReference
  2
_DOTSMALL
 10
6079.385152614458
 20
4185.931598713259
 30
0.0
 41
100.0
 42
100.0
 43
100.0
 50
90.0
  0
MTEXT
  5
17DD0
330
17D64
100
AcDbEntity
  8
寸法
 62
     7
 48
50.0
100
AcDbMText
 10
5979.385152614457
 20
3361.93159871326
 30
0.0
 40
120.0
 41
0.0
 71
     5
 72
     1
  1
\A1;有効開口部高サ 1648
  7
STYLE1
 11
0.0000000000000001
 21
1.0
 31
0.0
 73
     1
 44
1.0
1001
ACAD
1000
MTEXTBEGIN
1070
    73
1070
     1
1070
    44
1040
1.0
1070
    74
1070
     0
1000
MTEXTEND
  0
POINT
  5
17DD1
330
17D64
100
AcDbEntity
  8
DEFPOINTS
 62
     0
 48
50.0
100
AcDbPoint
 10
5791.842050292712
 20
2537.931598713259
 30
0.0
  0
POINT
  5
17DD2
330
17D64
100
AcDbEntity
  8
DEFPOINTS
 62
     0
 48
50.0
100
AcDbPoint
 10
5791.842050292712
 20
4185.931598713259
 30
0.0
  0
POINT
  5
17DD3
330
17D64
100
AcDbEntity
  8
DEFPOINTS
 62
     0
 48
50.0
100
AcDbPoint
 10
6079.385152614458
 20
4185.931598713259
 30
0.0
  0
ENDBLK
  5
17D6F
330
17D64
100
AcDbEntity
  8
0
 48
50.0
100
AcDbBlockEnd
  0
ENDSEC
  0
SECTION
  2
ENTITIES
  0
MTEXT
  5
763F
330
747D
100
AcDbEntity
  8
0
100
AcDbMText
 10
302.846345836809
 20
280.1983726409901
 30
0.0
 40
3.5
 41
5.323721266742722
 71
     1
 72
     5
  1

  7
MSMINCHO
 73
     1
 44
1.0
1001
ACAD
1000
MTEXTBEGIN
1070
    73
1070
     1
1070
    44
1040
1.0
1070
    74
1070
     0
1000
MTEXTEND
  0
LINE
  5
10B57
330
747D
100
AcDbEntity
  8
補助
  6
PHANTOM
 62
   230
 48
50.0
100
AcDbLine
 10
139.9999999999995
 20
11409.6
 30
0.0
 11
16307.2
 21
11409.6
 31
0.0
  0
LINE
  5
10B59
330
747D
100
AcDbEntity
  8
仕様書枠
  6
Continuous
 48
50.0
100
AcDbLine
 10
13107.2
 20
1200.0
 30
0.0
 11
13107.2
 21
-0.0000000000000729
 31
0.0
  0
LINE
  5
10B5C
330
747D
100
AcDbEntity
  8
仕様書枠
 48
50.0
100
AcDbLine
 10
16307.2
 20
1200.0
 30
0.0
 11
16307.2
 21
-0.0000000000000909
 31
0.0
  0
LINE
  5
10B5D
330
747D
100
AcDbEntity
  8
仕様書枠
 48
50.0
100
AcDbLine
 10
140.0
 20
0.0
 30
0.0
 11
16307.2
 21
-0.0000000000000909
 31
0.0
  0
LINE
  5
10B5E
330
747D
100
AcDbEntity
  8
補助
  6
PHANTOM
 62
   230
 48
50.0
100
AcDbLine
 10
16307.2
 20
11409.6
 30
0.0
 11
16307.2
 21
1200.0
 31
0.0
  0
LINE
  5
10B6C
330
747D
100
AcDbEntity
  8
仕様書枠
 48
50.0
100
AcDbLine
 10
13107.2
 20
1200.0
 30
0.0
 11
16307.2
 21
1200.0
 31
0.0
  0
LINE
  5
10B6D
330
747D
100
AcDbEntity
  8
補助
  6
PHANTOM
 62
   230
 48
50.0
100
AcDbLine
 10
13107.2
 20
11409.6
 30
0.0
 11
13107.2
 21
4800.0
 31
0.0
  0
LINE
  5
10B6F
330
747D
100
AcDbEntity
  8
補助
  6
PHANTOM
 62
   230
 48
50.0
100
AcDbLine
 10
13107.2
 20
4800.0
 30
0.0
 11
16307.2
 21
4800.0
 31
0.0
  0
LINE
  5
10B72
330
747D
100
AcDbEntity
  8
文字
 62
     7
 48
50.0
100
AcDbLine
 10
13187.2
 20
400.0
 30
0.0
 11
16227.2
 21
400.0
 31
0.0
  0
TEXT
  5
10B73
330
747D
100
AcDbEntity
  8
文字
 62
     7
 48
50.0
100
AcDbText
 10
13162.9790565769
 20
895.0906074299405
 30
0.0
 40
200.0
  1
外 形 図
  7
STYLE2
100
AcDbText
  0
TEXT
  5
10B74
330
747D
100
AcDbEntity
  8
文字
 62
     7
 48
50.0
100
AcDbText
 10
13201.43669998441
 20
477.2740661031255
 30
0.0
 40
160.0
  1
機種名
  7
STYLE2
100
AcDbText
  0
TEXT
  5
10B75
330
747D
100
AcDbEntity
  8
文字
 62
     7
 48
50.0
100
AcDbText
 10
13209.4053442172
 20
228.5435242569016
 30
0.0
 40
100.0
  1
○有効開口寸法 ： 1164×1648(mm)
  7
STYLE2
100
AcDbText
  0
TEXT
  5
10B76
330
747D
100
AcDbEntity
  8
文字
 62
     7
 48
50.0
100
AcDbText
 10
13209.4053442172
 20
76.09434707649343
 30
0.0
 40
100.0
  1
○床面積 ： 3.60㎡(1.09坪) 　
  7
STYLE2
100
AcDbText
  0
TEXT
  5
10B79
330
747D
100
AcDbEntity
  8
文字
 62
     7
 48
50.0
100
AcDbText
 10
14524.131837222
 20
1031.557706291228
 30
0.0
 40
100.0
  1
NO.07      <縮尺> S=1/40
  7
STYLE2
100
AcDbText
  0
LINE
  5
10B7B
330
747D
100
AcDbEntity
  8
仕様書枠
 48
50.0
100
AcDbLine
 10
13107.2
 20
800.0
 30
0.0
 11
14251.2
 21
800.0
 31
0.0
  0
LINE
  5
10B88
330
747D
100
AcDbEntity
  8
仕様書枠
  6
Continuous
 48
50.0
100
AcDbLine
 10
14251.2
 20
1200.0
 30
0.0
 11
14251.2
 21
800.0
 31
0.0
  0
LINE
  5
12765
330
747D
100
AcDbEntity
  8
Ｇ．Ｌ
100
AcDbLine
 10
3333.575447622259
 20
2437.931598713261
 30
0.0
 11
12047.96253871591
 21
2437.931598713261
 31
0.0
  0
TEXT
  5
149A3
330
747D
100
AcDbEntity
  8
部品1
100
AcDbText
 10
9467.182951683469
 20
1595.038069494737
 30
0.0
 40
135.0
  1
側面図
  7
MSGOTHIC
100
AcDbText
  0
LWPOLYLINE
  5
149A4
330
747D
100
AcDbEntity
  8
部品1
100
AcDbPolyline
 90
        4
 70
     1
 43
0.0
 10
9362.283490568115
 20
1787.931598713261
 10
9362.283490568115
 20
1548.039277167729
 10
10125.75415679655
 20
1548.039277167729
 10
10125.75415679655
 20
1787.931598713261
  0
TEXT
  5
14E88
330
747D
100
AcDbEntity
  8
部品1
100
AcDbText
 10
4830.479686699312
 20
6434.037262311706
 30
0.0
 40
135.0
  1
平面図
  7
MSGOTHIC
100
AcDbText
  0
LWPOLYLINE
  5
14E89
330
747D
100
AcDbEntity
  8
部品1
100
AcDbPolyline
 90
        4
 70
     1
 43
0.0
 10
4725.106717178529
 20
6626.930791530229
 10
4725.106717178529
 20
6387.038469984696
 10
5488.577383406968
 20
6387.038469984696
 10
5488.577383406968
 20
6626.930791530229
  0
TEXT
  5
15550
330
747D
100
AcDbEntity
  8
文字
 62
     7
 48
50.0
100
AcDbText
 10
14707.39993466553
 20
871.9640646083623
 30
0.0
 40
100.0
  1
～一般型・多雪地型～
  7
STYLE2
100
AcDbText
  0
DIMENSION
  5
16452
330
747D
100
AcDbEntity
  8
寸法
100
AcDbDimension
  2
*D1
 10
6804.375337766794
 20
7614.155828006579
 30
0.0
 11
6704.363526743172
 21
8929.155828006585
 31
0.0
 70
    32
 71
     5
 42
2630.000000000008
  3
INABA_S40G
100
AcDbAlignedDimension
 13
5791.84205029275
 23
10244.15582800658
 33
0.0
 14
5791.842050292724
 24
7614.15582800658
 34
0.0
 50
90.0
100
AcDbRotatedDimension
1001
ACAD
1000
DSTYLE
1002
{
1002
}
  0
LINE
  5
16453
330
747D
100
AcDbEntity
  8
部品1
100
AcDbLine
 10
5711.842050292748
 20
10189.15582800645
 30
0.0
 11
5711.842050292726
 21
7679.155828006489
 31
0.0
  0
LINE
  5
16454
330
747D
100
AcDbEntity
  8
部品1
100
AcDbLine
 10
4501.842050292721
 20
10189.15582800646
 30
0.0
 11
4501.84205029274
 21
7679.155828006487
 31
0.0
  0
LINE
  5
16455
330
747D
100
AcDbEntity
  8
部品1
100
AcDbLine
 10
4476.842050292722
 20
10189.15582800646
 30
0.0
 11
4476.842050292741
 21
7679.155828006487
 31
0.0
  0
LINE
  5
16456
330
747D
100
AcDbEntity
  8
部品1
100
AcDbLine
 10
5736.842050292739
 20
10189.15582800645
 30
0.0
 11
5736.842050292725
 21
7614.155828006577
 31
0.0
  0
LINE
  5
16457
330
747D
100
AcDbEntity
  8
部品1
100
AcDbLine
 10
5763.842050292737
 20
10216.15582800659
 30
0.0
 11
5763.842050292726
 21
7669.155828006577
 31
0.0
  0
LINE
  5
16458
330
747D
100
AcDbEntity
  8
部品1
100
AcDbLine
 10
5791.84205029275
 20
10244.15582800658
 30
0.0
 11
5791.842050292724
 21
7614.15582800658
 31
0.0
  0
DIMENSION
  5
16459
330
747D
100
AcDbEntity
  8
寸法
100
AcDbDimension
  2
*D2
 10
6439.268396027158
 20
7669.155828006577
 30
0.0
 11
6339.256585003536
 21
8929.155828006585
 31
0.0
 70
    32
  1
6X420=<>
 71
     5
 42
2520.000000000016
  3
INABA_S40G
100
AcDbAlignedDimension
 13
5791.84205029275
 23
10189.15582800659
 33
0.0
 14
5791.842050292724
 24
7669.155828006577
 34
0.0
 50
90.0
100
AcDbRotatedDimension
1001
ACAD
1000
DSTYLE
1002
{
1002
}
  0
LINE
  5
1645B
330
747D
100
AcDbEntity
  8
部品1
100
AcDbLine
 10
4421.842050292714
 20
10244.15582800646
 30
0.0
 11
4421.842050292742
 21
7614.155828006449
 31
0.0
  0
LINE
  5
1645C
330
747D
100
AcDbEntity
  8
部品1
100
AcDbLine
 10
4449.842050292724
 20
7669.155828006445
 30
0.0
 11
4449.842050292736
 21
10216.15582800649
 31
0.0
  0
DIMENSION
  5
1645E
330
747D
100
AcDbEntity
  8
寸法
 48
50.0
100
AcDbDimension
  2
*D3
 10
4524.842050292742
 20
7079.725057240324
 30
0.0
 11
5106.842050292733
 21
7279.725057240324
 31
0.0
 70
    32
  1
有効開口部間口\P<>
 71
     5
 42
1163.999999999981
  3
INABA_S40G
100
AcDbAlignedDimension
 13
5688.842050292723
 23
7640.155828006489
 33
0.0
 14
4524.842050292742
 24
7640.155828006489
 34
0.0
100
AcDbRotatedDimension
1001
ACAD
1000
DSTYLE
1002
{
1070
    75
1070
     1
1070
   279
1070
     2
1002
}
  0
LINE
  5
1645F
330
747D
100
AcDbEntity
  8
部品1
 48
50.0
100
AcDbLine
 10
4488.84205029274
 20
7659.655828006487
 30
0.0
 11
5724.842050292726
 21
7659.655828006487
 31
0.0
  0
DIMENSION
  5
16460
330
747D
100
AcDbEntity
  8
寸法
100
AcDbDimension
  2
*D4
 10
5791.842050292724
 20
6793.55206164945
 30
0.0
 11
5106.842050292733
 21
6893.55206164945
 31
0.0
 70
    32
 71
     5
 42
1369.999999999982
  3
INABA_S40G
100
AcDbAlignedDimension
 13
4421.842050292742
 23
7614.155828006416
 33
0.0
 14
5791.842050292724
 24
7614.155828006544
 34
0.0
100
AcDbRotatedDimension
1001
ACAD
1000
DSTYLE
1002
{
1002
}
  0
DIMENSION
  5
16461
330
747D
100
AcDbEntity
  8
寸法
 48
50.0
100
AcDbDimension
  2
*D5
 10
4421.842050292742
 20
7079.725057240324
 30
0.0
 11
4113.356768918503
 21
7079.725057240324
 31
0.0
 70
   160
 71
     5
 42
54.99999999999636
  3
INABA_S40G
100
AcDbAlignedDimension
 13
4476.842050292738
 23
7614.155828006488
 33
0.0
 14
4421.842050292742
 24
7614.155828006485
 34
0.0
100
AcDbRotatedDimension
1001
ACAD
1000
DSTYLE
1002
{
1002
}
  0
DIMENSION
  5
16462
330
747D
100
AcDbEntity
  8
寸法
 48
50.0
100
AcDbDimension
  2
*D6
 10
4476.842050292738
 20
7079.725057240324
 30
0.0
 11
4637.744021292799
 21
7179.725057240324
 31
0.0
 70
   160
 71
     5
 42
48.00000000000363
  3
INABA_S40G
100
AcDbAlignedDimension
 13
4524.842050292742
 23
7640.155828006489
 33
0.0
 14
4476.842050292738
 24
7614.155828006488
 34
0.0
100
AcDbRotatedDimension
1001
ACAD
1000
DSTYLE
1002
{
1070
   279
1070
     2
1002
}
  0
LINE
  5
16463
330
747D
100
AcDbEntity
  8
部品1
100
AcDbLine
 10
4476.842050292736
 20
7614.155828006488
 30
0.0
 11
4421.842050292742
 21
7614.155828006485
 31
0.0
  0
LINE
  5
16464
330
747D
100
AcDbEntity
  8
部品1
 48
50.0
100
AcDbLine
 10
4476.842050292741
 20
7650.155828006487
 30
0.0
 11
4453.842050292742
 21
7650.155828006487
 31
0.0
  0
LINE
  5
16465
330
747D
100
AcDbEntity
  8
部品1
 48
50.0
100
AcDbLine
 10
4486.842050292742
 20
7640.155828006489
 30
0.0
 11
4476.842050292741
 21
7619.155828006488
 31
0.0
  0
LINE
  5
16466
330
747D
100
AcDbEntity
  8
部品1
 48
50.0
100
AcDbLine
 10
4476.842050292741
 20
7679.155828006487
 30
0.0
 11
4476.842050292738
 21
7614.155828006488
 31
0.0
  0
LINE
  5
16467
330
747D
100
AcDbEntity
  8
部品1
 48
50.0
100
AcDbLine
 10
4524.842050292742
 20
7640.155828006489
 30
0.0
 11
4524.842050292742
 21
7649.155828006489
 31
0.0
  0
LINE
  5
16468
330
747D
100
AcDbEntity
  8
部品1
 48
50.0
100
AcDbLine
 10
4524.842050292742
 20
7679.155828006489
 30
0.0
 11
4524.842050292742
 21
7670.155828006489
 31
0.0
  0
LINE
  5
16469
330
747D
100
AcDbEntity
  8
部品1
100
AcDbLine
 10
4524.842050292742
 20
7679.155828006489
 30
0.0
 11
4476.842050292741
 21
7679.155828006489
 31
0.0
  0
LINE
  5
1646A
330
747D
100
AcDbEntity
  8
部品1
100
AcDbLine
 10
4524.842050292742
 20
7640.155828006489
 30
0.0
 11
4476.842050292741
 21
7640.155828006489
 31
0.0
  0
LINE
  5
1646B
330
747D
100
AcDbEntity
  8
部品1
100
AcDbLine
 10
4476.842050292741
 20
7650.155828006487
 30
0.0
 11
4453.842050292742
 21
7650.155828006487
 31
0.0
  0
LINE
  5
1646C
330
747D
100
AcDbEntity
  8
部品1
100
AcDbLine
 10
4476.842050292741
 20
7669.155828006413
 30
0.0
 11
4421.84205029274
 21
7669.155828006413
 31
0.0
  0
LINE
  5
1646D
330
747D
100
AcDbEntity
  8
部品1
100
AcDbLine
 10
4449.842050292724
 20
7669.15582800645
 30
0.0
 11
4421.84205029274
 21
7669.15582800645
 31
0.0
  0
LINE
  5
1646E
330
747D
100
AcDbEntity
  8
部品1
100
AcDbLine
 10
4449.84205029274
 20
7669.155828006464
 30
0.0
 11
4421.84205029274
 21
7669.155828006464
 31
0.0
  0
LINE
  5
1646F
330
747D
100
AcDbEntity
  8
部品1
100
AcDbLine
 10
4421.842050292726
 20
8089.155828006603
 30
0.0
 11
4449.842050292725
 21
8089.155828006603
 31
0.0
  0
LINE
  5
16472
330
747D
100
AcDbEntity
  8
部品1
100
AcDbLine
 10
4421.842050292726
 20
8509.155828006603
 30
0.0
 11
4449.842050292725
 21
8509.155828006603
 31
0.0
  0
LINE
  5
16473
330
747D
100
AcDbEntity
  8
部品1
100
AcDbLine
 10
4421.842050292726
 20
8929.155828006603
 30
0.0
 11
4449.842050292725
 21
8929.155828006603
 31
0.0
  0
LINE
  5
16474
330
747D
100
AcDbEntity
  8
部品1
100
AcDbLine
 10
4449.842050292729
 20
9349.155828006464
 30
0.0
 11
4421.842050292729
 21
9349.155828006464
 31
0.0
  0
DIMENSION
  5
16475
330
747D
100
AcDbEntity
  8
寸法
 48
50.0
100
AcDbDimension
  2
*D7
 10
5688.842050292723
 20
7079.725057240324
 30
0.0
 11
5577.879152643976
 21
7179.725057240324
 31
0.0
 70
   160
 71
     5
 42
48.00000000000181
  3
INABA_S40G
100
AcDbAlignedDimension
 13
5736.842050292725
 23
7614.155828006577
 33
0.0
 14
5688.842050292723
 24
7640.155828006489
 34
0.0
100
AcDbRotatedDimension
1001
ACAD
1000
DSTYLE
1002
{
1070
   279
1070
     2
1002
}
  0
DIMENSION
  5
16476
330
747D
100
AcDbEntity
  8
寸法
 48
50.0
100
AcDbDimension
  2
*D8
 10
5736.842050292725
 20
7079.725057240326
 30
0.0
 11
6100.327331666962
 21
7079.725057240326
 31
0.0
 70
   160
 71
     5
 42
54.99999999999818
  3
INABA_S40G
100
AcDbAlignedDimension
 13
5791.842050292724
 23
7614.15582800658
 33
0.0
 14
5736.842050292725
 24
7614.155828006577
 34
0.0
100
AcDbRotatedDimension
1001
ACAD
1000
DSTYLE
1002
{
1002
}
  0
DIMENSION
  5
16477
330
747D
100
AcDbEntity
  8
寸法
100
AcDbDimension
  2
*D9
 10
6439.268396027135
 20
7614.155828006579
 30
0.0
 11
6439.268396027134
 21
7236.294361101719
 31
0.0
 70
   160
 71
     5
 42
54.99999999999636
  3
INABA_S40G
100
AcDbAlignedDimension
 13
5791.842050292724
 23
7669.155828006577
 33
0.0
 14
5791.842050292724
 24
7614.15582800658
 34
0.0
 50
90.0
100
AcDbRotatedDimension
1001
ACAD
1000
DSTYLE
1002
{
1002
}
  0
LINE
  5
16478
330
747D
100
AcDbEntity
  8
部品1
 48
50.0
100
AcDbLine
 10
5726.842050292724
 20
7640.155828006489
 30
0.0
 11
5736.842050292723
 21
7619.155828006488
 31
0.0
  0
LINE
  5
16479
330
747D
100
AcDbEntity
  8
部品1
100
AcDbLine
 10
5736.842050292723
 20
7650.155828006487
 30
0.0
 11
5759.842050292724
 21
7650.155828006487
 31
0.0
  0
LINE
  5
1647A
330
747D
100
AcDbEntity
  8
部品1
 48
50.0
100
AcDbLine
 10
5688.842050292723
 20
7679.155828006489
 30
0.0
 11
5688.842050292723
 21
7670.155828006489
 31
0.0
  0
LINE
  5
1647B
330
747D
100
AcDbEntity
  8
部品1
100
AcDbLine
 10
5688.842050292723
 20
7679.155828006489
 30
0.0
 11
5736.842050292725
 21
7679.155828006489
 31
0.0
  0
LINE
  5
1647C
330
747D
100
AcDbEntity
  8
部品1
 48
50.0
100
AcDbLine
 10
5688.842050292723
 20
7640.155828006489
 30
0.0
 11
5688.842050292723
 21
7649.155828006489
 31
0.0
  0
LINE
  5
1647D
330
747D
100
AcDbEntity
  8
部品1
100
AcDbLine
 10
5688.842050292723
 20
7640.155828006489
 30
0.0
 11
5736.842050292723
 21
7640.155828006489
 31
0.0
  0
LINE
  5
1647E
330
747D
100
AcDbEntity
  8
部品1
100
AcDbLine
 10
5736.842050292723
 20
7669.155828006591
 30
0.0
 11
5791.842050292757
 21
7669.155828006591
 31
0.0
  0
LINE
  5
1647F
330
747D
100
AcDbEntity
  8
部品1
100
AcDbLine
 10
5791.842050292724
 20
7614.15582800658
 30
0.0
 11
5736.842050292725
 21
7614.155828006578
 31
0.0
  0
LINE
  5
16480
330
747D
100
AcDbEntity
  8
部品1
100
AcDbLine
 10
5763.842050292753
 20
8089.155828006591
 30
0.0
 11
5791.842050292753
 21
8089.155828006591
 31
0.0
  0
LINE
  5
16483
330
747D
100
AcDbEntity
  8
部品1
100
AcDbLine
 10
5763.842050292753
 20
8509.155828006591
 30
0.0
 11
5791.842050292753
 21
8509.155828006591
 31
0.0
  0
LINE
  5
16484
330
747D
100
AcDbEntity
  8
部品1
100
AcDbLine
 10
5763.842050292753
 20
8929.155828006591
 30
0.0
 11
5791.842050292753
 21
8929.155828006591
 31
0.0
  0
LINE
  5
16485
330
747D
100
AcDbEntity
  8
部品1
100
AcDbLine
 10
5763.842050292753
 20
9349.155828006592
 30
0.0
 11
5791.842050292753
 21
9349.155828006592
 31
0.0
  0
LINE
  5
16489
330
747D
100
AcDbEntity
  8
部品1
100
AcDbLine
 10
4476.842050292748
 20
10216.15582800661
 30
0.0
 11
4896.842050292749
 21
10216.1558280066
 31
0.0
  0
LINE
  5
1648A
330
747D
100
AcDbEntity
  8
部品1
100
AcDbLine
 10
4421.842050292747
 20
10244.15582800649
 30
0.0
 11
5791.84205029275
 21
10244.15582800658
 31
0.0
  0
DIMENSION
  5
1648F
330
747D
100
AcDbEntity
  8
寸法
100
AcDbDimension
  2
*D10
 10
5736.842050292749
 20
10459.96404763159
 30
0.0
 11
5106.842050292749
 21
10559.97585865521
 31
0.0
 70
    32
  1
3X420=<>
 71
     5
 42
1260.000000000001
  3
INABA_S40G
100
AcDbAlignedDimension
 13
4476.842050292748
 23
10244.15582800649
 33
0.0
 14
5736.842050292749
 24
10244.15582800658
 34
0.0
100
AcDbRotatedDimension
1001
ACAD
1000
DSTYLE
1002
{
1002
}
  0
LINE
  5
16491
330
747D
100
AcDbEntity
  8
部品1
100
AcDbLine
 10
4449.842050292747
 20
10216.15582800649
 30
0.0
 11
4686.842050292748
 21
10216.15582800649
 31
0.0
  0
DIMENSION
  5
16492
330
747D
100
AcDbEntity
  8
寸法
100
AcDbDimension
  2
*D11
 10
4476.842050292748
 20
10459.96404763147
 30
0.0
 11
4113.356768918475
 21
10459.96404763147
 31
0.0
 70
   160
 71
     5
 42
55.00000000003456
  3
INABA_S40G
100
AcDbAlignedDimension
 13
4421.842050292713
 23
10244.15582800649
 33
0.0
 14
4476.842050292748
 24
10244.15582800649
 34
0.0
100
AcDbRotatedDimension
1001
ACAD
1000
DSTYLE
1002
{
1002
}
  0
LINE
  5
16495
330
747D
100
AcDbEntity
  8
部品1
100
AcDbLine
 10
4449.842050292722
 20
9769.155828006464
 30
0.0
 11
4421.842050292722
 21
9769.155828006464
 31
0.0
  0
LINE
  5
16496
330
747D
100
AcDbEntity
  8
部品1
100
AcDbLine
 10
4476.842050292715
 20
10244.15582800646
 30
0.0
 11
4476.842050292715
 21
10216.15582800646
 31
0.0
  0
LINE
  5
16497
330
747D
100
AcDbEntity
  8
部品1
100
AcDbLine
 10
4476.842050292748
 20
10244.15582800649
 30
0.0
 11
4476.842050292748
 21
10216.15582800649
 31
0.0
  0
LINE
  5
16498
330
747D
100
AcDbEntity
  8
部品1
100
AcDbLine
 10
4449.842050292715
 20
10189.15582800646
 30
0.0
 11
4421.842050292714
 21
10189.15582800646
 31
0.0
  0
LINE
  5
164BB
330
747D
100
AcDbEntity
  8
部品1
100
AcDbLine
 10
4896.842050292747
 20
10244.15582800661
 30
0.0
 11
4896.842050292747
 21
10216.15582800661
 31
0.0
  0
LINE
  5
164BC
330
747D
100
AcDbEntity
  8
部品1
100
AcDbLine
 10
5316.842050292748
 20
10244.15582800661
 30
0.0
 11
5316.842050292748
 21
10216.15582800661
 31
0.0
  0
DIMENSION
  5
164BD
330
747D
100
AcDbEntity
  8
寸法
100
AcDbDimension
  2
*D12
 10
6439.268396027159
 20
10189.15582800659
 30
0.0
 11
6439.268396027158
 21
10552.64110938082
 31
0.0
 70
   160
 71
     5
 42
54.99999999999636
  3
INABA_S40G
100
AcDbAlignedDimension
 13
5791.84205029275
 23
10244.15582800658
 33
0.0
 14
5791.84205029275
 24
10189.15582800659
 34
0.0
 50
90.0
100
AcDbRotatedDimension
1001
ACAD
1000
DSTYLE
1002
{
1002
}
  0
DIMENSION
  5
164BE
330
747D
100
AcDbEntity
  8
寸法
100
AcDbDimension
  2
*D13
 10
5791.84205029275
 20
10459.96404763157
 30
0.0
 11
6100.327331666988
 21
10459.96404763157
 31
0.0
 70
   160
 71
     5
 42
55.0
  3
INABA_S40G
100
AcDbAlignedDimension
 13
5736.842050292749
 23
10244.15582800658
 33
0.0
 14
5791.84205029275
 24
10244.15582800658
 34
0.0
100
AcDbRotatedDimension
1001
ACAD
1000
DSTYLE
1002
{
1002
}
  0
LINE
  5
164C2
330
747D
100
AcDbEntity
  8
部品1
100
AcDbLine
 10
5763.842050292749
 20
9769.155828006592
 30
0.0
 11
5791.84205029275
 21
9769.155828006592
 31
0.0
  0
LINE
  5
164C3
330
747D
100
AcDbEntity
  8
部品1
100
AcDbLine
 10
5736.842050292749
 20
10244.15582800658
 30
0.0
 11
5736.842050292749
 21
10216.15582800659
 31
0.0
  0
LINE
  5
164C4
330
747D
100
AcDbEntity
  8
部品1
100
AcDbLine
 10
5736.842050292749
 20
10244.15582800661
 30
0.0
 11
5736.842050292749
 21
10216.15582800661
 31
0.0
  0
LINE
  5
164C5
330
747D
100
AcDbEntity
  8
部品1
100
AcDbLine
 10
5763.842050292749
 20
10189.15582800659
 30
0.0
 11
5791.84205029275
 21
10189.15582800659
 31
0.0
  0
LINE
  5
166A1
330
747D
100
AcDbEntity
  8
部品1
 48
50.0
100
AcDbLine
 10
5711.842050292748
 20
10164.1558280064
 30
0.0
 11
4501.842050292721
 21
10164.15582800638
 31
0.0
  0
LINE
  5
166A5
330
747D
100
AcDbEntity
  8
部品1
100
AcDbLine
 10
5736.842050292739
 20
10189.15582800645
 30
0.0
 11
4476.842050292724
 21
10189.15582800646
 31
0.0
  0
LINE
  5
166A6
330
747D
100
AcDbEntity
  8
部品1
 48
50.0
100
AcDbLine
 10
4476.842050292722
 20
10189.15582800646
 30
0.0
 11
4449.842050292747
 21
10216.15582800649
 31
0.0
  0
LINE
  5
166A7
330
747D
100
AcDbEntity
  8
部品1
 48
50.0
100
AcDbLine
 10
5763.842050292737
 20
10216.15582800659
 30
0.0
 11
5736.842050292739
 21
10189.15582800645
 31
0.0
  0
LINE
  5
1672F
330
747D
100
AcDbEntity
  8
部品1
100
AcDbLine
 10
4896.842050292747
 20
10244.15582800655
 30
0.0
 11
4896.842050292747
 21
10216.15582800655
 31
0.0
  0
LINE
  5
16730
330
747D
100
AcDbEntity
  8
部品1
100
AcDbLine
 10
4896.842050292747
 20
10244.15582800661
 30
0.0
 11
4896.842050292747
 21
10216.15582800661
 31
0.0
  0
LINE
  5
16731
330
747D
100
AcDbEntity
  8
部品1
100
AcDbLine
 10
4896.842050292749
 20
10216.1558280066
 30
0.0
 11
5763.842050292737
 21
10216.15582800659
 31
0.0
  0
LINE
  5
16ACA
330
747D
100
AcDbEntity
  8
仕様書枠
 48
50.0
100
AcDbLine
 10
16307.19999999999
 20
9709.6
 30
0.0
 11
13127.19999999999
 21
9709.600000000001
 31
0.0
  0
TEXT
  5
16ACB
330
747D
100
AcDbEntity
  8
文字
 62
     7
 48
50.0
100
AcDbText
 10
13229.83081656555
 20
8380.013745883728
 30
0.0
 40
100.0
  1
Z08→塗装溶融亜鉛めっき鋼板(JIS G 3313)
  7
STYLE1
100
AcDbText
  0
TEXT
  5
16ACC
330
747D
100
AcDbEntity
  8
文字
 62
     7
 48
50.0
100
AcDbText
 10
13229.83081656555
 20
8550.013745883727
 30
0.0
 40
100.0
  1
Y10→溶融亜鉛-5％アルミニウム合金めっき鋼板(JIS G 3317)
 41
0.9
  7
STYLE1
100
AcDbText
  0
TEXT
  5
16ACD
330
747D
100
AcDbEntity
  8
文字
 62
     7
 48
50.0
100
AcDbText
 10
13229.83081656555
 20
8720.013745883727
 30
0.0
 40
100.0
  1
F12→溶融亜鉛めっき鋼板(JIS G 3302)
  7
STYLE1
100
AcDbText
  0
LINE
  5
16ACE
330
747D
100
AcDbEntity
  8
仕様書枠
 48
50.0
100
AcDbLine
 10
16307.19999999999
 20
8349.599999999998
 30
0.0
 11
13127.19999999999
 21
8349.6
 31
0.0
  0
LINE
  5
16ACF
330
747D
100
AcDbEntity
  8
仕様書枠
 48
50.0
100
AcDbLine
 10
16307.19999999999
 20
8519.599999999998
 30
0.0
 11
13127.19999999999
 21
8519.600000000002
 31
0.0
  0
LINE
  5
16AD0
330
747D
100
AcDbEntity
  8
仕様書枠
 48
50.0
100
AcDbLine
 10
16307.19999999999
 20
8689.599999999998
 30
0.0
 11
13127.19999999999
 21
8689.6
 31
0.0
  0
TEXT
  5
16AD1
330
747D
100
AcDbEntity
  8
文字
 62
     7
 48
50.0
100
AcDbText
 10
15022.63965474515
 20
8890.013745883727
 30
0.0
 40
100.0
  1
F12            0.6
  7
STYLE1
100
AcDbText
  0
TEXT
  5
16AD2
330
747D
100
AcDbEntity
  8
文字
 62
     7
 48
50.0
100
AcDbText
 10
15022.63965474515
 20
9400.013745883724
 30
0.0
 40
100.0
  1
Z08            0.5
  7
STYLE1
100
AcDbText
  0
TEXT
  5
16AD4
330
747D
100
AcDbEntity
  8
文字
 62
     7
 48
50.0
100
AcDbText
 10
14850.83183167176
 20
9060.013745883727
 30
0.0
 40
100.0
  1
アルミニウム合金押出形材
  7
STYLE1
100
AcDbText
  0
TEXT
  5
16AD5
330
747D
100
AcDbEntity
  8
文字
 62
     7
 48
50.0
100
AcDbText
 10
15022.63965474516
 20
9570.013745883725
 30
0.0
 40
100.0
  1
F12            0.6
  7
STYLE1
100
AcDbText
  0
TEXT
  5
16AD6
330
747D
100
AcDbEntity
  8
文字
 62
     7
 48
50.0
100
AcDbText
 10
15022.63965474517
 20
9740.013745883725
 30
0.0
 40
100.0
  1
Y10            0.5
  7
STYLE1
100
AcDbText
  0
TEXT
  5
16AD7
330
747D
100
AcDbEntity
  8
文字
 62
     7
 48
50.0
100
AcDbText
 10
15022.63965474517
 20
9910.013745883725
 30
0.0
 40
100.0
  1
F12            1.0
  7
STYLE1
100
AcDbText
  0
TEXT
  5
16AD8
330
747D
100
AcDbEntity
  8
文字
 62
     7
 48
50.0
100
AcDbText
 10
15022.63965474516
 20
10080.01374588372
 30
0.0
 40
100.0
  1
Y10            0.7
  7
STYLE1
100
AcDbText
  0
TEXT
  5
16AD9
330
747D
100
AcDbEntity
  8
文字
 62
     7
 48
50.0
100
AcDbText
 10
15022.63965474516
 20
10250.01374588372
 30
0.0
 40
100.0
  1
Y10            0.7
  7
STYLE1
100
AcDbText
  0
TEXT
  5
16ADA
330
747D
100
AcDbEntity
  8
文字
 62
     7
 48
50.0
100
AcDbText
 10
15022.63965474516
 20
10420.01374588372
 30
0.0
 40
100.0
  1
Y10            1.0
  7
STYLE1
100
AcDbText
  0
TEXT
  5
16ADB
330
747D
100
AcDbEntity
  8
文字
 62
     7
 48
50.0
100
AcDbText
 10
15022.63965474516
 20
10590.01374588372
 30
0.0
 40
100.0
  1
Y10            1.0
  7
STYLE1
100
AcDbText
  0
TEXT
  5
16ADD
330
747D
100
AcDbEntity
  8
文字
 62
     7
 48
50.0
100
AcDbText
 10
15022.63965474517
 20
10930.01374588372
 30
0.0
 40
100.0
  1
F12            1.2
  7
STYLE1
100
AcDbText
  0
TEXT
  5
16ADE
330
747D
100
AcDbEntity
  8
文字
 62
     7
 48
50.0
100
AcDbText
 10
13248.77747366448
 20
9060.013745883729
 30
0.0
 40
100.0
  1
12
  7
STYLE1
100
AcDbText
  0
TEXT
  5
16ADF
330
747D
100
AcDbEntity
  8
文字
 62
     7
 48
50.0
100
AcDbText
 10
13248.77747366448
 20
8890.013745883729
 30
0.0
 40
100.0
  1
13
  7
STYLE1
100
AcDbText
  0
TEXT
  5
16AE0
330
747D
100
AcDbEntity
  8
文字
 62
     7
 48
50.0
100
AcDbText
 10
13583.11819016569
 20
9400.013745883727
 30
0.0
 40
100.0
  1
シャッター
  7
STYLE1
100
AcDbText
  0
LINE
  5
16AE1
330
747D
100
AcDbEntity
  8
仕様書枠
 48
50.0
100
AcDbLine
 10
16307.19999999999
 20
9029.6
 30
0.0
 11
13127.19999999999
 21
9029.600000000002
 31
0.0
  0
TEXT
  5
16AE2
330
747D
100
AcDbEntity
  8
文字
 62
     7
 48
50.0
100
AcDbText
 10
13583.11819016569
 20
8890.013745883729
 30
0.0
 40
100.0
  1
棚板（別売）
  7
STYLE1
100
AcDbText
  0
LINE
  5
16AE4
330
747D
100
AcDbEntity
  8
仕様書枠
 48
50.0
100
AcDbLine
 10
16307.19999999999
 20
9199.599999999998
 30
0.0
 11
13127.19999999999
 21
9199.600000000001
 31
0.0
  0
TEXT
  5
16AE5
330
747D
100
AcDbEntity
  8
文字
 62
     7
 48
50.0
100
AcDbText
 10
13583.11819016569
 20
9230.013745883727
 30
0.0
 40
100.0
  1
シャッターカバー
 41
0.9
  7
STYLE1
100
AcDbText
  0
TEXT
  5
16AE6
330
747D
100
AcDbEntity
  8
文字
 62
     7
 48
50.0
100
AcDbText
 10
13248.77747366448
 20
9230.013745883727
 30
0.0
 40
100.0
  1
11
  7
STYLE1
100
AcDbText
  0
LINE
  5
16AE7
330
747D
100
AcDbEntity
  8
仕様書枠
 48
50.0
100
AcDbLine
 10
16307.19999999999
 20
9879.599999999999
 30
0.0
 11
13127.2
 21
9879.600000000001
 31
0.0
  0
LINE
  5
16AE8
330
747D
100
AcDbEntity
  8
仕様書枠
 48
50.0
100
AcDbLine
 10
16307.19999999999
 20
10049.6
 30
0.0
 11
13127.2
 21
10049.6
 31
0.0
  0
LINE
  5
16AE9
330
747D
100
AcDbEntity
  8
仕様書枠
 48
50.0
100
AcDbLine
 10
16307.19999999999
 20
9539.599999999998
 30
0.0
 11
13127.19999999999
 21
9539.6
 31
0.0
  0
LINE
  5
16AEA
330
747D
100
AcDbEntity
  8
仕様書枠
 48
50.0
100
AcDbLine
 10
16307.19999999999
 20
9369.599999999998
 30
0.0
 11
13127.19999999999
 21
9369.600000000001
 31
0.0
  0
TEXT
  5
16AEB
330
747D
100
AcDbEntity
  8
文字
 62
     7
 48
50.0
100
AcDbText
 10
13271.19032244792
 20
10080.01374588373
 30
0.0
 40
100.0
  1
6
  7
STYLE1
100
AcDbText
  0
TEXT
  5
16AEC
330
747D
100
AcDbEntity
  8
文字
 62
     7
 48
50.0
100
AcDbText
 10
13271.19032244792
 20
9910.01374588373
 30
0.0
 40
100.0
  1
7
  7
STYLE1
100
AcDbText
  0
TEXT
  5
16AED
330
747D
100
AcDbEntity
  8
文字
 62
     7
 48
50.0
100
AcDbText
 10
13271.19032244792
 20
9570.013745883729
 30
0.0
 40
100.0
  1
9
  7
STYLE1
100
AcDbText
  0
TEXT
  5
16AEE
330
747D
100
AcDbEntity
  8
文字
 62
     7
 48
50.0
100
AcDbText
 10
13271.19032244792
 20
9740.013745883729
 30
0.0
 40
100.0
  1
8
  7
STYLE1
100
AcDbText
  0
TEXT
  5
16AEF
330
747D
100
AcDbEntity
  8
文字
 62
     7
 48
50.0
100
AcDbText
 10
13583.11819016569
 20
10080.01374588372
 30
0.0
 40
100.0
  1
鼻隠シ前後
  7
STYLE1
100
AcDbText
  0
TEXT
  5
16AF0
330
747D
100
AcDbEntity
  8
文字
 62
     7
 48
50.0
100
AcDbText
 10
13583.11819016569
 20
9910.013745883727
 30
0.0
 40
100.0
  1
母屋中
  7
STYLE1
100
AcDbText
  0
TEXT
  5
16AF1
330
747D
100
AcDbEntity
  8
文字
 62
     7
 48
50.0
100
AcDbText
 10
13583.11819016569
 20
9740.013745883729
 30
0.0
 40
100.0
  1
屋根パネル
  7
STYLE1
100
AcDbText
  0
TEXT
  5
16AF2
330
747D
100
AcDbEntity
  8
文字
 62
     7
 48
50.0
100
AcDbText
 10
13583.11819016569
 20
9570.013745883729
 30
0.0
 40
100.0
  1
壁パネル
  7
STYLE1
100
AcDbText
  0
TEXT
  5
16AF3
330
747D
100
AcDbEntity
  8
文字
 62
     7
 48
50.0
100
AcDbText
 10
13248.77747366448
 20
9400.013745883727
 30
0.0
 40
100.0
  1
10
  7
STYLE1
100
AcDbText
  0
TEXT
  5
16AF4
330
747D
100
AcDbEntity
  8
文字
 62
     7
 48
50.0
100
AcDbText
 10
13583.11819016569
 20
9060.013745883729
 30
0.0
 40
100.0
  1
シャッターレール
  7
STYLE1
100
AcDbText
  0
TEXT
  5
16AF5
330
747D
100
AcDbEntity
  8
文字
 62
     7
 48
50.0
100
AcDbText
 10
13583.11819016569
 20
10250.01374588373
 30
0.0
 40
100.0
  1
妻板左右
  7
STYLE1
100
AcDbText
  0
TEXT
  5
16AF6
330
747D
100
AcDbEntity
  8
文字
 62
     7
 48
50.0
100
AcDbText
 10
13271.19032244792
 20
10250.01374588373
 30
0.0
 40
100.0
  1
5
  7
STYLE1
100
AcDbText
  0
TEXT
  5
16AF7
330
747D
100
AcDbEntity
  8
文字
 62
     7
 48
50.0
100
AcDbText
 10
13583.11819016569
 20
10420.01374588373
 30
0.0
 40
100.0
  1
桁後
  7
STYLE1
100
AcDbText
  0
TEXT
  5
16AF8
330
747D
100
AcDbEntity
  8
文字
 62
     7
 48
50.0
100
AcDbText
 10
13583.11819016569
 20
10590.01374588373
 30
0.0
 40
100.0
  1
桁前
  7
STYLE1
100
AcDbText
  0
TEXT
  5
16AF9
330
747D
100
AcDbEntity
  8
文字
 62
     7
 48
50.0
100
AcDbText
 10
13583.11819016569
 20
10760.01374588372
 30
0.0
 40
100.0
  1
柱
  7
STYLE1
100
AcDbText
  0
TEXT
  5
16AFA
330
747D
100
AcDbEntity
  8
文字
 62
     7
 48
50.0
100
AcDbText
 10
13583.11819016569
 20
10930.01374588372
 30
0.0
 40
100.0
  1
土台枠
  7
STYLE1
100
AcDbText
  0
TEXT
  5
16AFB
330
747D
100
AcDbEntity
  8
文字
 62
     7
 48
50.0
100
AcDbText
 10
14859.79774614482
 20
11100.01374588373
 30
0.0
 40
100.0
  1
材料（材質）　　単位mm
  7
STYLE1
100
AcDbText
  0
TEXT
  5
16AFC
330
747D
100
AcDbEntity
  8
文字
 62
     7
 48
50.0
100
AcDbText
 10
13732.03840939434
 20
11100.01374588373
 30
0.0
 40
100.0
  1
部　　品　　名
  7
STYLE1
100
AcDbText
  0
TEXT
  5
16AFD
330
747D
100
AcDbEntity
  8
文字
 62
     7
 48
50.0
100
AcDbText
 10
13271.19032244792
 20
10590.01374588373
 30
0.0
 40
100.0
  1
3
  7
STYLE1
100
AcDbText
  0
TEXT
  5
16AFE
330
747D
100
AcDbEntity
  8
文字
 62
     7
 48
50.0
100
AcDbText
 10
13271.19032244792
 20
10420.01374588373
 30
0.0
 40
100.0
  1
4
  7
STYLE1
100
AcDbText
  0
TEXT
  5
16AFF
330
747D
100
AcDbEntity
  8
文字
 62
     7
 48
50.0
100
AcDbText
 10
13271.19032244792
 20
10760.01374588373
 30
0.0
 40
100.0
  1
2
  7
STYLE1
100
AcDbText
  0
TEXT
  5
16B00
330
747D
100
AcDbEntity
  8
文字
 62
     7
 48
50.0
100
AcDbText
 10
13271.19032244792
 20
10930.01374588373
 30
0.0
 40
100.0
  1
1
  7
STYLE1
100
AcDbText
  0
TEXT
  5
16B01
330
747D
100
AcDbEntity
  8
文字
 62
     7
 48
50.0
100
AcDbText
 10
13197.42518560407
 20
11100.01374588373
 30
0.0
 40
100.0
  1
品番
  7
STYLE1
100
AcDbText
  0
LINE
  5
16B02
330
747D
100
AcDbEntity
  8
仕様書枠
 48
50.0
100
AcDbLine
 10
16307.19999999999
 20
10559.6
 30
0.0
 11
13127.19999999999
 21
10559.6
 31
0.0
  0
LINE
  5
16B03
330
747D
100
AcDbEntity
  8
仕様書枠
 48
50.0
100
AcDbLine
 10
16307.19999999999
 20
10219.6
 30
0.0
 11
13127.19999999999
 21
10219.6
 31
0.0
  0
LINE
  5
16B04
330
747D
100
AcDbEntity
  8
仕様書枠
 48
50.0
100
AcDbLine
 10
16307.19999999999
 20
10389.6
 30
0.0
 11
13127.19999999999
 21
10389.6
 31
0.0
  0
LINE
  5
16B05
330
747D
100
AcDbEntity
  8
仕様書枠
 48
50.0
100
AcDbLine
 10
16307.19999999999
 20
10899.6
 30
0.0
 11
13127.2
 21
10899.6
 31
0.0
  0
LINE
  5
16B06
330
747D
100
AcDbEntity
  8
仕様書枠
 48
50.0
100
AcDbLine
 10
16307.19999999999
 20
10729.6
 30
0.0
 11
13127.2
 21
10729.6
 31
0.0
  0
LINE
  5
16B07
330
747D
100
AcDbEntity
  8
仕様書枠
 48
50.0
100
AcDbLine
 10
16307.19999999999
 20
11069.6
 30
0.0
 11
13127.2
 21
11069.6
 31
0.0
  0
LINE
  5
16B08
330
747D
100
AcDbEntity
  8
仕様書枠
 48
50.0
100
AcDbLine
 10
13490.2
 20
11239.6
 30
0.0
 11
13490.20000000001
 21
8859.600000000005
 31
0.0
  0
LINE
  5
16B09
330
747D
100
AcDbEntity
  8
仕様書枠
 48
50.0
100
AcDbLine
 10
14785.2
 20
11239.59999999999
 30
0.0
 11
14785.2
 21
8859.600000000005
 31
0.0
  0
LINE
  5
16B0A
330
747D
100
AcDbEntity
  8
仕様書枠
 48
50.0
100
AcDbLine
 10
16307.2
 20
8349.6
 30
0.0
 11
16307.2
 21
11239.6
 31
0.0
  0
LINE
  5
16B0B
330
747D
100
AcDbEntity
  8
仕様書枠
 48
50.0
100
AcDbLine
 10
13127.2
 20
11239.6
 30
0.0
 11
13127.2
 21
8349.600000000002
 31
0.0
  0
LINE
  5
16B0C
330
747D
100
AcDbEntity
  8
仕様書枠
 48
50.0
100
AcDbLine
 10
16307.19999999999
 20
11239.6
 30
0.0
 11
13127.2
 21
11239.6
 31
0.0
  0
ARC
  5
17028
330
747D
100
AcDbEntity
  8
部品1
 48
0.01
100
AcDbCircle
 10
4884.842050292712
 20
4410.431598713258
 30
0.0
 40
2.0
100
AcDbArc
 50
270.0
 51
0.0
  0
ARC
  5
17029
330
747D
100
AcDbEntity
  8
部品1
 48
0.01
100
AcDbCircle
 10
4884.842050292714
 20
4441.931598713258
 30
0.0
 40
2.0
100
AcDbArc
 50
0.0
 51
90.0
  0
ARC
  5
1702A
330
747D
100
AcDbEntity
  8
部品1
 48
0.01
100
AcDbCircle
 10
4708.842050292713
 20
4410.431598713258
 30
0.0
 40
2.0
100
AcDbArc
 50
180.0
 51
270.0
  0
ARC
  5
1702B
330
747D
100
AcDbEntity
  8
部品1
 48
0.01
100
AcDbCircle
 10
4708.842050292713
 20
4441.931598713258
 30
0.0
 40
2.0
100
AcDbArc
 50
90.0
 51
180.0
  0
LINE
  5
1702C
330
747D
100
AcDbEntity
  8
細線
100
AcDbLine
 10
4796.842050292712
 20
4414.431598713258
 30
0.0
 11
4870.842050292714
 21
4414.431598713258
 31
0.0
  0
LINE
  5
1702D
330
747D
100
AcDbEntity
  8
細線
100
AcDbLine
 10
4796.842050292713
 20
4437.431598713259
 30
0.0
 11
4722.842050292713
 21
4437.431598713259
 31
0.0
  0
LINE
  5
1702E
330
747D
100
AcDbEntity
  8
細線
100
AcDbLine
 10
4722.842050292713
 20
4414.431598713258
 30
0.0
 11
4796.842050292713
 21
4414.431598713258
 31
0.0
  0
LINE
  5
1702F
330
747D
100
AcDbEntity
  8
細線
100
AcDbLine
 10
4870.842050292714
 20
4437.431598713259
 30
0.0
 11
4796.842050292713
 21
4437.431598713259
 31
0.0
  0
LINE
  5
17030
330
747D
100
AcDbEntity
  8
細線
100
AcDbLine
 10
4870.842050292714
 20
4414.431598713258
 30
0.0
 11
4870.842050292714
 21
4437.431598713259
 31
0.0
  0
LINE
  5
17031
330
747D
100
AcDbEntity
  8
細線
100
AcDbLine
 10
4722.842050292713
 20
4437.431598713259
 30
0.0
 11
4722.842050292713
 21
4414.431598713258
 31
0.0
  0
LINE
  5
17032
330
747D
100
AcDbEntity
  8
部品1
 48
0.01
100
AcDbLine
 10
4886.842050292712
 20
4410.431598713258
 30
0.0
 11
4886.842050292713
 21
4441.931598713258
 31
0.0
  0
LINE
  5
17033
330
747D
100
AcDbEntity
  8
部品1
 48
0.01
100
AcDbLine
 10
4708.842050292713
 20
4408.431598713258
 30
0.0
 11
4884.842050292712
 21
4408.431598713258
 31
0.0
  0
LINE
  5
17034
330
747D
100
AcDbEntity
  8
部品1
 48
0.01
100
AcDbLine
 10
4706.842050292713
 20
4441.931598713258
 30
0.0
 11
4706.842050292713
 21
4410.431598713258
 31
0.0
  0
LINE
  5
17035
330
747D
100
AcDbEntity
  8
部品1
 48
0.01
100
AcDbLine
 10
4884.842050292714
 20
4443.931598713258
 30
0.0
 11
4708.842050292713
 21
4443.931598713258
 31
0.0
  0
LINE
  5
17036
330
747D
100
AcDbEntity
  8
細線
100
AcDbLine
 10
4722.842050292713
 20
4431.431598713259
 30
0.0
 11
4796.842050292713
 21
4431.431598713259
 31
0.0
  0
LINE
  5
17037
330
747D
100
AcDbEntity
  8
細線
100
AcDbLine
 10
4722.842050292713
 20
4425.431598713259
 30
0.0
 11
4796.842050292713
 21
4425.431598713259
 31
0.0
  0
LINE
  5
17038
330
747D
100
AcDbEntity
  8
細線
100
AcDbLine
 10
4722.842050292712
 20
4419.431598713258
 30
0.0
 11
4796.842050292713
 21
4419.431598713258
 31
0.0
  0
LINE
  5
17039
330
747D
100
AcDbEntity
  8
細線
100
AcDbLine
 10
4722.842050292713
 20
4431.431598713259
 30
0.0
 11
4791.842050292713
 21
4431.431598713259
 31
0.0
  0
LINE
  5
1703A
330
747D
100
AcDbEntity
  8
細線
100
AcDbLine
 10
4870.842050292711
 20
4431.431598713258
 30
0.0
 11
4796.842050292713
 21
4431.431598713259
 31
0.0
  0
LINE
  5
1703B
330
747D
100
AcDbEntity
  8
細線
100
AcDbLine
 10
4870.842050292711
 20
4419.431598713257
 30
0.0
 11
4796.842050292713
 21
4419.431598713258
 31
0.0
  0
LINE
  5
1703C
330
747D
100
AcDbEntity
  8
細線
100
AcDbLine
 10
4870.842050292711
 20
4425.431598713259
 30
0.0
 11
4796.842050292713
 21
4425.431598713259
 31
0.0
  0
LINE
  5
1703D
330
747D
100
AcDbEntity
  8
細線
100
AcDbLine
 10
4796.842050292713
 20
4437.431598713259
 30
0.0
 11
4796.842050292712
 21
4414.431598713258
 31
0.0
  0
LINE
  5
1703E
330
747D
100
AcDbEntity
  8
細線
100
AcDbLine
 10
5416.842050292712
 20
4437.431598713259
 30
0.0
 11
5416.842050292714
 21
4414.431598713258
 31
0.0
  0
LINE
  5
1703F
330
747D
100
AcDbEntity
  8
細線
100
AcDbLine
 10
5342.842050292714
 20
4425.431598713259
 30
0.0
 11
5416.842050292712
 21
4425.431598713259
 31
0.0
  0
LINE
  5
17040
330
747D
100
AcDbEntity
  8
細線
100
AcDbLine
 10
5342.842050292714
 20
4419.431598713257
 30
0.0
 11
5416.842050292712
 21
4419.431598713258
 31
0.0
  0
LINE
  5
17041
330
747D
100
AcDbEntity
  8
細線
100
AcDbLine
 10
5342.842050292714
 20
4431.431598713258
 30
0.0
 11
5416.842050292712
 21
4431.431598713259
 31
0.0
  0
LINE
  5
17042
330
747D
100
AcDbEntity
  8
細線
100
AcDbLine
 10
5490.842050292712
 20
4431.431598713259
 30
0.0
 11
5421.842050292712
 21
4431.431598713259
 31
0.0
  0
LINE
  5
17043
330
747D
100
AcDbEntity
  8
細線
100
AcDbLine
 10
5490.842050292713
 20
4419.431598713258
 30
0.0
 11
5416.842050292712
 21
4419.431598713258
 31
0.0
  0
LINE
  5
17044
330
747D
100
AcDbEntity
  8
細線
100
AcDbLine
 10
5490.842050292712
 20
4425.431598713259
 30
0.0
 11
5416.842050292712
 21
4425.431598713259
 31
0.0
  0
LINE
  5
17045
330
747D
100
AcDbEntity
  8
細線
100
AcDbLine
 10
5490.842050292712
 20
4431.431598713259
 30
0.0
 11
5416.842050292712
 21
4431.431598713259
 31
0.0
  0
LINE
  5
17046
330
747D
100
AcDbEntity
  8
部品1
 48
0.01
100
AcDbLine
 10
5328.842050292712
 20
4443.931598713258
 30
0.0
 11
5504.842050292712
 21
4443.931598713258
 31
0.0
  0
LINE
  5
17047
330
747D
100
AcDbEntity
  8
部品1
 48
0.01
100
AcDbLine
 10
5506.842050292712
 20
4441.931598713258
 30
0.0
 11
5506.842050292712
 21
4410.431598713258
 31
0.0
  0
LINE
  5
17048
330
747D
100
AcDbEntity
  8
部品1
 48
0.01
100
AcDbLine
 10
5504.842050292712
 20
4408.431598713258
 30
0.0
 11
5328.842050292713
 21
4408.431598713258
 31
0.0
  0
LINE
  5
17049
330
747D
100
AcDbEntity
  8
部品1
 48
0.01
100
AcDbLine
 10
5326.842050292714
 20
4410.431598713258
 30
0.0
 11
5326.842050292712
 21
4441.931598713258
 31
0.0
  0
LINE
  5
1704A
330
747D
100
AcDbEntity
  8
細線
100
AcDbLine
 10
5490.842050292712
 20
4437.431598713259
 30
0.0
 11
5490.842050292712
 21
4414.431598713258
 31
0.0
  0
LINE
  5
1704B
330
747D
100
AcDbEntity
  8
細線
100
AcDbLine
 10
5342.842050292712
 20
4414.431598713258
 30
0.0
 11
5342.842050292712
 21
4437.431598713259
 31
0.0
  0
LINE
  5
1704C
330
747D
100
AcDbEntity
  8
細線
100
AcDbLine
 10
5342.842050292712
 20
4437.431598713259
 30
0.0
 11
5416.842050292712
 21
4437.431598713259
 31
0.0
  0
LINE
  5
1704D
330
747D
100
AcDbEntity
  8
細線
100
AcDbLine
 10
5490.842050292712
 20
4414.431598713258
 30
0.0
 11
5416.842050292712
 21
4414.431598713258
 31
0.0
  0
LINE
  5
1704E
330
747D
100
AcDbEntity
  8
細線
100
AcDbLine
 10
5416.842050292712
 20
4437.431598713259
 30
0.0
 11
5490.842050292712
 21
4437.431598713259
 31
0.0
  0
LINE
  5
1704F
330
747D
100
AcDbEntity
  8
細線
100
AcDbLine
 10
5416.842050292714
 20
4414.431598713258
 30
0.0
 11
5342.842050292712
 21
4414.431598713258
 31
0.0
  0
ARC
  5
17050
330
747D
100
AcDbEntity
  8
部品1
 48
0.01
100
AcDbCircle
 10
5504.842050292712
 20
4441.931598713258
 30
0.0
 40
2.0
100
AcDbArc
 50
0.0
 51
90.0
  0
ARC
  5
17051
330
747D
100
AcDbEntity
  8
部品1
 48
0.01
100
AcDbCircle
 10
5504.842050292712
 20
4410.431598713258
 30
0.0
 40
2.0
100
AcDbArc
 50
270.0
 51
0.0
  0
ARC
  5
17052
330
747D
100
AcDbEntity
  8
部品1
 48
0.01
100
AcDbCircle
 10
5328.842050292712
 20
4441.931598713258
 30
0.0
 40
2.0
100
AcDbArc
 50
90.0
 51
180.0
  0
ARC
  5
17053
330
747D
100
AcDbEntity
  8
部品1
 48
0.01
100
AcDbCircle
 10
5328.842050292713
 20
4410.431598713258
 30
0.0
 40
2.0
100
AcDbArc
 50
180.0
 51
270.0
  0
LINE
  5
17054
330
747D
100
AcDbEntity
  8
部品1
100
AcDbLine
 10
4372.261711308046
 20
4605.535073318023
 30
0.0
 11
4373.395108640393
 21
4585.558945335423
 31
0.0
  0
LINE
  5
17055
330
747D
100
AcDbEntity
  8
部品1
100
AcDbLine
 10
4384.83212896197
 20
4489.901538168363
 30
0.0
 11
4385.477034769078
 21
4478.535073318025
 31
0.0
  0
LINE
  5
17056
330
747D
100
AcDbEntity
  8
部品1
100
AcDbLine
 10
4376.596098437122
 20
4582.101538168366
 30
0.0
 11
4381.631139165233
 21
4493.358945335422
 31
0.0
  0
ARC
  5
17057
330
747D
100
AcDbEntity
  8
部品1
 48
50.0
100
AcDbCircle
 10
4373.600915540938
 20
4581.931598713263
 30
0.0
 40
3.0
100
AcDbArc
 50
3.247342790324674
 51
82.34187279263654
  0
ARC
  5
17058
330
747D
100
AcDbEntity
  8
部品1
 48
50.0
100
AcDbCircle
 10
4381.836946065781
 20
4489.731598713261
 30
0.0
 40
3.0
100
AcDbArc
 50
3.247342790324674
 51
82.34187279263654
  0
ARC
  5
17059
330
747D
100
AcDbEntity
  8
部品1
 48
50.0
100
AcDbCircle
 10
4382.330015174342
 20
4493.398597874945
 30
0.0
 40
0.7
100
AcDbArc
 50
183.2473427902987
 51
262.3418727926365
  0
ARC
  5
1705A
330
747D
100
AcDbEntity
  8
部品1
 48
50.0
100
AcDbCircle
 10
4374.0939846495
 20
4585.598597874948
 30
0.0
 40
0.7
100
AcDbArc
 50
183.2473427903767
 51
262.3418727926365
  0
ARC
  5
1705B
330
747D
100
AcDbEntity
  8
部品1
100
AcDbCircle
 10
4392.465794860177
 20
4478.931598713264
 30
0.0
 40
7.0
100
AcDbArc
 50
183.2473427903247
 51
270.0
  0
ARC
  5
1705C
330
747D
100
AcDbEntity
  8
部品1
100
AcDbCircle
 10
4379.250471399145
 20
4605.931598713263
 30
0.0
 40
7.0
100
AcDbArc
 50
90.0
 51
183.2473427903247
  0
ARC
  5
1705D
330
747D
100
AcDbEntity
  8
部品1
100
AcDbCircle
 10
5834.433629186281
 20
4605.931598713263
 30
0.0
 40
7.0
100
AcDbArc
 50
356.7526572096753
 51
90.0
  0
ARC
  5
1705E
330
747D
100
AcDbEntity
  8
部品1
100
AcDbCircle
 10
5821.218305725246
 20
4478.931598713264
 30
0.0
 40
7.0
100
AcDbArc
 50
270.0
 51
356.7526572096753
  0
ARC
  5
1705F
330
747D
100
AcDbEntity
  8
部品1
 48
50.0
100
AcDbCircle
 10
5839.590115935925
 20
4585.598597874948
 30
0.0
 40
0.7
100
AcDbArc
 50
277.6581272073635
 51
356.7526572096233
  0
ARC
  5
17060
330
747D
100
AcDbEntity
  8
部品1
 48
50.0
100
AcDbCircle
 10
5831.354085411082
 20
4493.398597874945
 30
0.0
 40
0.7
100
AcDbArc
 50
277.6581272073635
 51
356.7526572097013
  0
ARC
  5
17061
330
747D
100
AcDbEntity
  8
部品1
 48
50.0
100
AcDbCircle
 10
5831.847154519643
 20
4489.731598713261
 30
0.0
 40
3.0
100
AcDbArc
 50
97.65812720736347
 51
176.7526572096753
  0
ARC
  5
17062
330
747D
100
AcDbEntity
  8
部品1
 48
50.0
100
AcDbCircle
 10
5840.083185044488
 20
4581.931598713263
 30
0.0
 40
3.0
100
AcDbArc
 50
97.65812720736347
 51
176.7526572096753
  0
LINE
  5
17063
330
747D
100
AcDbEntity
  8
部品1
100
AcDbLine
 10
5837.088002148302
 20
4582.101538168366
 30
0.0
 11
5832.052961420191
 21
4493.358945335422
 31
0.0
  0
LINE
  5
17064
330
747D
100
AcDbEntity
  8
部品1
100
AcDbLine
 10
5828.851971623456
 20
4489.901538168363
 30
0.0
 11
5828.207065816346
 21
4478.535073318025
 31
0.0
  0
LINE
  5
17065
330
747D
100
AcDbEntity
  8
細線
 48
50.0
100
AcDbLine
 10
4404.842050292713
 20
4612.931598713263
 30
0.0
 11
4404.842050292713
 21
4471.931598713263
 31
0.0
  0
LINE
  5
17066
330
747D
100
AcDbEntity
  8
細線
 48
50.0
100
AcDbLine
 10
5808.842050292712
 20
4612.931598713263
 30
0.0
 11
5808.842050292712
 21
4471.931598713263
 31
0.0
  0
LINE
  5
17067
330
747D
100
AcDbEntity
  8
部品1
100
AcDbLine
 10
5841.422389277379
 20
4605.535073318023
 30
0.0
 11
5840.288991945033
 21
4585.558945335423
 31
0.0
  0
LINE
  5
17068
330
747D
100
AcDbEntity
  8
細線
 48
50.0
100
AcDbLine
 10
5831.566481546436
 20
4492.731598713262
 30
0.0
 11
4382.117619038984
 21
4492.731598713263
 31
0.0
  0
LINE
  5
17069
330
747D
100
AcDbEntity
  8
細線
 48
50.0
100
AcDbLine
 10
5839.802512071273
 20
4584.931598713263
 30
0.0
 11
4373.881588514157
 21
4584.931598713261
 31
0.0
  0
LINE
  5
1706A
330
747D
100
AcDbEntity
  8
部品1
 48
50.0
100
AcDbLine
 10
5821.218305725246
 20
4471.931598713264
 30
0.0
 11
4392.465794860177
 21
4471.931598713264
 31
0.0
  0
LINE
  5
1706B
330
747D
100
AcDbEntity
  8
部品1
 48
50.0
100
AcDbLine
 10
5834.433629186281
 20
4612.931598713263
 30
0.0
 11
4379.250471399145
 21
4612.931598713265
 31
0.0
  0
DIMENSION
  5
1706C
330
747D
100
AcDbEntity
  8
寸法
 48
50.0
100
AcDbDimension
  2
*D14
 10
4421.842050292713
 20
5018.657870445168
 30
0.0
 11
5110.434590660568
 21
5018.657870445168
 31
0.0
 70
   160
  1
柱外寸法<>
 71
     5
 42
1370.0
  3
INABA_S40G
100
AcDbAlignedDimension
 13
5791.842050292714
 23
4612.931598713264
 33
0.0
 14
4421.842050292713
 24
4612.931598713265
 34
0.0
100
AcDbRotatedDimension
  0
DIMENSION
  5
1706D
330
747D
100
AcDbEntity
  8
寸法
 48
50.0
100
AcDbDimension
  2
*D15
 10
4371.842050292713
 20
5018.657870445168
 30
0.0
 11
4058.356768918467
 21
5018.657870445168
 31
0.0
 70
   160
 71
     5
 42
50.0
  3
INABA_S40G
100
AcDbAlignedDimension
 13
4421.842050292713
 23
4612.931598713265
 33
0.0
 14
4371.842050292713
 24
4612.931598713264
 34
0.0
100
AcDbRotatedDimension
1001
ACAD
1000
DSTYLE
1002
{
1002
}
  0
DIMENSION
  5
1706E
330
747D
100
AcDbEntity
  8
寸法
 48
50.0
100
AcDbDimension
  2
*D16
 10
5791.842050292714
 20
5018.657870445168
 30
0.0
 11
6155.32733166695
 21
5018.657870445168
 31
0.0
 70
   160
 71
     5
 42
49.99999999999818
  3
INABA_S40G
100
AcDbAlignedDimension
 13
5841.842050292711
 23
4612.931598713261
 33
0.0
 14
5791.842050292714
 24
4612.931598713264
 34
0.0
100
AcDbRotatedDimension
  0
DIMENSION
  5
1706F
330
747D
100
AcDbEntity
  8
寸法
 48
50.0
100
AcDbDimension
  2
*D17
 10
5841.842050292711
 20
5218.566791659259
 30
0.0
 11
5106.842050292713
 21
5218.566791659259
 31
0.0
 70
   160
 71
     5
 42
1469.999999999998
  3
INABA_S40G
100
AcDbAlignedDimension
 13
4371.842050292713
 23
4612.931598713264
 33
0.0
 14
5841.842050292711
 24
4612.931598713261
 34
0.0
100
AcDbRotatedDimension
  0
CIRCLE
  5
170C7
330
747D
100
AcDbEntity
  8
細線
 48
50.0
100
AcDbCircle
 10
5106.842050292714
 20
3425.431598713259
 30
0.0
 40
18.0
  0
ARC
  5
170C8
330
747D
100
AcDbEntity
  8
細線
 48
50.0
100
AcDbCircle
 10
5406.842050292714
 20
3100.431598713259
 30
0.0
 40
15.0
100
AcDbArc
 50
270.0
 51
90.0
  0
ARC
  5
170C9
330
747D
100
AcDbEntity
  8
細線
 48
50.0
100
AcDbCircle
 10
5306.842050292714
 20
3100.431598713259
 30
0.0
 40
15.0
100
AcDbArc
 50
90.0
 51
270.0
  0
LINE
  5
170CA
330
747D
100
AcDbEntity
  8
細線
 48
50.0
100
AcDbLine
 10
5306.842050292714
 20
3115.431598713259
 30
0.0
 11
5406.842050292714
 21
3115.431598713259
 31
0.0
  0
LINE
  5
170CB
330
747D
100
AcDbEntity
  8
細線
 48
50.0
100
AcDbLine
 10
5406.842050292714
 20
3085.431598713259
 30
0.0
 11
5306.842050292714
 21
3085.431598713259
 31
0.0
  0
LINE
  5
170CC
330
747D
100
AcDbEntity
  8
細線
 48
50.0
100
AcDbLine
 10
4906.842050292714
 20
3085.431598713259
 30
0.0
 11
4806.842050292714
 21
3085.431598713259
 31
0.0
  0
LINE
  5
170CD
330
747D
100
AcDbEntity
  8
細線
 48
50.0
100
AcDbLine
 10
4806.842050292714
 20
3115.431598713259
 30
0.0
 11
4906.842050292714
 21
3115.431598713259
 31
0.0
  0
ARC
  5
170CE
330
747D
100
AcDbEntity
  8
細線
 48
50.0
100
AcDbCircle
 10
4906.842050292714
 20
3100.431598713259
 30
0.0
 40
15.0
100
AcDbArc
 50
270.0
 51
90.0
  0
ARC
  5
170CF
330
747D
100
AcDbEntity
  8
細線
 48
50.0
100
AcDbCircle
 10
4806.842050292714
 20
3100.431598713259
 30
0.0
 40
15.0
100
AcDbArc
 50
90.0
 51
270.0
  0
LINE
  5
17117
330
747D
100
AcDbEntity
  8
細線
100
AcDbLine
 10
5688.842050292712
 20
2547.931598713259
 30
0.0
 11
4524.842050292707
 21
2547.931598713259
 31
0.0
  0
LINE
  5
17118
330
747D
100
AcDbEntity
  8
細線
100
AcDbLine
 10
4524.842050292708
 20
3067.931598713259
 30
0.0
 11
5688.84205029271
 21
3067.931598713259
 31
0.0
  0
LINE
  5
17119
330
747D
100
AcDbEntity
  8
細線
100
AcDbLine
 10
4524.842050292708
 20
3002.931598713259
 30
0.0
 11
5688.84205029271
 21
3002.931598713259
 31
0.0
  0
LINE
  5
1711A
330
747D
100
AcDbEntity
  8
細線
100
AcDbLine
 10
4524.842050292708
 20
2937.931598713259
 30
0.0
 11
5688.84205029271
 21
2937.931598713259
 31
0.0
  0
LINE
  5
1711B
330
747D
100
AcDbEntity
  8
細線
100
AcDbLine
 10
4524.842050292708
 20
2872.931598713259
 30
0.0
 11
5688.84205029271
 21
2872.931598713259
 31
0.0
  0
LINE
  5
1711C
330
747D
100
AcDbEntity
  8
細線
100
AcDbLine
 10
4524.842050292708
 20
2807.931598713259
 30
0.0
 11
5688.84205029271
 21
2807.931598713259
 31
0.0
  0
LINE
  5
1711D
330
747D
100
AcDbEntity
  8
細線
100
AcDbLine
 10
4524.842050292708
 20
2742.931598713259
 30
0.0
 11
5688.84205029271
 21
2742.931598713259
 31
0.0
  0
LINE
  5
1711E
330
747D
100
AcDbEntity
  8
細線
100
AcDbLine
 10
4524.842050292708
 20
2677.931598713259
 30
0.0
 11
5688.84205029271
 21
2677.931598713259
 31
0.0
  0
LINE
  5
1711F
330
747D
100
AcDbEntity
  8
細線
100
AcDbLine
 10
4524.842050292708
 20
2612.931598713259
 30
0.0
 11
5688.84205029271
 21
2612.931598713259
 31
0.0
  0
LINE
  5
17120
330
747D
100
AcDbEntity
  8
細線
100
AcDbLine
 10
4524.842050292708
 20
2547.931598713259
 30
0.0
 11
5688.84205029271
 21
2547.931598713259
 31
0.0
  0
LINE
  5
17121
330
747D
100
AcDbEntity
  8
細線
100
AcDbLine
 10
4524.842050292708
 20
3717.931598713259
 30
0.0
 11
5688.84205029271
 21
3717.931598713259
 31
0.0
  0
LINE
  5
17122
330
747D
100
AcDbEntity
  8
細線
100
AcDbLine
 10
4524.842050292708
 20
3652.931598713259
 30
0.0
 11
5688.84205029271
 21
3652.931598713259
 31
0.0
  0
LINE
  5
17123
330
747D
100
AcDbEntity
  8
細線
100
AcDbLine
 10
4524.842050292708
 20
3587.931598713259
 30
0.0
 11
5688.84205029271
 21
3587.931598713259
 31
0.0
  0
LINE
  5
17124
330
747D
100
AcDbEntity
  8
細線
100
AcDbLine
 10
4524.842050292708
 20
3522.931598713259
 30
0.0
 11
5688.84205029271
 21
3522.931598713259
 31
0.0
  0
LINE
  5
17125
330
747D
100
AcDbEntity
  8
細線
100
AcDbLine
 10
4524.842050292708
 20
3457.931598713259
 30
0.0
 11
5688.84205029271
 21
3457.931598713259
 31
0.0
  0
LINE
  5
17126
330
747D
100
AcDbEntity
  8
細線
100
AcDbLine
 10
4524.842050292708
 20
3392.931598713259
 30
0.0
 11
5688.84205029271
 21
3392.931598713259
 31
0.0
  0
LINE
  5
17127
330
747D
100
AcDbEntity
  8
細線
100
AcDbLine
 10
4524.842050292708
 20
3327.931598713258
 30
0.0
 11
5688.84205029271
 21
3327.931598713258
 31
0.0
  0
LINE
  5
17128
330
747D
100
AcDbEntity
  8
細線
100
AcDbLine
 10
4524.842050292708
 20
3262.931598713258
 30
0.0
 11
5688.84205029271
 21
3262.931598713258
 31
0.0
  0
LINE
  5
17129
330
747D
100
AcDbEntity
  8
細線
100
AcDbLine
 10
4524.842050292708
 20
3197.931598713259
 30
0.0
 11
5688.84205029271
 21
3197.931598713259
 31
0.0
  0
LINE
  5
1712A
330
747D
100
AcDbEntity
  8
細線
100
AcDbLine
 10
4524.842050292708
 20
3132.931598713259
 30
0.0
 11
5688.84205029271
 21
3132.931598713259
 31
0.0
  0
LINE
  5
1712B
330
747D
100
AcDbEntity
  8
細線
100
AcDbLine
 10
4524.842050292708
 20
4107.931598713259
 30
0.0
 11
5688.84205029271
 21
4107.931598713259
 31
0.0
  0
LINE
  5
1712C
330
747D
100
AcDbEntity
  8
細線
100
AcDbLine
 10
4524.842050292708
 20
4042.931598713258
 30
0.0
 11
5688.84205029271
 21
4042.931598713258
 31
0.0
  0
LINE
  5
1712D
330
747D
100
AcDbEntity
  8
細線
100
AcDbLine
 10
4524.842050292708
 20
3977.931598713258
 30
0.0
 11
5688.84205029271
 21
3977.931598713258
 31
0.0
  0
LINE
  5
1712E
330
747D
100
AcDbEntity
  8
細線
100
AcDbLine
 10
4524.842050292708
 20
3912.931598713259
 30
0.0
 11
5688.84205029271
 21
3912.931598713259
 31
0.0
  0
LINE
  5
1712F
330
747D
100
AcDbEntity
  8
細線
100
AcDbLine
 10
4524.842050292708
 20
3847.931598713259
 30
0.0
 11
5688.84205029271
 21
3847.931598713259
 31
0.0
  0
LINE
  5
17130
330
747D
100
AcDbEntity
  8
細線
100
AcDbLine
 10
4524.842050292708
 20
3782.931598713259
 30
0.0
 11
5688.84205029271
 21
3782.931598713259
 31
0.0
  0
LINE
  5
17131
330
747D
100
AcDbEntity
  8
細線
100
AcDbLine
 10
4524.842050292708
 20
4172.931598713258
 30
0.0
 11
5688.84205029271
 21
4172.931598713258
 31
0.0
  0
LINE
  5
17132
330
747D
100
AcDbEntity
  8
部品1
100
AcDbLine
 10
4421.842050292712
 20
4212.931598713259
 30
0.0
 11
5791.842050292712
 21
4212.931598713257
 31
0.0
  0
LINE
  5
17133
330
747D
100
AcDbEntity
  8
破線
 48
5.0
100
AcDbLine
 10
4524.84205029271
 20
2287.931598713264
 30
0.0
 11
4476.842050292709
 21
2287.931598713264
 31
0.0
  0
LINE
  5
17134
330
747D
100
AcDbEntity
  8
破線
 48
5.0
100
AcDbLine
 10
5736.842050292714
 20
2287.931598713258
 30
0.0
 11
5688.842050292712
 21
2287.931598713258
 31
0.0
  0
LINE
  5
17135
330
747D
100
AcDbEntity
  8
破線
 48
5.0
100
AcDbLine
 10
5688.84205029271
 20
2537.931598713259
 30
0.0
 11
5688.842050292712
 21
2287.931598713258
 31
0.0
  0
LINE
  5
17136
330
747D
100
AcDbEntity
  8
部品1
100
AcDbLine
 10
5688.842050292714
 20
4212.931598713258
 30
0.0
 11
5688.84205029271
 21
2537.931598713259
 31
0.0
  0
LINE
  5
17137
330
747D
100
AcDbEntity
  8
破線
 48
5.0
100
AcDbLine
 10
4524.842050292711
 20
2537.931598713259
 30
0.0
 11
4524.84205029271
 21
2287.931598713264
 31
0.0
  0
LINE
  5
17138
330
747D
100
AcDbEntity
  8
部品1
100
AcDbLine
 10
4524.842050292711
 20
4212.931598713258
 30
0.0
 11
4524.842050292711
 21
2537.931598713259
 31
0.0
  0
LINE
  5
17139
330
747D
100
AcDbEntity
  8
破線
 48
5.0
100
AcDbLine
 10
4476.842050292709
 20
2187.931598713266
 30
0.0
 11
4421.84205029271
 21
2187.931598713266
 31
0.0
  0
LINE
  5
1713A
330
747D
100
AcDbEntity
  8
破線
 48
5.0
100
AcDbLine
 10
5791.842050292711
 20
2187.931598713259
 30
0.0
 11
5736.842050292712
 21
2187.931598713259
 31
0.0
  0
LINE
  5
1713B
330
747D
100
AcDbEntity
  8
破線
 48
5.0
100
AcDbLine
 10
4476.842050292712
 20
2537.931598713259
 30
0.0
 11
4476.842050292709
 21
2187.931598713259
 31
0.0
  0
LINE
  5
1713C
330
747D
100
AcDbEntity
  8
破線
 48
5.0
100
AcDbLine
 10
5736.84205029271
 20
2537.931598713259
 30
0.0
 11
5736.842050292712
 21
2187.931598713259
 31
0.0
  0
LWPOLYLINE
  5
17142
330
747D
100
AcDbEntity
  8
部品1
100
AcDbPolyline
 90
        4
 70
     1
 43
0.0
 10
4725.106717178499
 20
1787.931598713258
 10
4725.106717178499
 20
1548.039277167726
 10
5488.577383406936
 20
1548.039277167726
 10
5488.577383406936
 20
1787.931598713258
  0
TEXT
  5
17143
330
747D
100
AcDbEntity
  8
部品1
100
AcDbText
 10
4831.0854806082
 20
1595.038069494734
 30
0.0
 40
135.0
  1
正面図
  7
MSGOTHIC
100
AcDbText
  0
LINE
  5
17145
330
747D
100
AcDbEntity
  8
破線
 48
5.0
100
AcDbLine
 10
4421.842050292712
 20
2437.931598713259
 30
0.0
 11
4421.84205029271
 21
2187.931598713259
 31
0.0
  0
LINE
  5
17146
330
747D
100
AcDbEntity
  8
破線
 48
5.0
100
AcDbLine
 10
5791.842050292712
 20
2437.931598713259
 30
0.0
 11
5791.842050292712
 21
2187.931598713259
 31
0.0
  0
LINE
  5
1714D
330
747D
100
AcDbEntity
  8
部品1
100
AcDbLine
 10
5791.842050292712
 20
4471.931598713264
 30
0.0
 11
5791.842050292712
 21
2437.931598713259
 31
0.0
  0
LINE
  5
1714E
330
747D
100
AcDbEntity
  8
部品1
100
AcDbLine
 10
4476.842050292712
 20
4212.931598713259
 30
0.0
 11
4476.842050292712
 21
2537.931598713259
 31
0.0
  0
LINE
  5
1714F
330
747D
100
AcDbEntity
  8
部品1
100
AcDbLine
 10
5736.842050292714
 20
4212.931598713258
 30
0.0
 11
5736.84205029271
 21
2537.931598713259
 31
0.0
  0
LINE
  5
17150
330
747D
100
AcDbEntity
  8
部品1
100
AcDbLine
 10
4421.842050292712
 20
4471.931598713264
 30
0.0
 11
4421.842050292712
 21
2437.931598713259
 31
0.0
  0
LINE
  5
17151
330
747D
100
AcDbEntity
  8
部品1
100
AcDbLine
 10
4421.842050292712
 20
4377.931598713258
 30
0.0
 11
5791.842050292712
 21
4377.931598713258
 31
0.0
  0
LINE
  5
17152
330
747D
100
AcDbEntity
  8
部品1
100
AcDbLine
 10
4421.842050292712
 20
2537.931598713259
 30
0.0
 11
5791.842050292712
 21
2537.931598713259
 31
0.0
  0
LINE
  5
17153
330
747D
100
AcDbEntity
  8
部品1
100
AcDbLine
 10
3583.072458946329
 20
2567.835409280923
 30
0.0
 11
3508.072458946329
 21
2437.931598713259
 31
0.0
  0
TEXT
  5
17154
330
747D
100
AcDbEntity
  8
部品1
100
AcDbText
 10
3611.177401071103
 20
2474.038502319161
 30
0.0
 40
125.0
  1
G.L
  7
MSGOTHIC
100
AcDbText
  0
LINE
  5
17155
330
747D
100
AcDbEntity
  8
部品1
100
AcDbLine
 10
3508.072458946329
 20
2437.931598713259
 30
0.0
 11
3433.072458946329
 21
2567.835409280923
 31
0.0
  0
LINE
  5
17156
330
747D
100
AcDbEntity
  8
部品1
100
AcDbLine
 10
3433.072458946329
 20
2567.835409280923
 30
0.0
 11
3583.072458946329
 21
2567.835409280923
 31
0.0
  0
TEXT
  5
17158
330
747D
100
AcDbEntity
  8
文字
 62
     7
 48
50.0
100
AcDbText
 10
14528.81784699908
 20
483.8967129911414
 30
0.0
 40
160.0
  1
FXN-1326S
  7
MSMINCHO
100
AcDbText
  0
LINE
  5
1759A
330
747D
100
AcDbEntity
  8
補助
  6
PHANTOM
 62
   230
 48
50.0
100
AcDbLine
 10
140.0
 20
0.0
 30
0.0
 11
140.0
 21
11409.6
 31
0.0
  0
LINE
  5
17782
330
747D
100
AcDbEntity
  8
部品1
100
AcDbLine
 10
8419.018823682334
 20
2537.931598713259
 30
0.0
 11
8026.021609473486
 21
2437.931598713259
 31
0.0
  0
LINE
  5
17783
330
747D
100
AcDbEntity
  8
破線
 48
5.0
100
AcDbLine
 10
8419.018823682334
 20
2187.931598713259
 30
0.0
 11
8474.018823682333
 21
2187.931598713259
 31
0.0
  0
LINE
  5
17784
330
747D
100
AcDbEntity
  8
破線
 48
5.0
100
AcDbLine
 10
8474.018823682333
 20
2437.931598713259
 30
0.0
 11
8474.018823682333
 21
2187.931598713259
 31
0.0
  0
LINE
  5
17785
330
747D
100
AcDbEntity
  8
破線
 48
5.0
100
AcDbLine
 10
8419.018823682334
 20
2437.931598713259
 30
0.0
 11
8419.018823682334
 21
2187.931598713259
 31
0.0
  0
DIMENSION
  5
1778B
330
747D
100
AcDbEntity
  8
寸法
 48
50.0
100
AcDbDimension
  2
*D18
 10
7798.410416913957
 20
4487.27685758659
 30
0.0
 11
7809.075892172881
 21
4858.123520828289
 31
0.0
 70
   161
 71
     5
 42
141.0
  3
INABA_S40G
100
AcDbAlignedDimension
 13
8378.414843840912
 23
4611.654347547938
 33
0.0
 14
8374.361388284288
 24
4470.712623782225
 34
0.0
1001
ACAD
1000
DSTYLE
1002
{
1070
   174
1070
     0
1070
   272
1070
     1
1070
   288
1070
     0
1070
   341
1005
0
1002
}
  0
LINE
  5
1778C
330
747D
100
AcDbEntity
  8
細線
 48
50.0
100
AcDbLine
 10
10916.51882368234
 20
4377.931598713258
 30
0.0
 11
10916.51882368234
 21
2587.93159871326
 31
0.0
  0
LINE
  5
1778D
330
747D
100
AcDbEntity
  8
細線
 48
50.0
100
AcDbLine
 10
10931.51882368234
 20
4377.931598713258
 30
0.0
 11
10931.51882368234
 21
2587.93159871326
 31
0.0
  0
LINE
  5
1778E
330
747D
100
AcDbEntity
  8
細線
 48
50.0
100
AcDbLine
 10
10791.51882368234
 20
4377.931598713258
 30
0.0
 11
10791.51882368234
 21
2587.93159871326
 31
0.0
  0
LINE
  5
1778F
330
747D
100
AcDbEntity
  8
細線
 48
50.0
100
AcDbLine
 10
10776.51882368234
 20
4377.931598713258
 30
0.0
 11
10776.51882368234
 21
2587.93159871326
 31
0.0
  0
LINE
  5
17790
330
747D
100
AcDbEntity
  8
細線
 48
50.0
100
AcDbLine
 10
10636.51882368234
 20
4377.931598713258
 30
0.0
 11
10636.51882368234
 21
2587.93159871326
 31
0.0
  0
LINE
  5
17791
330
747D
100
AcDbEntity
  8
細線
 48
50.0
100
AcDbLine
 10
10651.51882368234
 20
4377.931598713258
 30
0.0
 11
10651.51882368234
 21
2587.93159871326
 31
0.0
  0
LINE
  5
17792
330
747D
100
AcDbEntity
  8
部品1
100
AcDbLine
 10
9734.018823682333
 20
4377.931598713258
 30
0.0
 11
9734.018823682333
 21
2587.931598713259
 31
0.0
  0
LINE
  5
17793
330
747D
100
AcDbEntity
  8
細線
 48
50.0
100
AcDbLine
 10
9391.518823682334
 20
4377.931598713258
 30
0.0
 11
9391.518823682337
 21
2587.931598713259
 31
0.0
  0
LINE
  5
17794
330
747D
100
AcDbEntity
  8
細線
 48
50.0
100
AcDbLine
 10
9376.518823682335
 20
4377.931598713258
 30
0.0
 11
9376.518823682337
 21
2587.931598713259
 31
0.0
  0
LINE
  5
17795
330
747D
100
AcDbEntity
  8
細線
 48
50.0
100
AcDbLine
 10
9516.518823682334
 20
4377.931598713258
 30
0.0
 11
9516.518823682337
 21
2587.931598713259
 31
0.0
  0
LINE
  5
17796
330
747D
100
AcDbEntity
  8
細線
 48
50.0
100
AcDbLine
 10
9531.518823682334
 20
4377.931598713258
 30
0.0
 11
9531.518823682338
 21
2587.931598713259
 31
0.0
  0
LINE
  5
17797
330
747D
100
AcDbEntity
  8
細線
 48
50.0
100
AcDbLine
 10
9671.518823682333
 20
4377.931598713258
 30
0.0
 11
9671.518823682333
 21
2587.931598713259
 31
0.0
  0
LINE
  5
17798
330
747D
100
AcDbEntity
  8
細線
 48
50.0
100
AcDbLine
 10
9656.518823682334
 20
4377.931598713258
 30
0.0
 11
9656.518823682334
 21
2587.931598713259
 31
0.0
  0
LINE
  5
17799
330
747D
100
AcDbEntity
  8
部品1
100
AcDbLine
 10
9314.018823682335
 20
4377.931598713258
 30
0.0
 11
9314.018823682335
 21
2587.931598713259
 31
0.0
  0
DIMENSION
  5
1779A
330
747D
100
AcDbEntity
  8
寸法
 48
50.0
100
AcDbDimension
  2
*D19
 10
11129.01882368233
 20
5011.589052292564
 30
0.0
 11
11335.06606777682
 21
5011.589052292564
 31
0.0
 70
   160
 71
     5
 42
80.0
  3
INABA_S40G
100
AcDbAlignedDimension
 13
11049.01882368233
 23
4559.742278324912
 33
0.0
 14
11129.01882368233
 24
4557.93159871326
 34
0.0
100
AcDbRotatedDimension
1001
ACAD
1000
DSTYLE
1002
{
1070
   174
1070
     0
1070
   272
1070
     1
1070
   288
1070
     0
1070
   341
1005
0
1002
}
  0
LINE
  5
1779B
330
747D
100
AcDbEntity
  8
細線
 48
50.0
100
AcDbLine
 10
8551.518823682334
 20
4377.931598713258
 30
0.0
 11
8551.518823682334
 21
2587.931598713259
 31
0.0
  0
LINE
  5
1779C
330
747D
100
AcDbEntity
  8
細線
 48
50.0
100
AcDbLine
 10
8536.518823682333
 20
4377.931598713258
 30
0.0
 11
8536.518823682333
 21
2587.931598713259
 31
0.0
  0
LINE
  5
1779D
330
747D
100
AcDbEntity
  8
細線
 48
50.0
100
AcDbLine
 10
8676.518823682334
 20
4377.931598713258
 30
0.0
 11
8676.518823682334
 21
2587.931598713259
 31
0.0
  0
LINE
  5
1779E
330
747D
100
AcDbEntity
  8
細線
 48
50.0
100
AcDbLine
 10
8691.518823682335
 20
4377.931598713258
 30
0.0
 11
8691.518823682335
 21
2587.931598713259
 31
0.0
  0
LINE
  5
1779F
330
747D
100
AcDbEntity
  8
細線
 48
50.0
100
AcDbLine
 10
8831.518823682335
 20
4377.931598713258
 30
0.0
 11
8831.518823682335
 21
2587.931598713259
 31
0.0
  0
LINE
  5
177A0
330
747D
100
AcDbEntity
  8
細線
 48
50.0
100
AcDbLine
 10
8816.518823682335
 20
4377.931598713258
 30
0.0
 11
8816.518823682335
 21
2587.931598713259
 31
0.0
  0
LINE
  5
177A1
330
747D
100
AcDbEntity
  8
細線
 48
50.0
100
AcDbLine
 10
9236.518823682335
 20
4377.931598713258
 30
0.0
 11
9236.518823682335
 21
2587.931598713259
 31
0.0
  0
LINE
  5
177A2
330
747D
100
AcDbEntity
  8
細線
 48
50.0
100
AcDbLine
 10
9251.518823682335
 20
4377.931598713258
 30
0.0
 11
9251.518823682335
 21
2587.931598713259
 31
0.0
  0
LINE
  5
177A3
330
747D
100
AcDbEntity
  8
細線
 48
50.0
100
AcDbLine
 10
9111.518823682335
 20
4377.931598713258
 30
0.0
 11
9111.518823682335
 21
2587.931598713259
 31
0.0
  0
LINE
  5
177A4
330
747D
100
AcDbEntity
  8
細線
 48
50.0
100
AcDbLine
 10
9096.518823682334
 20
4377.931598713258
 30
0.0
 11
9096.518823682334
 21
2587.931598713259
 31
0.0
  0
LINE
  5
177A5
330
747D
100
AcDbEntity
  8
細線
 48
50.0
100
AcDbLine
 10
8956.518823682335
 20
4377.931598713258
 30
0.0
 11
8956.518823682335
 21
2587.931598713259
 31
0.0
  0
LINE
  5
177A6
330
747D
100
AcDbEntity
  8
細線
 48
50.0
100
AcDbLine
 10
8971.518823682334
 20
4377.931598713258
 30
0.0
 11
8971.518823682334
 21
2587.931598713259
 31
0.0
  0
LINE
  5
177A7
330
747D
100
AcDbEntity
  8
部品1
100
AcDbLine
 10
8474.018823682333
 20
2537.931598713258
 30
0.0
 11
11049.01882368233
 21
2537.931598713259
 31
0.0
  0
DIMENSION
  5
177A8
330
747D
100
AcDbEntity
  8
寸法
 48
50.0
100
AcDbDimension
  2
*D20
 10
8359.018823682333
 20
5231.799739024181
 30
0.0
 11
9744.018823682335
 21
5231.799739024181
 31
0.0
 70
   160
 71
     5
 42
2770.0
  3
INABA_S40G
100
AcDbAlignedDimension
 13
11129.01882368233
 23
4557.93159871326
 33
0.0
 14
8359.018823682333
 24
4612.931598713264
 34
0.0
100
AcDbRotatedDimension
1001
ACAD
1000
DSTYLE
1002
{
1070
   174
1070
     0
1070
   272
1070
     1
1070
   288
1070
     0
1070
   341
1005
0
1002
}
  0
DIMENSION
  5
177A9
330
747D
100
AcDbEntity
  8
寸法
 48
50.0
100
AcDbDimension
  2
*D21
 10
8359.018823682333
 20
5011.589052292563
 30
0.0
 11
8049.381028406743
 21
5011.589052292563
 31
0.0
 70
   160
 71
     5
 42
60.0
  3
INABA_S40G
100
AcDbAlignedDimension
 13
8419.018823682334
 23
4608.933216836235
 33
0.0
 14
8359.018823682333
 24
4612.931598713264
 34
0.0
100
AcDbRotatedDimension
1001
ACAD
1000
DSTYLE
1002
{
1070
   174
1070
     0
1070
   272
1070
     1
1070
   288
1070
     0
1070
   341
1005
0
1002
}
  0
DIMENSION
  5
177AA
330
747D
100
AcDbEntity
  8
寸法
 48
50.0
100
AcDbDimension
  2
*D22
 10
8419.018823682334
 20
5011.589052292564
 30
0.0
 11
9734.018823682333
 21
5011.589052292564
 31
0.0
 70
   160
  1
柱外寸法<>
 71
     5
 42
2630.0
  3
INABA_S40G
100
AcDbAlignedDimension
 13
11049.01882368233
 23
4559.742278324912
 33
0.0
 14
8419.018823682334
 24
4608.933216836235
 34
0.0
100
AcDbRotatedDimension
1001
ACAD
1000
DSTYLE
1002
{
1070
   174
1070
     0
1070
   272
1070
     1
1070
   288
1070
     0
1070
   341
1005
0
1002
}
  0
LINE
  5
177AB
330
747D
100
AcDbEntity
  8
部品1
100
AcDbLine
 10
10994.01882368233
 20
4377.931598713258
 30
0.0
 11
10994.01882368233
 21
2587.93159871326
 31
0.0
  0
LINE
  5
177AC
330
747D
100
AcDbEntity
  8
部品1
100
AcDbLine
 10
11049.01882368233
 20
4432.465872100997
 30
0.0
 11
11049.01882368233
 21
2437.931598713261
 31
0.0
  0
LINE
  5
177AD
330
747D
100
AcDbEntity
  8
部品1
100
AcDbLine
 10
8894.018823682335
 20
4377.931598713258
 30
0.0
 11
8894.018823682335
 21
2587.931598713259
 31
0.0
  0
DIMENSION
  5
177AE
330
747D
100
AcDbEntity
  8
寸法
100
AcDbDimension
  2
*D23
 10
7575.268694499074
 20
2537.931598713259
 30
0.0
 11
7575.268694499074
 21
2231.88435461877
 31
0.0
 70
   160
 71
     5
 42
50.0
  3
INABA_S40G
100
AcDbAlignedDimension
 13
8419.018823682334
 23
2587.931598713259
 33
0.0
 14
8364.018823682334
 24
2537.931598713259
 34
0.0
 50
90.0
100
AcDbRotatedDimension
1001
ACAD
1000
DSTYLE
1002
{
1070
   174
1070
     0
1070
   272
1070
     1
1070
   288
1070
     0
1070
   341
1005
0
1002
}
  0
LINE
  5
177AF
330
747D
100
AcDbEntity
  8
部品1
100
AcDbLine
 10
8419.018823682334
 20
4470.074036642137
 30
0.0
 11
8419.018823682334
 21
2437.931598713259
 31
0.0
  0
LINE
  5
177B0
330
747D
100
AcDbEntity
  8
部品1
100
AcDbLine
 10
8474.018823682333
 20
4377.931598713258
 30
0.0
 11
8474.018823682333
 21
2437.931598713261
 31
0.0
  0
LINE
  5
177B1
330
747D
100
AcDbEntity
  8
部品1
100
AcDbLine
 10
8474.01882368233
 20
2587.931598713258
 30
0.0
 11
11049.01882368233
 21
2587.93159871326
 31
0.0
  0
LINE
  5
177B2
330
747D
100
AcDbEntity
  8
部品1
100
AcDbLine
 10
8419.018823682334
 20
4377.931598713258
 30
0.0
 11
11049.01882368233
 21
4377.931598713258
 31
0.0
  0
LINE
  5
177B3
330
747D
100
AcDbEntity
  8
部品1
100
AcDbLine
 10
10574.01882368233
 20
4377.931598713258
 30
0.0
 11
10574.01882368233
 21
2587.93159871326
 31
0.0
  0
LINE
  5
177B4
330
747D
100
AcDbEntity
  8
細線
 48
50.0
100
AcDbLine
 10
10076.51882368233
 20
4377.931598713258
 30
0.0
 11
10076.51882368233
 21
2587.931598713259
 31
0.0
  0
LINE
  5
177B5
330
747D
100
AcDbEntity
  8
細線
 48
50.0
100
AcDbLine
 10
10091.51882368233
 20
4377.931598713258
 30
0.0
 11
10091.51882368233
 21
2587.931598713259
 31
0.0
  0
LINE
  5
177B6
330
747D
100
AcDbEntity
  8
細線
 48
50.0
100
AcDbLine
 10
9951.518823682334
 20
4377.931598713258
 30
0.0
 11
9951.518823682334
 21
2587.931598713259
 31
0.0
  0
LINE
  5
177B7
330
747D
100
AcDbEntity
  8
細線
 48
50.0
100
AcDbLine
 10
9936.518823682334
 20
4377.931598713258
 30
0.0
 11
9936.518823682334
 21
2587.931598713259
 31
0.0
  0
LINE
  5
177B8
330
747D
100
AcDbEntity
  8
細線
 48
50.0
100
AcDbLine
 10
9796.518823682333
 20
4377.931598713258
 30
0.0
 11
9796.518823682333
 21
2587.931598713259
 31
0.0
  0
LINE
  5
177B9
330
747D
100
AcDbEntity
  8
細線
 48
50.0
100
AcDbLine
 10
9811.518823682334
 20
4377.931598713258
 30
0.0
 11
9811.518823682334
 21
2587.931598713259
 31
0.0
  0
TEXT
  5
177BA
330
747D
100
AcDbEntity
  8
部品1
 48
50.0
100
AcDbText
 10
10085.59982564343
 20
4635.200691651567
 30
0.0
 40
120.0
  1
37
 50
90.0
  7
STYLE1
100
AcDbText
  0
TEXT
  5
177BB
330
747D
100
AcDbEntity
  8
部品1
 48
50.0
100
AcDbText
 10
9607.966802978339
 20
4772.701949869849
 30
0.0
 40
120.0
  1
1000
  7
STYLE1
100
AcDbText
  0
LINE
  5
177BC
330
747D
100
AcDbEntity
  8
部品1
 48
50.0
100
AcDbLine
 10
9919.698967754612
 20
4736.817927717416
 30
0.0
 11
9919.698967754612
 21
4720.617927717415
 31
0.0
  0
LINE
  5
177BD
330
747D
100
AcDbEntity
  8
部品1
 48
50.0
100
AcDbLine
 10
9619.698967754612
 20
4736.817927717416
 30
0.0
 11
9919.698967754612
 21
4736.817927717416
 31
0.0
  0
LINE
  5
177BE
330
747D
100
AcDbEntity
  8
部品1
100
AcDbLine
 10
8366.563810039297
 20
4611.649334047525
 30
0.0
 11
11121.6307005438
 21
4556.572396422397
 31
0.0
  0
LINE
  5
177BF
330
747D
100
AcDbEntity
  8
部品1
100
AcDbLine
 10
8374.361388284288
 20
4470.712623782225
 30
0.0
 11
11103.68252422218
 21
4431.684198548019
 31
0.0
  0
LINE
  5
177C0
330
747D
100
AcDbEntity
  8
細線
 48
50.0
100
AcDbLine
 10
8392.018823682334
 20
4610.331275088664
 30
0.0
 11
8386.729722126828
 21
4470.24564246131
 31
0.0
  0
LINE
  5
177C1
330
747D
100
AcDbEntity
  8
細線
 48
50.0
100
AcDbLine
 10
11095.98810687602
 20
4557.085021192727
 30
0.0
 11
11091.27114079434
 21
4432.152805257811
 31
0.0
  0
LINE
  5
177C2
330
747D
100
AcDbEntity
  8
部品1
 48
50.0
100
AcDbLine
 10
8359.203109595441
 20
4604.525144877952
 30
0.0
 11
8359.583369373252
 21
4584.59818043154
 31
0.0
  0
LINE
  5
177C3
330
747D
100
AcDbEntity
  8
部品1
 48
50.0
100
AcDbLine
 10
8362.652141479498
 20
4581.022898938067
 30
0.0
 11
8364.356042970863
 21
4491.732402231419
 31
0.0
  0
LINE
  5
177C4
330
747D
100
AcDbEntity
  8
細線
 48
50.0
100
AcDbLine
 10
8360.058246783149
 20
4583.948680554621
 30
0.0
 11
11125.69423152832
 21
4528.324475913791
 31
0.0
  0
LINE
  5
177C5
330
747D
100
AcDbEntity
  8
細線
 48
50.0
100
AcDbLine
 10
8364.818722020435
 20
4491.087168856756
 30
0.0
 11
11114.82238645107
 21
4451.277849882263
 31
0.0
  0
LINE
  5
177C6
330
747D
100
AcDbEntity
  8
部品1
 48
50.0
100
AcDbLine
 10
8367.424815077106
 20
4488.157120737948
 30
0.0
 11
8367.626767697537
 21
4477.574085344856
 31
0.0
  0
ARC
  5
177C7
330
747D
100
AcDbEntity
  8
部品1
 48
50.0
100
AcDbCircle
 10
8366.201835423781
 20
4604.658699285379
 30
0.0
 40
7.0
100
AcDbArc
 50
87.03587545283228
 51
181.0932240293151
  0
ARC
  5
177C8
330
747D
100
AcDbEntity
  8
部品1
 48
50.0
100
AcDbCircle
 10
8374.625493525876
 20
4477.707639752284
 30
0.0
 40
7.0
100
AcDbArc
 50
181.0932240293151
 51
267.8377559869492
  0
ARC
  5
177C9
330
747D
100
AcDbEntity
  8
部品1
100
AcDbCircle
 10
8364.425361150676
 20
4488.099883134765
 30
0.0
 40
3.0
100
AcDbArc
 50
1.093224029315139
 51
80.18775403169875
  0
ARC
  5
177CA
330
747D
100
AcDbEntity
  8
部品1
100
AcDbCircle
 10
8359.652687553069
 20
4580.965661334884
 30
0.0
 40
3.0
100
AcDbArc
 50
1.093224029315139
 51
80.18775403169875
  0
ARC
  5
177CB
330
747D
100
AcDbEntity
  8
部品1
100
AcDbCircle
 10
8360.283241956091
 20
4584.611535872281
 30
0.0
 40
0.7
100
AcDbArc
 50
181.0932240292109
 51
260.1877540314845
  0
ARC
  5
177CC
330
747D
100
AcDbEntity
  8
部品1
100
AcDbCircle
 10
8365.055915553702
 20
4491.745757672163
 30
0.0
 40
0.7
100
AcDbArc
 50
181.0932240293151
 51
260.1877540314845
  0
LINE
  5
177CD
330
747D
100
AcDbEntity
  8
部品1
 48
50.0
100
AcDbLine
 10
11128.23272649304
 20
4548.872750987477
 30
0.0
 11
11126.20210530207
 21
4528.927709729697
 31
0.0
  0
LINE
  5
177CE
330
747D
100
AcDbEntity
  8
部品1
 48
50.0
100
AcDbLine
 10
11122.84953881758
 20
4525.617075656788
 30
0.0
 11
11115.34275955275
 21
4451.884454911777
 31
0.0
  0
LINE
  5
177CF
330
747D
100
AcDbEntity
  8
部品1
 48
50.0
100
AcDbLine
 10
11111.99019306826
 20
4448.573820838864
 30
0.0
 11
11110.91063002852
 21
4437.970203845305
 31
0.0
  0
ARC
  5
177D0
330
747D
100
AcDbEntity
  8
部品1
 48
50.0
100
AcDbCircle
 10
11121.26872592828
 20
4549.581761660253
 30
0.0
 40
7.0
100
AcDbArc
 50
354.1866997665479
 51
87.03587545283228
  0
ARC
  5
177D1
330
747D
100
AcDbEntity
  8
部品1
 48
50.0
100
AcDbCircle
 10
11103.94662946376
 20
4438.67921451808
 30
0.0
 40
7.0
100
AcDbArc
 50
267.8377559869492
 51
354.1866997665479
  0
ARC
  5
177D2
330
747D
100
AcDbEntity
  8
部品1
100
AcDbCircle
 10
11114.97476473887
 20
4448.269959121961
 30
0.0
 40
3.0
100
AcDbArc
 50
95.09216976420788
 51
174.1866997665479
  0
ARC
  5
177D3
330
747D
100
AcDbEntity
  8
部品1
100
AcDbCircle
 10
11125.83411048819
 20
4525.313213939886
 30
0.0
 40
3.0
100
AcDbArc
 50
95.09216976420788
 51
174.1866997665479
  0
ARC
  5
177D4
330
747D
100
AcDbEntity
  8
部品1
100
AcDbCircle
 10
11125.50570524559
 20
4528.998610796975
 30
0.0
 40
0.7
100
AcDbArc
 50
275.0921697642079
 51
354.1866997665479
  0
ARC
  5
177D5
330
747D
100
AcDbEntity
  8
部品1
100
AcDbCircle
 10
11114.64635949627
 20
4451.955355979052
 30
0.0
 40
0.7
100
AcDbArc
 50
275.0921697642079
 51
354.1866997667579
  0
LINE
  5
177D6
330
747D
100
AcDbEntity
  8
部品1
100
AcDbLine
 10
9594.243954111574
 20
4738.135986676277
 30
0.0
 11
9919.698967754612
 21
4720.617927717415
 31
0.0
  0
LINE
  5
177D7
330
747D
100
AcDbEntity
  8
部品1
100
AcDbLine
 10
10154.01882368232
 20
4377.931598713258
 30
0.0
 11
10154.01882368232
 21
2587.93159871326
 31
0.0
  0
LINE
  5
177D8
330
747D
100
AcDbEntity
  8
細線
 48
50.0
100
AcDbLine
 10
10231.51882368233
 20
4377.931598713258
 30
0.0
 11
10231.51882368233
 21
2587.93159871326
 31
0.0
  0
LINE
  5
177D9
330
747D
100
AcDbEntity
  8
細線
 48
50.0
100
AcDbLine
 10
10216.51882368233
 20
4377.931598713258
 30
0.0
 11
10216.51882368233
 21
2587.93159871326
 31
0.0
  0
LINE
  5
177DA
330
747D
100
AcDbEntity
  8
細線
 48
50.0
100
AcDbLine
 10
10356.51882368233
 20
4377.931598713258
 30
0.0
 11
10356.51882368233
 21
2587.93159871326
 31
0.0
  0
LINE
  5
177DB
330
747D
100
AcDbEntity
  8
細線
 48
50.0
100
AcDbLine
 10
10371.51882368233
 20
4377.931598713258
 30
0.0
 11
10371.51882368233
 21
2587.93159871326
 31
0.0
  0
LINE
  5
177DC
330
747D
100
AcDbEntity
  8
細線
 48
50.0
100
AcDbLine
 10
10511.51882368233
 20
4377.931598713258
 30
0.0
 11
10511.51882368233
 21
2587.93159871326
 31
0.0
  0
LINE
  5
177DD
330
747D
100
AcDbEntity
  8
細線
 48
50.0
100
AcDbLine
 10
10496.51882368233
 20
4377.931598713258
 30
0.0
 11
10496.51882368233
 21
2587.93159871326
 31
0.0
  0
DIMENSION
  5
177DE
330
747D
100
AcDbEntity
  8
寸法
100
AcDbDimension
  2
*D24
 10
11753.94598165446
 20
4557.93159871326
 30
0.0
 11
11653.93417063084
 21
3547.931598713262
 31
0.0
 70
    32
 71
     5
 42
2020.000000000001
  3
INABA_S40G
100
AcDbAlignedDimension
 13
11049.01882368233
 23
2537.931598713261
 33
0.0
 14
11129.01882368233
 24
4557.93159871326
 34
0.0
 50
90.0
100
AcDbRotatedDimension
1001
ACAD
1000
DSTYLE
1002
{
1070
   174
1070
     0
1070
   272
1070
     1
1070
   288
1070
     0
1070
   341
1005
0
1002
}
  0
DIMENSION
  5
177DF
330
747D
100
AcDbEntity
  8
寸法
100
AcDbDimension
  2
*D25
 10
7275.268694499074
 20
4612.931598713259
 30
0.0
 11
7175.256883475451
 21
3575.431598713257
 31
0.0
 70
    32
 71
     5
 42
2075.000000000005
  3
INABA_S40G
100
AcDbAlignedDimension
 13
8419.018823682334
 23
2537.931598713254
 33
0.0
 14
8359.018823682333
 24
4612.931598713259
 34
0.0
 50
90.0
100
AcDbRotatedDimension
1001
ACAD
1000
DSTYLE
1002
{
1070
   174
1070
     0
1070
   272
1070
     1
1070
   288
1070
     0
1070
   341
1005
0
1002
}
  0
DIMENSION
  5
177E0
330
747D
100
AcDbEntity
  8
寸法
100
AcDbDimension
  2
*D26
 10
7575.268694499074
 20
2587.931598713253
 30
0.0
 11
7475.268694499073
 21
3482.931598713256
 31
0.0
 70
    32
 71
     5
 42
1790.000000000002
  3
INABA_S40G
100
AcDbAlignedDimension
 13
8419.018823682334
 23
4377.931598713255
 33
0.0
 14
8419.018823682334
 24
2587.931598713253
 34
0.0
 50
90.0
100
AcDbRotatedDimension
1001
ACAD
1000
DSTYLE
1002
{
1070
   174
1070
     0
1070
   272
1070
     1
1070
   288
1070
     0
1070
   341
1005
0
1002
}
  0
DIMENSION
  5
17CD9
330
747D
100
AcDbEntity
  8
寸法
 48
50.0
100
AcDbDimension
  2
*D27
 10
6079.385152614459
 20
4377.931598713258
 30
0.0
 11
6079.385152614458
 21
4616.416880087498
 31
0.0
 70
   160
 71
     5
 42
165.0000000000009
  3
INABA_S40G
100
AcDbAlignedDimension
 13
5791.842050292712
 23
4212.931598713257
 33
0.0
 14
5791.842050292712
 24
4377.931598713258
 34
0.0
 50
90.0
100
AcDbRotatedDimension
1001
ACAD
1000
DSTYLE
1002
{
1002
}
  0
DIMENSION
  5
17CDA
330
747D
100
AcDbEntity
  8
寸法
 48
50.0
100
AcDbDimension
  2
*D28
 10
6079.385152614458
 20
4212.931598713257
 30
0.0
 11
6219.554975860824
 21
4213.898798552917
 31
0.0
 70
   160
 71
     5
 42
26.99999999999909
  3
INABA_S40G
100
AcDbAlignedDimension
 13
5791.842050292712
 23
4185.931598713259
 33
0.0
 14
5791.842050292712
 24
4212.931598713257
 34
0.0
 50
90.0
100
AcDbRotatedDimension
1001
ACAD
1000
DSTYLE
1002
{
1070
   279
1070
     2
1002
}
  0
DIMENSION
  5
17CDB
330
747D
100
AcDbEntity
  8
寸法
 48
50.0
100
AcDbDimension
  2
*D29
 10
6079.385152614458
 20
4185.931598713259
 30
0.0
 11
5979.385152614457
 21
3361.93159871326
 31
0.0
 70
    32
  1
有効開口部高サ <>
 71
     5
 42
1647.999999999999
  3
INABA_S40G
100
AcDbAlignedDimension
 13
5791.842050292712
 23
2537.931598713259
 33
0.0
 14
5791.842050292712
 24
4185.931598713259
 34
0.0
 50
90.0
100
AcDbRotatedDimension
  0
LINE
  5
17DFE
330
747D
100
AcDbEntity
  8
仕様書枠
 48
50.0
100
AcDbLine
 10
16307.19999999999
 20
8859.600000000002
 30
0.0
 11
13127.19999999999
 21
8859.600000000005
 31
0.0
  0
TEXT
  5
17E00
330
747D
100
AcDbEntity
  8
文字
 62
     7
 48
50.0
100
AcDbText
 10
15022.63965474517
 20
10760.01374588372
 30
0.0
 40
100.0
  1
F12         1.0,1.2
  7
STYLE1
100
AcDbText
  0
TEXT
  5
17E03
330
747D
100
AcDbEntity
  8
文字
 62
     7
 48
50.0
100
AcDbText
 10
15022.63965474516
 20
9230.013745883725
 30
0.0
 40
100.0
  1
F12            0.7
  7
STYLE1
100
AcDbText
  0
ENDSEC
  0
SECTION
  2
OBJECTS
  0
DICTIONARY
  5
7471
330
0
100
AcDbDictionary
281
     1
  3
ACAD_COLOR
350
166AE
  3
ACAD_GROUP
350
7472
  3
ACAD_LAYOUT
350
166AF
  3
ACAD_MATERIAL
350
166AD
  3
ACAD_MLINESTYLE
350
7473
  3
ACAD_PLOTSETTINGS
350
166B0
  3
ACAD_PLOTSTYLENAME
350
166AB
  3
ACDBHEADERROUNDTRIPXREC
350
17E93
  3
AcDbVariableDictionary
350
16A78
  3
CONTENTDICTIONARY
350
E71C
  3
DRAWINGVARIABLESDICT
350
F3B9
  0
DICTIONARY
  5
16E5B
330
7467
100
AcDbDictionary
280
     1
281
     1
  3
ACAD_LAYERSTATES
360
16E5C
  0
DICTIONARY
  5
166AE
102
{ACAD_REACTORS
330
7471
102
}
330
7471
100
AcDbDictionary
281
     1
  0
DICTIONARY
  5
7472
102
{ACAD_REACTORS
330
7471
102
}
330
7471
100
AcDbDictionary
281
     1
  0
DICTIONARY
  5
166AF
102
{ACAD_REACTORS
330
7471
102
}
330
7471
100
AcDbDictionary
281
     1
  3
Model
350
166B1
  3
レイアウト1
350
166B2
  0
DICTIONARY
  5
166AD
102
{ACAD_REACTORS
330
7471
102
}
330
7471
100
AcDbDictionary
281
     1
  0
DICTIONARY
  5
7473
102
{ACAD_REACTORS
330
7471
102
}
330
7471
100
AcDbDictionary
281
     1
  3
STANDARD
350
7480
  0
DICTIONARY
  5
166B0
102
{ACAD_REACTORS
330
7471
102
}
330
7471
100
AcDbDictionary
281
     1
  0
ACDBDICTIONARYWDFLT
  5
166AB
102
{ACAD_REACTORS
330
7471
102
}
330
7471
100
AcDbDictionary
281
     1
  3
Normal
350
166AC
100
AcDbDictionaryWithDefault
340
166AC
  0
DICTIONARY
  5
17E93
102
{ACAD_REACTORS
330
7471
102
}
330
7471
100
AcDbDictionary
281
     1
  3
COLORDICT
350
17E95
  3
MATERIALDICT
350
17E94
  0
DICTIONARY
  5
16A78
102
{ACAD_REACTORS
330
7471
102
}
330
7471
100
AcDbDictionary
281
     1
  3
DIMASSOC
350
16A79
  3
PROJECTNAME
350
16A7A
  0
DICTIONARY
  5
E71C
102
{ACAD_REACTORS
330
7471
102
}
330
7471
100
AcDbDictionary
281
     1
  0
DICTIONARY
  5
F3B9
102
{ACAD_REACTORS
330
7471
102
}
330
7471
100
AcDbDictionary
281
     1
1001
DRAWINGVARIABLESXDATA
1000
POLARMODE
1000
1
  0
DICTIONARY
  5
16E5C
102
{ACAD_REACTORS
330
16E5B
102
}
330
16E5B
100
AcDbDictionary
281
     1
  0
LAYOUT
  5
166B1
102
{ACAD_XDICTIONARY
360
17E96
102
}
102
{ACAD_REACTORS
330
166AF
102
}
330
166AF
100
AcDbPlotSettings
  1

  2
Canon iR C3880/C4580 LIPSLX
  4
A3
  6

 40
5.873749732971191
 41
5.873747825622558
 42
5.873748779296875
 43
5.873748779296875
 44
296.9259948730469
 45
419.9466552734374
 46
0.0
 47
0.0
 48
0.0
 49
0.0
140
0.0
141
0.0
142
1.0
143
40.0
 70
 11952
 72
     1
 73
     1
 74
     1
  7
inaba.ctb
 75
    24
147
0.025
148
-139.196816621341
149
0.9062337598370504
100
AcDbLayout
  1
Model
 70
     1
 71
     0
 10
0.0
 20
0.0
 11
12.0
 21
9.0
 12
0.0
 22
0.0
 32
0.0
 14
0.0
 24
0.0
 34
0.0
 15
0.0
 25
0.0
 35
0.0
146
0.0
 13
0.0
 23
0.0
 33
0.0
 16
1.0
 26
0.0
 36
0.0
 17
0.0
 27
1.0
 37
0.0
 76
     0
330
747D
  0
LAYOUT
  5
166B2
102
{ACAD_XDICTIONARY
360
17E98
102
}
102
{ACAD_REACTORS
330
166AF
102
}
330
166AF
100
AcDbPlotSettings
  1

  2
EPSON LP-7000C
  4

  6

 40
0.0
 41
0.0
 42
0.0
 43
0.0
 44
0.0
 45
0.0
 46
0.0
 47
0.0
 48
0.0
 49
0.0
140
0.0
141
0.0
142
1.0
143
1.0
 70
   688
 72
     0
 73
     0
 74
     5
  7
inaba.ctb
 75
    16
147
1.0
148
0.0
149
0.0
100
AcDbLayout
  1
レイアウト1
 70
     0
 71
     1
 10
0.0
 20
0.0
 11
420.0
 21
297.0
 12
0.0
 22
0.0
 32
0.0
 14
1.000000000000000E+20
 24
1.000000000000000E+20
 34
1.000000000000000E+20
 15
-1.000000000000000E+20
 25
-1.000000000000000E+20
 35
-1.000000000000000E+20
146
0.0
 13
0.0
 23
0.0
 33
0.0
 16
1.0
 26
0.0
 36
0.0
 17
0.0
 27
1.0
 37
0.0
 76
     0
330
747A
  0
MLINESTYLE
  5
7480
102
{ACAD_REACTORS
330
7473
102
}
330
7473
100
AcDbMlineStyle
  2
STANDARD
 70
     0
  3

 62
     0
 51
90.0
 52
90.0
 71
     2
 49
0.5
 62
   256
  6
BYLAYER
 49
-0.5
 62
   256
  6
BYLAYER
  0
ACDBPLACEHOLDER
  5
166AC
102
{ACAD_REACTORS
330
166AB
102
}
330
166AB
  0
XRECORD
  5
17E95
102
{ACAD_REACTORS
330
17E93
102
}
330
17E93
100
AcDbXrecord
280
     1
340
166AE
  0
XRECORD
  5
17E94
102
{ACAD_REACTORS
330
17E93
102
}
330
17E93
100
AcDbXrecord
280
     1
340
166AD
  0
DICTIONARYVAR
  5
16A79
102
{ACAD_REACTORS
330
16A78
102
}
330
16A78
100
DictionaryVariables
280
     0
  1
1
  0
DICTIONARYVAR
  5
16A7A
102
{ACAD_REACTORS
330
16A78
102
}
330
16A78
100
DictionaryVariables
280
     0
  1

  0
DICTIONARY
  5
17E96
330
166B1
100
AcDbDictionary
280
     1
281
     1
  3
ACAD_XREC_ROUNDTRIP
360
17E97
  0
DICTIONARY
  5
17E98
330
166B2
100
AcDbDictionary
280
     1
281
     1
  3
ACAD_XREC_ROUNDTRIP
360
17E99
  0
XRECORD
  5
17E97
102
{ACAD_REACTORS
330
17E96
102
}
330
17E96
100
AcDbXrecord
280
     1
102
SHADEPLOT
 70
     0
102
SHADEPLOTRESLEVEL
 70
     2
102
SHADEPLOTCUSTOMDPI
 70
   300
  0
XRECORD
  5
17E99
102
{ACAD_REACTORS
330
17E98
102
}
330
17E98
100
AcDbXrecord
280
     1
102
SHADEPLOT
 70
     0
102
SHADEPLOTRESLEVEL
 70
     2
102
SHADEPLOTCUSTOMDPI
 70
   300
  0
ENDSEC
  0
EOF
