  0
SECTION
  2
HEADER
  9
$ACADVER
  1
AC1015
  9
$ACADMAINTVER
 70
    20
  9
$DWGCODEPAGE
  3
ANSI_932
  9
$INSBASE
 10
0.0
 20
0.0
 30
0.0
  9
$EXTMIN
 10
139.9999999999995
 20
-0.0000000000000909
 30
0.0
  9
$EXTMAX
 10
16307.2
 20
11409.6
 30
0.0
  9
$LIMMIN
 10
0.0
 20
0.0
  9
$LIMMAX
 10
16800.0
 20
11880.0
  9
$ORTHOMODE
 70
     0
  9
$REGENMODE
 70
     1
  9
$FILLMODE
 70
     1
  9
$QTEXTMODE
 70
     0
  9
$MIRRTEXT
 70
     1
  9
$LTSCALE
 40
20.0
  9
$ATTMODE
 70
     1
  9
$TEXTSIZE
 40
4.0
  9
$TRACEWID
 40
1.0
  9
$TEXTSTYLE
  7
MSPゴシック
  9
$CLAYER
  8
寸法
  9
$CELTYPE
  6
BYLAYER
  9
$CECOLOR
 62
   256
  9
$CELTSCALE
 40
50.0
  9
$DISPSILH
 70
     0
  9
$DIMSCALE
 40
40.0
  9
$DIMASZ
 40
2.5
  9
$DIMEXO
 40
0.5
  9
$DIMDLI
 40
7.0
  9
$DIMRND
 40
0.0
  9
$DIMDLE
 40
0.0
  9
$DIMEXE
 40
1.5
  9
$DIMTP
 40
0.0
  9
$DIMTM
 40
0.0
  9
$DIMTXT
 40
3.0
  9
$DIMCEN
 40
0.0
  9
$DIMTSZ
 40
0.0
  9
$DIMTOL
 70
     0
  9
$DIMLIM
 70
     0
  9
$DIMTIH
 70
     0
  9
$DIMTOH
 70
     0
  9
$DIMSE1
 70
     0
  9
$DIMSE2
 70
     0
  9
$DIMTAD
 70
     3
  9
$DIMZIN
 70
     8
  9
$DIMBLK
  1

  9
$DIMASO
 70
     1
  9
$DIMSHO
 70
     1
  9
$DIMPOST
  1

  9
$DIMAPOST
  1

  9
$DIMALT
 70
     0
  9
$DIMALTD
 70
     2
  9
$DIMALTF
 40
0.0394
  9
$DIMLFAC
 40
1.0
  9
$DIMTOFL
 70
     1
  9
$DIMTVP
 40
0.0
  9
$DIMTIX
 70
     1
  9
$DIMSOXD
 70
     0
  9
$DIMSAH
 70
     1
  9
$DIMBLK1
  1
DOTSMALL
  9
$DIMBLK2
  1
DOTSMALL
  9
$DIMSTYLE
  2
INABA_S40G
  9
$DIMCLRD
 70
     0
  9
$DIMCLRE
 70
     0
  9
$DIMCLRT
 70
     7
  9
$DIMTFAC
 40
1.0
  9
$DIMGAP
 40
1.0
  9
$DIMJUST
 70
     0
  9
$DIMSD1
 70
     0
  9
$DIMSD2
 70
     0
  9
$DIMTOLJ
 70
     1
  9
$DIMTZIN
 70
     0
  9
$DIMALTZ
 70
     0
  9
$DIMALTTZ
 70
     0
  9
$DIMUPT
 70
     0
  9
$DIMDEC
 70
     1
  9
$DIMTDEC
 70
     4
  9
$DIMALTU
 70
     2
  9
$DIMALTTD
 70
     2
  9
$DIMTXSTY
  7
STYLE1
  9
$DIMAUNIT
 70
     0
  9
$DIMADEC
 70
     0
  9
$DIMALTRND
 40
0.0
  9
$DIMAZIN
 70
     0
  9
$DIMDSEP
 70
    46
  9
$DIMATFIT
 70
     3
  9
$DIMFRAC
 70
     0
  9
$DIMLDRBLK
  1

  9
$DIMLUNIT
 70
     2
  9
$DIMLWD
 70
    -2
  9
$DIMLWE
 70
    -2
  9
$DIMTMOVE
 70
     2
  9
$LUNITS
 70
     2
  9
$LUPREC
 70
     1
  9
$SKETCHINC
 40
1.0
  9
$FILLETRAD
 40
3.0
  9
$AUNITS
 70
     0
  9
$AUPREC
 70
     0
  9
$MENU
  1
acad
  9
$ELEVATION
 40
0.0
  9
$PELEVATION
 40
0.0
  9
$THICKNESS
 40
0.0
  9
$LIMCHECK
 70
     0
  9
$CHAMFERA
 40
0.0
  9
$CHAMFERB
 40
0.0
  9
$CHAMFERC
 40
0.0
  9
$CHAMFERD
 40
0.0
  9
$SKPOLY
 70
     0
  9
$TDCREATE
 40
2451368.612993866
  9
$TDUCREATE
 40
2451368.237993866
  9
$TDUPDATE
 40
2455569.643503137
  9
$TDUUPDATE
 40
2455569.268503137
  9
$TDINDWG
 40
0.8814200116
  9
$TDUSRTIMER
 40
0.8814200116
  9
$USRTIMER
 70
     1
  9
$ANGBASE
 50
0.0
  9
$ANGDIR
 70
     0
  9
$PDMODE
 70
     3
  9
$PDSIZE
 40
2.0
  9
$PLINEWID
 40
0.0
  9
$SPLFRAME
 70
     0
  9
$SPLINETYPE
 70
     6
  9
$SPLINESEGS
 70
     8
  9
$HANDSEED
  5
1A844
  9
$SURFTAB1
 70
     6
  9
$SURFTAB2
 70
     6
  9
$SURFTYPE
 70
     6
  9
$SURFU
 70
     6
  9
$SURFV
 70
     6
  9
$UCSBASE
  2

  9
$UCSNAME
  2

  9
$UCSORG
 10
0.0
 20
0.0
 30
0.0
  9
$UCSXDIR
 10
1.0
 20
0.0
 30
0.0
  9
$UCSYDIR
 10
0.0
 20
1.0
 30
0.0
  9
$UCSORTHOREF
  2

  9
$UCSORTHOVIEW
 70
     0
  9
$UCSORGTOP
 10
0.0
 20
0.0
 30
0.0
  9
$UCSORGBOTTOM
 10
0.0
 20
0.0
 30
0.0
  9
$UCSORGLEFT
 10
0.0
 20
0.0
 30
0.0
  9
$UCSORGRIGHT
 10
0.0
 20
0.0
 30
0.0
  9
$UCSORGFRONT
 10
0.0
 20
0.0
 30
0.0
  9
$UCSORGBACK
 10
0.0
 20
0.0
 30
0.0
  9
$PUCSBASE
  2

  9
$PUCSNAME
  2

  9
$PUCSORG
 10
0.0
 20
0.0
 30
0.0
  9
$PUCSXDIR
 10
1.0
 20
0.0
 30
0.0
  9
$PUCSYDIR
 10
0.0
 20
1.0
 30
0.0
  9
$PUCSORTHOREF
  2

  9
$PUCSORTHOVIEW
 70
     0
  9
$PUCSORGTOP
 10
0.0
 20
0.0
 30
0.0
  9
$PUCSORGBOTTOM
 10
0.0
 20
0.0
 30
0.0
  9
$PUCSORGLEFT
 10
0.0
 20
0.0
 30
0.0
  9
$PUCSORGRIGHT
 10
0.0
 20
0.0
 30
0.0
  9
$PUCSORGFRONT
 10
0.0
 20
0.0
 30
0.0
  9
$PUCSORGBACK
 10
0.0
 20
0.0
 30
0.0
  9
$USERI1
 70
     0
  9
$USERI2
 70
     0
  9
$USERI3
 70
     0
  9
$USERI4
 70
     0
  9
$USERI5
 70
     0
  9
$USERR1
 40
0.0
  9
$USERR2
 40
0.0
  9
$USERR3
 40
0.0
  9
$USERR4
 40
0.0
  9
$USERR5
 40
0.0
  9
$WORLDVIEW
 70
     1
  9
$SHADEDGE
 70
     3
  9
$SHADEDIF
 70
    70
  9
$TILEMODE
 70
     1
  9
$MAXACTVP
 70
    16
  9
$PINSBASE
 10
0.0
 20
0.0
 30
0.0
  9
$PLIMCHECK
 70
     0
  9
$PEXTMIN
 10
1.000000000000000E+20
 20
1.000000000000000E+20
 30
1.000000000000000E+20
  9
$PEXTMAX
 10
-1.000000000000000E+20
 20
-1.000000000000000E+20
 30
-1.000000000000000E+20
  9
$PLIMMIN
 10
0.0
 20
0.0
  9
$PLIMMAX
 10
420.0
 20
297.0
  9
$UNITMODE
 70
     0
  9
$VISRETAIN
 70
     0
  9
$PLINEGEN
 70
     0
  9
$PSLTSCALE
 70
     0
  9
$TREEDEPTH
 70
  3020
  9
$CMLSTYLE
  2
STANDARD
  9
$CMLJUST
 70
     0
  9
$CMLSCALE
 40
1.0
  9
$PROXYGRAPHICS
 70
     1
  9
$MEASUREMENT
 70
     1
  9
$CELWEIGHT
370
    -1
  9
$ENDCAPS
280
     0
  9
$JOINSTYLE
280
     0
  9
$LWDISPLAY
290
     0
  9
$INSUNITS
 70
     0
  9
$HYPERLINKBASE
  1

  9
$STYLESHEET
  1
inaba.ctb
  9
$XEDIT
290
     1
  9
$CEPSNTYPE
380
     0
  9
$PSTYLEMODE
290
     1
  9
$FINGERPRINTGUID
  2
{0E4A3AB3-ADAA-44DC-861C-9525B65BB1EC}
  9
$VERSIONGUID
  2
{344B6A02-823C-4A58-A1A4-9D06B7B58594}
  9
$EXTNAMES
290
     1
  9
$PSVPSCALE
 40
0.0
  9
$OLESTARTUP
290
     0
  0
ENDSEC
  0
SECTION
  2
CLASSES
  0
CLASS
  1
ACDBDICTIONARYWDFLT
  2
AcDbDictionaryWithDefault
  3
ObjectDBX Classes
 90
        0
280
     0
281
     0
  0
CLASS
  1
DICTIONARYVAR
  2
AcDbDictionaryVar
  3
ObjectDBX Classes
 90
        0
280
     0
281
     0
  0
CLASS
  1
ACDBPLACEHOLDER
  2
AcDbPlaceHolder
  3
ObjectDBX Classes
 90
        0
280
     0
281
     0
  0
CLASS
  1
LAYOUT
  2
AcDbLayout
  3
ObjectDBX Classes
 90
        0
280
     0
281
     0
  0
ENDSEC
  0
SECTION
  2
TABLES
  0
TABLE
  2
VPORT
  5
746D
330
0
100
AcDbSymbolTable
 70
     2
  0
VPORT
  5
1A83C
330
746D
100
AcDbSymbolTableRecord
100
AcDbViewportTableRecord
  2
*Active
 70
     0
 10
0.0
 20
0.0
 11
1.0
 21
1.0
 12
11720.03460912035
 22
5704.872900782047
 13
0.0
 23
0.0
 14
10.0
 24
10.0
 15
10.0
 25
10.0
 16
0.0
 26
0.0
 36
1.0
 17
0.0
 27
0.0
 37
0.0
 40
11513.2111641413
 41
2.234800838574423
 42
50.0
 43
0.0
 44
0.0
 50
0.0
 51
0.0
 71
     0
 72
     0
 73
     1
 74
     0
 75
     0
 76
     0
 77
     0
 78
     0
281
     0
 65
     1
110
0.0
120
0.0
130
0.0
111
1.0
121
0.0
131
0.0
112
0.0
122
1.0
132
0.0
 79
     0
146
0.0
  0
ENDTAB
  0
TABLE
  2
LTYPE
  5
746A
330
0
100
AcDbSymbolTable
 70
     3
  0
LTYPE
  5
7477
330
746A
100
AcDbSymbolTableRecord
100
AcDbLinetypeTableRecord
  2
BYBLOCK
 70
     0
  3

 72
    65
 73
     0
 40
0.0
  0
LTYPE
  5
7478
330
746A
100
AcDbSymbolTableRecord
100
AcDbLinetypeTableRecord
  2
BYLAYER
 70
     0
  3

 72
    65
 73
     0
 40
0.0
  0
LTYPE
  5
7479
330
746A
100
AcDbSymbolTableRecord
100
AcDbLinetypeTableRecord
  2
CONTINUOUS
 70
     0
  3
Solid line
 72
    65
 73
     0
 40
0.0
  0
LTYPE
  5
781A
330
746A
100
AcDbSymbolTableRecord
100
AcDbLinetypeTableRecord
  2
HIDDEN
 70
     0
  3
__ __ __ __ __ __ __ __ __ __ __ __ __ __ __ __
 72
    65
 73
     2
 40
0.375
 49
0.25
 74
     0
 49
-0.125
 74
     0
  0
LTYPE
  5
781B
330
746A
100
AcDbSymbolTableRecord
100
AcDbLinetypeTableRecord
  2
PHANTOM
 70
     0
  3
______  __  __  ______  __  __  ______  __  __ 
 72
    65
 73
     6
 40
2.5
 49
1.25
 74
     0
 49
-0.25
 74
     0
 49
0.25
 74
     0
 49
-0.25
 74
     0
 49
0.25
 74
     0
 49
-0.25
 74
     0
  0
ENDTAB
  0
TABLE
  2
LAYER
  5
7467
102
{ACAD_XDICTIONARY
360
1913C
102
}
330
0
100
AcDbSymbolTable
 70
    10
  0
LAYER
  5
7474
330
7467
100
AcDbSymbolTableRecord
100
AcDbLayerTableRecord
  2
0
 70
     0
 62
     7
  6
CONTINUOUS
370
    -3
390
17AE0
  0
LAYER
  5
DEB3
330
7467
100
AcDbSymbolTableRecord
100
AcDbLayerTableRecord
  2
寸法
 70
     0
 62
     4
  6
CONTINUOUS
370
    -3
390
17AE0
  0
LAYER
  5
DEB4
330
7467
100
AcDbSymbolTableRecord
100
AcDbLayerTableRecord
  2
部品1
 70
     0
 62
     7
  6
CONTINUOUS
370
    -3
390
17AE0
  0
LAYER
  5
DEB5
330
7467
100
AcDbSymbolTableRecord
100
AcDbLayerTableRecord
  2
補助
 70
     0
 62
    -1
  6
CONTINUOUS
370
    -3
390
17AE0
  0
LAYER
  5
DEB6
330
7467
100
AcDbSymbolTableRecord
100
AcDbLayerTableRecord
  2
文字
 70
     0
 62
     7
  6
CONTINUOUS
370
    -3
390
17AE0
  0
LAYER
  5
F255
330
7467
100
AcDbSymbolTableRecord
100
AcDbLayerTableRecord
  2
DEFPOINTS
 70
     0
 62
     7
  6
CONTINUOUS
290
     0
370
    -3
390
17AE0
  0
LAYER
  5
10B54
330
7467
100
AcDbSymbolTableRecord
100
AcDbLayerTableRecord
  2
仕様書枠
 70
     0
 62
   230
  6
CONTINUOUS
370
    -3
390
17AE0
  0
LAYER
  5
11729
330
7467
100
AcDbSymbolTableRecord
100
AcDbLayerTableRecord
  2
Ｇ．Ｌ
 70
     0
 62
    30
  6
CONTINUOUS
370
    -3
390
17AE0
  0
LAYER
  5
1173F
330
7467
100
AcDbSymbolTableRecord
100
AcDbLayerTableRecord
  2
細線
 70
     0
 62
     5
  6
CONTINUOUS
370
    -3
390
17AE0
  0
LAYER
  5
142E2
330
7467
100
AcDbSymbolTableRecord
100
AcDbLayerTableRecord
  2
破線
 70
     0
 62
     2
  6
HIDDEN
370
    -3
390
17AE0
  0
ENDTAB
  0
TABLE
  2
STYLE
  5
7468
330
0
100
AcDbSymbolTable
 70
     7
  0
STYLE
  5
7475
330
7468
100
AcDbSymbolTableRecord
100
AcDbTextStyleTableRecord
  2
STANDARD
 70
     0
 40
0.0
 41
1.0
 50
0.0
 71
     0
 42
4.0
  3
txt
  4
C:\AutoCAD LT\bigfont.shx
  0
STYLE
  5
763C
330
7468
100
AcDbSymbolTableRecord
100
AcDbTextStyleTableRecord
  2
MSMINCHO
 70
     0
 40
0.0
 41
1.0
 50
0.0
 71
     0
 42
1.199999999999999
  3
MS PMincho.ttf
  4

1001
ACAD
1000
MS PMincho
1071
    32786
  0
STYLE
  5
F706
330
7468
100
AcDbSymbolTableRecord
100
AcDbTextStyleTableRecord
  2
STYLE1
 70
     0
 40
0.0
 41
1.0
 50
0.0
 71
     0
 42
4.0
  3
isocp.shx
  4
bigfont.shx
  0
STYLE
  5
103BF
330
7468
100
AcDbSymbolTableRecord
100
AcDbTextStyleTableRecord
  2
STYLE2
 70
     0
 40
0.0
 41
1.0
 50
0.0
 71
     0
 42
100.0
  3
MS PGothic.ttf
  4

1001
ACAD
1000
MS PGothic
1071
    32818
  0
STYLE
  5
10BAA
330
7468
100
AcDbSymbolTableRecord
100
AcDbTextStyleTableRecord
  2
STYLE3
 70
     0
 40
0.0
 41
1.0
 50
0.0
 71
     0
 42
100.0
  3
DFPGothic-EB.ttf
  4

1001
ACAD
1000
DFPGothic-EB
1071
    32818
  0
STYLE
  5
11A15
330
7468
100
AcDbSymbolTableRecord
100
AcDbTextStyleTableRecord
  2
MSGOTHIC
 70
     0
 40
0.0
 41
1.0
 50
0.0
 71
     0
 42
3.5
  3
MS PGothic.ttf
  4

1001
ACAD
1000
MS PGothic
1071
    32818
  0
STYLE
  5
13E96
330
7468
100
AcDbSymbolTableRecord
100
AcDbTextStyleTableRecord
  2
MSPゴシック
 70
     0
 40
0.0
 41
1.0
 50
0.0
 71
     0
 42
4.0
  3
MS PGothic.ttf
  4

1001
ACAD
1000
MS PGothic
1071
    32818
  0
ENDTAB
  0
TABLE
  2
VIEW
  5
746B
330
0
100
AcDbSymbolTable
 70
     0
  0
ENDTAB
  0
TABLE
  2
UCS
  5
746C
330
0
100
AcDbSymbolTable
 70
     0
  0
ENDTAB
  0
TABLE
  2
APPID
  5
746E
330
0
100
AcDbSymbolTable
 70
     6
  0
APPID
  5
7476
330
746E
100
AcDbSymbolTableRecord
100
AcDbRegAppTableRecord
  2
ACAD
 70
     0
  0
APPID
  5
DEA9
330
746E
100
AcDbSymbolTableRecord
100
AcDbRegAppTableRecord
  2
CONTENTBLOCKICON
 70
     0
  0
APPID
  5
DEAA
330
746E
100
AcDbSymbolTableRecord
100
AcDbRegAppTableRecord
  2
CONTENTBLOCKDESCRIPTION
 70
     0
  0
APPID
  5
E71D
330
746E
100
AcDbSymbolTableRecord
100
AcDbRegAppTableRecord
  2
CONTENTTABDATA
 70
     0
  0
APPID
  5
E71E
330
746E
100
AcDbSymbolTableRecord
100
AcDbRegAppTableRecord
  2
CONTENTCURRENTTAB
 70
     0
  0
APPID
  5
F3BA
330
746E
100
AcDbSymbolTableRecord
100
AcDbRegAppTableRecord
  2
DRAWINGVARIABLESXDATA
 70
     0
  0
ENDTAB
  0
TABLE
  2
DIMSTYLE
  5
746F
330
0
100
AcDbSymbolTable
 70
     1
100
AcDbDimStyleTable
 71
     1
340
F71F
  0
DIMSTYLE
105
F71F
102
{ACAD_REACTORS
330
162CD
330
162CE
330
162CF
330
162D0
330
162E4
330
162E7
330
162EA
330
162EB
330
16301
330
16302
330
1631F
330
16320
330
16333
330
1659C
330
1659A
330
165E9
330
166DD
330
16913
330
17BC4
330
17BC3
330
17B87
330
17B88
330
17B86
330
17C47
330
17C46
330
1946B
330
1946C
330
1946D
330
1949D
330
194A1
330
194A2
330
194A3
330
194B1
330
194C0
330
19E3D
330
19EDF
330
19EE0
330
1A018
330
1A603
330
1A604
330
1A605
102
}
330
746F
100
AcDbSymbolTableRecord
100
AcDbDimStyleTableRecord
  2
INABA_S40G
 70
     0
 40
40.0
 41
2.5
 42
0.5
 43
7.0
 44
1.5
 73
     0
 74
     0
 77
     3
 78
     8
140
3.0
141
0.0
143
0.0394
147
1.0
172
     1
173
     1
174
     1
178
     7
271
     1
340
F706
341
F770
343
F770
344
F770
  0
ENDTAB
  0
TABLE
  2
BLOCK_RECORD
  5
7466
330
0
100
AcDbSymbolTable
 70
    43
  0
BLOCK_RECORD
  5
747D
330
7466
100
AcDbSymbolTableRecord
100
AcDbBlockTableRecord
  2
*MODEL_SPACE
340
17AE5
  0
BLOCK_RECORD
  5
747A
330
7466
100
AcDbSymbolTableRecord
100
AcDbBlockTableRecord
  2
*PAPER_SPACE
340
17AE6
  0
BLOCK_RECORD
  5
F770
330
7466
100
AcDbSymbolTableRecord
100
AcDbBlockTableRecord
  2
_DOTSMALL
340
0
102
{BLKREFS
331
1A300
331
1A301
331
1A33B
331
1A33C
331
1A346
331
1A347
331
1A34F
331
1A350
331
1A36B
331
1A36C
331
1A375
331
1A376
331
1A389
331
1A38A
331
1A39D
331
1A39E
331
1A3A6
331
1A3A7
331
1A3AF
331
1A3B0
331
1A3B8
331
1A3B9
331
1A3C4
331
1A3C5
331
1A3CD
331
1A3CE
331
1A3D8
331
1A3D9
331
1A3DF
331
1A3E0
331
1A3EA
331
1A3EB
331
1A3F3
331
1A3F4
331
1A3FC
331
1A3FD
331
1A404
331
1A405
331
1A40F
331
1A410
331
1A419
331
1A41A
331
1A424
331
1A425
331
1A42F
331
1A430
331
1A439
331
1A43A
331
1A444
331
1A445
331
1A44D
331
1A44E
331
1A458
331
1A459
331
1A464
331
1A465
331
1A46F
331
1A470
331
1A479
331
1A47A
331
1A482
331
1A483
331
1A48A
331
1A48B
331
1A493
331
1A494
331
1A49E
331
1A49F
331
1A4A9
331
1A4AA
331
1A4B2
331
1A4B3
331
1A711
331
1A712
331
1A71D
331
1A71E
331
1A725
331
1A726
331
1A7FE
331
1A7FF
331
1A812
331
1A813
102
}
  0
BLOCK_RECORD
  5
16338
330
7466
100
AcDbSymbolTableRecord
100
AcDbBlockTableRecord
  2
*D1
340
0
  0
BLOCK_RECORD
  5
16344
330
7466
100
AcDbSymbolTableRecord
100
AcDbBlockTableRecord
  2
*D2
340
0
  0
BLOCK_RECORD
  5
16352
330
7466
100
AcDbSymbolTableRecord
100
AcDbBlockTableRecord
  2
*D3
340
0
  0
BLOCK_RECORD
  5
16360
330
7466
100
AcDbSymbolTableRecord
100
AcDbBlockTableRecord
  2
*D4
340
0
  0
BLOCK_RECORD
  5
16384
330
7466
100
AcDbSymbolTableRecord
100
AcDbBlockTableRecord
  2
*D5
340
0
  0
BLOCK_RECORD
  5
1638F
330
7466
100
AcDbSymbolTableRecord
100
AcDbBlockTableRecord
  2
*D6
340
0
  0
BLOCK_RECORD
  5
1639B
330
7466
100
AcDbSymbolTableRecord
100
AcDbBlockTableRecord
  2
*D7
340
0
  0
BLOCK_RECORD
  5
163A9
330
7466
100
AcDbSymbolTableRecord
100
AcDbBlockTableRecord
  2
*D8
340
0
  0
BLOCK_RECORD
  5
163B8
330
7466
100
AcDbSymbolTableRecord
100
AcDbBlockTableRecord
  2
*D9
340
0
  0
BLOCK_RECORD
  5
163C7
330
7466
100
AcDbSymbolTableRecord
100
AcDbBlockTableRecord
  2
*D10
340
0
  0
BLOCK_RECORD
  5
163E1
330
7466
100
AcDbSymbolTableRecord
100
AcDbBlockTableRecord
  2
*D11
340
0
  0
BLOCK_RECORD
  5
163ED
330
7466
100
AcDbSymbolTableRecord
100
AcDbBlockTableRecord
  2
*D12
340
0
  0
BLOCK_RECORD
  5
163FB
330
7466
100
AcDbSymbolTableRecord
100
AcDbBlockTableRecord
  2
*D13
340
0
  0
BLOCK_RECORD
  5
165B5
330
7466
100
AcDbSymbolTableRecord
100
AcDbBlockTableRecord
  2
*D14
340
0
  0
BLOCK_RECORD
  5
165C4
330
7466
100
AcDbSymbolTableRecord
100
AcDbBlockTableRecord
  2
*D15
340
0
  0
BLOCK_RECORD
  5
165EA
330
7466
100
AcDbSymbolTableRecord
100
AcDbBlockTableRecord
  2
*D16
340
0
  0
BLOCK_RECORD
  5
166CF
330
7466
100
AcDbSymbolTableRecord
100
AcDbBlockTableRecord
  2
*D17
340
0
  0
BLOCK_RECORD
  5
16908
330
7466
100
AcDbSymbolTableRecord
100
AcDbBlockTableRecord
  2
*D18
340
0
  0
BLOCK_RECORD
  5
17BC5
330
7466
100
AcDbSymbolTableRecord
100
AcDbBlockTableRecord
  2
*D19
340
0
  0
BLOCK_RECORD
  5
17BD3
330
7466
100
AcDbSymbolTableRecord
100
AcDbBlockTableRecord
  2
*D20
340
0
  0
BLOCK_RECORD
  5
17BDE
330
7466
100
AcDbSymbolTableRecord
100
AcDbBlockTableRecord
  2
*D21
340
0
  0
BLOCK_RECORD
  5
17BEA
330
7466
100
AcDbSymbolTableRecord
100
AcDbBlockTableRecord
  2
*D22
340
0
  0
BLOCK_RECORD
  5
17BF8
330
7466
100
AcDbSymbolTableRecord
100
AcDbBlockTableRecord
  2
*D23
340
0
  0
BLOCK_RECORD
  5
17C48
330
7466
100
AcDbSymbolTableRecord
100
AcDbBlockTableRecord
  2
*D24
340
0
  0
BLOCK_RECORD
  5
17C56
330
7466
100
AcDbSymbolTableRecord
100
AcDbBlockTableRecord
  2
*D25
340
0
  0
BLOCK_RECORD
  5
19619
330
7466
100
AcDbSymbolTableRecord
100
AcDbBlockTableRecord
  2
*D26
340
0
  0
BLOCK_RECORD
  5
19625
330
7466
100
AcDbSymbolTableRecord
100
AcDbBlockTableRecord
  2
*D27
340
0
  0
BLOCK_RECORD
  5
19631
330
7466
100
AcDbSymbolTableRecord
100
AcDbBlockTableRecord
  2
*D28
340
0
  0
BLOCK_RECORD
  5
1963D
330
7466
100
AcDbSymbolTableRecord
100
AcDbBlockTableRecord
  2
*D29
340
0
  0
BLOCK_RECORD
  5
1964B
330
7466
100
AcDbSymbolTableRecord
100
AcDbBlockTableRecord
  2
*D30
340
0
  0
BLOCK_RECORD
  5
19657
330
7466
100
AcDbSymbolTableRecord
100
AcDbBlockTableRecord
  2
*D31
340
0
  0
BLOCK_RECORD
  5
19665
330
7466
100
AcDbSymbolTableRecord
100
AcDbBlockTableRecord
  2
*D32
340
0
  0
BLOCK_RECORD
  5
19671
330
7466
100
AcDbSymbolTableRecord
100
AcDbBlockTableRecord
  2
*D33
340
0
  0
BLOCK_RECORD
  5
1967E
330
7466
100
AcDbSymbolTableRecord
100
AcDbBlockTableRecord
  2
*D34
340
0
  0
BLOCK_RECORD
  5
1A023
330
7466
100
AcDbSymbolTableRecord
100
AcDbBlockTableRecord
  2
*D35
340
0
  0
BLOCK_RECORD
  5
1A02F
330
7466
100
AcDbSymbolTableRecord
100
AcDbBlockTableRecord
  2
*D36
340
0
  0
BLOCK_RECORD
  5
1A03D
330
7466
100
AcDbSymbolTableRecord
100
AcDbBlockTableRecord
  2
*D37
340
0
  0
BLOCK_RECORD
  5
1A114
330
7466
100
AcDbSymbolTableRecord
100
AcDbBlockTableRecord
  2
*D38
340
0
  0
BLOCK_RECORD
  5
1A663
330
7466
100
AcDbSymbolTableRecord
100
AcDbBlockTableRecord
  2
*D39
340
0
  0
BLOCK_RECORD
  5
1A66F
330
7466
100
AcDbSymbolTableRecord
100
AcDbBlockTableRecord
  2
*D40
340
0
  0
BLOCK_RECORD
  5
1A67D
330
7466
100
AcDbSymbolTableRecord
100
AcDbBlockTableRecord
  2
*D41
340
0
  0
BLOCK_RECORD
  5
1A773
330
7466
100
AcDbSymbolTableRecord
100
AcDbBlockTableRecord
  2
A$C3239167D
340
0
  0
ENDTAB
  0
ENDSEC
  0
SECTION
  2
BLOCKS
  0
BLOCK
  5
7489
330
747D
100
AcDbEntity
  8
0
100
AcDbBlockBegin
  2
*MODEL_SPACE
 70
     0
 10
0.0
 20
0.0
 30
0.0
  3
*MODEL_SPACE
  1

  0
ENDBLK
  5
748A
330
747D
100
AcDbEntity
  8
0
100
AcDbBlockEnd
  0
BLOCK
  5
7487
330
747A
100
AcDbEntity
 67
     1
  8
0
100
AcDbBlockBegin
  2
*PAPER_SPACE
 70
     0
 10
0.0
 20
0.0
 30
0.0
  3
*PAPER_SPACE
  1

  0
ENDBLK
  5
7488
330
747A
100
AcDbEntity
 67
     1
  8
0
100
AcDbBlockEnd
  0
BLOCK
  5
F771
330
F770
100
AcDbEntity
  8
0
 48
50.0
100
AcDbBlockBegin
  2
_DOTSMALL
 70
     0
 10
0.0
 20
0.0
 30
0.0
  3
_DOTSMALL
  1

  0
LWPOLYLINE
  5
F772
330
F770
100
AcDbEntity
  8
0
  6
ByBlock
 62
     0
 48
50.0
100
AcDbPolyline
 90
        2
 70
     1
 43
0.5
 10
-0.0625
 20
0.0
 42
1.0
 10
0.0625
 20
0.0
 42
1.0
  0
ENDBLK
  5
F776
330
F770
100
AcDbEntity
  8
0
 48
50.0
100
AcDbBlockEnd
  0
BLOCK
  5
164EB
330
16338
100
AcDbEntity
  8
0
 48
50.0
100
AcDbBlockBegin
  2
*D1
 70
     1
 10
0.0
 20
0.0
 30
0.0
  3
*D1
  1

  0
LINE
  5
1A4AF
330
16338
100
AcDbEntity
  8
寸法
 62
     0
 48
50.0
370
    -2
100
AcDbLine
 10
7869.673057123664
 20
9880.713332462343
 30
0.0
 11
8557.099402858069
 21
9880.713332462343
 31
0.0
  0
LINE
  5
1A4B0
330
16338
100
AcDbEntity
  8
寸法
 62
     0
 48
50.0
370
    -2
100
AcDbLine
 10
7869.673057123638
 20
7360.713332462329
 30
0.0
 11
8557.099402858069
 21
7360.713332462329
 31
0.0
  0
LINE
  5
1A4B1
330
16338
100
AcDbEntity
  8
寸法
 62
     0
 48
50.0
370
    -2
100
AcDbLine
 10
8497.09940285807
 20
9880.713332462343
 30
0.0
 11
8497.09940285807
 21
7360.713332462329
 31
0.0
  0
INSERT
  5
1A4B2
330
16338
100
AcDbEntity
  8
寸法
 62
     0
 48
50.0
370
    -2
100
AcDbBlockReference
  2
_DOTSMALL
 10
8497.09940285807
 20
9880.713332462343
 30
0.0
 41
100.0
 42
100.0
 43
100.0
 50
90.0
  0
INSERT
  5
1A4B3
330
16338
100
AcDbEntity
  8
寸法
 62
     0
 48
50.0
370
    -2
100
AcDbBlockReference
  2
_DOTSMALL
 10
8497.09940285807
 20
7360.713332462329
 30
0.0
 41
100.0
 42
100.0
 43
100.0
 50
270.0
  0
MTEXT
  5
1A4B4
330
16338
100
AcDbEntity
  8
寸法
 62
     7
 48
50.0
100
AcDbMText
 10
8397.087591834447
 20
8620.713332462337
 30
0.0
 40
120.0
 41
0.0
 71
     5
 72
     1
  1
\A1;6X420=2520
  7
STYLE1
 11
0.0000000000000001
 21
1.0
 31
0.0
 73
     1
 44
1.0
1001
ACAD
1000
MTEXTBEGIN
1070
    73
1070
     1
1070
    44
1040
1.0
1070
    74
1070
     0
1000
MTEXTEND
  0
POINT
  5
1A4B5
330
16338
100
AcDbEntity
  8
DEFPOINTS
 62
     0
 48
50.0
100
AcDbPoint
 10
7849.673057123664
 20
9880.713332462343
 30
0.0
  0
POINT
  5
1A4B6
330
16338
100
AcDbEntity
  8
DEFPOINTS
 62
     0
 48
50.0
100
AcDbPoint
 10
7849.673057123638
 20
7360.713332462329
 30
0.0
  0
POINT
  5
1A4B7
330
16338
100
AcDbEntity
  8
DEFPOINTS
 62
     0
 48
50.0
100
AcDbPoint
 10
8497.09940285807
 20
7360.713332462329
 30
0.0
  0
ENDBLK
  5
164F5
330
16338
100
AcDbEntity
  8
0
 48
50.0
100
AcDbBlockEnd
  0
BLOCK
  5
16414
330
16344
100
AcDbEntity
  8
0
 48
50.0
100
AcDbBlockBegin
  2
*D2
 70
     1
 10
0.0
 20
0.0
 30
0.0
  3
*D2
  1

  0
LINE
  5
1A4A4
330
16344
100
AcDbEntity
  8
寸法
 62
     0
 48
50.0
370
    -2
100
AcDbLine
 10
7869.673057123638
 20
7360.713332462329
 30
0.0
 11
8557.09940285805
 21
7360.713332462329
 31
0.0
  0
LINE
  5
1A4A5
330
16344
100
AcDbEntity
  8
寸法
 62
     0
 48
50.0
370
    -2
100
AcDbLine
 10
7869.673057123638
 20
7305.713332462332
 30
0.0
 11
8557.09940285805
 21
7305.713332462332
 31
0.0
  0
LINE
  5
1A4A6
330
16344
100
AcDbEntity
  8
寸法
 62
     0
 48
50.0
370
    -2
100
AcDbLine
 10
8497.099402858051
 20
7360.713332462329
 30
0.0
 11
8497.099402858051
 21
7460.713332462329
 31
0.0
  0
LINE
  5
1A4A7
330
16344
100
AcDbEntity
  8
寸法
 62
     0
 48
50.0
370
    -2
100
AcDbLine
 10
8497.099402858051
 20
7305.713332462332
 30
0.0
 11
8497.099402858051
 21
6819.36658418323
 31
0.0
  0
LINE
  5
1A4A8
330
16344
100
AcDbEntity
  8
寸法
 62
     0
 48
50.0
370
    -2
100
AcDbLine
 10
8497.099402858051
 20
7360.713332462329
 30
0.0
 11
8497.099402858051
 21
7305.713332462332
 31
0.0
  0
INSERT
  5
1A4A9
330
16344
100
AcDbEntity
  8
寸法
 62
     0
 48
50.0
370
    -2
100
AcDbBlockReference
  2
_DOTSMALL
 10
8497.099402858051
 20
7360.713332462329
 30
0.0
 41
100.0
 42
100.0
 43
100.0
 50
270.0
  0
INSERT
  5
1A4AA
330
16344
100
AcDbEntity
  8
寸法
 62
     0
 48
50.0
370
    -2
100
AcDbBlockReference
  2
_DOTSMALL
 10
8497.099402858051
 20
7305.713332462332
 30
0.0
 41
100.0
 42
100.0
 43
100.0
 50
90.0
  0
MTEXT
  5
1A4AB
330
16344
100
AcDbEntity
  8
寸法
 62
     7
 48
50.0
100
AcDbMText
 10
8397.099402858048
 20
6927.85186555747
 30
0.0
 40
120.0
 41
0.0
 71
     5
 72
     1
  1
\A1;55
  7
STYLE1
 11
0.0000000000000001
 21
1.0
 31
0.0
 73
     1
 44
1.0
1001
ACAD
1000
MTEXTBEGIN
1070
    73
1070
     1
1070
    44
1040
1.0
1070
    74
1070
     0
1000
MTEXTEND
  0
POINT
  5
1A4AC
330
16344
100
AcDbEntity
  8
DEFPOINTS
 62
     0
 48
50.0
100
AcDbPoint
 10
7849.673057123638
 20
7360.713332462329
 30
0.0
  0
POINT
  5
1A4AD
330
16344
100
AcDbEntity
  8
DEFPOINTS
 62
     0
 48
50.0
100
AcDbPoint
 10
7849.673057123638
 20
7305.713332462332
 30
0.0
  0
POINT
  5
1A4AE
330
16344
100
AcDbEntity
  8
DEFPOINTS
 62
     0
 48
50.0
100
AcDbPoint
 10
8497.099402858051
 20
7305.713332462332
 30
0.0
  0
ENDBLK
  5
16420
330
16344
100
AcDbEntity
  8
0
 48
50.0
100
AcDbBlockEnd
  0
BLOCK
  5
16421
330
16352
100
AcDbEntity
  8
0
 48
50.0
100
AcDbBlockBegin
  2
*D3
 70
     1
 10
0.0
 20
0.0
 30
0.0
  3
*D3
  1

  0
LINE
  5
1A499
330
16352
100
AcDbEntity
  8
寸法
 62
     0
 48
50.0
370
    -2
100
AcDbLine
 10
7869.673057123664
 20
9935.71333246234
 30
0.0
 11
8557.099402858076
 21
9935.71333246234
 31
0.0
  0
LINE
  5
1A49A
330
16352
100
AcDbEntity
  8
寸法
 62
     0
 48
50.0
370
    -2
100
AcDbLine
 10
7869.673057123664
 20
9880.713332462343
 30
0.0
 11
8557.099402858076
 21
9880.713332462343
 31
0.0
  0
LINE
  5
1A49B
330
16352
100
AcDbEntity
  8
寸法
 62
     0
 48
50.0
370
    -2
100
AcDbLine
 10
8497.099402858076
 20
9880.713332462343
 30
0.0
 11
8497.099402858076
 21
9780.713332462344
 31
0.0
  0
LINE
  5
1A49C
330
16352
100
AcDbEntity
  8
寸法
 62
     0
 48
50.0
370
    -2
100
AcDbLine
 10
8497.099402858076
 20
9935.71333246234
 30
0.0
 11
8497.099402858076
 21
10352.68389521081
 31
0.0
  0
LINE
  5
1A49D
330
16352
100
AcDbEntity
  8
寸法
 62
     0
 48
50.0
370
    -2
100
AcDbLine
 10
8497.099402858076
 20
9880.713332462343
 30
0.0
 11
8497.099402858076
 21
9935.71333246234
 31
0.0
  0
INSERT
  5
1A49E
330
16352
100
AcDbEntity
  8
寸法
 62
     0
 48
50.0
370
    -2
100
AcDbBlockReference
  2
_DOTSMALL
 10
8497.099402858076
 20
9880.713332462343
 30
0.0
 41
100.0
 42
100.0
 43
100.0
 50
90.0
  0
INSERT
  5
1A49F
330
16352
100
AcDbEntity
  8
寸法
 62
     0
 48
50.0
370
    -2
100
AcDbBlockReference
  2
_DOTSMALL
 10
8497.099402858076
 20
9935.71333246234
 30
0.0
 41
100.0
 42
100.0
 43
100.0
 50
270.0
  0
MTEXT
  5
1A4A0
330
16352
100
AcDbEntity
  8
寸法
 62
     7
 48
50.0
100
AcDbMText
 10
8397.099402858072
 20
10244.19861383658
 30
0.0
 40
120.0
 41
0.0
 71
     5
 72
     1
  1
\A1;55
  7
STYLE1
 11
0.0000000000000001
 21
1.0
 31
0.0
 73
     1
 44
1.0
1001
ACAD
1000
MTEXTBEGIN
1070
    73
1070
     1
1070
    44
1040
1.0
1070
    74
1070
     0
1000
MTEXTEND
  0
POINT
  5
1A4A1
330
16352
100
AcDbEntity
  8
DEFPOINTS
 62
     0
 48
50.0
100
AcDbPoint
 10
7849.673057123664
 20
9935.71333246234
 30
0.0
  0
POINT
  5
1A4A2
330
16352
100
AcDbEntity
  8
DEFPOINTS
 62
     0
 48
50.0
100
AcDbPoint
 10
7849.673057123664
 20
9880.713332462343
 30
0.0
  0
POINT
  5
1A4A3
330
16352
100
AcDbEntity
  8
DEFPOINTS
 62
     0
 48
50.0
100
AcDbPoint
 10
8497.099402858076
 20
9880.713332462343
 30
0.0
  0
ENDBLK
  5
1642D
330
16352
100
AcDbEntity
  8
0
 48
50.0
100
AcDbBlockEnd
  0
BLOCK
  5
164CA
330
16360
100
AcDbEntity
  8
0
 48
50.0
100
AcDbBlockBegin
  2
*D4
 70
     1
 10
0.0
 20
0.0
 30
0.0
  3
*D4
  1

  0
LINE
  5
1A490
330
16360
100
AcDbEntity
  8
寸法
 62
     0
 48
50.0
370
    -2
100
AcDbLine
 10
7869.673057123664
 20
9935.71333246234
 30
0.0
 11
8922.206344597709
 21
9935.71333246234
 31
0.0
  0
LINE
  5
1A491
330
16360
100
AcDbEntity
  8
寸法
 62
     0
 48
50.0
370
    -2
100
AcDbLine
 10
7869.673057123638
 20
7305.713332462332
 30
0.0
 11
8922.206344597709
 21
7305.713332462332
 31
0.0
  0
LINE
  5
1A492
330
16360
100
AcDbEntity
  8
寸法
 62
     0
 48
50.0
370
    -2
100
AcDbLine
 10
8862.206344597709
 20
9935.71333246234
 30
0.0
 11
8862.206344597709
 21
7305.713332462332
 31
0.0
  0
INSERT
  5
1A493
330
16360
100
AcDbEntity
  8
寸法
 62
     0
 48
50.0
370
    -2
100
AcDbBlockReference
  2
_DOTSMALL
 10
8862.206344597709
 20
9935.71333246234
 30
0.0
 41
100.0
 42
100.0
 43
100.0
 50
90.0
  0
INSERT
  5
1A494
330
16360
100
AcDbEntity
  8
寸法
 62
     0
 48
50.0
370
    -2
100
AcDbBlockReference
  2
_DOTSMALL
 10
8862.206344597709
 20
7305.713332462332
 30
0.0
 41
100.0
 42
100.0
 43
100.0
 50
270.0
  0
MTEXT
  5
1A495
330
16360
100
AcDbEntity
  8
寸法
 62
     7
 48
50.0
100
AcDbMText
 10
8762.194533574087
 20
8620.713332462337
 30
0.0
 40
120.0
 41
0.0
 71
     5
 72
     1
  1
\A1;2630
  7
STYLE1
 11
0.0000000000000001
 21
1.0
 31
0.0
 73
     1
 44
1.0
1001
ACAD
1000
MTEXTBEGIN
1070
    73
1070
     1
1070
    44
1040
1.0
1070
    74
1070
     0
1000
MTEXTEND
  0
POINT
  5
1A496
330
16360
100
AcDbEntity
  8
DEFPOINTS
 62
     0
 48
50.0
100
AcDbPoint
 10
7849.673057123664
 20
9935.71333246234
 30
0.0
  0
POINT
  5
1A497
330
16360
100
AcDbEntity
  8
DEFPOINTS
 62
     0
 48
50.0
100
AcDbPoint
 10
7849.673057123638
 20
7305.713332462332
 30
0.0
  0
POINT
  5
1A498
330
16360
100
AcDbEntity
  8
DEFPOINTS
 62
     0
 48
50.0
100
AcDbPoint
 10
8862.206344597709
 20
7305.713332462332
 30
0.0
  0
ENDBLK
  5
164D4
330
16360
100
AcDbEntity
  8
0
 48
50.0
100
AcDbBlockEnd
  0
BLOCK
  5
1728C
330
16384
100
AcDbEntity
  8
0
 48
50.0
100
AcDbBlockBegin
  2
*D5
 70
     1
 10
0.0
 20
0.0
 30
0.0
  3
*D5
  1

  0
LINE
  5
1A488
330
16384
100
AcDbEntity
  8
寸法
 62
     0
 48
50.0
370
    -2
100
AcDbLine
 10
6582.673057123656
 20
7311.71333246224
 30
0.0
 11
6582.673057123656
 21
6711.282561696076
 31
0.0
  0
LINE
  5
1A489
330
16384
100
AcDbEntity
  8
寸法
 62
     0
 48
50.0
370
    -2
100
AcDbLine
 10
7746.673057123638
 20
6771.282561696077
 30
0.0
 11
6582.673057123656
 21
6771.282561696077
 31
0.0
  0
INSERT
  5
1A48A
330
16384
100
AcDbEntity
  8
寸法
 62
     0
 48
50.0
370
    -2
100
AcDbBlockReference
  2
_DOTSMALL
 10
7746.673057123638
 20
6771.282561696077
 30
0.0
 41
100.0
 42
100.0
 43
100.0
  0
INSERT
  5
1A48B
330
16384
100
AcDbEntity
  8
寸法
 62
     0
 48
50.0
370
    -2
100
AcDbBlockReference
  2
_DOTSMALL
 10
6582.673057123656
 20
6771.282561696077
 30
0.0
 41
100.0
 42
100.0
 43
100.0
 50
180.0
  0
MTEXT
  5
1A48C
330
16384
100
AcDbEntity
  8
寸法
 62
     7
 48
50.0
100
AcDbMText
 10
7164.673057123647
 20
6971.282561696077
 30
0.0
 40
120.0
 41
0.0
 71
     5
 72
     1
  1
\A1;有効開口部間口\P 1164
  7
STYLE1
 73
     1
 44
1.0
1001
ACAD
1000
MTEXTBEGIN
1070
    73
1070
     1
1070
    44
1040
1.0
1070
    74
1070
     0
1000
MTEXTEND
  0
POINT
  5
1A48D
330
16384
100
AcDbEntity
  8
DEFPOINTS
 62
     0
 48
50.0
100
AcDbPoint
 10
7746.673057123638
 20
7331.713332462242
 30
0.0
  0
POINT
  5
1A48E
330
16384
100
AcDbEntity
  8
DEFPOINTS
 62
     0
 48
50.0
100
AcDbPoint
 10
6582.673057123656
 20
7331.71333246224
 30
0.0
  0
POINT
  5
1A48F
330
16384
100
AcDbEntity
  8
DEFPOINTS
 62
     0
 48
50.0
100
AcDbPoint
 10
6582.673057123656
 20
6771.282561696077
 30
0.0
  0
ENDBLK
  5
17295
330
16384
100
AcDbEntity
  8
0
 48
50.0
100
AcDbBlockEnd
  0
BLOCK
  5
17261
330
1638F
100
AcDbEntity
  8
0
 48
50.0
100
AcDbBlockBegin
  2
*D6
 70
     1
 10
0.0
 20
0.0
 30
0.0
  3
*D6
  1

  0
LINE
  5
1A47F
330
1638F
100
AcDbEntity
  8
寸法
 62
     0
 48
50.0
370
    -2
100
AcDbLine
 10
3739.673057123657
 20
7285.713332462238
 30
0.0
 11
3739.673057123657
 21
6265.109566105202
 31
0.0
  0
LINE
  5
1A480
330
1638F
100
AcDbEntity
  8
寸法
 62
     0
 48
50.0
370
    -2
100
AcDbLine
 10
7849.673057123628
 20
7285.713332462332
 30
0.0
 11
7849.673057123628
 21
6265.109566105202
 31
0.0
  0
LINE
  5
1A481
330
1638F
100
AcDbEntity
  8
寸法
 62
     0
 48
50.0
370
    -2
100
AcDbLine
 10
3739.673057123657
 20
6325.109566105203
 30
0.0
 11
7849.673057123628
 21
6325.109566105203
 31
0.0
  0
INSERT
  5
1A482
330
1638F
100
AcDbEntity
  8
寸法
 62
     0
 48
50.0
370
    -2
100
AcDbBlockReference
  2
_DOTSMALL
 10
3739.673057123657
 20
6325.109566105203
 30
0.0
 41
100.0
 42
100.0
 43
100.0
 50
180.0
  0
INSERT
  5
1A483
330
1638F
100
AcDbEntity
  8
寸法
 62
     0
 48
50.0
370
    -2
100
AcDbBlockReference
  2
_DOTSMALL
 10
7849.673057123628
 20
6325.109566105203
 30
0.0
 41
100.0
 42
100.0
 43
100.0
  0
MTEXT
  5
1A484
330
1638F
100
AcDbEntity
  8
寸法
 62
     7
 48
50.0
100
AcDbMText
 10
5794.673057123642
 20
6425.109566105202
 30
0.0
 40
120.0
 41
0.0
 71
     5
 72
     1
  1
\A1;N X 1370
  7
STYLE1
 73
     1
 44
1.0
1001
ACAD
1000
MTEXTBEGIN
1070
    73
1070
     1
1070
    44
1040
1.0
1070
    74
1070
     0
1000
MTEXTEND
  0
POINT
  5
1A485
330
1638F
100
AcDbEntity
  8
DEFPOINTS
 62
     0
 48
50.0
100
AcDbPoint
 10
3739.673057123657
 20
7305.713332462237
 30
0.0
  0
POINT
  5
1A486
330
1638F
100
AcDbEntity
  8
DEFPOINTS
 62
     0
 48
50.0
100
AcDbPoint
 10
7849.673057123628
 20
7305.713332462332
 30
0.0
  0
POINT
  5
1A487
330
1638F
100
AcDbEntity
  8
DEFPOINTS
 62
     0
 48
50.0
100
AcDbPoint
 10
7849.673057123628
 20
6325.109566105203
 30
0.0
  0
ENDBLK
  5
1726B
330
1638F
100
AcDbEntity
  8
0
 48
50.0
100
AcDbBlockEnd
  0
BLOCK
  5
16464
330
1639B
100
AcDbEntity
  8
0
 48
50.0
100
AcDbBlockBegin
  2
*D7
 70
     1
 10
0.0
 20
0.0
 30
0.0
  3
*D7
  1

  0
LINE
  5
1A474
330
1639B
100
AcDbEntity
  8
寸法
 62
     0
 48
50.0
370
    -2
100
AcDbLine
 10
3794.673057123653
 20
7285.71333246224
 30
0.0
 11
3794.673057123653
 21
6711.282561696076
 31
0.0
  0
LINE
  5
1A475
330
1639B
100
AcDbEntity
  8
寸法
 62
     0
 48
50.0
370
    -2
100
AcDbLine
 10
3739.673057123657
 20
7285.713332462238
 30
0.0
 11
3739.673057123657
 21
6711.282561696076
 31
0.0
  0
LINE
  5
1A476
330
1639B
100
AcDbEntity
  8
寸法
 62
     0
 48
50.0
370
    -2
100
AcDbLine
 10
3794.673057123653
 20
6771.282561696077
 30
0.0
 11
3894.673057123653
 21
6771.282561696077
 31
0.0
  0
LINE
  5
1A477
330
1639B
100
AcDbEntity
  8
寸法
 62
     0
 48
50.0
370
    -2
100
AcDbLine
 10
3739.673057123657
 20
6771.282561696077
 30
0.0
 11
3322.702494375179
 21
6771.282561696077
 31
0.0
  0
LINE
  5
1A478
330
1639B
100
AcDbEntity
  8
寸法
 62
     0
 48
50.0
370
    -2
100
AcDbLine
 10
3794.673057123653
 20
6771.282561696077
 30
0.0
 11
3739.673057123657
 21
6771.282561696077
 31
0.0
  0
INSERT
  5
1A479
330
1639B
100
AcDbEntity
  8
寸法
 62
     0
 48
50.0
370
    -2
100
AcDbBlockReference
  2
_DOTSMALL
 10
3794.673057123653
 20
6771.282561696077
 30
0.0
 41
100.0
 42
100.0
 43
100.0
 50
180.0
  0
INSERT
  5
1A47A
330
1639B
100
AcDbEntity
  8
寸法
 62
     0
 48
50.0
370
    -2
100
AcDbBlockReference
  2
_DOTSMALL
 10
3739.673057123657
 20
6771.282561696077
 30
0.0
 41
100.0
 42
100.0
 43
100.0
  0
MTEXT
  5
1A47B
330
1639B
100
AcDbEntity
  8
寸法
 62
     7
 48
50.0
100
AcDbMText
 10
3431.187775749418
 20
6871.282561696077
 30
0.0
 40
120.0
 41
0.0
 71
     5
 72
     1
  1
\A1;55
  7
STYLE1
 73
     1
 44
1.0
1001
ACAD
1000
MTEXTBEGIN
1070
    73
1070
     1
1070
    44
1040
1.0
1070
    74
1070
     0
1000
MTEXTEND
  0
POINT
  5
1A47C
330
1639B
100
AcDbEntity
  8
DEFPOINTS
 62
     0
 48
50.0
100
AcDbPoint
 10
3794.673057123653
 20
7305.713332462239
 30
0.0
  0
POINT
  5
1A47D
330
1639B
100
AcDbEntity
  8
DEFPOINTS
 62
     0
 48
50.0
100
AcDbPoint
 10
3739.673057123657
 20
7305.713332462237
 30
0.0
  0
POINT
  5
1A47E
330
1639B
100
AcDbEntity
  8
DEFPOINTS
 62
     0
 48
50.0
100
AcDbPoint
 10
3739.673057123657
 20
6771.282561696077
 30
0.0
  0
ENDBLK
  5
16470
330
1639B
100
AcDbEntity
  8
0
 48
50.0
100
AcDbBlockEnd
  0
BLOCK
  5
16471
330
163A9
100
AcDbEntity
  8
0
 48
50.0
100
AcDbBlockBegin
  2
*D8
 70
     1
 10
0.0
 20
0.0
 30
0.0
  3
*D8
  1

  0
LINE
  5
1A469
330
163A9
100
AcDbEntity
  8
寸法
 62
     0
 48
50.0
370
    -2
100
AcDbLine
 10
6582.673057123656
 20
7311.71333246224
 30
0.0
 11
6582.673057123656
 21
6711.282561696076
 31
0.0
  0
LINE
  5
1A46A
330
163A9
100
AcDbEntity
  8
寸法
 62
     0
 48
50.0
370
    -2
100
AcDbLine
 10
6534.673057123653
 20
7285.71333246224
 30
0.0
 11
6534.673057123653
 21
6711.282561696076
 31
0.0
  0
LINE
  5
1A46B
330
163A9
100
AcDbEntity
  8
寸法
 62
     0
 48
50.0
370
    -2
100
AcDbLine
 10
6582.673057123656
 20
6771.282561696077
 30
0.0
 11
6682.673057123657
 21
6771.282561696077
 31
0.0
  0
LINE
  5
1A46C
330
163A9
100
AcDbEntity
  8
寸法
 62
     0
 48
50.0
370
    -2
100
AcDbLine
 10
6534.673057123653
 20
6771.282561696077
 30
0.0
 11
6434.673057123653
 21
6771.282561696077
 31
0.0
  0
MTEXT
  5
1A46D
330
163A9
100
AcDbEntity
  8
寸法
 62
     7
 48
50.0
100
AcDbMText
 10
6695.575028123714
 20
6871.282561696077
 30
0.0
 40
120.0
 41
0.0
 71
     5
 72
     1
  1
\A1;48
  7
STYLE1
 73
     1
 44
1.0
1001
ACAD
1000
MTEXTBEGIN
1070
    73
1070
     1
1070
    44
1040
1.0
1070
    74
1070
     0
1000
MTEXTEND
  0
LINE
  5
1A46E
330
163A9
100
AcDbEntity
  8
寸法
 62
     0
 48
50.0
370
    -2
100
AcDbLine
 10
6582.673057123656
 20
6771.282561696077
 30
0.0
 11
6534.673057123653
 21
6771.282561696077
 31
0.0
  0
INSERT
  5
1A46F
330
163A9
100
AcDbEntity
  8
寸法
 62
     0
 48
50.0
370
    -2
100
AcDbBlockReference
  2
_DOTSMALL
 10
6582.673057123656
 20
6771.282561696077
 30
0.0
 41
100.0
 42
100.0
 43
100.0
 50
180.0
  0
INSERT
  5
1A470
330
163A9
100
AcDbEntity
  8
寸法
 62
     0
 48
50.0
370
    -2
100
AcDbBlockReference
  2
_DOTSMALL
 10
6534.673057123653
 20
6771.282561696077
 30
0.0
 41
100.0
 42
100.0
 43
100.0
  0
POINT
  5
1A471
330
163A9
100
AcDbEntity
  8
DEFPOINTS
 62
     0
 48
50.0
100
AcDbPoint
 10
6582.673057123656
 20
7331.71333246224
 30
0.0
  0
POINT
  5
1A472
330
163A9
100
AcDbEntity
  8
DEFPOINTS
 62
     0
 48
50.0
100
AcDbPoint
 10
6534.673057123653
 20
7305.713332462239
 30
0.0
  0
POINT
  5
1A473
330
163A9
100
AcDbEntity
  8
DEFPOINTS
 62
     0
 48
50.0
100
AcDbPoint
 10
6534.673057123653
 20
6771.282561696077
 30
0.0
  0
ENDBLK
  5
1647E
330
163A9
100
AcDbEntity
  8
0
 48
50.0
100
AcDbBlockEnd
  0
BLOCK
  5
1647F
330
163B8
100
AcDbEntity
  8
0
 48
50.0
100
AcDbBlockBegin
  2
*D9
 70
     1
 10
0.0
 20
0.0
 30
0.0
  3
*D9
  1

  0
LINE
  5
1A45E
330
163B8
100
AcDbEntity
  8
寸法
 62
     0
 48
50.0
370
    -2
100
AcDbLine
 10
7794.67305712364
 20
7285.713332462329
 30
0.0
 11
7794.67305712364
 21
6711.282561696076
 31
0.0
  0
LINE
  5
1A45F
330
163B8
100
AcDbEntity
  8
寸法
 62
     0
 48
50.0
370
    -2
100
AcDbLine
 10
7746.673057123638
 20
7311.713332462241
 30
0.0
 11
7746.673057123638
 21
6711.282561696076
 31
0.0
  0
LINE
  5
1A460
330
163B8
100
AcDbEntity
  8
寸法
 62
     0
 48
50.0
370
    -2
100
AcDbLine
 10
7794.67305712364
 20
6771.282561696077
 30
0.0
 11
7894.67305712364
 21
6771.282561696077
 31
0.0
  0
LINE
  5
1A461
330
163B8
100
AcDbEntity
  8
寸法
 62
     0
 48
50.0
370
    -2
100
AcDbLine
 10
7746.673057123638
 20
6771.282561696077
 30
0.0
 11
7646.673057123638
 21
6771.282561696077
 31
0.0
  0
MTEXT
  5
1A462
330
163B8
100
AcDbEntity
  8
寸法
 62
     7
 48
50.0
100
AcDbMText
 10
7635.710159474891
 20
6871.282561696077
 30
0.0
 40
120.0
 41
0.0
 71
     5
 72
     1
  1
\A1;48
  7
STYLE1
 73
     1
 44
1.0
1001
ACAD
1000
MTEXTBEGIN
1070
    73
1070
     1
1070
    44
1040
1.0
1070
    74
1070
     0
1000
MTEXTEND
  0
LINE
  5
1A463
330
163B8
100
AcDbEntity
  8
寸法
 62
     0
 48
50.0
370
    -2
100
AcDbLine
 10
7794.67305712364
 20
6771.282561696077
 30
0.0
 11
7746.673057123638
 21
6771.282561696077
 31
0.0
  0
INSERT
  5
1A464
330
163B8
100
AcDbEntity
  8
寸法
 62
     0
 48
50.0
370
    -2
100
AcDbBlockReference
  2
_DOTSMALL
 10
7794.67305712364
 20
6771.282561696077
 30
0.0
 41
100.0
 42
100.0
 43
100.0
 50
180.0
  0
INSERT
  5
1A465
330
163B8
100
AcDbEntity
  8
寸法
 62
     0
 48
50.0
370
    -2
100
AcDbBlockReference
  2
_DOTSMALL
 10
7746.673057123638
 20
6771.282561696077
 30
0.0
 41
100.0
 42
100.0
 43
100.0
  0
POINT
  5
1A466
330
163B8
100
AcDbEntity
  8
DEFPOINTS
 62
     0
 48
50.0
100
AcDbPoint
 10
7794.67305712364
 20
7305.713332462328
 30
0.0
  0
POINT
  5
1A467
330
163B8
100
AcDbEntity
  8
DEFPOINTS
 62
     0
 48
50.0
100
AcDbPoint
 10
7746.673057123638
 20
7331.713332462242
 30
0.0
  0
POINT
  5
1A468
330
163B8
100
AcDbEntity
  8
DEFPOINTS
 62
     0
 48
50.0
100
AcDbPoint
 10
7746.673057123638
 20
6771.282561696077
 30
0.0
  0
ENDBLK
  5
1648C
330
163B8
100
AcDbEntity
  8
0
 48
50.0
100
AcDbBlockEnd
  0
BLOCK
  5
1648D
330
163C7
100
AcDbEntity
  8
0
 48
50.0
100
AcDbBlockBegin
  2
*D10
 70
     1
 10
0.0
 20
0.0
 30
0.0
  3
*D10
  1

  0
LINE
  5
1A453
330
163C7
100
AcDbEntity
  8
寸法
 62
     0
 48
50.0
370
    -2
100
AcDbLine
 10
7849.673057123638
 20
7285.713332462332
 30
0.0
 11
7849.673057123638
 21
6711.282561696077
 31
0.0
  0
LINE
  5
1A454
330
163C7
100
AcDbEntity
  8
寸法
 62
     0
 48
50.0
370
    -2
100
AcDbLine
 10
7794.67305712364
 20
7285.713332462329
 30
0.0
 11
7794.67305712364
 21
6711.282561696077
 31
0.0
  0
LINE
  5
1A455
330
163C7
100
AcDbEntity
  8
寸法
 62
     0
 48
50.0
370
    -2
100
AcDbLine
 10
7794.67305712364
 20
6771.282561696077
 30
0.0
 11
7694.67305712364
 21
6771.282561696077
 31
0.0
  0
LINE
  5
1A456
330
163C7
100
AcDbEntity
  8
寸法
 62
     0
 48
50.0
370
    -2
100
AcDbLine
 10
7849.673057123638
 20
6771.282561696077
 30
0.0
 11
8266.643619872114
 21
6771.282561696077
 31
0.0
  0
LINE
  5
1A457
330
163C7
100
AcDbEntity
  8
寸法
 62
     0
 48
50.0
370
    -2
100
AcDbLine
 10
7794.67305712364
 20
6771.282561696077
 30
0.0
 11
7849.673057123638
 21
6771.282561696077
 31
0.0
  0
INSERT
  5
1A458
330
163C7
100
AcDbEntity
  8
寸法
 62
     0
 48
50.0
370
    -2
100
AcDbBlockReference
  2
_DOTSMALL
 10
7794.67305712364
 20
6771.282561696077
 30
0.0
 41
100.0
 42
100.0
 43
100.0
  0
INSERT
  5
1A459
330
163C7
100
AcDbEntity
  8
寸法
 62
     0
 48
50.0
370
    -2
100
AcDbBlockReference
  2
_DOTSMALL
 10
7849.673057123638
 20
6771.282561696077
 30
0.0
 41
100.0
 42
100.0
 43
100.0
 50
180.0
  0
MTEXT
  5
1A45A
330
163C7
100
AcDbEntity
  8
寸法
 62
     7
 48
50.0
100
AcDbMText
 10
8158.158338497877
 20
6871.282561696077
 30
0.0
 40
120.0
 41
0.0
 71
     5
 72
     1
  1
\A1;55
  7
STYLE1
 73
     1
 44
1.0
1001
ACAD
1000
MTEXTBEGIN
1070
    73
1070
     1
1070
    44
1040
1.0
1070
    74
1070
     0
1000
MTEXTEND
  0
POINT
  5
1A45B
330
163C7
100
AcDbEntity
  8
DEFPOINTS
 62
     0
 48
50.0
100
AcDbPoint
 10
7849.673057123638
 20
7305.713332462332
 30
0.0
  0
POINT
  5
1A45C
330
163C7
100
AcDbEntity
  8
DEFPOINTS
 62
     0
 48
50.0
100
AcDbPoint
 10
7794.67305712364
 20
7305.713332462328
 30
0.0
  0
POINT
  5
1A45D
330
163C7
100
AcDbEntity
  8
DEFPOINTS
 62
     0
 48
50.0
100
AcDbPoint
 10
7794.67305712364
 20
6771.282561696077
 30
0.0
  0
ENDBLK
  5
16499
330
163C7
100
AcDbEntity
  8
0
 48
50.0
100
AcDbBlockEnd
  0
BLOCK
  5
172A1
330
163E1
100
AcDbEntity
  8
0
 48
50.0
100
AcDbBlockBegin
  2
*D11
 70
     1
 10
0.0
 20
0.0
 30
0.0
  3
*D11
  1

  0
LINE
  5
1A44A
330
163E1
100
AcDbEntity
  8
寸法
 62
     0
 48
50.0
370
    -2
100
AcDbLine
 10
6534.673057123663
 20
9955.713332462245
 30
0.0
 11
6534.673057123663
 21
10211.52155208734
 31
0.0
  0
LINE
  5
1A44B
330
163E1
100
AcDbEntity
  8
寸法
 62
     0
 48
50.0
370
    -2
100
AcDbLine
 10
7794.673057123664
 20
9955.713332462339
 30
0.0
 11
7794.673057123664
 21
10211.52155208734
 31
0.0
  0
LINE
  5
1A44C
330
163E1
100
AcDbEntity
  8
寸法
 62
     0
 48
50.0
370
    -2
100
AcDbLine
 10
6534.673057123663
 20
10151.52155208734
 30
0.0
 11
7794.673057123664
 21
10151.52155208734
 31
0.0
  0
INSERT
  5
1A44D
330
163E1
100
AcDbEntity
  8
寸法
 62
     0
 48
50.0
370
    -2
100
AcDbBlockReference
  2
_DOTSMALL
 10
6534.673057123663
 20
10151.52155208734
 30
0.0
 41
100.0
 42
100.0
 43
100.0
 50
180.0
  0
INSERT
  5
1A44E
330
163E1
100
AcDbEntity
  8
寸法
 62
     0
 48
50.0
370
    -2
100
AcDbBlockReference
  2
_DOTSMALL
 10
7794.673057123664
 20
10151.52155208734
 30
0.0
 41
100.0
 42
100.0
 43
100.0
  0
MTEXT
  5
1A44F
330
163E1
100
AcDbEntity
  8
寸法
 62
     7
 48
50.0
100
AcDbMText
 10
7164.673057123664
 20
10251.53336311096
 30
0.0
 40
120.0
 41
0.0
 71
     5
 72
     1
  1
\A1;3X420=1260
  7
STYLE1
 73
     1
 44
1.0
1001
ACAD
1000
MTEXTBEGIN
1070
    73
1070
     1
1070
    44
1040
1.0
1070
    74
1070
     0
1000
MTEXTEND
  0
POINT
  5
1A450
330
163E1
100
AcDbEntity
  8
DEFPOINTS
 62
     0
 48
50.0
100
AcDbPoint
 10
6534.673057123663
 20
9935.713332462245
 30
0.0
  0
POINT
  5
1A451
330
163E1
100
AcDbEntity
  8
DEFPOINTS
 62
     0
 48
50.0
100
AcDbPoint
 10
7794.673057123664
 20
9935.71333246234
 30
0.0
  0
POINT
  5
1A452
330
163E1
100
AcDbEntity
  8
DEFPOINTS
 62
     0
 48
50.0
100
AcDbPoint
 10
7794.673057123664
 20
10151.52155208734
 30
0.0
  0
ENDBLK
  5
172AB
330
163E1
100
AcDbEntity
  8
0
 48
50.0
100
AcDbBlockEnd
  0
BLOCK
  5
164B0
330
163ED
100
AcDbEntity
  8
0
 48
50.0
100
AcDbBlockBegin
  2
*D12
 70
     1
 10
0.0
 20
0.0
 30
0.0
  3
*D12
  1

  0
LINE
  5
1A43F
330
163ED
100
AcDbEntity
  8
寸法
 62
     0
 48
50.0
370
    -2
100
AcDbLine
 10
3739.673057123628
 20
9955.713332462245
 30
0.0
 11
3739.673057123628
 21
10211.52155208722
 31
0.0
  0
LINE
  5
1A440
330
163ED
100
AcDbEntity
  8
寸法
 62
     0
 48
50.0
370
    -2
100
AcDbLine
 10
3794.673057123663
 20
9955.713332462245
 30
0.0
 11
3794.673057123663
 21
10211.52155208722
 31
0.0
  0
LINE
  5
1A441
330
163ED
100
AcDbEntity
  8
寸法
 62
     0
 48
50.0
370
    -2
100
AcDbLine
 10
3794.673057123663
 20
10151.52155208722
 30
0.0
 11
3894.673057123663
 21
10151.52155208722
 31
0.0
  0
LINE
  5
1A442
330
163ED
100
AcDbEntity
  8
寸法
 62
     0
 48
50.0
370
    -2
100
AcDbLine
 10
3739.673057123628
 20
10151.52155208722
 30
0.0
 11
3322.702494375152
 21
10151.52155208722
 31
0.0
  0
LINE
  5
1A443
330
163ED
100
AcDbEntity
  8
寸法
 62
     0
 48
50.0
370
    -2
100
AcDbLine
 10
3794.673057123663
 20
10151.52155208722
 30
0.0
 11
3739.673057123628
 21
10151.52155208722
 31
0.0
  0
INSERT
  5
1A444
330
163ED
100
AcDbEntity
  8
寸法
 62
     0
 48
50.0
370
    -2
100
AcDbBlockReference
  2
_DOTSMALL
 10
3794.673057123663
 20
10151.52155208722
 30
0.0
 41
100.0
 42
100.0
 43
100.0
 50
180.0
  0
INSERT
  5
1A445
330
163ED
100
AcDbEntity
  8
寸法
 62
     0
 48
50.0
370
    -2
100
AcDbBlockReference
  2
_DOTSMALL
 10
3739.673057123628
 20
10151.52155208722
 30
0.0
 41
100.0
 42
100.0
 43
100.0
  0
MTEXT
  5
1A446
330
163ED
100
AcDbEntity
  8
寸法
 62
     7
 48
50.0
100
AcDbMText
 10
3431.18777574939
 20
10251.52155208722
 30
0.0
 40
120.0
 41
0.0
 71
     5
 72
     1
  1
\A1;55
  7
STYLE1
 73
     1
 44
1.0
1001
ACAD
1000
MTEXTBEGIN
1070
    73
1070
     1
1070
    44
1040
1.0
1070
    74
1070
     0
1000
MTEXTEND
  0
POINT
  5
1A447
330
163ED
100
AcDbEntity
  8
DEFPOINTS
 62
     0
 48
50.0
100
AcDbPoint
 10
3739.673057123628
 20
9935.713332462245
 30
0.0
  0
POINT
  5
1A448
330
163ED
100
AcDbEntity
  8
DEFPOINTS
 62
     0
 48
50.0
100
AcDbPoint
 10
3794.673057123663
 20
9935.713332462245
 30
0.0
  0
POINT
  5
1A449
330
163ED
100
AcDbEntity
  8
DEFPOINTS
 62
     0
 48
50.0
100
AcDbPoint
 10
3794.673057123663
 20
10151.52155208722
 30
0.0
  0
ENDBLK
  5
164BC
330
163ED
100
AcDbEntity
  8
0
 48
50.0
100
AcDbBlockEnd
  0
BLOCK
  5
164BD
330
163FB
100
AcDbEntity
  8
0
 48
50.0
100
AcDbBlockBegin
  2
*D13
 70
     1
 10
0.0
 20
0.0
 30
0.0
  3
*D13
  1

  0
LINE
  5
1A434
330
163FB
100
AcDbEntity
  8
寸法
 62
     0
 48
50.0
370
    -2
100
AcDbLine
 10
7794.673057123664
 20
9955.713332462339
 30
0.0
 11
7794.673057123664
 21
10211.52155208732
 31
0.0
  0
LINE
  5
1A435
330
163FB
100
AcDbEntity
  8
寸法
 62
     0
 48
50.0
370
    -2
100
AcDbLine
 10
7849.673057123664
 20
9955.713332462339
 30
0.0
 11
7849.673057123664
 21
10211.52155208732
 31
0.0
  0
LINE
  5
1A436
330
163FB
100
AcDbEntity
  8
寸法
 62
     0
 48
50.0
370
    -2
100
AcDbLine
 10
7794.673057123664
 20
10151.52155208732
 30
0.0
 11
7694.673057123664
 21
10151.52155208732
 31
0.0
  0
LINE
  5
1A437
330
163FB
100
AcDbEntity
  8
寸法
 62
     0
 48
50.0
370
    -2
100
AcDbLine
 10
7849.673057123664
 20
10151.52155208732
 30
0.0
 11
8266.643619872139
 21
10151.52155208732
 31
0.0
  0
LINE
  5
1A438
330
163FB
100
AcDbEntity
  8
寸法
 62
     0
 48
50.0
370
    -2
100
AcDbLine
 10
7794.673057123664
 20
10151.52155208732
 30
0.0
 11
7849.673057123664
 21
10151.52155208732
 31
0.0
  0
INSERT
  5
1A439
330
163FB
100
AcDbEntity
  8
寸法
 62
     0
 48
50.0
370
    -2
100
AcDbBlockReference
  2
_DOTSMALL
 10
7794.673057123664
 20
10151.52155208732
 30
0.0
 41
100.0
 42
100.0
 43
100.0
  0
INSERT
  5
1A43A
330
163FB
100
AcDbEntity
  8
寸法
 62
     0
 48
50.0
370
    -2
100
AcDbBlockReference
  2
_DOTSMALL
 10
7849.673057123664
 20
10151.52155208732
 30
0.0
 41
100.0
 42
100.0
 43
100.0
 50
180.0
  0
MTEXT
  5
1A43B
330
163FB
100
AcDbEntity
  8
寸法
 62
     7
 48
50.0
100
AcDbMText
 10
8158.158338497903
 20
10251.52155208732
 30
0.0
 40
120.0
 41
0.0
 71
     5
 72
     1
  1
\A1;55
  7
STYLE1
 73
     1
 44
1.0
1001
ACAD
1000
MTEXTBEGIN
1070
    73
1070
     1
1070
    44
1040
1.0
1070
    74
1070
     0
1000
MTEXTEND
  0
POINT
  5
1A43C
330
163FB
100
AcDbEntity
  8
DEFPOINTS
 62
     0
 48
50.0
100
AcDbPoint
 10
7794.673057123664
 20
9935.71333246234
 30
0.0
  0
POINT
  5
1A43D
330
163FB
100
AcDbEntity
  8
DEFPOINTS
 62
     0
 48
50.0
100
AcDbPoint
 10
7849.673057123664
 20
9935.71333246234
 30
0.0
  0
POINT
  5
1A43E
330
163FB
100
AcDbEntity
  8
DEFPOINTS
 62
     0
 48
50.0
100
AcDbPoint
 10
7849.673057123664
 20
10151.52155208732
 30
0.0
  0
ENDBLK
  5
164C9
330
163FB
100
AcDbEntity
  8
0
 48
50.0
100
AcDbBlockEnd
  0
BLOCK
  5
165B6
330
165B5
100
AcDbEntity
  8
0
 48
50.0
100
AcDbBlockBegin
  2
*D14
 70
     1
 10
0.0
 20
0.0
 30
0.0
  3
*D14
  1

  0
LINE
  5
1A41E
330
165B5
100
AcDbEntity
  8
寸法
 62
     0
 48
50.0
370
    -2
100
AcDbLine
 10
3842.673057123657
 20
7311.71333246224
 30
0.0
 11
3842.673057123657
 21
6711.282561696076
 31
0.0
  0
LINE
  5
1A41F
330
165B5
100
AcDbEntity
  8
寸法
 62
     0
 48
50.0
370
    -2
100
AcDbLine
 10
3794.673057123653
 20
7285.71333246224
 30
0.0
 11
3794.673057123653
 21
6711.282561696076
 31
0.0
  0
LINE
  5
1A420
330
165B5
100
AcDbEntity
  8
寸法
 62
     0
 48
50.0
370
    -2
100
AcDbLine
 10
3842.673057123657
 20
6771.282561696077
 30
0.0
 11
3942.673057123657
 21
6771.282561696077
 31
0.0
  0
LINE
  5
1A421
330
165B5
100
AcDbEntity
  8
寸法
 62
     0
 48
50.0
370
    -2
100
AcDbLine
 10
3794.673057123653
 20
6771.282561696077
 30
0.0
 11
3694.673057123653
 21
6771.282561696077
 31
0.0
  0
MTEXT
  5
1A422
330
165B5
100
AcDbEntity
  8
寸法
 62
     7
 48
50.0
100
AcDbMText
 10
3955.575028123714
 20
6871.282561696077
 30
0.0
 40
120.0
 41
0.0
 71
     5
 72
     1
  1
\A1;48
  7
STYLE1
 73
     1
 44
1.0
1001
ACAD
1000
MTEXTBEGIN
1070
    73
1070
     1
1070
    44
1040
1.0
1070
    74
1070
     0
1000
MTEXTEND
  0
LINE
  5
1A423
330
165B5
100
AcDbEntity
  8
寸法
 62
     0
 48
50.0
370
    -2
100
AcDbLine
 10
3842.673057123657
 20
6771.282561696077
 30
0.0
 11
3794.673057123653
 21
6771.282561696077
 31
0.0
  0
INSERT
  5
1A424
330
165B5
100
AcDbEntity
  8
寸法
 62
     0
 48
50.0
370
    -2
100
AcDbBlockReference
  2
_DOTSMALL
 10
3842.673057123657
 20
6771.282561696077
 30
0.0
 41
100.0
 42
100.0
 43
100.0
 50
180.0
  0
INSERT
  5
1A425
330
165B5
100
AcDbEntity
  8
寸法
 62
     0
 48
50.0
370
    -2
100
AcDbBlockReference
  2
_DOTSMALL
 10
3794.673057123653
 20
6771.282561696077
 30
0.0
 41
100.0
 42
100.0
 43
100.0
  0
POINT
  5
1A426
330
165B5
100
AcDbEntity
  8
DEFPOINTS
 62
     0
 48
50.0
100
AcDbPoint
 10
3842.673057123657
 20
7331.71333246224
 30
0.0
  0
POINT
  5
1A427
330
165B5
100
AcDbEntity
  8
DEFPOINTS
 62
     0
 48
50.0
100
AcDbPoint
 10
3794.673057123653
 20
7305.713332462239
 30
0.0
  0
POINT
  5
1A428
330
165B5
100
AcDbEntity
  8
DEFPOINTS
 62
     0
 48
50.0
100
AcDbPoint
 10
3794.673057123653
 20
6771.282561696077
 30
0.0
  0
ENDBLK
  5
165C3
330
165B5
100
AcDbEntity
  8
0
 48
50.0
100
AcDbBlockEnd
  0
BLOCK
  5
165C5
330
165C4
100
AcDbEntity
  8
0
 48
50.0
100
AcDbBlockBegin
  2
*D15
 70
     1
 10
0.0
 20
0.0
 30
0.0
  3
*D15
  1

  0
LINE
  5
1A429
330
165C4
100
AcDbEntity
  8
寸法
 62
     0
 48
50.0
370
    -2
100
AcDbLine
 10
6424.67305712364
 20
7285.713332462329
 30
0.0
 11
6424.67305712364
 21
6711.282561696076
 31
0.0
  0
LINE
  5
1A42A
330
165C4
100
AcDbEntity
  8
寸法
 62
     0
 48
50.0
370
    -2
100
AcDbLine
 10
6376.673057123639
 20
7311.713332462241
 30
0.0
 11
6376.673057123639
 21
6711.282561696076
 31
0.0
  0
LINE
  5
1A42B
330
165C4
100
AcDbEntity
  8
寸法
 62
     0
 48
50.0
370
    -2
100
AcDbLine
 10
6424.67305712364
 20
6771.282561696077
 30
0.0
 11
6524.673057123639
 21
6771.282561696077
 31
0.0
  0
LINE
  5
1A42C
330
165C4
100
AcDbEntity
  8
寸法
 62
     0
 48
50.0
370
    -2
100
AcDbLine
 10
6376.673057123639
 20
6771.282561696077
 30
0.0
 11
6276.673057123638
 21
6771.282561696077
 31
0.0
  0
MTEXT
  5
1A42D
330
165C4
100
AcDbEntity
  8
寸法
 62
     7
 48
50.0
100
AcDbMText
 10
6265.710159474891
 20
6871.282561696077
 30
0.0
 40
120.0
 41
0.0
 71
     5
 72
     1
  1
\A1;48
  7
STYLE1
 73
     1
 44
1.0
1001
ACAD
1000
MTEXTBEGIN
1070
    73
1070
     1
1070
    44
1040
1.0
1070
    74
1070
     0
1000
MTEXTEND
  0
LINE
  5
1A42E
330
165C4
100
AcDbEntity
  8
寸法
 62
     0
 48
50.0
370
    -2
100
AcDbLine
 10
6424.67305712364
 20
6771.282561696077
 30
0.0
 11
6376.673057123639
 21
6771.282561696077
 31
0.0
  0
INSERT
  5
1A42F
330
165C4
100
AcDbEntity
  8
寸法
 62
     0
 48
50.0
370
    -2
100
AcDbBlockReference
  2
_DOTSMALL
 10
6424.67305712364
 20
6771.282561696077
 30
0.0
 41
100.0
 42
100.0
 43
100.0
 50
180.0
  0
INSERT
  5
1A430
330
165C4
100
AcDbEntity
  8
寸法
 62
     0
 48
50.0
370
    -2
100
AcDbBlockReference
  2
_DOTSMALL
 10
6376.673057123639
 20
6771.282561696077
 30
0.0
 41
100.0
 42
100.0
 43
100.0
  0
POINT
  5
1A431
330
165C4
100
AcDbEntity
  8
DEFPOINTS
 62
     0
 48
50.0
100
AcDbPoint
 10
6424.67305712364
 20
7305.713332462328
 30
0.0
  0
POINT
  5
1A432
330
165C4
100
AcDbEntity
  8
DEFPOINTS
 62
     0
 48
50.0
100
AcDbPoint
 10
6376.673057123639
 20
7331.713332462242
 30
0.0
  0
POINT
  5
1A433
330
165C4
100
AcDbEntity
  8
DEFPOINTS
 62
     0
 48
50.0
100
AcDbPoint
 10
6376.673057123639
 20
6771.282561696077
 30
0.0
  0
ENDBLK
  5
165D2
330
165C4
100
AcDbEntity
  8
0
 48
50.0
100
AcDbBlockEnd
  0
BLOCK
  5
1663F
330
165EA
100
AcDbEntity
  8
0
 48
50.0
100
AcDbBlockBegin
  2
*D16
 70
     1
 10
0.0
 20
0.0
 30
0.0
  3
*D16
  1

  0
LINE
  5
1A415
330
165EA
100
AcDbEntity
  8
寸法
 62
     0
 48
50.0
370
    -2
100
AcDbLine
 10
6534.673057123653
 20
7285.71333246224
 30
0.0
 11
6534.673057123653
 21
6711.282561696077
 31
0.0
  0
LINE
  5
1A416
330
165EA
100
AcDbEntity
  8
寸法
 62
     0
 48
50.0
370
    -2
100
AcDbLine
 10
6424.67305712364
 20
7285.713332462329
 30
0.0
 11
6424.67305712364
 21
6711.282561696077
 31
0.0
  0
LINE
  5
1A417
330
165EA
100
AcDbEntity
  8
寸法
 62
     0
 48
50.0
370
    -2
100
AcDbLine
 10
6534.673057123653
 20
6771.282561696077
 30
0.0
 11
6424.67305712364
 21
6771.282561696077
 31
0.0
  0
MTEXT
  5
1A418
330
165EA
100
AcDbEntity
  8
寸法
 62
     7
 48
50.0
100
AcDbMText
 10
6479.673057123647
 20
6619.590666659846
 30
0.0
 40
120.0
 41
0.0
 71
     5
 72
     1
  1
\A1;110
  7
STYLE1
 73
     1
 44
1.0
1001
ACAD
1000
MTEXTBEGIN
1070
    73
1070
     1
1070
    44
1040
1.0
1070
    74
1070
     0
1000
MTEXTEND
  0
INSERT
  5
1A419
330
165EA
100
AcDbEntity
  8
寸法
 62
     0
 48
50.0
370
    -2
100
AcDbBlockReference
  2
_DOTSMALL
 10
6534.673057123653
 20
6771.282561696077
 30
0.0
 41
100.0
 42
100.0
 43
100.0
  0
INSERT
  5
1A41A
330
165EA
100
AcDbEntity
  8
寸法
 62
     0
 48
50.0
370
    -2
100
AcDbBlockReference
  2
_DOTSMALL
 10
6424.67305712364
 20
6771.282561696077
 30
0.0
 41
100.0
 42
100.0
 43
100.0
 50
180.0
  0
POINT
  5
1A41B
330
165EA
100
AcDbEntity
  8
DEFPOINTS
 62
     0
 48
50.0
100
AcDbPoint
 10
6534.673057123653
 20
7305.713332462239
 30
0.0
  0
POINT
  5
1A41C
330
165EA
100
AcDbEntity
  8
DEFPOINTS
 62
     0
 48
50.0
100
AcDbPoint
 10
6424.67305712364
 20
7305.713332462328
 30
0.0
  0
POINT
  5
1A41D
330
165EA
100
AcDbEntity
  8
DEFPOINTS
 62
     0
 48
50.0
100
AcDbPoint
 10
6424.67305712364
 20
6771.282561696077
 30
0.0
  0
ENDBLK
  5
16649
330
165EA
100
AcDbEntity
  8
0
 48
50.0
100
AcDbBlockEnd
  0
BLOCK
  5
166D0
330
166CF
100
AcDbEntity
  8
0
 48
50.0
100
AcDbBlockBegin
  2
*D17
 70
     1
 10
0.0
 20
0.0
 30
0.0
  3
*D17
  1

  0
LINE
  5
1A40A
330
166CF
100
AcDbEntity
  8
寸法
 62
     0
 48
50.0
370
    -2
100
AcDbLine
 10
6534.673057123663
 20
9955.713332462295
 30
0.0
 11
6534.673057123663
 21
10211.52155208734
 31
0.0
  0
LINE
  5
1A40B
330
166CF
100
AcDbEntity
  8
寸法
 62
     0
 48
50.0
370
    -2
100
AcDbLine
 10
6424.673057123664
 20
9955.713332462289
 30
0.0
 11
6424.673057123664
 21
10211.52155208734
 31
0.0
  0
LINE
  5
1A40C
330
166CF
100
AcDbEntity
  8
寸法
 62
     0
 48
50.0
370
    -2
100
AcDbLine
 10
6534.673057123663
 20
10151.52155208734
 30
0.0
 11
6634.673057123663
 21
10151.52155208734
 31
0.0
  0
LINE
  5
1A40D
330
166CF
100
AcDbEntity
  8
寸法
 62
     0
 48
50.0
370
    -2
100
AcDbLine
 10
6424.673057123664
 20
10151.52155208734
 30
0.0
 11
6324.673057123664
 21
10151.52155208734
 31
0.0
  0
LINE
  5
1A40E
330
166CF
100
AcDbEntity
  8
寸法
 62
     0
 48
50.0
370
    -2
100
AcDbLine
 10
6534.673057123663
 20
10151.52155208734
 30
0.0
 11
6424.673057123664
 21
10151.52155208734
 31
0.0
  0
INSERT
  5
1A40F
330
166CF
100
AcDbEntity
  8
寸法
 62
     0
 48
50.0
370
    -2
100
AcDbBlockReference
  2
_DOTSMALL
 10
6534.673057123663
 20
10151.52155208734
 30
0.0
 41
100.0
 42
100.0
 43
100.0
 50
180.0
  0
INSERT
  5
1A410
330
166CF
100
AcDbEntity
  8
寸法
 62
     0
 48
50.0
370
    -2
100
AcDbBlockReference
  2
_DOTSMALL
 10
6424.673057123664
 20
10151.52155208734
 30
0.0
 41
100.0
 42
100.0
 43
100.0
  0
MTEXT
  5
1A411
330
166CF
100
AcDbEntity
  8
寸法
 62
     7
 48
50.0
100
AcDbMText
 10
6479.673057123664
 20
10251.52155208734
 30
0.0
 40
120.0
 41
0.0
 71
     5
 72
     1
  1
\A1;110
  7
STYLE1
 73
     1
 44
1.0
1001
ACAD
1000
MTEXTBEGIN
1070
    73
1070
     1
1070
    44
1040
1.0
1070
    74
1070
     0
1000
MTEXTEND
  0
POINT
  5
1A412
330
166CF
100
AcDbEntity
  8
DEFPOINTS
 62
     0
 48
50.0
100
AcDbPoint
 10
6534.673057123663
 20
9935.713332462293
 30
0.0
  0
POINT
  5
1A413
330
166CF
100
AcDbEntity
  8
DEFPOINTS
 62
     0
 48
50.0
100
AcDbPoint
 10
6424.673057123664
 20
9935.713332462292
 30
0.0
  0
POINT
  5
1A414
330
166CF
100
AcDbEntity
  8
DEFPOINTS
 62
     0
 48
50.0
100
AcDbPoint
 10
6424.673057123664
 20
10151.52155208734
 30
0.0
  0
ENDBLK
  5
166DC
330
166CF
100
AcDbEntity
  8
0
 48
50.0
100
AcDbBlockEnd
  0
BLOCK
  5
1726C
330
16908
100
AcDbEntity
  8
0
 48
50.0
100
AcDbBlockBegin
  2
*D18
 70
     1
 10
0.0
 20
0.0
 30
0.0
  3
*D18
  1

  0
LINE
  5
1A402
330
16908
100
AcDbEntity
  8
寸法
 62
     0
 48
50.0
370
    -2
100
AcDbLine
 10
7849.673057123664
 20
9955.713332462339
 30
0.0
 11
7849.673057123664
 21
10460.84302564364
 31
0.0
  0
LINE
  5
1A403
330
16908
100
AcDbEntity
  8
寸法
 62
     0
 48
50.0
370
    -2
100
AcDbLine
 10
6479.673057123664
 20
10400.84302564364
 30
0.0
 11
7849.673057123664
 21
10400.84302564364
 31
0.0
  0
INSERT
  5
1A404
330
16908
100
AcDbEntity
  8
寸法
 62
     0
 48
50.0
370
    -2
100
AcDbBlockReference
  2
_DOTSMALL
 10
6479.673057123664
 20
10400.84302564364
 30
0.0
 41
100.0
 42
100.0
 43
100.0
 50
180.0
  0
INSERT
  5
1A405
330
16908
100
AcDbEntity
  8
寸法
 62
     0
 48
50.0
370
    -2
100
AcDbBlockReference
  2
_DOTSMALL
 10
7849.673057123664
 20
10400.84302564364
 30
0.0
 41
100.0
 42
100.0
 43
100.0
  0
MTEXT
  5
1A406
330
16908
100
AcDbEntity
  8
寸法
 62
     7
 48
50.0
100
AcDbMText
 10
7164.673057123664
 20
10500.84302564364
 30
0.0
 40
120.0
 41
0.0
 71
     5
 72
     1
  1
\A1;1370
  7
STYLE1
 73
     1
 44
1.0
1001
ACAD
1000
MTEXTBEGIN
1070
    73
1070
     1
1070
    44
1040
1.0
1070
    74
1070
     0
1000
MTEXTEND
  0
POINT
  5
1A407
330
16908
100
AcDbEntity
  8
DEFPOINTS
 62
     0
 48
50.0
100
AcDbPoint
 10
6479.673057123664
 20
10310.50946644529
 30
0.0
  0
POINT
  5
1A408
330
16908
100
AcDbEntity
  8
DEFPOINTS
 62
     0
 48
50.0
100
AcDbPoint
 10
7849.673057123664
 20
9935.71333246234
 30
0.0
  0
POINT
  5
1A409
330
16908
100
AcDbEntity
  8
DEFPOINTS
 62
     0
 48
50.0
100
AcDbPoint
 10
7849.673057123664
 20
10400.84302564364
 30
0.0
  0
ENDBLK
  5
17275
330
16908
100
AcDbEntity
  8
0
 48
50.0
100
AcDbBlockEnd
  0
BLOCK
  5
17BD1
330
17BC5
100
AcDbEntity
  8
0
 48
50.0
100
AcDbBlockBegin
  2
*D19
 70
     1
 10
0.0
 20
0.0
 30
0.0
  3
*D19
  1

  0
LINE
  5
1A3D2
330
17BC5
100
AcDbEntity
  8
寸法
 62
     0
 48
50.0
370
    -2
100
AcDbLine
 10
5054.67305712364
 20
7285.713332462329
 30
0.0
 11
5054.67305712364
 21
6711.282561696076
 31
0.0
  0
LINE
  5
1A3D3
330
17BC5
100
AcDbEntity
  8
寸法
 62
     0
 48
50.0
370
    -2
100
AcDbLine
 10
5006.673057123638
 20
7311.713332462241
 30
0.0
 11
5006.673057123638
 21
6711.282561696076
 31
0.0
  0
LINE
  5
1A3D4
330
17BC5
100
AcDbEntity
  8
寸法
 62
     0
 48
50.0
370
    -2
100
AcDbLine
 10
5054.67305712364
 20
6771.282561696077
 30
0.0
 11
5154.67305712364
 21
6771.282561696077
 31
0.0
  0
LINE
  5
1A3D5
330
17BC5
100
AcDbEntity
  8
寸法
 62
     0
 48
50.0
370
    -2
100
AcDbLine
 10
5006.673057123638
 20
6771.282561696077
 30
0.0
 11
4906.673057123638
 21
6771.282561696077
 31
0.0
  0
MTEXT
  5
1A3D6
330
17BC5
100
AcDbEntity
  8
寸法
 62
     7
 48
50.0
100
AcDbMText
 10
4895.710159474891
 20
6871.282561696077
 30
0.0
 40
120.0
 41
0.0
 71
     5
 72
     1
  1
\A1;48
  7
STYLE1
 73
     1
 44
1.0
1001
ACAD
1000
MTEXTBEGIN
1070
    73
1070
     1
1070
    44
1040
1.0
1070
    74
1070
     0
1000
MTEXTEND
  0
LINE
  5
1A3D7
330
17BC5
100
AcDbEntity
  8
寸法
 62
     0
 48
50.0
370
    -2
100
AcDbLine
 10
5054.67305712364
 20
6771.282561696077
 30
0.0
 11
5006.673057123638
 21
6771.282561696077
 31
0.0
  0
INSERT
  5
1A3D8
330
17BC5
100
AcDbEntity
  8
寸法
 62
     0
 48
50.0
370
    -2
100
AcDbBlockReference
  2
_DOTSMALL
 10
5054.67305712364
 20
6771.282561696077
 30
0.0
 41
100.0
 42
100.0
 43
100.0
 50
180.0
  0
INSERT
  5
1A3D9
330
17BC5
100
AcDbEntity
  8
寸法
 62
     0
 48
50.0
370
    -2
100
AcDbBlockReference
  2
_DOTSMALL
 10
5006.673057123638
 20
6771.282561696077
 30
0.0
 41
100.0
 42
100.0
 43
100.0
  0
POINT
  5
1A3DA
330
17BC5
100
AcDbEntity
  8
DEFPOINTS
 62
     0
 48
50.0
100
AcDbPoint
 10
5054.67305712364
 20
7305.713332462328
 30
0.0
  0
POINT
  5
1A3DB
330
17BC5
100
AcDbEntity
  8
DEFPOINTS
 62
     0
 48
50.0
100
AcDbPoint
 10
5006.673057123638
 20
7331.713332462242
 30
0.0
  0
POINT
  5
1A3DC
330
17BC5
100
AcDbEntity
  8
DEFPOINTS
 62
     0
 48
50.0
100
AcDbPoint
 10
5006.673057123638
 20
6771.282561696077
 30
0.0
  0
ENDBLK
  5
17BD2
330
17BC5
100
AcDbEntity
  8
0
 48
50.0
100
AcDbBlockEnd
  0
BLOCK
  5
17BDC
330
17BD3
100
AcDbEntity
  8
0
 48
50.0
100
AcDbBlockBegin
  2
*D20
 70
     1
 10
0.0
 20
0.0
 30
0.0
  3
*D20
  1

  0
LINE
  5
1A3DD
330
17BD3
100
AcDbEntity
  8
寸法
 62
     0
 48
50.0
370
    -2
100
AcDbLine
 10
3842.673057123657
 20
7311.71333246224
 30
0.0
 11
3842.673057123657
 21
6711.282561696076
 31
0.0
  0
LINE
  5
1A3DE
330
17BD3
100
AcDbEntity
  8
寸法
 62
     0
 48
50.0
370
    -2
100
AcDbLine
 10
5006.673057123638
 20
6771.282561696077
 30
0.0
 11
3842.673057123657
 21
6771.282561696077
 31
0.0
  0
INSERT
  5
1A3DF
330
17BD3
100
AcDbEntity
  8
寸法
 62
     0
 48
50.0
370
    -2
100
AcDbBlockReference
  2
_DOTSMALL
 10
5006.673057123638
 20
6771.282561696077
 30
0.0
 41
100.0
 42
100.0
 43
100.0
  0
INSERT
  5
1A3E0
330
17BD3
100
AcDbEntity
  8
寸法
 62
     0
 48
50.0
370
    -2
100
AcDbBlockReference
  2
_DOTSMALL
 10
3842.673057123657
 20
6771.282561696077
 30
0.0
 41
100.0
 42
100.0
 43
100.0
 50
180.0
  0
MTEXT
  5
1A3E1
330
17BD3
100
AcDbEntity
  8
寸法
 62
     7
 48
50.0
100
AcDbMText
 10
4424.673057123647
 20
6971.282561696077
 30
0.0
 40
120.0
 41
0.0
 71
     5
 72
     1
  1
\A1;有効開口部間口\P 1164
  7
STYLE1
 73
     1
 44
1.0
1001
ACAD
1000
MTEXTBEGIN
1070
    73
1070
     1
1070
    44
1040
1.0
1070
    74
1070
     0
1000
MTEXTEND
  0
POINT
  5
1A3E2
330
17BD3
100
AcDbEntity
  8
DEFPOINTS
 62
     0
 48
50.0
100
AcDbPoint
 10
5006.673057123638
 20
7331.713332462242
 30
0.0
  0
POINT
  5
1A3E3
330
17BD3
100
AcDbEntity
  8
DEFPOINTS
 62
     0
 48
50.0
100
AcDbPoint
 10
3842.673057123657
 20
7331.71333246224
 30
0.0
  0
POINT
  5
1A3E4
330
17BD3
100
AcDbEntity
  8
DEFPOINTS
 62
     0
 48
50.0
100
AcDbPoint
 10
3842.673057123657
 20
6771.282561696077
 30
0.0
  0
ENDBLK
  5
17BDD
330
17BD3
100
AcDbEntity
  8
0
 48
50.0
100
AcDbBlockEnd
  0
BLOCK
  5
17BE8
330
17BDE
100
AcDbEntity
  8
0
 48
50.0
100
AcDbBlockBegin
  2
*D21
 70
     1
 10
0.0
 20
0.0
 30
0.0
  3
*D21
  1

  0
LINE
  5
1A3F0
330
17BDE
100
AcDbEntity
  8
寸法
 62
     0
 48
50.0
370
    -2
100
AcDbLine
 10
3794.673057123663
 20
9955.713332462245
 30
0.0
 11
3794.673057123663
 21
10211.52155208734
 31
0.0
  0
LINE
  5
1A3F1
330
17BDE
100
AcDbEntity
  8
寸法
 62
     0
 48
50.0
370
    -2
100
AcDbLine
 10
5054.673057123665
 20
9955.713332462339
 30
0.0
 11
5054.673057123665
 21
10211.52155208734
 31
0.0
  0
LINE
  5
1A3F2
330
17BDE
100
AcDbEntity
  8
寸法
 62
     0
 48
50.0
370
    -2
100
AcDbLine
 10
3794.673057123663
 20
10151.52155208734
 30
0.0
 11
5054.673057123665
 21
10151.52155208734
 31
0.0
  0
INSERT
  5
1A3F3
330
17BDE
100
AcDbEntity
  8
寸法
 62
     0
 48
50.0
370
    -2
100
AcDbBlockReference
  2
_DOTSMALL
 10
3794.673057123663
 20
10151.52155208734
 30
0.0
 41
100.0
 42
100.0
 43
100.0
 50
180.0
  0
INSERT
  5
1A3F4
330
17BDE
100
AcDbEntity
  8
寸法
 62
     0
 48
50.0
370
    -2
100
AcDbBlockReference
  2
_DOTSMALL
 10
5054.673057123665
 20
10151.52155208734
 30
0.0
 41
100.0
 42
100.0
 43
100.0
  0
MTEXT
  5
1A3F5
330
17BDE
100
AcDbEntity
  8
寸法
 62
     7
 48
50.0
100
AcDbMText
 10
4424.673057123664
 20
10251.53336311096
 30
0.0
 40
120.0
 41
0.0
 71
     5
 72
     1
  1
\A1;3X420=1260
  7
STYLE1
 73
     1
 44
1.0
1001
ACAD
1000
MTEXTBEGIN
1070
    73
1070
     1
1070
    44
1040
1.0
1070
    74
1070
     0
1000
MTEXTEND
  0
POINT
  5
1A3F6
330
17BDE
100
AcDbEntity
  8
DEFPOINTS
 62
     0
 48
50.0
100
AcDbPoint
 10
3794.673057123663
 20
9935.713332462245
 30
0.0
  0
POINT
  5
1A3F7
330
17BDE
100
AcDbEntity
  8
DEFPOINTS
 62
     0
 48
50.0
100
AcDbPoint
 10
5054.673057123665
 20
9935.71333246234
 30
0.0
  0
POINT
  5
1A3F8
330
17BDE
100
AcDbEntity
  8
DEFPOINTS
 62
     0
 48
50.0
100
AcDbPoint
 10
5054.673057123665
 20
10151.52155208734
 30
0.0
  0
ENDBLK
  5
17BE9
330
17BDE
100
AcDbEntity
  8
0
 48
50.0
100
AcDbBlockEnd
  0
BLOCK
  5
17BF6
330
17BEA
100
AcDbEntity
  8
0
 48
50.0
100
AcDbBlockBegin
  2
*D22
 70
     1
 10
0.0
 20
0.0
 30
0.0
  3
*D22
  1

  0
LINE
  5
1A3E5
330
17BEA
100
AcDbEntity
  8
寸法
 62
     0
 48
50.0
370
    -2
100
AcDbLine
 10
5164.673057123663
 20
9955.713332462295
 30
0.0
 11
5164.673057123663
 21
10211.52155208734
 31
0.0
  0
LINE
  5
1A3E6
330
17BEA
100
AcDbEntity
  8
寸法
 62
     0
 48
50.0
370
    -2
100
AcDbLine
 10
5054.673057123665
 20
9955.713332462289
 30
0.0
 11
5054.673057123665
 21
10211.52155208734
 31
0.0
  0
LINE
  5
1A3E7
330
17BEA
100
AcDbEntity
  8
寸法
 62
     0
 48
50.0
370
    -2
100
AcDbLine
 10
5164.673057123663
 20
10151.52155208734
 30
0.0
 11
5264.673057123663
 21
10151.52155208734
 31
0.0
  0
LINE
  5
1A3E8
330
17BEA
100
AcDbEntity
  8
寸法
 62
     0
 48
50.0
370
    -2
100
AcDbLine
 10
5054.673057123665
 20
10151.52155208734
 30
0.0
 11
4954.673057123664
 21
10151.52155208734
 31
0.0
  0
LINE
  5
1A3E9
330
17BEA
100
AcDbEntity
  8
寸法
 62
     0
 48
50.0
370
    -2
100
AcDbLine
 10
5164.673057123663
 20
10151.52155208734
 30
0.0
 11
5054.673057123665
 21
10151.52155208734
 31
0.0
  0
INSERT
  5
1A3EA
330
17BEA
100
AcDbEntity
  8
寸法
 62
     0
 48
50.0
370
    -2
100
AcDbBlockReference
  2
_DOTSMALL
 10
5164.673057123663
 20
10151.52155208734
 30
0.0
 41
100.0
 42
100.0
 43
100.0
 50
180.0
  0
INSERT
  5
1A3EB
330
17BEA
100
AcDbEntity
  8
寸法
 62
     0
 48
50.0
370
    -2
100
AcDbBlockReference
  2
_DOTSMALL
 10
5054.673057123665
 20
10151.52155208734
 30
0.0
 41
100.0
 42
100.0
 43
100.0
  0
MTEXT
  5
1A3EC
330
17BEA
100
AcDbEntity
  8
寸法
 62
     7
 48
50.0
100
AcDbMText
 10
5109.673057123664
 20
10251.52155208734
 30
0.0
 40
120.0
 41
0.0
 71
     5
 72
     1
  1
\A1;110
  7
STYLE1
 73
     1
 44
1.0
1001
ACAD
1000
MTEXTBEGIN
1070
    73
1070
     1
1070
    44
1040
1.0
1070
    74
1070
     0
1000
MTEXTEND
  0
POINT
  5
1A3ED
330
17BEA
100
AcDbEntity
  8
DEFPOINTS
 62
     0
 48
50.0
100
AcDbPoint
 10
5164.673057123663
 20
9935.713332462293
 30
0.0
  0
POINT
  5
1A3EE
330
17BEA
100
AcDbEntity
  8
DEFPOINTS
 62
     0
 48
50.0
100
AcDbPoint
 10
5054.673057123665
 20
9935.713332462292
 30
0.0
  0
POINT
  5
1A3EF
330
17BEA
100
AcDbEntity
  8
DEFPOINTS
 62
     0
 48
50.0
100
AcDbPoint
 10
5054.673057123665
 20
10151.52155208734
 30
0.0
  0
ENDBLK
  5
17BF7
330
17BEA
100
AcDbEntity
  8
0
 48
50.0
100
AcDbBlockEnd
  0
BLOCK
  5
17C02
330
17BF8
100
AcDbEntity
  8
0
 48
50.0
100
AcDbBlockBegin
  2
*D23
 70
     1
 10
0.0
 20
0.0
 30
0.0
  3
*D23
  1

  0
LINE
  5
1A3F9
330
17BF8
100
AcDbEntity
  8
寸法
 62
     0
 48
50.0
370
    -2
100
AcDbLine
 10
3739.673057123628
 20
9955.713332462211
 30
0.0
 11
3739.673057123628
 21
10460.84302564364
 31
0.0
  0
LINE
  5
1A3FA
330
17BF8
100
AcDbEntity
  8
寸法
 62
     0
 48
50.0
370
    -2
100
AcDbLine
 10
5109.673057123664
 20
10330.50946644529
 30
0.0
 11
5109.673057123664
 21
10460.84302564364
 31
0.0
  0
LINE
  5
1A3FB
330
17BF8
100
AcDbEntity
  8
寸法
 62
     0
 48
50.0
370
    -2
100
AcDbLine
 10
3739.673057123628
 20
10400.84302564364
 30
0.0
 11
5109.673057123664
 21
10400.84302564364
 31
0.0
  0
INSERT
  5
1A3FC
330
17BF8
100
AcDbEntity
  8
寸法
 62
     0
 48
50.0
370
    -2
100
AcDbBlockReference
  2
_DOTSMALL
 10
3739.673057123628
 20
10400.84302564364
 30
0.0
 41
100.0
 42
100.0
 43
100.0
 50
180.0
  0
INSERT
  5
1A3FD
330
17BF8
100
AcDbEntity
  8
寸法
 62
     0
 48
50.0
370
    -2
100
AcDbBlockReference
  2
_DOTSMALL
 10
5109.673057123664
 20
10400.84302564364
 30
0.0
 41
100.0
 42
100.0
 43
100.0
  0
MTEXT
  5
1A3FE
330
17BF8
100
AcDbEntity
  8
寸法
 62
     7
 48
50.0
100
AcDbMText
 10
4424.673057123646
 20
10500.84302564364
 30
0.0
 40
120.0
 41
0.0
 71
     5
 72
     1
  1
\A1;1370
  7
STYLE1
 73
     1
 44
1.0
1001
ACAD
1000
MTEXTBEGIN
1070
    73
1070
     1
1070
    44
1040
1.0
1070
    74
1070
     0
1000
MTEXTEND
  0
POINT
  5
1A3FF
330
17BF8
100
AcDbEntity
  8
DEFPOINTS
 62
     0
 48
50.0
100
AcDbPoint
 10
3739.673057123628
 20
9935.713332462213
 30
0.0
  0
POINT
  5
1A400
330
17BF8
100
AcDbEntity
  8
DEFPOINTS
 62
     0
 48
50.0
100
AcDbPoint
 10
5109.673057123664
 20
10310.50946644529
 30
0.0
  0
POINT
  5
1A401
330
17BF8
100
AcDbEntity
  8
DEFPOINTS
 62
     0
 48
50.0
100
AcDbPoint
 10
5109.673057123664
 20
10400.84302564364
 30
0.0
  0
ENDBLK
  5
17C03
330
17BF8
100
AcDbEntity
  8
0
 48
50.0
100
AcDbBlockEnd
  0
BLOCK
  5
17C54
330
17C48
100
AcDbEntity
  8
0
 48
50.0
100
AcDbBlockBegin
  2
*D24
 70
     1
 10
0.0
 20
0.0
 30
0.0
  3
*D24
  1

  0
LINE
  5
1A3BE
330
17C48
100
AcDbEntity
  8
寸法
 62
     0
 48
50.0
370
    -2
100
AcDbLine
 10
5212.673057123657
 20
7311.71333246224
 30
0.0
 11
5212.673057123657
 21
6711.282561696076
 31
0.0
  0
LINE
  5
1A3BF
330
17C48
100
AcDbEntity
  8
寸法
 62
     0
 48
50.0
370
    -2
100
AcDbLine
 10
5164.673057123653
 20
7285.71333246224
 30
0.0
 11
5164.673057123653
 21
6711.282561696076
 31
0.0
  0
LINE
  5
1A3C0
330
17C48
100
AcDbEntity
  8
寸法
 62
     0
 48
50.0
370
    -2
100
AcDbLine
 10
5212.673057123657
 20
6771.282561696077
 30
0.0
 11
5312.673057123657
 21
6771.282561696077
 31
0.0
  0
LINE
  5
1A3C1
330
17C48
100
AcDbEntity
  8
寸法
 62
     0
 48
50.0
370
    -2
100
AcDbLine
 10
5164.673057123653
 20
6771.282561696077
 30
0.0
 11
5064.673057123653
 21
6771.282561696077
 31
0.0
  0
MTEXT
  5
1A3C2
330
17C48
100
AcDbEntity
  8
寸法
 62
     7
 48
50.0
100
AcDbMText
 10
5325.575028123714
 20
6871.282561696077
 30
0.0
 40
120.0
 41
0.0
 71
     5
 72
     1
  1
\A1;48
  7
STYLE1
 73
     1
 44
1.0
1001
ACAD
1000
MTEXTBEGIN
1070
    73
1070
     1
1070
    44
1040
1.0
1070
    74
1070
     0
1000
MTEXTEND
  0
LINE
  5
1A3C3
330
17C48
100
AcDbEntity
  8
寸法
 62
     0
 48
50.0
370
    -2
100
AcDbLine
 10
5212.673057123657
 20
6771.282561696077
 30
0.0
 11
5164.673057123653
 21
6771.282561696077
 31
0.0
  0
INSERT
  5
1A3C4
330
17C48
100
AcDbEntity
  8
寸法
 62
     0
 48
50.0
370
    -2
100
AcDbBlockReference
  2
_DOTSMALL
 10
5212.673057123657
 20
6771.282561696077
 30
0.0
 41
100.0
 42
100.0
 43
100.0
 50
180.0
  0
INSERT
  5
1A3C5
330
17C48
100
AcDbEntity
  8
寸法
 62
     0
 48
50.0
370
    -2
100
AcDbBlockReference
  2
_DOTSMALL
 10
5164.673057123653
 20
6771.282561696077
 30
0.0
 41
100.0
 42
100.0
 43
100.0
  0
POINT
  5
1A3C6
330
17C48
100
AcDbEntity
  8
DEFPOINTS
 62
     0
 48
50.0
100
AcDbPoint
 10
5212.673057123657
 20
7331.71333246224
 30
0.0
  0
POINT
  5
1A3C7
330
17C48
100
AcDbEntity
  8
DEFPOINTS
 62
     0
 48
50.0
100
AcDbPoint
 10
5164.673057123653
 20
7305.713332462239
 30
0.0
  0
POINT
  5
1A3C8
330
17C48
100
AcDbEntity
  8
DEFPOINTS
 62
     0
 48
50.0
100
AcDbPoint
 10
5164.673057123653
 20
6771.282561696077
 30
0.0
  0
ENDBLK
  5
17C55
330
17C48
100
AcDbEntity
  8
0
 48
50.0
100
AcDbBlockEnd
  0
BLOCK
  5
17C60
330
17C56
100
AcDbEntity
  8
0
 48
50.0
100
AcDbBlockBegin
  2
*D25
 70
     1
 10
0.0
 20
0.0
 30
0.0
  3
*D25
  1

  0
LINE
  5
1A3C9
330
17C56
100
AcDbEntity
  8
寸法
 62
     0
 48
50.0
370
    -2
100
AcDbLine
 10
5164.673057123653
 20
7285.71333246224
 30
0.0
 11
5164.673057123653
 21
6711.282561696077
 31
0.0
  0
LINE
  5
1A3CA
330
17C56
100
AcDbEntity
  8
寸法
 62
     0
 48
50.0
370
    -2
100
AcDbLine
 10
5054.67305712364
 20
7285.713332462329
 30
0.0
 11
5054.67305712364
 21
6711.282561696077
 31
0.0
  0
LINE
  5
1A3CB
330
17C56
100
AcDbEntity
  8
寸法
 62
     0
 48
50.0
370
    -2
100
AcDbLine
 10
5164.673057123653
 20
6771.282561696077
 30
0.0
 11
5054.67305712364
 21
6771.282561696077
 31
0.0
  0
MTEXT
  5
1A3CC
330
17C56
100
AcDbEntity
  8
寸法
 62
     7
 48
50.0
100
AcDbMText
 10
5109.673057123647
 20
6619.590666659846
 30
0.0
 40
120.0
 41
0.0
 71
     5
 72
     1
  1
\A1;110
  7
STYLE1
 73
     1
 44
1.0
1001
ACAD
1000
MTEXTBEGIN
1070
    73
1070
     1
1070
    44
1040
1.0
1070
    74
1070
     0
1000
MTEXTEND
  0
INSERT
  5
1A3CD
330
17C56
100
AcDbEntity
  8
寸法
 62
     0
 48
50.0
370
    -2
100
AcDbBlockReference
  2
_DOTSMALL
 10
5164.673057123653
 20
6771.282561696077
 30
0.0
 41
100.0
 42
100.0
 43
100.0
  0
INSERT
  5
1A3CE
330
17C56
100
AcDbEntity
  8
寸法
 62
     0
 48
50.0
370
    -2
100
AcDbBlockReference
  2
_DOTSMALL
 10
5054.67305712364
 20
6771.282561696077
 30
0.0
 41
100.0
 42
100.0
 43
100.0
 50
180.0
  0
POINT
  5
1A3CF
330
17C56
100
AcDbEntity
  8
DEFPOINTS
 62
     0
 48
50.0
100
AcDbPoint
 10
5164.673057123653
 20
7305.713332462239
 30
0.0
  0
POINT
  5
1A3D0
330
17C56
100
AcDbEntity
  8
DEFPOINTS
 62
     0
 48
50.0
100
AcDbPoint
 10
5054.67305712364
 20
7305.713332462328
 30
0.0
  0
POINT
  5
1A3D1
330
17C56
100
AcDbEntity
  8
DEFPOINTS
 62
     0
 48
50.0
100
AcDbPoint
 10
5054.67305712364
 20
6771.282561696077
 30
0.0
  0
ENDBLK
  5
17C61
330
17C56
100
AcDbEntity
  8
0
 48
50.0
100
AcDbBlockEnd
  0
BLOCK
  5
19623
330
19619
100
AcDbEntity
  8
0
 48
50.0
100
AcDbBlockBegin
  2
*D26
 70
     1
 10
0.0
 20
0.0
 30
0.0
  3
*D26
  1

  0
LINE
  5
1A3B5
330
19619
100
AcDbEntity
  8
寸法
 62
     0
 48
50.0
370
    -2
100
AcDbLine
 10
10603.39024747387
 20
4426.623237776067
 30
0.0
 11
9719.640118290611
 21
4426.623237776068
 31
0.0
  0
LINE
  5
1A3B6
330
19619
100
AcDbEntity
  8
寸法
 62
     0
 48
50.0
370
    -2
100
AcDbLine
 10
10603.39024747387
 20
2336.623237776066
 30
0.0
 11
9719.640118290609
 21
2336.623237776066
 31
0.0
  0
LINE
  5
1A3B7
330
19619
100
AcDbEntity
  8
寸法
 62
     0
 48
50.0
370
    -2
100
AcDbLine
 10
9779.640118290611
 20
4426.623237776068
 30
0.0
 11
9779.640118290608
 21
2336.623237776066
 31
0.0
  0
INSERT
  5
1A3B8
330
19619
100
AcDbEntity
  8
寸法
 62
     0
 48
50.0
370
    -2
100
AcDbBlockReference
  2
_DOTSMALL
 10
9779.640118290611
 20
4426.623237776068
 30
0.0
 41
100.0
 42
100.0
 43
100.0
 50
90.0
  0
INSERT
  5
1A3B9
330
19619
100
AcDbEntity
  8
寸法
 62
     0
 48
50.0
370
    -2
100
AcDbBlockReference
  2
_DOTSMALL
 10
9779.640118290608
 20
2336.623237776066
 30
0.0
 41
100.0
 42
100.0
 43
100.0
 50
270.0
  0
MTEXT
  5
1A3BA
330
19619
100
AcDbEntity
  8
寸法
 62
     7
 48
50.0
100
AcDbMText
 10
9679.628307266987
 20
3381.623237776068
 30
0.0
 40
120.0
 41
0.0
 71
     5
 72
     1
  1
\A1;2090
  7
STYLE1
 11
0.0000000000000001
 21
1.0
 31
0.0
 73
     1
 44
1.0
1001
ACAD
1000
MTEXTBEGIN
1070
    73
1070
     1
1070
    44
1040
1.0
1070
    74
1070
     0
1000
MTEXTEND
  0
POINT
  5
1A3BB
330
19619
100
AcDbEntity
  8
DEFPOINTS
 62
     0
 48
50.0
100
AcDbPoint
 10
10623.39024747387
 20
4426.623237776067
 30
0.0
  0
POINT
  5
1A3BC
330
19619
100
AcDbEntity
  8
DEFPOINTS
 62
     0
 48
50.0
100
AcDbPoint
 10
10623.39024747387
 20
2336.623237776066
 30
0.0
  0
POINT
  5
1A3BD
330
19619
100
AcDbEntity
  8
DEFPOINTS
 62
     0
 48
50.0
100
AcDbPoint
 10
9779.640118290608
 20
2336.623237776066
 30
0.0
  0
ENDBLK
  5
19624
330
19619
100
AcDbEntity
  8
0
 48
50.0
100
AcDbBlockEnd
  0
BLOCK
  5
1962F
330
19625
100
AcDbEntity
  8
0
 48
50.0
100
AcDbBlockBegin
  2
*D27
 70
     1
 10
0.0
 20
0.0
 30
0.0
  3
*D27
  1

  0
LINE
  5
1A3AC
330
19625
100
AcDbEntity
  8
寸法
 62
     0
 48
50.0
370
    -2
100
AcDbLine
 10
10603.39024747387
 20
2286.623237776066
 30
0.0
 11
9419.640118290606
 21
2286.623237776066
 31
0.0
  0
LINE
  5
1A3AD
330
19625
100
AcDbEntity
  8
寸法
 62
     0
 48
50.0
370
    -2
100
AcDbLine
 10
10543.39024747387
 20
4661.623237776071
 30
0.0
 11
9419.640118290608
 21
4661.623237776072
 31
0.0
  0
LINE
  5
1A3AE
330
19625
100
AcDbEntity
  8
寸法
 62
     0
 48
50.0
370
    -2
100
AcDbLine
 10
9479.640118290607
 20
2286.623237776066
 30
0.0
 11
9479.640118290609
 21
4661.623237776072
 31
0.0
  0
INSERT
  5
1A3AF
330
19625
100
AcDbEntity
  8
寸法
 62
     0
 48
50.0
370
    -2
100
AcDbBlockReference
  2
_DOTSMALL
 10
9479.640118290607
 20
2286.623237776066
 30
0.0
 41
100.0
 42
100.0
 43
100.0
 50
270.0
  0
INSERT
  5
1A3B0
330
19625
100
AcDbEntity
  8
寸法
 62
     0
 48
50.0
370
    -2
100
AcDbBlockReference
  2
_DOTSMALL
 10
9479.640118290609
 20
4661.623237776072
 30
0.0
 41
100.0
 42
100.0
 43
100.0
 50
90.0
  0
MTEXT
  5
1A3B1
330
19625
100
AcDbEntity
  8
寸法
 62
     7
 48
50.0
100
AcDbMText
 10
9379.628307266985
 20
3474.12323777607
 30
0.0
 40
120.0
 41
0.0
 71
     5
 72
     1
  1
\A1;2375
  7
STYLE1
 11
0.0000000000000001
 21
1.0
 31
0.0
 73
     1
 44
1.0
1001
ACAD
1000
MTEXTBEGIN
1070
    73
1070
     1
1070
    44
1040
1.0
1070
    74
1070
     0
1000
MTEXTEND
  0
POINT
  5
1A3B2
330
19625
100
AcDbEntity
  8
DEFPOINTS
 62
     0
 48
50.0
100
AcDbPoint
 10
10623.39024747387
 20
2286.623237776066
 30
0.0
  0
POINT
  5
1A3B3
330
19625
100
AcDbEntity
  8
DEFPOINTS
 62
     0
 48
50.0
100
AcDbPoint
 10
10563.39024747387
 20
4661.623237776071
 30
0.0
  0
POINT
  5
1A3B4
330
19625
100
AcDbEntity
  8
DEFPOINTS
 62
     0
 48
50.0
100
AcDbPoint
 10
9479.640118290609
 20
4661.623237776072
 30
0.0
  0
ENDBLK
  5
19630
330
19625
100
AcDbEntity
  8
0
 48
50.0
100
AcDbBlockEnd
  0
BLOCK
  5
1963B
330
19631
100
AcDbEntity
  8
0
 48
50.0
100
AcDbBlockBegin
  2
*D28
 70
     1
 10
0.0
 20
0.0
 30
0.0
  3
*D28
  1

  0
LINE
  5
1A3A3
330
19631
100
AcDbEntity
  8
寸法
 62
     0
 48
50.0
370
    -2
100
AcDbLine
 10
13273.39024747387
 20
2286.623237776074
 30
0.0
 11
14018.317405446
 21
2286.623237776073
 31
0.0
  0
LINE
  5
1A3A4
330
19631
100
AcDbEntity
  8
寸法
 62
     0
 48
50.0
370
    -2
100
AcDbLine
 10
13353.39024747387
 20
4606.623237776074
 30
0.0
 11
14018.317405446
 21
4606.623237776074
 31
0.0
  0
LINE
  5
1A3A5
330
19631
100
AcDbEntity
  8
寸法
 62
     0
 48
50.0
370
    -2
100
AcDbLine
 10
13958.317405446
 20
2286.623237776073
 30
0.0
 11
13958.317405446
 21
4606.623237776074
 31
0.0
  0
INSERT
  5
1A3A6
330
19631
100
AcDbEntity
  8
寸法
 62
     0
 48
50.0
370
    -2
100
AcDbBlockReference
  2
_DOTSMALL
 10
13958.317405446
 20
2286.623237776073
 30
0.0
 41
100.0
 42
100.0
 43
100.0
 50
270.0
  0
INSERT
  5
1A3A7
330
19631
100
AcDbEntity
  8
寸法
 62
     0
 48
50.0
370
    -2
100
AcDbBlockReference
  2
_DOTSMALL
 10
13958.317405446
 20
4606.623237776074
 30
0.0
 41
100.0
 42
100.0
 43
100.0
 50
90.0
  0
MTEXT
  5
1A3A8
330
19631
100
AcDbEntity
  8
寸法
 62
     7
 48
50.0
100
AcDbMText
 10
13858.30559442237
 20
3446.623237776076
 30
0.0
 40
120.0
 41
0.0
 71
     5
 72
     1
  1
\A1;2320
  7
STYLE1
 11
0.0000000000000001
 21
1.0
 31
0.0
 73
     1
 44
1.0
1001
ACAD
1000
MTEXTBEGIN
1070
    73
1070
     1
1070
    44
1040
1.0
1070
    74
1070
     0
1000
MTEXTEND
  0
POINT
  5
1A3A9
330
19631
100
AcDbEntity
  8
DEFPOINTS
 62
     0
 48
50.0
100
AcDbPoint
 10
13253.39024747387
 20
2286.623237776074
 30
0.0
  0
POINT
  5
1A3AA
330
19631
100
AcDbEntity
  8
DEFPOINTS
 62
     0
 48
50.0
100
AcDbPoint
 10
13333.39024747387
 20
4606.623237776074
 30
0.0
  0
POINT
  5
1A3AB
330
19631
100
AcDbEntity
  8
DEFPOINTS
 62
     0
 48
50.0
100
AcDbPoint
 10
13958.317405446
 20
4606.623237776074
 30
0.0
  0
ENDBLK
  5
1963C
330
19631
100
AcDbEntity
  8
0
 48
50.0
100
AcDbBlockEnd
  0
BLOCK
  5
19649
330
1963D
100
AcDbEntity
  8
0
 48
50.0
100
AcDbBlockBegin
  2
*D29
 70
     1
 10
0.0
 20
0.0
 30
0.0
  3
*D29
  1

  0
LINE
  5
1A398
330
1963D
100
AcDbEntity
  8
寸法
 62
     0
 48
50.0
370
    -2
100
AcDbLine
 10
10603.39024747387
 20
2336.623237776072
 30
0.0
 11
9719.640118290609
 21
2336.623237776072
 31
0.0
  0
LINE
  5
1A399
330
1963D
100
AcDbEntity
  8
寸法
 62
     0
 48
50.0
370
    -2
100
AcDbLine
 10
10548.39024747387
 20
2286.623237776072
 30
0.0
 11
9719.640118290609
 21
2286.623237776072
 31
0.0
  0
LINE
  5
1A39A
330
1963D
100
AcDbEntity
  8
寸法
 62
     0
 48
50.0
370
    -2
100
AcDbLine
 10
9779.640118290608
 20
2336.623237776072
 30
0.0
 11
9779.640118290608
 21
2436.623237776072
 31
0.0
  0
LINE
  5
1A39B
330
1963D
100
AcDbEntity
  8
寸法
 62
     0
 48
50.0
370
    -2
100
AcDbLine
 10
9779.640118290608
 20
2286.623237776072
 30
0.0
 11
9779.640118290608
 21
1874.528749587091
 31
0.0
  0
LINE
  5
1A39C
330
1963D
100
AcDbEntity
  8
寸法
 62
     0
 48
50.0
370
    -2
100
AcDbLine
 10
9779.640118290608
 20
2336.623237776072
 30
0.0
 11
9779.640118290608
 21
2286.623237776072
 31
0.0
  0
INSERT
  5
1A39D
330
1963D
100
AcDbEntity
  8
寸法
 62
     0
 48
50.0
370
    -2
100
AcDbBlockReference
  2
_DOTSMALL
 10
9779.640118290608
 20
2336.623237776072
 30
0.0
 41
100.0
 42
100.0
 43
100.0
 50
270.0
  0
INSERT
  5
1A39E
330
1963D
100
AcDbEntity
  8
寸法
 62
     0
 48
50.0
370
    -2
100
AcDbBlockReference
  2
_DOTSMALL
 10
9779.640118290608
 20
2286.623237776072
 30
0.0
 41
100.0
 42
100.0
 43
100.0
 50
90.0
  0
MTEXT
  5
1A39F
330
1963D
100
AcDbEntity
  8
寸法
 62
     7
 48
50.0
100
AcDbMText
 10
9679.640118290608
 20
1980.575993681581
 30
0.0
 40
120.0
 41
0.0
 71
     5
 72
     1
  1
\A1;50
  7
STYLE1
 11
0.0000000000000001
 21
1.0
 31
0.0
 73
     1
 44
1.0
1001
ACAD
1000
MTEXTBEGIN
1070
    73
1070
     1
1070
    44
1040
1.0
1070
    74
1070
     0
1000
MTEXTEND
  0
POINT
  5
1A3A0
330
1963D
100
AcDbEntity
  8
DEFPOINTS
 62
     0
 48
50.0
100
AcDbPoint
 10
10623.39024747387
 20
2336.623237776072
 30
0.0
  0
POINT
  5
1A3A1
330
1963D
100
AcDbEntity
  8
DEFPOINTS
 62
     0
 48
50.0
100
AcDbPoint
 10
10568.39024747387
 20
2286.623237776072
 30
0.0
  0
POINT
  5
1A3A2
330
1963D
100
AcDbEntity
  8
DEFPOINTS
 62
     0
 48
50.0
100
AcDbPoint
 10
9779.640118290608
 20
2286.623237776072
 30
0.0
  0
ENDBLK
  5
1964A
330
1963D
100
AcDbEntity
  8
0
 48
50.0
100
AcDbBlockEnd
  0
BLOCK
  5
19655
330
1964B
100
AcDbEntity
  8
0
 48
50.0
100
AcDbBlockBegin
  2
*D30
 70
     1
 10
0.0
 20
0.0
 30
0.0
  3
*D30
  1

  0
LINE
  5
1A80F
330
1964B
100
AcDbEntity
  8
寸法
 62
     0
 48
50.0
370
    -2
100
AcDbLine
 10
13253.39024747387
 20
4628.433917387726
 30
0.0
 11
13253.39024747387
 21
5120.280691355379
 31
0.0
  0
LINE
  5
1A810
330
1964B
100
AcDbEntity
  8
寸法
 62
     0
 48
50.0
370
    -2
100
AcDbLine
 10
10623.39024747387
 20
4677.624855899047
 30
0.0
 11
10623.39024747387
 21
5120.280691355379
 31
0.0
  0
LINE
  5
1A811
330
1964B
100
AcDbEntity
  8
寸法
 62
     0
 48
50.0
370
    -2
100
AcDbLine
 10
13253.39024747387
 20
5060.280691355378
 30
0.0
 11
10623.39024747387
 21
5060.280691355378
 31
0.0
  0
INSERT
  5
1A812
330
1964B
100
AcDbEntity
  8
寸法
 62
     0
 48
50.0
370
    -2
100
AcDbBlockReference
  2
_DOTSMALL
 10
13253.39024747387
 20
5060.280691355378
 30
0.0
 41
100.0
 42
100.0
 43
100.0
  0
INSERT
  5
1A813
330
1964B
100
AcDbEntity
  8
寸法
 62
     0
 48
50.0
370
    -2
100
AcDbBlockReference
  2
_DOTSMALL
 10
10623.39024747387
 20
5060.280691355378
 30
0.0
 41
100.0
 42
100.0
 43
100.0
 50
180.0
  0
MTEXT
  5
1A814
330
1964B
100
AcDbEntity
  8
寸法
 62
     7
 48
50.0
100
AcDbMText
 10
11938.39024747387
 20
5160.292502379
 30
0.0
 40
120.0
 41
0.0
 71
     5
 72
     1
  1
\A1;柱外寸法2630
  7
STYLE1
 73
     1
 44
1.0
1001
ACAD
1000
MTEXTBEGIN
1070
    73
1070
     1
1070
    44
1040
1.0
1070
    74
1070
     0
1000
MTEXTEND
  0
POINT
  5
1A815
330
1964B
100
AcDbEntity
  8
DEFPOINTS
 62
     0
 48
50.0
100
AcDbPoint
 10
13253.39024747387
 20
4608.433917387726
 30
0.0
  0
POINT
  5
1A816
330
1964B
100
AcDbEntity
  8
DEFPOINTS
 62
     0
 48
50.0
100
AcDbPoint
 10
10623.39024747387
 20
4657.624855899046
 30
0.0
  0
POINT
  5
1A817
330
1964B
100
AcDbEntity
  8
DEFPOINTS
 62
     0
 48
50.0
100
AcDbPoint
 10
10623.39024747387
 20
5060.280691355378
 30
0.0
  0
ENDBLK
  5
19656
330
1964B
100
AcDbEntity
  8
0
 48
50.0
100
AcDbBlockEnd
  0
BLOCK
  5
19663
330
19657
100
AcDbEntity
  8
0
 48
50.0
100
AcDbBlockBegin
  2
*D31
 70
     1
 10
0.0
 20
0.0
 30
0.0
  3
*D31
  1

  0
LINE
  5
1A384
330
19657
100
AcDbEntity
  8
寸法
 62
     0
 48
50.0
370
    -2
100
AcDbLine
 10
10623.39024747387
 20
4677.624855899047
 30
0.0
 11
10623.39024747387
 21
5120.280691355375
 31
0.0
  0
LINE
  5
1A385
330
19657
100
AcDbEntity
  8
寸法
 62
     0
 48
50.0
370
    -2
100
AcDbLine
 10
10563.39024747387
 20
4681.623237776078
 30
0.0
 11
10563.39024747387
 21
5120.280691355375
 31
0.0
  0
LINE
  5
1A386
330
19657
100
AcDbEntity
  8
寸法
 62
     0
 48
50.0
370
    -2
100
AcDbLine
 10
10623.39024747387
 20
5060.280691355375
 30
0.0
 11
10723.39024747386
 21
5060.280691355375
 31
0.0
  0
LINE
  5
1A387
330
19657
100
AcDbEntity
  8
寸法
 62
     0
 48
50.0
370
    -2
100
AcDbLine
 10
10563.39024747387
 20
5060.280691355375
 30
0.0
 11
10144.11465692268
 21
5060.280691355375
 31
0.0
  0
LINE
  5
1A388
330
19657
100
AcDbEntity
  8
寸法
 62
     0
 48
50.0
370
    -2
100
AcDbLine
 10
10623.39024747387
 20
5060.280691355375
 30
0.0
 11
10563.39024747387
 21
5060.280691355375
 31
0.0
  0
INSERT
  5
1A389
330
19657
100
AcDbEntity
  8
寸法
 62
     0
 48
50.0
370
    -2
100
AcDbBlockReference
  2
_DOTSMALL
 10
10623.39024747387
 20
5060.280691355375
 30
0.0
 41
100.0
 42
100.0
 43
100.0
 50
180.0
  0
INSERT
  5
1A38A
330
19657
100
AcDbEntity
  8
寸法
 62
     0
 48
50.0
370
    -2
100
AcDbBlockReference
  2
_DOTSMALL
 10
10563.39024747387
 20
5060.280691355375
 30
0.0
 41
100.0
 42
100.0
 43
100.0
  0
MTEXT
  5
1A38B
330
19657
100
AcDbEntity
  8
寸法
 62
     7
 48
50.0
100
AcDbMText
 10
10253.75245219828
 20
5160.280691355374
 30
0.0
 40
120.0
 41
0.0
 71
     5
 72
     1
  1
\A1;60
  7
STYLE1
 73
     1
 44
1.0
1001
ACAD
1000
MTEXTBEGIN
1070
    73
1070
     1
1070
    44
1040
1.0
1070
    74
1070
     0
1000
MTEXTEND
  0
POINT
  5
1A38C
330
19657
100
AcDbEntity
  8
DEFPOINTS
 62
     0
 48
50.0
100
AcDbPoint
 10
10623.39024747387
 20
4657.624855899046
 30
0.0
  0
POINT
  5
1A38D
330
19657
100
AcDbEntity
  8
DEFPOINTS
 62
     0
 48
50.0
100
AcDbPoint
 10
10563.39024747387
 20
4661.623237776078
 30
0.0
  0
POINT
  5
1A38E
330
19657
100
AcDbEntity
  8
DEFPOINTS
 62
     0
 48
50.0
100
AcDbPoint
 10
10563.39024747387
 20
5060.280691355375
 30
0.0
  0
ENDBLK
  5
19664
330
19657
100
AcDbEntity
  8
0
 48
50.0
100
AcDbBlockEnd
  0
BLOCK
  5
1966F
330
19665
100
AcDbEntity
  8
0
 48
50.0
100
AcDbBlockBegin
  2
*D32
 70
     1
 10
0.0
 20
0.0
 30
0.0
  3
*D32
  1

  0
LINE
  5
1A7FB
330
19665
100
AcDbEntity
  8
寸法
 62
     0
 48
50.0
370
    -2
100
AcDbLine
 10
13333.39024747387
 20
4626.623237776074
 30
0.0
 11
13333.39024747387
 21
5340.491378086993
 31
0.0
  0
LINE
  5
1A7FC
330
19665
100
AcDbEntity
  8
寸法
 62
     0
 48
50.0
370
    -2
100
AcDbLine
 10
10563.39024747387
 20
4681.623237776078
 30
0.0
 11
10563.39024747387
 21
5340.491378086993
 31
0.0
  0
LINE
  5
1A7FD
330
19665
100
AcDbEntity
  8
寸法
 62
     0
 48
50.0
370
    -2
100
AcDbLine
 10
13333.39024747387
 20
5280.491378086993
 30
0.0
 11
10563.39024747387
 21
5280.491378086993
 31
0.0
  0
INSERT
  5
1A7FE
330
19665
100
AcDbEntity
  8
寸法
 62
     0
 48
50.0
370
    -2
100
AcDbBlockReference
  2
_DOTSMALL
 10
13333.39024747387
 20
5280.491378086993
 30
0.0
 41
100.0
 42
100.0
 43
100.0
  0
INSERT
  5
1A7FF
330
19665
100
AcDbEntity
  8
寸法
 62
     0
 48
50.0
370
    -2
100
AcDbBlockReference
  2
_DOTSMALL
 10
10563.39024747387
 20
5280.491378086993
 30
0.0
 41
100.0
 42
100.0
 43
100.0
 50
180.0
  0
MTEXT
  5
1A800
330
19665
100
AcDbEntity
  8
寸法
 62
     7
 48
50.0
100
AcDbMText
 10
11948.39024747387
 20
5380.503189110615
 30
0.0
 40
120.0
 41
0.0
 71
     5
 72
     1
  1
\A1;2770
  7
STYLE1
 73
     1
 44
1.0
1001
ACAD
1000
MTEXTBEGIN
1070
    73
1070
     1
1070
    44
1040
1.0
1070
    74
1070
     0
1000
MTEXTEND
  0
POINT
  5
1A801
330
19665
100
AcDbEntity
  8
DEFPOINTS
 62
     0
 48
50.0
100
AcDbPoint
 10
13333.39024747387
 20
4606.623237776074
 30
0.0
  0
POINT
  5
1A802
330
19665
100
AcDbEntity
  8
DEFPOINTS
 62
     0
 48
50.0
100
AcDbPoint
 10
10563.39024747387
 20
4661.623237776078
 30
0.0
  0
POINT
  5
1A803
330
19665
100
AcDbEntity
  8
DEFPOINTS
 62
     0
 48
50.0
100
AcDbPoint
 10
10563.39024747387
 20
5280.491378086993
 30
0.0
  0
ENDBLK
  5
19670
330
19665
100
AcDbEntity
  8
0
 48
50.0
100
AcDbBlockEnd
  0
BLOCK
  5
1967C
330
19671
100
AcDbEntity
  8
0
 48
50.0
100
AcDbBlockBegin
  2
*D33
 70
     1
 10
0.0
 20
0.0
 30
0.0
  3
*D33
  1

  0
LINE
  5
1A371
330
19671
100
AcDbEntity
  8
寸法
 62
     0
 48
50.0
370
    -2
100
AcDbLine
 10
13253.39024747387
 20
4628.433917387726
 30
0.0
 11
13253.39024747387
 21
5120.280691355379
 31
0.0
  0
LINE
  5
1A372
330
19671
100
AcDbEntity
  8
寸法
 62
     0
 48
50.0
370
    -2
100
AcDbLine
 10
13333.39024747387
 20
4626.623237776074
 30
0.0
 11
13333.39024747387
 21
5120.280691355379
 31
0.0
  0
LINE
  5
1A373
330
19671
100
AcDbEntity
  8
寸法
 62
     0
 48
50.0
370
    -2
100
AcDbLine
 10
13253.39024747387
 20
5060.280691355378
 30
0.0
 11
13333.39024747387
 21
5060.280691355378
 31
0.0
  0
LINE
  5
1A374
330
19671
100
AcDbEntity
  8
寸法
 62
     0
 48
50.0
370
    -2
100
AcDbLine
 10
13333.39024747387
 20
5060.280691355378
 30
0.0
 11
13645.48473566284
 21
5060.280691355378
 31
0.0
  0
INSERT
  5
1A375
330
19671
100
AcDbEntity
  8
寸法
 62
     0
 48
50.0
370
    -2
100
AcDbBlockReference
  2
_DOTSMALL
 10
13253.39024747387
 20
5060.280691355378
 30
0.0
 41
100.0
 42
100.0
 43
100.0
 50
180.0
  0
INSERT
  5
1A376
330
19671
100
AcDbEntity
  8
寸法
 62
     0
 48
50.0
370
    -2
100
AcDbBlockReference
  2
_DOTSMALL
 10
13333.39024747387
 20
5060.280691355378
 30
0.0
 41
100.0
 42
100.0
 43
100.0
  0
MTEXT
  5
1A377
330
19671
100
AcDbEntity
  8
寸法
 62
     7
 48
50.0
100
AcDbMText
 10
13539.43749156836
 20
5160.280691355378
 30
0.0
 40
120.0
 41
0.0
 71
     5
 72
     1
  1
\A1;80
  7
STYLE1
 73
     1
 44
1.0
1001
ACAD
1000
MTEXTBEGIN
1070
    73
1070
     1
1070
    44
1040
1.0
1070
    74
1070
     0
1000
MTEXTEND
  0
POINT
  5
1A378
330
19671
100
AcDbEntity
  8
DEFPOINTS
 62
     0
 48
50.0
100
AcDbPoint
 10
13253.39024747387
 20
4608.433917387726
 30
0.0
  0
POINT
  5
1A379
330
19671
100
AcDbEntity
  8
DEFPOINTS
 62
     0
 48
50.0
100
AcDbPoint
 10
13333.39024747387
 20
4606.623237776074
 30
0.0
  0
POINT
  5
1A37A
330
19671
100
AcDbEntity
  8
DEFPOINTS
 62
     0
 48
50.0
100
AcDbPoint
 10
13333.39024747387
 20
5060.280691355378
 30
0.0
  0
ENDBLK
  5
1967D
330
19671
100
AcDbEntity
  8
0
 48
50.0
100
AcDbBlockEnd
  0
BLOCK
  5
19689
330
1967E
100
AcDbEntity
  8
0
 48
50.0
100
AcDbBlockBegin
  2
*D34
 70
     1
 10
0.0
 20
0.0
 30
0.0
  3
*D34
  1

  0
LINE
  5
1A367
330
1967E
100
AcDbEntity
  8
寸法
 62
     0
 48
50.0
370
    -2
100
AcDbLine
 10
10562.79453376497
 20
4660.920944845734
 30
0.0
 11
9946.860094659689
 21
4678.635095120063
 31
0.0
  0
LINE
  5
1A368
330
1967E
100
AcDbEntity
  8
寸法
 62
     0
 48
50.0
370
    -2
100
AcDbLine
 10
10558.74107820834
 20
4519.979221080022
 30
0.0
 11
9942.806639103061
 21
4537.693371354352
 31
0.0
  0
LINE
  5
1A369
330
1967E
100
AcDbEntity
  8
寸法
 62
     0
 48
50.0
370
    -2
100
AcDbLine
 10
10002.78184070549
 20
4535.968496649405
 30
0.0
 11
10006.83529626211
 21
4676.910220415115
 31
0.0
  0
LINE
  5
1A36A
330
1967E
100
AcDbEntity
  8
寸法
 62
     0
 48
50.0
370
    -2
100
AcDbLine
 10
10006.83529626211
 20
4676.910220415115
 30
0.0
 11
10017.1845444918
 21
5036.761430029702
 31
0.0
  0
INSERT
  5
1A36B
330
1967E
100
AcDbEntity
  8
寸法
 62
     0
 48
50.0
370
    -2
100
AcDbBlockReference
  2
_DOTSMALL
 10
10002.78184070549
 20
4535.968496649405
 30
0.0
 41
100.0
 42
100.0
 43
100.0
 50
268.3526390256377
  0
INSERT
  5
1A36C
330
1967E
100
AcDbEntity
  8
寸法
 62
     0
 48
50.0
370
    -2
100
AcDbBlockReference
  2
_DOTSMALL
 10
10006.83529626211
 20
4676.910220415115
 30
0.0
 41
100.0
 42
100.0
 43
100.0
 50
88.35263902563776
  0
MTEXT
  5
1A36D
330
1967E
100
AcDbEntity
  8
寸法
 62
     7
 48
50.0
100
AcDbMText
 10
9913.488646627031
 20
4909.689951066015
 30
0.0
 40
120.0
 41
0.0
 71
     5
 72
     1
  1
\A1;141
  7
STYLE1
 11
0.0287479117491245
 21
0.9995866933738486
 31
0.0
 73
     1
 44
1.0
1001
ACAD
1000
MTEXTBEGIN
1070
    73
1070
     1
1070
    44
1040
1.0
1070
    74
1070
     0
1000
MTEXTEND
  0
POINT
  5
1A36E
330
1967E
100
AcDbEntity
  8
DEFPOINTS
 62
     0
 48
50.0
100
AcDbPoint
 10
10582.78626763245
 20
4660.34598661075
 30
0.0
  0
POINT
  5
1A36F
330
1967E
100
AcDbEntity
  8
DEFPOINTS
 62
     0
 48
50.0
100
AcDbPoint
 10
10578.73281207582
 20
4519.404262845039
 30
0.0
  0
POINT
  5
1A370
330
1967E
100
AcDbEntity
  8
DEFPOINTS
 62
     0
 48
50.0
100
AcDbPoint
 10
10002.78184070549
 20
4535.968496649405
 30
0.0
  0
ENDBLK
  5
1968A
330
1967E
100
AcDbEntity
  8
0
 48
50.0
100
AcDbBlockEnd
  0
BLOCK
  5
1A02D
330
1A023
100
AcDbEntity
  8
0
 48
50.0
100
AcDbBlockBegin
  2
*D35
 70
     1
 10
0.0
 20
0.0
 30
0.0
  3
*D35
  1

  0
LINE
  5
1A34C
330
1A023
100
AcDbEntity
  8
寸法
 62
     0
 48
50.0
370
    -2
100
AcDbLine
 10
7849.673057123663
 20
4681.623237767611
 30
0.0
 11
7849.673057123663
 21
5127.349509507982
 31
0.0
  0
LINE
  5
1A34D
330
1A023
100
AcDbEntity
  8
寸法
 62
     0
 48
50.0
370
    -2
100
AcDbLine
 10
3739.673057123663
 20
4681.623237776078
 30
0.0
 11
3739.673057123663
 21
5127.349509507982
 31
0.0
  0
LINE
  5
1A34E
330
1A023
100
AcDbEntity
  8
寸法
 62
     0
 48
50.0
370
    -2
100
AcDbLine
 10
7849.673057123663
 20
5067.349509507981
 30
0.0
 11
3739.673057123663
 21
5067.349509507981
 31
0.0
  0
INSERT
  5
1A34F
330
1A023
100
AcDbEntity
  8
寸法
 62
     0
 48
50.0
370
    -2
100
AcDbBlockReference
  2
_DOTSMALL
 10
7849.673057123663
 20
5067.349509507981
 30
0.0
 41
100.0
 42
100.0
 43
100.0
  0
INSERT
  5
1A350
330
1A023
100
AcDbEntity
  8
寸法
 62
     0
 48
50.0
370
    -2
100
AcDbBlockReference
  2
_DOTSMALL
 10
3739.673057123663
 20
5067.349509507981
 30
0.0
 41
100.0
 42
100.0
 43
100.0
 50
180.0
  0
MTEXT
  5
1A351
330
1A023
100
AcDbEntity
  8
寸法
 62
     7
 48
50.0
100
AcDbMText
 10
5794.673057123663
 20
5167.349509507982
 30
0.0
 40
120.0
 41
0.0
 71
     5
 72
     1
  1
\A1;柱外寸法 N X 1370
  7
STYLE1
 73
     1
 44
1.0
1001
ACAD
1000
MTEXTBEGIN
1070
    73
1070
     1
1070
    44
1040
1.0
1070
    74
1070
     0
1000
MTEXTEND
  0
POINT
  5
1A352
330
1A023
100
AcDbEntity
  8
DEFPOINTS
 62
     0
 48
50.0
100
AcDbPoint
 10
7849.673057123663
 20
4661.62323776761
 30
0.0
  0
POINT
  5
1A353
330
1A023
100
AcDbEntity
  8
DEFPOINTS
 62
     0
 48
50.0
100
AcDbPoint
 10
3739.673057123663
 20
4661.623237776078
 30
0.0
  0
POINT
  5
1A354
330
1A023
100
AcDbEntity
  8
DEFPOINTS
 62
     0
 48
50.0
100
AcDbPoint
 10
3739.673057123663
 20
5067.349509507981
 30
0.0
  0
ENDBLK
  5
1A02E
330
1A023
100
AcDbEntity
  8
0
 48
50.0
100
AcDbBlockEnd
  0
BLOCK
  5
1A03B
330
1A02F
100
AcDbEntity
  8
0
 48
50.0
100
AcDbBlockBegin
  2
*D36
 70
     1
 10
0.0
 20
0.0
 30
0.0
  3
*D36
  1

  0
LINE
  5
1A341
330
1A02F
100
AcDbEntity
  8
寸法
 62
     0
 48
50.0
370
    -2
100
AcDbLine
 10
3739.673057123663
 20
4681.623237776078
 30
0.0
 11
3739.673057123663
 21
5127.349509507982
 31
0.0
  0
LINE
  5
1A342
330
1A02F
100
AcDbEntity
  8
寸法
 62
     0
 48
50.0
370
    -2
100
AcDbLine
 10
3689.673057123663
 20
4681.623237776077
 30
0.0
 11
3689.673057123663
 21
5127.349509507982
 31
0.0
  0
LINE
  5
1A343
330
1A02F
100
AcDbEntity
  8
寸法
 62
     0
 48
50.0
370
    -2
100
AcDbLine
 10
3739.673057123663
 20
5067.349509507981
 30
0.0
 11
3839.673057123663
 21
5067.349509507981
 31
0.0
  0
LINE
  5
1A344
330
1A02F
100
AcDbEntity
  8
寸法
 62
     0
 48
50.0
370
    -2
100
AcDbLine
 10
3689.673057123663
 20
5067.349509507981
 30
0.0
 11
3270.140531654928
 21
5067.349509507981
 31
0.0
  0
LINE
  5
1A345
330
1A02F
100
AcDbEntity
  8
寸法
 62
     0
 48
50.0
370
    -2
100
AcDbLine
 10
3739.673057123663
 20
5067.349509507981
 30
0.0
 11
3689.673057123663
 21
5067.349509507981
 31
0.0
  0
INSERT
  5
1A346
330
1A02F
100
AcDbEntity
  8
寸法
 62
     0
 48
50.0
370
    -2
100
AcDbBlockReference
  2
_DOTSMALL
 10
3739.673057123663
 20
5067.349509507981
 30
0.0
 41
100.0
 42
100.0
 43
100.0
 50
180.0
  0
INSERT
  5
1A347
330
1A02F
100
AcDbEntity
  8
寸法
 62
     0
 48
50.0
370
    -2
100
AcDbBlockReference
  2
_DOTSMALL
 10
3689.673057123663
 20
5067.349509507981
 30
0.0
 41
100.0
 42
100.0
 43
100.0
  0
MTEXT
  5
1A348
330
1A02F
100
AcDbEntity
  8
寸法
 62
     7
 48
50.0
100
AcDbMText
 10
3376.187775749416
 20
5167.349509507982
 30
0.0
 40
120.0
 41
0.0
 71
     5
 72
     1
  1
\A1;50
  7
STYLE1
 73
     1
 44
1.0
1001
ACAD
1000
MTEXTBEGIN
1070
    73
1070
     1
1070
    44
1040
1.0
1070
    74
1070
     0
1000
MTEXTEND
  0
POINT
  5
1A349
330
1A02F
100
AcDbEntity
  8
DEFPOINTS
 62
     0
 48
50.0
100
AcDbPoint
 10
3739.673057123663
 20
4661.623237776078
 30
0.0
  0
POINT
  5
1A34A
330
1A02F
100
AcDbEntity
  8
DEFPOINTS
 62
     0
 48
50.0
100
AcDbPoint
 10
3689.673057123663
 20
4661.623237776077
 30
0.0
  0
POINT
  5
1A34B
330
1A02F
100
AcDbEntity
  8
DEFPOINTS
 62
     0
 48
50.0
100
AcDbPoint
 10
3689.673057123663
 20
5067.349509507981
 30
0.0
  0
ENDBLK
  5
1A03C
330
1A02F
100
AcDbEntity
  8
0
 48
50.0
100
AcDbBlockEnd
  0
BLOCK
  5
1A049
330
1A03D
100
AcDbEntity
  8
0
 48
50.0
100
AcDbBlockBegin
  2
*D37
 70
     1
 10
0.0
 20
0.0
 30
0.0
  3
*D37
  1

  0
LINE
  5
1A336
330
1A03D
100
AcDbEntity
  8
寸法
 62
     0
 48
50.0
370
    -2
100
AcDbLine
 10
7899.673057123663
 20
4681.623237776076
 30
0.0
 11
7899.673057123663
 21
5127.349509507983
 31
0.0
  0
LINE
  5
1A337
330
1A03D
100
AcDbEntity
  8
寸法
 62
     0
 48
50.0
370
    -2
100
AcDbLine
 10
7849.673057123663
 20
4681.623237776078
 30
0.0
 11
7849.673057123663
 21
5127.349509507983
 31
0.0
  0
LINE
  5
1A338
330
1A03D
100
AcDbEntity
  8
寸法
 62
     0
 48
50.0
370
    -2
100
AcDbLine
 10
7849.673057123663
 20
5067.349509507984
 30
0.0
 11
7749.673057123662
 21
5067.349509507984
 31
0.0
  0
LINE
  5
1A339
330
1A03D
100
AcDbEntity
  8
寸法
 62
     0
 48
50.0
370
    -2
100
AcDbLine
 10
7899.673057123663
 20
5067.349509507984
 30
0.0
 11
8319.205582592388
 21
5067.349509507984
 31
0.0
  0
LINE
  5
1A33A
330
1A03D
100
AcDbEntity
  8
寸法
 62
     0
 48
50.0
370
    -2
100
AcDbLine
 10
7849.673057123663
 20
5067.349509507984
 30
0.0
 11
7899.673057123663
 21
5067.349509507984
 31
0.0
  0
INSERT
  5
1A33B
330
1A03D
100
AcDbEntity
  8
寸法
 62
     0
 48
50.0
370
    -2
100
AcDbBlockReference
  2
_DOTSMALL
 10
7849.673057123663
 20
5067.349509507984
 30
0.0
 41
100.0
 42
100.0
 43
100.0
  0
INSERT
  5
1A33C
330
1A03D
100
AcDbEntity
  8
寸法
 62
     0
 48
50.0
370
    -2
100
AcDbBlockReference
  2
_DOTSMALL
 10
7899.673057123663
 20
5067.349509507984
 30
0.0
 41
100.0
 42
100.0
 43
100.0
 50
180.0
  0
MTEXT
  5
1A33D
330
1A03D
100
AcDbEntity
  8
寸法
 62
     7
 48
50.0
100
AcDbMText
 10
8213.158338497903
 20
5167.349509507983
 30
0.0
 40
120.0
 41
0.0
 71
     5
 72
     1
  1
\A1;50
  7
STYLE1
 73
     1
 44
1.0
1001
ACAD
1000
MTEXTBEGIN
1070
    73
1070
     1
1070
    44
1040
1.0
1070
    74
1070
     0
1000
MTEXTEND
  0
POINT
  5
1A33E
330
1A03D
100
AcDbEntity
  8
DEFPOINTS
 62
     0
 48
50.0
100
AcDbPoint
 10
7899.673057123663
 20
4661.623237776075
 30
0.0
  0
POINT
  5
1A33F
330
1A03D
100
AcDbEntity
  8
DEFPOINTS
 62
     0
 48
50.0
100
AcDbPoint
 10
7849.673057123663
 20
4661.623237776079
 30
0.0
  0
POINT
  5
1A340
330
1A03D
100
AcDbEntity
  8
DEFPOINTS
 62
     0
 48
50.0
100
AcDbPoint
 10
7849.673057123663
 20
5067.349509507984
 30
0.0
  0
ENDBLK
  5
1A04A
330
1A03D
100
AcDbEntity
  8
0
 48
50.0
100
AcDbBlockEnd
  0
BLOCK
  5
1A11E
330
1A114
100
AcDbEntity
  8
0
 48
50.0
100
AcDbBlockBegin
  2
*D38
 70
     1
 10
0.0
 20
0.0
 30
0.0
  3
*D38
  1

  0
LINE
  5
1A2FD
330
1A114
100
AcDbEntity
  8
寸法
 62
     0
 48
50.0
370
    -2
100
AcDbLine
 10
3689.673057123663
 20
4681.623237776077
 30
0.0
 11
3689.673057123663
 21
5327.258430722071
 31
0.0
  0
LINE
  5
1A2FE
330
1A114
100
AcDbEntity
  8
寸法
 62
     0
 48
50.0
370
    -2
100
AcDbLine
 10
7899.673057123663
 20
4681.623237776076
 30
0.0
 11
7899.673057123663
 21
5327.258430722071
 31
0.0
  0
LINE
  5
1A2FF
330
1A114
100
AcDbEntity
  8
寸法
 62
     0
 48
50.0
370
    -2
100
AcDbLine
 10
3689.673057123663
 20
5267.258430722072
 30
0.0
 11
7899.673057123663
 21
5267.258430722072
 31
0.0
  0
INSERT
  5
1A300
330
1A114
100
AcDbEntity
  8
寸法
 62
     0
 48
50.0
370
    -2
100
AcDbBlockReference
  2
_DOTSMALL
 10
3689.673057123663
 20
5267.258430722072
 30
0.0
 41
100.0
 42
100.0
 43
100.0
 50
180.0
  0
INSERT
  5
1A301
330
1A114
100
AcDbEntity
  8
寸法
 62
     0
 48
50.0
370
    -2
100
AcDbBlockReference
  2
_DOTSMALL
 10
7899.673057123663
 20
5267.258430722072
 30
0.0
 41
100.0
 42
100.0
 43
100.0
  0
MTEXT
  5
1A302
330
1A114
100
AcDbEntity
  8
寸法
 62
     7
 48
50.0
100
AcDbMText
 10
5794.673057123663
 20
5367.258430722071
 30
0.0
 40
120.0
 41
0.0
 71
     5
 72
     1
  1
\A1;N X 1370+100
  7
STYLE1
 73
     1
 44
1.0
1001
ACAD
1000
MTEXTBEGIN
1070
    73
1070
     1
1070
    44
1040
1.0
1070
    74
1070
     0
1000
MTEXTEND
  0
POINT
  5
1A303
330
1A114
100
AcDbEntity
  8
DEFPOINTS
 62
     0
 48
50.0
100
AcDbPoint
 10
3689.673057123663
 20
4661.623237776077
 30
0.0
  0
POINT
  5
1A304
330
1A114
100
AcDbEntity
  8
DEFPOINTS
 62
     0
 48
50.0
100
AcDbPoint
 10
7899.673057123663
 20
4661.623237776075
 30
0.0
  0
POINT
  5
1A305
330
1A114
100
AcDbEntity
  8
DEFPOINTS
 62
     0
 48
50.0
100
AcDbPoint
 10
7899.673057123663
 20
5267.258430722072
 30
0.0
  0
ENDBLK
  5
1A11F
330
1A114
100
AcDbEntity
  8
0
 48
50.0
100
AcDbBlockEnd
  0
BLOCK
  5
1A66D
330
1A663
100
AcDbEntity
  8
0
 48
50.0
100
AcDbBlockBegin
  2
*D39
 70
     1
 10
0.0
 20
0.0
 30
0.0
  3
*D39
  1

  0
LINE
  5
1A722
330
1A663
100
AcDbEntity
  8
寸法
 62
     0
 48
50.0
370
    -2
100
AcDbLine
 10
7869.673057123662
 20
2286.623237776072
 30
0.0
 11
8197.216159445408
 21
2286.623237776072
 31
0.0
  0
LINE
  5
1A723
330
1A663
100
AcDbEntity
  8
寸法
 62
     0
 48
50.0
370
    -2
100
AcDbLine
 10
7869.673057123662
 20
4234.623237776071
 30
0.0
 11
8197.21615944541
 21
4234.623237776071
 31
0.0
  0
LINE
  5
1A724
330
1A663
100
AcDbEntity
  8
寸法
 62
     0
 48
50.0
370
    -2
100
AcDbLine
 10
8137.21615944541
 20
2286.623237776072
 30
0.0
 11
8137.21615944541
 21
4234.623237776071
 31
0.0
  0
INSERT
  5
1A725
330
1A663
100
AcDbEntity
  8
寸法
 62
     0
 48
50.0
370
    -2
100
AcDbBlockReference
  2
_DOTSMALL
 10
8137.21615944541
 20
2286.623237776072
 30
0.0
 41
100.0
 42
100.0
 43
100.0
 50
270.0
  0
INSERT
  5
1A726
330
1A663
100
AcDbEntity
  8
寸法
 62
     0
 48
50.0
370
    -2
100
AcDbBlockReference
  2
_DOTSMALL
 10
8137.21615944541
 20
4234.623237776071
 30
0.0
 41
100.0
 42
100.0
 43
100.0
 50
90.0
  0
MTEXT
  5
1A727
330
1A663
100
AcDbEntity
  8
寸法
 62
     7
 48
50.0
100
AcDbMText
 10
8037.216159445408
 20
3260.623237776073
 30
0.0
 40
120.0
 41
0.0
 71
     5
 72
     1
  1
\A1;有効開口部高サ 1948
  7
STYLE1
 11
0.0000000000000001
 21
1.0
 31
0.0
 73
     1
 44
1.0
1001
ACAD
1000
MTEXTBEGIN
1070
    73
1070
     1
1070
    44
1040
1.0
1070
    74
1070
     0
1000
MTEXTEND
  0
POINT
  5
1A728
330
1A663
100
AcDbEntity
  8
DEFPOINTS
 62
     0
 48
50.0
100
AcDbPoint
 10
7849.673057123663
 20
2286.623237776072
 30
0.0
  0
POINT
  5
1A729
330
1A663
100
AcDbEntity
  8
DEFPOINTS
 62
     0
 48
50.0
100
AcDbPoint
 10
7849.673057123663
 20
4234.623237776071
 30
0.0
  0
POINT
  5
1A72A
330
1A663
100
AcDbEntity
  8
DEFPOINTS
 62
     0
 48
50.0
100
AcDbPoint
 10
8137.21615944541
 20
4234.623237776071
 30
0.0
  0
ENDBLK
  5
1A66E
330
1A663
100
AcDbEntity
  8
0
 48
50.0
100
AcDbBlockEnd
  0
BLOCK
  5
1A67B
330
1A66F
100
AcDbEntity
  8
0
 48
50.0
100
AcDbBlockBegin
  2
*D40
 70
     1
 10
0.0
 20
0.0
 30
0.0
  3
*D40
  1

  0
LINE
  5
1A717
330
1A66F
100
AcDbEntity
  8
寸法
 62
     0
 48
50.0
370
    -2
100
AcDbLine
 10
7869.673057123662
 20
4234.623237776071
 30
0.0
 11
8197.21615944541
 21
4234.623237776071
 31
0.0
  0
LINE
  5
1A718
330
1A66F
100
AcDbEntity
  8
寸法
 62
     0
 48
50.0
370
    -2
100
AcDbLine
 10
7814.673057123663
 20
4261.623237776072
 30
0.0
 11
8197.21615944541
 21
4261.623237776072
 31
0.0
  0
LINE
  5
1A719
330
1A66F
100
AcDbEntity
  8
寸法
 62
     0
 48
50.0
370
    -2
100
AcDbLine
 10
8137.21615944541
 20
4234.623237776071
 30
0.0
 11
8137.21615944541
 21
4134.623237776071
 31
0.0
  0
LINE
  5
1A71A
330
1A66F
100
AcDbEntity
  8
寸法
 62
     0
 48
50.0
370
    -2
100
AcDbLine
 10
8137.21615944541
 20
4261.623237776072
 30
0.0
 11
8137.21615944541
 21
4361.623237776072
 31
0.0
  0
MTEXT
  5
1A71B
330
1A66F
100
AcDbEntity
  8
寸法
 62
     7
 48
50.0
100
AcDbMText
 10
8277.385982691775
 20
4262.59043761573
 30
0.0
 40
120.0
 41
0.0
 71
     5
 72
     1
  1
\A1;27
  7
STYLE1
 11
0.0000000000000001
 21
1.0
 31
0.0
 73
     1
 44
1.0
1001
ACAD
1000
MTEXTBEGIN
1070
    73
1070
     1
1070
    44
1040
1.0
1070
    74
1070
     0
1000
MTEXTEND
  0
LINE
  5
1A71C
330
1A66F
100
AcDbEntity
  8
寸法
 62
     0
 48
50.0
370
    -2
100
AcDbLine
 10
8137.21615944541
 20
4234.623237776071
 30
0.0
 11
8137.21615944541
 21
4261.623237776072
 31
0.0
  0
INSERT
  5
1A71D
330
1A66F
100
AcDbEntity
  8
寸法
 62
     0
 48
50.0
370
    -2
100
AcDbBlockReference
  2
_DOTSMALL
 10
8137.21615944541
 20
4234.623237776071
 30
0.0
 41
100.0
 42
100.0
 43
100.0
 50
90.0
  0
INSERT
  5
1A71E
330
1A66F
100
AcDbEntity
  8
寸法
 62
     0
 48
50.0
370
    -2
100
AcDbBlockReference
  2
_DOTSMALL
 10
8137.21615944541
 20
4261.623237776072
 30
0.0
 41
100.0
 42
100.0
 43
100.0
 50
270.0
  0
POINT
  5
1A71F
330
1A66F
100
AcDbEntity
  8
DEFPOINTS
 62
     0
 48
50.0
100
AcDbPoint
 10
7849.673057123663
 20
4234.623237776071
 30
0.0
  0
POINT
  5
1A720
330
1A66F
100
AcDbEntity
  8
DEFPOINTS
 62
     0
 48
50.0
100
AcDbPoint
 10
7794.673057123663
 20
4261.623237776072
 30
0.0
  0
POINT
  5
1A721
330
1A66F
100
AcDbEntity
  8
DEFPOINTS
 62
     0
 48
50.0
100
AcDbPoint
 10
8137.21615944541
 20
4261.623237776072
 30
0.0
  0
ENDBLK
  5
1A67C
330
1A66F
100
AcDbEntity
  8
0
 48
50.0
100
AcDbBlockEnd
  0
BLOCK
  5
1A688
330
1A67D
100
AcDbEntity
  8
0
 48
50.0
100
AcDbBlockBegin
  2
*D41
 70
     1
 10
0.0
 20
0.0
 30
0.0
  3
*D41
  1

  0
LINE
  5
1A70D
330
1A67D
100
AcDbEntity
  8
寸法
 62
     0
 48
50.0
370
    -2
100
AcDbLine
 10
7814.673057123663
 20
4261.623237776072
 30
0.0
 11
8197.21615944541
 21
4261.623237776072
 31
0.0
  0
LINE
  5
1A70E
330
1A67D
100
AcDbEntity
  8
寸法
 62
     0
 48
50.0
370
    -2
100
AcDbLine
 10
7869.673057123662
 20
4426.623237776071
 30
0.0
 11
8197.21615944541
 21
4426.623237776071
 31
0.0
  0
LINE
  5
1A70F
330
1A67D
100
AcDbEntity
  8
寸法
 62
     0
 48
50.0
370
    -2
100
AcDbLine
 10
8137.21615944541
 20
4261.623237776072
 30
0.0
 11
8137.21615944541
 21
4426.623237776071
 31
0.0
  0
LINE
  5
1A710
330
1A67D
100
AcDbEntity
  8
寸法
 62
     0
 48
50.0
370
    -2
100
AcDbLine
 10
8137.21615944541
 20
4426.623237776071
 30
0.0
 11
8137.21615944541
 21
4803.593800524549
 31
0.0
  0
INSERT
  5
1A711
330
1A67D
100
AcDbEntity
  8
寸法
 62
     0
 48
50.0
370
    -2
100
AcDbBlockReference
  2
_DOTSMALL
 10
8137.21615944541
 20
4261.623237776072
 30
0.0
 41
100.0
 42
100.0
 43
100.0
 50
270.0
  0
INSERT
  5
1A712
330
1A67D
100
AcDbEntity
  8
寸法
 62
     0
 48
50.0
370
    -2
100
AcDbBlockReference
  2
_DOTSMALL
 10
8137.21615944541
 20
4426.623237776071
 30
0.0
 41
100.0
 42
100.0
 43
100.0
 50
90.0
  0
MTEXT
  5
1A713
330
1A67D
100
AcDbEntity
  8
寸法
 62
     7
 48
50.0
100
AcDbMText
 10
8037.21615944541
 20
4665.108519150311
 30
0.0
 40
120.0
 41
0.0
 71
     5
 72
     1
  1
\A1;165
  7
STYLE1
 11
0.0000000000000001
 21
1.0
 31
0.0
 73
     1
 44
1.0
1001
ACAD
1000
MTEXTBEGIN
1070
    73
1070
     1
1070
    44
1040
1.0
1070
    74
1070
     0
1000
MTEXTEND
  0
POINT
  5
1A714
330
1A67D
100
AcDbEntity
  8
DEFPOINTS
 62
     0
 48
50.0
100
AcDbPoint
 10
7794.673057123663
 20
4261.623237776072
 30
0.0
  0
POINT
  5
1A715
330
1A67D
100
AcDbEntity
  8
DEFPOINTS
 62
     0
 48
50.0
100
AcDbPoint
 10
7849.673057123663
 20
4426.623237776071
 30
0.0
  0
POINT
  5
1A716
330
1A67D
100
AcDbEntity
  8
DEFPOINTS
 62
     0
 48
50.0
100
AcDbPoint
 10
8137.21615944541
 20
4426.623237776071
 30
0.0
  0
ENDBLK
  5
1A689
330
1A67D
100
AcDbEntity
  8
0
 48
50.0
100
AcDbBlockEnd
  0
BLOCK
  5
1A776
330
1A773
100
AcDbEntity
  8
0
 48
50.0
100
AcDbBlockBegin
  2
A$C3239167D
 70
     0
 10
0.0
 20
0.0
 30
0.0
  3
A$C3239167D
  1

  0
LINE
  5
1A774
330
1A773
100
AcDbEntity
  8
部品1
 48
50.0
100
AcDbLine
 10
355.2895642128542
 20
1325.958705041378
 30
0.0
 11
-355.2895642128551
 21
-1325.958705041378
 31
0.0
  0
SPLINE
  5
1A775
330
1A773
100
AcDbEntity
  8
部品1
 48
50.0
100
AcDbSpline
210
0.0
220
0.0
230
1.0
 70
     8
 71
     3
 72
    10
 73
     6
 74
     4
 42
0.0000000001
 43
0.0000000001
 44
0.0000000001
 40
0.0
 40
0.0
 40
0.0
 40
0.0
 40
147.8767566010009
 40
301.8091093202477
 40
466.5049223087734
 40
466.5049223087734
 40
466.5049223087734
 40
466.5049223087734
 10
67.57032773305127
 20
81.24115252579304
 30
0.0
 10
-9.311354761783512
 20
72.33671886795507
 30
0.0
 10
-166.2230469719107
 20
54.16321240862338
 30
0.0
 10
156.5903629724318
 20
-48.35737223072001
 30
0.0
 10
-13.25225669694147
 20
-66.99246094292316
 30
0.0
 10
-101.0422619038354
 20
-76.62475782023193
 30
0.0
 11
67.57032773305127
 21
81.24115252579304
 31
0.0
 11
-75.26765057571811
 21
42.96783158946436
 31
0.0
 11
58.04167734345629
 21
-33.99834477015884
 31
0.0
 11
-101.0422619038354
 21
-76.62475782023193
 31
0.0
  0
ENDBLK
  5
1A777
330
1A773
100
AcDbEntity
  8
0
 48
50.0
100
AcDbBlockEnd
  0
ENDSEC
  0
SECTION
  2
ENTITIES
  0
MTEXT
  5
763F
330
747D
100
AcDbEntity
  8
0
100
AcDbMText
 10
302.846345836809
 20
280.1983726409901
 30
0.0
 40
3.5
 41
5.323721266742722
 71
     1
 72
     5
  1

  7
MSMINCHO
 73
     1
 44
1.0
1001
ACAD
1000
MTEXTBEGIN
1070
    73
1070
     1
1070
    44
1040
1.0
1070
    74
1070
     0
1000
MTEXTEND
  0
LINE
  5
10B57
330
747D
100
AcDbEntity
  8
補助
  6
PHANTOM
 62
   230
 48
50.0
100
AcDbLine
 10
139.9999999999995
 20
11409.6
 30
0.0
 11
16307.2
 21
11409.6
 31
0.0
  0
LINE
  5
10B59
330
747D
100
AcDbEntity
  8
仕様書枠
  6
Continuous
 48
50.0
100
AcDbLine
 10
13107.2
 20
1200.0
 30
0.0
 11
13107.2
 21
-0.0000000000000729
 31
0.0
  0
LINE
  5
10B5C
330
747D
100
AcDbEntity
  8
仕様書枠
 48
50.0
100
AcDbLine
 10
16307.2
 20
1200.0
 30
0.0
 11
16307.2
 21
-0.0000000000000909
 31
0.0
  0
LINE
  5
10B5D
330
747D
100
AcDbEntity
  8
仕様書枠
 48
50.0
100
AcDbLine
 10
140.0
 20
0.0
 30
0.0
 11
16307.2
 21
-0.0000000000000909
 31
0.0
  0
LINE
  5
10B5E
330
747D
100
AcDbEntity
  8
補助
  6
PHANTOM
 62
   230
 48
50.0
100
AcDbLine
 10
16307.2
 20
11409.6
 30
0.0
 11
16307.2
 21
1200.0
 31
0.0
  0
LINE
  5
10B6C
330
747D
100
AcDbEntity
  8
仕様書枠
 48
50.0
100
AcDbLine
 10
13107.2
 20
1200.0
 30
0.0
 11
16307.2
 21
1200.0
 31
0.0
  0
LINE
  5
10B6D
330
747D
100
AcDbEntity
  8
補助
  6
PHANTOM
 62
   230
 48
50.0
100
AcDbLine
 10
13107.2
 20
11409.6
 30
0.0
 11
13107.2
 21
4800.0
 31
0.0
  0
LINE
  5
10B6F
330
747D
100
AcDbEntity
  8
補助
  6
PHANTOM
 62
   230
 48
50.0
100
AcDbLine
 10
13107.2
 20
4800.0
 30
0.0
 11
16307.2
 21
4800.0
 31
0.0
  0
LINE
  5
10B72
330
747D
100
AcDbEntity
  8
文字
 62
     7
 48
50.0
100
AcDbLine
 10
13187.2
 20
400.0
 30
0.0
 11
16227.2
 21
400.0
 31
0.0
  0
TEXT
  5
10B73
330
747D
100
AcDbEntity
  8
文字
 62
     7
 48
50.0
100
AcDbText
 10
13162.9790565769
 20
895.0906074299405
 30
0.0
 40
200.0
  1
外 形 図
  7
STYLE2
100
AcDbText
  0
TEXT
  5
10B74
330
747D
100
AcDbEntity
  8
文字
 62
     7
 48
50.0
100
AcDbText
 10
13201.43669998441
 20
477.2740661031255
 30
0.0
 40
160.0
  1
機種名
  7
STYLE2
100
AcDbText
  0
TEXT
  5
10B75
330
747D
100
AcDbEntity
  8
文字
 62
     7
 48
50.0
100
AcDbText
 10
13209.4053442172
 20
228.5435242569016
 30
0.0
 40
100.0
  1
○有効開口寸法 ： 1164×1948(mm)
  7
STYLE2
100
AcDbText
  0
TEXT
  5
10B79
330
747D
100
AcDbEntity
  8
文字
 62
     7
 48
50.0
100
AcDbText
 10
14524.131837222
 20
1031.557706291228
 30
0.0
 40
100.0
  1
NO.12      <縮尺> S=1/40
  7
STYLE2
100
AcDbText
  0
LINE
  5
10B7B
330
747D
100
AcDbEntity
  8
仕様書枠
 48
50.0
100
AcDbLine
 10
13107.2
 20
800.0
 30
0.0
 11
14251.2
 21
800.0
 31
0.0
  0
LINE
  5
10B88
330
747D
100
AcDbEntity
  8
仕様書枠
  6
Continuous
 48
50.0
100
AcDbLine
 10
14251.2
 20
1200.0
 30
0.0
 11
14251.2
 21
800.0
 31
0.0
  0
TEXT
  5
14E88
330
747D
100
AcDbEntity
  8
部品1
100
AcDbText
 10
5453.925599815891
 20
5965.594766767388
 30
0.0
 40
135.0
  1
平面図
  7
MSGOTHIC
100
AcDbText
  0
LWPOLYLINE
  5
14E89
330
747D
100
AcDbEntity
  8
部品1
100
AcDbPolyline
 90
        4
 70
     1
 43
0.0
 10
5364.005989986853
 20
6158.488295985911
 10
5364.005989986853
 20
5918.595974440378
 10
6127.476656215293
 20
5918.595974440378
 10
6127.476656215293
 20
6158.488295985911
  0
TEXT
  5
15550
330
747D
100
AcDbEntity
  8
文字
 62
     7
 48
50.0
100
AcDbText
 10
14647.81206407149
 20
871.9640646083623
 30
0.0
 40
100.0
  1
～一般型・多雪地型～
  7
STYLE2
100
AcDbText
  0
DIMENSION
  5
162CD
330
747D
100
AcDbEntity
  8
寸法
100
AcDbDimension
  2
*D1
 10
8497.09940285807
 20
7360.713332462329
 30
0.0
 11
8397.087591834447
 21
8620.713332462337
 31
0.0
 70
    32
  1
6X420=<>
 71
     5
 42
2520.000000000015
  3
INABA_S40G
100
AcDbAlignedDimension
 13
7849.673057123664
 23
9880.713332462343
 33
0.0
 14
7849.673057123638
 24
7360.713332462329
 34
0.0
 50
90.0
100
AcDbRotatedDimension
1001
ACAD
1000
DSTYLE
1002
{
1002
}
  0
DIMENSION
  5
162CE
330
747D
100
AcDbEntity
  8
寸法
100
AcDbDimension
  2
*D2
 10
8497.099402858051
 20
7305.713332462332
 30
0.0
 11
8497.099402858047
 21
6927.85186555747
 31
0.0
 70
   160
 71
     5
 42
54.99999999999636
  3
INABA_S40G
100
AcDbAlignedDimension
 13
7849.673057123638
 23
7360.713332462329
 33
0.0
 14
7849.673057123638
 24
7305.713332462332
 34
0.0
 50
90.0
100
AcDbRotatedDimension
1001
ACAD
1000
DSTYLE
1002
{
1002
}
  0
DIMENSION
  5
162CF
330
747D
100
AcDbEntity
  8
寸法
100
AcDbDimension
  2
*D3
 10
8497.099402858076
 20
9880.713332462343
 30
0.0
 11
8497.099402858074
 21
10244.19861383658
 31
0.0
 70
   160
 71
     5
 42
54.99999999999636
  3
INABA_S40G
100
AcDbAlignedDimension
 13
7849.673057123664
 23
9935.71333246234
 33
0.0
 14
7849.673057123664
 24
9880.713332462343
 34
0.0
 50
90.0
100
AcDbRotatedDimension
1001
ACAD
1000
DSTYLE
1002
{
1002
}
  0
DIMENSION
  5
162D0
330
747D
100
AcDbEntity
  8
寸法
100
AcDbDimension
  2
*D4
 10
8862.206344597709
 20
7305.713332462332
 30
0.0
 11
8762.194533574087
 21
8620.713332462337
 31
0.0
 70
    32
 71
     5
 42
2630.000000000007
  3
INABA_S40G
100
AcDbAlignedDimension
 13
7849.673057123664
 23
9935.71333246234
 33
0.0
 14
7849.673057123638
 24
7305.713332462332
 34
0.0
 50
90.0
100
AcDbRotatedDimension
1001
ACAD
1000
DSTYLE
1002
{
1002
}
  0
LINE
  5
162DC
330
747D
100
AcDbEntity
  8
部品1
100
AcDbLine
 10
7821.673057123648
 20
9907.713332462339
 30
0.0
 11
7821.673057123641
 21
7360.713332462329
 31
0.0
  0
LINE
  5
162DD
330
747D
100
AcDbEntity
  8
部品1
100
AcDbLine
 10
3767.673057123638
 20
7360.713332462196
 30
0.0
 11
3767.67305712365
 21
9907.713332462247
 31
0.0
  0
LINE
  5
162DE
330
747D
100
AcDbEntity
  8
部品1
100
AcDbLine
 10
7849.673057123664
 20
9935.71333246234
 30
0.0
 11
7849.673057123638
 21
7305.713332462332
 31
0.0
  0
LINE
  5
162DF
330
747D
100
AcDbEntity
  8
部品1
100
AcDbLine
 10
3739.67305712363
 20
9935.713332462213
 30
0.0
 11
3739.673057123657
 21
7305.713332462201
 31
0.0
  0
DIMENSION
  5
162E4
330
747D
100
AcDbEntity
  8
寸法
 48
50.0
100
AcDbDimension
  2
*D5
 10
6582.673057123656
 20
6771.282561696077
 30
0.0
 11
7164.673057123647
 21
6971.282561696077
 31
0.0
 70
    32
  1
有効開口部間口\P <>
 71
     5
 42
1163.999999999981
  3
INABA_S40G
100
AcDbAlignedDimension
 13
7746.673057123638
 23
7331.713332462242
 33
0.0
 14
6582.673057123656
 24
7331.71333246224
 34
0.0
100
AcDbRotatedDimension
1001
ACAD
1000
DSTYLE
1002
{
1070
    75
1070
     1
1070
   279
1070
     2
1002
}
  0
LINE
  5
162E6
330
747D
100
AcDbEntity
  8
部品1
 48
50.0
100
AcDbLine
 10
6546.673057123655
 20
7351.21333246224
 30
0.0
 11
7782.673057123641
 21
7351.21333246224
 31
0.0
  0
DIMENSION
  5
162E7
330
747D
100
AcDbEntity
  8
寸法
100
AcDbDimension
  2
*D6
 10
7849.673057123628
 20
6325.109566105203
 30
0.0
 11
5794.673057123642
 21
6425.109566105202
 31
0.0
 70
    32
  1
N X 1370
 71
     5
 42
4109.999999999971
  3
INABA_S40G
100
AcDbAlignedDimension
 13
3739.673057123657
 23
7305.713332462237
 33
0.0
 14
7849.673057123628
 24
7305.713332462332
 34
0.0
100
AcDbRotatedDimension
1001
ACAD
1000
DSTYLE
1002
{
1002
}
  0
LINE
  5
162E8
330
747D
100
AcDbEntity
  8
部品1
100
AcDbLine
 10
3794.673057123633
 20
9880.713332462264
 30
0.0
 11
3794.673057123655
 21
7370.713332462239
 31
0.0
  0
LINE
  5
162E9
330
747D
100
AcDbEntity
  8
部品1
100
AcDbLine
 10
3819.673057123635
 20
9880.713332462262
 30
0.0
 11
3819.673057123655
 21
7370.713332462239
 31
0.0
  0
DIMENSION
  5
162EA
330
747D
100
AcDbEntity
  8
寸法
 48
50.0
100
AcDbDimension
  2
*D7
 10
3739.673057123657
 20
6771.282561696077
 30
0.0
 11
3431.187775749418
 21
6771.282561696077
 31
0.0
 70
   160
 71
     5
 42
54.99999999999636
  3
INABA_S40G
100
AcDbAlignedDimension
 13
3794.673057123653
 23
7305.713332462239
 33
0.0
 14
3739.673057123657
 24
7305.713332462237
 34
0.0
100
AcDbRotatedDimension
1001
ACAD
1000
DSTYLE
1002
{
1002
}
  0
DIMENSION
  5
162EB
330
747D
100
AcDbEntity
  8
寸法
 48
50.0
100
AcDbDimension
  2
*D8
 10
6534.673057123653
 20
6771.282561696077
 30
0.0
 11
6695.575028123714
 21
6871.282561696077
 31
0.0
 70
   160
 71
     5
 42
48.00000000000363
  3
INABA_S40G
100
AcDbAlignedDimension
 13
6582.673057123656
 23
7331.71333246224
 33
0.0
 14
6534.673057123653
 24
7305.713332462239
 34
0.0
100
AcDbRotatedDimension
1001
ACAD
1000
DSTYLE
1002
{
1070
   279
1070
     2
1002
}
  0
LINE
  5
162EC
330
747D
100
AcDbEntity
  8
部品1
100
AcDbLine
 10
3794.673057123651
 20
7305.713332462239
 30
0.0
 11
3739.673057123657
 21
7305.713332462237
 31
0.0
  0
LINE
  5
162ED
330
747D
100
AcDbEntity
  8
部品1
 48
50.0
100
AcDbLine
 10
3794.673057123656
 20
7341.71333246224
 30
0.0
 11
3771.673057123657
 21
7341.71333246224
 31
0.0
  0
LINE
  5
162EE
330
747D
100
AcDbEntity
  8
部品1
 48
50.0
100
AcDbLine
 10
3804.673057123657
 20
7331.71333246224
 30
0.0
 11
3794.673057123656
 21
7310.713332462239
 31
0.0
  0
LINE
  5
162EF
330
747D
100
AcDbEntity
  8
部品1
 48
50.0
100
AcDbLine
 10
3794.673057123656
 20
7370.713332462239
 30
0.0
 11
3794.673057123653
 21
7305.713332462239
 31
0.0
  0
LINE
  5
162F0
330
747D
100
AcDbEntity
  8
部品1
 48
50.0
100
AcDbLine
 10
3842.673057123657
 20
7331.713332462242
 30
0.0
 11
3842.673057123657
 21
7340.71333246224
 31
0.0
  0
LINE
  5
162F1
330
747D
100
AcDbEntity
  8
部品1
 48
50.0
100
AcDbLine
 10
3842.673057123657
 20
7370.713332462241
 30
0.0
 11
3842.673057123657
 21
7361.713332462241
 31
0.0
  0
LINE
  5
162F2
330
747D
100
AcDbEntity
  8
部品1
100
AcDbLine
 10
3842.673057123657
 20
7370.713332462241
 30
0.0
 11
3794.673057123656
 21
7370.713332462241
 31
0.0
  0
LINE
  5
162F3
330
747D
100
AcDbEntity
  8
部品1
100
AcDbLine
 10
3842.673057123657
 20
7331.713332462242
 30
0.0
 11
3794.673057123656
 21
7331.71333246224
 31
0.0
  0
LINE
  5
162F4
330
747D
100
AcDbEntity
  8
部品1
100
AcDbLine
 10
3794.673057123655
 20
7341.71333246224
 30
0.0
 11
3771.673057123657
 21
7341.71333246224
 31
0.0
  0
LINE
  5
162F5
330
747D
100
AcDbEntity
  8
部品1
100
AcDbLine
 10
3794.673057123655
 20
7360.713332462164
 30
0.0
 11
3739.673057123655
 21
7360.713332462164
 31
0.0
  0
LINE
  5
162F6
330
747D
100
AcDbEntity
  8
部品1
100
AcDbLine
 10
3767.673057123638
 20
7360.713332462201
 30
0.0
 11
3739.673057123655
 21
7360.713332462201
 31
0.0
  0
LINE
  5
162F7
330
747D
100
AcDbEntity
  8
部品1
100
AcDbLine
 10
3767.673057123655
 20
7360.713332462215
 30
0.0
 11
3739.673057123655
 21
7360.713332462215
 31
0.0
  0
LINE
  5
162FB
330
747D
100
AcDbEntity
  8
部品1
100
AcDbLine
 10
3767.673057123644
 20
7780.713332462216
 30
0.0
 11
3739.673057123644
 21
7780.713332462216
 31
0.0
  0
LINE
  5
162FC
330
747D
100
AcDbEntity
  8
部品1
100
AcDbLine
 10
3767.673057123644
 20
8200.713332462216
 30
0.0
 11
3739.673057123644
 21
8200.713332462216
 31
0.0
  0
LINE
  5
162FE
330
747D
100
AcDbEntity
  8
部品1
100
AcDbLine
 10
3767.673057123637
 20
8620.713332462216
 30
0.0
 11
3739.673057123637
 21
8620.713332462216
 31
0.0
  0
LINE
  5
162FF
330
747D
100
AcDbEntity
  8
部品1
100
AcDbLine
 10
7794.673057123659
 20
9880.713332462262
 30
0.0
 11
7794.67305712364
 21
7305.713332462328
 31
0.0
  0
LINE
  5
16300
330
747D
100
AcDbEntity
  8
部品1
100
AcDbLine
 10
7769.673057123664
 20
9880.71333246226
 30
0.0
 11
7769.67305712364
 21
7370.713332462241
 31
0.0
  0
DIMENSION
  5
16301
330
747D
100
AcDbEntity
  8
寸法
 48
50.0
100
AcDbDimension
  2
*D9
 10
7746.673057123638
 20
6771.282561696077
 30
0.0
 11
7635.710159474891
 21
6871.282561696077
 31
0.0
 70
   160
 71
     5
 42
48.00000000000181
  3
INABA_S40G
100
AcDbAlignedDimension
 13
7794.67305712364
 23
7305.713332462328
 33
0.0
 14
7746.673057123638
 24
7331.713332462242
 34
0.0
100
AcDbRotatedDimension
1001
ACAD
1000
DSTYLE
1002
{
1070
   279
1070
     2
1002
}
  0
DIMENSION
  5
16302
330
747D
100
AcDbEntity
  8
寸法
 48
50.0
100
AcDbDimension
  2
*D10
 10
7794.67305712364
 20
6771.282561696077
 30
0.0
 11
8158.158338497877
 21
6771.282561696077
 31
0.0
 70
   160
 71
     5
 42
54.99999999999818
  3
INABA_S40G
100
AcDbAlignedDimension
 13
7849.673057123638
 23
7305.713332462332
 33
0.0
 14
7794.67305712364
 24
7305.713332462328
 34
0.0
100
AcDbRotatedDimension
1001
ACAD
1000
DSTYLE
1002
{
1002
}
  0
LINE
  5
16303
330
747D
100
AcDbEntity
  8
部品1
 48
50.0
100
AcDbLine
 10
7784.673057123639
 20
7331.71333246224
 30
0.0
 11
7794.673057123638
 21
7310.713332462239
 31
0.0
  0
LINE
  5
16304
330
747D
100
AcDbEntity
  8
部品1
100
AcDbLine
 10
7746.673057123638
 20
7370.713332462241
 30
0.0
 11
7794.67305712364
 21
7370.713332462241
 31
0.0
  0
LINE
  5
16305
330
747D
100
AcDbEntity
  8
部品1
100
AcDbLine
 10
7746.673057123638
 20
7331.713332462242
 30
0.0
 11
7794.673057123638
 21
7331.71333246224
 31
0.0
  0
LINE
  5
16306
330
747D
100
AcDbEntity
  8
部品1
 48
50.0
100
AcDbLine
 10
7746.673057123638
 20
7370.713332462241
 30
0.0
 11
7746.673057123638
 21
7361.713332462241
 31
0.0
  0
LINE
  5
16307
330
747D
100
AcDbEntity
  8
部品1
 48
50.0
100
AcDbLine
 10
7746.673057123638
 20
7331.713332462242
 30
0.0
 11
7746.673057123638
 21
7340.71333246224
 31
0.0
  0
LINE
  5
16308
330
747D
100
AcDbEntity
  8
部品1
100
AcDbLine
 10
7794.673057123638
 20
7341.713332462238
 30
0.0
 11
7817.673057123639
 21
7341.71333246224
 31
0.0
  0
LINE
  5
16309
330
747D
100
AcDbEntity
  8
部品1
100
AcDbLine
 10
7794.673057123638
 20
7360.713332462343
 30
0.0
 11
7849.673057123671
 21
7360.713332462343
 31
0.0
  0
LINE
  5
1630A
330
747D
100
AcDbEntity
  8
部品1
100
AcDbLine
 10
7849.673057123638
 20
7305.713332462332
 30
0.0
 11
7794.67305712364
 21
7305.713332462329
 31
0.0
  0
LINE
  5
16317
330
747D
100
AcDbEntity
  8
部品1
100
AcDbLine
 10
7821.673057123668
 20
7780.713332462344
 30
0.0
 11
7849.673057123668
 21
7780.713332462344
 31
0.0
  0
LINE
  5
16319
330
747D
100
AcDbEntity
  8
部品1
100
AcDbLine
 10
7821.673057123668
 20
8200.713332462342
 30
0.0
 11
7849.673057123668
 21
8200.713332462342
 31
0.0
  0
LINE
  5
1631A
330
747D
100
AcDbEntity
  8
部品1
100
AcDbLine
 10
7821.673057123664
 20
8620.713332462342
 30
0.0
 11
7849.673057123664
 21
8620.713332462342
 31
0.0
  0
LINE
  5
1631B
330
747D
100
AcDbEntity
  8
部品1
100
AcDbLine
 10
6534.673057123663
 20
9907.713332462362
 30
0.0
 11
6954.673057123663
 21
9907.713332462362
 31
0.0
  0
LINE
  5
1631C
330
747D
100
AcDbEntity
  8
部品1
100
AcDbLine
 10
6507.673057123664
 20
9907.713332462245
 30
0.0
 11
6744.673057123662
 21
9907.713332462249
 31
0.0
  0
LINE
  5
1631D
330
747D
100
AcDbEntity
  8
部品1
100
AcDbLine
 10
3739.673057123662
 20
9935.713332462245
 30
0.0
 11
7849.673057123664
 21
9935.71333246234
 31
0.0
  0
DIMENSION
  5
1631F
330
747D
100
AcDbEntity
  8
寸法
100
AcDbDimension
  2
*D11
 10
7794.673057123664
 20
10151.52155208734
 30
0.0
 11
7164.673057123664
 21
10251.53336311096
 31
0.0
 70
    32
  1
3X420=<>
 71
     5
 42
1260.000000000001
  3
INABA_S40G
100
AcDbAlignedDimension
 13
6534.673057123663
 23
9935.713332462245
 33
0.0
 14
7794.673057123664
 24
9935.71333246234
 34
0.0
100
AcDbRotatedDimension
1001
ACAD
1000
DSTYLE
1002
{
1002
}
  0
DIMENSION
  5
16320
330
747D
100
AcDbEntity
  8
寸法
100
AcDbDimension
  2
*D12
 10
3794.673057123663
 20
10151.52155208722
 30
0.0
 11
3431.18777574939
 21
10151.52155208722
 31
0.0
 70
   160
 71
     5
 42
55.00000000003456
  3
INABA_S40G
100
AcDbAlignedDimension
 13
3739.673057123628
 23
9935.713332462245
 33
0.0
 14
3794.673057123663
 24
9935.713332462245
 34
0.0
100
AcDbRotatedDimension
1001
ACAD
1000
DSTYLE
1002
{
1002
}
  0
LINE
  5
16321
330
747D
100
AcDbEntity
  8
部品1
100
AcDbLine
 10
3794.67305712363
 20
9935.713332462213
 30
0.0
 11
3794.67305712363
 21
9907.713332462213
 31
0.0
  0
LINE
  5
16322
330
747D
100
AcDbEntity
  8
部品1
100
AcDbLine
 10
3794.673057123662
 20
9935.713332462245
 30
0.0
 11
3794.673057123662
 21
9907.713332462245
 31
0.0
  0
LINE
  5
16323
330
747D
100
AcDbEntity
  8
部品1
100
AcDbLine
 10
3767.67305712363
 20
9880.713332462216
 30
0.0
 11
3739.67305712363
 21
9880.713332462216
 31
0.0
  0
LINE
  5
16327
330
747D
100
AcDbEntity
  8
部品1
100
AcDbLine
 10
6954.673057123663
 20
9907.713332462357
 30
0.0
 11
7821.673057123664
 21
9907.713332462339
 31
0.0
  0
LINE
  5
1632C
330
747D
100
AcDbEntity
  8
部品1
100
AcDbLine
 10
6954.673057123663
 20
9935.713332462363
 30
0.0
 11
6954.673057123663
 21
9907.713332462362
 31
0.0
  0
DIMENSION
  5
16333
330
747D
100
AcDbEntity
  8
寸法
100
AcDbDimension
  2
*D13
 10
7849.673057123664
 20
10151.52155208732
 30
0.0
 11
8158.158338497903
 21
10151.52155208732
 31
0.0
 70
   160
 71
     5
 42
55.0
  3
INABA_S40G
100
AcDbAlignedDimension
 13
7794.673057123664
 23
9935.71333246234
 33
0.0
 14
7849.673057123664
 24
9935.71333246234
 34
0.0
100
AcDbRotatedDimension
1001
ACAD
1000
DSTYLE
1002
{
1002
}
  0
LINE
  5
16334
330
747D
100
AcDbEntity
  8
部品1
100
AcDbLine
 10
7374.673057123662
 20
9935.713332462363
 30
0.0
 11
7374.673057123662
 21
9907.713332462362
 31
0.0
  0
LINE
  5
16335
330
747D
100
AcDbEntity
  8
部品1
100
AcDbLine
 10
7794.673057123664
 20
9935.71333246234
 30
0.0
 11
7794.673057123664
 21
9907.713332462339
 31
0.0
  0
LINE
  5
16336
330
747D
100
AcDbEntity
  8
部品1
100
AcDbLine
 10
7794.673057123664
 20
9935.713332462363
 30
0.0
 11
7794.673057123664
 21
9907.713332462362
 31
0.0
  0
LINE
  5
16337
330
747D
100
AcDbEntity
  8
部品1
100
AcDbLine
 10
7821.673057123664
 20
9880.713332462343
 30
0.0
 11
7849.673057123664
 21
9880.713332462343
 31
0.0
  0
DIMENSION
  5
1659A
330
747D
100
AcDbEntity
  8
寸法
 48
50.0
100
AcDbDimension
  2
*D15
 10
6376.673057123639
 20
6771.282561696077
 30
0.0
 11
6265.710159474891
 21
6871.282561696077
 31
0.0
 70
   160
 71
     5
 42
48.00000000000181
  3
INABA_S40G
100
AcDbAlignedDimension
 13
6424.67305712364
 23
7305.713332462328
 33
0.0
 14
6376.673057123639
 24
7331.713332462242
 34
0.0
100
AcDbRotatedDimension
1001
ACAD
1000
DSTYLE
1002
{
1070
   279
1070
     2
1002
}
  0
DIMENSION
  5
1659C
330
747D
100
AcDbEntity
  8
寸法
 48
50.0
100
AcDbDimension
  2
*D14
 10
3794.673057123653
 20
6771.282561696077
 30
0.0
 11
3955.575028123714
 21
6871.282561696077
 31
0.0
 70
   160
 71
     5
 42
48.00000000000363
  3
INABA_S40G
100
AcDbAlignedDimension
 13
3842.673057123657
 23
7331.71333246224
 33
0.0
 14
3794.673057123653
 24
7305.713332462239
 34
0.0
100
AcDbRotatedDimension
1001
ACAD
1000
DSTYLE
1002
{
1070
   279
1070
     2
1002
}
  0
DIMENSION
  5
165E9
330
747D
100
AcDbEntity
  8
寸法
 48
50.0
100
AcDbDimension
  2
*D16
 10
6424.67305712364
 20
6771.282561696077
 30
0.0
 11
6479.673057123647
 21
6619.590666659846
 31
0.0
 70
   160
 71
     5
 42
110.0000000000127
  3
INABA_S40G
100
AcDbAlignedDimension
 13
6534.673057123653
 23
7305.713332462239
 33
0.0
 14
6424.67305712364
 24
7305.713332462328
 34
0.0
100
AcDbRotatedDimension
1001
ACAD
1000
DSTYLE
1002
{
1070
   279
1070
     2
1002
}
  0
LINE
  5
16656
330
747D
100
AcDbEntity
  8
部品1
100
AcDbLine
 10
6376.673057123639
 20
7370.713332462241
 30
0.0
 11
6424.67305712364
 21
7370.713332462241
 31
0.0
  0
LINE
  5
16657
330
747D
100
AcDbEntity
  8
部品1
 48
50.0
100
AcDbLine
 10
6376.673057123639
 20
7370.713332462241
 30
0.0
 11
6376.673057123639
 21
7361.713332462241
 31
0.0
  0
LINE
  5
16658
330
747D
100
AcDbEntity
  8
部品1
100
AcDbLine
 10
6376.673057123639
 20
7331.713332462242
 30
0.0
 11
6424.673057123638
 21
7331.71333246224
 31
0.0
  0
LINE
  5
16659
330
747D
100
AcDbEntity
  8
部品1
 48
50.0
100
AcDbLine
 10
6376.673057123639
 20
7331.713332462242
 30
0.0
 11
6376.673057123639
 21
7340.71333246224
 31
0.0
  0
LINE
  5
1665A
330
747D
100
AcDbEntity
  8
部品1
 48
50.0
100
AcDbLine
 10
6414.673057123639
 20
7331.71333246224
 30
0.0
 11
6424.673057123638
 21
7310.713332462239
 31
0.0
  0
LINE
  5
1665B
330
747D
100
AcDbEntity
  8
部品1
100
AcDbLine
 10
6424.673057123638
 20
7341.713332462238
 30
0.0
 11
6447.673057123639
 21
7341.71333246224
 31
0.0
  0
LINE
  5
1665C
330
747D
100
AcDbEntity
  8
部品1
100
AcDbLine
 10
6582.673057123656
 20
7370.713332462241
 30
0.0
 11
6534.673057123656
 21
7370.713332462241
 31
0.0
  0
LINE
  5
1665D
330
747D
100
AcDbEntity
  8
部品1
 48
50.0
100
AcDbLine
 10
6582.673057123656
 20
7370.713332462241
 30
0.0
 11
6582.673057123656
 21
7361.713332462241
 31
0.0
  0
LINE
  5
1665E
330
747D
100
AcDbEntity
  8
部品1
100
AcDbLine
 10
6582.673057123656
 20
7331.713332462242
 30
0.0
 11
6534.673057123656
 21
7331.71333246224
 31
0.0
  0
LINE
  5
1665F
330
747D
100
AcDbEntity
  8
部品1
 48
50.0
100
AcDbLine
 10
6544.673057123657
 20
7331.71333246224
 30
0.0
 11
6534.673057123656
 21
7310.713332462239
 31
0.0
  0
LINE
  5
16660
330
747D
100
AcDbEntity
  8
部品1
100
AcDbLine
 10
6534.673057123656
 20
7341.71333246224
 30
0.0
 11
6511.673057123657
 21
7341.71333246224
 31
0.0
  0
LINE
  5
16661
330
747D
100
AcDbEntity
  8
部品1
 48
50.0
100
AcDbLine
 10
6534.673057123656
 20
7370.713332462239
 30
0.0
 11
6534.673057123653
 21
7305.713332462239
 31
0.0
  0
LINE
  5
16662
330
747D
100
AcDbEntity
  8
部品1
 48
50.0
100
AcDbLine
 10
6582.673057123656
 20
7331.713332462242
 30
0.0
 11
6582.673057123656
 21
7340.71333246224
 31
0.0
  0
LINE
  5
16663
330
747D
100
AcDbEntity
  8
部品1
100
AcDbLine
 10
6534.673057123652
 20
7305.713332462239
 30
0.0
 11
6424.673057123643
 21
7305.713332462234
 31
0.0
  0
LINE
  5
16664
330
747D
100
AcDbEntity
  8
部品1
 48
50.0
100
AcDbLine
 10
6424.673057123645
 20
7370.713332462327
 30
0.0
 11
6424.673057123641
 21
7305.713332462328
 31
0.0
  0
LINE
  5
16666
330
747D
100
AcDbEntity
  8
部品1
100
AcDbLine
 10
6534.673057123663
 20
9935.713332462245
 30
0.0
 11
6534.673057123663
 21
9907.713332462245
 31
0.0
  0
LINE
  5
16688
330
747D
100
AcDbEntity
  8
部品1
100
AcDbLine
 10
5137.673057123649
 20
9907.713332462362
 30
0.0
 11
6451.673057123632
 21
9907.713332462357
 31
0.0
  0
LINE
  5
16691
330
747D
100
AcDbEntity
  8
部品1
100
AcDbLine
 10
6004.673057123662
 20
9935.713332462363
 30
0.0
 11
6004.673057123662
 21
9907.713332462362
 31
0.0
  0
LINE
  5
16692
330
747D
100
AcDbEntity
  8
部品1
100
AcDbLine
 10
6424.673057123664
 20
9935.71333246234
 30
0.0
 11
6424.673057123664
 21
9907.713332462339
 31
0.0
  0
DIMENSION
  5
166DD
330
747D
100
AcDbEntity
  8
寸法
 48
50.0
100
AcDbDimension
  2
*D17
 10
6424.673057123664
 20
10151.52155208734
 30
0.0
 11
6479.673057123664
 21
10251.52155208734
 31
0.0
 70
    32
 71
     5
 42
109.9999999999991
  3
INABA_S40G
100
AcDbAlignedDimension
 13
6534.673057123663
 23
9935.713332462293
 33
0.0
 14
6424.673057123664
 24
9935.713332462292
 34
0.0
100
AcDbRotatedDimension
1001
ACAD
1000
DSTYLE
1002
{
1070
   279
1070
     2
1002
}
  0
LINE
  5
16760
330
747D
100
AcDbEntity
  8
部品1
 48
50.0
100
AcDbLine
 10
6479.67305712363
 20
9907.713332462286
 30
0.0
 11
6451.673057123631
 21
9935.713332462341
 31
0.0
  0
LINE
  5
16761
330
747D
100
AcDbEntity
  8
部品1
100
AcDbLine
 10
7794.673057123659
 20
9880.71333246226
 30
0.0
 11
6534.673057123644
 21
9880.713332462262
 31
0.0
  0
LINE
  5
16762
330
747D
100
AcDbEntity
  8
部品1
 48
50.0
100
AcDbLine
 10
6451.673057123631
 20
9907.713332462392
 30
0.0
 11
6451.673057123631
 21
9935.713332462341
 31
0.0
  0
LINE
  5
16763
330
747D
100
AcDbEntity
  8
部品1
 48
50.0
100
AcDbLine
 10
6451.673057123631
 20
9907.713332462286
 30
0.0
 11
6479.67305712363
 21
9907.713332462288
 31
0.0
  0
LINE
  5
168C3
330
747D
100
AcDbEntity
  8
部品1
100
AcDbLine
 10
6503.673057123648
 20
7360.713332462236
 30
0.0
 11
6455.673057123647
 21
7360.713332462236
 31
0.0
  0
LINE
  5
168C4
330
747D
100
AcDbEntity
  8
部品1
 48
50.0
100
AcDbLine
 10
6455.673057123647
 20
7360.713332462238
 30
0.0
 11
6455.67305712365
 21
7305.713332462237
 31
0.0
  0
LINE
  5
168C5
330
747D
100
AcDbEntity
  8
部品1
 48
50.0
100
AcDbLine
 10
6503.673057123648
 20
7360.713332462238
 30
0.0
 11
6503.67305712365
 21
7305.713332462237
 31
0.0
  0
DIMENSION
  5
16913
330
747D
100
AcDbEntity
  8
寸法
 48
50.0
100
AcDbDimension
  2
*D18
 10
7849.673057123664
 20
10400.84302564364
 30
0.0
 11
7164.673057123664
 21
10500.84302564364
 31
0.0
 70
    32
 71
     5
 42
1370.0
  3
INABA_S40G
100
AcDbAlignedDimension
 13
6479.673057123664
 23
10310.50946644529
 33
0.0
 14
7849.673057123664
 24
9935.71333246234
 34
0.0
100
AcDbRotatedDimension
1001
ACAD
1000
DSTYLE
1002
{
1070
    75
1070
     1
1070
   279
1070
     2
1002
}
  0
LINE
  5
172BC
330
747D
100
AcDbEntity
  8
部品1
 48
50.0
100
AcDbLine
 10
6507.673057123631
 20
9880.713332462262
 30
0.0
 11
6507.673057123696
 21
9935.713332462292
 31
0.0
  0
LINE
  5
172BD
330
747D
100
AcDbEntity
  8
部品1
 48
50.0
100
AcDbLine
 10
6451.673057123631
 20
9880.713332462262
 30
0.0
 11
6451.673057123631
 21
9907.713332462286
 31
0.0
  0
LINE
  5
174C8
330
747D
100
AcDbEntity
  8
部品1
 48
50.0
100
AcDbLine
 10
7769.673057123664
 20
9855.713332462217
 30
0.0
 11
6559.673057123617
 21
9855.713332462192
 31
0.0
  0
LINE
  5
174C9
330
747D
100
AcDbEntity
  8
部品1
 48
50.0
100
AcDbLine
 10
7821.673057123664
 20
9907.713332462339
 30
0.0
 11
7794.673057123659
 21
9880.71333246226
 31
0.0
  0
LINE
  5
174CA
330
747D
100
AcDbEntity
  8
部品1
 48
50.0
100
AcDbLine
 10
3794.673057123633
 20
9880.713332462264
 30
0.0
 11
3767.67305712365
 21
9907.713332462362
 31
0.0
  0
DIMENSION
  5
17B86
330
747D
100
AcDbEntity
  8
寸法
 48
50.0
100
AcDbDimension
  2
*D23
 10
5109.673057123664
 20
10400.84302564364
 30
0.0
 11
4424.673057123646
 21
10500.84302564364
 31
0.0
 70
    32
 71
     5
 42
1370.000000000035
  3
INABA_S40G
100
AcDbAlignedDimension
 13
3739.673057123628
 23
9935.713332462213
 33
0.0
 14
5109.673057123664
 24
10310.50946644529
 34
0.0
100
AcDbRotatedDimension
1001
ACAD
1000
DSTYLE
1002
{
1070
   279
1070
     2
1002
}
  0
DIMENSION
  5
17B87
330
747D
100
AcDbEntity
  8
寸法
100
AcDbDimension
  2
*D21
 10
5054.673057123665
 20
10151.52155208734
 30
0.0
 11
4424.673057123664
 21
10251.53336311096
 31
0.0
 70
    32
  1
3X420=<>
 71
     5
 42
1260.000000000001
  3
INABA_S40G
100
AcDbAlignedDimension
 13
3794.673057123663
 23
9935.713332462245
 33
0.0
 14
5054.673057123665
 24
9935.71333246234
 34
0.0
100
AcDbRotatedDimension
1001
ACAD
1000
DSTYLE
1002
{
1002
}
  0
DIMENSION
  5
17B88
330
747D
100
AcDbEntity
  8
寸法
 48
50.0
100
AcDbDimension
  2
*D22
 10
5054.673057123665
 20
10151.52155208734
 30
0.0
 11
5109.673057123664
 21
10251.52155208734
 31
0.0
 70
    32
 71
     5
 42
109.9999999999991
  3
INABA_S40G
100
AcDbAlignedDimension
 13
5164.673057123663
 23
9935.713332462293
 33
0.0
 14
5054.673057123665
 24
9935.713332462292
 34
0.0
100
AcDbRotatedDimension
1001
ACAD
1000
DSTYLE
1002
{
1070
   279
1070
     2
1002
}
  0
LINE
  5
17B89
330
747D
100
AcDbEntity
  8
部品1
100
AcDbLine
 10
5137.67305712363
 20
9880.71333246226
 30
0.0
 11
5081.673057123631
 21
9880.71333246226
 31
0.0
  0
LINE
  5
17B8B
330
747D
100
AcDbEntity
  8
部品1
 48
50.0
100
AcDbLine
 10
5029.673057123634
 20
9855.713332462165
 30
0.0
 11
3819.673057123633
 21
9855.713332462165
 31
0.0
  0
LINE
  5
17B9A
330
747D
100
AcDbEntity
  8
部品1
 48
50.0
100
AcDbLine
 10
5081.673057123631
 20
9880.713332462262
 30
0.0
 11
5081.673057123631
 21
9907.713332462286
 31
0.0
  0
LINE
  5
17B9B
330
747D
100
AcDbEntity
  8
部品1
 48
50.0
100
AcDbLine
 10
5137.673057123631
 20
9880.713332462262
 30
0.0
 11
5137.673057123697
 21
9935.713332462292
 31
0.0
  0
LINE
  5
17B9C
330
747D
100
AcDbEntity
  8
部品1
 48
50.0
100
AcDbLine
 10
5133.673057123647
 20
7360.713332462238
 30
0.0
 11
5133.67305712365
 21
7305.713332462237
 31
0.0
  0
LINE
  5
17B9D
330
747D
100
AcDbEntity
  8
部品1
 48
50.0
100
AcDbLine
 10
5085.673057123647
 20
7360.713332462238
 30
0.0
 11
5085.67305712365
 21
7305.713332462237
 31
0.0
  0
LINE
  5
17B9E
330
747D
100
AcDbEntity
  8
部品1
100
AcDbLine
 10
5133.673057123647
 20
7360.713332462236
 30
0.0
 11
5085.673057123647
 21
7360.713332462236
 31
0.0
  0
LINE
  5
17B9F
330
747D
100
AcDbEntity
  8
部品1
 48
50.0
100
AcDbLine
 10
5081.673057123631
 20
9907.713332462286
 30
0.0
 11
5109.673057123629
 21
9907.713332462288
 31
0.0
  0
LINE
  5
17BA0
330
747D
100
AcDbEntity
  8
部品1
 48
50.0
100
AcDbLine
 10
5081.673057123631
 20
9907.713332462392
 30
0.0
 11
5081.67305712363
 21
9935.713332462341
 31
0.0
  0
LINE
  5
17BA1
330
747D
100
AcDbEntity
  8
部品1
 48
50.0
100
AcDbLine
 10
5109.673057123629
 20
9907.713332462286
 30
0.0
 11
5081.673057123631
 21
9935.713332462341
 31
0.0
  0
LINE
  5
17BA2
330
747D
100
AcDbEntity
  8
部品1
100
AcDbLine
 10
5054.673057123665
 20
9935.71333246234
 30
0.0
 11
5054.673057123665
 21
9907.713332462339
 31
0.0
  0
LINE
  5
17BA3
330
747D
100
AcDbEntity
  8
部品1
100
AcDbLine
 10
4634.673057123662
 20
9935.713332462363
 30
0.0
 11
4634.673057123662
 21
9907.713332462362
 31
0.0
  0
LINE
  5
17BA4
330
747D
100
AcDbEntity
  8
部品1
100
AcDbLine
 10
4214.673057123662
 20
9935.713332462245
 30
0.0
 11
4214.673057123662
 21
9907.713332462245
 31
0.0
  0
LINE
  5
17BA5
330
747D
100
AcDbEntity
  8
部品1
100
AcDbLine
 10
4214.673057123662
 20
9935.713332462245
 30
0.0
 11
4214.673057123662
 21
9907.713332462245
 31
0.0
  0
LINE
  5
17BA6
330
747D
100
AcDbEntity
  8
部品1
100
AcDbLine
 10
4214.673057123662
 20
9935.713332462363
 30
0.0
 11
4214.673057123662
 21
9907.713332462362
 31
0.0
  0
LINE
  5
17BA7
330
747D
100
AcDbEntity
  8
部品1
100
AcDbLine
 10
4214.673057123662
 20
9935.713332462245
 30
0.0
 11
4214.673057123662
 21
9907.713332462245
 31
0.0
  0
LINE
  5
17BA8
330
747D
100
AcDbEntity
  8
部品1
100
AcDbLine
 10
4214.673057123662
 20
9935.713332462245
 30
0.0
 11
4214.673057123662
 21
9907.713332462245
 31
0.0
  0
LINE
  5
17BA9
330
747D
100
AcDbEntity
  8
部品1
100
AcDbLine
 10
4214.673057123662
 20
9935.713332462363
 30
0.0
 11
4214.673057123662
 21
9907.713332462362
 31
0.0
  0
LINE
  5
17BAA
330
747D
100
AcDbEntity
  8
部品1
100
AcDbLine
 10
3767.67305712365
 20
9907.713332462362
 30
0.0
 11
5081.673057123632
 21
9907.713332462362
 31
0.0
  0
LINE
  5
17BB2
330
747D
100
AcDbEntity
  8
部品1
100
AcDbLine
 10
5164.673057123663
 20
9935.713332462245
 30
0.0
 11
5164.673057123663
 21
9907.713332462245
 31
0.0
  0
LINE
  5
17BB3
330
747D
100
AcDbEntity
  8
部品1
 48
50.0
100
AcDbLine
 10
5054.673057123645
 20
7370.713332462327
 30
0.0
 11
5054.673057123642
 21
7305.713332462328
 31
0.0
  0
LINE
  5
17BB4
330
747D
100
AcDbEntity
  8
部品1
100
AcDbLine
 10
5164.673057123652
 20
7305.713332462239
 30
0.0
 11
5054.673057123642
 21
7305.713332462234
 31
0.0
  0
LINE
  5
17BB5
330
747D
100
AcDbEntity
  8
部品1
 48
50.0
100
AcDbLine
 10
5212.673057123657
 20
7331.713332462242
 30
0.0
 11
5212.673057123657
 21
7340.71333246224
 31
0.0
  0
LINE
  5
17BB6
330
747D
100
AcDbEntity
  8
部品1
 48
50.0
100
AcDbLine
 10
5164.673057123657
 20
7370.713332462239
 30
0.0
 11
5164.673057123653
 21
7305.713332462239
 31
0.0
  0
LINE
  5
17BB7
330
747D
100
AcDbEntity
  8
部品1
100
AcDbLine
 10
5164.673057123656
 20
7341.71333246224
 30
0.0
 11
5141.673057123657
 21
7341.71333246224
 31
0.0
  0
LINE
  5
17BB8
330
747D
100
AcDbEntity
  8
部品1
 48
50.0
100
AcDbLine
 10
5174.673057123657
 20
7331.71333246224
 30
0.0
 11
5164.673057123657
 21
7310.713332462239
 31
0.0
  0
LINE
  5
17BB9
330
747D
100
AcDbEntity
  8
部品1
100
AcDbLine
 10
5212.673057123657
 20
7331.713332462242
 30
0.0
 11
5164.673057123657
 21
7331.71333246224
 31
0.0
  0
LINE
  5
17BBA
330
747D
100
AcDbEntity
  8
部品1
 48
50.0
100
AcDbLine
 10
5212.673057123657
 20
7370.713332462241
 30
0.0
 11
5212.673057123657
 21
7361.713332462241
 31
0.0
  0
LINE
  5
17BBB
330
747D
100
AcDbEntity
  8
部品1
100
AcDbLine
 10
5212.673057123657
 20
7370.713332462241
 30
0.0
 11
5164.673057123657
 21
7370.713332462241
 31
0.0
  0
LINE
  5
17BBC
330
747D
100
AcDbEntity
  8
部品1
100
AcDbLine
 10
5054.673057123639
 20
7341.713332462238
 30
0.0
 11
5077.673057123639
 21
7341.71333246224
 31
0.0
  0
LINE
  5
17BBD
330
747D
100
AcDbEntity
  8
部品1
 48
50.0
100
AcDbLine
 10
5044.673057123638
 20
7331.71333246224
 30
0.0
 11
5054.673057123639
 21
7310.713332462239
 31
0.0
  0
LINE
  5
17BBE
330
747D
100
AcDbEntity
  8
部品1
 48
50.0
100
AcDbLine
 10
5006.673057123638
 20
7331.713332462242
 30
0.0
 11
5006.673057123638
 21
7340.71333246224
 31
0.0
  0
LINE
  5
17BBF
330
747D
100
AcDbEntity
  8
部品1
100
AcDbLine
 10
5006.673057123638
 20
7331.713332462242
 30
0.0
 11
5054.673057123639
 21
7331.71333246224
 31
0.0
  0
LINE
  5
17BC0
330
747D
100
AcDbEntity
  8
部品1
 48
50.0
100
AcDbLine
 10
5006.673057123638
 20
7370.713332462241
 30
0.0
 11
5006.673057123638
 21
7361.713332462241
 31
0.0
  0
LINE
  5
17BC1
330
747D
100
AcDbEntity
  8
部品1
100
AcDbLine
 10
5006.673057123638
 20
7370.713332462241
 30
0.0
 11
5054.67305712364
 21
7370.713332462241
 31
0.0
  0
LINE
  5
17BC2
330
747D
100
AcDbEntity
  8
部品1
 48
50.0
100
AcDbLine
 10
3806.673057123655
 20
7351.21333246224
 30
0.0
 11
5042.67305712364
 21
7351.21333246224
 31
0.0
  0
DIMENSION
  5
17BC3
330
747D
100
AcDbEntity
  8
寸法
 48
50.0
100
AcDbDimension
  2
*D20
 10
3842.673057123657
 20
6771.282561696077
 30
0.0
 11
4424.673057123647
 21
6971.282561696077
 31
0.0
 70
    32
  1
有効開口部間口\P <>
 71
     5
 42
1163.999999999981
  3
INABA_S40G
100
AcDbAlignedDimension
 13
5006.673057123638
 23
7331.713332462242
 33
0.0
 14
3842.673057123657
 24
7331.71333246224
 34
0.0
100
AcDbRotatedDimension
1001
ACAD
1000
DSTYLE
1002
{
1070
    75
1070
     1
1070
   279
1070
     2
1002
}
  0
DIMENSION
  5
17BC4
330
747D
100
AcDbEntity
  8
寸法
 48
50.0
100
AcDbDimension
  2
*D19
 10
5006.673057123638
 20
6771.282561696077
 30
0.0
 11
4895.710159474891
 21
6871.282561696077
 31
0.0
 70
   160
 71
     5
 42
48.00000000000181
  3
INABA_S40G
100
AcDbAlignedDimension
 13
5054.67305712364
 23
7305.713332462328
 33
0.0
 14
5006.673057123638
 24
7331.713332462242
 34
0.0
100
AcDbRotatedDimension
1001
ACAD
1000
DSTYLE
1002
{
1070
   279
1070
     2
1002
}
  0
DIMENSION
  5
17C46
330
747D
100
AcDbEntity
  8
寸法
 48
50.0
100
AcDbDimension
  2
*D25
 10
5054.67305712364
 20
6771.282561696077
 30
0.0
 11
5109.673057123647
 21
6619.590666659846
 31
0.0
 70
   160
 71
     5
 42
110.0000000000127
  3
INABA_S40G
100
AcDbAlignedDimension
 13
5164.673057123653
 23
7305.713332462239
 33
0.0
 14
5054.67305712364
 24
7305.713332462328
 34
0.0
100
AcDbRotatedDimension
1001
ACAD
1000
DSTYLE
1002
{
1070
   279
1070
     2
1002
}
  0
DIMENSION
  5
17C47
330
747D
100
AcDbEntity
  8
寸法
 48
50.0
100
AcDbDimension
  2
*D24
 10
5164.673057123653
 20
6771.282561696077
 30
0.0
 11
5325.575028123714
 21
6871.282561696077
 31
0.0
 70
   160
 71
     5
 42
48.00000000000363
  3
INABA_S40G
100
AcDbAlignedDimension
 13
5212.673057123657
 23
7331.71333246224
 33
0.0
 14
5164.673057123653
 24
7305.713332462239
 34
0.0
100
AcDbRotatedDimension
1001
ACAD
1000
DSTYLE
1002
{
1070
   279
1070
     2
1002
}
  0
LINE
  5
17D0F
330
747D
100
AcDbEntity
  8
部品1
100
AcDbLine
 10
7821.673057123655
 20
9460.713332462333
 30
0.0
 11
7849.673057123656
 21
9460.713332462333
 31
0.0
  0
LINE
  5
17D10
330
747D
100
AcDbEntity
  8
部品1
100
AcDbLine
 10
7821.673057123658
 20
9040.713332462335
 30
0.0
 11
7849.673057123658
 21
9040.713332462335
 31
0.0
  0
LINE
  5
17D11
330
747D
100
AcDbEntity
  8
部品1
100
AcDbLine
 10
3767.67305712363
 20
9460.713332462207
 30
0.0
 11
3739.67305712363
 21
9460.713332462207
 31
0.0
  0
LINE
  5
17D12
330
747D
100
AcDbEntity
  8
部品1
100
AcDbLine
 10
3767.673057123634
 20
9040.713332462207
 30
0.0
 11
3739.673057123634
 21
9040.713332462207
 31
0.0
  0
LINE
  5
18097
330
747D
100
AcDbEntity
  8
寸法
 48
50.0
100
AcDbLine
 10
6324.673057123664
 20
10151.52155208734
 30
0.0
 11
5943.497709859141
 21
10151.52155208734
 31
0.0
  0
LINE
  5
18098
330
747D
100
AcDbEntity
  8
寸法
 48
50.0
100
AcDbLine
 10
5708.90012020417
 20
10151.52155208734
 30
0.0
 11
5264.673057123663
 21
10151.52155208734
 31
0.0
  0
TEXT
  5
180AB
330
747D
100
AcDbEntity
  8
文字
 48
50.0
100
AcDbText
 10
5993.356325043227
 20
10182.20631761627
 30
0.0
 40
120.0
  1
1260
  7
STYLE1
100
AcDbText
  0
TEXT
  5
180AD
330
747D
100
AcDbEntity
  8
文字
 48
50.0
100
AcDbText
 10
5818.104667075852
 20
6806.751686299825
 30
0.0
 40
120.0
  1
1164
  7
STYLE1
100
AcDbText
  0
TEXT
  5
180D7
330
747D
100
AcDbEntity
  8
文字
 48
50.0
100
AcDbText
 10
5346.11461961997
 20
10182.20631761627
 30
0.0
 40
120.0
  1
1260
  7
STYLE1
100
AcDbText
  0
LINE
  5
180D8
330
747D
100
AcDbEntity
  8
寸法
 48
50.0
100
AcDbLine
 10
6276.673057123638
 20
6771.282561696077
 30
0.0
 11
5829.216253288978
 21
6771.282561696077
 31
0.0
  0
LINE
  5
180D9
330
747D
100
AcDbEntity
  8
寸法
 48
50.0
100
AcDbLine
 10
5766.651605096413
 20
6771.282561696077
 30
0.0
 11
5216.673057123638
 21
6771.282561696077
 31
0.0
  0
TEXT
  5
180DA
330
747D
100
AcDbEntity
  8
文字
 48
50.0
100
AcDbText
 10
5464.159355185788
 20
6806.751686299825
 30
0.0
 40
120.0
  1
1164
  7
STYLE1
100
AcDbText
  0
LINE
  5
18100
330
747D
100
AcDbEntity
  8
Ｇ．Ｌ
100
AcDbLine
 10
2651.406454453179
 20
2186.623237776073
 30
0.0
 11
14129.50416360947
 21
2186.623237776072
 31
0.0
  0
LINE
  5
18102
330
747D
100
AcDbEntity
  8
部品1
 48
50.0
100
AcDbLine
 10
6399.673057123631
 20
9855.71333246219
 30
0.0
 11
5189.673057123634
 21
9855.713332462165
 31
0.0
  0
LINE
  5
18103
330
747D
100
AcDbEntity
  8
部品1
100
AcDbLine
 10
6424.673057123643
 20
9880.713332462265
 30
0.0
 11
5164.673057123643
 21
9880.713332462262
 31
0.0
  0
LINE
  5
18106
330
747D
100
AcDbEntity
  8
寸法
 48
50.0
100
AcDbLine
 10
6479.563357233136
 20
10327.98576342825
 30
0.0
 11
6479.563357233136
 21
10467.1368910362
 31
0.0
  0
LINE
  5
18107
330
747D
100
AcDbEntity
  8
寸法
 48
50.0
100
AcDbLine
 10
6479.673057123664
 20
10400.84302564364
 30
0.0
 11
5939.308473318088
 21
10400.84302564364
 31
0.0
  0
LINE
  5
18108
330
747D
100
AcDbEntity
  8
寸法
 48
50.0
100
AcDbLine
 10
5109.673057123664
 20
10400.84302564364
 30
0.0
 11
5706.419703089108
 21
10400.84302564364
 31
0.0
  0
TEXT
  5
18109
330
747D
100
AcDbEntity
  8
文字
 48
50.0
100
AcDbText
 10
5981.200887779472
 20
10444.70023837088
 30
0.0
 40
120.0
  1
1370
  7
STYLE1
100
AcDbText
  0
TEXT
  5
1810A
330
747D
100
AcDbEntity
  8
文字
 48
50.0
100
AcDbText
 10
5344.436001573136
 20
10444.70023837088
 30
0.0
 40
120.0
  1
1370
  7
STYLE1
100
AcDbText
  0
LINE
  5
18157
330
747D
100
AcDbEntity
  8
部品1
100
AcDbLine
 10
5081.673057123651
 20
9460.71333246229
 30
0.0
 11
5109.673057123651
 21
9460.71333246229
 31
0.0
  0
LINE
  5
18158
330
747D
100
AcDbEntity
  8
部品1
100
AcDbLine
 10
5081.673057123651
 20
9040.71333246229
 30
0.0
 11
5109.673057123651
 21
9040.71333246229
 31
0.0
  0
LINE
  5
18159
330
747D
100
AcDbEntity
  8
部品1
100
AcDbLine
 10
5081.673057123651
 20
8620.71333246229
 30
0.0
 11
5109.673057123651
 21
8620.71333246229
 31
0.0
  0
LINE
  5
1815A
330
747D
100
AcDbEntity
  8
部品1
100
AcDbLine
 10
5054.67305712365
 20
7370.713332462187
 30
0.0
 11
5054.673057123642
 21
9880.713332462191
 31
0.0
  0
LINE
  5
1815B
330
747D
100
AcDbEntity
  8
部品1
 48
10.0
100
AcDbLine
 10
5029.673057123659
 20
7370.713332462187
 30
0.0
 11
5029.673057123633
 21
9880.713332462191
 31
0.0
  0
LINE
  5
1815C
330
747D
100
AcDbEntity
  8
部品1
100
AcDbLine
 10
5081.673057123631
 20
9907.713332462286
 30
0.0
 11
5081.673057123615
 21
7305.713332462183
 31
0.0
  0
LINE
  5
1815D
330
747D
100
AcDbEntity
  8
部品1
100
AcDbLine
 10
5164.673057123669
 20
7370.713332462187
 30
0.0
 11
5164.673057123643
 21
9880.713332462185
 31
0.0
  0
LINE
  5
1815E
330
747D
100
AcDbEntity
  8
部品1
 48
10.0
100
AcDbLine
 10
5189.673057123664
 20
7370.713332462187
 30
0.0
 11
5189.673057123616
 21
9880.713332462208
 31
0.0
  0
LINE
  5
1815F
330
747D
100
AcDbEntity
  8
部品1
100
AcDbLine
 10
5137.67305712361
 20
7305.713332462189
 30
0.0
 11
5137.673057123633
 21
9935.713332462238
 31
0.0
  0
LINE
  5
18160
330
747D
100
AcDbEntity
  8
部品1
100
AcDbLine
 10
5109.673057123649
 20
9880.713332462208
 30
0.0
 11
5109.673057123622
 21
7360.713332462182
 31
0.0
  0
LINE
  5
18161
330
747D
100
AcDbEntity
  8
部品1
100
AcDbLine
 10
6479.673057123649
 20
9880.713332462208
 30
0.0
 11
6479.673057123623
 21
7360.713332462182
 31
0.0
  0
LINE
  5
18162
330
747D
100
AcDbEntity
  8
部品1
100
AcDbLine
 10
6507.67305712361
 20
7305.713332462189
 30
0.0
 11
6507.673057123632
 21
9935.713332462238
 31
0.0
  0
LINE
  5
18163
330
747D
100
AcDbEntity
  8
部品1
 48
10.0
100
AcDbLine
 10
6559.673057123664
 20
7370.713332462187
 30
0.0
 11
6559.673057123617
 21
9880.713332462208
 31
0.0
  0
LINE
  5
18164
330
747D
100
AcDbEntity
  8
部品1
100
AcDbLine
 10
6534.673057123669
 20
7370.713332462187
 30
0.0
 11
6534.673057123642
 21
9880.713332462185
 31
0.0
  0
LINE
  5
18165
330
747D
100
AcDbEntity
  8
部品1
100
AcDbLine
 10
6451.673057123631
 20
9907.713332462286
 30
0.0
 11
6451.673057123615
 21
7305.713332462183
 31
0.0
  0
LINE
  5
18166
330
747D
100
AcDbEntity
  8
部品1
 48
10.0
100
AcDbLine
 10
6399.673057123659
 20
7370.713332462187
 30
0.0
 11
6399.673057123633
 21
9880.713332462191
 31
0.0
  0
LINE
  5
18167
330
747D
100
AcDbEntity
  8
部品1
100
AcDbLine
 10
6424.67305712365
 20
7370.713332462187
 30
0.0
 11
6424.673057123643
 21
9880.713332462191
 31
0.0
  0
LINE
  5
18168
330
747D
100
AcDbEntity
  8
部品1
100
AcDbLine
 10
6451.673057123651
 20
8620.71333246229
 30
0.0
 11
6479.673057123651
 21
8620.71333246229
 31
0.0
  0
LINE
  5
18169
330
747D
100
AcDbEntity
  8
部品1
100
AcDbLine
 10
6451.673057123651
 20
9040.71333246229
 30
0.0
 11
6479.673057123651
 21
9040.71333246229
 31
0.0
  0
LINE
  5
1816A
330
747D
100
AcDbEntity
  8
部品1
100
AcDbLine
 10
6451.673057123651
 20
9460.71333246229
 30
0.0
 11
6479.673057123651
 21
9460.71333246229
 31
0.0
  0
LINE
  5
1816B
330
747D
100
AcDbEntity
  8
部品1
 48
50.0
100
AcDbLine
 10
6507.673057123684
 20
9907.713332462099
 30
0.0
 11
6534.673057123673
 21
9880.713332462113
 31
0.0
  0
LINE
  5
1816C
330
747D
100
AcDbEntity
  8
部品1
 48
50.0
100
AcDbLine
 10
6451.673057123699
 20
9907.713332462193
 30
0.0
 11
6424.673057123695
 21
9880.713332462189
 31
0.0
  0
LINE
  5
1816D
330
747D
100
AcDbEntity
  8
部品1
 48
50.0
100
AcDbLine
 10
5137.673057123684
 20
9907.713332462099
 30
0.0
 11
5164.673057123673
 21
9880.713332462113
 31
0.0
  0
LINE
  5
1816E
330
747D
100
AcDbEntity
  8
部品1
 48
50.0
100
AcDbLine
 10
5081.673057123698
 20
9907.713332462193
 30
0.0
 11
5054.673057123695
 21
9880.713332462189
 31
0.0
  0
LINE
  5
1816F
330
747D
100
AcDbEntity
  8
部品1
100
AcDbLine
 10
5054.673057123642
 20
9880.71333246226
 30
0.0
 11
3794.673057123633
 21
9880.713332462264
 31
0.0
  0
LINE
  5
18170
330
747D
100
AcDbEntity
  8
部品1
100
AcDbLine
 10
6507.673057123632
 20
9880.713332462262
 30
0.0
 11
6451.673057123631
 21
9880.71333246226
 31
0.0
  0
LINE
  5
18171
330
747D
100
AcDbEntity
  8
部品1
100
AcDbLine
 10
6451.673057123658
 20
8200.71333246229
 30
0.0
 11
6479.673057123658
 21
8200.71333246229
 31
0.0
  0
LINE
  5
18172
330
747D
100
AcDbEntity
  8
部品1
100
AcDbLine
 10
6451.673057123658
 20
7780.71333246229
 30
0.0
 11
6479.673057123658
 21
7780.71333246229
 31
0.0
  0
LINE
  5
18173
330
747D
100
AcDbEntity
  8
部品1
100
AcDbLine
 10
5081.673057123658
 20
7780.71333246229
 30
0.0
 11
5109.673057123657
 21
7780.71333246229
 31
0.0
  0
LINE
  5
18174
330
747D
100
AcDbEntity
  8
部品1
100
AcDbLine
 10
5081.673057123658
 20
8200.71333246229
 30
0.0
 11
5109.673057123657
 21
8200.71333246229
 31
0.0
  0
LINE
  5
18A12
330
747D
100
AcDbEntity
  8
部品1
100
AcDbLine
 10
5584.673057123663
 20
9935.713332462245
 30
0.0
 11
5584.673057123663
 21
9907.713332462245
 31
0.0
  0
TEXT
  5
18D2D
330
747D
100
AcDbEntity
  8
文字
 62
     7
 48
50.0
100
AcDbText
 10
15022.63965474516
 20
9910.013745883727
 30
0.0
 40
100.0
  1
F12,Y10        1.0
  7
STYLE1
100
AcDbText
  0
TEXT
  5
18D2E
330
747D
100
AcDbEntity
  8
文字
 62
     7
 48
50.0
100
AcDbText
 10
13583.11819016569
 20
9910.01374588373
 30
0.0
 40
100.0
  1
梁中
  7
STYLE1
100
AcDbText
  0
TEXT
  5
18D2F
330
747D
100
AcDbEntity
  8
文字
 62
     7
 48
50.0
100
AcDbText
 10
13248.77747366448
 20
8720.013745883731
 30
0.0
 40
100.0
  1
14
  7
STYLE1
100
AcDbText
  0
LINE
  5
18D30
330
747D
100
AcDbEntity
  8
仕様書枠
 48
50.0
100
AcDbLine
 10
16307.19999999999
 20
9879.599999999999
 30
0.0
 11
13127.2
 21
9879.600000000001
 31
0.0
  0
LINE
  5
18D31
330
747D
100
AcDbEntity
  8
仕様書枠
 48
50.0
100
AcDbLine
 10
16307.19999999999
 20
11239.6
 30
0.0
 11
13127.2
 21
11239.6
 31
0.0
  0
LINE
  5
18D32
330
747D
100
AcDbEntity
  8
仕様書枠
 48
50.0
100
AcDbLine
 10
16307.2
 20
8179.6
 30
0.0
 11
16307.2
 21
11239.6
 31
0.0
  0
LINE
  5
18D33
330
747D
100
AcDbEntity
  8
仕様書枠
 48
50.0
100
AcDbLine
 10
14785.2
 20
11239.59999999999
 30
0.0
 11
14785.2
 21
8689.6
 31
0.0
  0
LINE
  5
18D34
330
747D
100
AcDbEntity
  8
仕様書枠
 48
50.0
100
AcDbLine
 10
13490.2
 20
11239.6
 30
0.0
 11
13490.2
 21
8689.6
 31
0.0
  0
LINE
  5
18D35
330
747D
100
AcDbEntity
  8
仕様書枠
 48
50.0
100
AcDbLine
 10
16307.19999999999
 20
11069.6
 30
0.0
 11
13127.2
 21
11069.6
 31
0.0
  0
LINE
  5
18D36
330
747D
100
AcDbEntity
  8
仕様書枠
 48
50.0
100
AcDbLine
 10
16307.19999999999
 20
10729.6
 30
0.0
 11
13127.2
 21
10729.6
 31
0.0
  0
LINE
  5
18D37
330
747D
100
AcDbEntity
  8
仕様書枠
 48
50.0
100
AcDbLine
 10
16307.19999999999
 20
10899.6
 30
0.0
 11
13127.2
 21
10899.6
 31
0.0
  0
LINE
  5
18D38
330
747D
100
AcDbEntity
  8
仕様書枠
 48
50.0
100
AcDbLine
 10
16307.19999999999
 20
10389.6
 30
0.0
 11
13127.19999999999
 21
10389.6
 31
0.0
  0
LINE
  5
18D39
330
747D
100
AcDbEntity
  8
仕様書枠
 48
50.0
100
AcDbLine
 10
16307.19999999999
 20
10219.6
 30
0.0
 11
13127.19999999999
 21
10219.6
 31
0.0
  0
LINE
  5
18D3A
330
747D
100
AcDbEntity
  8
仕様書枠
 48
50.0
100
AcDbLine
 10
16307.19999999999
 20
10559.6
 30
0.0
 11
13127.19999999999
 21
10559.6
 31
0.0
  0
TEXT
  5
18D3B
330
747D
100
AcDbEntity
  8
文字
 62
     7
 48
50.0
100
AcDbText
 10
13197.42518560407
 20
11100.01374588373
 30
0.0
 40
100.0
  1
品番
  7
STYLE1
100
AcDbText
  0
TEXT
  5
18D3C
330
747D
100
AcDbEntity
  8
文字
 62
     7
 48
50.0
100
AcDbText
 10
13271.19032244792
 20
10930.01374588373
 30
0.0
 40
100.0
  1
1
  7
STYLE1
100
AcDbText
  0
TEXT
  5
18D3D
330
747D
100
AcDbEntity
  8
文字
 62
     7
 48
50.0
100
AcDbText
 10
13271.19032244792
 20
10760.01374588373
 30
0.0
 40
100.0
  1
2
  7
STYLE1
100
AcDbText
  0
TEXT
  5
18D3E
330
747D
100
AcDbEntity
  8
文字
 62
     7
 48
50.0
100
AcDbText
 10
13271.19032244792
 20
10420.01374588373
 30
0.0
 40
100.0
  1
4
  7
STYLE1
100
AcDbText
  0
TEXT
  5
18D3F
330
747D
100
AcDbEntity
  8
文字
 62
     7
 48
50.0
100
AcDbText
 10
13271.19032244792
 20
10590.01374588373
 30
0.0
 40
100.0
  1
3
  7
STYLE1
100
AcDbText
  0
TEXT
  5
18D40
330
747D
100
AcDbEntity
  8
文字
 62
     7
 48
50.0
100
AcDbText
 10
13732.03840939434
 20
11100.01374588373
 30
0.0
 40
100.0
  1
部　　品　　名
  7
STYLE1
100
AcDbText
  0
TEXT
  5
18D41
330
747D
100
AcDbEntity
  8
文字
 62
     7
 48
50.0
100
AcDbText
 10
14859.79774614482
 20
11100.01374588373
 30
0.0
 40
100.0
  1
材料（材質）　　単位mm
  7
STYLE1
100
AcDbText
  0
TEXT
  5
18D42
330
747D
100
AcDbEntity
  8
文字
 62
     7
 48
50.0
100
AcDbText
 10
13583.11819016569
 20
10930.01374588372
 30
0.0
 40
100.0
  1
土台枠
  7
STYLE1
100
AcDbText
  0
TEXT
  5
18D43
330
747D
100
AcDbEntity
  8
文字
 62
     7
 48
50.0
100
AcDbText
 10
13583.11819016569
 20
10760.01374588372
 30
0.0
 40
100.0
  1
柱
  7
STYLE1
100
AcDbText
  0
TEXT
  5
18D44
330
747D
100
AcDbEntity
  8
文字
 62
     7
 48
50.0
100
AcDbText
 10
13583.11819016569
 20
10590.01374588373
 30
0.0
 40
100.0
  1
桁前
  7
STYLE1
100
AcDbText
  0
TEXT
  5
18D45
330
747D
100
AcDbEntity
  8
文字
 62
     7
 48
50.0
100
AcDbText
 10
13583.11819016569
 20
10420.01374588373
 30
0.0
 40
100.0
  1
桁後
  7
STYLE1
100
AcDbText
  0
TEXT
  5
18D46
330
747D
100
AcDbEntity
  8
文字
 62
     7
 48
50.0
100
AcDbText
 10
13271.19032244792
 20
10250.01374588373
 30
0.0
 40
100.0
  1
5
  7
STYLE1
100
AcDbText
  0
TEXT
  5
18D47
330
747D
100
AcDbEntity
  8
文字
 62
     7
 48
50.0
100
AcDbText
 10
13583.11819016569
 20
10250.01374588373
 30
0.0
 40
100.0
  1
妻板左右
  7
STYLE1
100
AcDbText
  0
TEXT
  5
18D48
330
747D
100
AcDbEntity
  8
文字
 62
     7
 48
50.0
100
AcDbText
 10
13583.11819016569
 20
8890.013745883727
 30
0.0
 40
100.0
  1
シャッターレール
  7
STYLE1
100
AcDbText
  0
TEXT
  5
18D49
330
747D
100
AcDbEntity
  8
文字
 62
     7
 48
50.0
100
AcDbText
 10
13248.77747366448
 20
9400.013745883727
 30
0.0
 40
100.0
  1
10
  7
STYLE1
100
AcDbText
  0
TEXT
  5
18D4A
330
747D
100
AcDbEntity
  8
文字
 62
     7
 48
50.0
100
AcDbText
 10
13583.11819016569
 20
9400.013745883729
 30
0.0
 40
100.0
  1
壁パネル
  7
STYLE1
100
AcDbText
  0
TEXT
  5
18D4B
330
747D
100
AcDbEntity
  8
文字
 62
     7
 48
50.0
100
AcDbText
 10
13583.11819016569
 20
9570.013745883727
 30
0.0
 40
100.0
  1
屋根パネル
  7
STYLE1
100
AcDbText
  0
TEXT
  5
18D4C
330
747D
100
AcDbEntity
  8
文字
 62
     7
 48
50.0
100
AcDbText
 10
13583.11819016569
 20
9740.013745883729
 30
0.0
 40
100.0
  1
母屋中
  7
STYLE1
100
AcDbText
  0
TEXT
  5
18D4D
330
747D
100
AcDbEntity
  8
文字
 62
     7
 48
50.0
100
AcDbText
 10
13583.11819016569
 20
10080.01374588372
 30
0.0
 40
100.0
  1
鼻隠シ前後
  7
STYLE1
100
AcDbText
  0
TEXT
  5
18D4E
330
747D
100
AcDbEntity
  8
文字
 62
     7
 48
50.0
100
AcDbText
 10
13271.19032244792
 20
9740.013745883729
 30
0.0
 40
100.0
  1
8
  7
STYLE1
100
AcDbText
  0
TEXT
  5
18D4F
330
747D
100
AcDbEntity
  8
文字
 62
     7
 48
50.0
100
AcDbText
 10
13271.19032244792
 20
9570.013745883729
 30
0.0
 40
100.0
  1
9
  7
STYLE1
100
AcDbText
  0
TEXT
  5
18D50
330
747D
100
AcDbEntity
  8
文字
 62
     7
 48
50.0
100
AcDbText
 10
13271.19032244792
 20
9910.01374588373
 30
0.0
 40
100.0
  1
7
  7
STYLE1
100
AcDbText
  0
TEXT
  5
18D51
330
747D
100
AcDbEntity
  8
文字
 62
     7
 48
50.0
100
AcDbText
 10
13271.19032244792
 20
10080.01374588373
 30
0.0
 40
100.0
  1
6
  7
STYLE1
100
AcDbText
  0
LINE
  5
18D52
330
747D
100
AcDbEntity
  8
仕様書枠
 48
50.0
100
AcDbLine
 10
16307.19999999999
 20
9539.599999999998
 30
0.0
 11
13127.19999999999
 21
9539.6
 31
0.0
  0
LINE
  5
18D53
330
747D
100
AcDbEntity
  8
仕様書枠
 48
50.0
100
AcDbLine
 10
16307.19999999999
 20
9199.599999999998
 30
0.0
 11
13127.19999999999
 21
9199.600000000001
 31
0.0
  0
LINE
  5
18D54
330
747D
100
AcDbEntity
  8
仕様書枠
 48
50.0
100
AcDbLine
 10
16307.19999999999
 20
9369.599999999998
 30
0.0
 11
13127.19999999999
 21
9369.600000000001
 31
0.0
  0
LINE
  5
18D55
330
747D
100
AcDbEntity
  8
仕様書枠
 48
50.0
100
AcDbLine
 10
16307.19999999999
 20
10049.6
 30
0.0
 11
13127.2
 21
10049.6
 31
0.0
  0
LINE
  5
18D56
330
747D
100
AcDbEntity
  8
仕様書枠
 48
50.0
100
AcDbLine
 10
16307.19999999999
 20
9709.6
 30
0.0
 11
13127.2
 21
9709.600000000001
 31
0.0
  0
TEXT
  5
18D57
330
747D
100
AcDbEntity
  8
文字
 62
     7
 48
50.0
100
AcDbText
 10
13248.77747366448
 20
9230.013745883727
 30
0.0
 40
100.0
  1
11
  7
STYLE1
100
AcDbText
  0
TEXT
  5
18D58
330
747D
100
AcDbEntity
  8
文字
 62
     7
 48
50.0
100
AcDbText
 10
13583.11819016569
 20
9060.013745883727
 30
0.0
 40
100.0
  1
シャッターカバー
 41
0.9
  7
STYLE1
100
AcDbText
  0
LINE
  5
18D59
330
747D
100
AcDbEntity
  8
仕様書枠
 48
50.0
100
AcDbLine
 10
16307.19999999999
 20
9029.6
 30
0.0
 11
13127.19999999999
 21
9029.6
 31
0.0
  0
TEXT
  5
18D5B
330
747D
100
AcDbEntity
  8
文字
 62
     7
 48
50.0
100
AcDbText
 10
13583.11819016569
 20
8720.013745883729
 30
0.0
 40
100.0
  1
棚板（別売）
  7
STYLE1
100
AcDbText
  0
LINE
  5
18D5C
330
747D
100
AcDbEntity
  8
仕様書枠
 48
50.0
100
AcDbLine
 10
16307.19999999999
 20
8859.6
 30
0.0
 11
13127.19999999999
 21
8859.600000000002
 31
0.0
  0
TEXT
  5
18D5D
330
747D
100
AcDbEntity
  8
文字
 62
     7
 48
50.0
100
AcDbText
 10
13583.11819016569
 20
9230.013745883729
 30
0.0
 40
100.0
  1
シャッター
  7
STYLE1
100
AcDbText
  0
TEXT
  5
18D5E
330
747D
100
AcDbEntity
  8
文字
 62
     7
 48
50.0
100
AcDbText
 10
13248.77747366448
 20
8890.013745883729
 30
0.0
 40
100.0
  1
13
  7
STYLE1
100
AcDbText
  0
TEXT
  5
18D5F
330
747D
100
AcDbEntity
  8
文字
 62
     7
 48
50.0
100
AcDbText
 10
13248.77747366448
 20
9060.013745883729
 30
0.0
 40
100.0
  1
12
  7
STYLE1
100
AcDbText
  0
TEXT
  5
18D60
330
747D
100
AcDbEntity
  8
文字
 62
     7
 48
50.0
100
AcDbText
 10
15022.63965474517
 20
10930.01374588372
 30
0.0
 40
100.0
  1
F12            1.2
  7
STYLE1
100
AcDbText
  0
TEXT
  5
18D62
330
747D
100
AcDbEntity
  8
文字
 62
     7
 48
50.0
100
AcDbText
 10
15022.63965474517
 20
10590.01374588372
 30
0.0
 40
100.0
  1
Y10            1.0
  7
STYLE1
100
AcDbText
  0
TEXT
  5
18D63
330
747D
100
AcDbEntity
  8
文字
 62
     7
 48
50.0
100
AcDbText
 10
15022.63965474516
 20
10420.01374588372
 30
0.0
 40
100.0
  1
Y10            1.0
  7
STYLE1
100
AcDbText
  0
TEXT
  5
18D64
330
747D
100
AcDbEntity
  8
文字
 62
     7
 48
50.0
100
AcDbText
 10
15022.63965474517
 20
10250.01374588372
 30
0.0
 40
100.0
  1
Y10            0.7
  7
STYLE1
100
AcDbText
  0
TEXT
  5
18D65
330
747D
100
AcDbEntity
  8
文字
 62
     7
 48
50.0
100
AcDbText
 10
15022.63965474516
 20
10080.01374588372
 30
0.0
 40
100.0
  1
Y10            0.7
  7
STYLE1
100
AcDbText
  0
TEXT
  5
18D66
330
747D
100
AcDbEntity
  8
文字
 62
     7
 48
50.0
100
AcDbText
 10
15022.63965474517
 20
9740.013745883725
 30
0.0
 40
100.0
  1
F12            1.0
  7
STYLE1
100
AcDbText
  0
TEXT
  5
18D67
330
747D
100
AcDbEntity
  8
文字
 62
     7
 48
50.0
100
AcDbText
 10
15022.63965474517
 20
9570.013745883725
 30
0.0
 40
100.0
  1
Y10            0.5
  7
STYLE1
100
AcDbText
  0
TEXT
  5
18D68
330
747D
100
AcDbEntity
  8
文字
 62
     7
 48
50.0
100
AcDbText
 10
15022.63965474516
 20
9400.013745883725
 30
0.0
 40
100.0
  1
F12            0.7
  7
STYLE1
100
AcDbText
  0
TEXT
  5
18D69
330
747D
100
AcDbEntity
  8
文字
 62
     7
 48
50.0
100
AcDbText
 10
14850.83183167177
 20
8890.013745883726
 30
0.0
 40
100.0
  1
アルミニウム合金押出形材
  7
STYLE1
100
AcDbText
  0
TEXT
  5
18D6B
330
747D
100
AcDbEntity
  8
文字
 62
     7
 48
50.0
100
AcDbText
 10
15022.63965474516
 20
9230.013745883725
 30
0.0
 40
100.0
  1
Z08            0.5
  7
STYLE1
100
AcDbText
  0
TEXT
  5
18D6C
330
747D
100
AcDbEntity
  8
文字
 62
     7
 48
50.0
100
AcDbText
 10
15022.63965474516
 20
8720.013745883727
 30
0.0
 40
100.0
  1
F12            0.6
  7
STYLE1
100
AcDbText
  0
LINE
  5
18D6D
330
747D
100
AcDbEntity
  8
仕様書枠
 48
50.0
100
AcDbLine
 10
16307.19999999999
 20
8519.599999999998
 30
0.0
 11
13127.19999999999
 21
8519.600000000002
 31
0.0
  0
LINE
  5
18D6E
330
747D
100
AcDbEntity
  8
仕様書枠
 48
50.0
100
AcDbLine
 10
16307.19999999999
 20
8349.599999999998
 30
0.0
 11
13127.19999999999
 21
8349.6
 31
0.0
  0
LINE
  5
18D6F
330
747D
100
AcDbEntity
  8
仕様書枠
 48
50.0
100
AcDbLine
 10
16307.19999999999
 20
8179.599999999998
 30
0.0
 11
13127.19999999999
 21
8179.6
 31
0.0
  0
TEXT
  5
18D70
330
747D
100
AcDbEntity
  8
文字
 62
     7
 48
50.0
100
AcDbText
 10
13229.83081656555
 20
8550.013745883727
 30
0.0
 40
100.0
  1
F12→溶融亜鉛めっき鋼板(JIS G 3302)
  7
STYLE1
100
AcDbText
  0
TEXT
  5
18D71
330
747D
100
AcDbEntity
  8
文字
 62
     7
 48
50.0
100
AcDbText
 10
13229.83081656554
 20
8380.013745883728
 30
0.0
 40
100.0
  1
Y10→溶融亜鉛-5％アルミニウム合金めっき鋼板(JIS G 3317)
 41
0.9
  7
STYLE1
100
AcDbText
  0
TEXT
  5
18D72
330
747D
100
AcDbEntity
  8
文字
 62
     7
 48
50.0
100
AcDbText
 10
13229.83081656555
 20
8210.013745883729
 30
0.0
 40
100.0
  1
Z08→塗装溶融亜鉛めっき鋼板(JIS G 3313)
  7
STYLE1
100
AcDbText
  0
LINE
  5
18D73
330
747D
100
AcDbEntity
  8
仕様書枠
 48
50.0
100
AcDbLine
 10
13127.2
 20
11239.6
 30
0.0
 11
13127.2
 21
8179.600000000002
 31
0.0
  0
TEXT
  5
18EF1
330
747D
100
AcDbEntity
  8
文字
 62
     7
 48
50.0
100
AcDbText
 10
13208.66940634409
 20
75.99010014536543
 30
0.0
 40
100.0
  1
○床面積 ： Ｎ［連続数］×3.60㎡(1.09坪)
  7
STYLE2
100
AcDbText
  0
TEXT
  5
1946A
330
747D
100
AcDbEntity
  8
文字
 62
     7
 48
50.0
100
AcDbText
 10
14259.15529363637
 20
483.8967129911416
 30
0.0
 40
160.0
  1
FXN-1326HL-N
  7
MSPゴシック
100
AcDbText
  0
DIMENSION
  5
1946B
330
747D
100
AcDbEntity
  8
寸法
100
AcDbDimension
  2
*D26
 10
9779.640118290608
 20
2336.623237776066
 30
0.0
 11
9679.628307266987
 21
3381.623237776068
 31
0.0
 70
    32
 71
     5
 42
2090.000000000001
  3
INABA_S40G
100
AcDbAlignedDimension
 13
10623.39024747387
 23
4426.623237776067
 33
0.0
 14
10623.39024747387
 24
2336.623237776066
 34
0.0
 50
90.0
100
AcDbRotatedDimension
1001
ACAD
1000
DSTYLE
1002
{
1070
   174
1070
     0
1070
   272
1070
     1
1070
   288
1070
     0
1070
   341
1005
0
1002
}
  0
DIMENSION
  5
1946C
330
747D
100
AcDbEntity
  8
寸法
100
AcDbDimension
  2
*D27
 10
9479.640118290609
 20
4661.623237776072
 30
0.0
 11
9379.628307266985
 21
3474.12323777607
 31
0.0
 70
    32
 71
     5
 42
2375.000000000005
  3
INABA_S40G
100
AcDbAlignedDimension
 13
10623.39024747387
 23
2286.623237776066
 33
0.0
 14
10563.39024747387
 24
4661.623237776071
 34
0.0
 50
90.0
100
AcDbRotatedDimension
1001
ACAD
1000
DSTYLE
1002
{
1070
   174
1070
     0
1070
   272
1070
     1
1070
   288
1070
     0
1070
   341
1005
0
1002
}
  0
DIMENSION
  5
1946D
330
747D
100
AcDbEntity
  8
寸法
100
AcDbDimension
  2
*D28
 10
13958.317405446
 20
4606.623237776074
 30
0.0
 11
13858.30559442237
 21
3446.623237776076
 31
0.0
 70
    32
 71
     5
 42
2320.000000000001
  3
INABA_S40G
100
AcDbAlignedDimension
 13
13253.39024747387
 23
2286.623237776074
 33
0.0
 14
13333.39024747387
 24
4606.623237776074
 34
0.0
 50
90.0
100
AcDbRotatedDimension
1001
ACAD
1000
DSTYLE
1002
{
1070
   174
1070
     0
1070
   272
1070
     1
1070
   288
1070
     0
1070
   341
1005
0
1002
}
  0
LINE
  5
1946E
330
747D
100
AcDbEntity
  8
細線
 48
50.0
100
AcDbLine
 10
12700.89024747387
 20
4426.623237776071
 30
0.0
 11
12700.89024747387
 21
2336.623237776073
 31
0.0
  0
LINE
  5
1946F
330
747D
100
AcDbEntity
  8
細線
 48
50.0
100
AcDbLine
 10
12715.89024747387
 20
4426.623237776071
 30
0.0
 11
12715.89024747387
 21
2336.623237776073
 31
0.0
  0
LINE
  5
19470
330
747D
100
AcDbEntity
  8
細線
 48
50.0
100
AcDbLine
 10
12575.89024747387
 20
4426.623237776071
 30
0.0
 11
12575.89024747387
 21
2336.623237776073
 31
0.0
  0
LINE
  5
19471
330
747D
100
AcDbEntity
  8
細線
 48
50.0
100
AcDbLine
 10
12560.89024747387
 20
4426.623237776071
 30
0.0
 11
12560.89024747387
 21
2336.623237776073
 31
0.0
  0
LINE
  5
19472
330
747D
100
AcDbEntity
  8
細線
 48
50.0
100
AcDbLine
 10
12420.89024747387
 20
4426.623237776071
 30
0.0
 11
12420.89024747387
 21
2336.623237776073
 31
0.0
  0
LINE
  5
19473
330
747D
100
AcDbEntity
  8
細線
 48
50.0
100
AcDbLine
 10
12435.89024747387
 20
4426.623237776071
 30
0.0
 11
12435.89024747387
 21
2336.623237776073
 31
0.0
  0
LINE
  5
19474
330
747D
100
AcDbEntity
  8
部品1
100
AcDbLine
 10
12358.39024747386
 20
4426.623237776071
 30
0.0
 11
12358.39024747386
 21
2336.623237776073
 31
0.0
  0
LINE
  5
19475
330
747D
100
AcDbEntity
  8
部品1
100
AcDbLine
 10
11798.6153779031
 20
4786.82762573909
 30
0.0
 11
12124.07039154614
 21
4769.30956678023
 31
0.0
  0
ARC
  5
19476
330
747D
100
AcDbEntity
  8
部品1
100
AcDbCircle
 10
13319.0177832878
 20
4500.646995041864
 30
0.0
 40
0.7
100
AcDbArc
 50
275.0921697642079
 51
354.1866997667606
  0
ARC
  5
19477
330
747D
100
AcDbEntity
  8
部品1
100
AcDbCircle
 10
13329.87712903712
 20
4577.690249859788
 30
0.0
 40
0.7
100
AcDbArc
 50
275.0921697642079
 51
354.1866997665532
  0
ARC
  5
19478
330
747D
100
AcDbEntity
  8
部品1
100
AcDbCircle
 10
13330.20553427973
 20
4574.004853002701
 30
0.0
 40
3.0
100
AcDbArc
 50
95.09216976420788
 51
174.1866997665532
  0
ARC
  5
19479
330
747D
100
AcDbEntity
  8
部品1
100
AcDbCircle
 10
13319.3461885304
 20
4496.961598184774
 30
0.0
 40
3.0
100
AcDbArc
 50
95.09216976420788
 51
174.1866997665532
  0
ARC
  5
1947A
330
747D
100
AcDbEntity
  8
部品1
 48
50.0
100
AcDbCircle
 10
13308.3180532553
 20
4487.370853580894
 30
0.0
 40
7.0
100
AcDbArc
 50
267.8377559869492
 51
354.1866997665532
  0
ARC
  5
1947B
330
747D
100
AcDbEntity
  8
部品1
 48
50.0
100
AcDbCircle
 10
13325.64014971981
 20
4598.273400723068
 30
0.0
 40
7.0
100
AcDbArc
 50
354.1866997665532
 51
87.03587545283228
  0
LINE
  5
1947C
330
747D
100
AcDbEntity
  8
部品1
 48
50.0
100
AcDbLine
 10
13316.3616168598
 20
4497.265459901679
 30
0.0
 11
13315.28205382006
 21
4486.66184290812
 31
0.0
  0
LINE
  5
1947D
330
747D
100
AcDbEntity
  8
部品1
 48
50.0
100
AcDbLine
 10
13327.22096260912
 20
4574.308714719601
 30
0.0
 11
13319.71418334428
 21
4500.576093974593
 31
0.0
  0
LINE
  5
1947E
330
747D
100
AcDbEntity
  8
部品1
 48
50.0
100
AcDbLine
 10
13332.60415028457
 20
4597.56439005029
 30
0.0
 11
13330.5735290936
 21
4577.619348792512
 31
0.0
  0
ARC
  5
1947F
330
747D
100
AcDbEntity
  8
部品1
100
AcDbCircle
 10
10569.42733934523
 20
4540.437396734978
 30
0.0
 40
0.7
100
AcDbArc
 50
181.0932240293156
 51
260.1877540314845
  0
ARC
  5
19480
330
747D
100
AcDbEntity
  8
部品1
100
AcDbCircle
 10
10564.65466574762
 20
4633.303174935096
 30
0.0
 40
0.7
100
AcDbArc
 50
181.0932240292114
 51
260.1877540314845
  0
ARC
  5
19481
330
747D
100
AcDbEntity
  8
部品1
100
AcDbCircle
 10
10564.0241113446
 20
4629.657300397699
 30
0.0
 40
3.0
100
AcDbArc
 50
1.093224029315636
 51
80.18775403169875
  0
ARC
  5
19482
330
747D
100
AcDbEntity
  8
部品1
100
AcDbCircle
 10
10568.79678494221
 20
4536.791522197578
 30
0.0
 40
3.0
100
AcDbArc
 50
1.093224029315636
 51
80.18775403169875
  0
ARC
  5
19483
330
747D
100
AcDbEntity
  8
部品1
 48
50.0
100
AcDbCircle
 10
10578.99691731741
 20
4526.399278815097
 30
0.0
 40
7.0
100
AcDbArc
 50
181.0932240293156
 51
267.8377559869492
  0
ARC
  5
19484
330
747D
100
AcDbEntity
  8
部品1
 48
50.0
100
AcDbCircle
 10
10570.57325921531
 20
4653.350338348195
 30
0.0
 40
7.0
100
AcDbArc
 50
87.03587545283228
 51
181.0932240293156
  0
LINE
  5
19485
330
747D
100
AcDbEntity
  8
部品1
 48
50.0
100
AcDbLine
 10
10571.79623886864
 20
4536.848759800763
 30
0.0
 11
10571.99819148907
 21
4526.265724407669
 31
0.0
  0
LINE
  5
19486
330
747D
100
AcDbEntity
  8
細線
 48
50.0
100
AcDbLine
 10
10569.19014581197
 20
4539.77880791957
 30
0.0
 11
13319.19381024261
 21
4499.969488945076
 31
0.0
  0
LINE
  5
19487
330
747D
100
AcDbEntity
  8
細線
 48
50.0
100
AcDbLine
 10
10564.42967057468
 20
4632.640319617435
 30
0.0
 11
13330.06565531985
 21
4577.016114976606
 31
0.0
  0
LINE
  5
19488
330
747D
100
AcDbEntity
  8
部品1
 48
50.0
100
AcDbLine
 10
10567.02356527103
 20
4629.714538000881
 30
0.0
 11
10568.72746676239
 21
4540.424041294234
 31
0.0
  0
LINE
  5
19489
330
747D
100
AcDbEntity
  8
部品1
 48
50.0
100
AcDbLine
 10
10563.57453338697
 20
4653.216783940766
 30
0.0
 11
10563.95479316478
 21
4633.289819494355
 31
0.0
  0
LINE
  5
1948A
330
747D
100
AcDbEntity
  8
細線
 48
50.0
100
AcDbLine
 10
13300.35953066756
 20
4605.776660255542
 30
0.0
 11
13295.64256458587
 21
4480.844444320625
 31
0.0
  0
LINE
  5
1948B
330
747D
100
AcDbEntity
  8
細線
 48
50.0
100
AcDbLine
 10
10596.39024747387
 20
4659.022914151479
 30
0.0
 11
10591.10114591836
 21
4518.937281524122
 31
0.0
  0
LINE
  5
1948C
330
747D
100
AcDbEntity
  8
部品1
100
AcDbLine
 10
10578.73281207582
 20
4519.40426284504
 30
0.0
 11
13308.05394801372
 21
4480.375837610835
 31
0.0
  0
LINE
  5
1948D
330
747D
100
AcDbEntity
  8
部品1
100
AcDbLine
 10
10570.93523383083
 20
4660.340973110338
 30
0.0
 11
13326.00212433533
 21
4605.264035485212
 31
0.0
  0
LINE
  5
1948E
330
747D
100
AcDbEntity
  8
部品1
 48
50.0
100
AcDbLine
 10
11824.07039154614
 20
4785.50956678023
 30
0.0
 11
12124.07039154614
 21
4785.50956678023
 31
0.0
  0
LINE
  5
1948F
330
747D
100
AcDbEntity
  8
部品1
 48
50.0
100
AcDbLine
 10
12124.07039154614
 20
4785.50956678023
 30
0.0
 11
12124.07039154614
 21
4769.30956678023
 31
0.0
  0
TEXT
  5
19490
330
747D
100
AcDbEntity
  8
部品1
 48
50.0
100
AcDbText
 10
11812.33822676987
 20
4821.393588932664
 30
0.0
 40
120.0
  1
1000
  7
STYLE1
100
AcDbText
  0
TEXT
  5
19491
330
747D
100
AcDbEntity
  8
部品1
 48
50.0
100
AcDbText
 10
12289.97124943496
 20
4683.892330714381
 30
0.0
 40
120.0
  1
37
 50
90.0
  7
STYLE1
100
AcDbText
  0
LINE
  5
19492
330
747D
100
AcDbEntity
  8
細線
 48
50.0
100
AcDbLine
 10
12015.89024747387
 20
4426.623237776071
 30
0.0
 11
12015.89024747387
 21
2336.623237776072
 31
0.0
  0
LINE
  5
19493
330
747D
100
AcDbEntity
  8
細線
 48
50.0
100
AcDbLine
 10
12000.89024747386
 20
4426.623237776071
 30
0.0
 11
12000.89024747386
 21
2336.623237776072
 31
0.0
  0
LINE
  5
19494
330
747D
100
AcDbEntity
  8
細線
 48
50.0
100
AcDbLine
 10
12140.89024747387
 20
4426.623237776071
 30
0.0
 11
12140.89024747387
 21
2336.623237776072
 31
0.0
  0
LINE
  5
19495
330
747D
100
AcDbEntity
  8
細線
 48
50.0
100
AcDbLine
 10
12155.89024747387
 20
4426.623237776071
 30
0.0
 11
12155.89024747387
 21
2336.623237776072
 31
0.0
  0
LINE
  5
19496
330
747D
100
AcDbEntity
  8
細線
 48
50.0
100
AcDbLine
 10
12295.89024747387
 20
4426.623237776071
 30
0.0
 11
12295.89024747387
 21
2336.623237776072
 31
0.0
  0
LINE
  5
19497
330
747D
100
AcDbEntity
  8
細線
 48
50.0
100
AcDbLine
 10
12280.89024747387
 20
4426.623237776071
 30
0.0
 11
12280.89024747387
 21
2336.623237776072
 31
0.0
  0
LINE
  5
19498
330
747D
100
AcDbEntity
  8
部品1
100
AcDbLine
 10
12778.39024747386
 20
4426.623237776071
 30
0.0
 11
12778.39024747386
 21
2336.623237776073
 31
0.0
  0
LINE
  5
19499
330
747D
100
AcDbEntity
  8
部品1
100
AcDbLine
 10
10623.39024747387
 20
4426.623237776071
 30
0.0
 11
13253.39024747387
 21
4426.623237776071
 31
0.0
  0
LINE
  5
1949A
330
747D
100
AcDbEntity
  8
部品1
100
AcDbLine
 10
10678.39024747386
 20
2336.623237776072
 30
0.0
 11
13253.39024747387
 21
2336.623237776073
 31
0.0
  0
LINE
  5
1949B
330
747D
100
AcDbEntity
  8
部品1
100
AcDbLine
 10
10678.39024747387
 20
4426.623237776071
 30
0.0
 11
10678.39024747387
 21
2186.623237776075
 31
0.0
  0
LINE
  5
1949C
330
747D
100
AcDbEntity
  8
部品1
100
AcDbLine
 10
10623.39024747387
 20
4518.765675704951
 30
0.0
 11
10623.39024747387
 21
2186.623237776072
 31
0.0
  0
DIMENSION
  5
1949D
330
747D
100
AcDbEntity
  8
寸法
100
AcDbDimension
  2
*D29
 10
9779.640118290608
 20
2286.623237776072
 30
0.0
 11
9779.640118290608
 21
1980.575993681581
 31
0.0
 70
   160
 71
     5
 42
50.0
  3
INABA_S40G
100
AcDbAlignedDimension
 13
10623.39024747387
 23
2336.623237776072
 33
0.0
 14
10568.39024747387
 24
2286.623237776072
 34
0.0
 50
90.0
100
AcDbRotatedDimension
1001
ACAD
1000
DSTYLE
1002
{
1070
   174
1070
     0
1070
   272
1070
     1
1070
   288
1070
     0
1070
   341
1005
0
1002
}
  0
LINE
  5
1949E
330
747D
100
AcDbEntity
  8
部品1
100
AcDbLine
 10
11098.39024747387
 20
4426.623237776071
 30
0.0
 11
11098.39024747387
 21
2336.623237776072
 31
0.0
  0
LINE
  5
1949F
330
747D
100
AcDbEntity
  8
部品1
100
AcDbLine
 10
13253.39024747387
 20
4481.157511163812
 30
0.0
 11
13253.39024747387
 21
2186.623237776073
 31
0.0
  0
LINE
  5
194A0
330
747D
100
AcDbEntity
  8
部品1
100
AcDbLine
 10
13198.39024747387
 20
4426.623237776071
 30
0.0
 11
13198.39024747387
 21
2336.623237776073
 31
0.0
  0
DIMENSION
  5
194A1
330
747D
100
AcDbEntity
  8
寸法
 48
50.0
100
AcDbDimension
  2
*D30
 10
10623.39024747387
 20
5060.280691355378
 30
0.0
 11
11938.39024747387
 21
5060.280691355378
 31
0.0
 70
   160
  1
柱外寸法<>
 71
     5
 42
2630.0
  3
INABA_S40G
100
AcDbAlignedDimension
 13
13253.39024747387
 23
4608.433917387726
 33
0.0
 14
10623.39024747387
 24
4657.624855899046
 34
0.0
100
AcDbRotatedDimension
1001
ACAD
1000
DSTYLE
1002
{
1070
   174
1070
     0
1070
   272
1070
     1
1070
   288
1070
     0
1070
   341
1005
0
1002
}
  0
DIMENSION
  5
194A2
330
747D
100
AcDbEntity
  8
寸法
 48
50.0
100
AcDbDimension
  2
*D31
 10
10563.39024747387
 20
5060.280691355375
 30
0.0
 11
10253.75245219828
 21
5060.280691355375
 31
0.0
 70
   160
 71
     5
 42
60.0
  3
INABA_S40G
100
AcDbAlignedDimension
 13
10623.39024747387
 23
4657.624855899046
 33
0.0
 14
10563.39024747387
 24
4661.623237776078
 34
0.0
100
AcDbRotatedDimension
1001
ACAD
1000
DSTYLE
1002
{
1070
   174
1070
     0
1070
   272
1070
     1
1070
   288
1070
     0
1070
   341
1005
0
1002
}
  0
DIMENSION
  5
194A3
330
747D
100
AcDbEntity
  8
寸法
 48
50.0
100
AcDbDimension
  2
*D32
 10
10563.39024747387
 20
5280.491378086993
 30
0.0
 11
11948.39024747387
 21
5280.491378086993
 31
0.0
 70
   160
 71
     5
 42
2770.0
  3
INABA_S40G
100
AcDbAlignedDimension
 13
13333.39024747387
 23
4606.623237776074
 33
0.0
 14
10563.39024747387
 24
4661.623237776078
 34
0.0
100
AcDbRotatedDimension
1001
ACAD
1000
DSTYLE
1002
{
1070
   174
1070
     0
1070
   272
1070
     1
1070
   288
1070
     0
1070
   341
1005
0
1002
}
  0
LINE
  5
194A4
330
747D
100
AcDbEntity
  8
部品1
100
AcDbLine
 10
10678.39024747387
 20
2286.623237776072
 30
0.0
 11
13253.39024747387
 21
2286.623237776072
 31
0.0
  0
LINE
  5
194A5
330
747D
100
AcDbEntity
  8
細線
 48
50.0
100
AcDbLine
 10
11175.89024747386
 20
4426.623237776071
 30
0.0
 11
11175.89024747386
 21
2336.623237776072
 31
0.0
  0
LINE
  5
194A6
330
747D
100
AcDbEntity
  8
細線
 48
50.0
100
AcDbLine
 10
11160.89024747387
 20
4426.623237776071
 30
0.0
 11
11160.89024747387
 21
2336.623237776072
 31
0.0
  0
LINE
  5
194A7
330
747D
100
AcDbEntity
  8
細線
 48
50.0
100
AcDbLine
 10
11300.89024747387
 20
4426.623237776071
 30
0.0
 11
11300.89024747387
 21
2336.623237776072
 31
0.0
  0
LINE
  5
194A8
330
747D
100
AcDbEntity
  8
細線
 48
50.0
100
AcDbLine
 10
11315.89024747386
 20
4426.623237776071
 30
0.0
 11
11315.89024747386
 21
2336.623237776072
 31
0.0
  0
LINE
  5
194A9
330
747D
100
AcDbEntity
  8
細線
 48
50.0
100
AcDbLine
 10
11455.89024747386
 20
4426.623237776071
 30
0.0
 11
11455.89024747386
 21
2336.623237776072
 31
0.0
  0
LINE
  5
194AA
330
747D
100
AcDbEntity
  8
細線
 48
50.0
100
AcDbLine
 10
11440.89024747387
 20
4426.623237776071
 30
0.0
 11
11440.89024747387
 21
2336.623237776072
 31
0.0
  0
LINE
  5
194AB
330
747D
100
AcDbEntity
  8
細線
 48
50.0
100
AcDbLine
 10
11020.89024747387
 20
4426.623237776071
 30
0.0
 11
11020.89024747387
 21
2336.623237776072
 31
0.0
  0
LINE
  5
194AC
330
747D
100
AcDbEntity
  8
細線
 48
50.0
100
AcDbLine
 10
11035.89024747386
 20
4426.623237776071
 30
0.0
 11
11035.89024747386
 21
2336.623237776072
 31
0.0
  0
LINE
  5
194AD
330
747D
100
AcDbEntity
  8
細線
 48
50.0
100
AcDbLine
 10
10895.89024747387
 20
4426.623237776071
 30
0.0
 11
10895.89024747387
 21
2336.623237776072
 31
0.0
  0
LINE
  5
194AE
330
747D
100
AcDbEntity
  8
細線
 48
50.0
100
AcDbLine
 10
10880.89024747387
 20
4426.623237776071
 30
0.0
 11
10880.89024747387
 21
2336.623237776072
 31
0.0
  0
LINE
  5
194AF
330
747D
100
AcDbEntity
  8
細線
 48
50.0
100
AcDbLine
 10
10740.89024747387
 20
4426.623237776071
 30
0.0
 11
10740.89024747387
 21
2336.623237776072
 31
0.0
  0
LINE
  5
194B0
330
747D
100
AcDbEntity
  8
細線
 48
50.0
100
AcDbLine
 10
10755.89024747387
 20
4426.623237776071
 30
0.0
 11
10755.89024747387
 21
2336.623237776072
 31
0.0
  0
DIMENSION
  5
194B1
330
747D
100
AcDbEntity
  8
寸法
 48
50.0
100
AcDbDimension
  2
*D33
 10
13333.39024747387
 20
5060.280691355378
 30
0.0
 11
13539.43749156836
 21
5060.280691355378
 31
0.0
 70
   160
 71
     5
 42
80.0
  3
INABA_S40G
100
AcDbAlignedDimension
 13
13253.39024747387
 23
4608.433917387726
 33
0.0
 14
13333.39024747387
 24
4606.623237776074
 34
0.0
100
AcDbRotatedDimension
1001
ACAD
1000
DSTYLE
1002
{
1070
   174
1070
     0
1070
   272
1070
     1
1070
   288
1070
     0
1070
   341
1005
0
1002
}
  0
LINE
  5
194B2
330
747D
100
AcDbEntity
  8
部品1
100
AcDbLine
 10
11518.39024747387
 20
4426.623237776071
 30
0.0
 11
11518.39024747387
 21
2336.623237776072
 31
0.0
  0
LINE
  5
194B3
330
747D
100
AcDbEntity
  8
細線
 48
50.0
100
AcDbLine
 10
11860.89024747386
 20
4426.623237776071
 30
0.0
 11
11860.89024747386
 21
2336.623237776072
 31
0.0
  0
LINE
  5
194B4
330
747D
100
AcDbEntity
  8
細線
 48
50.0
100
AcDbLine
 10
11875.89024747387
 20
4426.623237776071
 30
0.0
 11
11875.89024747387
 21
2336.623237776072
 31
0.0
  0
LINE
  5
194B5
330
747D
100
AcDbEntity
  8
細線
 48
50.0
100
AcDbLine
 10
11735.89024747387
 20
4426.623237776071
 30
0.0
 11
11735.89024747387
 21
2336.623237776072
 31
0.0
  0
LINE
  5
194B6
330
747D
100
AcDbEntity
  8
細線
 48
50.0
100
AcDbLine
 10
11720.89024747386
 20
4426.623237776071
 30
0.0
 11
11720.89024747387
 21
2336.623237776072
 31
0.0
  0
LINE
  5
194B7
330
747D
100
AcDbEntity
  8
細線
 48
50.0
100
AcDbLine
 10
11580.89024747387
 20
4426.623237776071
 30
0.0
 11
11580.89024747387
 21
2336.623237776072
 31
0.0
  0
LINE
  5
194B8
330
747D
100
AcDbEntity
  8
細線
 48
50.0
100
AcDbLine
 10
11595.89024747387
 20
4426.623237776071
 30
0.0
 11
11595.89024747387
 21
2336.623237776072
 31
0.0
  0
LINE
  5
194B9
330
747D
100
AcDbEntity
  8
部品1
100
AcDbLine
 10
11938.39024747387
 20
4426.623237776071
 30
0.0
 11
11938.39024747387
 21
2336.623237776072
 31
0.0
  0
LINE
  5
194BA
330
747D
100
AcDbEntity
  8
細線
 48
50.0
100
AcDbLine
 10
12855.89024747387
 20
4426.623237776071
 30
0.0
 11
12855.89024747387
 21
2336.623237776073
 31
0.0
  0
LINE
  5
194BB
330
747D
100
AcDbEntity
  8
細線
 48
50.0
100
AcDbLine
 10
12840.89024747387
 20
4426.623237776071
 30
0.0
 11
12840.89024747387
 21
2336.623237776073
 31
0.0
  0
LINE
  5
194BC
330
747D
100
AcDbEntity
  8
細線
 48
50.0
100
AcDbLine
 10
12980.89024747387
 20
4426.623237776071
 30
0.0
 11
12980.89024747387
 21
2336.623237776073
 31
0.0
  0
LINE
  5
194BD
330
747D
100
AcDbEntity
  8
細線
 48
50.0
100
AcDbLine
 10
12995.89024747387
 20
4426.623237776071
 30
0.0
 11
12995.89024747387
 21
2336.623237776073
 31
0.0
  0
LINE
  5
194BE
330
747D
100
AcDbEntity
  8
細線
 48
50.0
100
AcDbLine
 10
13135.89024747387
 20
4426.623237776071
 30
0.0
 11
13135.89024747387
 21
2336.623237776073
 31
0.0
  0
LINE
  5
194BF
330
747D
100
AcDbEntity
  8
細線
 48
50.0
100
AcDbLine
 10
13120.89024747387
 20
4426.623237776071
 30
0.0
 11
13120.89024747387
 21
2336.623237776073
 31
0.0
  0
DIMENSION
  5
194C0
330
747D
100
AcDbEntity
  8
寸法
 48
50.0
100
AcDbDimension
  2
*D34
 10
10002.78184070549
 20
4535.968496649405
 30
0.0
 11
10013.44731596441
 21
4906.815159891102
 31
0.0
 70
   161
 71
     5
 42
140.9999999999982
  3
INABA_S40G
100
AcDbAlignedDimension
 13
10582.78626763245
 23
4660.34598661075
 33
0.0
 14
10578.73281207582
 24
4519.404262845039
 34
0.0
1001
ACAD
1000
DSTYLE
1002
{
1070
   174
1070
     0
1070
   272
1070
     1
1070
   288
1070
     0
1070
   341
1005
0
1002
}
  0
LINE
  5
194C6
330
747D
100
AcDbEntity
  8
破線
 48
5.0
100
AcDbLine
 10
10623.39024747387
 20
2186.623237776072
 30
0.0
 11
10623.39024747387
 21
1936.623237776071
 31
0.0
  0
LINE
  5
194C7
330
747D
100
AcDbEntity
  8
破線
 48
5.0
100
AcDbLine
 10
10678.39024747387
 20
2186.623237776072
 30
0.0
 11
10678.39024747387
 21
1936.623237776071
 31
0.0
  0
LINE
  5
194C8
330
747D
100
AcDbEntity
  8
破線
 48
5.0
100
AcDbLine
 10
10623.39024747387
 20
1936.623237776071
 30
0.0
 11
10678.39024747387
 21
1936.623237776071
 31
0.0
  0
LINE
  5
194C9
330
747D
100
AcDbEntity
  8
部品1
100
AcDbLine
 10
10623.39024747387
 20
2286.623237776072
 30
0.0
 11
10230.39303326502
 21
2186.623237776072
 31
0.0
  0
LWPOLYLINE
  5
19595
330
747D
100
AcDbEntity
  8
部品1
100
AcDbPolyline
 90
        4
 70
     1
 43
0.0
 10
11566.65491435965
 20
1536.623237776072
 10
11566.65491435965
 20
1296.730916230539
 10
12330.12558058808
 20
1296.730916230539
 10
12330.12558058808
 20
1536.623237776072
  0
TEXT
  5
19596
330
747D
100
AcDbEntity
  8
部品1
100
AcDbText
 10
11656.10101578326
 20
1343.729708557547
 30
0.0
 40
135.0
  1
側面図
  7
MSGOTHIC
100
AcDbText
  0
LINE
  5
19943
330
747D
100
AcDbEntity
  8
補助
  6
PHANTOM
 62
   230
 48
50.0
100
AcDbLine
 10
140.0
 20
0.0
 30
0.0
 11
140.0
 21
11409.6
 31
0.0
  0
LINE
  5
19E38
330
747D
100
AcDbEntity
  8
部品1
 48
50.0
100
AcDbLine
 10
7879.049312556199
 20
4520.623237776077
 30
0.0
 11
3710.296801691126
 21
4520.623237776077
 31
0.0
  0
LINE
  5
19E39
330
747D
100
AcDbEntity
  8
部品1
 48
50.0
100
AcDbLine
 10
7892.26463601723
 20
4661.62323777608
 30
0.0
 11
3697.081478230096
 21
4661.623237776079
 31
0.0
  0
LINE
  5
19E3A
330
747D
100
AcDbEntity
  8
細線
 48
50.0
100
AcDbLine
 10
7897.633518902231
 20
4633.62323777608
 30
0.0
 11
3691.712595345104
 21
4633.623237776075
 31
0.0
  0
LINE
  5
19E3B
330
747D
100
AcDbEntity
  8
細線
 48
50.0
100
AcDbLine
 10
7889.39748837738
 20
4541.423237776075
 30
0.0
 11
3699.948625869934
 21
4541.423237776076
 31
0.0
  0
DIMENSION
  5
19E3D
330
747D
100
AcDbEntity
  8
寸法
 48
50.0
100
AcDbDimension
  2
*D35
 10
3739.673057123663
 20
5067.349509507981
 30
0.0
 11
5794.673057123663
 21
5167.349509507982
 31
0.0
 70
    32
  1
柱外寸法 N X 1370
 71
     5
 42
4110.0
  3
INABA_S40G
100
AcDbAlignedDimension
 13
7849.673057123663
 23
4661.62323776761
 33
0.0
 14
3739.673057123663
 24
4661.623237776078
 34
0.0
100
AcDbRotatedDimension
  0
LINE
  5
19E3E
330
747D
100
AcDbEntity
  8
部品1
 48
50.0
100
AcDbLine
 10
6469.673057123667
 20
4520.623237776073
 30
0.0
 11
6469.673057123663
 21
4661.623237776074
 31
0.0
  0
LINE
  5
19E3F
330
747D
100
AcDbEntity
  8
部品1
 48
50.0
100
AcDbLine
 10
6479.673057123666
 20
4261.623237776072
 30
0.0
 11
6479.673057123666
 21
4520.623237776073
 31
0.0
  0
ARC
  5
19E40
330
747D
100
AcDbEntity
  8
部品1
 48
0.01
100
AcDbCircle
 10
6942.673057123663
 20
4459.123237776071
 30
0.0
 40
2.0
100
AcDbArc
 50
270.0
 51
0.0
  0
ARC
  5
19E41
330
747D
100
AcDbEntity
  8
部品1
 48
0.01
100
AcDbCircle
 10
6942.673057123663
 20
4490.623237776071
 30
0.0
 40
2.0
100
AcDbArc
 50
0.0
 51
90.0
  0
ARC
  5
19E42
330
747D
100
AcDbEntity
  8
部品1
 48
0.01
100
AcDbCircle
 10
6766.673057123663
 20
4459.123237776071
 30
0.0
 40
2.0
100
AcDbArc
 50
180.0
 51
270.0
  0
ARC
  5
19E43
330
747D
100
AcDbEntity
  8
部品1
 48
0.01
100
AcDbCircle
 10
6766.673057123663
 20
4490.623237776071
 30
0.0
 40
2.0
100
AcDbArc
 50
90.0
 51
180.0
  0
LINE
  5
19E44
330
747D
100
AcDbEntity
  8
細線
100
AcDbLine
 10
6854.673057123664
 20
4463.123237776072
 30
0.0
 11
6928.673057123663
 21
4463.123237776072
 31
0.0
  0
LINE
  5
19E45
330
747D
100
AcDbEntity
  8
細線
100
AcDbLine
 10
6854.673057123664
 20
4486.123237776071
 30
0.0
 11
6780.673057123663
 21
4486.123237776071
 31
0.0
  0
LINE
  5
19E46
330
747D
100
AcDbEntity
  8
細線
100
AcDbLine
 10
6780.673057123663
 20
4463.123237776072
 30
0.0
 11
6854.673057123664
 21
4463.123237776072
 31
0.0
  0
LINE
  5
19E47
330
747D
100
AcDbEntity
  8
細線
100
AcDbLine
 10
6928.673057123663
 20
4486.123237776071
 30
0.0
 11
6854.673057123664
 21
4486.123237776071
 31
0.0
  0
LINE
  5
19E48
330
747D
100
AcDbEntity
  8
細線
100
AcDbLine
 10
6928.673057123663
 20
4463.123237776072
 30
0.0
 11
6928.673057123663
 21
4486.123237776071
 31
0.0
  0
LINE
  5
19E49
330
747D
100
AcDbEntity
  8
細線
100
AcDbLine
 10
6780.673057123663
 20
4486.123237776071
 30
0.0
 11
6780.673057123663
 21
4463.123237776072
 31
0.0
  0
LINE
  5
19E4A
330
747D
100
AcDbEntity
  8
部品1
 48
0.01
100
AcDbLine
 10
6944.673057123663
 20
4459.123237776071
 30
0.0
 11
6944.673057123663
 21
4490.623237776071
 31
0.0
  0
LINE
  5
19E4B
330
747D
100
AcDbEntity
  8
部品1
 48
0.01
100
AcDbLine
 10
6766.673057123663
 20
4457.123237776071
 30
0.0
 11
6942.673057123663
 21
4457.123237776071
 31
0.0
  0
LINE
  5
19E4C
330
747D
100
AcDbEntity
  8
部品1
 48
0.01
100
AcDbLine
 10
6764.673057123663
 20
4490.623237776071
 30
0.0
 11
6764.673057123663
 21
4459.123237776071
 31
0.0
  0
LINE
  5
19E4D
330
747D
100
AcDbEntity
  8
部品1
 48
0.01
100
AcDbLine
 10
6942.673057123663
 20
4492.623237776071
 30
0.0
 11
6766.673057123663
 21
4492.623237776071
 31
0.0
  0
LINE
  5
19E4E
330
747D
100
AcDbEntity
  8
細線
100
AcDbLine
 10
6780.673057123663
 20
4480.123237776072
 30
0.0
 11
6854.673057123664
 21
4480.123237776072
 31
0.0
  0
LINE
  5
19E4F
330
747D
100
AcDbEntity
  8
細線
100
AcDbLine
 10
6780.673057123663
 20
4474.123237776072
 30
0.0
 11
6854.673057123664
 21
4474.123237776072
 31
0.0
  0
LINE
  5
19E50
330
747D
100
AcDbEntity
  8
細線
100
AcDbLine
 10
6780.673057123663
 20
4468.123237776072
 30
0.0
 11
6854.673057123664
 21
4468.123237776072
 31
0.0
  0
LINE
  5
19E51
330
747D
100
AcDbEntity
  8
細線
100
AcDbLine
 10
6780.673057123663
 20
4480.123237776072
 30
0.0
 11
6849.673057123663
 21
4480.123237776072
 31
0.0
  0
LINE
  5
19E52
330
747D
100
AcDbEntity
  8
細線
100
AcDbLine
 10
6928.673057123663
 20
4480.123237776072
 30
0.0
 11
6854.673057123664
 21
4480.123237776072
 31
0.0
  0
LINE
  5
19E53
330
747D
100
AcDbEntity
  8
細線
100
AcDbLine
 10
6928.673057123663
 20
4468.123237776072
 30
0.0
 11
6854.673057123664
 21
4468.123237776072
 31
0.0
  0
LINE
  5
19E54
330
747D
100
AcDbEntity
  8
細線
100
AcDbLine
 10
6928.673057123663
 20
4474.123237776072
 30
0.0
 11
6854.673057123664
 21
4474.123237776072
 31
0.0
  0
LINE
  5
19E55
330
747D
100
AcDbEntity
  8
細線
100
AcDbLine
 10
6854.673057123664
 20
4486.123237776071
 30
0.0
 11
6854.673057123664
 21
4463.123237776072
 31
0.0
  0
LINE
  5
19E56
330
747D
100
AcDbEntity
  8
細線
100
AcDbLine
 10
7474.673057123663
 20
4486.123237776071
 30
0.0
 11
7474.673057123663
 21
4463.123237776072
 31
0.0
  0
LINE
  5
19E57
330
747D
100
AcDbEntity
  8
細線
100
AcDbLine
 10
7400.673057123663
 20
4474.123237776072
 30
0.0
 11
7474.673057123663
 21
4474.123237776072
 31
0.0
  0
LINE
  5
19E58
330
747D
100
AcDbEntity
  8
細線
100
AcDbLine
 10
7400.673057123663
 20
4468.123237776072
 30
0.0
 11
7474.673057123663
 21
4468.123237776072
 31
0.0
  0
LINE
  5
19E59
330
747D
100
AcDbEntity
  8
細線
100
AcDbLine
 10
7400.673057123663
 20
4480.123237776072
 30
0.0
 11
7474.673057123663
 21
4480.123237776072
 31
0.0
  0
LINE
  5
19E5A
330
747D
100
AcDbEntity
  8
細線
100
AcDbLine
 10
7548.673057123663
 20
4480.123237776072
 30
0.0
 11
7479.673057123664
 21
4480.123237776072
 31
0.0
  0
LINE
  5
19E5B
330
747D
100
AcDbEntity
  8
細線
100
AcDbLine
 10
7548.673057123663
 20
4468.123237776072
 30
0.0
 11
7474.673057123663
 21
4468.123237776072
 31
0.0
  0
LINE
  5
19E5C
330
747D
100
AcDbEntity
  8
細線
100
AcDbLine
 10
7548.673057123663
 20
4474.123237776072
 30
0.0
 11
7474.673057123663
 21
4474.123237776072
 31
0.0
  0
LINE
  5
19E5D
330
747D
100
AcDbEntity
  8
細線
100
AcDbLine
 10
7548.673057123663
 20
4480.123237776072
 30
0.0
 11
7474.673057123663
 21
4480.123237776072
 31
0.0
  0
LINE
  5
19E5E
330
747D
100
AcDbEntity
  8
部品1
 48
0.01
100
AcDbLine
 10
7386.673057123663
 20
4492.623237776071
 30
0.0
 11
7562.673057123664
 21
4492.623237776071
 31
0.0
  0
LINE
  5
19E5F
330
747D
100
AcDbEntity
  8
部品1
 48
0.01
100
AcDbLine
 10
7564.673057123663
 20
4490.623237776071
 30
0.0
 11
7564.673057123663
 21
4459.123237776071
 31
0.0
  0
LINE
  5
19E60
330
747D
100
AcDbEntity
  8
部品1
 48
0.01
100
AcDbLine
 10
7562.673057123664
 20
4457.123237776071
 30
0.0
 11
7386.673057123663
 21
4457.123237776071
 31
0.0
  0
LINE
  5
19E61
330
747D
100
AcDbEntity
  8
部品1
 48
0.01
100
AcDbLine
 10
7384.673057123663
 20
4459.123237776071
 30
0.0
 11
7384.673057123663
 21
4490.623237776071
 31
0.0
  0
LINE
  5
19E62
330
747D
100
AcDbEntity
  8
細線
100
AcDbLine
 10
7548.673057123663
 20
4486.123237776071
 30
0.0
 11
7548.673057123663
 21
4463.123237776072
 31
0.0
  0
LINE
  5
19E63
330
747D
100
AcDbEntity
  8
細線
100
AcDbLine
 10
7400.673057123663
 20
4463.123237776072
 30
0.0
 11
7400.673057123663
 21
4486.123237776071
 31
0.0
  0
LINE
  5
19E64
330
747D
100
AcDbEntity
  8
細線
100
AcDbLine
 10
7400.673057123663
 20
4486.123237776071
 30
0.0
 11
7474.673057123663
 21
4486.123237776071
 31
0.0
  0
LINE
  5
19E65
330
747D
100
AcDbEntity
  8
細線
100
AcDbLine
 10
7548.673057123663
 20
4463.123237776072
 30
0.0
 11
7474.673057123663
 21
4463.123237776072
 31
0.0
  0
LINE
  5
19E66
330
747D
100
AcDbEntity
  8
細線
100
AcDbLine
 10
7474.673057123663
 20
4486.123237776071
 30
0.0
 11
7548.673057123663
 21
4486.123237776071
 31
0.0
  0
LINE
  5
19E67
330
747D
100
AcDbEntity
  8
細線
100
AcDbLine
 10
7474.673057123663
 20
4463.123237776072
 30
0.0
 11
7400.673057123663
 21
4463.123237776072
 31
0.0
  0
ARC
  5
19E68
330
747D
100
AcDbEntity
  8
部品1
 48
0.01
100
AcDbCircle
 10
7562.673057123664
 20
4490.623237776071
 30
0.0
 40
2.0
100
AcDbArc
 50
0.0
 51
90.0
  0
ARC
  5
19E69
330
747D
100
AcDbEntity
  8
部品1
 48
0.01
100
AcDbCircle
 10
7562.673057123664
 20
4459.123237776071
 30
0.0
 40
2.0
100
AcDbArc
 50
270.0
 51
0.0
  0
ARC
  5
19E6A
330
747D
100
AcDbEntity
  8
部品1
 48
0.01
100
AcDbCircle
 10
7386.673057123663
 20
4490.623237776071
 30
0.0
 40
2.0
100
AcDbArc
 50
90.0
 51
180.0
  0
ARC
  5
19E6B
330
747D
100
AcDbEntity
  8
部品1
 48
0.01
100
AcDbCircle
 10
7386.673057123663
 20
4459.123237776071
 30
0.0
 40
2.0
100
AcDbArc
 50
180.0
 51
270.0
  0
LINE
  5
19E6C
330
747D
100
AcDbEntity
  8
部品1
 48
50.0
100
AcDbLine
 10
5109.673057123668
 20
4261.623237776072
 30
0.0
 11
5109.673057123667
 21
4520.623237776075
 31
0.0
  0
LINE
  5
19E6D
330
747D
100
AcDbEntity
  8
部品1
 48
50.0
100
AcDbLine
 10
5099.673057123666
 20
4520.623237776075
 30
0.0
 11
5099.673057123663
 21
4661.623237776075
 31
0.0
  0
LINE
  5
19E9A
330
747D
100
AcDbEntity
  8
部品1
100
AcDbLine
 10
3739.673057123663
 20
4426.623237776071
 30
0.0
 11
7849.673057123664
 21
4426.623237776071
 31
0.0
  0
LINE
  5
19E9F
330
747D
100
AcDbEntity
  8
部品1
100
AcDbLine
 10
7899.253396108332
 20
4654.226712380839
 30
0.0
 11
7898.119998775984
 21
4634.250584398238
 31
0.0
  0
LINE
  5
19EA0
330
747D
100
AcDbEntity
  8
細線
 48
50.0
100
AcDbLine
 10
7866.673057123662
 20
4661.623237776078
 30
0.0
 11
7866.673057123662
 21
4520.623237776077
 31
0.0
  0
LINE
  5
19EA1
330
747D
100
AcDbEntity
  8
細線
 48
50.0
100
AcDbLine
 10
3722.673057123663
 20
4661.623237776075
 30
0.0
 11
3722.673057123663
 21
4520.623237776075
 31
0.0
  0
LINE
  5
19EA2
330
747D
100
AcDbEntity
  8
部品1
100
AcDbLine
 10
7886.682978454406
 20
4538.593177231178
 30
0.0
 11
7886.038072647295
 21
4527.226712380839
 31
0.0
  0
LINE
  5
19EA3
330
747D
100
AcDbEntity
  8
部品1
100
AcDbLine
 10
7894.919008979255
 20
4630.793177231181
 30
0.0
 11
7889.883968251139
 21
4542.050584398236
 31
0.0
  0
ARC
  5
19EA4
330
747D
100
AcDbEntity
  8
部品1
 48
50.0
100
AcDbCircle
 10
7897.91419187544
 20
4630.62323777608
 30
0.0
 40
3.0
100
AcDbArc
 50
97.65812720736519
 51
176.7526572096656
  0
ARC
  5
19EA5
330
747D
100
AcDbEntity
  8
部品1
 48
50.0
100
AcDbCircle
 10
7889.678161350596
 20
4538.423237776075
 30
0.0
 40
3.0
100
AcDbArc
 50
97.65812720736519
 51
176.7526572096656
  0
ARC
  5
19EA6
330
747D
100
AcDbEntity
  8
部品1
 48
50.0
100
AcDbCircle
 10
7889.185092242036
 20
4542.09023693776
 30
0.0
 40
0.7
100
AcDbArc
 50
277.6581272073652
 51
356.7526572096657
  0
ARC
  5
19EA7
330
747D
100
AcDbEntity
  8
部品1
 48
50.0
100
AcDbCircle
 10
7897.421122766876
 20
4634.290236937763
 30
0.0
 40
0.7
100
AcDbArc
 50
277.6581272073652
 51
356.7526572096132
  0
ARC
  5
19EA8
330
747D
100
AcDbEntity
  8
部品1
100
AcDbCircle
 10
7879.049312556199
 20
4527.623237776079
 30
0.0
 40
7.0
100
AcDbArc
 50
270.0
 51
356.7526572096657
  0
ARC
  5
19EA9
330
747D
100
AcDbEntity
  8
部品1
100
AcDbCircle
 10
7892.26463601723
 20
4654.623237776077
 30
0.0
 40
7.0
100
AcDbArc
 50
356.7526572096657
 51
90.0
  0
ARC
  5
19EAA
330
747D
100
AcDbEntity
  8
部品1
100
AcDbCircle
 10
3697.081478230096
 20
4654.623237776075
 30
0.0
 40
7.0
100
AcDbArc
 50
90.0
 51
183.2473427903344
  0
ARC
  5
19EAB
330
747D
100
AcDbEntity
  8
部品1
100
AcDbCircle
 10
3710.296801691126
 20
4527.623237776077
 30
0.0
 40
7.0
100
AcDbArc
 50
183.2473427903344
 51
270.0
  0
ARC
  5
19EAC
330
747D
100
AcDbEntity
  8
部品1
 48
50.0
100
AcDbCircle
 10
3691.924991480454
 20
4634.290236937762
 30
0.0
 40
0.7
100
AcDbArc
 50
183.2473427903867
 51
262.3418727926349
  0
ARC
  5
19EAD
330
747D
100
AcDbEntity
  8
部品1
 48
50.0
100
AcDbCircle
 10
3700.161022005291
 20
4542.090236937758
 30
0.0
 40
0.7
100
AcDbArc
 50
183.2473427903344
 51
262.3418727926349
  0
ARC
  5
19EAE
330
747D
100
AcDbEntity
  8
部品1
 48
50.0
100
AcDbCircle
 10
3699.66795289673
 20
4538.423237776075
 30
0.0
 40
3.0
100
AcDbArc
 50
3.24734279033436
 51
82.3418727926348
  0
ARC
  5
19EAF
330
747D
100
AcDbEntity
  8
部品1
 48
50.0
100
AcDbCircle
 10
3691.431922371886
 20
4630.623237776076
 30
0.0
 40
3.0
100
AcDbArc
 50
3.24734279033436
 51
82.3418727926348
  0
LINE
  5
19EB0
330
747D
100
AcDbEntity
  8
部品1
100
AcDbLine
 10
3694.427105268072
 20
4630.793177231178
 30
0.0
 11
3699.462145996186
 21
4542.050584398235
 31
0.0
  0
LINE
  5
19EB1
330
747D
100
AcDbEntity
  8
部品1
100
AcDbLine
 10
3702.663135792923
 20
4538.593177231177
 30
0.0
 11
3703.308041600031
 21
4527.226712380837
 31
0.0
  0
LINE
  5
19EB2
330
747D
100
AcDbEntity
  8
部品1
100
AcDbLine
 10
3690.092718138993
 20
4654.226712380835
 30
0.0
 11
3691.226115471343
 21
4634.250584398237
 31
0.0
  0
ARC
  5
19EB3
330
747D
100
AcDbEntity
  8
部品1
 48
0.01
100
AcDbCircle
 10
4646.673057123662
 20
4459.123237776071
 30
0.0
 40
2.0
100
AcDbArc
 50
180.0
 51
270.0
  0
ARC
  5
19EB4
330
747D
100
AcDbEntity
  8
部品1
 48
0.01
100
AcDbCircle
 10
4646.673057123662
 20
4490.623237776071
 30
0.0
 40
2.0
100
AcDbArc
 50
90.0
 51
180.0
  0
ARC
  5
19EB5
330
747D
100
AcDbEntity
  8
部品1
 48
0.01
100
AcDbCircle
 10
4822.673057123663
 20
4459.123237776071
 30
0.0
 40
2.0
100
AcDbArc
 50
270.0
 51
0.0
  0
ARC
  5
19EB6
330
747D
100
AcDbEntity
  8
部品1
 48
0.01
100
AcDbCircle
 10
4822.673057123663
 20
4490.623237776071
 30
0.0
 40
2.0
100
AcDbArc
 50
0.0
 51
90.0
  0
LINE
  5
19EB7
330
747D
100
AcDbEntity
  8
細線
100
AcDbLine
 10
4734.673057123663
 20
4463.123237776072
 30
0.0
 11
4660.673057123663
 21
4463.123237776072
 31
0.0
  0
LINE
  5
19EB8
330
747D
100
AcDbEntity
  8
細線
100
AcDbLine
 10
4734.673057123663
 20
4486.123237776071
 30
0.0
 11
4808.673057123662
 21
4486.123237776071
 31
0.0
  0
LINE
  5
19EB9
330
747D
100
AcDbEntity
  8
細線
100
AcDbLine
 10
4808.673057123662
 20
4463.123237776072
 30
0.0
 11
4734.673057123663
 21
4463.123237776072
 31
0.0
  0
LINE
  5
19EBA
330
747D
100
AcDbEntity
  8
細線
100
AcDbLine
 10
4660.673057123663
 20
4486.123237776071
 30
0.0
 11
4734.673057123663
 21
4486.123237776071
 31
0.0
  0
LINE
  5
19EBB
330
747D
100
AcDbEntity
  8
細線
100
AcDbLine
 10
4660.673057123663
 20
4463.123237776072
 30
0.0
 11
4660.673057123663
 21
4486.123237776071
 31
0.0
  0
LINE
  5
19EBC
330
747D
100
AcDbEntity
  8
細線
100
AcDbLine
 10
4808.673057123662
 20
4486.123237776071
 30
0.0
 11
4808.673057123662
 21
4463.123237776072
 31
0.0
  0
LINE
  5
19EBD
330
747D
100
AcDbEntity
  8
部品1
 48
0.01
100
AcDbLine
 10
4644.673057123663
 20
4459.123237776071
 30
0.0
 11
4644.673057123663
 21
4490.623237776071
 31
0.0
  0
LINE
  5
19EBE
330
747D
100
AcDbEntity
  8
部品1
 48
0.01
100
AcDbLine
 10
4822.673057123663
 20
4457.123237776071
 30
0.0
 11
4646.673057123662
 21
4457.123237776071
 31
0.0
  0
LINE
  5
19EBF
330
747D
100
AcDbEntity
  8
部品1
 48
0.01
100
AcDbLine
 10
4824.673057123663
 20
4490.623237776071
 30
0.0
 11
4824.673057123663
 21
4459.123237776071
 31
0.0
  0
LINE
  5
19EC0
330
747D
100
AcDbEntity
  8
部品1
 48
0.01
100
AcDbLine
 10
4646.673057123662
 20
4492.623237776071
 30
0.0
 11
4822.673057123663
 21
4492.623237776071
 31
0.0
  0
LINE
  5
19EC1
330
747D
100
AcDbEntity
  8
細線
100
AcDbLine
 10
4808.673057123662
 20
4480.123237776072
 30
0.0
 11
4734.673057123663
 21
4480.123237776072
 31
0.0
  0
LINE
  5
19EC2
330
747D
100
AcDbEntity
  8
細線
100
AcDbLine
 10
4808.673057123662
 20
4474.123237776072
 30
0.0
 11
4734.673057123663
 21
4474.123237776072
 31
0.0
  0
LINE
  5
19EC3
330
747D
100
AcDbEntity
  8
細線
100
AcDbLine
 10
4808.673057123662
 20
4468.123237776072
 30
0.0
 11
4734.673057123663
 21
4468.123237776072
 31
0.0
  0
LINE
  5
19EC4
330
747D
100
AcDbEntity
  8
細線
100
AcDbLine
 10
4808.673057123662
 20
4480.123237776072
 30
0.0
 11
4739.673057123662
 21
4480.123237776072
 31
0.0
  0
LINE
  5
19EC5
330
747D
100
AcDbEntity
  8
細線
100
AcDbLine
 10
4660.673057123663
 20
4480.123237776072
 30
0.0
 11
4734.673057123663
 21
4480.123237776072
 31
0.0
  0
LINE
  5
19EC6
330
747D
100
AcDbEntity
  8
細線
100
AcDbLine
 10
4660.673057123663
 20
4468.123237776072
 30
0.0
 11
4734.673057123663
 21
4468.123237776072
 31
0.0
  0
LINE
  5
19EC7
330
747D
100
AcDbEntity
  8
細線
100
AcDbLine
 10
4660.673057123663
 20
4474.123237776072
 30
0.0
 11
4734.673057123663
 21
4474.123237776072
 31
0.0
  0
LINE
  5
19EC8
330
747D
100
AcDbEntity
  8
細線
100
AcDbLine
 10
4734.673057123663
 20
4486.123237776071
 30
0.0
 11
4734.673057123663
 21
4463.123237776072
 31
0.0
  0
LINE
  5
19EC9
330
747D
100
AcDbEntity
  8
細線
100
AcDbLine
 10
4114.673057123662
 20
4486.123237776071
 30
0.0
 11
4114.673057123662
 21
4463.123237776072
 31
0.0
  0
LINE
  5
19ECA
330
747D
100
AcDbEntity
  8
細線
100
AcDbLine
 10
4188.673057123663
 20
4474.123237776072
 30
0.0
 11
4114.673057123662
 21
4474.123237776072
 31
0.0
  0
LINE
  5
19ECB
330
747D
100
AcDbEntity
  8
細線
100
AcDbLine
 10
4188.673057123663
 20
4468.123237776072
 30
0.0
 11
4114.673057123662
 21
4468.123237776072
 31
0.0
  0
LINE
  5
19ECC
330
747D
100
AcDbEntity
  8
細線
100
AcDbLine
 10
4188.673057123663
 20
4480.123237776072
 30
0.0
 11
4114.673057123662
 21
4480.123237776072
 31
0.0
  0
LINE
  5
19ECD
330
747D
100
AcDbEntity
  8
細線
100
AcDbLine
 10
4040.673057123663
 20
4480.123237776072
 30
0.0
 11
4109.673057123663
 21
4480.123237776072
 31
0.0
  0
LINE
  5
19ECE
330
747D
100
AcDbEntity
  8
細線
100
AcDbLine
 10
4040.673057123663
 20
4468.123237776072
 30
0.0
 11
4114.673057123662
 21
4468.123237776072
 31
0.0
  0
LINE
  5
19ECF
330
747D
100
AcDbEntity
  8
細線
100
AcDbLine
 10
4040.673057123663
 20
4474.123237776072
 30
0.0
 11
4114.673057123662
 21
4474.123237776072
 31
0.0
  0
LINE
  5
19ED0
330
747D
100
AcDbEntity
  8
細線
100
AcDbLine
 10
4040.673057123663
 20
4480.123237776072
 30
0.0
 11
4114.673057123662
 21
4480.123237776072
 31
0.0
  0
LINE
  5
19ED1
330
747D
100
AcDbEntity
  8
部品1
 48
0.01
100
AcDbLine
 10
4202.673057123663
 20
4492.623237776071
 30
0.0
 11
4026.673057123662
 21
4492.623237776071
 31
0.0
  0
LINE
  5
19ED2
330
747D
100
AcDbEntity
  8
部品1
 48
0.01
100
AcDbLine
 10
4024.673057123663
 20
4490.623237776071
 30
0.0
 11
4024.673057123663
 21
4459.123237776071
 31
0.0
  0
LINE
  5
19ED3
330
747D
100
AcDbEntity
  8
部品1
 48
0.01
100
AcDbLine
 10
4026.673057123662
 20
4457.123237776071
 30
0.0
 11
4202.673057123663
 21
4457.123237776071
 31
0.0
  0
LINE
  5
19ED4
330
747D
100
AcDbEntity
  8
部品1
 48
0.01
100
AcDbLine
 10
4204.673057123662
 20
4459.123237776071
 30
0.0
 11
4204.673057123662
 21
4490.623237776071
 31
0.0
  0
LINE
  5
19ED5
330
747D
100
AcDbEntity
  8
細線
100
AcDbLine
 10
4040.673057123663
 20
4486.123237776071
 30
0.0
 11
4040.673057123663
 21
4463.123237776072
 31
0.0
  0
LINE
  5
19ED6
330
747D
100
AcDbEntity
  8
細線
100
AcDbLine
 10
4188.673057123663
 20
4463.123237776072
 30
0.0
 11
4188.673057123663
 21
4486.123237776071
 31
0.0
  0
LINE
  5
19ED7
330
747D
100
AcDbEntity
  8
細線
100
AcDbLine
 10
4188.673057123663
 20
4486.123237776071
 30
0.0
 11
4114.673057123662
 21
4486.123237776071
 31
0.0
  0
LINE
  5
19ED8
330
747D
100
AcDbEntity
  8
細線
100
AcDbLine
 10
4040.673057123663
 20
4463.123237776072
 30
0.0
 11
4114.673057123662
 21
4463.123237776072
 31
0.0
  0
LINE
  5
19ED9
330
747D
100
AcDbEntity
  8
細線
100
AcDbLine
 10
4114.673057123662
 20
4486.123237776071
 30
0.0
 11
4040.673057123663
 21
4486.123237776071
 31
0.0
  0
LINE
  5
19EDA
330
747D
100
AcDbEntity
  8
細線
100
AcDbLine
 10
4114.673057123662
 20
4463.123237776072
 30
0.0
 11
4188.673057123663
 21
4463.123237776072
 31
0.0
  0
ARC
  5
19EDB
330
747D
100
AcDbEntity
  8
部品1
 48
0.01
100
AcDbCircle
 10
4026.673057123662
 20
4490.623237776071
 30
0.0
 40
2.0
100
AcDbArc
 50
90.0
 51
180.0
  0
ARC
  5
19EDC
330
747D
100
AcDbEntity
  8
部品1
 48
0.01
100
AcDbCircle
 10
4026.673057123662
 20
4459.123237776071
 30
0.0
 40
2.0
100
AcDbArc
 50
180.0
 51
270.0
  0
ARC
  5
19EDD
330
747D
100
AcDbEntity
  8
部品1
 48
0.01
100
AcDbCircle
 10
4202.673057123663
 20
4490.623237776071
 30
0.0
 40
2.0
100
AcDbArc
 50
0.0
 51
90.0
  0
ARC
  5
19EDE
330
747D
100
AcDbEntity
  8
部品1
 48
0.01
100
AcDbCircle
 10
4202.673057123663
 20
4459.123237776071
 30
0.0
 40
2.0
100
AcDbArc
 50
270.0
 51
0.0
  0
DIMENSION
  5
19EDF
330
747D
100
AcDbEntity
  8
寸法
 48
50.0
100
AcDbDimension
  2
*D36
 10
3689.673057123663
 20
5067.349509507981
 30
0.0
 11
3376.187775749416
 21
5067.349509507981
 31
0.0
 70
   160
 71
     5
 42
50.0
  3
INABA_S40G
100
AcDbAlignedDimension
 13
3739.673057123663
 23
4661.623237776078
 33
0.0
 14
3689.673057123663
 24
4661.623237776077
 34
0.0
100
AcDbRotatedDimension
1001
ACAD
1000
DSTYLE
1002
{
1002
}
  0
DIMENSION
  5
19EE0
330
747D
100
AcDbEntity
  8
寸法
 48
50.0
100
AcDbDimension
  2
*D37
 10
7849.673057123663
 20
5067.349509507984
 30
0.0
 11
8213.158338497903
 21
5067.349509507984
 31
0.0
 70
   160
 71
     5
 42
50.0
  3
INABA_S40G
100
AcDbAlignedDimension
 13
7899.673057123663
 23
4661.623237776075
 33
0.0
 14
7849.673057123663
 24
4661.623237776079
 34
0.0
100
AcDbRotatedDimension
  0
CIRCLE
  5
19F43
330
747D
100
AcDbEntity
  8
細線
 48
50.0
100
AcDbCircle
 10
7164.673057123661
 20
3174.123237776072
 30
0.0
 40
18.0
  0
ARC
  5
19F44
330
747D
100
AcDbEntity
  8
細線
 48
50.0
100
AcDbCircle
 10
7464.673057123661
 20
2849.123237776072
 30
0.0
 40
15.0
100
AcDbArc
 50
270.0
 51
90.0
  0
ARC
  5
19F45
330
747D
100
AcDbEntity
  8
細線
 48
50.0
100
AcDbCircle
 10
7364.673057123662
 20
2849.123237776072
 30
0.0
 40
15.0
100
AcDbArc
 50
90.0
 51
270.0
  0
LINE
  5
19F46
330
747D
100
AcDbEntity
  8
細線
 48
50.0
100
AcDbLine
 10
7364.673057123662
 20
2864.123237776072
 30
0.0
 11
7464.673057123661
 21
2864.123237776072
 31
0.0
  0
LINE
  5
19F47
330
747D
100
AcDbEntity
  8
細線
 48
50.0
100
AcDbLine
 10
7464.673057123661
 20
2834.123237776072
 30
0.0
 11
7364.673057123662
 21
2834.123237776072
 31
0.0
  0
LINE
  5
19F48
330
747D
100
AcDbEntity
  8
細線
 48
50.0
100
AcDbLine
 10
6964.673057123661
 20
2834.123237776072
 30
0.0
 11
6864.673057123662
 21
2834.123237776072
 31
0.0
  0
LINE
  5
19F49
330
747D
100
AcDbEntity
  8
細線
 48
50.0
100
AcDbLine
 10
6864.673057123662
 20
2864.123237776072
 30
0.0
 11
6964.673057123661
 21
2864.123237776072
 31
0.0
  0
ARC
  5
19F4A
330
747D
100
AcDbEntity
  8
細線
 48
50.0
100
AcDbCircle
 10
6964.673057123661
 20
2849.123237776072
 30
0.0
 40
15.0
100
AcDbArc
 50
270.0
 51
90.0
  0
ARC
  5
19F4B
330
747D
100
AcDbEntity
  8
細線
 48
50.0
100
AcDbCircle
 10
6864.673057123662
 20
2849.123237776072
 30
0.0
 40
15.0
100
AcDbArc
 50
90.0
 51
270.0
  0
CIRCLE
  5
19F4C
330
747D
100
AcDbEntity
  8
細線
 48
50.0
100
AcDbCircle
 10
4424.673057123664
 20
3174.123237776072
 30
0.0
 40
18.0
  0
ARC
  5
19F4D
330
747D
100
AcDbEntity
  8
細線
 48
50.0
100
AcDbCircle
 10
4724.673057123664
 20
2849.123237776072
 30
0.0
 40
15.0
100
AcDbArc
 50
270.0
 51
90.0
  0
ARC
  5
19F4E
330
747D
100
AcDbEntity
  8
細線
 48
50.0
100
AcDbCircle
 10
4624.673057123664
 20
2849.123237776072
 30
0.0
 40
15.0
100
AcDbArc
 50
90.0
 51
270.0
  0
LINE
  5
19F4F
330
747D
100
AcDbEntity
  8
細線
 48
50.0
100
AcDbLine
 10
4624.673057123664
 20
2864.123237776072
 30
0.0
 11
4724.673057123664
 21
2864.123237776072
 31
0.0
  0
LINE
  5
19F50
330
747D
100
AcDbEntity
  8
細線
 48
50.0
100
AcDbLine
 10
4724.673057123664
 20
2834.123237776072
 30
0.0
 11
4624.673057123664
 21
2834.123237776072
 31
0.0
  0
LINE
  5
19F51
330
747D
100
AcDbEntity
  8
細線
 48
50.0
100
AcDbLine
 10
4224.673057123664
 20
2834.123237776072
 30
0.0
 11
4124.673057123664
 21
2834.123237776072
 31
0.0
  0
LINE
  5
19F52
330
747D
100
AcDbEntity
  8
細線
 48
50.0
100
AcDbLine
 10
4124.673057123664
 20
2864.123237776072
 30
0.0
 11
4224.673057123664
 21
2864.123237776072
 31
0.0
  0
ARC
  5
19F53
330
747D
100
AcDbEntity
  8
細線
 48
50.0
100
AcDbCircle
 10
4224.673057123664
 20
2849.123237776072
 30
0.0
 40
15.0
100
AcDbArc
 50
270.0
 51
90.0
  0
ARC
  5
19F54
330
747D
100
AcDbEntity
  8
細線
 48
50.0
100
AcDbCircle
 10
4124.673057123664
 20
2849.123237776072
 30
0.0
 40
15.0
100
AcDbArc
 50
90.0
 51
270.0
  0
LINE
  5
19F56
330
747D
100
AcDbEntity
  8
部品1
100
AcDbLine
 10
3739.673057123665
 20
2286.623237776072
 30
0.0
 11
7849.673057123663
 21
2286.623237776072
 31
0.0
  0
LINE
  5
19F80
330
747D
100
AcDbEntity
  8
破線
 48
5.0
100
AcDbLine
 10
5006.673057123663
 20
2286.623237776072
 30
0.0
 11
5006.673057123663
 21
2036.623237776071
 31
0.0
  0
LINE
  5
19F81
330
747D
100
AcDbEntity
  8
破線
 48
5.0
100
AcDbLine
 10
5054.673057123665
 20
2036.623237776072
 30
0.0
 11
5006.673057123663
 21
2036.623237776072
 31
0.0
  0
LINE
  5
19F82
330
747D
100
AcDbEntity
  8
破線
 48
5.0
100
AcDbLine
 10
5054.673057123662
 20
2286.623237776072
 30
0.0
 11
5054.673057123662
 21
2011.623237776072
 31
0.0
  0
LINE
  5
19F83
330
747D
100
AcDbEntity
  8
破線
 48
5.0
100
AcDbLine
 10
5164.673057123662
 20
2011.623237776072
 30
0.0
 11
5054.673057123663
 21
2011.623237776072
 31
0.0
  0
LINE
  5
19F84
330
747D
100
AcDbEntity
  8
破線
 48
5.0
100
AcDbLine
 10
5212.673057123663
 20
2286.623237776072
 30
0.0
 11
5212.673057123662
 21
2036.623237776077
 31
0.0
  0
LINE
  5
19F85
330
747D
100
AcDbEntity
  8
破線
 48
5.0
100
AcDbLine
 10
5212.673057123662
 20
2036.623237776077
 30
0.0
 11
5164.673057123661
 21
2036.623237776077
 31
0.0
  0
LINE
  5
19F86
330
747D
100
AcDbEntity
  8
破線
 48
5.0
100
AcDbLine
 10
5164.673057123663
 20
2286.623237776072
 30
0.0
 11
5164.673057123662
 21
2011.623237776072
 31
0.0
  0
LINE
  5
19F8A
330
747D
100
AcDbEntity
  8
部品1
100
AcDbLine
 10
3739.673057123662
 20
4261.623237776071
 30
0.0
 11
5164.673057123663
 21
4261.623237776071
 31
0.0
  0
LINE
  5
19F8B
330
747D
100
AcDbEntity
  8
細線
100
AcDbLine
 10
3842.67305712366
 20
4246.623237776072
 30
0.0
 11
5006.673057123661
 21
4246.623237776072
 31
0.0
  0
LINE
  5
19F8C
330
747D
100
AcDbEntity
  8
細線
100
AcDbLine
 10
3842.67305712366
 20
2816.623237776072
 30
0.0
 11
5006.673057123661
 21
2816.623237776072
 31
0.0
  0
LINE
  5
19F8D
330
747D
100
AcDbEntity
  8
細線
100
AcDbLine
 10
3842.67305712366
 20
2751.623237776072
 30
0.0
 11
5006.673057123661
 21
2751.623237776072
 31
0.0
  0
LINE
  5
19F8E
330
747D
100
AcDbEntity
  8
細線
100
AcDbLine
 10
3842.67305712366
 20
2686.623237776072
 30
0.0
 11
5006.673057123661
 21
2686.623237776072
 31
0.0
  0
LINE
  5
19F8F
330
747D
100
AcDbEntity
  8
細線
100
AcDbLine
 10
3842.67305712366
 20
2621.623237776072
 30
0.0
 11
5006.673057123661
 21
2621.623237776072
 31
0.0
  0
LINE
  5
19F90
330
747D
100
AcDbEntity
  8
細線
100
AcDbLine
 10
3842.67305712366
 20
2556.623237776072
 30
0.0
 11
5006.673057123661
 21
2556.623237776072
 31
0.0
  0
LINE
  5
19F91
330
747D
100
AcDbEntity
  8
細線
100
AcDbLine
 10
3842.67305712366
 20
2491.623237776072
 30
0.0
 11
5006.673057123661
 21
2491.623237776072
 31
0.0
  0
LINE
  5
19F92
330
747D
100
AcDbEntity
  8
細線
100
AcDbLine
 10
3842.67305712366
 20
2426.623237776072
 30
0.0
 11
5006.673057123661
 21
2426.623237776072
 31
0.0
  0
LINE
  5
19F93
330
747D
100
AcDbEntity
  8
細線
100
AcDbLine
 10
3842.67305712366
 20
2361.623237776072
 30
0.0
 11
5006.673057123661
 21
2361.623237776072
 31
0.0
  0
LINE
  5
19F94
330
747D
100
AcDbEntity
  8
細線
100
AcDbLine
 10
3842.67305712366
 20
4116.623237776071
 30
0.0
 11
5006.673057123661
 21
4116.623237776071
 31
0.0
  0
LINE
  5
19F95
330
747D
100
AcDbEntity
  8
細線
100
AcDbLine
 10
3842.67305712366
 20
4181.623237776071
 30
0.0
 11
5006.673057123661
 21
4181.623237776071
 31
0.0
  0
LINE
  5
19F96
330
747D
100
AcDbEntity
  8
細線
100
AcDbLine
 10
3842.67305712366
 20
3466.623237776071
 30
0.0
 11
5006.673057123661
 21
3466.623237776071
 31
0.0
  0
LINE
  5
19F97
330
747D
100
AcDbEntity
  8
細線
100
AcDbLine
 10
3842.67305712366
 20
3401.623237776072
 30
0.0
 11
5006.673057123661
 21
3401.623237776072
 31
0.0
  0
LINE
  5
19F98
330
747D
100
AcDbEntity
  8
細線
100
AcDbLine
 10
3842.67305712366
 20
3336.623237776072
 30
0.0
 11
5006.673057123661
 21
3336.623237776072
 31
0.0
  0
LINE
  5
19F99
330
747D
100
AcDbEntity
  8
細線
100
AcDbLine
 10
3842.67305712366
 20
3271.623237776072
 30
0.0
 11
5006.673057123661
 21
3271.623237776072
 31
0.0
  0
LINE
  5
19F9A
330
747D
100
AcDbEntity
  8
細線
100
AcDbLine
 10
3842.67305712366
 20
3206.623237776072
 30
0.0
 11
5006.673057123661
 21
3206.623237776072
 31
0.0
  0
LINE
  5
19F9B
330
747D
100
AcDbEntity
  8
細線
100
AcDbLine
 10
3842.67305712366
 20
3141.623237776072
 30
0.0
 11
5006.673057123661
 21
3141.623237776072
 31
0.0
  0
LINE
  5
19F9C
330
747D
100
AcDbEntity
  8
細線
100
AcDbLine
 10
3842.67305712366
 20
3076.623237776072
 30
0.0
 11
5006.673057123661
 21
3076.623237776072
 31
0.0
  0
LINE
  5
19F9D
330
747D
100
AcDbEntity
  8
細線
100
AcDbLine
 10
3842.67305712366
 20
3011.623237776072
 30
0.0
 11
5006.673057123661
 21
3011.623237776072
 31
0.0
  0
LINE
  5
19F9E
330
747D
100
AcDbEntity
  8
細線
100
AcDbLine
 10
3842.67305712366
 20
2946.623237776072
 30
0.0
 11
5006.673057123661
 21
2946.623237776072
 31
0.0
  0
LINE
  5
19F9F
330
747D
100
AcDbEntity
  8
細線
100
AcDbLine
 10
3842.67305712366
 20
2881.623237776072
 30
0.0
 11
5006.673057123661
 21
2881.623237776072
 31
0.0
  0
LINE
  5
19FA0
330
747D
100
AcDbEntity
  8
細線
100
AcDbLine
 10
3842.67305712366
 20
3856.623237776072
 30
0.0
 11
5006.673057123661
 21
3856.623237776072
 31
0.0
  0
LINE
  5
19FA1
330
747D
100
AcDbEntity
  8
細線
100
AcDbLine
 10
3842.67305712366
 20
3791.623237776072
 30
0.0
 11
5006.673057123661
 21
3791.623237776072
 31
0.0
  0
LINE
  5
19FA2
330
747D
100
AcDbEntity
  8
細線
100
AcDbLine
 10
3842.67305712366
 20
3726.623237776072
 30
0.0
 11
5006.673057123661
 21
3726.623237776072
 31
0.0
  0
LINE
  5
19FA3
330
747D
100
AcDbEntity
  8
細線
100
AcDbLine
 10
3842.67305712366
 20
3661.623237776072
 30
0.0
 11
5006.673057123661
 21
3661.623237776072
 31
0.0
  0
LINE
  5
19FA4
330
747D
100
AcDbEntity
  8
細線
100
AcDbLine
 10
3842.67305712366
 20
3596.623237776072
 30
0.0
 11
5006.673057123661
 21
3596.623237776072
 31
0.0
  0
LINE
  5
19FA5
330
747D
100
AcDbEntity
  8
細線
100
AcDbLine
 10
3842.67305712366
 20
3531.623237776072
 30
0.0
 11
5006.673057123661
 21
3531.623237776072
 31
0.0
  0
LINE
  5
19FA6
330
747D
100
AcDbEntity
  8
細線
100
AcDbLine
 10
3842.67305712366
 20
4051.623237776071
 30
0.0
 11
5006.673057123661
 21
4051.623237776071
 31
0.0
  0
LINE
  5
19FA7
330
747D
100
AcDbEntity
  8
細線
100
AcDbLine
 10
3842.67305712366
 20
3986.623237776072
 30
0.0
 11
5006.673057123661
 21
3986.623237776072
 31
0.0
  0
LINE
  5
19FA8
330
747D
100
AcDbEntity
  8
細線
100
AcDbLine
 10
3842.67305712366
 20
3921.623237776072
 30
0.0
 11
5006.673057123661
 21
3921.623237776072
 31
0.0
  0
LINE
  5
19FA9
330
747D
100
AcDbEntity
  8
部品1
100
AcDbLine
 10
5006.673057123664
 20
4261.623237776073
 30
0.0
 11
5006.673057123663
 21
2286.623237776072
 31
0.0
  0
LINE
  5
19FAA
330
747D
100
AcDbEntity
  8
部品1
100
AcDbLine
 10
5054.673057123662
 20
4261.623237776071
 30
0.0
 11
5054.673057123662
 21
2286.623237776072
 31
0.0
  0
LINE
  5
19FAB
330
747D
100
AcDbEntity
  8
部品1
100
AcDbLine
 10
5212.673057123663
 20
4261.623237776071
 30
0.0
 11
5212.673057123663
 21
2286.623237776072
 31
0.0
  0
LINE
  5
19FAC
330
747D
100
AcDbEntity
  8
部品1
100
AcDbLine
 10
5164.673057123662
 20
4261.623237776071
 30
0.0
 11
5164.673057123663
 21
2286.623237776072
 31
0.0
  0
LINE
  5
19FAD
330
747D
100
AcDbEntity
  8
細線
100
AcDbLine
 10
5006.673057123663
 20
2296.623237776072
 30
0.0
 11
3842.673057123658
 21
2296.623237776072
 31
0.0
  0
LINE
  5
19FB3
330
747D
100
AcDbEntity
  8
部品1
100
AcDbLine
 10
6534.673057123663
 20
4261.623237776071
 30
0.0
 11
7849.673057123663
 21
4261.623237776072
 31
0.0
  0
LINE
  5
19FB4
330
747D
100
AcDbEntity
  8
部品1
100
AcDbLine
 10
6534.673057123661
 20
4261.623237776071
 30
0.0
 11
6534.673057123663
 21
2286.623237776072
 31
0.0
  0
LINE
  5
19FB5
330
747D
100
AcDbEntity
  8
破線
 48
5.0
100
AcDbLine
 10
6534.673057123663
 20
2286.623237776072
 30
0.0
 11
6534.673057123663
 21
2011.623237776072
 31
0.0
  0
LINE
  5
19FB6
330
747D
100
AcDbEntity
  8
破線
 48
5.0
100
AcDbLine
 10
6582.673057123662
 20
2036.623237776077
 30
0.0
 11
6534.673057123661
 21
2036.623237776077
 31
0.0
  0
LINE
  5
19FB7
330
747D
100
AcDbEntity
  8
破線
 48
5.0
100
AcDbLine
 10
6582.673057123663
 20
2286.623237776072
 30
0.0
 11
6582.673057123661
 21
2036.623237776077
 31
0.0
  0
LINE
  5
19FB8
330
747D
100
AcDbEntity
  8
部品1
100
AcDbLine
 10
6582.673057123663
 20
4261.623237776071
 30
0.0
 11
6582.673057123663
 21
2286.623237776072
 31
0.0
  0
LINE
  5
19FB9
330
747D
100
AcDbEntity
  8
破線
 48
5.0
100
AcDbLine
 10
6534.673057123661
 20
2011.623237776072
 30
0.0
 11
6424.673057123662
 21
2011.623237776072
 31
0.0
  0
LINE
  5
19FBA
330
747D
100
AcDbEntity
  8
破線
 48
5.0
100
AcDbLine
 10
6424.673057123662
 20
2286.623237776072
 30
0.0
 11
6424.673057123662
 21
2011.623237776072
 31
0.0
  0
LINE
  5
19FBB
330
747D
100
AcDbEntity
  8
破線
 48
5.0
100
AcDbLine
 10
6424.673057123664
 20
2036.623237776072
 30
0.0
 11
6376.673057123663
 21
2036.623237776072
 31
0.0
  0
LINE
  5
19FBC
330
747D
100
AcDbEntity
  8
破線
 48
5.0
100
AcDbLine
 10
6376.673057123662
 20
2286.623237776072
 30
0.0
 11
6376.673057123663
 21
2036.623237776071
 31
0.0
  0
LINE
  5
19FBD
330
747D
100
AcDbEntity
  8
部品1
100
AcDbLine
 10
6424.673057123662
 20
4261.623237776071
 30
0.0
 11
6424.673057123662
 21
2286.623237776072
 31
0.0
  0
LINE
  5
19FBE
330
747D
100
AcDbEntity
  8
部品1
100
AcDbLine
 10
6376.673057123664
 20
4261.623237776072
 30
0.0
 11
6376.673057123662
 21
2286.623237776072
 31
0.0
  0
LINE
  5
19FE0
330
747D
100
AcDbEntity
  8
細線
100
AcDbLine
 10
7746.673057123664
 20
2296.623237776072
 30
0.0
 11
6582.673057123658
 21
2296.623237776072
 31
0.0
  0
LINE
  5
19FE1
330
747D
100
AcDbEntity
  8
細線
100
AcDbLine
 10
6582.67305712366
 20
2816.623237776072
 30
0.0
 11
7746.673057123661
 21
2816.623237776072
 31
0.0
  0
LINE
  5
19FE2
330
747D
100
AcDbEntity
  8
細線
100
AcDbLine
 10
6582.67305712366
 20
2751.623237776072
 30
0.0
 11
7746.673057123661
 21
2751.623237776072
 31
0.0
  0
LINE
  5
19FE3
330
747D
100
AcDbEntity
  8
細線
100
AcDbLine
 10
6582.67305712366
 20
2686.623237776072
 30
0.0
 11
7746.673057123661
 21
2686.623237776072
 31
0.0
  0
LINE
  5
19FE4
330
747D
100
AcDbEntity
  8
細線
100
AcDbLine
 10
6582.67305712366
 20
2621.623237776072
 30
0.0
 11
7746.673057123661
 21
2621.623237776072
 31
0.0
  0
LINE
  5
19FE5
330
747D
100
AcDbEntity
  8
細線
100
AcDbLine
 10
6582.67305712366
 20
2556.623237776072
 30
0.0
 11
7746.673057123661
 21
2556.623237776072
 31
0.0
  0
LINE
  5
19FE6
330
747D
100
AcDbEntity
  8
細線
100
AcDbLine
 10
6582.67305712366
 20
2491.623237776072
 30
0.0
 11
7746.673057123661
 21
2491.623237776072
 31
0.0
  0
LINE
  5
19FE7
330
747D
100
AcDbEntity
  8
細線
100
AcDbLine
 10
6582.67305712366
 20
2426.623237776072
 30
0.0
 11
7746.673057123661
 21
2426.623237776072
 31
0.0
  0
LINE
  5
19FE8
330
747D
100
AcDbEntity
  8
細線
100
AcDbLine
 10
6582.67305712366
 20
2361.623237776072
 30
0.0
 11
7746.673057123661
 21
2361.623237776072
 31
0.0
  0
LINE
  5
19FE9
330
747D
100
AcDbEntity
  8
細線
100
AcDbLine
 10
6582.67305712366
 20
2296.623237776072
 30
0.0
 11
7746.673057123661
 21
2296.623237776072
 31
0.0
  0
LINE
  5
19FEA
330
747D
100
AcDbEntity
  8
細線
100
AcDbLine
 10
6582.67305712366
 20
4116.623237776071
 30
0.0
 11
7746.673057123661
 21
4116.623237776071
 31
0.0
  0
LINE
  5
19FEB
330
747D
100
AcDbEntity
  8
細線
100
AcDbLine
 10
6582.67305712366
 20
4246.623237776072
 30
0.0
 11
7746.673057123661
 21
4246.623237776072
 31
0.0
  0
LINE
  5
19FEC
330
747D
100
AcDbEntity
  8
細線
100
AcDbLine
 10
6582.67305712366
 20
4181.623237776071
 30
0.0
 11
7746.673057123661
 21
4181.623237776071
 31
0.0
  0
LINE
  5
19FED
330
747D
100
AcDbEntity
  8
細線
100
AcDbLine
 10
6582.67305712366
 20
3466.623237776071
 30
0.0
 11
7746.673057123661
 21
3466.623237776071
 31
0.0
  0
LINE
  5
19FEE
330
747D
100
AcDbEntity
  8
細線
100
AcDbLine
 10
6582.67305712366
 20
3401.623237776072
 30
0.0
 11
7746.673057123661
 21
3401.623237776072
 31
0.0
  0
LINE
  5
19FEF
330
747D
100
AcDbEntity
  8
細線
100
AcDbLine
 10
6582.67305712366
 20
3336.623237776072
 30
0.0
 11
7746.673057123661
 21
3336.623237776072
 31
0.0
  0
LINE
  5
19FF0
330
747D
100
AcDbEntity
  8
細線
100
AcDbLine
 10
6582.67305712366
 20
3271.623237776072
 30
0.0
 11
7746.673057123661
 21
3271.623237776072
 31
0.0
  0
LINE
  5
19FF1
330
747D
100
AcDbEntity
  8
細線
100
AcDbLine
 10
6582.67305712366
 20
3206.623237776072
 30
0.0
 11
7746.673057123661
 21
3206.623237776072
 31
0.0
  0
LINE
  5
19FF2
330
747D
100
AcDbEntity
  8
細線
100
AcDbLine
 10
6582.67305712366
 20
3141.623237776072
 30
0.0
 11
7746.673057123661
 21
3141.623237776072
 31
0.0
  0
LINE
  5
19FF3
330
747D
100
AcDbEntity
  8
細線
100
AcDbLine
 10
6582.67305712366
 20
3076.623237776072
 30
0.0
 11
7746.673057123661
 21
3076.623237776072
 31
0.0
  0
LINE
  5
19FF4
330
747D
100
AcDbEntity
  8
細線
100
AcDbLine
 10
6582.67305712366
 20
3011.623237776072
 30
0.0
 11
7746.673057123661
 21
3011.623237776072
 31
0.0
  0
LINE
  5
19FF5
330
747D
100
AcDbEntity
  8
細線
100
AcDbLine
 10
6582.67305712366
 20
2946.623237776072
 30
0.0
 11
7746.673057123661
 21
2946.623237776072
 31
0.0
  0
LINE
  5
19FF6
330
747D
100
AcDbEntity
  8
細線
100
AcDbLine
 10
6582.67305712366
 20
2881.623237776072
 30
0.0
 11
7746.673057123661
 21
2881.623237776072
 31
0.0
  0
LINE
  5
19FF7
330
747D
100
AcDbEntity
  8
細線
100
AcDbLine
 10
6582.67305712366
 20
3856.623237776072
 30
0.0
 11
7746.673057123661
 21
3856.623237776072
 31
0.0
  0
LINE
  5
19FF8
330
747D
100
AcDbEntity
  8
細線
100
AcDbLine
 10
6582.67305712366
 20
3791.623237776072
 30
0.0
 11
7746.673057123661
 21
3791.623237776072
 31
0.0
  0
LINE
  5
19FF9
330
747D
100
AcDbEntity
  8
細線
100
AcDbLine
 10
6582.67305712366
 20
3726.623237776072
 30
0.0
 11
7746.673057123661
 21
3726.623237776072
 31
0.0
  0
LINE
  5
19FFA
330
747D
100
AcDbEntity
  8
細線
100
AcDbLine
 10
6582.67305712366
 20
3661.623237776072
 30
0.0
 11
7746.673057123661
 21
3661.623237776072
 31
0.0
  0
LINE
  5
19FFB
330
747D
100
AcDbEntity
  8
細線
100
AcDbLine
 10
6582.67305712366
 20
3596.623237776072
 30
0.0
 11
7746.673057123661
 21
3596.623237776072
 31
0.0
  0
LINE
  5
19FFC
330
747D
100
AcDbEntity
  8
細線
100
AcDbLine
 10
6582.67305712366
 20
3531.623237776072
 30
0.0
 11
7746.673057123661
 21
3531.623237776072
 31
0.0
  0
LINE
  5
19FFD
330
747D
100
AcDbEntity
  8
細線
100
AcDbLine
 10
6582.67305712366
 20
4051.623237776071
 30
0.0
 11
7746.673057123661
 21
4051.623237776071
 31
0.0
  0
LINE
  5
19FFE
330
747D
100
AcDbEntity
  8
細線
100
AcDbLine
 10
6582.67305712366
 20
3986.623237776072
 30
0.0
 11
7746.673057123661
 21
3986.623237776072
 31
0.0
  0
LINE
  5
19FFF
330
747D
100
AcDbEntity
  8
細線
100
AcDbLine
 10
6582.67305712366
 20
3921.623237776072
 30
0.0
 11
7746.673057123661
 21
3921.623237776072
 31
0.0
  0
LINE
  5
1A001
330
747D
100
AcDbEntity
  8
破線
 48
5.0
100
AcDbLine
 10
3842.673057123663
 20
2036.623237776077
 30
0.0
 11
3794.673057123662
 21
2036.623237776077
 31
0.0
  0
LINE
  5
1A002
330
747D
100
AcDbEntity
  8
破線
 48
5.0
100
AcDbLine
 10
7794.673057123666
 20
2036.623237776072
 30
0.0
 11
7746.673057123664
 21
2036.623237776072
 31
0.0
  0
LINE
  5
1A003
330
747D
100
AcDbEntity
  8
破線
 48
5.0
100
AcDbLine
 10
7746.673057123661
 20
2286.623237776072
 30
0.0
 11
7746.673057123664
 21
2036.623237776072
 31
0.0
  0
LINE
  5
1A004
330
747D
100
AcDbEntity
  8
部品1
100
AcDbLine
 10
7746.673057123665
 20
4261.623237776072
 30
0.0
 11
7746.673057123661
 21
2286.623237776072
 31
0.0
  0
LINE
  5
1A005
330
747D
100
AcDbEntity
  8
破線
 48
5.0
100
AcDbLine
 10
3842.673057123663
 20
2286.623237776072
 30
0.0
 11
3842.673057123662
 21
2036.623237776077
 31
0.0
  0
LINE
  5
1A006
330
747D
100
AcDbEntity
  8
部品1
100
AcDbLine
 10
3842.673057123663
 20
4261.623237776071
 30
0.0
 11
3842.673057123663
 21
2286.623237776072
 31
0.0
  0
LINE
  5
1A007
330
747D
100
AcDbEntity
  8
破線
 48
5.0
100
AcDbLine
 10
3794.673057123662
 20
1936.623237776078
 30
0.0
 11
3739.673057123662
 21
1936.623237776078
 31
0.0
  0
LINE
  5
1A008
330
747D
100
AcDbEntity
  8
破線
 48
5.0
100
AcDbLine
 10
7849.673057123661
 20
1936.623237776071
 30
0.0
 11
7794.673057123663
 21
1936.623237776071
 31
0.0
  0
LINE
  5
1A009
330
747D
100
AcDbEntity
  8
破線
 48
5.0
100
AcDbLine
 10
3794.673057123663
 20
2286.623237776072
 30
0.0
 11
3794.673057123662
 21
1936.623237776071
 31
0.0
  0
LINE
  5
1A00A
330
747D
100
AcDbEntity
  8
破線
 48
5.0
100
AcDbLine
 10
7794.673057123661
 20
2286.623237776072
 30
0.0
 11
7794.673057123663
 21
1936.623237776071
 31
0.0
  0
LINE
  5
1A00C
330
747D
100
AcDbEntity
  8
破線
 48
5.0
100
AcDbLine
 10
3739.673057123663
 20
2186.623237776072
 30
0.0
 11
3739.673057123662
 21
1936.623237776071
 31
0.0
  0
LINE
  5
1A00D
330
747D
100
AcDbEntity
  8
破線
 48
5.0
100
AcDbLine
 10
7849.673057123663
 20
2186.623237776072
 30
0.0
 11
7849.673057123663
 21
1936.623237776071
 31
0.0
  0
LINE
  5
1A014
330
747D
100
AcDbEntity
  8
部品1
100
AcDbLine
 10
7849.673057123664
 20
4520.623237776081
 30
0.0
 11
7849.673057123663
 21
2186.623237776072
 31
0.0
  0
LINE
  5
1A015
330
747D
100
AcDbEntity
  8
部品1
100
AcDbLine
 10
3794.673057123663
 20
4261.623237776071
 30
0.0
 11
3794.673057123663
 21
2286.623237776072
 31
0.0
  0
LINE
  5
1A016
330
747D
100
AcDbEntity
  8
部品1
100
AcDbLine
 10
7794.673057123663
 20
4261.623237776071
 30
0.0
 11
7794.673057123661
 21
2286.623237776072
 31
0.0
  0
LINE
  5
1A017
330
747D
100
AcDbEntity
  8
部品1
100
AcDbLine
 10
3739.673057123663
 20
4520.623237776077
 30
0.0
 11
3739.673057123663
 21
2186.623237776072
 31
0.0
  0
DIMENSION
  5
1A018
330
747D
100
AcDbEntity
  8
寸法
 48
50.0
100
AcDbDimension
  2
*D38
 10
7899.673057123663
 20
5267.258430722072
 30
0.0
 11
5794.673057123663
 21
5267.258430722072
 31
0.0
 70
   160
  1
N X 1370+100
 71
     5
 42
4210.0
  3
INABA_S40G
100
AcDbAlignedDimension
 13
3689.673057123663
 23
4661.623237776077
 33
0.0
 14
7899.673057123663
 24
4661.623237776075
 34
0.0
100
AcDbRotatedDimension
  0
LINE
  5
1A01A
330
747D
100
AcDbEntity
  8
部品1
100
AcDbLine
 10
2900.90346577728
 20
2316.527048343736
 30
0.0
 11
2825.90346577728
 21
2186.623237776072
 31
0.0
  0
TEXT
  5
1A01B
330
747D
100
AcDbEntity
  8
部品1
100
AcDbText
 10
2929.008407902053
 20
2222.730141381973
 30
0.0
 40
125.0
  1
G.L
  7
MSGOTHIC
100
AcDbText
  0
LINE
  5
1A01C
330
747D
100
AcDbEntity
  8
部品1
100
AcDbLine
 10
2825.90346577728
 20
2186.623237776072
 30
0.0
 11
2750.90346577728
 21
2316.527048343736
 31
0.0
  0
LINE
  5
1A01D
330
747D
100
AcDbEntity
  8
部品1
100
AcDbLine
 10
2750.90346577728
 20
2316.527048343736
 30
0.0
 11
2900.90346577728
 21
2316.527048343736
 31
0.0
  0
LWPOLYLINE
  5
1A021
330
747D
100
AcDbEntity
  8
部品1
100
AcDbPolyline
 90
        4
 70
     1
 43
0.0
 10
5364.00598998686
 20
1536.623237776072
 10
5364.00598998686
 20
1296.730916230539
 10
6127.476656215298
 20
1296.730916230539
 10
6127.476656215298
 20
1536.623237776072
  0
TEXT
  5
1A022
330
747D
100
AcDbEntity
  8
部品1
100
AcDbText
 10
5454.531393724814
 20
1343.729708557547
 30
0.0
 40
135.0
  1
正面図
  7
MSGOTHIC
100
AcDbText
  0
DIMENSION
  5
1A603
330
747D
100
AcDbEntity
  8
寸法
 48
50.0
100
AcDbDimension
  2
*D39
 10
8137.21615944541
 20
4234.623237776071
 30
0.0
 11
8037.216159445408
 21
3260.623237776073
 31
0.0
 70
    32
  1
有効開口部高サ <>
 71
     5
 42
1948.0
  3
INABA_S40G
100
AcDbAlignedDimension
 13
7849.673057123663
 23
2286.623237776072
 33
0.0
 14
7849.673057123663
 24
4234.623237776071
 34
0.0
 50
90.0
100
AcDbRotatedDimension
  0
DIMENSION
  5
1A604
330
747D
100
AcDbEntity
  8
寸法
 48
50.0
100
AcDbDimension
  2
*D40
 10
8137.21615944541
 20
4261.623237776072
 30
0.0
 11
8277.385982691775
 21
4262.59043761573
 31
0.0
 70
   160
 71
     5
 42
27.00000000000091
  3
INABA_S40G
100
AcDbAlignedDimension
 13
7849.673057123663
 23
4234.623237776071
 33
0.0
 14
7794.673057123663
 24
4261.623237776072
 34
0.0
 50
90.0
100
AcDbRotatedDimension
1001
ACAD
1000
DSTYLE
1002
{
1070
   279
1070
     2
1002
}
  0
DIMENSION
  5
1A605
330
747D
100
AcDbEntity
  8
寸法
 48
50.0
100
AcDbDimension
  2
*D41
 10
8137.21615944541
 20
4426.623237776071
 30
0.0
 11
8137.21615944541
 21
4665.108519150311
 31
0.0
 70
   160
 71
     5
 42
164.9999999999991
  3
INABA_S40G
100
AcDbAlignedDimension
 13
7794.673057123663
 23
4261.623237776072
 33
0.0
 14
7849.673057123663
 24
4426.623237776071
 34
0.0
 50
90.0
100
AcDbRotatedDimension
1001
ACAD
1000
DSTYLE
1002
{
1002
}
  0
LINE
  5
1A744
330
747D
100
AcDbEntity
  8
仕様書枠
 48
50.0
100
AcDbLine
 10
16307.19999999998
 20
8689.6
 30
0.0
 11
13127.19999999998
 21
8689.600000000003
 31
0.0
  0
TEXT
  5
1A74B
330
747D
100
AcDbEntity
  8
文字
 62
     7
 48
50.0
100
AcDbText
 10
15022.63965474517
 20
10760.01374588372
 30
0.0
 40
100.0
  1
F12         1.0,1.2
  7
STYLE1
100
AcDbText
  0
TEXT
  5
1A74E
330
747D
100
AcDbEntity
  8
文字
 62
     7
 48
50.0
100
AcDbText
 10
15022.63965474516
 20
9060.013745883727
 30
0.0
 40
100.0
  1
F12            0.7
  7
STYLE1
100
AcDbText
  0
LINE
  5
1A750
330
747D
100
AcDbEntity
  8
破線
 48
5.0
100
AcDbLine
 10
5109.673057123662
 20
2011.623237776072
 30
0.0
 11
5109.673057123662
 21
1936.623237776071
 31
0.0
  0
LINE
  5
1A751
330
747D
100
AcDbEntity
  8
破線
 48
5.0
100
AcDbLine
 10
5059.673057123662
 20
1936.623237776071
 30
0.0
 11
5159.673057123661
 21
1936.623237776071
 31
0.0
  0
LINE
  5
1A759
330
747D
100
AcDbEntity
  8
破線
 48
5.0
100
AcDbLine
 10
6429.673057123662
 20
1936.623237776071
 30
0.0
 11
6529.673057123662
 21
1936.623237776071
 31
0.0
  0
LINE
  5
1A75A
330
747D
100
AcDbEntity
  8
破線
 48
5.0
100
AcDbLine
 10
6479.673057123662
 20
2011.623237776072
 30
0.0
 11
6479.673057123662
 21
1936.623237776071
 31
0.0
  0
LINE
  5
1A772
330
747D
100
AcDbEntity
  8
部品1
 48
50.0
100
AcDbLine
 10
5176.673057123655
 20
7351.21333246224
 30
0.0
 11
6412.67305712364
 21
7351.21333246224
 31
0.0
  0
ARC
  5
1A778
330
747D
100
AcDbEntity
  8
部品1
 48
0.01
100
AcDbCircle
 10
5572.673057123663
 20
4459.123237776071
 30
0.0
 40
2.0
100
AcDbArc
 50
270.0
 51
0.0
  0
ARC
  5
1A779
330
747D
100
AcDbEntity
  8
部品1
 48
0.01
100
AcDbCircle
 10
5572.673057123663
 20
4490.623237776071
 30
0.0
 40
2.0
100
AcDbArc
 50
0.0
 51
90.0
  0
ARC
  5
1A77A
330
747D
100
AcDbEntity
  8
部品1
 48
0.01
100
AcDbCircle
 10
5396.673057123663
 20
4459.123237776071
 30
0.0
 40
2.0
100
AcDbArc
 50
180.0
 51
270.0
  0
ARC
  5
1A77B
330
747D
100
AcDbEntity
  8
部品1
 48
0.01
100
AcDbCircle
 10
5396.673057123663
 20
4490.623237776071
 30
0.0
 40
2.0
100
AcDbArc
 50
90.0
 51
180.0
  0
LINE
  5
1A77C
330
747D
100
AcDbEntity
  8
細線
100
AcDbLine
 10
5484.673057123663
 20
4463.123237776072
 30
0.0
 11
5558.673057123662
 21
4463.123237776072
 31
0.0
  0
LINE
  5
1A77D
330
747D
100
AcDbEntity
  8
細線
100
AcDbLine
 10
5484.673057123663
 20
4486.123237776071
 30
0.0
 11
5410.673057123663
 21
4486.123237776071
 31
0.0
  0
LINE
  5
1A77E
330
747D
100
AcDbEntity
  8
細線
100
AcDbLine
 10
5410.673057123663
 20
4463.123237776072
 30
0.0
 11
5484.673057123663
 21
4463.123237776072
 31
0.0
  0
LINE
  5
1A77F
330
747D
100
AcDbEntity
  8
細線
100
AcDbLine
 10
5558.673057123662
 20
4486.123237776071
 30
0.0
 11
5484.673057123663
 21
4486.123237776071
 31
0.0
  0
LINE
  5
1A780
330
747D
100
AcDbEntity
  8
細線
100
AcDbLine
 10
5558.673057123662
 20
4463.123237776072
 30
0.0
 11
5558.673057123662
 21
4486.123237776071
 31
0.0
  0
LINE
  5
1A781
330
747D
100
AcDbEntity
  8
細線
100
AcDbLine
 10
5410.673057123663
 20
4486.123237776071
 30
0.0
 11
5410.673057123663
 21
4463.123237776072
 31
0.0
  0
LINE
  5
1A782
330
747D
100
AcDbEntity
  8
部品1
 48
0.01
100
AcDbLine
 10
5574.673057123663
 20
4459.123237776071
 30
0.0
 11
5574.673057123663
 21
4490.623237776071
 31
0.0
  0
LINE
  5
1A783
330
747D
100
AcDbEntity
  8
部品1
 48
0.01
100
AcDbLine
 10
5396.673057123663
 20
4457.123237776071
 30
0.0
 11
5572.673057123663
 21
4457.123237776071
 31
0.0
  0
LINE
  5
1A784
330
747D
100
AcDbEntity
  8
部品1
 48
0.01
100
AcDbLine
 10
5394.673057123663
 20
4490.623237776071
 30
0.0
 11
5394.673057123663
 21
4459.123237776071
 31
0.0
  0
LINE
  5
1A785
330
747D
100
AcDbEntity
  8
部品1
 48
0.01
100
AcDbLine
 10
5572.673057123663
 20
4492.623237776071
 30
0.0
 11
5396.673057123663
 21
4492.623237776071
 31
0.0
  0
LINE
  5
1A786
330
747D
100
AcDbEntity
  8
細線
100
AcDbLine
 10
5410.673057123663
 20
4480.123237776072
 30
0.0
 11
5484.673057123663
 21
4480.123237776072
 31
0.0
  0
LINE
  5
1A787
330
747D
100
AcDbEntity
  8
細線
100
AcDbLine
 10
5410.673057123663
 20
4474.123237776072
 30
0.0
 11
5484.673057123663
 21
4474.123237776072
 31
0.0
  0
LINE
  5
1A788
330
747D
100
AcDbEntity
  8
細線
100
AcDbLine
 10
5410.673057123663
 20
4468.123237776072
 30
0.0
 11
5484.673057123663
 21
4468.123237776072
 31
0.0
  0
LINE
  5
1A789
330
747D
100
AcDbEntity
  8
細線
100
AcDbLine
 10
5410.673057123663
 20
4480.123237776072
 30
0.0
 11
5479.673057123663
 21
4480.123237776072
 31
0.0
  0
LINE
  5
1A78A
330
747D
100
AcDbEntity
  8
細線
100
AcDbLine
 10
5558.673057123662
 20
4480.123237776072
 30
0.0
 11
5484.673057123663
 21
4480.123237776072
 31
0.0
  0
LINE
  5
1A78B
330
747D
100
AcDbEntity
  8
細線
100
AcDbLine
 10
5558.673057123662
 20
4468.123237776072
 30
0.0
 11
5484.673057123663
 21
4468.123237776072
 31
0.0
  0
LINE
  5
1A78C
330
747D
100
AcDbEntity
  8
細線
100
AcDbLine
 10
5558.673057123662
 20
4474.123237776072
 30
0.0
 11
5484.673057123663
 21
4474.123237776072
 31
0.0
  0
LINE
  5
1A78D
330
747D
100
AcDbEntity
  8
細線
100
AcDbLine
 10
5484.673057123663
 20
4486.123237776071
 30
0.0
 11
5484.673057123663
 21
4463.123237776072
 31
0.0
  0
LINE
  5
1A78E
330
747D
100
AcDbEntity
  8
細線
100
AcDbLine
 10
6104.673057123663
 20
4486.123237776071
 30
0.0
 11
6104.673057123663
 21
4463.123237776072
 31
0.0
  0
LINE
  5
1A78F
330
747D
100
AcDbEntity
  8
細線
100
AcDbLine
 10
6030.673057123664
 20
4474.123237776072
 30
0.0
 11
6104.673057123663
 21
4474.123237776072
 31
0.0
  0
LINE
  5
1A790
330
747D
100
AcDbEntity
  8
細線
100
AcDbLine
 10
6030.673057123664
 20
4468.123237776072
 30
0.0
 11
6104.673057123663
 21
4468.123237776072
 31
0.0
  0
LINE
  5
1A791
330
747D
100
AcDbEntity
  8
細線
100
AcDbLine
 10
6030.673057123664
 20
4480.123237776072
 30
0.0
 11
6104.673057123663
 21
4480.123237776072
 31
0.0
  0
LINE
  5
1A792
330
747D
100
AcDbEntity
  8
細線
100
AcDbLine
 10
6178.673057123663
 20
4480.123237776072
 30
0.0
 11
6109.673057123663
 21
4480.123237776072
 31
0.0
  0
LINE
  5
1A793
330
747D
100
AcDbEntity
  8
細線
100
AcDbLine
 10
6178.673057123663
 20
4468.123237776072
 30
0.0
 11
6104.673057123663
 21
4468.123237776072
 31
0.0
  0
LINE
  5
1A794
330
747D
100
AcDbEntity
  8
細線
100
AcDbLine
 10
6178.673057123663
 20
4474.123237776072
 30
0.0
 11
6104.673057123663
 21
4474.123237776072
 31
0.0
  0
LINE
  5
1A795
330
747D
100
AcDbEntity
  8
細線
100
AcDbLine
 10
6178.673057123663
 20
4480.123237776072
 30
0.0
 11
6104.673057123663
 21
4480.123237776072
 31
0.0
  0
LINE
  5
1A796
330
747D
100
AcDbEntity
  8
部品1
 48
0.01
100
AcDbLine
 10
6016.673057123663
 20
4492.623237776071
 30
0.0
 11
6192.673057123663
 21
4492.623237776071
 31
0.0
  0
LINE
  5
1A797
330
747D
100
AcDbEntity
  8
部品1
 48
0.01
100
AcDbLine
 10
6194.673057123663
 20
4490.623237776071
 30
0.0
 11
6194.673057123663
 21
4459.123237776071
 31
0.0
  0
LINE
  5
1A798
330
747D
100
AcDbEntity
  8
部品1
 48
0.01
100
AcDbLine
 10
6192.673057123663
 20
4457.123237776071
 30
0.0
 11
6016.673057123663
 21
4457.123237776071
 31
0.0
  0
LINE
  5
1A799
330
747D
100
AcDbEntity
  8
部品1
 48
0.01
100
AcDbLine
 10
6014.673057123663
 20
4459.123237776071
 30
0.0
 11
6014.673057123663
 21
4490.623237776071
 31
0.0
  0
LINE
  5
1A79A
330
747D
100
AcDbEntity
  8
細線
100
AcDbLine
 10
6178.673057123663
 20
4486.123237776071
 30
0.0
 11
6178.673057123663
 21
4463.123237776072
 31
0.0
  0
LINE
  5
1A79B
330
747D
100
AcDbEntity
  8
細線
100
AcDbLine
 10
6030.673057123664
 20
4463.123237776072
 30
0.0
 11
6030.673057123664
 21
4486.123237776071
 31
0.0
  0
LINE
  5
1A79C
330
747D
100
AcDbEntity
  8
細線
100
AcDbLine
 10
6030.673057123664
 20
4486.123237776071
 30
0.0
 11
6104.673057123663
 21
4486.123237776071
 31
0.0
  0
LINE
  5
1A79D
330
747D
100
AcDbEntity
  8
細線
100
AcDbLine
 10
6178.673057123663
 20
4463.123237776072
 30
0.0
 11
6104.673057123663
 21
4463.123237776072
 31
0.0
  0
LINE
  5
1A79E
330
747D
100
AcDbEntity
  8
細線
100
AcDbLine
 10
6104.673057123663
 20
4486.123237776071
 30
0.0
 11
6178.673057123663
 21
4486.123237776071
 31
0.0
  0
LINE
  5
1A79F
330
747D
100
AcDbEntity
  8
細線
100
AcDbLine
 10
6104.673057123663
 20
4463.123237776072
 30
0.0
 11
6030.673057123664
 21
4463.123237776072
 31
0.0
  0
ARC
  5
1A7A0
330
747D
100
AcDbEntity
  8
部品1
 48
0.01
100
AcDbCircle
 10
6192.673057123663
 20
4490.623237776071
 30
0.0
 40
2.0
100
AcDbArc
 50
0.0
 51
90.0
  0
ARC
  5
1A7A1
330
747D
100
AcDbEntity
  8
部品1
 48
0.01
100
AcDbCircle
 10
6192.673057123663
 20
4459.123237776071
 30
0.0
 40
2.0
100
AcDbArc
 50
270.0
 51
0.0
  0
ARC
  5
1A7A2
330
747D
100
AcDbEntity
  8
部品1
 48
0.01
100
AcDbCircle
 10
6016.673057123663
 20
4490.623237776071
 30
0.0
 40
2.0
100
AcDbArc
 50
90.0
 51
180.0
  0
ARC
  5
1A7A3
330
747D
100
AcDbEntity
  8
部品1
 48
0.01
100
AcDbCircle
 10
6016.673057123663
 20
4459.123237776071
 30
0.0
 40
2.0
100
AcDbArc
 50
180.0
 51
270.0
  0
LINE
  5
1A7A4
330
747D
100
AcDbEntity
  8
細線
100
AcDbLine
 10
5212.673057123659
 20
3921.623237776072
 30
0.0
 11
6376.673057123661
 21
3921.623237776072
 31
0.0
  0
LINE
  5
1A7A5
330
747D
100
AcDbEntity
  8
細線
100
AcDbLine
 10
5212.673057123659
 20
3986.623237776072
 30
0.0
 11
6376.673057123661
 21
3986.623237776072
 31
0.0
  0
LINE
  5
1A7A6
330
747D
100
AcDbEntity
  8
細線
100
AcDbLine
 10
5212.673057123659
 20
4051.623237776071
 30
0.0
 11
6376.673057123661
 21
4051.623237776071
 31
0.0
  0
LINE
  5
1A7A7
330
747D
100
AcDbEntity
  8
細線
100
AcDbLine
 10
5212.673057123659
 20
3531.623237776072
 30
0.0
 11
6376.673057123661
 21
3531.623237776072
 31
0.0
  0
LINE
  5
1A7A8
330
747D
100
AcDbEntity
  8
細線
100
AcDbLine
 10
5212.673057123659
 20
3596.623237776072
 30
0.0
 11
6376.673057123661
 21
3596.623237776072
 31
0.0
  0
LINE
  5
1A7A9
330
747D
100
AcDbEntity
  8
細線
100
AcDbLine
 10
5212.673057123659
 20
3661.623237776072
 30
0.0
 11
6376.673057123661
 21
3661.623237776072
 31
0.0
  0
LINE
  5
1A7AA
330
747D
100
AcDbEntity
  8
細線
100
AcDbLine
 10
5212.673057123659
 20
3726.623237776072
 30
0.0
 11
6376.673057123661
 21
3726.623237776072
 31
0.0
  0
LINE
  5
1A7AB
330
747D
100
AcDbEntity
  8
細線
100
AcDbLine
 10
5212.673057123659
 20
3791.623237776072
 30
0.0
 11
6376.673057123661
 21
3791.623237776072
 31
0.0
  0
LINE
  5
1A7AC
330
747D
100
AcDbEntity
  8
細線
100
AcDbLine
 10
5212.673057123659
 20
3856.623237776072
 30
0.0
 11
6376.673057123661
 21
3856.623237776072
 31
0.0
  0
LINE
  5
1A7AD
330
747D
100
AcDbEntity
  8
細線
100
AcDbLine
 10
5212.673057123659
 20
2881.623237776072
 30
0.0
 11
6376.673057123661
 21
2881.623237776072
 31
0.0
  0
LINE
  5
1A7AE
330
747D
100
AcDbEntity
  8
細線
100
AcDbLine
 10
5212.673057123659
 20
2946.623237776072
 30
0.0
 11
6376.673057123661
 21
2946.623237776072
 31
0.0
  0
LINE
  5
1A7AF
330
747D
100
AcDbEntity
  8
細線
100
AcDbLine
 10
5212.673057123659
 20
3011.623237776072
 30
0.0
 11
6376.673057123661
 21
3011.623237776072
 31
0.0
  0
LINE
  5
1A7B0
330
747D
100
AcDbEntity
  8
細線
100
AcDbLine
 10
5212.673057123659
 20
3076.623237776072
 30
0.0
 11
6376.673057123661
 21
3076.623237776072
 31
0.0
  0
LINE
  5
1A7B1
330
747D
100
AcDbEntity
  8
細線
100
AcDbLine
 10
5212.673057123659
 20
3141.623237776072
 30
0.0
 11
6376.673057123661
 21
3141.623237776072
 31
0.0
  0
LINE
  5
1A7B2
330
747D
100
AcDbEntity
  8
細線
100
AcDbLine
 10
5212.673057123659
 20
3206.623237776072
 30
0.0
 11
6376.673057123661
 21
3206.623237776072
 31
0.0
  0
LINE
  5
1A7B3
330
747D
100
AcDbEntity
  8
細線
100
AcDbLine
 10
5212.673057123659
 20
3271.623237776072
 30
0.0
 11
6376.673057123661
 21
3271.623237776072
 31
0.0
  0
LINE
  5
1A7B4
330
747D
100
AcDbEntity
  8
細線
100
AcDbLine
 10
5212.673057123659
 20
3336.623237776072
 30
0.0
 11
6376.673057123661
 21
3336.623237776072
 31
0.0
  0
LINE
  5
1A7B5
330
747D
100
AcDbEntity
  8
細線
100
AcDbLine
 10
5212.673057123659
 20
3401.623237776072
 30
0.0
 11
6376.673057123661
 21
3401.623237776072
 31
0.0
  0
LINE
  5
1A7B6
330
747D
100
AcDbEntity
  8
細線
100
AcDbLine
 10
5212.673057123659
 20
3466.623237776071
 30
0.0
 11
6376.673057123661
 21
3466.623237776071
 31
0.0
  0
LINE
  5
1A7B7
330
747D
100
AcDbEntity
  8
細線
100
AcDbLine
 10
5212.673057123659
 20
4181.623237776071
 30
0.0
 11
6376.673057123661
 21
4181.623237776071
 31
0.0
  0
LINE
  5
1A7B8
330
747D
100
AcDbEntity
  8
細線
100
AcDbLine
 10
5212.673057123659
 20
4116.623237776071
 30
0.0
 11
6376.673057123661
 21
4116.623237776071
 31
0.0
  0
LINE
  5
1A7B9
330
747D
100
AcDbEntity
  8
細線
100
AcDbLine
 10
5212.673057123659
 20
2751.623237776072
 30
0.0
 11
6376.673057123661
 21
2751.623237776072
 31
0.0
  0
LINE
  5
1A7BA
330
747D
100
AcDbEntity
  8
細線
100
AcDbLine
 10
5212.673057123659
 20
2816.623237776072
 30
0.0
 11
6376.673057123661
 21
2816.623237776072
 31
0.0
  0
LINE
  5
1A7BB
330
747D
100
AcDbEntity
  8
細線
100
AcDbLine
 10
5212.673057123659
 20
4246.623237776072
 30
0.0
 11
6376.673057123661
 21
4246.623237776072
 31
0.0
  0
LINE
  5
1A7BC
330
747D
100
AcDbEntity
  8
部品1
100
AcDbLine
 10
5164.673057123663
 20
4261.623237776071
 30
0.0
 11
6534.673057123663
 21
4261.623237776071
 31
0.0
  0
ARC
  5
1A7BD
330
747D
100
AcDbEntity
  8
細線
 48
50.0
100
AcDbCircle
 10
5494.673057123664
 20
2849.123237776072
 30
0.0
 40
15.0
100
AcDbArc
 50
90.0
 51
270.0
  0
ARC
  5
1A7BE
330
747D
100
AcDbEntity
  8
細線
 48
50.0
100
AcDbCircle
 10
5594.673057123664
 20
2849.123237776072
 30
0.0
 40
15.0
100
AcDbArc
 50
270.0
 51
90.0
  0
LINE
  5
1A7BF
330
747D
100
AcDbEntity
  8
細線
 48
50.0
100
AcDbLine
 10
5494.673057123664
 20
2864.123237776072
 30
0.0
 11
5594.673057123664
 21
2864.123237776072
 31
0.0
  0
LINE
  5
1A7C0
330
747D
100
AcDbEntity
  8
細線
 48
50.0
100
AcDbLine
 10
5594.673057123664
 20
2834.123237776072
 30
0.0
 11
5494.673057123664
 21
2834.123237776072
 31
0.0
  0
LINE
  5
1A7C1
330
747D
100
AcDbEntity
  8
細線
 48
50.0
100
AcDbLine
 10
6094.673057123664
 20
2834.123237776072
 30
0.0
 11
5994.673057123664
 21
2834.123237776072
 31
0.0
  0
LINE
  5
1A7C2
330
747D
100
AcDbEntity
  8
細線
 48
50.0
100
AcDbLine
 10
5994.673057123664
 20
2864.123237776072
 30
0.0
 11
6094.673057123664
 21
2864.123237776072
 31
0.0
  0
ARC
  5
1A7C3
330
747D
100
AcDbEntity
  8
細線
 48
50.0
100
AcDbCircle
 10
5994.673057123664
 20
2849.123237776072
 30
0.0
 40
15.0
100
AcDbArc
 50
90.0
 51
270.0
  0
ARC
  5
1A7C4
330
747D
100
AcDbEntity
  8
細線
 48
50.0
100
AcDbCircle
 10
6094.673057123664
 20
2849.123237776072
 30
0.0
 40
15.0
100
AcDbArc
 50
270.0
 51
90.0
  0
CIRCLE
  5
1A7C5
330
747D
100
AcDbEntity
  8
細線
 48
50.0
100
AcDbCircle
 10
5794.673057123664
 20
3174.123237776072
 30
0.0
 40
18.0
  0
LINE
  5
1A7C6
330
747D
100
AcDbEntity
  8
細線
100
AcDbLine
 10
5212.673057123659
 20
2361.623237776072
 30
0.0
 11
6376.673057123661
 21
2361.623237776072
 31
0.0
  0
LINE
  5
1A7C7
330
747D
100
AcDbEntity
  8
細線
100
AcDbLine
 10
5212.673057123659
 20
2426.623237776072
 30
0.0
 11
6376.673057123661
 21
2426.623237776072
 31
0.0
  0
LINE
  5
1A7C8
330
747D
100
AcDbEntity
  8
細線
100
AcDbLine
 10
5212.673057123659
 20
2491.623237776072
 30
0.0
 11
6376.673057123661
 21
2491.623237776072
 31
0.0
  0
LINE
  5
1A7C9
330
747D
100
AcDbEntity
  8
細線
100
AcDbLine
 10
5212.673057123659
 20
2556.623237776072
 30
0.0
 11
6376.673057123661
 21
2556.623237776072
 31
0.0
  0
LINE
  5
1A7CA
330
747D
100
AcDbEntity
  8
細線
100
AcDbLine
 10
5212.673057123659
 20
2621.623237776072
 30
0.0
 11
6376.673057123661
 21
2621.623237776072
 31
0.0
  0
LINE
  5
1A7CB
330
747D
100
AcDbEntity
  8
細線
100
AcDbLine
 10
5212.673057123659
 20
2686.623237776072
 30
0.0
 11
6376.673057123661
 21
2686.623237776072
 31
0.0
  0
LINE
  5
1A7CC
330
747D
100
AcDbEntity
  8
細線
100
AcDbLine
 10
6376.673057123663
 20
2296.623237776072
 30
0.0
 11
5212.673057123658
 21
2296.623237776072
 31
0.0
  0
LINE
  5
1A7D3
330
747D
100
AcDbEntity
  8
部品1
 48
50.0
100
AcDbLine
 10
5841.20579667919
 20
10067.87588069904
 30
0.0
 11
5748.14031756809
 21
9720.550784225679
 31
0.0
  0
SPLINE
  5
1A7D4
330
747D
100
AcDbEntity
  8
部品1
 48
50.0
100
AcDbSpline
210
0.0
220
0.0
230
1.0
 70
     8
 71
     3
 72
    10
 73
     6
 74
     4
 42
0.0000000001
 43
0.0000000001
 44
0.0000000001
 40
0.0
 40
0.0
 40
0.0
 40
0.0
 40
147.8767566010009
 40
301.8091093202477
 40
466.5049223087716
 40
466.5049223087716
 40
466.5049223087716
 40
466.5049223087716
 10
5862.24338485669
 20
9975.454484988155
 30
0.0
 10
5785.361702361855
 20
9966.550051330315
 30
0.0
 10
5628.450010151728
 20
9948.376544870981
 30
0.0
 10
5951.263420096071
 20
9845.855960231643
 30
0.0
 10
5781.420800426698
 20
9827.220871519436
 30
0.0
 10
5693.630795219806
 20
9817.58857464213
 30
0.0
 11
5862.24338485669
 21
9975.454484988155
 31
0.0
 11
5719.405406547921
 21
9937.181164051825
 31
0.0
 11
5852.714734467095
 21
9860.214987692202
 31
0.0
 11
5693.630795219806
 21
9817.58857464213
 31
0.0
  0
LINE
  5
1A7DB
330
747D
100
AcDbEntity
  8
部品1
 48
50.0
100
AcDbLine
 10
5841.205796679198
 20
7524.875880698923
 30
0.0
 11
5748.140317568097
 21
7177.550784225558
 31
0.0
  0
SPLINE
  5
1A7DC
330
747D
100
AcDbEntity
  8
部品1
 48
50.0
100
AcDbSpline
210
0.0
220
0.0
230
1.0
 70
     8
 71
     3
 72
    10
 73
     6
 74
     4
 42
0.0000000001
 43
0.0000000001
 44
0.0000000001
 40
0.0
 40
0.0
 40
0.0
 40
0.0
 40
147.8767566010009
 40
301.8091093202477
 40
466.5049223087716
 40
466.5049223087716
 40
466.5049223087716
 40
466.5049223087716
 10
5862.243384856697
 20
7432.454484988032
 30
0.0
 10
5785.361702361862
 20
7423.550051330194
 30
0.0
 10
5628.450010151735
 20
7405.37654487086
 30
0.0
 10
5951.263420096078
 20
7302.855960231522
 30
0.0
 10
5781.420800426706
 20
7284.220871519318
 30
0.0
 10
5693.630795219814
 20
7274.588574642009
 30
0.0
 11
5862.243384856697
 21
7432.454484988032
 31
0.0
 11
5719.405406547928
 21
7394.181164051705
 31
0.0
 11
5852.714734467102
 21
7317.214987692081
 31
0.0
 11
5693.630795219814
 21
7274.588574642009
 31
0.0
  0
SPLINE
  5
1A7E3
330
747D
100
AcDbEntity
  8
部品1
 48
50.0
100
AcDbSpline
210
0.0
220
0.0
230
1.0
 70
     8
 71
     3
 72
    10
 73
     6
 74
     4
 42
0.0000000001
 43
0.0000000001
 44
0.0000000001
 40
0.0
 40
0.0
 40
0.0
 40
0.0
 40
147.8767566010009
 40
301.8091093202477
 40
466.5049223087734
 40
466.5049223087734
 40
466.5049223087734
 40
466.5049223087734
 10
5862.243384856715
 20
3255.364390301865
 30
0.0
 10
5785.36170236188
 20
3246.459956644026
 30
0.0
 10
5628.450010151752
 20
3228.286450184695
 30
0.0
 10
5951.263420096097
 20
3125.765865545353
 30
0.0
 10
5781.420800426722
 20
3107.130776833149
 30
0.0
 10
5693.630795219828
 20
3097.49847995584
 30
0.0
 11
5862.243384856715
 21
3255.364390301865
 31
0.0
 11
5719.405406547946
 21
3217.091069365536
 31
0.0
 11
5852.71473446712
 21
3140.124893005913
 31
0.0
 11
5693.630795219828
 21
3097.49847995584
 31
0.0
  0
LINE
  5
1A7E4
330
747D
100
AcDbEntity
  8
部品1
 48
50.0
100
AcDbLine
 10
6227.608334867337
 20
4789.859690704154
 30
0.0
 11
5439.383492910809
 21
1848.164532734693
 31
0.0
  0
ENDSEC
  0
SECTION
  2
OBJECTS
  0
DICTIONARY
  5
7471
330
0
100
AcDbDictionary
281
     1
  3
ACAD_COLOR
350
17AE2
  3
ACAD_GROUP
350
7472
  3
ACAD_LAYOUT
350
17AE3
  3
ACAD_MATERIAL
350
17AE1
  3
ACAD_MLINESTYLE
350
7473
  3
ACAD_PLOTSETTINGS
350
17AE4
  3
ACAD_PLOTSTYLENAME
350
17ADF
  3
ACDBHEADERROUNDTRIPXREC
350
1A83D
  3
AcDbVariableDictionary
350
1A839
  3
CONTENTDICTIONARY
350
E71C
  3
DRAWINGVARIABLESDICT
350
F3B9
  0
DICTIONARY
  5
1913C
330
7467
100
AcDbDictionary
280
     1
281
     1
  3
ACAD_LAYERSTATES
360
1913D
  0
DICTIONARY
  5
17AE2
102
{ACAD_REACTORS
330
7471
102
}
330
7471
100
AcDbDictionary
281
     1
  0
DICTIONARY
  5
7472
102
{ACAD_REACTORS
330
7471
102
}
330
7471
100
AcDbDictionary
281
     1
  3
*A1
350
17FA7
  3
*A2
350
180C7
  3
*A3
350
180D2
  0
DICTIONARY
  5
17AE3
102
{ACAD_REACTORS
330
7471
102
}
330
7471
100
AcDbDictionary
281
     1
  3
Model
350
17AE5
  3
レイアウト1
350
17AE6
  0
DICTIONARY
  5
17AE1
102
{ACAD_REACTORS
330
7471
102
}
330
7471
100
AcDbDictionary
281
     1
  0
DICTIONARY
  5
7473
102
{ACAD_REACTORS
330
7471
102
}
330
7471
100
AcDbDictionary
281
     1
  3
STANDARD
350
7480
  0
DICTIONARY
  5
17AE4
102
{ACAD_REACTORS
330
7471
102
}
330
7471
100
AcDbDictionary
281
     1
  0
ACDBDICTIONARYWDFLT
  5
17ADF
102
{ACAD_REACTORS
330
7471
102
}
330
7471
100
AcDbDictionary
281
     1
  3
Normal
350
17AE0
100
AcDbDictionaryWithDefault
340
17AE0
  0
DICTIONARY
  5
1A83D
102
{ACAD_REACTORS
330
7471
102
}
330
7471
100
AcDbDictionary
281
     1
  3
COLORDICT
350
1A83F
  3
MATERIALDICT
350
1A83E
  0
DICTIONARY
  5
1A839
102
{ACAD_REACTORS
330
7471
102
}
330
7471
100
AcDbDictionary
281
     1
  3
DIMASSOC
350
1A83A
  3
PROJECTNAME
350
1A83B
  0
DICTIONARY
  5
E71C
102
{ACAD_REACTORS
330
7471
102
}
330
7471
100
AcDbDictionary
281
     1
  0
DICTIONARY
  5
F3B9
102
{ACAD_REACTORS
330
7471
102
}
330
7471
100
AcDbDictionary
281
     1
1001
DRAWINGVARIABLESXDATA
1000
POLARMODE
1000
1
  0
DICTIONARY
  5
1913D
102
{ACAD_REACTORS
330
1913C
102
}
330
1913C
100
AcDbDictionary
281
     1
  0
GROUP
  5
17FA7
102
{ACAD_REACTORS
330
7472
102
}
330
7472
100
AcDbGroup
300

 70
     1
 71
     1
  0
GROUP
  5
180C7
102
{ACAD_REACTORS
330
7472
102
}
330
7472
100
AcDbGroup
300

 70
     1
 71
     1
  0
GROUP
  5
180D2
102
{ACAD_REACTORS
330
7472
102
}
330
7472
100
AcDbGroup
300

 70
     1
 71
     1
  0
LAYOUT
  5
17AE5
102
{ACAD_XDICTIONARY
360
1A840
102
}
102
{ACAD_REACTORS
330
17AE3
102
}
330
17AE3
100
AcDbPlotSettings
  1

  2
Canon iR C3880/C4580 LIPSLX
  4
A3
  6

 40
5.873749732971191
 41
5.873747825622558
 42
5.873748779296875
 43
5.873748779296875
 44
296.9259948730469
 45
419.9466552734374
 46
0.0
 47
0.0
 48
0.0
 49
0.0
140
0.0
141
0.0
142
1.0
143
40.0
 70
 11952
 72
     1
 73
     1
 74
     2
  7
inaba.ctb
 75
    24
147
0.025
148
0.0
149
0.0
100
AcDbLayout
  1
Model
 70
     1
 71
     0
 10
0.0
 20
0.0
 11
12.0
 21
9.0
 12
0.0
 22
0.0
 32
0.0
 14
0.0
 24
0.0
 34
0.0
 15
0.0
 25
0.0
 35
0.0
146
0.0
 13
0.0
 23
0.0
 33
0.0
 16
1.0
 26
0.0
 36
0.0
 17
0.0
 27
1.0
 37
0.0
 76
     0
330
747D
  0
LAYOUT
  5
17AE6
102
{ACAD_XDICTIONARY
360
1A842
102
}
102
{ACAD_REACTORS
330
17AE3
102
}
330
17AE3
100
AcDbPlotSettings
  1

  2
EPSON LP-8300
  4

  6

 40
0.0
 41
0.0
 42
0.0
 43
0.0
 44
0.0
 45
0.0
 46
0.0
 47
0.0
 48
0.0
 49
0.0
140
0.0
141
0.0
142
1.0
143
1.0
 70
   688
 72
     0
 73
     0
 74
     5
  7
inaba.ctb
 75
    16
147
1.0
148
0.0
149
0.0
100
AcDbLayout
  1
レイアウト1
 70
     0
 71
     1
 10
0.0
 20
0.0
 11
420.0
 21
297.0
 12
0.0
 22
0.0
 32
0.0
 14
1.000000000000000E+20
 24
1.000000000000000E+20
 34
1.000000000000000E+20
 15
-1.000000000000000E+20
 25
-1.000000000000000E+20
 35
-1.000000000000000E+20
146
0.0
 13
0.0
 23
0.0
 33
0.0
 16
1.0
 26
0.0
 36
0.0
 17
0.0
 27
1.0
 37
0.0
 76
     0
330
747A
  0
MLINESTYLE
  5
7480
102
{ACAD_REACTORS
330
7473
102
}
330
7473
100
AcDbMlineStyle
  2
STANDARD
 70
     0
  3

 62
     0
 51
90.0
 52
90.0
 71
     2
 49
0.5
 62
   256
  6
BYLAYER
 49
-0.5
 62
   256
  6
BYLAYER
  0
ACDBPLACEHOLDER
  5
17AE0
102
{ACAD_REACTORS
330
17ADF
102
}
330
17ADF
  0
XRECORD
  5
1A83F
102
{ACAD_REACTORS
330
1A83D
102
}
330
1A83D
100
AcDbXrecord
280
     1
340
17AE2
  0
XRECORD
  5
1A83E
102
{ACAD_REACTORS
330
1A83D
102
}
330
1A83D
100
AcDbXrecord
280
     1
340
17AE1
  0
DICTIONARYVAR
  5
1A83A
102
{ACAD_REACTORS
330
1A839
102
}
330
1A839
100
DictionaryVariables
280
     0
  1
1
  0
DICTIONARYVAR
  5
1A83B
102
{ACAD_REACTORS
330
1A839
102
}
330
1A839
100
DictionaryVariables
280
     0
  1

  0
DICTIONARY
  5
1A840
330
17AE5
100
AcDbDictionary
280
     1
281
     1
  3
ACAD_XREC_ROUNDTRIP
360
1A841
  0
DICTIONARY
  5
1A842
330
17AE6
100
AcDbDictionary
280
     1
281
     1
  3
ACAD_XREC_ROUNDTRIP
360
1A843
  0
XRECORD
  5
1A841
102
{ACAD_REACTORS
330
1A840
102
}
330
1A840
100
AcDbXrecord
280
     1
102
SHADEPLOT
 70
     0
102
SHADEPLOTRESLEVEL
 70
     2
102
SHADEPLOTCUSTOMDPI
 70
   300
  0
XRECORD
  5
1A843
102
{ACAD_REACTORS
330
1A842
102
}
330
1A842
100
AcDbXrecord
280
     1
102
SHADEPLOT
 70
     0
102
SHADEPLOTRESLEVEL
 70
     2
102
SHADEPLOTCUSTOMDPI
 70
   300
  0
ENDSEC
  0
EOF
