  0
SECTION
  2
HEADER
  9
$ACADVER
  1
AC1015
  9
$ACADMAINTVER
 70
    20
  9
$DWGCODEPAGE
  3
ANSI_932
  9
$INSBASE
 10
0.0
 20
0.0
 30
0.0
  9
$EXTMIN
 10
139.9999999999995
 20
-0.0000000000000909
 30
0.0
  9
$EXTMAX
 10
16307.2
 20
11409.6
 30
0.0
  9
$LIMMIN
 10
0.0
 20
0.0
  9
$LIMMAX
 10
16800.0
 20
11880.0
  9
$ORTHOMODE
 70
     0
  9
$REGENMODE
 70
     1
  9
$FILLMODE
 70
     1
  9
$QTEXTMODE
 70
     0
  9
$MIRRTEXT
 70
     1
  9
$LTSCALE
 40
20.0
  9
$ATTMODE
 70
     1
  9
$TEXTSIZE
 40
4.0
  9
$TRACEWID
 40
1.0
  9
$TEXTSTYLE
  7
MSPゴシック
  9
$CLAYER
  8
寸法
  9
$CELTYPE
  6
BYLAYER
  9
$CECOLOR
 62
   256
  9
$CELTSCALE
 40
50.0
  9
$DISPSILH
 70
     0
  9
$DIMSCALE
 40
40.0
  9
$DIMASZ
 40
2.5
  9
$DIMEXO
 40
0.5
  9
$DIMDLI
 40
7.0
  9
$DIMRND
 40
0.0
  9
$DIMDLE
 40
0.0
  9
$DIMEXE
 40
1.5
  9
$DIMTP
 40
0.0
  9
$DIMTM
 40
0.0
  9
$DIMTXT
 40
3.0
  9
$DIMCEN
 40
0.0
  9
$DIMTSZ
 40
0.0
  9
$DIMTOL
 70
     0
  9
$DIMLIM
 70
     0
  9
$DIMTIH
 70
     0
  9
$DIMTOH
 70
     0
  9
$DIMSE1
 70
     0
  9
$DIMSE2
 70
     0
  9
$DIMTAD
 70
     3
  9
$DIMZIN
 70
     8
  9
$DIMBLK
  1

  9
$DIMASO
 70
     1
  9
$DIMSHO
 70
     1
  9
$DIMPOST
  1

  9
$DIMAPOST
  1

  9
$DIMALT
 70
     0
  9
$DIMALTD
 70
     2
  9
$DIMALTF
 40
0.0394
  9
$DIMLFAC
 40
1.0
  9
$DIMTOFL
 70
     1
  9
$DIMTVP
 40
0.0
  9
$DIMTIX
 70
     1
  9
$DIMSOXD
 70
     0
  9
$DIMSAH
 70
     1
  9
$DIMBLK1
  1
DOTSMALL
  9
$DIMBLK2
  1
DOTSMALL
  9
$DIMSTYLE
  2
INABA_S40G
  9
$DIMCLRD
 70
     0
  9
$DIMCLRE
 70
     0
  9
$DIMCLRT
 70
     7
  9
$DIMTFAC
 40
1.0
  9
$DIMGAP
 40
1.0
  9
$DIMJUST
 70
     0
  9
$DIMSD1
 70
     0
  9
$DIMSD2
 70
     0
  9
$DIMTOLJ
 70
     1
  9
$DIMTZIN
 70
     0
  9
$DIMALTZ
 70
     0
  9
$DIMALTTZ
 70
     0
  9
$DIMUPT
 70
     0
  9
$DIMDEC
 70
     1
  9
$DIMTDEC
 70
     4
  9
$DIMALTU
 70
     2
  9
$DIMALTTD
 70
     2
  9
$DIMTXSTY
  7
STYLE1
  9
$DIMAUNIT
 70
     0
  9
$DIMADEC
 70
     0
  9
$DIMALTRND
 40
0.0
  9
$DIMAZIN
 70
     0
  9
$DIMDSEP
 70
    46
  9
$DIMATFIT
 70
     3
  9
$DIMFRAC
 70
     0
  9
$DIMLDRBLK
  1

  9
$DIMLUNIT
 70
     2
  9
$DIMLWD
 70
    -2
  9
$DIMLWE
 70
    -2
  9
$DIMTMOVE
 70
     2
  9
$LUNITS
 70
     2
  9
$LUPREC
 70
     1
  9
$SKETCHINC
 40
1.0
  9
$FILLETRAD
 40
3.0
  9
$AUNITS
 70
     0
  9
$AUPREC
 70
     0
  9
$MENU
  1
acad
  9
$ELEVATION
 40
0.0
  9
$PELEVATION
 40
0.0
  9
$THICKNESS
 40
0.0
  9
$LIMCHECK
 70
     0
  9
$CHAMFERA
 40
0.0
  9
$CHAMFERB
 40
0.0
  9
$CHAMFERC
 40
0.0
  9
$CHAMFERD
 40
0.0
  9
$SKPOLY
 70
     0
  9
$TDCREATE
 40
2451368.612993866
  9
$TDUCREATE
 40
2451368.237993866
  9
$TDUPDATE
 40
2455569.643459734
  9
$TDUUPDATE
 40
2455569.268459734
  9
$TDINDWG
 40
0.8881457176
  9
$TDUSRTIMER
 40
0.8881457176
  9
$USRTIMER
 70
     1
  9
$ANGBASE
 50
0.0
  9
$ANGDIR
 70
     0
  9
$PDMODE
 70
     3
  9
$PDSIZE
 40
2.0
  9
$PLINEWID
 40
0.0
  9
$SPLFRAME
 70
     0
  9
$SPLINETYPE
 70
     6
  9
$SPLINESEGS
 70
     8
  9
$HANDSEED
  5
1A3E3
  9
$SURFTAB1
 70
     6
  9
$SURFTAB2
 70
     6
  9
$SURFTYPE
 70
     6
  9
$SURFU
 70
     6
  9
$SURFV
 70
     6
  9
$UCSBASE
  2

  9
$UCSNAME
  2

  9
$UCSORG
 10
0.0
 20
0.0
 30
0.0
  9
$UCSXDIR
 10
1.0
 20
0.0
 30
0.0
  9
$UCSYDIR
 10
0.0
 20
1.0
 30
0.0
  9
$UCSORTHOREF
  2

  9
$UCSORTHOVIEW
 70
     0
  9
$UCSORGTOP
 10
0.0
 20
0.0
 30
0.0
  9
$UCSORGBOTTOM
 10
0.0
 20
0.0
 30
0.0
  9
$UCSORGLEFT
 10
0.0
 20
0.0
 30
0.0
  9
$UCSORGRIGHT
 10
0.0
 20
0.0
 30
0.0
  9
$UCSORGFRONT
 10
0.0
 20
0.0
 30
0.0
  9
$UCSORGBACK
 10
0.0
 20
0.0
 30
0.0
  9
$PUCSBASE
  2

  9
$PUCSNAME
  2

  9
$PUCSORG
 10
0.0
 20
0.0
 30
0.0
  9
$PUCSXDIR
 10
1.0
 20
0.0
 30
0.0
  9
$PUCSYDIR
 10
0.0
 20
1.0
 30
0.0
  9
$PUCSORTHOREF
  2

  9
$PUCSORTHOVIEW
 70
     0
  9
$PUCSORGTOP
 10
0.0
 20
0.0
 30
0.0
  9
$PUCSORGBOTTOM
 10
0.0
 20
0.0
 30
0.0
  9
$PUCSORGLEFT
 10
0.0
 20
0.0
 30
0.0
  9
$PUCSORGRIGHT
 10
0.0
 20
0.0
 30
0.0
  9
$PUCSORGFRONT
 10
0.0
 20
0.0
 30
0.0
  9
$PUCSORGBACK
 10
0.0
 20
0.0
 30
0.0
  9
$USERI1
 70
     0
  9
$USERI2
 70
     0
  9
$USERI3
 70
     0
  9
$USERI4
 70
     0
  9
$USERI5
 70
     0
  9
$USERR1
 40
0.0
  9
$USERR2
 40
0.0
  9
$USERR3
 40
0.0
  9
$USERR4
 40
0.0
  9
$USERR5
 40
0.0
  9
$WORLDVIEW
 70
     1
  9
$SHADEDGE
 70
     3
  9
$SHADEDIF
 70
    70
  9
$TILEMODE
 70
     1
  9
$MAXACTVP
 70
    16
  9
$PINSBASE
 10
0.0
 20
0.0
 30
0.0
  9
$PLIMCHECK
 70
     0
  9
$PEXTMIN
 10
1.000000000000000E+20
 20
1.000000000000000E+20
 30
1.000000000000000E+20
  9
$PEXTMAX
 10
-1.000000000000000E+20
 20
-1.000000000000000E+20
 30
-1.000000000000000E+20
  9
$PLIMMIN
 10
0.0
 20
0.0
  9
$PLIMMAX
 10
420.0
 20
297.0
  9
$UNITMODE
 70
     0
  9
$VISRETAIN
 70
     0
  9
$PLINEGEN
 70
     0
  9
$PSLTSCALE
 70
     0
  9
$TREEDEPTH
 70
  3020
  9
$CMLSTYLE
  2
STANDARD
  9
$CMLJUST
 70
     0
  9
$CMLSCALE
 40
1.0
  9
$PROXYGRAPHICS
 70
     1
  9
$MEASUREMENT
 70
     1
  9
$CELWEIGHT
370
    -1
  9
$ENDCAPS
280
     0
  9
$JOINSTYLE
280
     0
  9
$LWDISPLAY
290
     0
  9
$INSUNITS
 70
     0
  9
$HYPERLINKBASE
  1

  9
$STYLESHEET
  1
inaba.ctb
  9
$XEDIT
290
     1
  9
$CEPSNTYPE
380
     0
  9
$PSTYLEMODE
290
     1
  9
$FINGERPRINTGUID
  2
{0E4A3AB3-ADAA-44DC-861C-9525B65BB1EC}
  9
$VERSIONGUID
  2
{A81964C1-01DE-4B44-A71D-38EB82A3136F}
  9
$EXTNAMES
290
     1
  9
$PSVPSCALE
 40
0.0
  9
$OLESTARTUP
290
     0
  0
ENDSEC
  0
SECTION
  2
CLASSES
  0
CLASS
  1
ACDBDICTIONARYWDFLT
  2
AcDbDictionaryWithDefault
  3
ObjectDBX Classes
 90
        0
280
     0
281
     0
  0
CLASS
  1
DICTIONARYVAR
  2
AcDbDictionaryVar
  3
ObjectDBX Classes
 90
        0
280
     0
281
     0
  0
CLASS
  1
ACDBPLACEHOLDER
  2
AcDbPlaceHolder
  3
ObjectDBX Classes
 90
        0
280
     0
281
     0
  0
CLASS
  1
LAYOUT
  2
AcDbLayout
  3
ObjectDBX Classes
 90
        0
280
     0
281
     0
  0
ENDSEC
  0
SECTION
  2
TABLES
  0
TABLE
  2
VPORT
  5
746D
330
0
100
AcDbSymbolTable
 70
     2
  0
VPORT
  5
1A3DB
330
746D
100
AcDbSymbolTableRecord
100
AcDbViewportTableRecord
  2
*Active
 70
     0
 10
0.0
 20
0.0
 11
1.0
 21
1.0
 12
11720.03460912035
 22
5704.872900782047
 13
0.0
 23
0.0
 14
10.0
 24
10.0
 15
10.0
 25
10.0
 16
0.0
 26
0.0
 36
1.0
 17
0.0
 27
0.0
 37
0.0
 40
11513.2111641413
 41
2.234800838574423
 42
50.0
 43
0.0
 44
0.0
 50
0.0
 51
0.0
 71
     0
 72
     0
 73
     1
 74
     0
 75
     0
 76
     0
 77
     0
 78
     0
281
     0
 65
     1
110
0.0
120
0.0
130
0.0
111
1.0
121
0.0
131
0.0
112
0.0
122
1.0
132
0.0
 79
     0
146
0.0
  0
ENDTAB
  0
TABLE
  2
LTYPE
  5
746A
330
0
100
AcDbSymbolTable
 70
     3
  0
LTYPE
  5
7477
330
746A
100
AcDbSymbolTableRecord
100
AcDbLinetypeTableRecord
  2
BYBLOCK
 70
     0
  3

 72
    65
 73
     0
 40
0.0
  0
LTYPE
  5
7478
330
746A
100
AcDbSymbolTableRecord
100
AcDbLinetypeTableRecord
  2
BYLAYER
 70
     0
  3

 72
    65
 73
     0
 40
0.0
  0
LTYPE
  5
7479
330
746A
100
AcDbSymbolTableRecord
100
AcDbLinetypeTableRecord
  2
CONTINUOUS
 70
     0
  3
Solid line
 72
    65
 73
     0
 40
0.0
  0
LTYPE
  5
781A
330
746A
100
AcDbSymbolTableRecord
100
AcDbLinetypeTableRecord
  2
HIDDEN
 70
     0
  3
__ __ __ __ __ __ __ __ __ __ __ __ __ __ __ __
 72
    65
 73
     2
 40
0.375
 49
0.25
 74
     0
 49
-0.125
 74
     0
  0
LTYPE
  5
781B
330
746A
100
AcDbSymbolTableRecord
100
AcDbLinetypeTableRecord
  2
PHANTOM
 70
     0
  3
______  __  __  ______  __  __  ______  __  __ 
 72
    65
 73
     6
 40
2.5
 49
1.25
 74
     0
 49
-0.25
 74
     0
 49
0.25
 74
     0
 49
-0.25
 74
     0
 49
0.25
 74
     0
 49
-0.25
 74
     0
  0
ENDTAB
  0
TABLE
  2
LAYER
  5
7467
102
{ACAD_XDICTIONARY
360
192D7
102
}
330
0
100
AcDbSymbolTable
 70
    10
  0
LAYER
  5
7474
330
7467
100
AcDbSymbolTableRecord
100
AcDbLayerTableRecord
  2
0
 70
     0
 62
     7
  6
CONTINUOUS
370
    -3
390
17AE0
  0
LAYER
  5
DEB3
330
7467
100
AcDbSymbolTableRecord
100
AcDbLayerTableRecord
  2
寸法
 70
     0
 62
     4
  6
CONTINUOUS
370
    -3
390
17AE0
  0
LAYER
  5
DEB4
330
7467
100
AcDbSymbolTableRecord
100
AcDbLayerTableRecord
  2
部品1
 70
     0
 62
     7
  6
CONTINUOUS
370
    -3
390
17AE0
  0
LAYER
  5
DEB5
330
7467
100
AcDbSymbolTableRecord
100
AcDbLayerTableRecord
  2
補助
 70
     0
 62
    -1
  6
CONTINUOUS
370
    -3
390
17AE0
  0
LAYER
  5
DEB6
330
7467
100
AcDbSymbolTableRecord
100
AcDbLayerTableRecord
  2
文字
 70
     0
 62
     7
  6
CONTINUOUS
370
    -3
390
17AE0
  0
LAYER
  5
F255
330
7467
100
AcDbSymbolTableRecord
100
AcDbLayerTableRecord
  2
DEFPOINTS
 70
     0
 62
     7
  6
CONTINUOUS
290
     0
370
    -3
390
17AE0
  0
LAYER
  5
10B54
330
7467
100
AcDbSymbolTableRecord
100
AcDbLayerTableRecord
  2
仕様書枠
 70
     0
 62
   230
  6
CONTINUOUS
370
    -3
390
17AE0
  0
LAYER
  5
11729
330
7467
100
AcDbSymbolTableRecord
100
AcDbLayerTableRecord
  2
Ｇ．Ｌ
 70
     0
 62
    30
  6
CONTINUOUS
370
    -3
390
17AE0
  0
LAYER
  5
1173F
330
7467
100
AcDbSymbolTableRecord
100
AcDbLayerTableRecord
  2
細線
 70
     0
 62
     5
  6
CONTINUOUS
370
    -3
390
17AE0
  0
LAYER
  5
142E2
330
7467
100
AcDbSymbolTableRecord
100
AcDbLayerTableRecord
  2
破線
 70
     0
 62
     2
  6
HIDDEN
370
    -3
390
17AE0
  0
ENDTAB
  0
TABLE
  2
STYLE
  5
7468
330
0
100
AcDbSymbolTable
 70
     7
  0
STYLE
  5
7475
330
7468
100
AcDbSymbolTableRecord
100
AcDbTextStyleTableRecord
  2
STANDARD
 70
     0
 40
0.0
 41
1.0
 50
0.0
 71
     0
 42
4.0
  3
txt
  4
C:\AutoCAD LT\bigfont.shx
  0
STYLE
  5
763C
330
7468
100
AcDbSymbolTableRecord
100
AcDbTextStyleTableRecord
  2
MSMINCHO
 70
     0
 40
0.0
 41
1.0
 50
0.0
 71
     0
 42
1.199999999999999
  3
MS PMincho.ttf
  4

1001
ACAD
1000
MS PMincho
1071
    32786
  0
STYLE
  5
F706
330
7468
100
AcDbSymbolTableRecord
100
AcDbTextStyleTableRecord
  2
STYLE1
 70
     0
 40
0.0
 41
1.0
 50
0.0
 71
     0
 42
4.0
  3
isocp.shx
  4
bigfont.shx
  0
STYLE
  5
103BF
330
7468
100
AcDbSymbolTableRecord
100
AcDbTextStyleTableRecord
  2
STYLE2
 70
     0
 40
0.0
 41
1.0
 50
0.0
 71
     0
 42
100.0
  3
MS PGothic.ttf
  4

1001
ACAD
1000
MS PGothic
1071
    32818
  0
STYLE
  5
10BAA
330
7468
100
AcDbSymbolTableRecord
100
AcDbTextStyleTableRecord
  2
STYLE3
 70
     0
 40
0.0
 41
1.0
 50
0.0
 71
     0
 42
100.0
  3
DFPGothic-EB.ttf
  4

1001
ACAD
1000
DFPGothic-EB
1071
    32818
  0
STYLE
  5
11A15
330
7468
100
AcDbSymbolTableRecord
100
AcDbTextStyleTableRecord
  2
MSGOTHIC
 70
     0
 40
0.0
 41
1.0
 50
0.0
 71
     0
 42
3.5
  3
MS PGothic.ttf
  4

1001
ACAD
1000
MS PGothic
1071
    32818
  0
STYLE
  5
13E96
330
7468
100
AcDbSymbolTableRecord
100
AcDbTextStyleTableRecord
  2
MSPゴシック
 70
     0
 40
0.0
 41
1.0
 50
0.0
 71
     0
 42
4.0
  3
MS PGothic.ttf
  4

1001
ACAD
1000
MS PGothic
1071
    32818
  0
ENDTAB
  0
TABLE
  2
VIEW
  5
746B
330
0
100
AcDbSymbolTable
 70
     0
  0
ENDTAB
  0
TABLE
  2
UCS
  5
746C
330
0
100
AcDbSymbolTable
 70
     0
  0
ENDTAB
  0
TABLE
  2
APPID
  5
746E
330
0
100
AcDbSymbolTable
 70
     6
  0
APPID
  5
7476
330
746E
100
AcDbSymbolTableRecord
100
AcDbRegAppTableRecord
  2
ACAD
 70
     0
  0
APPID
  5
DEA9
330
746E
100
AcDbSymbolTableRecord
100
AcDbRegAppTableRecord
  2
CONTENTBLOCKICON
 70
     0
  0
APPID
  5
DEAA
330
746E
100
AcDbSymbolTableRecord
100
AcDbRegAppTableRecord
  2
CONTENTBLOCKDESCRIPTION
 70
     0
  0
APPID
  5
E71D
330
746E
100
AcDbSymbolTableRecord
100
AcDbRegAppTableRecord
  2
CONTENTTABDATA
 70
     0
  0
APPID
  5
E71E
330
746E
100
AcDbSymbolTableRecord
100
AcDbRegAppTableRecord
  2
CONTENTCURRENTTAB
 70
     0
  0
APPID
  5
F3BA
330
746E
100
AcDbSymbolTableRecord
100
AcDbRegAppTableRecord
  2
DRAWINGVARIABLESXDATA
 70
     0
  0
ENDTAB
  0
TABLE
  2
DIMSTYLE
  5
746F
330
0
100
AcDbSymbolTable
 70
     1
100
AcDbDimStyleTable
 71
     1
340
F71F
  0
DIMSTYLE
105
F71F
102
{ACAD_REACTORS
330
162CD
330
162CE
330
162CF
330
162D0
330
162E4
330
162E7
330
162EA
330
162EB
330
16301
330
16302
330
1631F
330
16320
330
16333
330
1659C
330
1659A
330
165E9
330
166DD
330
16913
330
17BC3
330
17B87
330
17B86
330
19477
330
19486
330
19494
330
19495
330
19496
330
1949A
330
194CA
330
194CB
330
194CC
330
19D0C
330
19D0D
330
19D0E
330
19D0F
330
1A207
330
1A208
330
1A209
102
}
330
746F
100
AcDbSymbolTableRecord
100
AcDbDimStyleTableRecord
  2
INABA_S40G
 70
     0
 40
40.0
 41
2.5
 42
0.5
 43
7.0
 44
1.5
 73
     0
 74
     0
 77
     3
 78
     8
140
3.0
141
0.0
143
0.0394
147
1.0
172
     1
173
     1
174
     1
178
     7
271
     1
340
F706
341
F770
343
F770
344
F770
  0
ENDTAB
  0
TABLE
  2
BLOCK_RECORD
  5
7466
330
0
100
AcDbSymbolTable
 70
    38
  0
BLOCK_RECORD
  5
747D
330
7466
100
AcDbSymbolTableRecord
100
AcDbBlockTableRecord
  2
*MODEL_SPACE
340
17AE5
  0
BLOCK_RECORD
  5
747A
330
7466
100
AcDbSymbolTableRecord
100
AcDbBlockTableRecord
  2
*PAPER_SPACE
340
17AE6
  0
BLOCK_RECORD
  5
F770
330
7466
100
AcDbSymbolTableRecord
100
AcDbBlockTableRecord
  2
_DOTSMALL
340
0
102
{BLKREFS
331
18F97
331
18F98
331
18FA0
331
18FA1
331
18FA9
331
18FAA
331
18FB1
331
18FB2
331
18FBC
331
18FBD
331
18FC6
331
18FC7
331
18FD1
331
18FD2
331
18FDC
331
18FDD
331
18FE6
331
18FE7
331
18FF1
331
18FF2
331
18FFA
331
18FFB
331
19005
331
19006
331
19011
331
19012
331
1901C
331
1901D
331
19026
331
19027
331
1902F
331
19030
331
19037
331
19038
331
19040
331
19041
331
1904B
331
1904C
331
19056
331
19057
331
1905F
331
19060
331
19A13
331
19A14
331
19A1C
331
19A1D
331
19A25
331
19A26
331
19A30
331
19A31
331
19A44
331
19A45
331
19A57
331
19A58
331
19A61
331
19A62
331
1A094
331
1A095
331
1A09F
331
1A0A0
331
1A0AA
331
1A0AB
331
1A0B3
331
1A0B4
331
1A329
331
1A32A
331
1A388
331
1A389
331
1A391
331
1A392
331
1A3BC
331
1A3BD
331
1A3C8
331
1A3C9
102
}
  0
BLOCK_RECORD
  5
16338
330
7466
100
AcDbSymbolTableRecord
100
AcDbBlockTableRecord
  2
*D1
340
0
  0
BLOCK_RECORD
  5
16344
330
7466
100
AcDbSymbolTableRecord
100
AcDbBlockTableRecord
  2
*D2
340
0
  0
BLOCK_RECORD
  5
16352
330
7466
100
AcDbSymbolTableRecord
100
AcDbBlockTableRecord
  2
*D3
340
0
  0
BLOCK_RECORD
  5
16360
330
7466
100
AcDbSymbolTableRecord
100
AcDbBlockTableRecord
  2
*D4
340
0
  0
BLOCK_RECORD
  5
16384
330
7466
100
AcDbSymbolTableRecord
100
AcDbBlockTableRecord
  2
*D5
340
0
  0
BLOCK_RECORD
  5
1638F
330
7466
100
AcDbSymbolTableRecord
100
AcDbBlockTableRecord
  2
*D6
340
0
  0
BLOCK_RECORD
  5
1639B
330
7466
100
AcDbSymbolTableRecord
100
AcDbBlockTableRecord
  2
*D7
340
0
  0
BLOCK_RECORD
  5
163A9
330
7466
100
AcDbSymbolTableRecord
100
AcDbBlockTableRecord
  2
*D8
340
0
  0
BLOCK_RECORD
  5
163B8
330
7466
100
AcDbSymbolTableRecord
100
AcDbBlockTableRecord
  2
*D9
340
0
  0
BLOCK_RECORD
  5
163C7
330
7466
100
AcDbSymbolTableRecord
100
AcDbBlockTableRecord
  2
*D10
340
0
  0
BLOCK_RECORD
  5
163E1
330
7466
100
AcDbSymbolTableRecord
100
AcDbBlockTableRecord
  2
*D11
340
0
  0
BLOCK_RECORD
  5
163ED
330
7466
100
AcDbSymbolTableRecord
100
AcDbBlockTableRecord
  2
*D12
340
0
  0
BLOCK_RECORD
  5
163FB
330
7466
100
AcDbSymbolTableRecord
100
AcDbBlockTableRecord
  2
*D13
340
0
  0
BLOCK_RECORD
  5
165B5
330
7466
100
AcDbSymbolTableRecord
100
AcDbBlockTableRecord
  2
*D14
340
0
  0
BLOCK_RECORD
  5
165C4
330
7466
100
AcDbSymbolTableRecord
100
AcDbBlockTableRecord
  2
*D15
340
0
  0
BLOCK_RECORD
  5
165EA
330
7466
100
AcDbSymbolTableRecord
100
AcDbBlockTableRecord
  2
*D16
340
0
  0
BLOCK_RECORD
  5
166CF
330
7466
100
AcDbSymbolTableRecord
100
AcDbBlockTableRecord
  2
*D17
340
0
  0
BLOCK_RECORD
  5
16908
330
7466
100
AcDbSymbolTableRecord
100
AcDbBlockTableRecord
  2
*D18
340
0
  0
BLOCK_RECORD
  5
17BD3
330
7466
100
AcDbSymbolTableRecord
100
AcDbBlockTableRecord
  2
*D19
340
0
  0
BLOCK_RECORD
  5
17BDE
330
7466
100
AcDbSymbolTableRecord
100
AcDbBlockTableRecord
  2
*D20
340
0
  0
BLOCK_RECORD
  5
17BF8
330
7466
100
AcDbSymbolTableRecord
100
AcDbBlockTableRecord
  2
*D21
340
0
  0
BLOCK_RECORD
  5
19613
330
7466
100
AcDbSymbolTableRecord
100
AcDbBlockTableRecord
  2
*D22
340
0
  0
BLOCK_RECORD
  5
19620
330
7466
100
AcDbSymbolTableRecord
100
AcDbBlockTableRecord
  2
*D23
340
0
  0
BLOCK_RECORD
  5
1962D
330
7466
100
AcDbSymbolTableRecord
100
AcDbBlockTableRecord
  2
*D24
340
0
  0
BLOCK_RECORD
  5
19639
330
7466
100
AcDbSymbolTableRecord
100
AcDbBlockTableRecord
  2
*D25
340
0
  0
BLOCK_RECORD
  5
19647
330
7466
100
AcDbSymbolTableRecord
100
AcDbBlockTableRecord
  2
*D26
340
0
  0
BLOCK_RECORD
  5
19653
330
7466
100
AcDbSymbolTableRecord
100
AcDbBlockTableRecord
  2
*D27
340
0
  0
BLOCK_RECORD
  5
19661
330
7466
100
AcDbSymbolTableRecord
100
AcDbBlockTableRecord
  2
*D28
340
0
  0
BLOCK_RECORD
  5
1966D
330
7466
100
AcDbSymbolTableRecord
100
AcDbBlockTableRecord
  2
*D29
340
0
  0
BLOCK_RECORD
  5
19679
330
7466
100
AcDbSymbolTableRecord
100
AcDbBlockTableRecord
  2
*D30
340
0
  0
BLOCK_RECORD
  5
19E33
330
7466
100
AcDbSymbolTableRecord
100
AcDbBlockTableRecord
  2
*D31
340
0
  0
BLOCK_RECORD
  5
19E3F
330
7466
100
AcDbSymbolTableRecord
100
AcDbBlockTableRecord
  2
*D32
340
0
  0
BLOCK_RECORD
  5
19E4D
330
7466
100
AcDbSymbolTableRecord
100
AcDbBlockTableRecord
  2
*D33
340
0
  0
BLOCK_RECORD
  5
19E5B
330
7466
100
AcDbSymbolTableRecord
100
AcDbBlockTableRecord
  2
*D34
340
0
  0
BLOCK_RECORD
  5
1A267
330
7466
100
AcDbSymbolTableRecord
100
AcDbBlockTableRecord
  2
*D35
340
0
  0
BLOCK_RECORD
  5
1A273
330
7466
100
AcDbSymbolTableRecord
100
AcDbBlockTableRecord
  2
*D36
340
0
  0
BLOCK_RECORD
  5
1A281
330
7466
100
AcDbSymbolTableRecord
100
AcDbBlockTableRecord
  2
*D37
340
0
  0
ENDTAB
  0
ENDSEC
  0
SECTION
  2
BLOCKS
  0
BLOCK
  5
7489
330
747D
100
AcDbEntity
  8
0
100
AcDbBlockBegin
  2
*MODEL_SPACE
 70
     0
 10
0.0
 20
0.0
 30
0.0
  3
*MODEL_SPACE
  1

  0
ENDBLK
  5
748A
330
747D
100
AcDbEntity
  8
0
100
AcDbBlockEnd
  0
BLOCK
  5
7487
330
747A
100
AcDbEntity
 67
     1
  8
0
100
AcDbBlockBegin
  2
*PAPER_SPACE
 70
     0
 10
0.0
 20
0.0
 30
0.0
  3
*PAPER_SPACE
  1

  0
ENDBLK
  5
7488
330
747A
100
AcDbEntity
 67
     1
  8
0
100
AcDbBlockEnd
  0
BLOCK
  5
F771
330
F770
100
AcDbEntity
  8
0
 48
50.0
100
AcDbBlockBegin
  2
_DOTSMALL
 70
     0
 10
0.0
 20
0.0
 30
0.0
  3
_DOTSMALL
  1

  0
LWPOLYLINE
  5
F772
330
F770
100
AcDbEntity
  8
0
  6
ByBlock
 62
     0
 48
50.0
100
AcDbPolyline
 90
        2
 70
     1
 43
0.5
 10
-0.0625
 20
0.0
 42
1.0
 10
0.0625
 20
0.0
 42
1.0
  0
ENDBLK
  5
F776
330
F770
100
AcDbEntity
  8
0
 48
50.0
100
AcDbBlockEnd
  0
BLOCK
  5
164EB
330
16338
100
AcDbEntity
  8
0
 48
50.0
100
AcDbBlockBegin
  2
*D1
 70
     1
 10
0.0
 20
0.0
 30
0.0
  3
*D1
  1

  0
LINE
  5
1905C
330
16338
100
AcDbEntity
  8
寸法
 62
     0
 48
50.0
370
    -2
100
AcDbLine
 10
7212.473137055714
 20
10132.02169339953
 30
0.0
 11
7899.899482790122
 21
10132.02169339953
 31
0.0
  0
LINE
  5
1905D
330
16338
100
AcDbEntity
  8
寸法
 62
     0
 48
50.0
370
    -2
100
AcDbLine
 10
7212.473137055688
 20
7612.021693399518
 30
0.0
 11
7899.899482790122
 21
7612.021693399518
 31
0.0
  0
LINE
  5
1905E
330
16338
100
AcDbEntity
  8
寸法
 62
     0
 48
50.0
370
    -2
100
AcDbLine
 10
7839.89948279012
 20
10132.02169339953
 30
0.0
 11
7839.89948279012
 21
7612.021693399518
 31
0.0
  0
INSERT
  5
1905F
330
16338
100
AcDbEntity
  8
寸法
 62
     0
 48
50.0
370
    -2
100
AcDbBlockReference
  2
_DOTSMALL
 10
7839.89948279012
 20
10132.02169339953
 30
0.0
 41
100.0
 42
100.0
 43
100.0
 50
90.0
  0
INSERT
  5
19060
330
16338
100
AcDbEntity
  8
寸法
 62
     0
 48
50.0
370
    -2
100
AcDbBlockReference
  2
_DOTSMALL
 10
7839.89948279012
 20
7612.021693399518
 30
0.0
 41
100.0
 42
100.0
 43
100.0
 50
270.0
  0
MTEXT
  5
19061
330
16338
100
AcDbEntity
  8
寸法
 62
     7
 48
50.0
100
AcDbMText
 10
7739.887671766497
 20
8872.021693399528
 30
0.0
 40
120.0
 41
0.0
 71
     5
 72
     1
  1
\A1;6X420=2520
  7
STYLE1
 11
0.0000000000000001
 21
1.0
 31
0.0
 73
     1
 44
1.0
1001
ACAD
1000
MTEXTBEGIN
1070
    73
1070
     1
1070
    44
1040
1.0
1070
    74
1070
     0
1000
MTEXTEND
  0
POINT
  5
19062
330
16338
100
AcDbEntity
  8
DEFPOINTS
 62
     0
 48
50.0
100
AcDbPoint
 10
7192.473137055715
 20
10132.02169339953
 30
0.0
  0
POINT
  5
19063
330
16338
100
AcDbEntity
  8
DEFPOINTS
 62
     0
 48
50.0
100
AcDbPoint
 10
7192.47313705569
 20
7612.021693399518
 30
0.0
  0
POINT
  5
19064
330
16338
100
AcDbEntity
  8
DEFPOINTS
 62
     0
 48
50.0
100
AcDbPoint
 10
7839.89948279012
 20
7612.021693399518
 30
0.0
  0
ENDBLK
  5
164F5
330
16338
100
AcDbEntity
  8
0
 48
50.0
100
AcDbBlockEnd
  0
BLOCK
  5
16414
330
16344
100
AcDbEntity
  8
0
 48
50.0
100
AcDbBlockBegin
  2
*D2
 70
     1
 10
0.0
 20
0.0
 30
0.0
  3
*D2
  1

  0
LINE
  5
19051
330
16344
100
AcDbEntity
  8
寸法
 62
     0
 48
50.0
370
    -2
100
AcDbLine
 10
7212.473137055688
 20
7612.021693399518
 30
0.0
 11
7899.8994827901
 21
7612.021693399518
 31
0.0
  0
LINE
  5
19052
330
16344
100
AcDbEntity
  8
寸法
 62
     0
 48
50.0
370
    -2
100
AcDbLine
 10
7212.473137055688
 20
7557.021693399521
 30
0.0
 11
7899.8994827901
 21
7557.021693399521
 31
0.0
  0
LINE
  5
19053
330
16344
100
AcDbEntity
  8
寸法
 62
     0
 48
50.0
370
    -2
100
AcDbLine
 10
7839.899482790101
 20
7612.021693399518
 30
0.0
 11
7839.899482790101
 21
7712.021693399518
 31
0.0
  0
LINE
  5
19054
330
16344
100
AcDbEntity
  8
寸法
 62
     0
 48
50.0
370
    -2
100
AcDbLine
 10
7839.899482790101
 20
7557.021693399521
 30
0.0
 11
7839.899482790101
 21
7070.67494512042
 31
0.0
  0
LINE
  5
19055
330
16344
100
AcDbEntity
  8
寸法
 62
     0
 48
50.0
370
    -2
100
AcDbLine
 10
7839.899482790101
 20
7612.021693399518
 30
0.0
 11
7839.899482790101
 21
7557.021693399521
 31
0.0
  0
INSERT
  5
19056
330
16344
100
AcDbEntity
  8
寸法
 62
     0
 48
50.0
370
    -2
100
AcDbBlockReference
  2
_DOTSMALL
 10
7839.899482790101
 20
7612.021693399518
 30
0.0
 41
100.0
 42
100.0
 43
100.0
 50
270.0
  0
INSERT
  5
19057
330
16344
100
AcDbEntity
  8
寸法
 62
     0
 48
50.0
370
    -2
100
AcDbBlockReference
  2
_DOTSMALL
 10
7839.899482790101
 20
7557.021693399521
 30
0.0
 41
100.0
 42
100.0
 43
100.0
 50
90.0
  0
MTEXT
  5
19058
330
16344
100
AcDbEntity
  8
寸法
 62
     7
 48
50.0
100
AcDbMText
 10
7739.899482790099
 20
7179.16022649466
 30
0.0
 40
120.0
 41
0.0
 71
     5
 72
     1
  1
\A1;55
  7
STYLE1
 11
0.0000000000000001
 21
1.0
 31
0.0
 73
     1
 44
1.0
1001
ACAD
1000
MTEXTBEGIN
1070
    73
1070
     1
1070
    44
1040
1.0
1070
    74
1070
     0
1000
MTEXTEND
  0
POINT
  5
19059
330
16344
100
AcDbEntity
  8
DEFPOINTS
 62
     0
 48
50.0
100
AcDbPoint
 10
7192.47313705569
 20
7612.021693399518
 30
0.0
  0
POINT
  5
1905A
330
16344
100
AcDbEntity
  8
DEFPOINTS
 62
     0
 48
50.0
100
AcDbPoint
 10
7192.47313705569
 20
7557.021693399521
 30
0.0
  0
POINT
  5
1905B
330
16344
100
AcDbEntity
  8
DEFPOINTS
 62
     0
 48
50.0
100
AcDbPoint
 10
7839.899482790101
 20
7557.021693399521
 30
0.0
  0
ENDBLK
  5
16420
330
16344
100
AcDbEntity
  8
0
 48
50.0
100
AcDbBlockEnd
  0
BLOCK
  5
16421
330
16352
100
AcDbEntity
  8
0
 48
50.0
100
AcDbBlockBegin
  2
*D3
 70
     1
 10
0.0
 20
0.0
 30
0.0
  3
*D3
  1

  0
LINE
  5
19046
330
16352
100
AcDbEntity
  8
寸法
 62
     0
 48
50.0
370
    -2
100
AcDbLine
 10
7212.473137055714
 20
10187.02169339953
 30
0.0
 11
7899.899482790125
 21
10187.02169339953
 31
0.0
  0
LINE
  5
19047
330
16352
100
AcDbEntity
  8
寸法
 62
     0
 48
50.0
370
    -2
100
AcDbLine
 10
7212.473137055714
 20
10132.02169339953
 30
0.0
 11
7899.899482790125
 21
10132.02169339953
 31
0.0
  0
LINE
  5
19048
330
16352
100
AcDbEntity
  8
寸法
 62
     0
 48
50.0
370
    -2
100
AcDbLine
 10
7839.899482790125
 20
10132.02169339953
 30
0.0
 11
7839.899482790125
 21
10032.02169339953
 31
0.0
  0
LINE
  5
19049
330
16352
100
AcDbEntity
  8
寸法
 62
     0
 48
50.0
370
    -2
100
AcDbLine
 10
7839.899482790125
 20
10187.02169339953
 30
0.0
 11
7839.899482790126
 21
10603.992256148
 31
0.0
  0
LINE
  5
1904A
330
16352
100
AcDbEntity
  8
寸法
 62
     0
 48
50.0
370
    -2
100
AcDbLine
 10
7839.899482790125
 20
10132.02169339953
 30
0.0
 11
7839.899482790125
 21
10187.02169339953
 31
0.0
  0
INSERT
  5
1904B
330
16352
100
AcDbEntity
  8
寸法
 62
     0
 48
50.0
370
    -2
100
AcDbBlockReference
  2
_DOTSMALL
 10
7839.899482790125
 20
10132.02169339953
 30
0.0
 41
100.0
 42
100.0
 43
100.0
 50
90.0
  0
INSERT
  5
1904C
330
16352
100
AcDbEntity
  8
寸法
 62
     0
 48
50.0
370
    -2
100
AcDbBlockReference
  2
_DOTSMALL
 10
7839.899482790125
 20
10187.02169339953
 30
0.0
 41
100.0
 42
100.0
 43
100.0
 50
270.0
  0
MTEXT
  5
1904D
330
16352
100
AcDbEntity
  8
寸法
 62
     7
 48
50.0
100
AcDbMText
 10
7739.899482790125
 20
10495.50697477377
 30
0.0
 40
120.0
 41
0.0
 71
     5
 72
     1
  1
\A1;55
  7
STYLE1
 11
0.0000000000000001
 21
1.0
 31
0.0
 73
     1
 44
1.0
1001
ACAD
1000
MTEXTBEGIN
1070
    73
1070
     1
1070
    44
1040
1.0
1070
    74
1070
     0
1000
MTEXTEND
  0
POINT
  5
1904E
330
16352
100
AcDbEntity
  8
DEFPOINTS
 62
     0
 48
50.0
100
AcDbPoint
 10
7192.473137055715
 20
10187.02169339953
 30
0.0
  0
POINT
  5
1904F
330
16352
100
AcDbEntity
  8
DEFPOINTS
 62
     0
 48
50.0
100
AcDbPoint
 10
7192.473137055715
 20
10132.02169339953
 30
0.0
  0
POINT
  5
19050
330
16352
100
AcDbEntity
  8
DEFPOINTS
 62
     0
 48
50.0
100
AcDbPoint
 10
7839.899482790125
 20
10132.02169339953
 30
0.0
  0
ENDBLK
  5
1642D
330
16352
100
AcDbEntity
  8
0
 48
50.0
100
AcDbBlockEnd
  0
BLOCK
  5
164CA
330
16360
100
AcDbEntity
  8
0
 48
50.0
100
AcDbBlockBegin
  2
*D4
 70
     1
 10
0.0
 20
0.0
 30
0.0
  3
*D4
  1

  0
LINE
  5
1903D
330
16360
100
AcDbEntity
  8
寸法
 62
     0
 48
50.0
370
    -2
100
AcDbLine
 10
7212.473137055714
 20
10187.02169339953
 30
0.0
 11
8265.00642452976
 21
10187.02169339953
 31
0.0
  0
LINE
  5
1903E
330
16360
100
AcDbEntity
  8
寸法
 62
     0
 48
50.0
370
    -2
100
AcDbLine
 10
7212.473137055688
 20
7557.021693399521
 30
0.0
 11
8265.00642452976
 21
7557.021693399521
 31
0.0
  0
LINE
  5
1903F
330
16360
100
AcDbEntity
  8
寸法
 62
     0
 48
50.0
370
    -2
100
AcDbLine
 10
8205.006424529761
 20
10187.02169339953
 30
0.0
 11
8205.006424529761
 21
7557.021693399521
 31
0.0
  0
INSERT
  5
19040
330
16360
100
AcDbEntity
  8
寸法
 62
     0
 48
50.0
370
    -2
100
AcDbBlockReference
  2
_DOTSMALL
 10
8205.006424529761
 20
10187.02169339953
 30
0.0
 41
100.0
 42
100.0
 43
100.0
 50
90.0
  0
INSERT
  5
19041
330
16360
100
AcDbEntity
  8
寸法
 62
     0
 48
50.0
370
    -2
100
AcDbBlockReference
  2
_DOTSMALL
 10
8205.006424529761
 20
7557.021693399521
 30
0.0
 41
100.0
 42
100.0
 43
100.0
 50
270.0
  0
MTEXT
  5
19042
330
16360
100
AcDbEntity
  8
寸法
 62
     7
 48
50.0
100
AcDbMText
 10
8104.994613506137
 20
8872.021693399528
 30
0.0
 40
120.0
 41
0.0
 71
     5
 72
     1
  1
\A1;2630
  7
STYLE1
 11
0.0000000000000001
 21
1.0
 31
0.0
 73
     1
 44
1.0
1001
ACAD
1000
MTEXTBEGIN
1070
    73
1070
     1
1070
    44
1040
1.0
1070
    74
1070
     0
1000
MTEXTEND
  0
POINT
  5
19043
330
16360
100
AcDbEntity
  8
DEFPOINTS
 62
     0
 48
50.0
100
AcDbPoint
 10
7192.473137055715
 20
10187.02169339953
 30
0.0
  0
POINT
  5
19044
330
16360
100
AcDbEntity
  8
DEFPOINTS
 62
     0
 48
50.0
100
AcDbPoint
 10
7192.47313705569
 20
7557.021693399521
 30
0.0
  0
POINT
  5
19045
330
16360
100
AcDbEntity
  8
DEFPOINTS
 62
     0
 48
50.0
100
AcDbPoint
 10
8205.006424529761
 20
7557.021693399521
 30
0.0
  0
ENDBLK
  5
164D4
330
16360
100
AcDbEntity
  8
0
 48
50.0
100
AcDbBlockEnd
  0
BLOCK
  5
1728C
330
16384
100
AcDbEntity
  8
0
 48
50.0
100
AcDbBlockBegin
  2
*D5
 70
     1
 10
0.0
 20
0.0
 30
0.0
  3
*D5
  1

  0
LINE
  5
19035
330
16384
100
AcDbEntity
  8
寸法
 62
     0
 48
50.0
370
    -2
100
AcDbLine
 10
5925.473137055707
 20
7563.021693399431
 30
0.0
 11
5925.473137055707
 21
6962.590922633267
 31
0.0
  0
LINE
  5
19036
330
16384
100
AcDbEntity
  8
寸法
 62
     0
 48
50.0
370
    -2
100
AcDbLine
 10
7089.47313705569
 20
7022.590922633266
 30
0.0
 11
5925.473137055707
 21
7022.590922633266
 31
0.0
  0
INSERT
  5
19037
330
16384
100
AcDbEntity
  8
寸法
 62
     0
 48
50.0
370
    -2
100
AcDbBlockReference
  2
_DOTSMALL
 10
7089.47313705569
 20
7022.590922633266
 30
0.0
 41
100.0
 42
100.0
 43
100.0
  0
INSERT
  5
19038
330
16384
100
AcDbEntity
  8
寸法
 62
     0
 48
50.0
370
    -2
100
AcDbBlockReference
  2
_DOTSMALL
 10
5925.473137055707
 20
7022.590922633266
 30
0.0
 41
100.0
 42
100.0
 43
100.0
 50
180.0
  0
MTEXT
  5
19039
330
16384
100
AcDbEntity
  8
寸法
 62
     7
 48
50.0
100
AcDbMText
 10
6507.473137055699
 20
7222.590922633266
 30
0.0
 40
120.0
 41
0.0
 71
     5
 72
     1
  1
\A1;有効開口部間口\P 1164
  7
STYLE1
 73
     1
 44
1.0
1001
ACAD
1000
MTEXTBEGIN
1070
    73
1070
     1
1070
    44
1040
1.0
1070
    74
1070
     0
1000
MTEXTEND
  0
POINT
  5
1903A
330
16384
100
AcDbEntity
  8
DEFPOINTS
 62
     0
 48
50.0
100
AcDbPoint
 10
7089.47313705569
 20
7583.02169339943
 30
0.0
  0
POINT
  5
1903B
330
16384
100
AcDbEntity
  8
DEFPOINTS
 62
     0
 48
50.0
100
AcDbPoint
 10
5925.473137055707
 20
7583.021693399429
 30
0.0
  0
POINT
  5
1903C
330
16384
100
AcDbEntity
  8
DEFPOINTS
 62
     0
 48
50.0
100
AcDbPoint
 10
5925.473137055707
 20
7022.590922633266
 30
0.0
  0
ENDBLK
  5
17295
330
16384
100
AcDbEntity
  8
0
 48
50.0
100
AcDbBlockEnd
  0
BLOCK
  5
17261
330
1638F
100
AcDbEntity
  8
0
 48
50.0
100
AcDbBlockBegin
  2
*D6
 70
     1
 10
0.0
 20
0.0
 30
0.0
  3
*D6
  1

  0
LINE
  5
1902C
330
1638F
100
AcDbEntity
  8
寸法
 62
     0
 48
50.0
370
    -2
100
AcDbLine
 10
4452.473137055707
 20
7537.021693399427
 30
0.0
 11
4452.473137055707
 21
6516.417927042391
 31
0.0
  0
LINE
  5
1902D
330
1638F
100
AcDbEntity
  8
寸法
 62
     0
 48
50.0
370
    -2
100
AcDbLine
 10
7192.473137055678
 20
7537.021693399522
 30
0.0
 11
7192.473137055678
 21
6516.417927042391
 31
0.0
  0
LINE
  5
1902E
330
1638F
100
AcDbEntity
  8
寸法
 62
     0
 48
50.0
370
    -2
100
AcDbLine
 10
4452.473137055707
 20
6576.417927042392
 30
0.0
 11
7192.473137055678
 21
6576.417927042392
 31
0.0
  0
INSERT
  5
1902F
330
1638F
100
AcDbEntity
  8
寸法
 62
     0
 48
50.0
370
    -2
100
AcDbBlockReference
  2
_DOTSMALL
 10
4452.473137055707
 20
6576.417927042392
 30
0.0
 41
100.0
 42
100.0
 43
100.0
 50
180.0
  0
INSERT
  5
19030
330
1638F
100
AcDbEntity
  8
寸法
 62
     0
 48
50.0
370
    -2
100
AcDbBlockReference
  2
_DOTSMALL
 10
7192.473137055678
 20
6576.417927042392
 30
0.0
 41
100.0
 42
100.0
 43
100.0
  0
MTEXT
  5
19031
330
1638F
100
AcDbEntity
  8
寸法
 62
     7
 48
50.0
100
AcDbMText
 10
5822.473137055693
 20
6676.429738066014
 30
0.0
 40
120.0
 41
0.0
 71
     5
 72
     1
  1
\A1;2740
  7
STYLE1
 73
     1
 44
1.0
1001
ACAD
1000
MTEXTBEGIN
1070
    73
1070
     1
1070
    44
1040
1.0
1070
    74
1070
     0
1000
MTEXTEND
  0
POINT
  5
19032
330
1638F
100
AcDbEntity
  8
DEFPOINTS
 62
     0
 48
50.0
100
AcDbPoint
 10
4452.473137055707
 20
7557.021693399427
 30
0.0
  0
POINT
  5
19033
330
1638F
100
AcDbEntity
  8
DEFPOINTS
 62
     0
 48
50.0
100
AcDbPoint
 10
7192.473137055678
 20
7557.021693399521
 30
0.0
  0
POINT
  5
19034
330
1638F
100
AcDbEntity
  8
DEFPOINTS
 62
     0
 48
50.0
100
AcDbPoint
 10
7192.473137055678
 20
6576.417927042392
 30
0.0
  0
ENDBLK
  5
1726B
330
1638F
100
AcDbEntity
  8
0
 48
50.0
100
AcDbBlockEnd
  0
BLOCK
  5
16464
330
1639B
100
AcDbEntity
  8
0
 48
50.0
100
AcDbBlockBegin
  2
*D7
 70
     1
 10
0.0
 20
0.0
 30
0.0
  3
*D7
  1

  0
LINE
  5
19021
330
1639B
100
AcDbEntity
  8
寸法
 62
     0
 48
50.0
370
    -2
100
AcDbLine
 10
4507.473137055703
 20
7537.02169339943
 30
0.0
 11
4507.473137055703
 21
6962.590922633267
 31
0.0
  0
LINE
  5
19022
330
1639B
100
AcDbEntity
  8
寸法
 62
     0
 48
50.0
370
    -2
100
AcDbLine
 10
4452.473137055707
 20
7537.021693399427
 30
0.0
 11
4452.473137055707
 21
6962.590922633267
 31
0.0
  0
LINE
  5
19023
330
1639B
100
AcDbEntity
  8
寸法
 62
     0
 48
50.0
370
    -2
100
AcDbLine
 10
4507.473137055703
 20
7022.590922633266
 30
0.0
 11
4607.473137055704
 21
7022.590922633266
 31
0.0
  0
LINE
  5
19024
330
1639B
100
AcDbEntity
  8
寸法
 62
     0
 48
50.0
370
    -2
100
AcDbLine
 10
4452.473137055707
 20
7022.590922633266
 30
0.0
 11
4035.50257430723
 21
7022.590922633266
 31
0.0
  0
LINE
  5
19025
330
1639B
100
AcDbEntity
  8
寸法
 62
     0
 48
50.0
370
    -2
100
AcDbLine
 10
4507.473137055703
 20
7022.590922633266
 30
0.0
 11
4452.473137055707
 21
7022.590922633266
 31
0.0
  0
INSERT
  5
19026
330
1639B
100
AcDbEntity
  8
寸法
 62
     0
 48
50.0
370
    -2
100
AcDbBlockReference
  2
_DOTSMALL
 10
4507.473137055703
 20
7022.590922633266
 30
0.0
 41
100.0
 42
100.0
 43
100.0
 50
180.0
  0
INSERT
  5
19027
330
1639B
100
AcDbEntity
  8
寸法
 62
     0
 48
50.0
370
    -2
100
AcDbBlockReference
  2
_DOTSMALL
 10
4452.473137055707
 20
7022.590922633266
 30
0.0
 41
100.0
 42
100.0
 43
100.0
  0
MTEXT
  5
19028
330
1639B
100
AcDbEntity
  8
寸法
 62
     7
 48
50.0
100
AcDbMText
 10
4143.987855681468
 20
7122.590922633266
 30
0.0
 40
120.0
 41
0.0
 71
     5
 72
     1
  1
\A1;55
  7
STYLE1
 73
     1
 44
1.0
1001
ACAD
1000
MTEXTBEGIN
1070
    73
1070
     1
1070
    44
1040
1.0
1070
    74
1070
     0
1000
MTEXTEND
  0
POINT
  5
19029
330
1639B
100
AcDbEntity
  8
DEFPOINTS
 62
     0
 48
50.0
100
AcDbPoint
 10
4507.473137055703
 20
7557.02169339943
 30
0.0
  0
POINT
  5
1902A
330
1639B
100
AcDbEntity
  8
DEFPOINTS
 62
     0
 48
50.0
100
AcDbPoint
 10
4452.473137055707
 20
7557.021693399427
 30
0.0
  0
POINT
  5
1902B
330
1639B
100
AcDbEntity
  8
DEFPOINTS
 62
     0
 48
50.0
100
AcDbPoint
 10
4452.473137055707
 20
7022.590922633266
 30
0.0
  0
ENDBLK
  5
16470
330
1639B
100
AcDbEntity
  8
0
 48
50.0
100
AcDbBlockEnd
  0
BLOCK
  5
16471
330
163A9
100
AcDbEntity
  8
0
 48
50.0
100
AcDbBlockBegin
  2
*D8
 70
     1
 10
0.0
 20
0.0
 30
0.0
  3
*D8
  1

  0
LINE
  5
19016
330
163A9
100
AcDbEntity
  8
寸法
 62
     0
 48
50.0
370
    -2
100
AcDbLine
 10
5925.473137055707
 20
7563.021693399431
 30
0.0
 11
5925.473137055707
 21
6962.590922633267
 31
0.0
  0
LINE
  5
19017
330
163A9
100
AcDbEntity
  8
寸法
 62
     0
 48
50.0
370
    -2
100
AcDbLine
 10
5877.473137055704
 20
7537.02169339943
 30
0.0
 11
5877.473137055704
 21
6962.590922633267
 31
0.0
  0
LINE
  5
19018
330
163A9
100
AcDbEntity
  8
寸法
 62
     0
 48
50.0
370
    -2
100
AcDbLine
 10
5925.473137055707
 20
7022.590922633266
 30
0.0
 11
6025.473137055707
 21
7022.590922633266
 31
0.0
  0
LINE
  5
19019
330
163A9
100
AcDbEntity
  8
寸法
 62
     0
 48
50.0
370
    -2
100
AcDbLine
 10
5877.473137055704
 20
7022.590922633266
 30
0.0
 11
5777.473137055704
 21
7022.590922633266
 31
0.0
  0
MTEXT
  5
1901A
330
163A9
100
AcDbEntity
  8
寸法
 62
     7
 48
50.0
100
AcDbMText
 10
6038.375108055765
 20
7122.590922633266
 30
0.0
 40
120.0
 41
0.0
 71
     5
 72
     1
  1
\A1;48
  7
STYLE1
 73
     1
 44
1.0
1001
ACAD
1000
MTEXTBEGIN
1070
    73
1070
     1
1070
    44
1040
1.0
1070
    74
1070
     0
1000
MTEXTEND
  0
LINE
  5
1901B
330
163A9
100
AcDbEntity
  8
寸法
 62
     0
 48
50.0
370
    -2
100
AcDbLine
 10
5925.473137055707
 20
7022.590922633266
 30
0.0
 11
5877.473137055704
 21
7022.590922633266
 31
0.0
  0
INSERT
  5
1901C
330
163A9
100
AcDbEntity
  8
寸法
 62
     0
 48
50.0
370
    -2
100
AcDbBlockReference
  2
_DOTSMALL
 10
5925.473137055707
 20
7022.590922633266
 30
0.0
 41
100.0
 42
100.0
 43
100.0
 50
180.0
  0
INSERT
  5
1901D
330
163A9
100
AcDbEntity
  8
寸法
 62
     0
 48
50.0
370
    -2
100
AcDbBlockReference
  2
_DOTSMALL
 10
5877.473137055704
 20
7022.590922633266
 30
0.0
 41
100.0
 42
100.0
 43
100.0
  0
POINT
  5
1901E
330
163A9
100
AcDbEntity
  8
DEFPOINTS
 62
     0
 48
50.0
100
AcDbPoint
 10
5925.473137055707
 20
7583.021693399429
 30
0.0
  0
POINT
  5
1901F
330
163A9
100
AcDbEntity
  8
DEFPOINTS
 62
     0
 48
50.0
100
AcDbPoint
 10
5877.473137055704
 20
7557.02169339943
 30
0.0
  0
POINT
  5
19020
330
163A9
100
AcDbEntity
  8
DEFPOINTS
 62
     0
 48
50.0
100
AcDbPoint
 10
5877.473137055704
 20
7022.590922633266
 30
0.0
  0
ENDBLK
  5
1647E
330
163A9
100
AcDbEntity
  8
0
 48
50.0
100
AcDbBlockEnd
  0
BLOCK
  5
1647F
330
163B8
100
AcDbEntity
  8
0
 48
50.0
100
AcDbBlockBegin
  2
*D9
 70
     1
 10
0.0
 20
0.0
 30
0.0
  3
*D9
  1

  0
LINE
  5
1900B
330
163B8
100
AcDbEntity
  8
寸法
 62
     0
 48
50.0
370
    -2
100
AcDbLine
 10
7137.473137055692
 20
7537.021693399518
 30
0.0
 11
7137.473137055692
 21
6962.590922633267
 31
0.0
  0
LINE
  5
1900C
330
163B8
100
AcDbEntity
  8
寸法
 62
     0
 48
50.0
370
    -2
100
AcDbLine
 10
7089.47313705569
 20
7563.021693399431
 30
0.0
 11
7089.47313705569
 21
6962.590922633267
 31
0.0
  0
LINE
  5
1900D
330
163B8
100
AcDbEntity
  8
寸法
 62
     0
 48
50.0
370
    -2
100
AcDbLine
 10
7137.473137055692
 20
7022.590922633266
 30
0.0
 11
7237.473137055691
 21
7022.590922633266
 31
0.0
  0
LINE
  5
1900E
330
163B8
100
AcDbEntity
  8
寸法
 62
     0
 48
50.0
370
    -2
100
AcDbLine
 10
7089.47313705569
 20
7022.590922633266
 30
0.0
 11
6989.473137055689
 21
7022.590922633266
 31
0.0
  0
MTEXT
  5
1900F
330
163B8
100
AcDbEntity
  8
寸法
 62
     7
 48
50.0
100
AcDbMText
 10
6978.510239406943
 20
7122.590922633266
 30
0.0
 40
120.0
 41
0.0
 71
     5
 72
     1
  1
\A1;48
  7
STYLE1
 73
     1
 44
1.0
1001
ACAD
1000
MTEXTBEGIN
1070
    73
1070
     1
1070
    44
1040
1.0
1070
    74
1070
     0
1000
MTEXTEND
  0
LINE
  5
19010
330
163B8
100
AcDbEntity
  8
寸法
 62
     0
 48
50.0
370
    -2
100
AcDbLine
 10
7137.473137055692
 20
7022.590922633266
 30
0.0
 11
7089.47313705569
 21
7022.590922633266
 31
0.0
  0
INSERT
  5
19011
330
163B8
100
AcDbEntity
  8
寸法
 62
     0
 48
50.0
370
    -2
100
AcDbBlockReference
  2
_DOTSMALL
 10
7137.473137055692
 20
7022.590922633266
 30
0.0
 41
100.0
 42
100.0
 43
100.0
 50
180.0
  0
INSERT
  5
19012
330
163B8
100
AcDbEntity
  8
寸法
 62
     0
 48
50.0
370
    -2
100
AcDbBlockReference
  2
_DOTSMALL
 10
7089.47313705569
 20
7022.590922633266
 30
0.0
 41
100.0
 42
100.0
 43
100.0
  0
POINT
  5
19013
330
163B8
100
AcDbEntity
  8
DEFPOINTS
 62
     0
 48
50.0
100
AcDbPoint
 10
7137.473137055692
 20
7557.021693399518
 30
0.0
  0
POINT
  5
19014
330
163B8
100
AcDbEntity
  8
DEFPOINTS
 62
     0
 48
50.0
100
AcDbPoint
 10
7089.47313705569
 20
7583.02169339943
 30
0.0
  0
POINT
  5
19015
330
163B8
100
AcDbEntity
  8
DEFPOINTS
 62
     0
 48
50.0
100
AcDbPoint
 10
7089.47313705569
 20
7022.590922633266
 30
0.0
  0
ENDBLK
  5
1648C
330
163B8
100
AcDbEntity
  8
0
 48
50.0
100
AcDbBlockEnd
  0
BLOCK
  5
1648D
330
163C7
100
AcDbEntity
  8
0
 48
50.0
100
AcDbBlockBegin
  2
*D10
 70
     1
 10
0.0
 20
0.0
 30
0.0
  3
*D10
  1

  0
LINE
  5
19000
330
163C7
100
AcDbEntity
  8
寸法
 62
     0
 48
50.0
370
    -2
100
AcDbLine
 10
7192.47313705569
 20
7537.021693399522
 30
0.0
 11
7192.47313705569
 21
6962.590922633267
 31
0.0
  0
LINE
  5
19001
330
163C7
100
AcDbEntity
  8
寸法
 62
     0
 48
50.0
370
    -2
100
AcDbLine
 10
7137.473137055692
 20
7537.021693399518
 30
0.0
 11
7137.473137055692
 21
6962.590922633267
 31
0.0
  0
LINE
  5
19002
330
163C7
100
AcDbEntity
  8
寸法
 62
     0
 48
50.0
370
    -2
100
AcDbLine
 10
7137.473137055692
 20
7022.590922633267
 30
0.0
 11
7037.473137055691
 21
7022.590922633267
 31
0.0
  0
LINE
  5
19003
330
163C7
100
AcDbEntity
  8
寸法
 62
     0
 48
50.0
370
    -2
100
AcDbLine
 10
7192.47313705569
 20
7022.590922633267
 30
0.0
 11
7609.443699804167
 21
7022.590922633267
 31
0.0
  0
LINE
  5
19004
330
163C7
100
AcDbEntity
  8
寸法
 62
     0
 48
50.0
370
    -2
100
AcDbLine
 10
7137.473137055692
 20
7022.590922633267
 30
0.0
 11
7192.47313705569
 21
7022.590922633267
 31
0.0
  0
INSERT
  5
19005
330
163C7
100
AcDbEntity
  8
寸法
 62
     0
 48
50.0
370
    -2
100
AcDbBlockReference
  2
_DOTSMALL
 10
7137.473137055692
 20
7022.590922633267
 30
0.0
 41
100.0
 42
100.0
 43
100.0
  0
INSERT
  5
19006
330
163C7
100
AcDbEntity
  8
寸法
 62
     0
 48
50.0
370
    -2
100
AcDbBlockReference
  2
_DOTSMALL
 10
7192.47313705569
 20
7022.590922633267
 30
0.0
 41
100.0
 42
100.0
 43
100.0
 50
180.0
  0
MTEXT
  5
19007
330
163C7
100
AcDbEntity
  8
寸法
 62
     7
 48
50.0
100
AcDbMText
 10
7500.958418429927
 20
7122.590922633268
 30
0.0
 40
120.0
 41
0.0
 71
     5
 72
     1
  1
\A1;55
  7
STYLE1
 73
     1
 44
1.0
1001
ACAD
1000
MTEXTBEGIN
1070
    73
1070
     1
1070
    44
1040
1.0
1070
    74
1070
     0
1000
MTEXTEND
  0
POINT
  5
19008
330
163C7
100
AcDbEntity
  8
DEFPOINTS
 62
     0
 48
50.0
100
AcDbPoint
 10
7192.47313705569
 20
7557.021693399521
 30
0.0
  0
POINT
  5
19009
330
163C7
100
AcDbEntity
  8
DEFPOINTS
 62
     0
 48
50.0
100
AcDbPoint
 10
7137.473137055692
 20
7557.021693399518
 30
0.0
  0
POINT
  5
1900A
330
163C7
100
AcDbEntity
  8
DEFPOINTS
 62
     0
 48
50.0
100
AcDbPoint
 10
7137.473137055692
 20
7022.590922633267
 30
0.0
  0
ENDBLK
  5
16499
330
163C7
100
AcDbEntity
  8
0
 48
50.0
100
AcDbBlockEnd
  0
BLOCK
  5
172A1
330
163E1
100
AcDbEntity
  8
0
 48
50.0
100
AcDbBlockBegin
  2
*D11
 70
     1
 10
0.0
 20
0.0
 30
0.0
  3
*D11
  1

  0
LINE
  5
18FF7
330
163E1
100
AcDbEntity
  8
寸法
 62
     0
 48
50.0
370
    -2
100
AcDbLine
 10
5877.473137055714
 20
10207.02169339943
 30
0.0
 11
5877.473137055714
 21
10462.82991302453
 31
0.0
  0
LINE
  5
18FF8
330
163E1
100
AcDbEntity
  8
寸法
 62
     0
 48
50.0
370
    -2
100
AcDbLine
 10
7137.473137055714
 20
10207.02169339953
 30
0.0
 11
7137.473137055714
 21
10462.82991302453
 31
0.0
  0
LINE
  5
18FF9
330
163E1
100
AcDbEntity
  8
寸法
 62
     0
 48
50.0
370
    -2
100
AcDbLine
 10
5877.473137055714
 20
10402.82991302453
 30
0.0
 11
7137.473137055714
 21
10402.82991302453
 31
0.0
  0
INSERT
  5
18FFA
330
163E1
100
AcDbEntity
  8
寸法
 62
     0
 48
50.0
370
    -2
100
AcDbBlockReference
  2
_DOTSMALL
 10
5877.473137055714
 20
10402.82991302453
 30
0.0
 41
100.0
 42
100.0
 43
100.0
 50
180.0
  0
INSERT
  5
18FFB
330
163E1
100
AcDbEntity
  8
寸法
 62
     0
 48
50.0
370
    -2
100
AcDbBlockReference
  2
_DOTSMALL
 10
7137.473137055714
 20
10402.82991302453
 30
0.0
 41
100.0
 42
100.0
 43
100.0
  0
MTEXT
  5
18FFC
330
163E1
100
AcDbEntity
  8
寸法
 62
     7
 48
50.0
100
AcDbMText
 10
6507.473137055715
 20
10502.84172404815
 30
0.0
 40
120.0
 41
0.0
 71
     5
 72
     1
  1
\A1;3X420=1260
  7
STYLE1
 73
     1
 44
1.0
1001
ACAD
1000
MTEXTBEGIN
1070
    73
1070
     1
1070
    44
1040
1.0
1070
    74
1070
     0
1000
MTEXTEND
  0
POINT
  5
18FFD
330
163E1
100
AcDbEntity
  8
DEFPOINTS
 62
     0
 48
50.0
100
AcDbPoint
 10
5877.473137055714
 20
10187.02169339943
 30
0.0
  0
POINT
  5
18FFE
330
163E1
100
AcDbEntity
  8
DEFPOINTS
 62
     0
 48
50.0
100
AcDbPoint
 10
7137.473137055714
 20
10187.02169339953
 30
0.0
  0
POINT
  5
18FFF
330
163E1
100
AcDbEntity
  8
DEFPOINTS
 62
     0
 48
50.0
100
AcDbPoint
 10
7137.473137055714
 20
10402.82991302453
 30
0.0
  0
ENDBLK
  5
172AB
330
163E1
100
AcDbEntity
  8
0
 48
50.0
100
AcDbBlockEnd
  0
BLOCK
  5
164B0
330
163ED
100
AcDbEntity
  8
0
 48
50.0
100
AcDbBlockBegin
  2
*D12
 70
     1
 10
0.0
 20
0.0
 30
0.0
  3
*D12
  1

  0
LINE
  5
18FEC
330
163ED
100
AcDbEntity
  8
寸法
 62
     0
 48
50.0
370
    -2
100
AcDbLine
 10
4452.473137055679
 20
10207.02169339943
 30
0.0
 11
4452.473137055679
 21
10462.82991302441
 31
0.0
  0
LINE
  5
18FED
330
163ED
100
AcDbEntity
  8
寸法
 62
     0
 48
50.0
370
    -2
100
AcDbLine
 10
4507.473137055714
 20
10207.02169339943
 30
0.0
 11
4507.473137055714
 21
10462.82991302441
 31
0.0
  0
LINE
  5
18FEE
330
163ED
100
AcDbEntity
  8
寸法
 62
     0
 48
50.0
370
    -2
100
AcDbLine
 10
4507.473137055714
 20
10402.82991302441
 30
0.0
 11
4607.473137055714
 21
10402.82991302441
 31
0.0
  0
LINE
  5
18FEF
330
163ED
100
AcDbEntity
  8
寸法
 62
     0
 48
50.0
370
    -2
100
AcDbLine
 10
4452.473137055679
 20
10402.82991302441
 30
0.0
 11
4035.502574307201
 21
10402.82991302441
 31
0.0
  0
LINE
  5
18FF0
330
163ED
100
AcDbEntity
  8
寸法
 62
     0
 48
50.0
370
    -2
100
AcDbLine
 10
4507.473137055714
 20
10402.82991302441
 30
0.0
 11
4452.473137055679
 21
10402.82991302441
 31
0.0
  0
INSERT
  5
18FF1
330
163ED
100
AcDbEntity
  8
寸法
 62
     0
 48
50.0
370
    -2
100
AcDbBlockReference
  2
_DOTSMALL
 10
4507.473137055714
 20
10402.82991302441
 30
0.0
 41
100.0
 42
100.0
 43
100.0
 50
180.0
  0
INSERT
  5
18FF2
330
163ED
100
AcDbEntity
  8
寸法
 62
     0
 48
50.0
370
    -2
100
AcDbBlockReference
  2
_DOTSMALL
 10
4452.473137055679
 20
10402.82991302441
 30
0.0
 41
100.0
 42
100.0
 43
100.0
  0
MTEXT
  5
18FF3
330
163ED
100
AcDbEntity
  8
寸法
 62
     7
 48
50.0
100
AcDbMText
 10
4143.98785568144
 20
10502.82991302441
 30
0.0
 40
120.0
 41
0.0
 71
     5
 72
     1
  1
\A1;55
  7
STYLE1
 73
     1
 44
1.0
1001
ACAD
1000
MTEXTBEGIN
1070
    73
1070
     1
1070
    44
1040
1.0
1070
    74
1070
     0
1000
MTEXTEND
  0
POINT
  5
18FF4
330
163ED
100
AcDbEntity
  8
DEFPOINTS
 62
     0
 48
50.0
100
AcDbPoint
 10
4452.473137055679
 20
10187.02169339943
 30
0.0
  0
POINT
  5
18FF5
330
163ED
100
AcDbEntity
  8
DEFPOINTS
 62
     0
 48
50.0
100
AcDbPoint
 10
4507.473137055714
 20
10187.02169339943
 30
0.0
  0
POINT
  5
18FF6
330
163ED
100
AcDbEntity
  8
DEFPOINTS
 62
     0
 48
50.0
100
AcDbPoint
 10
4507.473137055714
 20
10402.82991302441
 30
0.0
  0
ENDBLK
  5
164BC
330
163ED
100
AcDbEntity
  8
0
 48
50.0
100
AcDbBlockEnd
  0
BLOCK
  5
164BD
330
163FB
100
AcDbEntity
  8
0
 48
50.0
100
AcDbBlockBegin
  2
*D13
 70
     1
 10
0.0
 20
0.0
 30
0.0
  3
*D13
  1

  0
LINE
  5
18FE1
330
163FB
100
AcDbEntity
  8
寸法
 62
     0
 48
50.0
370
    -2
100
AcDbLine
 10
7137.473137055714
 20
10207.02169339953
 30
0.0
 11
7137.473137055714
 21
10462.82991302451
 31
0.0
  0
LINE
  5
18FE2
330
163FB
100
AcDbEntity
  8
寸法
 62
     0
 48
50.0
370
    -2
100
AcDbLine
 10
7192.473137055715
 20
10207.02169339953
 30
0.0
 11
7192.473137055715
 21
10462.82991302451
 31
0.0
  0
LINE
  5
18FE3
330
163FB
100
AcDbEntity
  8
寸法
 62
     0
 48
50.0
370
    -2
100
AcDbLine
 10
7137.473137055714
 20
10402.82991302451
 30
0.0
 11
7037.473137055714
 21
10402.82991302451
 31
0.0
  0
LINE
  5
18FE4
330
163FB
100
AcDbEntity
  8
寸法
 62
     0
 48
50.0
370
    -2
100
AcDbLine
 10
7192.473137055715
 20
10402.82991302451
 30
0.0
 11
7609.443699804192
 21
10402.82991302451
 31
0.0
  0
LINE
  5
18FE5
330
163FB
100
AcDbEntity
  8
寸法
 62
     0
 48
50.0
370
    -2
100
AcDbLine
 10
7137.473137055714
 20
10402.82991302451
 30
0.0
 11
7192.473137055715
 21
10402.82991302451
 31
0.0
  0
INSERT
  5
18FE6
330
163FB
100
AcDbEntity
  8
寸法
 62
     0
 48
50.0
370
    -2
100
AcDbBlockReference
  2
_DOTSMALL
 10
7137.473137055714
 20
10402.82991302451
 30
0.0
 41
100.0
 42
100.0
 43
100.0
  0
INSERT
  5
18FE7
330
163FB
100
AcDbEntity
  8
寸法
 62
     0
 48
50.0
370
    -2
100
AcDbBlockReference
  2
_DOTSMALL
 10
7192.473137055715
 20
10402.82991302451
 30
0.0
 41
100.0
 42
100.0
 43
100.0
 50
180.0
  0
MTEXT
  5
18FE8
330
163FB
100
AcDbEntity
  8
寸法
 62
     7
 48
50.0
100
AcDbMText
 10
7500.958418429952
 20
10502.82991302451
 30
0.0
 40
120.0
 41
0.0
 71
     5
 72
     1
  1
\A1;55
  7
STYLE1
 73
     1
 44
1.0
1001
ACAD
1000
MTEXTBEGIN
1070
    73
1070
     1
1070
    44
1040
1.0
1070
    74
1070
     0
1000
MTEXTEND
  0
POINT
  5
18FE9
330
163FB
100
AcDbEntity
  8
DEFPOINTS
 62
     0
 48
50.0
100
AcDbPoint
 10
7137.473137055714
 20
10187.02169339953
 30
0.0
  0
POINT
  5
18FEA
330
163FB
100
AcDbEntity
  8
DEFPOINTS
 62
     0
 48
50.0
100
AcDbPoint
 10
7192.473137055715
 20
10187.02169339953
 30
0.0
  0
POINT
  5
18FEB
330
163FB
100
AcDbEntity
  8
DEFPOINTS
 62
     0
 48
50.0
100
AcDbPoint
 10
7192.473137055715
 20
10402.82991302451
 30
0.0
  0
ENDBLK
  5
164C9
330
163FB
100
AcDbEntity
  8
0
 48
50.0
100
AcDbBlockEnd
  0
BLOCK
  5
165B6
330
165B5
100
AcDbEntity
  8
0
 48
50.0
100
AcDbBlockBegin
  2
*D14
 70
     1
 10
0.0
 20
0.0
 30
0.0
  3
*D14
  1

  0
LINE
  5
18FCB
330
165B5
100
AcDbEntity
  8
寸法
 62
     0
 48
50.0
370
    -2
100
AcDbLine
 10
4555.473137055707
 20
7563.021693399431
 30
0.0
 11
4555.473137055707
 21
6962.590922633267
 31
0.0
  0
LINE
  5
18FCC
330
165B5
100
AcDbEntity
  8
寸法
 62
     0
 48
50.0
370
    -2
100
AcDbLine
 10
4507.473137055703
 20
7537.02169339943
 30
0.0
 11
4507.473137055703
 21
6962.590922633267
 31
0.0
  0
LINE
  5
18FCD
330
165B5
100
AcDbEntity
  8
寸法
 62
     0
 48
50.0
370
    -2
100
AcDbLine
 10
4555.473137055707
 20
7022.590922633266
 30
0.0
 11
4655.473137055706
 21
7022.590922633266
 31
0.0
  0
LINE
  5
18FCE
330
165B5
100
AcDbEntity
  8
寸法
 62
     0
 48
50.0
370
    -2
100
AcDbLine
 10
4507.473137055703
 20
7022.590922633266
 30
0.0
 11
4407.473137055704
 21
7022.590922633266
 31
0.0
  0
MTEXT
  5
18FCF
330
165B5
100
AcDbEntity
  8
寸法
 62
     7
 48
50.0
100
AcDbMText
 10
4668.375108055765
 20
7122.590922633266
 30
0.0
 40
120.0
 41
0.0
 71
     5
 72
     1
  1
\A1;48
  7
STYLE1
 73
     1
 44
1.0
1001
ACAD
1000
MTEXTBEGIN
1070
    73
1070
     1
1070
    44
1040
1.0
1070
    74
1070
     0
1000
MTEXTEND
  0
LINE
  5
18FD0
330
165B5
100
AcDbEntity
  8
寸法
 62
     0
 48
50.0
370
    -2
100
AcDbLine
 10
4555.473137055707
 20
7022.590922633266
 30
0.0
 11
4507.473137055703
 21
7022.590922633266
 31
0.0
  0
INSERT
  5
18FD1
330
165B5
100
AcDbEntity
  8
寸法
 62
     0
 48
50.0
370
    -2
100
AcDbBlockReference
  2
_DOTSMALL
 10
4555.473137055707
 20
7022.590922633266
 30
0.0
 41
100.0
 42
100.0
 43
100.0
 50
180.0
  0
INSERT
  5
18FD2
330
165B5
100
AcDbEntity
  8
寸法
 62
     0
 48
50.0
370
    -2
100
AcDbBlockReference
  2
_DOTSMALL
 10
4507.473137055703
 20
7022.590922633266
 30
0.0
 41
100.0
 42
100.0
 43
100.0
  0
POINT
  5
18FD3
330
165B5
100
AcDbEntity
  8
DEFPOINTS
 62
     0
 48
50.0
100
AcDbPoint
 10
4555.473137055707
 20
7583.021693399429
 30
0.0
  0
POINT
  5
18FD4
330
165B5
100
AcDbEntity
  8
DEFPOINTS
 62
     0
 48
50.0
100
AcDbPoint
 10
4507.473137055703
 20
7557.02169339943
 30
0.0
  0
POINT
  5
18FD5
330
165B5
100
AcDbEntity
  8
DEFPOINTS
 62
     0
 48
50.0
100
AcDbPoint
 10
4507.473137055703
 20
7022.590922633266
 30
0.0
  0
ENDBLK
  5
165C3
330
165B5
100
AcDbEntity
  8
0
 48
50.0
100
AcDbBlockEnd
  0
BLOCK
  5
165C5
330
165C4
100
AcDbEntity
  8
0
 48
50.0
100
AcDbBlockBegin
  2
*D15
 70
     1
 10
0.0
 20
0.0
 30
0.0
  3
*D15
  1

  0
LINE
  5
18FD6
330
165C4
100
AcDbEntity
  8
寸法
 62
     0
 48
50.0
370
    -2
100
AcDbLine
 10
5767.473137055691
 20
7537.021693399518
 30
0.0
 11
5767.473137055691
 21
6962.590922633267
 31
0.0
  0
LINE
  5
18FD7
330
165C4
100
AcDbEntity
  8
寸法
 62
     0
 48
50.0
370
    -2
100
AcDbLine
 10
5719.47313705569
 20
7563.021693399431
 30
0.0
 11
5719.47313705569
 21
6962.590922633267
 31
0.0
  0
LINE
  5
18FD8
330
165C4
100
AcDbEntity
  8
寸法
 62
     0
 48
50.0
370
    -2
100
AcDbLine
 10
5767.473137055691
 20
7022.590922633266
 30
0.0
 11
5867.473137055691
 21
7022.590922633266
 31
0.0
  0
LINE
  5
18FD9
330
165C4
100
AcDbEntity
  8
寸法
 62
     0
 48
50.0
370
    -2
100
AcDbLine
 10
5719.47313705569
 20
7022.590922633266
 30
0.0
 11
5619.473137055689
 21
7022.590922633266
 31
0.0
  0
MTEXT
  5
18FDA
330
165C4
100
AcDbEntity
  8
寸法
 62
     7
 48
50.0
100
AcDbMText
 10
5608.510239406942
 20
7122.590922633266
 30
0.0
 40
120.0
 41
0.0
 71
     5
 72
     1
  1
\A1;48
  7
STYLE1
 73
     1
 44
1.0
1001
ACAD
1000
MTEXTBEGIN
1070
    73
1070
     1
1070
    44
1040
1.0
1070
    74
1070
     0
1000
MTEXTEND
  0
LINE
  5
18FDB
330
165C4
100
AcDbEntity
  8
寸法
 62
     0
 48
50.0
370
    -2
100
AcDbLine
 10
5767.473137055691
 20
7022.590922633266
 30
0.0
 11
5719.47313705569
 21
7022.590922633266
 31
0.0
  0
INSERT
  5
18FDC
330
165C4
100
AcDbEntity
  8
寸法
 62
     0
 48
50.0
370
    -2
100
AcDbBlockReference
  2
_DOTSMALL
 10
5767.473137055691
 20
7022.590922633266
 30
0.0
 41
100.0
 42
100.0
 43
100.0
 50
180.0
  0
INSERT
  5
18FDD
330
165C4
100
AcDbEntity
  8
寸法
 62
     0
 48
50.0
370
    -2
100
AcDbBlockReference
  2
_DOTSMALL
 10
5719.47313705569
 20
7022.590922633266
 30
0.0
 41
100.0
 42
100.0
 43
100.0
  0
POINT
  5
18FDE
330
165C4
100
AcDbEntity
  8
DEFPOINTS
 62
     0
 48
50.0
100
AcDbPoint
 10
5767.473137055691
 20
7557.021693399518
 30
0.0
  0
POINT
  5
18FDF
330
165C4
100
AcDbEntity
  8
DEFPOINTS
 62
     0
 48
50.0
100
AcDbPoint
 10
5719.47313705569
 20
7583.02169339943
 30
0.0
  0
POINT
  5
18FE0
330
165C4
100
AcDbEntity
  8
DEFPOINTS
 62
     0
 48
50.0
100
AcDbPoint
 10
5719.47313705569
 20
7022.590922633266
 30
0.0
  0
ENDBLK
  5
165D2
330
165C4
100
AcDbEntity
  8
0
 48
50.0
100
AcDbBlockEnd
  0
BLOCK
  5
1663F
330
165EA
100
AcDbEntity
  8
0
 48
50.0
100
AcDbBlockBegin
  2
*D16
 70
     1
 10
0.0
 20
0.0
 30
0.0
  3
*D16
  1

  0
LINE
  5
18FC2
330
165EA
100
AcDbEntity
  8
寸法
 62
     0
 48
50.0
370
    -2
100
AcDbLine
 10
5877.473137055704
 20
7537.02169339943
 30
0.0
 11
5877.473137055704
 21
6962.590922633267
 31
0.0
  0
LINE
  5
18FC3
330
165EA
100
AcDbEntity
  8
寸法
 62
     0
 48
50.0
370
    -2
100
AcDbLine
 10
5767.473137055691
 20
7537.021693399518
 30
0.0
 11
5767.473137055691
 21
6962.590922633267
 31
0.0
  0
LINE
  5
18FC4
330
165EA
100
AcDbEntity
  8
寸法
 62
     0
 48
50.0
370
    -2
100
AcDbLine
 10
5877.473137055704
 20
7022.590922633267
 30
0.0
 11
5767.473137055691
 21
7022.590922633267
 31
0.0
  0
MTEXT
  5
18FC5
330
165EA
100
AcDbEntity
  8
寸法
 62
     7
 48
50.0
100
AcDbMText
 10
5822.473137055697
 20
6870.899027597035
 30
0.0
 40
120.0
 41
0.0
 71
     5
 72
     1
  1
\A1;110
  7
STYLE1
 73
     1
 44
1.0
1001
ACAD
1000
MTEXTBEGIN
1070
    73
1070
     1
1070
    44
1040
1.0
1070
    74
1070
     0
1000
MTEXTEND
  0
INSERT
  5
18FC6
330
165EA
100
AcDbEntity
  8
寸法
 62
     0
 48
50.0
370
    -2
100
AcDbBlockReference
  2
_DOTSMALL
 10
5877.473137055704
 20
7022.590922633267
 30
0.0
 41
100.0
 42
100.0
 43
100.0
  0
INSERT
  5
18FC7
330
165EA
100
AcDbEntity
  8
寸法
 62
     0
 48
50.0
370
    -2
100
AcDbBlockReference
  2
_DOTSMALL
 10
5767.473137055691
 20
7022.590922633267
 30
0.0
 41
100.0
 42
100.0
 43
100.0
 50
180.0
  0
POINT
  5
18FC8
330
165EA
100
AcDbEntity
  8
DEFPOINTS
 62
     0
 48
50.0
100
AcDbPoint
 10
5877.473137055704
 20
7557.02169339943
 30
0.0
  0
POINT
  5
18FC9
330
165EA
100
AcDbEntity
  8
DEFPOINTS
 62
     0
 48
50.0
100
AcDbPoint
 10
5767.473137055691
 20
7557.021693399518
 30
0.0
  0
POINT
  5
18FCA
330
165EA
100
AcDbEntity
  8
DEFPOINTS
 62
     0
 48
50.0
100
AcDbPoint
 10
5767.473137055691
 20
7022.590922633267
 30
0.0
  0
ENDBLK
  5
16649
330
165EA
100
AcDbEntity
  8
0
 48
50.0
100
AcDbBlockEnd
  0
BLOCK
  5
166D0
330
166CF
100
AcDbEntity
  8
0
 48
50.0
100
AcDbBlockBegin
  2
*D17
 70
     1
 10
0.0
 20
0.0
 30
0.0
  3
*D17
  1

  0
LINE
  5
18FB7
330
166CF
100
AcDbEntity
  8
寸法
 62
     0
 48
50.0
370
    -2
100
AcDbLine
 10
5877.473137055714
 20
10207.02169339948
 30
0.0
 11
5877.473137055714
 21
10462.82991302453
 31
0.0
  0
LINE
  5
18FB8
330
166CF
100
AcDbEntity
  8
寸法
 62
     0
 48
50.0
370
    -2
100
AcDbLine
 10
5767.473137055715
 20
10207.02169339948
 30
0.0
 11
5767.473137055715
 21
10462.82991302453
 31
0.0
  0
LINE
  5
18FB9
330
166CF
100
AcDbEntity
  8
寸法
 62
     0
 48
50.0
370
    -2
100
AcDbLine
 10
5877.473137055714
 20
10402.82991302453
 30
0.0
 11
5977.473137055714
 21
10402.82991302453
 31
0.0
  0
LINE
  5
18FBA
330
166CF
100
AcDbEntity
  8
寸法
 62
     0
 48
50.0
370
    -2
100
AcDbLine
 10
5767.473137055715
 20
10402.82991302453
 30
0.0
 11
5667.473137055715
 21
10402.82991302453
 31
0.0
  0
LINE
  5
18FBB
330
166CF
100
AcDbEntity
  8
寸法
 62
     0
 48
50.0
370
    -2
100
AcDbLine
 10
5877.473137055714
 20
10402.82991302453
 30
0.0
 11
5767.473137055715
 21
10402.82991302453
 31
0.0
  0
INSERT
  5
18FBC
330
166CF
100
AcDbEntity
  8
寸法
 62
     0
 48
50.0
370
    -2
100
AcDbBlockReference
  2
_DOTSMALL
 10
5877.473137055714
 20
10402.82991302453
 30
0.0
 41
100.0
 42
100.0
 43
100.0
 50
180.0
  0
INSERT
  5
18FBD
330
166CF
100
AcDbEntity
  8
寸法
 62
     0
 48
50.0
370
    -2
100
AcDbBlockReference
  2
_DOTSMALL
 10
5767.473137055715
 20
10402.82991302453
 30
0.0
 41
100.0
 42
100.0
 43
100.0
  0
MTEXT
  5
18FBE
330
166CF
100
AcDbEntity
  8
寸法
 62
     7
 48
50.0
100
AcDbMText
 10
5822.473137055715
 20
10502.82991302453
 30
0.0
 40
120.0
 41
0.0
 71
     5
 72
     1
  1
\A1;110
  7
STYLE1
 73
     1
 44
1.0
1001
ACAD
1000
MTEXTBEGIN
1070
    73
1070
     1
1070
    44
1040
1.0
1070
    74
1070
     0
1000
MTEXTEND
  0
POINT
  5
18FBF
330
166CF
100
AcDbEntity
  8
DEFPOINTS
 62
     0
 48
50.0
100
AcDbPoint
 10
5877.473137055714
 20
10187.02169339948
 30
0.0
  0
POINT
  5
18FC0
330
166CF
100
AcDbEntity
  8
DEFPOINTS
 62
     0
 48
50.0
100
AcDbPoint
 10
5767.473137055715
 20
10187.02169339948
 30
0.0
  0
POINT
  5
18FC1
330
166CF
100
AcDbEntity
  8
DEFPOINTS
 62
     0
 48
50.0
100
AcDbPoint
 10
5767.473137055715
 20
10402.82991302453
 30
0.0
  0
ENDBLK
  5
166DC
330
166CF
100
AcDbEntity
  8
0
 48
50.0
100
AcDbBlockEnd
  0
BLOCK
  5
1726C
330
16908
100
AcDbEntity
  8
0
 48
50.0
100
AcDbBlockBegin
  2
*D18
 70
     1
 10
0.0
 20
0.0
 30
0.0
  3
*D18
  1

  0
LINE
  5
18FAF
330
16908
100
AcDbEntity
  8
寸法
 62
     0
 48
50.0
370
    -2
100
AcDbLine
 10
7192.473137055715
 20
10207.02169339953
 30
0.0
 11
7192.473137055715
 21
10712.15138658082
 31
0.0
  0
LINE
  5
18FB0
330
16908
100
AcDbEntity
  8
寸法
 62
     0
 48
50.0
370
    -2
100
AcDbLine
 10
5822.473137055715
 20
10652.15138658082
 30
0.0
 11
7192.473137055715
 21
10652.15138658082
 31
0.0
  0
INSERT
  5
18FB1
330
16908
100
AcDbEntity
  8
寸法
 62
     0
 48
50.0
370
    -2
100
AcDbBlockReference
  2
_DOTSMALL
 10
5822.473137055715
 20
10652.15138658082
 30
0.0
 41
100.0
 42
100.0
 43
100.0
 50
180.0
  0
INSERT
  5
18FB2
330
16908
100
AcDbEntity
  8
寸法
 62
     0
 48
50.0
370
    -2
100
AcDbBlockReference
  2
_DOTSMALL
 10
7192.473137055715
 20
10652.15138658082
 30
0.0
 41
100.0
 42
100.0
 43
100.0
  0
MTEXT
  5
18FB3
330
16908
100
AcDbEntity
  8
寸法
 62
     7
 48
50.0
100
AcDbMText
 10
6507.473137055715
 20
10752.15138658082
 30
0.0
 40
120.0
 41
0.0
 71
     5
 72
     1
  1
\A1;1370
  7
STYLE1
 73
     1
 44
1.0
1001
ACAD
1000
MTEXTBEGIN
1070
    73
1070
     1
1070
    44
1040
1.0
1070
    74
1070
     0
1000
MTEXTEND
  0
POINT
  5
18FB4
330
16908
100
AcDbEntity
  8
DEFPOINTS
 62
     0
 48
50.0
100
AcDbPoint
 10
5822.473137055715
 20
10561.81782738248
 30
0.0
  0
POINT
  5
18FB5
330
16908
100
AcDbEntity
  8
DEFPOINTS
 62
     0
 48
50.0
100
AcDbPoint
 10
7192.473137055715
 20
10187.02169339953
 30
0.0
  0
POINT
  5
18FB6
330
16908
100
AcDbEntity
  8
DEFPOINTS
 62
     0
 48
50.0
100
AcDbPoint
 10
7192.473137055715
 20
10652.15138658082
 30
0.0
  0
ENDBLK
  5
17275
330
16908
100
AcDbEntity
  8
0
 48
50.0
100
AcDbBlockEnd
  0
BLOCK
  5
17BDC
330
17BD3
100
AcDbEntity
  8
0
 48
50.0
100
AcDbBlockBegin
  2
*D19
 70
     1
 10
0.0
 20
0.0
 30
0.0
  3
*D19
  1

  0
LINE
  5
18F95
330
17BD3
100
AcDbEntity
  8
寸法
 62
     0
 48
50.0
370
    -2
100
AcDbLine
 10
4555.473137055707
 20
7563.021693399431
 30
0.0
 11
4555.473137055707
 21
6962.590922633267
 31
0.0
  0
LINE
  5
18F96
330
17BD3
100
AcDbEntity
  8
寸法
 62
     0
 48
50.0
370
    -2
100
AcDbLine
 10
5719.47313705569
 20
7022.590922633266
 30
0.0
 11
4555.473137055707
 21
7022.590922633266
 31
0.0
  0
INSERT
  5
18F97
330
17BD3
100
AcDbEntity
  8
寸法
 62
     0
 48
50.0
370
    -2
100
AcDbBlockReference
  2
_DOTSMALL
 10
5719.47313705569
 20
7022.590922633266
 30
0.0
 41
100.0
 42
100.0
 43
100.0
  0
INSERT
  5
18F98
330
17BD3
100
AcDbEntity
  8
寸法
 62
     0
 48
50.0
370
    -2
100
AcDbBlockReference
  2
_DOTSMALL
 10
4555.473137055707
 20
7022.590922633266
 30
0.0
 41
100.0
 42
100.0
 43
100.0
 50
180.0
  0
MTEXT
  5
18F99
330
17BD3
100
AcDbEntity
  8
寸法
 62
     7
 48
50.0
100
AcDbMText
 10
5137.473137055699
 20
7222.590922633266
 30
0.0
 40
120.0
 41
0.0
 71
     5
 72
     1
  1
\A1;有効開口部間口\P 1164
  7
STYLE1
 73
     1
 44
1.0
1001
ACAD
1000
MTEXTBEGIN
1070
    73
1070
     1
1070
    44
1040
1.0
1070
    74
1070
     0
1000
MTEXTEND
  0
POINT
  5
18F9A
330
17BD3
100
AcDbEntity
  8
DEFPOINTS
 62
     0
 48
50.0
100
AcDbPoint
 10
5719.47313705569
 20
7583.02169339943
 30
0.0
  0
POINT
  5
18F9B
330
17BD3
100
AcDbEntity
  8
DEFPOINTS
 62
     0
 48
50.0
100
AcDbPoint
 10
4555.473137055707
 20
7583.021693399429
 30
0.0
  0
POINT
  5
18F9C
330
17BD3
100
AcDbEntity
  8
DEFPOINTS
 62
     0
 48
50.0
100
AcDbPoint
 10
4555.473137055707
 20
7022.590922633266
 30
0.0
  0
ENDBLK
  5
17BDD
330
17BD3
100
AcDbEntity
  8
0
 48
50.0
100
AcDbBlockEnd
  0
BLOCK
  5
17BE8
330
17BDE
100
AcDbEntity
  8
0
 48
50.0
100
AcDbBlockBegin
  2
*D20
 70
     1
 10
0.0
 20
0.0
 30
0.0
  3
*D20
  1

  0
LINE
  5
18F9D
330
17BDE
100
AcDbEntity
  8
寸法
 62
     0
 48
50.0
370
    -2
100
AcDbLine
 10
4507.473137055714
 20
10207.02169339943
 30
0.0
 11
4507.473137055714
 21
10462.82991302453
 31
0.0
  0
LINE
  5
18F9E
330
17BDE
100
AcDbEntity
  8
寸法
 62
     0
 48
50.0
370
    -2
100
AcDbLine
 10
5767.473137055715
 20
10207.02169339953
 30
0.0
 11
5767.473137055715
 21
10462.82991302453
 31
0.0
  0
LINE
  5
18F9F
330
17BDE
100
AcDbEntity
  8
寸法
 62
     0
 48
50.0
370
    -2
100
AcDbLine
 10
4507.473137055714
 20
10402.82991302453
 30
0.0
 11
5767.473137055715
 21
10402.82991302453
 31
0.0
  0
INSERT
  5
18FA0
330
17BDE
100
AcDbEntity
  8
寸法
 62
     0
 48
50.0
370
    -2
100
AcDbBlockReference
  2
_DOTSMALL
 10
4507.473137055714
 20
10402.82991302453
 30
0.0
 41
100.0
 42
100.0
 43
100.0
 50
180.0
  0
INSERT
  5
18FA1
330
17BDE
100
AcDbEntity
  8
寸法
 62
     0
 48
50.0
370
    -2
100
AcDbBlockReference
  2
_DOTSMALL
 10
5767.473137055715
 20
10402.82991302453
 30
0.0
 41
100.0
 42
100.0
 43
100.0
  0
MTEXT
  5
18FA2
330
17BDE
100
AcDbEntity
  8
寸法
 62
     7
 48
50.0
100
AcDbMText
 10
5137.473137055715
 20
10502.84172404815
 30
0.0
 40
120.0
 41
0.0
 71
     5
 72
     1
  1
\A1;3X420=1260
  7
STYLE1
 73
     1
 44
1.0
1001
ACAD
1000
MTEXTBEGIN
1070
    73
1070
     1
1070
    44
1040
1.0
1070
    74
1070
     0
1000
MTEXTEND
  0
POINT
  5
18FA3
330
17BDE
100
AcDbEntity
  8
DEFPOINTS
 62
     0
 48
50.0
100
AcDbPoint
 10
4507.473137055714
 20
10187.02169339943
 30
0.0
  0
POINT
  5
18FA4
330
17BDE
100
AcDbEntity
  8
DEFPOINTS
 62
     0
 48
50.0
100
AcDbPoint
 10
5767.473137055715
 20
10187.02169339953
 30
0.0
  0
POINT
  5
18FA5
330
17BDE
100
AcDbEntity
  8
DEFPOINTS
 62
     0
 48
50.0
100
AcDbPoint
 10
5767.473137055715
 20
10402.82991302453
 30
0.0
  0
ENDBLK
  5
17BE9
330
17BDE
100
AcDbEntity
  8
0
 48
50.0
100
AcDbBlockEnd
  0
BLOCK
  5
17C02
330
17BF8
100
AcDbEntity
  8
0
 48
50.0
100
AcDbBlockBegin
  2
*D21
 70
     1
 10
0.0
 20
0.0
 30
0.0
  3
*D21
  1

  0
LINE
  5
18FA6
330
17BF8
100
AcDbEntity
  8
寸法
 62
     0
 48
50.0
370
    -2
100
AcDbLine
 10
4452.473137055679
 20
10207.0216933994
 30
0.0
 11
4452.473137055679
 21
10712.15138658082
 31
0.0
  0
LINE
  5
18FA7
330
17BF8
100
AcDbEntity
  8
寸法
 62
     0
 48
50.0
370
    -2
100
AcDbLine
 10
5822.473137055715
 20
10581.81782738248
 30
0.0
 11
5822.473137055715
 21
10712.15138658082
 31
0.0
  0
LINE
  5
18FA8
330
17BF8
100
AcDbEntity
  8
寸法
 62
     0
 48
50.0
370
    -2
100
AcDbLine
 10
4452.473137055679
 20
10652.15138658082
 30
0.0
 11
5822.473137055715
 21
10652.15138658082
 31
0.0
  0
INSERT
  5
18FA9
330
17BF8
100
AcDbEntity
  8
寸法
 62
     0
 48
50.0
370
    -2
100
AcDbBlockReference
  2
_DOTSMALL
 10
4452.473137055679
 20
10652.15138658082
 30
0.0
 41
100.0
 42
100.0
 43
100.0
 50
180.0
  0
INSERT
  5
18FAA
330
17BF8
100
AcDbEntity
  8
寸法
 62
     0
 48
50.0
370
    -2
100
AcDbBlockReference
  2
_DOTSMALL
 10
5822.473137055715
 20
10652.15138658082
 30
0.0
 41
100.0
 42
100.0
 43
100.0
  0
MTEXT
  5
18FAB
330
17BF8
100
AcDbEntity
  8
寸法
 62
     7
 48
50.0
100
AcDbMText
 10
5137.473137055696
 20
10752.15138658082
 30
0.0
 40
120.0
 41
0.0
 71
     5
 72
     1
  1
\A1;1370
  7
STYLE1
 73
     1
 44
1.0
1001
ACAD
1000
MTEXTBEGIN
1070
    73
1070
     1
1070
    44
1040
1.0
1070
    74
1070
     0
1000
MTEXTEND
  0
POINT
  5
18FAC
330
17BF8
100
AcDbEntity
  8
DEFPOINTS
 62
     0
 48
50.0
100
AcDbPoint
 10
4452.473137055679
 20
10187.0216933994
 30
0.0
  0
POINT
  5
18FAD
330
17BF8
100
AcDbEntity
  8
DEFPOINTS
 62
     0
 48
50.0
100
AcDbPoint
 10
5822.473137055715
 20
10561.81782738248
 30
0.0
  0
POINT
  5
18FAE
330
17BF8
100
AcDbEntity
  8
DEFPOINTS
 62
     0
 48
50.0
100
AcDbPoint
 10
5822.473137055715
 20
10652.15138658082
 30
0.0
  0
ENDBLK
  5
17C03
330
17BF8
100
AcDbEntity
  8
0
 48
50.0
100
AcDbBlockEnd
  0
BLOCK
  5
1961E
330
19613
100
AcDbEntity
  8
0
 48
50.0
100
AcDbBlockBegin
  2
*D22
 70
     1
 10
0.0
 20
0.0
 30
0.0
  3
*D22
  1

  0
LINE
  5
19A5D
330
19613
100
AcDbEntity
  8
寸法
 62
     0
 48
50.0
370
    -2
100
AcDbLine
 10
9759.054196736432
 20
4912.229305782923
 30
0.0
 11
9143.119757631152
 21
4929.943456057253
 31
0.0
  0
LINE
  5
19A5E
330
19613
100
AcDbEntity
  8
寸法
 62
     0
 48
50.0
370
    -2
100
AcDbLine
 10
9755.000741179804
 20
4771.287582017211
 30
0.0
 11
9139.066302074523
 21
4789.001732291541
 31
0.0
  0
LINE
  5
19A5F
330
19613
100
AcDbEntity
  8
寸法
 62
     0
 48
50.0
370
    -2
100
AcDbLine
 10
9199.041503676953
 20
4787.276857586594
 30
0.0
 11
9203.094959233581
 21
4928.218581352306
 31
0.0
  0
LINE
  5
19A60
330
19613
100
AcDbEntity
  8
寸法
 62
     0
 48
50.0
370
    -2
100
AcDbLine
 10
9203.094959233581
 20
4928.218581352306
 30
0.0
 11
9213.444207463266
 21
5288.069790966892
 31
0.0
  0
INSERT
  5
19A61
330
19613
100
AcDbEntity
  8
寸法
 62
     0
 48
50.0
370
    -2
100
AcDbBlockReference
  2
_DOTSMALL
 10
9199.041503676953
 20
4787.276857586594
 30
0.0
 41
100.0
 42
100.0
 43
100.0
 50
268.3526390256377
  0
INSERT
  5
19A62
330
19613
100
AcDbEntity
  8
寸法
 62
     0
 48
50.0
370
    -2
100
AcDbBlockReference
  2
_DOTSMALL
 10
9203.094959233581
 20
4928.218581352306
 30
0.0
 41
100.0
 42
100.0
 43
100.0
 50
88.35263902563776
  0
MTEXT
  5
19A63
330
19613
100
AcDbEntity
  8
寸法
 62
     7
 48
50.0
100
AcDbMText
 10
9109.748309598495
 20
5160.998312003204
 30
0.0
 40
120.0
 41
0.0
 71
     5
 72
     1
  1
\A1;141
  7
STYLE1
 11
0.0287479117491245
 21
0.9995866933738486
 31
0.0
 73
     1
 44
1.0
1001
ACAD
1000
MTEXTBEGIN
1070
    73
1070
     1
1070
    44
1040
1.0
1070
    74
1070
     0
1000
MTEXTEND
  0
POINT
  5
19A64
330
19613
100
AcDbEntity
  8
DEFPOINTS
 62
     0
 48
50.0
100
AcDbPoint
 10
9779.045930603908
 20
4911.654347547941
 30
0.0
  0
POINT
  5
19A65
330
19613
100
AcDbEntity
  8
DEFPOINTS
 62
     0
 48
50.0
100
AcDbPoint
 10
9774.99247504728
 20
4770.712623782229
 30
0.0
  0
POINT
  5
19A66
330
19613
100
AcDbEntity
  8
DEFPOINTS
 62
     0
 48
50.0
100
AcDbPoint
 10
9199.041503676953
 20
4787.276857586594
 30
0.0
  0
ENDBLK
  5
1961F
330
19613
100
AcDbEntity
  8
0
 48
50.0
100
AcDbBlockEnd
  0
BLOCK
  5
1962B
330
19620
100
AcDbEntity
  8
0
 48
50.0
100
AcDbBlockBegin
  2
*D23
 70
     1
 10
0.0
 20
0.0
 30
0.0
  3
*D23
  1

  0
LINE
  5
19A53
330
19620
100
AcDbEntity
  8
寸法
 62
     0
 48
50.0
370
    -2
100
AcDbLine
 10
12449.64991044533
 20
4879.742278324916
 30
0.0
 11
12449.64991044533
 21
5371.589052292568
 31
0.0
  0
LINE
  5
19A54
330
19620
100
AcDbEntity
  8
寸法
 62
     0
 48
50.0
370
    -2
100
AcDbLine
 10
12529.64991044533
 20
4877.931598713264
 30
0.0
 11
12529.64991044533
 21
5371.589052292568
 31
0.0
  0
LINE
  5
19A55
330
19620
100
AcDbEntity
  8
寸法
 62
     0
 48
50.0
370
    -2
100
AcDbLine
 10
12449.64991044533
 20
5311.589052292568
 30
0.0
 11
12529.64991044533
 21
5311.589052292568
 31
0.0
  0
LINE
  5
19A56
330
19620
100
AcDbEntity
  8
寸法
 62
     0
 48
50.0
370
    -2
100
AcDbLine
 10
12529.64991044533
 20
5311.589052292568
 30
0.0
 11
12841.74439863431
 21
5311.589052292568
 31
0.0
  0
INSERT
  5
19A57
330
19620
100
AcDbEntity
  8
寸法
 62
     0
 48
50.0
370
    -2
100
AcDbBlockReference
  2
_DOTSMALL
 10
12449.64991044533
 20
5311.589052292568
 30
0.0
 41
100.0
 42
100.0
 43
100.0
 50
180.0
  0
INSERT
  5
19A58
330
19620
100
AcDbEntity
  8
寸法
 62
     0
 48
50.0
370
    -2
100
AcDbBlockReference
  2
_DOTSMALL
 10
12529.64991044533
 20
5311.589052292568
 30
0.0
 41
100.0
 42
100.0
 43
100.0
  0
MTEXT
  5
19A59
330
19620
100
AcDbEntity
  8
寸法
 62
     7
 48
50.0
100
AcDbMText
 10
12735.69715453982
 20
5411.589052292568
 30
0.0
 40
120.0
 41
0.0
 71
     5
 72
     1
  1
\A1;80
  7
STYLE1
 73
     1
 44
1.0
1001
ACAD
1000
MTEXTBEGIN
1070
    73
1070
     1
1070
    44
1040
1.0
1070
    74
1070
     0
1000
MTEXTEND
  0
POINT
  5
19A5A
330
19620
100
AcDbEntity
  8
DEFPOINTS
 62
     0
 48
50.0
100
AcDbPoint
 10
12449.64991044533
 20
4859.742278324915
 30
0.0
  0
POINT
  5
19A5B
330
19620
100
AcDbEntity
  8
DEFPOINTS
 62
     0
 48
50.0
100
AcDbPoint
 10
12529.64991044533
 20
4857.931598713264
 30
0.0
  0
POINT
  5
19A5C
330
19620
100
AcDbEntity
  8
DEFPOINTS
 62
     0
 48
50.0
100
AcDbPoint
 10
12529.64991044533
 20
5311.589052292568
 30
0.0
  0
ENDBLK
  5
1962C
330
19620
100
AcDbEntity
  8
0
 48
50.0
100
AcDbBlockEnd
  0
BLOCK
  5
19637
330
1962D
100
AcDbEntity
  8
0
 48
50.0
100
AcDbBlockBegin
  2
*D24
 70
     1
 10
0.0
 20
0.0
 30
0.0
  3
*D24
  1

  0
LINE
  5
1A38E
330
1962D
100
AcDbEntity
  8
寸法
 62
     0
 48
50.0
370
    -2
100
AcDbLine
 10
12529.64991044533
 20
4877.931598713264
 30
0.0
 11
12529.64991044533
 21
5591.799739024183
 31
0.0
  0
LINE
  5
1A38F
330
1962D
100
AcDbEntity
  8
寸法
 62
     0
 48
50.0
370
    -2
100
AcDbLine
 10
9759.649910445329
 20
4932.931598713268
 30
0.0
 11
9759.649910445329
 21
5591.799739024183
 31
0.0
  0
LINE
  5
1A390
330
1962D
100
AcDbEntity
  8
寸法
 62
     0
 48
50.0
370
    -2
100
AcDbLine
 10
12529.64991044533
 20
5531.799739024183
 30
0.0
 11
9759.649910445329
 21
5531.799739024183
 31
0.0
  0
INSERT
  5
1A391
330
1962D
100
AcDbEntity
  8
寸法
 62
     0
 48
50.0
370
    -2
100
AcDbBlockReference
  2
_DOTSMALL
 10
12529.64991044533
 20
5531.799739024183
 30
0.0
 41
100.0
 42
100.0
 43
100.0
  0
INSERT
  5
1A392
330
1962D
100
AcDbEntity
  8
寸法
 62
     0
 48
50.0
370
    -2
100
AcDbBlockReference
  2
_DOTSMALL
 10
9759.649910445329
 20
5531.799739024183
 30
0.0
 41
100.0
 42
100.0
 43
100.0
 50
180.0
  0
MTEXT
  5
1A393
330
1962D
100
AcDbEntity
  8
寸法
 62
     7
 48
50.0
100
AcDbMText
 10
11144.64991044533
 20
5631.811550047804
 30
0.0
 40
120.0
 41
0.0
 71
     5
 72
     1
  1
\A1;2770
  7
STYLE1
 73
     1
 44
1.0
1001
ACAD
1000
MTEXTBEGIN
1070
    73
1070
     1
1070
    44
1040
1.0
1070
    74
1070
     0
1000
MTEXTEND
  0
POINT
  5
1A394
330
1962D
100
AcDbEntity
  8
DEFPOINTS
 62
     0
 48
50.0
100
AcDbPoint
 10
12529.64991044533
 20
4857.931598713264
 30
0.0
  0
POINT
  5
1A395
330
1962D
100
AcDbEntity
  8
DEFPOINTS
 62
     0
 48
50.0
100
AcDbPoint
 10
9759.649910445329
 20
4912.931598713267
 30
0.0
  0
POINT
  5
1A396
330
1962D
100
AcDbEntity
  8
DEFPOINTS
 62
     0
 48
50.0
100
AcDbPoint
 10
9759.649910445329
 20
5531.799739024183
 30
0.0
  0
ENDBLK
  5
19638
330
1962D
100
AcDbEntity
  8
0
 48
50.0
100
AcDbBlockEnd
  0
BLOCK
  5
19645
330
19639
100
AcDbEntity
  8
0
 48
50.0
100
AcDbBlockBegin
  2
*D25
 70
     1
 10
0.0
 20
0.0
 30
0.0
  3
*D25
  1

  0
LINE
  5
19A3F
330
19639
100
AcDbEntity
  8
寸法
 62
     0
 48
50.0
370
    -2
100
AcDbLine
 10
9819.649910445329
 20
4928.933216836237
 30
0.0
 11
9819.649910445329
 21
5371.589052292565
 31
0.0
  0
LINE
  5
19A40
330
19639
100
AcDbEntity
  8
寸法
 62
     0
 48
50.0
370
    -2
100
AcDbLine
 10
9759.649910445329
 20
4932.931598713268
 30
0.0
 11
9759.649910445329
 21
5371.589052292565
 31
0.0
  0
LINE
  5
19A41
330
19639
100
AcDbEntity
  8
寸法
 62
     0
 48
50.0
370
    -2
100
AcDbLine
 10
9819.649910445329
 20
5311.589052292564
 30
0.0
 11
9919.649910445329
 21
5311.589052292564
 31
0.0
  0
LINE
  5
19A42
330
19639
100
AcDbEntity
  8
寸法
 62
     0
 48
50.0
370
    -2
100
AcDbLine
 10
9759.649910445329
 20
5311.589052292564
 30
0.0
 11
9340.374319894149
 21
5311.589052292564
 31
0.0
  0
LINE
  5
19A43
330
19639
100
AcDbEntity
  8
寸法
 62
     0
 48
50.0
370
    -2
100
AcDbLine
 10
9819.649910445329
 20
5311.589052292564
 30
0.0
 11
9759.649910445329
 21
5311.589052292564
 31
0.0
  0
INSERT
  5
19A44
330
19639
100
AcDbEntity
  8
寸法
 62
     0
 48
50.0
370
    -2
100
AcDbBlockReference
  2
_DOTSMALL
 10
9819.649910445329
 20
5311.589052292564
 30
0.0
 41
100.0
 42
100.0
 43
100.0
 50
180.0
  0
INSERT
  5
19A45
330
19639
100
AcDbEntity
  8
寸法
 62
     0
 48
50.0
370
    -2
100
AcDbBlockReference
  2
_DOTSMALL
 10
9759.649910445329
 20
5311.589052292564
 30
0.0
 41
100.0
 42
100.0
 43
100.0
  0
MTEXT
  5
19A46
330
19639
100
AcDbEntity
  8
寸法
 62
     7
 48
50.0
100
AcDbMText
 10
9450.012115169739
 20
5411.589052292565
 30
0.0
 40
120.0
 41
0.0
 71
     5
 72
     1
  1
\A1;60
  7
STYLE1
 73
     1
 44
1.0
1001
ACAD
1000
MTEXTBEGIN
1070
    73
1070
     1
1070
    44
1040
1.0
1070
    74
1070
     0
1000
MTEXTEND
  0
POINT
  5
19A47
330
19639
100
AcDbEntity
  8
DEFPOINTS
 62
     0
 48
50.0
100
AcDbPoint
 10
9819.649910445329
 20
4908.933216836238
 30
0.0
  0
POINT
  5
19A48
330
19639
100
AcDbEntity
  8
DEFPOINTS
 62
     0
 48
50.0
100
AcDbPoint
 10
9759.649910445329
 20
4912.931598713267
 30
0.0
  0
POINT
  5
19A49
330
19639
100
AcDbEntity
  8
DEFPOINTS
 62
     0
 48
50.0
100
AcDbPoint
 10
9759.649910445329
 20
5311.589052292564
 30
0.0
  0
ENDBLK
  5
19646
330
19639
100
AcDbEntity
  8
0
 48
50.0
100
AcDbBlockEnd
  0
BLOCK
  5
19651
330
19647
100
AcDbEntity
  8
0
 48
50.0
100
AcDbBlockBegin
  2
*D26
 70
     1
 10
0.0
 20
0.0
 30
0.0
  3
*D26
  1

  0
LINE
  5
1A385
330
19647
100
AcDbEntity
  8
寸法
 62
     0
 48
50.0
370
    -2
100
AcDbLine
 10
12449.64991044533
 20
4879.742278324916
 30
0.0
 11
12449.64991044533
 21
5371.589052292568
 31
0.0
  0
LINE
  5
1A386
330
19647
100
AcDbEntity
  8
寸法
 62
     0
 48
50.0
370
    -2
100
AcDbLine
 10
9819.649910445329
 20
4928.933216836237
 30
0.0
 11
9819.649910445329
 21
5371.589052292568
 31
0.0
  0
LINE
  5
1A387
330
19647
100
AcDbEntity
  8
寸法
 62
     0
 48
50.0
370
    -2
100
AcDbLine
 10
12449.64991044533
 20
5311.589052292568
 30
0.0
 11
9819.649910445329
 21
5311.589052292568
 31
0.0
  0
INSERT
  5
1A388
330
19647
100
AcDbEntity
  8
寸法
 62
     0
 48
50.0
370
    -2
100
AcDbBlockReference
  2
_DOTSMALL
 10
12449.64991044533
 20
5311.589052292568
 30
0.0
 41
100.0
 42
100.0
 43
100.0
  0
INSERT
  5
1A389
330
19647
100
AcDbEntity
  8
寸法
 62
     0
 48
50.0
370
    -2
100
AcDbBlockReference
  2
_DOTSMALL
 10
9819.649910445329
 20
5311.589052292568
 30
0.0
 41
100.0
 42
100.0
 43
100.0
 50
180.0
  0
MTEXT
  5
1A38A
330
19647
100
AcDbEntity
  8
寸法
 62
     7
 48
50.0
100
AcDbMText
 10
11134.64991044533
 20
5411.60086331619
 30
0.0
 40
120.0
 41
0.0
 71
     5
 72
     1
  1
\A1;柱外寸法2630
  7
STYLE1
 73
     1
 44
1.0
1001
ACAD
1000
MTEXTBEGIN
1070
    73
1070
     1
1070
    44
1040
1.0
1070
    74
1070
     0
1000
MTEXTEND
  0
POINT
  5
1A38B
330
19647
100
AcDbEntity
  8
DEFPOINTS
 62
     0
 48
50.0
100
AcDbPoint
 10
12449.64991044533
 20
4859.742278324915
 30
0.0
  0
POINT
  5
1A38C
330
19647
100
AcDbEntity
  8
DEFPOINTS
 62
     0
 48
50.0
100
AcDbPoint
 10
9819.649910445329
 20
4908.933216836238
 30
0.0
  0
POINT
  5
1A38D
330
19647
100
AcDbEntity
  8
DEFPOINTS
 62
     0
 48
50.0
100
AcDbPoint
 10
9819.649910445329
 20
5311.589052292568
 30
0.0
  0
ENDBLK
  5
19652
330
19647
100
AcDbEntity
  8
0
 48
50.0
100
AcDbBlockEnd
  0
BLOCK
  5
1965F
330
19653
100
AcDbEntity
  8
0
 48
50.0
100
AcDbBlockBegin
  2
*D27
 70
     1
 10
0.0
 20
0.0
 30
0.0
  3
*D27
  1

  0
LINE
  5
19A2B
330
19653
100
AcDbEntity
  8
寸法
 62
     0
 48
50.0
370
    -2
100
AcDbLine
 10
9799.64991044533
 20
2587.931598713261
 30
0.0
 11
8915.899781262069
 21
2587.931598713262
 31
0.0
  0
LINE
  5
19A2C
330
19653
100
AcDbEntity
  8
寸法
 62
     0
 48
50.0
370
    -2
100
AcDbLine
 10
9744.64991044533
 20
2537.931598713262
 30
0.0
 11
8915.899781262069
 21
2537.931598713262
 31
0.0
  0
LINE
  5
19A2D
330
19653
100
AcDbEntity
  8
寸法
 62
     0
 48
50.0
370
    -2
100
AcDbLine
 10
8975.89978126207
 20
2587.931598713262
 30
0.0
 11
8975.89978126207
 21
2687.931598713262
 31
0.0
  0
LINE
  5
19A2E
330
19653
100
AcDbEntity
  8
寸法
 62
     0
 48
50.0
370
    -2
100
AcDbLine
 10
8975.89978126207
 20
2537.931598713262
 30
0.0
 11
8975.89978126207
 21
2125.837110524281
 31
0.0
  0
LINE
  5
19A2F
330
19653
100
AcDbEntity
  8
寸法
 62
     0
 48
50.0
370
    -2
100
AcDbLine
 10
8975.89978126207
 20
2587.931598713262
 30
0.0
 11
8975.89978126207
 21
2537.931598713262
 31
0.0
  0
INSERT
  5
19A30
330
19653
100
AcDbEntity
  8
寸法
 62
     0
 48
50.0
370
    -2
100
AcDbBlockReference
  2
_DOTSMALL
 10
8975.89978126207
 20
2587.931598713262
 30
0.0
 41
100.0
 42
100.0
 43
100.0
 50
270.0
  0
INSERT
  5
19A31
330
19653
100
AcDbEntity
  8
寸法
 62
     0
 48
50.0
370
    -2
100
AcDbBlockReference
  2
_DOTSMALL
 10
8975.89978126207
 20
2537.931598713262
 30
0.0
 41
100.0
 42
100.0
 43
100.0
 50
90.0
  0
MTEXT
  5
19A32
330
19653
100
AcDbEntity
  8
寸法
 62
     7
 48
50.0
100
AcDbMText
 10
8875.899781262068
 20
2231.884354618771
 30
0.0
 40
120.0
 41
0.0
 71
     5
 72
     1
  1
\A1;50
  7
STYLE1
 11
0.0000000000000001
 21
1.0
 31
0.0
 73
     1
 44
1.0
1001
ACAD
1000
MTEXTBEGIN
1070
    73
1070
     1
1070
    44
1040
1.0
1070
    74
1070
     0
1000
MTEXTEND
  0
POINT
  5
19A33
330
19653
100
AcDbEntity
  8
DEFPOINTS
 62
     0
 48
50.0
100
AcDbPoint
 10
9819.649910445329
 20
2587.931598713261
 30
0.0
  0
POINT
  5
19A34
330
19653
100
AcDbEntity
  8
DEFPOINTS
 62
     0
 48
50.0
100
AcDbPoint
 10
9764.649910445328
 20
2537.931598713262
 30
0.0
  0
POINT
  5
19A35
330
19653
100
AcDbEntity
  8
DEFPOINTS
 62
     0
 48
50.0
100
AcDbPoint
 10
8975.89978126207
 20
2537.931598713262
 30
0.0
  0
ENDBLK
  5
19660
330
19653
100
AcDbEntity
  8
0
 48
50.0
100
AcDbBlockEnd
  0
BLOCK
  5
1966B
330
19661
100
AcDbEntity
  8
0
 48
50.0
100
AcDbBlockBegin
  2
*D28
 70
     1
 10
0.0
 20
0.0
 30
0.0
  3
*D28
  1

  0
LINE
  5
19A22
330
19661
100
AcDbEntity
  8
寸法
 62
     0
 48
50.0
370
    -2
100
AcDbLine
 10
12469.64991044533
 20
2537.931598713263
 30
0.0
 11
13214.57706841746
 21
2537.931598713263
 31
0.0
  0
LINE
  5
19A23
330
19661
100
AcDbEntity
  8
寸法
 62
     0
 48
50.0
370
    -2
100
AcDbLine
 10
12549.64991044533
 20
4857.931598713264
 30
0.0
 11
13214.57706841746
 21
4857.931598713264
 31
0.0
  0
LINE
  5
19A24
330
19661
100
AcDbEntity
  8
寸法
 62
     0
 48
50.0
370
    -2
100
AcDbLine
 10
13154.57706841746
 20
2537.931598713263
 30
0.0
 11
13154.57706841746
 21
4857.931598713264
 31
0.0
  0
INSERT
  5
19A25
330
19661
100
AcDbEntity
  8
寸法
 62
     0
 48
50.0
370
    -2
100
AcDbBlockReference
  2
_DOTSMALL
 10
13154.57706841746
 20
2537.931598713263
 30
0.0
 41
100.0
 42
100.0
 43
100.0
 50
270.0
  0
INSERT
  5
19A26
330
19661
100
AcDbEntity
  8
寸法
 62
     0
 48
50.0
370
    -2
100
AcDbBlockReference
  2
_DOTSMALL
 10
13154.57706841746
 20
4857.931598713264
 30
0.0
 41
100.0
 42
100.0
 43
100.0
 50
90.0
  0
MTEXT
  5
19A27
330
19661
100
AcDbEntity
  8
寸法
 62
     7
 48
50.0
100
AcDbMText
 10
13054.56525739383
 20
3697.931598713266
 30
0.0
 40
120.0
 41
0.0
 71
     5
 72
     1
  1
\A1;2320
  7
STYLE1
 11
0.0000000000000001
 21
1.0
 31
0.0
 73
     1
 44
1.0
1001
ACAD
1000
MTEXTBEGIN
1070
    73
1070
     1
1070
    44
1040
1.0
1070
    74
1070
     0
1000
MTEXTEND
  0
POINT
  5
19A28
330
19661
100
AcDbEntity
  8
DEFPOINTS
 62
     0
 48
50.0
100
AcDbPoint
 10
12449.64991044533
 20
2537.931598713263
 30
0.0
  0
POINT
  5
19A29
330
19661
100
AcDbEntity
  8
DEFPOINTS
 62
     0
 48
50.0
100
AcDbPoint
 10
12529.64991044533
 20
4857.931598713264
 30
0.0
  0
POINT
  5
19A2A
330
19661
100
AcDbEntity
  8
DEFPOINTS
 62
     0
 48
50.0
100
AcDbPoint
 10
13154.57706841746
 20
4857.931598713264
 30
0.0
  0
ENDBLK
  5
1966C
330
19661
100
AcDbEntity
  8
0
 48
50.0
100
AcDbBlockEnd
  0
BLOCK
  5
19677
330
1966D
100
AcDbEntity
  8
0
 48
50.0
100
AcDbBlockBegin
  2
*D29
 70
     1
 10
0.0
 20
0.0
 30
0.0
  3
*D29
  1

  0
LINE
  5
19A19
330
1966D
100
AcDbEntity
  8
寸法
 62
     0
 48
50.0
370
    -2
100
AcDbLine
 10
9799.64991044533
 20
2537.931598713256
 30
0.0
 11
8615.899781262067
 21
2537.931598713257
 31
0.0
  0
LINE
  5
19A1A
330
1966D
100
AcDbEntity
  8
寸法
 62
     0
 48
50.0
370
    -2
100
AcDbLine
 10
9739.649910445329
 20
4912.93159871326
 30
0.0
 11
8615.89978126207
 21
4912.93159871326
 31
0.0
  0
LINE
  5
19A1B
330
1966D
100
AcDbEntity
  8
寸法
 62
     0
 48
50.0
370
    -2
100
AcDbLine
 10
8675.899781262067
 20
2537.931598713257
 30
0.0
 11
8675.899781262069
 21
4912.93159871326
 31
0.0
  0
INSERT
  5
19A1C
330
1966D
100
AcDbEntity
  8
寸法
 62
     0
 48
50.0
370
    -2
100
AcDbBlockReference
  2
_DOTSMALL
 10
8675.899781262067
 20
2537.931598713257
 30
0.0
 41
100.0
 42
100.0
 43
100.0
 50
270.0
  0
INSERT
  5
19A1D
330
1966D
100
AcDbEntity
  8
寸法
 62
     0
 48
50.0
370
    -2
100
AcDbBlockReference
  2
_DOTSMALL
 10
8675.899781262069
 20
4912.93159871326
 30
0.0
 41
100.0
 42
100.0
 43
100.0
 50
90.0
  0
MTEXT
  5
19A1E
330
1966D
100
AcDbEntity
  8
寸法
 62
     7
 48
50.0
100
AcDbMText
 10
8575.887970238445
 20
3725.43159871326
 30
0.0
 40
120.0
 41
0.0
 71
     5
 72
     1
  1
\A1;2375
  7
STYLE1
 11
0.0000000000000001
 21
1.0
 31
0.0
 73
     1
 44
1.0
1001
ACAD
1000
MTEXTBEGIN
1070
    73
1070
     1
1070
    44
1040
1.0
1070
    74
1070
     0
1000
MTEXTEND
  0
POINT
  5
19A1F
330
1966D
100
AcDbEntity
  8
DEFPOINTS
 62
     0
 48
50.0
100
AcDbPoint
 10
9819.649910445329
 20
2537.931598713256
 30
0.0
  0
POINT
  5
19A20
330
1966D
100
AcDbEntity
  8
DEFPOINTS
 62
     0
 48
50.0
100
AcDbPoint
 10
9759.649910445329
 20
4912.93159871326
 30
0.0
  0
POINT
  5
19A21
330
1966D
100
AcDbEntity
  8
DEFPOINTS
 62
     0
 48
50.0
100
AcDbPoint
 10
8675.899781262069
 20
4912.93159871326
 30
0.0
  0
ENDBLK
  5
19678
330
1966D
100
AcDbEntity
  8
0
 48
50.0
100
AcDbBlockEnd
  0
BLOCK
  5
19683
330
19679
100
AcDbEntity
  8
0
 48
50.0
100
AcDbBlockBegin
  2
*D30
 70
     1
 10
0.0
 20
0.0
 30
0.0
  3
*D30
  1

  0
LINE
  5
19A10
330
19679
100
AcDbEntity
  8
寸法
 62
     0
 48
50.0
370
    -2
100
AcDbLine
 10
9799.64991044533
 20
4677.931598713256
 30
0.0
 11
8915.899781262071
 21
4677.931598713256
 31
0.0
  0
LINE
  5
19A11
330
19679
100
AcDbEntity
  8
寸法
 62
     0
 48
50.0
370
    -2
100
AcDbLine
 10
9799.64991044533
 20
2587.931598713256
 30
0.0
 11
8915.899781262069
 21
2587.931598713256
 31
0.0
  0
LINE
  5
19A12
330
19679
100
AcDbEntity
  8
寸法
 62
     0
 48
50.0
370
    -2
100
AcDbLine
 10
8975.89978126207
 20
4677.931598713256
 30
0.0
 11
8975.89978126207
 21
2587.931598713256
 31
0.0
  0
INSERT
  5
19A13
330
19679
100
AcDbEntity
  8
寸法
 62
     0
 48
50.0
370
    -2
100
AcDbBlockReference
  2
_DOTSMALL
 10
8975.89978126207
 20
4677.931598713256
 30
0.0
 41
100.0
 42
100.0
 43
100.0
 50
90.0
  0
INSERT
  5
19A14
330
19679
100
AcDbEntity
  8
寸法
 62
     0
 48
50.0
370
    -2
100
AcDbBlockReference
  2
_DOTSMALL
 10
8975.89978126207
 20
2587.931598713256
 30
0.0
 41
100.0
 42
100.0
 43
100.0
 50
270.0
  0
MTEXT
  5
19A15
330
19679
100
AcDbEntity
  8
寸法
 62
     7
 48
50.0
100
AcDbMText
 10
8875.887970238448
 20
3632.931598713258
 30
0.0
 40
120.0
 41
0.0
 71
     5
 72
     1
  1
\A1;2090
  7
STYLE1
 11
0.0000000000000001
 21
1.0
 31
0.0
 73
     1
 44
1.0
1001
ACAD
1000
MTEXTBEGIN
1070
    73
1070
     1
1070
    44
1040
1.0
1070
    74
1070
     0
1000
MTEXTEND
  0
POINT
  5
19A16
330
19679
100
AcDbEntity
  8
DEFPOINTS
 62
     0
 48
50.0
100
AcDbPoint
 10
9819.649910445329
 20
4677.931598713256
 30
0.0
  0
POINT
  5
19A17
330
19679
100
AcDbEntity
  8
DEFPOINTS
 62
     0
 48
50.0
100
AcDbPoint
 10
9819.649910445329
 20
2587.931598713256
 30
0.0
  0
POINT
  5
19A18
330
19679
100
AcDbEntity
  8
DEFPOINTS
 62
     0
 48
50.0
100
AcDbPoint
 10
8975.89978126207
 20
2587.931598713256
 30
0.0
  0
ENDBLK
  5
19684
330
19679
100
AcDbEntity
  8
0
 48
50.0
100
AcDbBlockEnd
  0
BLOCK
  5
19E3D
330
19E33
100
AcDbEntity
  8
0
 48
50.0
100
AcDbBlockBegin
  2
*D31
 70
     1
 10
0.0
 20
0.0
 30
0.0
  3
*D31
  1

  0
LINE
  5
1A0B0
330
19E33
100
AcDbEntity
  8
寸法
 62
     0
 48
50.0
370
    -2
100
AcDbLine
 10
4402.473137055679
 20
4932.931598713267
 30
0.0
 11
4402.473137055679
 21
5578.566791659262
 31
0.0
  0
LINE
  5
1A0B1
330
19E33
100
AcDbEntity
  8
寸法
 62
     0
 48
50.0
370
    -2
100
AcDbLine
 10
7242.473137055677
 20
4932.931598713265
 30
0.0
 11
7242.473137055677
 21
5578.566791659262
 31
0.0
  0
LINE
  5
1A0B2
330
19E33
100
AcDbEntity
  8
寸法
 62
     0
 48
50.0
370
    -2
100
AcDbLine
 10
4402.473137055679
 20
5518.566791659261
 30
0.0
 11
7242.473137055677
 21
5518.566791659261
 31
0.0
  0
INSERT
  5
1A0B3
330
19E33
100
AcDbEntity
  8
寸法
 62
     0
 48
50.0
370
    -2
100
AcDbBlockReference
  2
_DOTSMALL
 10
4402.473137055679
 20
5518.566791659261
 30
0.0
 41
100.0
 42
100.0
 43
100.0
 50
180.0
  0
INSERT
  5
1A0B4
330
19E33
100
AcDbEntity
  8
寸法
 62
     0
 48
50.0
370
    -2
100
AcDbBlockReference
  2
_DOTSMALL
 10
7242.473137055677
 20
5518.566791659261
 30
0.0
 41
100.0
 42
100.0
 43
100.0
  0
MTEXT
  5
1A0B5
330
19E33
100
AcDbEntity
  8
寸法
 62
     7
 48
50.0
100
AcDbMText
 10
5822.473137055678
 20
5618.578602682883
 30
0.0
 40
120.0
 41
0.0
 71
     5
 72
     1
  1
\A1;2840
  7
STYLE1
 73
     1
 44
1.0
1001
ACAD
1000
MTEXTBEGIN
1070
    73
1070
     1
1070
    44
1040
1.0
1070
    74
1070
     0
1000
MTEXTEND
  0
POINT
  5
1A0B6
330
19E33
100
AcDbEntity
  8
DEFPOINTS
 62
     0
 48
50.0
100
AcDbPoint
 10
4402.473137055679
 20
4912.931598713267
 30
0.0
  0
POINT
  5
1A0B7
330
19E33
100
AcDbEntity
  8
DEFPOINTS
 62
     0
 48
50.0
100
AcDbPoint
 10
7242.473137055677
 20
4912.931598713265
 30
0.0
  0
POINT
  5
1A0B8
330
19E33
100
AcDbEntity
  8
DEFPOINTS
 62
     0
 48
50.0
100
AcDbPoint
 10
7242.473137055677
 20
5518.566791659261
 30
0.0
  0
ENDBLK
  5
19E3E
330
19E33
100
AcDbEntity
  8
0
 48
50.0
100
AcDbBlockEnd
  0
BLOCK
  5
19E4B
330
19E3F
100
AcDbEntity
  8
0
 48
50.0
100
AcDbBlockBegin
  2
*D32
 70
     1
 10
0.0
 20
0.0
 30
0.0
  3
*D32
  1

  0
LINE
  5
1A0A5
330
19E3F
100
AcDbEntity
  8
寸法
 62
     0
 48
50.0
370
    -2
100
AcDbLine
 10
7242.473137055677
 20
4932.931598713265
 30
0.0
 11
7242.473137055677
 21
5378.657870445172
 31
0.0
  0
LINE
  5
1A0A6
330
19E3F
100
AcDbEntity
  8
寸法
 62
     0
 48
50.0
370
    -2
100
AcDbLine
 10
7192.47313705568
 20
4932.931598713268
 30
0.0
 11
7192.47313705568
 21
5378.657870445172
 31
0.0
  0
LINE
  5
1A0A7
330
19E3F
100
AcDbEntity
  8
寸法
 62
     0
 48
50.0
370
    -2
100
AcDbLine
 10
7192.47313705568
 20
5318.657870445172
 30
0.0
 11
7092.47313705568
 21
5318.657870445172
 31
0.0
  0
LINE
  5
1A0A8
330
19E3F
100
AcDbEntity
  8
寸法
 62
     0
 48
50.0
370
    -2
100
AcDbLine
 10
7242.473137055677
 20
5318.657870445172
 30
0.0
 11
7662.005662524404
 21
5318.657870445172
 31
0.0
  0
LINE
  5
1A0A9
330
19E3F
100
AcDbEntity
  8
寸法
 62
     0
 48
50.0
370
    -2
100
AcDbLine
 10
7192.47313705568
 20
5318.657870445172
 30
0.0
 11
7242.473137055677
 21
5318.657870445172
 31
0.0
  0
INSERT
  5
1A0AA
330
19E3F
100
AcDbEntity
  8
寸法
 62
     0
 48
50.0
370
    -2
100
AcDbBlockReference
  2
_DOTSMALL
 10
7192.47313705568
 20
5318.657870445172
 30
0.0
 41
100.0
 42
100.0
 43
100.0
  0
INSERT
  5
1A0AB
330
19E3F
100
AcDbEntity
  8
寸法
 62
     0
 48
50.0
370
    -2
100
AcDbBlockReference
  2
_DOTSMALL
 10
7242.473137055677
 20
5318.657870445172
 30
0.0
 41
100.0
 42
100.0
 43
100.0
 50
180.0
  0
MTEXT
  5
1A0AC
330
19E3F
100
AcDbEntity
  8
寸法
 62
     7
 48
50.0
100
AcDbMText
 10
7555.958418429916
 20
5418.657870445173
 30
0.0
 40
120.0
 41
0.0
 71
     5
 72
     1
  1
\A1;50
  7
STYLE1
 73
     1
 44
1.0
1001
ACAD
1000
MTEXTBEGIN
1070
    73
1070
     1
1070
    44
1040
1.0
1070
    74
1070
     0
1000
MTEXTEND
  0
POINT
  5
1A0AD
330
19E3F
100
AcDbEntity
  8
DEFPOINTS
 62
     0
 48
50.0
100
AcDbPoint
 10
7242.473137055677
 20
4912.931598713265
 30
0.0
  0
POINT
  5
1A0AE
330
19E3F
100
AcDbEntity
  8
DEFPOINTS
 62
     0
 48
50.0
100
AcDbPoint
 10
7192.47313705568
 20
4912.931598713267
 30
0.0
  0
POINT
  5
1A0AF
330
19E3F
100
AcDbEntity
  8
DEFPOINTS
 62
     0
 48
50.0
100
AcDbPoint
 10
7192.47313705568
 20
5318.657870445172
 30
0.0
  0
ENDBLK
  5
19E4C
330
19E3F
100
AcDbEntity
  8
0
 48
50.0
100
AcDbBlockEnd
  0
BLOCK
  5
19E59
330
19E4D
100
AcDbEntity
  8
0
 48
50.0
100
AcDbBlockBegin
  2
*D33
 70
     1
 10
0.0
 20
0.0
 30
0.0
  3
*D33
  1

  0
LINE
  5
1A09A
330
19E4D
100
AcDbEntity
  8
寸法
 62
     0
 48
50.0
370
    -2
100
AcDbLine
 10
4452.473137055679
 20
4932.931598713268
 30
0.0
 11
4452.473137055679
 21
5378.657870445171
 31
0.0
  0
LINE
  5
1A09B
330
19E4D
100
AcDbEntity
  8
寸法
 62
     0
 48
50.0
370
    -2
100
AcDbLine
 10
4402.473137055679
 20
4932.931598713267
 30
0.0
 11
4402.473137055679
 21
5378.657870445171
 31
0.0
  0
LINE
  5
1A09C
330
19E4D
100
AcDbEntity
  8
寸法
 62
     0
 48
50.0
370
    -2
100
AcDbLine
 10
4452.473137055679
 20
5318.657870445171
 30
0.0
 11
4552.473137055679
 21
5318.657870445171
 31
0.0
  0
LINE
  5
1A09D
330
19E4D
100
AcDbEntity
  8
寸法
 62
     0
 48
50.0
370
    -2
100
AcDbLine
 10
4402.473137055679
 20
5318.657870445171
 30
0.0
 11
3982.940611586943
 21
5318.657870445171
 31
0.0
  0
LINE
  5
1A09E
330
19E4D
100
AcDbEntity
  8
寸法
 62
     0
 48
50.0
370
    -2
100
AcDbLine
 10
4452.473137055679
 20
5318.657870445171
 30
0.0
 11
4402.473137055679
 21
5318.657870445171
 31
0.0
  0
INSERT
  5
1A09F
330
19E4D
100
AcDbEntity
  8
寸法
 62
     0
 48
50.0
370
    -2
100
AcDbBlockReference
  2
_DOTSMALL
 10
4452.473137055679
 20
5318.657870445171
 30
0.0
 41
100.0
 42
100.0
 43
100.0
 50
180.0
  0
INSERT
  5
1A0A0
330
19E4D
100
AcDbEntity
  8
寸法
 62
     0
 48
50.0
370
    -2
100
AcDbBlockReference
  2
_DOTSMALL
 10
4402.473137055679
 20
5318.657870445171
 30
0.0
 41
100.0
 42
100.0
 43
100.0
  0
MTEXT
  5
1A0A1
330
19E4D
100
AcDbEntity
  8
寸法
 62
     7
 48
50.0
100
AcDbMText
 10
4088.987855681431
 20
5418.657870445171
 30
0.0
 40
120.0
 41
0.0
 71
     5
 72
     1
  1
\A1;50
  7
STYLE1
 73
     1
 44
1.0
1001
ACAD
1000
MTEXTBEGIN
1070
    73
1070
     1
1070
    44
1040
1.0
1070
    74
1070
     0
1000
MTEXTEND
  0
POINT
  5
1A0A2
330
19E4D
100
AcDbEntity
  8
DEFPOINTS
 62
     0
 48
50.0
100
AcDbPoint
 10
4452.473137055679
 20
4912.931598713267
 30
0.0
  0
POINT
  5
1A0A3
330
19E4D
100
AcDbEntity
  8
DEFPOINTS
 62
     0
 48
50.0
100
AcDbPoint
 10
4402.473137055679
 20
4912.931598713267
 30
0.0
  0
POINT
  5
1A0A4
330
19E4D
100
AcDbEntity
  8
DEFPOINTS
 62
     0
 48
50.0
100
AcDbPoint
 10
4402.473137055679
 20
5318.657870445171
 30
0.0
  0
ENDBLK
  5
19E5A
330
19E4D
100
AcDbEntity
  8
0
 48
50.0
100
AcDbBlockEnd
  0
BLOCK
  5
19E65
330
19E5B
100
AcDbEntity
  8
0
 48
50.0
100
AcDbBlockBegin
  2
*D34
 70
     1
 10
0.0
 20
0.0
 30
0.0
  3
*D34
  1

  0
LINE
  5
1A091
330
19E5B
100
AcDbEntity
  8
寸法
 62
     0
 48
50.0
370
    -2
100
AcDbLine
 10
7192.47313705568
 20
4932.931598713268
 30
0.0
 11
7192.47313705568
 21
5378.657870445171
 31
0.0
  0
LINE
  5
1A092
330
19E5B
100
AcDbEntity
  8
寸法
 62
     0
 48
50.0
370
    -2
100
AcDbLine
 10
4452.473137055679
 20
4932.931598713268
 30
0.0
 11
4452.473137055679
 21
5378.657870445171
 31
0.0
  0
LINE
  5
1A093
330
19E5B
100
AcDbEntity
  8
寸法
 62
     0
 48
50.0
370
    -2
100
AcDbLine
 10
7192.47313705568
 20
5318.657870445171
 30
0.0
 11
4452.473137055679
 21
5318.657870445171
 31
0.0
  0
INSERT
  5
1A094
330
19E5B
100
AcDbEntity
  8
寸法
 62
     0
 48
50.0
370
    -2
100
AcDbBlockReference
  2
_DOTSMALL
 10
7192.47313705568
 20
5318.657870445171
 30
0.0
 41
100.0
 42
100.0
 43
100.0
  0
INSERT
  5
1A095
330
19E5B
100
AcDbEntity
  8
寸法
 62
     0
 48
50.0
370
    -2
100
AcDbBlockReference
  2
_DOTSMALL
 10
4452.473137055679
 20
5318.657870445171
 30
0.0
 41
100.0
 42
100.0
 43
100.0
 50
180.0
  0
MTEXT
  5
1A096
330
19E5B
100
AcDbEntity
  8
寸法
 62
     7
 48
50.0
100
AcDbMText
 10
5822.47313705568
 20
5418.669681468793
 30
0.0
 40
120.0
 41
0.0
 71
     5
 72
     1
  1
\A1;柱外寸法2740
  7
STYLE1
 73
     1
 44
1.0
1001
ACAD
1000
MTEXTBEGIN
1070
    73
1070
     1
1070
    44
1040
1.0
1070
    74
1070
     0
1000
MTEXTEND
  0
POINT
  5
1A097
330
19E5B
100
AcDbEntity
  8
DEFPOINTS
 62
     0
 48
50.0
100
AcDbPoint
 10
7192.47313705568
 20
4912.931598713267
 30
0.0
  0
POINT
  5
1A098
330
19E5B
100
AcDbEntity
  8
DEFPOINTS
 62
     0
 48
50.0
100
AcDbPoint
 10
4452.473137055679
 20
4912.931598713267
 30
0.0
  0
POINT
  5
1A099
330
19E5B
100
AcDbEntity
  8
DEFPOINTS
 62
     0
 48
50.0
100
AcDbPoint
 10
4452.473137055679
 20
5318.657870445171
 30
0.0
  0
ENDBLK
  5
19E66
330
19E5B
100
AcDbEntity
  8
0
 48
50.0
100
AcDbBlockEnd
  0
BLOCK
  5
1A271
330
1A267
100
AcDbEntity
  8
0
 48
50.0
100
AcDbBlockBegin
  2
*D35
 70
     1
 10
0.0
 20
0.0
 30
0.0
  3
*D35
  1

  0
LINE
  5
1A326
330
1A267
100
AcDbEntity
  8
寸法
 62
     0
 48
50.0
370
    -2
100
AcDbLine
 10
7212.473137055678
 20
2537.931598713262
 30
0.0
 11
7540.016239377425
 21
2537.931598713262
 31
0.0
  0
LINE
  5
1A327
330
1A267
100
AcDbEntity
  8
寸法
 62
     0
 48
50.0
370
    -2
100
AcDbLine
 10
7212.473137055678
 20
4485.931598713261
 30
0.0
 11
7540.016239377425
 21
4485.931598713261
 31
0.0
  0
LINE
  5
1A328
330
1A267
100
AcDbEntity
  8
寸法
 62
     0
 48
50.0
370
    -2
100
AcDbLine
 10
7480.016239377426
 20
2537.931598713262
 30
0.0
 11
7480.016239377426
 21
4485.931598713261
 31
0.0
  0
INSERT
  5
1A329
330
1A267
100
AcDbEntity
  8
寸法
 62
     0
 48
50.0
370
    -2
100
AcDbBlockReference
  2
_DOTSMALL
 10
7480.016239377426
 20
2537.931598713262
 30
0.0
 41
100.0
 42
100.0
 43
100.0
 50
270.0
  0
INSERT
  5
1A32A
330
1A267
100
AcDbEntity
  8
寸法
 62
     0
 48
50.0
370
    -2
100
AcDbBlockReference
  2
_DOTSMALL
 10
7480.016239377426
 20
4485.931598713261
 30
0.0
 41
100.0
 42
100.0
 43
100.0
 50
90.0
  0
MTEXT
  5
1A32B
330
1A267
100
AcDbEntity
  8
寸法
 62
     7
 48
50.0
100
AcDbMText
 10
7380.016239377424
 20
3511.931598713263
 30
0.0
 40
120.0
 41
0.0
 71
     5
 72
     1
  1
\A1;有効開口部高サ 1948
  7
STYLE1
 11
0.0000000000000001
 21
1.0
 31
0.0
 73
     1
 44
1.0
1001
ACAD
1000
MTEXTBEGIN
1070
    73
1070
     1
1070
    44
1040
1.0
1070
    74
1070
     0
1000
MTEXTEND
  0
POINT
  5
1A32C
330
1A267
100
AcDbEntity
  8
DEFPOINTS
 62
     0
 48
50.0
100
AcDbPoint
 10
7192.47313705568
 20
2537.931598713262
 30
0.0
  0
POINT
  5
1A32D
330
1A267
100
AcDbEntity
  8
DEFPOINTS
 62
     0
 48
50.0
100
AcDbPoint
 10
7192.47313705568
 20
4485.931598713261
 30
0.0
  0
POINT
  5
1A32E
330
1A267
100
AcDbEntity
  8
DEFPOINTS
 62
     0
 48
50.0
100
AcDbPoint
 10
7480.016239377426
 20
4485.931598713261
 30
0.0
  0
ENDBLK
  5
1A272
330
1A267
100
AcDbEntity
  8
0
 48
50.0
100
AcDbBlockEnd
  0
BLOCK
  5
1A27F
330
1A273
100
AcDbEntity
  8
0
 48
50.0
100
AcDbBlockBegin
  2
*D36
 70
     1
 10
0.0
 20
0.0
 30
0.0
  3
*D36
  1

  0
LINE
  5
1A3C2
330
1A273
100
AcDbEntity
  8
寸法
 62
     0
 48
50.0
370
    -2
100
AcDbLine
 10
7212.473137055678
 20
4485.931598713261
 30
0.0
 11
7540.016239377425
 21
4485.931598713261
 31
0.0
  0
LINE
  5
1A3C3
330
1A273
100
AcDbEntity
  8
寸法
 62
     0
 48
50.0
370
    -2
100
AcDbLine
 10
7212.473137055678
 20
4512.931598713263
 30
0.0
 11
7540.016239377425
 21
4512.931598713263
 31
0.0
  0
LINE
  5
1A3C4
330
1A273
100
AcDbEntity
  8
寸法
 62
     0
 48
50.0
370
    -2
100
AcDbLine
 10
7480.016239377426
 20
4485.931598713261
 30
0.0
 11
7480.016239377426
 21
4385.931598713261
 31
0.0
  0
LINE
  5
1A3C5
330
1A273
100
AcDbEntity
  8
寸法
 62
     0
 48
50.0
370
    -2
100
AcDbLine
 10
7480.016239377426
 20
4512.931598713263
 30
0.0
 11
7480.016239377426
 21
4612.931598713263
 31
0.0
  0
MTEXT
  5
1A3C6
330
1A273
100
AcDbEntity
  8
寸法
 62
     7
 48
50.0
100
AcDbMText
 10
7620.186062623791
 20
4513.89879855292
 30
0.0
 40
120.0
 41
0.0
 71
     5
 72
     1
  1
\A1;27
  7
STYLE1
 11
0.0000000000000001
 21
1.0
 31
0.0
 73
     1
 44
1.0
1001
ACAD
1000
MTEXTBEGIN
1070
    73
1070
     1
1070
    44
1040
1.0
1070
    74
1070
     0
1000
MTEXTEND
  0
LINE
  5
1A3C7
330
1A273
100
AcDbEntity
  8
寸法
 62
     0
 48
50.0
370
    -2
100
AcDbLine
 10
7480.016239377426
 20
4485.931598713261
 30
0.0
 11
7480.016239377426
 21
4512.931598713263
 31
0.0
  0
INSERT
  5
1A3C8
330
1A273
100
AcDbEntity
  8
寸法
 62
     0
 48
50.0
370
    -2
100
AcDbBlockReference
  2
_DOTSMALL
 10
7480.016239377426
 20
4485.931598713261
 30
0.0
 41
100.0
 42
100.0
 43
100.0
 50
90.0
  0
INSERT
  5
1A3C9
330
1A273
100
AcDbEntity
  8
寸法
 62
     0
 48
50.0
370
    -2
100
AcDbBlockReference
  2
_DOTSMALL
 10
7480.016239377426
 20
4512.931598713263
 30
0.0
 41
100.0
 42
100.0
 43
100.0
 50
270.0
  0
POINT
  5
1A3CA
330
1A273
100
AcDbEntity
  8
DEFPOINTS
 62
     0
 48
50.0
100
AcDbPoint
 10
7192.47313705568
 20
4485.931598713261
 30
0.0
  0
POINT
  5
1A3CB
330
1A273
100
AcDbEntity
  8
DEFPOINTS
 62
     0
 48
50.0
100
AcDbPoint
 10
7192.47313705568
 20
4512.931598713263
 30
0.0
  0
POINT
  5
1A3CC
330
1A273
100
AcDbEntity
  8
DEFPOINTS
 62
     0
 48
50.0
100
AcDbPoint
 10
7480.016239377426
 20
4512.931598713263
 30
0.0
  0
ENDBLK
  5
1A280
330
1A273
100
AcDbEntity
  8
0
 48
50.0
100
AcDbBlockEnd
  0
BLOCK
  5
1A28C
330
1A281
100
AcDbEntity
  8
0
 48
50.0
100
AcDbBlockBegin
  2
*D37
 70
     1
 10
0.0
 20
0.0
 30
0.0
  3
*D37
  1

  0
LINE
  5
1A3B8
330
1A281
100
AcDbEntity
  8
寸法
 62
     0
 48
50.0
370
    -2
100
AcDbLine
 10
7212.473137055678
 20
4512.931598713263
 30
0.0
 11
7540.016239377426
 21
4512.931598713263
 31
0.0
  0
LINE
  5
1A3B9
330
1A281
100
AcDbEntity
  8
寸法
 62
     0
 48
50.0
370
    -2
100
AcDbLine
 10
7212.473137055678
 20
4677.931598713261
 30
0.0
 11
7540.016239377426
 21
4677.931598713261
 31
0.0
  0
LINE
  5
1A3BA
330
1A281
100
AcDbEntity
  8
寸法
 62
     0
 48
50.0
370
    -2
100
AcDbLine
 10
7480.016239377426
 20
4512.931598713263
 30
0.0
 11
7480.016239377426
 21
4677.931598713261
 31
0.0
  0
LINE
  5
1A3BB
330
1A281
100
AcDbEntity
  8
寸法
 62
     0
 48
50.0
370
    -2
100
AcDbLine
 10
7480.016239377426
 20
4677.931598713261
 30
0.0
 11
7480.016239377426
 21
5054.902161461739
 31
0.0
  0
INSERT
  5
1A3BC
330
1A281
100
AcDbEntity
  8
寸法
 62
     0
 48
50.0
370
    -2
100
AcDbBlockReference
  2
_DOTSMALL
 10
7480.016239377426
 20
4512.931598713263
 30
0.0
 41
100.0
 42
100.0
 43
100.0
 50
270.0
  0
INSERT
  5
1A3BD
330
1A281
100
AcDbEntity
  8
寸法
 62
     0
 48
50.0
370
    -2
100
AcDbBlockReference
  2
_DOTSMALL
 10
7480.016239377426
 20
4677.931598713261
 30
0.0
 41
100.0
 42
100.0
 43
100.0
 50
90.0
  0
MTEXT
  5
1A3BE
330
1A281
100
AcDbEntity
  8
寸法
 62
     7
 48
50.0
100
AcDbMText
 10
7380.016239377425
 20
4916.416880087502
 30
0.0
 40
120.0
 41
0.0
 71
     5
 72
     1
  1
\A1;165
  7
STYLE1
 11
0.0000000000000001
 21
1.0
 31
0.0
 73
     1
 44
1.0
1001
ACAD
1000
MTEXTBEGIN
1070
    73
1070
     1
1070
    44
1040
1.0
1070
    74
1070
     0
1000
MTEXTEND
  0
POINT
  5
1A3BF
330
1A281
100
AcDbEntity
  8
DEFPOINTS
 62
     0
 48
50.0
100
AcDbPoint
 10
7192.47313705568
 20
4512.931598713263
 30
0.0
  0
POINT
  5
1A3C0
330
1A281
100
AcDbEntity
  8
DEFPOINTS
 62
     0
 48
50.0
100
AcDbPoint
 10
7192.47313705568
 20
4677.931598713261
 30
0.0
  0
POINT
  5
1A3C1
330
1A281
100
AcDbEntity
  8
DEFPOINTS
 62
     0
 48
50.0
100
AcDbPoint
 10
7480.016239377426
 20
4677.931598713261
 30
0.0
  0
ENDBLK
  5
1A28D
330
1A281
100
AcDbEntity
  8
0
 48
50.0
100
AcDbBlockEnd
  0
ENDSEC
  0
SECTION
  2
ENTITIES
  0
MTEXT
  5
763F
330
747D
100
AcDbEntity
  8
0
100
AcDbMText
 10
302.846345836809
 20
280.1983726409901
 30
0.0
 40
3.5
 41
5.323721266742722
 71
     1
 72
     5
  1

  7
MSMINCHO
 73
     1
 44
1.0
1001
ACAD
1000
MTEXTBEGIN
1070
    73
1070
     1
1070
    44
1040
1.0
1070
    74
1070
     0
1000
MTEXTEND
  0
LINE
  5
10B57
330
747D
100
AcDbEntity
  8
補助
  6
PHANTOM
 62
   230
 48
50.0
100
AcDbLine
 10
139.9999999999995
 20
11409.6
 30
0.0
 11
16307.2
 21
11409.6
 31
0.0
  0
LINE
  5
10B59
330
747D
100
AcDbEntity
  8
仕様書枠
  6
Continuous
 48
50.0
100
AcDbLine
 10
13107.2
 20
1200.0
 30
0.0
 11
13107.2
 21
-0.0000000000000729
 31
0.0
  0
LINE
  5
10B5C
330
747D
100
AcDbEntity
  8
仕様書枠
 48
50.0
100
AcDbLine
 10
16307.2
 20
1200.0
 30
0.0
 11
16307.2
 21
-0.0000000000000909
 31
0.0
  0
LINE
  5
10B5D
330
747D
100
AcDbEntity
  8
仕様書枠
 48
50.0
100
AcDbLine
 10
140.0
 20
0.0
 30
0.0
 11
16307.2
 21
-0.0000000000000909
 31
0.0
  0
LINE
  5
10B5E
330
747D
100
AcDbEntity
  8
補助
  6
PHANTOM
 62
   230
 48
50.0
100
AcDbLine
 10
16307.2
 20
11409.6
 30
0.0
 11
16307.2
 21
1200.0
 31
0.0
  0
LINE
  5
10B6C
330
747D
100
AcDbEntity
  8
仕様書枠
 48
50.0
100
AcDbLine
 10
13107.2
 20
1200.0
 30
0.0
 11
16307.2
 21
1200.0
 31
0.0
  0
LINE
  5
10B6D
330
747D
100
AcDbEntity
  8
補助
  6
PHANTOM
 62
   230
 48
50.0
100
AcDbLine
 10
13107.2
 20
11409.6
 30
0.0
 11
13107.2
 21
4800.0
 31
0.0
  0
LINE
  5
10B6F
330
747D
100
AcDbEntity
  8
補助
  6
PHANTOM
 62
   230
 48
50.0
100
AcDbLine
 10
13107.2
 20
4800.0
 30
0.0
 11
16307.2
 21
4800.0
 31
0.0
  0
LINE
  5
10B72
330
747D
100
AcDbEntity
  8
文字
 62
     7
 48
50.0
100
AcDbLine
 10
13187.2
 20
400.0
 30
0.0
 11
16227.2
 21
400.0
 31
0.0
  0
TEXT
  5
10B73
330
747D
100
AcDbEntity
  8
文字
 62
     7
 48
50.0
100
AcDbText
 10
13162.9790565769
 20
895.0906074299405
 30
0.0
 40
200.0
  1
外 形 図
  7
STYLE2
100
AcDbText
  0
TEXT
  5
10B74
330
747D
100
AcDbEntity
  8
文字
 62
     7
 48
50.0
100
AcDbText
 10
13201.43669998441
 20
477.2740661031255
 30
0.0
 40
160.0
  1
機種名
  7
STYLE2
100
AcDbText
  0
TEXT
  5
10B75
330
747D
100
AcDbEntity
  8
文字
 62
     7
 48
50.0
100
AcDbText
 10
13209.4053442172
 20
228.5435242569016
 30
0.0
 40
100.0
  1
○有効開口寸法 ： 1164×1948(mm)
  7
STYLE2
100
AcDbText
  0
TEXT
  5
10B79
330
747D
100
AcDbEntity
  8
文字
 62
     7
 48
50.0
100
AcDbText
 10
14524.131837222
 20
1031.557706291228
 30
0.0
 40
100.0
  1
NO.11      <縮尺> S=1/40
  7
STYLE2
100
AcDbText
  0
LINE
  5
10B7B
330
747D
100
AcDbEntity
  8
仕様書枠
 48
50.0
100
AcDbLine
 10
13107.2
 20
800.0
 30
0.0
 11
14251.2
 21
800.0
 31
0.0
  0
LINE
  5
10B88
330
747D
100
AcDbEntity
  8
仕様書枠
  6
Continuous
 48
50.0
100
AcDbLine
 10
14251.2
 20
1200.0
 30
0.0
 11
14251.2
 21
800.0
 31
0.0
  0
LINE
  5
127A8
330
747D
100
AcDbEntity
  8
部品1
100
AcDbLine
 10
3610.243962669879
 20
2567.835409280926
 30
0.0
 11
3760.243962669879
 21
2567.835409280926
 31
0.0
  0
LINE
  5
127A9
330
747D
100
AcDbEntity
  8
部品1
100
AcDbLine
 10
3685.243962669879
 20
2437.931598713261
 30
0.0
 11
3610.243962669879
 21
2567.835409280926
 31
0.0
  0
TEXT
  5
127AA
330
747D
100
AcDbEntity
  8
部品1
100
AcDbText
 10
3788.348904794653
 20
2474.038502319163
 30
0.0
 40
125.0
  1
G.L
  7
MSGOTHIC
100
AcDbText
  0
LINE
  5
127AB
330
747D
100
AcDbEntity
  8
部品1
100
AcDbLine
 10
3760.243962669879
 20
2567.835409280926
 30
0.0
 11
3685.243962669879
 21
2437.931598713261
 31
0.0
  0
TEXT
  5
149A3
330
747D
100
AcDbEntity
  8
部品1
100
AcDbText
 10
10852.36067875471
 20
1595.038069494737
 30
0.0
 40
135.0
  1
側面図
  7
MSGOTHIC
100
AcDbText
  0
LWPOLYLINE
  5
149A4
330
747D
100
AcDbEntity
  8
部品1
100
AcDbPolyline
 90
        4
 70
     1
 43
0.0
 10
10762.91457733111
 20
1787.931598713262
 10
10762.91457733111
 20
1548.039277167729
 10
11526.38524355955
 20
1548.039277167729
 10
11526.38524355955
 20
1787.931598713262
  0
TEXT
  5
14E88
330
747D
100
AcDbEntity
  8
部品1
100
AcDbText
 10
5530.65741377051
 20
6216.903127704578
 30
0.0
 40
135.0
  1
平面図
  7
MSGOTHIC
100
AcDbText
  0
LWPOLYLINE
  5
14E89
330
747D
100
AcDbEntity
  8
部品1
100
AcDbPolyline
 90
        4
 70
     1
 43
0.0
 10
5440.737803941473
 20
6409.796656923102
 10
5440.737803941473
 20
6169.904335377569
 10
6204.208470169913
 20
6169.904335377569
 10
6204.208470169913
 20
6409.796656923102
  0
TEXT
  5
15550
330
747D
100
AcDbEntity
  8
文字
 62
     7
 48
50.0
100
AcDbText
 10
14647.81206407149
 20
871.9640646083623
 30
0.0
 40
100.0
  1
～一般型・多雪地型～
  7
STYLE2
100
AcDbText
  0
DIMENSION
  5
162CD
330
747D
100
AcDbEntity
  8
寸法
100
AcDbDimension
  2
*D1
 10
7839.89948279012
 20
7612.021693399518
 30
0.0
 11
7739.887671766497
 21
8872.021693399528
 31
0.0
 70
    32
  1
6X420=<>
 71
     5
 42
2520.000000000015
  3
INABA_S40G
100
AcDbAlignedDimension
 13
7192.473137055715
 23
10132.02169339953
 33
0.0
 14
7192.47313705569
 24
7612.021693399518
 34
0.0
 50
90.0
100
AcDbRotatedDimension
1001
ACAD
1000
DSTYLE
1002
{
1002
}
  0
DIMENSION
  5
162CE
330
747D
100
AcDbEntity
  8
寸法
100
AcDbDimension
  2
*D2
 10
7839.899482790101
 20
7557.021693399521
 30
0.0
 11
7839.899482790099
 21
7179.16022649466
 31
0.0
 70
   160
 71
     5
 42
54.99999999999636
  3
INABA_S40G
100
AcDbAlignedDimension
 13
7192.47313705569
 23
7612.021693399518
 33
0.0
 14
7192.47313705569
 24
7557.021693399521
 34
0.0
 50
90.0
100
AcDbRotatedDimension
1001
ACAD
1000
DSTYLE
1002
{
1002
}
  0
DIMENSION
  5
162CF
330
747D
100
AcDbEntity
  8
寸法
100
AcDbDimension
  2
*D3
 10
7839.899482790125
 20
10132.02169339953
 30
0.0
 11
7839.899482790125
 21
10495.50697477377
 31
0.0
 70
   160
 71
     5
 42
54.99999999999636
  3
INABA_S40G
100
AcDbAlignedDimension
 13
7192.473137055715
 23
10187.02169339953
 33
0.0
 14
7192.473137055715
 24
10132.02169339953
 34
0.0
 50
90.0
100
AcDbRotatedDimension
1001
ACAD
1000
DSTYLE
1002
{
1002
}
  0
DIMENSION
  5
162D0
330
747D
100
AcDbEntity
  8
寸法
100
AcDbDimension
  2
*D4
 10
8205.006424529761
 20
7557.021693399521
 30
0.0
 11
8104.994613506137
 21
8872.021693399528
 31
0.0
 70
    32
 71
     5
 42
2630.000000000007
  3
INABA_S40G
100
AcDbAlignedDimension
 13
7192.473137055715
 23
10187.02169339953
 33
0.0
 14
7192.47313705569
 24
7557.021693399521
 34
0.0
 50
90.0
100
AcDbRotatedDimension
1001
ACAD
1000
DSTYLE
1002
{
1002
}
  0
LINE
  5
162DC
330
747D
100
AcDbEntity
  8
部品1
100
AcDbLine
 10
7164.473137055698
 20
10159.02169339953
 30
0.0
 11
7164.473137055691
 21
7612.021693399518
 31
0.0
  0
LINE
  5
162DD
330
747D
100
AcDbEntity
  8
部品1
100
AcDbLine
 10
4480.473137055689
 20
7612.021693399388
 30
0.0
 11
4480.4731370557
 21
10159.02169339943
 31
0.0
  0
LINE
  5
162DE
330
747D
100
AcDbEntity
  8
部品1
100
AcDbLine
 10
7192.473137055715
 20
10187.02169339953
 30
0.0
 11
7192.47313705569
 21
7557.021693399521
 31
0.0
  0
LINE
  5
162DF
330
747D
100
AcDbEntity
  8
部品1
100
AcDbLine
 10
4452.47313705568
 20
10187.0216933994
 30
0.0
 11
4452.473137055707
 21
7557.021693399391
 31
0.0
  0
DIMENSION
  5
162E4
330
747D
100
AcDbEntity
  8
寸法
 48
50.0
100
AcDbDimension
  2
*D5
 10
5925.473137055707
 20
7022.590922633266
 30
0.0
 11
6507.473137055699
 21
7222.590922633266
 31
0.0
 70
    32
  1
有効開口部間口\P <>
 71
     5
 42
1163.999999999981
  3
INABA_S40G
100
AcDbAlignedDimension
 13
7089.47313705569
 23
7583.02169339943
 33
0.0
 14
5925.473137055707
 24
7583.021693399429
 34
0.0
100
AcDbRotatedDimension
1001
ACAD
1000
DSTYLE
1002
{
1070
    75
1070
     1
1070
   279
1070
     2
1002
}
  0
LINE
  5
162E6
330
747D
100
AcDbEntity
  8
部品1
 48
50.0
100
AcDbLine
 10
5889.473137055706
 20
7602.521693399428
 30
0.0
 11
7125.473137055691
 21
7602.521693399428
 31
0.0
  0
DIMENSION
  5
162E7
330
747D
100
AcDbEntity
  8
寸法
100
AcDbDimension
  2
*D6
 10
7192.473137055678
 20
6576.417927042392
 30
0.0
 11
5822.473137055693
 21
6676.429738066014
 31
0.0
 70
    32
 71
     5
 42
2739.999999999971
  3
INABA_S40G
100
AcDbAlignedDimension
 13
4452.473137055707
 23
7557.021693399427
 33
0.0
 14
7192.473137055678
 24
7557.021693399521
 34
0.0
100
AcDbRotatedDimension
1001
ACAD
1000
DSTYLE
1002
{
1002
}
  0
LINE
  5
162E8
330
747D
100
AcDbEntity
  8
部品1
100
AcDbLine
 10
4507.473137055684
 20
10132.02169339945
 30
0.0
 11
4507.473137055705
 21
7622.021693399429
 31
0.0
  0
LINE
  5
162E9
330
747D
100
AcDbEntity
  8
部品1
100
AcDbLine
 10
4532.473137055685
 20
10132.02169339945
 30
0.0
 11
4532.473137055705
 21
7622.021693399429
 31
0.0
  0
DIMENSION
  5
162EA
330
747D
100
AcDbEntity
  8
寸法
 48
50.0
100
AcDbDimension
  2
*D7
 10
4452.473137055707
 20
7022.590922633266
 30
0.0
 11
4143.987855681468
 21
7022.590922633266
 31
0.0
 70
   160
 71
     5
 42
54.99999999999636
  3
INABA_S40G
100
AcDbAlignedDimension
 13
4507.473137055703
 23
7557.02169339943
 33
0.0
 14
4452.473137055707
 24
7557.021693399427
 34
0.0
100
AcDbRotatedDimension
1001
ACAD
1000
DSTYLE
1002
{
1002
}
  0
DIMENSION
  5
162EB
330
747D
100
AcDbEntity
  8
寸法
 48
50.0
100
AcDbDimension
  2
*D8
 10
5877.473137055704
 20
7022.590922633266
 30
0.0
 11
6038.375108055765
 21
7122.590922633266
 31
0.0
 70
   160
 71
     5
 42
48.00000000000363
  3
INABA_S40G
100
AcDbAlignedDimension
 13
5925.473137055707
 23
7583.021693399429
 33
0.0
 14
5877.473137055704
 24
7557.02169339943
 34
0.0
100
AcDbRotatedDimension
1001
ACAD
1000
DSTYLE
1002
{
1070
   279
1070
     2
1002
}
  0
LINE
  5
162EC
330
747D
100
AcDbEntity
  8
部品1
100
AcDbLine
 10
4507.473137055701
 20
7557.02169339943
 30
0.0
 11
4452.473137055707
 21
7557.021693399427
 31
0.0
  0
LINE
  5
162ED
330
747D
100
AcDbEntity
  8
部品1
 48
50.0
100
AcDbLine
 10
4507.473137055707
 20
7593.021693399428
 30
0.0
 11
4484.473137055707
 21
7593.021693399428
 31
0.0
  0
LINE
  5
162EE
330
747D
100
AcDbEntity
  8
部品1
 48
50.0
100
AcDbLine
 10
4517.473137055707
 20
7583.021693399429
 30
0.0
 11
4507.473137055707
 21
7562.021693399429
 31
0.0
  0
LINE
  5
162EF
330
747D
100
AcDbEntity
  8
部品1
 48
50.0
100
AcDbLine
 10
4507.473137055707
 20
7622.021693399429
 30
0.0
 11
4507.473137055703
 21
7557.02169339943
 31
0.0
  0
LINE
  5
162F0
330
747D
100
AcDbEntity
  8
部品1
 48
50.0
100
AcDbLine
 10
4555.473137055707
 20
7583.02169339943
 30
0.0
 11
4555.473137055707
 21
7592.021693399431
 31
0.0
  0
LINE
  5
162F1
330
747D
100
AcDbEntity
  8
部品1
 48
50.0
100
AcDbLine
 10
4555.473137055707
 20
7622.021693399431
 30
0.0
 11
4555.473137055707
 21
7613.021693399431
 31
0.0
  0
LINE
  5
162F2
330
747D
100
AcDbEntity
  8
部品1
100
AcDbLine
 10
4555.473137055707
 20
7622.021693399431
 30
0.0
 11
4507.473137055707
 21
7622.021693399429
 31
0.0
  0
LINE
  5
162F3
330
747D
100
AcDbEntity
  8
部品1
100
AcDbLine
 10
4555.473137055707
 20
7583.02169339943
 30
0.0
 11
4507.473137055707
 21
7583.021693399429
 31
0.0
  0
LINE
  5
162F4
330
747D
100
AcDbEntity
  8
部品1
100
AcDbLine
 10
4507.473137055705
 20
7593.021693399428
 30
0.0
 11
4484.473137055707
 21
7593.021693399428
 31
0.0
  0
LINE
  5
162F5
330
747D
100
AcDbEntity
  8
部品1
100
AcDbLine
 10
4507.473137055705
 20
7612.021693399355
 30
0.0
 11
4452.473137055705
 21
7612.021693399355
 31
0.0
  0
LINE
  5
162F6
330
747D
100
AcDbEntity
  8
部品1
100
AcDbLine
 10
4480.473137055689
 20
7612.02169339939
 30
0.0
 11
4452.473137055705
 21
7612.02169339939
 31
0.0
  0
LINE
  5
162F7
330
747D
100
AcDbEntity
  8
部品1
100
AcDbLine
 10
4480.473137055706
 20
7612.021693399405
 30
0.0
 11
4452.473137055705
 21
7612.021693399405
 31
0.0
  0
LINE
  5
162FB
330
747D
100
AcDbEntity
  8
部品1
100
AcDbLine
 10
4480.473137055695
 20
8032.021693399405
 30
0.0
 11
4452.473137055695
 21
8032.021693399405
 31
0.0
  0
LINE
  5
162FC
330
747D
100
AcDbEntity
  8
部品1
100
AcDbLine
 10
4480.473137055695
 20
8452.021693399405
 30
0.0
 11
4452.473137055695
 21
8452.021693399405
 31
0.0
  0
LINE
  5
162FE
330
747D
100
AcDbEntity
  8
部品1
100
AcDbLine
 10
4480.473137055687
 20
8872.021693399405
 30
0.0
 11
4452.473137055687
 21
8872.021693399405
 31
0.0
  0
LINE
  5
162FF
330
747D
100
AcDbEntity
  8
部品1
100
AcDbLine
 10
7137.473137055711
 20
10132.02169339945
 30
0.0
 11
7137.473137055692
 21
7557.021693399518
 31
0.0
  0
LINE
  5
16300
330
747D
100
AcDbEntity
  8
部品1
100
AcDbLine
 10
7112.473137055714
 20
10132.02169339945
 30
0.0
 11
7112.473137055691
 21
7622.021693399429
 31
0.0
  0
DIMENSION
  5
16301
330
747D
100
AcDbEntity
  8
寸法
 48
50.0
100
AcDbDimension
  2
*D9
 10
7089.47313705569
 20
7022.590922633266
 30
0.0
 11
6978.510239406943
 21
7122.590922633266
 31
0.0
 70
   160
 71
     5
 42
48.00000000000181
  3
INABA_S40G
100
AcDbAlignedDimension
 13
7137.473137055692
 23
7557.021693399518
 33
0.0
 14
7089.47313705569
 24
7583.02169339943
 34
0.0
100
AcDbRotatedDimension
1001
ACAD
1000
DSTYLE
1002
{
1070
   279
1070
     2
1002
}
  0
DIMENSION
  5
16302
330
747D
100
AcDbEntity
  8
寸法
 48
50.0
100
AcDbDimension
  2
*D10
 10
7137.473137055692
 20
7022.590922633267
 30
0.0
 11
7500.958418429927
 21
7022.590922633267
 31
0.0
 70
   160
 71
     5
 42
54.99999999999818
  3
INABA_S40G
100
AcDbAlignedDimension
 13
7192.47313705569
 23
7557.021693399521
 33
0.0
 14
7137.473137055692
 24
7557.021693399518
 34
0.0
100
AcDbRotatedDimension
1001
ACAD
1000
DSTYLE
1002
{
1002
}
  0
LINE
  5
16303
330
747D
100
AcDbEntity
  8
部品1
 48
50.0
100
AcDbLine
 10
7127.473137055689
 20
7583.021693399429
 30
0.0
 11
7137.473137055689
 21
7562.021693399429
 31
0.0
  0
LINE
  5
16304
330
747D
100
AcDbEntity
  8
部品1
100
AcDbLine
 10
7089.47313705569
 20
7622.021693399431
 30
0.0
 11
7137.473137055692
 21
7622.021693399429
 31
0.0
  0
LINE
  5
16305
330
747D
100
AcDbEntity
  8
部品1
100
AcDbLine
 10
7089.47313705569
 20
7583.02169339943
 30
0.0
 11
7137.473137055689
 21
7583.021693399429
 31
0.0
  0
LINE
  5
16306
330
747D
100
AcDbEntity
  8
部品1
 48
50.0
100
AcDbLine
 10
7089.47313705569
 20
7622.021693399431
 30
0.0
 11
7089.47313705569
 21
7613.021693399431
 31
0.0
  0
LINE
  5
16307
330
747D
100
AcDbEntity
  8
部品1
 48
50.0
100
AcDbLine
 10
7089.47313705569
 20
7583.02169339943
 30
0.0
 11
7089.47313705569
 21
7592.021693399431
 31
0.0
  0
LINE
  5
16308
330
747D
100
AcDbEntity
  8
部品1
100
AcDbLine
 10
7137.473137055689
 20
7593.021693399428
 30
0.0
 11
7160.473137055689
 21
7593.021693399428
 31
0.0
  0
LINE
  5
16309
330
747D
100
AcDbEntity
  8
部品1
100
AcDbLine
 10
7137.473137055689
 20
7612.021693399532
 30
0.0
 11
7192.473137055722
 21
7612.021693399532
 31
0.0
  0
LINE
  5
1630A
330
747D
100
AcDbEntity
  8
部品1
100
AcDbLine
 10
7192.47313705569
 20
7557.021693399521
 30
0.0
 11
7137.473137055692
 21
7557.021693399518
 31
0.0
  0
LINE
  5
16317
330
747D
100
AcDbEntity
  8
部品1
100
AcDbLine
 10
7164.473137055718
 20
8032.021693399533
 30
0.0
 11
7192.473137055718
 21
8032.021693399533
 31
0.0
  0
LINE
  5
16319
330
747D
100
AcDbEntity
  8
部品1
100
AcDbLine
 10
7164.473137055718
 20
8452.021693399533
 30
0.0
 11
7192.473137055718
 21
8452.021693399533
 31
0.0
  0
LINE
  5
1631A
330
747D
100
AcDbEntity
  8
部品1
100
AcDbLine
 10
7164.473137055715
 20
8872.021693399533
 30
0.0
 11
7192.473137055715
 21
8872.021693399533
 31
0.0
  0
LINE
  5
1631B
330
747D
100
AcDbEntity
  8
部品1
100
AcDbLine
 10
5877.473137055712
 20
10159.02169339955
 30
0.0
 11
6297.473137055713
 21
10159.02169339955
 31
0.0
  0
LINE
  5
1631C
330
747D
100
AcDbEntity
  8
部品1
100
AcDbLine
 10
5850.473137055713
 20
10159.02169339943
 30
0.0
 11
6087.473137055713
 21
10159.02169339944
 31
0.0
  0
DIMENSION
  5
1631F
330
747D
100
AcDbEntity
  8
寸法
100
AcDbDimension
  2
*D11
 10
7137.473137055714
 20
10402.82991302453
 30
0.0
 11
6507.473137055715
 21
10502.84172404815
 31
0.0
 70
    32
  1
3X420=<>
 71
     5
 42
1260.000000000001
  3
INABA_S40G
100
AcDbAlignedDimension
 13
5877.473137055714
 23
10187.02169339943
 33
0.0
 14
7137.473137055714
 24
10187.02169339953
 34
0.0
100
AcDbRotatedDimension
1001
ACAD
1000
DSTYLE
1002
{
1002
}
  0
DIMENSION
  5
16320
330
747D
100
AcDbEntity
  8
寸法
100
AcDbDimension
  2
*D12
 10
4507.473137055714
 20
10402.82991302441
 30
0.0
 11
4143.98785568144
 21
10402.82991302441
 31
0.0
 70
   160
 71
     5
 42
55.00000000003456
  3
INABA_S40G
100
AcDbAlignedDimension
 13
4452.473137055679
 23
10187.02169339943
 33
0.0
 14
4507.473137055714
 24
10187.02169339943
 34
0.0
100
AcDbRotatedDimension
1001
ACAD
1000
DSTYLE
1002
{
1002
}
  0
LINE
  5
16321
330
747D
100
AcDbEntity
  8
部品1
100
AcDbLine
 10
4507.47313705568
 20
10187.0216933994
 30
0.0
 11
4507.47313705568
 21
10159.0216933994
 31
0.0
  0
LINE
  5
16322
330
747D
100
AcDbEntity
  8
部品1
100
AcDbLine
 10
4507.473137055713
 20
10187.02169339943
 30
0.0
 11
4507.473137055713
 21
10159.02169339943
 31
0.0
  0
LINE
  5
16323
330
747D
100
AcDbEntity
  8
部品1
100
AcDbLine
 10
4480.47313705568
 20
10132.0216933994
 30
0.0
 11
4452.47313705568
 21
10132.0216933994
 31
0.0
  0
LINE
  5
16327
330
747D
100
AcDbEntity
  8
部品1
100
AcDbLine
 10
6297.473137055715
 20
10159.02169339955
 30
0.0
 11
7164.473137055715
 21
10159.02169339953
 31
0.0
  0
LINE
  5
1632C
330
747D
100
AcDbEntity
  8
部品1
100
AcDbLine
 10
6297.473137055713
 20
10187.02169339955
 30
0.0
 11
6297.473137055713
 21
10159.02169339955
 31
0.0
  0
DIMENSION
  5
16333
330
747D
100
AcDbEntity
  8
寸法
100
AcDbDimension
  2
*D13
 10
7192.473137055715
 20
10402.82991302451
 30
0.0
 11
7500.958418429952
 21
10402.82991302451
 31
0.0
 70
   160
 71
     5
 42
55.0
  3
INABA_S40G
100
AcDbAlignedDimension
 13
7137.473137055714
 23
10187.02169339953
 33
0.0
 14
7192.473137055715
 24
10187.02169339953
 34
0.0
100
AcDbRotatedDimension
1001
ACAD
1000
DSTYLE
1002
{
1002
}
  0
LINE
  5
16334
330
747D
100
AcDbEntity
  8
部品1
100
AcDbLine
 10
6717.473137055712
 20
10187.02169339955
 30
0.0
 11
6717.473137055712
 21
10159.02169339955
 31
0.0
  0
LINE
  5
16335
330
747D
100
AcDbEntity
  8
部品1
100
AcDbLine
 10
7137.473137055714
 20
10187.02169339953
 30
0.0
 11
7137.473137055714
 21
10159.02169339953
 31
0.0
  0
LINE
  5
16336
330
747D
100
AcDbEntity
  8
部品1
100
AcDbLine
 10
7137.473137055714
 20
10187.02169339955
 30
0.0
 11
7137.473137055714
 21
10159.02169339955
 31
0.0
  0
LINE
  5
16337
330
747D
100
AcDbEntity
  8
部品1
100
AcDbLine
 10
7164.473137055715
 20
10132.02169339953
 30
0.0
 11
7192.473137055715
 21
10132.02169339953
 31
0.0
  0
DIMENSION
  5
1659A
330
747D
100
AcDbEntity
  8
寸法
 48
50.0
100
AcDbDimension
  2
*D15
 10
5719.47313705569
 20
7022.590922633266
 30
0.0
 11
5608.510239406942
 21
7122.590922633266
 31
0.0
 70
   160
 71
     5
 42
48.00000000000181
  3
INABA_S40G
100
AcDbAlignedDimension
 13
5767.473137055691
 23
7557.021693399518
 33
0.0
 14
5719.47313705569
 24
7583.02169339943
 34
0.0
100
AcDbRotatedDimension
1001
ACAD
1000
DSTYLE
1002
{
1070
   279
1070
     2
1002
}
  0
DIMENSION
  5
1659C
330
747D
100
AcDbEntity
  8
寸法
 48
50.0
100
AcDbDimension
  2
*D14
 10
4507.473137055703
 20
7022.590922633266
 30
0.0
 11
4668.375108055765
 21
7122.590922633266
 31
0.0
 70
   160
 71
     5
 42
48.00000000000363
  3
INABA_S40G
100
AcDbAlignedDimension
 13
4555.473137055707
 23
7583.021693399429
 33
0.0
 14
4507.473137055703
 24
7557.02169339943
 34
0.0
100
AcDbRotatedDimension
1001
ACAD
1000
DSTYLE
1002
{
1070
   279
1070
     2
1002
}
  0
DIMENSION
  5
165E9
330
747D
100
AcDbEntity
  8
寸法
 48
50.0
100
AcDbDimension
  2
*D16
 10
5767.473137055691
 20
7022.590922633267
 30
0.0
 11
5822.473137055697
 21
6870.899027597035
 31
0.0
 70
   160
 71
     5
 42
110.0000000000127
  3
INABA_S40G
100
AcDbAlignedDimension
 13
5877.473137055704
 23
7557.02169339943
 33
0.0
 14
5767.473137055691
 24
7557.021693399518
 34
0.0
100
AcDbRotatedDimension
1001
ACAD
1000
DSTYLE
1002
{
1070
   279
1070
     2
1002
}
  0
LINE
  5
16656
330
747D
100
AcDbEntity
  8
部品1
100
AcDbLine
 10
5719.47313705569
 20
7622.021693399431
 30
0.0
 11
5767.473137055691
 21
7622.021693399429
 31
0.0
  0
LINE
  5
16657
330
747D
100
AcDbEntity
  8
部品1
 48
50.0
100
AcDbLine
 10
5719.47313705569
 20
7622.021693399431
 30
0.0
 11
5719.47313705569
 21
7613.021693399431
 31
0.0
  0
LINE
  5
16658
330
747D
100
AcDbEntity
  8
部品1
100
AcDbLine
 10
5719.47313705569
 20
7583.02169339943
 30
0.0
 11
5767.473137055689
 21
7583.021693399429
 31
0.0
  0
LINE
  5
16659
330
747D
100
AcDbEntity
  8
部品1
 48
50.0
100
AcDbLine
 10
5719.47313705569
 20
7583.02169339943
 30
0.0
 11
5719.47313705569
 21
7592.021693399431
 31
0.0
  0
LINE
  5
1665A
330
747D
100
AcDbEntity
  8
部品1
 48
50.0
100
AcDbLine
 10
5757.473137055689
 20
7583.021693399429
 30
0.0
 11
5767.473137055689
 21
7562.021693399429
 31
0.0
  0
LINE
  5
1665B
330
747D
100
AcDbEntity
  8
部品1
100
AcDbLine
 10
5767.473137055689
 20
7593.021693399428
 30
0.0
 11
5790.473137055689
 21
7593.021693399428
 31
0.0
  0
LINE
  5
1665C
330
747D
100
AcDbEntity
  8
部品1
100
AcDbLine
 10
5925.473137055707
 20
7622.021693399431
 30
0.0
 11
5877.473137055708
 21
7622.021693399429
 31
0.0
  0
LINE
  5
1665D
330
747D
100
AcDbEntity
  8
部品1
 48
50.0
100
AcDbLine
 10
5925.473137055707
 20
7622.021693399431
 30
0.0
 11
5925.473137055707
 21
7613.021693399431
 31
0.0
  0
LINE
  5
1665E
330
747D
100
AcDbEntity
  8
部品1
100
AcDbLine
 10
5925.473137055707
 20
7583.02169339943
 30
0.0
 11
5877.473137055708
 21
7583.021693399429
 31
0.0
  0
LINE
  5
1665F
330
747D
100
AcDbEntity
  8
部品1
 48
50.0
100
AcDbLine
 10
5887.473137055707
 20
7583.021693399429
 30
0.0
 11
5877.473137055708
 21
7562.021693399429
 31
0.0
  0
LINE
  5
16660
330
747D
100
AcDbEntity
  8
部品1
100
AcDbLine
 10
5877.473137055705
 20
7593.021693399428
 30
0.0
 11
5854.473137055707
 21
7593.021693399428
 31
0.0
  0
LINE
  5
16661
330
747D
100
AcDbEntity
  8
部品1
 48
50.0
100
AcDbLine
 10
5877.473137055708
 20
7622.021693399429
 30
0.0
 11
5877.473137055704
 21
7557.02169339943
 31
0.0
  0
LINE
  5
16662
330
747D
100
AcDbEntity
  8
部品1
 48
50.0
100
AcDbLine
 10
5925.473137055707
 20
7583.02169339943
 30
0.0
 11
5925.473137055707
 21
7592.021693399431
 31
0.0
  0
LINE
  5
16663
330
747D
100
AcDbEntity
  8
部品1
100
AcDbLine
 10
5877.473137055702
 20
7557.02169339943
 30
0.0
 11
5767.473137055692
 21
7557.021693399424
 31
0.0
  0
LINE
  5
16664
330
747D
100
AcDbEntity
  8
部品1
 48
50.0
100
AcDbLine
 10
5767.473137055695
 20
7622.021693399517
 30
0.0
 11
5767.473137055691
 21
7557.021693399518
 31
0.0
  0
LINE
  5
16666
330
747D
100
AcDbEntity
  8
部品1
100
AcDbLine
 10
5877.473137055712
 20
10187.02169339943
 30
0.0
 11
5877.473137055712
 21
10159.02169339943
 31
0.0
  0
LINE
  5
16692
330
747D
100
AcDbEntity
  8
部品1
100
AcDbLine
 10
5767.473137055715
 20
10187.02169339953
 30
0.0
 11
5767.473137055715
 21
10159.02169339953
 31
0.0
  0
DIMENSION
  5
166DD
330
747D
100
AcDbEntity
  8
寸法
 48
50.0
100
AcDbDimension
  2
*D17
 10
5767.473137055715
 20
10402.82991302453
 30
0.0
 11
5822.473137055715
 21
10502.82991302453
 31
0.0
 70
    32
 71
     5
 42
109.9999999999991
  3
INABA_S40G
100
AcDbAlignedDimension
 13
5877.473137055714
 23
10187.02169339948
 33
0.0
 14
5767.473137055715
 24
10187.02169339948
 34
0.0
100
AcDbRotatedDimension
1001
ACAD
1000
DSTYLE
1002
{
1070
   279
1070
     2
1002
}
  0
LINE
  5
16760
330
747D
100
AcDbEntity
  8
部品1
 48
50.0
100
AcDbLine
 10
5822.473137055681
 20
10159.02169339947
 30
0.0
 11
5794.473137055682
 21
10187.02169339953
 31
0.0
  0
LINE
  5
16761
330
747D
100
AcDbEntity
  8
部品1
100
AcDbLine
 10
7137.47313705571
 20
10132.02169339945
 30
0.0
 11
5877.473137055694
 21
10132.02169339945
 31
0.0
  0
LINE
  5
16762
330
747D
100
AcDbEntity
  8
部品1
 48
50.0
100
AcDbLine
 10
5794.473137055682
 20
10159.02169339958
 30
0.0
 11
5794.47313705568
 21
10187.02169339953
 31
0.0
  0
LINE
  5
16763
330
747D
100
AcDbEntity
  8
部品1
 48
50.0
100
AcDbLine
 10
4480.473137055774
 20
10159.02169339947
 30
0.0
 11
5822.473137055681
 21
10159.02169339948
 31
0.0
  0
LINE
  5
168C3
330
747D
100
AcDbEntity
  8
部品1
100
AcDbLine
 10
5846.473137055698
 20
7612.021693399426
 30
0.0
 11
5798.473137055698
 21
7612.021693399426
 31
0.0
  0
LINE
  5
168C4
330
747D
100
AcDbEntity
  8
部品1
 48
50.0
100
AcDbLine
 10
5798.473137055698
 20
7612.021693399427
 30
0.0
 11
5798.473137055702
 21
7557.021693399427
 31
0.0
  0
LINE
  5
168C5
330
747D
100
AcDbEntity
  8
部品1
 48
50.0
100
AcDbLine
 10
5846.473137055698
 20
7612.021693399427
 30
0.0
 11
5846.473137055702
 21
7557.021693399427
 31
0.0
  0
DIMENSION
  5
16913
330
747D
100
AcDbEntity
  8
寸法
 48
50.0
100
AcDbDimension
  2
*D18
 10
7192.473137055715
 20
10652.15138658082
 30
0.0
 11
6507.473137055715
 21
10752.15138658082
 31
0.0
 70
    32
 71
     5
 42
1370.0
  3
INABA_S40G
100
AcDbAlignedDimension
 13
5822.473137055715
 23
10561.81782738248
 33
0.0
 14
7192.473137055715
 24
10187.02169339953
 34
0.0
100
AcDbRotatedDimension
1001
ACAD
1000
DSTYLE
1002
{
1070
    75
1070
     1
1070
   279
1070
     2
1002
}
  0
LINE
  5
172BC
330
747D
100
AcDbEntity
  8
部品1
 48
50.0
100
AcDbLine
 10
5850.473137055682
 20
10132.02169339945
 30
0.0
 11
5850.473137055747
 21
10187.02169339948
 31
0.0
  0
LINE
  5
172BD
330
747D
100
AcDbEntity
  8
部品1
 48
50.0
100
AcDbLine
 10
5794.473137055682
 20
10132.02169339945
 30
0.0
 11
5794.473137055682
 21
10159.02169339947
 31
0.0
  0
LINE
  5
174C8
330
747D
100
AcDbEntity
  8
部品1
 48
50.0
100
AcDbLine
 10
7112.473137055714
 20
10107.0216933994
 30
0.0
 11
5902.473137055667
 21
10107.02169339938
 31
0.0
  0
LINE
  5
174C9
330
747D
100
AcDbEntity
  8
部品1
 48
50.0
100
AcDbLine
 10
7164.473137055715
 20
10159.02169339953
 30
0.0
 11
7137.47313705571
 21
10132.02169339945
 31
0.0
  0
LINE
  5
174CA
330
747D
100
AcDbEntity
  8
部品1
 48
50.0
100
AcDbLine
 10
4507.473137055684
 20
10132.02169339945
 30
0.0
 11
4480.4731370557
 21
10159.02169339955
 31
0.0
  0
DIMENSION
  5
17B86
330
747D
100
AcDbEntity
  8
寸法
 48
50.0
100
AcDbDimension
  2
*D21
 10
5822.473137055715
 20
10652.15138658082
 30
0.0
 11
5137.473137055696
 21
10752.15138658082
 31
0.0
 70
    32
 71
     5
 42
1370.000000000035
  3
INABA_S40G
100
AcDbAlignedDimension
 13
4452.473137055679
 23
10187.0216933994
 33
0.0
 14
5822.473137055715
 24
10561.81782738248
 34
0.0
100
AcDbRotatedDimension
1001
ACAD
1000
DSTYLE
1002
{
1070
   279
1070
     2
1002
}
  0
DIMENSION
  5
17B87
330
747D
100
AcDbEntity
  8
寸法
100
AcDbDimension
  2
*D20
 10
5767.473137055715
 20
10402.82991302453
 30
0.0
 11
5137.473137055715
 21
10502.84172404815
 31
0.0
 70
    32
  1
3X420=<>
 71
     5
 42
1260.000000000001
  3
INABA_S40G
100
AcDbAlignedDimension
 13
4507.473137055714
 23
10187.02169339943
 33
0.0
 14
5767.473137055715
 24
10187.02169339953
 34
0.0
100
AcDbRotatedDimension
1001
ACAD
1000
DSTYLE
1002
{
1002
}
  0
LINE
  5
17B8B
330
747D
100
AcDbEntity
  8
部品1
 48
50.0
100
AcDbLine
 10
5742.473137055684
 20
10107.02169339935
 30
0.0
 11
4532.473137055684
 21
10107.02169339935
 31
0.0
  0
LINE
  5
17BA3
330
747D
100
AcDbEntity
  8
部品1
100
AcDbLine
 10
5347.473137055713
 20
10187.02169339955
 30
0.0
 11
5347.473137055713
 21
10159.02169339955
 31
0.0
  0
LINE
  5
17BA4
330
747D
100
AcDbEntity
  8
部品1
100
AcDbLine
 10
4927.473137055713
 20
10187.02169339943
 30
0.0
 11
4927.473137055713
 21
10159.02169339943
 31
0.0
  0
LINE
  5
17BA5
330
747D
100
AcDbEntity
  8
部品1
100
AcDbLine
 10
4927.473137055713
 20
10187.02169339943
 30
0.0
 11
4927.473137055713
 21
10159.02169339943
 31
0.0
  0
LINE
  5
17BA6
330
747D
100
AcDbEntity
  8
部品1
100
AcDbLine
 10
4927.473137055713
 20
10187.02169339955
 30
0.0
 11
4927.473137055713
 21
10159.02169339955
 31
0.0
  0
LINE
  5
17BA7
330
747D
100
AcDbEntity
  8
部品1
100
AcDbLine
 10
4927.473137055713
 20
10187.02169339943
 30
0.0
 11
4927.473137055713
 21
10159.02169339943
 31
0.0
  0
LINE
  5
17BA8
330
747D
100
AcDbEntity
  8
部品1
100
AcDbLine
 10
4927.473137055713
 20
10187.02169339943
 30
0.0
 11
4927.473137055713
 21
10159.02169339943
 31
0.0
  0
LINE
  5
17BA9
330
747D
100
AcDbEntity
  8
部品1
100
AcDbLine
 10
4927.473137055713
 20
10187.02169339955
 30
0.0
 11
4927.473137055713
 21
10159.02169339955
 31
0.0
  0
LINE
  5
17BC2
330
747D
100
AcDbEntity
  8
部品1
 48
50.0
100
AcDbLine
 10
4519.473137055705
 20
7602.521693399428
 30
0.0
 11
5755.473137055691
 21
7602.521693399428
 31
0.0
  0
DIMENSION
  5
17BC3
330
747D
100
AcDbEntity
  8
寸法
 48
50.0
100
AcDbDimension
  2
*D19
 10
4555.473137055707
 20
7022.590922633266
 30
0.0
 11
5137.473137055699
 21
7222.590922633266
 31
0.0
 70
    32
  1
有効開口部間口\P <>
 71
     5
 42
1163.999999999981
  3
INABA_S40G
100
AcDbAlignedDimension
 13
5719.47313705569
 23
7583.02169339943
 33
0.0
 14
4555.473137055707
 24
7583.021693399429
 34
0.0
100
AcDbRotatedDimension
1001
ACAD
1000
DSTYLE
1002
{
1070
    75
1070
     1
1070
   279
1070
     2
1002
}
  0
LINE
  5
17D0F
330
747D
100
AcDbEntity
  8
部品1
100
AcDbLine
 10
7164.473137055705
 20
9712.021693399524
 30
0.0
 11
7192.473137055706
 21
9712.021693399524
 31
0.0
  0
LINE
  5
17D10
330
747D
100
AcDbEntity
  8
部品1
100
AcDbLine
 10
7164.473137055709
 20
9292.021693399524
 30
0.0
 11
7192.47313705571
 21
9292.021693399524
 31
0.0
  0
LINE
  5
17D11
330
747D
100
AcDbEntity
  8
部品1
100
AcDbLine
 10
4480.47313705568
 20
9712.021693399396
 30
0.0
 11
4452.47313705568
 21
9712.021693399396
 31
0.0
  0
LINE
  5
17D12
330
747D
100
AcDbEntity
  8
部品1
100
AcDbLine
 10
4480.473137055684
 20
9292.021693399396
 30
0.0
 11
4452.473137055683
 21
9292.021693399396
 31
0.0
  0
LINE
  5
18100
330
747D
100
AcDbEntity
  8
Ｇ．Ｌ
100
AcDbLine
 10
3364.206534385225
 20
2437.931598713262
 30
0.0
 11
13325.76382658096
 21
2437.931598713261
 31
0.0
  0
LINE
  5
18105
330
747D
100
AcDbEntity
  8
部品1
100
AcDbLine
 10
4452.47313705568
 20
10187.02169339948
 30
0.0
 11
7192.473137055715
 21
10187.02169339953
 31
0.0
  0
LINE
  5
18106
330
747D
100
AcDbEntity
  8
寸法
 48
50.0
100
AcDbLine
 10
5822.363437165186
 20
10579.29412436544
 30
0.0
 11
5822.363437165186
 21
10718.44525197339
 31
0.0
  0
LINE
  5
18161
330
747D
100
AcDbEntity
  8
部品1
100
AcDbLine
 10
5822.4731370557
 20
10132.0216933994
 30
0.0
 11
5822.473137055673
 21
7612.021693399373
 31
0.0
  0
LINE
  5
18162
330
747D
100
AcDbEntity
  8
部品1
100
AcDbLine
 10
5850.473137055661
 20
7557.021693399377
 30
0.0
 11
5850.473137055684
 21
10187.02169339942
 31
0.0
  0
LINE
  5
18163
330
747D
100
AcDbEntity
  8
部品1
 48
10.0
100
AcDbLine
 10
5902.473137055714
 20
7622.021693399378
 30
0.0
 11
5902.473137055667
 21
10132.0216933994
 31
0.0
  0
LINE
  5
18164
330
747D
100
AcDbEntity
  8
部品1
100
AcDbLine
 10
5877.47313705572
 20
7622.021693399378
 30
0.0
 11
5877.473137055693
 21
10132.02169339937
 31
0.0
  0
LINE
  5
18165
330
747D
100
AcDbEntity
  8
部品1
100
AcDbLine
 10
5794.473137055682
 20
10159.02169339947
 30
0.0
 11
5794.473137055666
 21
7557.021693399372
 31
0.0
  0
LINE
  5
18166
330
747D
100
AcDbEntity
  8
部品1
 48
10.0
100
AcDbLine
 10
5742.473137055709
 20
7622.021693399378
 30
0.0
 11
5742.473137055684
 21
10132.02169339938
 31
0.0
  0
LINE
  5
18167
330
747D
100
AcDbEntity
  8
部品1
100
AcDbLine
 10
5767.4731370557
 20
7622.021693399378
 30
0.0
 11
5767.473137055692
 21
10132.02169339938
 31
0.0
  0
LINE
  5
18168
330
747D
100
AcDbEntity
  8
部品1
100
AcDbLine
 10
5794.473137055702
 20
8872.02169339948
 30
0.0
 11
5822.473137055702
 21
8872.02169339948
 31
0.0
  0
LINE
  5
18169
330
747D
100
AcDbEntity
  8
部品1
100
AcDbLine
 10
5794.473137055702
 20
9292.02169339948
 30
0.0
 11
5822.473137055702
 21
9292.02169339948
 31
0.0
  0
LINE
  5
1816A
330
747D
100
AcDbEntity
  8
部品1
100
AcDbLine
 10
5794.473137055702
 20
9712.02169339948
 30
0.0
 11
5822.473137055702
 21
9712.02169339948
 31
0.0
  0
LINE
  5
1816B
330
747D
100
AcDbEntity
  8
部品1
 48
50.0
100
AcDbLine
 10
5850.473137055735
 20
10159.02169339929
 30
0.0
 11
5877.473137055724
 21
10132.0216933993
 31
0.0
  0
LINE
  5
1816C
330
747D
100
AcDbEntity
  8
部品1
 48
50.0
100
AcDbLine
 10
5794.473137055749
 20
10159.02169339938
 30
0.0
 11
5767.473137055746
 21
10132.02169339938
 31
0.0
  0
LINE
  5
1816F
330
747D
100
AcDbEntity
  8
部品1
100
AcDbLine
 10
5767.473137055692
 20
10132.02169339945
 30
0.0
 11
4507.473137055684
 21
10132.02169339945
 31
0.0
  0
LINE
  5
18170
330
747D
100
AcDbEntity
  8
部品1
100
AcDbLine
 10
5850.473137055684
 20
10132.02169339945
 30
0.0
 11
5794.47313705568
 21
10132.02169339945
 31
0.0
  0
LINE
  5
18171
330
747D
100
AcDbEntity
  8
部品1
100
AcDbLine
 10
5794.473137055709
 20
8452.02169339948
 30
0.0
 11
5822.473137055709
 21
8452.02169339948
 31
0.0
  0
LINE
  5
18172
330
747D
100
AcDbEntity
  8
部品1
100
AcDbLine
 10
5794.473137055709
 20
8032.02169339948
 30
0.0
 11
5822.473137055709
 21
8032.02169339948
 31
0.0
  0
TEXT
  5
18D2D
330
747D
100
AcDbEntity
  8
文字
 62
     7
 48
50.0
100
AcDbText
 10
15022.63965474516
 20
9910.013745883727
 30
0.0
 40
100.0
  1
F12,Y10        1.0
  7
STYLE1
100
AcDbText
  0
TEXT
  5
18D2E
330
747D
100
AcDbEntity
  8
文字
 62
     7
 48
50.0
100
AcDbText
 10
13583.11819016569
 20
9910.01374588373
 30
0.0
 40
100.0
  1
梁中
  7
STYLE1
100
AcDbText
  0
TEXT
  5
18D2F
330
747D
100
AcDbEntity
  8
文字
 62
     7
 48
50.0
100
AcDbText
 10
13248.77747366448
 20
8720.013745883731
 30
0.0
 40
100.0
  1
14
  7
STYLE1
100
AcDbText
  0
LINE
  5
18D30
330
747D
100
AcDbEntity
  8
仕様書枠
 48
50.0
100
AcDbLine
 10
16307.19999999999
 20
9879.599999999999
 30
0.0
 11
13127.2
 21
9879.600000000001
 31
0.0
  0
LINE
  5
18D31
330
747D
100
AcDbEntity
  8
仕様書枠
 48
50.0
100
AcDbLine
 10
16307.19999999999
 20
11239.6
 30
0.0
 11
13127.2
 21
11239.6
 31
0.0
  0
LINE
  5
18D32
330
747D
100
AcDbEntity
  8
仕様書枠
 48
50.0
100
AcDbLine
 10
16307.2
 20
8179.6
 30
0.0
 11
16307.2
 21
11239.6
 31
0.0
  0
LINE
  5
18D33
330
747D
100
AcDbEntity
  8
仕様書枠
 48
50.0
100
AcDbLine
 10
14785.2
 20
11239.59999999999
 30
0.0
 11
14785.2
 21
8689.6
 31
0.0
  0
LINE
  5
18D34
330
747D
100
AcDbEntity
  8
仕様書枠
 48
50.0
100
AcDbLine
 10
13490.2
 20
11239.6
 30
0.0
 11
13490.2
 21
8689.6
 31
0.0
  0
LINE
  5
18D35
330
747D
100
AcDbEntity
  8
仕様書枠
 48
50.0
100
AcDbLine
 10
16307.19999999999
 20
11069.6
 30
0.0
 11
13127.2
 21
11069.6
 31
0.0
  0
LINE
  5
18D36
330
747D
100
AcDbEntity
  8
仕様書枠
 48
50.0
100
AcDbLine
 10
16307.19999999999
 20
10729.6
 30
0.0
 11
13127.2
 21
10729.6
 31
0.0
  0
LINE
  5
18D37
330
747D
100
AcDbEntity
  8
仕様書枠
 48
50.0
100
AcDbLine
 10
16307.19999999999
 20
10899.6
 30
0.0
 11
13127.2
 21
10899.6
 31
0.0
  0
LINE
  5
18D38
330
747D
100
AcDbEntity
  8
仕様書枠
 48
50.0
100
AcDbLine
 10
16307.19999999999
 20
10389.6
 30
0.0
 11
13127.19999999999
 21
10389.6
 31
0.0
  0
LINE
  5
18D39
330
747D
100
AcDbEntity
  8
仕様書枠
 48
50.0
100
AcDbLine
 10
16307.19999999999
 20
10219.6
 30
0.0
 11
13127.19999999999
 21
10219.6
 31
0.0
  0
LINE
  5
18D3A
330
747D
100
AcDbEntity
  8
仕様書枠
 48
50.0
100
AcDbLine
 10
16307.19999999999
 20
10559.6
 30
0.0
 11
13127.19999999999
 21
10559.6
 31
0.0
  0
TEXT
  5
18D3B
330
747D
100
AcDbEntity
  8
文字
 62
     7
 48
50.0
100
AcDbText
 10
13197.42518560407
 20
11100.01374588373
 30
0.0
 40
100.0
  1
品番
  7
STYLE1
100
AcDbText
  0
TEXT
  5
18D3C
330
747D
100
AcDbEntity
  8
文字
 62
     7
 48
50.0
100
AcDbText
 10
13271.19032244792
 20
10930.01374588373
 30
0.0
 40
100.0
  1
1
  7
STYLE1
100
AcDbText
  0
TEXT
  5
18D3D
330
747D
100
AcDbEntity
  8
文字
 62
     7
 48
50.0
100
AcDbText
 10
13271.19032244792
 20
10760.01374588373
 30
0.0
 40
100.0
  1
2
  7
STYLE1
100
AcDbText
  0
TEXT
  5
18D3E
330
747D
100
AcDbEntity
  8
文字
 62
     7
 48
50.0
100
AcDbText
 10
13271.19032244792
 20
10420.01374588373
 30
0.0
 40
100.0
  1
4
  7
STYLE1
100
AcDbText
  0
TEXT
  5
18D3F
330
747D
100
AcDbEntity
  8
文字
 62
     7
 48
50.0
100
AcDbText
 10
13271.19032244792
 20
10590.01374588373
 30
0.0
 40
100.0
  1
3
  7
STYLE1
100
AcDbText
  0
TEXT
  5
18D40
330
747D
100
AcDbEntity
  8
文字
 62
     7
 48
50.0
100
AcDbText
 10
13732.03840939434
 20
11100.01374588373
 30
0.0
 40
100.0
  1
部　　品　　名
  7
STYLE1
100
AcDbText
  0
TEXT
  5
18D41
330
747D
100
AcDbEntity
  8
文字
 62
     7
 48
50.0
100
AcDbText
 10
14859.79774614482
 20
11100.01374588373
 30
0.0
 40
100.0
  1
材料（材質）　　単位mm
  7
STYLE1
100
AcDbText
  0
TEXT
  5
18D42
330
747D
100
AcDbEntity
  8
文字
 62
     7
 48
50.0
100
AcDbText
 10
13583.11819016569
 20
10930.01374588372
 30
0.0
 40
100.0
  1
土台枠
  7
STYLE1
100
AcDbText
  0
TEXT
  5
18D43
330
747D
100
AcDbEntity
  8
文字
 62
     7
 48
50.0
100
AcDbText
 10
13583.11819016569
 20
10760.01374588372
 30
0.0
 40
100.0
  1
柱
  7
STYLE1
100
AcDbText
  0
TEXT
  5
18D44
330
747D
100
AcDbEntity
  8
文字
 62
     7
 48
50.0
100
AcDbText
 10
13583.11819016569
 20
10590.01374588373
 30
0.0
 40
100.0
  1
桁前
  7
STYLE1
100
AcDbText
  0
TEXT
  5
18D45
330
747D
100
AcDbEntity
  8
文字
 62
     7
 48
50.0
100
AcDbText
 10
13583.11819016569
 20
10420.01374588373
 30
0.0
 40
100.0
  1
桁後
  7
STYLE1
100
AcDbText
  0
TEXT
  5
18D46
330
747D
100
AcDbEntity
  8
文字
 62
     7
 48
50.0
100
AcDbText
 10
13271.19032244792
 20
10250.01374588373
 30
0.0
 40
100.0
  1
5
  7
STYLE1
100
AcDbText
  0
TEXT
  5
18D47
330
747D
100
AcDbEntity
  8
文字
 62
     7
 48
50.0
100
AcDbText
 10
13583.11819016569
 20
10250.01374588373
 30
0.0
 40
100.0
  1
妻板左右
  7
STYLE1
100
AcDbText
  0
TEXT
  5
18D48
330
747D
100
AcDbEntity
  8
文字
 62
     7
 48
50.0
100
AcDbText
 10
13583.11819016569
 20
8890.013745883727
 30
0.0
 40
100.0
  1
シャッターレール
  7
STYLE1
100
AcDbText
  0
TEXT
  5
18D49
330
747D
100
AcDbEntity
  8
文字
 62
     7
 48
50.0
100
AcDbText
 10
13248.77747366448
 20
9400.013745883727
 30
0.0
 40
100.0
  1
10
  7
STYLE1
100
AcDbText
  0
TEXT
  5
18D4A
330
747D
100
AcDbEntity
  8
文字
 62
     7
 48
50.0
100
AcDbText
 10
13583.11819016569
 20
9400.013745883729
 30
0.0
 40
100.0
  1
壁パネル
  7
STYLE1
100
AcDbText
  0
TEXT
  5
18D4B
330
747D
100
AcDbEntity
  8
文字
 62
     7
 48
50.0
100
AcDbText
 10
13583.11819016569
 20
9570.013745883727
 30
0.0
 40
100.0
  1
屋根パネル
  7
STYLE1
100
AcDbText
  0
TEXT
  5
18D4C
330
747D
100
AcDbEntity
  8
文字
 62
     7
 48
50.0
100
AcDbText
 10
13583.11819016569
 20
9740.013745883729
 30
0.0
 40
100.0
  1
母屋中
  7
STYLE1
100
AcDbText
  0
TEXT
  5
18D4D
330
747D
100
AcDbEntity
  8
文字
 62
     7
 48
50.0
100
AcDbText
 10
13583.11819016569
 20
10080.01374588372
 30
0.0
 40
100.0
  1
鼻隠シ前後
  7
STYLE1
100
AcDbText
  0
TEXT
  5
18D4E
330
747D
100
AcDbEntity
  8
文字
 62
     7
 48
50.0
100
AcDbText
 10
13271.19032244792
 20
9740.013745883729
 30
0.0
 40
100.0
  1
8
  7
STYLE1
100
AcDbText
  0
TEXT
  5
18D4F
330
747D
100
AcDbEntity
  8
文字
 62
     7
 48
50.0
100
AcDbText
 10
13271.19032244792
 20
9570.013745883729
 30
0.0
 40
100.0
  1
9
  7
STYLE1
100
AcDbText
  0
TEXT
  5
18D50
330
747D
100
AcDbEntity
  8
文字
 62
     7
 48
50.0
100
AcDbText
 10
13271.19032244792
 20
9910.01374588373
 30
0.0
 40
100.0
  1
7
  7
STYLE1
100
AcDbText
  0
TEXT
  5
18D51
330
747D
100
AcDbEntity
  8
文字
 62
     7
 48
50.0
100
AcDbText
 10
13271.19032244792
 20
10080.01374588373
 30
0.0
 40
100.0
  1
6
  7
STYLE1
100
AcDbText
  0
LINE
  5
18D52
330
747D
100
AcDbEntity
  8
仕様書枠
 48
50.0
100
AcDbLine
 10
16307.19999999999
 20
9539.599999999998
 30
0.0
 11
13127.19999999999
 21
9539.6
 31
0.0
  0
LINE
  5
18D53
330
747D
100
AcDbEntity
  8
仕様書枠
 48
50.0
100
AcDbLine
 10
16307.19999999999
 20
9199.599999999998
 30
0.0
 11
13127.19999999999
 21
9199.600000000001
 31
0.0
  0
LINE
  5
18D54
330
747D
100
AcDbEntity
  8
仕様書枠
 48
50.0
100
AcDbLine
 10
16307.19999999999
 20
9369.599999999998
 30
0.0
 11
13127.19999999999
 21
9369.600000000001
 31
0.0
  0
LINE
  5
18D55
330
747D
100
AcDbEntity
  8
仕様書枠
 48
50.0
100
AcDbLine
 10
16307.19999999999
 20
10049.6
 30
0.0
 11
13127.2
 21
10049.6
 31
0.0
  0
LINE
  5
18D56
330
747D
100
AcDbEntity
  8
仕様書枠
 48
50.0
100
AcDbLine
 10
16307.19999999999
 20
9709.6
 30
0.0
 11
13127.2
 21
9709.600000000001
 31
0.0
  0
TEXT
  5
18D57
330
747D
100
AcDbEntity
  8
文字
 62
     7
 48
50.0
100
AcDbText
 10
13248.77747366448
 20
9230.013745883727
 30
0.0
 40
100.0
  1
11
  7
STYLE1
100
AcDbText
  0
TEXT
  5
18D58
330
747D
100
AcDbEntity
  8
文字
 62
     7
 48
50.0
100
AcDbText
 10
13583.11819016569
 20
9060.013745883727
 30
0.0
 40
100.0
  1
シャッターカバー
 41
0.9
  7
STYLE1
100
AcDbText
  0
LINE
  5
18D59
330
747D
100
AcDbEntity
  8
仕様書枠
 48
50.0
100
AcDbLine
 10
16307.19999999999
 20
9029.6
 30
0.0
 11
13127.19999999999
 21
9029.6
 31
0.0
  0
TEXT
  5
18D5B
330
747D
100
AcDbEntity
  8
文字
 62
     7
 48
50.0
100
AcDbText
 10
13583.11819016569
 20
8720.013745883729
 30
0.0
 40
100.0
  1
棚板（別売）
  7
STYLE1
100
AcDbText
  0
LINE
  5
18D5C
330
747D
100
AcDbEntity
  8
仕様書枠
 48
50.0
100
AcDbLine
 10
16307.19999999999
 20
8859.6
 30
0.0
 11
13127.19999999999
 21
8859.600000000002
 31
0.0
  0
TEXT
  5
18D5D
330
747D
100
AcDbEntity
  8
文字
 62
     7
 48
50.0
100
AcDbText
 10
13583.1181901657
 20
9230.013745883731
 30
0.0
 40
100.0
  1
シャッター
  7
STYLE1
100
AcDbText
  0
TEXT
  5
18D5E
330
747D
100
AcDbEntity
  8
文字
 62
     7
 48
50.0
100
AcDbText
 10
13248.77747366448
 20
8890.013745883729
 30
0.0
 40
100.0
  1
13
  7
STYLE1
100
AcDbText
  0
TEXT
  5
18D5F
330
747D
100
AcDbEntity
  8
文字
 62
     7
 48
50.0
100
AcDbText
 10
13248.77747366448
 20
9060.013745883729
 30
0.0
 40
100.0
  1
12
  7
STYLE1
100
AcDbText
  0
TEXT
  5
18D60
330
747D
100
AcDbEntity
  8
文字
 62
     7
 48
50.0
100
AcDbText
 10
15022.63965474517
 20
10930.01374588372
 30
0.0
 40
100.0
  1
F12            1.2
  7
STYLE1
100
AcDbText
  0
TEXT
  5
18D62
330
747D
100
AcDbEntity
  8
文字
 62
     7
 48
50.0
100
AcDbText
 10
15022.63965474516
 20
10590.01374588372
 30
0.0
 40
100.0
  1
Y10            1.0
  7
STYLE1
100
AcDbText
  0
TEXT
  5
18D63
330
747D
100
AcDbEntity
  8
文字
 62
     7
 48
50.0
100
AcDbText
 10
15022.63965474516
 20
10420.01374588372
 30
0.0
 40
100.0
  1
Y10            1.0
  7
STYLE1
100
AcDbText
  0
TEXT
  5
18D64
330
747D
100
AcDbEntity
  8
文字
 62
     7
 48
50.0
100
AcDbText
 10
15022.63965474516
 20
10250.01374588372
 30
0.0
 40
100.0
  1
Y10            0.7
  7
STYLE1
100
AcDbText
  0
TEXT
  5
18D65
330
747D
100
AcDbEntity
  8
文字
 62
     7
 48
50.0
100
AcDbText
 10
15022.63965474516
 20
10080.01374588372
 30
0.0
 40
100.0
  1
Y10            0.7
  7
STYLE1
100
AcDbText
  0
TEXT
  5
18D66
330
747D
100
AcDbEntity
  8
文字
 62
     7
 48
50.0
100
AcDbText
 10
15022.63965474517
 20
9740.013745883725
 30
0.0
 40
100.0
  1
F12            1.0
  7
STYLE1
100
AcDbText
  0
TEXT
  5
18D67
330
747D
100
AcDbEntity
  8
文字
 62
     7
 48
50.0
100
AcDbText
 10
15022.63965474517
 20
9570.013745883725
 30
0.0
 40
100.0
  1
Y10            0.5
  7
STYLE1
100
AcDbText
  0
TEXT
  5
18D68
330
747D
100
AcDbEntity
  8
文字
 62
     7
 48
50.0
100
AcDbText
 10
15022.63965474516
 20
9400.013745883725
 30
0.0
 40
100.0
  1
F12            0.7
  7
STYLE1
100
AcDbText
  0
TEXT
  5
18D69
330
747D
100
AcDbEntity
  8
文字
 62
     7
 48
50.0
100
AcDbText
 10
14850.83183167176
 20
8890.013745883726
 30
0.0
 40
100.0
  1
アルミニウム合金押出形材
  7
STYLE1
100
AcDbText
  0
TEXT
  5
18D6B
330
747D
100
AcDbEntity
  8
文字
 62
     7
 48
50.0
100
AcDbText
 10
15022.63965474516
 20
9230.013745883727
 30
0.0
 40
100.0
  1
Z08            0.5
  7
STYLE1
100
AcDbText
  0
TEXT
  5
18D6C
330
747D
100
AcDbEntity
  8
文字
 62
     7
 48
50.0
100
AcDbText
 10
15022.63965474515
 20
8720.013745883727
 30
0.0
 40
100.0
  1
F12            0.6
  7
STYLE1
100
AcDbText
  0
LINE
  5
18D6D
330
747D
100
AcDbEntity
  8
仕様書枠
 48
50.0
100
AcDbLine
 10
16307.19999999998
 20
8519.599999999998
 30
0.0
 11
13127.19999999998
 21
8519.600000000002
 31
0.0
  0
LINE
  5
18D6E
330
747D
100
AcDbEntity
  8
仕様書枠
 48
50.0
100
AcDbLine
 10
16307.19999999998
 20
8349.599999999998
 30
0.0
 11
13127.19999999998
 21
8349.6
 31
0.0
  0
LINE
  5
18D6F
330
747D
100
AcDbEntity
  8
仕様書枠
 48
50.0
100
AcDbLine
 10
16307.19999999998
 20
8179.599999999998
 30
0.0
 11
13127.19999999998
 21
8179.6
 31
0.0
  0
TEXT
  5
18D70
330
747D
100
AcDbEntity
  8
文字
 62
     7
 48
50.0
100
AcDbText
 10
13229.83081656554
 20
8550.013745883727
 30
0.0
 40
100.0
  1
F12→溶融亜鉛めっき鋼板(JIS G 3302)
  7
STYLE1
100
AcDbText
  0
TEXT
  5
18D71
330
747D
100
AcDbEntity
  8
文字
 62
     7
 48
50.0
100
AcDbText
 10
13229.83081656553
 20
8380.013745883728
 30
0.0
 40
100.0
  1
Y10→溶融亜鉛-5％アルミニウム合金めっき鋼板(JIS G 3317)
 41
0.9
  7
STYLE1
100
AcDbText
  0
TEXT
  5
18D72
330
747D
100
AcDbEntity
  8
文字
 62
     7
 48
50.0
100
AcDbText
 10
13229.83081656554
 20
8210.013745883729
 30
0.0
 40
100.0
  1
Z08→塗装溶融亜鉛めっき鋼板(JIS G 3313)
  7
STYLE1
100
AcDbText
  0
LINE
  5
18D73
330
747D
100
AcDbEntity
  8
仕様書枠
 48
50.0
100
AcDbLine
 10
13127.2
 20
11239.6
 30
0.0
 11
13127.2
 21
8179.600000000002
 31
0.0
  0
TEXT
  5
18EF1
330
747D
100
AcDbEntity
  8
文字
 62
     7
 48
50.0
100
AcDbText
 10
13208.66940634409
 20
75.99010014536543
 30
0.0
 40
100.0
  1
○床面積 ： 7.21㎡(2.18坪)
  7
STYLE2
100
AcDbText
  0
LINE
  5
1946E
330
747D
100
AcDbEntity
  8
部品1
100
AcDbLine
 10
9819.649910445329
 20
2537.931598713262
 30
0.0
 11
9426.65269623648
 21
2437.931598713261
 31
0.0
  0
LINE
  5
1946F
330
747D
100
AcDbEntity
  8
破線
 48
5.0
100
AcDbLine
 10
9819.649910445329
 20
2187.931598713261
 30
0.0
 11
9874.649910445329
 21
2187.931598713261
 31
0.0
  0
LINE
  5
19470
330
747D
100
AcDbEntity
  8
破線
 48
5.0
100
AcDbLine
 10
9874.649910445329
 20
2437.931598713261
 30
0.0
 11
9874.649910445329
 21
2187.931598713261
 31
0.0
  0
LINE
  5
19471
330
747D
100
AcDbEntity
  8
破線
 48
5.0
100
AcDbLine
 10
9819.649910445329
 20
2437.931598713261
 30
0.0
 11
9819.649910445329
 21
2187.931598713261
 31
0.0
  0
DIMENSION
  5
19477
330
747D
100
AcDbEntity
  8
寸法
 48
50.0
100
AcDbDimension
  2
*D22
 10
9199.041503676953
 20
4787.276857586594
 30
0.0
 11
9209.70697893588
 21
5158.123520828292
 31
0.0
 70
   161
 71
     5
 42
140.9999999999991
  3
INABA_S40G
100
AcDbAlignedDimension
 13
9779.045930603908
 23
4911.654347547941
 33
0.0
 14
9774.992475047282
 24
4770.712623782229
 34
0.0
1001
ACAD
1000
DSTYLE
1002
{
1070
   174
1070
     0
1070
   272
1070
     1
1070
   288
1070
     0
1070
   341
1005
0
1002
}
  0
LINE
  5
19478
330
747D
100
AcDbEntity
  8
細線
 48
50.0
100
AcDbLine
 10
12317.14991044533
 20
4677.931598713261
 30
0.0
 11
12317.14991044533
 21
2587.931598713263
 31
0.0
  0
LINE
  5
19479
330
747D
100
AcDbEntity
  8
細線
 48
50.0
100
AcDbLine
 10
12332.14991044533
 20
4677.931598713261
 30
0.0
 11
12332.14991044533
 21
2587.931598713263
 31
0.0
  0
LINE
  5
1947A
330
747D
100
AcDbEntity
  8
細線
 48
50.0
100
AcDbLine
 10
12192.14991044533
 20
4677.931598713261
 30
0.0
 11
12192.14991044533
 21
2587.931598713263
 31
0.0
  0
LINE
  5
1947B
330
747D
100
AcDbEntity
  8
細線
 48
50.0
100
AcDbLine
 10
12177.14991044533
 20
4677.931598713261
 30
0.0
 11
12177.14991044533
 21
2587.931598713263
 31
0.0
  0
LINE
  5
1947C
330
747D
100
AcDbEntity
  8
細線
 48
50.0
100
AcDbLine
 10
12037.14991044533
 20
4677.931598713261
 30
0.0
 11
12037.14991044533
 21
2587.931598713263
 31
0.0
  0
LINE
  5
1947D
330
747D
100
AcDbEntity
  8
細線
 48
50.0
100
AcDbLine
 10
12052.14991044533
 20
4677.931598713261
 30
0.0
 11
12052.14991044533
 21
2587.931598713263
 31
0.0
  0
LINE
  5
1947E
330
747D
100
AcDbEntity
  8
部品1
100
AcDbLine
 10
11134.64991044533
 20
4677.931598713261
 30
0.0
 11
11134.64991044533
 21
2587.931598713261
 31
0.0
  0
LINE
  5
1947F
330
747D
100
AcDbEntity
  8
細線
 48
50.0
100
AcDbLine
 10
10792.14991044533
 20
4677.931598713261
 30
0.0
 11
10792.14991044533
 21
2587.931598713261
 31
0.0
  0
LINE
  5
19480
330
747D
100
AcDbEntity
  8
細線
 48
50.0
100
AcDbLine
 10
10777.14991044533
 20
4677.931598713261
 30
0.0
 11
10777.14991044533
 21
2587.931598713261
 31
0.0
  0
LINE
  5
19481
330
747D
100
AcDbEntity
  8
細線
 48
50.0
100
AcDbLine
 10
10917.14991044533
 20
4677.931598713261
 30
0.0
 11
10917.14991044533
 21
2587.931598713261
 31
0.0
  0
LINE
  5
19482
330
747D
100
AcDbEntity
  8
細線
 48
50.0
100
AcDbLine
 10
10932.14991044533
 20
4677.931598713261
 30
0.0
 11
10932.14991044533
 21
2587.931598713261
 31
0.0
  0
LINE
  5
19483
330
747D
100
AcDbEntity
  8
細線
 48
50.0
100
AcDbLine
 10
11072.14991044533
 20
4677.931598713261
 30
0.0
 11
11072.14991044533
 21
2587.931598713261
 31
0.0
  0
LINE
  5
19484
330
747D
100
AcDbEntity
  8
細線
 48
50.0
100
AcDbLine
 10
11057.14991044533
 20
4677.931598713261
 30
0.0
 11
11057.14991044533
 21
2587.931598713261
 31
0.0
  0
LINE
  5
19485
330
747D
100
AcDbEntity
  8
部品1
100
AcDbLine
 10
10714.64991044533
 20
4677.931598713261
 30
0.0
 11
10714.64991044533
 21
2587.931598713261
 31
0.0
  0
DIMENSION
  5
19486
330
747D
100
AcDbEntity
  8
寸法
 48
50.0
100
AcDbDimension
  2
*D23
 10
12529.64991044533
 20
5311.589052292568
 30
0.0
 11
12735.69715453982
 21
5311.589052292568
 31
0.0
 70
   160
 71
     5
 42
80.0
  3
INABA_S40G
100
AcDbAlignedDimension
 13
12449.64991044533
 23
4859.742278324915
 33
0.0
 14
12529.64991044533
 24
4857.931598713264
 34
0.0
100
AcDbRotatedDimension
1001
ACAD
1000
DSTYLE
1002
{
1070
   174
1070
     0
1070
   272
1070
     1
1070
   288
1070
     0
1070
   341
1005
0
1002
}
  0
LINE
  5
19487
330
747D
100
AcDbEntity
  8
細線
 48
50.0
100
AcDbLine
 10
9952.149910445328
 20
4677.931598713261
 30
0.0
 11
9952.149910445328
 21
2587.931598713261
 31
0.0
  0
LINE
  5
19488
330
747D
100
AcDbEntity
  8
細線
 48
50.0
100
AcDbLine
 10
9937.149910445329
 20
4677.931598713261
 30
0.0
 11
9937.149910445329
 21
2587.931598713261
 31
0.0
  0
LINE
  5
19489
330
747D
100
AcDbEntity
  8
細線
 48
50.0
100
AcDbLine
 10
10077.14991044533
 20
4677.931598713261
 30
0.0
 11
10077.14991044533
 21
2587.931598713261
 31
0.0
  0
LINE
  5
1948A
330
747D
100
AcDbEntity
  8
細線
 48
50.0
100
AcDbLine
 10
10092.14991044533
 20
4677.931598713261
 30
0.0
 11
10092.14991044533
 21
2587.931598713261
 31
0.0
  0
LINE
  5
1948B
330
747D
100
AcDbEntity
  8
細線
 48
50.0
100
AcDbLine
 10
10232.14991044533
 20
4677.931598713261
 30
0.0
 11
10232.14991044533
 21
2587.931598713261
 31
0.0
  0
LINE
  5
1948C
330
747D
100
AcDbEntity
  8
細線
 48
50.0
100
AcDbLine
 10
10217.14991044533
 20
4677.931598713261
 30
0.0
 11
10217.14991044533
 21
2587.931598713261
 31
0.0
  0
LINE
  5
1948D
330
747D
100
AcDbEntity
  8
細線
 48
50.0
100
AcDbLine
 10
10637.14991044533
 20
4677.931598713261
 30
0.0
 11
10637.14991044533
 21
2587.931598713261
 31
0.0
  0
LINE
  5
1948E
330
747D
100
AcDbEntity
  8
細線
 48
50.0
100
AcDbLine
 10
10652.14991044533
 20
4677.931598713261
 30
0.0
 11
10652.14991044533
 21
2587.931598713261
 31
0.0
  0
LINE
  5
1948F
330
747D
100
AcDbEntity
  8
細線
 48
50.0
100
AcDbLine
 10
10512.14991044533
 20
4677.931598713261
 30
0.0
 11
10512.14991044533
 21
2587.931598713261
 31
0.0
  0
LINE
  5
19490
330
747D
100
AcDbEntity
  8
細線
 48
50.0
100
AcDbLine
 10
10497.14991044533
 20
4677.931598713261
 30
0.0
 11
10497.14991044533
 21
2587.931598713261
 31
0.0
  0
LINE
  5
19491
330
747D
100
AcDbEntity
  8
細線
 48
50.0
100
AcDbLine
 10
10357.14991044533
 20
4677.931598713261
 30
0.0
 11
10357.14991044533
 21
2587.931598713261
 31
0.0
  0
LINE
  5
19492
330
747D
100
AcDbEntity
  8
細線
 48
50.0
100
AcDbLine
 10
10372.14991044533
 20
4677.931598713261
 30
0.0
 11
10372.14991044533
 21
2587.931598713261
 31
0.0
  0
LINE
  5
19493
330
747D
100
AcDbEntity
  8
部品1
100
AcDbLine
 10
9874.649910445329
 20
2537.931598713262
 30
0.0
 11
12449.64991044533
 21
2537.931598713262
 31
0.0
  0
DIMENSION
  5
19494
330
747D
100
AcDbEntity
  8
寸法
 48
50.0
100
AcDbDimension
  2
*D24
 10
9759.649910445329
 20
5531.799739024183
 30
0.0
 11
11144.64991044533
 21
5531.799739024183
 31
0.0
 70
   160
 71
     5
 42
2770.0
  3
INABA_S40G
100
AcDbAlignedDimension
 13
12529.64991044533
 23
4857.931598713264
 33
0.0
 14
9759.649910445329
 24
4912.931598713267
 34
0.0
100
AcDbRotatedDimension
1001
ACAD
1000
DSTYLE
1002
{
1070
   174
1070
     0
1070
   272
1070
     1
1070
   288
1070
     0
1070
   341
1005
0
1002
}
  0
DIMENSION
  5
19495
330
747D
100
AcDbEntity
  8
寸法
 48
50.0
100
AcDbDimension
  2
*D25
 10
9759.649910445329
 20
5311.589052292564
 30
0.0
 11
9450.012115169739
 21
5311.589052292564
 31
0.0
 70
   160
 71
     5
 42
60.0
  3
INABA_S40G
100
AcDbAlignedDimension
 13
9819.649910445329
 23
4908.933216836238
 33
0.0
 14
9759.649910445329
 24
4912.931598713267
 34
0.0
100
AcDbRotatedDimension
1001
ACAD
1000
DSTYLE
1002
{
1070
   174
1070
     0
1070
   272
1070
     1
1070
   288
1070
     0
1070
   341
1005
0
1002
}
  0
DIMENSION
  5
19496
330
747D
100
AcDbEntity
  8
寸法
 48
50.0
100
AcDbDimension
  2
*D26
 10
9819.649910445329
 20
5311.589052292568
 30
0.0
 11
11134.64991044533
 21
5311.589052292568
 31
0.0
 70
   160
  1
柱外寸法<>
 71
     5
 42
2630.0
  3
INABA_S40G
100
AcDbAlignedDimension
 13
12449.64991044533
 23
4859.742278324915
 33
0.0
 14
9819.649910445329
 24
4908.933216836238
 34
0.0
100
AcDbRotatedDimension
1001
ACAD
1000
DSTYLE
1002
{
1070
   174
1070
     0
1070
   272
1070
     1
1070
   288
1070
     0
1070
   341
1005
0
1002
}
  0
LINE
  5
19497
330
747D
100
AcDbEntity
  8
部品1
100
AcDbLine
 10
12394.64991044533
 20
4677.931598713261
 30
0.0
 11
12394.64991044533
 21
2587.931598713263
 31
0.0
  0
LINE
  5
19498
330
747D
100
AcDbEntity
  8
部品1
100
AcDbLine
 10
12449.64991044533
 20
4732.465872101001
 30
0.0
 11
12449.64991044533
 21
2437.931598713263
 31
0.0
  0
LINE
  5
19499
330
747D
100
AcDbEntity
  8
部品1
100
AcDbLine
 10
10294.64991044533
 20
4677.931598713261
 30
0.0
 11
10294.64991044533
 21
2587.931598713261
 31
0.0
  0
DIMENSION
  5
1949A
330
747D
100
AcDbEntity
  8
寸法
100
AcDbDimension
  2
*D27
 10
8975.89978126207
 20
2537.931598713262
 30
0.0
 11
8975.89978126207
 21
2231.884354618771
 31
0.0
 70
   160
 71
     5
 42
50.0
  3
INABA_S40G
100
AcDbAlignedDimension
 13
9819.649910445329
 23
2587.931598713261
 33
0.0
 14
9764.649910445328
 24
2537.931598713262
 34
0.0
 50
90.0
100
AcDbRotatedDimension
1001
ACAD
1000
DSTYLE
1002
{
1070
   174
1070
     0
1070
   272
1070
     1
1070
   288
1070
     0
1070
   341
1005
0
1002
}
  0
LINE
  5
1949B
330
747D
100
AcDbEntity
  8
部品1
100
AcDbLine
 10
9819.649910445329
 20
4770.074036642141
 30
0.0
 11
9819.649910445329
 21
2437.931598713261
 31
0.0
  0
LINE
  5
1949C
330
747D
100
AcDbEntity
  8
部品1
100
AcDbLine
 10
9874.649910445329
 20
4677.931598713261
 30
0.0
 11
9874.649910445329
 21
2437.931598713265
 31
0.0
  0
LINE
  5
1949D
330
747D
100
AcDbEntity
  8
部品1
100
AcDbLine
 10
9874.649910445326
 20
2587.931598713261
 30
0.0
 11
12449.64991044533
 21
2587.931598713263
 31
0.0
  0
LINE
  5
1949E
330
747D
100
AcDbEntity
  8
部品1
100
AcDbLine
 10
9819.649910445329
 20
4677.931598713261
 30
0.0
 11
12449.64991044533
 21
4677.931598713261
 31
0.0
  0
LINE
  5
1949F
330
747D
100
AcDbEntity
  8
部品1
100
AcDbLine
 10
11974.64991044533
 20
4677.931598713261
 30
0.0
 11
11974.64991044533
 21
2587.931598713263
 31
0.0
  0
LINE
  5
194A0
330
747D
100
AcDbEntity
  8
細線
 48
50.0
100
AcDbLine
 10
11477.14991044533
 20
4677.931598713261
 30
0.0
 11
11477.14991044533
 21
2587.931598713261
 31
0.0
  0
LINE
  5
194A1
330
747D
100
AcDbEntity
  8
細線
 48
50.0
100
AcDbLine
 10
11492.14991044533
 20
4677.931598713261
 30
0.0
 11
11492.14991044533
 21
2587.931598713261
 31
0.0
  0
LINE
  5
194A2
330
747D
100
AcDbEntity
  8
細線
 48
50.0
100
AcDbLine
 10
11352.14991044533
 20
4677.931598713261
 30
0.0
 11
11352.14991044533
 21
2587.931598713261
 31
0.0
  0
LINE
  5
194A3
330
747D
100
AcDbEntity
  8
細線
 48
50.0
100
AcDbLine
 10
11337.14991044533
 20
4677.931598713261
 30
0.0
 11
11337.14991044533
 21
2587.931598713261
 31
0.0
  0
LINE
  5
194A4
330
747D
100
AcDbEntity
  8
細線
 48
50.0
100
AcDbLine
 10
11197.14991044533
 20
4677.931598713261
 30
0.0
 11
11197.14991044533
 21
2587.931598713261
 31
0.0
  0
LINE
  5
194A5
330
747D
100
AcDbEntity
  8
細線
 48
50.0
100
AcDbLine
 10
11212.14991044533
 20
4677.931598713261
 30
0.0
 11
11212.14991044533
 21
2587.931598713261
 31
0.0
  0
TEXT
  5
194A6
330
747D
100
AcDbEntity
  8
部品1
 48
50.0
100
AcDbText
 10
11486.23091240642
 20
4935.200691651571
 30
0.0
 40
120.0
  1
37
 50
90.0
  7
STYLE1
100
AcDbText
  0
TEXT
  5
194A7
330
747D
100
AcDbEntity
  8
部品1
 48
50.0
100
AcDbText
 10
11008.59788974133
 20
5072.701949869854
 30
0.0
 40
120.0
  1
1000
  7
STYLE1
100
AcDbText
  0
LINE
  5
194A8
330
747D
100
AcDbEntity
  8
部品1
 48
50.0
100
AcDbLine
 10
11320.3300545176
 20
5036.817927717421
 30
0.0
 11
11320.3300545176
 21
5020.61792771742
 31
0.0
  0
LINE
  5
194A9
330
747D
100
AcDbEntity
  8
部品1
 48
50.0
100
AcDbLine
 10
11020.3300545176
 20
5036.817927717421
 30
0.0
 11
11320.3300545176
 21
5036.817927717421
 31
0.0
  0
LINE
  5
194AA
330
747D
100
AcDbEntity
  8
部品1
100
AcDbLine
 10
9767.194896802292
 20
4911.649334047528
 30
0.0
 11
12522.2617873068
 21
4856.572396422402
 31
0.0
  0
LINE
  5
194AB
330
747D
100
AcDbEntity
  8
部品1
100
AcDbLine
 10
9774.992475047282
 20
4770.712623782229
 30
0.0
 11
12504.31361098518
 21
4731.684198548024
 31
0.0
  0
LINE
  5
194AC
330
747D
100
AcDbEntity
  8
細線
 48
50.0
100
AcDbLine
 10
9792.649910445328
 20
4910.331275088669
 30
0.0
 11
9787.360808889822
 21
4770.245642461311
 31
0.0
  0
LINE
  5
194AD
330
747D
100
AcDbEntity
  8
細線
 48
50.0
100
AcDbLine
 10
12496.61919363902
 20
4857.085021192732
 30
0.0
 11
12491.90222755733
 21
4732.152805257814
 31
0.0
  0
LINE
  5
194AE
330
747D
100
AcDbEntity
  8
部品1
 48
50.0
100
AcDbLine
 10
9759.834196358436
 20
4904.525144877957
 30
0.0
 11
9760.214456136248
 21
4884.598180431545
 31
0.0
  0
LINE
  5
194AF
330
747D
100
AcDbEntity
  8
部品1
 48
50.0
100
AcDbLine
 10
9763.283228242494
 20
4881.02289893807
 30
0.0
 11
9764.987129733858
 21
4791.732402231423
 31
0.0
  0
LINE
  5
194B0
330
747D
100
AcDbEntity
  8
細線
 48
50.0
100
AcDbLine
 10
9760.689333546144
 20
4883.948680554626
 30
0.0
 11
12526.32531829131
 21
4828.324475913796
 31
0.0
  0
LINE
  5
194B1
330
747D
100
AcDbEntity
  8
細線
 48
50.0
100
AcDbLine
 10
9765.449808783429
 20
4791.08716885676
 30
0.0
 11
12515.45347321407
 21
4751.277849882266
 31
0.0
  0
LINE
  5
194B2
330
747D
100
AcDbEntity
  8
部品1
 48
50.0
100
AcDbLine
 10
9768.055901840099
 20
4788.157120737952
 30
0.0
 11
9768.257854460532
 21
4777.574085344858
 31
0.0
  0
ARC
  5
194B3
330
747D
100
AcDbEntity
  8
部品1
 48
50.0
100
AcDbCircle
 10
9766.832922186775
 20
4904.658699285384
 30
0.0
 40
7.0
100
AcDbArc
 50
87.03587545283093
 51
181.0932240293156
  0
ARC
  5
194B4
330
747D
100
AcDbEntity
  8
部品1
 48
50.0
100
AcDbCircle
 10
9775.256580288871
 20
4777.707639752287
 30
0.0
 40
7.0
100
AcDbArc
 50
181.0932240293156
 51
267.8377559869487
  0
ARC
  5
194B5
330
747D
100
AcDbEntity
  8
部品1
100
AcDbCircle
 10
9765.056447913671
 20
4788.099883134768
 30
0.0
 40
3.0
100
AcDbArc
 50
1.093224029315636
 51
80.18775403169653
  0
ARC
  5
194B6
330
747D
100
AcDbEntity
  8
部品1
100
AcDbCircle
 10
9760.283774316064
 20
4880.965661334889
 30
0.0
 40
3.0
100
AcDbArc
 50
1.093224029315636
 51
80.18775403169653
  0
ARC
  5
194B7
330
747D
100
AcDbEntity
  8
部品1
100
AcDbCircle
 10
9760.914328719087
 20
4884.611535872285
 30
0.0
 40
0.7
100
AcDbArc
 50
181.0932240292114
 51
260.1877540314867
  0
ARC
  5
194B8
330
747D
100
AcDbEntity
  8
部品1
100
AcDbCircle
 10
9765.687002316695
 20
4791.745757672168
 30
0.0
 40
0.7
100
AcDbArc
 50
181.0932240293156
 51
260.1877540314867
  0
LINE
  5
194B9
330
747D
100
AcDbEntity
  8
部品1
 48
50.0
100
AcDbLine
 10
12528.86381325603
 20
4848.872750987481
 30
0.0
 11
12526.83319206506
 21
4828.927709729701
 31
0.0
  0
LINE
  5
194BA
330
747D
100
AcDbEntity
  8
部品1
 48
50.0
100
AcDbLine
 10
12523.48062558058
 20
4825.617075656792
 30
0.0
 11
12515.97384631574
 21
4751.884454911782
 31
0.0
  0
LINE
  5
194BB
330
747D
100
AcDbEntity
  8
部品1
 48
50.0
100
AcDbLine
 10
12512.62127983126
 20
4748.573820838868
 30
0.0
 11
12511.54171679152
 21
4737.97020384531
 31
0.0
  0
ARC
  5
194BC
330
747D
100
AcDbEntity
  8
部品1
 48
50.0
100
AcDbCircle
 10
12521.89981269127
 20
4849.581761660258
 30
0.0
 40
7.0
100
AcDbArc
 50
354.1866997665532
 51
87.03587545283093
  0
ARC
  5
194BD
330
747D
100
AcDbEntity
  8
部品1
 48
50.0
100
AcDbCircle
 10
12504.57771622676
 20
4738.679214518084
 30
0.0
 40
7.0
100
AcDbArc
 50
267.8377559869487
 51
354.1866997665532
  0
ARC
  5
194BE
330
747D
100
AcDbEntity
  8
部品1
100
AcDbCircle
 10
12515.60585150186
 20
4748.269959121964
 30
0.0
 40
3.0
100
AcDbArc
 50
95.0921697642102
 51
174.1866997665532
  0
ARC
  5
194BF
330
747D
100
AcDbEntity
  8
部品1
100
AcDbCircle
 10
12526.46519725119
 20
4825.313213939891
 30
0.0
 40
3.0
100
AcDbArc
 50
95.0921697642102
 51
174.1866997665532
  0
ARC
  5
194C0
330
747D
100
AcDbEntity
  8
部品1
100
AcDbCircle
 10
12526.13679200858
 20
4828.998610796978
 30
0.0
 40
0.7
100
AcDbArc
 50
275.0921697642102
 51
354.1866997665532
  0
ARC
  5
194C1
330
747D
100
AcDbEntity
  8
部品1
100
AcDbCircle
 10
12515.27744625926
 20
4751.955355979054
 30
0.0
 40
0.7
100
AcDbArc
 50
275.0921697642102
 51
354.1866997667606
  0
LINE
  5
194C2
330
747D
100
AcDbEntity
  8
部品1
100
AcDbLine
 10
10994.87504087457
 20
5038.13598667628
 30
0.0
 11
11320.3300545176
 21
5020.61792771742
 31
0.0
  0
LINE
  5
194C3
330
747D
100
AcDbEntity
  8
部品1
100
AcDbLine
 10
11554.64991044532
 20
4677.931598713261
 30
0.0
 11
11554.64991044532
 21
2587.931598713263
 31
0.0
  0
LINE
  5
194C4
330
747D
100
AcDbEntity
  8
細線
 48
50.0
100
AcDbLine
 10
11632.14991044533
 20
4677.931598713261
 30
0.0
 11
11632.14991044533
 21
2587.931598713263
 31
0.0
  0
LINE
  5
194C5
330
747D
100
AcDbEntity
  8
細線
 48
50.0
100
AcDbLine
 10
11617.14991044533
 20
4677.931598713261
 30
0.0
 11
11617.14991044533
 21
2587.931598713263
 31
0.0
  0
LINE
  5
194C6
330
747D
100
AcDbEntity
  8
細線
 48
50.0
100
AcDbLine
 10
11757.14991044533
 20
4677.931598713261
 30
0.0
 11
11757.14991044533
 21
2587.931598713263
 31
0.0
  0
LINE
  5
194C7
330
747D
100
AcDbEntity
  8
細線
 48
50.0
100
AcDbLine
 10
11772.14991044533
 20
4677.931598713261
 30
0.0
 11
11772.14991044533
 21
2587.931598713263
 31
0.0
  0
LINE
  5
194C8
330
747D
100
AcDbEntity
  8
細線
 48
50.0
100
AcDbLine
 10
11912.14991044533
 20
4677.931598713261
 30
0.0
 11
11912.14991044533
 21
2587.931598713263
 31
0.0
  0
LINE
  5
194C9
330
747D
100
AcDbEntity
  8
細線
 48
50.0
100
AcDbLine
 10
11897.14991044533
 20
4677.931598713261
 30
0.0
 11
11897.14991044533
 21
2587.931598713263
 31
0.0
  0
DIMENSION
  5
194CA
330
747D
100
AcDbEntity
  8
寸法
100
AcDbDimension
  2
*D28
 10
13154.57706841746
 20
4857.931598713264
 30
0.0
 11
13054.56525739383
 21
3697.931598713266
 31
0.0
 70
    32
 71
     5
 42
2320.000000000001
  3
INABA_S40G
100
AcDbAlignedDimension
 13
12449.64991044533
 23
2537.931598713263
 33
0.0
 14
12529.64991044533
 24
4857.931598713264
 34
0.0
 50
90.0
100
AcDbRotatedDimension
1001
ACAD
1000
DSTYLE
1002
{
1070
   174
1070
     0
1070
   272
1070
     1
1070
   288
1070
     0
1070
   341
1005
0
1002
}
  0
DIMENSION
  5
194CB
330
747D
100
AcDbEntity
  8
寸法
100
AcDbDimension
  2
*D29
 10
8675.899781262069
 20
4912.93159871326
 30
0.0
 11
8575.887970238445
 21
3725.43159871326
 31
0.0
 70
    32
 71
     5
 42
2375.000000000004
  3
INABA_S40G
100
AcDbAlignedDimension
 13
9819.649910445329
 23
2537.931598713256
 33
0.0
 14
9759.649910445329
 24
4912.93159871326
 34
0.0
 50
90.0
100
AcDbRotatedDimension
1001
ACAD
1000
DSTYLE
1002
{
1070
   174
1070
     0
1070
   272
1070
     1
1070
   288
1070
     0
1070
   341
1005
0
1002
}
  0
DIMENSION
  5
194CC
330
747D
100
AcDbEntity
  8
寸法
100
AcDbDimension
  2
*D30
 10
8975.89978126207
 20
2587.931598713256
 30
0.0
 11
8875.887970238448
 21
3632.931598713258
 31
0.0
 70
    32
 71
     5
 42
2090.000000000001
  3
INABA_S40G
100
AcDbAlignedDimension
 13
9819.649910445329
 23
4677.931598713256
 33
0.0
 14
9819.649910445329
 24
2587.931598713256
 34
0.0
 50
90.0
100
AcDbRotatedDimension
1001
ACAD
1000
DSTYLE
1002
{
1070
   174
1070
     0
1070
   272
1070
     1
1070
   288
1070
     0
1070
   341
1005
0
1002
}
  0
TEXT
  5
19552
330
747D
100
AcDbEntity
  8
文字
 62
     7
 48
50.0
100
AcDbText
 10
14259.15529363637
 20
483.8967129911416
 30
0.0
 40
160.0
  1
FXN-1326HL-2
  7
MSPゴシック
100
AcDbText
  0
LINE
  5
198D3
330
747D
100
AcDbEntity
  8
補助
  6
PHANTOM
 62
   230
 48
50.0
100
AcDbLine
 10
140.0
 20
0.0
 30
0.0
 11
140.0
 21
11409.6
 31
0.0
  0
LINE
  5
19CDD
330
747D
100
AcDbEntity
  8
部品1
 48
50.0
100
AcDbLine
 10
5822.473137055681
 20
4512.931598713261
 30
0.0
 11
5822.473137055681
 21
4771.931598713264
 31
0.0
  0
LINE
  5
19CDE
330
747D
100
AcDbEntity
  8
部品1
 48
50.0
100
AcDbLine
 10
5812.473137055681
 20
4771.931598713264
 30
0.0
 11
5812.473137055679
 21
4912.931598713264
 31
0.0
  0
ARC
  5
19CDF
330
747D
100
AcDbEntity
  8
部品1
 48
0.01
100
AcDbCircle
 10
6285.473137055679
 20
4710.431598713261
 30
0.0
 40
2.0
100
AcDbArc
 50
270.0
 51
0.0
  0
ARC
  5
19CE0
330
747D
100
AcDbEntity
  8
部品1
 48
0.01
100
AcDbCircle
 10
6285.473137055679
 20
4741.931598713261
 30
0.0
 40
2.0
100
AcDbArc
 50
0.0
 51
90.0
  0
ARC
  5
19CE1
330
747D
100
AcDbEntity
  8
部品1
 48
0.01
100
AcDbCircle
 10
6109.47313705568
 20
4710.431598713261
 30
0.0
 40
2.0
100
AcDbArc
 50
180.0
 51
270.0
  0
ARC
  5
19CE2
330
747D
100
AcDbEntity
  8
部品1
 48
0.01
100
AcDbCircle
 10
6109.47313705568
 20
4741.931598713261
 30
0.0
 40
2.0
100
AcDbArc
 50
90.0
 51
180.0
  0
LINE
  5
19CE3
330
747D
100
AcDbEntity
  8
細線
100
AcDbLine
 10
6197.47313705568
 20
4714.431598713261
 30
0.0
 11
6271.473137055679
 21
4714.431598713261
 31
0.0
  0
LINE
  5
19CE4
330
747D
100
AcDbEntity
  8
細線
100
AcDbLine
 10
6197.47313705568
 20
4737.431598713261
 30
0.0
 11
6123.473137055679
 21
4737.431598713261
 31
0.0
  0
LINE
  5
19CE5
330
747D
100
AcDbEntity
  8
細線
100
AcDbLine
 10
6123.473137055679
 20
4714.431598713261
 30
0.0
 11
6197.47313705568
 21
4714.431598713261
 31
0.0
  0
LINE
  5
19CE6
330
747D
100
AcDbEntity
  8
細線
100
AcDbLine
 10
6271.473137055679
 20
4737.431598713261
 30
0.0
 11
6197.47313705568
 21
4737.431598713261
 31
0.0
  0
LINE
  5
19CE7
330
747D
100
AcDbEntity
  8
細線
100
AcDbLine
 10
6271.473137055679
 20
4714.431598713261
 30
0.0
 11
6271.473137055679
 21
4737.431598713261
 31
0.0
  0
LINE
  5
19CE8
330
747D
100
AcDbEntity
  8
細線
100
AcDbLine
 10
6123.473137055679
 20
4737.431598713261
 30
0.0
 11
6123.473137055679
 21
4714.431598713261
 31
0.0
  0
LINE
  5
19CE9
330
747D
100
AcDbEntity
  8
部品1
 48
0.01
100
AcDbLine
 10
6287.47313705568
 20
4710.431598713261
 30
0.0
 11
6287.47313705568
 21
4741.931598713261
 31
0.0
  0
LINE
  5
19CEA
330
747D
100
AcDbEntity
  8
部品1
 48
0.01
100
AcDbLine
 10
6109.47313705568
 20
4708.431598713261
 30
0.0
 11
6285.473137055679
 21
4708.431598713261
 31
0.0
  0
LINE
  5
19CEB
330
747D
100
AcDbEntity
  8
部品1
 48
0.01
100
AcDbLine
 10
6107.473137055679
 20
4741.931598713261
 30
0.0
 11
6107.473137055679
 21
4710.431598713261
 31
0.0
  0
LINE
  5
19CEC
330
747D
100
AcDbEntity
  8
部品1
 48
0.01
100
AcDbLine
 10
6285.473137055679
 20
4743.931598713261
 30
0.0
 11
6109.47313705568
 21
4743.931598713261
 31
0.0
  0
LINE
  5
19CED
330
747D
100
AcDbEntity
  8
細線
100
AcDbLine
 10
6123.473137055679
 20
4731.431598713261
 30
0.0
 11
6197.47313705568
 21
4731.431598713261
 31
0.0
  0
LINE
  5
19CEE
330
747D
100
AcDbEntity
  8
細線
100
AcDbLine
 10
6123.473137055679
 20
4725.431598713261
 30
0.0
 11
6197.47313705568
 21
4725.431598713261
 31
0.0
  0
LINE
  5
19CEF
330
747D
100
AcDbEntity
  8
細線
100
AcDbLine
 10
6123.473137055679
 20
4719.431598713261
 30
0.0
 11
6197.47313705568
 21
4719.431598713261
 31
0.0
  0
LINE
  5
19CF0
330
747D
100
AcDbEntity
  8
細線
100
AcDbLine
 10
6123.473137055679
 20
4731.431598713261
 30
0.0
 11
6192.473137055679
 21
4731.431598713261
 31
0.0
  0
LINE
  5
19CF1
330
747D
100
AcDbEntity
  8
細線
100
AcDbLine
 10
6271.473137055679
 20
4731.43159871326
 30
0.0
 11
6197.47313705568
 21
4731.431598713261
 31
0.0
  0
LINE
  5
19CF2
330
747D
100
AcDbEntity
  8
細線
100
AcDbLine
 10
6271.473137055679
 20
4719.43159871326
 30
0.0
 11
6197.47313705568
 21
4719.431598713261
 31
0.0
  0
LINE
  5
19CF3
330
747D
100
AcDbEntity
  8
細線
100
AcDbLine
 10
6271.473137055679
 20
4725.431598713261
 30
0.0
 11
6197.47313705568
 21
4725.431598713261
 31
0.0
  0
LINE
  5
19CF4
330
747D
100
AcDbEntity
  8
細線
100
AcDbLine
 10
6197.47313705568
 20
4737.431598713261
 30
0.0
 11
6197.47313705568
 21
4714.431598713261
 31
0.0
  0
LINE
  5
19CF5
330
747D
100
AcDbEntity
  8
細線
100
AcDbLine
 10
6817.47313705568
 20
4737.431598713261
 30
0.0
 11
6817.47313705568
 21
4714.431598713261
 31
0.0
  0
LINE
  5
19CF6
330
747D
100
AcDbEntity
  8
細線
100
AcDbLine
 10
6743.473137055679
 20
4725.431598713261
 30
0.0
 11
6817.47313705568
 21
4725.431598713261
 31
0.0
  0
LINE
  5
19CF7
330
747D
100
AcDbEntity
  8
細線
100
AcDbLine
 10
6743.473137055679
 20
4719.43159871326
 30
0.0
 11
6817.47313705568
 21
4719.431598713261
 31
0.0
  0
LINE
  5
19CF8
330
747D
100
AcDbEntity
  8
細線
100
AcDbLine
 10
6743.473137055679
 20
4731.43159871326
 30
0.0
 11
6817.47313705568
 21
4731.431598713261
 31
0.0
  0
LINE
  5
19CF9
330
747D
100
AcDbEntity
  8
細線
100
AcDbLine
 10
6891.473137055678
 20
4731.431598713261
 30
0.0
 11
6822.47313705568
 21
4731.431598713261
 31
0.0
  0
LINE
  5
19CFA
330
747D
100
AcDbEntity
  8
細線
100
AcDbLine
 10
6891.47313705568
 20
4719.431598713261
 30
0.0
 11
6817.47313705568
 21
4719.431598713261
 31
0.0
  0
LINE
  5
19CFB
330
747D
100
AcDbEntity
  8
細線
100
AcDbLine
 10
6891.473137055678
 20
4725.431598713261
 30
0.0
 11
6817.47313705568
 21
4725.431598713261
 31
0.0
  0
LINE
  5
19CFC
330
747D
100
AcDbEntity
  8
細線
100
AcDbLine
 10
6891.473137055678
 20
4731.431598713261
 30
0.0
 11
6817.47313705568
 21
4731.431598713261
 31
0.0
  0
LINE
  5
19CFD
330
747D
100
AcDbEntity
  8
部品1
 48
0.01
100
AcDbLine
 10
6729.473137055679
 20
4743.931598713261
 30
0.0
 11
6905.473137055678
 21
4743.931598713261
 31
0.0
  0
LINE
  5
19CFE
330
747D
100
AcDbEntity
  8
部品1
 48
0.01
100
AcDbLine
 10
6907.473137055678
 20
4741.931598713261
 30
0.0
 11
6907.473137055678
 21
4710.431598713261
 31
0.0
  0
LINE
  5
19CFF
330
747D
100
AcDbEntity
  8
部品1
 48
0.01
100
AcDbLine
 10
6905.473137055678
 20
4708.431598713261
 30
0.0
 11
6729.473137055679
 21
4708.431598713261
 31
0.0
  0
LINE
  5
19D00
330
747D
100
AcDbEntity
  8
部品1
 48
0.01
100
AcDbLine
 10
6727.473137055679
 20
4710.431598713261
 30
0.0
 11
6727.473137055679
 21
4741.931598713261
 31
0.0
  0
LINE
  5
19D01
330
747D
100
AcDbEntity
  8
細線
100
AcDbLine
 10
6891.473137055678
 20
4737.431598713261
 30
0.0
 11
6891.473137055678
 21
4714.431598713261
 31
0.0
  0
LINE
  5
19D02
330
747D
100
AcDbEntity
  8
細線
100
AcDbLine
 10
6743.473137055679
 20
4714.431598713261
 30
0.0
 11
6743.473137055679
 21
4737.431598713261
 31
0.0
  0
LINE
  5
19D03
330
747D
100
AcDbEntity
  8
細線
100
AcDbLine
 10
6743.473137055679
 20
4737.431598713261
 30
0.0
 11
6817.47313705568
 21
4737.431598713261
 31
0.0
  0
LINE
  5
19D04
330
747D
100
AcDbEntity
  8
細線
100
AcDbLine
 10
6891.473137055678
 20
4714.431598713261
 30
0.0
 11
6817.47313705568
 21
4714.431598713261
 31
0.0
  0
LINE
  5
19D05
330
747D
100
AcDbEntity
  8
細線
100
AcDbLine
 10
6817.47313705568
 20
4737.431598713261
 30
0.0
 11
6891.473137055678
 21
4737.431598713261
 31
0.0
  0
LINE
  5
19D06
330
747D
100
AcDbEntity
  8
細線
100
AcDbLine
 10
6817.47313705568
 20
4714.431598713261
 30
0.0
 11
6743.473137055679
 21
4714.431598713261
 31
0.0
  0
ARC
  5
19D07
330
747D
100
AcDbEntity
  8
部品1
 48
0.01
100
AcDbCircle
 10
6905.473137055678
 20
4741.931598713261
 30
0.0
 40
2.0
100
AcDbArc
 50
0.0
 51
90.0
  0
ARC
  5
19D08
330
747D
100
AcDbEntity
  8
部品1
 48
0.01
100
AcDbCircle
 10
6905.473137055678
 20
4710.431598713261
 30
0.0
 40
2.0
100
AcDbArc
 50
270.0
 51
0.0
  0
ARC
  5
19D09
330
747D
100
AcDbEntity
  8
部品1
 48
0.01
100
AcDbCircle
 10
6729.473137055679
 20
4741.931598713261
 30
0.0
 40
2.0
100
AcDbArc
 50
90.0
 51
180.0
  0
ARC
  5
19D0A
330
747D
100
AcDbEntity
  8
部品1
 48
0.01
100
AcDbCircle
 10
6729.473137055679
 20
4710.431598713261
 30
0.0
 40
2.0
100
AcDbArc
 50
180.0
 51
270.0
  0
LINE
  5
19D0B
330
747D
100
AcDbEntity
  8
部品1
100
AcDbLine
 10
4452.473137055679
 20
4677.931598713261
 30
0.0
 11
7192.47313705568
 21
4677.93159871326
 31
0.0
  0
DIMENSION
  5
19D0C
330
747D
100
AcDbEntity
  8
寸法
 48
50.0
100
AcDbDimension
  2
*D31
 10
7242.473137055677
 20
5518.566791659261
 30
0.0
 11
5822.473137055678
 21
5518.566791659261
 31
0.0
 70
   160
 71
     5
 42
2839.999999999998
  3
INABA_S40G
100
AcDbAlignedDimension
 13
4402.473137055679
 23
4912.931598713267
 33
0.0
 14
7242.473137055677
 24
4912.931598713265
 34
0.0
100
AcDbRotatedDimension
  0
DIMENSION
  5
19D0D
330
747D
100
AcDbEntity
  8
寸法
 48
50.0
100
AcDbDimension
  2
*D32
 10
7192.47313705568
 20
5318.657870445172
 30
0.0
 11
7555.958418429916
 21
5318.657870445172
 31
0.0
 70
   160
 71
     5
 42
49.99999999999818
  3
INABA_S40G
100
AcDbAlignedDimension
 13
7242.473137055677
 23
4912.931598713265
 33
0.0
 14
7192.47313705568
 24
4912.931598713267
 34
0.0
100
AcDbRotatedDimension
  0
DIMENSION
  5
19D0E
330
747D
100
AcDbEntity
  8
寸法
 48
50.0
100
AcDbDimension
  2
*D33
 10
4402.473137055679
 20
5318.657870445171
 30
0.0
 11
4088.987855681431
 21
5318.657870445171
 31
0.0
 70
   160
 71
     5
 42
50.0
  3
INABA_S40G
100
AcDbAlignedDimension
 13
4452.473137055679
 23
4912.931598713267
 33
0.0
 14
4402.473137055679
 24
4912.931598713267
 34
0.0
100
AcDbRotatedDimension
1001
ACAD
1000
DSTYLE
1002
{
1002
}
  0
DIMENSION
  5
19D0F
330
747D
100
AcDbEntity
  8
寸法
 48
50.0
100
AcDbDimension
  2
*D34
 10
4452.473137055679
 20
5318.657870445171
 30
0.0
 11
5822.47313705568
 21
5318.657870445171
 31
0.0
 70
   160
  1
柱外寸法<>
 71
     5
 42
2740.0
  3
INABA_S40G
100
AcDbAlignedDimension
 13
7192.47313705568
 23
4912.931598713267
 33
0.0
 14
4452.473137055679
 24
4912.931598713267
 34
0.0
100
AcDbRotatedDimension
  0
LINE
  5
19D10
330
747D
100
AcDbEntity
  8
部品1
 48
50.0
100
AcDbLine
 10
7235.064715949246
 20
4912.931598713264
 30
0.0
 11
4409.881558162111
 21
4912.931598713267
 31
0.0
  0
LINE
  5
19D11
330
747D
100
AcDbEntity
  8
部品1
 48
50.0
100
AcDbLine
 10
7221.849392488213
 20
4771.931598713268
 30
0.0
 11
4423.096881623142
 21
4771.931598713266
 31
0.0
  0
LINE
  5
19D12
330
747D
100
AcDbEntity
  8
細線
 48
50.0
100
AcDbLine
 10
7240.433598834241
 20
4884.931598713268
 30
0.0
 11
4404.51267527712
 21
4884.931598713264
 31
0.0
  0
LINE
  5
19D13
330
747D
100
AcDbEntity
  8
細線
 48
50.0
100
AcDbLine
 10
7232.197568309394
 20
4792.731598713263
 30
0.0
 11
4412.748705801949
 21
4792.731598713266
 31
0.0
  0
LINE
  5
19D14
330
747D
100
AcDbEntity
  8
部品1
100
AcDbLine
 10
7242.053476040346
 20
4905.535073318027
 30
0.0
 11
7240.920078707998
 21
4885.558945335428
 31
0.0
  0
LINE
  5
19D15
330
747D
100
AcDbEntity
  8
細線
 48
50.0
100
AcDbLine
 10
7209.473137055677
 20
4912.931598713267
 30
0.0
 11
7209.473137055677
 21
4771.931598713266
 31
0.0
  0
LINE
  5
19D16
330
747D
100
AcDbEntity
  8
細線
 48
50.0
100
AcDbLine
 10
4435.473137055679
 20
4912.931598713266
 30
0.0
 11
4435.473137055679
 21
4771.931598713265
 31
0.0
  0
LINE
  5
19D17
330
747D
100
AcDbEntity
  8
部品1
100
AcDbLine
 10
7229.483058386421
 20
4789.901538168368
 30
0.0
 11
7228.838152579311
 21
4778.535073318028
 31
0.0
  0
LINE
  5
19D18
330
747D
100
AcDbEntity
  8
部品1
100
AcDbLine
 10
7237.719088911267
 20
4882.10153816837
 30
0.0
 11
7232.684048183156
 21
4793.358945335426
 31
0.0
  0
ARC
  5
19D19
330
747D
100
AcDbEntity
  8
部品1
 48
50.0
100
AcDbCircle
 10
7240.714271807452
 20
4881.931598713268
 30
0.0
 40
3.0
100
AcDbArc
 50
97.65812720736519
 51
176.7526572096653
  0
ARC
  5
19D1A
330
747D
100
AcDbEntity
  8
部品1
 48
50.0
100
AcDbCircle
 10
7232.47824128261
 20
4789.731598713265
 30
0.0
 40
3.0
100
AcDbArc
 50
97.65812720736519
 51
176.7526572096653
  0
ARC
  5
19D1B
330
747D
100
AcDbEntity
  8
部品1
 48
50.0
100
AcDbCircle
 10
7231.985172174048
 20
4793.39859787495
 30
0.0
 40
0.7
100
AcDbArc
 50
277.6581272073652
 51
356.7526572096653
  0
ARC
  5
19D1C
330
747D
100
AcDbEntity
  8
部品1
 48
50.0
100
AcDbCircle
 10
7240.22120269889
 20
4885.598597874952
 30
0.0
 40
0.7
100
AcDbArc
 50
277.6581272073652
 51
356.7526572096132
  0
ARC
  5
19D1D
330
747D
100
AcDbEntity
  8
部品1
100
AcDbCircle
 10
7221.849392488213
 20
4778.931598713268
 30
0.0
 40
7.0
100
AcDbArc
 50
270.0
 51
356.7526572096653
  0
ARC
  5
19D1E
330
747D
100
AcDbEntity
  8
部品1
100
AcDbCircle
 10
7235.064715949246
 20
4905.931598713267
 30
0.0
 40
7.0
100
AcDbArc
 50
356.7526572096653
 51
90.0
  0
ARC
  5
19D1F
330
747D
100
AcDbEntity
  8
部品1
100
AcDbCircle
 10
4409.881558162111
 20
4905.931598713266
 30
0.0
 40
7.0
100
AcDbArc
 50
90.0
 51
183.2473427903347
  0
ARC
  5
19D20
330
747D
100
AcDbEntity
  8
部品1
100
AcDbCircle
 10
4423.096881623142
 20
4778.931598713266
 30
0.0
 40
7.0
100
AcDbArc
 50
183.2473427903347
 51
270.0
  0
ARC
  5
19D21
330
747D
100
AcDbEntity
  8
部品1
 48
50.0
100
AcDbCircle
 10
4404.725071412467
 20
4885.598597874952
 30
0.0
 40
0.7
100
AcDbArc
 50
183.2473427903867
 51
262.3418727926349
  0
ARC
  5
19D22
330
747D
100
AcDbEntity
  8
部品1
 48
50.0
100
AcDbCircle
 10
4412.961101937307
 20
4793.398597874949
 30
0.0
 40
0.7
100
AcDbArc
 50
183.2473427903347
 51
262.3418727926349
  0
ARC
  5
19D23
330
747D
100
AcDbEntity
  8
部品1
 48
50.0
100
AcDbCircle
 10
4412.468032828746
 20
4789.731598713264
 30
0.0
 40
3.0
100
AcDbArc
 50
3.24734279033473
 51
82.3418727926348
  0
ARC
  5
19D24
330
747D
100
AcDbEntity
  8
部品1
 48
50.0
100
AcDbCircle
 10
4404.232002303902
 20
4881.931598713267
 30
0.0
 40
3.0
100
AcDbArc
 50
3.24734279033473
 51
82.3418727926348
  0
LINE
  5
19D25
330
747D
100
AcDbEntity
  8
部品1
100
AcDbLine
 10
4407.227185200087
 20
4882.101538168369
 30
0.0
 11
4412.262225928198
 21
4793.358945335425
 31
0.0
  0
LINE
  5
19D26
330
747D
100
AcDbEntity
  8
部品1
100
AcDbLine
 10
4415.463215724935
 20
4789.901538168367
 30
0.0
 11
4416.108121532043
 21
4778.535073318027
 31
0.0
  0
LINE
  5
19D27
330
747D
100
AcDbEntity
  8
部品1
100
AcDbLine
 10
4402.892798071009
 20
4905.535073318026
 30
0.0
 11
4404.026195403359
 21
4885.558945335427
 31
0.0
  0
ARC
  5
19D28
330
747D
100
AcDbEntity
  8
部品1
 48
0.01
100
AcDbCircle
 10
5359.47313705568
 20
4710.431598713261
 30
0.0
 40
2.0
100
AcDbArc
 50
180.0
 51
270.0
  0
ARC
  5
19D29
330
747D
100
AcDbEntity
  8
部品1
 48
0.01
100
AcDbCircle
 10
5359.47313705568
 20
4741.931598713261
 30
0.0
 40
2.0
100
AcDbArc
 50
90.0
 51
180.0
  0
ARC
  5
19D2A
330
747D
100
AcDbEntity
  8
部品1
 48
0.01
100
AcDbCircle
 10
5535.473137055678
 20
4710.431598713261
 30
0.0
 40
2.0
100
AcDbArc
 50
270.0
 51
0.0
  0
ARC
  5
19D2B
330
747D
100
AcDbEntity
  8
部品1
 48
0.01
100
AcDbCircle
 10
5535.473137055678
 20
4741.931598713261
 30
0.0
 40
2.0
100
AcDbArc
 50
0.0
 51
90.0
  0
LINE
  5
19D2C
330
747D
100
AcDbEntity
  8
細線
100
AcDbLine
 10
5447.47313705568
 20
4714.431598713261
 30
0.0
 11
5373.473137055679
 21
4714.431598713261
 31
0.0
  0
LINE
  5
19D2D
330
747D
100
AcDbEntity
  8
細線
100
AcDbLine
 10
5447.47313705568
 20
4737.431598713261
 30
0.0
 11
5521.473137055678
 21
4737.431598713261
 31
0.0
  0
LINE
  5
19D2E
330
747D
100
AcDbEntity
  8
細線
100
AcDbLine
 10
5521.473137055678
 20
4714.431598713261
 30
0.0
 11
5447.47313705568
 21
4714.431598713261
 31
0.0
  0
LINE
  5
19D2F
330
747D
100
AcDbEntity
  8
細線
100
AcDbLine
 10
5373.473137055679
 20
4737.431598713261
 30
0.0
 11
5447.47313705568
 21
4737.431598713261
 31
0.0
  0
LINE
  5
19D30
330
747D
100
AcDbEntity
  8
細線
100
AcDbLine
 10
5373.473137055679
 20
4714.431598713261
 30
0.0
 11
5373.473137055679
 21
4737.431598713261
 31
0.0
  0
LINE
  5
19D31
330
747D
100
AcDbEntity
  8
細線
100
AcDbLine
 10
5521.473137055678
 20
4737.431598713261
 30
0.0
 11
5521.473137055678
 21
4714.431598713261
 31
0.0
  0
LINE
  5
19D32
330
747D
100
AcDbEntity
  8
部品1
 48
0.01
100
AcDbLine
 10
5357.473137055679
 20
4710.431598713261
 30
0.0
 11
5357.473137055679
 21
4741.931598713261
 31
0.0
  0
LINE
  5
19D33
330
747D
100
AcDbEntity
  8
部品1
 48
0.01
100
AcDbLine
 10
5535.473137055678
 20
4708.431598713261
 30
0.0
 11
5359.47313705568
 21
4708.431598713261
 31
0.0
  0
LINE
  5
19D34
330
747D
100
AcDbEntity
  8
部品1
 48
0.01
100
AcDbLine
 10
5537.473137055677
 20
4741.931598713261
 30
0.0
 11
5537.473137055677
 21
4710.431598713261
 31
0.0
  0
LINE
  5
19D35
330
747D
100
AcDbEntity
  8
部品1
 48
0.01
100
AcDbLine
 10
5359.47313705568
 20
4743.931598713261
 30
0.0
 11
5535.473137055678
 21
4743.931598713261
 31
0.0
  0
LINE
  5
19D36
330
747D
100
AcDbEntity
  8
細線
100
AcDbLine
 10
5521.473137055678
 20
4731.431598713261
 30
0.0
 11
5447.47313705568
 21
4731.431598713261
 31
0.0
  0
LINE
  5
19D37
330
747D
100
AcDbEntity
  8
細線
100
AcDbLine
 10
5521.473137055678
 20
4725.431598713261
 30
0.0
 11
5447.47313705568
 21
4725.431598713261
 31
0.0
  0
LINE
  5
19D38
330
747D
100
AcDbEntity
  8
細線
100
AcDbLine
 10
5521.473137055679
 20
4719.431598713261
 30
0.0
 11
5447.47313705568
 21
4719.431598713261
 31
0.0
  0
LINE
  5
19D39
330
747D
100
AcDbEntity
  8
細線
100
AcDbLine
 10
5521.473137055678
 20
4731.431598713261
 30
0.0
 11
5452.47313705568
 21
4731.431598713261
 31
0.0
  0
LINE
  5
19D3A
330
747D
100
AcDbEntity
  8
細線
100
AcDbLine
 10
5373.473137055679
 20
4731.43159871326
 30
0.0
 11
5447.47313705568
 21
4731.431598713261
 31
0.0
  0
LINE
  5
19D3B
330
747D
100
AcDbEntity
  8
細線
100
AcDbLine
 10
5373.473137055679
 20
4719.43159871326
 30
0.0
 11
5447.47313705568
 21
4719.431598713261
 31
0.0
  0
LINE
  5
19D3C
330
747D
100
AcDbEntity
  8
細線
100
AcDbLine
 10
5373.473137055679
 20
4725.431598713261
 30
0.0
 11
5447.47313705568
 21
4725.431598713261
 31
0.0
  0
LINE
  5
19D3D
330
747D
100
AcDbEntity
  8
細線
100
AcDbLine
 10
5447.47313705568
 20
4737.431598713261
 30
0.0
 11
5447.47313705568
 21
4714.431598713261
 31
0.0
  0
LINE
  5
19D3E
330
747D
100
AcDbEntity
  8
細線
100
AcDbLine
 10
4827.47313705568
 20
4737.431598713261
 30
0.0
 11
4827.47313705568
 21
4714.431598713261
 31
0.0
  0
LINE
  5
19D3F
330
747D
100
AcDbEntity
  8
細線
100
AcDbLine
 10
4901.473137055679
 20
4725.431598713261
 30
0.0
 11
4827.47313705568
 21
4725.431598713261
 31
0.0
  0
LINE
  5
19D40
330
747D
100
AcDbEntity
  8
細線
100
AcDbLine
 10
4901.473137055679
 20
4719.43159871326
 30
0.0
 11
4827.47313705568
 21
4719.431598713261
 31
0.0
  0
LINE
  5
19D41
330
747D
100
AcDbEntity
  8
細線
100
AcDbLine
 10
4901.473137055679
 20
4731.43159871326
 30
0.0
 11
4827.47313705568
 21
4731.431598713261
 31
0.0
  0
LINE
  5
19D42
330
747D
100
AcDbEntity
  8
細線
100
AcDbLine
 10
4753.473137055679
 20
4731.431598713261
 30
0.0
 11
4822.47313705568
 21
4731.431598713261
 31
0.0
  0
LINE
  5
19D43
330
747D
100
AcDbEntity
  8
細線
100
AcDbLine
 10
4753.473137055679
 20
4719.431598713261
 30
0.0
 11
4827.47313705568
 21
4719.431598713261
 31
0.0
  0
LINE
  5
19D44
330
747D
100
AcDbEntity
  8
細線
100
AcDbLine
 10
4753.473137055679
 20
4725.431598713261
 30
0.0
 11
4827.47313705568
 21
4725.431598713261
 31
0.0
  0
LINE
  5
19D45
330
747D
100
AcDbEntity
  8
細線
100
AcDbLine
 10
4753.473137055679
 20
4731.431598713261
 30
0.0
 11
4827.47313705568
 21
4731.431598713261
 31
0.0
  0
LINE
  5
19D46
330
747D
100
AcDbEntity
  8
部品1
 48
0.01
100
AcDbLine
 10
4915.47313705568
 20
4743.931598713261
 30
0.0
 11
4739.473137055679
 21
4743.931598713261
 31
0.0
  0
LINE
  5
19D47
330
747D
100
AcDbEntity
  8
部品1
 48
0.01
100
AcDbLine
 10
4737.473137055679
 20
4741.931598713261
 30
0.0
 11
4737.473137055679
 21
4710.431598713261
 31
0.0
  0
LINE
  5
19D48
330
747D
100
AcDbEntity
  8
部品1
 48
0.01
100
AcDbLine
 10
4739.473137055679
 20
4708.431598713261
 30
0.0
 11
4915.47313705568
 21
4708.431598713261
 31
0.0
  0
LINE
  5
19D49
330
747D
100
AcDbEntity
  8
部品1
 48
0.01
100
AcDbLine
 10
4917.473137055679
 20
4710.431598713261
 30
0.0
 11
4917.473137055679
 21
4741.931598713261
 31
0.0
  0
LINE
  5
19D4A
330
747D
100
AcDbEntity
  8
細線
100
AcDbLine
 10
4753.473137055679
 20
4737.431598713261
 30
0.0
 11
4753.473137055679
 21
4714.431598713261
 31
0.0
  0
LINE
  5
19D4B
330
747D
100
AcDbEntity
  8
細線
100
AcDbLine
 10
4901.473137055679
 20
4714.431598713261
 30
0.0
 11
4901.473137055679
 21
4737.431598713261
 31
0.0
  0
LINE
  5
19D4C
330
747D
100
AcDbEntity
  8
細線
100
AcDbLine
 10
4901.473137055679
 20
4737.431598713261
 30
0.0
 11
4827.47313705568
 21
4737.431598713261
 31
0.0
  0
LINE
  5
19D4D
330
747D
100
AcDbEntity
  8
細線
100
AcDbLine
 10
4753.473137055679
 20
4714.431598713261
 30
0.0
 11
4827.47313705568
 21
4714.431598713261
 31
0.0
  0
LINE
  5
19D4E
330
747D
100
AcDbEntity
  8
細線
100
AcDbLine
 10
4827.47313705568
 20
4737.431598713261
 30
0.0
 11
4753.473137055679
 21
4737.431598713261
 31
0.0
  0
LINE
  5
19D4F
330
747D
100
AcDbEntity
  8
細線
100
AcDbLine
 10
4827.47313705568
 20
4714.431598713261
 30
0.0
 11
4901.473137055679
 21
4714.431598713261
 31
0.0
  0
ARC
  5
19D50
330
747D
100
AcDbEntity
  8
部品1
 48
0.01
100
AcDbCircle
 10
4739.473137055679
 20
4741.931598713261
 30
0.0
 40
2.0
100
AcDbArc
 50
90.0
 51
180.0
  0
ARC
  5
19D51
330
747D
100
AcDbEntity
  8
部品1
 48
0.01
100
AcDbCircle
 10
4739.473137055679
 20
4710.431598713261
 30
0.0
 40
2.0
100
AcDbArc
 50
180.0
 51
270.0
  0
ARC
  5
19D52
330
747D
100
AcDbEntity
  8
部品1
 48
0.01
100
AcDbCircle
 10
4915.47313705568
 20
4741.931598713261
 30
0.0
 40
2.0
100
AcDbArc
 50
0.0
 51
90.0
  0
ARC
  5
19D53
330
747D
100
AcDbEntity
  8
部品1
 48
0.01
100
AcDbCircle
 10
4915.47313705568
 20
4710.431598713261
 30
0.0
 40
2.0
100
AcDbArc
 50
270.0
 51
0.0
  0
CIRCLE
  5
19DAD
330
747D
100
AcDbEntity
  8
細線
 48
50.0
100
AcDbCircle
 10
6507.473137055677
 20
3425.431598713262
 30
0.0
 40
18.0
  0
ARC
  5
19DAE
330
747D
100
AcDbEntity
  8
細線
 48
50.0
100
AcDbCircle
 10
6807.473137055677
 20
3100.431598713262
 30
0.0
 40
15.0
100
AcDbArc
 50
270.0
 51
90.0
  0
ARC
  5
19DAF
330
747D
100
AcDbEntity
  8
細線
 48
50.0
100
AcDbCircle
 10
6707.473137055678
 20
3100.431598713262
 30
0.0
 40
15.0
100
AcDbArc
 50
90.0
 51
270.0
  0
LINE
  5
19DB0
330
747D
100
AcDbEntity
  8
細線
 48
50.0
100
AcDbLine
 10
6707.473137055678
 20
3115.431598713261
 30
0.0
 11
6807.473137055677
 21
3115.431598713261
 31
0.0
  0
LINE
  5
19DB1
330
747D
100
AcDbEntity
  8
細線
 48
50.0
100
AcDbLine
 10
6807.473137055677
 20
3085.431598713262
 30
0.0
 11
6707.473137055678
 21
3085.431598713262
 31
0.0
  0
LINE
  5
19DB2
330
747D
100
AcDbEntity
  8
細線
 48
50.0
100
AcDbLine
 10
6307.473137055677
 20
3085.431598713262
 30
0.0
 11
6207.473137055678
 21
3085.431598713262
 31
0.0
  0
LINE
  5
19DB3
330
747D
100
AcDbEntity
  8
細線
 48
50.0
100
AcDbLine
 10
6207.473137055678
 20
3115.431598713261
 30
0.0
 11
6307.473137055677
 21
3115.431598713261
 31
0.0
  0
ARC
  5
19DB4
330
747D
100
AcDbEntity
  8
細線
 48
50.0
100
AcDbCircle
 10
6307.473137055677
 20
3100.431598713262
 30
0.0
 40
15.0
100
AcDbArc
 50
270.0
 51
90.0
  0
ARC
  5
19DB5
330
747D
100
AcDbEntity
  8
細線
 48
50.0
100
AcDbCircle
 10
6207.473137055678
 20
3100.431598713262
 30
0.0
 40
15.0
100
AcDbArc
 50
90.0
 51
270.0
  0
CIRCLE
  5
19DB6
330
747D
100
AcDbEntity
  8
細線
 48
50.0
100
AcDbCircle
 10
5137.473137055681
 20
3425.431598713262
 30
0.0
 40
18.0
  0
ARC
  5
19DB7
330
747D
100
AcDbEntity
  8
細線
 48
50.0
100
AcDbCircle
 10
5437.473137055681
 20
3100.431598713262
 30
0.0
 40
15.0
100
AcDbArc
 50
270.0
 51
90.0
  0
ARC
  5
19DB8
330
747D
100
AcDbEntity
  8
細線
 48
50.0
100
AcDbCircle
 10
5337.473137055681
 20
3100.431598713262
 30
0.0
 40
15.0
100
AcDbArc
 50
90.0
 51
270.0
  0
LINE
  5
19DB9
330
747D
100
AcDbEntity
  8
細線
 48
50.0
100
AcDbLine
 10
5337.473137055681
 20
3115.431598713261
 30
0.0
 11
5437.473137055681
 21
3115.431598713261
 31
0.0
  0
LINE
  5
19DBA
330
747D
100
AcDbEntity
  8
細線
 48
50.0
100
AcDbLine
 10
5437.473137055681
 20
3085.431598713262
 30
0.0
 11
5337.473137055681
 21
3085.431598713262
 31
0.0
  0
LINE
  5
19DBB
330
747D
100
AcDbEntity
  8
細線
 48
50.0
100
AcDbLine
 10
4937.473137055681
 20
3085.431598713262
 30
0.0
 11
4837.473137055681
 21
3085.431598713262
 31
0.0
  0
LINE
  5
19DBC
330
747D
100
AcDbEntity
  8
細線
 48
50.0
100
AcDbLine
 10
4837.473137055681
 20
3115.431598713261
 30
0.0
 11
4937.473137055681
 21
3115.431598713261
 31
0.0
  0
ARC
  5
19DBD
330
747D
100
AcDbEntity
  8
細線
 48
50.0
100
AcDbCircle
 10
4937.473137055681
 20
3100.431598713262
 30
0.0
 40
15.0
100
AcDbArc
 50
270.0
 51
90.0
  0
ARC
  5
19DBE
330
747D
100
AcDbEntity
  8
細線
 48
50.0
100
AcDbCircle
 10
4837.473137055681
 20
3100.431598713262
 30
0.0
 40
15.0
100
AcDbArc
 50
90.0
 51
270.0
  0
LINE
  5
19DC0
330
747D
100
AcDbEntity
  8
部品1
100
AcDbLine
 10
4452.473137055679
 20
2537.931598713262
 30
0.0
 11
7192.47313705568
 21
2537.931598713262
 31
0.0
  0
LINE
  5
19DC1
330
747D
100
AcDbEntity
  8
部品1
100
AcDbLine
 10
4452.473137055679
 20
4512.931598713262
 30
0.0
 11
5877.473137055679
 21
4512.931598713261
 31
0.0
  0
LINE
  5
19DC2
330
747D
100
AcDbEntity
  8
細線
100
AcDbLine
 10
4555.473137055676
 20
4497.931598713261
 30
0.0
 11
5719.473137055677
 21
4497.931598713261
 31
0.0
  0
LINE
  5
19DC3
330
747D
100
AcDbEntity
  8
細線
100
AcDbLine
 10
4555.473137055676
 20
3067.931598713262
 30
0.0
 11
5719.473137055677
 21
3067.931598713262
 31
0.0
  0
LINE
  5
19DC4
330
747D
100
AcDbEntity
  8
細線
100
AcDbLine
 10
4555.473137055676
 20
3002.931598713261
 30
0.0
 11
5719.473137055677
 21
3002.931598713261
 31
0.0
  0
LINE
  5
19DC5
330
747D
100
AcDbEntity
  8
細線
100
AcDbLine
 10
4555.473137055676
 20
2937.931598713261
 30
0.0
 11
5719.473137055677
 21
2937.931598713261
 31
0.0
  0
LINE
  5
19DC6
330
747D
100
AcDbEntity
  8
細線
100
AcDbLine
 10
4555.473137055676
 20
2872.931598713261
 30
0.0
 11
5719.473137055677
 21
2872.931598713261
 31
0.0
  0
LINE
  5
19DC7
330
747D
100
AcDbEntity
  8
細線
100
AcDbLine
 10
4555.473137055676
 20
2807.931598713262
 30
0.0
 11
5719.473137055677
 21
2807.931598713262
 31
0.0
  0
LINE
  5
19DC8
330
747D
100
AcDbEntity
  8
細線
100
AcDbLine
 10
4555.473137055676
 20
2742.931598713262
 30
0.0
 11
5719.473137055677
 21
2742.931598713262
 31
0.0
  0
LINE
  5
19DC9
330
747D
100
AcDbEntity
  8
細線
100
AcDbLine
 10
4555.473137055676
 20
2677.931598713261
 30
0.0
 11
5719.473137055677
 21
2677.931598713261
 31
0.0
  0
LINE
  5
19DCA
330
747D
100
AcDbEntity
  8
細線
100
AcDbLine
 10
4555.473137055676
 20
2612.931598713262
 30
0.0
 11
5719.473137055677
 21
2612.931598713262
 31
0.0
  0
LINE
  5
19DCB
330
747D
100
AcDbEntity
  8
細線
100
AcDbLine
 10
4555.473137055676
 20
4367.931598713261
 30
0.0
 11
5719.473137055677
 21
4367.931598713261
 31
0.0
  0
LINE
  5
19DCC
330
747D
100
AcDbEntity
  8
細線
100
AcDbLine
 10
4555.473137055676
 20
4432.931598713262
 30
0.0
 11
5719.473137055677
 21
4432.931598713262
 31
0.0
  0
LINE
  5
19DCD
330
747D
100
AcDbEntity
  8
細線
100
AcDbLine
 10
4555.473137055676
 20
3717.931598713261
 30
0.0
 11
5719.473137055677
 21
3717.931598713261
 31
0.0
  0
LINE
  5
19DCE
330
747D
100
AcDbEntity
  8
細線
100
AcDbLine
 10
4555.473137055676
 20
3652.931598713261
 30
0.0
 11
5719.473137055677
 21
3652.931598713261
 31
0.0
  0
LINE
  5
19DCF
330
747D
100
AcDbEntity
  8
細線
100
AcDbLine
 10
4555.473137055676
 20
3587.931598713261
 30
0.0
 11
5719.473137055677
 21
3587.931598713261
 31
0.0
  0
LINE
  5
19DD0
330
747D
100
AcDbEntity
  8
細線
100
AcDbLine
 10
4555.473137055676
 20
3522.931598713262
 30
0.0
 11
5719.473137055677
 21
3522.931598713262
 31
0.0
  0
LINE
  5
19DD1
330
747D
100
AcDbEntity
  8
細線
100
AcDbLine
 10
4555.473137055676
 20
3457.931598713262
 30
0.0
 11
5719.473137055677
 21
3457.931598713262
 31
0.0
  0
LINE
  5
19DD2
330
747D
100
AcDbEntity
  8
細線
100
AcDbLine
 10
4555.473137055676
 20
3392.931598713261
 30
0.0
 11
5719.473137055677
 21
3392.931598713261
 31
0.0
  0
LINE
  5
19DD3
330
747D
100
AcDbEntity
  8
細線
100
AcDbLine
 10
4555.473137055676
 20
3327.931598713262
 30
0.0
 11
5719.473137055677
 21
3327.931598713262
 31
0.0
  0
LINE
  5
19DD4
330
747D
100
AcDbEntity
  8
細線
100
AcDbLine
 10
4555.473137055676
 20
3262.931598713262
 30
0.0
 11
5719.473137055677
 21
3262.931598713262
 31
0.0
  0
LINE
  5
19DD5
330
747D
100
AcDbEntity
  8
細線
100
AcDbLine
 10
4555.473137055676
 20
3197.931598713262
 30
0.0
 11
5719.473137055677
 21
3197.931598713262
 31
0.0
  0
LINE
  5
19DD6
330
747D
100
AcDbEntity
  8
細線
100
AcDbLine
 10
4555.473137055676
 20
3132.931598713261
 30
0.0
 11
5719.473137055677
 21
3132.931598713261
 31
0.0
  0
LINE
  5
19DD7
330
747D
100
AcDbEntity
  8
細線
100
AcDbLine
 10
4555.473137055676
 20
4107.931598713261
 30
0.0
 11
5719.473137055677
 21
4107.931598713261
 31
0.0
  0
LINE
  5
19DD8
330
747D
100
AcDbEntity
  8
細線
100
AcDbLine
 10
4555.473137055676
 20
4042.931598713261
 30
0.0
 11
5719.473137055677
 21
4042.931598713261
 31
0.0
  0
LINE
  5
19DD9
330
747D
100
AcDbEntity
  8
細線
100
AcDbLine
 10
4555.473137055676
 20
3977.931598713261
 30
0.0
 11
5719.473137055677
 21
3977.931598713261
 31
0.0
  0
LINE
  5
19DDA
330
747D
100
AcDbEntity
  8
細線
100
AcDbLine
 10
4555.473137055676
 20
3912.931598713262
 30
0.0
 11
5719.473137055677
 21
3912.931598713262
 31
0.0
  0
LINE
  5
19DDB
330
747D
100
AcDbEntity
  8
細線
100
AcDbLine
 10
4555.473137055676
 20
3847.931598713262
 30
0.0
 11
5719.473137055677
 21
3847.931598713262
 31
0.0
  0
LINE
  5
19DDC
330
747D
100
AcDbEntity
  8
細線
100
AcDbLine
 10
4555.473137055676
 20
3782.931598713262
 30
0.0
 11
5719.473137055677
 21
3782.931598713262
 31
0.0
  0
LINE
  5
19DDD
330
747D
100
AcDbEntity
  8
細線
100
AcDbLine
 10
4555.473137055676
 20
4302.931598713261
 30
0.0
 11
5719.473137055677
 21
4302.931598713261
 31
0.0
  0
LINE
  5
19DDE
330
747D
100
AcDbEntity
  8
細線
100
AcDbLine
 10
4555.473137055676
 20
4237.931598713261
 30
0.0
 11
5719.473137055677
 21
4237.931598713261
 31
0.0
  0
LINE
  5
19DDF
330
747D
100
AcDbEntity
  8
細線
100
AcDbLine
 10
4555.473137055676
 20
4172.931598713261
 30
0.0
 11
5719.473137055677
 21
4172.931598713261
 31
0.0
  0
LINE
  5
19DE0
330
747D
100
AcDbEntity
  8
細線
100
AcDbLine
 10
5719.473137055679
 20
2547.931598713262
 30
0.0
 11
4555.473137055673
 21
2547.931598713262
 31
0.0
  0
LINE
  5
19DE5
330
747D
100
AcDbEntity
  8
部品1
100
AcDbLine
 10
5877.473137055679
 20
4512.931598713261
 30
0.0
 11
7192.47313705568
 21
4512.931598713263
 31
0.0
  0
LINE
  5
19DE6
330
747D
100
AcDbEntity
  8
部品1
100
AcDbLine
 10
5877.473137055679
 20
4512.931598713261
 30
0.0
 11
5877.473137055679
 21
2537.931598713262
 31
0.0
  0
LINE
  5
19DE7
330
747D
100
AcDbEntity
  8
破線
 48
5.0
100
AcDbLine
 10
5877.473137055679
 20
2537.931598713262
 30
0.0
 11
5877.473137055678
 21
2262.931598713262
 31
0.0
  0
LINE
  5
19DE8
330
747D
100
AcDbEntity
  8
破線
 48
5.0
100
AcDbLine
 10
5925.473137055678
 20
2287.931598713267
 30
0.0
 11
5877.473137055677
 21
2287.931598713267
 31
0.0
  0
LINE
  5
19DE9
330
747D
100
AcDbEntity
  8
破線
 48
5.0
100
AcDbLine
 10
5925.473137055679
 20
2537.931598713262
 30
0.0
 11
5925.473137055678
 21
2287.931598713267
 31
0.0
  0
LINE
  5
19DEA
330
747D
100
AcDbEntity
  8
部品1
100
AcDbLine
 10
5925.473137055679
 20
4512.931598713261
 30
0.0
 11
5925.473137055679
 21
2537.931598713262
 31
0.0
  0
LINE
  5
19DEB
330
747D
100
AcDbEntity
  8
破線
 48
5.0
100
AcDbLine
 10
5877.473137055677
 20
2262.931598713262
 30
0.0
 11
5767.473137055679
 21
2262.931598713262
 31
0.0
  0
LINE
  5
19DEC
330
747D
100
AcDbEntity
  8
破線
 48
5.0
100
AcDbLine
 10
5767.473137055677
 20
2537.931598713262
 30
0.0
 11
5767.473137055679
 21
2262.931598713262
 31
0.0
  0
LINE
  5
19DED
330
747D
100
AcDbEntity
  8
破線
 48
5.0
100
AcDbLine
 10
5767.473137055681
 20
2287.931598713262
 30
0.0
 11
5719.473137055679
 21
2287.931598713262
 31
0.0
  0
LINE
  5
19DEE
330
747D
100
AcDbEntity
  8
破線
 48
5.0
100
AcDbLine
 10
5719.473137055677
 20
2537.931598713262
 30
0.0
 11
5719.47313705568
 21
2287.931598713262
 31
0.0
  0
LINE
  5
19DEF
330
747D
100
AcDbEntity
  8
部品1
100
AcDbLine
 10
5767.473137055679
 20
4512.931598713261
 30
0.0
 11
5767.473137055677
 21
2537.931598713262
 31
0.0
  0
LINE
  5
19DF0
330
747D
100
AcDbEntity
  8
部品1
100
AcDbLine
 10
5719.473137055681
 20
4512.931598713262
 30
0.0
 11
5719.473137055677
 21
2537.931598713262
 31
0.0
  0
LINE
  5
19DF4
330
747D
100
AcDbEntity
  8
細線
100
AcDbLine
 10
7089.47313705568
 20
2547.931598713262
 30
0.0
 11
5925.473137055674
 21
2547.931598713262
 31
0.0
  0
LINE
  5
19DF5
330
747D
100
AcDbEntity
  8
細線
100
AcDbLine
 10
5925.473137055675
 20
3067.931598713262
 30
0.0
 11
7089.473137055676
 21
3067.931598713262
 31
0.0
  0
LINE
  5
19DF6
330
747D
100
AcDbEntity
  8
細線
100
AcDbLine
 10
5925.473137055675
 20
3002.931598713261
 30
0.0
 11
7089.473137055676
 21
3002.931598713261
 31
0.0
  0
LINE
  5
19DF7
330
747D
100
AcDbEntity
  8
細線
100
AcDbLine
 10
5925.473137055675
 20
2937.931598713261
 30
0.0
 11
7089.473137055676
 21
2937.931598713261
 31
0.0
  0
LINE
  5
19DF8
330
747D
100
AcDbEntity
  8
細線
100
AcDbLine
 10
5925.473137055675
 20
2872.931598713261
 30
0.0
 11
7089.473137055676
 21
2872.931598713261
 31
0.0
  0
LINE
  5
19DF9
330
747D
100
AcDbEntity
  8
細線
100
AcDbLine
 10
5925.473137055675
 20
2807.931598713262
 30
0.0
 11
7089.473137055676
 21
2807.931598713262
 31
0.0
  0
LINE
  5
19DFA
330
747D
100
AcDbEntity
  8
細線
100
AcDbLine
 10
5925.473137055675
 20
2742.931598713262
 30
0.0
 11
7089.473137055676
 21
2742.931598713262
 31
0.0
  0
LINE
  5
19DFB
330
747D
100
AcDbEntity
  8
細線
100
AcDbLine
 10
5925.473137055675
 20
2677.931598713261
 30
0.0
 11
7089.473137055676
 21
2677.931598713261
 31
0.0
  0
LINE
  5
19DFC
330
747D
100
AcDbEntity
  8
細線
100
AcDbLine
 10
5925.473137055675
 20
2612.931598713262
 30
0.0
 11
7089.473137055676
 21
2612.931598713262
 31
0.0
  0
LINE
  5
19DFD
330
747D
100
AcDbEntity
  8
細線
100
AcDbLine
 10
5925.473137055675
 20
2547.931598713262
 30
0.0
 11
7089.473137055676
 21
2547.931598713262
 31
0.0
  0
LINE
  5
19DFE
330
747D
100
AcDbEntity
  8
細線
100
AcDbLine
 10
5925.473137055675
 20
4367.931598713261
 30
0.0
 11
7089.473137055676
 21
4367.931598713261
 31
0.0
  0
LINE
  5
19DFF
330
747D
100
AcDbEntity
  8
細線
100
AcDbLine
 10
5925.473137055675
 20
4497.931598713261
 30
0.0
 11
7089.473137055676
 21
4497.931598713261
 31
0.0
  0
LINE
  5
19E00
330
747D
100
AcDbEntity
  8
細線
100
AcDbLine
 10
5925.473137055675
 20
4432.931598713262
 30
0.0
 11
7089.473137055676
 21
4432.931598713262
 31
0.0
  0
LINE
  5
19E01
330
747D
100
AcDbEntity
  8
細線
100
AcDbLine
 10
5925.473137055675
 20
3717.931598713261
 30
0.0
 11
7089.473137055676
 21
3717.931598713261
 31
0.0
  0
LINE
  5
19E02
330
747D
100
AcDbEntity
  8
細線
100
AcDbLine
 10
5925.473137055675
 20
3652.931598713261
 30
0.0
 11
7089.473137055676
 21
3652.931598713261
 31
0.0
  0
LINE
  5
19E03
330
747D
100
AcDbEntity
  8
細線
100
AcDbLine
 10
5925.473137055675
 20
3587.931598713261
 30
0.0
 11
7089.473137055676
 21
3587.931598713261
 31
0.0
  0
LINE
  5
19E04
330
747D
100
AcDbEntity
  8
細線
100
AcDbLine
 10
5925.473137055675
 20
3522.931598713262
 30
0.0
 11
7089.473137055676
 21
3522.931598713262
 31
0.0
  0
LINE
  5
19E05
330
747D
100
AcDbEntity
  8
細線
100
AcDbLine
 10
5925.473137055675
 20
3457.931598713262
 30
0.0
 11
7089.473137055676
 21
3457.931598713262
 31
0.0
  0
LINE
  5
19E06
330
747D
100
AcDbEntity
  8
細線
100
AcDbLine
 10
5925.473137055675
 20
3392.931598713261
 30
0.0
 11
7089.473137055676
 21
3392.931598713261
 31
0.0
  0
LINE
  5
19E07
330
747D
100
AcDbEntity
  8
細線
100
AcDbLine
 10
5925.473137055675
 20
3327.931598713262
 30
0.0
 11
7089.473137055676
 21
3327.931598713262
 31
0.0
  0
LINE
  5
19E08
330
747D
100
AcDbEntity
  8
細線
100
AcDbLine
 10
5925.473137055675
 20
3262.931598713262
 30
0.0
 11
7089.473137055676
 21
3262.931598713262
 31
0.0
  0
LINE
  5
19E09
330
747D
100
AcDbEntity
  8
細線
100
AcDbLine
 10
5925.473137055675
 20
3197.931598713262
 30
0.0
 11
7089.473137055676
 21
3197.931598713262
 31
0.0
  0
LINE
  5
19E0A
330
747D
100
AcDbEntity
  8
細線
100
AcDbLine
 10
5925.473137055675
 20
3132.931598713261
 30
0.0
 11
7089.473137055676
 21
3132.931598713261
 31
0.0
  0
LINE
  5
19E0B
330
747D
100
AcDbEntity
  8
細線
100
AcDbLine
 10
5925.473137055675
 20
4107.931598713261
 30
0.0
 11
7089.473137055676
 21
4107.931598713261
 31
0.0
  0
LINE
  5
19E0C
330
747D
100
AcDbEntity
  8
細線
100
AcDbLine
 10
5925.473137055675
 20
4042.931598713261
 30
0.0
 11
7089.473137055676
 21
4042.931598713261
 31
0.0
  0
LINE
  5
19E0D
330
747D
100
AcDbEntity
  8
細線
100
AcDbLine
 10
5925.473137055675
 20
3977.931598713261
 30
0.0
 11
7089.473137055676
 21
3977.931598713261
 31
0.0
  0
LINE
  5
19E0E
330
747D
100
AcDbEntity
  8
細線
100
AcDbLine
 10
5925.473137055675
 20
3912.931598713262
 30
0.0
 11
7089.473137055676
 21
3912.931598713262
 31
0.0
  0
LINE
  5
19E0F
330
747D
100
AcDbEntity
  8
細線
100
AcDbLine
 10
5925.473137055675
 20
3847.931598713262
 30
0.0
 11
7089.473137055676
 21
3847.931598713262
 31
0.0
  0
LINE
  5
19E10
330
747D
100
AcDbEntity
  8
細線
100
AcDbLine
 10
5925.473137055675
 20
3782.931598713262
 30
0.0
 11
7089.473137055676
 21
3782.931598713262
 31
0.0
  0
LINE
  5
19E11
330
747D
100
AcDbEntity
  8
細線
100
AcDbLine
 10
5925.473137055675
 20
4302.931598713261
 30
0.0
 11
7089.473137055676
 21
4302.931598713261
 31
0.0
  0
LINE
  5
19E12
330
747D
100
AcDbEntity
  8
細線
100
AcDbLine
 10
5925.473137055675
 20
4237.931598713261
 30
0.0
 11
7089.473137055676
 21
4237.931598713261
 31
0.0
  0
LINE
  5
19E13
330
747D
100
AcDbEntity
  8
細線
100
AcDbLine
 10
5925.473137055675
 20
4172.931598713261
 30
0.0
 11
7089.473137055676
 21
4172.931598713261
 31
0.0
  0
LINE
  5
19E14
330
747D
100
AcDbEntity
  8
破線
 48
5.0
100
AcDbLine
 10
4555.473137055677
 20
2287.931598713267
 30
0.0
 11
4507.473137055677
 21
2287.931598713267
 31
0.0
  0
LINE
  5
19E15
330
747D
100
AcDbEntity
  8
破線
 48
5.0
100
AcDbLine
 10
7137.473137055682
 20
2287.931598713262
 30
0.0
 11
7089.47313705568
 21
2287.931598713262
 31
0.0
  0
LINE
  5
19E16
330
747D
100
AcDbEntity
  8
破線
 48
5.0
100
AcDbLine
 10
7089.473137055676
 20
2537.931598713262
 30
0.0
 11
7089.47313705568
 21
2287.931598713262
 31
0.0
  0
LINE
  5
19E17
330
747D
100
AcDbEntity
  8
部品1
100
AcDbLine
 10
7089.473137055681
 20
4512.931598713262
 30
0.0
 11
7089.473137055676
 21
2537.931598713262
 31
0.0
  0
LINE
  5
19E18
330
747D
100
AcDbEntity
  8
破線
 48
5.0
100
AcDbLine
 10
4555.473137055679
 20
2537.931598713262
 30
0.0
 11
4555.473137055677
 21
2287.931598713267
 31
0.0
  0
LINE
  5
19E19
330
747D
100
AcDbEntity
  8
部品1
100
AcDbLine
 10
4555.473137055679
 20
4512.931598713261
 30
0.0
 11
4555.473137055679
 21
2537.931598713262
 31
0.0
  0
LINE
  5
19E1A
330
747D
100
AcDbEntity
  8
破線
 48
5.0
100
AcDbLine
 10
4507.473137055677
 20
2187.931598713269
 30
0.0
 11
4452.473137055677
 21
2187.931598713269
 31
0.0
  0
LINE
  5
19E1B
330
747D
100
AcDbEntity
  8
破線
 48
5.0
100
AcDbLine
 10
7192.473137055677
 20
2187.931598713261
 30
0.0
 11
7137.473137055678
 21
2187.931598713261
 31
0.0
  0
LINE
  5
19E1C
330
747D
100
AcDbEntity
  8
破線
 48
5.0
100
AcDbLine
 10
4507.473137055678
 20
2537.931598713262
 30
0.0
 11
4507.473137055677
 21
2187.931598713261
 31
0.0
  0
LINE
  5
19E1D
330
747D
100
AcDbEntity
  8
破線
 48
5.0
100
AcDbLine
 10
7137.473137055677
 20
2537.931598713262
 30
0.0
 11
7137.473137055678
 21
2187.931598713261
 31
0.0
  0
LWPOLYLINE
  5
19E20
330
747D
100
AcDbEntity
  8
部品1
100
AcDbPolyline
 90
        4
 70
     1
 43
0.0
 10
5440.737803941445
 20
1787.931598713261
 10
5440.737803941445
 20
1548.039277167729
 10
6204.208470169883
 20
1548.039277167729
 10
6204.208470169883
 20
1787.931598713261
  0
TEXT
  5
19E21
330
747D
100
AcDbEntity
  8
部品1
100
AcDbText
 10
5531.263207679401
 20
1595.038069494737
 30
0.0
 40
135.0
  1
正面図
  7
MSGOTHIC
100
AcDbText
  0
LINE
  5
19E23
330
747D
100
AcDbEntity
  8
破線
 48
5.0
100
AcDbLine
 10
4452.473137055679
 20
2437.931598713261
 30
0.0
 11
4452.473137055677
 21
2187.931598713261
 31
0.0
  0
LINE
  5
19E24
330
747D
100
AcDbEntity
  8
破線
 48
5.0
100
AcDbLine
 10
7192.47313705568
 20
2437.931598713261
 30
0.0
 11
7192.47313705568
 21
2187.931598713261
 31
0.0
  0
LINE
  5
19E2B
330
747D
100
AcDbEntity
  8
部品1
100
AcDbLine
 10
7192.47313705568
 20
4771.931598713268
 30
0.0
 11
7192.47313705568
 21
2437.931598713261
 31
0.0
  0
LINE
  5
19E2C
330
747D
100
AcDbEntity
  8
部品1
100
AcDbLine
 10
4507.473137055678
 20
4512.931598713259
 30
0.0
 11
4507.473137055678
 21
2537.931598713262
 31
0.0
  0
LINE
  5
19E2D
330
747D
100
AcDbEntity
  8
部品1
100
AcDbLine
 10
7137.473137055678
 20
4512.931598713264
 30
0.0
 11
7137.473137055677
 21
2537.931598713262
 31
0.0
  0
LINE
  5
19E2E
330
747D
100
AcDbEntity
  8
部品1
100
AcDbLine
 10
4452.473137055679
 20
4771.931598713268
 30
0.0
 11
4452.473137055679
 21
2437.931598713261
 31
0.0
  0
DIMENSION
  5
1A207
330
747D
100
AcDbEntity
  8
寸法
 48
50.0
100
AcDbDimension
  2
*D35
 10
7480.016239377426
 20
4485.931598713261
 30
0.0
 11
7380.016239377424
 21
3511.931598713263
 31
0.0
 70
    32
  1
有効開口部高サ <>
 71
     5
 42
1948.0
  3
INABA_S40G
100
AcDbAlignedDimension
 13
7192.47313705568
 23
2537.931598713262
 33
0.0
 14
7192.47313705568
 24
4485.931598713261
 34
0.0
 50
90.0
100
AcDbRotatedDimension
  0
DIMENSION
  5
1A208
330
747D
100
AcDbEntity
  8
寸法
 48
50.0
100
AcDbDimension
  2
*D36
 10
7480.016239377426
 20
4512.931598713263
 30
0.0
 11
7620.186062623791
 21
4513.89879855292
 31
0.0
 70
   160
 71
     5
 42
27.00000000000182
  3
INABA_S40G
100
AcDbAlignedDimension
 13
7192.47313705568
 23
4485.931598713261
 33
0.0
 14
7192.47313705568
 24
4512.931598713263
 34
0.0
 50
90.0
100
AcDbRotatedDimension
1001
ACAD
1000
DSTYLE
1002
{
1070
   279
1070
     2
1002
}
  0
DIMENSION
  5
1A209
330
747D
100
AcDbEntity
  8
寸法
 48
50.0
100
AcDbDimension
  2
*D37
 10
7480.016239377426
 20
4677.931598713261
 30
0.0
 11
7480.016239377426
 21
4916.4168800875
 31
0.0
 70
   160
 71
     5
 42
164.9999999999982
  3
INABA_S40G
100
AcDbAlignedDimension
 13
7192.47313705568
 23
4512.931598713263
 33
0.0
 14
7192.47313705568
 24
4677.931598713261
 34
0.0
 50
90.0
100
AcDbRotatedDimension
1001
ACAD
1000
DSTYLE
1002
{
1002
}
  0
LINE
  5
1A346
330
747D
100
AcDbEntity
  8
破線
 48
5.0
100
AcDbLine
 10
5822.473137055678
 20
2262.931598713262
 30
0.0
 11
5822.473137055678
 21
2187.931598713261
 31
0.0
  0
LINE
  5
1A347
330
747D
100
AcDbEntity
  8
破線
 48
5.0
100
AcDbLine
 10
5772.473137055678
 20
2187.931598713261
 30
0.0
 11
5872.473137055678
 21
2187.931598713261
 31
0.0
  0
LINE
  5
1A34D
330
747D
100
AcDbEntity
  8
仕様書枠
 48
50.0
100
AcDbLine
 10
16307.19999999998
 20
8689.6
 30
0.0
 11
13127.19999999998
 21
8689.600000000003
 31
0.0
  0
TEXT
  5
1A354
330
747D
100
AcDbEntity
  8
文字
 62
     7
 48
50.0
100
AcDbText
 10
15022.63965474517
 20
10760.01374588372
 30
0.0
 40
100.0
  1
F12         1.0,1.2
  7
STYLE1
100
AcDbText
  0
TEXT
  5
1A357
330
747D
100
AcDbEntity
  8
文字
 62
     7
 48
50.0
100
AcDbText
 10
15022.63965474516
 20
9060.013745883727
 30
0.0
 40
100.0
  1
F12            0.7
  7
STYLE1
100
AcDbText
  0
ENDSEC
  0
SECTION
  2
OBJECTS
  0
DICTIONARY
  5
7471
330
0
100
AcDbDictionary
281
     1
  3
ACAD_COLOR
350
17AE2
  3
ACAD_GROUP
350
7472
  3
ACAD_LAYOUT
350
17AE3
  3
ACAD_MATERIAL
350
17AE1
  3
ACAD_MLINESTYLE
350
7473
  3
ACAD_PLOTSETTINGS
350
17AE4
  3
ACAD_PLOTSTYLENAME
350
17ADF
  3
ACDBHEADERROUNDTRIPXREC
350
1A3DC
  3
AcDbVariableDictionary
350
1A3D8
  3
CONTENTDICTIONARY
350
E71C
  3
DRAWINGVARIABLESDICT
350
F3B9
  0
DICTIONARY
  5
192D7
330
7467
100
AcDbDictionary
280
     1
281
     1
  3
ACAD_LAYERSTATES
360
192D8
  0
DICTIONARY
  5
17AE2
102
{ACAD_REACTORS
330
7471
102
}
330
7471
100
AcDbDictionary
281
     1
  0
DICTIONARY
  5
7472
102
{ACAD_REACTORS
330
7471
102
}
330
7471
100
AcDbDictionary
281
     1
  3
*A1
350
17FA7
  3
*A2
350
180C7
  3
*A3
350
180D2
  0
DICTIONARY
  5
17AE3
102
{ACAD_REACTORS
330
7471
102
}
330
7471
100
AcDbDictionary
281
     1
  3
Model
350
17AE5
  3
レイアウト1
350
17AE6
  0
DICTIONARY
  5
17AE1
102
{ACAD_REACTORS
330
7471
102
}
330
7471
100
AcDbDictionary
281
     1
  0
DICTIONARY
  5
7473
102
{ACAD_REACTORS
330
7471
102
}
330
7471
100
AcDbDictionary
281
     1
  3
STANDARD
350
7480
  0
DICTIONARY
  5
17AE4
102
{ACAD_REACTORS
330
7471
102
}
330
7471
100
AcDbDictionary
281
     1
  0
ACDBDICTIONARYWDFLT
  5
17ADF
102
{ACAD_REACTORS
330
7471
102
}
330
7471
100
AcDbDictionary
281
     1
  3
Normal
350
17AE0
100
AcDbDictionaryWithDefault
340
17AE0
  0
DICTIONARY
  5
1A3DC
102
{ACAD_REACTORS
330
7471
102
}
330
7471
100
AcDbDictionary
281
     1
  3
COLORDICT
350
1A3DE
  3
MATERIALDICT
350
1A3DD
  0
DICTIONARY
  5
1A3D8
102
{ACAD_REACTORS
330
7471
102
}
330
7471
100
AcDbDictionary
281
     1
  3
DIMASSOC
350
1A3D9
  3
PROJECTNAME
350
1A3DA
  0
DICTIONARY
  5
E71C
102
{ACAD_REACTORS
330
7471
102
}
330
7471
100
AcDbDictionary
281
     1
  0
DICTIONARY
  5
F3B9
102
{ACAD_REACTORS
330
7471
102
}
330
7471
100
AcDbDictionary
281
     1
1001
DRAWINGVARIABLESXDATA
1000
POLARMODE
1000
1
  0
DICTIONARY
  5
192D8
102
{ACAD_REACTORS
330
192D7
102
}
330
192D7
100
AcDbDictionary
281
     1
  0
GROUP
  5
17FA7
102
{ACAD_REACTORS
330
7472
102
}
330
7472
100
AcDbGroup
300

 70
     1
 71
     1
  0
GROUP
  5
180C7
102
{ACAD_REACTORS
330
7472
102
}
330
7472
100
AcDbGroup
300

 70
     1
 71
     1
  0
GROUP
  5
180D2
102
{ACAD_REACTORS
330
7472
102
}
330
7472
100
AcDbGroup
300

 70
     1
 71
     1
  0
LAYOUT
  5
17AE5
102
{ACAD_XDICTIONARY
360
1A3DF
102
}
102
{ACAD_REACTORS
330
17AE3
102
}
330
17AE3
100
AcDbPlotSettings
  1

  2
CutePDF Writer
  4
A3
  6

 40
3.174999952316284
 41
3.174999952316284
 42
3.17498779296875
 43
3.17498779296875
 44
297.0530090332031
 45
420.1583251953125
 46
0.0
 47
0.0
 48
0.0
 49
0.0
140
0.0
141
0.0
142
1.0
143
40.0
 70
 11952
 72
     1
 73
     1
 74
     2
  7
inaba.ctb
 75
    24
147
0.025
148
0.0
149
0.0
100
AcDbLayout
  1
Model
 70
     1
 71
     0
 10
0.0
 20
0.0
 11
12.0
 21
9.0
 12
0.0
 22
0.0
 32
0.0
 14
0.0
 24
0.0
 34
0.0
 15
0.0
 25
0.0
 35
0.0
146
0.0
 13
0.0
 23
0.0
 33
0.0
 16
1.0
 26
0.0
 36
0.0
 17
0.0
 27
1.0
 37
0.0
 76
     0
330
747D
  0
LAYOUT
  5
17AE6
102
{ACAD_XDICTIONARY
360
1A3E1
102
}
102
{ACAD_REACTORS
330
17AE3
102
}
330
17AE3
100
AcDbPlotSettings
  1

  2
EPSON LP-8300
  4

  6

 40
0.0
 41
0.0
 42
0.0
 43
0.0
 44
0.0
 45
0.0
 46
0.0
 47
0.0
 48
0.0
 49
0.0
140
0.0
141
0.0
142
1.0
143
1.0
 70
   688
 72
     0
 73
     0
 74
     5
  7
inaba.ctb
 75
    16
147
1.0
148
0.0
149
0.0
100
AcDbLayout
  1
レイアウト1
 70
     0
 71
     1
 10
0.0
 20
0.0
 11
420.0
 21
297.0
 12
0.0
 22
0.0
 32
0.0
 14
1.000000000000000E+20
 24
1.000000000000000E+20
 34
1.000000000000000E+20
 15
-1.000000000000000E+20
 25
-1.000000000000000E+20
 35
-1.000000000000000E+20
146
0.0
 13
0.0
 23
0.0
 33
0.0
 16
1.0
 26
0.0
 36
0.0
 17
0.0
 27
1.0
 37
0.0
 76
     0
330
747A
  0
MLINESTYLE
  5
7480
102
{ACAD_REACTORS
330
7473
102
}
330
7473
100
AcDbMlineStyle
  2
STANDARD
 70
     0
  3

 62
     0
 51
90.0
 52
90.0
 71
     2
 49
0.5
 62
   256
  6
BYLAYER
 49
-0.5
 62
   256
  6
BYLAYER
  0
ACDBPLACEHOLDER
  5
17AE0
102
{ACAD_REACTORS
330
17ADF
102
}
330
17ADF
  0
XRECORD
  5
1A3DE
102
{ACAD_REACTORS
330
1A3DC
102
}
330
1A3DC
100
AcDbXrecord
280
     1
340
17AE2
  0
XRECORD
  5
1A3DD
102
{ACAD_REACTORS
330
1A3DC
102
}
330
1A3DC
100
AcDbXrecord
280
     1
340
17AE1
  0
DICTIONARYVAR
  5
1A3D9
102
{ACAD_REACTORS
330
1A3D8
102
}
330
1A3D8
100
DictionaryVariables
280
     0
  1
1
  0
DICTIONARYVAR
  5
1A3DA
102
{ACAD_REACTORS
330
1A3D8
102
}
330
1A3D8
100
DictionaryVariables
280
     0
  1

  0
DICTIONARY
  5
1A3DF
330
17AE5
100
AcDbDictionary
280
     1
281
     1
  3
ACAD_XREC_ROUNDTRIP
360
1A3E0
  0
DICTIONARY
  5
1A3E1
330
17AE6
100
AcDbDictionary
280
     1
281
     1
  3
ACAD_XREC_ROUNDTRIP
360
1A3E2
  0
XRECORD
  5
1A3E0
102
{ACAD_REACTORS
330
1A3DF
102
}
330
1A3DF
100
AcDbXrecord
280
     1
102
SHADEPLOT
 70
     0
102
SHADEPLOTRESLEVEL
 70
     2
102
SHADEPLOTCUSTOMDPI
 70
   300
  0
XRECORD
  5
1A3E2
102
{ACAD_REACTORS
330
1A3E1
102
}
330
1A3E1
100
AcDbXrecord
280
     1
102
SHADEPLOT
 70
     0
102
SHADEPLOTRESLEVEL
 70
     2
102
SHADEPLOTCUSTOMDPI
 70
   300
  0
ENDSEC
  0
EOF
