  0
SECTION
  2
HEADER
  9
$ACADVER
  1
AC1015
  9
$ACADMAINTVER
 70
    20
  9
$DWGCODEPAGE
  3
ANSI_932
  9
$INSBASE
 10
0.0
 20
0.0
 30
0.0
  9
$EXTMIN
 10
139.9999999999995
 20
-0.0000000000000909
 30
0.0
  9
$EXTMAX
 10
16307.2
 20
11409.6
 30
0.0
  9
$LIMMIN
 10
0.0
 20
0.0
  9
$LIMMAX
 10
16800.0
 20
11880.0
  9
$ORTHOMODE
 70
     0
  9
$REGENMODE
 70
     1
  9
$FILLMODE
 70
     1
  9
$QTEXTMODE
 70
     0
  9
$MIRRTEXT
 70
     1
  9
$LTSCALE
 40
20.0
  9
$ATTMODE
 70
     1
  9
$TEXTSIZE
 40
3.5
  9
$TRACEWID
 40
1.0
  9
$TEXTSTYLE
  7
MSGOTHIC
  9
$CLAYER
  8
部品1
  9
$CELTYPE
  6
BYLAYER
  9
$CECOLOR
 62
   256
  9
$CELTSCALE
 40
50.0
  9
$DISPSILH
 70
     0
  9
$DIMSCALE
 40
40.0
  9
$DIMASZ
 40
2.5
  9
$DIMEXO
 40
0.5
  9
$DIMDLI
 40
7.0
  9
$DIMRND
 40
0.0
  9
$DIMDLE
 40
0.0
  9
$DIMEXE
 40
1.5
  9
$DIMTP
 40
0.0
  9
$DIMTM
 40
0.0
  9
$DIMTXT
 40
3.0
  9
$DIMCEN
 40
0.0
  9
$DIMTSZ
 40
0.0
  9
$DIMTOL
 70
     0
  9
$DIMLIM
 70
     0
  9
$DIMTIH
 70
     0
  9
$DIMTOH
 70
     0
  9
$DIMSE1
 70
     0
  9
$DIMSE2
 70
     0
  9
$DIMTAD
 70
     3
  9
$DIMZIN
 70
     8
  9
$DIMBLK
  1

  9
$DIMASO
 70
     1
  9
$DIMSHO
 70
     1
  9
$DIMPOST
  1

  9
$DIMAPOST
  1

  9
$DIMALT
 70
     0
  9
$DIMALTD
 70
     2
  9
$DIMALTF
 40
0.0394
  9
$DIMLFAC
 40
1.0
  9
$DIMTOFL
 70
     1
  9
$DIMTVP
 40
0.0
  9
$DIMTIX
 70
     1
  9
$DIMSOXD
 70
     0
  9
$DIMSAH
 70
     1
  9
$DIMBLK1
  1
DOTSMALL
  9
$DIMBLK2
  1
DOTSMALL
  9
$DIMSTYLE
  2
INABA_S40G
  9
$DIMCLRD
 70
     0
  9
$DIMCLRE
 70
     0
  9
$DIMCLRT
 70
     7
  9
$DIMTFAC
 40
1.0
  9
$DIMGAP
 40
1.0
  9
$DIMJUST
 70
     0
  9
$DIMSD1
 70
     0
  9
$DIMSD2
 70
     0
  9
$DIMTOLJ
 70
     1
  9
$DIMTZIN
 70
     0
  9
$DIMALTZ
 70
     0
  9
$DIMALTTZ
 70
     0
  9
$DIMUPT
 70
     0
  9
$DIMDEC
 70
     1
  9
$DIMTDEC
 70
     4
  9
$DIMALTU
 70
     2
  9
$DIMALTTD
 70
     2
  9
$DIMTXSTY
  7
STYLE1
  9
$DIMAUNIT
 70
     0
  9
$DIMADEC
 70
     0
  9
$DIMALTRND
 40
0.0
  9
$DIMAZIN
 70
     0
  9
$DIMDSEP
 70
    46
  9
$DIMATFIT
 70
     3
  9
$DIMFRAC
 70
     0
  9
$DIMLDRBLK
  1

  9
$DIMLUNIT
 70
     2
  9
$DIMLWD
 70
    -2
  9
$DIMLWE
 70
    -2
  9
$DIMTMOVE
 70
     0
  9
$LUNITS
 70
     2
  9
$LUPREC
 70
     1
  9
$SKETCHINC
 40
1.0
  9
$FILLETRAD
 40
3.0
  9
$AUNITS
 70
     0
  9
$AUPREC
 70
     0
  9
$MENU
  1
acad
  9
$ELEVATION
 40
0.0
  9
$PELEVATION
 40
0.0
  9
$THICKNESS
 40
0.0
  9
$LIMCHECK
 70
     0
  9
$CHAMFERA
 40
0.0
  9
$CHAMFERB
 40
0.0
  9
$CHAMFERC
 40
0.0
  9
$CHAMFERD
 40
0.0
  9
$SKPOLY
 70
     0
  9
$TDCREATE
 40
2451368.612993866
  9
$TDUCREATE
 40
2451368.237993866
  9
$TDUPDATE
 40
2455569.643417061
  9
$TDUUPDATE
 40
2455569.268417061
  9
$TDINDWG
 40
0.6738482986
  9
$TDUSRTIMER
 40
0.6738482986
  9
$USRTIMER
 70
     1
  9
$ANGBASE
 50
0.0
  9
$ANGDIR
 70
     0
  9
$PDMODE
 70
     3
  9
$PDSIZE
 40
2.0
  9
$PLINEWID
 40
0.0
  9
$SPLFRAME
 70
     0
  9
$SPLINETYPE
 70
     6
  9
$SPLINESEGS
 70
     8
  9
$HANDSEED
  5
17DDF
  9
$SURFTAB1
 70
     6
  9
$SURFTAB2
 70
     6
  9
$SURFTYPE
 70
     6
  9
$SURFU
 70
     6
  9
$SURFV
 70
     6
  9
$UCSBASE
  2

  9
$UCSNAME
  2

  9
$UCSORG
 10
0.0
 20
0.0
 30
0.0
  9
$UCSXDIR
 10
1.0
 20
0.0
 30
0.0
  9
$UCSYDIR
 10
0.0
 20
1.0
 30
0.0
  9
$UCSORTHOREF
  2

  9
$UCSORTHOVIEW
 70
     0
  9
$UCSORGTOP
 10
0.0
 20
0.0
 30
0.0
  9
$UCSORGBOTTOM
 10
0.0
 20
0.0
 30
0.0
  9
$UCSORGLEFT
 10
0.0
 20
0.0
 30
0.0
  9
$UCSORGRIGHT
 10
0.0
 20
0.0
 30
0.0
  9
$UCSORGFRONT
 10
0.0
 20
0.0
 30
0.0
  9
$UCSORGBACK
 10
0.0
 20
0.0
 30
0.0
  9
$PUCSBASE
  2

  9
$PUCSNAME
  2

  9
$PUCSORG
 10
0.0
 20
0.0
 30
0.0
  9
$PUCSXDIR
 10
1.0
 20
0.0
 30
0.0
  9
$PUCSYDIR
 10
0.0
 20
1.0
 30
0.0
  9
$PUCSORTHOREF
  2

  9
$PUCSORTHOVIEW
 70
     0
  9
$PUCSORGTOP
 10
0.0
 20
0.0
 30
0.0
  9
$PUCSORGBOTTOM
 10
0.0
 20
0.0
 30
0.0
  9
$PUCSORGLEFT
 10
0.0
 20
0.0
 30
0.0
  9
$PUCSORGRIGHT
 10
0.0
 20
0.0
 30
0.0
  9
$PUCSORGFRONT
 10
0.0
 20
0.0
 30
0.0
  9
$PUCSORGBACK
 10
0.0
 20
0.0
 30
0.0
  9
$USERI1
 70
     0
  9
$USERI2
 70
     0
  9
$USERI3
 70
     0
  9
$USERI4
 70
     0
  9
$USERI5
 70
     0
  9
$USERR1
 40
0.0
  9
$USERR2
 40
0.0
  9
$USERR3
 40
0.0
  9
$USERR4
 40
0.0
  9
$USERR5
 40
0.0
  9
$WORLDVIEW
 70
     1
  9
$SHADEDGE
 70
     3
  9
$SHADEDIF
 70
    70
  9
$TILEMODE
 70
     1
  9
$MAXACTVP
 70
    16
  9
$PINSBASE
 10
0.0
 20
0.0
 30
0.0
  9
$PLIMCHECK
 70
     0
  9
$PEXTMIN
 10
1.000000000000000E+20
 20
1.000000000000000E+20
 30
1.000000000000000E+20
  9
$PEXTMAX
 10
-1.000000000000000E+20
 20
-1.000000000000000E+20
 30
-1.000000000000000E+20
  9
$PLIMMIN
 10
0.0
 20
0.0
  9
$PLIMMAX
 10
420.0
 20
297.0
  9
$UNITMODE
 70
     0
  9
$VISRETAIN
 70
     0
  9
$PLINEGEN
 70
     0
  9
$PSLTSCALE
 70
     0
  9
$TREEDEPTH
 70
  3020
  9
$CMLSTYLE
  2
STANDARD
  9
$CMLJUST
 70
     0
  9
$CMLSCALE
 40
1.0
  9
$PROXYGRAPHICS
 70
     1
  9
$MEASUREMENT
 70
     1
  9
$CELWEIGHT
370
    -1
  9
$ENDCAPS
280
     0
  9
$JOINSTYLE
280
     0
  9
$LWDISPLAY
290
     0
  9
$INSUNITS
 70
     0
  9
$HYPERLINKBASE
  1

  9
$STYLESHEET
  1
inaba.ctb
  9
$XEDIT
290
     1
  9
$CEPSNTYPE
380
     0
  9
$PSTYLEMODE
290
     1
  9
$FINGERPRINTGUID
  2
{77ABBCC8-E499-47A5-842F-55F583DC8CE7}
  9
$VERSIONGUID
  2
{2AD7F378-B150-4FAA-B5EA-CCC15AF7ED1D}
  9
$EXTNAMES
290
     1
  9
$PSVPSCALE
 40
0.0
  9
$OLESTARTUP
290
     0
  0
ENDSEC
  0
SECTION
  2
CLASSES
  0
CLASS
  1
ACDBDICTIONARYWDFLT
  2
AcDbDictionaryWithDefault
  3
ObjectDBX Classes
 90
        0
280
     0
281
     0
  0
CLASS
  1
DICTIONARYVAR
  2
AcDbDictionaryVar
  3
ObjectDBX Classes
 90
        0
280
     0
281
     0
  0
CLASS
  1
ACDBPLACEHOLDER
  2
AcDbPlaceHolder
  3
ObjectDBX Classes
 90
        0
280
     0
281
     0
  0
CLASS
  1
LAYOUT
  2
AcDbLayout
  3
ObjectDBX Classes
 90
        0
280
     0
281
     0
  0
ENDSEC
  0
SECTION
  2
TABLES
  0
TABLE
  2
VPORT
  5
746D
330
0
100
AcDbSymbolTable
 70
     2
  0
VPORT
  5
17DD7
330
746D
100
AcDbSymbolTableRecord
100
AcDbViewportTableRecord
  2
*Active
 70
     0
 10
0.0
 20
0.0
 11
1.0
 21
1.0
 12
11720.03460912035
 22
5704.872900782047
 13
0.0
 23
0.0
 14
10.0
 24
10.0
 15
10.0
 25
10.0
 16
0.0
 26
0.0
 36
1.0
 17
0.0
 27
0.0
 37
0.0
 40
11513.2111641413
 41
2.234800838574423
 42
50.0
 43
0.0
 44
0.0
 50
0.0
 51
0.0
 71
     0
 72
     0
 73
     1
 74
     0
 75
     0
 76
     0
 77
     0
 78
     0
281
     0
 65
     1
110
0.0
120
0.0
130
0.0
111
1.0
121
0.0
131
0.0
112
0.0
122
1.0
132
0.0
 79
     0
146
0.0
  0
ENDTAB
  0
TABLE
  2
LTYPE
  5
746A
330
0
100
AcDbSymbolTable
 70
     3
  0
LTYPE
  5
7477
330
746A
100
AcDbSymbolTableRecord
100
AcDbLinetypeTableRecord
  2
BYBLOCK
 70
     0
  3

 72
    65
 73
     0
 40
0.0
  0
LTYPE
  5
7478
330
746A
100
AcDbSymbolTableRecord
100
AcDbLinetypeTableRecord
  2
BYLAYER
 70
     0
  3

 72
    65
 73
     0
 40
0.0
  0
LTYPE
  5
7479
330
746A
100
AcDbSymbolTableRecord
100
AcDbLinetypeTableRecord
  2
CONTINUOUS
 70
     0
  3
Solid line
 72
    65
 73
     0
 40
0.0
  0
LTYPE
  5
781A
330
746A
100
AcDbSymbolTableRecord
100
AcDbLinetypeTableRecord
  2
HIDDEN
 70
     0
  3
__ __ __ __ __ __ __ __ __ __ __ __ __ __ __ __
 72
    65
 73
     2
 40
0.375
 49
0.25
 74
     0
 49
-0.125
 74
     0
  0
LTYPE
  5
781B
330
746A
100
AcDbSymbolTableRecord
100
AcDbLinetypeTableRecord
  2
PHANTOM
 70
     0
  3
______  __  __  ______  __  __  ______  __  __ 
 72
    65
 73
     6
 40
2.5
 49
1.25
 74
     0
 49
-0.25
 74
     0
 49
0.25
 74
     0
 49
-0.25
 74
     0
 49
0.25
 74
     0
 49
-0.25
 74
     0
  0
ENDTAB
  0
TABLE
  2
LAYER
  5
7467
102
{ACAD_XDICTIONARY
360
16DAA
102
}
330
0
100
AcDbSymbolTable
 70
    10
  0
LAYER
  5
7474
330
7467
100
AcDbSymbolTableRecord
100
AcDbLayerTableRecord
  2
0
 70
     0
 62
     7
  6
CONTINUOUS
370
    -3
390
166AC
  0
LAYER
  5
DEB3
330
7467
100
AcDbSymbolTableRecord
100
AcDbLayerTableRecord
  2
寸法
 70
     0
 62
     4
  6
CONTINUOUS
370
    -3
390
166AC
  0
LAYER
  5
DEB4
330
7467
100
AcDbSymbolTableRecord
100
AcDbLayerTableRecord
  2
部品1
 70
     0
 62
     7
  6
CONTINUOUS
370
    -3
390
166AC
  0
LAYER
  5
DEB5
330
7467
100
AcDbSymbolTableRecord
100
AcDbLayerTableRecord
  2
補助
 70
     0
 62
    -1
  6
CONTINUOUS
370
    -3
390
166AC
  0
LAYER
  5
DEB6
330
7467
100
AcDbSymbolTableRecord
100
AcDbLayerTableRecord
  2
文字
 70
     0
 62
     7
  6
CONTINUOUS
370
    -3
390
166AC
  0
LAYER
  5
F255
330
7467
100
AcDbSymbolTableRecord
100
AcDbLayerTableRecord
  2
DEFPOINTS
 70
     0
 62
     7
  6
CONTINUOUS
290
     0
370
    -3
390
166AC
  0
LAYER
  5
10B54
330
7467
100
AcDbSymbolTableRecord
100
AcDbLayerTableRecord
  2
仕様書枠
 70
     0
 62
   230
  6
CONTINUOUS
370
    -3
390
166AC
  0
LAYER
  5
11729
330
7467
100
AcDbSymbolTableRecord
100
AcDbLayerTableRecord
  2
Ｇ．Ｌ
 70
     0
 62
    30
  6
CONTINUOUS
370
    -3
390
166AC
  0
LAYER
  5
1173F
330
7467
100
AcDbSymbolTableRecord
100
AcDbLayerTableRecord
  2
細線
 70
     0
 62
     5
  6
CONTINUOUS
370
    -3
390
166AC
  0
LAYER
  5
142E2
330
7467
100
AcDbSymbolTableRecord
100
AcDbLayerTableRecord
  2
破線
 70
     0
 62
     2
  6
HIDDEN
370
    -3
390
166AC
  0
ENDTAB
  0
TABLE
  2
STYLE
  5
7468
330
0
100
AcDbSymbolTable
 70
     6
  0
STYLE
  5
7475
330
7468
100
AcDbSymbolTableRecord
100
AcDbTextStyleTableRecord
  2
STANDARD
 70
     0
 40
0.0
 41
1.0
 50
0.0
 71
     0
 42
4.0
  3
txt
  4
C:\AutoCAD LT\bigfont.shx
  0
STYLE
  5
763C
330
7468
100
AcDbSymbolTableRecord
100
AcDbTextStyleTableRecord
  2
MSMINCHO
 70
     0
 40
0.0
 41
1.0
 50
0.0
 71
     0
 42
1.199999999999999
  3
C:\AutoCAD LT\msminch2.TTF
  4

  0
STYLE
  5
F706
330
7468
100
AcDbSymbolTableRecord
100
AcDbTextStyleTableRecord
  2
STYLE1
 70
     0
 40
0.0
 41
1.0
 50
0.0
 71
     0
 42
4.0
  3
isocp.shx
  4
bigfont.shx
  0
STYLE
  5
103BF
330
7468
100
AcDbSymbolTableRecord
100
AcDbTextStyleTableRecord
  2
STYLE2
 70
     0
 40
0.0
 41
1.0
 50
0.0
 71
     0
 42
100.0
  3
MS PGothic.ttf
  4

1001
ACAD
1000
MS PGothic
1071
    32818
  0
STYLE
  5
10BAA
330
7468
100
AcDbSymbolTableRecord
100
AcDbTextStyleTableRecord
  2
STYLE3
 70
     0
 40
0.0
 41
1.0
 50
0.0
 71
     0
 42
100.0
  3
DFPGothic-EB.ttf
  4

1001
ACAD
1000
DFPGothic-EB
1071
    32818
  0
STYLE
  5
11A15
330
7468
100
AcDbSymbolTableRecord
100
AcDbTextStyleTableRecord
  2
MSGOTHIC
 70
     0
 40
0.0
 41
1.0
 50
0.0
 71
     0
 42
3.5
  3
MS PGothic.ttf
  4

1001
ACAD
1000
MS PGothic
1071
    32818
  0
ENDTAB
  0
TABLE
  2
VIEW
  5
746B
330
0
100
AcDbSymbolTable
 70
     0
  0
ENDTAB
  0
TABLE
  2
UCS
  5
746C
330
0
100
AcDbSymbolTable
 70
     0
  0
ENDTAB
  0
TABLE
  2
APPID
  5
746E
330
0
100
AcDbSymbolTable
 70
     6
  0
APPID
  5
7476
330
746E
100
AcDbSymbolTableRecord
100
AcDbRegAppTableRecord
  2
ACAD
 70
     0
  0
APPID
  5
DEA9
330
746E
100
AcDbSymbolTableRecord
100
AcDbRegAppTableRecord
  2
CONTENTBLOCKICON
 70
     0
  0
APPID
  5
DEAA
330
746E
100
AcDbSymbolTableRecord
100
AcDbRegAppTableRecord
  2
CONTENTBLOCKDESCRIPTION
 70
     0
  0
APPID
  5
E71D
330
746E
100
AcDbSymbolTableRecord
100
AcDbRegAppTableRecord
  2
CONTENTTABDATA
 70
     0
  0
APPID
  5
E71E
330
746E
100
AcDbSymbolTableRecord
100
AcDbRegAppTableRecord
  2
CONTENTCURRENTTAB
 70
     0
  0
APPID
  5
F3BA
330
746E
100
AcDbSymbolTableRecord
100
AcDbRegAppTableRecord
  2
DRAWINGVARIABLESXDATA
 70
     0
  0
ENDTAB
  0
TABLE
  2
DIMSTYLE
  5
746F
330
0
100
AcDbSymbolTable
 70
     1
100
AcDbDimStyleTable
 71
     1
340
F71F
  0
DIMSTYLE
105
F71F
102
{ACAD_REACTORS
330
16452
330
16459
330
1645E
330
16460
330
16461
330
16462
330
16475
330
16476
330
16477
330
1648F
330
16492
330
164BD
330
164BE
330
16FDF
330
16FE0
330
16FE1
330
16FE2
330
1757A
330
1757B
330
1757C
330
175AC
330
175B0
330
175B1
330
175B2
330
175C0
330
175CF
330
17C11
330
17C12
330
17C13
102
}
330
746F
100
AcDbSymbolTableRecord
100
AcDbDimStyleTableRecord
  2
INABA_S40G
 70
     0
 40
40.0
 41
2.5
 42
0.5
 43
7.0
 44
1.5
 73
     0
 74
     0
 77
     3
 78
     8
140
3.0
141
0.0
143
0.0394
147
1.0
172
     1
173
     1
174
     1
178
     7
271
     1
340
F706
341
F770
343
F770
344
F770
  0
ENDTAB
  0
TABLE
  2
BLOCK_RECORD
  5
7466
330
0
100
AcDbSymbolTable
 70
    30
  0
BLOCK_RECORD
  5
747D
330
7466
100
AcDbSymbolTableRecord
100
AcDbBlockTableRecord
  2
*MODEL_SPACE
340
166B1
  0
BLOCK_RECORD
  5
747A
330
7466
100
AcDbSymbolTableRecord
100
AcDbBlockTableRecord
  2
*PAPER_SPACE
340
166B2
  0
BLOCK_RECORD
  5
F770
330
7466
100
AcDbSymbolTableRecord
100
AcDbBlockTableRecord
  2
_DOTSMALL
340
0
102
{BLKREFS
331
17997
331
17998
331
179A1
331
179A2
331
179B5
331
179B6
331
179C9
331
179CA
331
179D2
331
179D3
331
179DB
331
179DC
331
179E4
331
179E5
331
179ED
331
179EE
331
179F8
331
179F9
331
17A03
331
17A04
331
17A3E
331
17A3F
331
17A49
331
17A4A
331
17A54
331
17A55
331
17A5D
331
17A5E
331
17A68
331
17A69
331
17A73
331
17A74
331
17A7F
331
17A80
331
17A8A
331
17A8B
331
17A94
331
17A95
331
17A9D
331
17A9E
331
17AA5
331
17AA6
331
17AAE
331
17AAF
331
17AB7
331
17AB8
331
17D33
331
17D34
331
17D82
331
17D83
331
17D8B
331
17D8C
331
17D9E
331
17D9F
331
17DBC
331
17DBD
331
17DC8
331
17DC9
102
}
  0
BLOCK_RECORD
  5
164C6
330
7466
100
AcDbSymbolTableRecord
100
AcDbBlockTableRecord
  2
*D1
340
0
  0
BLOCK_RECORD
  5
164D2
330
7466
100
AcDbSymbolTableRecord
100
AcDbBlockTableRecord
  2
*D2
340
0
  0
BLOCK_RECORD
  5
164F6
330
7466
100
AcDbSymbolTableRecord
100
AcDbBlockTableRecord
  2
*D3
340
0
  0
BLOCK_RECORD
  5
16501
330
7466
100
AcDbSymbolTableRecord
100
AcDbBlockTableRecord
  2
*D4
340
0
  0
BLOCK_RECORD
  5
1650D
330
7466
100
AcDbSymbolTableRecord
100
AcDbBlockTableRecord
  2
*D5
340
0
  0
BLOCK_RECORD
  5
1651B
330
7466
100
AcDbSymbolTableRecord
100
AcDbBlockTableRecord
  2
*D6
340
0
  0
BLOCK_RECORD
  5
1652A
330
7466
100
AcDbSymbolTableRecord
100
AcDbBlockTableRecord
  2
*D7
340
0
  0
BLOCK_RECORD
  5
16539
330
7466
100
AcDbSymbolTableRecord
100
AcDbBlockTableRecord
  2
*D8
340
0
  0
BLOCK_RECORD
  5
16547
330
7466
100
AcDbSymbolTableRecord
100
AcDbBlockTableRecord
  2
*D9
340
0
  0
BLOCK_RECORD
  5
16555
330
7466
100
AcDbSymbolTableRecord
100
AcDbBlockTableRecord
  2
*D10
340
0
  0
BLOCK_RECORD
  5
16561
330
7466
100
AcDbSymbolTableRecord
100
AcDbBlockTableRecord
  2
*D11
340
0
  0
BLOCK_RECORD
  5
1656F
330
7466
100
AcDbSymbolTableRecord
100
AcDbBlockTableRecord
  2
*D12
340
0
  0
BLOCK_RECORD
  5
1657D
330
7466
100
AcDbSymbolTableRecord
100
AcDbBlockTableRecord
  2
*D13
340
0
  0
BLOCK_RECORD
  5
171D8
330
7466
100
AcDbSymbolTableRecord
100
AcDbBlockTableRecord
  2
*D14
340
0
  0
BLOCK_RECORD
  5
171E4
330
7466
100
AcDbSymbolTableRecord
100
AcDbBlockTableRecord
  2
*D15
340
0
  0
BLOCK_RECORD
  5
171F2
330
7466
100
AcDbSymbolTableRecord
100
AcDbBlockTableRecord
  2
*D16
340
0
  0
BLOCK_RECORD
  5
17200
330
7466
100
AcDbSymbolTableRecord
100
AcDbBlockTableRecord
  2
*D17
340
0
  0
BLOCK_RECORD
  5
1766B
330
7466
100
AcDbSymbolTableRecord
100
AcDbBlockTableRecord
  2
*D18
340
0
  0
BLOCK_RECORD
  5
17677
330
7466
100
AcDbSymbolTableRecord
100
AcDbBlockTableRecord
  2
*D19
340
0
  0
BLOCK_RECORD
  5
17683
330
7466
100
AcDbSymbolTableRecord
100
AcDbBlockTableRecord
  2
*D20
340
0
  0
BLOCK_RECORD
  5
1768F
330
7466
100
AcDbSymbolTableRecord
100
AcDbBlockTableRecord
  2
*D21
340
0
  0
BLOCK_RECORD
  5
1769D
330
7466
100
AcDbSymbolTableRecord
100
AcDbBlockTableRecord
  2
*D22
340
0
  0
BLOCK_RECORD
  5
176A9
330
7466
100
AcDbSymbolTableRecord
100
AcDbBlockTableRecord
  2
*D23
340
0
  0
BLOCK_RECORD
  5
176B7
330
7466
100
AcDbSymbolTableRecord
100
AcDbBlockTableRecord
  2
*D24
340
0
  0
BLOCK_RECORD
  5
176C3
330
7466
100
AcDbSymbolTableRecord
100
AcDbBlockTableRecord
  2
*D25
340
0
  0
BLOCK_RECORD
  5
176D0
330
7466
100
AcDbSymbolTableRecord
100
AcDbBlockTableRecord
  2
*D26
340
0
  0
BLOCK_RECORD
  5
17C71
330
7466
100
AcDbSymbolTableRecord
100
AcDbBlockTableRecord
  2
*D27
340
0
  0
BLOCK_RECORD
  5
17C7D
330
7466
100
AcDbSymbolTableRecord
100
AcDbBlockTableRecord
  2
*D28
340
0
  0
BLOCK_RECORD
  5
17C8B
330
7466
100
AcDbSymbolTableRecord
100
AcDbBlockTableRecord
  2
*D29
340
0
  0
ENDTAB
  0
ENDSEC
  0
SECTION
  2
BLOCKS
  0
BLOCK
  5
7489
330
747D
100
AcDbEntity
  8
0
100
AcDbBlockBegin
  2
*MODEL_SPACE
 70
     0
 10
0.0
 20
0.0
 30
0.0
  3
*MODEL_SPACE
  1

  0
ENDBLK
  5
748A
330
747D
100
AcDbEntity
  8
0
100
AcDbBlockEnd
  0
BLOCK
  5
7487
330
747A
100
AcDbEntity
 67
     1
  8
0
100
AcDbBlockBegin
  2
*PAPER_SPACE
 70
     0
 10
0.0
 20
0.0
 30
0.0
  3
*PAPER_SPACE
  1

  0
ENDBLK
  5
7488
330
747A
100
AcDbEntity
 67
     1
  8
0
100
AcDbBlockEnd
  0
BLOCK
  5
F771
330
F770
100
AcDbEntity
  8
0
 48
50.0
100
AcDbBlockBegin
  2
_DOTSMALL
 70
     0
 10
0.0
 20
0.0
 30
0.0
  3
_DOTSMALL
  1

  0
LWPOLYLINE
  5
F772
330
F770
100
AcDbEntity
  8
0
  6
ByBlock
 62
     0
 48
50.0
100
AcDbPolyline
 90
        2
 70
     1
 43
0.5
 10
-0.0625
 20
0.0
 42
1.0
 10
0.0625
 20
0.0
 42
1.0
  0
ENDBLK
  5
F776
330
F770
100
AcDbEntity
  8
0
 48
50.0
100
AcDbBlockEnd
  0
BLOCK
  5
16663
330
164C6
100
AcDbEntity
  8
0
 48
50.0
100
AcDbBlockBegin
  2
*D1
 70
     1
 10
0.0
 20
0.0
 30
0.0
  3
*D1
  1

  0
LINE
  5
17AB4
330
164C6
100
AcDbEntity
  8
寸法
 62
     0
 48
50.0
370
    -2
100
AcDbLine
 10
6015.013878267355
 20
10244.15582800658
 30
0.0
 11
7067.547165741401
 21
10244.15582800658
 31
0.0
  0
LINE
  5
17AB5
330
164C6
100
AcDbEntity
  8
寸法
 62
     0
 48
50.0
370
    -2
100
AcDbLine
 10
6015.013878267329
 20
7614.15582800658
 30
0.0
 11
7067.547165741401
 21
7614.155828006579
 31
0.0
  0
LINE
  5
17AB6
330
164C6
100
AcDbEntity
  8
寸法
 62
     0
 48
50.0
370
    -2
100
AcDbLine
 10
7007.547165741401
 20
10244.15582800658
 30
0.0
 11
7007.547165741399
 21
7614.155828006579
 31
0.0
  0
INSERT
  5
17AB7
330
164C6
100
AcDbEntity
  8
寸法
 62
     0
 48
50.0
370
    -2
100
AcDbBlockReference
  2
_DOTSMALL
 10
7007.547165741401
 20
10244.15582800658
 30
0.0
 41
100.0
 42
100.0
 43
100.0
 50
90.0
  0
INSERT
  5
17AB8
330
164C6
100
AcDbEntity
  8
寸法
 62
     0
 48
50.0
370
    -2
100
AcDbBlockReference
  2
_DOTSMALL
 10
7007.547165741399
 20
7614.155828006579
 30
0.0
 41
100.0
 42
100.0
 43
100.0
 50
270.0
  0
MTEXT
  5
17AB9
330
164C6
100
AcDbEntity
  8
寸法
 62
     7
 48
50.0
100
AcDbMText
 10
6907.535354717777
 20
8929.155828006585
 30
0.0
 40
120.0
 41
0.0
 71
     5
 72
     1
  1
\A1;2630
  7
STYLE1
 11
0.0000000000000001
 21
1.0
 31
0.0
 73
     1
 44
1.0
1001
ACAD
1000
MTEXTBEGIN
1070
    73
1070
     1
1070
    44
1040
1.0
1070
    74
1070
     0
1000
MTEXTEND
  0
POINT
  5
17ABA
330
164C6
100
AcDbEntity
  8
DEFPOINTS
 62
     0
 48
50.0
100
AcDbPoint
 10
5995.013878267354
 20
10244.15582800658
 30
0.0
  0
POINT
  5
17ABB
330
164C6
100
AcDbEntity
  8
DEFPOINTS
 62
     0
 48
50.0
100
AcDbPoint
 10
5995.013878267329
 20
7614.15582800658
 30
0.0
  0
POINT
  5
17ABC
330
164C6
100
AcDbEntity
  8
DEFPOINTS
 62
     0
 48
50.0
100
AcDbPoint
 10
7007.547165741399
 20
7614.155828006579
 30
0.0
  0
ENDBLK
  5
1666D
330
164C6
100
AcDbEntity
  8
0
 48
50.0
100
AcDbBlockEnd
  0
BLOCK
  5
1666E
330
164D2
100
AcDbEntity
  8
0
 48
50.0
100
AcDbBlockBegin
  2
*D2
 70
     1
 10
0.0
 20
0.0
 30
0.0
  3
*D2
  1

  0
LINE
  5
17AAB
330
164D2
100
AcDbEntity
  8
寸法
 62
     0
 48
50.0
370
    -2
100
AcDbLine
 10
6015.013878267355
 20
10189.15582800659
 30
0.0
 11
6702.440224001763
 21
10189.15582800659
 31
0.0
  0
LINE
  5
17AAC
330
164D2
100
AcDbEntity
  8
寸法
 62
     0
 48
50.0
370
    -2
100
AcDbLine
 10
6015.013878267329
 20
7669.155828006577
 30
0.0
 11
6702.440224001763
 21
7669.155828006577
 31
0.0
  0
LINE
  5
17AAD
330
164D2
100
AcDbEntity
  8
寸法
 62
     0
 48
50.0
370
    -2
100
AcDbLine
 10
6642.440224001764
 20
10189.15582800659
 30
0.0
 11
6642.440224001764
 21
7669.155828006577
 31
0.0
  0
INSERT
  5
17AAE
330
164D2
100
AcDbEntity
  8
寸法
 62
     0
 48
50.0
370
    -2
100
AcDbBlockReference
  2
_DOTSMALL
 10
6642.440224001764
 20
10189.15582800659
 30
0.0
 41
100.0
 42
100.0
 43
100.0
 50
90.0
  0
INSERT
  5
17AAF
330
164D2
100
AcDbEntity
  8
寸法
 62
     0
 48
50.0
370
    -2
100
AcDbBlockReference
  2
_DOTSMALL
 10
6642.440224001764
 20
7669.155828006577
 30
0.0
 41
100.0
 42
100.0
 43
100.0
 50
270.0
  0
MTEXT
  5
17AB0
330
164D2
100
AcDbEntity
  8
寸法
 62
     7
 48
50.0
100
AcDbMText
 10
6542.428412978141
 20
8929.155828006585
 30
0.0
 40
120.0
 41
0.0
 71
     5
 72
     1
  1
\A1;6X420=2520
  7
STYLE1
 11
0.0000000000000001
 21
1.0
 31
0.0
 73
     1
 44
1.0
1001
ACAD
1000
MTEXTBEGIN
1070
    73
1070
     1
1070
    44
1040
1.0
1070
    74
1070
     0
1000
MTEXTEND
  0
POINT
  5
17AB1
330
164D2
100
AcDbEntity
  8
DEFPOINTS
 62
     0
 48
50.0
100
AcDbPoint
 10
5995.013878267354
 20
10189.15582800659
 30
0.0
  0
POINT
  5
17AB2
330
164D2
100
AcDbEntity
  8
DEFPOINTS
 62
     0
 48
50.0
100
AcDbPoint
 10
5995.013878267329
 20
7669.155828006577
 30
0.0
  0
POINT
  5
17AB3
330
164D2
100
AcDbEntity
  8
DEFPOINTS
 62
     0
 48
50.0
100
AcDbPoint
 10
6642.440224001764
 20
7669.155828006577
 30
0.0
  0
ENDBLK
  5
16678
330
164D2
100
AcDbEntity
  8
0
 48
50.0
100
AcDbBlockEnd
  0
BLOCK
  5
165C3
330
164F6
100
AcDbEntity
  8
0
 48
50.0
100
AcDbBlockBegin
  2
*D3
 70
     1
 10
0.0
 20
0.0
 30
0.0
  3
*D3
  1

  0
LINE
  5
17AA3
330
164F6
100
AcDbEntity
  8
寸法
 62
     0
 48
50.0
370
    -2
100
AcDbLine
 10
4728.013878267347
 20
7620.155828006488
 30
0.0
 11
4728.013878267347
 21
7019.725057240325
 31
0.0
  0
LINE
  5
17AA4
330
164F6
100
AcDbEntity
  8
寸法
 62
     0
 48
50.0
370
    -2
100
AcDbLine
 10
5892.013878267329
 20
7079.725057240324
 30
0.0
 11
4728.013878267347
 21
7079.725057240324
 31
0.0
  0
INSERT
  5
17AA5
330
164F6
100
AcDbEntity
  8
寸法
 62
     0
 48
50.0
370
    -2
100
AcDbBlockReference
  2
_DOTSMALL
 10
5892.013878267329
 20
7079.725057240324
 30
0.0
 41
100.0
 42
100.0
 43
100.0
  0
INSERT
  5
17AA6
330
164F6
100
AcDbEntity
  8
寸法
 62
     0
 48
50.0
370
    -2
100
AcDbBlockReference
  2
_DOTSMALL
 10
4728.013878267347
 20
7079.725057240324
 30
0.0
 41
100.0
 42
100.0
 43
100.0
 50
180.0
  0
MTEXT
  5
17AA7
330
164F6
100
AcDbEntity
  8
寸法
 62
     7
 48
50.0
100
AcDbMText
 10
5310.013878267338
 20
7279.725057240324
 30
0.0
 40
120.0
 41
0.0
 71
     5
 72
     1
  1
\A1;有効開口部間口\P1164
  7
STYLE1
 73
     1
 44
1.0
1001
ACAD
1000
MTEXTBEGIN
1070
    73
1070
     1
1070
    44
1040
1.0
1070
    74
1070
     0
1000
MTEXTEND
  0
POINT
  5
17AA8
330
164F6
100
AcDbEntity
  8
DEFPOINTS
 62
     0
 48
50.0
100
AcDbPoint
 10
5892.013878267329
 20
7640.155828006489
 30
0.0
  0
POINT
  5
17AA9
330
164F6
100
AcDbEntity
  8
DEFPOINTS
 62
     0
 48
50.0
100
AcDbPoint
 10
4728.013878267347
 20
7640.155828006489
 30
0.0
  0
POINT
  5
17AAA
330
164F6
100
AcDbEntity
  8
DEFPOINTS
 62
     0
 48
50.0
100
AcDbPoint
 10
4728.013878267347
 20
7079.725057240324
 30
0.0
  0
ENDBLK
  5
165CC
330
164F6
100
AcDbEntity
  8
0
 48
50.0
100
AcDbBlockEnd
  0
BLOCK
  5
165CD
330
16501
100
AcDbEntity
  8
0
 48
50.0
100
AcDbBlockBegin
  2
*D4
 70
     1
 10
0.0
 20
0.0
 30
0.0
  3
*D4
  1

  0
LINE
  5
17A9A
330
16501
100
AcDbEntity
  8
寸法
 62
     0
 48
50.0
370
    -2
100
AcDbLine
 10
4625.013878267347
 20
7594.155828006417
 30
0.0
 11
4625.013878267347
 21
6733.552061649451
 31
0.0
  0
LINE
  5
17A9B
330
16501
100
AcDbEntity
  8
寸法
 62
     0
 48
50.0
370
    -2
100
AcDbLine
 10
5995.013878267329
 20
7594.155828006543
 30
0.0
 11
5995.013878267329
 21
6733.552061649451
 31
0.0
  0
LINE
  5
17A9C
330
16501
100
AcDbEntity
  8
寸法
 62
     0
 48
50.0
370
    -2
100
AcDbLine
 10
4625.013878267347
 20
6793.55206164945
 30
0.0
 11
5995.013878267329
 21
6793.55206164945
 31
0.0
  0
INSERT
  5
17A9D
330
16501
100
AcDbEntity
  8
寸法
 62
     0
 48
50.0
370
    -2
100
AcDbBlockReference
  2
_DOTSMALL
 10
4625.013878267347
 20
6793.55206164945
 30
0.0
 41
100.0
 42
100.0
 43
100.0
 50
180.0
  0
INSERT
  5
17A9E
330
16501
100
AcDbEntity
  8
寸法
 62
     0
 48
50.0
370
    -2
100
AcDbBlockReference
  2
_DOTSMALL
 10
5995.013878267329
 20
6793.55206164945
 30
0.0
 41
100.0
 42
100.0
 43
100.0
  0
MTEXT
  5
17A9F
330
16501
100
AcDbEntity
  8
寸法
 62
     7
 48
50.0
100
AcDbMText
 10
5310.013878267338
 20
6893.55206164945
 30
0.0
 40
120.0
 41
0.0
 71
     5
 72
     1
  1
\A1;1370
  7
STYLE1
 73
     1
 44
1.0
1001
ACAD
1000
MTEXTBEGIN
1070
    73
1070
     1
1070
    44
1040
1.0
1070
    74
1070
     0
1000
MTEXTEND
  0
POINT
  5
17AA0
330
16501
100
AcDbEntity
  8
DEFPOINTS
 62
     0
 48
50.0
100
AcDbPoint
 10
4625.013878267347
 20
7614.155828006416
 30
0.0
  0
POINT
  5
17AA1
330
16501
100
AcDbEntity
  8
DEFPOINTS
 62
     0
 48
50.0
100
AcDbPoint
 10
5995.013878267329
 20
7614.155828006544
 30
0.0
  0
POINT
  5
17AA2
330
16501
100
AcDbEntity
  8
DEFPOINTS
 62
     0
 48
50.0
100
AcDbPoint
 10
5995.013878267329
 20
6793.55206164945
 30
0.0
  0
ENDBLK
  5
165D7
330
16501
100
AcDbEntity
  8
0
 48
50.0
100
AcDbBlockEnd
  0
BLOCK
  5
165D8
330
1650D
100
AcDbEntity
  8
0
 48
50.0
100
AcDbBlockBegin
  2
*D5
 70
     1
 10
0.0
 20
0.0
 30
0.0
  3
*D5
  1

  0
LINE
  5
17A8F
330
1650D
100
AcDbEntity
  8
寸法
 62
     0
 48
50.0
370
    -2
100
AcDbLine
 10
4680.013878267344
 20
7594.155828006488
 30
0.0
 11
4680.013878267344
 21
7019.725057240325
 31
0.0
  0
LINE
  5
17A90
330
1650D
100
AcDbEntity
  8
寸法
 62
     0
 48
50.0
370
    -2
100
AcDbLine
 10
4625.013878267347
 20
7594.155828006485
 30
0.0
 11
4625.013878267347
 21
7019.725057240325
 31
0.0
  0
LINE
  5
17A91
330
1650D
100
AcDbEntity
  8
寸法
 62
     0
 48
50.0
370
    -2
100
AcDbLine
 10
4680.013878267344
 20
7079.725057240324
 30
0.0
 11
4780.013878267344
 21
7079.725057240324
 31
0.0
  0
LINE
  5
17A92
330
1650D
100
AcDbEntity
  8
寸法
 62
     0
 48
50.0
370
    -2
100
AcDbLine
 10
4625.013878267347
 20
7079.725057240324
 30
0.0
 11
4208.04331551887
 21
7079.725057240324
 31
0.0
  0
LINE
  5
17A93
330
1650D
100
AcDbEntity
  8
寸法
 62
     0
 48
50.0
370
    -2
100
AcDbLine
 10
4680.013878267344
 20
7079.725057240324
 30
0.0
 11
4625.013878267347
 21
7079.725057240324
 31
0.0
  0
INSERT
  5
17A94
330
1650D
100
AcDbEntity
  8
寸法
 62
     0
 48
50.0
370
    -2
100
AcDbBlockReference
  2
_DOTSMALL
 10
4680.013878267344
 20
7079.725057240324
 30
0.0
 41
100.0
 42
100.0
 43
100.0
 50
180.0
  0
INSERT
  5
17A95
330
1650D
100
AcDbEntity
  8
寸法
 62
     0
 48
50.0
370
    -2
100
AcDbBlockReference
  2
_DOTSMALL
 10
4625.013878267347
 20
7079.725057240324
 30
0.0
 41
100.0
 42
100.0
 43
100.0
  0
MTEXT
  5
17A96
330
1650D
100
AcDbEntity
  8
寸法
 62
     7
 48
50.0
100
AcDbMText
 10
4316.528596893109
 20
7179.725057240324
 30
0.0
 40
120.0
 41
0.0
 71
     5
 72
     1
  1
\A1;55
  7
STYLE1
 73
     1
 44
1.0
1001
ACAD
1000
MTEXTBEGIN
1070
    73
1070
     1
1070
    44
1040
1.0
1070
    74
1070
     0
1000
MTEXTEND
  0
POINT
  5
17A97
330
1650D
100
AcDbEntity
  8
DEFPOINTS
 62
     0
 48
50.0
100
AcDbPoint
 10
4680.013878267344
 20
7614.155828006488
 30
0.0
  0
POINT
  5
17A98
330
1650D
100
AcDbEntity
  8
DEFPOINTS
 62
     0
 48
50.0
100
AcDbPoint
 10
4625.013878267347
 20
7614.155828006485
 30
0.0
  0
POINT
  5
17A99
330
1650D
100
AcDbEntity
  8
DEFPOINTS
 62
     0
 48
50.0
100
AcDbPoint
 10
4625.013878267347
 20
7079.725057240324
 30
0.0
  0
ENDBLK
  5
165E4
330
1650D
100
AcDbEntity
  8
0
 48
50.0
100
AcDbBlockEnd
  0
BLOCK
  5
165E5
330
1651B
100
AcDbEntity
  8
0
 48
50.0
100
AcDbBlockBegin
  2
*D6
 70
     1
 10
0.0
 20
0.0
 30
0.0
  3
*D6
  1

  0
LINE
  5
17A84
330
1651B
100
AcDbEntity
  8
寸法
 62
     0
 48
50.0
370
    -2
100
AcDbLine
 10
4728.013878267347
 20
7620.155828006488
 30
0.0
 11
4728.013878267347
 21
7019.725057240325
 31
0.0
  0
LINE
  5
17A85
330
1651B
100
AcDbEntity
  8
寸法
 62
     0
 48
50.0
370
    -2
100
AcDbLine
 10
4680.013878267344
 20
7594.155828006488
 30
0.0
 11
4680.013878267344
 21
7019.725057240325
 31
0.0
  0
LINE
  5
17A86
330
1651B
100
AcDbEntity
  8
寸法
 62
     0
 48
50.0
370
    -2
100
AcDbLine
 10
4728.013878267347
 20
7079.725057240324
 30
0.0
 11
4828.013878267348
 21
7079.725057240324
 31
0.0
  0
LINE
  5
17A87
330
1651B
100
AcDbEntity
  8
寸法
 62
     0
 48
50.0
370
    -2
100
AcDbLine
 10
4680.013878267344
 20
7079.725057240324
 30
0.0
 11
4580.013878267344
 21
7079.725057240324
 31
0.0
  0
MTEXT
  5
17A88
330
1651B
100
AcDbEntity
  8
寸法
 62
     7
 48
50.0
100
AcDbMText
 10
4840.915849267405
 20
7179.725057240324
 30
0.0
 40
120.0
 41
0.0
 71
     5
 72
     1
  1
\A1;48
  7
STYLE1
 73
     1
 44
1.0
1001
ACAD
1000
MTEXTBEGIN
1070
    73
1070
     1
1070
    44
1040
1.0
1070
    74
1070
     0
1000
MTEXTEND
  0
LINE
  5
17A89
330
1651B
100
AcDbEntity
  8
寸法
 62
     0
 48
50.0
370
    -2
100
AcDbLine
 10
4728.013878267347
 20
7079.725057240324
 30
0.0
 11
4680.013878267344
 21
7079.725057240324
 31
0.0
  0
INSERT
  5
17A8A
330
1651B
100
AcDbEntity
  8
寸法
 62
     0
 48
50.0
370
    -2
100
AcDbBlockReference
  2
_DOTSMALL
 10
4728.013878267347
 20
7079.725057240324
 30
0.0
 41
100.0
 42
100.0
 43
100.0
 50
180.0
  0
INSERT
  5
17A8B
330
1651B
100
AcDbEntity
  8
寸法
 62
     0
 48
50.0
370
    -2
100
AcDbBlockReference
  2
_DOTSMALL
 10
4680.013878267344
 20
7079.725057240324
 30
0.0
 41
100.0
 42
100.0
 43
100.0
  0
POINT
  5
17A8C
330
1651B
100
AcDbEntity
  8
DEFPOINTS
 62
     0
 48
50.0
100
AcDbPoint
 10
4728.013878267347
 20
7640.155828006489
 30
0.0
  0
POINT
  5
17A8D
330
1651B
100
AcDbEntity
  8
DEFPOINTS
 62
     0
 48
50.0
100
AcDbPoint
 10
4680.013878267344
 20
7614.155828006488
 30
0.0
  0
POINT
  5
17A8E
330
1651B
100
AcDbEntity
  8
DEFPOINTS
 62
     0
 48
50.0
100
AcDbPoint
 10
4680.013878267344
 20
7079.725057240324
 30
0.0
  0
ENDBLK
  5
165F2
330
1651B
100
AcDbEntity
  8
0
 48
50.0
100
AcDbBlockEnd
  0
BLOCK
  5
165F3
330
1652A
100
AcDbEntity
  8
0
 48
50.0
100
AcDbBlockBegin
  2
*D7
 70
     1
 10
0.0
 20
0.0
 30
0.0
  3
*D7
  1

  0
LINE
  5
17A79
330
1652A
100
AcDbEntity
  8
寸法
 62
     0
 48
50.0
370
    -2
100
AcDbLine
 10
5940.013878267331
 20
7594.155828006576
 30
0.0
 11
5940.013878267331
 21
7019.725057240325
 31
0.0
  0
LINE
  5
17A7A
330
1652A
100
AcDbEntity
  8
寸法
 62
     0
 48
50.0
370
    -2
100
AcDbLine
 10
5892.013878267329
 20
7620.155828006488
 30
0.0
 11
5892.013878267329
 21
7019.725057240325
 31
0.0
  0
LINE
  5
17A7B
330
1652A
100
AcDbEntity
  8
寸法
 62
     0
 48
50.0
370
    -2
100
AcDbLine
 10
5940.013878267331
 20
7079.725057240324
 30
0.0
 11
6040.01387826733
 21
7079.725057240324
 31
0.0
  0
LINE
  5
17A7C
330
1652A
100
AcDbEntity
  8
寸法
 62
     0
 48
50.0
370
    -2
100
AcDbLine
 10
5892.013878267329
 20
7079.725057240324
 30
0.0
 11
5792.013878267329
 21
7079.725057240324
 31
0.0
  0
MTEXT
  5
17A7D
330
1652A
100
AcDbEntity
  8
寸法
 62
     7
 48
50.0
100
AcDbMText
 10
5781.050980618582
 20
7179.725057240324
 30
0.0
 40
120.0
 41
0.0
 71
     5
 72
     1
  1
\A1;48
  7
STYLE1
 73
     1
 44
1.0
1001
ACAD
1000
MTEXTBEGIN
1070
    73
1070
     1
1070
    44
1040
1.0
1070
    74
1070
     0
1000
MTEXTEND
  0
LINE
  5
17A7E
330
1652A
100
AcDbEntity
  8
寸法
 62
     0
 48
50.0
370
    -2
100
AcDbLine
 10
5940.013878267331
 20
7079.725057240324
 30
0.0
 11
5892.013878267329
 21
7079.725057240324
 31
0.0
  0
INSERT
  5
17A7F
330
1652A
100
AcDbEntity
  8
寸法
 62
     0
 48
50.0
370
    -2
100
AcDbBlockReference
  2
_DOTSMALL
 10
5940.013878267331
 20
7079.725057240324
 30
0.0
 41
100.0
 42
100.0
 43
100.0
 50
180.0
  0
INSERT
  5
17A80
330
1652A
100
AcDbEntity
  8
寸法
 62
     0
 48
50.0
370
    -2
100
AcDbBlockReference
  2
_DOTSMALL
 10
5892.013878267329
 20
7079.725057240324
 30
0.0
 41
100.0
 42
100.0
 43
100.0
  0
POINT
  5
17A81
330
1652A
100
AcDbEntity
  8
DEFPOINTS
 62
     0
 48
50.0
100
AcDbPoint
 10
5940.013878267331
 20
7614.155828006577
 30
0.0
  0
POINT
  5
17A82
330
1652A
100
AcDbEntity
  8
DEFPOINTS
 62
     0
 48
50.0
100
AcDbPoint
 10
5892.013878267329
 20
7640.155828006489
 30
0.0
  0
POINT
  5
17A83
330
1652A
100
AcDbEntity
  8
DEFPOINTS
 62
     0
 48
50.0
100
AcDbPoint
 10
5892.013878267329
 20
7079.725057240324
 30
0.0
  0
ENDBLK
  5
16600
330
1652A
100
AcDbEntity
  8
0
 48
50.0
100
AcDbBlockEnd
  0
BLOCK
  5
16601
330
16539
100
AcDbEntity
  8
0
 48
50.0
100
AcDbBlockBegin
  2
*D8
 70
     1
 10
0.0
 20
0.0
 30
0.0
  3
*D8
  1

  0
LINE
  5
17A6E
330
16539
100
AcDbEntity
  8
寸法
 62
     0
 48
50.0
370
    -2
100
AcDbLine
 10
5995.013878267329
 20
7594.155828006581
 30
0.0
 11
5995.013878267329
 21
7019.725057240326
 31
0.0
  0
LINE
  5
17A6F
330
16539
100
AcDbEntity
  8
寸法
 62
     0
 48
50.0
370
    -2
100
AcDbLine
 10
5940.013878267331
 20
7594.155828006576
 30
0.0
 11
5940.013878267331
 21
7019.725057240326
 31
0.0
  0
LINE
  5
17A70
330
16539
100
AcDbEntity
  8
寸法
 62
     0
 48
50.0
370
    -2
100
AcDbLine
 10
5940.013878267331
 20
7079.725057240326
 30
0.0
 11
5840.013878267331
 21
7079.725057240326
 31
0.0
  0
LINE
  5
17A71
330
16539
100
AcDbEntity
  8
寸法
 62
     0
 48
50.0
370
    -2
100
AcDbLine
 10
5995.013878267329
 20
7079.725057240326
 30
0.0
 11
6411.984441015807
 21
7079.725057240326
 31
0.0
  0
LINE
  5
17A72
330
16539
100
AcDbEntity
  8
寸法
 62
     0
 48
50.0
370
    -2
100
AcDbLine
 10
5940.013878267331
 20
7079.725057240326
 30
0.0
 11
5995.013878267329
 21
7079.725057240326
 31
0.0
  0
INSERT
  5
17A73
330
16539
100
AcDbEntity
  8
寸法
 62
     0
 48
50.0
370
    -2
100
AcDbBlockReference
  2
_DOTSMALL
 10
5940.013878267331
 20
7079.725057240326
 30
0.0
 41
100.0
 42
100.0
 43
100.0
  0
INSERT
  5
17A74
330
16539
100
AcDbEntity
  8
寸法
 62
     0
 48
50.0
370
    -2
100
AcDbBlockReference
  2
_DOTSMALL
 10
5995.013878267329
 20
7079.725057240326
 30
0.0
 41
100.0
 42
100.0
 43
100.0
 50
180.0
  0
MTEXT
  5
17A75
330
16539
100
AcDbEntity
  8
寸法
 62
     7
 48
50.0
100
AcDbMText
 10
6303.499159641567
 20
7179.725057240325
 30
0.0
 40
120.0
 41
0.0
 71
     5
 72
     1
  1
\A1;55
  7
STYLE1
 73
     1
 44
1.0
1001
ACAD
1000
MTEXTBEGIN
1070
    73
1070
     1
1070
    44
1040
1.0
1070
    74
1070
     0
1000
MTEXTEND
  0
POINT
  5
17A76
330
16539
100
AcDbEntity
  8
DEFPOINTS
 62
     0
 48
50.0
100
AcDbPoint
 10
5995.013878267329
 20
7614.15582800658
 30
0.0
  0
POINT
  5
17A77
330
16539
100
AcDbEntity
  8
DEFPOINTS
 62
     0
 48
50.0
100
AcDbPoint
 10
5940.013878267331
 20
7614.155828006577
 30
0.0
  0
POINT
  5
17A78
330
16539
100
AcDbEntity
  8
DEFPOINTS
 62
     0
 48
50.0
100
AcDbPoint
 10
5940.013878267331
 20
7079.725057240326
 30
0.0
  0
ENDBLK
  5
1660D
330
16539
100
AcDbEntity
  8
0
 48
50.0
100
AcDbBlockEnd
  0
BLOCK
  5
1660E
330
16547
100
AcDbEntity
  8
0
 48
50.0
100
AcDbBlockBegin
  2
*D9
 70
     1
 10
0.0
 20
0.0
 30
0.0
  3
*D9
  1

  0
LINE
  5
17A63
330
16547
100
AcDbEntity
  8
寸法
 62
     0
 48
50.0
370
    -2
100
AcDbLine
 10
6015.013878267329
 20
7669.155828006577
 30
0.0
 11
6702.44022400174
 21
7669.155828006577
 31
0.0
  0
LINE
  5
17A64
330
16547
100
AcDbEntity
  8
寸法
 62
     0
 48
50.0
370
    -2
100
AcDbLine
 10
6015.013878267329
 20
7614.15582800658
 30
0.0
 11
6702.44022400174
 21
7614.155828006579
 31
0.0
  0
LINE
  5
17A65
330
16547
100
AcDbEntity
  8
寸法
 62
     0
 48
50.0
370
    -2
100
AcDbLine
 10
6642.440224001742
 20
7669.155828006577
 30
0.0
 11
6642.440224001742
 21
7769.155828006576
 31
0.0
  0
LINE
  5
17A66
330
16547
100
AcDbEntity
  8
寸法
 62
     0
 48
50.0
370
    -2
100
AcDbLine
 10
6642.440224001742
 20
7614.155828006579
 30
0.0
 11
6642.440224001742
 21
7127.809079727477
 31
0.0
  0
LINE
  5
17A67
330
16547
100
AcDbEntity
  8
寸法
 62
     0
 48
50.0
370
    -2
100
AcDbLine
 10
6642.440224001742
 20
7669.155828006577
 30
0.0
 11
6642.440224001742
 21
7614.155828006579
 31
0.0
  0
INSERT
  5
17A68
330
16547
100
AcDbEntity
  8
寸法
 62
     0
 48
50.0
370
    -2
100
AcDbBlockReference
  2
_DOTSMALL
 10
6642.440224001742
 20
7669.155828006577
 30
0.0
 41
100.0
 42
100.0
 43
100.0
 50
270.0
  0
INSERT
  5
17A69
330
16547
100
AcDbEntity
  8
寸法
 62
     0
 48
50.0
370
    -2
100
AcDbBlockReference
  2
_DOTSMALL
 10
6642.440224001742
 20
7614.155828006579
 30
0.0
 41
100.0
 42
100.0
 43
100.0
 50
90.0
  0
MTEXT
  5
17A6A
330
16547
100
AcDbEntity
  8
寸法
 62
     7
 48
50.0
100
AcDbMText
 10
6542.440224001738
 20
7236.294361101719
 30
0.0
 40
120.0
 41
0.0
 71
     5
 72
     1
  1
\A1;55
  7
STYLE1
 11
0.0000000000000001
 21
1.0
 31
0.0
 73
     1
 44
1.0
1001
ACAD
1000
MTEXTBEGIN
1070
    73
1070
     1
1070
    44
1040
1.0
1070
    74
1070
     0
1000
MTEXTEND
  0
POINT
  5
17A6B
330
16547
100
AcDbEntity
  8
DEFPOINTS
 62
     0
 48
50.0
100
AcDbPoint
 10
5995.013878267329
 20
7669.155828006577
 30
0.0
  0
POINT
  5
17A6C
330
16547
100
AcDbEntity
  8
DEFPOINTS
 62
     0
 48
50.0
100
AcDbPoint
 10
5995.013878267329
 20
7614.15582800658
 30
0.0
  0
POINT
  5
17A6D
330
16547
100
AcDbEntity
  8
DEFPOINTS
 62
     0
 48
50.0
100
AcDbPoint
 10
6642.440224001742
 20
7614.155828006579
 30
0.0
  0
ENDBLK
  5
1661A
330
16547
100
AcDbEntity
  8
0
 48
50.0
100
AcDbBlockEnd
  0
BLOCK
  5
1661B
330
16555
100
AcDbEntity
  8
0
 48
50.0
100
AcDbBlockBegin
  2
*D10
 70
     1
 10
0.0
 20
0.0
 30
0.0
  3
*D10
  1

  0
LINE
  5
17A5A
330
16555
100
AcDbEntity
  8
寸法
 62
     0
 48
50.0
370
    -2
100
AcDbLine
 10
4680.013878267354
 20
10264.15582800649
 30
0.0
 11
4680.013878267354
 21
10519.96404763159
 31
0.0
  0
LINE
  5
17A5B
330
16555
100
AcDbEntity
  8
寸法
 62
     0
 48
50.0
370
    -2
100
AcDbLine
 10
5940.013878267355
 20
10264.15582800658
 30
0.0
 11
5940.013878267355
 21
10519.96404763159
 31
0.0
  0
LINE
  5
17A5C
330
16555
100
AcDbEntity
  8
寸法
 62
     0
 48
50.0
370
    -2
100
AcDbLine
 10
4680.013878267354
 20
10459.96404763159
 30
0.0
 11
5940.013878267355
 21
10459.96404763159
 31
0.0
  0
INSERT
  5
17A5D
330
16555
100
AcDbEntity
  8
寸法
 62
     0
 48
50.0
370
    -2
100
AcDbBlockReference
  2
_DOTSMALL
 10
4680.013878267354
 20
10459.96404763159
 30
0.0
 41
100.0
 42
100.0
 43
100.0
 50
180.0
  0
INSERT
  5
17A5E
330
16555
100
AcDbEntity
  8
寸法
 62
     0
 48
50.0
370
    -2
100
AcDbBlockReference
  2
_DOTSMALL
 10
5940.013878267355
 20
10459.96404763159
 30
0.0
 41
100.0
 42
100.0
 43
100.0
  0
MTEXT
  5
17A5F
330
16555
100
AcDbEntity
  8
寸法
 62
     7
 48
50.0
100
AcDbMText
 10
5310.013878267355
 20
10559.97585865521
 30
0.0
 40
120.0
 41
0.0
 71
     5
 72
     1
  1
\A1;3X420=1260
  7
STYLE1
 73
     1
 44
1.0
1001
ACAD
1000
MTEXTBEGIN
1070
    73
1070
     1
1070
    44
1040
1.0
1070
    74
1070
     0
1000
MTEXTEND
  0
POINT
  5
17A60
330
16555
100
AcDbEntity
  8
DEFPOINTS
 62
     0
 48
50.0
100
AcDbPoint
 10
4680.013878267354
 20
10244.15582800649
 30
0.0
  0
POINT
  5
17A61
330
16555
100
AcDbEntity
  8
DEFPOINTS
 62
     0
 48
50.0
100
AcDbPoint
 10
5940.013878267355
 20
10244.15582800658
 30
0.0
  0
POINT
  5
17A62
330
16555
100
AcDbEntity
  8
DEFPOINTS
 62
     0
 48
50.0
100
AcDbPoint
 10
5940.013878267355
 20
10459.96404763159
 30
0.0
  0
ENDBLK
  5
16625
330
16555
100
AcDbEntity
  8
0
 48
50.0
100
AcDbBlockEnd
  0
BLOCK
  5
16626
330
16561
100
AcDbEntity
  8
0
 48
50.0
100
AcDbBlockBegin
  2
*D11
 70
     1
 10
0.0
 20
0.0
 30
0.0
  3
*D11
  1

  0
LINE
  5
17A4F
330
16561
100
AcDbEntity
  8
寸法
 62
     0
 48
50.0
370
    -2
100
AcDbLine
 10
4625.01387826732
 20
10264.15582800649
 30
0.0
 11
4625.01387826732
 21
10519.96404763147
 31
0.0
  0
LINE
  5
17A50
330
16561
100
AcDbEntity
  8
寸法
 62
     0
 48
50.0
370
    -2
100
AcDbLine
 10
4680.013878267354
 20
10264.15582800649
 30
0.0
 11
4680.013878267354
 21
10519.96404763147
 31
0.0
  0
LINE
  5
17A51
330
16561
100
AcDbEntity
  8
寸法
 62
     0
 48
50.0
370
    -2
100
AcDbLine
 10
4680.013878267354
 20
10459.96404763147
 30
0.0
 11
4780.013878267354
 21
10459.96404763147
 31
0.0
  0
LINE
  5
17A52
330
16561
100
AcDbEntity
  8
寸法
 62
     0
 48
50.0
370
    -2
100
AcDbLine
 10
4625.01387826732
 20
10459.96404763147
 30
0.0
 11
4208.043315518841
 21
10459.96404763147
 31
0.0
  0
LINE
  5
17A53
330
16561
100
AcDbEntity
  8
寸法
 62
     0
 48
50.0
370
    -2
100
AcDbLine
 10
4680.013878267354
 20
10459.96404763147
 30
0.0
 11
4625.01387826732
 21
10459.96404763147
 31
0.0
  0
INSERT
  5
17A54
330
16561
100
AcDbEntity
  8
寸法
 62
     0
 48
50.0
370
    -2
100
AcDbBlockReference
  2
_DOTSMALL
 10
4680.013878267354
 20
10459.96404763147
 30
0.0
 41
100.0
 42
100.0
 43
100.0
 50
180.0
  0
INSERT
  5
17A55
330
16561
100
AcDbEntity
  8
寸法
 62
     0
 48
50.0
370
    -2
100
AcDbBlockReference
  2
_DOTSMALL
 10
4625.01387826732
 20
10459.96404763147
 30
0.0
 41
100.0
 42
100.0
 43
100.0
  0
MTEXT
  5
17A56
330
16561
100
AcDbEntity
  8
寸法
 62
     7
 48
50.0
100
AcDbMText
 10
4316.52859689308
 20
10559.96404763147
 30
0.0
 40
120.0
 41
0.0
 71
     5
 72
     1
  1
\A1;55
  7
STYLE1
 73
     1
 44
1.0
1001
ACAD
1000
MTEXTBEGIN
1070
    73
1070
     1
1070
    44
1040
1.0
1070
    74
1070
     0
1000
MTEXTEND
  0
POINT
  5
17A57
330
16561
100
AcDbEntity
  8
DEFPOINTS
 62
     0
 48
50.0
100
AcDbPoint
 10
4625.01387826732
 20
10244.15582800649
 30
0.0
  0
POINT
  5
17A58
330
16561
100
AcDbEntity
  8
DEFPOINTS
 62
     0
 48
50.0
100
AcDbPoint
 10
4680.013878267354
 20
10244.15582800649
 30
0.0
  0
POINT
  5
17A59
330
16561
100
AcDbEntity
  8
DEFPOINTS
 62
     0
 48
50.0
100
AcDbPoint
 10
4680.013878267354
 20
10459.96404763147
 30
0.0
  0
ENDBLK
  5
16632
330
16561
100
AcDbEntity
  8
0
 48
50.0
100
AcDbBlockEnd
  0
BLOCK
  5
16633
330
1656F
100
AcDbEntity
  8
0
 48
50.0
100
AcDbBlockBegin
  2
*D12
 70
     1
 10
0.0
 20
0.0
 30
0.0
  3
*D12
  1

  0
LINE
  5
17A44
330
1656F
100
AcDbEntity
  8
寸法
 62
     0
 48
50.0
370
    -2
100
AcDbLine
 10
6015.013878267355
 20
10244.15582800658
 30
0.0
 11
6702.440224001766
 21
10244.15582800658
 31
0.0
  0
LINE
  5
17A45
330
1656F
100
AcDbEntity
  8
寸法
 62
     0
 48
50.0
370
    -2
100
AcDbLine
 10
6015.013878267355
 20
10189.15582800659
 30
0.0
 11
6702.440224001765
 21
10189.15582800659
 31
0.0
  0
LINE
  5
17A46
330
1656F
100
AcDbEntity
  8
寸法
 62
     0
 48
50.0
370
    -2
100
AcDbLine
 10
6642.440224001766
 20
10189.15582800659
 30
0.0
 11
6642.440224001766
 21
10089.15582800659
 31
0.0
  0
LINE
  5
17A47
330
1656F
100
AcDbEntity
  8
寸法
 62
     0
 48
50.0
370
    -2
100
AcDbLine
 10
6642.440224001766
 20
10244.15582800658
 30
0.0
 11
6642.440224001766
 21
10661.12639075506
 31
0.0
  0
LINE
  5
17A48
330
1656F
100
AcDbEntity
  8
寸法
 62
     0
 48
50.0
370
    -2
100
AcDbLine
 10
6642.440224001766
 20
10189.15582800659
 30
0.0
 11
6642.440224001766
 21
10244.15582800658
 31
0.0
  0
INSERT
  5
17A49
330
1656F
100
AcDbEntity
  8
寸法
 62
     0
 48
50.0
370
    -2
100
AcDbBlockReference
  2
_DOTSMALL
 10
6642.440224001766
 20
10189.15582800659
 30
0.0
 41
100.0
 42
100.0
 43
100.0
 50
90.0
  0
INSERT
  5
17A4A
330
1656F
100
AcDbEntity
  8
寸法
 62
     0
 48
50.0
370
    -2
100
AcDbBlockReference
  2
_DOTSMALL
 10
6642.440224001766
 20
10244.15582800658
 30
0.0
 41
100.0
 42
100.0
 43
100.0
 50
270.0
  0
MTEXT
  5
17A4B
330
1656F
100
AcDbEntity
  8
寸法
 62
     7
 48
50.0
100
AcDbMText
 10
6542.440224001764
 20
10552.64110938082
 30
0.0
 40
120.0
 41
0.0
 71
     5
 72
     1
  1
\A1;55
  7
STYLE1
 11
0.0000000000000001
 21
1.0
 31
0.0
 73
     1
 44
1.0
1001
ACAD
1000
MTEXTBEGIN
1070
    73
1070
     1
1070
    44
1040
1.0
1070
    74
1070
     0
1000
MTEXTEND
  0
POINT
  5
17A4C
330
1656F
100
AcDbEntity
  8
DEFPOINTS
 62
     0
 48
50.0
100
AcDbPoint
 10
5995.013878267354
 20
10244.15582800658
 30
0.0
  0
POINT
  5
17A4D
330
1656F
100
AcDbEntity
  8
DEFPOINTS
 62
     0
 48
50.0
100
AcDbPoint
 10
5995.013878267354
 20
10189.15582800659
 30
0.0
  0
POINT
  5
17A4E
330
1656F
100
AcDbEntity
  8
DEFPOINTS
 62
     0
 48
50.0
100
AcDbPoint
 10
6642.440224001766
 20
10189.15582800659
 30
0.0
  0
ENDBLK
  5
1663F
330
1656F
100
AcDbEntity
  8
0
 48
50.0
100
AcDbBlockEnd
  0
BLOCK
  5
16640
330
1657D
100
AcDbEntity
  8
0
 48
50.0
100
AcDbBlockBegin
  2
*D13
 70
     1
 10
0.0
 20
0.0
 30
0.0
  3
*D13
  1

  0
LINE
  5
17A39
330
1657D
100
AcDbEntity
  8
寸法
 62
     0
 48
50.0
370
    -2
100
AcDbLine
 10
5940.013878267355
 20
10264.15582800658
 30
0.0
 11
5940.013878267355
 21
10519.96404763157
 31
0.0
  0
LINE
  5
17A3A
330
1657D
100
AcDbEntity
  8
寸法
 62
     0
 48
50.0
370
    -2
100
AcDbLine
 10
5995.013878267354
 20
10264.15582800658
 30
0.0
 11
5995.013878267354
 21
10519.96404763157
 31
0.0
  0
LINE
  5
17A3B
330
1657D
100
AcDbEntity
  8
寸法
 62
     0
 48
50.0
370
    -2
100
AcDbLine
 10
5940.013878267355
 20
10459.96404763157
 30
0.0
 11
5840.013878267355
 21
10459.96404763157
 31
0.0
  0
LINE
  5
17A3C
330
1657D
100
AcDbEntity
  8
寸法
 62
     0
 48
50.0
370
    -2
100
AcDbLine
 10
5995.013878267354
 20
10459.96404763157
 30
0.0
 11
6411.984441015832
 21
10459.96404763157
 31
0.0
  0
LINE
  5
17A3D
330
1657D
100
AcDbEntity
  8
寸法
 62
     0
 48
50.0
370
    -2
100
AcDbLine
 10
5940.013878267355
 20
10459.96404763157
 30
0.0
 11
5995.013878267354
 21
10459.96404763157
 31
0.0
  0
INSERT
  5
17A3E
330
1657D
100
AcDbEntity
  8
寸法
 62
     0
 48
50.0
370
    -2
100
AcDbBlockReference
  2
_DOTSMALL
 10
5940.013878267355
 20
10459.96404763157
 30
0.0
 41
100.0
 42
100.0
 43
100.0
  0
INSERT
  5
17A3F
330
1657D
100
AcDbEntity
  8
寸法
 62
     0
 48
50.0
370
    -2
100
AcDbBlockReference
  2
_DOTSMALL
 10
5995.013878267354
 20
10459.96404763157
 30
0.0
 41
100.0
 42
100.0
 43
100.0
 50
180.0
  0
MTEXT
  5
17A40
330
1657D
100
AcDbEntity
  8
寸法
 62
     7
 48
50.0
100
AcDbMText
 10
6303.499159641592
 20
10559.96404763157
 30
0.0
 40
120.0
 41
0.0
 71
     5
 72
     1
  1
\A1;55
  7
STYLE1
 73
     1
 44
1.0
1001
ACAD
1000
MTEXTBEGIN
1070
    73
1070
     1
1070
    44
1040
1.0
1070
    74
1070
     0
1000
MTEXTEND
  0
POINT
  5
17A41
330
1657D
100
AcDbEntity
  8
DEFPOINTS
 62
     0
 48
50.0
100
AcDbPoint
 10
5940.013878267355
 20
10244.15582800658
 30
0.0
  0
POINT
  5
17A42
330
1657D
100
AcDbEntity
  8
DEFPOINTS
 62
     0
 48
50.0
100
AcDbPoint
 10
5995.013878267354
 20
10244.15582800658
 30
0.0
  0
POINT
  5
17A43
330
1657D
100
AcDbEntity
  8
DEFPOINTS
 62
     0
 48
50.0
100
AcDbPoint
 10
5995.013878267354
 20
10459.96404763157
 30
0.0
  0
ENDBLK
  5
1664C
330
1657D
100
AcDbEntity
  8
0
 48
50.0
100
AcDbBlockEnd
  0
BLOCK
  5
171E2
330
171D8
100
AcDbEntity
  8
0
 48
50.0
100
AcDbBlockBegin
  2
*D14
 70
     1
 10
0.0
 20
0.0
 30
0.0
  3
*D14
  1

  0
LINE
  5
17D7F
330
171D8
100
AcDbEntity
  8
寸法
 62
     0
 48
50.0
370
    -2
100
AcDbLine
 10
4575.013878267349
 20
4932.931598713268
 30
0.0
 11
4575.013878267349
 21
5578.56679165926
 31
0.0
  0
LINE
  5
17D80
330
171D8
100
AcDbEntity
  8
寸法
 62
     0
 48
50.0
370
    -2
100
AcDbLine
 10
6045.013878267347
 20
4932.931598713264
 30
0.0
 11
6045.013878267347
 21
5578.56679165926
 31
0.0
  0
LINE
  5
17D81
330
171D8
100
AcDbEntity
  8
寸法
 62
     0
 48
50.0
370
    -2
100
AcDbLine
 10
4575.013878267349
 20
5518.56679165926
 30
0.0
 11
6045.013878267347
 21
5518.56679165926
 31
0.0
  0
INSERT
  5
17D82
330
171D8
100
AcDbEntity
  8
寸法
 62
     0
 48
50.0
370
    -2
100
AcDbBlockReference
  2
_DOTSMALL
 10
4575.013878267349
 20
5518.56679165926
 30
0.0
 41
100.0
 42
100.0
 43
100.0
 50
180.0
  0
INSERT
  5
17D83
330
171D8
100
AcDbEntity
  8
寸法
 62
     0
 48
50.0
370
    -2
100
AcDbBlockReference
  2
_DOTSMALL
 10
6045.013878267347
 20
5518.56679165926
 30
0.0
 41
100.0
 42
100.0
 43
100.0
  0
MTEXT
  5
17D84
330
171D8
100
AcDbEntity
  8
寸法
 62
     7
 48
50.0
100
AcDbMText
 10
5310.013878267348
 20
5618.56679165926
 30
0.0
 40
120.0
 41
0.0
 71
     5
 72
     1
  1
\A1;1470
  7
STYLE1
 73
     1
 44
1.0
1001
ACAD
1000
MTEXTBEGIN
1070
    73
1070
     1
1070
    44
1040
1.0
1070
    74
1070
     0
1000
MTEXTEND
  0
POINT
  5
17D85
330
171D8
100
AcDbEntity
  8
DEFPOINTS
 62
     0
 48
50.0
100
AcDbPoint
 10
4575.013878267349
 20
4912.931598713267
 30
0.0
  0
POINT
  5
17D86
330
171D8
100
AcDbEntity
  8
DEFPOINTS
 62
     0
 48
50.0
100
AcDbPoint
 10
6045.013878267347
 20
4912.931598713264
 30
0.0
  0
POINT
  5
17D87
330
171D8
100
AcDbEntity
  8
DEFPOINTS
 62
     0
 48
50.0
100
AcDbPoint
 10
6045.013878267347
 20
5518.56679165926
 30
0.0
  0
ENDBLK
  5
171E3
330
171D8
100
AcDbEntity
  8
0
 48
50.0
100
AcDbBlockEnd
  0
BLOCK
  5
171F0
330
171E4
100
AcDbEntity
  8
0
 48
50.0
100
AcDbBlockBegin
  2
*D15
 70
     1
 10
0.0
 20
0.0
 30
0.0
  3
*D15
  1

  0
LINE
  5
179FE
330
171E4
100
AcDbEntity
  8
寸法
 62
     0
 48
50.0
370
    -2
100
AcDbLine
 10
6045.013878267347
 20
4932.931598713264
 30
0.0
 11
6045.013878267347
 21
5378.65787044517
 31
0.0
  0
LINE
  5
179FF
330
171E4
100
AcDbEntity
  8
寸法
 62
     0
 48
50.0
370
    -2
100
AcDbLine
 10
5995.013878267349
 20
4932.931598713268
 30
0.0
 11
5995.013878267349
 21
5378.65787044517
 31
0.0
  0
LINE
  5
17A00
330
171E4
100
AcDbEntity
  8
寸法
 62
     0
 48
50.0
370
    -2
100
AcDbLine
 10
5995.013878267349
 20
5318.657870445171
 30
0.0
 11
5895.013878267349
 21
5318.657870445171
 31
0.0
  0
LINE
  5
17A01
330
171E4
100
AcDbEntity
  8
寸法
 62
     0
 48
50.0
370
    -2
100
AcDbLine
 10
6045.013878267347
 20
5318.657870445171
 30
0.0
 11
6464.546403736074
 21
5318.657870445171
 31
0.0
  0
LINE
  5
17A02
330
171E4
100
AcDbEntity
  8
寸法
 62
     0
 48
50.0
370
    -2
100
AcDbLine
 10
5995.013878267349
 20
5318.657870445171
 30
0.0
 11
6045.013878267347
 21
5318.657870445171
 31
0.0
  0
INSERT
  5
17A03
330
171E4
100
AcDbEntity
  8
寸法
 62
     0
 48
50.0
370
    -2
100
AcDbBlockReference
  2
_DOTSMALL
 10
5995.013878267349
 20
5318.657870445171
 30
0.0
 41
100.0
 42
100.0
 43
100.0
  0
INSERT
  5
17A04
330
171E4
100
AcDbEntity
  8
寸法
 62
     0
 48
50.0
370
    -2
100
AcDbBlockReference
  2
_DOTSMALL
 10
6045.013878267347
 20
5318.657870445171
 30
0.0
 41
100.0
 42
100.0
 43
100.0
 50
180.0
  0
MTEXT
  5
17A05
330
171E4
100
AcDbEntity
  8
寸法
 62
     7
 48
50.0
100
AcDbMText
 10
6358.499159641586
 20
5418.65787044517
 30
0.0
 40
120.0
 41
0.0
 71
     5
 72
     1
  1
\A1;50
  7
STYLE1
 73
     1
 44
1.0
1001
ACAD
1000
MTEXTBEGIN
1070
    73
1070
     1
1070
    44
1040
1.0
1070
    74
1070
     0
1000
MTEXTEND
  0
POINT
  5
17A06
330
171E4
100
AcDbEntity
  8
DEFPOINTS
 62
     0
 48
50.0
100
AcDbPoint
 10
6045.013878267347
 20
4912.931598713264
 30
0.0
  0
POINT
  5
17A07
330
171E4
100
AcDbEntity
  8
DEFPOINTS
 62
     0
 48
50.0
100
AcDbPoint
 10
5995.013878267349
 20
4912.931598713267
 30
0.0
  0
POINT
  5
17A08
330
171E4
100
AcDbEntity
  8
DEFPOINTS
 62
     0
 48
50.0
100
AcDbPoint
 10
5995.013878267349
 20
5318.657870445171
 30
0.0
  0
ENDBLK
  5
171F1
330
171E4
100
AcDbEntity
  8
0
 48
50.0
100
AcDbBlockEnd
  0
BLOCK
  5
171FE
330
171F2
100
AcDbEntity
  8
0
 48
50.0
100
AcDbBlockBegin
  2
*D16
 70
     1
 10
0.0
 20
0.0
 30
0.0
  3
*D16
  1

  0
LINE
  5
179F3
330
171F2
100
AcDbEntity
  8
寸法
 62
     0
 48
50.0
370
    -2
100
AcDbLine
 10
4625.013878267349
 20
4932.931598713268
 30
0.0
 11
4625.013878267349
 21
5378.65787044517
 31
0.0
  0
LINE
  5
179F4
330
171F2
100
AcDbEntity
  8
寸法
 62
     0
 48
50.0
370
    -2
100
AcDbLine
 10
4575.013878267349
 20
4932.931598713268
 30
0.0
 11
4575.013878267349
 21
5378.65787044517
 31
0.0
  0
LINE
  5
179F5
330
171F2
100
AcDbEntity
  8
寸法
 62
     0
 48
50.0
370
    -2
100
AcDbLine
 10
4625.013878267349
 20
5318.657870445171
 30
0.0
 11
4725.01387826735
 21
5318.657870445171
 31
0.0
  0
LINE
  5
179F6
330
171F2
100
AcDbEntity
  8
寸法
 62
     0
 48
50.0
370
    -2
100
AcDbLine
 10
4575.013878267349
 20
5318.657870445171
 30
0.0
 11
4155.481352798614
 21
5318.657870445171
 31
0.0
  0
LINE
  5
179F7
330
171F2
100
AcDbEntity
  8
寸法
 62
     0
 48
50.0
370
    -2
100
AcDbLine
 10
4625.013878267349
 20
5318.657870445171
 30
0.0
 11
4575.013878267349
 21
5318.657870445171
 31
0.0
  0
INSERT
  5
179F8
330
171F2
100
AcDbEntity
  8
寸法
 62
     0
 48
50.0
370
    -2
100
AcDbBlockReference
  2
_DOTSMALL
 10
4625.013878267349
 20
5318.657870445171
 30
0.0
 41
100.0
 42
100.0
 43
100.0
 50
180.0
  0
INSERT
  5
179F9
330
171F2
100
AcDbEntity
  8
寸法
 62
     0
 48
50.0
370
    -2
100
AcDbBlockReference
  2
_DOTSMALL
 10
4575.013878267349
 20
5318.657870445171
 30
0.0
 41
100.0
 42
100.0
 43
100.0
  0
MTEXT
  5
179FA
330
171F2
100
AcDbEntity
  8
寸法
 62
     7
 48
50.0
100
AcDbMText
 10
4261.528596893102
 20
5418.65787044517
 30
0.0
 40
120.0
 41
0.0
 71
     5
 72
     1
  1
\A1;50
  7
STYLE1
 73
     1
 44
1.0
1001
ACAD
1000
MTEXTBEGIN
1070
    73
1070
     1
1070
    44
1040
1.0
1070
    74
1070
     0
1000
MTEXTEND
  0
POINT
  5
179FB
330
171F2
100
AcDbEntity
  8
DEFPOINTS
 62
     0
 48
50.0
100
AcDbPoint
 10
4625.013878267349
 20
4912.931598713267
 30
0.0
  0
POINT
  5
179FC
330
171F2
100
AcDbEntity
  8
DEFPOINTS
 62
     0
 48
50.0
100
AcDbPoint
 10
4575.013878267349
 20
4912.931598713267
 30
0.0
  0
POINT
  5
179FD
330
171F2
100
AcDbEntity
  8
DEFPOINTS
 62
     0
 48
50.0
100
AcDbPoint
 10
4575.013878267349
 20
5318.657870445171
 30
0.0
  0
ENDBLK
  5
171FF
330
171F2
100
AcDbEntity
  8
0
 48
50.0
100
AcDbBlockEnd
  0
BLOCK
  5
1720A
330
17200
100
AcDbEntity
  8
0
 48
50.0
100
AcDbBlockBegin
  2
*D17
 70
     1
 10
0.0
 20
0.0
 30
0.0
  3
*D17
  1

  0
LINE
  5
179EA
330
17200
100
AcDbEntity
  8
寸法
 62
     0
 48
50.0
370
    -2
100
AcDbLine
 10
5995.013878267349
 20
4932.931598713268
 30
0.0
 11
5995.013878267349
 21
5378.65787044517
 31
0.0
  0
LINE
  5
179EB
330
17200
100
AcDbEntity
  8
寸法
 62
     0
 48
50.0
370
    -2
100
AcDbLine
 10
4625.013878267349
 20
4932.931598713268
 30
0.0
 11
4625.013878267349
 21
5378.65787044517
 31
0.0
  0
LINE
  5
179EC
330
17200
100
AcDbEntity
  8
寸法
 62
     0
 48
50.0
370
    -2
100
AcDbLine
 10
5995.013878267349
 20
5318.657870445171
 30
0.0
 11
4625.013878267349
 21
5318.657870445171
 31
0.0
  0
INSERT
  5
179ED
330
17200
100
AcDbEntity
  8
寸法
 62
     0
 48
50.0
370
    -2
100
AcDbBlockReference
  2
_DOTSMALL
 10
5995.013878267349
 20
5318.657870445171
 30
0.0
 41
100.0
 42
100.0
 43
100.0
  0
INSERT
  5
179EE
330
17200
100
AcDbEntity
  8
寸法
 62
     0
 48
50.0
370
    -2
100
AcDbBlockReference
  2
_DOTSMALL
 10
4625.013878267349
 20
5318.657870445171
 30
0.0
 41
100.0
 42
100.0
 43
100.0
 50
180.0
  0
MTEXT
  5
179EF
330
17200
100
AcDbEntity
  8
寸法
 62
     7
 48
50.0
100
AcDbMText
 10
5313.606418635202
 20
5418.65787044517
 30
0.0
 40
120.0
 41
0.0
 71
     5
 72
     1
  1
\A1;柱外寸法1370
  7
STYLE1
 73
     1
 44
1.0
1001
ACAD
1000
MTEXTBEGIN
1070
    73
1070
     1
1070
    44
1040
1.0
1070
    74
1070
     0
1000
MTEXTEND
  0
POINT
  5
179F0
330
17200
100
AcDbEntity
  8
DEFPOINTS
 62
     0
 48
50.0
100
AcDbPoint
 10
5995.013878267349
 20
4912.931598713267
 30
0.0
  0
POINT
  5
179F1
330
17200
100
AcDbEntity
  8
DEFPOINTS
 62
     0
 48
50.0
100
AcDbPoint
 10
4625.013878267349
 20
4912.931598713267
 30
0.0
  0
POINT
  5
179F2
330
17200
100
AcDbEntity
  8
DEFPOINTS
 62
     0
 48
50.0
100
AcDbPoint
 10
4625.013878267349
 20
5318.657870445171
 30
0.0
  0
ENDBLK
  5
1720B
330
17200
100
AcDbEntity
  8
0
 48
50.0
100
AcDbBlockEnd
  0
BLOCK
  5
17675
330
1766B
100
AcDbEntity
  8
0
 48
50.0
100
AcDbBlockBegin
  2
*D18
 70
     1
 10
0.0
 20
0.0
 30
0.0
  3
*D18
  1

  0
LINE
  5
179E1
330
1766B
100
AcDbEntity
  8
寸法
 62
     0
 48
50.0
370
    -2
100
AcDbLine
 10
8602.190651656968
 20
4677.931598713256
 30
0.0
 11
7718.440522473709
 21
4677.931598713256
 31
0.0
  0
LINE
  5
179E2
330
1766B
100
AcDbEntity
  8
寸法
 62
     0
 48
50.0
370
    -2
100
AcDbLine
 10
8602.190651656968
 20
2587.931598713256
 30
0.0
 11
7718.440522473709
 21
2587.931598713256
 31
0.0
  0
LINE
  5
179E3
330
1766B
100
AcDbEntity
  8
寸法
 62
     0
 48
50.0
370
    -2
100
AcDbLine
 10
7778.44052247371
 20
4677.931598713256
 30
0.0
 11
7778.44052247371
 21
2587.931598713256
 31
0.0
  0
INSERT
  5
179E4
330
1766B
100
AcDbEntity
  8
寸法
 62
     0
 48
50.0
370
    -2
100
AcDbBlockReference
  2
_DOTSMALL
 10
7778.44052247371
 20
4677.931598713256
 30
0.0
 41
100.0
 42
100.0
 43
100.0
 50
90.0
  0
INSERT
  5
179E5
330
1766B
100
AcDbEntity
  8
寸法
 62
     0
 48
50.0
370
    -2
100
AcDbBlockReference
  2
_DOTSMALL
 10
7778.44052247371
 20
2587.931598713256
 30
0.0
 41
100.0
 42
100.0
 43
100.0
 50
270.0
  0
MTEXT
  5
179E6
330
1766B
100
AcDbEntity
  8
寸法
 62
     7
 48
50.0
100
AcDbMText
 10
7678.428711450087
 20
3632.931598713258
 30
0.0
 40
120.0
 41
0.0
 71
     5
 72
     1
  1
\A1;2090
  7
STYLE1
 11
0.0000000000000001
 21
1.0
 31
0.0
 73
     1
 44
1.0
1001
ACAD
1000
MTEXTBEGIN
1070
    73
1070
     1
1070
    44
1040
1.0
1070
    74
1070
     0
1000
MTEXTEND
  0
POINT
  5
179E7
330
1766B
100
AcDbEntity
  8
DEFPOINTS
 62
     0
 48
50.0
100
AcDbPoint
 10
8622.190651656969
 20
4677.931598713256
 30
0.0
  0
POINT
  5
179E8
330
1766B
100
AcDbEntity
  8
DEFPOINTS
 62
     0
 48
50.0
100
AcDbPoint
 10
8622.190651656969
 20
2587.931598713256
 30
0.0
  0
POINT
  5
179E9
330
1766B
100
AcDbEntity
  8
DEFPOINTS
 62
     0
 48
50.0
100
AcDbPoint
 10
7778.44052247371
 20
2587.931598713256
 30
0.0
  0
ENDBLK
  5
17676
330
1766B
100
AcDbEntity
  8
0
 48
50.0
100
AcDbBlockEnd
  0
BLOCK
  5
17681
330
17677
100
AcDbEntity
  8
0
 48
50.0
100
AcDbBlockBegin
  2
*D19
 70
     1
 10
0.0
 20
0.0
 30
0.0
  3
*D19
  1

  0
LINE
  5
179D8
330
17677
100
AcDbEntity
  8
寸法
 62
     0
 48
50.0
370
    -2
100
AcDbLine
 10
8602.190651656968
 20
2537.931598713256
 30
0.0
 11
7418.440522473709
 21
2537.931598713256
 31
0.0
  0
LINE
  5
179D9
330
17677
100
AcDbEntity
  8
寸法
 62
     0
 48
50.0
370
    -2
100
AcDbLine
 10
8542.190651656969
 20
4912.93159871326
 30
0.0
 11
7418.440522473709
 21
4912.93159871326
 31
0.0
  0
LINE
  5
179DA
330
17677
100
AcDbEntity
  8
寸法
 62
     0
 48
50.0
370
    -2
100
AcDbLine
 10
7478.44052247371
 20
2537.931598713256
 30
0.0
 11
7478.44052247371
 21
4912.93159871326
 31
0.0
  0
INSERT
  5
179DB
330
17677
100
AcDbEntity
  8
寸法
 62
     0
 48
50.0
370
    -2
100
AcDbBlockReference
  2
_DOTSMALL
 10
7478.44052247371
 20
2537.931598713256
 30
0.0
 41
100.0
 42
100.0
 43
100.0
 50
270.0
  0
INSERT
  5
179DC
330
17677
100
AcDbEntity
  8
寸法
 62
     0
 48
50.0
370
    -2
100
AcDbBlockReference
  2
_DOTSMALL
 10
7478.44052247371
 20
4912.93159871326
 30
0.0
 41
100.0
 42
100.0
 43
100.0
 50
90.0
  0
MTEXT
  5
179DD
330
17677
100
AcDbEntity
  8
寸法
 62
     7
 48
50.0
100
AcDbMText
 10
7378.428711450087
 20
3725.431598713259
 30
0.0
 40
120.0
 41
0.0
 71
     5
 72
     1
  1
\A1;2375
  7
STYLE1
 11
0.0000000000000001
 21
1.0
 31
0.0
 73
     1
 44
1.0
1001
ACAD
1000
MTEXTBEGIN
1070
    73
1070
     1
1070
    44
1040
1.0
1070
    74
1070
     0
1000
MTEXTEND
  0
POINT
  5
179DE
330
17677
100
AcDbEntity
  8
DEFPOINTS
 62
     0
 48
50.0
100
AcDbPoint
 10
8622.190651656969
 20
2537.931598713256
 30
0.0
  0
POINT
  5
179DF
330
17677
100
AcDbEntity
  8
DEFPOINTS
 62
     0
 48
50.0
100
AcDbPoint
 10
8562.190651656969
 20
4912.93159871326
 30
0.0
  0
POINT
  5
179E0
330
17677
100
AcDbEntity
  8
DEFPOINTS
 62
     0
 48
50.0
100
AcDbPoint
 10
7478.44052247371
 20
4912.93159871326
 30
0.0
  0
ENDBLK
  5
17682
330
17677
100
AcDbEntity
  8
0
 48
50.0
100
AcDbBlockEnd
  0
BLOCK
  5
1768D
330
17683
100
AcDbEntity
  8
0
 48
50.0
100
AcDbBlockBegin
  2
*D20
 70
     1
 10
0.0
 20
0.0
 30
0.0
  3
*D20
  1

  0
LINE
  5
179CF
330
17683
100
AcDbEntity
  8
寸法
 62
     0
 48
50.0
370
    -2
100
AcDbLine
 10
11272.19065165697
 20
2537.931598713263
 30
0.0
 11
12017.1178096291
 21
2537.931598713263
 31
0.0
  0
LINE
  5
179D0
330
17683
100
AcDbEntity
  8
寸法
 62
     0
 48
50.0
370
    -2
100
AcDbLine
 10
11352.19065165697
 20
4857.931598713264
 30
0.0
 11
12017.1178096291
 21
4857.931598713264
 31
0.0
  0
LINE
  5
179D1
330
17683
100
AcDbEntity
  8
寸法
 62
     0
 48
50.0
370
    -2
100
AcDbLine
 10
11957.1178096291
 20
2537.931598713263
 30
0.0
 11
11957.1178096291
 21
4857.931598713264
 31
0.0
  0
INSERT
  5
179D2
330
17683
100
AcDbEntity
  8
寸法
 62
     0
 48
50.0
370
    -2
100
AcDbBlockReference
  2
_DOTSMALL
 10
11957.1178096291
 20
2537.931598713263
 30
0.0
 41
100.0
 42
100.0
 43
100.0
 50
270.0
  0
INSERT
  5
179D3
330
17683
100
AcDbEntity
  8
寸法
 62
     0
 48
50.0
370
    -2
100
AcDbBlockReference
  2
_DOTSMALL
 10
11957.1178096291
 20
4857.931598713264
 30
0.0
 41
100.0
 42
100.0
 43
100.0
 50
90.0
  0
MTEXT
  5
179D4
330
17683
100
AcDbEntity
  8
寸法
 62
     7
 48
50.0
100
AcDbMText
 10
11857.10599860547
 20
3697.931598713265
 30
0.0
 40
120.0
 41
0.0
 71
     5
 72
     1
  1
\A1;2320
  7
STYLE1
 11
0.0000000000000001
 21
1.0
 31
0.0
 73
     1
 44
1.0
1001
ACAD
1000
MTEXTBEGIN
1070
    73
1070
     1
1070
    44
1040
1.0
1070
    74
1070
     0
1000
MTEXTEND
  0
POINT
  5
179D5
330
17683
100
AcDbEntity
  8
DEFPOINTS
 62
     0
 48
50.0
100
AcDbPoint
 10
11252.19065165697
 20
2537.931598713263
 30
0.0
  0
POINT
  5
179D6
330
17683
100
AcDbEntity
  8
DEFPOINTS
 62
     0
 48
50.0
100
AcDbPoint
 10
11332.19065165697
 20
4857.931598713264
 30
0.0
  0
POINT
  5
179D7
330
17683
100
AcDbEntity
  8
DEFPOINTS
 62
     0
 48
50.0
100
AcDbPoint
 10
11957.1178096291
 20
4857.931598713264
 30
0.0
  0
ENDBLK
  5
1768E
330
17683
100
AcDbEntity
  8
0
 48
50.0
100
AcDbBlockEnd
  0
BLOCK
  5
1769B
330
1768F
100
AcDbEntity
  8
0
 48
50.0
100
AcDbBlockBegin
  2
*D21
 70
     1
 10
0.0
 20
0.0
 30
0.0
  3
*D21
  1

  0
LINE
  5
179C4
330
1768F
100
AcDbEntity
  8
寸法
 62
     0
 48
50.0
370
    -2
100
AcDbLine
 10
8602.190651656968
 20
2587.931598713261
 30
0.0
 11
7718.44052247371
 21
2587.931598713261
 31
0.0
  0
LINE
  5
179C5
330
1768F
100
AcDbEntity
  8
寸法
 62
     0
 48
50.0
370
    -2
100
AcDbLine
 10
8547.190651656968
 20
2537.931598713262
 30
0.0
 11
7718.44052247371
 21
2537.931598713262
 31
0.0
  0
LINE
  5
179C6
330
1768F
100
AcDbEntity
  8
寸法
 62
     0
 48
50.0
370
    -2
100
AcDbLine
 10
7778.44052247371
 20
2587.931598713261
 30
0.0
 11
7778.44052247371
 21
2687.931598713261
 31
0.0
  0
LINE
  5
179C7
330
1768F
100
AcDbEntity
  8
寸法
 62
     0
 48
50.0
370
    -2
100
AcDbLine
 10
7778.44052247371
 20
2537.931598713262
 30
0.0
 11
7778.44052247371
 21
2125.837110524281
 31
0.0
  0
LINE
  5
179C8
330
1768F
100
AcDbEntity
  8
寸法
 62
     0
 48
50.0
370
    -2
100
AcDbLine
 10
7778.44052247371
 20
2587.931598713261
 30
0.0
 11
7778.44052247371
 21
2537.931598713262
 31
0.0
  0
INSERT
  5
179C9
330
1768F
100
AcDbEntity
  8
寸法
 62
     0
 48
50.0
370
    -2
100
AcDbBlockReference
  2
_DOTSMALL
 10
7778.44052247371
 20
2587.931598713261
 30
0.0
 41
100.0
 42
100.0
 43
100.0
 50
270.0
  0
INSERT
  5
179CA
330
1768F
100
AcDbEntity
  8
寸法
 62
     0
 48
50.0
370
    -2
100
AcDbBlockReference
  2
_DOTSMALL
 10
7778.44052247371
 20
2537.931598713262
 30
0.0
 41
100.0
 42
100.0
 43
100.0
 50
90.0
  0
MTEXT
  5
179CB
330
1768F
100
AcDbEntity
  8
寸法
 62
     7
 48
50.0
100
AcDbMText
 10
7678.44052247371
 20
2231.884354618771
 30
0.0
 40
120.0
 41
0.0
 71
     5
 72
     1
  1
\A1;50
  7
STYLE1
 11
0.0000000000000001
 21
1.0
 31
0.0
 73
     1
 44
1.0
1001
ACAD
1000
MTEXTBEGIN
1070
    73
1070
     1
1070
    44
1040
1.0
1070
    74
1070
     0
1000
MTEXTEND
  0
POINT
  5
179CC
330
1768F
100
AcDbEntity
  8
DEFPOINTS
 62
     0
 48
50.0
100
AcDbPoint
 10
8622.190651656969
 20
2587.931598713261
 30
0.0
  0
POINT
  5
179CD
330
1768F
100
AcDbEntity
  8
DEFPOINTS
 62
     0
 48
50.0
100
AcDbPoint
 10
8567.19065165697
 20
2537.931598713262
 30
0.0
  0
POINT
  5
179CE
330
1768F
100
AcDbEntity
  8
DEFPOINTS
 62
     0
 48
50.0
100
AcDbPoint
 10
7778.44052247371
 20
2537.931598713262
 30
0.0
  0
ENDBLK
  5
1769C
330
1768F
100
AcDbEntity
  8
0
 48
50.0
100
AcDbBlockEnd
  0
BLOCK
  5
176A7
330
1769D
100
AcDbEntity
  8
0
 48
50.0
100
AcDbBlockBegin
  2
*D22
 70
     1
 10
0.0
 20
0.0
 30
0.0
  3
*D22
  1

  0
LINE
  5
17D9B
330
1769D
100
AcDbEntity
  8
寸法
 62
     0
 48
50.0
370
    -2
100
AcDbLine
 10
11252.19065165697
 20
4879.742278324916
 30
0.0
 11
11252.19065165697
 21
5371.589052292568
 31
0.0
  0
LINE
  5
17D9C
330
1769D
100
AcDbEntity
  8
寸法
 62
     0
 48
50.0
370
    -2
100
AcDbLine
 10
8622.190651656969
 20
4928.933216836237
 30
0.0
 11
8622.190651656969
 21
5371.589052292568
 31
0.0
  0
LINE
  5
17D9D
330
1769D
100
AcDbEntity
  8
寸法
 62
     0
 48
50.0
370
    -2
100
AcDbLine
 10
11252.19065165697
 20
5311.589052292568
 30
0.0
 11
8622.190651656969
 21
5311.589052292568
 31
0.0
  0
INSERT
  5
17D9E
330
1769D
100
AcDbEntity
  8
寸法
 62
     0
 48
50.0
370
    -2
100
AcDbBlockReference
  2
_DOTSMALL
 10
11252.19065165697
 20
5311.589052292568
 30
0.0
 41
100.0
 42
100.0
 43
100.0
  0
INSERT
  5
17D9F
330
1769D
100
AcDbEntity
  8
寸法
 62
     0
 48
50.0
370
    -2
100
AcDbBlockReference
  2
_DOTSMALL
 10
8622.190651656969
 20
5311.589052292568
 30
0.0
 41
100.0
 42
100.0
 43
100.0
 50
180.0
  0
MTEXT
  5
17DA0
330
1769D
100
AcDbEntity
  8
寸法
 62
     7
 48
50.0
100
AcDbMText
 10
9937.190651656969
 20
5411.60086331619
 30
0.0
 40
120.0
 41
0.0
 71
     5
 72
     1
  1
\A1;柱外寸法2630
  7
STYLE1
 73
     1
 44
1.0
1001
ACAD
1000
MTEXTBEGIN
1070
    73
1070
     1
1070
    44
1040
1.0
1070
    74
1070
     0
1000
MTEXTEND
  0
POINT
  5
17DA1
330
1769D
100
AcDbEntity
  8
DEFPOINTS
 62
     0
 48
50.0
100
AcDbPoint
 10
11252.19065165697
 20
4859.742278324915
 30
0.0
  0
POINT
  5
17DA2
330
1769D
100
AcDbEntity
  8
DEFPOINTS
 62
     0
 48
50.0
100
AcDbPoint
 10
8622.190651656969
 20
4908.933216836238
 30
0.0
  0
POINT
  5
17DA3
330
1769D
100
AcDbEntity
  8
DEFPOINTS
 62
     0
 48
50.0
100
AcDbPoint
 10
8622.190651656969
 20
5311.589052292568
 30
0.0
  0
ENDBLK
  5
176A8
330
1769D
100
AcDbEntity
  8
0
 48
50.0
100
AcDbBlockEnd
  0
BLOCK
  5
176B5
330
176A9
100
AcDbEntity
  8
0
 48
50.0
100
AcDbBlockBegin
  2
*D23
 70
     1
 10
0.0
 20
0.0
 30
0.0
  3
*D23
  1

  0
LINE
  5
179B0
330
176A9
100
AcDbEntity
  8
寸法
 62
     0
 48
50.0
370
    -2
100
AcDbLine
 10
8622.190651656969
 20
4928.933216836237
 30
0.0
 11
8622.190651656969
 21
5371.589052292565
 31
0.0
  0
LINE
  5
179B1
330
176A9
100
AcDbEntity
  8
寸法
 62
     0
 48
50.0
370
    -2
100
AcDbLine
 10
8562.190651656969
 20
4932.931598713268
 30
0.0
 11
8562.190651656969
 21
5371.589052292565
 31
0.0
  0
LINE
  5
179B2
330
176A9
100
AcDbEntity
  8
寸法
 62
     0
 48
50.0
370
    -2
100
AcDbLine
 10
8622.190651656969
 20
5311.589052292564
 30
0.0
 11
8722.190651656969
 21
5311.589052292564
 31
0.0
  0
LINE
  5
179B3
330
176A9
100
AcDbEntity
  8
寸法
 62
     0
 48
50.0
370
    -2
100
AcDbLine
 10
8562.190651656969
 20
5311.589052292564
 30
0.0
 11
8142.915061105787
 21
5311.589052292564
 31
0.0
  0
LINE
  5
179B4
330
176A9
100
AcDbEntity
  8
寸法
 62
     0
 48
50.0
370
    -2
100
AcDbLine
 10
8622.190651656969
 20
5311.589052292564
 30
0.0
 11
8562.190651656969
 21
5311.589052292564
 31
0.0
  0
INSERT
  5
179B5
330
176A9
100
AcDbEntity
  8
寸法
 62
     0
 48
50.0
370
    -2
100
AcDbBlockReference
  2
_DOTSMALL
 10
8622.190651656969
 20
5311.589052292564
 30
0.0
 41
100.0
 42
100.0
 43
100.0
 50
180.0
  0
INSERT
  5
179B6
330
176A9
100
AcDbEntity
  8
寸法
 62
     0
 48
50.0
370
    -2
100
AcDbBlockReference
  2
_DOTSMALL
 10
8562.190651656969
 20
5311.589052292564
 30
0.0
 41
100.0
 42
100.0
 43
100.0
  0
MTEXT
  5
179B7
330
176A9
100
AcDbEntity
  8
寸法
 62
     7
 48
50.0
100
AcDbMText
 10
8252.552856381379
 20
5411.589052292565
 30
0.0
 40
120.0
 41
0.0
 71
     5
 72
     1
  1
\A1;60
  7
STYLE1
 73
     1
 44
1.0
1001
ACAD
1000
MTEXTBEGIN
1070
    73
1070
     1
1070
    44
1040
1.0
1070
    74
1070
     0
1000
MTEXTEND
  0
POINT
  5
179B8
330
176A9
100
AcDbEntity
  8
DEFPOINTS
 62
     0
 48
50.0
100
AcDbPoint
 10
8622.190651656969
 20
4908.933216836238
 30
0.0
  0
POINT
  5
179B9
330
176A9
100
AcDbEntity
  8
DEFPOINTS
 62
     0
 48
50.0
100
AcDbPoint
 10
8562.190651656969
 20
4912.931598713267
 30
0.0
  0
POINT
  5
179BA
330
176A9
100
AcDbEntity
  8
DEFPOINTS
 62
     0
 48
50.0
100
AcDbPoint
 10
8562.190651656969
 20
5311.589052292564
 30
0.0
  0
ENDBLK
  5
176B6
330
176A9
100
AcDbEntity
  8
0
 48
50.0
100
AcDbBlockEnd
  0
BLOCK
  5
176C1
330
176B7
100
AcDbEntity
  8
0
 48
50.0
100
AcDbBlockBegin
  2
*D24
 70
     1
 10
0.0
 20
0.0
 30
0.0
  3
*D24
  1

  0
LINE
  5
17D88
330
176B7
100
AcDbEntity
  8
寸法
 62
     0
 48
50.0
370
    -2
100
AcDbLine
 10
11332.19065165697
 20
4877.931598713264
 30
0.0
 11
11332.19065165697
 21
5591.799739024183
 31
0.0
  0
LINE
  5
17D89
330
176B7
100
AcDbEntity
  8
寸法
 62
     0
 48
50.0
370
    -2
100
AcDbLine
 10
8562.190651656969
 20
4932.931598713268
 30
0.0
 11
8562.190651656969
 21
5591.799739024183
 31
0.0
  0
LINE
  5
17D8A
330
176B7
100
AcDbEntity
  8
寸法
 62
     0
 48
50.0
370
    -2
100
AcDbLine
 10
11332.19065165697
 20
5531.799739024183
 30
0.0
 11
8562.190651656969
 21
5531.799739024183
 31
0.0
  0
INSERT
  5
17D8B
330
176B7
100
AcDbEntity
  8
寸法
 62
     0
 48
50.0
370
    -2
100
AcDbBlockReference
  2
_DOTSMALL
 10
11332.19065165697
 20
5531.799739024183
 30
0.0
 41
100.0
 42
100.0
 43
100.0
  0
INSERT
  5
17D8C
330
176B7
100
AcDbEntity
  8
寸法
 62
     0
 48
50.0
370
    -2
100
AcDbBlockReference
  2
_DOTSMALL
 10
8562.190651656969
 20
5531.799739024183
 30
0.0
 41
100.0
 42
100.0
 43
100.0
 50
180.0
  0
MTEXT
  5
17D8D
330
176B7
100
AcDbEntity
  8
寸法
 62
     7
 48
50.0
100
AcDbMText
 10
9947.190651656969
 20
5631.811550047804
 30
0.0
 40
120.0
 41
0.0
 71
     5
 72
     1
  1
\A1;2770
  7
STYLE1
 73
     1
 44
1.0
1001
ACAD
1000
MTEXTBEGIN
1070
    73
1070
     1
1070
    44
1040
1.0
1070
    74
1070
     0
1000
MTEXTEND
  0
POINT
  5
17D8E
330
176B7
100
AcDbEntity
  8
DEFPOINTS
 62
     0
 48
50.0
100
AcDbPoint
 10
11332.19065165697
 20
4857.931598713264
 30
0.0
  0
POINT
  5
17D8F
330
176B7
100
AcDbEntity
  8
DEFPOINTS
 62
     0
 48
50.0
100
AcDbPoint
 10
8562.190651656969
 20
4912.931598713267
 30
0.0
  0
POINT
  5
17D90
330
176B7
100
AcDbEntity
  8
DEFPOINTS
 62
     0
 48
50.0
100
AcDbPoint
 10
8562.190651656969
 20
5531.799739024183
 30
0.0
  0
ENDBLK
  5
176C2
330
176B7
100
AcDbEntity
  8
0
 48
50.0
100
AcDbBlockEnd
  0
BLOCK
  5
176CE
330
176C3
100
AcDbEntity
  8
0
 48
50.0
100
AcDbBlockBegin
  2
*D25
 70
     1
 10
0.0
 20
0.0
 30
0.0
  3
*D25
  1

  0
LINE
  5
1799D
330
176C3
100
AcDbEntity
  8
寸法
 62
     0
 48
50.0
370
    -2
100
AcDbLine
 10
11252.19065165697
 20
4879.742278324916
 30
0.0
 11
11252.19065165697
 21
5371.589052292568
 31
0.0
  0
LINE
  5
1799E
330
176C3
100
AcDbEntity
  8
寸法
 62
     0
 48
50.0
370
    -2
100
AcDbLine
 10
11332.19065165697
 20
4877.931598713264
 30
0.0
 11
11332.19065165697
 21
5371.589052292568
 31
0.0
  0
LINE
  5
1799F
330
176C3
100
AcDbEntity
  8
寸法
 62
     0
 48
50.0
370
    -2
100
AcDbLine
 10
11252.19065165697
 20
5311.589052292568
 30
0.0
 11
11332.19065165697
 21
5311.589052292568
 31
0.0
  0
LINE
  5
179A0
330
176C3
100
AcDbEntity
  8
寸法
 62
     0
 48
50.0
370
    -2
100
AcDbLine
 10
11332.19065165697
 20
5311.589052292568
 30
0.0
 11
11644.28513984595
 21
5311.589052292568
 31
0.0
  0
INSERT
  5
179A1
330
176C3
100
AcDbEntity
  8
寸法
 62
     0
 48
50.0
370
    -2
100
AcDbBlockReference
  2
_DOTSMALL
 10
11252.19065165697
 20
5311.589052292568
 30
0.0
 41
100.0
 42
100.0
 43
100.0
 50
180.0
  0
INSERT
  5
179A2
330
176C3
100
AcDbEntity
  8
寸法
 62
     0
 48
50.0
370
    -2
100
AcDbBlockReference
  2
_DOTSMALL
 10
11332.19065165697
 20
5311.589052292568
 30
0.0
 41
100.0
 42
100.0
 43
100.0
  0
MTEXT
  5
179A3
330
176C3
100
AcDbEntity
  8
寸法
 62
     7
 48
50.0
100
AcDbMText
 10
11538.23789575146
 20
5411.589052292568
 30
0.0
 40
120.0
 41
0.0
 71
     5
 72
     1
  1
\A1;80
  7
STYLE1
 73
     1
 44
1.0
1001
ACAD
1000
MTEXTBEGIN
1070
    73
1070
     1
1070
    44
1040
1.0
1070
    74
1070
     0
1000
MTEXTEND
  0
POINT
  5
179A4
330
176C3
100
AcDbEntity
  8
DEFPOINTS
 62
     0
 48
50.0
100
AcDbPoint
 10
11252.19065165697
 20
4859.742278324915
 30
0.0
  0
POINT
  5
179A5
330
176C3
100
AcDbEntity
  8
DEFPOINTS
 62
     0
 48
50.0
100
AcDbPoint
 10
11332.19065165697
 20
4857.931598713264
 30
0.0
  0
POINT
  5
179A6
330
176C3
100
AcDbEntity
  8
DEFPOINTS
 62
     0
 48
50.0
100
AcDbPoint
 10
11332.19065165697
 20
5311.589052292568
 30
0.0
  0
ENDBLK
  5
176CF
330
176C3
100
AcDbEntity
  8
0
 48
50.0
100
AcDbBlockEnd
  0
BLOCK
  5
176DB
330
176D0
100
AcDbEntity
  8
0
 48
50.0
100
AcDbBlockBegin
  2
*D26
 70
     1
 10
0.0
 20
0.0
 30
0.0
  3
*D26
  1

  0
LINE
  5
17993
330
176D0
100
AcDbEntity
  8
寸法
 62
     0
 48
50.0
370
    -2
100
AcDbLine
 10
8561.59493794807
 20
4912.229305782923
 30
0.0
 11
7945.660498842791
 21
4929.943456057253
 31
0.0
  0
LINE
  5
17994
330
176D0
100
AcDbEntity
  8
寸法
 62
     0
 48
50.0
370
    -2
100
AcDbLine
 10
8557.541482391446
 20
4771.287582017211
 30
0.0
 11
7941.607043286165
 21
4789.001732291541
 31
0.0
  0
LINE
  5
17995
330
176D0
100
AcDbEntity
  8
寸法
 62
     0
 48
50.0
370
    -2
100
AcDbLine
 10
8001.582244888593
 20
4787.276857586594
 30
0.0
 11
8005.635700445221
 21
4928.218581352306
 31
0.0
  0
LINE
  5
17996
330
176D0
100
AcDbEntity
  8
寸法
 62
     0
 48
50.0
370
    -2
100
AcDbLine
 10
8005.635700445221
 20
4928.218581352306
 30
0.0
 11
8015.984948674905
 21
5288.069790966891
 31
0.0
  0
INSERT
  5
17997
330
176D0
100
AcDbEntity
  8
寸法
 62
     0
 48
50.0
370
    -2
100
AcDbBlockReference
  2
_DOTSMALL
 10
8001.582244888593
 20
4787.276857586594
 30
0.0
 41
100.0
 42
100.0
 43
100.0
 50
268.3526390256377
  0
INSERT
  5
17998
330
176D0
100
AcDbEntity
  8
寸法
 62
     0
 48
50.0
370
    -2
100
AcDbBlockReference
  2
_DOTSMALL
 10
8005.635700445221
 20
4928.218581352306
 30
0.0
 41
100.0
 42
100.0
 43
100.0
 50
88.35263902563776
  0
MTEXT
  5
17999
330
176D0
100
AcDbEntity
  8
寸法
 62
     7
 48
50.0
100
AcDbMText
 10
7912.289050810135
 20
5160.998312003204
 30
0.0
 40
120.0
 41
0.0
 71
     5
 72
     1
  1
\A1;141
  7
STYLE1
 11
0.0287479117491245
 21
0.9995866933738486
 31
0.0
 73
     1
 44
1.0
1001
ACAD
1000
MTEXTBEGIN
1070
    73
1070
     1
1070
    44
1040
1.0
1070
    74
1070
     0
1000
MTEXTEND
  0
POINT
  5
1799A
330
176D0
100
AcDbEntity
  8
DEFPOINTS
 62
     0
 48
50.0
100
AcDbPoint
 10
8581.586671815546
 20
4911.654347547941
 30
0.0
  0
POINT
  5
1799B
330
176D0
100
AcDbEntity
  8
DEFPOINTS
 62
     0
 48
50.0
100
AcDbPoint
 10
8577.533216258922
 20
4770.712623782229
 30
0.0
  0
POINT
  5
1799C
330
176D0
100
AcDbEntity
  8
DEFPOINTS
 62
     0
 48
50.0
100
AcDbPoint
 10
8001.582244888593
 20
4787.276857586594
 30
0.0
  0
ENDBLK
  5
176DC
330
176D0
100
AcDbEntity
  8
0
 48
50.0
100
AcDbBlockEnd
  0
BLOCK
  5
17C7B
330
17C71
100
AcDbEntity
  8
0
 48
50.0
100
AcDbBlockBegin
  2
*D27
 70
     1
 10
0.0
 20
0.0
 30
0.0
  3
*D27
  1

  0
LINE
  5
17D30
330
17C71
100
AcDbEntity
  8
寸法
 62
     0
 48
50.0
370
    -2
100
AcDbLine
 10
6015.013878267348
 20
2537.931598713262
 30
0.0
 11
6342.556980589094
 21
2537.931598713262
 31
0.0
  0
LINE
  5
17D31
330
17C71
100
AcDbEntity
  8
寸法
 62
     0
 48
50.0
370
    -2
100
AcDbLine
 10
6015.013878267348
 20
4485.931598713261
 30
0.0
 11
6342.556980589094
 21
4485.93159871326
 31
0.0
  0
LINE
  5
17D32
330
17C71
100
AcDbEntity
  8
寸法
 62
     0
 48
50.0
370
    -2
100
AcDbLine
 10
6282.556980589093
 20
2537.931598713262
 30
0.0
 11
6282.556980589093
 21
4485.93159871326
 31
0.0
  0
INSERT
  5
17D33
330
17C71
100
AcDbEntity
  8
寸法
 62
     0
 48
50.0
370
    -2
100
AcDbBlockReference
  2
_DOTSMALL
 10
6282.556980589093
 20
2537.931598713262
 30
0.0
 41
100.0
 42
100.0
 43
100.0
 50
270.0
  0
INSERT
  5
17D34
330
17C71
100
AcDbEntity
  8
寸法
 62
     0
 48
50.0
370
    -2
100
AcDbBlockReference
  2
_DOTSMALL
 10
6282.556980589093
 20
4485.93159871326
 30
0.0
 41
100.0
 42
100.0
 43
100.0
 50
90.0
  0
MTEXT
  5
17D35
330
17C71
100
AcDbEntity
  8
寸法
 62
     7
 48
50.0
100
AcDbMText
 10
6182.556980589093
 20
3511.931598713262
 30
0.0
 40
120.0
 41
0.0
 71
     5
 72
     1
  1
\A1;有効開口部高サ 1948
  7
STYLE1
 11
0.0000000000000001
 21
1.0
 31
0.0
 73
     1
 44
1.0
1001
ACAD
1000
MTEXTBEGIN
1070
    73
1070
     1
1070
    44
1040
1.0
1070
    74
1070
     0
1000
MTEXTEND
  0
POINT
  5
17D36
330
17C71
100
AcDbEntity
  8
DEFPOINTS
 62
     0
 48
50.0
100
AcDbPoint
 10
5995.013878267347
 20
2537.931598713262
 30
0.0
  0
POINT
  5
17D37
330
17C71
100
AcDbEntity
  8
DEFPOINTS
 62
     0
 48
50.0
100
AcDbPoint
 10
5995.013878267347
 20
4485.931598713261
 30
0.0
  0
POINT
  5
17D38
330
17C71
100
AcDbEntity
  8
DEFPOINTS
 62
     0
 48
50.0
100
AcDbPoint
 10
6282.556980589093
 20
4485.93159871326
 30
0.0
  0
ENDBLK
  5
17C7C
330
17C71
100
AcDbEntity
  8
0
 48
50.0
100
AcDbBlockEnd
  0
BLOCK
  5
17C89
330
17C7D
100
AcDbEntity
  8
0
 48
50.0
100
AcDbBlockBegin
  2
*D28
 70
     1
 10
0.0
 20
0.0
 30
0.0
  3
*D28
  1

  0
LINE
  5
17DC2
330
17C7D
100
AcDbEntity
  8
寸法
 62
     0
 48
50.0
370
    -2
100
AcDbLine
 10
6015.013878267348
 20
4485.931598713261
 30
0.0
 11
6342.556980589094
 21
4485.93159871326
 31
0.0
  0
LINE
  5
17DC3
330
17C7D
100
AcDbEntity
  8
寸法
 62
     0
 48
50.0
370
    -2
100
AcDbLine
 10
6015.013878267348
 20
4512.931598713263
 30
0.0
 11
6342.556980589094
 21
4512.931598713262
 31
0.0
  0
LINE
  5
17DC4
330
17C7D
100
AcDbEntity
  8
寸法
 62
     0
 48
50.0
370
    -2
100
AcDbLine
 10
6282.556980589093
 20
4485.93159871326
 30
0.0
 11
6282.556980589093
 21
4385.93159871326
 31
0.0
  0
LINE
  5
17DC5
330
17C7D
100
AcDbEntity
  8
寸法
 62
     0
 48
50.0
370
    -2
100
AcDbLine
 10
6282.556980589093
 20
4512.931598713262
 30
0.0
 11
6282.556980589093
 21
4612.931598713262
 31
0.0
  0
MTEXT
  5
17DC6
330
17C7D
100
AcDbEntity
  8
寸法
 62
     7
 48
50.0
100
AcDbMText
 10
6422.726803835459
 20
4513.89879855292
 30
0.0
 40
120.0
 41
0.0
 71
     5
 72
     1
  1
\A1;27
  7
STYLE1
 11
0.0000000000000001
 21
1.0
 31
0.0
 73
     1
 44
1.0
1001
ACAD
1000
MTEXTBEGIN
1070
    73
1070
     1
1070
    44
1040
1.0
1070
    74
1070
     0
1000
MTEXTEND
  0
LINE
  5
17DC7
330
17C7D
100
AcDbEntity
  8
寸法
 62
     0
 48
50.0
370
    -2
100
AcDbLine
 10
6282.556980589093
 20
4485.93159871326
 30
0.0
 11
6282.556980589093
 21
4512.931598713262
 31
0.0
  0
INSERT
  5
17DC8
330
17C7D
100
AcDbEntity
  8
寸法
 62
     0
 48
50.0
370
    -2
100
AcDbBlockReference
  2
_DOTSMALL
 10
6282.556980589093
 20
4485.93159871326
 30
0.0
 41
100.0
 42
100.0
 43
100.0
 50
90.0
  0
INSERT
  5
17DC9
330
17C7D
100
AcDbEntity
  8
寸法
 62
     0
 48
50.0
370
    -2
100
AcDbBlockReference
  2
_DOTSMALL
 10
6282.556980589093
 20
4512.931598713262
 30
0.0
 41
100.0
 42
100.0
 43
100.0
 50
270.0
  0
POINT
  5
17DCA
330
17C7D
100
AcDbEntity
  8
DEFPOINTS
 62
     0
 48
50.0
100
AcDbPoint
 10
5995.013878267347
 20
4485.931598713261
 30
0.0
  0
POINT
  5
17DCB
330
17C7D
100
AcDbEntity
  8
DEFPOINTS
 62
     0
 48
50.0
100
AcDbPoint
 10
5995.013878267347
 20
4512.931598713263
 30
0.0
  0
POINT
  5
17DCC
330
17C7D
100
AcDbEntity
  8
DEFPOINTS
 62
     0
 48
50.0
100
AcDbPoint
 10
6282.556980589093
 20
4512.931598713262
 30
0.0
  0
ENDBLK
  5
17C8A
330
17C7D
100
AcDbEntity
  8
0
 48
50.0
100
AcDbBlockEnd
  0
BLOCK
  5
17C96
330
17C8B
100
AcDbEntity
  8
0
 48
50.0
100
AcDbBlockBegin
  2
*D29
 70
     1
 10
0.0
 20
0.0
 30
0.0
  3
*D29
  1

  0
LINE
  5
17DB8
330
17C8B
100
AcDbEntity
  8
寸法
 62
     0
 48
50.0
370
    -2
100
AcDbLine
 10
6015.013878267348
 20
4512.931598713263
 30
0.0
 11
6342.556980589094
 21
4512.931598713262
 31
0.0
  0
LINE
  5
17DB9
330
17C8B
100
AcDbEntity
  8
寸法
 62
     0
 48
50.0
370
    -2
100
AcDbLine
 10
6015.013878267348
 20
4677.931598713261
 30
0.0
 11
6342.556980589094
 21
4677.93159871326
 31
0.0
  0
LINE
  5
17DBA
330
17C8B
100
AcDbEntity
  8
寸法
 62
     0
 48
50.0
370
    -2
100
AcDbLine
 10
6282.556980589095
 20
4512.931598713262
 30
0.0
 11
6282.556980589095
 21
4677.93159871326
 31
0.0
  0
LINE
  5
17DBB
330
17C8B
100
AcDbEntity
  8
寸法
 62
     0
 48
50.0
370
    -2
100
AcDbLine
 10
6282.556980589095
 20
4677.93159871326
 30
0.0
 11
6282.556980589095
 21
5054.902161461738
 31
0.0
  0
INSERT
  5
17DBC
330
17C8B
100
AcDbEntity
  8
寸法
 62
     0
 48
50.0
370
    -2
100
AcDbBlockReference
  2
_DOTSMALL
 10
6282.556980589095
 20
4512.931598713262
 30
0.0
 41
100.0
 42
100.0
 43
100.0
 50
270.0
  0
INSERT
  5
17DBD
330
17C8B
100
AcDbEntity
  8
寸法
 62
     0
 48
50.0
370
    -2
100
AcDbBlockReference
  2
_DOTSMALL
 10
6282.556980589095
 20
4677.93159871326
 30
0.0
 41
100.0
 42
100.0
 43
100.0
 50
90.0
  0
MTEXT
  5
17DBE
330
17C8B
100
AcDbEntity
  8
寸法
 62
     7
 48
50.0
100
AcDbMText
 10
6182.556980589094
 20
4916.4168800875
 30
0.0
 40
120.0
 41
0.0
 71
     5
 72
     1
  1
\A1;165
  7
STYLE1
 11
0.0000000000000001
 21
1.0
 31
0.0
 73
     1
 44
1.0
1001
ACAD
1000
MTEXTBEGIN
1070
    73
1070
     1
1070
    44
1040
1.0
1070
    74
1070
     0
1000
MTEXTEND
  0
POINT
  5
17DBF
330
17C8B
100
AcDbEntity
  8
DEFPOINTS
 62
     0
 48
50.0
100
AcDbPoint
 10
5995.013878267347
 20
4512.931598713263
 30
0.0
  0
POINT
  5
17DC0
330
17C8B
100
AcDbEntity
  8
DEFPOINTS
 62
     0
 48
50.0
100
AcDbPoint
 10
5995.013878267347
 20
4677.931598713261
 30
0.0
  0
POINT
  5
17DC1
330
17C8B
100
AcDbEntity
  8
DEFPOINTS
 62
     0
 48
50.0
100
AcDbPoint
 10
6282.556980589095
 20
4677.93159871326
 30
0.0
  0
ENDBLK
  5
17C97
330
17C8B
100
AcDbEntity
  8
0
 48
50.0
100
AcDbBlockEnd
  0
ENDSEC
  0
SECTION
  2
ENTITIES
  0
MTEXT
  5
763F
330
747D
100
AcDbEntity
  8
0
100
AcDbMText
 10
302.846345836809
 20
280.1983726409901
 30
0.0
 40
3.5
 41
5.323721266742722
 71
     1
 72
     5
  1

  7
MSMINCHO
 73
     1
 44
1.0
1001
ACAD
1000
MTEXTBEGIN
1070
    73
1070
     1
1070
    44
1040
1.0
1070
    74
1070
     0
1000
MTEXTEND
  0
LINE
  5
10B57
330
747D
100
AcDbEntity
  8
補助
  6
PHANTOM
 62
   230
 48
50.0
100
AcDbLine
 10
139.9999999999995
 20
11409.6
 30
0.0
 11
16307.2
 21
11409.6
 31
0.0
  0
LINE
  5
10B59
330
747D
100
AcDbEntity
  8
仕様書枠
  6
Continuous
 48
50.0
100
AcDbLine
 10
13107.2
 20
1200.0
 30
0.0
 11
13107.2
 21
-0.0000000000000729
 31
0.0
  0
LINE
  5
10B5C
330
747D
100
AcDbEntity
  8
仕様書枠
 48
50.0
100
AcDbLine
 10
16307.2
 20
1200.0
 30
0.0
 11
16307.2
 21
-0.0000000000000909
 31
0.0
  0
LINE
  5
10B5D
330
747D
100
AcDbEntity
  8
仕様書枠
 48
50.0
100
AcDbLine
 10
140.0
 20
0.0
 30
0.0
 11
16307.2
 21
-0.0000000000000909
 31
0.0
  0
LINE
  5
10B5E
330
747D
100
AcDbEntity
  8
補助
  6
PHANTOM
 62
   230
 48
50.0
100
AcDbLine
 10
16307.2
 20
11409.6
 30
0.0
 11
16307.2
 21
1200.0
 31
0.0
  0
LINE
  5
10B6C
330
747D
100
AcDbEntity
  8
仕様書枠
 48
50.0
100
AcDbLine
 10
13107.2
 20
1200.0
 30
0.0
 11
16307.2
 21
1200.0
 31
0.0
  0
LINE
  5
10B6D
330
747D
100
AcDbEntity
  8
補助
  6
PHANTOM
 62
   230
 48
50.0
100
AcDbLine
 10
13107.2
 20
11409.6
 30
0.0
 11
13107.2
 21
4800.0
 31
0.0
  0
LINE
  5
10B6F
330
747D
100
AcDbEntity
  8
補助
  6
PHANTOM
 62
   230
 48
50.0
100
AcDbLine
 10
13107.2
 20
4800.0
 30
0.0
 11
16307.2
 21
4800.0
 31
0.0
  0
LINE
  5
10B72
330
747D
100
AcDbEntity
  8
文字
 62
     7
 48
50.0
100
AcDbLine
 10
13187.2
 20
400.0
 30
0.0
 11
16227.2
 21
400.0
 31
0.0
  0
TEXT
  5
10B73
330
747D
100
AcDbEntity
  8
文字
 62
     7
 48
50.0
100
AcDbText
 10
13162.9790565769
 20
895.0906074299405
 30
0.0
 40
200.0
  1
外 形 図
  7
STYLE2
100
AcDbText
  0
TEXT
  5
10B74
330
747D
100
AcDbEntity
  8
文字
 62
     7
 48
50.0
100
AcDbText
 10
13201.43669998441
 20
477.2740661031255
 30
0.0
 40
160.0
  1
機種名
  7
STYLE2
100
AcDbText
  0
TEXT
  5
10B75
330
747D
100
AcDbEntity
  8
文字
 62
     7
 48
50.0
100
AcDbText
 10
13209.4053442172
 20
228.5435242569016
 30
0.0
 40
100.0
  1
○有効開口寸法 ： 1164×1948(mm)
  7
STYLE2
100
AcDbText
  0
TEXT
  5
10B76
330
747D
100
AcDbEntity
  8
文字
 62
     7
 48
50.0
100
AcDbText
 10
13209.4053442172
 20
76.09434707649343
 30
0.0
 40
100.0
  1
○床面積 ： 3.60㎡(1.09坪) 　
  7
STYLE2
100
AcDbText
  0
TEXT
  5
10B79
330
747D
100
AcDbEntity
  8
文字
 62
     7
 48
50.0
100
AcDbText
 10
14524.131837222
 20
1031.557706291228
 30
0.0
 40
100.0
  1
NO.10      <縮尺> S=1/40
  7
STYLE2
100
AcDbText
  0
LINE
  5
10B7B
330
747D
100
AcDbEntity
  8
仕様書枠
 48
50.0
100
AcDbLine
 10
13107.2
 20
800.0
 30
0.0
 11
14251.2
 21
800.0
 31
0.0
  0
LINE
  5
10B88
330
747D
100
AcDbEntity
  8
仕様書枠
  6
Continuous
 48
50.0
100
AcDbLine
 10
14251.2
 20
1200.0
 30
0.0
 11
14251.2
 21
800.0
 31
0.0
  0
LINE
  5
12765
330
747D
100
AcDbEntity
  8
Ｇ．Ｌ
100
AcDbLine
 10
3536.747275596865
 20
2437.931598713261
 30
0.0
 11
12251.13436669052
 21
2437.931598713261
 31
0.0
  0
LINE
  5
127A8
330
747D
100
AcDbEntity
  8
部品1
100
AcDbLine
 10
3636.244286920965
 20
2567.835409280926
 30
0.0
 11
3786.244286920965
 21
2567.835409280926
 31
0.0
  0
LINE
  5
127A9
330
747D
100
AcDbEntity
  8
部品1
100
AcDbLine
 10
3711.244286920964
 20
2437.931598713261
 30
0.0
 11
3636.244286920965
 21
2567.835409280926
 31
0.0
  0
TEXT
  5
127AA
330
747D
100
AcDbEntity
  8
部品1
100
AcDbText
 10
3814.349229045738
 20
2474.038502319163
 30
0.0
 40
125.0
  1
G.L
  7
MSGOTHIC
100
AcDbText
  0
LINE
  5
127AB
330
747D
100
AcDbEntity
  8
部品1
100
AcDbLine
 10
3786.244286920965
 20
2567.835409280926
 30
0.0
 11
3711.244286920964
 21
2437.931598713261
 31
0.0
  0
TEXT
  5
14E88
330
747D
100
AcDbEntity
  8
部品1
100
AcDbText
 10
5016.77023315001
 20
6434.037262311706
 30
0.0
 40
135.0
  1
平面図
  7
MSGOTHIC
100
AcDbText
  0
LWPOLYLINE
  5
14E89
330
747D
100
AcDbEntity
  8
部品1
100
AcDbPolyline
 90
        4
 70
     1
 43
0.0
 10
4928.278545153134
 20
6626.930791530229
 10
4928.278545153134
 20
6387.038469984696
 10
5691.749211381573
 20
6387.038469984696
 10
5691.749211381573
 20
6626.930791530229
  0
TEXT
  5
15550
330
747D
100
AcDbEntity
  8
文字
 62
     7
 48
50.0
100
AcDbText
 10
14707.39993466553
 20
871.9640646083623
 30
0.0
 40
100.0
  1
～一般型・多雪地型～
  7
STYLE2
100
AcDbText
  0
DIMENSION
  5
16452
330
747D
100
AcDbEntity
  8
寸法
100
AcDbDimension
  2
*D1
 10
7007.547165741399
 20
7614.155828006579
 30
0.0
 11
6907.535354717777
 21
8929.155828006585
 31
0.0
 70
    32
 71
     5
 42
2630.000000000008
  3
INABA_S40G
100
AcDbAlignedDimension
 13
5995.013878267354
 23
10244.15582800658
 33
0.0
 14
5995.013878267329
 24
7614.15582800658
 34
0.0
 50
90.0
100
AcDbRotatedDimension
1001
ACAD
1000
DSTYLE
1002
{
1002
}
  0
LINE
  5
16453
330
747D
100
AcDbEntity
  8
部品1
100
AcDbLine
 10
5915.013878267353
 20
10189.15582800645
 30
0.0
 11
5915.01387826733
 21
7679.155828006489
 31
0.0
  0
LINE
  5
16454
330
747D
100
AcDbEntity
  8
部品1
100
AcDbLine
 10
4705.013878267328
 20
10189.15582800646
 30
0.0
 11
4705.013878267346
 21
7679.155828006487
 31
0.0
  0
LINE
  5
16455
330
747D
100
AcDbEntity
  8
部品1
100
AcDbLine
 10
4680.013878267327
 20
10189.15582800646
 30
0.0
 11
4680.013878267345
 21
7679.155828006487
 31
0.0
  0
LINE
  5
16456
330
747D
100
AcDbEntity
  8
部品1
100
AcDbLine
 10
5940.013878267346
 20
10189.15582800645
 30
0.0
 11
5940.013878267331
 21
7614.155828006577
 31
0.0
  0
LINE
  5
16457
330
747D
100
AcDbEntity
  8
部品1
100
AcDbLine
 10
5967.013878267342
 20
10216.15582800659
 30
0.0
 11
5967.013878267331
 21
7669.155828006577
 31
0.0
  0
LINE
  5
16458
330
747D
100
AcDbEntity
  8
部品1
100
AcDbLine
 10
5995.013878267354
 20
10244.15582800658
 30
0.0
 11
5995.013878267329
 21
7614.15582800658
 31
0.0
  0
DIMENSION
  5
16459
330
747D
100
AcDbEntity
  8
寸法
100
AcDbDimension
  2
*D2
 10
6642.440224001764
 20
7669.155828006577
 30
0.0
 11
6542.428412978141
 21
8929.155828006585
 31
0.0
 70
    32
  1
6X420=<>
 71
     5
 42
2520.000000000016
  3
INABA_S40G
100
AcDbAlignedDimension
 13
5995.013878267354
 23
10189.15582800659
 33
0.0
 14
5995.013878267329
 24
7669.155828006577
 34
0.0
 50
90.0
100
AcDbRotatedDimension
1001
ACAD
1000
DSTYLE
1002
{
1002
}
  0
LINE
  5
1645B
330
747D
100
AcDbEntity
  8
部品1
100
AcDbLine
 10
4625.01387826732
 20
10244.15582800646
 30
0.0
 11
4625.013878267347
 21
7614.155828006449
 31
0.0
  0
LINE
  5
1645C
330
747D
100
AcDbEntity
  8
部品1
100
AcDbLine
 10
4653.013878267329
 20
7669.155828006445
 30
0.0
 11
4653.013878267342
 21
10216.15582800649
 31
0.0
  0
DIMENSION
  5
1645E
330
747D
100
AcDbEntity
  8
寸法
 48
50.0
100
AcDbDimension
  2
*D3
 10
4728.013878267347
 20
7079.725057240324
 30
0.0
 11
5310.013878267338
 21
7279.725057240324
 31
0.0
 70
    32
  1
有効開口部間口\P<>
 71
     5
 42
1163.999999999981
  3
INABA_S40G
100
AcDbAlignedDimension
 13
5892.013878267329
 23
7640.155828006489
 33
0.0
 14
4728.013878267347
 24
7640.155828006489
 34
0.0
100
AcDbRotatedDimension
1001
ACAD
1000
DSTYLE
1002
{
1070
    75
1070
     1
1070
   279
1070
     2
1002
}
  0
LINE
  5
1645F
330
747D
100
AcDbEntity
  8
部品1
 48
50.0
100
AcDbLine
 10
4692.013878267345
 20
7659.655828006487
 30
0.0
 11
5928.013878267331
 21
7659.655828006487
 31
0.0
  0
DIMENSION
  5
16460
330
747D
100
AcDbEntity
  8
寸法
100
AcDbDimension
  2
*D4
 10
5995.013878267329
 20
6793.55206164945
 30
0.0
 11
5310.013878267338
 21
6893.55206164945
 31
0.0
 70
    32
 71
     5
 42
1369.999999999982
  3
INABA_S40G
100
AcDbAlignedDimension
 13
4625.013878267347
 23
7614.155828006416
 33
0.0
 14
5995.013878267329
 24
7614.155828006544
 34
0.0
100
AcDbRotatedDimension
1001
ACAD
1000
DSTYLE
1002
{
1002
}
  0
DIMENSION
  5
16461
330
747D
100
AcDbEntity
  8
寸法
 48
50.0
100
AcDbDimension
  2
*D5
 10
4625.013878267347
 20
7079.725057240324
 30
0.0
 11
4316.528596893109
 21
7079.725057240324
 31
0.0
 70
   160
 71
     5
 42
54.99999999999636
  3
INABA_S40G
100
AcDbAlignedDimension
 13
4680.013878267344
 23
7614.155828006488
 33
0.0
 14
4625.013878267347
 24
7614.155828006485
 34
0.0
100
AcDbRotatedDimension
1001
ACAD
1000
DSTYLE
1002
{
1002
}
  0
DIMENSION
  5
16462
330
747D
100
AcDbEntity
  8
寸法
 48
50.0
100
AcDbDimension
  2
*D6
 10
4680.013878267344
 20
7079.725057240324
 30
0.0
 11
4840.915849267405
 21
7179.725057240324
 31
0.0
 70
   160
 71
     5
 42
48.00000000000363
  3
INABA_S40G
100
AcDbAlignedDimension
 13
4728.013878267347
 23
7640.155828006489
 33
0.0
 14
4680.013878267344
 24
7614.155828006488
 34
0.0
100
AcDbRotatedDimension
1001
ACAD
1000
DSTYLE
1002
{
1070
   279
1070
     2
1002
}
  0
LINE
  5
16463
330
747D
100
AcDbEntity
  8
部品1
100
AcDbLine
 10
4680.013878267342
 20
7614.155828006488
 30
0.0
 11
4625.013878267347
 21
7614.155828006485
 31
0.0
  0
LINE
  5
16464
330
747D
100
AcDbEntity
  8
部品1
 48
50.0
100
AcDbLine
 10
4680.013878267348
 20
7650.155828006487
 30
0.0
 11
4657.013878267347
 21
7650.155828006487
 31
0.0
  0
LINE
  5
16465
330
747D
100
AcDbEntity
  8
部品1
 48
50.0
100
AcDbLine
 10
4690.013878267347
 20
7640.155828006489
 30
0.0
 11
4680.013878267348
 21
7619.155828006488
 31
0.0
  0
LINE
  5
16466
330
747D
100
AcDbEntity
  8
部品1
 48
50.0
100
AcDbLine
 10
4680.013878267348
 20
7679.155828006487
 30
0.0
 11
4680.013878267344
 21
7614.155828006488
 31
0.0
  0
LINE
  5
16467
330
747D
100
AcDbEntity
  8
部品1
 48
50.0
100
AcDbLine
 10
4728.013878267347
 20
7640.155828006489
 30
0.0
 11
4728.013878267347
 21
7649.155828006489
 31
0.0
  0
LINE
  5
16468
330
747D
100
AcDbEntity
  8
部品1
 48
50.0
100
AcDbLine
 10
4728.013878267347
 20
7679.155828006489
 30
0.0
 11
4728.013878267347
 21
7670.155828006489
 31
0.0
  0
LINE
  5
16469
330
747D
100
AcDbEntity
  8
部品1
100
AcDbLine
 10
4728.013878267347
 20
7679.155828006489
 30
0.0
 11
4680.013878267348
 21
7679.155828006489
 31
0.0
  0
LINE
  5
1646A
330
747D
100
AcDbEntity
  8
部品1
100
AcDbLine
 10
4728.013878267347
 20
7640.155828006489
 30
0.0
 11
4680.013878267348
 21
7640.155828006489
 31
0.0
  0
LINE
  5
1646B
330
747D
100
AcDbEntity
  8
部品1
100
AcDbLine
 10
4680.013878267345
 20
7650.155828006487
 30
0.0
 11
4657.013878267347
 21
7650.155828006487
 31
0.0
  0
LINE
  5
1646C
330
747D
100
AcDbEntity
  8
部品1
100
AcDbLine
 10
4680.013878267345
 20
7669.155828006413
 30
0.0
 11
4625.013878267346
 21
7669.155828006413
 31
0.0
  0
LINE
  5
1646D
330
747D
100
AcDbEntity
  8
部品1
100
AcDbLine
 10
4653.013878267329
 20
7669.15582800645
 30
0.0
 11
4625.013878267346
 21
7669.15582800645
 31
0.0
  0
LINE
  5
1646E
330
747D
100
AcDbEntity
  8
部品1
100
AcDbLine
 10
4653.013878267346
 20
7669.155828006464
 30
0.0
 11
4625.013878267346
 21
7669.155828006464
 31
0.0
  0
LINE
  5
1646F
330
747D
100
AcDbEntity
  8
部品1
100
AcDbLine
 10
4625.01387826733
 20
8089.155828006603
 30
0.0
 11
4653.013878267331
 21
8089.155828006603
 31
0.0
  0
LINE
  5
16472
330
747D
100
AcDbEntity
  8
部品1
100
AcDbLine
 10
4625.01387826733
 20
8509.155828006603
 30
0.0
 11
4653.013878267331
 21
8509.155828006603
 31
0.0
  0
LINE
  5
16473
330
747D
100
AcDbEntity
  8
部品1
100
AcDbLine
 10
4625.01387826733
 20
8929.155828006603
 30
0.0
 11
4653.013878267331
 21
8929.155828006603
 31
0.0
  0
LINE
  5
16474
330
747D
100
AcDbEntity
  8
部品1
100
AcDbLine
 10
4653.013878267334
 20
9349.155828006464
 30
0.0
 11
4625.013878267334
 21
9349.155828006464
 31
0.0
  0
DIMENSION
  5
16475
330
747D
100
AcDbEntity
  8
寸法
 48
50.0
100
AcDbDimension
  2
*D7
 10
5892.013878267329
 20
7079.725057240324
 30
0.0
 11
5781.050980618582
 21
7179.725057240324
 31
0.0
 70
   160
 71
     5
 42
48.00000000000181
  3
INABA_S40G
100
AcDbAlignedDimension
 13
5940.013878267331
 23
7614.155828006577
 33
0.0
 14
5892.013878267329
 24
7640.155828006489
 34
0.0
100
AcDbRotatedDimension
1001
ACAD
1000
DSTYLE
1002
{
1070
   279
1070
     2
1002
}
  0
DIMENSION
  5
16476
330
747D
100
AcDbEntity
  8
寸法
 48
50.0
100
AcDbDimension
  2
*D8
 10
5940.013878267331
 20
7079.725057240326
 30
0.0
 11
6303.499159641567
 21
7079.725057240326
 31
0.0
 70
   160
 71
     5
 42
54.99999999999818
  3
INABA_S40G
100
AcDbAlignedDimension
 13
5995.013878267329
 23
7614.15582800658
 33
0.0
 14
5940.013878267331
 24
7614.155828006577
 34
0.0
100
AcDbRotatedDimension
1001
ACAD
1000
DSTYLE
1002
{
1002
}
  0
DIMENSION
  5
16477
330
747D
100
AcDbEntity
  8
寸法
100
AcDbDimension
  2
*D9
 10
6642.440224001742
 20
7614.155828006579
 30
0.0
 11
6642.440224001738
 21
7236.294361101719
 31
0.0
 70
   160
 71
     5
 42
54.99999999999636
  3
INABA_S40G
100
AcDbAlignedDimension
 13
5995.013878267329
 23
7669.155828006577
 33
0.0
 14
5995.013878267329
 24
7614.15582800658
 34
0.0
 50
90.0
100
AcDbRotatedDimension
1001
ACAD
1000
DSTYLE
1002
{
1002
}
  0
LINE
  5
16478
330
747D
100
AcDbEntity
  8
部品1
 48
50.0
100
AcDbLine
 10
5930.013878267329
 20
7640.155828006489
 30
0.0
 11
5940.013878267329
 21
7619.155828006488
 31
0.0
  0
LINE
  5
16479
330
747D
100
AcDbEntity
  8
部品1
100
AcDbLine
 10
5940.013878267329
 20
7650.155828006487
 30
0.0
 11
5963.013878267329
 21
7650.155828006487
 31
0.0
  0
LINE
  5
1647A
330
747D
100
AcDbEntity
  8
部品1
 48
50.0
100
AcDbLine
 10
5892.013878267329
 20
7679.155828006489
 30
0.0
 11
5892.013878267329
 21
7670.155828006489
 31
0.0
  0
LINE
  5
1647B
330
747D
100
AcDbEntity
  8
部品1
100
AcDbLine
 10
5892.013878267329
 20
7679.155828006489
 30
0.0
 11
5940.013878267331
 21
7679.155828006489
 31
0.0
  0
LINE
  5
1647C
330
747D
100
AcDbEntity
  8
部品1
 48
50.0
100
AcDbLine
 10
5892.013878267329
 20
7640.155828006489
 30
0.0
 11
5892.013878267329
 21
7649.155828006489
 31
0.0
  0
LINE
  5
1647D
330
747D
100
AcDbEntity
  8
部品1
100
AcDbLine
 10
5892.013878267329
 20
7640.155828006489
 30
0.0
 11
5940.013878267329
 21
7640.155828006489
 31
0.0
  0
LINE
  5
1647E
330
747D
100
AcDbEntity
  8
部品1
100
AcDbLine
 10
5940.013878267329
 20
7669.155828006591
 30
0.0
 11
5995.013878267362
 21
7669.155828006591
 31
0.0
  0
LINE
  5
1647F
330
747D
100
AcDbEntity
  8
部品1
100
AcDbLine
 10
5995.013878267329
 20
7614.15582800658
 30
0.0
 11
5940.013878267331
 21
7614.155828006578
 31
0.0
  0
LINE
  5
16480
330
747D
100
AcDbEntity
  8
部品1
100
AcDbLine
 10
5967.013878267358
 20
8089.155828006591
 30
0.0
 11
5995.013878267358
 21
8089.155828006591
 31
0.0
  0
LINE
  5
16483
330
747D
100
AcDbEntity
  8
部品1
100
AcDbLine
 10
5967.013878267358
 20
8509.155828006591
 30
0.0
 11
5995.013878267358
 21
8509.155828006591
 31
0.0
  0
LINE
  5
16484
330
747D
100
AcDbEntity
  8
部品1
100
AcDbLine
 10
5967.013878267358
 20
8929.155828006591
 30
0.0
 11
5995.013878267358
 21
8929.155828006591
 31
0.0
  0
LINE
  5
16485
330
747D
100
AcDbEntity
  8
部品1
100
AcDbLine
 10
5967.013878267358
 20
9349.155828006592
 30
0.0
 11
5995.013878267358
 21
9349.155828006592
 31
0.0
  0
LINE
  5
16489
330
747D
100
AcDbEntity
  8
部品1
100
AcDbLine
 10
4680.013878267352
 20
10216.15582800661
 30
0.0
 11
5100.013878267355
 21
10216.1558280066
 31
0.0
  0
LINE
  5
1648A
330
747D
100
AcDbEntity
  8
部品1
100
AcDbLine
 10
4625.013878267353
 20
10244.15582800649
 30
0.0
 11
5995.013878267354
 21
10244.15582800658
 31
0.0
  0
DIMENSION
  5
1648F
330
747D
100
AcDbEntity
  8
寸法
100
AcDbDimension
  2
*D10
 10
5940.013878267355
 20
10459.96404763159
 30
0.0
 11
5310.013878267355
 21
10559.97585865521
 31
0.0
 70
    32
  1
3X420=<>
 71
     5
 42
1260.000000000001
  3
INABA_S40G
100
AcDbAlignedDimension
 13
4680.013878267354
 23
10244.15582800649
 33
0.0
 14
5940.013878267355
 24
10244.15582800658
 34
0.0
100
AcDbRotatedDimension
1001
ACAD
1000
DSTYLE
1002
{
1002
}
  0
LINE
  5
16491
330
747D
100
AcDbEntity
  8
部品1
100
AcDbLine
 10
4653.013878267353
 20
10216.15582800649
 30
0.0
 11
4890.013878267353
 21
10216.15582800649
 31
0.0
  0
DIMENSION
  5
16492
330
747D
100
AcDbEntity
  8
寸法
100
AcDbDimension
  2
*D11
 10
4680.013878267354
 20
10459.96404763147
 30
0.0
 11
4316.52859689308
 21
10459.96404763147
 31
0.0
 70
   160
 71
     5
 42
55.00000000003456
  3
INABA_S40G
100
AcDbAlignedDimension
 13
4625.01387826732
 23
10244.15582800649
 33
0.0
 14
4680.013878267354
 24
10244.15582800649
 34
0.0
100
AcDbRotatedDimension
1001
ACAD
1000
DSTYLE
1002
{
1002
}
  0
LINE
  5
16495
330
747D
100
AcDbEntity
  8
部品1
100
AcDbLine
 10
4653.013878267327
 20
9769.155828006464
 30
0.0
 11
4625.013878267327
 21
9769.155828006464
 31
0.0
  0
LINE
  5
16496
330
747D
100
AcDbEntity
  8
部品1
100
AcDbLine
 10
4680.013878267319
 20
10244.15582800646
 30
0.0
 11
4680.013878267319
 21
10216.15582800646
 31
0.0
  0
LINE
  5
16497
330
747D
100
AcDbEntity
  8
部品1
100
AcDbLine
 10
4680.013878267352
 20
10244.15582800649
 30
0.0
 11
4680.013878267352
 21
10216.15582800649
 31
0.0
  0
LINE
  5
16498
330
747D
100
AcDbEntity
  8
部品1
100
AcDbLine
 10
4653.01387826732
 20
10189.15582800646
 30
0.0
 11
4625.01387826732
 21
10189.15582800646
 31
0.0
  0
LINE
  5
164BB
330
747D
100
AcDbEntity
  8
部品1
100
AcDbLine
 10
5100.013878267353
 20
10244.15582800661
 30
0.0
 11
5100.013878267353
 21
10216.15582800661
 31
0.0
  0
LINE
  5
164BC
330
747D
100
AcDbEntity
  8
部品1
100
AcDbLine
 10
5520.013878267353
 20
10244.15582800661
 30
0.0
 11
5520.013878267353
 21
10216.15582800661
 31
0.0
  0
DIMENSION
  5
164BD
330
747D
100
AcDbEntity
  8
寸法
100
AcDbDimension
  2
*D12
 10
6642.440224001766
 20
10189.15582800659
 30
0.0
 11
6642.440224001764
 21
10552.64110938082
 31
0.0
 70
   160
 71
     5
 42
54.99999999999636
  3
INABA_S40G
100
AcDbAlignedDimension
 13
5995.013878267354
 23
10244.15582800658
 33
0.0
 14
5995.013878267354
 24
10189.15582800659
 34
0.0
 50
90.0
100
AcDbRotatedDimension
1001
ACAD
1000
DSTYLE
1002
{
1002
}
  0
DIMENSION
  5
164BE
330
747D
100
AcDbEntity
  8
寸法
100
AcDbDimension
  2
*D13
 10
5995.013878267354
 20
10459.96404763157
 30
0.0
 11
6303.499159641592
 21
10459.96404763157
 31
0.0
 70
   160
 71
     5
 42
55.0
  3
INABA_S40G
100
AcDbAlignedDimension
 13
5940.013878267355
 23
10244.15582800658
 33
0.0
 14
5995.013878267354
 24
10244.15582800658
 34
0.0
100
AcDbRotatedDimension
1001
ACAD
1000
DSTYLE
1002
{
1002
}
  0
LINE
  5
164C2
330
747D
100
AcDbEntity
  8
部品1
100
AcDbLine
 10
5967.013878267355
 20
9769.155828006592
 30
0.0
 11
5995.013878267354
 21
9769.155828006592
 31
0.0
  0
LINE
  5
164C3
330
747D
100
AcDbEntity
  8
部品1
100
AcDbLine
 10
5940.013878267355
 20
10244.15582800658
 30
0.0
 11
5940.013878267355
 21
10216.15582800659
 31
0.0
  0
LINE
  5
164C4
330
747D
100
AcDbEntity
  8
部品1
100
AcDbLine
 10
5940.013878267355
 20
10244.15582800661
 30
0.0
 11
5940.013878267355
 21
10216.15582800661
 31
0.0
  0
LINE
  5
164C5
330
747D
100
AcDbEntity
  8
部品1
100
AcDbLine
 10
5967.013878267355
 20
10189.15582800659
 30
0.0
 11
5995.013878267354
 21
10189.15582800659
 31
0.0
  0
LINE
  5
166A1
330
747D
100
AcDbEntity
  8
部品1
 48
50.0
100
AcDbLine
 10
5915.013878267353
 20
10164.1558280064
 30
0.0
 11
4705.013878267328
 21
10164.15582800638
 31
0.0
  0
LINE
  5
166A5
330
747D
100
AcDbEntity
  8
部品1
100
AcDbLine
 10
5940.013878267346
 20
10189.15582800645
 30
0.0
 11
4680.013878267329
 21
10189.15582800646
 31
0.0
  0
LINE
  5
166A6
330
747D
100
AcDbEntity
  8
部品1
 48
50.0
100
AcDbLine
 10
4680.013878267327
 20
10189.15582800646
 30
0.0
 11
4653.013878267353
 21
10216.15582800649
 31
0.0
  0
LINE
  5
166A7
330
747D
100
AcDbEntity
  8
部品1
 48
50.0
100
AcDbLine
 10
5967.013878267342
 20
10216.15582800659
 30
0.0
 11
5940.013878267346
 21
10189.15582800645
 31
0.0
  0
LINE
  5
1672F
330
747D
100
AcDbEntity
  8
部品1
100
AcDbLine
 10
5100.013878267353
 20
10244.15582800655
 30
0.0
 11
5100.013878267353
 21
10216.15582800655
 31
0.0
  0
LINE
  5
16730
330
747D
100
AcDbEntity
  8
部品1
100
AcDbLine
 10
5100.013878267353
 20
10244.15582800661
 30
0.0
 11
5100.013878267353
 21
10216.15582800661
 31
0.0
  0
LINE
  5
16731
330
747D
100
AcDbEntity
  8
部品1
100
AcDbLine
 10
5100.013878267355
 20
10216.1558280066
 30
0.0
 11
5967.013878267342
 21
10216.15582800659
 31
0.0
  0
LINE
  5
16ACA
330
747D
100
AcDbEntity
  8
仕様書枠
 48
50.0
100
AcDbLine
 10
16307.19999999999
 20
9709.6
 30
0.0
 11
13127.19999999999
 21
9709.600000000001
 31
0.0
  0
TEXT
  5
16ACB
330
747D
100
AcDbEntity
  8
文字
 62
     7
 48
50.0
100
AcDbText
 10
13229.83081656555
 20
8380.013745883728
 30
0.0
 40
100.0
  1
Z08→塗装溶融亜鉛めっき鋼板(JIS G 3313)
  7
STYLE1
100
AcDbText
  0
TEXT
  5
16ACC
330
747D
100
AcDbEntity
  8
文字
 62
     7
 48
50.0
100
AcDbText
 10
13229.83081656555
 20
8550.013745883727
 30
0.0
 40
100.0
  1
Y10→溶融亜鉛-5％アルミニウム合金めっき鋼板(JIS G 3317)
 41
0.9
  7
STYLE1
100
AcDbText
  0
TEXT
  5
16ACD
330
747D
100
AcDbEntity
  8
文字
 62
     7
 48
50.0
100
AcDbText
 10
13229.83081656555
 20
8720.013745883727
 30
0.0
 40
100.0
  1
F12→溶融亜鉛めっき鋼板(JIS G 3302)
  7
STYLE1
100
AcDbText
  0
LINE
  5
16ACE
330
747D
100
AcDbEntity
  8
仕様書枠
 48
50.0
100
AcDbLine
 10
16307.19999999999
 20
8349.599999999998
 30
0.0
 11
13127.2
 21
8349.6
 31
0.0
  0
LINE
  5
16ACF
330
747D
100
AcDbEntity
  8
仕様書枠
 48
50.0
100
AcDbLine
 10
16307.19999999999
 20
8519.599999999998
 30
0.0
 11
13127.2
 21
8519.600000000002
 31
0.0
  0
LINE
  5
16AD0
330
747D
100
AcDbEntity
  8
仕様書枠
 48
50.0
100
AcDbLine
 10
16307.19999999999
 20
8689.599999999998
 30
0.0
 11
13127.2
 21
8689.6
 31
0.0
  0
TEXT
  5
16AD1
330
747D
100
AcDbEntity
  8
文字
 62
     7
 48
50.0
100
AcDbText
 10
15022.63965474515
 20
8890.013745883727
 30
0.0
 40
100.0
  1
F12            0.6
  7
STYLE1
100
AcDbText
  0
TEXT
  5
16AD2
330
747D
100
AcDbEntity
  8
文字
 62
     7
 48
50.0
100
AcDbText
 10
15022.63965474515
 20
9400.013745883724
 30
0.0
 40
100.0
  1
Z08            0.5
  7
STYLE1
100
AcDbText
  0
TEXT
  5
16AD4
330
747D
100
AcDbEntity
  8
文字
 62
     7
 48
50.0
100
AcDbText
 10
14850.83183167176
 20
9060.013745883727
 30
0.0
 40
100.0
  1
アルミニウム合金押出形材
  7
STYLE1
100
AcDbText
  0
TEXT
  5
16AD5
330
747D
100
AcDbEntity
  8
文字
 62
     7
 48
50.0
100
AcDbText
 10
15022.63965474516
 20
9570.013745883725
 30
0.0
 40
100.0
  1
F12            0.7
  7
STYLE1
100
AcDbText
  0
TEXT
  5
16AD6
330
747D
100
AcDbEntity
  8
文字
 62
     7
 48
50.0
100
AcDbText
 10
15022.63965474517
 20
9740.013745883725
 30
0.0
 40
100.0
  1
Y10            0.5
  7
STYLE1
100
AcDbText
  0
TEXT
  5
16AD7
330
747D
100
AcDbEntity
  8
文字
 62
     7
 48
50.0
100
AcDbText
 10
15022.63965474517
 20
9910.013745883725
 30
0.0
 40
100.0
  1
F12            1.0
  7
STYLE1
100
AcDbText
  0
TEXT
  5
16AD8
330
747D
100
AcDbEntity
  8
文字
 62
     7
 48
50.0
100
AcDbText
 10
15022.63965474516
 20
10080.01374588372
 30
0.0
 40
100.0
  1
Y10            0.7
  7
STYLE1
100
AcDbText
  0
TEXT
  5
16AD9
330
747D
100
AcDbEntity
  8
文字
 62
     7
 48
50.0
100
AcDbText
 10
15022.63965474516
 20
10250.01374588372
 30
0.0
 40
100.0
  1
Y10            0.7
  7
STYLE1
100
AcDbText
  0
TEXT
  5
16ADA
330
747D
100
AcDbEntity
  8
文字
 62
     7
 48
50.0
100
AcDbText
 10
15022.63965474516
 20
10420.01374588372
 30
0.0
 40
100.0
  1
Y10            1.0
  7
STYLE1
100
AcDbText
  0
TEXT
  5
16ADB
330
747D
100
AcDbEntity
  8
文字
 62
     7
 48
50.0
100
AcDbText
 10
15022.63965474516
 20
10590.01374588372
 30
0.0
 40
100.0
  1
Y10            1.0
  7
STYLE1
100
AcDbText
  0
TEXT
  5
16ADD
330
747D
100
AcDbEntity
  8
文字
 62
     7
 48
50.0
100
AcDbText
 10
15022.63965474517
 20
10930.01374588372
 30
0.0
 40
100.0
  1
F12            1.2
  7
STYLE1
100
AcDbText
  0
TEXT
  5
16ADE
330
747D
100
AcDbEntity
  8
文字
 62
     7
 48
50.0
100
AcDbText
 10
13248.77747366448
 20
9060.013745883729
 30
0.0
 40
100.0
  1
12
  7
STYLE1
100
AcDbText
  0
TEXT
  5
16ADF
330
747D
100
AcDbEntity
  8
文字
 62
     7
 48
50.0
100
AcDbText
 10
13248.77747366448
 20
8890.013745883729
 30
0.0
 40
100.0
  1
13
  7
STYLE1
100
AcDbText
  0
TEXT
  5
16AE0
330
747D
100
AcDbEntity
  8
文字
 62
     7
 48
50.0
100
AcDbText
 10
13583.11819016569
 20
9400.013745883727
 30
0.0
 40
100.0
  1
シャッター
  7
STYLE1
100
AcDbText
  0
LINE
  5
16AE1
330
747D
100
AcDbEntity
  8
仕様書枠
 48
50.0
100
AcDbLine
 10
16307.19999999999
 20
9029.6
 30
0.0
 11
13127.19999999999
 21
9029.600000000002
 31
0.0
  0
TEXT
  5
16AE2
330
747D
100
AcDbEntity
  8
文字
 62
     7
 48
50.0
100
AcDbText
 10
13583.11819016569
 20
8890.013745883729
 30
0.0
 40
100.0
  1
棚板（別売）
  7
STYLE1
100
AcDbText
  0
LINE
  5
16AE3
330
747D
100
AcDbEntity
  8
仕様書枠
 48
50.0
100
AcDbLine
 10
16307.19999999999
 20
8859.599999999998
 30
0.0
 11
13127.2
 21
8859.6
 31
0.0
  0
LINE
  5
16AE4
330
747D
100
AcDbEntity
  8
仕様書枠
 48
50.0
100
AcDbLine
 10
16307.19999999999
 20
9199.599999999998
 30
0.0
 11
13127.19999999999
 21
9199.600000000001
 31
0.0
  0
TEXT
  5
16AE5
330
747D
100
AcDbEntity
  8
文字
 62
     7
 48
50.0
100
AcDbText
 10
13583.11819016569
 20
9230.013745883727
 30
0.0
 40
100.0
  1
シャッターカバー
 41
0.9
  7
STYLE1
100
AcDbText
  0
TEXT
  5
16AE6
330
747D
100
AcDbEntity
  8
文字
 62
     7
 48
50.0
100
AcDbText
 10
13248.77747366448
 20
9230.013745883727
 30
0.0
 40
100.0
  1
11
  7
STYLE1
100
AcDbText
  0
LINE
  5
16AE7
330
747D
100
AcDbEntity
  8
仕様書枠
 48
50.0
100
AcDbLine
 10
16307.19999999999
 20
9879.599999999999
 30
0.0
 11
13127.2
 21
9879.600000000001
 31
0.0
  0
LINE
  5
16AE8
330
747D
100
AcDbEntity
  8
仕様書枠
 48
50.0
100
AcDbLine
 10
16307.19999999999
 20
10049.6
 30
0.0
 11
13127.2
 21
10049.6
 31
0.0
  0
LINE
  5
16AE9
330
747D
100
AcDbEntity
  8
仕様書枠
 48
50.0
100
AcDbLine
 10
16307.19999999999
 20
9539.599999999998
 30
0.0
 11
13127.19999999999
 21
9539.6
 31
0.0
  0
LINE
  5
16AEA
330
747D
100
AcDbEntity
  8
仕様書枠
 48
50.0
100
AcDbLine
 10
16307.19999999999
 20
9369.599999999998
 30
0.0
 11
13127.19999999999
 21
9369.600000000001
 31
0.0
  0
TEXT
  5
16AEB
330
747D
100
AcDbEntity
  8
文字
 62
     7
 48
50.0
100
AcDbText
 10
13271.19032244792
 20
10080.01374588373
 30
0.0
 40
100.0
  1
6
  7
STYLE1
100
AcDbText
  0
TEXT
  5
16AEC
330
747D
100
AcDbEntity
  8
文字
 62
     7
 48
50.0
100
AcDbText
 10
13271.19032244792
 20
9910.01374588373
 30
0.0
 40
100.0
  1
7
  7
STYLE1
100
AcDbText
  0
TEXT
  5
16AED
330
747D
100
AcDbEntity
  8
文字
 62
     7
 48
50.0
100
AcDbText
 10
13271.19032244792
 20
9570.013745883729
 30
0.0
 40
100.0
  1
9
  7
STYLE1
100
AcDbText
  0
TEXT
  5
16AEE
330
747D
100
AcDbEntity
  8
文字
 62
     7
 48
50.0
100
AcDbText
 10
13271.19032244792
 20
9740.013745883729
 30
0.0
 40
100.0
  1
8
  7
STYLE1
100
AcDbText
  0
TEXT
  5
16AEF
330
747D
100
AcDbEntity
  8
文字
 62
     7
 48
50.0
100
AcDbText
 10
13583.11819016569
 20
10080.01374588372
 30
0.0
 40
100.0
  1
鼻隠シ前後
  7
STYLE1
100
AcDbText
  0
TEXT
  5
16AF0
330
747D
100
AcDbEntity
  8
文字
 62
     7
 48
50.0
100
AcDbText
 10
13583.11819016569
 20
9910.013745883727
 30
0.0
 40
100.0
  1
母屋中
  7
STYLE1
100
AcDbText
  0
TEXT
  5
16AF1
330
747D
100
AcDbEntity
  8
文字
 62
     7
 48
50.0
100
AcDbText
 10
13583.11819016569
 20
9740.013745883729
 30
0.0
 40
100.0
  1
屋根パネル
  7
STYLE1
100
AcDbText
  0
TEXT
  5
16AF2
330
747D
100
AcDbEntity
  8
文字
 62
     7
 48
50.0
100
AcDbText
 10
13583.11819016569
 20
9570.013745883729
 30
0.0
 40
100.0
  1
壁パネル
  7
STYLE1
100
AcDbText
  0
TEXT
  5
16AF3
330
747D
100
AcDbEntity
  8
文字
 62
     7
 48
50.0
100
AcDbText
 10
13248.77747366448
 20
9400.013745883727
 30
0.0
 40
100.0
  1
10
  7
STYLE1
100
AcDbText
  0
TEXT
  5
16AF4
330
747D
100
AcDbEntity
  8
文字
 62
     7
 48
50.0
100
AcDbText
 10
13583.11819016569
 20
9060.013745883729
 30
0.0
 40
100.0
  1
シャッターレール
  7
STYLE1
100
AcDbText
  0
TEXT
  5
16AF5
330
747D
100
AcDbEntity
  8
文字
 62
     7
 48
50.0
100
AcDbText
 10
13583.11819016569
 20
10250.01374588373
 30
0.0
 40
100.0
  1
妻板左右
  7
STYLE1
100
AcDbText
  0
TEXT
  5
16AF6
330
747D
100
AcDbEntity
  8
文字
 62
     7
 48
50.0
100
AcDbText
 10
13271.19032244792
 20
10250.01374588373
 30
0.0
 40
100.0
  1
5
  7
STYLE1
100
AcDbText
  0
TEXT
  5
16AF7
330
747D
100
AcDbEntity
  8
文字
 62
     7
 48
50.0
100
AcDbText
 10
13583.11819016569
 20
10420.01374588373
 30
0.0
 40
100.0
  1
桁後
  7
STYLE1
100
AcDbText
  0
TEXT
  5
16AF8
330
747D
100
AcDbEntity
  8
文字
 62
     7
 48
50.0
100
AcDbText
 10
13583.11819016569
 20
10590.01374588373
 30
0.0
 40
100.0
  1
桁前
  7
STYLE1
100
AcDbText
  0
TEXT
  5
16AF9
330
747D
100
AcDbEntity
  8
文字
 62
     7
 48
50.0
100
AcDbText
 10
13583.11819016569
 20
10760.01374588372
 30
0.0
 40
100.0
  1
柱
  7
STYLE1
100
AcDbText
  0
TEXT
  5
16AFA
330
747D
100
AcDbEntity
  8
文字
 62
     7
 48
50.0
100
AcDbText
 10
13583.11819016569
 20
10930.01374588372
 30
0.0
 40
100.0
  1
土台枠
  7
STYLE1
100
AcDbText
  0
TEXT
  5
16AFB
330
747D
100
AcDbEntity
  8
文字
 62
     7
 48
50.0
100
AcDbText
 10
14859.79774614482
 20
11100.01374588373
 30
0.0
 40
100.0
  1
材料（材質）　　単位mm
  7
STYLE1
100
AcDbText
  0
TEXT
  5
16AFC
330
747D
100
AcDbEntity
  8
文字
 62
     7
 48
50.0
100
AcDbText
 10
13732.03840939434
 20
11100.01374588373
 30
0.0
 40
100.0
  1
部　　品　　名
  7
STYLE1
100
AcDbText
  0
TEXT
  5
16AFD
330
747D
100
AcDbEntity
  8
文字
 62
     7
 48
50.0
100
AcDbText
 10
13271.19032244792
 20
10590.01374588373
 30
0.0
 40
100.0
  1
3
  7
STYLE1
100
AcDbText
  0
TEXT
  5
16AFE
330
747D
100
AcDbEntity
  8
文字
 62
     7
 48
50.0
100
AcDbText
 10
13271.19032244792
 20
10420.01374588373
 30
0.0
 40
100.0
  1
4
  7
STYLE1
100
AcDbText
  0
TEXT
  5
16AFF
330
747D
100
AcDbEntity
  8
文字
 62
     7
 48
50.0
100
AcDbText
 10
13271.19032244792
 20
10760.01374588373
 30
0.0
 40
100.0
  1
2
  7
STYLE1
100
AcDbText
  0
TEXT
  5
16B00
330
747D
100
AcDbEntity
  8
文字
 62
     7
 48
50.0
100
AcDbText
 10
13271.19032244792
 20
10930.01374588373
 30
0.0
 40
100.0
  1
1
  7
STYLE1
100
AcDbText
  0
TEXT
  5
16B01
330
747D
100
AcDbEntity
  8
文字
 62
     7
 48
50.0
100
AcDbText
 10
13197.42518560407
 20
11100.01374588373
 30
0.0
 40
100.0
  1
品番
  7
STYLE1
100
AcDbText
  0
LINE
  5
16B02
330
747D
100
AcDbEntity
  8
仕様書枠
 48
50.0
100
AcDbLine
 10
16307.19999999999
 20
10559.6
 30
0.0
 11
13127.19999999999
 21
10559.6
 31
0.0
  0
LINE
  5
16B03
330
747D
100
AcDbEntity
  8
仕様書枠
 48
50.0
100
AcDbLine
 10
16307.19999999999
 20
10219.6
 30
0.0
 11
13127.19999999999
 21
10219.6
 31
0.0
  0
LINE
  5
16B04
330
747D
100
AcDbEntity
  8
仕様書枠
 48
50.0
100
AcDbLine
 10
16307.19999999999
 20
10389.6
 30
0.0
 11
13127.19999999999
 21
10389.6
 31
0.0
  0
LINE
  5
16B05
330
747D
100
AcDbEntity
  8
仕様書枠
 48
50.0
100
AcDbLine
 10
16307.19999999999
 20
10899.6
 30
0.0
 11
13127.2
 21
10899.6
 31
0.0
  0
LINE
  5
16B06
330
747D
100
AcDbEntity
  8
仕様書枠
 48
50.0
100
AcDbLine
 10
16307.19999999999
 20
10729.6
 30
0.0
 11
13127.2
 21
10729.6
 31
0.0
  0
LINE
  5
16B07
330
747D
100
AcDbEntity
  8
仕様書枠
 48
50.0
100
AcDbLine
 10
16307.19999999999
 20
11069.6
 30
0.0
 11
13127.2
 21
11069.6
 31
0.0
  0
LINE
  5
16B08
330
747D
100
AcDbEntity
  8
仕様書枠
 48
50.0
100
AcDbLine
 10
13490.2
 20
11239.6
 30
0.0
 11
13490.20000000001
 21
8859.600000000005
 31
0.0
  0
LINE
  5
16B09
330
747D
100
AcDbEntity
  8
仕様書枠
 48
50.0
100
AcDbLine
 10
14785.2
 20
11239.59999999999
 30
0.0
 11
14785.2
 21
8859.600000000005
 31
0.0
  0
LINE
  5
16B0A
330
747D
100
AcDbEntity
  8
仕様書枠
 48
50.0
100
AcDbLine
 10
16307.2
 20
8349.6
 30
0.0
 11
16307.2
 21
11239.6
 31
0.0
  0
LINE
  5
16B0B
330
747D
100
AcDbEntity
  8
仕様書枠
 48
50.0
100
AcDbLine
 10
13127.2
 20
11239.6
 30
0.0
 11
13127.2
 21
8349.600000000002
 31
0.0
  0
LINE
  5
16B0C
330
747D
100
AcDbEntity
  8
仕様書枠
 48
50.0
100
AcDbLine
 10
16307.19999999999
 20
11239.6
 30
0.0
 11
13127.2
 21
11239.6
 31
0.0
  0
LINE
  5
16C0D
330
747D
100
AcDbEntity
  8
補助
  6
PHANTOM
 62
   230
 48
50.0
100
AcDbLine
 10
140.0
 20
0.0
 30
0.0
 11
140.0
 21
11409.6
 31
0.0
  0
LINE
  5
16F36
330
747D
100
AcDbEntity
  8
細線
100
AcDbLine
 10
4728.01387826734
 20
4497.93159871326
 30
0.0
 11
5892.013878267341
 21
4497.93159871326
 31
0.0
  0
LINE
  5
16F37
330
747D
100
AcDbEntity
  8
細線
100
AcDbLine
 10
4728.013878267343
 20
4367.93159871326
 30
0.0
 11
5892.013878267346
 21
4367.93159871326
 31
0.0
  0
LINE
  5
16F38
330
747D
100
AcDbEntity
  8
細線
100
AcDbLine
 10
4728.013878267343
 20
4302.93159871326
 30
0.0
 11
5892.013878267346
 21
4302.93159871326
 31
0.0
  0
LINE
  5
16F39
330
747D
100
AcDbEntity
  8
細線
100
AcDbLine
 10
4728.013878267343
 20
4237.93159871326
 30
0.0
 11
5892.013878267346
 21
4237.93159871326
 31
0.0
  0
LINE
  5
16F3A
330
747D
100
AcDbEntity
  8
細線
100
AcDbLine
 10
4728.013878267343
 20
4172.931598713261
 30
0.0
 11
5892.013878267346
 21
4172.931598713261
 31
0.0
  0
LINE
  5
16F3B
330
747D
100
AcDbEntity
  8
細線
100
AcDbLine
 10
4728.013878267343
 20
4107.93159871326
 30
0.0
 11
5892.013878267346
 21
4107.93159871326
 31
0.0
  0
LINE
  5
16F3C
330
747D
100
AcDbEntity
  8
細線
100
AcDbLine
 10
4728.013878267343
 20
4042.93159871326
 30
0.0
 11
5892.013878267346
 21
4042.93159871326
 31
0.0
  0
LINE
  5
16F3D
330
747D
100
AcDbEntity
  8
細線
100
AcDbLine
 10
4728.013878267343
 20
3977.931598713261
 30
0.0
 11
5892.013878267346
 21
3977.931598713261
 31
0.0
  0
LINE
  5
16F3E
330
747D
100
AcDbEntity
  8
細線
100
AcDbLine
 10
4728.013878267343
 20
3912.931598713261
 30
0.0
 11
5892.013878267346
 21
3912.931598713261
 31
0.0
  0
LINE
  5
16F3F
330
747D
100
AcDbEntity
  8
細線
100
AcDbLine
 10
4728.013878267343
 20
3847.931598713261
 30
0.0
 11
5892.013878267346
 21
3847.931598713261
 31
0.0
  0
LINE
  5
16F40
330
747D
100
AcDbEntity
  8
細線
100
AcDbLine
 10
4728.013878267343
 20
4432.93159871326
 30
0.0
 11
5892.013878267346
 21
4432.93159871326
 31
0.0
  0
TEXT
  5
16F41
330
747D
100
AcDbEntity
  8
文字
 62
     7
 48
50.0
100
AcDbText
 10
14528.81784699908
 20
483.8967129911416
 30
0.0
 40
160.0
  1
FXN-1326H
  7
MSGOTHIC
100
AcDbText
  0
LINE
  5
16F47
330
747D
100
AcDbEntity
  8
部品1
100
AcDbLine
 10
4625.013878267347
 20
2537.931598713262
 30
0.0
 11
5995.013878267347
 21
2537.931598713262
 31
0.0
  0
LINE
  5
16F48
330
747D
100
AcDbEntity
  8
部品1
100
AcDbLine
 10
4625.013878267347
 20
4677.93159871326
 30
0.0
 11
5995.013878267347
 21
4677.93159871326
 31
0.0
  0
LINE
  5
16F49
330
747D
100
AcDbEntity
  8
部品1
100
AcDbLine
 10
4625.013878267347
 20
4771.931598713268
 30
0.0
 11
4625.013878267347
 21
2437.931598713261
 31
0.0
  0
LINE
  5
16F4A
330
747D
100
AcDbEntity
  8
部品1
100
AcDbLine
 10
5940.013878267348
 20
4512.931598713263
 30
0.0
 11
5940.013878267346
 21
2537.931598713262
 31
0.0
  0
LINE
  5
16F4B
330
747D
100
AcDbEntity
  8
部品1
100
AcDbLine
 10
4680.013878267348
 20
4512.931598713261
 30
0.0
 11
4680.013878267348
 21
2537.931598713262
 31
0.0
  0
LINE
  5
16F4C
330
747D
100
AcDbEntity
  8
部品1
100
AcDbLine
 10
5995.013878267347
 20
4771.931598713268
 30
0.0
 11
5995.013878267347
 21
2437.931598713261
 31
0.0
  0
LINE
  5
16F53
330
747D
100
AcDbEntity
  8
破線
 48
5.0
100
AcDbLine
 10
5995.013878267347
 20
2437.931598713261
 30
0.0
 11
5995.013878267347
 21
2187.931598713261
 31
0.0
  0
LINE
  5
16F54
330
747D
100
AcDbEntity
  8
破線
 48
5.0
100
AcDbLine
 10
4625.013878267347
 20
2437.931598713261
 30
0.0
 11
4625.013878267346
 21
2187.931598713261
 31
0.0
  0
TEXT
  5
16F56
330
747D
100
AcDbEntity
  8
部品1
100
AcDbText
 10
5017.376027058928
 20
1595.038069494744
 30
0.0
 40
135.0
  1
正面図
  7
MSGOTHIC
100
AcDbText
  0
LWPOLYLINE
  5
16F57
330
747D
100
AcDbEntity
  8
部品1
100
AcDbPolyline
 90
        4
 70
     1
 43
0.0
 10
4928.278545153134
 20
1787.931598713268
 10
4928.278545153134
 20
1548.039277167736
 10
5691.749211381572
 20
1548.039277167736
 10
5691.749211381572
 20
1787.931598713268
  0
LINE
  5
16F5C
330
747D
100
AcDbEntity
  8
破線
 48
5.0
100
AcDbLine
 10
5940.013878267346
 20
2537.931598713262
 30
0.0
 11
5940.013878267348
 21
2187.931598713261
 31
0.0
  0
LINE
  5
16F5D
330
747D
100
AcDbEntity
  8
破線
 48
5.0
100
AcDbLine
 10
4680.013878267348
 20
2537.931598713262
 30
0.0
 11
4680.013878267345
 21
2187.931598713261
 31
0.0
  0
LINE
  5
16F5E
330
747D
100
AcDbEntity
  8
破線
 48
5.0
100
AcDbLine
 10
5995.013878267346
 20
2187.931598713261
 30
0.0
 11
5940.013878267348
 21
2187.931598713261
 31
0.0
  0
LINE
  5
16F5F
330
747D
100
AcDbEntity
  8
破線
 48
5.0
100
AcDbLine
 10
4680.013878267345
 20
2187.931598713269
 30
0.0
 11
4625.013878267346
 21
2187.931598713269
 31
0.0
  0
LINE
  5
16F60
330
747D
100
AcDbEntity
  8
部品1
100
AcDbLine
 10
4728.013878267347
 20
4512.931598713261
 30
0.0
 11
4728.013878267347
 21
2537.931598713262
 31
0.0
  0
LINE
  5
16F61
330
747D
100
AcDbEntity
  8
破線
 48
5.0
100
AcDbLine
 10
4728.013878267347
 20
2537.931598713262
 30
0.0
 11
4728.013878267344
 21
2287.931598713267
 31
0.0
  0
LINE
  5
16F62
330
747D
100
AcDbEntity
  8
部品1
100
AcDbLine
 10
5892.013878267349
 20
4512.931598713262
 30
0.0
 11
5892.013878267346
 21
2537.931598713262
 31
0.0
  0
LINE
  5
16F63
330
747D
100
AcDbEntity
  8
破線
 48
5.0
100
AcDbLine
 10
5892.013878267346
 20
2537.931598713262
 30
0.0
 11
5892.013878267348
 21
2287.931598713262
 31
0.0
  0
LINE
  5
16F64
330
747D
100
AcDbEntity
  8
破線
 48
5.0
100
AcDbLine
 10
5940.013878267349
 20
2287.931598713262
 30
0.0
 11
5892.013878267348
 21
2287.931598713262
 31
0.0
  0
LINE
  5
16F65
330
747D
100
AcDbEntity
  8
破線
 48
5.0
100
AcDbLine
 10
4728.013878267346
 20
2287.931598713267
 30
0.0
 11
4680.013878267345
 21
2287.931598713267
 31
0.0
  0
LINE
  5
16F66
330
747D
100
AcDbEntity
  8
部品1
100
AcDbLine
 10
4625.013878267347
 20
4512.931598713259
 30
0.0
 11
5995.013878267347
 21
4512.931598713263
 31
0.0
  0
LINE
  5
16F67
330
747D
100
AcDbEntity
  8
細線
100
AcDbLine
 10
4728.013878267343
 20
3782.93159871326
 30
0.0
 11
5892.013878267346
 21
3782.93159871326
 31
0.0
  0
LINE
  5
16F68
330
747D
100
AcDbEntity
  8
細線
100
AcDbLine
 10
4728.013878267343
 20
3132.931598713261
 30
0.0
 11
5892.013878267346
 21
3132.931598713261
 31
0.0
  0
LINE
  5
16F69
330
747D
100
AcDbEntity
  8
細線
100
AcDbLine
 10
4728.013878267343
 20
3197.931598713262
 30
0.0
 11
5892.013878267346
 21
3197.931598713262
 31
0.0
  0
LINE
  5
16F6A
330
747D
100
AcDbEntity
  8
細線
100
AcDbLine
 10
4728.013878267343
 20
3262.931598713262
 30
0.0
 11
5892.013878267346
 21
3262.931598713262
 31
0.0
  0
LINE
  5
16F6B
330
747D
100
AcDbEntity
  8
細線
100
AcDbLine
 10
4728.013878267343
 20
3327.931598713262
 30
0.0
 11
5892.013878267346
 21
3327.931598713262
 31
0.0
  0
LINE
  5
16F6C
330
747D
100
AcDbEntity
  8
細線
100
AcDbLine
 10
4728.013878267343
 20
3392.931598713261
 30
0.0
 11
5892.013878267346
 21
3392.931598713261
 31
0.0
  0
LINE
  5
16F6D
330
747D
100
AcDbEntity
  8
細線
100
AcDbLine
 10
4728.013878267343
 20
3457.931598713262
 30
0.0
 11
5892.013878267346
 21
3457.931598713262
 31
0.0
  0
LINE
  5
16F6E
330
747D
100
AcDbEntity
  8
細線
100
AcDbLine
 10
4728.013878267343
 20
3522.931598713262
 30
0.0
 11
5892.013878267346
 21
3522.931598713262
 31
0.0
  0
LINE
  5
16F6F
330
747D
100
AcDbEntity
  8
細線
100
AcDbLine
 10
4728.013878267343
 20
3587.931598713261
 30
0.0
 11
5892.013878267346
 21
3587.931598713261
 31
0.0
  0
LINE
  5
16F70
330
747D
100
AcDbEntity
  8
細線
100
AcDbLine
 10
4728.013878267343
 20
3652.931598713261
 30
0.0
 11
5892.013878267346
 21
3652.931598713261
 31
0.0
  0
LINE
  5
16F71
330
747D
100
AcDbEntity
  8
細線
100
AcDbLine
 10
4728.013878267343
 20
3717.93159871326
 30
0.0
 11
5892.013878267346
 21
3717.93159871326
 31
0.0
  0
LINE
  5
16F72
330
747D
100
AcDbEntity
  8
細線
100
AcDbLine
 10
4728.013878267343
 20
2547.931598713262
 30
0.0
 11
5892.013878267346
 21
2547.931598713262
 31
0.0
  0
LINE
  5
16F73
330
747D
100
AcDbEntity
  8
細線
100
AcDbLine
 10
4728.013878267343
 20
2612.931598713262
 30
0.0
 11
5892.013878267346
 21
2612.931598713262
 31
0.0
  0
LINE
  5
16F74
330
747D
100
AcDbEntity
  8
細線
100
AcDbLine
 10
4728.013878267343
 20
2677.931598713261
 30
0.0
 11
5892.013878267346
 21
2677.931598713261
 31
0.0
  0
LINE
  5
16F75
330
747D
100
AcDbEntity
  8
細線
100
AcDbLine
 10
4728.013878267343
 20
2742.931598713262
 30
0.0
 11
5892.013878267346
 21
2742.931598713262
 31
0.0
  0
LINE
  5
16F76
330
747D
100
AcDbEntity
  8
細線
100
AcDbLine
 10
4728.013878267343
 20
2807.931598713262
 30
0.0
 11
5892.013878267346
 21
2807.931598713262
 31
0.0
  0
LINE
  5
16F77
330
747D
100
AcDbEntity
  8
細線
100
AcDbLine
 10
4728.013878267343
 20
2872.931598713261
 30
0.0
 11
5892.013878267346
 21
2872.931598713261
 31
0.0
  0
LINE
  5
16F78
330
747D
100
AcDbEntity
  8
細線
100
AcDbLine
 10
4728.013878267343
 20
2937.931598713261
 30
0.0
 11
5892.013878267346
 21
2937.931598713261
 31
0.0
  0
LINE
  5
16F79
330
747D
100
AcDbEntity
  8
細線
100
AcDbLine
 10
4728.013878267343
 20
3002.931598713261
 30
0.0
 11
5892.013878267346
 21
3002.931598713261
 31
0.0
  0
LINE
  5
16F7A
330
747D
100
AcDbEntity
  8
細線
100
AcDbLine
 10
4728.013878267343
 20
3067.931598713262
 30
0.0
 11
5892.013878267346
 21
3067.931598713262
 31
0.0
  0
LINE
  5
16F7B
330
747D
100
AcDbEntity
  8
細線
100
AcDbLine
 10
5892.013878267348
 20
2547.931598713262
 30
0.0
 11
4728.013878267342
 21
2547.931598713262
 31
0.0
  0
ARC
  5
16FC3
330
747D
100
AcDbEntity
  8
細線
 48
50.0
100
AcDbCircle
 10
5010.01387826735
 20
3100.431598713262
 30
0.0
 40
15.0
100
AcDbArc
 50
90.0
 51
270.0
  0
ARC
  5
16FC4
330
747D
100
AcDbEntity
  8
細線
 48
50.0
100
AcDbCircle
 10
5110.013878267349
 20
3100.431598713262
 30
0.0
 40
15.0
100
AcDbArc
 50
270.0
 51
90.0
  0
LINE
  5
16FC5
330
747D
100
AcDbEntity
  8
細線
 48
50.0
100
AcDbLine
 10
5010.01387826735
 20
3115.431598713261
 30
0.0
 11
5110.013878267349
 21
3115.431598713261
 31
0.0
  0
LINE
  5
16FC6
330
747D
100
AcDbEntity
  8
細線
 48
50.0
100
AcDbLine
 10
5110.013878267349
 20
3085.431598713262
 30
0.0
 11
5010.01387826735
 21
3085.431598713262
 31
0.0
  0
LINE
  5
16FC7
330
747D
100
AcDbEntity
  8
細線
 48
50.0
100
AcDbLine
 10
5610.013878267349
 20
3085.431598713262
 30
0.0
 11
5510.01387826735
 21
3085.431598713262
 31
0.0
  0
LINE
  5
16FC8
330
747D
100
AcDbEntity
  8
細線
 48
50.0
100
AcDbLine
 10
5510.01387826735
 20
3115.431598713261
 30
0.0
 11
5610.013878267349
 21
3115.431598713261
 31
0.0
  0
ARC
  5
16FC9
330
747D
100
AcDbEntity
  8
細線
 48
50.0
100
AcDbCircle
 10
5510.01387826735
 20
3100.431598713262
 30
0.0
 40
15.0
100
AcDbArc
 50
90.0
 51
270.0
  0
ARC
  5
16FCA
330
747D
100
AcDbEntity
  8
細線
 48
50.0
100
AcDbCircle
 10
5610.013878267349
 20
3100.431598713262
 30
0.0
 40
15.0
100
AcDbArc
 50
270.0
 51
90.0
  0
CIRCLE
  5
16FCB
330
747D
100
AcDbEntity
  8
細線
 48
50.0
100
AcDbCircle
 10
5310.01387826735
 20
3425.431598713262
 30
0.0
 40
18.0
  0
DIMENSION
  5
16FDF
330
747D
100
AcDbEntity
  8
寸法
 48
50.0
100
AcDbDimension
  2
*D14
 10
6045.013878267347
 20
5518.56679165926
 30
0.0
 11
5310.013878267348
 21
5518.56679165926
 31
0.0
 70
   160
 71
     5
 42
1469.999999999998
  3
INABA_S40G
100
AcDbAlignedDimension
 13
4575.013878267349
 23
4912.931598713267
 33
0.0
 14
6045.013878267347
 24
4912.931598713264
 34
0.0
100
AcDbRotatedDimension
  0
DIMENSION
  5
16FE0
330
747D
100
AcDbEntity
  8
寸法
 48
50.0
100
AcDbDimension
  2
*D15
 10
5995.013878267349
 20
5318.657870445171
 30
0.0
 11
6358.499159641586
 21
5318.657870445171
 31
0.0
 70
   160
 71
     5
 42
49.99999999999818
  3
INABA_S40G
100
AcDbAlignedDimension
 13
6045.013878267347
 23
4912.931598713264
 33
0.0
 14
5995.013878267349
 24
4912.931598713267
 34
0.0
100
AcDbRotatedDimension
  0
DIMENSION
  5
16FE1
330
747D
100
AcDbEntity
  8
寸法
 48
50.0
100
AcDbDimension
  2
*D16
 10
4575.013878267349
 20
5318.657870445171
 30
0.0
 11
4261.528596893102
 21
5318.657870445171
 31
0.0
 70
   160
 71
     5
 42
50.0
  3
INABA_S40G
100
AcDbAlignedDimension
 13
4625.013878267349
 23
4912.931598713267
 33
0.0
 14
4575.013878267349
 24
4912.931598713267
 34
0.0
100
AcDbRotatedDimension
1001
ACAD
1000
DSTYLE
1002
{
1002
}
  0
DIMENSION
  5
16FE2
330
747D
100
AcDbEntity
  8
寸法
 48
50.0
100
AcDbDimension
  2
*D17
 10
4625.013878267349
 20
5318.657870445171
 30
0.0
 11
5313.606418635202
 21
5318.657870445171
 31
0.0
 70
   160
  1
柱外寸法<>
 71
     5
 42
1370.0
  3
INABA_S40G
100
AcDbAlignedDimension
 13
5995.013878267349
 23
4912.931598713267
 33
0.0
 14
4625.013878267349
 24
4912.931598713267
 34
0.0
100
AcDbRotatedDimension
  0
LINE
  5
16FE3
330
747D
100
AcDbEntity
  8
部品1
 48
50.0
100
AcDbLine
 10
6037.605457160917
 20
4912.931598713266
 30
0.0
 11
4582.422299373781
 21
4912.931598713267
 31
0.0
  0
LINE
  5
16FE4
330
747D
100
AcDbEntity
  8
部品1
 48
50.0
100
AcDbLine
 10
6024.390133699882
 20
4771.931598713268
 30
0.0
 11
4595.637622834813
 21
4771.931598713268
 31
0.0
  0
LINE
  5
16FE5
330
747D
100
AcDbEntity
  8
細線
 48
50.0
100
AcDbLine
 10
6042.974340045908
 20
4884.931598713266
 30
0.0
 11
4577.053416488792
 21
4884.931598713264
 31
0.0
  0
LINE
  5
16FE6
330
747D
100
AcDbEntity
  8
細線
 48
50.0
100
AcDbLine
 10
6034.738309521071
 20
4792.731598713263
 30
0.0
 11
4585.28944701362
 21
4792.731598713267
 31
0.0
  0
LINE
  5
16FE7
330
747D
100
AcDbEntity
  8
部品1
100
AcDbLine
 10
6044.594217252015
 20
4905.535073318027
 30
0.0
 11
6043.460819919668
 21
4885.558945335427
 31
0.0
  0
LINE
  5
16FE8
330
747D
100
AcDbEntity
  8
細線
 48
50.0
100
AcDbLine
 10
6012.013878267348
 20
4912.931598713266
 30
0.0
 11
6012.013878267348
 21
4771.931598713265
 31
0.0
  0
LINE
  5
16FE9
330
747D
100
AcDbEntity
  8
細線
 48
50.0
100
AcDbLine
 10
4608.013878267349
 20
4912.931598713266
 30
0.0
 11
4608.013878267349
 21
4771.931598713265
 31
0.0
  0
LINE
  5
16FEA
330
747D
100
AcDbEntity
  8
部品1
100
AcDbLine
 10
6032.023799598092
 20
4789.901538168367
 30
0.0
 11
6031.378893790981
 21
4778.535073318026
 31
0.0
  0
LINE
  5
16FEB
330
747D
100
AcDbEntity
  8
部品1
100
AcDbLine
 10
6040.259830122938
 20
4882.101538168369
 30
0.0
 11
6035.224789394826
 21
4793.358945335424
 31
0.0
  0
ARC
  5
16FEC
330
747D
100
AcDbEntity
  8
部品1
 48
50.0
100
AcDbCircle
 10
6043.255013019123
 20
4881.931598713268
 30
0.0
 40
3.0
100
AcDbArc
 50
97.65812720736519
 51
176.7526572096623
  0
ARC
  5
16FED
330
747D
100
AcDbEntity
  8
部品1
 48
50.0
100
AcDbCircle
 10
6035.018982494278
 20
4789.731598713263
 30
0.0
 40
3.0
100
AcDbArc
 50
97.65812720736519
 51
176.7526572096623
  0
ARC
  5
16FEE
330
747D
100
AcDbEntity
  8
部品1
 48
50.0
100
AcDbCircle
 10
6034.525913385718
 20
4793.398597874949
 30
0.0
 40
0.7
100
AcDbArc
 50
277.6581272073652
 51
356.7526572096623
  0
ARC
  5
16FEF
330
747D
100
AcDbEntity
  8
部品1
 48
50.0
100
AcDbCircle
 10
6042.76194391056
 20
4885.598597874952
 30
0.0
 40
0.7
100
AcDbArc
 50
277.6581272073652
 51
356.7526572096103
  0
ARC
  5
16FF0
330
747D
100
AcDbEntity
  8
部品1
100
AcDbCircle
 10
6024.390133699882
 20
4778.931598713268
 30
0.0
 40
7.0
100
AcDbArc
 50
270.0
 51
356.7526572096623
  0
ARC
  5
16FF1
330
747D
100
AcDbEntity
  8
部品1
100
AcDbCircle
 10
6037.605457160917
 20
4905.931598713266
 30
0.0
 40
7.0
100
AcDbArc
 50
356.7526572096623
 51
90.0
  0
ARC
  5
16FF2
330
747D
100
AcDbEntity
  8
部品1
100
AcDbCircle
 10
4582.422299373781
 20
4905.931598713266
 30
0.0
 40
7.0
100
AcDbArc
 50
90.0
 51
183.2473427903377
  0
ARC
  5
16FF3
330
747D
100
AcDbEntity
  8
部品1
100
AcDbCircle
 10
4595.637622834813
 20
4778.931598713268
 30
0.0
 40
7.0
100
AcDbArc
 50
183.2473427903377
 51
270.0
  0
ARC
  5
16FF4
330
747D
100
AcDbEntity
  8
部品1
 48
50.0
100
AcDbCircle
 10
4577.265812624136
 20
4885.598597874952
 30
0.0
 40
0.7
100
AcDbArc
 50
183.2473427903897
 51
262.3418727926349
  0
ARC
  5
16FF5
330
747D
100
AcDbEntity
  8
部品1
 48
50.0
100
AcDbCircle
 10
4585.501843148978
 20
4793.398597874949
 30
0.0
 40
0.7
100
AcDbArc
 50
183.2473427903377
 51
262.3418727926349
  0
ARC
  5
16FF6
330
747D
100
AcDbEntity
  8
部品1
 48
50.0
100
AcDbCircle
 10
4585.008774040416
 20
4789.731598713263
 30
0.0
 40
3.0
100
AcDbArc
 50
3.247342790337682
 51
82.3418727926348
  0
ARC
  5
16FF7
330
747D
100
AcDbEntity
  8
部品1
 48
50.0
100
AcDbCircle
 10
4576.772743515574
 20
4881.931598713268
 30
0.0
 40
3.0
100
AcDbArc
 50
3.247342790337682
 51
82.3418727926348
  0
LINE
  5
16FF8
330
747D
100
AcDbEntity
  8
部品1
100
AcDbLine
 10
4579.767926411757
 20
4882.101538168369
 30
0.0
 11
4584.802967139869
 21
4793.358945335424
 31
0.0
  0
LINE
  5
16FF9
330
747D
100
AcDbEntity
  8
部品1
100
AcDbLine
 10
4588.003956936606
 20
4789.901538168367
 30
0.0
 11
4588.648862743713
 21
4778.535073318026
 31
0.0
  0
LINE
  5
16FFA
330
747D
100
AcDbEntity
  8
部品1
100
AcDbLine
 10
4575.433539282681
 20
4905.535073318027
 30
0.0
 11
4576.566936615028
 21
4885.558945335427
 31
0.0
  0
ARC
  5
16FFB
330
747D
100
AcDbEntity
  8
部品1
 48
0.01
100
AcDbCircle
 10
5532.013878267349
 20
4710.431598713261
 30
0.0
 40
2.0
100
AcDbArc
 50
180.0
 51
270.0
  0
ARC
  5
16FFC
330
747D
100
AcDbEntity
  8
部品1
 48
0.01
100
AcDbCircle
 10
5532.013878267347
 20
4741.93159871326
 30
0.0
 40
2.0
100
AcDbArc
 50
90.0
 51
180.0
  0
ARC
  5
16FFD
330
747D
100
AcDbEntity
  8
部品1
 48
0.01
100
AcDbCircle
 10
5708.013878267347
 20
4710.431598713261
 30
0.0
 40
2.0
100
AcDbArc
 50
270.0
 51
0.0
  0
ARC
  5
16FFE
330
747D
100
AcDbEntity
  8
部品1
 48
0.01
100
AcDbCircle
 10
5708.013878267347
 20
4741.93159871326
 30
0.0
 40
2.0
100
AcDbArc
 50
0.0
 51
90.0
  0
LINE
  5
16FFF
330
747D
100
AcDbEntity
  8
細線
100
AcDbLine
 10
5620.013878267349
 20
4714.43159871326
 30
0.0
 11
5546.013878267348
 21
4714.43159871326
 31
0.0
  0
LINE
  5
17000
330
747D
100
AcDbEntity
  8
細線
100
AcDbLine
 10
5620.013878267347
 20
4737.43159871326
 30
0.0
 11
5694.013878267348
 21
4737.43159871326
 31
0.0
  0
LINE
  5
17001
330
747D
100
AcDbEntity
  8
細線
100
AcDbLine
 10
5694.013878267348
 20
4714.43159871326
 30
0.0
 11
5620.013878267347
 21
4714.43159871326
 31
0.0
  0
LINE
  5
17002
330
747D
100
AcDbEntity
  8
細線
100
AcDbLine
 10
5546.013878267348
 20
4737.43159871326
 30
0.0
 11
5620.013878267347
 21
4737.43159871326
 31
0.0
  0
LINE
  5
17003
330
747D
100
AcDbEntity
  8
細線
100
AcDbLine
 10
5546.013878267348
 20
4714.43159871326
 30
0.0
 11
5546.013878267348
 21
4737.43159871326
 31
0.0
  0
LINE
  5
17004
330
747D
100
AcDbEntity
  8
細線
100
AcDbLine
 10
5694.013878267348
 20
4737.43159871326
 30
0.0
 11
5694.013878267348
 21
4714.43159871326
 31
0.0
  0
LINE
  5
17005
330
747D
100
AcDbEntity
  8
部品1
 48
0.01
100
AcDbLine
 10
5530.013878267349
 20
4710.431598713261
 30
0.0
 11
5530.013878267348
 21
4741.93159871326
 31
0.0
  0
LINE
  5
17006
330
747D
100
AcDbEntity
  8
部品1
 48
0.01
100
AcDbLine
 10
5708.013878267347
 20
4708.43159871326
 30
0.0
 11
5532.013878267349
 21
4708.43159871326
 31
0.0
  0
LINE
  5
17007
330
747D
100
AcDbEntity
  8
部品1
 48
0.01
100
AcDbLine
 10
5710.013878267347
 20
4741.93159871326
 30
0.0
 11
5710.013878267347
 21
4710.431598713261
 31
0.0
  0
LINE
  5
17008
330
747D
100
AcDbEntity
  8
部品1
 48
0.01
100
AcDbLine
 10
5532.013878267347
 20
4743.93159871326
 30
0.0
 11
5708.013878267347
 21
4743.93159871326
 31
0.0
  0
LINE
  5
17009
330
747D
100
AcDbEntity
  8
細線
100
AcDbLine
 10
5694.013878267348
 20
4731.43159871326
 30
0.0
 11
5620.013878267347
 21
4731.43159871326
 31
0.0
  0
LINE
  5
1700A
330
747D
100
AcDbEntity
  8
細線
100
AcDbLine
 10
5694.013878267348
 20
4725.43159871326
 30
0.0
 11
5620.013878267347
 21
4725.43159871326
 31
0.0
  0
LINE
  5
1700B
330
747D
100
AcDbEntity
  8
細線
100
AcDbLine
 10
5694.013878267349
 20
4719.43159871326
 30
0.0
 11
5620.013878267347
 21
4719.43159871326
 31
0.0
  0
LINE
  5
1700C
330
747D
100
AcDbEntity
  8
細線
100
AcDbLine
 10
5694.013878267348
 20
4731.43159871326
 30
0.0
 11
5625.013878267347
 21
4731.43159871326
 31
0.0
  0
LINE
  5
1700D
330
747D
100
AcDbEntity
  8
細線
100
AcDbLine
 10
5546.013878267349
 20
4731.43159871326
 30
0.0
 11
5620.013878267347
 21
4731.43159871326
 31
0.0
  0
LINE
  5
1700E
330
747D
100
AcDbEntity
  8
細線
100
AcDbLine
 10
5546.013878267349
 20
4719.43159871326
 30
0.0
 11
5620.013878267347
 21
4719.43159871326
 31
0.0
  0
LINE
  5
1700F
330
747D
100
AcDbEntity
  8
細線
100
AcDbLine
 10
5546.013878267349
 20
4725.43159871326
 30
0.0
 11
5620.013878267347
 21
4725.43159871326
 31
0.0
  0
LINE
  5
17010
330
747D
100
AcDbEntity
  8
細線
100
AcDbLine
 10
5620.013878267347
 20
4737.43159871326
 30
0.0
 11
5620.013878267349
 21
4714.43159871326
 31
0.0
  0
LINE
  5
17011
330
747D
100
AcDbEntity
  8
細線
100
AcDbLine
 10
5000.013878267349
 20
4737.43159871326
 30
0.0
 11
5000.013878267347
 21
4714.43159871326
 31
0.0
  0
LINE
  5
17012
330
747D
100
AcDbEntity
  8
細線
100
AcDbLine
 10
5074.013878267347
 20
4725.43159871326
 30
0.0
 11
5000.013878267349
 21
4725.43159871326
 31
0.0
  0
LINE
  5
17013
330
747D
100
AcDbEntity
  8
細線
100
AcDbLine
 10
5074.013878267347
 20
4719.43159871326
 30
0.0
 11
5000.013878267349
 21
4719.43159871326
 31
0.0
  0
LINE
  5
17014
330
747D
100
AcDbEntity
  8
細線
100
AcDbLine
 10
5074.013878267347
 20
4731.43159871326
 30
0.0
 11
5000.013878267349
 21
4731.43159871326
 31
0.0
  0
LINE
  5
17015
330
747D
100
AcDbEntity
  8
細線
100
AcDbLine
 10
4926.013878267349
 20
4731.43159871326
 30
0.0
 11
4995.013878267349
 21
4731.43159871326
 31
0.0
  0
LINE
  5
17016
330
747D
100
AcDbEntity
  8
細線
100
AcDbLine
 10
4926.013878267347
 20
4719.43159871326
 30
0.0
 11
5000.013878267349
 21
4719.43159871326
 31
0.0
  0
LINE
  5
17017
330
747D
100
AcDbEntity
  8
細線
100
AcDbLine
 10
4926.013878267349
 20
4725.43159871326
 30
0.0
 11
5000.013878267349
 21
4725.43159871326
 31
0.0
  0
LINE
  5
17018
330
747D
100
AcDbEntity
  8
細線
100
AcDbLine
 10
4926.013878267349
 20
4731.43159871326
 30
0.0
 11
5000.013878267349
 21
4731.43159871326
 31
0.0
  0
LINE
  5
17019
330
747D
100
AcDbEntity
  8
部品1
 48
0.01
100
AcDbLine
 10
5088.01387826735
 20
4743.93159871326
 30
0.0
 11
4912.013878267349
 21
4743.93159871326
 31
0.0
  0
LINE
  5
1701A
330
747D
100
AcDbEntity
  8
部品1
 48
0.01
100
AcDbLine
 10
4910.013878267349
 20
4741.93159871326
 30
0.0
 11
4910.013878267349
 21
4710.431598713261
 31
0.0
  0
LINE
  5
1701B
330
747D
100
AcDbEntity
  8
部品1
 48
0.01
100
AcDbLine
 10
4912.013878267349
 20
4708.43159871326
 30
0.0
 11
5088.013878267347
 21
4708.43159871326
 31
0.0
  0
LINE
  5
1701C
330
747D
100
AcDbEntity
  8
部品1
 48
0.01
100
AcDbLine
 10
5090.013878267348
 20
4710.431598713261
 30
0.0
 11
5090.013878267349
 21
4741.93159871326
 31
0.0
  0
LINE
  5
1701D
330
747D
100
AcDbEntity
  8
細線
100
AcDbLine
 10
4926.013878267349
 20
4737.43159871326
 30
0.0
 11
4926.013878267349
 21
4714.43159871326
 31
0.0
  0
LINE
  5
1701E
330
747D
100
AcDbEntity
  8
細線
100
AcDbLine
 10
5074.01387826735
 20
4714.43159871326
 30
0.0
 11
5074.01387826735
 21
4737.43159871326
 31
0.0
  0
LINE
  5
1701F
330
747D
100
AcDbEntity
  8
細線
100
AcDbLine
 10
5074.01387826735
 20
4737.43159871326
 30
0.0
 11
5000.013878267349
 21
4737.43159871326
 31
0.0
  0
LINE
  5
17020
330
747D
100
AcDbEntity
  8
細線
100
AcDbLine
 10
4926.013878267349
 20
4714.43159871326
 30
0.0
 11
5000.013878267349
 21
4714.43159871326
 31
0.0
  0
LINE
  5
17021
330
747D
100
AcDbEntity
  8
細線
100
AcDbLine
 10
5000.013878267349
 20
4737.43159871326
 30
0.0
 11
4926.013878267349
 21
4737.43159871326
 31
0.0
  0
LINE
  5
17022
330
747D
100
AcDbEntity
  8
細線
100
AcDbLine
 10
5000.013878267347
 20
4714.43159871326
 30
0.0
 11
5074.01387826735
 21
4714.43159871326
 31
0.0
  0
ARC
  5
17023
330
747D
100
AcDbEntity
  8
部品1
 48
0.01
100
AcDbCircle
 10
4912.013878267349
 20
4741.93159871326
 30
0.0
 40
2.0
100
AcDbArc
 50
90.0
 51
180.0
  0
ARC
  5
17024
330
747D
100
AcDbEntity
  8
部品1
 48
0.01
100
AcDbCircle
 10
4912.013878267349
 20
4710.431598713261
 30
0.0
 40
2.0
100
AcDbArc
 50
180.0
 51
270.0
  0
ARC
  5
17025
330
747D
100
AcDbEntity
  8
部品1
 48
0.01
100
AcDbCircle
 10
5088.01387826735
 20
4741.93159871326
 30
0.0
 40
2.0
100
AcDbArc
 50
0.0
 51
90.0
  0
ARC
  5
17026
330
747D
100
AcDbEntity
  8
部品1
 48
0.01
100
AcDbCircle
 10
5088.013878267347
 20
4710.431598713261
 30
0.0
 40
2.0
100
AcDbArc
 50
270.0
 51
0.0
  0
DIMENSION
  5
1757A
330
747D
100
AcDbEntity
  8
寸法
100
AcDbDimension
  2
*D18
 10
7778.44052247371
 20
2587.931598713256
 30
0.0
 11
7678.428711450087
 21
3632.931598713258
 31
0.0
 70
    32
 71
     5
 42
2090.000000000001
  3
INABA_S40G
100
AcDbAlignedDimension
 13
8622.190651656969
 23
4677.931598713256
 33
0.0
 14
8622.190651656969
 24
2587.931598713256
 34
0.0
 50
90.0
100
AcDbRotatedDimension
1001
ACAD
1000
DSTYLE
1002
{
1070
   174
1070
     0
1070
   272
1070
     1
1070
   288
1070
     0
1070
   341
1005
0
1002
}
  0
DIMENSION
  5
1757B
330
747D
100
AcDbEntity
  8
寸法
100
AcDbDimension
  2
*D19
 10
7478.44052247371
 20
4912.93159871326
 30
0.0
 11
7378.428711450087
 21
3725.431598713259
 31
0.0
 70
    32
 71
     5
 42
2375.000000000005
  3
INABA_S40G
100
AcDbAlignedDimension
 13
8622.190651656969
 23
2537.931598713256
 33
0.0
 14
8562.190651656969
 24
4912.93159871326
 34
0.0
 50
90.0
100
AcDbRotatedDimension
1001
ACAD
1000
DSTYLE
1002
{
1070
   174
1070
     0
1070
   272
1070
     1
1070
   288
1070
     0
1070
   341
1005
0
1002
}
  0
DIMENSION
  5
1757C
330
747D
100
AcDbEntity
  8
寸法
100
AcDbDimension
  2
*D20
 10
11957.1178096291
 20
4857.931598713264
 30
0.0
 11
11857.10599860547
 21
3697.931598713265
 31
0.0
 70
    32
 71
     5
 42
2320.000000000002
  3
INABA_S40G
100
AcDbAlignedDimension
 13
11252.19065165697
 23
2537.931598713263
 33
0.0
 14
11332.19065165697
 24
4857.931598713264
 34
0.0
 50
90.0
100
AcDbRotatedDimension
1001
ACAD
1000
DSTYLE
1002
{
1070
   174
1070
     0
1070
   272
1070
     1
1070
   288
1070
     0
1070
   341
1005
0
1002
}
  0
LINE
  5
1757D
330
747D
100
AcDbEntity
  8
細線
 48
50.0
100
AcDbLine
 10
10699.69065165697
 20
4677.93159871326
 30
0.0
 11
10699.69065165697
 21
2587.931598713263
 31
0.0
  0
LINE
  5
1757E
330
747D
100
AcDbEntity
  8
細線
 48
50.0
100
AcDbLine
 10
10714.69065165697
 20
4677.93159871326
 30
0.0
 11
10714.69065165697
 21
2587.931598713263
 31
0.0
  0
LINE
  5
1757F
330
747D
100
AcDbEntity
  8
細線
 48
50.0
100
AcDbLine
 10
10574.69065165697
 20
4677.93159871326
 30
0.0
 11
10574.69065165697
 21
2587.931598713263
 31
0.0
  0
LINE
  5
17580
330
747D
100
AcDbEntity
  8
細線
 48
50.0
100
AcDbLine
 10
10559.69065165697
 20
4677.93159871326
 30
0.0
 11
10559.69065165697
 21
2587.931598713263
 31
0.0
  0
LINE
  5
17581
330
747D
100
AcDbEntity
  8
細線
 48
50.0
100
AcDbLine
 10
10419.69065165697
 20
4677.93159871326
 30
0.0
 11
10419.69065165697
 21
2587.931598713263
 31
0.0
  0
LINE
  5
17582
330
747D
100
AcDbEntity
  8
細線
 48
50.0
100
AcDbLine
 10
10434.69065165697
 20
4677.93159871326
 30
0.0
 11
10434.69065165697
 21
2587.931598713263
 31
0.0
  0
LINE
  5
17583
330
747D
100
AcDbEntity
  8
部品1
100
AcDbLine
 10
10357.19065165696
 20
4677.93159871326
 30
0.0
 11
10357.19065165696
 21
2587.931598713263
 31
0.0
  0
LINE
  5
17584
330
747D
100
AcDbEntity
  8
部品1
100
AcDbLine
 10
9797.41578208621
 20
5038.135986676278
 30
0.0
 11
10122.87079572924
 21
5020.617927717418
 31
0.0
  0
ARC
  5
17585
330
747D
100
AcDbEntity
  8
部品1
100
AcDbCircle
 10
11317.81818747091
 20
4751.955355979053
 30
0.0
 40
0.7
100
AcDbArc
 50
275.0921697642102
 51
354.1866997667606
  0
ARC
  5
17586
330
747D
100
AcDbEntity
  8
部品1
100
AcDbCircle
 10
11328.67753322023
 20
4828.998610796977
 30
0.0
 40
0.7
100
AcDbArc
 50
275.0921697642102
 51
354.1866997665532
  0
ARC
  5
17587
330
747D
100
AcDbEntity
  8
部品1
100
AcDbCircle
 10
11329.00593846283
 20
4825.313213939891
 30
0.0
 40
3.0
100
AcDbArc
 50
95.0921697642102
 51
174.1866997665532
  0
ARC
  5
17588
330
747D
100
AcDbEntity
  8
部品1
100
AcDbCircle
 10
11318.1465927135
 20
4748.269959121963
 30
0.0
 40
3.0
100
AcDbArc
 50
95.0921697642102
 51
174.1866997665532
  0
ARC
  5
17589
330
747D
100
AcDbEntity
  8
部品1
 48
50.0
100
AcDbCircle
 10
11307.1184574384
 20
4738.679214518083
 30
0.0
 40
7.0
100
AcDbArc
 50
267.8377559869492
 51
354.1866997665532
  0
ARC
  5
1758A
330
747D
100
AcDbEntity
  8
部品1
 48
50.0
100
AcDbCircle
 10
11324.44055390291
 20
4849.581761660257
 30
0.0
 40
7.0
100
AcDbArc
 50
354.1866997665532
 51
87.03587545283093
  0
LINE
  5
1758B
330
747D
100
AcDbEntity
  8
部品1
 48
50.0
100
AcDbLine
 10
11315.1620210429
 20
4748.573820838867
 30
0.0
 11
11314.08245800316
 21
4737.97020384531
 31
0.0
  0
LINE
  5
1758C
330
747D
100
AcDbEntity
  8
部品1
 48
50.0
100
AcDbLine
 10
11326.02136679222
 20
4825.617075656791
 30
0.0
 11
11318.51458752738
 21
4751.884454911781
 31
0.0
  0
LINE
  5
1758D
330
747D
100
AcDbEntity
  8
部品1
 48
50.0
100
AcDbLine
 10
11331.40455446767
 20
4848.87275098748
 30
0.0
 11
11329.3739332767
 21
4828.9277097297
 31
0.0
  0
ARC
  5
1758E
330
747D
100
AcDbEntity
  8
部品1
100
AcDbCircle
 10
8568.227743528336
 20
4791.745757672167
 30
0.0
 40
0.7
100
AcDbArc
 50
181.0932240293156
 51
260.1877540314845
  0
ARC
  5
1758F
330
747D
100
AcDbEntity
  8
部品1
100
AcDbCircle
 10
8563.455069930725
 20
4884.611535872284
 30
0.0
 40
0.7
100
AcDbArc
 50
181.0932240292114
 51
260.1877540314845
  0
ARC
  5
17590
330
747D
100
AcDbEntity
  8
部品1
100
AcDbCircle
 10
8562.824515527704
 20
4880.965661334887
 30
0.0
 40
3.0
100
AcDbArc
 50
1.093224029315636
 51
80.18775403169875
  0
ARC
  5
17591
330
747D
100
AcDbEntity
  8
部品1
100
AcDbCircle
 10
8567.59718912531
 20
4788.099883134766
 30
0.0
 40
3.0
100
AcDbArc
 50
1.093224029315636
 51
80.18775403169875
  0
ARC
  5
17592
330
747D
100
AcDbEntity
  8
部品1
 48
50.0
100
AcDbCircle
 10
8577.797321500511
 20
4777.707639752286
 30
0.0
 40
7.0
100
AcDbArc
 50
181.0932240293156
 51
267.8377559869492
  0
ARC
  5
17593
330
747D
100
AcDbEntity
  8
部品1
 48
50.0
100
AcDbCircle
 10
8569.373663398415
 20
4904.658699285384
 30
0.0
 40
7.0
100
AcDbArc
 50
87.03587545283093
 51
181.0932240293156
  0
LINE
  5
17594
330
747D
100
AcDbEntity
  8
部品1
 48
50.0
100
AcDbLine
 10
8570.596643051741
 20
4788.157120737952
 30
0.0
 11
8570.798595672171
 21
4777.574085344858
 31
0.0
  0
LINE
  5
17595
330
747D
100
AcDbEntity
  8
細線
 48
50.0
100
AcDbLine
 10
8567.990549995069
 20
4791.087168856759
 30
0.0
 11
11317.99421442571
 21
4751.277849882265
 31
0.0
  0
LINE
  5
17596
330
747D
100
AcDbEntity
  8
細線
 48
50.0
100
AcDbLine
 10
8563.230074757782
 20
4883.948680554625
 30
0.0
 11
11328.86605950295
 21
4828.324475913795
 31
0.0
  0
LINE
  5
17597
330
747D
100
AcDbEntity
  8
部品1
 48
50.0
100
AcDbLine
 10
8565.823969454134
 20
4881.02289893807
 30
0.0
 11
8567.527870945498
 21
4791.732402231423
 31
0.0
  0
LINE
  5
17598
330
747D
100
AcDbEntity
  8
部品1
 48
50.0
100
AcDbLine
 10
8562.374937570075
 20
4904.525144877955
 30
0.0
 11
8562.755197347888
 21
4884.598180431544
 31
0.0
  0
LINE
  5
17599
330
747D
100
AcDbEntity
  8
細線
 48
50.0
100
AcDbLine
 10
11299.15993485066
 20
4857.08502119273
 30
0.0
 11
11294.44296876897
 21
4732.152805257813
 31
0.0
  0
LINE
  5
1759A
330
747D
100
AcDbEntity
  8
細線
 48
50.0
100
AcDbLine
 10
8595.190651656968
 20
4910.331275088668
 30
0.0
 11
8589.901550101462
 21
4770.24564246131
 31
0.0
  0
LINE
  5
1759B
330
747D
100
AcDbEntity
  8
部品1
100
AcDbLine
 10
8577.533216258922
 20
4770.712623782229
 30
0.0
 11
11306.85435219682
 21
4731.684198548022
 31
0.0
  0
LINE
  5
1759C
330
747D
100
AcDbEntity
  8
部品1
100
AcDbLine
 10
8569.735638013932
 20
4911.649334047528
 30
0.0
 11
11324.80252851844
 21
4856.5723964224
 31
0.0
  0
LINE
  5
1759D
330
747D
100
AcDbEntity
  8
部品1
 48
50.0
100
AcDbLine
 10
9822.870795729247
 20
5036.817927717419
 30
0.0
 11
10122.87079572924
 21
5036.817927717419
 31
0.0
  0
LINE
  5
1759E
330
747D
100
AcDbEntity
  8
部品1
 48
50.0
100
AcDbLine
 10
10122.87079572924
 20
5036.817927717419
 30
0.0
 11
10122.87079572924
 21
5020.617927717418
 31
0.0
  0
TEXT
  5
1759F
330
747D
100
AcDbEntity
  8
部品1
 48
50.0
100
AcDbText
 10
9811.138630952974
 20
5072.701949869853
 30
0.0
 40
120.0
  1
1000
  7
STYLE1
100
AcDbText
  0
TEXT
  5
175A0
330
747D
100
AcDbEntity
  8
部品1
 48
50.0
100
AcDbText
 10
10288.77165361806
 20
4935.20069165157
 30
0.0
 40
120.0
  1
37
 50
90.0
  7
STYLE1
100
AcDbText
  0
LINE
  5
175A1
330
747D
100
AcDbEntity
  8
細線
 48
50.0
100
AcDbLine
 10
10014.69065165697
 20
4677.93159871326
 30
0.0
 11
10014.69065165697
 21
2587.931598713261
 31
0.0
  0
LINE
  5
175A2
330
747D
100
AcDbEntity
  8
細線
 48
50.0
100
AcDbLine
 10
9999.690651656969
 20
4677.93159871326
 30
0.0
 11
9999.690651656969
 21
2587.931598713261
 31
0.0
  0
LINE
  5
175A3
330
747D
100
AcDbEntity
  8
細線
 48
50.0
100
AcDbLine
 10
10139.69065165697
 20
4677.93159871326
 30
0.0
 11
10139.69065165697
 21
2587.931598713261
 31
0.0
  0
LINE
  5
175A4
330
747D
100
AcDbEntity
  8
細線
 48
50.0
100
AcDbLine
 10
10154.69065165697
 20
4677.93159871326
 30
0.0
 11
10154.69065165697
 21
2587.931598713261
 31
0.0
  0
LINE
  5
175A5
330
747D
100
AcDbEntity
  8
細線
 48
50.0
100
AcDbLine
 10
10294.69065165697
 20
4677.93159871326
 30
0.0
 11
10294.69065165697
 21
2587.931598713261
 31
0.0
  0
LINE
  5
175A6
330
747D
100
AcDbEntity
  8
細線
 48
50.0
100
AcDbLine
 10
10279.69065165697
 20
4677.93159871326
 30
0.0
 11
10279.69065165697
 21
2587.931598713261
 31
0.0
  0
LINE
  5
175A7
330
747D
100
AcDbEntity
  8
部品1
100
AcDbLine
 10
10777.19065165697
 20
4677.93159871326
 30
0.0
 11
10777.19065165697
 21
2587.931598713263
 31
0.0
  0
LINE
  5
175A8
330
747D
100
AcDbEntity
  8
部品1
100
AcDbLine
 10
8622.190651656969
 20
4677.93159871326
 30
0.0
 11
11252.19065165697
 21
4677.93159871326
 31
0.0
  0
LINE
  5
175A9
330
747D
100
AcDbEntity
  8
部品1
100
AcDbLine
 10
8677.190651656966
 20
2587.93159871326
 30
0.0
 11
11252.19065165697
 21
2587.931598713263
 31
0.0
  0
LINE
  5
175AA
330
747D
100
AcDbEntity
  8
部品1
100
AcDbLine
 10
8677.190651656969
 20
4677.93159871326
 30
0.0
 11
8677.190651656969
 21
2437.931598713265
 31
0.0
  0
LINE
  5
175AB
330
747D
100
AcDbEntity
  8
部品1
100
AcDbLine
 10
8622.190651656969
 20
4770.074036642141
 30
0.0
 11
8622.190651656969
 21
2437.931598713261
 31
0.0
  0
DIMENSION
  5
175AC
330
747D
100
AcDbEntity
  8
寸法
100
AcDbDimension
  2
*D21
 10
7778.44052247371
 20
2537.931598713262
 30
0.0
 11
7778.44052247371
 21
2231.884354618771
 31
0.0
 70
   160
 71
     5
 42
50.0
  3
INABA_S40G
100
AcDbAlignedDimension
 13
8622.190651656969
 23
2587.931598713261
 33
0.0
 14
8567.19065165697
 24
2537.931598713262
 34
0.0
 50
90.0
100
AcDbRotatedDimension
1001
ACAD
1000
DSTYLE
1002
{
1070
   174
1070
     0
1070
   272
1070
     1
1070
   288
1070
     0
1070
   341
1005
0
1002
}
  0
LINE
  5
175AD
330
747D
100
AcDbEntity
  8
部品1
100
AcDbLine
 10
9097.190651656969
 20
4677.93159871326
 30
0.0
 11
9097.190651656969
 21
2587.931598713261
 31
0.0
  0
LINE
  5
175AE
330
747D
100
AcDbEntity
  8
部品1
100
AcDbLine
 10
11252.19065165697
 20
4732.465872101001
 30
0.0
 11
11252.19065165697
 21
2437.931598713263
 31
0.0
  0
LINE
  5
175AF
330
747D
100
AcDbEntity
  8
部品1
100
AcDbLine
 10
11197.19065165697
 20
4677.93159871326
 30
0.0
 11
11197.19065165697
 21
2587.931598713263
 31
0.0
  0
DIMENSION
  5
175B0
330
747D
100
AcDbEntity
  8
寸法
 48
50.0
100
AcDbDimension
  2
*D22
 10
8622.190651656969
 20
5311.589052292568
 30
0.0
 11
9937.190651656969
 21
5311.589052292568
 31
0.0
 70
   160
  1
柱外寸法<>
 71
     5
 42
2630.0
  3
INABA_S40G
100
AcDbAlignedDimension
 13
11252.19065165697
 23
4859.742278324915
 33
0.0
 14
8622.190651656969
 24
4908.933216836238
 34
0.0
100
AcDbRotatedDimension
1001
ACAD
1000
DSTYLE
1002
{
1070
   174
1070
     0
1070
   272
1070
     1
1070
   288
1070
     0
1070
   341
1005
0
1002
}
  0
DIMENSION
  5
175B1
330
747D
100
AcDbEntity
  8
寸法
 48
50.0
100
AcDbDimension
  2
*D23
 10
8562.190651656969
 20
5311.589052292564
 30
0.0
 11
8252.552856381379
 21
5311.589052292564
 31
0.0
 70
   160
 71
     5
 42
60.0
  3
INABA_S40G
100
AcDbAlignedDimension
 13
8622.190651656969
 23
4908.933216836238
 33
0.0
 14
8562.190651656969
 24
4912.931598713267
 34
0.0
100
AcDbRotatedDimension
1001
ACAD
1000
DSTYLE
1002
{
1070
   174
1070
     0
1070
   272
1070
     1
1070
   288
1070
     0
1070
   341
1005
0
1002
}
  0
DIMENSION
  5
175B2
330
747D
100
AcDbEntity
  8
寸法
 48
50.0
100
AcDbDimension
  2
*D24
 10
8562.190651656969
 20
5531.799739024183
 30
0.0
 11
9947.190651656969
 21
5531.799739024183
 31
0.0
 70
   160
 71
     5
 42
2770.0
  3
INABA_S40G
100
AcDbAlignedDimension
 13
11332.19065165697
 23
4857.931598713264
 33
0.0
 14
8562.190651656969
 24
4912.931598713267
 34
0.0
100
AcDbRotatedDimension
1001
ACAD
1000
DSTYLE
1002
{
1070
   174
1070
     0
1070
   272
1070
     1
1070
   288
1070
     0
1070
   341
1005
0
1002
}
  0
LINE
  5
175B3
330
747D
100
AcDbEntity
  8
部品1
100
AcDbLine
 10
8677.190651656969
 20
2537.931598713261
 30
0.0
 11
11252.19065165697
 21
2537.931598713262
 31
0.0
  0
LINE
  5
175B4
330
747D
100
AcDbEntity
  8
細線
 48
50.0
100
AcDbLine
 10
9174.69065165697
 20
4677.93159871326
 30
0.0
 11
9174.69065165697
 21
2587.931598713261
 31
0.0
  0
LINE
  5
175B5
330
747D
100
AcDbEntity
  8
細線
 48
50.0
100
AcDbLine
 10
9159.690651656969
 20
4677.93159871326
 30
0.0
 11
9159.690651656969
 21
2587.931598713261
 31
0.0
  0
LINE
  5
175B6
330
747D
100
AcDbEntity
  8
細線
 48
50.0
100
AcDbLine
 10
9299.69065165697
 20
4677.93159871326
 30
0.0
 11
9299.69065165697
 21
2587.931598713261
 31
0.0
  0
LINE
  5
175B7
330
747D
100
AcDbEntity
  8
細線
 48
50.0
100
AcDbLine
 10
9314.690651656968
 20
4677.93159871326
 30
0.0
 11
9314.690651656968
 21
2587.931598713261
 31
0.0
  0
LINE
  5
175B8
330
747D
100
AcDbEntity
  8
細線
 48
50.0
100
AcDbLine
 10
9454.690651656969
 20
4677.93159871326
 30
0.0
 11
9454.690651656969
 21
2587.931598713261
 31
0.0
  0
LINE
  5
175B9
330
747D
100
AcDbEntity
  8
細線
 48
50.0
100
AcDbLine
 10
9439.690651656968
 20
4677.93159871326
 30
0.0
 11
9439.690651656968
 21
2587.931598713261
 31
0.0
  0
LINE
  5
175BA
330
747D
100
AcDbEntity
  8
細線
 48
50.0
100
AcDbLine
 10
9019.690651656969
 20
4677.93159871326
 30
0.0
 11
9019.690651656969
 21
2587.931598713261
 31
0.0
  0
LINE
  5
175BB
330
747D
100
AcDbEntity
  8
細線
 48
50.0
100
AcDbLine
 10
9034.690651656969
 20
4677.93159871326
 30
0.0
 11
9034.690651656969
 21
2587.931598713261
 31
0.0
  0
LINE
  5
175BC
330
747D
100
AcDbEntity
  8
細線
 48
50.0
100
AcDbLine
 10
8894.690651656969
 20
4677.93159871326
 30
0.0
 11
8894.690651656969
 21
2587.931598713261
 31
0.0
  0
LINE
  5
175BD
330
747D
100
AcDbEntity
  8
細線
 48
50.0
100
AcDbLine
 10
8879.69065165697
 20
4677.93159871326
 30
0.0
 11
8879.69065165697
 21
2587.931598713261
 31
0.0
  0
LINE
  5
175BE
330
747D
100
AcDbEntity
  8
細線
 48
50.0
100
AcDbLine
 10
8739.690651656969
 20
4677.93159871326
 30
0.0
 11
8739.690651656969
 21
2587.931598713261
 31
0.0
  0
LINE
  5
175BF
330
747D
100
AcDbEntity
  8
細線
 48
50.0
100
AcDbLine
 10
8754.69065165697
 20
4677.93159871326
 30
0.0
 11
8754.69065165697
 21
2587.931598713261
 31
0.0
  0
DIMENSION
  5
175C0
330
747D
100
AcDbEntity
  8
寸法
 48
50.0
100
AcDbDimension
  2
*D25
 10
11332.19065165697
 20
5311.589052292568
 30
0.0
 11
11538.23789575146
 21
5311.589052292568
 31
0.0
 70
   160
 71
     5
 42
80.0
  3
INABA_S40G
100
AcDbAlignedDimension
 13
11252.19065165697
 23
4859.742278324915
 33
0.0
 14
11332.19065165697
 24
4857.931598713264
 34
0.0
100
AcDbRotatedDimension
1001
ACAD
1000
DSTYLE
1002
{
1070
   174
1070
     0
1070
   272
1070
     1
1070
   288
1070
     0
1070
   341
1005
0
1002
}
  0
LINE
  5
175C1
330
747D
100
AcDbEntity
  8
部品1
100
AcDbLine
 10
9517.190651656969
 20
4677.93159871326
 30
0.0
 11
9517.190651656969
 21
2587.931598713261
 31
0.0
  0
LINE
  5
175C2
330
747D
100
AcDbEntity
  8
細線
 48
50.0
100
AcDbLine
 10
9859.690651656968
 20
4677.93159871326
 30
0.0
 11
9859.690651656968
 21
2587.931598713261
 31
0.0
  0
LINE
  5
175C3
330
747D
100
AcDbEntity
  8
細線
 48
50.0
100
AcDbLine
 10
9874.690651656969
 20
4677.93159871326
 30
0.0
 11
9874.690651656969
 21
2587.931598713261
 31
0.0
  0
LINE
  5
175C4
330
747D
100
AcDbEntity
  8
細線
 48
50.0
100
AcDbLine
 10
9734.690651656968
 20
4677.93159871326
 30
0.0
 11
9734.690651656974
 21
2587.931598713261
 31
0.0
  0
LINE
  5
175C5
330
747D
100
AcDbEntity
  8
細線
 48
50.0
100
AcDbLine
 10
9719.69065165697
 20
4677.93159871326
 30
0.0
 11
9719.690651656973
 21
2587.931598713261
 31
0.0
  0
LINE
  5
175C6
330
747D
100
AcDbEntity
  8
細線
 48
50.0
100
AcDbLine
 10
9579.690651656969
 20
4677.93159871326
 30
0.0
 11
9579.690651656973
 21
2587.931598713261
 31
0.0
  0
LINE
  5
175C7
330
747D
100
AcDbEntity
  8
細線
 48
50.0
100
AcDbLine
 10
9594.69065165697
 20
4677.93159871326
 30
0.0
 11
9594.690651656973
 21
2587.931598713261
 31
0.0
  0
LINE
  5
175C8
330
747D
100
AcDbEntity
  8
部品1
100
AcDbLine
 10
9937.190651656969
 20
4677.93159871326
 30
0.0
 11
9937.190651656969
 21
2587.931598713261
 31
0.0
  0
LINE
  5
175C9
330
747D
100
AcDbEntity
  8
細線
 48
50.0
100
AcDbLine
 10
10854.69065165697
 20
4677.93159871326
 30
0.0
 11
10854.69065165697
 21
2587.931598713263
 31
0.0
  0
LINE
  5
175CA
330
747D
100
AcDbEntity
  8
細線
 48
50.0
100
AcDbLine
 10
10839.69065165697
 20
4677.93159871326
 30
0.0
 11
10839.69065165697
 21
2587.931598713263
 31
0.0
  0
LINE
  5
175CB
330
747D
100
AcDbEntity
  8
細線
 48
50.0
100
AcDbLine
 10
10979.69065165697
 20
4677.93159871326
 30
0.0
 11
10979.69065165697
 21
2587.931598713263
 31
0.0
  0
LINE
  5
175CC
330
747D
100
AcDbEntity
  8
細線
 48
50.0
100
AcDbLine
 10
10994.69065165697
 20
4677.93159871326
 30
0.0
 11
10994.69065165697
 21
2587.931598713263
 31
0.0
  0
LINE
  5
175CD
330
747D
100
AcDbEntity
  8
細線
 48
50.0
100
AcDbLine
 10
11134.69065165697
 20
4677.93159871326
 30
0.0
 11
11134.69065165697
 21
2587.931598713263
 31
0.0
  0
LINE
  5
175CE
330
747D
100
AcDbEntity
  8
細線
 48
50.0
100
AcDbLine
 10
11119.69065165697
 20
4677.93159871326
 30
0.0
 11
11119.69065165697
 21
2587.931598713263
 31
0.0
  0
DIMENSION
  5
175CF
330
747D
100
AcDbEntity
  8
寸法
 48
50.0
100
AcDbDimension
  2
*D26
 10
8001.582244888593
 20
4787.276857586594
 30
0.0
 11
8012.247720147518
 21
5158.123520828292
 31
0.0
 70
   161
 71
     5
 42
140.9999999999991
  3
INABA_S40G
100
AcDbAlignedDimension
 13
8581.586671815548
 23
4911.654347547941
 33
0.0
 14
8577.533216258922
 24
4770.712623782229
 34
0.0
1001
ACAD
1000
DSTYLE
1002
{
1070
   174
1070
     0
1070
   272
1070
     1
1070
   288
1070
     0
1070
   341
1005
0
1002
}
  0
LINE
  5
175D5
330
747D
100
AcDbEntity
  8
破線
 48
5.0
100
AcDbLine
 10
8622.190651656969
 20
2437.931598713261
 30
0.0
 11
8622.190651656969
 21
2187.931598713261
 31
0.0
  0
LINE
  5
175D6
330
747D
100
AcDbEntity
  8
破線
 48
5.0
100
AcDbLine
 10
8677.190651656969
 20
2437.931598713261
 30
0.0
 11
8677.190651656969
 21
2187.931598713261
 31
0.0
  0
LINE
  5
175D7
330
747D
100
AcDbEntity
  8
破線
 48
5.0
100
AcDbLine
 10
8622.190651656969
 20
2187.931598713261
 30
0.0
 11
8677.190651656969
 21
2187.931598713261
 31
0.0
  0
LINE
  5
175D8
330
747D
100
AcDbEntity
  8
部品1
100
AcDbLine
 10
8622.190651656969
 20
2537.931598713262
 30
0.0
 11
8229.193437448122
 21
2437.931598713261
 31
0.0
  0
LWPOLYLINE
  5
17668
330
747D
100
AcDbEntity
  8
部品1
100
AcDbPolyline
 90
        4
 70
     1
 43
0.0
 10
9565.455318542751
 20
1787.931598713271
 10
9565.455318542751
 20
1548.039277167739
 10
10328.92598477119
 20
1548.039277167739
 10
10328.92598477119
 20
1787.931598713271
  0
TEXT
  5
17669
330
747D
100
AcDbEntity
  8
部品1
100
AcDbText
 10
9653.473498134196
 20
1595.038069494747
 30
0.0
 40
135.0
  1
側面図
  7
MSGOTHIC
100
AcDbText
  0
DIMENSION
  5
17C11
330
747D
100
AcDbEntity
  8
寸法
 48
50.0
100
AcDbDimension
  2
*D27
 10
6282.556980589093
 20
4485.93159871326
 30
0.0
 11
6182.556980589093
 21
3511.931598713262
 31
0.0
 70
    32
  1
有効開口部高サ <>
 71
     5
 42
1948.0
  3
INABA_S40G
100
AcDbAlignedDimension
 13
5995.013878267347
 23
2537.931598713262
 33
0.0
 14
5995.013878267347
 24
4485.931598713261
 34
0.0
 50
90.0
100
AcDbRotatedDimension
  0
DIMENSION
  5
17C12
330
747D
100
AcDbEntity
  8
寸法
 48
50.0
100
AcDbDimension
  2
*D28
 10
6282.556980589093
 20
4512.931598713262
 30
0.0
 11
6422.726803835459
 21
4513.89879855292
 31
0.0
 70
   160
 71
     5
 42
27.00000000000182
  3
INABA_S40G
100
AcDbAlignedDimension
 13
5995.013878267347
 23
4485.931598713261
 33
0.0
 14
5995.013878267347
 24
4512.931598713263
 34
0.0
 50
90.0
100
AcDbRotatedDimension
1001
ACAD
1000
DSTYLE
1002
{
1070
   279
1070
     2
1002
}
  0
DIMENSION
  5
17C13
330
747D
100
AcDbEntity
  8
寸法
 48
50.0
100
AcDbDimension
  2
*D29
 10
6282.556980589095
 20
4677.93159871326
 30
0.0
 11
6282.556980589093
 21
4916.4168800875
 31
0.0
 70
   160
 71
     5
 42
164.9999999999982
  3
INABA_S40G
100
AcDbAlignedDimension
 13
5995.013878267347
 23
4512.931598713263
 33
0.0
 14
5995.013878267347
 24
4677.931598713261
 34
0.0
 50
90.0
100
AcDbRotatedDimension
1001
ACAD
1000
DSTYLE
1002
{
1002
}
  0
TEXT
  5
17D5C
330
747D
100
AcDbEntity
  8
文字
 62
     7
 48
50.0
100
AcDbText
 10
15022.63965474517
 20
10760.01374588372
 30
0.0
 40
100.0
  1
F12         1.0,1.2
  7
STYLE1
100
AcDbText
  0
TEXT
  5
17D5F
330
747D
100
AcDbEntity
  8
文字
 62
     7
 48
50.0
100
AcDbText
 10
15022.63965474516
 20
9230.013745883725
 30
0.0
 40
100.0
  1
F12            0.7
  7
STYLE1
100
AcDbText
  0
ENDSEC
  0
SECTION
  2
OBJECTS
  0
DICTIONARY
  5
7471
330
0
100
AcDbDictionary
281
     1
  3
ACAD_COLOR
350
166AE
  3
ACAD_GROUP
350
7472
  3
ACAD_LAYOUT
350
166AF
  3
ACAD_MATERIAL
350
166AD
  3
ACAD_MLINESTYLE
350
7473
  3
ACAD_PLOTSETTINGS
350
166B0
  3
ACAD_PLOTSTYLENAME
350
166AB
  3
ACDBHEADERROUNDTRIPXREC
350
17DD8
  3
AcDbVariableDictionary
350
16A78
  3
CONTENTDICTIONARY
350
E71C
  3
DRAWINGVARIABLESDICT
350
F3B9
  0
DICTIONARY
  5
16DAA
330
7467
100
AcDbDictionary
280
     1
281
     1
  3
ACAD_LAYERSTATES
360
16DAB
  0
DICTIONARY
  5
166AE
102
{ACAD_REACTORS
330
7471
102
}
330
7471
100
AcDbDictionary
281
     1
  0
DICTIONARY
  5
7472
102
{ACAD_REACTORS
330
7471
102
}
330
7471
100
AcDbDictionary
281
     1
  0
DICTIONARY
  5
166AF
102
{ACAD_REACTORS
330
7471
102
}
330
7471
100
AcDbDictionary
281
     1
  3
Model
350
166B1
  3
レイアウト1
350
166B2
  0
DICTIONARY
  5
166AD
102
{ACAD_REACTORS
330
7471
102
}
330
7471
100
AcDbDictionary
281
     1
  0
DICTIONARY
  5
7473
102
{ACAD_REACTORS
330
7471
102
}
330
7471
100
AcDbDictionary
281
     1
  3
STANDARD
350
7480
  0
DICTIONARY
  5
166B0
102
{ACAD_REACTORS
330
7471
102
}
330
7471
100
AcDbDictionary
281
     1
  0
ACDBDICTIONARYWDFLT
  5
166AB
102
{ACAD_REACTORS
330
7471
102
}
330
7471
100
AcDbDictionary
281
     1
  3
Normal
350
166AC
100
AcDbDictionaryWithDefault
340
166AC
  0
DICTIONARY
  5
17DD8
102
{ACAD_REACTORS
330
7471
102
}
330
7471
100
AcDbDictionary
281
     1
  3
COLORDICT
350
17DDA
  3
MATERIALDICT
350
17DD9
  0
DICTIONARY
  5
16A78
102
{ACAD_REACTORS
330
7471
102
}
330
7471
100
AcDbDictionary
281
     1
  3
DIMASSOC
350
16A79
  3
PROJECTNAME
350
16A7A
  0
DICTIONARY
  5
E71C
102
{ACAD_REACTORS
330
7471
102
}
330
7471
100
AcDbDictionary
281
     1
  0
DICTIONARY
  5
F3B9
102
{ACAD_REACTORS
330
7471
102
}
330
7471
100
AcDbDictionary
281
     1
1001
DRAWINGVARIABLESXDATA
1000
POLARMODE
1000
1
  0
DICTIONARY
  5
16DAB
102
{ACAD_REACTORS
330
16DAA
102
}
330
16DAA
100
AcDbDictionary
281
     1
  0
LAYOUT
  5
166B1
102
{ACAD_XDICTIONARY
360
17DDB
102
}
102
{ACAD_REACTORS
330
166AF
102
}
330
166AF
100
AcDbPlotSettings
  1

  2
Canon iR C3880/C4580 LIPSLX
  4
A3
  6

 40
5.873749732971191
 41
5.873747825622558
 42
5.873748779296875
 43
5.873748779296875
 44
296.9259948730469
 45
419.9466552734374
 46
0.0
 47
0.0
 48
0.0
 49
0.0
140
0.0
141
0.0
142
1.0
143
40.0
 70
 11952
 72
     1
 73
     1
 74
     2
  7
inaba.ctb
 75
    24
147
0.025
148
0.0
149
0.0
100
AcDbLayout
  1
Model
 70
     1
 71
     0
 10
0.0
 20
0.0
 11
12.0
 21
9.0
 12
0.0
 22
0.0
 32
0.0
 14
0.0
 24
0.0
 34
0.0
 15
0.0
 25
0.0
 35
0.0
146
0.0
 13
0.0
 23
0.0
 33
0.0
 16
1.0
 26
0.0
 36
0.0
 17
0.0
 27
1.0
 37
0.0
 76
     0
330
747D
  0
LAYOUT
  5
166B2
102
{ACAD_XDICTIONARY
360
17DDD
102
}
102
{ACAD_REACTORS
330
166AF
102
}
330
166AF
100
AcDbPlotSettings
  1

  2
EPSON LP-7000C
  4

  6

 40
0.0
 41
0.0
 42
0.0
 43
0.0
 44
0.0
 45
0.0
 46
0.0
 47
0.0
 48
0.0
 49
0.0
140
0.0
141
0.0
142
1.0
143
1.0
 70
   688
 72
     0
 73
     0
 74
     5
  7
inaba.ctb
 75
    16
147
1.0
148
0.0
149
0.0
100
AcDbLayout
  1
レイアウト1
 70
     0
 71
     1
 10
0.0
 20
0.0
 11
420.0
 21
297.0
 12
0.0
 22
0.0
 32
0.0
 14
1.000000000000000E+20
 24
1.000000000000000E+20
 34
1.000000000000000E+20
 15
-1.000000000000000E+20
 25
-1.000000000000000E+20
 35
-1.000000000000000E+20
146
0.0
 13
0.0
 23
0.0
 33
0.0
 16
1.0
 26
0.0
 36
0.0
 17
0.0
 27
1.0
 37
0.0
 76
     0
330
747A
  0
MLINESTYLE
  5
7480
102
{ACAD_REACTORS
330
7473
102
}
330
7473
100
AcDbMlineStyle
  2
STANDARD
 70
     0
  3

 62
     0
 51
90.0
 52
90.0
 71
     2
 49
0.5
 62
   256
  6
BYLAYER
 49
-0.5
 62
   256
  6
BYLAYER
  0
ACDBPLACEHOLDER
  5
166AC
102
{ACAD_REACTORS
330
166AB
102
}
330
166AB
  0
XRECORD
  5
17DDA
102
{ACAD_REACTORS
330
17DD8
102
}
330
17DD8
100
AcDbXrecord
280
     1
340
166AE
  0
XRECORD
  5
17DD9
102
{ACAD_REACTORS
330
17DD8
102
}
330
17DD8
100
AcDbXrecord
280
     1
340
166AD
  0
DICTIONARYVAR
  5
16A79
102
{ACAD_REACTORS
330
16A78
102
}
330
16A78
100
DictionaryVariables
280
     0
  1
1
  0
DICTIONARYVAR
  5
16A7A
102
{ACAD_REACTORS
330
16A78
102
}
330
16A78
100
DictionaryVariables
280
     0
  1

  0
DICTIONARY
  5
17DDB
330
166B1
100
AcDbDictionary
280
     1
281
     1
  3
ACAD_XREC_ROUNDTRIP
360
17DDC
  0
DICTIONARY
  5
17DDD
330
166B2
100
AcDbDictionary
280
     1
281
     1
  3
ACAD_XREC_ROUNDTRIP
360
17DDE
  0
XRECORD
  5
17DDC
102
{ACAD_REACTORS
330
17DDB
102
}
330
17DDB
100
AcDbXrecord
280
     1
102
SHADEPLOT
 70
     0
102
SHADEPLOTRESLEVEL
 70
     2
102
SHADEPLOTCUSTOMDPI
 70
   300
  0
XRECORD
  5
17DDE
102
{ACAD_REACTORS
330
17DDD
102
}
330
17DDD
100
AcDbXrecord
280
     1
102
SHADEPLOT
 70
     0
102
SHADEPLOTRESLEVEL
 70
     2
102
SHADEPLOTCUSTOMDPI
 70
   300
  0
ENDSEC
  0
EOF
