  0
SECTION
  2
HEADER
  9
$ACADVER
  1
AC1015
  9
$ACADMAINTVER
 70
    20
  9
$DWGCODEPAGE
  3
ANSI_932
  9
$INSBASE
 10
0.0
 20
0.0
 30
0.0
  9
$EXTMIN
 10
139.9999999999995
 20
-0.0000000000000909
 30
0.0
  9
$EXTMAX
 10
16307.2
 20
11409.6
 30
0.0
  9
$LIMMIN
 10
0.0
 20
0.0
  9
$LIMMAX
 10
16800.0
 20
11880.0
  9
$ORTHOMODE
 70
     0
  9
$REGENMODE
 70
     1
  9
$FILLMODE
 70
     1
  9
$QTEXTMODE
 70
     0
  9
$MIRRTEXT
 70
     1
  9
$LTSCALE
 40
20.0
  9
$ATTMODE
 70
     1
  9
$TEXTSIZE
 40
4.0
  9
$TRACEWID
 40
1.0
  9
$TEXTSTYLE
  7
MSPゴシック
  9
$CLAYER
  8
寸法
  9
$CELTYPE
  6
BYLAYER
  9
$CECOLOR
 62
   256
  9
$CELTSCALE
 40
50.0
  9
$DISPSILH
 70
     0
  9
$DIMSCALE
 40
40.0
  9
$DIMASZ
 40
2.5
  9
$DIMEXO
 40
0.5
  9
$DIMDLI
 40
7.0
  9
$DIMRND
 40
0.0
  9
$DIMDLE
 40
0.0
  9
$DIMEXE
 40
1.5
  9
$DIMTP
 40
0.0
  9
$DIMTM
 40
0.0
  9
$DIMTXT
 40
3.0
  9
$DIMCEN
 40
0.0
  9
$DIMTSZ
 40
0.0
  9
$DIMTOL
 70
     0
  9
$DIMLIM
 70
     0
  9
$DIMTIH
 70
     0
  9
$DIMTOH
 70
     0
  9
$DIMSE1
 70
     0
  9
$DIMSE2
 70
     0
  9
$DIMTAD
 70
     3
  9
$DIMZIN
 70
     8
  9
$DIMBLK
  1

  9
$DIMASO
 70
     1
  9
$DIMSHO
 70
     1
  9
$DIMPOST
  1

  9
$DIMAPOST
  1

  9
$DIMALT
 70
     0
  9
$DIMALTD
 70
     2
  9
$DIMALTF
 40
0.0394
  9
$DIMLFAC
 40
1.0
  9
$DIMTOFL
 70
     1
  9
$DIMTVP
 40
0.0
  9
$DIMTIX
 70
     1
  9
$DIMSOXD
 70
     0
  9
$DIMSAH
 70
     1
  9
$DIMBLK1
  1
DOTSMALL
  9
$DIMBLK2
  1
DOTSMALL
  9
$DIMSTYLE
  2
INABA_S40G
  9
$DIMCLRD
 70
     0
  9
$DIMCLRE
 70
     0
  9
$DIMCLRT
 70
     7
  9
$DIMTFAC
 40
1.0
  9
$DIMGAP
 40
1.0
  9
$DIMJUST
 70
     0
  9
$DIMSD1
 70
     0
  9
$DIMSD2
 70
     0
  9
$DIMTOLJ
 70
     1
  9
$DIMTZIN
 70
     0
  9
$DIMALTZ
 70
     0
  9
$DIMALTTZ
 70
     0
  9
$DIMUPT
 70
     0
  9
$DIMDEC
 70
     1
  9
$DIMTDEC
 70
     4
  9
$DIMALTU
 70
     2
  9
$DIMALTTD
 70
     2
  9
$DIMTXSTY
  7
STYLE1
  9
$DIMAUNIT
 70
     0
  9
$DIMADEC
 70
     0
  9
$DIMALTRND
 40
0.0
  9
$DIMAZIN
 70
     0
  9
$DIMDSEP
 70
    46
  9
$DIMATFIT
 70
     3
  9
$DIMFRAC
 70
     0
  9
$DIMLDRBLK
  1

  9
$DIMLUNIT
 70
     2
  9
$DIMLWD
 70
    -2
  9
$DIMLWE
 70
    -2
  9
$DIMTMOVE
 70
     2
  9
$LUNITS
 70
     2
  9
$LUPREC
 70
     1
  9
$SKETCHINC
 40
1.0
  9
$FILLETRAD
 40
3.0
  9
$AUNITS
 70
     0
  9
$AUPREC
 70
     0
  9
$MENU
  1
acad
  9
$ELEVATION
 40
0.0
  9
$PELEVATION
 40
0.0
  9
$THICKNESS
 40
0.0
  9
$LIMCHECK
 70
     0
  9
$CHAMFERA
 40
0.0
  9
$CHAMFERB
 40
0.0
  9
$CHAMFERC
 40
0.0
  9
$CHAMFERD
 40
0.0
  9
$SKPOLY
 70
     0
  9
$TDCREATE
 40
2451368.612993866
  9
$TDUCREATE
 40
2451368.237993866
  9
$TDUPDATE
 40
2455569.643223009
  9
$TDUUPDATE
 40
2455569.268223009
  9
$TDINDWG
 40
0.8930182407
  9
$TDUSRTIMER
 40
0.8930182407
  9
$USRTIMER
 70
     1
  9
$ANGBASE
 50
0.0
  9
$ANGDIR
 70
     0
  9
$PDMODE
 70
     3
  9
$PDSIZE
 40
2.0
  9
$PLINEWID
 40
0.0
  9
$SPLFRAME
 70
     0
  9
$SPLINETYPE
 70
     6
  9
$SPLINESEGS
 70
     8
  9
$HANDSEED
  5
1A435
  9
$SURFTAB1
 70
     6
  9
$SURFTAB2
 70
     6
  9
$SURFTYPE
 70
     6
  9
$SURFU
 70
     6
  9
$SURFV
 70
     6
  9
$UCSBASE
  2

  9
$UCSNAME
  2

  9
$UCSORG
 10
0.0
 20
0.0
 30
0.0
  9
$UCSXDIR
 10
1.0
 20
0.0
 30
0.0
  9
$UCSYDIR
 10
0.0
 20
1.0
 30
0.0
  9
$UCSORTHOREF
  2

  9
$UCSORTHOVIEW
 70
     0
  9
$UCSORGTOP
 10
0.0
 20
0.0
 30
0.0
  9
$UCSORGBOTTOM
 10
0.0
 20
0.0
 30
0.0
  9
$UCSORGLEFT
 10
0.0
 20
0.0
 30
0.0
  9
$UCSORGRIGHT
 10
0.0
 20
0.0
 30
0.0
  9
$UCSORGFRONT
 10
0.0
 20
0.0
 30
0.0
  9
$UCSORGBACK
 10
0.0
 20
0.0
 30
0.0
  9
$PUCSBASE
  2

  9
$PUCSNAME
  2

  9
$PUCSORG
 10
0.0
 20
0.0
 30
0.0
  9
$PUCSXDIR
 10
1.0
 20
0.0
 30
0.0
  9
$PUCSYDIR
 10
0.0
 20
1.0
 30
0.0
  9
$PUCSORTHOREF
  2

  9
$PUCSORTHOVIEW
 70
     0
  9
$PUCSORGTOP
 10
0.0
 20
0.0
 30
0.0
  9
$PUCSORGBOTTOM
 10
0.0
 20
0.0
 30
0.0
  9
$PUCSORGLEFT
 10
0.0
 20
0.0
 30
0.0
  9
$PUCSORGRIGHT
 10
0.0
 20
0.0
 30
0.0
  9
$PUCSORGFRONT
 10
0.0
 20
0.0
 30
0.0
  9
$PUCSORGBACK
 10
0.0
 20
0.0
 30
0.0
  9
$USERI1
 70
     0
  9
$USERI2
 70
     0
  9
$USERI3
 70
     0
  9
$USERI4
 70
     0
  9
$USERI5
 70
     0
  9
$USERR1
 40
0.0
  9
$USERR2
 40
0.0
  9
$USERR3
 40
0.0
  9
$USERR4
 40
0.0
  9
$USERR5
 40
0.0
  9
$WORLDVIEW
 70
     1
  9
$SHADEDGE
 70
     3
  9
$SHADEDIF
 70
    70
  9
$TILEMODE
 70
     1
  9
$MAXACTVP
 70
    16
  9
$PINSBASE
 10
0.0
 20
0.0
 30
0.0
  9
$PLIMCHECK
 70
     0
  9
$PEXTMIN
 10
1.000000000000000E+20
 20
1.000000000000000E+20
 30
1.000000000000000E+20
  9
$PEXTMAX
 10
-1.000000000000000E+20
 20
-1.000000000000000E+20
 30
-1.000000000000000E+20
  9
$PLIMMIN
 10
0.0
 20
0.0
  9
$PLIMMAX
 10
420.0
 20
297.0
  9
$UNITMODE
 70
     0
  9
$VISRETAIN
 70
     0
  9
$PLINEGEN
 70
     0
  9
$PSLTSCALE
 70
     0
  9
$TREEDEPTH
 70
  3020
  9
$CMLSTYLE
  2
STANDARD
  9
$CMLJUST
 70
     0
  9
$CMLSCALE
 40
1.0
  9
$PROXYGRAPHICS
 70
     1
  9
$MEASUREMENT
 70
     1
  9
$CELWEIGHT
370
    -1
  9
$ENDCAPS
280
     0
  9
$JOINSTYLE
280
     0
  9
$LWDISPLAY
290
     0
  9
$INSUNITS
 70
     0
  9
$HYPERLINKBASE
  1

  9
$STYLESHEET
  1
inaba.ctb
  9
$XEDIT
290
     1
  9
$CEPSNTYPE
380
     0
  9
$PSTYLEMODE
290
     1
  9
$FINGERPRINTGUID
  2
{0E4A3AB3-ADAA-44DC-861C-9525B65BB1EC}
  9
$VERSIONGUID
  2
{75F366B0-D5AF-498D-A9F4-AADCB6125CF5}
  9
$EXTNAMES
290
     1
  9
$PSVPSCALE
 40
0.0
  9
$OLESTARTUP
290
     0
  0
ENDSEC
  0
SECTION
  2
CLASSES
  0
CLASS
  1
ACDBDICTIONARYWDFLT
  2
AcDbDictionaryWithDefault
  3
ObjectDBX Classes
 90
        0
280
     0
281
     0
  0
CLASS
  1
DICTIONARYVAR
  2
AcDbDictionaryVar
  3
ObjectDBX Classes
 90
        0
280
     0
281
     0
  0
CLASS
  1
ACDBPLACEHOLDER
  2
AcDbPlaceHolder
  3
ObjectDBX Classes
 90
        0
280
     0
281
     0
  0
CLASS
  1
LAYOUT
  2
AcDbLayout
  3
ObjectDBX Classes
 90
        0
280
     0
281
     0
  0
ENDSEC
  0
SECTION
  2
TABLES
  0
TABLE
  2
VPORT
  5
746D
330
0
100
AcDbSymbolTable
 70
     2
  0
VPORT
  5
1A42D
330
746D
100
AcDbSymbolTableRecord
100
AcDbViewportTableRecord
  2
*Active
 70
     0
 10
0.0
 20
0.0
 11
1.0
 21
1.0
 12
11720.08792708764
 22
5704.778730455632
 13
0.0
 23
0.0
 14
10.0
 24
10.0
 15
10.0
 25
10.0
 16
0.0
 26
0.0
 36
1.0
 17
0.0
 27
0.0
 37
0.0
 40
11513.3867399369
 41
2.234800838574423
 42
50.0
 43
0.0
 44
0.0
 50
0.0
 51
0.0
 71
     0
 72
     0
 73
     1
 74
     0
 75
     0
 76
     0
 77
     0
 78
     0
281
     0
 65
     1
110
0.0
120
0.0
130
0.0
111
1.0
121
0.0
131
0.0
112
0.0
122
1.0
132
0.0
 79
     0
146
0.0
  0
ENDTAB
  0
TABLE
  2
LTYPE
  5
746A
330
0
100
AcDbSymbolTable
 70
     3
  0
LTYPE
  5
7477
330
746A
100
AcDbSymbolTableRecord
100
AcDbLinetypeTableRecord
  2
BYBLOCK
 70
     0
  3

 72
    65
 73
     0
 40
0.0
  0
LTYPE
  5
7478
330
746A
100
AcDbSymbolTableRecord
100
AcDbLinetypeTableRecord
  2
BYLAYER
 70
     0
  3

 72
    65
 73
     0
 40
0.0
  0
LTYPE
  5
7479
330
746A
100
AcDbSymbolTableRecord
100
AcDbLinetypeTableRecord
  2
CONTINUOUS
 70
     0
  3
Solid line
 72
    65
 73
     0
 40
0.0
  0
LTYPE
  5
781A
330
746A
100
AcDbSymbolTableRecord
100
AcDbLinetypeTableRecord
  2
HIDDEN
 70
     0
  3
__ __ __ __ __ __ __ __ __ __ __ __ __ __ __ __
 72
    65
 73
     2
 40
0.375
 49
0.25
 74
     0
 49
-0.125
 74
     0
  0
LTYPE
  5
781B
330
746A
100
AcDbSymbolTableRecord
100
AcDbLinetypeTableRecord
  2
PHANTOM
 70
     0
  3
______  __  __  ______  __  __  ______  __  __ 
 72
    65
 73
     6
 40
2.5
 49
1.25
 74
     0
 49
-0.25
 74
     0
 49
0.25
 74
     0
 49
-0.25
 74
     0
 49
0.25
 74
     0
 49
-0.25
 74
     0
  0
ENDTAB
  0
TABLE
  2
LAYER
  5
7467
102
{ACAD_XDICTIONARY
360
19498
102
}
330
0
100
AcDbSymbolTable
 70
    10
  0
LAYER
  5
7474
330
7467
100
AcDbSymbolTableRecord
100
AcDbLayerTableRecord
  2
0
 70
     0
 62
     7
  6
CONTINUOUS
370
    -3
390
17AE0
  0
LAYER
  5
DEB3
330
7467
100
AcDbSymbolTableRecord
100
AcDbLayerTableRecord
  2
寸法
 70
     0
 62
     4
  6
CONTINUOUS
370
    -3
390
17AE0
  0
LAYER
  5
DEB4
330
7467
100
AcDbSymbolTableRecord
100
AcDbLayerTableRecord
  2
部品1
 70
     0
 62
     7
  6
CONTINUOUS
370
    -3
390
17AE0
  0
LAYER
  5
DEB5
330
7467
100
AcDbSymbolTableRecord
100
AcDbLayerTableRecord
  2
補助
 70
     0
 62
    -1
  6
CONTINUOUS
370
    -3
390
17AE0
  0
LAYER
  5
DEB6
330
7467
100
AcDbSymbolTableRecord
100
AcDbLayerTableRecord
  2
文字
 70
     0
 62
     7
  6
CONTINUOUS
370
    -3
390
17AE0
  0
LAYER
  5
F255
330
7467
100
AcDbSymbolTableRecord
100
AcDbLayerTableRecord
  2
DEFPOINTS
 70
     0
 62
     7
  6
CONTINUOUS
290
     0
370
    -3
390
17AE0
  0
LAYER
  5
10B54
330
7467
100
AcDbSymbolTableRecord
100
AcDbLayerTableRecord
  2
仕様書枠
 70
     0
 62
   230
  6
CONTINUOUS
370
    -3
390
17AE0
  0
LAYER
  5
11729
330
7467
100
AcDbSymbolTableRecord
100
AcDbLayerTableRecord
  2
Ｇ．Ｌ
 70
     0
 62
    30
  6
CONTINUOUS
370
    -3
390
17AE0
  0
LAYER
  5
1173F
330
7467
100
AcDbSymbolTableRecord
100
AcDbLayerTableRecord
  2
細線
 70
     0
 62
     5
  6
CONTINUOUS
370
    -3
390
17AE0
  0
LAYER
  5
142E2
330
7467
100
AcDbSymbolTableRecord
100
AcDbLayerTableRecord
  2
破線
 70
     0
 62
     2
  6
HIDDEN
370
    -3
390
17AE0
  0
ENDTAB
  0
TABLE
  2
STYLE
  5
7468
330
0
100
AcDbSymbolTable
 70
     7
  0
STYLE
  5
7475
330
7468
100
AcDbSymbolTableRecord
100
AcDbTextStyleTableRecord
  2
STANDARD
 70
     0
 40
0.0
 41
1.0
 50
0.0
 71
     0
 42
4.0
  3
txt
  4
C:\AutoCAD LT\bigfont.shx
  0
STYLE
  5
763C
330
7468
100
AcDbSymbolTableRecord
100
AcDbTextStyleTableRecord
  2
MSMINCHO
 70
     0
 40
0.0
 41
1.0
 50
0.0
 71
     0
 42
1.199999999999999
  3
MS PMincho.ttf
  4

1001
ACAD
1000
MS PMincho
1071
    32786
  0
STYLE
  5
F706
330
7468
100
AcDbSymbolTableRecord
100
AcDbTextStyleTableRecord
  2
STYLE1
 70
     0
 40
0.0
 41
1.0
 50
0.0
 71
     0
 42
4.0
  3
isocp.shx
  4
bigfont.shx
  0
STYLE
  5
103BF
330
7468
100
AcDbSymbolTableRecord
100
AcDbTextStyleTableRecord
  2
STYLE2
 70
     0
 40
0.0
 41
1.0
 50
0.0
 71
     0
 42
100.0
  3
MS PGothic.ttf
  4

1001
ACAD
1000
MS PGothic
1071
    32818
  0
STYLE
  5
10BAA
330
7468
100
AcDbSymbolTableRecord
100
AcDbTextStyleTableRecord
  2
STYLE3
 70
     0
 40
0.0
 41
1.0
 50
0.0
 71
     0
 42
100.0
  3
DFPGothic-EB.ttf
  4

1001
ACAD
1000
DFPGothic-EB
1071
    32818
  0
STYLE
  5
11A15
330
7468
100
AcDbSymbolTableRecord
100
AcDbTextStyleTableRecord
  2
MSGOTHIC
 70
     0
 40
0.0
 41
1.0
 50
0.0
 71
     0
 42
3.5
  3
MS PGothic.ttf
  4

1001
ACAD
1000
MS PGothic
1071
    32818
  0
STYLE
  5
13E96
330
7468
100
AcDbSymbolTableRecord
100
AcDbTextStyleTableRecord
  2
MSPゴシック
 70
     0
 40
0.0
 41
1.0
 50
0.0
 71
     0
 42
4.0
  3
MS PGothic.ttf
  4

1001
ACAD
1000
MS PGothic
1071
    32818
  0
ENDTAB
  0
TABLE
  2
VIEW
  5
746B
330
0
100
AcDbSymbolTable
 70
     0
  0
ENDTAB
  0
TABLE
  2
UCS
  5
746C
330
0
100
AcDbSymbolTable
 70
     0
  0
ENDTAB
  0
TABLE
  2
APPID
  5
746E
330
0
100
AcDbSymbolTable
 70
     6
  0
APPID
  5
7476
330
746E
100
AcDbSymbolTableRecord
100
AcDbRegAppTableRecord
  2
ACAD
 70
     0
  0
APPID
  5
DEA9
330
746E
100
AcDbSymbolTableRecord
100
AcDbRegAppTableRecord
  2
CONTENTBLOCKICON
 70
     0
  0
APPID
  5
DEAA
330
746E
100
AcDbSymbolTableRecord
100
AcDbRegAppTableRecord
  2
CONTENTBLOCKDESCRIPTION
 70
     0
  0
APPID
  5
E71D
330
746E
100
AcDbSymbolTableRecord
100
AcDbRegAppTableRecord
  2
CONTENTTABDATA
 70
     0
  0
APPID
  5
E71E
330
746E
100
AcDbSymbolTableRecord
100
AcDbRegAppTableRecord
  2
CONTENTCURRENTTAB
 70
     0
  0
APPID
  5
F3BA
330
746E
100
AcDbSymbolTableRecord
100
AcDbRegAppTableRecord
  2
DRAWINGVARIABLESXDATA
 70
     0
  0
ENDTAB
  0
TABLE
  2
DIMSTYLE
  5
746F
330
0
100
AcDbSymbolTable
 70
     1
100
AcDbDimStyleTable
 71
     1
340
F71F
  0
DIMSTYLE
105
F71F
102
{ACAD_REACTORS
330
162CD
330
162CE
330
162CF
330
162D0
330
162E4
330
162E7
330
162EA
330
162EB
330
16301
330
16302
330
1631F
330
16320
330
16333
330
1659C
330
1659A
330
165E9
330
166DD
330
16913
330
13BF0
330
17BC4
330
17BC3
330
17B87
330
17B88
330
17B86
330
17C47
330
17C46
330
1973E
330
19779
330
1977A
330
1977B
330
19781
330
19782
330
19783
330
19785
330
19794
330
19EDC
330
19EDE
330
1A01D
330
1A1C9
330
1A1CA
330
1A1CB
102
}
330
746F
100
AcDbSymbolTableRecord
100
AcDbDimStyleTableRecord
  2
INABA_S40G
 70
     0
 40
40.0
 41
2.5
 42
0.5
 43
7.0
 44
1.5
 73
     0
 74
     0
 77
     3
 78
     8
140
3.0
141
0.0
143
0.0394
147
1.0
172
     1
173
     1
174
     1
178
     7
271
     1
340
F706
341
F770
343
F770
344
F770
  0
ENDTAB
  0
TABLE
  2
BLOCK_RECORD
  5
7466
330
0
100
AcDbSymbolTable
 70
    42
  0
BLOCK_RECORD
  5
747D
330
7466
100
AcDbSymbolTableRecord
100
AcDbBlockTableRecord
  2
*MODEL_SPACE
340
17AE5
  0
BLOCK_RECORD
  5
747A
330
7466
100
AcDbSymbolTableRecord
100
AcDbBlockTableRecord
  2
*PAPER_SPACE
340
17AE6
  0
BLOCK_RECORD
  5
F770
330
7466
100
AcDbSymbolTableRecord
100
AcDbBlockTableRecord
  2
_DOTSMALL
340
0
102
{BLKREFS
331
1914B
331
1914C
331
19154
331
19155
331
1915F
331
19160
331
19166
331
19167
331
19171
331
19172
331
1917A
331
1917B
331
19183
331
19184
331
1918B
331
1918C
331
19196
331
19197
331
191A0
331
191A1
331
191AB
331
191AC
331
191B6
331
191B7
331
191C0
331
191C1
331
191CB
331
191CC
331
191D4
331
191D5
331
191DF
331
191E0
331
191EB
331
191EC
331
191F6
331
191F7
331
19200
331
19201
331
19211
331
19212
331
1921A
331
1921B
331
19225
331
19226
331
19230
331
19231
331
19239
331
1923A
331
1924E
331
1924F
331
19E5E
331
19E5F
331
19E73
331
19E74
331
19E90
331
19E91
331
19E9A
331
19E9B
331
19EA4
331
19EA5
331
19EAD
331
19EAE
331
19F9F
331
19FA0
331
19FB3
331
19FB4
331
1A036
331
1A037
331
1A040
331
1A041
331
1A06C
331
1A06D
331
1A2EB
331
1A2EC
331
1A3D7
331
1A3D8
331
1A3EC
331
1A3ED
331
1A40D
331
1A40E
331
1A419
331
1A41A
102
}
  0
BLOCK_RECORD
  5
13DA8
330
7466
100
AcDbSymbolTableRecord
100
AcDbBlockTableRecord
  2
*D1
340
0
  0
BLOCK_RECORD
  5
16338
330
7466
100
AcDbSymbolTableRecord
100
AcDbBlockTableRecord
  2
*D2
340
0
  0
BLOCK_RECORD
  5
16344
330
7466
100
AcDbSymbolTableRecord
100
AcDbBlockTableRecord
  2
*D3
340
0
  0
BLOCK_RECORD
  5
16352
330
7466
100
AcDbSymbolTableRecord
100
AcDbBlockTableRecord
  2
*D4
340
0
  0
BLOCK_RECORD
  5
16360
330
7466
100
AcDbSymbolTableRecord
100
AcDbBlockTableRecord
  2
*D5
340
0
  0
BLOCK_RECORD
  5
16384
330
7466
100
AcDbSymbolTableRecord
100
AcDbBlockTableRecord
  2
*D6
340
0
  0
BLOCK_RECORD
  5
1638F
330
7466
100
AcDbSymbolTableRecord
100
AcDbBlockTableRecord
  2
*D7
340
0
  0
BLOCK_RECORD
  5
1639B
330
7466
100
AcDbSymbolTableRecord
100
AcDbBlockTableRecord
  2
*D8
340
0
  0
BLOCK_RECORD
  5
163A9
330
7466
100
AcDbSymbolTableRecord
100
AcDbBlockTableRecord
  2
*D9
340
0
  0
BLOCK_RECORD
  5
163B8
330
7466
100
AcDbSymbolTableRecord
100
AcDbBlockTableRecord
  2
*D10
340
0
  0
BLOCK_RECORD
  5
163C7
330
7466
100
AcDbSymbolTableRecord
100
AcDbBlockTableRecord
  2
*D11
340
0
  0
BLOCK_RECORD
  5
163E1
330
7466
100
AcDbSymbolTableRecord
100
AcDbBlockTableRecord
  2
*D12
340
0
  0
BLOCK_RECORD
  5
163ED
330
7466
100
AcDbSymbolTableRecord
100
AcDbBlockTableRecord
  2
*D13
340
0
  0
BLOCK_RECORD
  5
163FB
330
7466
100
AcDbSymbolTableRecord
100
AcDbBlockTableRecord
  2
*D14
340
0
  0
BLOCK_RECORD
  5
165B5
330
7466
100
AcDbSymbolTableRecord
100
AcDbBlockTableRecord
  2
*D15
340
0
  0
BLOCK_RECORD
  5
165C4
330
7466
100
AcDbSymbolTableRecord
100
AcDbBlockTableRecord
  2
*D16
340
0
  0
BLOCK_RECORD
  5
165EA
330
7466
100
AcDbSymbolTableRecord
100
AcDbBlockTableRecord
  2
*D17
340
0
  0
BLOCK_RECORD
  5
166CF
330
7466
100
AcDbSymbolTableRecord
100
AcDbBlockTableRecord
  2
*D18
340
0
  0
BLOCK_RECORD
  5
16908
330
7466
100
AcDbSymbolTableRecord
100
AcDbBlockTableRecord
  2
*D19
340
0
  0
BLOCK_RECORD
  5
17BC5
330
7466
100
AcDbSymbolTableRecord
100
AcDbBlockTableRecord
  2
*D20
340
0
  0
BLOCK_RECORD
  5
17BD3
330
7466
100
AcDbSymbolTableRecord
100
AcDbBlockTableRecord
  2
*D21
340
0
  0
BLOCK_RECORD
  5
17BDE
330
7466
100
AcDbSymbolTableRecord
100
AcDbBlockTableRecord
  2
*D22
340
0
  0
BLOCK_RECORD
  5
17BEA
330
7466
100
AcDbSymbolTableRecord
100
AcDbBlockTableRecord
  2
*D23
340
0
  0
BLOCK_RECORD
  5
17BF8
330
7466
100
AcDbSymbolTableRecord
100
AcDbBlockTableRecord
  2
*D24
340
0
  0
BLOCK_RECORD
  5
17C48
330
7466
100
AcDbSymbolTableRecord
100
AcDbBlockTableRecord
  2
*D25
340
0
  0
BLOCK_RECORD
  5
17C56
330
7466
100
AcDbSymbolTableRecord
100
AcDbBlockTableRecord
  2
*D26
340
0
  0
BLOCK_RECORD
  5
19924
330
7466
100
AcDbSymbolTableRecord
100
AcDbBlockTableRecord
  2
*D27
340
0
  0
BLOCK_RECORD
  5
19930
330
7466
100
AcDbSymbolTableRecord
100
AcDbBlockTableRecord
  2
*D28
340
0
  0
BLOCK_RECORD
  5
1993D
330
7466
100
AcDbSymbolTableRecord
100
AcDbBlockTableRecord
  2
*D29
340
0
  0
BLOCK_RECORD
  5
1994A
330
7466
100
AcDbSymbolTableRecord
100
AcDbBlockTableRecord
  2
*D30
340
0
  0
BLOCK_RECORD
  5
19958
330
7466
100
AcDbSymbolTableRecord
100
AcDbBlockTableRecord
  2
*D31
340
0
  0
BLOCK_RECORD
  5
19964
330
7466
100
AcDbSymbolTableRecord
100
AcDbBlockTableRecord
  2
*D32
340
0
  0
BLOCK_RECORD
  5
19970
330
7466
100
AcDbSymbolTableRecord
100
AcDbBlockTableRecord
  2
*D33
340
0
  0
BLOCK_RECORD
  5
1998B
330
7466
100
AcDbSymbolTableRecord
100
AcDbBlockTableRecord
  2
*D34
340
0
  0
BLOCK_RECORD
  5
199AF
330
7466
100
AcDbSymbolTableRecord
100
AcDbBlockTableRecord
  2
*D35
340
0
  0
BLOCK_RECORD
  5
19F5E
330
7466
100
AcDbSymbolTableRecord
100
AcDbBlockTableRecord
  2
*D36
340
0
  0
BLOCK_RECORD
  5
19F6C
330
7466
100
AcDbSymbolTableRecord
100
AcDbBlockTableRecord
  2
*D37
340
0
  0
BLOCK_RECORD
  5
1A01E
330
7466
100
AcDbSymbolTableRecord
100
AcDbBlockTableRecord
  2
*D38
340
0
  0
BLOCK_RECORD
  5
1A229
330
7466
100
AcDbSymbolTableRecord
100
AcDbBlockTableRecord
  2
*D39
340
0
  0
BLOCK_RECORD
  5
1A235
330
7466
100
AcDbSymbolTableRecord
100
AcDbBlockTableRecord
  2
*D40
340
0
  0
BLOCK_RECORD
  5
1A243
330
7466
100
AcDbSymbolTableRecord
100
AcDbBlockTableRecord
  2
*D41
340
0
  0
ENDTAB
  0
ENDSEC
  0
SECTION
  2
BLOCKS
  0
BLOCK
  5
7489
330
747D
100
AcDbEntity
  8
0
100
AcDbBlockBegin
  2
*MODEL_SPACE
 70
     0
 10
0.0
 20
0.0
 30
0.0
  3
*MODEL_SPACE
  1

  0
ENDBLK
  5
748A
330
747D
100
AcDbEntity
  8
0
100
AcDbBlockEnd
  0
BLOCK
  5
7487
330
747A
100
AcDbEntity
 67
     1
  8
0
100
AcDbBlockBegin
  2
*PAPER_SPACE
 70
     0
 10
0.0
 20
0.0
 30
0.0
  3
*PAPER_SPACE
  1

  0
ENDBLK
  5
7488
330
747A
100
AcDbEntity
 67
     1
  8
0
100
AcDbBlockEnd
  0
BLOCK
  5
F771
330
F770
100
AcDbEntity
  8
0
 48
50.0
100
AcDbBlockBegin
  2
_DOTSMALL
 70
     0
 10
0.0
 20
0.0
 30
0.0
  3
_DOTSMALL
  1

  0
LWPOLYLINE
  5
F772
330
F770
100
AcDbEntity
  8
0
  6
ByBlock
 62
     0
 48
50.0
100
AcDbPolyline
 90
        2
 70
     1
 43
0.5
 10
-0.0625
 20
0.0
 42
1.0
 10
0.0625
 20
0.0
 42
1.0
  0
ENDBLK
  5
F776
330
F770
100
AcDbEntity
  8
0
 48
50.0
100
AcDbBlockEnd
  0
BLOCK
  5
17220
330
13DA8
100
AcDbEntity
  8
0
 48
50.0
100
AcDbBlockBegin
  2
*D1
 70
     1
 10
0.0
 20
0.0
 30
0.0
  3
*D1
  1

  0
LINE
  5
1A03D
330
13DA8
100
AcDbEntity
  8
寸法
 62
     0
 48
50.0
370
    -2
100
AcDbLine
 10
3689.673057123657
 20
4932.931598713267
 30
0.0
 11
3689.673057123657
 21
5578.566791659262
 31
0.0
  0
LINE
  5
1A03E
330
13DA8
100
AcDbEntity
  8
寸法
 62
     0
 48
50.0
370
    -2
100
AcDbLine
 10
7899.673057123656
 20
4932.931598713266
 30
0.0
 11
7899.673057123656
 21
5578.566791659262
 31
0.0
  0
LINE
  5
1A03F
330
13DA8
100
AcDbEntity
  8
寸法
 62
     0
 48
50.0
370
    -2
100
AcDbLine
 10
3689.673057123657
 20
5518.566791659261
 30
0.0
 11
7899.673057123656
 21
5518.566791659261
 31
0.0
  0
INSERT
  5
1A040
330
13DA8
100
AcDbEntity
  8
寸法
 62
     0
 48
50.0
370
    -2
100
AcDbBlockReference
  2
_DOTSMALL
 10
3689.673057123657
 20
5518.566791659261
 30
0.0
 41
100.0
 42
100.0
 43
100.0
 50
180.0
  0
INSERT
  5
1A041
330
13DA8
100
AcDbEntity
  8
寸法
 62
     0
 48
50.0
370
    -2
100
AcDbBlockReference
  2
_DOTSMALL
 10
7899.673057123656
 20
5518.566791659261
 30
0.0
 41
100.0
 42
100.0
 43
100.0
  0
MTEXT
  5
1A042
330
13DA8
100
AcDbEntity
  8
寸法
 62
     7
 48
50.0
100
AcDbMText
 10
5794.673057123657
 20
5618.566791659262
 30
0.0
 40
120.0
 41
0.0
 71
     5
 72
     1
  1
\A1;N X 1370+100
  7
STYLE1
 73
     1
 44
1.0
1001
ACAD
1000
MTEXTBEGIN
1070
    73
1070
     1
1070
    44
1040
1.0
1070
    74
1070
     0
1000
MTEXTEND
  0
POINT
  5
1A043
330
13DA8
100
AcDbEntity
  8
DEFPOINTS
 62
     0
 48
50.0
100
AcDbPoint
 10
3689.673057123657
 20
4912.931598713267
 30
0.0
  0
POINT
  5
1A044
330
13DA8
100
AcDbEntity
  8
DEFPOINTS
 62
     0
 48
50.0
100
AcDbPoint
 10
7899.673057123656
 20
4912.931598713266
 30
0.0
  0
POINT
  5
1A045
330
13DA8
100
AcDbEntity
  8
DEFPOINTS
 62
     0
 48
50.0
100
AcDbPoint
 10
7899.673057123656
 20
5518.566791659261
 30
0.0
  0
ENDBLK
  5
1722A
330
13DA8
100
AcDbEntity
  8
0
 48
50.0
100
AcDbBlockEnd
  0
BLOCK
  5
164EB
330
16338
100
AcDbEntity
  8
0
 48
50.0
100
AcDbBlockBegin
  2
*D2
 70
     1
 10
0.0
 20
0.0
 30
0.0
  3
*D2
  1

  0
LINE
  5
19236
330
16338
100
AcDbEntity
  8
寸法
 62
     0
 48
50.0
370
    -2
100
AcDbLine
 10
7869.673057123664
 20
9751.500206066831
 30
0.0
 11
8557.099402858069
 21
9751.500206066831
 31
0.0
  0
LINE
  5
19237
330
16338
100
AcDbEntity
  8
寸法
 62
     0
 48
50.0
370
    -2
100
AcDbLine
 10
7869.673057123638
 20
7651.500206066815
 30
0.0
 11
8557.099402858069
 21
7651.500206066815
 31
0.0
  0
LINE
  5
19238
330
16338
100
AcDbEntity
  8
寸法
 62
     0
 48
50.0
370
    -2
100
AcDbLine
 10
8497.09940285807
 20
9751.500206066831
 30
0.0
 11
8497.09940285807
 21
7651.500206066815
 31
0.0
  0
INSERT
  5
19239
330
16338
100
AcDbEntity
  8
寸法
 62
     0
 48
50.0
370
    -2
100
AcDbBlockReference
  2
_DOTSMALL
 10
8497.09940285807
 20
9751.500206066831
 30
0.0
 41
100.0
 42
100.0
 43
100.0
 50
90.0
  0
INSERT
  5
1923A
330
16338
100
AcDbEntity
  8
寸法
 62
     0
 48
50.0
370
    -2
100
AcDbBlockReference
  2
_DOTSMALL
 10
8497.09940285807
 20
7651.500206066815
 30
0.0
 41
100.0
 42
100.0
 43
100.0
 50
270.0
  0
MTEXT
  5
1923B
330
16338
100
AcDbEntity
  8
寸法
 62
     7
 48
50.0
100
AcDbMText
 10
8397.087591834447
 20
8701.500206066825
 30
0.0
 40
120.0
 41
0.0
 71
     5
 72
     1
  1
\A1;5X420=2100
  7
STYLE1
 11
0.0000000000000001
 21
1.0
 31
0.0
 73
     1
 44
1.0
1001
ACAD
1000
MTEXTBEGIN
1070
    73
1070
     1
1070
    44
1040
1.0
1070
    74
1070
     0
1000
MTEXTEND
  0
POINT
  5
1923C
330
16338
100
AcDbEntity
  8
DEFPOINTS
 62
     0
 48
50.0
100
AcDbPoint
 10
7849.673057123664
 20
9751.500206066831
 30
0.0
  0
POINT
  5
1923D
330
16338
100
AcDbEntity
  8
DEFPOINTS
 62
     0
 48
50.0
100
AcDbPoint
 10
7849.673057123638
 20
7651.500206066815
 30
0.0
  0
POINT
  5
1923E
330
16338
100
AcDbEntity
  8
DEFPOINTS
 62
     0
 48
50.0
100
AcDbPoint
 10
8497.09940285807
 20
7651.500206066815
 30
0.0
  0
ENDBLK
  5
164F5
330
16338
100
AcDbEntity
  8
0
 48
50.0
100
AcDbBlockEnd
  0
BLOCK
  5
16414
330
16344
100
AcDbEntity
  8
0
 48
50.0
100
AcDbBlockBegin
  2
*D3
 70
     1
 10
0.0
 20
0.0
 30
0.0
  3
*D3
  1

  0
LINE
  5
1922B
330
16344
100
AcDbEntity
  8
寸法
 62
     0
 48
50.0
370
    -2
100
AcDbLine
 10
7869.673057123638
 20
7651.500206066815
 30
0.0
 11
8557.09940285805
 21
7651.500206066815
 31
0.0
  0
LINE
  5
1922C
330
16344
100
AcDbEntity
  8
寸法
 62
     0
 48
50.0
370
    -2
100
AcDbLine
 10
7869.673057123638
 20
7596.50020606682
 30
0.0
 11
8557.09940285805
 21
7596.50020606682
 31
0.0
  0
LINE
  5
1922D
330
16344
100
AcDbEntity
  8
寸法
 62
     0
 48
50.0
370
    -2
100
AcDbLine
 10
8497.099402858051
 20
7651.500206066815
 30
0.0
 11
8497.099402858051
 21
7751.500206066815
 31
0.0
  0
LINE
  5
1922E
330
16344
100
AcDbEntity
  8
寸法
 62
     0
 48
50.0
370
    -2
100
AcDbLine
 10
8497.099402858051
 20
7596.50020606682
 30
0.0
 11
8497.099402858051
 21
7110.153457787717
 31
0.0
  0
LINE
  5
1922F
330
16344
100
AcDbEntity
  8
寸法
 62
     0
 48
50.0
370
    -2
100
AcDbLine
 10
8497.099402858051
 20
7651.500206066815
 30
0.0
 11
8497.099402858051
 21
7596.50020606682
 31
0.0
  0
INSERT
  5
19230
330
16344
100
AcDbEntity
  8
寸法
 62
     0
 48
50.0
370
    -2
100
AcDbBlockReference
  2
_DOTSMALL
 10
8497.099402858051
 20
7651.500206066815
 30
0.0
 41
100.0
 42
100.0
 43
100.0
 50
270.0
  0
INSERT
  5
19231
330
16344
100
AcDbEntity
  8
寸法
 62
     0
 48
50.0
370
    -2
100
AcDbBlockReference
  2
_DOTSMALL
 10
8497.099402858051
 20
7596.50020606682
 30
0.0
 41
100.0
 42
100.0
 43
100.0
 50
90.0
  0
MTEXT
  5
19232
330
16344
100
AcDbEntity
  8
寸法
 62
     7
 48
50.0
100
AcDbMText
 10
8397.099402858048
 20
7218.638739161957
 30
0.0
 40
120.0
 41
0.0
 71
     5
 72
     1
  1
\A1;55
  7
STYLE1
 11
0.0000000000000001
 21
1.0
 31
0.0
 73
     1
 44
1.0
1001
ACAD
1000
MTEXTBEGIN
1070
    73
1070
     1
1070
    44
1040
1.0
1070
    74
1070
     0
1000
MTEXTEND
  0
POINT
  5
19233
330
16344
100
AcDbEntity
  8
DEFPOINTS
 62
     0
 48
50.0
100
AcDbPoint
 10
7849.673057123638
 20
7651.500206066815
 30
0.0
  0
POINT
  5
19234
330
16344
100
AcDbEntity
  8
DEFPOINTS
 62
     0
 48
50.0
100
AcDbPoint
 10
7849.673057123638
 20
7596.50020606682
 30
0.0
  0
POINT
  5
19235
330
16344
100
AcDbEntity
  8
DEFPOINTS
 62
     0
 48
50.0
100
AcDbPoint
 10
8497.099402858051
 20
7596.50020606682
 30
0.0
  0
ENDBLK
  5
16420
330
16344
100
AcDbEntity
  8
0
 48
50.0
100
AcDbBlockEnd
  0
BLOCK
  5
16421
330
16352
100
AcDbEntity
  8
0
 48
50.0
100
AcDbBlockBegin
  2
*D4
 70
     1
 10
0.0
 20
0.0
 30
0.0
  3
*D4
  1

  0
LINE
  5
19220
330
16352
100
AcDbEntity
  8
寸法
 62
     0
 48
50.0
370
    -2
100
AcDbLine
 10
7869.673057123664
 20
9806.500206066827
 30
0.0
 11
8557.099402858076
 21
9806.500206066827
 31
0.0
  0
LINE
  5
19221
330
16352
100
AcDbEntity
  8
寸法
 62
     0
 48
50.0
370
    -2
100
AcDbLine
 10
7869.673057123664
 20
9751.500206066831
 30
0.0
 11
8557.099402858076
 21
9751.500206066831
 31
0.0
  0
LINE
  5
19222
330
16352
100
AcDbEntity
  8
寸法
 62
     0
 48
50.0
370
    -2
100
AcDbLine
 10
8497.099402858076
 20
9751.500206066831
 30
0.0
 11
8497.099402858076
 21
9651.500206066831
 31
0.0
  0
LINE
  5
19223
330
16352
100
AcDbEntity
  8
寸法
 62
     0
 48
50.0
370
    -2
100
AcDbLine
 10
8497.099402858076
 20
9806.500206066827
 30
0.0
 11
8497.099402858076
 21
10223.4707688153
 31
0.0
  0
LINE
  5
19224
330
16352
100
AcDbEntity
  8
寸法
 62
     0
 48
50.0
370
    -2
100
AcDbLine
 10
8497.099402858076
 20
9751.500206066831
 30
0.0
 11
8497.099402858076
 21
9806.500206066827
 31
0.0
  0
INSERT
  5
19225
330
16352
100
AcDbEntity
  8
寸法
 62
     0
 48
50.0
370
    -2
100
AcDbBlockReference
  2
_DOTSMALL
 10
8497.099402858076
 20
9751.500206066831
 30
0.0
 41
100.0
 42
100.0
 43
100.0
 50
90.0
  0
INSERT
  5
19226
330
16352
100
AcDbEntity
  8
寸法
 62
     0
 48
50.0
370
    -2
100
AcDbBlockReference
  2
_DOTSMALL
 10
8497.099402858076
 20
9806.500206066827
 30
0.0
 41
100.0
 42
100.0
 43
100.0
 50
270.0
  0
MTEXT
  5
19227
330
16352
100
AcDbEntity
  8
寸法
 62
     7
 48
50.0
100
AcDbMText
 10
8397.099402858072
 20
10114.98548744106
 30
0.0
 40
120.0
 41
0.0
 71
     5
 72
     1
  1
\A1;55
  7
STYLE1
 11
0.0000000000000001
 21
1.0
 31
0.0
 73
     1
 44
1.0
1001
ACAD
1000
MTEXTBEGIN
1070
    73
1070
     1
1070
    44
1040
1.0
1070
    74
1070
     0
1000
MTEXTEND
  0
POINT
  5
19228
330
16352
100
AcDbEntity
  8
DEFPOINTS
 62
     0
 48
50.0
100
AcDbPoint
 10
7849.673057123664
 20
9806.500206066827
 30
0.0
  0
POINT
  5
19229
330
16352
100
AcDbEntity
  8
DEFPOINTS
 62
     0
 48
50.0
100
AcDbPoint
 10
7849.673057123664
 20
9751.500206066831
 30
0.0
  0
POINT
  5
1922A
330
16352
100
AcDbEntity
  8
DEFPOINTS
 62
     0
 48
50.0
100
AcDbPoint
 10
8497.099402858076
 20
9751.500206066831
 30
0.0
  0
ENDBLK
  5
1642D
330
16352
100
AcDbEntity
  8
0
 48
50.0
100
AcDbBlockEnd
  0
BLOCK
  5
164CA
330
16360
100
AcDbEntity
  8
0
 48
50.0
100
AcDbBlockBegin
  2
*D5
 70
     1
 10
0.0
 20
0.0
 30
0.0
  3
*D5
  1

  0
LINE
  5
19217
330
16360
100
AcDbEntity
  8
寸法
 62
     0
 48
50.0
370
    -2
100
AcDbLine
 10
7869.673057123664
 20
9806.500206066827
 30
0.0
 11
8922.206344597709
 21
9806.500206066827
 31
0.0
  0
LINE
  5
19218
330
16360
100
AcDbEntity
  8
寸法
 62
     0
 48
50.0
370
    -2
100
AcDbLine
 10
7869.673057123638
 20
7596.50020606682
 30
0.0
 11
8922.206344597709
 21
7596.50020606682
 31
0.0
  0
LINE
  5
19219
330
16360
100
AcDbEntity
  8
寸法
 62
     0
 48
50.0
370
    -2
100
AcDbLine
 10
8862.206344597709
 20
9806.500206066827
 30
0.0
 11
8862.206344597709
 21
7596.50020606682
 31
0.0
  0
INSERT
  5
1921A
330
16360
100
AcDbEntity
  8
寸法
 62
     0
 48
50.0
370
    -2
100
AcDbBlockReference
  2
_DOTSMALL
 10
8862.206344597709
 20
9806.500206066827
 30
0.0
 41
100.0
 42
100.0
 43
100.0
 50
90.0
  0
INSERT
  5
1921B
330
16360
100
AcDbEntity
  8
寸法
 62
     0
 48
50.0
370
    -2
100
AcDbBlockReference
  2
_DOTSMALL
 10
8862.206344597709
 20
7596.50020606682
 30
0.0
 41
100.0
 42
100.0
 43
100.0
 50
270.0
  0
MTEXT
  5
1921C
330
16360
100
AcDbEntity
  8
寸法
 62
     7
 48
50.0
100
AcDbMText
 10
8762.194533574087
 20
8701.500206066825
 30
0.0
 40
120.0
 41
0.0
 71
     5
 72
     1
  1
\A1;2210
  7
STYLE1
 11
0.0000000000000001
 21
1.0
 31
0.0
 73
     1
 44
1.0
1001
ACAD
1000
MTEXTBEGIN
1070
    73
1070
     1
1070
    44
1040
1.0
1070
    74
1070
     0
1000
MTEXTEND
  0
POINT
  5
1921D
330
16360
100
AcDbEntity
  8
DEFPOINTS
 62
     0
 48
50.0
100
AcDbPoint
 10
7849.673057123664
 20
9806.500206066827
 30
0.0
  0
POINT
  5
1921E
330
16360
100
AcDbEntity
  8
DEFPOINTS
 62
     0
 48
50.0
100
AcDbPoint
 10
7849.673057123638
 20
7596.50020606682
 30
0.0
  0
POINT
  5
1921F
330
16360
100
AcDbEntity
  8
DEFPOINTS
 62
     0
 48
50.0
100
AcDbPoint
 10
8862.206344597709
 20
7596.50020606682
 30
0.0
  0
ENDBLK
  5
164D4
330
16360
100
AcDbEntity
  8
0
 48
50.0
100
AcDbBlockEnd
  0
BLOCK
  5
1728C
330
16384
100
AcDbEntity
  8
0
 48
50.0
100
AcDbBlockBegin
  2
*D6
 70
     1
 10
0.0
 20
0.0
 30
0.0
  3
*D6
  1

  0
LINE
  5
1920F
330
16384
100
AcDbEntity
  8
寸法
 62
     0
 48
50.0
370
    -2
100
AcDbLine
 10
6582.673057123656
 20
7602.500206066728
 30
0.0
 11
6582.673057123656
 21
7002.069435300564
 31
0.0
  0
LINE
  5
19210
330
16384
100
AcDbEntity
  8
寸法
 62
     0
 48
50.0
370
    -2
100
AcDbLine
 10
7746.673057123638
 20
7062.069435300564
 30
0.0
 11
6582.673057123656
 21
7062.069435300564
 31
0.0
  0
INSERT
  5
19211
330
16384
100
AcDbEntity
  8
寸法
 62
     0
 48
50.0
370
    -2
100
AcDbBlockReference
  2
_DOTSMALL
 10
7746.673057123638
 20
7062.069435300564
 30
0.0
 41
100.0
 42
100.0
 43
100.0
  0
INSERT
  5
19212
330
16384
100
AcDbEntity
  8
寸法
 62
     0
 48
50.0
370
    -2
100
AcDbBlockReference
  2
_DOTSMALL
 10
6582.673057123656
 20
7062.069435300564
 30
0.0
 41
100.0
 42
100.0
 43
100.0
 50
180.0
  0
MTEXT
  5
19213
330
16384
100
AcDbEntity
  8
寸法
 62
     7
 48
50.0
100
AcDbMText
 10
7164.673057123647
 20
7262.069435300564
 30
0.0
 40
120.0
 41
0.0
 71
     5
 72
     1
  1
\A1;有効開口部間口\P 1164
  7
STYLE1
 73
     1
 44
1.0
1001
ACAD
1000
MTEXTBEGIN
1070
    73
1070
     1
1070
    44
1040
1.0
1070
    74
1070
     0
1000
MTEXTEND
  0
POINT
  5
19214
330
16384
100
AcDbEntity
  8
DEFPOINTS
 62
     0
 48
50.0
100
AcDbPoint
 10
7746.673057123638
 20
7622.500206066728
 30
0.0
  0
POINT
  5
19215
330
16384
100
AcDbEntity
  8
DEFPOINTS
 62
     0
 48
50.0
100
AcDbPoint
 10
6582.673057123656
 20
7622.500206066728
 30
0.0
  0
POINT
  5
19216
330
16384
100
AcDbEntity
  8
DEFPOINTS
 62
     0
 48
50.0
100
AcDbPoint
 10
6582.673057123656
 20
7062.069435300564
 30
0.0
  0
ENDBLK
  5
17295
330
16384
100
AcDbEntity
  8
0
 48
50.0
100
AcDbBlockEnd
  0
BLOCK
  5
17261
330
1638F
100
AcDbEntity
  8
0
 48
50.0
100
AcDbBlockBegin
  2
*D7
 70
     1
 10
0.0
 20
0.0
 30
0.0
  3
*D7
  1

  0
LINE
  5
1924B
330
1638F
100
AcDbEntity
  8
寸法
 62
     0
 48
50.0
370
    -2
100
AcDbLine
 10
3739.673057123657
 20
7576.500206066724
 30
0.0
 11
3739.673057123657
 21
6555.89643970969
 31
0.0
  0
LINE
  5
1924C
330
1638F
100
AcDbEntity
  8
寸法
 62
     0
 48
50.0
370
    -2
100
AcDbLine
 10
7849.673057123628
 20
7576.500206066819
 30
0.0
 11
7849.673057123628
 21
6555.89643970969
 31
0.0
  0
LINE
  5
1924D
330
1638F
100
AcDbEntity
  8
寸法
 62
     0
 48
50.0
370
    -2
100
AcDbLine
 10
3739.673057123657
 20
6615.89643970969
 30
0.0
 11
7849.673057123628
 21
6615.89643970969
 31
0.0
  0
INSERT
  5
1924E
330
1638F
100
AcDbEntity
  8
寸法
 62
     0
 48
50.0
370
    -2
100
AcDbBlockReference
  2
_DOTSMALL
 10
3739.673057123657
 20
6615.89643970969
 30
0.0
 41
100.0
 42
100.0
 43
100.0
 50
180.0
  0
INSERT
  5
1924F
330
1638F
100
AcDbEntity
  8
寸法
 62
     0
 48
50.0
370
    -2
100
AcDbBlockReference
  2
_DOTSMALL
 10
7849.673057123628
 20
6615.89643970969
 30
0.0
 41
100.0
 42
100.0
 43
100.0
  0
MTEXT
  5
19250
330
1638F
100
AcDbEntity
  8
寸法
 62
     7
 48
50.0
100
AcDbMText
 10
5794.673057123642
 20
6715.896439709689
 30
0.0
 40
120.0
 41
0.0
 71
     5
 72
     1
  1
\A1;N X 1370
  7
STYLE1
 73
     1
 44
1.0
1001
ACAD
1000
MTEXTBEGIN
1070
    73
1070
     1
1070
    44
1040
1.0
1070
    74
1070
     0
1000
MTEXTEND
  0
POINT
  5
19251
330
1638F
100
AcDbEntity
  8
DEFPOINTS
 62
     0
 48
50.0
100
AcDbPoint
 10
3739.673057123657
 20
7596.500206066725
 30
0.0
  0
POINT
  5
19252
330
1638F
100
AcDbEntity
  8
DEFPOINTS
 62
     0
 48
50.0
100
AcDbPoint
 10
7849.673057123628
 20
7596.50020606682
 30
0.0
  0
POINT
  5
19253
330
1638F
100
AcDbEntity
  8
DEFPOINTS
 62
     0
 48
50.0
100
AcDbPoint
 10
7849.673057123628
 20
6615.89643970969
 30
0.0
  0
ENDBLK
  5
1726B
330
1638F
100
AcDbEntity
  8
0
 48
50.0
100
AcDbBlockEnd
  0
BLOCK
  5
16464
330
1639B
100
AcDbEntity
  8
0
 48
50.0
100
AcDbBlockBegin
  2
*D8
 70
     1
 10
0.0
 20
0.0
 30
0.0
  3
*D8
  1

  0
LINE
  5
191FB
330
1639B
100
AcDbEntity
  8
寸法
 62
     0
 48
50.0
370
    -2
100
AcDbLine
 10
3794.673057123653
 20
7576.500206066727
 30
0.0
 11
3794.673057123653
 21
7002.069435300564
 31
0.0
  0
LINE
  5
191FC
330
1639B
100
AcDbEntity
  8
寸法
 62
     0
 48
50.0
370
    -2
100
AcDbLine
 10
3739.673057123657
 20
7576.500206066724
 30
0.0
 11
3739.673057123657
 21
7002.069435300564
 31
0.0
  0
LINE
  5
191FD
330
1639B
100
AcDbEntity
  8
寸法
 62
     0
 48
50.0
370
    -2
100
AcDbLine
 10
3794.673057123653
 20
7062.069435300564
 30
0.0
 11
3894.673057123653
 21
7062.069435300564
 31
0.0
  0
LINE
  5
191FE
330
1639B
100
AcDbEntity
  8
寸法
 62
     0
 48
50.0
370
    -2
100
AcDbLine
 10
3739.673057123657
 20
7062.069435300564
 30
0.0
 11
3322.702494375179
 21
7062.069435300564
 31
0.0
  0
LINE
  5
191FF
330
1639B
100
AcDbEntity
  8
寸法
 62
     0
 48
50.0
370
    -2
100
AcDbLine
 10
3794.673057123653
 20
7062.069435300564
 30
0.0
 11
3739.673057123657
 21
7062.069435300564
 31
0.0
  0
INSERT
  5
19200
330
1639B
100
AcDbEntity
  8
寸法
 62
     0
 48
50.0
370
    -2
100
AcDbBlockReference
  2
_DOTSMALL
 10
3794.673057123653
 20
7062.069435300564
 30
0.0
 41
100.0
 42
100.0
 43
100.0
 50
180.0
  0
INSERT
  5
19201
330
1639B
100
AcDbEntity
  8
寸法
 62
     0
 48
50.0
370
    -2
100
AcDbBlockReference
  2
_DOTSMALL
 10
3739.673057123657
 20
7062.069435300564
 30
0.0
 41
100.0
 42
100.0
 43
100.0
  0
MTEXT
  5
19202
330
1639B
100
AcDbEntity
  8
寸法
 62
     7
 48
50.0
100
AcDbMText
 10
3431.187775749418
 20
7162.069435300565
 30
0.0
 40
120.0
 41
0.0
 71
     5
 72
     1
  1
\A1;55
  7
STYLE1
 73
     1
 44
1.0
1001
ACAD
1000
MTEXTBEGIN
1070
    73
1070
     1
1070
    44
1040
1.0
1070
    74
1070
     0
1000
MTEXTEND
  0
POINT
  5
19203
330
1639B
100
AcDbEntity
  8
DEFPOINTS
 62
     0
 48
50.0
100
AcDbPoint
 10
3794.673057123653
 20
7596.500206066727
 30
0.0
  0
POINT
  5
19204
330
1639B
100
AcDbEntity
  8
DEFPOINTS
 62
     0
 48
50.0
100
AcDbPoint
 10
3739.673057123657
 20
7596.500206066725
 30
0.0
  0
POINT
  5
19205
330
1639B
100
AcDbEntity
  8
DEFPOINTS
 62
     0
 48
50.0
100
AcDbPoint
 10
3739.673057123657
 20
7062.069435300564
 30
0.0
  0
ENDBLK
  5
16470
330
1639B
100
AcDbEntity
  8
0
 48
50.0
100
AcDbBlockEnd
  0
BLOCK
  5
16471
330
163A9
100
AcDbEntity
  8
0
 48
50.0
100
AcDbBlockBegin
  2
*D9
 70
     1
 10
0.0
 20
0.0
 30
0.0
  3
*D9
  1

  0
LINE
  5
191F0
330
163A9
100
AcDbEntity
  8
寸法
 62
     0
 48
50.0
370
    -2
100
AcDbLine
 10
6582.673057123656
 20
7602.500206066728
 30
0.0
 11
6582.673057123656
 21
7002.069435300564
 31
0.0
  0
LINE
  5
191F1
330
163A9
100
AcDbEntity
  8
寸法
 62
     0
 48
50.0
370
    -2
100
AcDbLine
 10
6534.673057123653
 20
7576.500206066727
 30
0.0
 11
6534.673057123653
 21
7002.069435300564
 31
0.0
  0
LINE
  5
191F2
330
163A9
100
AcDbEntity
  8
寸法
 62
     0
 48
50.0
370
    -2
100
AcDbLine
 10
6582.673057123656
 20
7062.069435300564
 30
0.0
 11
6682.673057123657
 21
7062.069435300564
 31
0.0
  0
LINE
  5
191F3
330
163A9
100
AcDbEntity
  8
寸法
 62
     0
 48
50.0
370
    -2
100
AcDbLine
 10
6534.673057123653
 20
7062.069435300564
 30
0.0
 11
6434.673057123653
 21
7062.069435300564
 31
0.0
  0
MTEXT
  5
191F4
330
163A9
100
AcDbEntity
  8
寸法
 62
     7
 48
50.0
100
AcDbMText
 10
6695.575028123714
 20
7162.069435300565
 30
0.0
 40
120.0
 41
0.0
 71
     5
 72
     1
  1
\A1;48
  7
STYLE1
 73
     1
 44
1.0
1001
ACAD
1000
MTEXTBEGIN
1070
    73
1070
     1
1070
    44
1040
1.0
1070
    74
1070
     0
1000
MTEXTEND
  0
LINE
  5
191F5
330
163A9
100
AcDbEntity
  8
寸法
 62
     0
 48
50.0
370
    -2
100
AcDbLine
 10
6582.673057123656
 20
7062.069435300564
 30
0.0
 11
6534.673057123653
 21
7062.069435300564
 31
0.0
  0
INSERT
  5
191F6
330
163A9
100
AcDbEntity
  8
寸法
 62
     0
 48
50.0
370
    -2
100
AcDbBlockReference
  2
_DOTSMALL
 10
6582.673057123656
 20
7062.069435300564
 30
0.0
 41
100.0
 42
100.0
 43
100.0
 50
180.0
  0
INSERT
  5
191F7
330
163A9
100
AcDbEntity
  8
寸法
 62
     0
 48
50.0
370
    -2
100
AcDbBlockReference
  2
_DOTSMALL
 10
6534.673057123653
 20
7062.069435300564
 30
0.0
 41
100.0
 42
100.0
 43
100.0
  0
POINT
  5
191F8
330
163A9
100
AcDbEntity
  8
DEFPOINTS
 62
     0
 48
50.0
100
AcDbPoint
 10
6582.673057123656
 20
7622.500206066728
 30
0.0
  0
POINT
  5
191F9
330
163A9
100
AcDbEntity
  8
DEFPOINTS
 62
     0
 48
50.0
100
AcDbPoint
 10
6534.673057123653
 20
7596.500206066727
 30
0.0
  0
POINT
  5
191FA
330
163A9
100
AcDbEntity
  8
DEFPOINTS
 62
     0
 48
50.0
100
AcDbPoint
 10
6534.673057123653
 20
7062.069435300564
 30
0.0
  0
ENDBLK
  5
1647E
330
163A9
100
AcDbEntity
  8
0
 48
50.0
100
AcDbBlockEnd
  0
BLOCK
  5
1647F
330
163B8
100
AcDbEntity
  8
0
 48
50.0
100
AcDbBlockBegin
  2
*D10
 70
     1
 10
0.0
 20
0.0
 30
0.0
  3
*D10
  1

  0
LINE
  5
191E5
330
163B8
100
AcDbEntity
  8
寸法
 62
     0
 48
50.0
370
    -2
100
AcDbLine
 10
7794.67305712364
 20
7576.500206066815
 30
0.0
 11
7794.67305712364
 21
7002.069435300564
 31
0.0
  0
LINE
  5
191E6
330
163B8
100
AcDbEntity
  8
寸法
 62
     0
 48
50.0
370
    -2
100
AcDbLine
 10
7746.673057123638
 20
7602.500206066729
 30
0.0
 11
7746.673057123638
 21
7002.069435300564
 31
0.0
  0
LINE
  5
191E7
330
163B8
100
AcDbEntity
  8
寸法
 62
     0
 48
50.0
370
    -2
100
AcDbLine
 10
7794.67305712364
 20
7062.069435300564
 30
0.0
 11
7894.67305712364
 21
7062.069435300564
 31
0.0
  0
LINE
  5
191E8
330
163B8
100
AcDbEntity
  8
寸法
 62
     0
 48
50.0
370
    -2
100
AcDbLine
 10
7746.673057123638
 20
7062.069435300564
 30
0.0
 11
7646.673057123638
 21
7062.069435300564
 31
0.0
  0
MTEXT
  5
191E9
330
163B8
100
AcDbEntity
  8
寸法
 62
     7
 48
50.0
100
AcDbMText
 10
7635.710159474891
 20
7162.069435300565
 30
0.0
 40
120.0
 41
0.0
 71
     5
 72
     1
  1
\A1;48
  7
STYLE1
 73
     1
 44
1.0
1001
ACAD
1000
MTEXTBEGIN
1070
    73
1070
     1
1070
    44
1040
1.0
1070
    74
1070
     0
1000
MTEXTEND
  0
LINE
  5
191EA
330
163B8
100
AcDbEntity
  8
寸法
 62
     0
 48
50.0
370
    -2
100
AcDbLine
 10
7794.67305712364
 20
7062.069435300564
 30
0.0
 11
7746.673057123638
 21
7062.069435300564
 31
0.0
  0
INSERT
  5
191EB
330
163B8
100
AcDbEntity
  8
寸法
 62
     0
 48
50.0
370
    -2
100
AcDbBlockReference
  2
_DOTSMALL
 10
7794.67305712364
 20
7062.069435300564
 30
0.0
 41
100.0
 42
100.0
 43
100.0
 50
180.0
  0
INSERT
  5
191EC
330
163B8
100
AcDbEntity
  8
寸法
 62
     0
 48
50.0
370
    -2
100
AcDbBlockReference
  2
_DOTSMALL
 10
7746.673057123638
 20
7062.069435300564
 30
0.0
 41
100.0
 42
100.0
 43
100.0
  0
POINT
  5
191ED
330
163B8
100
AcDbEntity
  8
DEFPOINTS
 62
     0
 48
50.0
100
AcDbPoint
 10
7794.67305712364
 20
7596.500206066815
 30
0.0
  0
POINT
  5
191EE
330
163B8
100
AcDbEntity
  8
DEFPOINTS
 62
     0
 48
50.0
100
AcDbPoint
 10
7746.673057123638
 20
7622.500206066728
 30
0.0
  0
POINT
  5
191EF
330
163B8
100
AcDbEntity
  8
DEFPOINTS
 62
     0
 48
50.0
100
AcDbPoint
 10
7746.673057123638
 20
7062.069435300564
 30
0.0
  0
ENDBLK
  5
1648C
330
163B8
100
AcDbEntity
  8
0
 48
50.0
100
AcDbBlockEnd
  0
BLOCK
  5
1648D
330
163C7
100
AcDbEntity
  8
0
 48
50.0
100
AcDbBlockBegin
  2
*D11
 70
     1
 10
0.0
 20
0.0
 30
0.0
  3
*D11
  1

  0
LINE
  5
191DA
330
163C7
100
AcDbEntity
  8
寸法
 62
     0
 48
50.0
370
    -2
100
AcDbLine
 10
7849.673057123638
 20
7576.500206066819
 30
0.0
 11
7849.673057123638
 21
7002.069435300565
 31
0.0
  0
LINE
  5
191DB
330
163C7
100
AcDbEntity
  8
寸法
 62
     0
 48
50.0
370
    -2
100
AcDbLine
 10
7794.67305712364
 20
7576.500206066815
 30
0.0
 11
7794.67305712364
 21
7002.069435300565
 31
0.0
  0
LINE
  5
191DC
330
163C7
100
AcDbEntity
  8
寸法
 62
     0
 48
50.0
370
    -2
100
AcDbLine
 10
7794.67305712364
 20
7062.069435300564
 30
0.0
 11
7694.67305712364
 21
7062.069435300564
 31
0.0
  0
LINE
  5
191DD
330
163C7
100
AcDbEntity
  8
寸法
 62
     0
 48
50.0
370
    -2
100
AcDbLine
 10
7849.673057123638
 20
7062.069435300564
 30
0.0
 11
8266.643619872114
 21
7062.069435300564
 31
0.0
  0
LINE
  5
191DE
330
163C7
100
AcDbEntity
  8
寸法
 62
     0
 48
50.0
370
    -2
100
AcDbLine
 10
7794.67305712364
 20
7062.069435300564
 30
0.0
 11
7849.673057123638
 21
7062.069435300564
 31
0.0
  0
INSERT
  5
191DF
330
163C7
100
AcDbEntity
  8
寸法
 62
     0
 48
50.0
370
    -2
100
AcDbBlockReference
  2
_DOTSMALL
 10
7794.67305712364
 20
7062.069435300564
 30
0.0
 41
100.0
 42
100.0
 43
100.0
  0
INSERT
  5
191E0
330
163C7
100
AcDbEntity
  8
寸法
 62
     0
 48
50.0
370
    -2
100
AcDbBlockReference
  2
_DOTSMALL
 10
7849.673057123638
 20
7062.069435300564
 30
0.0
 41
100.0
 42
100.0
 43
100.0
 50
180.0
  0
MTEXT
  5
191E1
330
163C7
100
AcDbEntity
  8
寸法
 62
     7
 48
50.0
100
AcDbMText
 10
8158.158338497877
 20
7162.069435300565
 30
0.0
 40
120.0
 41
0.0
 71
     5
 72
     1
  1
\A1;55
  7
STYLE1
 73
     1
 44
1.0
1001
ACAD
1000
MTEXTBEGIN
1070
    73
1070
     1
1070
    44
1040
1.0
1070
    74
1070
     0
1000
MTEXTEND
  0
POINT
  5
191E2
330
163C7
100
AcDbEntity
  8
DEFPOINTS
 62
     0
 48
50.0
100
AcDbPoint
 10
7849.673057123638
 20
7596.50020606682
 30
0.0
  0
POINT
  5
191E3
330
163C7
100
AcDbEntity
  8
DEFPOINTS
 62
     0
 48
50.0
100
AcDbPoint
 10
7794.67305712364
 20
7596.500206066815
 30
0.0
  0
POINT
  5
191E4
330
163C7
100
AcDbEntity
  8
DEFPOINTS
 62
     0
 48
50.0
100
AcDbPoint
 10
7794.67305712364
 20
7062.069435300564
 30
0.0
  0
ENDBLK
  5
16499
330
163C7
100
AcDbEntity
  8
0
 48
50.0
100
AcDbBlockEnd
  0
BLOCK
  5
172A1
330
163E1
100
AcDbEntity
  8
0
 48
50.0
100
AcDbBlockBegin
  2
*D12
 70
     1
 10
0.0
 20
0.0
 30
0.0
  3
*D12
  1

  0
LINE
  5
191D1
330
163E1
100
AcDbEntity
  8
寸法
 62
     0
 48
50.0
370
    -2
100
AcDbLine
 10
6534.673057123663
 20
9826.500206066732
 30
0.0
 11
6534.673057123663
 21
10082.30842569183
 31
0.0
  0
LINE
  5
191D2
330
163E1
100
AcDbEntity
  8
寸法
 62
     0
 48
50.0
370
    -2
100
AcDbLine
 10
7794.673057123664
 20
9826.500206066826
 30
0.0
 11
7794.673057123664
 21
10082.30842569183
 31
0.0
  0
LINE
  5
191D3
330
163E1
100
AcDbEntity
  8
寸法
 62
     0
 48
50.0
370
    -2
100
AcDbLine
 10
6534.673057123663
 20
10022.30842569183
 30
0.0
 11
7794.673057123664
 21
10022.30842569183
 31
0.0
  0
INSERT
  5
191D4
330
163E1
100
AcDbEntity
  8
寸法
 62
     0
 48
50.0
370
    -2
100
AcDbBlockReference
  2
_DOTSMALL
 10
6534.673057123663
 20
10022.30842569183
 30
0.0
 41
100.0
 42
100.0
 43
100.0
 50
180.0
  0
INSERT
  5
191D5
330
163E1
100
AcDbEntity
  8
寸法
 62
     0
 48
50.0
370
    -2
100
AcDbBlockReference
  2
_DOTSMALL
 10
7794.673057123664
 20
10022.30842569183
 30
0.0
 41
100.0
 42
100.0
 43
100.0
  0
MTEXT
  5
191D6
330
163E1
100
AcDbEntity
  8
寸法
 62
     7
 48
50.0
100
AcDbMText
 10
7164.673057123664
 20
10122.32023671545
 30
0.0
 40
120.0
 41
0.0
 71
     5
 72
     1
  1
\A1;3X420=1260
  7
STYLE1
 73
     1
 44
1.0
1001
ACAD
1000
MTEXTBEGIN
1070
    73
1070
     1
1070
    44
1040
1.0
1070
    74
1070
     0
1000
MTEXTEND
  0
POINT
  5
191D7
330
163E1
100
AcDbEntity
  8
DEFPOINTS
 62
     0
 48
50.0
100
AcDbPoint
 10
6534.673057123663
 20
9806.500206066733
 30
0.0
  0
POINT
  5
191D8
330
163E1
100
AcDbEntity
  8
DEFPOINTS
 62
     0
 48
50.0
100
AcDbPoint
 10
7794.673057123664
 20
9806.500206066827
 30
0.0
  0
POINT
  5
191D9
330
163E1
100
AcDbEntity
  8
DEFPOINTS
 62
     0
 48
50.0
100
AcDbPoint
 10
7794.673057123664
 20
10022.30842569183
 30
0.0
  0
ENDBLK
  5
172AB
330
163E1
100
AcDbEntity
  8
0
 48
50.0
100
AcDbBlockEnd
  0
BLOCK
  5
164B0
330
163ED
100
AcDbEntity
  8
0
 48
50.0
100
AcDbBlockBegin
  2
*D13
 70
     1
 10
0.0
 20
0.0
 30
0.0
  3
*D13
  1

  0
LINE
  5
191C6
330
163ED
100
AcDbEntity
  8
寸法
 62
     0
 48
50.0
370
    -2
100
AcDbLine
 10
3739.673057123628
 20
9826.500206066732
 30
0.0
 11
3739.673057123628
 21
10082.30842569171
 31
0.0
  0
LINE
  5
191C7
330
163ED
100
AcDbEntity
  8
寸法
 62
     0
 48
50.0
370
    -2
100
AcDbLine
 10
3794.673057123663
 20
9826.500206066732
 30
0.0
 11
3794.673057123663
 21
10082.30842569171
 31
0.0
  0
LINE
  5
191C8
330
163ED
100
AcDbEntity
  8
寸法
 62
     0
 48
50.0
370
    -2
100
AcDbLine
 10
3794.673057123663
 20
10022.30842569171
 30
0.0
 11
3894.673057123663
 21
10022.30842569171
 31
0.0
  0
LINE
  5
191C9
330
163ED
100
AcDbEntity
  8
寸法
 62
     0
 48
50.0
370
    -2
100
AcDbLine
 10
3739.673057123628
 20
10022.30842569171
 30
0.0
 11
3322.702494375152
 21
10022.30842569171
 31
0.0
  0
LINE
  5
191CA
330
163ED
100
AcDbEntity
  8
寸法
 62
     0
 48
50.0
370
    -2
100
AcDbLine
 10
3794.673057123663
 20
10022.30842569171
 30
0.0
 11
3739.673057123628
 21
10022.30842569171
 31
0.0
  0
INSERT
  5
191CB
330
163ED
100
AcDbEntity
  8
寸法
 62
     0
 48
50.0
370
    -2
100
AcDbBlockReference
  2
_DOTSMALL
 10
3794.673057123663
 20
10022.30842569171
 30
0.0
 41
100.0
 42
100.0
 43
100.0
 50
180.0
  0
INSERT
  5
191CC
330
163ED
100
AcDbEntity
  8
寸法
 62
     0
 48
50.0
370
    -2
100
AcDbBlockReference
  2
_DOTSMALL
 10
3739.673057123628
 20
10022.30842569171
 30
0.0
 41
100.0
 42
100.0
 43
100.0
  0
MTEXT
  5
191CD
330
163ED
100
AcDbEntity
  8
寸法
 62
     7
 48
50.0
100
AcDbMText
 10
3431.18777574939
 20
10122.30842569171
 30
0.0
 40
120.0
 41
0.0
 71
     5
 72
     1
  1
\A1;55
  7
STYLE1
 73
     1
 44
1.0
1001
ACAD
1000
MTEXTBEGIN
1070
    73
1070
     1
1070
    44
1040
1.0
1070
    74
1070
     0
1000
MTEXTEND
  0
POINT
  5
191CE
330
163ED
100
AcDbEntity
  8
DEFPOINTS
 62
     0
 48
50.0
100
AcDbPoint
 10
3739.673057123628
 20
9806.500206066733
 30
0.0
  0
POINT
  5
191CF
330
163ED
100
AcDbEntity
  8
DEFPOINTS
 62
     0
 48
50.0
100
AcDbPoint
 10
3794.673057123663
 20
9806.500206066733
 30
0.0
  0
POINT
  5
191D0
330
163ED
100
AcDbEntity
  8
DEFPOINTS
 62
     0
 48
50.0
100
AcDbPoint
 10
3794.673057123663
 20
10022.30842569171
 30
0.0
  0
ENDBLK
  5
164BC
330
163ED
100
AcDbEntity
  8
0
 48
50.0
100
AcDbBlockEnd
  0
BLOCK
  5
164BD
330
163FB
100
AcDbEntity
  8
0
 48
50.0
100
AcDbBlockBegin
  2
*D14
 70
     1
 10
0.0
 20
0.0
 30
0.0
  3
*D14
  1

  0
LINE
  5
191BB
330
163FB
100
AcDbEntity
  8
寸法
 62
     0
 48
50.0
370
    -2
100
AcDbLine
 10
7794.673057123664
 20
9826.500206066826
 30
0.0
 11
7794.673057123664
 21
10082.30842569181
 31
0.0
  0
LINE
  5
191BC
330
163FB
100
AcDbEntity
  8
寸法
 62
     0
 48
50.0
370
    -2
100
AcDbLine
 10
7849.673057123664
 20
9826.500206066826
 30
0.0
 11
7849.673057123664
 21
10082.30842569181
 31
0.0
  0
LINE
  5
191BD
330
163FB
100
AcDbEntity
  8
寸法
 62
     0
 48
50.0
370
    -2
100
AcDbLine
 10
7794.673057123664
 20
10022.30842569181
 30
0.0
 11
7694.673057123664
 21
10022.30842569181
 31
0.0
  0
LINE
  5
191BE
330
163FB
100
AcDbEntity
  8
寸法
 62
     0
 48
50.0
370
    -2
100
AcDbLine
 10
7849.673057123664
 20
10022.30842569181
 30
0.0
 11
8266.643619872139
 21
10022.30842569181
 31
0.0
  0
LINE
  5
191BF
330
163FB
100
AcDbEntity
  8
寸法
 62
     0
 48
50.0
370
    -2
100
AcDbLine
 10
7794.673057123664
 20
10022.30842569181
 30
0.0
 11
7849.673057123664
 21
10022.30842569181
 31
0.0
  0
INSERT
  5
191C0
330
163FB
100
AcDbEntity
  8
寸法
 62
     0
 48
50.0
370
    -2
100
AcDbBlockReference
  2
_DOTSMALL
 10
7794.673057123664
 20
10022.30842569181
 30
0.0
 41
100.0
 42
100.0
 43
100.0
  0
INSERT
  5
191C1
330
163FB
100
AcDbEntity
  8
寸法
 62
     0
 48
50.0
370
    -2
100
AcDbBlockReference
  2
_DOTSMALL
 10
7849.673057123664
 20
10022.30842569181
 30
0.0
 41
100.0
 42
100.0
 43
100.0
 50
180.0
  0
MTEXT
  5
191C2
330
163FB
100
AcDbEntity
  8
寸法
 62
     7
 48
50.0
100
AcDbMText
 10
8158.158338497903
 20
10122.30842569181
 30
0.0
 40
120.0
 41
0.0
 71
     5
 72
     1
  1
\A1;55
  7
STYLE1
 73
     1
 44
1.0
1001
ACAD
1000
MTEXTBEGIN
1070
    73
1070
     1
1070
    44
1040
1.0
1070
    74
1070
     0
1000
MTEXTEND
  0
POINT
  5
191C3
330
163FB
100
AcDbEntity
  8
DEFPOINTS
 62
     0
 48
50.0
100
AcDbPoint
 10
7794.673057123664
 20
9806.500206066827
 30
0.0
  0
POINT
  5
191C4
330
163FB
100
AcDbEntity
  8
DEFPOINTS
 62
     0
 48
50.0
100
AcDbPoint
 10
7849.673057123664
 20
9806.500206066827
 30
0.0
  0
POINT
  5
191C5
330
163FB
100
AcDbEntity
  8
DEFPOINTS
 62
     0
 48
50.0
100
AcDbPoint
 10
7849.673057123664
 20
10022.30842569181
 30
0.0
  0
ENDBLK
  5
164C9
330
163FB
100
AcDbEntity
  8
0
 48
50.0
100
AcDbBlockEnd
  0
BLOCK
  5
165B6
330
165B5
100
AcDbEntity
  8
0
 48
50.0
100
AcDbBlockBegin
  2
*D15
 70
     1
 10
0.0
 20
0.0
 30
0.0
  3
*D15
  1

  0
LINE
  5
191A5
330
165B5
100
AcDbEntity
  8
寸法
 62
     0
 48
50.0
370
    -2
100
AcDbLine
 10
3842.673057123657
 20
7602.500206066728
 30
0.0
 11
3842.673057123657
 21
7002.069435300564
 31
0.0
  0
LINE
  5
191A6
330
165B5
100
AcDbEntity
  8
寸法
 62
     0
 48
50.0
370
    -2
100
AcDbLine
 10
3794.673057123653
 20
7576.500206066727
 30
0.0
 11
3794.673057123653
 21
7002.069435300564
 31
0.0
  0
LINE
  5
191A7
330
165B5
100
AcDbEntity
  8
寸法
 62
     0
 48
50.0
370
    -2
100
AcDbLine
 10
3842.673057123657
 20
7062.069435300564
 30
0.0
 11
3942.673057123657
 21
7062.069435300564
 31
0.0
  0
LINE
  5
191A8
330
165B5
100
AcDbEntity
  8
寸法
 62
     0
 48
50.0
370
    -2
100
AcDbLine
 10
3794.673057123653
 20
7062.069435300564
 30
0.0
 11
3694.673057123653
 21
7062.069435300564
 31
0.0
  0
MTEXT
  5
191A9
330
165B5
100
AcDbEntity
  8
寸法
 62
     7
 48
50.0
100
AcDbMText
 10
3955.575028123714
 20
7162.069435300565
 30
0.0
 40
120.0
 41
0.0
 71
     5
 72
     1
  1
\A1;48
  7
STYLE1
 73
     1
 44
1.0
1001
ACAD
1000
MTEXTBEGIN
1070
    73
1070
     1
1070
    44
1040
1.0
1070
    74
1070
     0
1000
MTEXTEND
  0
LINE
  5
191AA
330
165B5
100
AcDbEntity
  8
寸法
 62
     0
 48
50.0
370
    -2
100
AcDbLine
 10
3842.673057123657
 20
7062.069435300564
 30
0.0
 11
3794.673057123653
 21
7062.069435300564
 31
0.0
  0
INSERT
  5
191AB
330
165B5
100
AcDbEntity
  8
寸法
 62
     0
 48
50.0
370
    -2
100
AcDbBlockReference
  2
_DOTSMALL
 10
3842.673057123657
 20
7062.069435300564
 30
0.0
 41
100.0
 42
100.0
 43
100.0
 50
180.0
  0
INSERT
  5
191AC
330
165B5
100
AcDbEntity
  8
寸法
 62
     0
 48
50.0
370
    -2
100
AcDbBlockReference
  2
_DOTSMALL
 10
3794.673057123653
 20
7062.069435300564
 30
0.0
 41
100.0
 42
100.0
 43
100.0
  0
POINT
  5
191AD
330
165B5
100
AcDbEntity
  8
DEFPOINTS
 62
     0
 48
50.0
100
AcDbPoint
 10
3842.673057123657
 20
7622.500206066728
 30
0.0
  0
POINT
  5
191AE
330
165B5
100
AcDbEntity
  8
DEFPOINTS
 62
     0
 48
50.0
100
AcDbPoint
 10
3794.673057123653
 20
7596.500206066727
 30
0.0
  0
POINT
  5
191AF
330
165B5
100
AcDbEntity
  8
DEFPOINTS
 62
     0
 48
50.0
100
AcDbPoint
 10
3794.673057123653
 20
7062.069435300564
 30
0.0
  0
ENDBLK
  5
165C3
330
165B5
100
AcDbEntity
  8
0
 48
50.0
100
AcDbBlockEnd
  0
BLOCK
  5
165C5
330
165C4
100
AcDbEntity
  8
0
 48
50.0
100
AcDbBlockBegin
  2
*D16
 70
     1
 10
0.0
 20
0.0
 30
0.0
  3
*D16
  1

  0
LINE
  5
191B0
330
165C4
100
AcDbEntity
  8
寸法
 62
     0
 48
50.0
370
    -2
100
AcDbLine
 10
6424.67305712364
 20
7576.500206066815
 30
0.0
 11
6424.67305712364
 21
7002.069435300564
 31
0.0
  0
LINE
  5
191B1
330
165C4
100
AcDbEntity
  8
寸法
 62
     0
 48
50.0
370
    -2
100
AcDbLine
 10
6376.673057123639
 20
7602.500206066729
 30
0.0
 11
6376.673057123639
 21
7002.069435300564
 31
0.0
  0
LINE
  5
191B2
330
165C4
100
AcDbEntity
  8
寸法
 62
     0
 48
50.0
370
    -2
100
AcDbLine
 10
6424.67305712364
 20
7062.069435300564
 30
0.0
 11
6524.673057123639
 21
7062.069435300564
 31
0.0
  0
LINE
  5
191B3
330
165C4
100
AcDbEntity
  8
寸法
 62
     0
 48
50.0
370
    -2
100
AcDbLine
 10
6376.673057123639
 20
7062.069435300564
 30
0.0
 11
6276.673057123638
 21
7062.069435300564
 31
0.0
  0
MTEXT
  5
191B4
330
165C4
100
AcDbEntity
  8
寸法
 62
     7
 48
50.0
100
AcDbMText
 10
6265.710159474891
 20
7162.069435300565
 30
0.0
 40
120.0
 41
0.0
 71
     5
 72
     1
  1
\A1;48
  7
STYLE1
 73
     1
 44
1.0
1001
ACAD
1000
MTEXTBEGIN
1070
    73
1070
     1
1070
    44
1040
1.0
1070
    74
1070
     0
1000
MTEXTEND
  0
LINE
  5
191B5
330
165C4
100
AcDbEntity
  8
寸法
 62
     0
 48
50.0
370
    -2
100
AcDbLine
 10
6424.67305712364
 20
7062.069435300564
 30
0.0
 11
6376.673057123639
 21
7062.069435300564
 31
0.0
  0
INSERT
  5
191B6
330
165C4
100
AcDbEntity
  8
寸法
 62
     0
 48
50.0
370
    -2
100
AcDbBlockReference
  2
_DOTSMALL
 10
6424.67305712364
 20
7062.069435300564
 30
0.0
 41
100.0
 42
100.0
 43
100.0
 50
180.0
  0
INSERT
  5
191B7
330
165C4
100
AcDbEntity
  8
寸法
 62
     0
 48
50.0
370
    -2
100
AcDbBlockReference
  2
_DOTSMALL
 10
6376.673057123639
 20
7062.069435300564
 30
0.0
 41
100.0
 42
100.0
 43
100.0
  0
POINT
  5
191B8
330
165C4
100
AcDbEntity
  8
DEFPOINTS
 62
     0
 48
50.0
100
AcDbPoint
 10
6424.67305712364
 20
7596.500206066815
 30
0.0
  0
POINT
  5
191B9
330
165C4
100
AcDbEntity
  8
DEFPOINTS
 62
     0
 48
50.0
100
AcDbPoint
 10
6376.673057123639
 20
7622.500206066728
 30
0.0
  0
POINT
  5
191BA
330
165C4
100
AcDbEntity
  8
DEFPOINTS
 62
     0
 48
50.0
100
AcDbPoint
 10
6376.673057123639
 20
7062.069435300564
 30
0.0
  0
ENDBLK
  5
165D2
330
165C4
100
AcDbEntity
  8
0
 48
50.0
100
AcDbBlockEnd
  0
BLOCK
  5
1663F
330
165EA
100
AcDbEntity
  8
0
 48
50.0
100
AcDbBlockBegin
  2
*D17
 70
     1
 10
0.0
 20
0.0
 30
0.0
  3
*D17
  1

  0
LINE
  5
1919C
330
165EA
100
AcDbEntity
  8
寸法
 62
     0
 48
50.0
370
    -2
100
AcDbLine
 10
6534.673057123653
 20
7576.500206066727
 30
0.0
 11
6534.673057123653
 21
7002.069435300565
 31
0.0
  0
LINE
  5
1919D
330
165EA
100
AcDbEntity
  8
寸法
 62
     0
 48
50.0
370
    -2
100
AcDbLine
 10
6424.67305712364
 20
7576.500206066815
 30
0.0
 11
6424.67305712364
 21
7002.069435300565
 31
0.0
  0
LINE
  5
1919E
330
165EA
100
AcDbEntity
  8
寸法
 62
     0
 48
50.0
370
    -2
100
AcDbLine
 10
6534.673057123653
 20
7062.069435300564
 30
0.0
 11
6424.67305712364
 21
7062.069435300564
 31
0.0
  0
MTEXT
  5
1919F
330
165EA
100
AcDbEntity
  8
寸法
 62
     7
 48
50.0
100
AcDbMText
 10
6479.673057123647
 20
6910.377540264334
 30
0.0
 40
120.0
 41
0.0
 71
     5
 72
     1
  1
\A1;110
  7
STYLE1
 73
     1
 44
1.0
1001
ACAD
1000
MTEXTBEGIN
1070
    73
1070
     1
1070
    44
1040
1.0
1070
    74
1070
     0
1000
MTEXTEND
  0
INSERT
  5
191A0
330
165EA
100
AcDbEntity
  8
寸法
 62
     0
 48
50.0
370
    -2
100
AcDbBlockReference
  2
_DOTSMALL
 10
6534.673057123653
 20
7062.069435300564
 30
0.0
 41
100.0
 42
100.0
 43
100.0
  0
INSERT
  5
191A1
330
165EA
100
AcDbEntity
  8
寸法
 62
     0
 48
50.0
370
    -2
100
AcDbBlockReference
  2
_DOTSMALL
 10
6424.67305712364
 20
7062.069435300564
 30
0.0
 41
100.0
 42
100.0
 43
100.0
 50
180.0
  0
POINT
  5
191A2
330
165EA
100
AcDbEntity
  8
DEFPOINTS
 62
     0
 48
50.0
100
AcDbPoint
 10
6534.673057123653
 20
7596.500206066727
 30
0.0
  0
POINT
  5
191A3
330
165EA
100
AcDbEntity
  8
DEFPOINTS
 62
     0
 48
50.0
100
AcDbPoint
 10
6424.67305712364
 20
7596.500206066815
 30
0.0
  0
POINT
  5
191A4
330
165EA
100
AcDbEntity
  8
DEFPOINTS
 62
     0
 48
50.0
100
AcDbPoint
 10
6424.67305712364
 20
7062.069435300564
 30
0.0
  0
ENDBLK
  5
16649
330
165EA
100
AcDbEntity
  8
0
 48
50.0
100
AcDbBlockEnd
  0
BLOCK
  5
166D0
330
166CF
100
AcDbEntity
  8
0
 48
50.0
100
AcDbBlockBegin
  2
*D18
 70
     1
 10
0.0
 20
0.0
 30
0.0
  3
*D18
  1

  0
LINE
  5
19191
330
166CF
100
AcDbEntity
  8
寸法
 62
     0
 48
50.0
370
    -2
100
AcDbLine
 10
6534.673057123663
 20
9826.500206066782
 30
0.0
 11
6534.673057123663
 21
10082.30842569183
 31
0.0
  0
LINE
  5
19192
330
166CF
100
AcDbEntity
  8
寸法
 62
     0
 48
50.0
370
    -2
100
AcDbLine
 10
6424.673057123664
 20
9826.500206066778
 30
0.0
 11
6424.673057123664
 21
10082.30842569183
 31
0.0
  0
LINE
  5
19193
330
166CF
100
AcDbEntity
  8
寸法
 62
     0
 48
50.0
370
    -2
100
AcDbLine
 10
6534.673057123663
 20
10022.30842569183
 30
0.0
 11
6634.673057123663
 21
10022.30842569183
 31
0.0
  0
LINE
  5
19194
330
166CF
100
AcDbEntity
  8
寸法
 62
     0
 48
50.0
370
    -2
100
AcDbLine
 10
6424.673057123664
 20
10022.30842569183
 30
0.0
 11
6324.673057123664
 21
10022.30842569183
 31
0.0
  0
LINE
  5
19195
330
166CF
100
AcDbEntity
  8
寸法
 62
     0
 48
50.0
370
    -2
100
AcDbLine
 10
6534.673057123663
 20
10022.30842569183
 30
0.0
 11
6424.673057123664
 21
10022.30842569183
 31
0.0
  0
INSERT
  5
19196
330
166CF
100
AcDbEntity
  8
寸法
 62
     0
 48
50.0
370
    -2
100
AcDbBlockReference
  2
_DOTSMALL
 10
6534.673057123663
 20
10022.30842569183
 30
0.0
 41
100.0
 42
100.0
 43
100.0
 50
180.0
  0
INSERT
  5
19197
330
166CF
100
AcDbEntity
  8
寸法
 62
     0
 48
50.0
370
    -2
100
AcDbBlockReference
  2
_DOTSMALL
 10
6424.673057123664
 20
10022.30842569183
 30
0.0
 41
100.0
 42
100.0
 43
100.0
  0
MTEXT
  5
19198
330
166CF
100
AcDbEntity
  8
寸法
 62
     7
 48
50.0
100
AcDbMText
 10
6479.673057123664
 20
10122.30842569183
 30
0.0
 40
120.0
 41
0.0
 71
     5
 72
     1
  1
\A1;110
  7
STYLE1
 73
     1
 44
1.0
1001
ACAD
1000
MTEXTBEGIN
1070
    73
1070
     1
1070
    44
1040
1.0
1070
    74
1070
     0
1000
MTEXTEND
  0
POINT
  5
19199
330
166CF
100
AcDbEntity
  8
DEFPOINTS
 62
     0
 48
50.0
100
AcDbPoint
 10
6534.673057123663
 20
9806.500206066781
 30
0.0
  0
POINT
  5
1919A
330
166CF
100
AcDbEntity
  8
DEFPOINTS
 62
     0
 48
50.0
100
AcDbPoint
 10
6424.673057123664
 20
9806.500206066779
 30
0.0
  0
POINT
  5
1919B
330
166CF
100
AcDbEntity
  8
DEFPOINTS
 62
     0
 48
50.0
100
AcDbPoint
 10
6424.673057123664
 20
10022.30842569183
 30
0.0
  0
ENDBLK
  5
166DC
330
166CF
100
AcDbEntity
  8
0
 48
50.0
100
AcDbBlockEnd
  0
BLOCK
  5
1726C
330
16908
100
AcDbEntity
  8
0
 48
50.0
100
AcDbBlockBegin
  2
*D19
 70
     1
 10
0.0
 20
0.0
 30
0.0
  3
*D19
  1

  0
LINE
  5
19189
330
16908
100
AcDbEntity
  8
寸法
 62
     0
 48
50.0
370
    -2
100
AcDbLine
 10
7849.673057123664
 20
9826.500206066826
 30
0.0
 11
7849.673057123664
 21
10331.62989924812
 31
0.0
  0
LINE
  5
1918A
330
16908
100
AcDbEntity
  8
寸法
 62
     0
 48
50.0
370
    -2
100
AcDbLine
 10
6479.673057123664
 20
10271.62989924812
 30
0.0
 11
7849.673057123664
 21
10271.62989924812
 31
0.0
  0
INSERT
  5
1918B
330
16908
100
AcDbEntity
  8
寸法
 62
     0
 48
50.0
370
    -2
100
AcDbBlockReference
  2
_DOTSMALL
 10
6479.673057123664
 20
10271.62989924812
 30
0.0
 41
100.0
 42
100.0
 43
100.0
 50
180.0
  0
INSERT
  5
1918C
330
16908
100
AcDbEntity
  8
寸法
 62
     0
 48
50.0
370
    -2
100
AcDbBlockReference
  2
_DOTSMALL
 10
7849.673057123664
 20
10271.62989924812
 30
0.0
 41
100.0
 42
100.0
 43
100.0
  0
MTEXT
  5
1918D
330
16908
100
AcDbEntity
  8
寸法
 62
     7
 48
50.0
100
AcDbMText
 10
7164.673057123664
 20
10371.62989924812
 30
0.0
 40
120.0
 41
0.0
 71
     5
 72
     1
  1
\A1;1370
  7
STYLE1
 73
     1
 44
1.0
1001
ACAD
1000
MTEXTBEGIN
1070
    73
1070
     1
1070
    44
1040
1.0
1070
    74
1070
     0
1000
MTEXTEND
  0
POINT
  5
1918E
330
16908
100
AcDbEntity
  8
DEFPOINTS
 62
     0
 48
50.0
100
AcDbPoint
 10
6479.673057123664
 20
10181.29634004977
 30
0.0
  0
POINT
  5
1918F
330
16908
100
AcDbEntity
  8
DEFPOINTS
 62
     0
 48
50.0
100
AcDbPoint
 10
7849.673057123664
 20
9806.500206066827
 30
0.0
  0
POINT
  5
19190
330
16908
100
AcDbEntity
  8
DEFPOINTS
 62
     0
 48
50.0
100
AcDbPoint
 10
7849.673057123664
 20
10271.62989924812
 30
0.0
  0
ENDBLK
  5
17275
330
16908
100
AcDbEntity
  8
0
 48
50.0
100
AcDbBlockEnd
  0
BLOCK
  5
17BD1
330
17BC5
100
AcDbEntity
  8
0
 48
50.0
100
AcDbBlockBegin
  2
*D20
 70
     1
 10
0.0
 20
0.0
 30
0.0
  3
*D20
  1

  0
LINE
  5
19159
330
17BC5
100
AcDbEntity
  8
寸法
 62
     0
 48
50.0
370
    -2
100
AcDbLine
 10
5054.67305712364
 20
7576.500206066815
 30
0.0
 11
5054.67305712364
 21
7002.069435300564
 31
0.0
  0
LINE
  5
1915A
330
17BC5
100
AcDbEntity
  8
寸法
 62
     0
 48
50.0
370
    -2
100
AcDbLine
 10
5006.673057123638
 20
7602.500206066729
 30
0.0
 11
5006.673057123638
 21
7002.069435300564
 31
0.0
  0
LINE
  5
1915B
330
17BC5
100
AcDbEntity
  8
寸法
 62
     0
 48
50.0
370
    -2
100
AcDbLine
 10
5054.67305712364
 20
7062.069435300564
 30
0.0
 11
5154.67305712364
 21
7062.069435300564
 31
0.0
  0
LINE
  5
1915C
330
17BC5
100
AcDbEntity
  8
寸法
 62
     0
 48
50.0
370
    -2
100
AcDbLine
 10
5006.673057123638
 20
7062.069435300564
 30
0.0
 11
4906.673057123638
 21
7062.069435300564
 31
0.0
  0
MTEXT
  5
1915D
330
17BC5
100
AcDbEntity
  8
寸法
 62
     7
 48
50.0
100
AcDbMText
 10
4895.710159474891
 20
7162.069435300565
 30
0.0
 40
120.0
 41
0.0
 71
     5
 72
     1
  1
\A1;48
  7
STYLE1
 73
     1
 44
1.0
1001
ACAD
1000
MTEXTBEGIN
1070
    73
1070
     1
1070
    44
1040
1.0
1070
    74
1070
     0
1000
MTEXTEND
  0
LINE
  5
1915E
330
17BC5
100
AcDbEntity
  8
寸法
 62
     0
 48
50.0
370
    -2
100
AcDbLine
 10
5054.67305712364
 20
7062.069435300564
 30
0.0
 11
5006.673057123638
 21
7062.069435300564
 31
0.0
  0
INSERT
  5
1915F
330
17BC5
100
AcDbEntity
  8
寸法
 62
     0
 48
50.0
370
    -2
100
AcDbBlockReference
  2
_DOTSMALL
 10
5054.67305712364
 20
7062.069435300564
 30
0.0
 41
100.0
 42
100.0
 43
100.0
 50
180.0
  0
INSERT
  5
19160
330
17BC5
100
AcDbEntity
  8
寸法
 62
     0
 48
50.0
370
    -2
100
AcDbBlockReference
  2
_DOTSMALL
 10
5006.673057123638
 20
7062.069435300564
 30
0.0
 41
100.0
 42
100.0
 43
100.0
  0
POINT
  5
19161
330
17BC5
100
AcDbEntity
  8
DEFPOINTS
 62
     0
 48
50.0
100
AcDbPoint
 10
5054.67305712364
 20
7596.500206066815
 30
0.0
  0
POINT
  5
19162
330
17BC5
100
AcDbEntity
  8
DEFPOINTS
 62
     0
 48
50.0
100
AcDbPoint
 10
5006.673057123638
 20
7622.500206066728
 30
0.0
  0
POINT
  5
19163
330
17BC5
100
AcDbEntity
  8
DEFPOINTS
 62
     0
 48
50.0
100
AcDbPoint
 10
5006.673057123638
 20
7062.069435300564
 30
0.0
  0
ENDBLK
  5
17BD2
330
17BC5
100
AcDbEntity
  8
0
 48
50.0
100
AcDbBlockEnd
  0
BLOCK
  5
17BDC
330
17BD3
100
AcDbEntity
  8
0
 48
50.0
100
AcDbBlockBegin
  2
*D21
 70
     1
 10
0.0
 20
0.0
 30
0.0
  3
*D21
  1

  0
LINE
  5
19164
330
17BD3
100
AcDbEntity
  8
寸法
 62
     0
 48
50.0
370
    -2
100
AcDbLine
 10
3842.673057123657
 20
7602.500206066728
 30
0.0
 11
3842.673057123657
 21
7002.069435300564
 31
0.0
  0
LINE
  5
19165
330
17BD3
100
AcDbEntity
  8
寸法
 62
     0
 48
50.0
370
    -2
100
AcDbLine
 10
5006.673057123638
 20
7062.069435300564
 30
0.0
 11
3842.673057123657
 21
7062.069435300564
 31
0.0
  0
INSERT
  5
19166
330
17BD3
100
AcDbEntity
  8
寸法
 62
     0
 48
50.0
370
    -2
100
AcDbBlockReference
  2
_DOTSMALL
 10
5006.673057123638
 20
7062.069435300564
 30
0.0
 41
100.0
 42
100.0
 43
100.0
  0
INSERT
  5
19167
330
17BD3
100
AcDbEntity
  8
寸法
 62
     0
 48
50.0
370
    -2
100
AcDbBlockReference
  2
_DOTSMALL
 10
3842.673057123657
 20
7062.069435300564
 30
0.0
 41
100.0
 42
100.0
 43
100.0
 50
180.0
  0
MTEXT
  5
19168
330
17BD3
100
AcDbEntity
  8
寸法
 62
     7
 48
50.0
100
AcDbMText
 10
4424.673057123647
 20
7262.069435300564
 30
0.0
 40
120.0
 41
0.0
 71
     5
 72
     1
  1
\A1;有効開口部間口\P 1164
  7
STYLE1
 73
     1
 44
1.0
1001
ACAD
1000
MTEXTBEGIN
1070
    73
1070
     1
1070
    44
1040
1.0
1070
    74
1070
     0
1000
MTEXTEND
  0
POINT
  5
19169
330
17BD3
100
AcDbEntity
  8
DEFPOINTS
 62
     0
 48
50.0
100
AcDbPoint
 10
5006.673057123638
 20
7622.500206066728
 30
0.0
  0
POINT
  5
1916A
330
17BD3
100
AcDbEntity
  8
DEFPOINTS
 62
     0
 48
50.0
100
AcDbPoint
 10
3842.673057123657
 20
7622.500206066728
 30
0.0
  0
POINT
  5
1916B
330
17BD3
100
AcDbEntity
  8
DEFPOINTS
 62
     0
 48
50.0
100
AcDbPoint
 10
3842.673057123657
 20
7062.069435300564
 30
0.0
  0
ENDBLK
  5
17BDD
330
17BD3
100
AcDbEntity
  8
0
 48
50.0
100
AcDbBlockEnd
  0
BLOCK
  5
17BE8
330
17BDE
100
AcDbEntity
  8
0
 48
50.0
100
AcDbBlockBegin
  2
*D22
 70
     1
 10
0.0
 20
0.0
 30
0.0
  3
*D22
  1

  0
LINE
  5
19177
330
17BDE
100
AcDbEntity
  8
寸法
 62
     0
 48
50.0
370
    -2
100
AcDbLine
 10
3794.673057123663
 20
9826.500206066732
 30
0.0
 11
3794.673057123663
 21
10082.30842569183
 31
0.0
  0
LINE
  5
19178
330
17BDE
100
AcDbEntity
  8
寸法
 62
     0
 48
50.0
370
    -2
100
AcDbLine
 10
5054.673057123665
 20
9826.500206066826
 30
0.0
 11
5054.673057123665
 21
10082.30842569183
 31
0.0
  0
LINE
  5
19179
330
17BDE
100
AcDbEntity
  8
寸法
 62
     0
 48
50.0
370
    -2
100
AcDbLine
 10
3794.673057123663
 20
10022.30842569183
 30
0.0
 11
5054.673057123665
 21
10022.30842569183
 31
0.0
  0
INSERT
  5
1917A
330
17BDE
100
AcDbEntity
  8
寸法
 62
     0
 48
50.0
370
    -2
100
AcDbBlockReference
  2
_DOTSMALL
 10
3794.673057123663
 20
10022.30842569183
 30
0.0
 41
100.0
 42
100.0
 43
100.0
 50
180.0
  0
INSERT
  5
1917B
330
17BDE
100
AcDbEntity
  8
寸法
 62
     0
 48
50.0
370
    -2
100
AcDbBlockReference
  2
_DOTSMALL
 10
5054.673057123665
 20
10022.30842569183
 30
0.0
 41
100.0
 42
100.0
 43
100.0
  0
MTEXT
  5
1917C
330
17BDE
100
AcDbEntity
  8
寸法
 62
     7
 48
50.0
100
AcDbMText
 10
4424.673057123664
 20
10122.32023671545
 30
0.0
 40
120.0
 41
0.0
 71
     5
 72
     1
  1
\A1;3X420=1260
  7
STYLE1
 73
     1
 44
1.0
1001
ACAD
1000
MTEXTBEGIN
1070
    73
1070
     1
1070
    44
1040
1.0
1070
    74
1070
     0
1000
MTEXTEND
  0
POINT
  5
1917D
330
17BDE
100
AcDbEntity
  8
DEFPOINTS
 62
     0
 48
50.0
100
AcDbPoint
 10
3794.673057123663
 20
9806.500206066733
 30
0.0
  0
POINT
  5
1917E
330
17BDE
100
AcDbEntity
  8
DEFPOINTS
 62
     0
 48
50.0
100
AcDbPoint
 10
5054.673057123665
 20
9806.500206066827
 30
0.0
  0
POINT
  5
1917F
330
17BDE
100
AcDbEntity
  8
DEFPOINTS
 62
     0
 48
50.0
100
AcDbPoint
 10
5054.673057123665
 20
10022.30842569183
 30
0.0
  0
ENDBLK
  5
17BE9
330
17BDE
100
AcDbEntity
  8
0
 48
50.0
100
AcDbBlockEnd
  0
BLOCK
  5
17BF6
330
17BEA
100
AcDbEntity
  8
0
 48
50.0
100
AcDbBlockBegin
  2
*D23
 70
     1
 10
0.0
 20
0.0
 30
0.0
  3
*D23
  1

  0
LINE
  5
1916C
330
17BEA
100
AcDbEntity
  8
寸法
 62
     0
 48
50.0
370
    -2
100
AcDbLine
 10
5164.673057123663
 20
9826.500206066782
 30
0.0
 11
5164.673057123663
 21
10082.30842569183
 31
0.0
  0
LINE
  5
1916D
330
17BEA
100
AcDbEntity
  8
寸法
 62
     0
 48
50.0
370
    -2
100
AcDbLine
 10
5054.673057123665
 20
9826.500206066778
 30
0.0
 11
5054.673057123665
 21
10082.30842569183
 31
0.0
  0
LINE
  5
1916E
330
17BEA
100
AcDbEntity
  8
寸法
 62
     0
 48
50.0
370
    -2
100
AcDbLine
 10
5164.673057123663
 20
10022.30842569183
 30
0.0
 11
5264.673057123663
 21
10022.30842569183
 31
0.0
  0
LINE
  5
1916F
330
17BEA
100
AcDbEntity
  8
寸法
 62
     0
 48
50.0
370
    -2
100
AcDbLine
 10
5054.673057123665
 20
10022.30842569183
 30
0.0
 11
4954.673057123664
 21
10022.30842569183
 31
0.0
  0
LINE
  5
19170
330
17BEA
100
AcDbEntity
  8
寸法
 62
     0
 48
50.0
370
    -2
100
AcDbLine
 10
5164.673057123663
 20
10022.30842569183
 30
0.0
 11
5054.673057123665
 21
10022.30842569183
 31
0.0
  0
INSERT
  5
19171
330
17BEA
100
AcDbEntity
  8
寸法
 62
     0
 48
50.0
370
    -2
100
AcDbBlockReference
  2
_DOTSMALL
 10
5164.673057123663
 20
10022.30842569183
 30
0.0
 41
100.0
 42
100.0
 43
100.0
 50
180.0
  0
INSERT
  5
19172
330
17BEA
100
AcDbEntity
  8
寸法
 62
     0
 48
50.0
370
    -2
100
AcDbBlockReference
  2
_DOTSMALL
 10
5054.673057123665
 20
10022.30842569183
 30
0.0
 41
100.0
 42
100.0
 43
100.0
  0
MTEXT
  5
19173
330
17BEA
100
AcDbEntity
  8
寸法
 62
     7
 48
50.0
100
AcDbMText
 10
5109.673057123664
 20
10122.30842569183
 30
0.0
 40
120.0
 41
0.0
 71
     5
 72
     1
  1
\A1;110
  7
STYLE1
 73
     1
 44
1.0
1001
ACAD
1000
MTEXTBEGIN
1070
    73
1070
     1
1070
    44
1040
1.0
1070
    74
1070
     0
1000
MTEXTEND
  0
POINT
  5
19174
330
17BEA
100
AcDbEntity
  8
DEFPOINTS
 62
     0
 48
50.0
100
AcDbPoint
 10
5164.673057123663
 20
9806.500206066781
 30
0.0
  0
POINT
  5
19175
330
17BEA
100
AcDbEntity
  8
DEFPOINTS
 62
     0
 48
50.0
100
AcDbPoint
 10
5054.673057123665
 20
9806.500206066779
 30
0.0
  0
POINT
  5
19176
330
17BEA
100
AcDbEntity
  8
DEFPOINTS
 62
     0
 48
50.0
100
AcDbPoint
 10
5054.673057123665
 20
10022.30842569183
 30
0.0
  0
ENDBLK
  5
17BF7
330
17BEA
100
AcDbEntity
  8
0
 48
50.0
100
AcDbBlockEnd
  0
BLOCK
  5
17C02
330
17BF8
100
AcDbEntity
  8
0
 48
50.0
100
AcDbBlockBegin
  2
*D24
 70
     1
 10
0.0
 20
0.0
 30
0.0
  3
*D24
  1

  0
LINE
  5
19180
330
17BF8
100
AcDbEntity
  8
寸法
 62
     0
 48
50.0
370
    -2
100
AcDbLine
 10
3739.673057123628
 20
9826.5002060667
 30
0.0
 11
3739.673057123628
 21
10331.62989924812
 31
0.0
  0
LINE
  5
19181
330
17BF8
100
AcDbEntity
  8
寸法
 62
     0
 48
50.0
370
    -2
100
AcDbLine
 10
5109.673057123664
 20
10201.29634004977
 30
0.0
 11
5109.673057123664
 21
10331.62989924812
 31
0.0
  0
LINE
  5
19182
330
17BF8
100
AcDbEntity
  8
寸法
 62
     0
 48
50.0
370
    -2
100
AcDbLine
 10
3739.673057123628
 20
10271.62989924812
 30
0.0
 11
5109.673057123664
 21
10271.62989924812
 31
0.0
  0
INSERT
  5
19183
330
17BF8
100
AcDbEntity
  8
寸法
 62
     0
 48
50.0
370
    -2
100
AcDbBlockReference
  2
_DOTSMALL
 10
3739.673057123628
 20
10271.62989924812
 30
0.0
 41
100.0
 42
100.0
 43
100.0
 50
180.0
  0
INSERT
  5
19184
330
17BF8
100
AcDbEntity
  8
寸法
 62
     0
 48
50.0
370
    -2
100
AcDbBlockReference
  2
_DOTSMALL
 10
5109.673057123664
 20
10271.62989924812
 30
0.0
 41
100.0
 42
100.0
 43
100.0
  0
MTEXT
  5
19185
330
17BF8
100
AcDbEntity
  8
寸法
 62
     7
 48
50.0
100
AcDbMText
 10
4424.673057123646
 20
10371.62989924812
 30
0.0
 40
120.0
 41
0.0
 71
     5
 72
     1
  1
\A1;1370
  7
STYLE1
 73
     1
 44
1.0
1001
ACAD
1000
MTEXTBEGIN
1070
    73
1070
     1
1070
    44
1040
1.0
1070
    74
1070
     0
1000
MTEXTEND
  0
POINT
  5
19186
330
17BF8
100
AcDbEntity
  8
DEFPOINTS
 62
     0
 48
50.0
100
AcDbPoint
 10
3739.673057123628
 20
9806.500206066701
 30
0.0
  0
POINT
  5
19187
330
17BF8
100
AcDbEntity
  8
DEFPOINTS
 62
     0
 48
50.0
100
AcDbPoint
 10
5109.673057123664
 20
10181.29634004977
 30
0.0
  0
POINT
  5
19188
330
17BF8
100
AcDbEntity
  8
DEFPOINTS
 62
     0
 48
50.0
100
AcDbPoint
 10
5109.673057123664
 20
10271.62989924812
 30
0.0
  0
ENDBLK
  5
17C03
330
17BF8
100
AcDbEntity
  8
0
 48
50.0
100
AcDbBlockEnd
  0
BLOCK
  5
17C54
330
17C48
100
AcDbEntity
  8
0
 48
50.0
100
AcDbBlockBegin
  2
*D25
 70
     1
 10
0.0
 20
0.0
 30
0.0
  3
*D25
  1

  0
LINE
  5
19145
330
17C48
100
AcDbEntity
  8
寸法
 62
     0
 48
50.0
370
    -2
100
AcDbLine
 10
5212.673057123657
 20
7602.500206066728
 30
0.0
 11
5212.673057123657
 21
7002.069435300564
 31
0.0
  0
LINE
  5
19146
330
17C48
100
AcDbEntity
  8
寸法
 62
     0
 48
50.0
370
    -2
100
AcDbLine
 10
5164.673057123653
 20
7576.500206066727
 30
0.0
 11
5164.673057123653
 21
7002.069435300564
 31
0.0
  0
LINE
  5
19147
330
17C48
100
AcDbEntity
  8
寸法
 62
     0
 48
50.0
370
    -2
100
AcDbLine
 10
5212.673057123657
 20
7062.069435300564
 30
0.0
 11
5312.673057123657
 21
7062.069435300564
 31
0.0
  0
LINE
  5
19148
330
17C48
100
AcDbEntity
  8
寸法
 62
     0
 48
50.0
370
    -2
100
AcDbLine
 10
5164.673057123653
 20
7062.069435300564
 30
0.0
 11
5064.673057123653
 21
7062.069435300564
 31
0.0
  0
MTEXT
  5
19149
330
17C48
100
AcDbEntity
  8
寸法
 62
     7
 48
50.0
100
AcDbMText
 10
5325.575028123714
 20
7162.069435300565
 30
0.0
 40
120.0
 41
0.0
 71
     5
 72
     1
  1
\A1;48
  7
STYLE1
 73
     1
 44
1.0
1001
ACAD
1000
MTEXTBEGIN
1070
    73
1070
     1
1070
    44
1040
1.0
1070
    74
1070
     0
1000
MTEXTEND
  0
LINE
  5
1914A
330
17C48
100
AcDbEntity
  8
寸法
 62
     0
 48
50.0
370
    -2
100
AcDbLine
 10
5212.673057123657
 20
7062.069435300564
 30
0.0
 11
5164.673057123653
 21
7062.069435300564
 31
0.0
  0
INSERT
  5
1914B
330
17C48
100
AcDbEntity
  8
寸法
 62
     0
 48
50.0
370
    -2
100
AcDbBlockReference
  2
_DOTSMALL
 10
5212.673057123657
 20
7062.069435300564
 30
0.0
 41
100.0
 42
100.0
 43
100.0
 50
180.0
  0
INSERT
  5
1914C
330
17C48
100
AcDbEntity
  8
寸法
 62
     0
 48
50.0
370
    -2
100
AcDbBlockReference
  2
_DOTSMALL
 10
5164.673057123653
 20
7062.069435300564
 30
0.0
 41
100.0
 42
100.0
 43
100.0
  0
POINT
  5
1914D
330
17C48
100
AcDbEntity
  8
DEFPOINTS
 62
     0
 48
50.0
100
AcDbPoint
 10
5212.673057123657
 20
7622.500206066728
 30
0.0
  0
POINT
  5
1914E
330
17C48
100
AcDbEntity
  8
DEFPOINTS
 62
     0
 48
50.0
100
AcDbPoint
 10
5164.673057123653
 20
7596.500206066727
 30
0.0
  0
POINT
  5
1914F
330
17C48
100
AcDbEntity
  8
DEFPOINTS
 62
     0
 48
50.0
100
AcDbPoint
 10
5164.673057123653
 20
7062.069435300564
 30
0.0
  0
ENDBLK
  5
17C55
330
17C48
100
AcDbEntity
  8
0
 48
50.0
100
AcDbBlockEnd
  0
BLOCK
  5
17C60
330
17C56
100
AcDbEntity
  8
0
 48
50.0
100
AcDbBlockBegin
  2
*D26
 70
     1
 10
0.0
 20
0.0
 30
0.0
  3
*D26
  1

  0
LINE
  5
19150
330
17C56
100
AcDbEntity
  8
寸法
 62
     0
 48
50.0
370
    -2
100
AcDbLine
 10
5164.673057123653
 20
7576.500206066727
 30
0.0
 11
5164.673057123653
 21
7002.069435300565
 31
0.0
  0
LINE
  5
19151
330
17C56
100
AcDbEntity
  8
寸法
 62
     0
 48
50.0
370
    -2
100
AcDbLine
 10
5054.67305712364
 20
7576.500206066815
 30
0.0
 11
5054.67305712364
 21
7002.069435300565
 31
0.0
  0
LINE
  5
19152
330
17C56
100
AcDbEntity
  8
寸法
 62
     0
 48
50.0
370
    -2
100
AcDbLine
 10
5164.673057123653
 20
7062.069435300564
 30
0.0
 11
5054.67305712364
 21
7062.069435300564
 31
0.0
  0
MTEXT
  5
19153
330
17C56
100
AcDbEntity
  8
寸法
 62
     7
 48
50.0
100
AcDbMText
 10
5109.673057123647
 20
6910.377540264334
 30
0.0
 40
120.0
 41
0.0
 71
     5
 72
     1
  1
\A1;110
  7
STYLE1
 73
     1
 44
1.0
1001
ACAD
1000
MTEXTBEGIN
1070
    73
1070
     1
1070
    44
1040
1.0
1070
    74
1070
     0
1000
MTEXTEND
  0
INSERT
  5
19154
330
17C56
100
AcDbEntity
  8
寸法
 62
     0
 48
50.0
370
    -2
100
AcDbBlockReference
  2
_DOTSMALL
 10
5164.673057123653
 20
7062.069435300564
 30
0.0
 41
100.0
 42
100.0
 43
100.0
  0
INSERT
  5
19155
330
17C56
100
AcDbEntity
  8
寸法
 62
     0
 48
50.0
370
    -2
100
AcDbBlockReference
  2
_DOTSMALL
 10
5054.67305712364
 20
7062.069435300564
 30
0.0
 41
100.0
 42
100.0
 43
100.0
 50
180.0
  0
POINT
  5
19156
330
17C56
100
AcDbEntity
  8
DEFPOINTS
 62
     0
 48
50.0
100
AcDbPoint
 10
5164.673057123653
 20
7596.500206066727
 30
0.0
  0
POINT
  5
19157
330
17C56
100
AcDbEntity
  8
DEFPOINTS
 62
     0
 48
50.0
100
AcDbPoint
 10
5054.67305712364
 20
7596.500206066815
 30
0.0
  0
POINT
  5
19158
330
17C56
100
AcDbEntity
  8
DEFPOINTS
 62
     0
 48
50.0
100
AcDbPoint
 10
5054.67305712364
 20
7062.069435300564
 30
0.0
  0
ENDBLK
  5
17C61
330
17C56
100
AcDbEntity
  8
0
 48
50.0
100
AcDbBlockEnd
  0
BLOCK
  5
1992E
330
19924
100
AcDbEntity
  8
0
 48
50.0
100
AcDbBlockBegin
  2
*D27
 70
     1
 10
0.0
 20
0.0
 30
0.0
  3
*D27
  1

  0
LINE
  5
19EAA
330
19924
100
AcDbEntity
  8
寸法
 62
     0
 48
50.0
370
    -2
100
AcDbLine
 10
10603.39024747386
 20
2537.931598713262
 30
0.0
 11
9419.640118290603
 21
2537.931598713262
 31
0.0
  0
LINE
  5
19EAB
330
19924
100
AcDbEntity
  8
寸法
 62
     0
 48
50.0
370
    -2
100
AcDbLine
 10
10543.39024747386
 20
4912.931598713267
 30
0.0
 11
9419.640118290605
 21
4912.931598713267
 31
0.0
  0
LINE
  5
19EAC
330
19924
100
AcDbEntity
  8
寸法
 62
     0
 48
50.0
370
    -2
100
AcDbLine
 10
9479.640118290602
 20
2537.931598713262
 30
0.0
 11
9479.640118290605
 21
4912.931598713267
 31
0.0
  0
INSERT
  5
19EAD
330
19924
100
AcDbEntity
  8
寸法
 62
     0
 48
50.0
370
    -2
100
AcDbBlockReference
  2
_DOTSMALL
 10
9479.640118290602
 20
2537.931598713262
 30
0.0
 41
100.0
 42
100.0
 43
100.0
 50
270.0
  0
INSERT
  5
19EAE
330
19924
100
AcDbEntity
  8
寸法
 62
     0
 48
50.0
370
    -2
100
AcDbBlockReference
  2
_DOTSMALL
 10
9479.640118290605
 20
4912.931598713267
 30
0.0
 41
100.0
 42
100.0
 43
100.0
 50
90.0
  0
MTEXT
  5
19EAF
330
19924
100
AcDbEntity
  8
寸法
 62
     7
 48
50.0
100
AcDbMText
 10
9379.628307266981
 20
3725.431598713266
 30
0.0
 40
120.0
 41
0.0
 71
     5
 72
     1
  1
\A1;2375
  7
STYLE1
 11
0.0000000000000001
 21
1.0
 31
0.0
 73
     1
 44
1.0
1001
ACAD
1000
MTEXTBEGIN
1070
    73
1070
     1
1070
    44
1040
1.0
1070
    74
1070
     0
1000
MTEXTEND
  0
POINT
  5
19EB0
330
19924
100
AcDbEntity
  8
DEFPOINTS
 62
     0
 48
50.0
100
AcDbPoint
 10
10623.39024747386
 20
2537.931598713262
 30
0.0
  0
POINT
  5
19EB1
330
19924
100
AcDbEntity
  8
DEFPOINTS
 62
     0
 48
50.0
100
AcDbPoint
 10
10563.39024747386
 20
4912.931598713267
 30
0.0
  0
POINT
  5
19EB2
330
19924
100
AcDbEntity
  8
DEFPOINTS
 62
     0
 48
50.0
100
AcDbPoint
 10
9479.640118290605
 20
4912.931598713267
 30
0.0
  0
ENDBLK
  5
1992F
330
19924
100
AcDbEntity
  8
0
 48
50.0
100
AcDbBlockEnd
  0
BLOCK
  5
1993B
330
19930
100
AcDbEntity
  8
0
 48
50.0
100
AcDbBlockBegin
  2
*D28
 70
     1
 10
0.0
 20
0.0
 30
0.0
  3
*D28
  1

  0
LINE
  5
19EA0
330
19930
100
AcDbEntity
  8
寸法
 62
     0
 48
50.0
370
    -2
100
AcDbLine
 10
12833.39024747386
 20
4879.742278324915
 30
0.0
 11
12833.39024747386
 21
5371.589052292566
 31
0.0
  0
LINE
  5
19EA1
330
19930
100
AcDbEntity
  8
寸法
 62
     0
 48
50.0
370
    -2
100
AcDbLine
 10
12913.39024747386
 20
4877.931598713264
 30
0.0
 11
12913.39024747386
 21
5371.589052292566
 31
0.0
  0
LINE
  5
19EA2
330
19930
100
AcDbEntity
  8
寸法
 62
     0
 48
50.0
370
    -2
100
AcDbLine
 10
12833.39024747386
 20
5311.589052292566
 30
0.0
 11
12913.39024747386
 21
5311.589052292566
 31
0.0
  0
LINE
  5
19EA3
330
19930
100
AcDbEntity
  8
寸法
 62
     0
 48
50.0
370
    -2
100
AcDbLine
 10
12913.39024747386
 20
5311.589052292566
 30
0.0
 11
13225.48473566284
 21
5311.589052292566
 31
0.0
  0
INSERT
  5
19EA4
330
19930
100
AcDbEntity
  8
寸法
 62
     0
 48
50.0
370
    -2
100
AcDbBlockReference
  2
_DOTSMALL
 10
12833.39024747386
 20
5311.589052292566
 30
0.0
 41
100.0
 42
100.0
 43
100.0
 50
180.0
  0
INSERT
  5
19EA5
330
19930
100
AcDbEntity
  8
寸法
 62
     0
 48
50.0
370
    -2
100
AcDbBlockReference
  2
_DOTSMALL
 10
12913.39024747386
 20
5311.589052292566
 30
0.0
 41
100.0
 42
100.0
 43
100.0
  0
MTEXT
  5
19EA6
330
19930
100
AcDbEntity
  8
寸法
 62
     7
 48
50.0
100
AcDbMText
 10
13119.43749156835
 20
5411.589052292566
 30
0.0
 40
120.0
 41
0.0
 71
     5
 72
     1
  1
\A1;80
  7
STYLE1
 73
     1
 44
1.0
1001
ACAD
1000
MTEXTBEGIN
1070
    73
1070
     1
1070
    44
1040
1.0
1070
    74
1070
     0
1000
MTEXTEND
  0
POINT
  5
19EA7
330
19930
100
AcDbEntity
  8
DEFPOINTS
 62
     0
 48
50.0
100
AcDbPoint
 10
12833.39024747386
 20
4859.742278324915
 30
0.0
  0
POINT
  5
19EA8
330
19930
100
AcDbEntity
  8
DEFPOINTS
 62
     0
 48
50.0
100
AcDbPoint
 10
12913.39024747386
 20
4857.931598713263
 30
0.0
  0
POINT
  5
19EA9
330
19930
100
AcDbEntity
  8
DEFPOINTS
 62
     0
 48
50.0
100
AcDbPoint
 10
12913.39024747386
 20
5311.589052292566
 30
0.0
  0
ENDBLK
  5
1993C
330
19930
100
AcDbEntity
  8
0
 48
50.0
100
AcDbBlockEnd
  0
BLOCK
  5
19948
330
1993D
100
AcDbEntity
  8
0
 48
50.0
100
AcDbBlockBegin
  2
*D29
 70
     1
 10
0.0
 20
0.0
 30
0.0
  3
*D29
  1

  0
LINE
  5
19E96
330
1993D
100
AcDbEntity
  8
寸法
 62
     0
 48
50.0
370
    -2
100
AcDbLine
 10
10562.79453376496
 20
4912.229305782923
 30
0.0
 11
9946.86009465969
 21
4929.943456057253
 31
0.0
  0
LINE
  5
19E97
330
1993D
100
AcDbEntity
  8
寸法
 62
     0
 48
50.0
370
    -2
100
AcDbLine
 10
10558.74107820833
 20
4771.28758201721
 30
0.0
 11
9942.806639103062
 21
4789.001732291541
 31
0.0
  0
LINE
  5
19E98
330
1993D
100
AcDbEntity
  8
寸法
 62
     0
 48
50.0
370
    -2
100
AcDbLine
 10
10002.78184070549
 20
4787.276857586592
 30
0.0
 11
10006.83529626212
 21
4928.218581352305
 31
0.0
  0
LINE
  5
19E99
330
1993D
100
AcDbEntity
  8
寸法
 62
     0
 48
50.0
370
    -2
100
AcDbLine
 10
10006.83529626212
 20
4928.218581352305
 30
0.0
 11
10017.1845444918
 21
5288.069790966891
 31
0.0
  0
INSERT
  5
19E9A
330
1993D
100
AcDbEntity
  8
寸法
 62
     0
 48
50.0
370
    -2
100
AcDbBlockReference
  2
_DOTSMALL
 10
10002.78184070549
 20
4787.276857586592
 30
0.0
 41
100.0
 42
100.0
 43
100.0
 50
268.3526390256378
  0
INSERT
  5
19E9B
330
1993D
100
AcDbEntity
  8
寸法
 62
     0
 48
50.0
370
    -2
100
AcDbBlockReference
  2
_DOTSMALL
 10
10006.83529626212
 20
4928.218581352305
 30
0.0
 41
100.0
 42
100.0
 43
100.0
 50
88.35263902563776
  0
MTEXT
  5
19E9C
330
1993D
100
AcDbEntity
  8
寸法
 62
     7
 48
50.0
100
AcDbMText
 10
9913.488646627035
 20
5160.998312003204
 30
0.0
 40
120.0
 41
0.0
 71
     5
 72
     1
  1
\A1;141
  7
STYLE1
 11
0.0287479117491237
 21
0.9995866933738488
 31
0.0
 73
     1
 44
1.0
1001
ACAD
1000
MTEXTBEGIN
1070
    73
1070
     1
1070
    44
1040
1.0
1070
    74
1070
     0
1000
MTEXTEND
  0
POINT
  5
19E9D
330
1993D
100
AcDbEntity
  8
DEFPOINTS
 62
     0
 48
50.0
100
AcDbPoint
 10
10582.78626763244
 20
4911.654347547941
 30
0.0
  0
POINT
  5
19E9E
330
1993D
100
AcDbEntity
  8
DEFPOINTS
 62
     0
 48
50.0
100
AcDbPoint
 10
10578.73281207581
 20
4770.712623782228
 30
0.0
  0
POINT
  5
19E9F
330
1993D
100
AcDbEntity
  8
DEFPOINTS
 62
     0
 48
50.0
100
AcDbPoint
 10
10002.78184070549
 20
4787.276857586592
 30
0.0
  0
ENDBLK
  5
19949
330
1993D
100
AcDbEntity
  8
0
 48
50.0
100
AcDbBlockEnd
  0
BLOCK
  5
19956
330
1994A
100
AcDbEntity
  8
0
 48
50.0
100
AcDbBlockBegin
  2
*D30
 70
     1
 10
0.0
 20
0.0
 30
0.0
  3
*D30
  1

  0
LINE
  5
19E8B
330
1994A
100
AcDbEntity
  8
寸法
 62
     0
 48
50.0
370
    -2
100
AcDbLine
 10
10623.39024747386
 20
4928.933216836238
 30
0.0
 11
10623.39024747386
 21
5371.589052292566
 31
0.0
  0
LINE
  5
19E8C
330
1994A
100
AcDbEntity
  8
寸法
 62
     0
 48
50.0
370
    -2
100
AcDbLine
 10
10563.39024747386
 20
4932.931598713267
 30
0.0
 11
10563.39024747386
 21
5371.589052292566
 31
0.0
  0
LINE
  5
19E8D
330
1994A
100
AcDbEntity
  8
寸法
 62
     0
 48
50.0
370
    -2
100
AcDbLine
 10
10623.39024747386
 20
5311.589052292566
 30
0.0
 11
10723.39024747386
 21
5311.589052292566
 31
0.0
  0
LINE
  5
19E8E
330
1994A
100
AcDbEntity
  8
寸法
 62
     0
 48
50.0
370
    -2
100
AcDbLine
 10
10563.39024747386
 20
5311.589052292566
 30
0.0
 11
10144.11465692268
 21
5311.589052292566
 31
0.0
  0
LINE
  5
19E8F
330
1994A
100
AcDbEntity
  8
寸法
 62
     0
 48
50.0
370
    -2
100
AcDbLine
 10
10623.39024747386
 20
5311.589052292566
 30
0.0
 11
10563.39024747386
 21
5311.589052292566
 31
0.0
  0
INSERT
  5
19E90
330
1994A
100
AcDbEntity
  8
寸法
 62
     0
 48
50.0
370
    -2
100
AcDbBlockReference
  2
_DOTSMALL
 10
10623.39024747386
 20
5311.589052292566
 30
0.0
 41
100.0
 42
100.0
 43
100.0
 50
180.0
  0
INSERT
  5
19E91
330
1994A
100
AcDbEntity
  8
寸法
 62
     0
 48
50.0
370
    -2
100
AcDbBlockReference
  2
_DOTSMALL
 10
10563.39024747386
 20
5311.589052292566
 30
0.0
 41
100.0
 42
100.0
 43
100.0
  0
MTEXT
  5
19E92
330
1994A
100
AcDbEntity
  8
寸法
 62
     7
 48
50.0
100
AcDbMText
 10
10253.75245219827
 20
5411.589052292566
 30
0.0
 40
120.0
 41
0.0
 71
     5
 72
     1
  1
\A1;60
  7
STYLE1
 73
     1
 44
1.0
1001
ACAD
1000
MTEXTBEGIN
1070
    73
1070
     1
1070
    44
1040
1.0
1070
    74
1070
     0
1000
MTEXTEND
  0
POINT
  5
19E93
330
1994A
100
AcDbEntity
  8
DEFPOINTS
 62
     0
 48
50.0
100
AcDbPoint
 10
10623.39024747386
 20
4908.933216836238
 30
0.0
  0
POINT
  5
19E94
330
1994A
100
AcDbEntity
  8
DEFPOINTS
 62
     0
 48
50.0
100
AcDbPoint
 10
10563.39024747386
 20
4912.931598713267
 30
0.0
  0
POINT
  5
19E95
330
1994A
100
AcDbEntity
  8
DEFPOINTS
 62
     0
 48
50.0
100
AcDbPoint
 10
10563.39024747386
 20
5311.589052292566
 30
0.0
  0
ENDBLK
  5
19957
330
1994A
100
AcDbEntity
  8
0
 48
50.0
100
AcDbBlockEnd
  0
BLOCK
  5
19962
330
19958
100
AcDbEntity
  8
0
 48
50.0
100
AcDbBlockBegin
  2
*D31
 70
     1
 10
0.0
 20
0.0
 30
0.0
  3
*D31
  1

  0
LINE
  5
1A3E9
330
19958
100
AcDbEntity
  8
寸法
 62
     0
 48
50.0
370
    -2
100
AcDbLine
 10
12833.39024747386
 20
4879.742278324915
 30
0.0
 11
12833.39024747386
 21
5371.589052292566
 31
0.0
  0
LINE
  5
1A3EA
330
19958
100
AcDbEntity
  8
寸法
 62
     0
 48
50.0
370
    -2
100
AcDbLine
 10
10623.39024747386
 20
4928.933216836238
 30
0.0
 11
10623.39024747386
 21
5371.589052292566
 31
0.0
  0
LINE
  5
1A3EB
330
19958
100
AcDbEntity
  8
寸法
 62
     0
 48
50.0
370
    -2
100
AcDbLine
 10
12833.39024747386
 20
5311.589052292566
 30
0.0
 11
10623.39024747386
 21
5311.589052292566
 31
0.0
  0
INSERT
  5
1A3EC
330
19958
100
AcDbEntity
  8
寸法
 62
     0
 48
50.0
370
    -2
100
AcDbBlockReference
  2
_DOTSMALL
 10
12833.39024747386
 20
5311.589052292566
 30
0.0
 41
100.0
 42
100.0
 43
100.0
  0
INSERT
  5
1A3ED
330
19958
100
AcDbEntity
  8
寸法
 62
     0
 48
50.0
370
    -2
100
AcDbBlockReference
  2
_DOTSMALL
 10
10623.39024747386
 20
5311.589052292566
 30
0.0
 41
100.0
 42
100.0
 43
100.0
 50
180.0
  0
MTEXT
  5
1A3EE
330
19958
100
AcDbEntity
  8
寸法
 62
     7
 48
50.0
100
AcDbMText
 10
11728.39024747386
 20
5411.600863316188
 30
0.0
 40
120.0
 41
0.0
 71
     5
 72
     1
  1
\A1;柱外寸法2210
  7
STYLE1
 73
     1
 44
1.0
1001
ACAD
1000
MTEXTBEGIN
1070
    73
1070
     1
1070
    44
1040
1.0
1070
    74
1070
     0
1000
MTEXTEND
  0
POINT
  5
1A3EF
330
19958
100
AcDbEntity
  8
DEFPOINTS
 62
     0
 48
50.0
100
AcDbPoint
 10
12833.39024747386
 20
4859.742278324915
 30
0.0
  0
POINT
  5
1A3F0
330
19958
100
AcDbEntity
  8
DEFPOINTS
 62
     0
 48
50.0
100
AcDbPoint
 10
10623.39024747386
 20
4908.933216836238
 30
0.0
  0
POINT
  5
1A3F1
330
19958
100
AcDbEntity
  8
DEFPOINTS
 62
     0
 48
50.0
100
AcDbPoint
 10
10623.39024747386
 20
5311.589052292566
 30
0.0
  0
ENDBLK
  5
19963
330
19958
100
AcDbEntity
  8
0
 48
50.0
100
AcDbBlockEnd
  0
BLOCK
  5
1996E
330
19964
100
AcDbEntity
  8
0
 48
50.0
100
AcDbBlockBegin
  2
*D32
 70
     1
 10
0.0
 20
0.0
 30
0.0
  3
*D32
  1

  0
LINE
  5
1A3D4
330
19964
100
AcDbEntity
  8
寸法
 62
     0
 48
50.0
370
    -2
100
AcDbLine
 10
12913.39024747386
 20
4877.931598713264
 30
0.0
 11
12913.39024747386
 21
5590.790885966857
 31
0.0
  0
LINE
  5
1A3D5
330
19964
100
AcDbEntity
  8
寸法
 62
     0
 48
50.0
370
    -2
100
AcDbLine
 10
10563.39024747386
 20
4932.931598713267
 30
0.0
 11
10563.39024747386
 21
5590.790885966857
 31
0.0
  0
LINE
  5
1A3D6
330
19964
100
AcDbEntity
  8
寸法
 62
     0
 48
50.0
370
    -2
100
AcDbLine
 10
12913.39024747386
 20
5530.790885966857
 30
0.0
 11
10563.39024747386
 21
5530.790885966857
 31
0.0
  0
INSERT
  5
1A3D7
330
19964
100
AcDbEntity
  8
寸法
 62
     0
 48
50.0
370
    -2
100
AcDbBlockReference
  2
_DOTSMALL
 10
12913.39024747386
 20
5530.790885966857
 30
0.0
 41
100.0
 42
100.0
 43
100.0
  0
INSERT
  5
1A3D8
330
19964
100
AcDbEntity
  8
寸法
 62
     0
 48
50.0
370
    -2
100
AcDbBlockReference
  2
_DOTSMALL
 10
10563.39024747386
 20
5530.790885966857
 30
0.0
 41
100.0
 42
100.0
 43
100.0
 50
180.0
  0
MTEXT
  5
1A3D9
330
19964
100
AcDbEntity
  8
寸法
 62
     7
 48
50.0
100
AcDbMText
 10
11738.39024747386
 20
5630.802696990478
 30
0.0
 40
120.0
 41
0.0
 71
     5
 72
     1
  1
\A1;2350
  7
STYLE1
 73
     1
 44
1.0
1001
ACAD
1000
MTEXTBEGIN
1070
    73
1070
     1
1070
    44
1040
1.0
1070
    74
1070
     0
1000
MTEXTEND
  0
POINT
  5
1A3DA
330
19964
100
AcDbEntity
  8
DEFPOINTS
 62
     0
 48
50.0
100
AcDbPoint
 10
12913.39024747386
 20
4857.931598713263
 30
0.0
  0
POINT
  5
1A3DB
330
19964
100
AcDbEntity
  8
DEFPOINTS
 62
     0
 48
50.0
100
AcDbPoint
 10
10563.39024747386
 20
4912.931598713267
 30
0.0
  0
POINT
  5
1A3DC
330
19964
100
AcDbEntity
  8
DEFPOINTS
 62
     0
 48
50.0
100
AcDbPoint
 10
10563.39024747386
 20
5530.790885966857
 30
0.0
  0
ENDBLK
  5
1996F
330
19964
100
AcDbEntity
  8
0
 48
50.0
100
AcDbBlockEnd
  0
BLOCK
  5
1997C
330
19970
100
AcDbEntity
  8
0
 48
50.0
100
AcDbBlockBegin
  2
*D33
 70
     1
 10
0.0
 20
0.0
 30
0.0
  3
*D33
  1

  0
LINE
  5
19E6E
330
19970
100
AcDbEntity
  8
寸法
 62
     0
 48
50.0
370
    -2
100
AcDbLine
 10
10603.39024747386
 20
2587.931598713262
 30
0.0
 11
9719.640118290602
 21
2587.931598713262
 31
0.0
  0
LINE
  5
19E6F
330
19970
100
AcDbEntity
  8
寸法
 62
     0
 48
50.0
370
    -2
100
AcDbLine
 10
10548.39024747386
 20
2537.931598713262
 30
0.0
 11
9719.640118290602
 21
2537.931598713262
 31
0.0
  0
LINE
  5
19E70
330
19970
100
AcDbEntity
  8
寸法
 62
     0
 48
50.0
370
    -2
100
AcDbLine
 10
9779.6401182906
 20
2587.931598713262
 30
0.0
 11
9779.6401182906
 21
2687.931598713262
 31
0.0
  0
LINE
  5
19E71
330
19970
100
AcDbEntity
  8
寸法
 62
     0
 48
50.0
370
    -2
100
AcDbLine
 10
9779.6401182906
 20
2537.931598713262
 30
0.0
 11
9779.6401182906
 21
2048.134354618772
 31
0.0
  0
LINE
  5
19E72
330
19970
100
AcDbEntity
  8
寸法
 62
     0
 48
50.0
370
    -2
100
AcDbLine
 10
9779.6401182906
 20
2587.931598713262
 30
0.0
 11
9779.6401182906
 21
2537.931598713262
 31
0.0
  0
INSERT
  5
19E73
330
19970
100
AcDbEntity
  8
寸法
 62
     0
 48
50.0
370
    -2
100
AcDbBlockReference
  2
_DOTSMALL
 10
9779.6401182906
 20
2587.931598713262
 30
0.0
 41
100.0
 42
100.0
 43
100.0
 50
270.0
  0
INSERT
  5
19E74
330
19970
100
AcDbEntity
  8
寸法
 62
     0
 48
50.0
370
    -2
100
AcDbBlockReference
  2
_DOTSMALL
 10
9779.6401182906
 20
2537.931598713262
 30
0.0
 41
100.0
 42
100.0
 43
100.0
 50
90.0
  0
MTEXT
  5
19E75
330
19970
100
AcDbEntity
  8
寸法
 62
     7
 48
50.0
100
AcDbMText
 10
9679.640118290601
 20
2154.181598713262
 30
0.0
 40
120.0
 41
0.0
 71
     5
 72
     1
  1
\A1;50
  7
STYLE1
 11
0.0000000000000001
 21
1.0
 31
0.0
 73
     1
 44
1.0
1001
ACAD
1000
MTEXTBEGIN
1070
    73
1070
     1
1070
    44
1040
1.0
1070
    74
1070
     0
1000
MTEXTEND
  0
POINT
  5
19E76
330
19970
100
AcDbEntity
  8
DEFPOINTS
 62
     0
 48
50.0
100
AcDbPoint
 10
10623.39024747386
 20
2587.931598713262
 30
0.0
  0
POINT
  5
19E77
330
19970
100
AcDbEntity
  8
DEFPOINTS
 62
     0
 48
50.0
100
AcDbPoint
 10
10568.39024747386
 20
2537.931598713262
 30
0.0
  0
POINT
  5
19E78
330
19970
100
AcDbEntity
  8
DEFPOINTS
 62
     0
 48
50.0
100
AcDbPoint
 10
9779.6401182906
 20
2537.931598713262
 30
0.0
  0
ENDBLK
  5
1997D
330
19970
100
AcDbEntity
  8
0
 48
50.0
100
AcDbBlockEnd
  0
BLOCK
  5
19995
330
1998B
100
AcDbEntity
  8
0
 48
50.0
100
AcDbBlockBegin
  2
*D34
 70
     1
 10
0.0
 20
0.0
 30
0.0
  3
*D34
  1

  0
LINE
  5
19E5B
330
1998B
100
AcDbEntity
  8
寸法
 62
     0
 48
50.0
370
    -2
100
AcDbLine
 10
10603.39024747386
 20
4677.931598713261
 30
0.0
 11
9719.640118290604
 21
4677.931598713263
 31
0.0
  0
LINE
  5
19E5C
330
1998B
100
AcDbEntity
  8
寸法
 62
     0
 48
50.0
370
    -2
100
AcDbLine
 10
10603.39024747386
 20
2587.931598713262
 30
0.0
 11
9719.640118290602
 21
2587.931598713262
 31
0.0
  0
LINE
  5
19E5D
330
1998B
100
AcDbEntity
  8
寸法
 62
     0
 48
50.0
370
    -2
100
AcDbLine
 10
9779.640118290604
 20
4677.931598713263
 30
0.0
 11
9779.6401182906
 21
2587.931598713262
 31
0.0
  0
INSERT
  5
19E5E
330
1998B
100
AcDbEntity
  8
寸法
 62
     0
 48
50.0
370
    -2
100
AcDbBlockReference
  2
_DOTSMALL
 10
9779.640118290604
 20
4677.931598713263
 30
0.0
 41
100.0
 42
100.0
 43
100.0
 50
90.0
  0
INSERT
  5
19E5F
330
1998B
100
AcDbEntity
  8
寸法
 62
     0
 48
50.0
370
    -2
100
AcDbBlockReference
  2
_DOTSMALL
 10
9779.6401182906
 20
2587.931598713262
 30
0.0
 41
100.0
 42
100.0
 43
100.0
 50
270.0
  0
MTEXT
  5
19E60
330
1998B
100
AcDbEntity
  8
寸法
 62
     7
 48
50.0
100
AcDbMText
 10
9679.62830726698
 20
3632.931598713264
 30
0.0
 40
120.0
 41
0.0
 71
     5
 72
     1
  1
\A1;2090
  7
STYLE1
 11
0.0000000000000001
 21
1.0
 31
0.0
 73
     1
 44
1.0
1001
ACAD
1000
MTEXTBEGIN
1070
    73
1070
     1
1070
    44
1040
1.0
1070
    74
1070
     0
1000
MTEXTEND
  0
POINT
  5
19E61
330
1998B
100
AcDbEntity
  8
DEFPOINTS
 62
     0
 48
50.0
100
AcDbPoint
 10
10623.39024747386
 20
4677.931598713261
 30
0.0
  0
POINT
  5
19E62
330
1998B
100
AcDbEntity
  8
DEFPOINTS
 62
     0
 48
50.0
100
AcDbPoint
 10
10623.39024747386
 20
2587.931598713262
 30
0.0
  0
POINT
  5
19E63
330
1998B
100
AcDbEntity
  8
DEFPOINTS
 62
     0
 48
50.0
100
AcDbPoint
 10
9779.6401182906
 20
2587.931598713262
 30
0.0
  0
ENDBLK
  5
19996
330
1998B
100
AcDbEntity
  8
0
 48
50.0
100
AcDbBlockEnd
  0
BLOCK
  5
199B9
330
199AF
100
AcDbEntity
  8
0
 48
50.0
100
AcDbBlockBegin
  2
*D35
 70
     1
 10
0.0
 20
0.0
 30
0.0
  3
*D35
  1

  0
LINE
  5
1A069
330
199AF
100
AcDbEntity
  8
寸法
 62
     0
 48
50.0
370
    -2
100
AcDbLine
 10
12853.39024747386
 20
2537.931598713262
 30
0.0
 11
13598.31740544598
 21
2537.931598713262
 31
0.0
  0
LINE
  5
1A06A
330
199AF
100
AcDbEntity
  8
寸法
 62
     0
 48
50.0
370
    -2
100
AcDbLine
 10
12948.39024747386
 20
4857.931598713261
 30
0.0
 11
13598.31740544599
 21
4857.931598713261
 31
0.0
  0
LINE
  5
1A06B
330
199AF
100
AcDbEntity
  8
寸法
 62
     0
 48
50.0
370
    -2
100
AcDbLine
 10
13538.31740544598
 20
2537.931598713262
 30
0.0
 11
13538.31740544599
 21
4857.931598713261
 31
0.0
  0
INSERT
  5
1A06C
330
199AF
100
AcDbEntity
  8
寸法
 62
     0
 48
50.0
370
    -2
100
AcDbBlockReference
  2
_DOTSMALL
 10
13538.31740544598
 20
2537.931598713262
 30
0.0
 41
100.0
 42
100.0
 43
100.0
 50
270.0
  0
INSERT
  5
1A06D
330
199AF
100
AcDbEntity
  8
寸法
 62
     0
 48
50.0
370
    -2
100
AcDbBlockReference
  2
_DOTSMALL
 10
13538.31740544599
 20
4857.931598713261
 30
0.0
 41
100.0
 42
100.0
 43
100.0
 50
90.0
  0
MTEXT
  5
1A06E
330
199AF
100
AcDbEntity
  8
寸法
 62
     7
 48
50.0
100
AcDbMText
 10
13438.30559442236
 20
3697.931598713262
 30
0.0
 40
120.0
 41
0.0
 71
     5
 72
     1
  1
\A1;2320
  7
STYLE1
 11
0.0000000000000001
 21
1.0
 31
0.0
 73
     1
 44
1.0
1001
ACAD
1000
MTEXTBEGIN
1070
    73
1070
     1
1070
    44
1040
1.0
1070
    74
1070
     0
1000
MTEXTEND
  0
POINT
  5
1A06F
330
199AF
100
AcDbEntity
  8
DEFPOINTS
 62
     0
 48
50.0
100
AcDbPoint
 10
12833.39024747386
 20
2537.931598713262
 30
0.0
  0
POINT
  5
1A070
330
199AF
100
AcDbEntity
  8
DEFPOINTS
 62
     0
 48
50.0
100
AcDbPoint
 10
12928.39024747386
 20
4857.931598713261
 30
0.0
  0
POINT
  5
1A071
330
199AF
100
AcDbEntity
  8
DEFPOINTS
 62
     0
 48
50.0
100
AcDbPoint
 10
13538.31740544599
 20
4857.931598713261
 30
0.0
  0
ENDBLK
  5
199BA
330
199AF
100
AcDbEntity
  8
0
 48
50.0
100
AcDbBlockEnd
  0
BLOCK
  5
19F6A
330
19F5E
100
AcDbEntity
  8
0
 48
50.0
100
AcDbBlockBegin
  2
*D36
 70
     1
 10
0.0
 20
0.0
 30
0.0
  3
*D36
  1

  0
LINE
  5
19FAE
330
19F5E
100
AcDbEntity
  8
寸法
 62
     0
 48
50.0
370
    -2
100
AcDbLine
 10
7899.673057123656
 20
4932.931598713266
 30
0.0
 11
7899.673057123656
 21
5378.657870445174
 31
0.0
  0
LINE
  5
19FAF
330
19F5E
100
AcDbEntity
  8
寸法
 62
     0
 48
50.0
370
    -2
100
AcDbLine
 10
7849.673057123657
 20
4932.931598713269
 30
0.0
 11
7849.673057123657
 21
5378.657870445174
 31
0.0
  0
LINE
  5
19FB0
330
19F5E
100
AcDbEntity
  8
寸法
 62
     0
 48
50.0
370
    -2
100
AcDbLine
 10
7849.673057123657
 20
5318.657870445173
 30
0.0
 11
7749.673057123657
 21
5318.657870445173
 31
0.0
  0
LINE
  5
19FB1
330
19F5E
100
AcDbEntity
  8
寸法
 62
     0
 48
50.0
370
    -2
100
AcDbLine
 10
7899.673057123656
 20
5318.657870445173
 30
0.0
 11
8319.205582592386
 21
5318.657870445173
 31
0.0
  0
LINE
  5
19FB2
330
19F5E
100
AcDbEntity
  8
寸法
 62
     0
 48
50.0
370
    -2
100
AcDbLine
 10
7849.673057123657
 20
5318.657870445173
 30
0.0
 11
7899.673057123656
 21
5318.657870445173
 31
0.0
  0
INSERT
  5
19FB3
330
19F5E
100
AcDbEntity
  8
寸法
 62
     0
 48
50.0
370
    -2
100
AcDbBlockReference
  2
_DOTSMALL
 10
7849.673057123657
 20
5318.657870445173
 30
0.0
 41
100.0
 42
100.0
 43
100.0
  0
INSERT
  5
19FB4
330
19F5E
100
AcDbEntity
  8
寸法
 62
     0
 48
50.0
370
    -2
100
AcDbBlockReference
  2
_DOTSMALL
 10
7899.673057123656
 20
5318.657870445173
 30
0.0
 41
100.0
 42
100.0
 43
100.0
 50
180.0
  0
MTEXT
  5
19FB5
330
19F5E
100
AcDbEntity
  8
寸法
 62
     7
 48
50.0
100
AcDbMText
 10
8213.158338497896
 20
5418.657870445173
 30
0.0
 40
120.0
 41
0.0
 71
     5
 72
     1
  1
\A1;50
  7
STYLE1
 73
     1
 44
1.0
1001
ACAD
1000
MTEXTBEGIN
1070
    73
1070
     1
1070
    44
1040
1.0
1070
    74
1070
     0
1000
MTEXTEND
  0
POINT
  5
19FB6
330
19F5E
100
AcDbEntity
  8
DEFPOINTS
 62
     0
 48
50.0
100
AcDbPoint
 10
7899.673057123656
 20
4912.931598713266
 30
0.0
  0
POINT
  5
19FB7
330
19F5E
100
AcDbEntity
  8
DEFPOINTS
 62
     0
 48
50.0
100
AcDbPoint
 10
7849.673057123657
 20
4912.931598713268
 30
0.0
  0
POINT
  5
19FB8
330
19F5E
100
AcDbEntity
  8
DEFPOINTS
 62
     0
 48
50.0
100
AcDbPoint
 10
7849.673057123657
 20
5318.657870445173
 30
0.0
  0
ENDBLK
  5
19F6B
330
19F5E
100
AcDbEntity
  8
0
 48
50.0
100
AcDbBlockEnd
  0
BLOCK
  5
19F78
330
19F6C
100
AcDbEntity
  8
0
 48
50.0
100
AcDbBlockBegin
  2
*D37
 70
     1
 10
0.0
 20
0.0
 30
0.0
  3
*D37
  1

  0
LINE
  5
19F9A
330
19F6C
100
AcDbEntity
  8
寸法
 62
     0
 48
50.0
370
    -2
100
AcDbLine
 10
3739.673057123657
 20
4932.931598713268
 30
0.0
 11
3739.673057123657
 21
5378.657870445171
 31
0.0
  0
LINE
  5
19F9B
330
19F6C
100
AcDbEntity
  8
寸法
 62
     0
 48
50.0
370
    -2
100
AcDbLine
 10
3689.673057123657
 20
4932.931598713267
 30
0.0
 11
3689.673057123657
 21
5378.657870445171
 31
0.0
  0
LINE
  5
19F9C
330
19F6C
100
AcDbEntity
  8
寸法
 62
     0
 48
50.0
370
    -2
100
AcDbLine
 10
3739.673057123657
 20
5318.657870445171
 30
0.0
 11
3839.673057123657
 21
5318.657870445171
 31
0.0
  0
LINE
  5
19F9D
330
19F6C
100
AcDbEntity
  8
寸法
 62
     0
 48
50.0
370
    -2
100
AcDbLine
 10
3689.673057123657
 20
5318.657870445171
 30
0.0
 11
3270.140531654921
 21
5318.657870445171
 31
0.0
  0
LINE
  5
19F9E
330
19F6C
100
AcDbEntity
  8
寸法
 62
     0
 48
50.0
370
    -2
100
AcDbLine
 10
3739.673057123657
 20
5318.657870445171
 30
0.0
 11
3689.673057123657
 21
5318.657870445171
 31
0.0
  0
INSERT
  5
19F9F
330
19F6C
100
AcDbEntity
  8
寸法
 62
     0
 48
50.0
370
    -2
100
AcDbBlockReference
  2
_DOTSMALL
 10
3739.673057123657
 20
5318.657870445171
 30
0.0
 41
100.0
 42
100.0
 43
100.0
 50
180.0
  0
INSERT
  5
19FA0
330
19F6C
100
AcDbEntity
  8
寸法
 62
     0
 48
50.0
370
    -2
100
AcDbBlockReference
  2
_DOTSMALL
 10
3689.673057123657
 20
5318.657870445171
 30
0.0
 41
100.0
 42
100.0
 43
100.0
  0
MTEXT
  5
19FA1
330
19F6C
100
AcDbEntity
  8
寸法
 62
     7
 48
50.0
100
AcDbMText
 10
3376.18777574941
 20
5418.657870445171
 30
0.0
 40
120.0
 41
0.0
 71
     5
 72
     1
  1
\A1;50
  7
STYLE1
 73
     1
 44
1.0
1001
ACAD
1000
MTEXTBEGIN
1070
    73
1070
     1
1070
    44
1040
1.0
1070
    74
1070
     0
1000
MTEXTEND
  0
POINT
  5
19FA2
330
19F6C
100
AcDbEntity
  8
DEFPOINTS
 62
     0
 48
50.0
100
AcDbPoint
 10
3739.673057123657
 20
4912.931598713267
 30
0.0
  0
POINT
  5
19FA3
330
19F6C
100
AcDbEntity
  8
DEFPOINTS
 62
     0
 48
50.0
100
AcDbPoint
 10
3689.673057123657
 20
4912.931598713267
 30
0.0
  0
POINT
  5
19FA4
330
19F6C
100
AcDbEntity
  8
DEFPOINTS
 62
     0
 48
50.0
100
AcDbPoint
 10
3689.673057123657
 20
5318.657870445171
 30
0.0
  0
ENDBLK
  5
19F79
330
19F6C
100
AcDbEntity
  8
0
 48
50.0
100
AcDbBlockEnd
  0
BLOCK
  5
1A028
330
1A01E
100
AcDbEntity
  8
0
 48
50.0
100
AcDbBlockBegin
  2
*D38
 70
     1
 10
0.0
 20
0.0
 30
0.0
  3
*D38
  1

  0
LINE
  5
1A033
330
1A01E
100
AcDbEntity
  8
寸法
 62
     0
 48
50.0
370
    -2
100
AcDbLine
 10
7849.673057123657
 20
4932.931598704801
 30
0.0
 11
7849.673057123657
 21
5378.657870445171
 31
0.0
  0
LINE
  5
1A034
330
1A01E
100
AcDbEntity
  8
寸法
 62
     0
 48
50.0
370
    -2
100
AcDbLine
 10
3739.673057123657
 20
4932.931598713268
 30
0.0
 11
3739.673057123657
 21
5378.657870445171
 31
0.0
  0
LINE
  5
1A035
330
1A01E
100
AcDbEntity
  8
寸法
 62
     0
 48
50.0
370
    -2
100
AcDbLine
 10
7849.673057123657
 20
5318.657870445171
 30
0.0
 11
3739.673057123657
 21
5318.657870445171
 31
0.0
  0
INSERT
  5
1A036
330
1A01E
100
AcDbEntity
  8
寸法
 62
     0
 48
50.0
370
    -2
100
AcDbBlockReference
  2
_DOTSMALL
 10
7849.673057123657
 20
5318.657870445171
 30
0.0
 41
100.0
 42
100.0
 43
100.0
  0
INSERT
  5
1A037
330
1A01E
100
AcDbEntity
  8
寸法
 62
     0
 48
50.0
370
    -2
100
AcDbBlockReference
  2
_DOTSMALL
 10
3739.673057123657
 20
5318.657870445171
 30
0.0
 41
100.0
 42
100.0
 43
100.0
 50
180.0
  0
MTEXT
  5
1A038
330
1A01E
100
AcDbEntity
  8
寸法
 62
     7
 48
50.0
100
AcDbMText
 10
5794.673057123657
 20
5418.657870445171
 30
0.0
 40
120.0
 41
0.0
 71
     5
 72
     1
  1
\A1;柱外寸法 N X 1370
  7
STYLE1
 73
     1
 44
1.0
1001
ACAD
1000
MTEXTBEGIN
1070
    73
1070
     1
1070
    44
1040
1.0
1070
    74
1070
     0
1000
MTEXTEND
  0
POINT
  5
1A039
330
1A01E
100
AcDbEntity
  8
DEFPOINTS
 62
     0
 48
50.0
100
AcDbPoint
 10
7849.673057123657
 20
4912.9315987048
 30
0.0
  0
POINT
  5
1A03A
330
1A01E
100
AcDbEntity
  8
DEFPOINTS
 62
     0
 48
50.0
100
AcDbPoint
 10
3739.673057123657
 20
4912.931598713267
 30
0.0
  0
POINT
  5
1A03B
330
1A01E
100
AcDbEntity
  8
DEFPOINTS
 62
     0
 48
50.0
100
AcDbPoint
 10
3739.673057123657
 20
5318.657870445171
 30
0.0
  0
ENDBLK
  5
1A029
330
1A01E
100
AcDbEntity
  8
0
 48
50.0
100
AcDbBlockEnd
  0
BLOCK
  5
1A233
330
1A229
100
AcDbEntity
  8
0
 48
50.0
100
AcDbBlockBegin
  2
*D39
 70
     1
 10
0.0
 20
0.0
 30
0.0
  3
*D39
  1

  0
LINE
  5
1A2E8
330
1A229
100
AcDbEntity
  8
寸法
 62
     0
 48
50.0
370
    -2
100
AcDbLine
 10
7869.673057123657
 20
2537.931598713262
 30
0.0
 11
8197.216159445401
 21
2537.931598713262
 31
0.0
  0
LINE
  5
1A2E9
330
1A229
100
AcDbEntity
  8
寸法
 62
     0
 48
50.0
370
    -2
100
AcDbLine
 10
7869.673057123657
 20
4485.931598713261
 30
0.0
 11
8197.216159445403
 21
4485.931598713261
 31
0.0
  0
LINE
  5
1A2EA
330
1A229
100
AcDbEntity
  8
寸法
 62
     0
 48
50.0
370
    -2
100
AcDbLine
 10
8137.216159445403
 20
2537.931598713262
 30
0.0
 11
8137.216159445403
 21
4485.931598713261
 31
0.0
  0
INSERT
  5
1A2EB
330
1A229
100
AcDbEntity
  8
寸法
 62
     0
 48
50.0
370
    -2
100
AcDbBlockReference
  2
_DOTSMALL
 10
8137.216159445403
 20
2537.931598713262
 30
0.0
 41
100.0
 42
100.0
 43
100.0
 50
270.0
  0
INSERT
  5
1A2EC
330
1A229
100
AcDbEntity
  8
寸法
 62
     0
 48
50.0
370
    -2
100
AcDbBlockReference
  2
_DOTSMALL
 10
8137.216159445403
 20
4485.931598713261
 30
0.0
 41
100.0
 42
100.0
 43
100.0
 50
90.0
  0
MTEXT
  5
1A2ED
330
1A229
100
AcDbEntity
  8
寸法
 62
     7
 48
50.0
100
AcDbMText
 10
8037.216159445403
 20
3511.931598713263
 30
0.0
 40
120.0
 41
0.0
 71
     5
 72
     1
  1
\A1;有効開口部高サ 1948
  7
STYLE1
 11
0.0000000000000001
 21
1.0
 31
0.0
 73
     1
 44
1.0
1001
ACAD
1000
MTEXTBEGIN
1070
    73
1070
     1
1070
    44
1040
1.0
1070
    74
1070
     0
1000
MTEXTEND
  0
POINT
  5
1A2EE
330
1A229
100
AcDbEntity
  8
DEFPOINTS
 62
     0
 48
50.0
100
AcDbPoint
 10
7849.673057123657
 20
2537.931598713262
 30
0.0
  0
POINT
  5
1A2EF
330
1A229
100
AcDbEntity
  8
DEFPOINTS
 62
     0
 48
50.0
100
AcDbPoint
 10
7849.673057123657
 20
4485.931598713261
 30
0.0
  0
POINT
  5
1A2F0
330
1A229
100
AcDbEntity
  8
DEFPOINTS
 62
     0
 48
50.0
100
AcDbPoint
 10
8137.216159445403
 20
4485.931598713261
 30
0.0
  0
ENDBLK
  5
1A234
330
1A229
100
AcDbEntity
  8
0
 48
50.0
100
AcDbBlockEnd
  0
BLOCK
  5
1A241
330
1A235
100
AcDbEntity
  8
0
 48
50.0
100
AcDbBlockBegin
  2
*D40
 70
     1
 10
0.0
 20
0.0
 30
0.0
  3
*D40
  1

  0
LINE
  5
1A413
330
1A235
100
AcDbEntity
  8
寸法
 62
     0
 48
50.0
370
    -2
100
AcDbLine
 10
7869.673057123657
 20
4485.931598713261
 30
0.0
 11
8197.216159445403
 21
4485.931598713261
 31
0.0
  0
LINE
  5
1A414
330
1A235
100
AcDbEntity
  8
寸法
 62
     0
 48
50.0
370
    -2
100
AcDbLine
 10
7869.673057123657
 20
4512.931598713262
 30
0.0
 11
8197.216159445403
 21
4512.931598713262
 31
0.0
  0
LINE
  5
1A415
330
1A235
100
AcDbEntity
  8
寸法
 62
     0
 48
50.0
370
    -2
100
AcDbLine
 10
8137.216159445403
 20
4485.931598713261
 30
0.0
 11
8137.216159445403
 21
4385.931598713261
 31
0.0
  0
LINE
  5
1A416
330
1A235
100
AcDbEntity
  8
寸法
 62
     0
 48
50.0
370
    -2
100
AcDbLine
 10
8137.216159445403
 20
4512.931598713262
 30
0.0
 11
8137.216159445403
 21
4612.931598713262
 31
0.0
  0
MTEXT
  5
1A417
330
1A235
100
AcDbEntity
  8
寸法
 62
     7
 48
50.0
100
AcDbMText
 10
8277.385982691768
 20
4513.89879855292
 30
0.0
 40
120.0
 41
0.0
 71
     5
 72
     1
  1
\A1;27
  7
STYLE1
 11
0.0000000000000001
 21
1.0
 31
0.0
 73
     1
 44
1.0
1001
ACAD
1000
MTEXTBEGIN
1070
    73
1070
     1
1070
    44
1040
1.0
1070
    74
1070
     0
1000
MTEXTEND
  0
LINE
  5
1A418
330
1A235
100
AcDbEntity
  8
寸法
 62
     0
 48
50.0
370
    -2
100
AcDbLine
 10
8137.216159445403
 20
4485.931598713261
 30
0.0
 11
8137.216159445403
 21
4512.931598713262
 31
0.0
  0
INSERT
  5
1A419
330
1A235
100
AcDbEntity
  8
寸法
 62
     0
 48
50.0
370
    -2
100
AcDbBlockReference
  2
_DOTSMALL
 10
8137.216159445403
 20
4485.931598713261
 30
0.0
 41
100.0
 42
100.0
 43
100.0
 50
90.0
  0
INSERT
  5
1A41A
330
1A235
100
AcDbEntity
  8
寸法
 62
     0
 48
50.0
370
    -2
100
AcDbBlockReference
  2
_DOTSMALL
 10
8137.216159445403
 20
4512.931598713262
 30
0.0
 41
100.0
 42
100.0
 43
100.0
 50
270.0
  0
POINT
  5
1A41B
330
1A235
100
AcDbEntity
  8
DEFPOINTS
 62
     0
 48
50.0
100
AcDbPoint
 10
7849.673057123657
 20
4485.931598713261
 30
0.0
  0
POINT
  5
1A41C
330
1A235
100
AcDbEntity
  8
DEFPOINTS
 62
     0
 48
50.0
100
AcDbPoint
 10
7849.673057123657
 20
4512.931598713262
 30
0.0
  0
POINT
  5
1A41D
330
1A235
100
AcDbEntity
  8
DEFPOINTS
 62
     0
 48
50.0
100
AcDbPoint
 10
8137.216159445403
 20
4512.931598713262
 30
0.0
  0
ENDBLK
  5
1A242
330
1A235
100
AcDbEntity
  8
0
 48
50.0
100
AcDbBlockEnd
  0
BLOCK
  5
1A24E
330
1A243
100
AcDbEntity
  8
0
 48
50.0
100
AcDbBlockBegin
  2
*D41
 70
     1
 10
0.0
 20
0.0
 30
0.0
  3
*D41
  1

  0
LINE
  5
1A409
330
1A243
100
AcDbEntity
  8
寸法
 62
     0
 48
50.0
370
    -2
100
AcDbLine
 10
7869.673057123657
 20
4512.931598713262
 30
0.0
 11
8197.216159445405
 21
4512.931598713262
 31
0.0
  0
LINE
  5
1A40A
330
1A243
100
AcDbEntity
  8
寸法
 62
     0
 48
50.0
370
    -2
100
AcDbLine
 10
7869.673057123657
 20
4677.931598713261
 30
0.0
 11
8197.216159445405
 21
4677.931598713261
 31
0.0
  0
LINE
  5
1A40B
330
1A243
100
AcDbEntity
  8
寸法
 62
     0
 48
50.0
370
    -2
100
AcDbLine
 10
8137.216159445404
 20
4512.931598713262
 30
0.0
 11
8137.216159445404
 21
4677.931598713261
 31
0.0
  0
LINE
  5
1A40C
330
1A243
100
AcDbEntity
  8
寸法
 62
     0
 48
50.0
370
    -2
100
AcDbLine
 10
8137.216159445404
 20
4677.931598713261
 30
0.0
 11
8137.216159445404
 21
5054.902161461739
 31
0.0
  0
INSERT
  5
1A40D
330
1A243
100
AcDbEntity
  8
寸法
 62
     0
 48
50.0
370
    -2
100
AcDbBlockReference
  2
_DOTSMALL
 10
8137.216159445404
 20
4512.931598713262
 30
0.0
 41
100.0
 42
100.0
 43
100.0
 50
270.0
  0
INSERT
  5
1A40E
330
1A243
100
AcDbEntity
  8
寸法
 62
     0
 48
50.0
370
    -2
100
AcDbBlockReference
  2
_DOTSMALL
 10
8137.216159445404
 20
4677.931598713261
 30
0.0
 41
100.0
 42
100.0
 43
100.0
 50
90.0
  0
MTEXT
  5
1A40F
330
1A243
100
AcDbEntity
  8
寸法
 62
     7
 48
50.0
100
AcDbMText
 10
8037.216159445403
 20
4916.4168800875
 30
0.0
 40
120.0
 41
0.0
 71
     5
 72
     1
  1
\A1;165
  7
STYLE1
 11
0.0000000000000001
 21
1.0
 31
0.0
 73
     1
 44
1.0
1001
ACAD
1000
MTEXTBEGIN
1070
    73
1070
     1
1070
    44
1040
1.0
1070
    74
1070
     0
1000
MTEXTEND
  0
POINT
  5
1A410
330
1A243
100
AcDbEntity
  8
DEFPOINTS
 62
     0
 48
50.0
100
AcDbPoint
 10
7849.673057123657
 20
4512.931598713262
 30
0.0
  0
POINT
  5
1A411
330
1A243
100
AcDbEntity
  8
DEFPOINTS
 62
     0
 48
50.0
100
AcDbPoint
 10
7849.673057123657
 20
4677.931598713261
 30
0.0
  0
POINT
  5
1A412
330
1A243
100
AcDbEntity
  8
DEFPOINTS
 62
     0
 48
50.0
100
AcDbPoint
 10
8137.216159445404
 20
4677.931598713261
 30
0.0
  0
ENDBLK
  5
1A24F
330
1A243
100
AcDbEntity
  8
0
 48
50.0
100
AcDbBlockEnd
  0
ENDSEC
  0
SECTION
  2
ENTITIES
  0
MTEXT
  5
763F
330
747D
100
AcDbEntity
  8
0
100
AcDbMText
 10
302.846345836809
 20
280.1983726409901
 30
0.0
 40
3.5
 41
5.323721266742722
 71
     1
 72
     5
  1

  7
MSMINCHO
 73
     1
 44
1.0
1001
ACAD
1000
MTEXTBEGIN
1070
    73
1070
     1
1070
    44
1040
1.0
1070
    74
1070
     0
1000
MTEXTEND
  0
LINE
  5
10B57
330
747D
100
AcDbEntity
  8
補助
  6
PHANTOM
 62
   230
 48
50.0
100
AcDbLine
 10
139.9999999999995
 20
11409.6
 30
0.0
 11
16307.2
 21
11409.6
 31
0.0
  0
LINE
  5
10B59
330
747D
100
AcDbEntity
  8
仕様書枠
  6
Continuous
 48
50.0
100
AcDbLine
 10
13107.2
 20
1200.0
 30
0.0
 11
13107.2
 21
-0.0000000000000729
 31
0.0
  0
LINE
  5
10B5C
330
747D
100
AcDbEntity
  8
仕様書枠
 48
50.0
100
AcDbLine
 10
16307.2
 20
1200.0
 30
0.0
 11
16307.2
 21
-0.0000000000000909
 31
0.0
  0
LINE
  5
10B5D
330
747D
100
AcDbEntity
  8
仕様書枠
 48
50.0
100
AcDbLine
 10
140.0
 20
0.0
 30
0.0
 11
16307.2
 21
-0.0000000000000909
 31
0.0
  0
LINE
  5
10B5E
330
747D
100
AcDbEntity
  8
補助
  6
PHANTOM
 62
   230
 48
50.0
100
AcDbLine
 10
16307.2
 20
11409.6
 30
0.0
 11
16307.2
 21
1200.0
 31
0.0
  0
LINE
  5
10B6C
330
747D
100
AcDbEntity
  8
仕様書枠
 48
50.0
100
AcDbLine
 10
13107.2
 20
1200.0
 30
0.0
 11
16307.2
 21
1200.0
 31
0.0
  0
LINE
  5
10B6D
330
747D
100
AcDbEntity
  8
補助
  6
PHANTOM
 62
   230
 48
50.0
100
AcDbLine
 10
13107.2
 20
11409.6
 30
0.0
 11
13107.2
 21
4800.0
 31
0.0
  0
LINE
  5
10B6F
330
747D
100
AcDbEntity
  8
補助
  6
PHANTOM
 62
   230
 48
50.0
100
AcDbLine
 10
13107.2
 20
4800.0
 30
0.0
 11
16307.2
 21
4800.0
 31
0.0
  0
LINE
  5
10B72
330
747D
100
AcDbEntity
  8
文字
 62
     7
 48
50.0
100
AcDbLine
 10
13187.2
 20
400.0
 30
0.0
 11
16227.2
 21
400.0
 31
0.0
  0
TEXT
  5
10B73
330
747D
100
AcDbEntity
  8
文字
 62
     7
 48
50.0
100
AcDbText
 10
13162.9790565769
 20
895.0906074299405
 30
0.0
 40
200.0
  1
外 形 図
  7
STYLE2
100
AcDbText
  0
TEXT
  5
10B74
330
747D
100
AcDbEntity
  8
文字
 62
     7
 48
50.0
100
AcDbText
 10
13201.43669998441
 20
477.2740661031255
 30
0.0
 40
160.0
  1
機種名
  7
STYLE2
100
AcDbText
  0
TEXT
  5
10B75
330
747D
100
AcDbEntity
  8
文字
 62
     7
 48
50.0
100
AcDbText
 10
13209.4053442172
 20
228.5435242569016
 30
0.0
 40
100.0
  1
○有効開口寸法 ： 1164×1948(mm)
  7
STYLE2
100
AcDbText
  0
TEXT
  5
10B79
330
747D
100
AcDbEntity
  8
文字
 62
     7
 48
50.0
100
AcDbText
 10
14524.131837222
 20
1031.557706291228
 30
0.0
 40
100.0
  1
NO.06      <縮尺> S=1/40
  7
STYLE2
100
AcDbText
  0
LINE
  5
10B7B
330
747D
100
AcDbEntity
  8
仕様書枠
 48
50.0
100
AcDbLine
 10
13107.2
 20
800.0
 30
0.0
 11
14251.2
 21
800.0
 31
0.0
  0
LINE
  5
10B88
330
747D
100
AcDbEntity
  8
仕様書枠
  6
Continuous
 48
50.0
100
AcDbLine
 10
14251.2
 20
1200.0
 30
0.0
 11
14251.2
 21
800.0
 31
0.0
  0
LINE
  5
127A8
330
747D
100
AcDbEntity
  8
部品1
100
AcDbLine
 10
2750.903465777274
 20
2567.835409280926
 30
0.0
 11
2900.903465777274
 21
2567.835409280926
 31
0.0
  0
LINE
  5
127A9
330
747D
100
AcDbEntity
  8
部品1
100
AcDbLine
 10
2825.903465777274
 20
2437.931598713261
 30
0.0
 11
2750.903465777274
 21
2567.835409280926
 31
0.0
  0
TEXT
  5
127AA
330
747D
100
AcDbEntity
  8
部品1
100
AcDbText
 10
2929.008407902047
 20
2474.038502319163
 30
0.0
 40
125.0
  1
G.L
  7
MSGOTHIC
100
AcDbText
  0
LINE
  5
127AB
330
747D
100
AcDbEntity
  8
部品1
100
AcDbLine
 10
2900.903465777274
 20
2567.835409280926
 30
0.0
 11
2825.903465777274
 21
2437.931598713261
 31
0.0
  0
DIMENSION
  5
13BF0
330
747D
100
AcDbEntity
  8
寸法
 48
50.0
100
AcDbDimension
  2
*D1
 10
7899.673057123656
 20
5518.566791659261
 30
0.0
 11
5794.673057123657
 21
5518.566791659261
 31
0.0
 70
   160
  1
N X 1370+100
 71
     5
 42
4210.0
  3
INABA_S40G
100
AcDbAlignedDimension
 13
3689.673057123657
 23
4912.931598713267
 33
0.0
 14
7899.673057123656
 24
4912.931598713266
 34
0.0
100
AcDbRotatedDimension
  0
LINE
  5
13C1F
330
747D
100
AcDbEntity
  8
部品1
100
AcDbLine
 10
3739.673057123656
 20
4771.931598713266
 30
0.0
 11
3739.673057123657
 21
2437.931598713261
 31
0.0
  0
LINE
  5
13CFC
330
747D
100
AcDbEntity
  8
部品1
100
AcDbLine
 10
7794.673057123656
 20
4512.931598713261
 30
0.0
 11
7794.673057123656
 21
2537.931598713262
 31
0.0
  0
LINE
  5
13CFE
330
747D
100
AcDbEntity
  8
部品1
100
AcDbLine
 10
3794.673057123656
 20
4512.931598713261
 30
0.0
 11
3794.673057123656
 21
2537.931598713262
 31
0.0
  0
LINE
  5
13D18
330
747D
100
AcDbEntity
  8
部品1
100
AcDbLine
 10
7849.673057123658
 20
4771.93159871327
 30
0.0
 11
7849.673057123657
 21
2437.931598713261
 31
0.0
  0
LINE
  5
146B2
330
747D
100
AcDbEntity
  8
破線
 48
5.0
100
AcDbLine
 10
7849.673057123657
 20
2437.931598713261
 30
0.0
 11
7849.673057123657
 21
2187.931598713261
 31
0.0
  0
LINE
  5
146B3
330
747D
100
AcDbEntity
  8
破線
 48
5.0
100
AcDbLine
 10
3739.673057123657
 20
2437.931598713261
 30
0.0
 11
3739.673057123656
 21
2187.931598713261
 31
0.0
  0
TEXT
  5
149A1
330
747D
100
AcDbEntity
  8
部品1
100
AcDbText
 10
5454.531393724808
 20
1595.038069494737
 30
0.0
 40
135.0
  1
正面図
  7
MSGOTHIC
100
AcDbText
  0
LWPOLYLINE
  5
149A2
330
747D
100
AcDbEntity
  8
部品1
100
AcDbPolyline
 90
        4
 70
     1
 43
0.0
 10
5364.005989986853
 20
1787.931598713261
 10
5364.005989986853
 20
1548.039277167729
 10
6127.476656215292
 20
1548.039277167729
 10
6127.476656215292
 20
1787.931598713261
  0
TEXT
  5
14E88
330
747D
100
AcDbEntity
  8
部品1
100
AcDbText
 10
5453.925599815891
 20
6256.381640371876
 30
0.0
 40
135.0
  1
平面図
  7
MSGOTHIC
100
AcDbText
  0
LWPOLYLINE
  5
14E89
330
747D
100
AcDbEntity
  8
部品1
100
AcDbPolyline
 90
        4
 70
     1
 43
0.0
 10
5364.005989986853
 20
6449.275169590399
 10
5364.005989986853
 20
6209.382848044866
 10
6127.476656215293
 20
6209.382848044866
 10
6127.476656215293
 20
6449.275169590399
  0
TEXT
  5
15550
330
747D
100
AcDbEntity
  8
文字
 62
     7
 48
50.0
100
AcDbText
 10
14700.0475972514
 20
871.9640646083623
 30
0.0
 40
100.0
  1
～一般型・多雪地型～
  7
STYLE2
100
AcDbText
  0
LINE
  5
15CE5
330
747D
100
AcDbEntity
  8
破線
 48
5.0
100
AcDbLine
 10
7794.673057123656
 20
2537.931598713262
 30
0.0
 11
7794.673057123657
 21
2187.931598713261
 31
0.0
  0
LINE
  5
15CE6
330
747D
100
AcDbEntity
  8
破線
 48
5.0
100
AcDbLine
 10
3794.673057123656
 20
2537.931598713262
 30
0.0
 11
3794.673057123656
 21
2187.931598713261
 31
0.0
  0
LINE
  5
15CE7
330
747D
100
AcDbEntity
  8
破線
 48
5.0
100
AcDbLine
 10
7849.673057123656
 20
2187.931598713261
 30
0.0
 11
7794.673057123657
 21
2187.931598713261
 31
0.0
  0
LINE
  5
15CE8
330
747D
100
AcDbEntity
  8
破線
 48
5.0
100
AcDbLine
 10
3794.673057123655
 20
2187.931598713269
 30
0.0
 11
3739.673057123656
 21
2187.931598713269
 31
0.0
  0
LINE
  5
15CE9
330
747D
100
AcDbEntity
  8
部品1
100
AcDbLine
 10
3842.673057123657
 20
4512.931598713261
 30
0.0
 11
3842.673057123657
 21
2537.931598713262
 31
0.0
  0
LINE
  5
15CEA
330
747D
100
AcDbEntity
  8
破線
 48
5.0
100
AcDbLine
 10
3842.673057123657
 20
2537.931598713262
 30
0.0
 11
3842.673057123656
 21
2287.931598713267
 31
0.0
  0
LINE
  5
15CEB
330
747D
100
AcDbEntity
  8
部品1
100
AcDbLine
 10
7746.673057123658
 20
4512.931598713262
 30
0.0
 11
7746.673057123655
 21
2537.931598713262
 31
0.0
  0
LINE
  5
15CEC
330
747D
100
AcDbEntity
  8
破線
 48
5.0
100
AcDbLine
 10
7746.673057123655
 20
2537.931598713262
 30
0.0
 11
7746.673057123658
 21
2287.931598713262
 31
0.0
  0
LINE
  5
15CED
330
747D
100
AcDbEntity
  8
破線
 48
5.0
100
AcDbLine
 10
7794.673057123659
 20
2287.931598713262
 30
0.0
 11
7746.673057123657
 21
2287.931598713262
 31
0.0
  0
LINE
  5
15CEE
330
747D
100
AcDbEntity
  8
破線
 48
5.0
100
AcDbLine
 10
3842.673057123656
 20
2287.931598713267
 30
0.0
 11
3794.673057123655
 21
2287.931598713267
 31
0.0
  0
LINE
  5
15D20
330
747D
100
AcDbEntity
  8
細線
100
AcDbLine
 10
6582.673057123654
 20
4172.931598713261
 30
0.0
 11
7746.673057123655
 21
4172.931598713261
 31
0.0
  0
LINE
  5
15D21
330
747D
100
AcDbEntity
  8
細線
100
AcDbLine
 10
6582.673057123654
 20
4237.931598713261
 30
0.0
 11
7746.673057123655
 21
4237.931598713261
 31
0.0
  0
LINE
  5
15D22
330
747D
100
AcDbEntity
  8
細線
100
AcDbLine
 10
6582.673057123654
 20
4302.931598713261
 30
0.0
 11
7746.673057123655
 21
4302.931598713261
 31
0.0
  0
LINE
  5
15D23
330
747D
100
AcDbEntity
  8
細線
100
AcDbLine
 10
6582.673057123654
 20
3782.931598713262
 30
0.0
 11
7746.673057123655
 21
3782.931598713262
 31
0.0
  0
LINE
  5
15D24
330
747D
100
AcDbEntity
  8
細線
100
AcDbLine
 10
6582.673057123654
 20
3847.931598713262
 30
0.0
 11
7746.673057123655
 21
3847.931598713262
 31
0.0
  0
LINE
  5
15D25
330
747D
100
AcDbEntity
  8
細線
100
AcDbLine
 10
6582.673057123654
 20
3912.931598713262
 30
0.0
 11
7746.673057123655
 21
3912.931598713262
 31
0.0
  0
LINE
  5
15D26
330
747D
100
AcDbEntity
  8
細線
100
AcDbLine
 10
6582.673057123654
 20
3977.931598713261
 30
0.0
 11
7746.673057123655
 21
3977.931598713261
 31
0.0
  0
LINE
  5
15D27
330
747D
100
AcDbEntity
  8
細線
100
AcDbLine
 10
6582.673057123654
 20
4042.931598713261
 30
0.0
 11
7746.673057123655
 21
4042.931598713261
 31
0.0
  0
LINE
  5
15D28
330
747D
100
AcDbEntity
  8
細線
100
AcDbLine
 10
6582.673057123654
 20
4107.931598713261
 30
0.0
 11
7746.673057123655
 21
4107.931598713261
 31
0.0
  0
LINE
  5
15D29
330
747D
100
AcDbEntity
  8
細線
100
AcDbLine
 10
6582.673057123654
 20
3132.931598713261
 30
0.0
 11
7746.673057123655
 21
3132.931598713261
 31
0.0
  0
LINE
  5
15D2A
330
747D
100
AcDbEntity
  8
細線
100
AcDbLine
 10
6582.673057123654
 20
3197.931598713262
 30
0.0
 11
7746.673057123655
 21
3197.931598713262
 31
0.0
  0
LINE
  5
15D2B
330
747D
100
AcDbEntity
  8
細線
100
AcDbLine
 10
6582.673057123654
 20
3262.931598713262
 30
0.0
 11
7746.673057123655
 21
3262.931598713262
 31
0.0
  0
LINE
  5
15D2C
330
747D
100
AcDbEntity
  8
細線
100
AcDbLine
 10
6582.673057123654
 20
3327.931598713262
 30
0.0
 11
7746.673057123655
 21
3327.931598713262
 31
0.0
  0
LINE
  5
15D2D
330
747D
100
AcDbEntity
  8
細線
100
AcDbLine
 10
6582.673057123654
 20
3392.931598713261
 30
0.0
 11
7746.673057123655
 21
3392.931598713261
 31
0.0
  0
LINE
  5
15D2E
330
747D
100
AcDbEntity
  8
細線
100
AcDbLine
 10
6582.673057123654
 20
3457.931598713262
 30
0.0
 11
7746.673057123655
 21
3457.931598713262
 31
0.0
  0
LINE
  5
15D2F
330
747D
100
AcDbEntity
  8
細線
100
AcDbLine
 10
6582.673057123654
 20
3522.931598713262
 30
0.0
 11
7746.673057123655
 21
3522.931598713262
 31
0.0
  0
LINE
  5
15D30
330
747D
100
AcDbEntity
  8
細線
100
AcDbLine
 10
6582.673057123654
 20
3587.931598713261
 30
0.0
 11
7746.673057123655
 21
3587.931598713261
 31
0.0
  0
LINE
  5
15D31
330
747D
100
AcDbEntity
  8
細線
100
AcDbLine
 10
6582.673057123654
 20
3652.931598713261
 30
0.0
 11
7746.673057123655
 21
3652.931598713261
 31
0.0
  0
LINE
  5
15D32
330
747D
100
AcDbEntity
  8
細線
100
AcDbLine
 10
6582.673057123654
 20
3717.931598713261
 30
0.0
 11
7746.673057123655
 21
3717.931598713261
 31
0.0
  0
LINE
  5
15D33
330
747D
100
AcDbEntity
  8
細線
100
AcDbLine
 10
6582.673057123654
 20
4432.931598713262
 30
0.0
 11
7746.673057123655
 21
4432.931598713262
 31
0.0
  0
LINE
  5
15D34
330
747D
100
AcDbEntity
  8
細線
100
AcDbLine
 10
6582.673057123654
 20
4497.931598713261
 30
0.0
 11
7746.673057123655
 21
4497.931598713261
 31
0.0
  0
LINE
  5
15D35
330
747D
100
AcDbEntity
  8
細線
100
AcDbLine
 10
6582.673057123654
 20
4367.931598713261
 30
0.0
 11
7746.673057123655
 21
4367.931598713261
 31
0.0
  0
LINE
  5
15D36
330
747D
100
AcDbEntity
  8
細線
100
AcDbLine
 10
6582.673057123654
 20
2547.931598713262
 30
0.0
 11
7746.673057123655
 21
2547.931598713262
 31
0.0
  0
LINE
  5
15D37
330
747D
100
AcDbEntity
  8
細線
100
AcDbLine
 10
6582.673057123654
 20
2612.931598713262
 30
0.0
 11
7746.673057123655
 21
2612.931598713262
 31
0.0
  0
LINE
  5
15D38
330
747D
100
AcDbEntity
  8
細線
100
AcDbLine
 10
6582.673057123654
 20
2677.931598713261
 30
0.0
 11
7746.673057123655
 21
2677.931598713261
 31
0.0
  0
LINE
  5
15D39
330
747D
100
AcDbEntity
  8
細線
100
AcDbLine
 10
6582.673057123654
 20
2742.931598713262
 30
0.0
 11
7746.673057123655
 21
2742.931598713262
 31
0.0
  0
LINE
  5
15D3A
330
747D
100
AcDbEntity
  8
細線
100
AcDbLine
 10
6582.673057123654
 20
2807.931598713262
 30
0.0
 11
7746.673057123655
 21
2807.931598713262
 31
0.0
  0
LINE
  5
15D3B
330
747D
100
AcDbEntity
  8
細線
100
AcDbLine
 10
6582.673057123654
 20
2872.931598713261
 30
0.0
 11
7746.673057123655
 21
2872.931598713261
 31
0.0
  0
LINE
  5
15D3C
330
747D
100
AcDbEntity
  8
細線
100
AcDbLine
 10
6582.673057123654
 20
2937.931598713261
 30
0.0
 11
7746.673057123655
 21
2937.931598713261
 31
0.0
  0
LINE
  5
15D3D
330
747D
100
AcDbEntity
  8
細線
100
AcDbLine
 10
6582.673057123654
 20
3002.931598713261
 30
0.0
 11
7746.673057123655
 21
3002.931598713261
 31
0.0
  0
LINE
  5
15D3E
330
747D
100
AcDbEntity
  8
細線
100
AcDbLine
 10
6582.673057123654
 20
3067.931598713262
 30
0.0
 11
7746.673057123655
 21
3067.931598713262
 31
0.0
  0
LINE
  5
15D3F
330
747D
100
AcDbEntity
  8
細線
100
AcDbLine
 10
7746.673057123657
 20
2547.931598713262
 30
0.0
 11
6582.673057123651
 21
2547.931598713262
 31
0.0
  0
DIMENSION
  5
162CD
330
747D
100
AcDbEntity
  8
寸法
100
AcDbDimension
  2
*D2
 10
8497.09940285807
 20
7651.500206066815
 30
0.0
 11
8397.087591834447
 21
8701.500206066825
 31
0.0
 70
    32
  1
5X420=<>
 71
     5
 42
2100.000000000015
  3
INABA_S40G
100
AcDbAlignedDimension
 13
7849.673057123664
 23
9751.500206066831
 33
0.0
 14
7849.673057123638
 24
7651.500206066815
 34
0.0
 50
90.0
100
AcDbRotatedDimension
1001
ACAD
1000
DSTYLE
1002
{
1002
}
  0
DIMENSION
  5
162CE
330
747D
100
AcDbEntity
  8
寸法
100
AcDbDimension
  2
*D3
 10
8497.099402858051
 20
7596.50020606682
 30
0.0
 11
8497.099402858047
 21
7218.638739161957
 31
0.0
 70
   160
 71
     5
 42
54.99999999999636
  3
INABA_S40G
100
AcDbAlignedDimension
 13
7849.673057123638
 23
7651.500206066815
 33
0.0
 14
7849.673057123638
 24
7596.50020606682
 34
0.0
 50
90.0
100
AcDbRotatedDimension
1001
ACAD
1000
DSTYLE
1002
{
1002
}
  0
DIMENSION
  5
162CF
330
747D
100
AcDbEntity
  8
寸法
100
AcDbDimension
  2
*D4
 10
8497.099402858076
 20
9751.500206066831
 30
0.0
 11
8497.099402858074
 21
10114.98548744106
 31
0.0
 70
   160
 71
     5
 42
54.99999999999636
  3
INABA_S40G
100
AcDbAlignedDimension
 13
7849.673057123664
 23
9806.500206066827
 33
0.0
 14
7849.673057123664
 24
9751.500206066831
 34
0.0
 50
90.0
100
AcDbRotatedDimension
1001
ACAD
1000
DSTYLE
1002
{
1002
}
  0
DIMENSION
  5
162D0
330
747D
100
AcDbEntity
  8
寸法
100
AcDbDimension
  2
*D5
 10
8862.206344597709
 20
7596.50020606682
 30
0.0
 11
8762.194533574087
 21
8701.500206066825
 31
0.0
 70
    32
 71
     5
 42
2210.000000000007
  3
INABA_S40G
100
AcDbAlignedDimension
 13
7849.673057123664
 23
9806.500206066827
 33
0.0
 14
7849.673057123638
 24
7596.50020606682
 34
0.0
 50
90.0
100
AcDbRotatedDimension
1001
ACAD
1000
DSTYLE
1002
{
1002
}
  0
LINE
  5
162DC
330
747D
100
AcDbEntity
  8
部品1
100
AcDbLine
 10
7821.673057123648
 20
9778.500206066826
 30
0.0
 11
7821.673057123641
 21
7651.500206066815
 31
0.0
  0
LINE
  5
162DD
330
747D
100
AcDbEntity
  8
部品1
100
AcDbLine
 10
3767.673057123638
 20
7651.500206066685
 30
0.0
 11
3767.67305712365
 21
9778.500206066734
 31
0.0
  0
LINE
  5
162DE
330
747D
100
AcDbEntity
  8
部品1
100
AcDbLine
 10
7849.673057123664
 20
9806.500206066827
 30
0.0
 11
7849.673057123638
 21
7596.50020606682
 31
0.0
  0
LINE
  5
162DF
330
747D
100
AcDbEntity
  8
部品1
100
AcDbLine
 10
3739.673057123628
 20
9806.500206066701
 30
0.0
 11
3739.673057123657
 21
7596.500206066689
 31
0.0
  0
DIMENSION
  5
162E4
330
747D
100
AcDbEntity
  8
寸法
 48
50.0
100
AcDbDimension
  2
*D6
 10
6582.673057123656
 20
7062.069435300564
 30
0.0
 11
7164.673057123647
 21
7262.069435300564
 31
0.0
 70
    32
  1
有効開口部間口\P <>
 71
     5
 42
1163.999999999981
  3
INABA_S40G
100
AcDbAlignedDimension
 13
7746.673057123638
 23
7622.500206066728
 33
0.0
 14
6582.673057123656
 24
7622.500206066728
 34
0.0
100
AcDbRotatedDimension
1001
ACAD
1000
DSTYLE
1002
{
1070
    75
1070
     1
1070
   279
1070
     2
1002
}
  0
LINE
  5
162E6
330
747D
100
AcDbEntity
  8
部品1
 48
50.0
100
AcDbLine
 10
6546.673057123655
 20
7642.000206066727
 30
0.0
 11
7782.673057123641
 21
7642.000206066727
 31
0.0
  0
DIMENSION
  5
162E7
330
747D
100
AcDbEntity
  8
寸法
100
AcDbDimension
  2
*D7
 10
7849.673057123628
 20
6615.89643970969
 30
0.0
 11
5794.673057123642
 21
6715.896439709689
 31
0.0
 70
    32
  1
N X 1370
 71
     5
 42
4109.999999999971
  3
INABA_S40G
100
AcDbAlignedDimension
 13
3739.673057123657
 23
7596.500206066725
 33
0.0
 14
7849.673057123628
 24
7596.50020606682
 34
0.0
100
AcDbRotatedDimension
1001
ACAD
1000
DSTYLE
1002
{
1002
}
  0
LINE
  5
162E8
330
747D
100
AcDbEntity
  8
部品1
100
AcDbLine
 10
3794.673057123634
 20
9751.500206066751
 30
0.0
 11
3794.673057123656
 21
7661.500206066726
 31
0.0
  0
LINE
  5
162E9
330
747D
100
AcDbEntity
  8
部品1
100
AcDbLine
 10
3819.673057123635
 20
9751.500206066749
 30
0.0
 11
3819.673057123656
 21
7661.500206066726
 31
0.0
  0
DIMENSION
  5
162EA
330
747D
100
AcDbEntity
  8
寸法
 48
50.0
100
AcDbDimension
  2
*D8
 10
3739.673057123657
 20
7062.069435300564
 30
0.0
 11
3431.187775749418
 21
7062.069435300564
 31
0.0
 70
   160
 71
     5
 42
54.99999999999636
  3
INABA_S40G
100
AcDbAlignedDimension
 13
3794.673057123653
 23
7596.500206066727
 33
0.0
 14
3739.673057123657
 24
7596.500206066725
 34
0.0
100
AcDbRotatedDimension
1001
ACAD
1000
DSTYLE
1002
{
1002
}
  0
DIMENSION
  5
162EB
330
747D
100
AcDbEntity
  8
寸法
 48
50.0
100
AcDbDimension
  2
*D9
 10
6534.673057123653
 20
7062.069435300564
 30
0.0
 11
6695.575028123714
 21
7162.069435300565
 31
0.0
 70
   160
 71
     5
 42
48.00000000000363
  3
INABA_S40G
100
AcDbAlignedDimension
 13
6582.673057123656
 23
7622.500206066728
 33
0.0
 14
6534.673057123653
 24
7596.500206066727
 34
0.0
100
AcDbRotatedDimension
1001
ACAD
1000
DSTYLE
1002
{
1070
   279
1070
     2
1002
}
  0
LINE
  5
162EC
330
747D
100
AcDbEntity
  8
部品1
100
AcDbLine
 10
3794.673057123652
 20
7596.500206066727
 30
0.0
 11
3739.673057123657
 21
7596.500206066725
 31
0.0
  0
LINE
  5
162ED
330
747D
100
AcDbEntity
  8
部品1
 48
50.0
100
AcDbLine
 10
3794.673057123656
 20
7632.500206066727
 30
0.0
 11
3771.673057123657
 21
7632.500206066727
 31
0.0
  0
LINE
  5
162EE
330
747D
100
AcDbEntity
  8
部品1
 48
50.0
100
AcDbLine
 10
3804.673057123657
 20
7622.500206066728
 30
0.0
 11
3794.673057123656
 21
7601.500206066727
 31
0.0
  0
LINE
  5
162EF
330
747D
100
AcDbEntity
  8
部品1
 48
50.0
100
AcDbLine
 10
3794.673057123656
 20
7661.500206066726
 30
0.0
 11
3794.673057123653
 21
7596.500206066727
 31
0.0
  0
LINE
  5
162F0
330
747D
100
AcDbEntity
  8
部品1
 48
50.0
100
AcDbLine
 10
3842.673057123657
 20
7622.500206066728
 30
0.0
 11
3842.673057123657
 21
7631.500206066728
 31
0.0
  0
LINE
  5
162F1
330
747D
100
AcDbEntity
  8
部品1
 48
50.0
100
AcDbLine
 10
3842.673057123657
 20
7661.500206066728
 30
0.0
 11
3842.673057123657
 21
7652.500206066729
 31
0.0
  0
LINE
  5
162F2
330
747D
100
AcDbEntity
  8
部品1
100
AcDbLine
 10
3842.673057123657
 20
7661.500206066728
 30
0.0
 11
3794.673057123656
 21
7661.500206066728
 31
0.0
  0
LINE
  5
162F3
330
747D
100
AcDbEntity
  8
部品1
100
AcDbLine
 10
3842.673057123657
 20
7622.500206066728
 30
0.0
 11
3794.673057123656
 21
7622.500206066728
 31
0.0
  0
LINE
  5
162F4
330
747D
100
AcDbEntity
  8
部品1
100
AcDbLine
 10
3794.673057123656
 20
7632.500206066727
 30
0.0
 11
3771.673057123657
 21
7632.500206066727
 31
0.0
  0
LINE
  5
162F5
330
747D
100
AcDbEntity
  8
部品1
100
AcDbLine
 10
3794.673057123656
 20
7651.500206066652
 30
0.0
 11
3739.673057123655
 21
7651.500206066652
 31
0.0
  0
LINE
  5
162F6
330
747D
100
AcDbEntity
  8
部品1
100
AcDbLine
 10
3767.673057123638
 20
7651.500206066689
 30
0.0
 11
3739.673057123655
 21
7651.500206066689
 31
0.0
  0
LINE
  5
162F7
330
747D
100
AcDbEntity
  8
部品1
100
AcDbLine
 10
3767.673057123655
 20
7651.500206066703
 30
0.0
 11
3739.673057123655
 21
7651.500206066703
 31
0.0
  0
LINE
  5
162FB
330
747D
100
AcDbEntity
  8
部品1
100
AcDbLine
 10
3767.673057123643
 20
8071.500206066703
 30
0.0
 11
3739.673057123643
 21
8071.500206066703
 31
0.0
  0
LINE
  5
162FC
330
747D
100
AcDbEntity
  8
部品1
100
AcDbLine
 10
3767.673057123643
 20
8491.500206066703
 30
0.0
 11
3739.673057123643
 21
8491.500206066703
 31
0.0
  0
LINE
  5
162FE
330
747D
100
AcDbEntity
  8
部品1
100
AcDbLine
 10
3767.673057123638
 20
8911.500206066703
 30
0.0
 11
3739.673057123638
 21
8911.500206066703
 31
0.0
  0
LINE
  5
162FF
330
747D
100
AcDbEntity
  8
部品1
100
AcDbLine
 10
7794.673057123659
 20
9751.500206066749
 30
0.0
 11
7794.67305712364
 21
7596.500206066815
 31
0.0
  0
LINE
  5
16300
330
747D
100
AcDbEntity
  8
部品1
100
AcDbLine
 10
7769.673057123664
 20
9751.500206066747
 30
0.0
 11
7769.67305712364
 21
7661.500206066728
 31
0.0
  0
DIMENSION
  5
16301
330
747D
100
AcDbEntity
  8
寸法
 48
50.0
100
AcDbDimension
  2
*D10
 10
7746.673057123638
 20
7062.069435300564
 30
0.0
 11
7635.710159474891
 21
7162.069435300565
 31
0.0
 70
   160
 71
     5
 42
48.00000000000181
  3
INABA_S40G
100
AcDbAlignedDimension
 13
7794.67305712364
 23
7596.500206066815
 33
0.0
 14
7746.673057123638
 24
7622.500206066728
 34
0.0
100
AcDbRotatedDimension
1001
ACAD
1000
DSTYLE
1002
{
1070
   279
1070
     2
1002
}
  0
DIMENSION
  5
16302
330
747D
100
AcDbEntity
  8
寸法
 48
50.0
100
AcDbDimension
  2
*D11
 10
7794.67305712364
 20
7062.069435300564
 30
0.0
 11
8158.158338497877
 21
7062.069435300564
 31
0.0
 70
   160
 71
     5
 42
54.99999999999818
  3
INABA_S40G
100
AcDbAlignedDimension
 13
7849.673057123638
 23
7596.50020606682
 33
0.0
 14
7794.67305712364
 24
7596.500206066815
 34
0.0
100
AcDbRotatedDimension
1001
ACAD
1000
DSTYLE
1002
{
1002
}
  0
LINE
  5
16303
330
747D
100
AcDbEntity
  8
部品1
 48
50.0
100
AcDbLine
 10
7784.673057123639
 20
7622.500206066728
 30
0.0
 11
7794.673057123638
 21
7601.500206066727
 31
0.0
  0
LINE
  5
16304
330
747D
100
AcDbEntity
  8
部品1
100
AcDbLine
 10
7746.673057123638
 20
7661.500206066728
 30
0.0
 11
7794.67305712364
 21
7661.500206066728
 31
0.0
  0
LINE
  5
16305
330
747D
100
AcDbEntity
  8
部品1
100
AcDbLine
 10
7746.673057123638
 20
7622.500206066728
 30
0.0
 11
7794.673057123638
 21
7622.500206066728
 31
0.0
  0
LINE
  5
16306
330
747D
100
AcDbEntity
  8
部品1
 48
50.0
100
AcDbLine
 10
7746.673057123638
 20
7661.500206066728
 30
0.0
 11
7746.673057123638
 21
7652.500206066729
 31
0.0
  0
LINE
  5
16307
330
747D
100
AcDbEntity
  8
部品1
 48
50.0
100
AcDbLine
 10
7746.673057123638
 20
7622.500206066728
 30
0.0
 11
7746.673057123638
 21
7631.500206066728
 31
0.0
  0
LINE
  5
16308
330
747D
100
AcDbEntity
  8
部品1
100
AcDbLine
 10
7794.673057123638
 20
7632.500206066726
 30
0.0
 11
7817.673057123639
 21
7632.500206066727
 31
0.0
  0
LINE
  5
16309
330
747D
100
AcDbEntity
  8
部品1
100
AcDbLine
 10
7794.673057123638
 20
7651.500206066831
 30
0.0
 11
7849.673057123671
 21
7651.500206066831
 31
0.0
  0
LINE
  5
1630A
330
747D
100
AcDbEntity
  8
部品1
100
AcDbLine
 10
7849.673057123638
 20
7596.50020606682
 30
0.0
 11
7794.67305712364
 21
7596.500206066817
 31
0.0
  0
LINE
  5
16317
330
747D
100
AcDbEntity
  8
部品1
100
AcDbLine
 10
7821.673057123668
 20
8071.500206066831
 30
0.0
 11
7849.673057123668
 21
8071.500206066831
 31
0.0
  0
LINE
  5
16319
330
747D
100
AcDbEntity
  8
部品1
100
AcDbLine
 10
7821.673057123668
 20
8491.500206066829
 30
0.0
 11
7849.673057123668
 21
8491.500206066829
 31
0.0
  0
LINE
  5
1631A
330
747D
100
AcDbEntity
  8
部品1
100
AcDbLine
 10
7821.673057123664
 20
8911.500206066831
 30
0.0
 11
7849.673057123664
 21
8911.500206066831
 31
0.0
  0
LINE
  5
1631B
330
747D
100
AcDbEntity
  8
部品1
100
AcDbLine
 10
6534.673057123663
 20
9778.500206066849
 30
0.0
 11
6954.673057123663
 21
9778.500206066849
 31
0.0
  0
LINE
  5
1631C
330
747D
100
AcDbEntity
  8
部品1
100
AcDbLine
 10
6507.673057123664
 20
9778.500206066732
 30
0.0
 11
6744.673057123662
 21
9778.500206066736
 31
0.0
  0
LINE
  5
1631D
330
747D
100
AcDbEntity
  8
部品1
100
AcDbLine
 10
3739.673057123663
 20
9806.500206066733
 30
0.0
 11
7849.673057123663
 21
9806.500206066832
 31
0.0
  0
DIMENSION
  5
1631F
330
747D
100
AcDbEntity
  8
寸法
100
AcDbDimension
  2
*D12
 10
7794.673057123664
 20
10022.30842569183
 30
0.0
 11
7164.673057123664
 21
10122.32023671545
 31
0.0
 70
    32
  1
3X420=<>
 71
     5
 42
1260.000000000001
  3
INABA_S40G
100
AcDbAlignedDimension
 13
6534.673057123663
 23
9806.500206066733
 33
0.0
 14
7794.673057123664
 24
9806.500206066827
 34
0.0
100
AcDbRotatedDimension
1001
ACAD
1000
DSTYLE
1002
{
1002
}
  0
DIMENSION
  5
16320
330
747D
100
AcDbEntity
  8
寸法
100
AcDbDimension
  2
*D13
 10
3794.673057123663
 20
10022.30842569171
 30
0.0
 11
3431.18777574939
 21
10022.30842569171
 31
0.0
 70
   160
 71
     5
 42
55.00000000003456
  3
INABA_S40G
100
AcDbAlignedDimension
 13
3739.673057123628
 23
9806.500206066733
 33
0.0
 14
3794.673057123663
 24
9806.500206066733
 34
0.0
100
AcDbRotatedDimension
1001
ACAD
1000
DSTYLE
1002
{
1002
}
  0
LINE
  5
16321
330
747D
100
AcDbEntity
  8
部品1
100
AcDbLine
 10
3794.673057123629
 20
9806.500206066701
 30
0.0
 11
3794.67305712363
 21
9778.5002060667
 31
0.0
  0
LINE
  5
16322
330
747D
100
AcDbEntity
  8
部品1
100
AcDbLine
 10
3794.673057123663
 20
9806.500206066733
 30
0.0
 11
3794.673057123663
 21
9778.500206066732
 31
0.0
  0
LINE
  5
16323
330
747D
100
AcDbEntity
  8
部品1
100
AcDbLine
 10
3767.67305712363
 20
9751.500206066703
 30
0.0
 11
3739.67305712363
 21
9751.500206066703
 31
0.0
  0
LINE
  5
16327
330
747D
100
AcDbEntity
  8
部品1
100
AcDbLine
 10
6954.673057123663
 20
9778.500206066844
 30
0.0
 11
7821.673057123664
 21
9778.500206066826
 31
0.0
  0
LINE
  5
1632C
330
747D
100
AcDbEntity
  8
部品1
100
AcDbLine
 10
6954.673057123663
 20
9806.50020606685
 30
0.0
 11
6954.673057123663
 21
9778.500206066849
 31
0.0
  0
DIMENSION
  5
16333
330
747D
100
AcDbEntity
  8
寸法
100
AcDbDimension
  2
*D14
 10
7849.673057123664
 20
10022.30842569181
 30
0.0
 11
8158.158338497903
 21
10022.30842569181
 31
0.0
 70
   160
 71
     5
 42
55.0
  3
INABA_S40G
100
AcDbAlignedDimension
 13
7794.673057123664
 23
9806.500206066827
 33
0.0
 14
7849.673057123664
 24
9806.500206066827
 34
0.0
100
AcDbRotatedDimension
1001
ACAD
1000
DSTYLE
1002
{
1002
}
  0
LINE
  5
16334
330
747D
100
AcDbEntity
  8
部品1
100
AcDbLine
 10
7374.673057123662
 20
9806.50020606685
 30
0.0
 11
7374.673057123662
 21
9778.500206066849
 31
0.0
  0
LINE
  5
16335
330
747D
100
AcDbEntity
  8
部品1
100
AcDbLine
 10
7794.673057123664
 20
9806.500206066827
 30
0.0
 11
7794.673057123664
 21
9778.500206066826
 31
0.0
  0
LINE
  5
16336
330
747D
100
AcDbEntity
  8
部品1
100
AcDbLine
 10
7794.673057123664
 20
9806.50020606685
 30
0.0
 11
7794.673057123664
 21
9778.500206066849
 31
0.0
  0
LINE
  5
16337
330
747D
100
AcDbEntity
  8
部品1
100
AcDbLine
 10
7821.673057123664
 20
9751.500206066831
 30
0.0
 11
7849.673057123664
 21
9751.500206066831
 31
0.0
  0
LINE
  5
1655C
330
747D
100
AcDbEntity
  8
部品1
100
AcDbLine
 10
6376.673057123658
 20
4512.931598713262
 30
0.0
 11
6376.673057123656
 21
2537.931598713262
 31
0.0
  0
LINE
  5
1655D
330
747D
100
AcDbEntity
  8
部品1
100
AcDbLine
 10
6424.673057123658
 20
4512.931598713261
 30
0.0
 11
6424.673057123655
 21
2537.931598713262
 31
0.0
  0
LINE
  5
1655E
330
747D
100
AcDbEntity
  8
破線
 48
5.0
100
AcDbLine
 10
6376.673057123656
 20
2537.931598713262
 30
0.0
 11
6376.673057123656
 21
2287.931598713262
 31
0.0
  0
LINE
  5
1655F
330
747D
100
AcDbEntity
  8
破線
 48
5.0
100
AcDbLine
 10
6424.673057123658
 20
2287.931598713262
 30
0.0
 11
6376.673057123657
 21
2287.931598713262
 31
0.0
  0
LINE
  5
16560
330
747D
100
AcDbEntity
  8
破線
 48
5.0
100
AcDbLine
 10
6424.673057123655
 20
2537.931598713262
 30
0.0
 11
6424.673057123655
 21
2262.931598713262
 31
0.0
  0
LINE
  5
16561
330
747D
100
AcDbEntity
  8
破線
 48
5.0
100
AcDbLine
 10
6534.673057123656
 20
2262.931598713262
 30
0.0
 11
6424.673057123657
 21
2262.931598713262
 31
0.0
  0
LINE
  5
16562
330
747D
100
AcDbEntity
  8
部品1
100
AcDbLine
 10
6582.673057123656
 20
4512.931598713261
 30
0.0
 11
6582.673057123656
 21
2537.931598713262
 31
0.0
  0
LINE
  5
16563
330
747D
100
AcDbEntity
  8
破線
 48
5.0
100
AcDbLine
 10
6582.673057123656
 20
2537.931598713262
 30
0.0
 11
6582.673057123655
 21
2287.931598713267
 31
0.0
  0
LINE
  5
16564
330
747D
100
AcDbEntity
  8
破線
 48
5.0
100
AcDbLine
 10
6582.673057123655
 20
2287.931598713267
 30
0.0
 11
6534.673057123654
 21
2287.931598713267
 31
0.0
  0
LINE
  5
16565
330
747D
100
AcDbEntity
  8
破線
 48
5.0
100
AcDbLine
 10
6534.673057123656
 20
2537.931598713262
 30
0.0
 11
6534.673057123656
 21
2262.931598713262
 31
0.0
  0
LINE
  5
16566
330
747D
100
AcDbEntity
  8
部品1
100
AcDbLine
 10
6534.673057123656
 20
4512.931598713261
 30
0.0
 11
6534.673057123656
 21
2537.931598713262
 31
0.0
  0
LINE
  5
16567
330
747D
100
AcDbEntity
  8
部品1
100
AcDbLine
 10
6534.673057123656
 20
4512.931598713261
 30
0.0
 11
7849.673057123657
 21
4512.931598713262
 31
0.0
  0
DIMENSION
  5
1659A
330
747D
100
AcDbEntity
  8
寸法
 48
50.0
100
AcDbDimension
  2
*D16
 10
6376.673057123639
 20
7062.069435300564
 30
0.0
 11
6265.710159474891
 21
7162.069435300565
 31
0.0
 70
   160
 71
     5
 42
48.00000000000181
  3
INABA_S40G
100
AcDbAlignedDimension
 13
6424.67305712364
 23
7596.500206066815
 33
0.0
 14
6376.673057123639
 24
7622.500206066728
 34
0.0
100
AcDbRotatedDimension
1001
ACAD
1000
DSTYLE
1002
{
1070
   279
1070
     2
1002
}
  0
DIMENSION
  5
1659C
330
747D
100
AcDbEntity
  8
寸法
 48
50.0
100
AcDbDimension
  2
*D15
 10
3794.673057123653
 20
7062.069435300564
 30
0.0
 11
3955.575028123714
 21
7162.069435300565
 31
0.0
 70
   160
 71
     5
 42
48.00000000000363
  3
INABA_S40G
100
AcDbAlignedDimension
 13
3842.673057123657
 23
7622.500206066728
 33
0.0
 14
3794.673057123653
 24
7596.500206066727
 34
0.0
100
AcDbRotatedDimension
1001
ACAD
1000
DSTYLE
1002
{
1070
   279
1070
     2
1002
}
  0
DIMENSION
  5
165E9
330
747D
100
AcDbEntity
  8
寸法
 48
50.0
100
AcDbDimension
  2
*D17
 10
6424.67305712364
 20
7062.069435300564
 30
0.0
 11
6479.673057123647
 21
6910.377540264334
 31
0.0
 70
   160
 71
     5
 42
110.0000000000127
  3
INABA_S40G
100
AcDbAlignedDimension
 13
6534.673057123653
 23
7596.500206066727
 33
0.0
 14
6424.67305712364
 24
7596.500206066815
 34
0.0
100
AcDbRotatedDimension
1001
ACAD
1000
DSTYLE
1002
{
1070
   279
1070
     2
1002
}
  0
LINE
  5
16656
330
747D
100
AcDbEntity
  8
部品1
100
AcDbLine
 10
6376.673057123639
 20
7661.500206066728
 30
0.0
 11
6424.67305712364
 21
7661.500206066728
 31
0.0
  0
LINE
  5
16657
330
747D
100
AcDbEntity
  8
部品1
 48
50.0
100
AcDbLine
 10
6376.673057123639
 20
7661.500206066728
 30
0.0
 11
6376.673057123639
 21
7652.500206066729
 31
0.0
  0
LINE
  5
16658
330
747D
100
AcDbEntity
  8
部品1
100
AcDbLine
 10
6376.673057123639
 20
7622.500206066728
 30
0.0
 11
6424.673057123638
 21
7622.500206066728
 31
0.0
  0
LINE
  5
16659
330
747D
100
AcDbEntity
  8
部品1
 48
50.0
100
AcDbLine
 10
6376.673057123639
 20
7622.500206066728
 30
0.0
 11
6376.673057123639
 21
7631.500206066728
 31
0.0
  0
LINE
  5
1665A
330
747D
100
AcDbEntity
  8
部品1
 48
50.0
100
AcDbLine
 10
6414.673057123639
 20
7622.500206066728
 30
0.0
 11
6424.673057123638
 21
7601.500206066727
 31
0.0
  0
LINE
  5
1665B
330
747D
100
AcDbEntity
  8
部品1
100
AcDbLine
 10
6424.673057123638
 20
7632.500206066726
 30
0.0
 11
6447.673057123639
 21
7632.500206066727
 31
0.0
  0
LINE
  5
1665C
330
747D
100
AcDbEntity
  8
部品1
100
AcDbLine
 10
6582.673057123656
 20
7661.500206066728
 30
0.0
 11
6534.673057123656
 21
7661.500206066728
 31
0.0
  0
LINE
  5
1665D
330
747D
100
AcDbEntity
  8
部品1
 48
50.0
100
AcDbLine
 10
6582.673057123656
 20
7661.500206066728
 30
0.0
 11
6582.673057123656
 21
7652.500206066729
 31
0.0
  0
LINE
  5
1665E
330
747D
100
AcDbEntity
  8
部品1
100
AcDbLine
 10
6582.673057123656
 20
7622.500206066728
 30
0.0
 11
6534.673057123656
 21
7622.500206066728
 31
0.0
  0
LINE
  5
1665F
330
747D
100
AcDbEntity
  8
部品1
 48
50.0
100
AcDbLine
 10
6544.673057123657
 20
7622.500206066728
 30
0.0
 11
6534.673057123656
 21
7601.500206066727
 31
0.0
  0
LINE
  5
16660
330
747D
100
AcDbEntity
  8
部品1
100
AcDbLine
 10
6534.673057123656
 20
7632.500206066727
 30
0.0
 11
6511.673057123657
 21
7632.500206066727
 31
0.0
  0
LINE
  5
16661
330
747D
100
AcDbEntity
  8
部品1
 48
50.0
100
AcDbLine
 10
6534.673057123656
 20
7661.500206066726
 30
0.0
 11
6534.673057123653
 21
7596.500206066727
 31
0.0
  0
LINE
  5
16662
330
747D
100
AcDbEntity
  8
部品1
 48
50.0
100
AcDbLine
 10
6582.673057123656
 20
7622.500206066728
 30
0.0
 11
6582.673057123656
 21
7631.500206066728
 31
0.0
  0
LINE
  5
16663
330
747D
100
AcDbEntity
  8
部品1
100
AcDbLine
 10
6534.673057123652
 20
7596.500206066727
 30
0.0
 11
6424.673057123643
 21
7596.500206066721
 31
0.0
  0
LINE
  5
16664
330
747D
100
AcDbEntity
  8
部品1
 48
50.0
100
AcDbLine
 10
6424.673057123645
 20
7661.500206066815
 30
0.0
 11
6424.673057123641
 21
7596.500206066815
 31
0.0
  0
LINE
  5
16666
330
747D
100
AcDbEntity
  8
部品1
100
AcDbLine
 10
6534.673057123663
 20
9806.500206066733
 30
0.0
 11
6534.673057123663
 21
9778.500206066732
 31
0.0
  0
LINE
  5
16688
330
747D
100
AcDbEntity
  8
部品1
100
AcDbLine
 10
5137.673057123649
 20
9778.500206066849
 30
0.0
 11
6451.673057123632
 21
9778.500206066842
 31
0.0
  0
LINE
  5
16691
330
747D
100
AcDbEntity
  8
部品1
100
AcDbLine
 10
6004.673057123662
 20
9806.50020606685
 30
0.0
 11
6004.673057123662
 21
9778.500206066849
 31
0.0
  0
LINE
  5
16692
330
747D
100
AcDbEntity
  8
部品1
100
AcDbLine
 10
6424.673057123664
 20
9806.500206066827
 30
0.0
 11
6424.673057123664
 21
9778.500206066826
 31
0.0
  0
DIMENSION
  5
166DD
330
747D
100
AcDbEntity
  8
寸法
 48
50.0
100
AcDbDimension
  2
*D18
 10
6424.673057123664
 20
10022.30842569183
 30
0.0
 11
6479.673057123664
 21
10122.30842569183
 31
0.0
 70
    32
 71
     5
 42
109.9999999999991
  3
INABA_S40G
100
AcDbAlignedDimension
 13
6534.673057123663
 23
9806.500206066781
 33
0.0
 14
6424.673057123664
 24
9806.500206066779
 34
0.0
100
AcDbRotatedDimension
1001
ACAD
1000
DSTYLE
1002
{
1070
   279
1070
     2
1002
}
  0
LINE
  5
16760
330
747D
100
AcDbEntity
  8
部品1
 48
50.0
100
AcDbLine
 10
6479.67305712363
 20
9778.500206066773
 30
0.0
 11
6451.673057123631
 21
9806.500206066829
 31
0.0
  0
LINE
  5
16761
330
747D
100
AcDbEntity
  8
部品1
100
AcDbLine
 10
7794.673057123659
 20
9751.500206066747
 30
0.0
 11
6534.673057123644
 21
9751.500206066749
 31
0.0
  0
LINE
  5
16762
330
747D
100
AcDbEntity
  8
部品1
 48
50.0
100
AcDbLine
 10
6451.673057123631
 20
9778.50020606688
 30
0.0
 11
6451.673057123631
 21
9806.500206066829
 31
0.0
  0
LINE
  5
16763
330
747D
100
AcDbEntity
  8
部品1
 48
50.0
100
AcDbLine
 10
6451.673057123631
 20
9778.500206066773
 30
0.0
 11
6479.67305712363
 21
9778.500206066777
 31
0.0
  0
LINE
  5
168C3
330
747D
100
AcDbEntity
  8
部品1
100
AcDbLine
 10
6503.673057123648
 20
7651.500206066724
 30
0.0
 11
6455.673057123647
 21
7651.500206066723
 31
0.0
  0
LINE
  5
168C4
330
747D
100
AcDbEntity
  8
部品1
 48
50.0
100
AcDbLine
 10
6455.673057123647
 20
7651.500206066724
 30
0.0
 11
6455.67305712365
 21
7596.500206066725
 31
0.0
  0
LINE
  5
168C5
330
747D
100
AcDbEntity
  8
部品1
 48
50.0
100
AcDbLine
 10
6503.673057123648
 20
7651.500206066724
 30
0.0
 11
6503.67305712365
 21
7596.500206066725
 31
0.0
  0
DIMENSION
  5
16913
330
747D
100
AcDbEntity
  8
寸法
 48
50.0
100
AcDbDimension
  2
*D19
 10
7849.673057123664
 20
10271.62989924812
 30
0.0
 11
7164.673057123664
 21
10371.62989924812
 31
0.0
 70
    32
 71
     5
 42
1370.0
  3
INABA_S40G
100
AcDbAlignedDimension
 13
6479.673057123664
 23
10181.29634004977
 33
0.0
 14
7849.673057123664
 24
9806.500206066827
 34
0.0
100
AcDbRotatedDimension
1001
ACAD
1000
DSTYLE
1002
{
1070
    75
1070
     1
1070
   279
1070
     2
1002
}
  0
LINE
  5
172BC
330
747D
100
AcDbEntity
  8
部品1
 48
50.0
100
AcDbLine
 10
6507.673057123631
 20
9751.500206066749
 30
0.0
 11
6507.673057123696
 21
9806.500206066779
 31
0.0
  0
LINE
  5
172BD
330
747D
100
AcDbEntity
  8
部品1
 48
50.0
100
AcDbLine
 10
6451.673057123631
 20
9751.500206066749
 30
0.0
 11
6451.673057123631
 21
9778.500206066773
 31
0.0
  0
LINE
  5
174C8
330
747D
100
AcDbEntity
  8
部品1
 48
50.0
100
AcDbLine
 10
7769.673057123664
 20
9726.500206066704
 30
0.0
 11
6559.673057123617
 21
9726.500206066681
 31
0.0
  0
LINE
  5
174C9
330
747D
100
AcDbEntity
  8
部品1
 48
50.0
100
AcDbLine
 10
7821.673057123664
 20
9778.500206066826
 30
0.0
 11
7794.673057123659
 21
9751.500206066747
 31
0.0
  0
LINE
  5
174CA
330
747D
100
AcDbEntity
  8
部品1
 48
50.0
100
AcDbLine
 10
3794.673057123634
 20
9751.500206066751
 30
0.0
 11
3767.67305712365
 21
9778.500206066849
 31
0.0
  0
LINE
  5
17B10
330
747D
100
AcDbEntity
  8
細線
100
AcDbLine
 10
5006.673057123657
 20
2547.931598713262
 30
0.0
 11
3842.673057123651
 21
2547.931598713262
 31
0.0
  0
LINE
  5
17B13
330
747D
100
AcDbEntity
  8
部品1
100
AcDbLine
 10
5164.673057123656
 20
4512.931598713261
 30
0.0
 11
5164.673057123657
 21
2537.931598713262
 31
0.0
  0
LINE
  5
17B14
330
747D
100
AcDbEntity
  8
部品1
100
AcDbLine
 10
5212.673057123657
 20
4512.931598713261
 30
0.0
 11
5212.673057123657
 21
2537.931598713262
 31
0.0
  0
LINE
  5
17B15
330
747D
100
AcDbEntity
  8
部品1
100
AcDbLine
 10
5054.673057123657
 20
4512.931598713261
 30
0.0
 11
5054.673057123656
 21
2537.931598713262
 31
0.0
  0
LINE
  5
17B16
330
747D
100
AcDbEntity
  8
部品1
100
AcDbLine
 10
5006.673057123657
 20
4512.931598713263
 30
0.0
 11
5006.673057123656
 21
2537.931598713262
 31
0.0
  0
LINE
  5
17B1E
330
747D
100
AcDbEntity
  8
細線
100
AcDbLine
 10
3842.673057123653
 20
4172.931598713261
 30
0.0
 11
5006.673057123655
 21
4172.931598713261
 31
0.0
  0
LINE
  5
17B1F
330
747D
100
AcDbEntity
  8
細線
100
AcDbLine
 10
3842.673057123653
 20
4237.931598713261
 30
0.0
 11
5006.673057123655
 21
4237.931598713261
 31
0.0
  0
LINE
  5
17B20
330
747D
100
AcDbEntity
  8
細線
100
AcDbLine
 10
3842.673057123653
 20
4302.931598713261
 30
0.0
 11
5006.673057123655
 21
4302.931598713261
 31
0.0
  0
LINE
  5
17B21
330
747D
100
AcDbEntity
  8
細線
100
AcDbLine
 10
3842.673057123653
 20
3782.931598713262
 30
0.0
 11
5006.673057123655
 21
3782.931598713262
 31
0.0
  0
LINE
  5
17B22
330
747D
100
AcDbEntity
  8
細線
100
AcDbLine
 10
3842.673057123653
 20
3847.931598713262
 30
0.0
 11
5006.673057123655
 21
3847.931598713262
 31
0.0
  0
LINE
  5
17B23
330
747D
100
AcDbEntity
  8
細線
100
AcDbLine
 10
3842.673057123653
 20
3912.931598713262
 30
0.0
 11
5006.673057123655
 21
3912.931598713262
 31
0.0
  0
LINE
  5
17B24
330
747D
100
AcDbEntity
  8
細線
100
AcDbLine
 10
3842.673057123653
 20
3977.931598713262
 30
0.0
 11
5006.673057123655
 21
3977.931598713262
 31
0.0
  0
LINE
  5
17B25
330
747D
100
AcDbEntity
  8
細線
100
AcDbLine
 10
3842.673057123653
 20
4042.931598713262
 30
0.0
 11
5006.673057123655
 21
4042.931598713262
 31
0.0
  0
LINE
  5
17B26
330
747D
100
AcDbEntity
  8
細線
100
AcDbLine
 10
3842.673057123653
 20
4107.931598713261
 30
0.0
 11
5006.673057123655
 21
4107.931598713261
 31
0.0
  0
LINE
  5
17B27
330
747D
100
AcDbEntity
  8
細線
100
AcDbLine
 10
3842.673057123653
 20
3132.931598713262
 30
0.0
 11
5006.673057123655
 21
3132.931598713262
 31
0.0
  0
LINE
  5
17B28
330
747D
100
AcDbEntity
  8
細線
100
AcDbLine
 10
3842.673057123653
 20
3197.931598713262
 30
0.0
 11
5006.673057123655
 21
3197.931598713262
 31
0.0
  0
LINE
  5
17B29
330
747D
100
AcDbEntity
  8
細線
100
AcDbLine
 10
3842.673057123653
 20
3262.931598713262
 30
0.0
 11
5006.673057123655
 21
3262.931598713262
 31
0.0
  0
LINE
  5
17B2A
330
747D
100
AcDbEntity
  8
細線
100
AcDbLine
 10
3842.673057123653
 20
3327.931598713262
 30
0.0
 11
5006.673057123655
 21
3327.931598713262
 31
0.0
  0
LINE
  5
17B2B
330
747D
100
AcDbEntity
  8
細線
100
AcDbLine
 10
3842.673057123653
 20
3392.931598713262
 30
0.0
 11
5006.673057123655
 21
3392.931598713262
 31
0.0
  0
LINE
  5
17B2C
330
747D
100
AcDbEntity
  8
細線
100
AcDbLine
 10
3842.673057123653
 20
3457.931598713262
 30
0.0
 11
5006.673057123655
 21
3457.931598713262
 31
0.0
  0
LINE
  5
17B2D
330
747D
100
AcDbEntity
  8
細線
100
AcDbLine
 10
3842.673057123653
 20
3522.931598713262
 30
0.0
 11
5006.673057123655
 21
3522.931598713262
 31
0.0
  0
LINE
  5
17B2E
330
747D
100
AcDbEntity
  8
細線
100
AcDbLine
 10
3842.673057123653
 20
3587.931598713262
 30
0.0
 11
5006.673057123655
 21
3587.931598713262
 31
0.0
  0
LINE
  5
17B2F
330
747D
100
AcDbEntity
  8
細線
100
AcDbLine
 10
3842.673057123653
 20
3652.931598713262
 30
0.0
 11
5006.673057123655
 21
3652.931598713262
 31
0.0
  0
LINE
  5
17B30
330
747D
100
AcDbEntity
  8
細線
100
AcDbLine
 10
3842.673057123653
 20
3717.931598713262
 30
0.0
 11
5006.673057123655
 21
3717.931598713262
 31
0.0
  0
LINE
  5
17B31
330
747D
100
AcDbEntity
  8
細線
100
AcDbLine
 10
3842.673057123653
 20
4432.931598713262
 30
0.0
 11
5006.673057123655
 21
4432.931598713262
 31
0.0
  0
LINE
  5
17B32
330
747D
100
AcDbEntity
  8
細線
100
AcDbLine
 10
3842.673057123653
 20
4367.931598713261
 30
0.0
 11
5006.673057123655
 21
4367.931598713261
 31
0.0
  0
LINE
  5
17B33
330
747D
100
AcDbEntity
  8
細線
100
AcDbLine
 10
3842.673057123653
 20
2612.931598713262
 30
0.0
 11
5006.673057123655
 21
2612.931598713262
 31
0.0
  0
LINE
  5
17B34
330
747D
100
AcDbEntity
  8
細線
100
AcDbLine
 10
3842.673057123653
 20
2677.931598713262
 30
0.0
 11
5006.673057123655
 21
2677.931598713262
 31
0.0
  0
LINE
  5
17B35
330
747D
100
AcDbEntity
  8
細線
100
AcDbLine
 10
3842.673057123653
 20
2742.931598713262
 30
0.0
 11
5006.673057123655
 21
2742.931598713262
 31
0.0
  0
LINE
  5
17B36
330
747D
100
AcDbEntity
  8
細線
100
AcDbLine
 10
3842.673057123653
 20
2807.931598713262
 30
0.0
 11
5006.673057123655
 21
2807.931598713262
 31
0.0
  0
LINE
  5
17B37
330
747D
100
AcDbEntity
  8
細線
100
AcDbLine
 10
3842.673057123653
 20
2872.931598713262
 30
0.0
 11
5006.673057123655
 21
2872.931598713262
 31
0.0
  0
LINE
  5
17B38
330
747D
100
AcDbEntity
  8
細線
100
AcDbLine
 10
3842.673057123653
 20
2937.931598713262
 30
0.0
 11
5006.673057123655
 21
2937.931598713262
 31
0.0
  0
LINE
  5
17B39
330
747D
100
AcDbEntity
  8
細線
100
AcDbLine
 10
3842.673057123653
 20
3002.931598713262
 30
0.0
 11
5006.673057123655
 21
3002.931598713262
 31
0.0
  0
LINE
  5
17B3A
330
747D
100
AcDbEntity
  8
細線
100
AcDbLine
 10
3842.673057123653
 20
3067.931598713262
 30
0.0
 11
5006.673057123655
 21
3067.931598713262
 31
0.0
  0
LINE
  5
17B3D
330
747D
100
AcDbEntity
  8
細線
100
AcDbLine
 10
3842.673057123653
 20
4497.931598713261
 30
0.0
 11
5006.673057123655
 21
4497.931598713261
 31
0.0
  0
LINE
  5
17B5A
330
747D
100
AcDbEntity
  8
部品1
100
AcDbLine
 10
3739.673057123657
 20
4512.931598713261
 30
0.0
 11
5164.673057123657
 21
4512.931598713261
 31
0.0
  0
LINE
  5
17B5E
330
747D
100
AcDbEntity
  8
破線
 48
5.0
100
AcDbLine
 10
5164.673057123657
 20
2537.931598713262
 30
0.0
 11
5164.673057123657
 21
2262.931598713262
 31
0.0
  0
LINE
  5
17B5F
330
747D
100
AcDbEntity
  8
破線
 48
5.0
100
AcDbLine
 10
5212.673057123655
 20
2287.931598713267
 30
0.0
 11
5164.673057123655
 21
2287.931598713267
 31
0.0
  0
LINE
  5
17B60
330
747D
100
AcDbEntity
  8
破線
 48
5.0
100
AcDbLine
 10
5212.673057123657
 20
2537.931598713262
 30
0.0
 11
5212.673057123655
 21
2287.931598713267
 31
0.0
  0
LINE
  5
17B61
330
747D
100
AcDbEntity
  8
破線
 48
5.0
100
AcDbLine
 10
5164.673057123656
 20
2262.931598713262
 30
0.0
 11
5054.673057123657
 21
2262.931598713262
 31
0.0
  0
LINE
  5
17B62
330
747D
100
AcDbEntity
  8
破線
 48
5.0
100
AcDbLine
 10
5054.673057123656
 20
2537.931598713262
 30
0.0
 11
5054.673057123656
 21
2262.931598713262
 31
0.0
  0
LINE
  5
17B63
330
747D
100
AcDbEntity
  8
破線
 48
5.0
100
AcDbLine
 10
5054.673057123657
 20
2287.931598713262
 30
0.0
 11
5006.673057123657
 21
2287.931598713262
 31
0.0
  0
LINE
  5
17B64
330
747D
100
AcDbEntity
  8
破線
 48
5.0
100
AcDbLine
 10
5006.673057123656
 20
2537.931598713262
 30
0.0
 11
5006.673057123656
 21
2287.931598713262
 31
0.0
  0
DIMENSION
  5
17B86
330
747D
100
AcDbEntity
  8
寸法
 48
50.0
100
AcDbDimension
  2
*D24
 10
5109.673057123664
 20
10271.62989924812
 30
0.0
 11
4424.673057123646
 21
10371.62989924812
 31
0.0
 70
    32
 71
     5
 42
1370.000000000035
  3
INABA_S40G
100
AcDbAlignedDimension
 13
3739.673057123628
 23
9806.500206066701
 33
0.0
 14
5109.673057123664
 24
10181.29634004977
 34
0.0
100
AcDbRotatedDimension
1001
ACAD
1000
DSTYLE
1002
{
1070
   279
1070
     2
1002
}
  0
DIMENSION
  5
17B87
330
747D
100
AcDbEntity
  8
寸法
100
AcDbDimension
  2
*D22
 10
5054.673057123665
 20
10022.30842569183
 30
0.0
 11
4424.673057123664
 21
10122.32023671545
 31
0.0
 70
    32
  1
3X420=<>
 71
     5
 42
1260.000000000001
  3
INABA_S40G
100
AcDbAlignedDimension
 13
3794.673057123663
 23
9806.500206066733
 33
0.0
 14
5054.673057123665
 24
9806.500206066827
 34
0.0
100
AcDbRotatedDimension
1001
ACAD
1000
DSTYLE
1002
{
1002
}
  0
DIMENSION
  5
17B88
330
747D
100
AcDbEntity
  8
寸法
 48
50.0
100
AcDbDimension
  2
*D23
 10
5054.673057123665
 20
10022.30842569183
 30
0.0
 11
5109.673057123664
 21
10122.30842569183
 31
0.0
 70
    32
 71
     5
 42
109.9999999999991
  3
INABA_S40G
100
AcDbAlignedDimension
 13
5164.673057123663
 23
9806.500206066781
 33
0.0
 14
5054.673057123665
 24
9806.500206066779
 34
0.0
100
AcDbRotatedDimension
1001
ACAD
1000
DSTYLE
1002
{
1070
   279
1070
     2
1002
}
  0
LINE
  5
17B89
330
747D
100
AcDbEntity
  8
部品1
100
AcDbLine
 10
5137.67305712363
 20
9751.500206066747
 30
0.0
 11
5081.673057123631
 21
9751.500206066747
 31
0.0
  0
LINE
  5
17B8B
330
747D
100
AcDbEntity
  8
部品1
 48
50.0
100
AcDbLine
 10
5029.673057123634
 20
9726.500206066654
 30
0.0
 11
3819.673057123634
 21
9726.500206066653
 31
0.0
  0
LINE
  5
17B9A
330
747D
100
AcDbEntity
  8
部品1
 48
50.0
100
AcDbLine
 10
5081.673057123631
 20
9751.500206066749
 30
0.0
 11
5081.673057123631
 21
9778.500206066773
 31
0.0
  0
LINE
  5
17B9B
330
747D
100
AcDbEntity
  8
部品1
 48
50.0
100
AcDbLine
 10
5137.673057123631
 20
9751.500206066749
 30
0.0
 11
5137.673057123697
 21
9806.500206066779
 31
0.0
  0
LINE
  5
17B9C
330
747D
100
AcDbEntity
  8
部品1
 48
50.0
100
AcDbLine
 10
5133.673057123647
 20
7651.500206066724
 30
0.0
 11
5133.67305712365
 21
7596.500206066725
 31
0.0
  0
LINE
  5
17B9D
330
747D
100
AcDbEntity
  8
部品1
 48
50.0
100
AcDbLine
 10
5085.673057123647
 20
7651.500206066724
 30
0.0
 11
5085.67305712365
 21
7596.500206066725
 31
0.0
  0
LINE
  5
17B9E
330
747D
100
AcDbEntity
  8
部品1
100
AcDbLine
 10
5133.673057123647
 20
7651.500206066724
 30
0.0
 11
5085.673057123647
 21
7651.500206066723
 31
0.0
  0
LINE
  5
17B9F
330
747D
100
AcDbEntity
  8
部品1
 48
50.0
100
AcDbLine
 10
5081.673057123631
 20
9778.500206066773
 30
0.0
 11
5109.673057123629
 21
9778.500206066777
 31
0.0
  0
LINE
  5
17BA0
330
747D
100
AcDbEntity
  8
部品1
 48
50.0
100
AcDbLine
 10
5081.673057123631
 20
9778.50020606688
 30
0.0
 11
5081.67305712363
 21
9806.500206066829
 31
0.0
  0
LINE
  5
17BA1
330
747D
100
AcDbEntity
  8
部品1
 48
50.0
100
AcDbLine
 10
5109.673057123629
 20
9778.500206066773
 30
0.0
 11
5081.673057123631
 21
9806.500206066829
 31
0.0
  0
LINE
  5
17BA2
330
747D
100
AcDbEntity
  8
部品1
100
AcDbLine
 10
5054.673057123665
 20
9806.500206066827
 30
0.0
 11
5054.673057123665
 21
9778.500206066826
 31
0.0
  0
LINE
  5
17BA3
330
747D
100
AcDbEntity
  8
部品1
100
AcDbLine
 10
4634.673057123662
 20
9806.50020606685
 30
0.0
 11
4634.673057123662
 21
9778.500206066849
 31
0.0
  0
LINE
  5
17BA4
330
747D
100
AcDbEntity
  8
部品1
100
AcDbLine
 10
4214.673057123663
 20
9806.500206066733
 30
0.0
 11
4214.673057123663
 21
9778.500206066732
 31
0.0
  0
LINE
  5
17BA5
330
747D
100
AcDbEntity
  8
部品1
100
AcDbLine
 10
4214.673057123663
 20
9806.500206066733
 30
0.0
 11
4214.673057123663
 21
9778.500206066732
 31
0.0
  0
LINE
  5
17BA6
330
747D
100
AcDbEntity
  8
部品1
100
AcDbLine
 10
4214.673057123663
 20
9806.50020606685
 30
0.0
 11
4214.673057123663
 21
9778.500206066849
 31
0.0
  0
LINE
  5
17BA7
330
747D
100
AcDbEntity
  8
部品1
100
AcDbLine
 10
4214.673057123663
 20
9806.500206066733
 30
0.0
 11
4214.673057123663
 21
9778.500206066732
 31
0.0
  0
LINE
  5
17BA8
330
747D
100
AcDbEntity
  8
部品1
100
AcDbLine
 10
4214.673057123663
 20
9806.500206066733
 30
0.0
 11
4214.673057123663
 21
9778.500206066732
 31
0.0
  0
LINE
  5
17BA9
330
747D
100
AcDbEntity
  8
部品1
100
AcDbLine
 10
4214.673057123663
 20
9806.50020606685
 30
0.0
 11
4214.673057123663
 21
9778.500206066849
 31
0.0
  0
LINE
  5
17BAA
330
747D
100
AcDbEntity
  8
部品1
100
AcDbLine
 10
3767.67305712365
 20
9778.500206066849
 30
0.0
 11
5081.673057123631
 21
9778.500206066849
 31
0.0
  0
LINE
  5
17BB2
330
747D
100
AcDbEntity
  8
部品1
100
AcDbLine
 10
5164.673057123663
 20
9806.500206066733
 30
0.0
 11
5164.673057123663
 21
9778.500206066732
 31
0.0
  0
LINE
  5
17BB3
330
747D
100
AcDbEntity
  8
部品1
 48
50.0
100
AcDbLine
 10
5054.673057123645
 20
7661.500206066815
 30
0.0
 11
5054.673057123642
 21
7596.500206066815
 31
0.0
  0
LINE
  5
17BB4
330
747D
100
AcDbEntity
  8
部品1
100
AcDbLine
 10
5164.673057123652
 20
7596.500206066727
 30
0.0
 11
5054.673057123642
 21
7596.500206066721
 31
0.0
  0
LINE
  5
17BB5
330
747D
100
AcDbEntity
  8
部品1
 48
50.0
100
AcDbLine
 10
5212.673057123657
 20
7622.500206066728
 30
0.0
 11
5212.673057123657
 21
7631.500206066728
 31
0.0
  0
LINE
  5
17BB6
330
747D
100
AcDbEntity
  8
部品1
 48
50.0
100
AcDbLine
 10
5164.673057123657
 20
7661.500206066726
 30
0.0
 11
5164.673057123653
 21
7596.500206066727
 31
0.0
  0
LINE
  5
17BB7
330
747D
100
AcDbEntity
  8
部品1
100
AcDbLine
 10
5164.673057123656
 20
7632.500206066727
 30
0.0
 11
5141.673057123657
 21
7632.500206066727
 31
0.0
  0
LINE
  5
17BB8
330
747D
100
AcDbEntity
  8
部品1
 48
50.0
100
AcDbLine
 10
5174.673057123657
 20
7622.500206066728
 30
0.0
 11
5164.673057123657
 21
7601.500206066727
 31
0.0
  0
LINE
  5
17BB9
330
747D
100
AcDbEntity
  8
部品1
100
AcDbLine
 10
5212.673057123657
 20
7622.500206066728
 30
0.0
 11
5164.673057123657
 21
7622.500206066728
 31
0.0
  0
LINE
  5
17BBA
330
747D
100
AcDbEntity
  8
部品1
 48
50.0
100
AcDbLine
 10
5212.673057123657
 20
7661.500206066728
 30
0.0
 11
5212.673057123657
 21
7652.500206066729
 31
0.0
  0
LINE
  5
17BBB
330
747D
100
AcDbEntity
  8
部品1
100
AcDbLine
 10
5212.673057123657
 20
7661.500206066728
 30
0.0
 11
5164.673057123657
 21
7661.500206066728
 31
0.0
  0
LINE
  5
17BBC
330
747D
100
AcDbEntity
  8
部品1
100
AcDbLine
 10
5054.673057123639
 20
7632.500206066726
 30
0.0
 11
5077.673057123639
 21
7632.500206066727
 31
0.0
  0
LINE
  5
17BBD
330
747D
100
AcDbEntity
  8
部品1
 48
50.0
100
AcDbLine
 10
5044.673057123638
 20
7622.500206066728
 30
0.0
 11
5054.673057123639
 21
7601.500206066727
 31
0.0
  0
LINE
  5
17BBE
330
747D
100
AcDbEntity
  8
部品1
 48
50.0
100
AcDbLine
 10
5006.673057123638
 20
7622.500206066728
 30
0.0
 11
5006.673057123638
 21
7631.500206066728
 31
0.0
  0
LINE
  5
17BBF
330
747D
100
AcDbEntity
  8
部品1
100
AcDbLine
 10
5006.673057123638
 20
7622.500206066728
 30
0.0
 11
5054.673057123639
 21
7622.500206066728
 31
0.0
  0
LINE
  5
17BC0
330
747D
100
AcDbEntity
  8
部品1
 48
50.0
100
AcDbLine
 10
5006.673057123638
 20
7661.500206066728
 30
0.0
 11
5006.673057123638
 21
7652.500206066729
 31
0.0
  0
LINE
  5
17BC1
330
747D
100
AcDbEntity
  8
部品1
100
AcDbLine
 10
5006.673057123638
 20
7661.500206066728
 30
0.0
 11
5054.67305712364
 21
7661.500206066728
 31
0.0
  0
LINE
  5
17BC2
330
747D
100
AcDbEntity
  8
部品1
 48
50.0
100
AcDbLine
 10
3806.673057123656
 20
7642.000206066727
 30
0.0
 11
5042.67305712364
 21
7642.000206066727
 31
0.0
  0
DIMENSION
  5
17BC3
330
747D
100
AcDbEntity
  8
寸法
 48
50.0
100
AcDbDimension
  2
*D21
 10
3842.673057123657
 20
7062.069435300564
 30
0.0
 11
4424.673057123647
 21
7262.069435300564
 31
0.0
 70
    32
  1
有効開口部間口\P <>
 71
     5
 42
1163.999999999981
  3
INABA_S40G
100
AcDbAlignedDimension
 13
5006.673057123638
 23
7622.500206066728
 33
0.0
 14
3842.673057123657
 24
7622.500206066728
 34
0.0
100
AcDbRotatedDimension
1001
ACAD
1000
DSTYLE
1002
{
1070
    75
1070
     1
1070
   279
1070
     2
1002
}
  0
DIMENSION
  5
17BC4
330
747D
100
AcDbEntity
  8
寸法
 48
50.0
100
AcDbDimension
  2
*D20
 10
5006.673057123638
 20
7062.069435300564
 30
0.0
 11
4895.710159474891
 21
7162.069435300565
 31
0.0
 70
   160
 71
     5
 42
48.00000000000181
  3
INABA_S40G
100
AcDbAlignedDimension
 13
5054.67305712364
 23
7596.500206066815
 33
0.0
 14
5006.673057123638
 24
7622.500206066728
 34
0.0
100
AcDbRotatedDimension
1001
ACAD
1000
DSTYLE
1002
{
1070
   279
1070
     2
1002
}
  0
DIMENSION
  5
17C46
330
747D
100
AcDbEntity
  8
寸法
 48
50.0
100
AcDbDimension
  2
*D26
 10
5054.67305712364
 20
7062.069435300564
 30
0.0
 11
5109.673057123647
 21
6910.377540264334
 31
0.0
 70
   160
 71
     5
 42
110.0000000000127
  3
INABA_S40G
100
AcDbAlignedDimension
 13
5164.673057123653
 23
7596.500206066727
 33
0.0
 14
5054.67305712364
 24
7596.500206066815
 34
0.0
100
AcDbRotatedDimension
1001
ACAD
1000
DSTYLE
1002
{
1070
   279
1070
     2
1002
}
  0
DIMENSION
  5
17C47
330
747D
100
AcDbEntity
  8
寸法
 48
50.0
100
AcDbDimension
  2
*D25
 10
5164.673057123653
 20
7062.069435300564
 30
0.0
 11
5325.575028123714
 21
7162.069435300565
 31
0.0
 70
   160
 71
     5
 42
48.00000000000363
  3
INABA_S40G
100
AcDbAlignedDimension
 13
5212.673057123657
 23
7622.500206066728
 33
0.0
 14
5164.673057123653
 24
7596.500206066727
 34
0.0
100
AcDbRotatedDimension
1001
ACAD
1000
DSTYLE
1002
{
1070
   279
1070
     2
1002
}
  0
LINE
  5
17D10
330
747D
100
AcDbEntity
  8
部品1
100
AcDbLine
 10
7821.673057123658
 20
9331.500206066822
 30
0.0
 11
7849.673057123658
 21
9331.500206066822
 31
0.0
  0
LINE
  5
17D12
330
747D
100
AcDbEntity
  8
部品1
100
AcDbLine
 10
3767.673057123634
 20
9331.500206066694
 30
0.0
 11
3739.673057123634
 21
9331.500206066694
 31
0.0
  0
LINE
  5
18097
330
747D
100
AcDbEntity
  8
寸法
 48
50.0
100
AcDbLine
 10
6324.673057123664
 20
10022.30842569183
 30
0.0
 11
5943.497709859141
 21
10022.30842569183
 31
0.0
  0
LINE
  5
18098
330
747D
100
AcDbEntity
  8
寸法
 48
50.0
100
AcDbLine
 10
5708.90012020417
 20
10022.30842569183
 30
0.0
 11
5264.673057123663
 21
10022.30842569183
 31
0.0
  0
TEXT
  5
180AB
330
747D
100
AcDbEntity
  8
文字
 48
50.0
100
AcDbText
 10
5993.356325043227
 20
10052.99319122076
 30
0.0
 40
120.0
  1
1260
  7
STYLE1
100
AcDbText
  0
TEXT
  5
180AD
330
747D
100
AcDbEntity
  8
文字
 48
50.0
100
AcDbText
 10
5818.104667075852
 20
7097.538559904312
 30
0.0
 40
120.0
  1
1164
  7
STYLE1
100
AcDbText
  0
TEXT
  5
180D7
330
747D
100
AcDbEntity
  8
文字
 48
50.0
100
AcDbText
 10
5346.11461961997
 20
10052.99319122076
 30
0.0
 40
120.0
  1
1260
  7
STYLE1
100
AcDbText
  0
LINE
  5
180D8
330
747D
100
AcDbEntity
  8
寸法
 48
50.0
100
AcDbLine
 10
6276.673057123638
 20
7062.069435300564
 30
0.0
 11
5829.216253288978
 21
7062.069435300564
 31
0.0
  0
LINE
  5
180D9
330
747D
100
AcDbEntity
  8
寸法
 48
50.0
100
AcDbLine
 10
5766.651605096413
 20
7062.069435300564
 30
0.0
 11
5216.673057123638
 21
7062.069435300564
 31
0.0
  0
TEXT
  5
180DA
330
747D
100
AcDbEntity
  8
文字
 48
50.0
100
AcDbText
 10
5464.159355185788
 20
7097.538559904312
 30
0.0
 40
120.0
  1
1164
  7
STYLE1
100
AcDbText
  0
LINE
  5
180FF
330
747D
100
AcDbEntity
  8
部品1
100
AcDbLine
 10
3739.673057123658
 20
2537.931598713262
 30
0.0
 11
7849.673057123657
 21
2537.931598713262
 31
0.0
  0
LINE
  5
18100
330
747D
100
AcDbEntity
  8
Ｇ．Ｌ
100
AcDbLine
 10
2651.406454453173
 20
2437.931598713263
 30
0.0
 11
14516.30542539651
 21
2437.931598713261
 31
0.0
  0
LINE
  5
18102
330
747D
100
AcDbEntity
  8
部品1
 48
50.0
100
AcDbLine
 10
6399.673057123633
 20
9726.500206066676
 30
0.0
 11
5189.673057123634
 21
9726.500206066653
 31
0.0
  0
LINE
  5
18103
330
747D
100
AcDbEntity
  8
部品1
100
AcDbLine
 10
6424.673057123643
 20
9751.500206066753
 30
0.0
 11
5164.673057123643
 21
9751.500206066749
 31
0.0
  0
LINE
  5
18106
330
747D
100
AcDbEntity
  8
寸法
 48
50.0
100
AcDbLine
 10
6479.563357233136
 20
10198.77263703273
 30
0.0
 11
6479.563357233136
 21
10337.92376464069
 31
0.0
  0
LINE
  5
18107
330
747D
100
AcDbEntity
  8
寸法
 48
50.0
100
AcDbLine
 10
6479.673057123664
 20
10271.62989924812
 30
0.0
 11
5939.308473318088
 21
10271.62989924812
 31
0.0
  0
LINE
  5
18108
330
747D
100
AcDbEntity
  8
寸法
 48
50.0
100
AcDbLine
 10
5109.673057123664
 20
10271.62989924812
 30
0.0
 11
5706.419703089108
 21
10271.62989924812
 31
0.0
  0
TEXT
  5
18109
330
747D
100
AcDbEntity
  8
文字
 48
50.0
100
AcDbText
 10
5981.200887779472
 20
10315.48711197537
 30
0.0
 40
120.0
  1
1370
  7
STYLE1
100
AcDbText
  0
TEXT
  5
1810A
330
747D
100
AcDbEntity
  8
文字
 48
50.0
100
AcDbText
 10
5344.436001573136
 20
10315.48711197537
 30
0.0
 40
120.0
  1
1370
  7
STYLE1
100
AcDbText
  0
LINE
  5
18158
330
747D
100
AcDbEntity
  8
部品1
100
AcDbLine
 10
5081.673057123651
 20
9331.500206066777
 30
0.0
 11
5109.673057123651
 21
9331.500206066777
 31
0.0
  0
LINE
  5
18159
330
747D
100
AcDbEntity
  8
部品1
100
AcDbLine
 10
5081.673057123651
 20
8911.500206066778
 30
0.0
 11
5109.673057123651
 21
8911.500206066778
 31
0.0
  0
LINE
  5
1815A
330
747D
100
AcDbEntity
  8
部品1
100
AcDbLine
 10
5054.67305712365
 20
7661.500206066675
 30
0.0
 11
5054.673057123642
 21
9751.500206066678
 31
0.0
  0
LINE
  5
1815B
330
747D
100
AcDbEntity
  8
部品1
 48
10.0
100
AcDbLine
 10
5029.673057123659
 20
7661.500206066675
 30
0.0
 11
5029.673057123633
 21
9751.500206066678
 31
0.0
  0
LINE
  5
1815C
330
747D
100
AcDbEntity
  8
部品1
100
AcDbLine
 10
5081.673057123631
 20
9778.500206066773
 30
0.0
 11
5081.673057123615
 21
7596.500206066671
 31
0.0
  0
LINE
  5
1815D
330
747D
100
AcDbEntity
  8
部品1
100
AcDbLine
 10
5164.673057123669
 20
7661.500206066675
 30
0.0
 11
5164.673057123643
 21
9751.500206066673
 31
0.0
  0
LINE
  5
1815E
330
747D
100
AcDbEntity
  8
部品1
 48
10.0
100
AcDbLine
 10
5189.673057123664
 20
7661.500206066675
 30
0.0
 11
5189.673057123616
 21
9751.500206066696
 31
0.0
  0
LINE
  5
1815F
330
747D
100
AcDbEntity
  8
部品1
100
AcDbLine
 10
5137.67305712361
 20
7596.500206066676
 30
0.0
 11
5137.673057123633
 21
9806.500206066726
 31
0.0
  0
LINE
  5
18160
330
747D
100
AcDbEntity
  8
部品1
100
AcDbLine
 10
5109.673057123649
 20
9751.500206066696
 30
0.0
 11
5109.673057123622
 21
7651.50020606667
 31
0.0
  0
LINE
  5
18161
330
747D
100
AcDbEntity
  8
部品1
100
AcDbLine
 10
6479.673057123649
 20
9751.500206066696
 30
0.0
 11
6479.673057123623
 21
7651.50020606667
 31
0.0
  0
LINE
  5
18162
330
747D
100
AcDbEntity
  8
部品1
100
AcDbLine
 10
6507.67305712361
 20
7596.500206066676
 30
0.0
 11
6507.673057123632
 21
9806.500206066726
 31
0.0
  0
LINE
  5
18163
330
747D
100
AcDbEntity
  8
部品1
 48
10.0
100
AcDbLine
 10
6559.673057123664
 20
7661.500206066675
 30
0.0
 11
6559.673057123617
 21
9751.500206066696
 31
0.0
  0
LINE
  5
18164
330
747D
100
AcDbEntity
  8
部品1
100
AcDbLine
 10
6534.673057123669
 20
7661.500206066675
 30
0.0
 11
6534.673057123642
 21
9751.500206066673
 31
0.0
  0
LINE
  5
18165
330
747D
100
AcDbEntity
  8
部品1
100
AcDbLine
 10
6451.673057123631
 20
9778.500206066773
 30
0.0
 11
6451.673057123615
 21
7596.500206066671
 31
0.0
  0
LINE
  5
18166
330
747D
100
AcDbEntity
  8
部品1
 48
10.0
100
AcDbLine
 10
6399.673057123659
 20
7661.500206066675
 30
0.0
 11
6399.673057123633
 21
9751.500206066678
 31
0.0
  0
LINE
  5
18167
330
747D
100
AcDbEntity
  8
部品1
100
AcDbLine
 10
6424.67305712365
 20
7661.500206066675
 30
0.0
 11
6424.673057123643
 21
9751.500206066678
 31
0.0
  0
LINE
  5
18168
330
747D
100
AcDbEntity
  8
部品1
100
AcDbLine
 10
6451.673057123651
 20
8911.500206066778
 30
0.0
 11
6479.673057123651
 21
8911.500206066778
 31
0.0
  0
LINE
  5
18169
330
747D
100
AcDbEntity
  8
部品1
100
AcDbLine
 10
6451.673057123651
 20
9331.500206066777
 30
0.0
 11
6479.673057123651
 21
9331.500206066777
 31
0.0
  0
LINE
  5
1816B
330
747D
100
AcDbEntity
  8
部品1
 48
50.0
100
AcDbLine
 10
6507.673057123684
 20
9778.500206066588
 30
0.0
 11
6534.673057123673
 21
9751.5002060666
 31
0.0
  0
LINE
  5
1816C
330
747D
100
AcDbEntity
  8
部品1
 48
50.0
100
AcDbLine
 10
6451.673057123699
 20
9778.500206066681
 30
0.0
 11
6424.673057123695
 21
9751.500206066676
 31
0.0
  0
LINE
  5
1816D
330
747D
100
AcDbEntity
  8
部品1
 48
50.0
100
AcDbLine
 10
5137.673057123684
 20
9778.500206066588
 30
0.0
 11
5164.673057123673
 21
9751.5002060666
 31
0.0
  0
LINE
  5
1816E
330
747D
100
AcDbEntity
  8
部品1
 48
50.0
100
AcDbLine
 10
5081.673057123698
 20
9778.500206066681
 30
0.0
 11
5054.673057123695
 21
9751.500206066676
 31
0.0
  0
LINE
  5
1816F
330
747D
100
AcDbEntity
  8
部品1
100
AcDbLine
 10
5054.673057123642
 20
9751.500206066747
 30
0.0
 11
3794.673057123634
 21
9751.500206066751
 31
0.0
  0
LINE
  5
18170
330
747D
100
AcDbEntity
  8
部品1
100
AcDbLine
 10
6507.673057123632
 20
9751.500206066749
 30
0.0
 11
6451.673057123631
 21
9751.500206066747
 31
0.0
  0
LINE
  5
18171
330
747D
100
AcDbEntity
  8
部品1
100
AcDbLine
 10
6451.673057123658
 20
8491.500206066778
 30
0.0
 11
6479.673057123658
 21
8491.500206066778
 31
0.0
  0
LINE
  5
18172
330
747D
100
AcDbEntity
  8
部品1
100
AcDbLine
 10
6451.673057123658
 20
8071.500206066778
 30
0.0
 11
6479.673057123658
 21
8071.500206066778
 31
0.0
  0
LINE
  5
18173
330
747D
100
AcDbEntity
  8
部品1
100
AcDbLine
 10
5081.673057123658
 20
8071.500206066778
 30
0.0
 11
5109.673057123657
 21
8071.500206066778
 31
0.0
  0
LINE
  5
18174
330
747D
100
AcDbEntity
  8
部品1
100
AcDbLine
 10
5081.673057123658
 20
8491.500206066778
 30
0.0
 11
5109.673057123657
 21
8491.500206066778
 31
0.0
  0
LINE
  5
18A12
330
747D
100
AcDbEntity
  8
部品1
100
AcDbLine
 10
5584.673057123663
 20
9806.500206066733
 30
0.0
 11
5584.673057123663
 21
9778.500206066732
 31
0.0
  0
ARC
  5
18C61
330
747D
100
AcDbEntity
  8
細線
 48
50.0
100
AcDbCircle
 10
4124.673057123657
 20
3100.431598713262
 30
0.0
 40
15.0
100
AcDbArc
 50
90.0
 51
270.0
  0
ARC
  5
18C62
330
747D
100
AcDbEntity
  8
細線
 48
50.0
100
AcDbCircle
 10
4224.673057123657
 20
3100.431598713262
 30
0.0
 40
15.0
100
AcDbArc
 50
270.0
 51
90.0
  0
LINE
  5
18C63
330
747D
100
AcDbEntity
  8
細線
 48
50.0
100
AcDbLine
 10
4124.673057123657
 20
3115.431598713261
 30
0.0
 11
4224.673057123657
 21
3115.431598713261
 31
0.0
  0
LINE
  5
18C64
330
747D
100
AcDbEntity
  8
細線
 48
50.0
100
AcDbLine
 10
4224.673057123657
 20
3085.431598713262
 30
0.0
 11
4124.673057123657
 21
3085.431598713262
 31
0.0
  0
LINE
  5
18C65
330
747D
100
AcDbEntity
  8
細線
 48
50.0
100
AcDbLine
 10
4724.673057123657
 20
3085.431598713262
 30
0.0
 11
4624.673057123657
 21
3085.431598713262
 31
0.0
  0
LINE
  5
18C66
330
747D
100
AcDbEntity
  8
細線
 48
50.0
100
AcDbLine
 10
4624.673057123657
 20
3115.431598713261
 30
0.0
 11
4724.673057123657
 21
3115.431598713261
 31
0.0
  0
ARC
  5
18C67
330
747D
100
AcDbEntity
  8
細線
 48
50.0
100
AcDbCircle
 10
4624.673057123657
 20
3100.431598713262
 30
0.0
 40
15.0
100
AcDbArc
 50
90.0
 51
270.0
  0
ARC
  5
18C68
330
747D
100
AcDbEntity
  8
細線
 48
50.0
100
AcDbCircle
 10
4724.673057123657
 20
3100.431598713262
 30
0.0
 40
15.0
100
AcDbArc
 50
270.0
 51
90.0
  0
CIRCLE
  5
18C69
330
747D
100
AcDbEntity
  8
細線
 48
50.0
100
AcDbCircle
 10
4424.673057123658
 20
3425.431598713262
 30
0.0
 40
18.0
  0
ARC
  5
18C86
330
747D
100
AcDbEntity
  8
細線
 48
50.0
100
AcDbCircle
 10
6864.673057123654
 20
3100.431598713262
 30
0.0
 40
15.0
100
AcDbArc
 50
90.0
 51
270.0
  0
ARC
  5
18C87
330
747D
100
AcDbEntity
  8
細線
 48
50.0
100
AcDbCircle
 10
6964.673057123654
 20
3100.431598713262
 30
0.0
 40
15.0
100
AcDbArc
 50
270.0
 51
90.0
  0
LINE
  5
18C88
330
747D
100
AcDbEntity
  8
細線
 48
50.0
100
AcDbLine
 10
6864.673057123654
 20
3115.431598713261
 30
0.0
 11
6964.673057123654
 21
3115.431598713261
 31
0.0
  0
LINE
  5
18C89
330
747D
100
AcDbEntity
  8
細線
 48
50.0
100
AcDbLine
 10
6964.673057123654
 20
3085.431598713262
 30
0.0
 11
6864.673057123654
 21
3085.431598713262
 31
0.0
  0
LINE
  5
18C8A
330
747D
100
AcDbEntity
  8
細線
 48
50.0
100
AcDbLine
 10
7464.673057123654
 20
3085.431598713262
 30
0.0
 11
7364.673057123654
 21
3085.431598713262
 31
0.0
  0
LINE
  5
18C8B
330
747D
100
AcDbEntity
  8
細線
 48
50.0
100
AcDbLine
 10
7364.673057123654
 20
3115.431598713261
 30
0.0
 11
7464.673057123654
 21
3115.431598713261
 31
0.0
  0
ARC
  5
18C8C
330
747D
100
AcDbEntity
  8
細線
 48
50.0
100
AcDbCircle
 10
7364.673057123654
 20
3100.431598713262
 30
0.0
 40
15.0
100
AcDbArc
 50
90.0
 51
270.0
  0
ARC
  5
18C8D
330
747D
100
AcDbEntity
  8
細線
 48
50.0
100
AcDbCircle
 10
7464.673057123654
 20
3100.431598713262
 30
0.0
 40
15.0
100
AcDbArc
 50
270.0
 51
90.0
  0
CIRCLE
  5
18C8E
330
747D
100
AcDbEntity
  8
細線
 48
50.0
100
AcDbCircle
 10
7164.673057123654
 20
3425.431598713262
 30
0.0
 40
18.0
  0
LINE
  5
190FE
330
747D
100
AcDbEntity
  8
仕様書枠
 48
50.0
100
AcDbLine
 10
13127.2
 20
11239.6
 30
0.0
 11
13127.20000000001
 21
8179.600000000004
 31
0.0
  0
TEXT
  5
190FF
330
747D
100
AcDbEntity
  8
文字
 62
     7
 48
50.0
100
AcDbText
 10
13229.83081656555
 20
8210.013745883733
 30
0.0
 40
100.0
  1
Z08→塗装溶融亜鉛めっき鋼板(JIS G 3313)
  7
STYLE1
100
AcDbText
  0
TEXT
  5
19100
330
747D
100
AcDbEntity
  8
文字
 62
     7
 48
50.0
100
AcDbText
 10
13229.83081656555
 20
8380.013745883731
 30
0.0
 40
100.0
  1
Y10→溶融亜鉛-5％アルミニウム合金めっき鋼板(JIS G 3317)
 41
0.9
  7
STYLE1
100
AcDbText
  0
TEXT
  5
19101
330
747D
100
AcDbEntity
  8
文字
 62
     7
 48
50.0
100
AcDbText
 10
13229.83081656555
 20
8550.013745883731
 30
0.0
 40
100.0
  1
F12→溶融亜鉛めっき鋼板(JIS G 3302)
  7
STYLE1
100
AcDbText
  0
LINE
  5
19102
330
747D
100
AcDbEntity
  8
仕様書枠
 48
50.0
100
AcDbLine
 10
16307.19999999999
 20
8179.600000000002
 30
0.0
 11
13127.2
 21
8179.600000000004
 31
0.0
  0
LINE
  5
19103
330
747D
100
AcDbEntity
  8
仕様書枠
 48
50.0
100
AcDbLine
 10
16307.19999999999
 20
8349.600000000002
 30
0.0
 11
13127.2
 21
8349.600000000004
 31
0.0
  0
LINE
  5
19104
330
747D
100
AcDbEntity
  8
仕様書枠
 48
50.0
100
AcDbLine
 10
16307.19999999999
 20
8519.600000000002
 30
0.0
 11
13127.2
 21
8519.600000000004
 31
0.0
  0
TEXT
  5
19105
330
747D
100
AcDbEntity
  8
文字
 62
     7
 48
50.0
100
AcDbText
 10
15022.63965474516
 20
8720.013745883729
 30
0.0
 40
100.0
  1
F12            0.6
  7
STYLE1
100
AcDbText
  0
TEXT
  5
19106
330
747D
100
AcDbEntity
  8
文字
 62
     7
 48
50.0
100
AcDbText
 10
15022.63965474516
 20
9230.013745883727
 30
0.0
 40
100.0
  1
Z08            0.5
  7
STYLE1
100
AcDbText
  0
TEXT
  5
19108
330
747D
100
AcDbEntity
  8
文字
 62
     7
 48
50.0
100
AcDbText
 10
14850.83183167177
 20
8890.013745883727
 30
0.0
 40
100.0
  1
アルミニウム合金押出形材
  7
STYLE1
100
AcDbText
  0
TEXT
  5
19109
330
747D
100
AcDbEntity
  8
文字
 62
     7
 48
50.0
100
AcDbText
 10
15022.63965474516
 20
9400.013745883727
 30
0.0
 40
100.0
  1
F12            0.7
  7
STYLE1
100
AcDbText
  0
TEXT
  5
1910A
330
747D
100
AcDbEntity
  8
文字
 62
     7
 48
50.0
100
AcDbText
 10
15022.63965474517
 20
9570.013745883727
 30
0.0
 40
100.0
  1
Y10            0.5
  7
STYLE1
100
AcDbText
  0
TEXT
  5
1910B
330
747D
100
AcDbEntity
  8
文字
 62
     7
 48
50.0
100
AcDbText
 10
15022.63965474517
 20
9740.013745883729
 30
0.0
 40
100.0
  1
F12            1.0
  7
STYLE1
100
AcDbText
  0
TEXT
  5
1910C
330
747D
100
AcDbEntity
  8
文字
 62
     7
 48
50.0
100
AcDbText
 10
15022.63965474517
 20
10080.01374588372
 30
0.0
 40
100.0
  1
Y10            0.7
  7
STYLE1
100
AcDbText
  0
TEXT
  5
1910D
330
747D
100
AcDbEntity
  8
文字
 62
     7
 48
50.0
100
AcDbText
 10
15022.63965474517
 20
10250.01374588373
 30
0.0
 40
100.0
  1
Y10            0.7
  7
STYLE1
100
AcDbText
  0
TEXT
  5
1910E
330
747D
100
AcDbEntity
  8
文字
 62
     7
 48
50.0
100
AcDbText
 10
15022.63965474517
 20
10420.01374588372
 30
0.0
 40
100.0
  1
Y10            1.0
  7
STYLE1
100
AcDbText
  0
TEXT
  5
1910F
330
747D
100
AcDbEntity
  8
文字
 62
     7
 48
50.0
100
AcDbText
 10
15022.63965474517
 20
10590.01374588373
 30
0.0
 40
100.0
  1
Y10            1.0
  7
STYLE1
100
AcDbText
  0
TEXT
  5
19111
330
747D
100
AcDbEntity
  8
文字
 62
     7
 48
50.0
100
AcDbText
 10
15022.63965474517
 20
10930.01374588372
 30
0.0
 40
100.0
  1
F12            1.2
  7
STYLE1
100
AcDbText
  0
TEXT
  5
19112
330
747D
100
AcDbEntity
  8
文字
 62
     7
 48
50.0
100
AcDbText
 10
13248.77747366448
 20
9060.013745883731
 30
0.0
 40
100.0
  1
12
  7
STYLE1
100
AcDbText
  0
TEXT
  5
19113
330
747D
100
AcDbEntity
  8
文字
 62
     7
 48
50.0
100
AcDbText
 10
13248.77747366448
 20
8890.013745883731
 30
0.0
 40
100.0
  1
13
  7
STYLE1
100
AcDbText
  0
TEXT
  5
19114
330
747D
100
AcDbEntity
  8
文字
 62
     7
 48
50.0
100
AcDbText
 10
13583.11819016569
 20
9230.013745883731
 30
0.0
 40
100.0
  1
シャッター
  7
STYLE1
100
AcDbText
  0
TEXT
  5
19116
330
747D
100
AcDbEntity
  8
文字
 62
     7
 48
50.0
100
AcDbText
 10
13583.11819016569
 20
8720.013745883731
 30
0.0
 40
100.0
  1
棚板（別売）
  7
STYLE1
100
AcDbText
  0
TEXT
  5
19119
330
747D
100
AcDbEntity
  8
文字
 62
     7
 48
50.0
100
AcDbText
 10
13583.11819016569
 20
9060.013745883729
 30
0.0
 40
100.0
  1
シャッターカバー
 41
0.9
  7
STYLE1
100
AcDbText
  0
TEXT
  5
1911A
330
747D
100
AcDbEntity
  8
文字
 62
     7
 48
50.0
100
AcDbText
 10
13248.77747366448
 20
9230.013745883729
 30
0.0
 40
100.0
  1
11
  7
STYLE1
100
AcDbText
  0
LINE
  5
1911B
330
747D
100
AcDbEntity
  8
仕様書枠
 48
50.0
100
AcDbLine
 10
16307.2
 20
9199.600000000001
 30
0.0
 11
13127.2
 21
9199.600000000001
 31
0.0
  0
LINE
  5
1911C
330
747D
100
AcDbEntity
  8
仕様書枠
 48
50.0
100
AcDbLine
 10
16307.2
 20
9539.6
 30
0.0
 11
13127.2
 21
9539.600000000003
 31
0.0
  0
LINE
  5
1911D
330
747D
100
AcDbEntity
  8
仕様書枠
 48
50.0
100
AcDbLine
 10
16307.19999999999
 20
8859.6
 30
0.0
 11
13127.2
 21
8859.600000000002
 31
0.0
  0
LINE
  5
1911E
330
747D
100
AcDbEntity
  8
仕様書枠
 48
50.0
100
AcDbLine
 10
16307.19999999999
 20
8689.6
 30
0.0
 11
13127.2
 21
8689.600000000003
 31
0.0
  0
LINE
  5
1911F
330
747D
100
AcDbEntity
  8
仕様書枠
 48
50.0
100
AcDbLine
 10
16307.19999999999
 20
9029.6
 30
0.0
 11
13127.2
 21
9029.600000000002
 31
0.0
  0
TEXT
  5
19120
330
747D
100
AcDbEntity
  8
文字
 62
     7
 48
50.0
100
AcDbText
 10
13271.19032244792
 20
10080.01374588373
 30
0.0
 40
100.0
  1
6
  7
STYLE1
100
AcDbText
  0
TEXT
  5
19121
330
747D
100
AcDbEntity
  8
文字
 62
     7
 48
50.0
100
AcDbText
 10
13271.19032244792
 20
9910.01374588373
 30
0.0
 40
100.0
  1
7
  7
STYLE1
100
AcDbText
  0
TEXT
  5
19122
330
747D
100
AcDbEntity
  8
文字
 62
     7
 48
50.0
100
AcDbText
 10
13271.19032244792
 20
9570.013745883731
 30
0.0
 40
100.0
  1
9
  7
STYLE1
100
AcDbText
  0
TEXT
  5
19123
330
747D
100
AcDbEntity
  8
文字
 62
     7
 48
50.0
100
AcDbText
 10
13271.19032244792
 20
9740.013745883731
 30
0.0
 40
100.0
  1
8
  7
STYLE1
100
AcDbText
  0
TEXT
  5
19124
330
747D
100
AcDbEntity
  8
文字
 62
     7
 48
50.0
100
AcDbText
 10
13583.1181901657
 20
10080.01374588373
 30
0.0
 40
100.0
  1
鼻隠シ前後
  7
STYLE1
100
AcDbText
  0
TEXT
  5
19125
330
747D
100
AcDbEntity
  8
文字
 62
     7
 48
50.0
100
AcDbText
 10
13583.11819016569
 20
9740.013745883729
 30
0.0
 40
100.0
  1
母屋中
  7
STYLE1
100
AcDbText
  0
TEXT
  5
19126
330
747D
100
AcDbEntity
  8
文字
 62
     7
 48
50.0
100
AcDbText
 10
13583.11819016569
 20
9570.013745883729
 30
0.0
 40
100.0
  1
屋根パネル
  7
STYLE1
100
AcDbText
  0
TEXT
  5
19127
330
747D
100
AcDbEntity
  8
文字
 62
     7
 48
50.0
100
AcDbText
 10
13583.11819016569
 20
9400.013745883731
 30
0.0
 40
100.0
  1
壁パネル
  7
STYLE1
100
AcDbText
  0
TEXT
  5
19128
330
747D
100
AcDbEntity
  8
文字
 62
     7
 48
50.0
100
AcDbText
 10
13248.77747366448
 20
9400.013745883729
 30
0.0
 40
100.0
  1
10
  7
STYLE1
100
AcDbText
  0
TEXT
  5
19129
330
747D
100
AcDbEntity
  8
文字
 62
     7
 48
50.0
100
AcDbText
 10
13583.11819016569
 20
8890.013745883729
 30
0.0
 40
100.0
  1
シャッターレール
  7
STYLE1
100
AcDbText
  0
TEXT
  5
1912A
330
747D
100
AcDbEntity
  8
文字
 62
     7
 48
50.0
100
AcDbText
 10
13583.1181901657
 20
10250.01374588373
 30
0.0
 40
100.0
  1
妻板左右
  7
STYLE1
100
AcDbText
  0
TEXT
  5
1912B
330
747D
100
AcDbEntity
  8
文字
 62
     7
 48
50.0
100
AcDbText
 10
13271.19032244792
 20
10250.01374588373
 30
0.0
 40
100.0
  1
5
  7
STYLE1
100
AcDbText
  0
TEXT
  5
1912C
330
747D
100
AcDbEntity
  8
文字
 62
     7
 48
50.0
100
AcDbText
 10
13583.1181901657
 20
10420.01374588373
 30
0.0
 40
100.0
  1
桁後
  7
STYLE1
100
AcDbText
  0
TEXT
  5
1912D
330
747D
100
AcDbEntity
  8
文字
 62
     7
 48
50.0
100
AcDbText
 10
13583.1181901657
 20
10590.01374588373
 30
0.0
 40
100.0
  1
桁前
  7
STYLE1
100
AcDbText
  0
TEXT
  5
1912E
330
747D
100
AcDbEntity
  8
文字
 62
     7
 48
50.0
100
AcDbText
 10
13583.11819016569
 20
10760.01374588373
 30
0.0
 40
100.0
  1
柱
  7
STYLE1
100
AcDbText
  0
TEXT
  5
1912F
330
747D
100
AcDbEntity
  8
文字
 62
     7
 48
50.0
100
AcDbText
 10
13583.11819016569
 20
10930.01374588373
 30
0.0
 40
100.0
  1
土台枠
  7
STYLE1
100
AcDbText
  0
TEXT
  5
19130
330
747D
100
AcDbEntity
  8
文字
 62
     7
 48
50.0
100
AcDbText
 10
14859.79774614482
 20
11100.01374588373
 30
0.0
 40
100.0
  1
材料（材質）　　単位mm
  7
STYLE1
100
AcDbText
  0
TEXT
  5
19131
330
747D
100
AcDbEntity
  8
文字
 62
     7
 48
50.0
100
AcDbText
 10
13732.03840939435
 20
11100.01374588373
 30
0.0
 40
100.0
  1
部　　品　　名
  7
STYLE1
100
AcDbText
  0
TEXT
  5
19132
330
747D
100
AcDbEntity
  8
文字
 62
     7
 48
50.0
100
AcDbText
 10
13271.19032244792
 20
10590.01374588373
 30
0.0
 40
100.0
  1
3
  7
STYLE1
100
AcDbText
  0
TEXT
  5
19133
330
747D
100
AcDbEntity
  8
文字
 62
     7
 48
50.0
100
AcDbText
 10
13271.19032244792
 20
10420.01374588373
 30
0.0
 40
100.0
  1
4
  7
STYLE1
100
AcDbText
  0
TEXT
  5
19134
330
747D
100
AcDbEntity
  8
文字
 62
     7
 48
50.0
100
AcDbText
 10
13271.19032244792
 20
10760.01374588373
 30
0.0
 40
100.0
  1
2
  7
STYLE1
100
AcDbText
  0
TEXT
  5
19135
330
747D
100
AcDbEntity
  8
文字
 62
     7
 48
50.0
100
AcDbText
 10
13271.19032244792
 20
10930.01374588373
 30
0.0
 40
100.0
  1
1
  7
STYLE1
100
AcDbText
  0
TEXT
  5
19136
330
747D
100
AcDbEntity
  8
文字
 62
     7
 48
50.0
100
AcDbText
 10
13197.42518560407
 20
11100.01374588373
 30
0.0
 40
100.0
  1
品番
  7
STYLE1
100
AcDbText
  0
LINE
  5
19137
330
747D
100
AcDbEntity
  8
仕様書枠
 48
50.0
100
AcDbLine
 10
16307.2
 20
10049.6
 30
0.0
 11
13127.2
 21
10049.6
 31
0.0
  0
LINE
  5
19138
330
747D
100
AcDbEntity
  8
仕様書枠
 48
50.0
100
AcDbLine
 10
16307.2
 20
9709.600000000001
 30
0.0
 11
13127.2
 21
9709.600000000001
 31
0.0
  0
LINE
  5
19139
330
747D
100
AcDbEntity
  8
仕様書枠
 48
50.0
100
AcDbLine
 10
16307.2
 20
9879.600000000001
 30
0.0
 11
13127.2
 21
9879.600000000003
 31
0.0
  0
LINE
  5
1913A
330
747D
100
AcDbEntity
  8
仕様書枠
 48
50.0
100
AcDbLine
 10
16307.2
 20
10899.6
 30
0.0
 11
13127.2
 21
10899.6
 31
0.0
  0
LINE
  5
1913B
330
747D
100
AcDbEntity
  8
仕様書枠
 48
50.0
100
AcDbLine
 10
16307.2
 20
10729.6
 30
0.0
 11
13127.2
 21
10729.6
 31
0.0
  0
LINE
  5
1913C
330
747D
100
AcDbEntity
  8
仕様書枠
 48
50.0
100
AcDbLine
 10
16307.2
 20
11069.6
 30
0.0
 11
13127.2
 21
11069.6
 31
0.0
  0
LINE
  5
1913D
330
747D
100
AcDbEntity
  8
仕様書枠
 48
50.0
100
AcDbLine
 10
13490.2
 20
11239.6
 30
0.0
 11
13490.20000000001
 21
8689.600000000003
 31
0.0
  0
LINE
  5
1913E
330
747D
100
AcDbEntity
  8
仕様書枠
 48
50.0
100
AcDbLine
 10
14785.2
 20
11239.6
 30
0.0
 11
14785.2
 21
8689.600000000003
 31
0.0
  0
LINE
  5
1913F
330
747D
100
AcDbEntity
  8
仕様書枠
 48
50.0
100
AcDbLine
 10
16307.2
 20
8179.600000000002
 30
0.0
 11
16307.2
 21
11239.6
 31
0.0
  0
LINE
  5
19140
330
747D
100
AcDbEntity
  8
仕様書枠
 48
50.0
100
AcDbLine
 10
16307.2
 20
11239.6
 30
0.0
 11
13127.2
 21
11239.6
 31
0.0
  0
LINE
  5
19141
330
747D
100
AcDbEntity
  8
仕様書枠
 48
50.0
100
AcDbLine
 10
16307.2
 20
9369.600000000001
 30
0.0
 11
13127.2
 21
9369.600000000003
 31
0.0
  0
TEXT
  5
19142
330
747D
100
AcDbEntity
  8
文字
 62
     7
 48
50.0
100
AcDbText
 10
13248.77747366448
 20
8720.013745883733
 30
0.0
 40
100.0
  1
14
  7
STYLE1
100
AcDbText
  0
TEXT
  5
19143
330
747D
100
AcDbEntity
  8
文字
 62
     7
 48
50.0
100
AcDbText
 10
13583.1181901657
 20
9910.01374588373
 30
0.0
 40
100.0
  1
梁中
  7
STYLE1
100
AcDbText
  0
TEXT
  5
19144
330
747D
100
AcDbEntity
  8
文字
 62
     7
 48
50.0
100
AcDbText
 10
15022.63965474517
 20
9910.01374588373
 30
0.0
 40
100.0
  1
F12,Y10        1.0
  7
STYLE1
100
AcDbText
  0
TEXT
  5
19267
330
747D
100
AcDbEntity
  8
文字
 62
     7
 48
50.0
100
AcDbText
 10
13209.21412272472
 20
76.80799540191538
 30
0.0
 40
100.0
  1
○床面積 ： Ｎ［連続数］×3.03㎡(0.92坪)
  7
STYLE2
100
AcDbText
  0
DIMENSION
  5
1973E
330
747D
100
AcDbEntity
  8
寸法
100
AcDbDimension
  2
*D27
 10
9479.640118290605
 20
4912.931598713267
 30
0.0
 11
9379.628307266981
 21
3725.431598713266
 31
0.0
 70
    32
 71
     5
 42
2375.000000000005
  3
INABA_S40G
100
AcDbAlignedDimension
 13
10623.39024747386
 23
2537.931598713262
 33
0.0
 14
10563.39024747386
 24
4912.931598713267
 34
0.0
 50
90.0
100
AcDbRotatedDimension
1001
ACAD
1000
DSTYLE
1002
{
1070
   174
1070
     0
1070
   272
1070
     1
1070
   288
1070
     0
1070
   341
1005
0
1002
}
  0
LINE
  5
1973F
330
747D
100
AcDbEntity
  8
部品1
100
AcDbLine
 10
12358.39024747385
 20
4677.931598713261
 30
0.0
 11
12358.39024747385
 21
2587.931598713261
 31
0.0
  0
LINE
  5
19740
330
747D
100
AcDbEntity
  8
細線
 48
50.0
100
AcDbLine
 10
12015.89024747386
 20
4677.931598713261
 30
0.0
 11
12015.89024747386
 21
2587.931598713261
 31
0.0
  0
LINE
  5
19741
330
747D
100
AcDbEntity
  8
細線
 48
50.0
100
AcDbLine
 10
12000.89024747386
 20
4677.931598713261
 30
0.0
 11
12000.89024747386
 21
2587.931598713261
 31
0.0
  0
LINE
  5
19742
330
747D
100
AcDbEntity
  8
細線
 48
50.0
100
AcDbLine
 10
12140.89024747386
 20
4677.931598713261
 30
0.0
 11
12140.89024747386
 21
2587.931598713261
 31
0.0
  0
LINE
  5
19743
330
747D
100
AcDbEntity
  8
細線
 48
50.0
100
AcDbLine
 10
12155.89024747386
 20
4677.931598713261
 30
0.0
 11
12155.89024747386
 21
2587.931598713261
 31
0.0
  0
LINE
  5
19744
330
747D
100
AcDbEntity
  8
細線
 48
50.0
100
AcDbLine
 10
12295.89024747386
 20
4677.931598713261
 30
0.0
 11
12295.89024747386
 21
2587.931598713261
 31
0.0
  0
LINE
  5
19745
330
747D
100
AcDbEntity
  8
細線
 48
50.0
100
AcDbLine
 10
12280.89024747386
 20
4677.931598713261
 30
0.0
 11
12280.89024747386
 21
2587.931598713261
 31
0.0
  0
LINE
  5
19746
330
747D
100
AcDbEntity
  8
部品1
100
AcDbLine
 10
11098.39024747385
 20
4677.931598713261
 30
0.0
 11
11098.39024747385
 21
2587.931598713261
 31
0.0
  0
LINE
  5
19747
330
747D
100
AcDbEntity
  8
細線
 48
50.0
100
AcDbLine
 10
11175.89024747385
 20
4677.931598713261
 30
0.0
 11
11175.89024747385
 21
2587.931598713261
 31
0.0
  0
LINE
  5
19748
330
747D
100
AcDbEntity
  8
細線
 48
50.0
100
AcDbLine
 10
11160.89024747385
 20
4677.931598713261
 30
0.0
 11
11160.89024747385
 21
2587.931598713261
 31
0.0
  0
LINE
  5
19749
330
747D
100
AcDbEntity
  8
細線
 48
50.0
100
AcDbLine
 10
11300.89024747385
 20
4677.931598713261
 30
0.0
 11
11300.89024747385
 21
2587.931598713261
 31
0.0
  0
LINE
  5
1974A
330
747D
100
AcDbEntity
  8
細線
 48
50.0
100
AcDbLine
 10
11315.89024747385
 20
4677.931598713261
 30
0.0
 11
11315.89024747385
 21
2587.931598713261
 31
0.0
  0
LINE
  5
1974B
330
747D
100
AcDbEntity
  8
細線
 48
50.0
100
AcDbLine
 10
11455.89024747385
 20
4677.931598713261
 30
0.0
 11
11455.89024747385
 21
2587.931598713261
 31
0.0
  0
LINE
  5
1974C
330
747D
100
AcDbEntity
  8
細線
 48
50.0
100
AcDbLine
 10
11440.89024747385
 20
4677.931598713261
 30
0.0
 11
11440.89024747385
 21
2587.931598713261
 31
0.0
  0
LINE
  5
1974D
330
747D
100
AcDbEntity
  8
細線
 48
50.0
100
AcDbLine
 10
11020.89024747385
 20
4677.931598713261
 30
0.0
 11
11020.89024747385
 21
2587.931598713261
 31
0.0
  0
LINE
  5
1974E
330
747D
100
AcDbEntity
  8
細線
 48
50.0
100
AcDbLine
 10
11035.89024747385
 20
4677.931598713261
 30
0.0
 11
11035.89024747385
 21
2587.931598713261
 31
0.0
  0
LINE
  5
1974F
330
747D
100
AcDbEntity
  8
細線
 48
50.0
100
AcDbLine
 10
10895.89024747385
 20
4677.931598713261
 30
0.0
 11
10895.89024747385
 21
2587.931598713261
 31
0.0
  0
LINE
  5
19750
330
747D
100
AcDbEntity
  8
細線
 48
50.0
100
AcDbLine
 10
10880.89024747385
 20
4677.931598713261
 30
0.0
 11
10880.89024747385
 21
2587.931598713261
 31
0.0
  0
LINE
  5
19751
330
747D
100
AcDbEntity
  8
細線
 48
50.0
100
AcDbLine
 10
10740.89024747385
 20
4677.931598713261
 30
0.0
 11
10740.89024747385
 21
2587.931598713261
 31
0.0
  0
LINE
  5
19752
330
747D
100
AcDbEntity
  8
細線
 48
50.0
100
AcDbLine
 10
10755.89024747385
 20
4677.931598713261
 30
0.0
 11
10755.89024747385
 21
2587.931598713261
 31
0.0
  0
LINE
  5
19753
330
747D
100
AcDbEntity
  8
部品1
100
AcDbLine
 10
11518.39024747385
 20
4677.931598713261
 30
0.0
 11
11518.39024747385
 21
2587.931598713261
 31
0.0
  0
LINE
  5
19754
330
747D
100
AcDbEntity
  8
細線
 48
50.0
100
AcDbLine
 10
11860.89024747386
 20
4677.931598713261
 30
0.0
 11
11860.89024747386
 21
2587.931598713261
 31
0.0
  0
LINE
  5
19755
330
747D
100
AcDbEntity
  8
細線
 48
50.0
100
AcDbLine
 10
11875.89024747386
 20
4677.931598713261
 30
0.0
 11
11875.89024747386
 21
2587.931598713261
 31
0.0
  0
LINE
  5
19756
330
747D
100
AcDbEntity
  8
細線
 48
50.0
100
AcDbLine
 10
11735.89024747386
 20
4677.931598713261
 30
0.0
 11
11735.89024747386
 21
2587.931598713261
 31
0.0
  0
LINE
  5
19757
330
747D
100
AcDbEntity
  8
細線
 48
50.0
100
AcDbLine
 10
11720.89024747386
 20
4677.931598713261
 30
0.0
 11
11720.89024747386
 21
2587.931598713261
 31
0.0
  0
LINE
  5
19758
330
747D
100
AcDbEntity
  8
細線
 48
50.0
100
AcDbLine
 10
11580.89024747386
 20
4677.931598713261
 30
0.0
 11
11580.89024747386
 21
2587.931598713261
 31
0.0
  0
LINE
  5
19759
330
747D
100
AcDbEntity
  8
細線
 48
50.0
100
AcDbLine
 10
11595.89024747386
 20
4677.931598713261
 30
0.0
 11
11595.89024747386
 21
2587.931598713261
 31
0.0
  0
LINE
  5
1975A
330
747D
100
AcDbEntity
  8
部品1
100
AcDbLine
 10
11938.39024747385
 20
4677.931598713261
 30
0.0
 11
11938.39024747385
 21
2587.931598713261
 31
0.0
  0
LINE
  5
1975B
330
747D
100
AcDbEntity
  8
細線
 48
50.0
100
AcDbLine
 10
12435.89024747386
 20
4677.931598713261
 30
0.0
 11
12435.89024747386
 21
2587.931598713261
 31
0.0
  0
LINE
  5
1975C
330
747D
100
AcDbEntity
  8
細線
 48
50.0
100
AcDbLine
 10
12420.89024747386
 20
4677.931598713261
 30
0.0
 11
12420.89024747386
 21
2587.931598713261
 31
0.0
  0
LINE
  5
1975D
330
747D
100
AcDbEntity
  8
細線
 48
50.0
100
AcDbLine
 10
12560.89024747386
 20
4677.931598713261
 30
0.0
 11
12560.89024747386
 21
2587.931598713261
 31
0.0
  0
LINE
  5
1975E
330
747D
100
AcDbEntity
  8
細線
 48
50.0
100
AcDbLine
 10
12575.89024747386
 20
4677.931598713261
 30
0.0
 11
12575.89024747386
 21
2587.931598713261
 31
0.0
  0
LINE
  5
1975F
330
747D
100
AcDbEntity
  8
細線
 48
50.0
100
AcDbLine
 10
12715.89024747386
 20
4677.931598713261
 30
0.0
 11
12715.89024747386
 21
2587.931598713261
 31
0.0
  0
LINE
  5
19760
330
747D
100
AcDbEntity
  8
細線
 48
50.0
100
AcDbLine
 10
12700.89024747386
 20
4677.931598713261
 30
0.0
 11
12700.89024747386
 21
2587.931598713261
 31
0.0
  0
ARC
  5
19761
330
747D
100
AcDbEntity
  8
部品1
100
AcDbCircle
 10
12899.0177832878
 20
4751.955355979054
 30
0.0
 40
0.7
100
AcDbArc
 50
275.0921697642102
 51
354.1866997667087
  0
ARC
  5
19762
330
747D
100
AcDbEntity
  8
部品1
100
AcDbCircle
 10
12909.87712903712
 20
4828.998610796978
 30
0.0
 40
0.7
100
AcDbArc
 50
275.0921697642102
 51
354.1866997665532
  0
ARC
  5
19763
330
747D
100
AcDbEntity
  8
部品1
100
AcDbCircle
 10
12910.20553427972
 20
4825.313213939888
 30
0.0
 40
3.0
100
AcDbArc
 50
95.09216976441896
 51
174.1866997665532
  0
ARC
  5
19764
330
747D
100
AcDbEntity
  8
部品1
100
AcDbCircle
 10
12899.3461885304
 20
4748.269959121964
 30
0.0
 40
3.0
100
AcDbArc
 50
95.0921697642102
 51
174.1866997665532
  0
ARC
  5
19765
330
747D
100
AcDbEntity
  8
部品1
 48
50.0
100
AcDbCircle
 10
12888.31805325529
 20
4738.679214518082
 30
0.0
 40
7.0
100
AcDbArc
 50
267.8377559869487
 51
354.1866997665532
  0
ARC
  5
19766
330
747D
100
AcDbEntity
  8
部品1
 48
50.0
100
AcDbCircle
 10
12905.64014971981
 20
4849.581761660254
 30
0.0
 40
7.0
100
AcDbArc
 50
354.1866997665532
 51
87.03587545283093
  0
LINE
  5
19767
330
747D
100
AcDbEntity
  8
部品1
 48
50.0
100
AcDbLine
 10
12896.36161685979
 20
4748.573820838866
 30
0.0
 11
12895.28205382005
 21
4737.970203845309
 31
0.0
  0
LINE
  5
19768
330
747D
100
AcDbEntity
  8
部品1
 48
50.0
100
AcDbLine
 10
12907.22096260911
 20
4825.617075656792
 30
0.0
 11
12899.71418334427
 21
4751.884454911778
 31
0.0
  0
LINE
  5
19769
330
747D
100
AcDbEntity
  8
部品1
 48
50.0
100
AcDbLine
 10
12912.60415028456
 20
4848.872750987481
 30
0.0
 11
12910.57352909359
 21
4828.9277097297
 31
0.0
  0
LINE
  5
1976A
330
747D
100
AcDbEntity
  8
細線
 48
50.0
100
AcDbLine
 10
12880.39024747386
 20
4857.898577748557
 30
0.0
 11
12875.64256458586
 21
4732.152805257814
 31
0.0
  0
LINE
  5
1976B
330
747D
100
AcDbEntity
  8
細線
 48
50.0
100
AcDbLine
 10
10569.19014581196
 20
4791.08716885676
 30
0.0
 11
12899.19381024259
 21
4751.277849882266
 31
0.0
  0
LINE
  5
1976C
330
747D
100
AcDbEntity
  8
細線
 48
50.0
100
AcDbLine
 10
10564.42967057467
 20
4883.948680554624
 30
0.0
 11
12910.06565531984
 21
4828.324475913796
 31
0.0
  0
LINE
  5
1976D
330
747D
100
AcDbEntity
  8
部品1
100
AcDbLine
 10
10578.73281207581
 20
4770.712623782229
 30
0.0
 11
12888.0539480137
 21
4731.684198548024
 31
0.0
  0
LINE
  5
1976E
330
747D
100
AcDbEntity
  8
部品1
100
AcDbLine
 10
10570.93523383082
 20
4911.649334047528
 30
0.0
 11
12906.00212433532
 21
4856.572396422402
 31
0.0
  0
ARC
  5
1976F
330
747D
100
AcDbEntity
  8
部品1
100
AcDbCircle
 10
10569.42733934522
 20
4791.745757672166
 30
0.0
 40
0.7
100
AcDbArc
 50
181.0932240292635
 51
260.1877540314867
  0
ARC
  5
19770
330
747D
100
AcDbEntity
  8
部品1
100
AcDbCircle
 10
10564.65466574761
 20
4884.611535872285
 30
0.0
 40
0.7
100
AcDbArc
 50
181.0932240292114
 51
260.1877540314867
  0
ARC
  5
19771
330
747D
100
AcDbEntity
  8
部品1
100
AcDbCircle
 10
10564.02411134459
 20
4880.965661334887
 30
0.0
 40
3.0
100
AcDbArc
 50
1.093224029315636
 51
80.18775403169653
  0
ARC
  5
19772
330
747D
100
AcDbEntity
  8
部品1
100
AcDbCircle
 10
10568.7967849422
 20
4788.099883134768
 30
0.0
 40
3.0
100
AcDbArc
 50
1.093224029315636
 51
80.18775403169653
  0
ARC
  5
19773
330
747D
100
AcDbEntity
  8
部品1
 48
50.0
100
AcDbCircle
 10
10578.9969173174
 20
4777.707639752287
 30
0.0
 40
7.0
100
AcDbArc
 50
181.0932240293156
 51
267.8377559869487
  0
ARC
  5
19774
330
747D
100
AcDbEntity
  8
部品1
 48
50.0
100
AcDbCircle
 10
10570.5732592153
 20
4904.658699285382
 30
0.0
 40
7.0
100
AcDbArc
 50
87.03587545283093
 51
181.0932240293156
  0
LINE
  5
19775
330
747D
100
AcDbEntity
  8
部品1
 48
50.0
100
AcDbLine
 10
10571.79623886863
 20
4788.157120737952
 30
0.0
 11
10571.99819148906
 21
4777.574085344858
 31
0.0
  0
LINE
  5
19776
330
747D
100
AcDbEntity
  8
部品1
 48
50.0
100
AcDbLine
 10
10567.02356527102
 20
4881.02289893807
 30
0.0
 11
10568.72746676239
 21
4791.732402231423
 31
0.0
  0
LINE
  5
19777
330
747D
100
AcDbEntity
  8
部品1
 48
50.0
100
AcDbLine
 10
10563.57453338696
 20
4904.525144877954
 30
0.0
 11
10563.95479316478
 21
4884.598180431543
 31
0.0
  0
LINE
  5
19778
330
747D
100
AcDbEntity
  8
細線
 48
50.0
100
AcDbLine
 10
10596.39024747386
 20
4910.331275088667
 30
0.0
 11
10591.10114591835
 21
4770.245642461311
 31
0.0
  0
DIMENSION
  5
19779
330
747D
100
AcDbEntity
  8
寸法
 48
50.0
100
AcDbDimension
  2
*D28
 10
12913.39024747386
 20
5311.589052292566
 30
0.0
 11
13119.43749156835
 21
5311.589052292566
 31
0.0
 70
   160
 71
     5
 42
80.0
  3
INABA_S40G
100
AcDbAlignedDimension
 13
12833.39024747386
 23
4859.742278324915
 33
0.0
 14
12913.39024747386
 24
4857.931598713263
 34
0.0
100
AcDbRotatedDimension
1001
ACAD
1000
DSTYLE
1002
{
1070
   174
1070
     0
1070
   272
1070
     1
1070
   288
1070
     0
1070
   341
1005
0
1002
}
  0
DIMENSION
  5
1977A
330
747D
100
AcDbEntity
  8
寸法
 48
50.0
100
AcDbDimension
  2
*D29
 10
10002.78184070549
 20
4787.276857586592
 30
0.0
 11
10013.44731596442
 21
5158.123520828292
 31
0.0
 70
   161
 71
     5
 42
141.0
  3
INABA_S40G
100
AcDbAlignedDimension
 13
10582.78626763244
 23
4911.654347547941
 33
0.0
 14
10578.73281207581
 24
4770.712623782229
 34
0.0
1001
ACAD
1000
DSTYLE
1002
{
1070
   174
1070
     0
1070
   272
1070
     1
1070
   288
1070
     0
1070
   341
1005
0
1002
}
  0
DIMENSION
  5
1977B
330
747D
100
AcDbEntity
  8
寸法
 48
50.0
100
AcDbDimension
  2
*D30
 10
10563.39024747386
 20
5311.589052292566
 30
0.0
 11
10253.75245219827
 21
5311.589052292566
 31
0.0
 70
   160
 71
     5
 42
60.0
  3
INABA_S40G
100
AcDbAlignedDimension
 13
10623.39024747386
 23
4908.933216836238
 33
0.0
 14
10563.39024747386
 24
4912.931598713267
 34
0.0
100
AcDbRotatedDimension
1001
ACAD
1000
DSTYLE
1002
{
1070
   174
1070
     0
1070
   272
1070
     1
1070
   288
1070
     0
1070
   341
1005
0
1002
}
  0
TEXT
  5
1977C
330
747D
100
AcDbEntity
  8
部品1
 48
50.0
100
AcDbText
 10
12044.29110536267
 20
4941.746785988524
 30
0.0
 40
120.0
  1
44
 50
90.0
  7
STYLE1
100
AcDbText
  0
LINE
  5
1977D
330
747D
100
AcDbEntity
  8
部品1
100
AcDbLine
 10
11552.93523383082
 20
5044.682081013235
 30
0.0
 11
11878.39024747386
 21
5027.164022054375
 31
0.0
  0
LINE
  5
1977E
330
747D
100
AcDbEntity
  8
部品1
 48
50.0
100
AcDbLine
 10
11578.39024747386
 20
5043.364022054372
 30
0.0
 11
11878.39024747386
 21
5043.364022054372
 31
0.0
  0
LINE
  5
1977F
330
747D
100
AcDbEntity
  8
部品1
 48
50.0
100
AcDbLine
 10
11878.39024747386
 20
5043.364022054372
 30
0.0
 11
11878.39024747386
 21
5027.164022054375
 31
0.0
  0
TEXT
  5
19780
330
747D
100
AcDbEntity
  8
部品1
 48
50.0
100
AcDbText
 10
11566.65808269758
 20
5079.248044206806
 30
0.0
 40
120.0
  1
1000
  7
STYLE1
100
AcDbText
  0
DIMENSION
  5
19781
330
747D
100
AcDbEntity
  8
寸法
 48
50.0
100
AcDbDimension
  2
*D31
 10
10623.39024747386
 20
5311.589052292566
 30
0.0
 11
11728.39024747386
 21
5311.589052292566
 31
0.0
 70
   160
  1
柱外寸法<>
 71
     5
 42
2210.0
  3
INABA_S40G
100
AcDbAlignedDimension
 13
12833.39024747386
 23
4859.742278324915
 33
0.0
 14
10623.39024747386
 24
4908.933216836238
 34
0.0
100
AcDbRotatedDimension
1001
ACAD
1000
DSTYLE
1002
{
1070
   174
1070
     0
1070
   272
1070
     1
1070
   288
1070
     0
1070
   341
1005
0
1002
}
  0
DIMENSION
  5
19782
330
747D
100
AcDbEntity
  8
寸法
 48
50.0
100
AcDbDimension
  2
*D32
 10
10563.39024747386
 20
5530.790885966857
 30
0.0
 11
11738.39024747386
 21
5530.790885966857
 31
0.0
 70
   160
 71
     5
 42
2350.0
  3
INABA_S40G
100
AcDbAlignedDimension
 13
12913.39024747386
 23
4857.931598713263
 33
0.0
 14
10563.39024747386
 24
4912.931598713267
 34
0.0
100
AcDbRotatedDimension
1001
ACAD
1000
DSTYLE
1002
{
1070
   174
1070
     0
1070
   272
1070
     1
1070
   288
1070
     0
1070
   341
1005
0
1002
}
  0
DIMENSION
  5
19783
330
747D
100
AcDbEntity
  8
寸法
100
AcDbDimension
  2
*D33
 10
9779.6401182906
 20
2537.931598713262
 30
0.0
 11
9779.6401182906
 21
2154.181598713262
 31
0.0
 70
   160
 71
     5
 42
50.0
  3
INABA_S40G
100
AcDbAlignedDimension
 13
10623.39024747386
 23
2587.931598713262
 33
0.0
 14
10568.39024747386
 24
2537.931598713262
 34
0.0
 50
90.0
100
AcDbRotatedDimension
1001
ACAD
1000
DSTYLE
1002
{
1070
   288
1070
     1
1002
}
  0
DIMENSION
  5
19785
330
747D
100
AcDbEntity
  8
寸法
100
AcDbDimension
  2
*D34
 10
9779.6401182906
 20
2587.931598713262
 30
0.0
 11
9679.62830726698
 21
3632.931598713264
 31
0.0
 70
    32
 71
     5
 42
2090.0
  3
INABA_S40G
100
AcDbAlignedDimension
 13
10623.39024747386
 23
4677.931598713261
 33
0.0
 14
10623.39024747386
 24
2587.931598713262
 34
0.0
 50
90.0
100
AcDbRotatedDimension
1001
ACAD
1000
DSTYLE
1002
{
1070
   288
1070
     1
1002
}
  0
LINE
  5
19786
330
747D
100
AcDbEntity
  8
破線
 48
5.0
100
AcDbLine
 10
10623.39024747386
 20
2437.931598713261
 30
0.0
 11
10623.39024747386
 21
2187.931598713261
 31
0.0
  0
LINE
  5
19787
330
747D
100
AcDbEntity
  8
破線
 48
5.0
100
AcDbLine
 10
10678.39024747386
 20
2437.931598713261
 30
0.0
 11
10678.39024747386
 21
2187.931598713261
 31
0.0
  0
LINE
  5
1978D
330
747D
100
AcDbEntity
  8
破線
 48
5.0
100
AcDbLine
 10
10623.39024747386
 20
2187.931598713261
 30
0.0
 11
10678.39024747386
 21
2187.931598713261
 31
0.0
  0
LINE
  5
1978E
330
747D
100
AcDbEntity
  8
部品1
100
AcDbLine
 10
10678.39024747386
 20
2537.931598713262
 30
0.0
 11
12833.39024747386
 21
2537.931598713262
 31
0.0
  0
LINE
  5
1978F
330
747D
100
AcDbEntity
  8
部品1
100
AcDbLine
 10
10678.39024747386
 20
2587.931598713261
 30
0.0
 11
12833.39024747386
 21
2587.931598713261
 31
0.0
  0
LINE
  5
19790
330
747D
100
AcDbEntity
  8
部品1
100
AcDbLine
 10
10623.39024747386
 20
4677.931598713261
 30
0.0
 11
12833.39024747386
 21
4677.931598713261
 31
0.0
  0
LINE
  5
19791
330
747D
100
AcDbEntity
  8
部品1
100
AcDbLine
 10
10623.39024747386
 20
4769.95789575785
 30
0.0
 11
10623.39024747386
 21
2437.931598713261
 31
0.0
  0
LINE
  5
19792
330
747D
100
AcDbEntity
  8
部品1
100
AcDbLine
 10
10678.39024747386
 20
4677.931598713261
 30
0.0
 11
10678.39024747386
 21
2437.931598713261
 31
0.0
  0
LINE
  5
19793
330
747D
100
AcDbEntity
  8
部品1
100
AcDbLine
 10
10623.39024747386
 20
2537.931598713262
 30
0.0
 11
10230.39303326501
 21
2437.931598713261
 31
0.0
  0
DIMENSION
  5
19794
330
747D
100
AcDbEntity
  8
寸法
100
AcDbDimension
  2
*D35
 10
13538.31740544599
 20
4857.931598713261
 30
0.0
 11
13538.31740544598
 21
3697.931598713262
 31
0.0
 70
   160
 71
     5
 42
2320.0
  3
INABA_S40G
100
AcDbAlignedDimension
 13
12833.39024747386
 23
2537.931598713262
 33
0.0
 14
12928.39024747386
 24
4857.931598713261
 34
0.0
 50
90.0
100
AcDbRotatedDimension
1001
ACAD
1000
DSTYLE
1002
{
1070
   288
1070
     1
1002
}
  0
LINE
  5
19795
330
747D
100
AcDbEntity
  8
部品1
100
AcDbLine
 10
12778.39024747386
 20
4677.931598713261
 30
0.0
 11
12778.39024747386
 21
2587.931598713261
 31
0.0
  0
LINE
  5
19796
330
747D
100
AcDbEntity
  8
部品1
100
AcDbLine
 10
12833.39024747385
 20
4732.608036344485
 30
0.0
 11
12833.39024747386
 21
2437.931598713261
 31
0.0
  0
TEXT
  5
19797
330
747D
100
AcDbEntity
  8
文字
 62
     7
 48
50.0
100
AcDbText
 10
14222.92738283254
 20
483.8967129911416
 30
0.0
 40
160.0
  1
FXN-1322HL-N
  7
MSPゴシック
100
AcDbText
  0
LWPOLYLINE
  5
198D0
330
747D
100
AcDbEntity
  8
部品1
100
AcDbPolyline
 90
        4
 70
     1
 43
0.0
 10
11346.65491435964
 20
1787.931598713261
 10
11346.65491435964
 20
1548.039277167729
 10
12110.12558058808
 20
1548.039277167729
 10
12110.12558058808
 20
1787.931598713261
  0
TEXT
  5
198D1
330
747D
100
AcDbEntity
  8
部品1
100
AcDbText
 10
11436.10101578325
 20
1595.038069494737
 30
0.0
 40
135.0
  1
側面図
  7
MSGOTHIC
100
AcDbText
  0
LINE
  5
19CA4
330
747D
100
AcDbEntity
  8
補助
  6
PHANTOM
 62
   230
 48
50.0
100
AcDbLine
 10
140.0
 20
0.0
 30
0.0
 11
140.0
 21
11409.6
 31
0.0
  0
DIMENSION
  5
19EDC
330
747D
100
AcDbEntity
  8
寸法
 48
50.0
100
AcDbDimension
  2
*D36
 10
7849.673057123657
 20
5318.657870445173
 30
0.0
 11
8213.158338497896
 21
5318.657870445173
 31
0.0
 70
   160
 71
     5
 42
50.0
  3
INABA_S40G
100
AcDbAlignedDimension
 13
7899.673057123656
 23
4912.931598713266
 33
0.0
 14
7849.673057123657
 24
4912.931598713268
 34
0.0
100
AcDbRotatedDimension
  0
DIMENSION
  5
19EDE
330
747D
100
AcDbEntity
  8
寸法
 48
50.0
100
AcDbDimension
  2
*D37
 10
3689.673057123657
 20
5318.657870445171
 30
0.0
 11
3376.18777574941
 21
5318.657870445171
 31
0.0
 70
   160
 71
     5
 42
50.0
  3
INABA_S40G
100
AcDbAlignedDimension
 13
3739.673057123657
 23
4912.931598713267
 33
0.0
 14
3689.673057123657
 24
4912.931598713267
 34
0.0
100
AcDbRotatedDimension
1001
ACAD
1000
DSTYLE
1002
{
1002
}
  0
ARC
  5
19EDF
330
747D
100
AcDbEntity
  8
部品1
 48
0.01
100
AcDbCircle
 10
4202.673057123656
 20
4710.431598713261
 30
0.0
 40
2.0
100
AcDbArc
 50
270.0
 51
0.0
  0
ARC
  5
19EE0
330
747D
100
AcDbEntity
  8
部品1
 48
0.01
100
AcDbCircle
 10
4202.673057123656
 20
4741.931598713261
 30
0.0
 40
2.0
100
AcDbArc
 50
0.0
 51
90.0
  0
ARC
  5
19EE1
330
747D
100
AcDbEntity
  8
部品1
 48
0.01
100
AcDbCircle
 10
4026.673057123656
 20
4710.431598713261
 30
0.0
 40
2.0
100
AcDbArc
 50
180.0
 51
270.0
  0
ARC
  5
19EE2
330
747D
100
AcDbEntity
  8
部品1
 48
0.01
100
AcDbCircle
 10
4026.673057123656
 20
4741.931598713261
 30
0.0
 40
2.0
100
AcDbArc
 50
90.0
 51
180.0
  0
LINE
  5
19EE3
330
747D
100
AcDbEntity
  8
細線
100
AcDbLine
 10
4114.673057123656
 20
4714.431598713261
 30
0.0
 11
4188.673057123657
 21
4714.431598713261
 31
0.0
  0
LINE
  5
19EE4
330
747D
100
AcDbEntity
  8
細線
100
AcDbLine
 10
4114.673057123656
 20
4737.431598713261
 30
0.0
 11
4040.673057123656
 21
4737.431598713261
 31
0.0
  0
LINE
  5
19EE5
330
747D
100
AcDbEntity
  8
細線
100
AcDbLine
 10
4040.673057123656
 20
4714.431598713261
 30
0.0
 11
4114.673057123656
 21
4714.431598713261
 31
0.0
  0
LINE
  5
19EE6
330
747D
100
AcDbEntity
  8
細線
100
AcDbLine
 10
4188.673057123657
 20
4737.431598713261
 30
0.0
 11
4114.673057123656
 21
4737.431598713261
 31
0.0
  0
LINE
  5
19EE7
330
747D
100
AcDbEntity
  8
細線
100
AcDbLine
 10
4188.673057123657
 20
4714.431598713261
 30
0.0
 11
4188.673057123657
 21
4737.431598713261
 31
0.0
  0
LINE
  5
19EE8
330
747D
100
AcDbEntity
  8
細線
100
AcDbLine
 10
4040.673057123656
 20
4737.431598713261
 30
0.0
 11
4040.673057123656
 21
4714.431598713261
 31
0.0
  0
LINE
  5
19EE9
330
747D
100
AcDbEntity
  8
部品1
 48
0.01
100
AcDbLine
 10
4204.673057123656
 20
4710.431598713261
 30
0.0
 11
4204.673057123656
 21
4741.931598713261
 31
0.0
  0
LINE
  5
19EEA
330
747D
100
AcDbEntity
  8
部品1
 48
0.01
100
AcDbLine
 10
4026.673057123656
 20
4708.431598713261
 30
0.0
 11
4202.673057123656
 21
4708.431598713261
 31
0.0
  0
LINE
  5
19EEB
330
747D
100
AcDbEntity
  8
部品1
 48
0.01
100
AcDbLine
 10
4024.673057123656
 20
4741.931598713261
 30
0.0
 11
4024.673057123656
 21
4710.431598713261
 31
0.0
  0
LINE
  5
19EEC
330
747D
100
AcDbEntity
  8
部品1
 48
0.01
100
AcDbLine
 10
4202.673057123656
 20
4743.931598713261
 30
0.0
 11
4026.673057123656
 21
4743.931598713261
 31
0.0
  0
LINE
  5
19EED
330
747D
100
AcDbEntity
  8
細線
100
AcDbLine
 10
4040.673057123656
 20
4731.431598713261
 30
0.0
 11
4114.673057123656
 21
4731.431598713261
 31
0.0
  0
LINE
  5
19EEE
330
747D
100
AcDbEntity
  8
細線
100
AcDbLine
 10
4040.673057123656
 20
4725.431598713261
 30
0.0
 11
4114.673057123656
 21
4725.431598713261
 31
0.0
  0
LINE
  5
19EEF
330
747D
100
AcDbEntity
  8
細線
100
AcDbLine
 10
4040.673057123656
 20
4719.431598713261
 30
0.0
 11
4114.673057123656
 21
4719.431598713261
 31
0.0
  0
LINE
  5
19EF0
330
747D
100
AcDbEntity
  8
細線
100
AcDbLine
 10
4040.673057123656
 20
4731.431598713261
 30
0.0
 11
4109.673057123656
 21
4731.431598713261
 31
0.0
  0
LINE
  5
19EF1
330
747D
100
AcDbEntity
  8
細線
100
AcDbLine
 10
4188.673057123657
 20
4731.431598713261
 30
0.0
 11
4114.673057123656
 21
4731.431598713261
 31
0.0
  0
LINE
  5
19EF2
330
747D
100
AcDbEntity
  8
細線
100
AcDbLine
 10
4188.673057123657
 20
4719.431598713261
 30
0.0
 11
4114.673057123656
 21
4719.431598713261
 31
0.0
  0
LINE
  5
19EF3
330
747D
100
AcDbEntity
  8
細線
100
AcDbLine
 10
4188.673057123657
 20
4725.431598713261
 30
0.0
 11
4114.673057123656
 21
4725.431598713261
 31
0.0
  0
LINE
  5
19EF4
330
747D
100
AcDbEntity
  8
細線
100
AcDbLine
 10
4114.673057123656
 20
4737.431598713261
 30
0.0
 11
4114.673057123656
 21
4714.431598713261
 31
0.0
  0
LINE
  5
19EF5
330
747D
100
AcDbEntity
  8
細線
100
AcDbLine
 10
4734.673057123656
 20
4737.431598713261
 30
0.0
 11
4734.673057123656
 21
4714.431598713261
 31
0.0
  0
LINE
  5
19EF6
330
747D
100
AcDbEntity
  8
細線
100
AcDbLine
 10
4660.673057123656
 20
4725.431598713261
 30
0.0
 11
4734.673057123656
 21
4725.431598713261
 31
0.0
  0
LINE
  5
19EF7
330
747D
100
AcDbEntity
  8
細線
100
AcDbLine
 10
4660.673057123656
 20
4719.431598713261
 30
0.0
 11
4734.673057123656
 21
4719.431598713261
 31
0.0
  0
LINE
  5
19EF8
330
747D
100
AcDbEntity
  8
細線
100
AcDbLine
 10
4660.673057123656
 20
4731.431598713261
 30
0.0
 11
4734.673057123656
 21
4731.431598713261
 31
0.0
  0
LINE
  5
19EF9
330
747D
100
AcDbEntity
  8
細線
100
AcDbLine
 10
4808.673057123656
 20
4731.431598713261
 30
0.0
 11
4739.673057123656
 21
4731.431598713261
 31
0.0
  0
LINE
  5
19EFA
330
747D
100
AcDbEntity
  8
細線
100
AcDbLine
 10
4808.673057123656
 20
4719.431598713261
 30
0.0
 11
4734.673057123656
 21
4719.431598713261
 31
0.0
  0
LINE
  5
19EFB
330
747D
100
AcDbEntity
  8
細線
100
AcDbLine
 10
4808.673057123656
 20
4725.431598713261
 30
0.0
 11
4734.673057123656
 21
4725.431598713261
 31
0.0
  0
LINE
  5
19EFC
330
747D
100
AcDbEntity
  8
細線
100
AcDbLine
 10
4808.673057123656
 20
4731.431598713261
 30
0.0
 11
4734.673057123656
 21
4731.431598713261
 31
0.0
  0
LINE
  5
19EFD
330
747D
100
AcDbEntity
  8
部品1
 48
0.01
100
AcDbLine
 10
4646.673057123656
 20
4743.931598713261
 30
0.0
 11
4822.673057123656
 21
4743.931598713261
 31
0.0
  0
LINE
  5
19EFE
330
747D
100
AcDbEntity
  8
部品1
 48
0.01
100
AcDbLine
 10
4824.673057123657
 20
4741.931598713261
 30
0.0
 11
4824.673057123657
 21
4710.431598713261
 31
0.0
  0
LINE
  5
19EFF
330
747D
100
AcDbEntity
  8
部品1
 48
0.01
100
AcDbLine
 10
4822.673057123656
 20
4708.431598713261
 30
0.0
 11
4646.673057123656
 21
4708.431598713261
 31
0.0
  0
LINE
  5
19F00
330
747D
100
AcDbEntity
  8
部品1
 48
0.01
100
AcDbLine
 10
4644.673057123656
 20
4710.431598713261
 30
0.0
 11
4644.673057123656
 21
4741.931598713261
 31
0.0
  0
LINE
  5
19F01
330
747D
100
AcDbEntity
  8
細線
100
AcDbLine
 10
4808.673057123656
 20
4737.431598713261
 30
0.0
 11
4808.673057123656
 21
4714.431598713261
 31
0.0
  0
LINE
  5
19F02
330
747D
100
AcDbEntity
  8
細線
100
AcDbLine
 10
4660.673057123656
 20
4714.431598713261
 30
0.0
 11
4660.673057123656
 21
4737.431598713261
 31
0.0
  0
LINE
  5
19F03
330
747D
100
AcDbEntity
  8
細線
100
AcDbLine
 10
4660.673057123656
 20
4737.431598713261
 30
0.0
 11
4734.673057123656
 21
4737.431598713261
 31
0.0
  0
LINE
  5
19F04
330
747D
100
AcDbEntity
  8
細線
100
AcDbLine
 10
4808.673057123656
 20
4714.431598713261
 30
0.0
 11
4734.673057123656
 21
4714.431598713261
 31
0.0
  0
LINE
  5
19F05
330
747D
100
AcDbEntity
  8
細線
100
AcDbLine
 10
4734.673057123656
 20
4737.431598713261
 30
0.0
 11
4808.673057123656
 21
4737.431598713261
 31
0.0
  0
LINE
  5
19F06
330
747D
100
AcDbEntity
  8
細線
100
AcDbLine
 10
4734.673057123656
 20
4714.431598713261
 30
0.0
 11
4660.673057123656
 21
4714.431598713261
 31
0.0
  0
ARC
  5
19F07
330
747D
100
AcDbEntity
  8
部品1
 48
0.01
100
AcDbCircle
 10
4822.673057123656
 20
4741.931598713261
 30
0.0
 40
2.0
100
AcDbArc
 50
0.0
 51
90.0
  0
ARC
  5
19F08
330
747D
100
AcDbEntity
  8
部品1
 48
0.01
100
AcDbCircle
 10
4822.673057123656
 20
4710.431598713261
 30
0.0
 40
2.0
100
AcDbArc
 50
270.0
 51
0.0
  0
ARC
  5
19F09
330
747D
100
AcDbEntity
  8
部品1
 48
0.01
100
AcDbCircle
 10
4646.673057123656
 20
4741.931598713261
 30
0.0
 40
2.0
100
AcDbArc
 50
90.0
 51
180.0
  0
ARC
  5
19F0A
330
747D
100
AcDbEntity
  8
部品1
 48
0.01
100
AcDbCircle
 10
4646.673057123656
 20
4710.431598713261
 30
0.0
 40
2.0
100
AcDbArc
 50
180.0
 51
270.0
  0
LINE
  5
19F0B
330
747D
100
AcDbEntity
  8
部品1
100
AcDbLine
 10
3690.092718138987
 20
4905.535073318026
 30
0.0
 11
3691.226115471336
 21
4885.558945335426
 31
0.0
  0
LINE
  5
19F0C
330
747D
100
AcDbEntity
  8
部品1
100
AcDbLine
 10
3702.663135792916
 20
4789.901538168368
 30
0.0
 11
3703.308041600025
 21
4778.535073318027
 31
0.0
  0
LINE
  5
19F0D
330
747D
100
AcDbEntity
  8
部品1
100
AcDbLine
 10
3694.427105268065
 20
4882.101538168369
 30
0.0
 11
3699.46214599618
 21
4793.358945335425
 31
0.0
  0
ARC
  5
19F0E
330
747D
100
AcDbEntity
  8
部品1
 48
50.0
100
AcDbCircle
 10
3691.431922371879
 20
4881.931598713267
 30
0.0
 40
3.0
100
AcDbArc
 50
3.247342790337682
 51
82.34187279263654
  0
ARC
  5
19F0F
330
747D
100
AcDbEntity
  8
部品1
 48
50.0
100
AcDbCircle
 10
3699.667952896724
 20
4789.731598713264
 30
0.0
 40
3.0
100
AcDbArc
 50
3.247342790337682
 51
82.34187279263654
  0
ARC
  5
19F10
330
747D
100
AcDbEntity
  8
部品1
 48
50.0
100
AcDbCircle
 10
3700.161022005285
 20
4793.398597874948
 30
0.0
 40
0.7
100
AcDbArc
 50
183.2473427903377
 51
262.3418727926365
  0
ARC
  5
19F11
330
747D
100
AcDbEntity
  8
部品1
 48
50.0
100
AcDbCircle
 10
3691.924991480448
 20
4885.598597874952
 30
0.0
 40
0.7
100
AcDbArc
 50
183.2473427903897
 51
262.3418727926365
  0
ARC
  5
19F12
330
747D
100
AcDbEntity
  8
部品1
100
AcDbCircle
 10
3710.29680169112
 20
4778.931598713266
 30
0.0
 40
7.0
100
AcDbArc
 50
183.2473427903377
 51
270.0
  0
ARC
  5
19F13
330
747D
100
AcDbEntity
  8
部品1
100
AcDbCircle
 10
3697.08147823009
 20
4905.931598713265
 30
0.0
 40
7.0
100
AcDbArc
 50
90.0
 51
183.2473427903377
  0
ARC
  5
19F14
330
747D
100
AcDbEntity
  8
部品1
100
AcDbCircle
 10
7892.264636017223
 20
4905.931598713268
 30
0.0
 40
7.0
100
AcDbArc
 50
356.7526572096623
 51
90.0
  0
ARC
  5
19F15
330
747D
100
AcDbEntity
  8
部品1
100
AcDbCircle
 10
7879.049312556194
 20
4778.93159871327
 30
0.0
 40
7.0
100
AcDbArc
 50
270.0
 51
356.7526572096623
  0
ARC
  5
19F16
330
747D
100
AcDbEntity
  8
部品1
 48
50.0
100
AcDbCircle
 10
7897.421122766869
 20
4885.598597874952
 30
0.0
 40
0.7
100
AcDbArc
 50
277.6581272073635
 51
356.7526572096103
  0
ARC
  5
19F17
330
747D
100
AcDbEntity
  8
部品1
 48
50.0
100
AcDbCircle
 10
7889.185092242029
 20
4793.39859787495
 30
0.0
 40
0.7
100
AcDbArc
 50
277.6581272073635
 51
356.7526572096623
  0
ARC
  5
19F18
330
747D
100
AcDbEntity
  8
部品1
 48
50.0
100
AcDbCircle
 10
7889.678161350591
 20
4789.731598713265
 30
0.0
 40
3.0
100
AcDbArc
 50
97.65812720736347
 51
176.7526572096623
  0
ARC
  5
19F19
330
747D
100
AcDbEntity
  8
部品1
 48
50.0
100
AcDbCircle
 10
7897.914191875433
 20
4881.931598713269
 30
0.0
 40
3.0
100
AcDbArc
 50
97.65812720736347
 51
176.7526572096623
  0
LINE
  5
19F1A
330
747D
100
AcDbEntity
  8
部品1
100
AcDbLine
 10
7894.919008979248
 20
4882.10153816837
 30
0.0
 11
7889.883968251133
 21
4793.358945335426
 31
0.0
  0
LINE
  5
19F1B
330
747D
100
AcDbEntity
  8
部品1
100
AcDbLine
 10
7886.682978454401
 20
4789.901538168368
 30
0.0
 11
7886.038072647288
 21
4778.535073318028
 31
0.0
  0
LINE
  5
19F1C
330
747D
100
AcDbEntity
  8
細線
 48
50.0
100
AcDbLine
 10
3722.673057123657
 20
4912.931598713265
 30
0.0
 11
3722.673057123657
 21
4771.931598713265
 31
0.0
  0
LINE
  5
19F1D
330
747D
100
AcDbEntity
  8
細線
 48
50.0
100
AcDbLine
 10
7866.673057123657
 20
4912.931598713267
 30
0.0
 11
7866.673057123657
 21
4771.931598713268
 31
0.0
  0
LINE
  5
19F1E
330
747D
100
AcDbEntity
  8
部品1
100
AcDbLine
 10
7899.253396108327
 20
4905.535073318028
 30
0.0
 11
7898.119998775978
 21
4885.558945335429
 31
0.0
  0
LINE
  5
19F23
330
747D
100
AcDbEntity
  8
部品1
100
AcDbLine
 10
3739.673057123657
 20
4677.931598713261
 30
0.0
 11
7849.673057123658
 21
4677.93159871326
 31
0.0
  0
LINE
  5
19F50
330
747D
100
AcDbEntity
  8
部品1
 48
50.0
100
AcDbLine
 10
5099.67305712366
 20
4771.931598713265
 30
0.0
 11
5099.673057123657
 21
4912.931598713265
 31
0.0
  0
LINE
  5
19F51
330
747D
100
AcDbEntity
  8
部品1
 48
50.0
100
AcDbLine
 10
5109.673057123661
 20
4512.931598713262
 30
0.0
 11
5109.673057123661
 21
4771.931598713265
 31
0.0
  0
ARC
  5
19FB9
330
747D
100
AcDbEntity
  8
部品1
 48
0.01
100
AcDbCircle
 10
7386.673057123657
 20
4710.431598713261
 30
0.0
 40
2.0
100
AcDbArc
 50
180.0
 51
270.0
  0
ARC
  5
19FBA
330
747D
100
AcDbEntity
  8
部品1
 48
0.01
100
AcDbCircle
 10
7386.673057123657
 20
4741.931598713261
 30
0.0
 40
2.0
100
AcDbArc
 50
90.0
 51
180.0
  0
ARC
  5
19FBB
330
747D
100
AcDbEntity
  8
部品1
 48
0.01
100
AcDbCircle
 10
7562.673057123657
 20
4710.431598713261
 30
0.0
 40
2.0
100
AcDbArc
 50
270.0
 51
0.0
  0
ARC
  5
19FBC
330
747D
100
AcDbEntity
  8
部品1
 48
0.01
100
AcDbCircle
 10
7562.673057123657
 20
4741.931598713261
 30
0.0
 40
2.0
100
AcDbArc
 50
0.0
 51
90.0
  0
LINE
  5
19FBD
330
747D
100
AcDbEntity
  8
細線
100
AcDbLine
 10
7474.673057123657
 20
4714.431598713261
 30
0.0
 11
7400.673057123658
 21
4714.431598713261
 31
0.0
  0
LINE
  5
19FBE
330
747D
100
AcDbEntity
  8
細線
100
AcDbLine
 10
7474.673057123657
 20
4737.431598713261
 30
0.0
 11
7548.673057123656
 21
4737.431598713261
 31
0.0
  0
LINE
  5
19FBF
330
747D
100
AcDbEntity
  8
細線
100
AcDbLine
 10
7548.673057123656
 20
4714.431598713261
 30
0.0
 11
7474.673057123657
 21
4714.431598713261
 31
0.0
  0
LINE
  5
19FC0
330
747D
100
AcDbEntity
  8
細線
100
AcDbLine
 10
7400.673057123658
 20
4737.431598713261
 30
0.0
 11
7474.673057123657
 21
4737.431598713261
 31
0.0
  0
LINE
  5
19FC1
330
747D
100
AcDbEntity
  8
細線
100
AcDbLine
 10
7400.673057123658
 20
4714.431598713261
 30
0.0
 11
7400.673057123658
 21
4737.431598713261
 31
0.0
  0
LINE
  5
19FC2
330
747D
100
AcDbEntity
  8
細線
100
AcDbLine
 10
7548.673057123656
 20
4737.431598713261
 30
0.0
 11
7548.673057123656
 21
4714.431598713261
 31
0.0
  0
LINE
  5
19FC3
330
747D
100
AcDbEntity
  8
部品1
 48
0.01
100
AcDbLine
 10
7384.673057123656
 20
4710.431598713261
 30
0.0
 11
7384.673057123656
 21
4741.931598713261
 31
0.0
  0
LINE
  5
19FC4
330
747D
100
AcDbEntity
  8
部品1
 48
0.01
100
AcDbLine
 10
7562.673057123657
 20
4708.431598713261
 30
0.0
 11
7386.673057123657
 21
4708.431598713261
 31
0.0
  0
LINE
  5
19FC5
330
747D
100
AcDbEntity
  8
部品1
 48
0.01
100
AcDbLine
 10
7564.673057123657
 20
4741.931598713261
 30
0.0
 11
7564.673057123657
 21
4710.431598713261
 31
0.0
  0
LINE
  5
19FC6
330
747D
100
AcDbEntity
  8
部品1
 48
0.01
100
AcDbLine
 10
7386.673057123657
 20
4743.931598713261
 30
0.0
 11
7562.673057123657
 21
4743.931598713261
 31
0.0
  0
LINE
  5
19FC7
330
747D
100
AcDbEntity
  8
細線
100
AcDbLine
 10
7548.673057123656
 20
4731.431598713261
 30
0.0
 11
7474.673057123657
 21
4731.431598713261
 31
0.0
  0
LINE
  5
19FC8
330
747D
100
AcDbEntity
  8
細線
100
AcDbLine
 10
7548.673057123656
 20
4725.431598713261
 30
0.0
 11
7474.673057123657
 21
4725.431598713261
 31
0.0
  0
LINE
  5
19FC9
330
747D
100
AcDbEntity
  8
細線
100
AcDbLine
 10
7548.673057123656
 20
4719.431598713261
 30
0.0
 11
7474.673057123657
 21
4719.431598713261
 31
0.0
  0
LINE
  5
19FCA
330
747D
100
AcDbEntity
  8
細線
100
AcDbLine
 10
7548.673057123656
 20
4731.431598713261
 30
0.0
 11
7479.673057123656
 21
4731.431598713261
 31
0.0
  0
LINE
  5
19FCB
330
747D
100
AcDbEntity
  8
細線
100
AcDbLine
 10
7400.673057123658
 20
4731.431598713261
 30
0.0
 11
7474.673057123657
 21
4731.431598713261
 31
0.0
  0
LINE
  5
19FCC
330
747D
100
AcDbEntity
  8
細線
100
AcDbLine
 10
7400.673057123658
 20
4719.431598713261
 30
0.0
 11
7474.673057123657
 21
4719.431598713261
 31
0.0
  0
LINE
  5
19FCD
330
747D
100
AcDbEntity
  8
細線
100
AcDbLine
 10
7400.673057123658
 20
4725.431598713261
 30
0.0
 11
7474.673057123657
 21
4725.431598713261
 31
0.0
  0
LINE
  5
19FCE
330
747D
100
AcDbEntity
  8
細線
100
AcDbLine
 10
7474.673057123657
 20
4737.431598713261
 30
0.0
 11
7474.673057123657
 21
4714.431598713261
 31
0.0
  0
LINE
  5
19FCF
330
747D
100
AcDbEntity
  8
細線
100
AcDbLine
 10
6854.673057123656
 20
4737.431598713261
 30
0.0
 11
6854.673057123656
 21
4714.431598713261
 31
0.0
  0
LINE
  5
19FD0
330
747D
100
AcDbEntity
  8
細線
100
AcDbLine
 10
6928.673057123657
 20
4725.431598713261
 30
0.0
 11
6854.673057123656
 21
4725.431598713261
 31
0.0
  0
LINE
  5
19FD1
330
747D
100
AcDbEntity
  8
細線
100
AcDbLine
 10
6928.673057123657
 20
4719.431598713261
 30
0.0
 11
6854.673057123656
 21
4719.431598713261
 31
0.0
  0
LINE
  5
19FD2
330
747D
100
AcDbEntity
  8
細線
100
AcDbLine
 10
6928.673057123657
 20
4731.431598713261
 30
0.0
 11
6854.673057123656
 21
4731.431598713261
 31
0.0
  0
LINE
  5
19FD3
330
747D
100
AcDbEntity
  8
細線
100
AcDbLine
 10
6780.673057123657
 20
4731.431598713261
 30
0.0
 11
6849.673057123657
 21
4731.431598713261
 31
0.0
  0
LINE
  5
19FD4
330
747D
100
AcDbEntity
  8
細線
100
AcDbLine
 10
6780.673057123657
 20
4719.431598713261
 30
0.0
 11
6854.673057123656
 21
4719.431598713261
 31
0.0
  0
LINE
  5
19FD5
330
747D
100
AcDbEntity
  8
細線
100
AcDbLine
 10
6780.673057123657
 20
4725.431598713261
 30
0.0
 11
6854.673057123656
 21
4725.431598713261
 31
0.0
  0
LINE
  5
19FD6
330
747D
100
AcDbEntity
  8
細線
100
AcDbLine
 10
6780.673057123657
 20
4731.431598713261
 30
0.0
 11
6854.673057123656
 21
4731.431598713261
 31
0.0
  0
LINE
  5
19FD7
330
747D
100
AcDbEntity
  8
部品1
 48
0.01
100
AcDbLine
 10
6942.673057123657
 20
4743.931598713261
 30
0.0
 11
6766.673057123657
 21
4743.931598713261
 31
0.0
  0
LINE
  5
19FD8
330
747D
100
AcDbEntity
  8
部品1
 48
0.01
100
AcDbLine
 10
6764.673057123657
 20
4741.931598713261
 30
0.0
 11
6764.673057123657
 21
4710.431598713261
 31
0.0
  0
LINE
  5
19FD9
330
747D
100
AcDbEntity
  8
部品1
 48
0.01
100
AcDbLine
 10
6766.673057123657
 20
4708.431598713261
 30
0.0
 11
6942.673057123657
 21
4708.431598713261
 31
0.0
  0
LINE
  5
19FDA
330
747D
100
AcDbEntity
  8
部品1
 48
0.01
100
AcDbLine
 10
6944.673057123657
 20
4710.431598713261
 30
0.0
 11
6944.673057123657
 21
4741.931598713261
 31
0.0
  0
LINE
  5
19FDB
330
747D
100
AcDbEntity
  8
細線
100
AcDbLine
 10
6780.673057123657
 20
4737.431598713261
 30
0.0
 11
6780.673057123657
 21
4714.431598713261
 31
0.0
  0
LINE
  5
19FDC
330
747D
100
AcDbEntity
  8
細線
100
AcDbLine
 10
6928.673057123657
 20
4714.431598713261
 30
0.0
 11
6928.673057123657
 21
4737.431598713261
 31
0.0
  0
LINE
  5
19FDD
330
747D
100
AcDbEntity
  8
細線
100
AcDbLine
 10
6928.673057123657
 20
4737.431598713261
 30
0.0
 11
6854.673057123656
 21
4737.431598713261
 31
0.0
  0
LINE
  5
19FDE
330
747D
100
AcDbEntity
  8
細線
100
AcDbLine
 10
6780.673057123657
 20
4714.431598713261
 30
0.0
 11
6854.673057123656
 21
4714.431598713261
 31
0.0
  0
LINE
  5
19FDF
330
747D
100
AcDbEntity
  8
細線
100
AcDbLine
 10
6854.673057123656
 20
4737.431598713261
 30
0.0
 11
6780.673057123657
 21
4737.431598713261
 31
0.0
  0
LINE
  5
19FE0
330
747D
100
AcDbEntity
  8
細線
100
AcDbLine
 10
6854.673057123656
 20
4714.431598713261
 30
0.0
 11
6928.673057123657
 21
4714.431598713261
 31
0.0
  0
ARC
  5
19FE1
330
747D
100
AcDbEntity
  8
部品1
 48
0.01
100
AcDbCircle
 10
6766.673057123657
 20
4741.931598713261
 30
0.0
 40
2.0
100
AcDbArc
 50
90.0
 51
180.0
  0
ARC
  5
19FE2
330
747D
100
AcDbEntity
  8
部品1
 48
0.01
100
AcDbCircle
 10
6766.673057123657
 20
4710.431598713261
 30
0.0
 40
2.0
100
AcDbArc
 50
180.0
 51
270.0
  0
ARC
  5
19FE3
330
747D
100
AcDbEntity
  8
部品1
 48
0.01
100
AcDbCircle
 10
6942.673057123657
 20
4741.931598713261
 30
0.0
 40
2.0
100
AcDbArc
 50
0.0
 51
90.0
  0
ARC
  5
19FE4
330
747D
100
AcDbEntity
  8
部品1
 48
0.01
100
AcDbCircle
 10
6942.673057123657
 20
4710.431598713261
 30
0.0
 40
2.0
100
AcDbArc
 50
270.0
 51
0.0
  0
LINE
  5
19FE5
330
747D
100
AcDbEntity
  8
部品1
 48
50.0
100
AcDbLine
 10
6479.673057123661
 20
4512.931598713262
 30
0.0
 11
6479.673057123661
 21
4771.931598713264
 31
0.0
  0
LINE
  5
19FE6
330
747D
100
AcDbEntity
  8
部品1
 48
50.0
100
AcDbLine
 10
6469.67305712366
 20
4771.931598713264
 30
0.0
 11
6469.673057123657
 21
4912.931598713264
 31
0.0
  0
DIMENSION
  5
1A01D
330
747D
100
AcDbEntity
  8
寸法
 48
50.0
100
AcDbDimension
  2
*D38
 10
3739.673057123657
 20
5318.657870445171
 30
0.0
 11
5794.673057123657
 21
5418.657870445171
 31
0.0
 70
    32
  1
柱外寸法 N X 1370
 71
     5
 42
4110.0
  3
INABA_S40G
100
AcDbAlignedDimension
 13
7849.673057123657
 23
4912.9315987048
 33
0.0
 14
3739.673057123657
 24
4912.931598713267
 34
0.0
100
AcDbRotatedDimension
  0
LINE
  5
1A047
330
747D
100
AcDbEntity
  8
細線
 48
50.0
100
AcDbLine
 10
7889.397488377369
 20
4792.731598713262
 30
0.0
 11
3699.948625869927
 21
4792.731598713266
 31
0.0
  0
LINE
  5
1A048
330
747D
100
AcDbEntity
  8
細線
 48
50.0
100
AcDbLine
 10
7897.633518902224
 20
4884.931598713269
 30
0.0
 11
3691.712595345098
 21
4884.931598713265
 31
0.0
  0
LINE
  5
1A049
330
747D
100
AcDbEntity
  8
部品1
 48
50.0
100
AcDbLine
 10
7892.264636017223
 20
4912.931598713267
 30
0.0
 11
3697.08147823009
 21
4912.931598713268
 31
0.0
  0
LINE
  5
1A04A
330
747D
100
AcDbEntity
  8
部品1
 48
50.0
100
AcDbLine
 10
7879.049312556194
 20
4771.931598713265
 30
0.0
 11
3710.29680169112
 21
4771.931598713266
 31
0.0
  0
DIMENSION
  5
1A1C9
330
747D
100
AcDbEntity
  8
寸法
 48
50.0
100
AcDbDimension
  2
*D39
 10
8137.216159445403
 20
4485.931598713261
 30
0.0
 11
8037.216159445403
 21
3511.931598713263
 31
0.0
 70
    32
  1
有効開口部高サ <>
 71
     5
 42
1948.0
  3
INABA_S40G
100
AcDbAlignedDimension
 13
7849.673057123657
 23
2537.931598713262
 33
0.0
 14
7849.673057123657
 24
4485.931598713261
 34
0.0
 50
90.0
100
AcDbRotatedDimension
  0
DIMENSION
  5
1A1CA
330
747D
100
AcDbEntity
  8
寸法
 48
50.0
100
AcDbDimension
  2
*D40
 10
8137.216159445403
 20
4512.931598713262
 30
0.0
 11
8277.385982691768
 21
4513.89879855292
 31
0.0
 70
   160
 71
     5
 42
27.00000000000091
  3
INABA_S40G
100
AcDbAlignedDimension
 13
7849.673057123657
 23
4485.931598713261
 33
0.0
 14
7849.673057123657
 24
4512.931598713262
 34
0.0
 50
90.0
100
AcDbRotatedDimension
1001
ACAD
1000
DSTYLE
1002
{
1070
   279
1070
     2
1002
}
  0
DIMENSION
  5
1A1CB
330
747D
100
AcDbEntity
  8
寸法
 48
50.0
100
AcDbDimension
  2
*D41
 10
8137.216159445404
 20
4677.931598713261
 30
0.0
 11
8137.216159445403
 21
4916.4168800875
 31
0.0
 70
   160
 71
     5
 42
164.9999999999991
  3
INABA_S40G
100
AcDbAlignedDimension
 13
7849.673057123657
 23
4512.931598713262
 33
0.0
 14
7849.673057123657
 24
4677.931598713261
 34
0.0
 50
90.0
100
AcDbRotatedDimension
1001
ACAD
1000
DSTYLE
1002
{
1002
}
  0
LINE
  5
1A307
330
747D
100
AcDbEntity
  8
仕様書枠
 48
50.0
100
AcDbLine
 10
16307.2
 20
10389.6
 30
0.0
 11
13127.2
 21
10389.6
 31
0.0
  0
LINE
  5
1A308
330
747D
100
AcDbEntity
  8
仕様書枠
 48
50.0
100
AcDbLine
 10
16307.2
 20
10559.6
 30
0.0
 11
13127.2
 21
10559.6
 31
0.0
  0
LINE
  5
1A309
330
747D
100
AcDbEntity
  8
仕様書枠
 48
50.0
100
AcDbLine
 10
16307.2
 20
10219.6
 30
0.0
 11
13127.2
 21
10219.6
 31
0.0
  0
TEXT
  5
1A30A
330
747D
100
AcDbEntity
  8
文字
 62
     7
 48
50.0
100
AcDbText
 10
15022.63965474517
 20
10760.01374588372
 30
0.0
 40
100.0
  1
F12         1.0,1.2
  7
STYLE1
100
AcDbText
  0
TEXT
  5
1A310
330
747D
100
AcDbEntity
  8
文字
 62
     7
 48
50.0
100
AcDbText
 10
15022.63965474516
 20
9060.013745883729
 30
0.0
 40
100.0
  1
F12            0.7
  7
STYLE1
100
AcDbText
  0
LINE
  5
1A315
330
747D
100
AcDbEntity
  8
破線
 48
5.0
100
AcDbLine
 10
5109.673057123657
 20
2262.931598713262
 30
0.0
 11
5109.673057123657
 21
2187.931598713262
 31
0.0
  0
LINE
  5
1A316
330
747D
100
AcDbEntity
  8
破線
 48
5.0
100
AcDbLine
 10
5059.673057123657
 20
2187.931598713262
 30
0.0
 11
5159.673057123657
 21
2187.931598713262
 31
0.0
  0
LINE
  5
1A317
330
747D
100
AcDbEntity
  8
破線
 48
5.0
100
AcDbLine
 10
6429.673057123657
 20
2187.931598713261
 30
0.0
 11
6529.673057123656
 21
2187.931598713261
 31
0.0
  0
LINE
  5
1A318
330
747D
100
AcDbEntity
  8
破線
 48
5.0
100
AcDbLine
 10
6479.673057123656
 20
2262.931598713262
 30
0.0
 11
6479.673057123656
 21
2187.931598713261
 31
0.0
  0
LINE
  5
1A354
330
747D
100
AcDbEntity
  8
部品1
 48
50.0
100
AcDbLine
 10
5176.673057123656
 20
7642.000206066727
 30
0.0
 11
6412.67305712364
 21
7642.000206066727
 31
0.0
  0
ARC
  5
1A355
330
747D
100
AcDbEntity
  8
部品1
 48
0.01
100
AcDbCircle
 10
6016.673057123657
 20
4710.431598713261
 30
0.0
 40
2.0
100
AcDbArc
 50
180.0
 51
270.0
  0
ARC
  5
1A356
330
747D
100
AcDbEntity
  8
部品1
 48
0.01
100
AcDbCircle
 10
6016.673057123657
 20
4741.931598713261
 30
0.0
 40
2.0
100
AcDbArc
 50
90.0
 51
180.0
  0
ARC
  5
1A357
330
747D
100
AcDbEntity
  8
部品1
 48
0.01
100
AcDbCircle
 10
6192.673057123657
 20
4710.431598713261
 30
0.0
 40
2.0
100
AcDbArc
 50
270.0
 51
0.0
  0
ARC
  5
1A358
330
747D
100
AcDbEntity
  8
部品1
 48
0.01
100
AcDbCircle
 10
6192.673057123657
 20
4741.931598713261
 30
0.0
 40
2.0
100
AcDbArc
 50
0.0
 51
90.0
  0
LINE
  5
1A359
330
747D
100
AcDbEntity
  8
細線
100
AcDbLine
 10
6104.673057123656
 20
4714.431598713261
 30
0.0
 11
6030.673057123657
 21
4714.431598713261
 31
0.0
  0
LINE
  5
1A35A
330
747D
100
AcDbEntity
  8
細線
100
AcDbLine
 10
6104.673057123656
 20
4737.431598713261
 30
0.0
 11
6178.673057123656
 21
4737.431598713261
 31
0.0
  0
LINE
  5
1A35B
330
747D
100
AcDbEntity
  8
細線
100
AcDbLine
 10
6178.673057123656
 20
4714.431598713261
 30
0.0
 11
6104.673057123656
 21
4714.431598713261
 31
0.0
  0
LINE
  5
1A35C
330
747D
100
AcDbEntity
  8
細線
100
AcDbLine
 10
6030.673057123657
 20
4737.431598713261
 30
0.0
 11
6104.673057123656
 21
4737.431598713261
 31
0.0
  0
LINE
  5
1A35D
330
747D
100
AcDbEntity
  8
細線
100
AcDbLine
 10
6030.673057123657
 20
4714.431598713261
 30
0.0
 11
6030.673057123657
 21
4737.431598713261
 31
0.0
  0
LINE
  5
1A35E
330
747D
100
AcDbEntity
  8
細線
100
AcDbLine
 10
6178.673057123656
 20
4737.431598713261
 30
0.0
 11
6178.673057123656
 21
4714.431598713261
 31
0.0
  0
LINE
  5
1A35F
330
747D
100
AcDbEntity
  8
部品1
 48
0.01
100
AcDbLine
 10
6014.673057123657
 20
4710.431598713261
 30
0.0
 11
6014.673057123657
 21
4741.931598713261
 31
0.0
  0
LINE
  5
1A360
330
747D
100
AcDbEntity
  8
部品1
 48
0.01
100
AcDbLine
 10
6192.673057123657
 20
4708.431598713261
 30
0.0
 11
6016.673057123657
 21
4708.431598713261
 31
0.0
  0
LINE
  5
1A361
330
747D
100
AcDbEntity
  8
部品1
 48
0.01
100
AcDbLine
 10
6194.673057123657
 20
4741.931598713261
 30
0.0
 11
6194.673057123657
 21
4710.431598713261
 31
0.0
  0
LINE
  5
1A362
330
747D
100
AcDbEntity
  8
部品1
 48
0.01
100
AcDbLine
 10
6016.673057123657
 20
4743.931598713261
 30
0.0
 11
6192.673057123657
 21
4743.931598713261
 31
0.0
  0
LINE
  5
1A363
330
747D
100
AcDbEntity
  8
細線
100
AcDbLine
 10
6178.673057123656
 20
4731.431598713261
 30
0.0
 11
6104.673057123656
 21
4731.431598713261
 31
0.0
  0
LINE
  5
1A364
330
747D
100
AcDbEntity
  8
細線
100
AcDbLine
 10
6178.673057123656
 20
4725.431598713261
 30
0.0
 11
6104.673057123656
 21
4725.431598713261
 31
0.0
  0
LINE
  5
1A365
330
747D
100
AcDbEntity
  8
細線
100
AcDbLine
 10
6178.673057123656
 20
4719.431598713261
 30
0.0
 11
6104.673057123656
 21
4719.431598713261
 31
0.0
  0
LINE
  5
1A366
330
747D
100
AcDbEntity
  8
細線
100
AcDbLine
 10
6178.673057123656
 20
4731.431598713261
 30
0.0
 11
6109.673057123657
 21
4731.431598713261
 31
0.0
  0
LINE
  5
1A367
330
747D
100
AcDbEntity
  8
細線
100
AcDbLine
 10
6030.673057123657
 20
4731.431598713261
 30
0.0
 11
6104.673057123656
 21
4731.431598713261
 31
0.0
  0
LINE
  5
1A368
330
747D
100
AcDbEntity
  8
細線
100
AcDbLine
 10
6030.673057123657
 20
4719.431598713261
 30
0.0
 11
6104.673057123656
 21
4719.431598713261
 31
0.0
  0
LINE
  5
1A369
330
747D
100
AcDbEntity
  8
細線
100
AcDbLine
 10
6030.673057123657
 20
4725.431598713261
 30
0.0
 11
6104.673057123656
 21
4725.431598713261
 31
0.0
  0
LINE
  5
1A36A
330
747D
100
AcDbEntity
  8
細線
100
AcDbLine
 10
6104.673057123656
 20
4737.431598713261
 30
0.0
 11
6104.673057123656
 21
4714.431598713261
 31
0.0
  0
LINE
  5
1A36B
330
747D
100
AcDbEntity
  8
細線
100
AcDbLine
 10
5484.673057123657
 20
4737.431598713261
 30
0.0
 11
5484.673057123657
 21
4714.431598713261
 31
0.0
  0
LINE
  5
1A36C
330
747D
100
AcDbEntity
  8
細線
100
AcDbLine
 10
5558.673057123656
 20
4725.431598713261
 30
0.0
 11
5484.673057123657
 21
4725.431598713261
 31
0.0
  0
LINE
  5
1A36D
330
747D
100
AcDbEntity
  8
細線
100
AcDbLine
 10
5558.673057123656
 20
4719.431598713261
 30
0.0
 11
5484.673057123657
 21
4719.431598713261
 31
0.0
  0
LINE
  5
1A36E
330
747D
100
AcDbEntity
  8
細線
100
AcDbLine
 10
5558.673057123656
 20
4731.431598713261
 30
0.0
 11
5484.673057123657
 21
4731.431598713261
 31
0.0
  0
LINE
  5
1A36F
330
747D
100
AcDbEntity
  8
細線
100
AcDbLine
 10
5410.673057123656
 20
4731.431598713261
 30
0.0
 11
5479.673057123656
 21
4731.431598713261
 31
0.0
  0
LINE
  5
1A370
330
747D
100
AcDbEntity
  8
細線
100
AcDbLine
 10
5410.673057123656
 20
4719.431598713261
 30
0.0
 11
5484.673057123657
 21
4719.431598713261
 31
0.0
  0
LINE
  5
1A371
330
747D
100
AcDbEntity
  8
細線
100
AcDbLine
 10
5410.673057123656
 20
4725.431598713261
 30
0.0
 11
5484.673057123657
 21
4725.431598713261
 31
0.0
  0
LINE
  5
1A372
330
747D
100
AcDbEntity
  8
細線
100
AcDbLine
 10
5410.673057123656
 20
4731.431598713261
 30
0.0
 11
5484.673057123657
 21
4731.431598713261
 31
0.0
  0
LINE
  5
1A373
330
747D
100
AcDbEntity
  8
部品1
 48
0.01
100
AcDbLine
 10
5572.673057123656
 20
4743.931598713261
 30
0.0
 11
5396.673057123656
 21
4743.931598713261
 31
0.0
  0
LINE
  5
1A374
330
747D
100
AcDbEntity
  8
部品1
 48
0.01
100
AcDbLine
 10
5394.673057123657
 20
4741.931598713261
 30
0.0
 11
5394.673057123657
 21
4710.431598713261
 31
0.0
  0
LINE
  5
1A375
330
747D
100
AcDbEntity
  8
部品1
 48
0.01
100
AcDbLine
 10
5396.673057123656
 20
4708.431598713261
 30
0.0
 11
5572.673057123656
 21
4708.431598713261
 31
0.0
  0
LINE
  5
1A376
330
747D
100
AcDbEntity
  8
部品1
 48
0.01
100
AcDbLine
 10
5574.673057123657
 20
4710.431598713261
 30
0.0
 11
5574.673057123657
 21
4741.931598713261
 31
0.0
  0
LINE
  5
1A377
330
747D
100
AcDbEntity
  8
細線
100
AcDbLine
 10
5410.673057123656
 20
4737.431598713261
 30
0.0
 11
5410.673057123656
 21
4714.431598713261
 31
0.0
  0
LINE
  5
1A378
330
747D
100
AcDbEntity
  8
細線
100
AcDbLine
 10
5558.673057123656
 20
4714.431598713261
 30
0.0
 11
5558.673057123656
 21
4737.431598713261
 31
0.0
  0
LINE
  5
1A379
330
747D
100
AcDbEntity
  8
細線
100
AcDbLine
 10
5558.673057123656
 20
4737.431598713261
 30
0.0
 11
5484.673057123657
 21
4737.431598713261
 31
0.0
  0
LINE
  5
1A37A
330
747D
100
AcDbEntity
  8
細線
100
AcDbLine
 10
5410.673057123656
 20
4714.431598713261
 30
0.0
 11
5484.673057123657
 21
4714.431598713261
 31
0.0
  0
LINE
  5
1A37B
330
747D
100
AcDbEntity
  8
細線
100
AcDbLine
 10
5484.673057123657
 20
4737.431598713261
 30
0.0
 11
5410.673057123656
 21
4737.431598713261
 31
0.0
  0
LINE
  5
1A37C
330
747D
100
AcDbEntity
  8
細線
100
AcDbLine
 10
5484.673057123657
 20
4714.431598713261
 30
0.0
 11
5558.673057123656
 21
4714.431598713261
 31
0.0
  0
ARC
  5
1A37D
330
747D
100
AcDbEntity
  8
部品1
 48
0.01
100
AcDbCircle
 10
5396.673057123656
 20
4741.931598713261
 30
0.0
 40
2.0
100
AcDbArc
 50
90.0
 51
180.0
  0
ARC
  5
1A37E
330
747D
100
AcDbEntity
  8
部品1
 48
0.01
100
AcDbCircle
 10
5396.673057123656
 20
4710.431598713261
 30
0.0
 40
2.0
100
AcDbArc
 50
180.0
 51
270.0
  0
ARC
  5
1A37F
330
747D
100
AcDbEntity
  8
部品1
 48
0.01
100
AcDbCircle
 10
5572.673057123656
 20
4741.931598713261
 30
0.0
 40
2.0
100
AcDbArc
 50
0.0
 51
90.0
  0
ARC
  5
1A380
330
747D
100
AcDbEntity
  8
部品1
 48
0.01
100
AcDbCircle
 10
5572.673057123656
 20
4710.431598713261
 30
0.0
 40
2.0
100
AcDbArc
 50
270.0
 51
0.0
  0
CIRCLE
  5
1A381
330
747D
100
AcDbEntity
  8
細線
 48
50.0
100
AcDbCircle
 10
5794.673057123658
 20
3425.431598713262
 30
0.0
 40
18.0
  0
ARC
  5
1A382
330
747D
100
AcDbEntity
  8
細線
 48
50.0
100
AcDbCircle
 10
6094.673057123658
 20
3100.431598713262
 30
0.0
 40
15.0
100
AcDbArc
 50
270.0
 51
90.0
  0
ARC
  5
1A383
330
747D
100
AcDbEntity
  8
細線
 48
50.0
100
AcDbCircle
 10
5994.673057123658
 20
3100.431598713262
 30
0.0
 40
15.0
100
AcDbArc
 50
90.0
 51
270.0
  0
LINE
  5
1A384
330
747D
100
AcDbEntity
  8
細線
 48
50.0
100
AcDbLine
 10
5994.673057123658
 20
3115.431598713261
 30
0.0
 11
6094.673057123658
 21
3115.431598713261
 31
0.0
  0
LINE
  5
1A385
330
747D
100
AcDbEntity
  8
細線
 48
50.0
100
AcDbLine
 10
6094.673057123658
 20
3085.431598713262
 30
0.0
 11
5994.673057123658
 21
3085.431598713262
 31
0.0
  0
LINE
  5
1A386
330
747D
100
AcDbEntity
  8
細線
 48
50.0
100
AcDbLine
 10
5594.673057123658
 20
3085.431598713262
 30
0.0
 11
5494.673057123658
 21
3085.431598713262
 31
0.0
  0
LINE
  5
1A387
330
747D
100
AcDbEntity
  8
細線
 48
50.0
100
AcDbLine
 10
5494.673057123658
 20
3115.431598713261
 30
0.0
 11
5594.673057123658
 21
3115.431598713261
 31
0.0
  0
ARC
  5
1A388
330
747D
100
AcDbEntity
  8
細線
 48
50.0
100
AcDbCircle
 10
5594.673057123658
 20
3100.431598713262
 30
0.0
 40
15.0
100
AcDbArc
 50
270.0
 51
90.0
  0
ARC
  5
1A389
330
747D
100
AcDbEntity
  8
細線
 48
50.0
100
AcDbCircle
 10
5494.673057123658
 20
3100.431598713262
 30
0.0
 40
15.0
100
AcDbArc
 50
90.0
 51
270.0
  0
LINE
  5
1A38A
330
747D
100
AcDbEntity
  8
部品1
100
AcDbLine
 10
5164.673057123657
 20
4512.931598713261
 30
0.0
 11
6534.673057123656
 21
4512.931598713262
 31
0.0
  0
LINE
  5
1A38B
330
747D
100
AcDbEntity
  8
細線
100
AcDbLine
 10
5212.673057123653
 20
4497.931598713261
 30
0.0
 11
6376.673057123655
 21
4497.931598713261
 31
0.0
  0
LINE
  5
1A38C
330
747D
100
AcDbEntity
  8
細線
100
AcDbLine
 10
5212.673057123653
 20
3067.931598713262
 30
0.0
 11
6376.673057123655
 21
3067.931598713262
 31
0.0
  0
LINE
  5
1A38D
330
747D
100
AcDbEntity
  8
細線
100
AcDbLine
 10
5212.673057123653
 20
3002.931598713262
 30
0.0
 11
6376.673057123655
 21
3002.931598713262
 31
0.0
  0
LINE
  5
1A38E
330
747D
100
AcDbEntity
  8
細線
100
AcDbLine
 10
5212.673057123653
 20
2937.931598713262
 30
0.0
 11
6376.673057123655
 21
2937.931598713262
 31
0.0
  0
LINE
  5
1A38F
330
747D
100
AcDbEntity
  8
細線
100
AcDbLine
 10
5212.673057123653
 20
2872.931598713262
 30
0.0
 11
6376.673057123655
 21
2872.931598713262
 31
0.0
  0
LINE
  5
1A390
330
747D
100
AcDbEntity
  8
細線
100
AcDbLine
 10
5212.673057123653
 20
2807.931598713262
 30
0.0
 11
6376.673057123655
 21
2807.931598713262
 31
0.0
  0
LINE
  5
1A391
330
747D
100
AcDbEntity
  8
細線
100
AcDbLine
 10
5212.673057123653
 20
2742.931598713262
 30
0.0
 11
6376.673057123655
 21
2742.931598713262
 31
0.0
  0
LINE
  5
1A392
330
747D
100
AcDbEntity
  8
細線
100
AcDbLine
 10
5212.673057123653
 20
2677.931598713262
 30
0.0
 11
6376.673057123655
 21
2677.931598713262
 31
0.0
  0
LINE
  5
1A393
330
747D
100
AcDbEntity
  8
細線
100
AcDbLine
 10
5212.673057123653
 20
2612.931598713262
 30
0.0
 11
6376.673057123655
 21
2612.931598713262
 31
0.0
  0
LINE
  5
1A394
330
747D
100
AcDbEntity
  8
細線
100
AcDbLine
 10
5212.673057123653
 20
4367.931598713261
 30
0.0
 11
6376.673057123655
 21
4367.931598713261
 31
0.0
  0
LINE
  5
1A395
330
747D
100
AcDbEntity
  8
細線
100
AcDbLine
 10
5212.673057123653
 20
4432.931598713262
 30
0.0
 11
6376.673057123655
 21
4432.931598713262
 31
0.0
  0
LINE
  5
1A396
330
747D
100
AcDbEntity
  8
細線
100
AcDbLine
 10
5212.673057123653
 20
3717.931598713262
 30
0.0
 11
6376.673057123655
 21
3717.931598713262
 31
0.0
  0
LINE
  5
1A397
330
747D
100
AcDbEntity
  8
細線
100
AcDbLine
 10
5212.673057123653
 20
3652.931598713262
 30
0.0
 11
6376.673057123655
 21
3652.931598713262
 31
0.0
  0
LINE
  5
1A398
330
747D
100
AcDbEntity
  8
細線
100
AcDbLine
 10
5212.673057123653
 20
3587.931598713262
 30
0.0
 11
6376.673057123655
 21
3587.931598713262
 31
0.0
  0
LINE
  5
1A399
330
747D
100
AcDbEntity
  8
細線
100
AcDbLine
 10
5212.673057123653
 20
3522.931598713262
 30
0.0
 11
6376.673057123655
 21
3522.931598713262
 31
0.0
  0
LINE
  5
1A39A
330
747D
100
AcDbEntity
  8
細線
100
AcDbLine
 10
5212.673057123653
 20
3457.931598713262
 30
0.0
 11
6376.673057123655
 21
3457.931598713262
 31
0.0
  0
LINE
  5
1A39B
330
747D
100
AcDbEntity
  8
細線
100
AcDbLine
 10
5212.673057123653
 20
3392.931598713262
 30
0.0
 11
6376.673057123655
 21
3392.931598713262
 31
0.0
  0
LINE
  5
1A39C
330
747D
100
AcDbEntity
  8
細線
100
AcDbLine
 10
5212.673057123653
 20
3327.931598713262
 30
0.0
 11
6376.673057123655
 21
3327.931598713262
 31
0.0
  0
LINE
  5
1A39D
330
747D
100
AcDbEntity
  8
細線
100
AcDbLine
 10
5212.673057123653
 20
3262.931598713262
 30
0.0
 11
6376.673057123655
 21
3262.931598713262
 31
0.0
  0
LINE
  5
1A39E
330
747D
100
AcDbEntity
  8
細線
100
AcDbLine
 10
5212.673057123653
 20
3197.931598713262
 30
0.0
 11
6376.673057123655
 21
3197.931598713262
 31
0.0
  0
LINE
  5
1A39F
330
747D
100
AcDbEntity
  8
細線
100
AcDbLine
 10
5212.673057123653
 20
3132.931598713262
 30
0.0
 11
6376.673057123655
 21
3132.931598713262
 31
0.0
  0
LINE
  5
1A3A0
330
747D
100
AcDbEntity
  8
細線
100
AcDbLine
 10
5212.673057123653
 20
4107.931598713261
 30
0.0
 11
6376.673057123655
 21
4107.931598713261
 31
0.0
  0
LINE
  5
1A3A1
330
747D
100
AcDbEntity
  8
細線
100
AcDbLine
 10
5212.673057123653
 20
4042.931598713262
 30
0.0
 11
6376.673057123655
 21
4042.931598713262
 31
0.0
  0
LINE
  5
1A3A2
330
747D
100
AcDbEntity
  8
細線
100
AcDbLine
 10
5212.673057123653
 20
3977.931598713262
 30
0.0
 11
6376.673057123655
 21
3977.931598713262
 31
0.0
  0
LINE
  5
1A3A3
330
747D
100
AcDbEntity
  8
細線
100
AcDbLine
 10
5212.673057123653
 20
3912.931598713262
 30
0.0
 11
6376.673057123655
 21
3912.931598713262
 31
0.0
  0
LINE
  5
1A3A4
330
747D
100
AcDbEntity
  8
細線
100
AcDbLine
 10
5212.673057123653
 20
3847.931598713262
 30
0.0
 11
6376.673057123655
 21
3847.931598713262
 31
0.0
  0
LINE
  5
1A3A5
330
747D
100
AcDbEntity
  8
細線
100
AcDbLine
 10
5212.673057123653
 20
3782.931598713262
 30
0.0
 11
6376.673057123655
 21
3782.931598713262
 31
0.0
  0
LINE
  5
1A3A6
330
747D
100
AcDbEntity
  8
細線
100
AcDbLine
 10
5212.673057123653
 20
4302.931598713261
 30
0.0
 11
6376.673057123655
 21
4302.931598713261
 31
0.0
  0
LINE
  5
1A3A7
330
747D
100
AcDbEntity
  8
細線
100
AcDbLine
 10
5212.673057123653
 20
4237.931598713261
 30
0.0
 11
6376.673057123655
 21
4237.931598713261
 31
0.0
  0
LINE
  5
1A3A8
330
747D
100
AcDbEntity
  8
細線
100
AcDbLine
 10
5212.673057123653
 20
4172.931598713261
 30
0.0
 11
6376.673057123655
 21
4172.931598713261
 31
0.0
  0
LINE
  5
1A3A9
330
747D
100
AcDbEntity
  8
細線
100
AcDbLine
 10
6376.673057123657
 20
2547.931598713262
 30
0.0
 11
5212.673057123652
 21
2547.931598713262
 31
0.0
  0
LINE
  5
1A3B0
330
747D
100
AcDbEntity
  8
部品1
 48
50.0
100
AcDbLine
 10
5841.2057966792
 20
7815.66275430341
 30
0.0
 11
5748.140317568099
 21
7468.337657830045
 31
0.0
  0
SPLINE
  5
1A3B1
330
747D
100
AcDbEntity
  8
部品1
 48
50.0
100
AcDbSpline
210
0.0
220
0.0
230
1.0
 70
     8
 71
     3
 72
    10
 73
     6
 74
     4
 42
0.0000000001
 43
0.0000000001
 44
0.0000000001
 40
0.0
 40
0.0
 40
0.0
 40
0.0
 40
147.8767566010009
 40
301.8091093202477
 40
466.5049223087716
 40
466.5049223087716
 40
466.5049223087716
 40
466.5049223087716
 10
5862.2433848567
 20
7723.24135859252
 30
0.0
 10
5785.361702361864
 20
7714.336924934683
 30
0.0
 10
5628.450010151738
 20
7696.163418475349
 30
0.0
 10
5951.263420096082
 20
7593.642833836009
 30
0.0
 10
5781.420800426706
 20
7575.007745123802
 30
0.0
 10
5693.630795219815
 20
7565.375448246496
 30
0.0
 11
5862.2433848567
 21
7723.24135859252
 31
0.0
 11
5719.405406547931
 21
7684.968037656192
 31
0.0
 11
5852.714734467105
 21
7608.001861296568
 31
0.0
 11
5693.630795219815
 21
7565.375448246496
 31
0.0
  0
SPLINE
  5
1A3B2
330
747D
100
AcDbEntity
  8
部品1
 48
50.0
100
AcDbSpline
210
0.0
220
0.0
230
1.0
 70
     8
 71
     3
 72
    10
 73
     6
 74
     4
 42
0.0000000001
 43
0.0000000001
 44
0.0000000001
 40
0.0
 40
0.0
 40
0.0
 40
0.0
 40
147.8767566010009
 40
301.8091093202477
 40
466.5049223087716
 40
466.5049223087716
 40
466.5049223087716
 40
466.5049223087716
 10
5862.243384856693
 20
9846.241358592639
 30
0.0
 10
5785.361702361857
 20
9837.336924934801
 30
0.0
 10
5628.450010151728
 20
9819.163418475469
 30
0.0
 10
5951.263420096074
 20
9716.642833836131
 30
0.0
 10
5781.4208004267
 20
9698.007745123922
 30
0.0
 10
5693.630795219807
 20
9688.375448246615
 30
0.0
 11
5862.243384856693
 21
9846.241358592639
 31
0.0
 11
5719.405406547924
 21
9807.96803765631
 31
0.0
 11
5852.714734467098
 21
9731.001861296688
 31
0.0
 11
5693.630795219807
 21
9688.375448246615
 31
0.0
  0
LINE
  5
1A3B3
330
747D
100
AcDbEntity
  8
部品1
 48
50.0
100
AcDbLine
 10
5841.205796679193
 20
9938.662754303528
 30
0.0
 11
5748.140317568092
 21
9591.337657830164
 31
0.0
  0
LINE
  5
1A3BA
330
747D
100
AcDbEntity
  8
部品1
 48
50.0
100
AcDbLine
 10
6227.608334867331
 20
5041.168051641343
 30
0.0
 11
5439.383492910803
 21
2099.472893671883
 31
0.0
  0
SPLINE
  5
1A3BB
330
747D
100
AcDbEntity
  8
部品1
 48
50.0
100
AcDbSpline
210
0.0
220
0.0
230
1.0
 70
     8
 71
     3
 72
    10
 73
     6
 74
     4
 42
0.0000000001
 43
0.0000000001
 44
0.0000000001
 40
0.0
 40
0.0
 40
0.0
 40
0.0
 40
147.8767566010009
 40
301.8091093202477
 40
466.5049223087734
 40
466.5049223087734
 40
466.5049223087734
 40
466.5049223087734
 10
5862.243384856709
 20
3506.672751239054
 30
0.0
 10
5785.361702361874
 20
3497.768317581216
 30
0.0
 10
5628.450010151746
 20
3479.594811121885
 30
0.0
 10
5951.26342009609
 20
3377.074226482542
 30
0.0
 10
5781.420800426716
 20
3358.439137770338
 30
0.0
 10
5693.630795219822
 20
3348.80684089303
 30
0.0
 11
5862.243384856709
 21
3506.672751239054
 31
0.0
 11
5719.40540654794
 21
3468.399430302726
 31
0.0
 11
5852.714734467114
 21
3391.433253943102
 31
0.0
 11
5693.630795219822
 21
3348.80684089303
 31
0.0
  0
ENDSEC
  0
SECTION
  2
OBJECTS
  0
DICTIONARY
  5
7471
330
0
100
AcDbDictionary
281
     1
  3
ACAD_COLOR
350
17AE2
  3
ACAD_GROUP
350
7472
  3
ACAD_LAYOUT
350
17AE3
  3
ACAD_MATERIAL
350
17AE1
  3
ACAD_MLINESTYLE
350
7473
  3
ACAD_PLOTSETTINGS
350
17AE4
  3
ACAD_PLOTSTYLENAME
350
17ADF
  3
ACDBHEADERROUNDTRIPXREC
350
1A42E
  3
AcDbVariableDictionary
350
1A42A
  3
CONTENTDICTIONARY
350
E71C
  3
DRAWINGVARIABLESDICT
350
F3B9
  0
DICTIONARY
  5
19498
330
7467
100
AcDbDictionary
280
     1
281
     1
  3
ACAD_LAYERSTATES
360
19499
  0
DICTIONARY
  5
17AE2
102
{ACAD_REACTORS
330
7471
102
}
330
7471
100
AcDbDictionary
281
     1
  0
DICTIONARY
  5
7472
102
{ACAD_REACTORS
330
7471
102
}
330
7471
100
AcDbDictionary
281
     1
  3
*A1
350
17FA7
  3
*A2
350
180C7
  3
*A3
350
180D2
  3
*A4
350
18FC7
  0
DICTIONARY
  5
17AE3
102
{ACAD_REACTORS
330
7471
102
}
330
7471
100
AcDbDictionary
281
     1
  3
Model
350
17AE5
  3
レイアウト1
350
17AE6
  0
DICTIONARY
  5
17AE1
102
{ACAD_REACTORS
330
7471
102
}
330
7471
100
AcDbDictionary
281
     1
  0
DICTIONARY
  5
7473
102
{ACAD_REACTORS
330
7471
102
}
330
7471
100
AcDbDictionary
281
     1
  3
STANDARD
350
7480
  0
DICTIONARY
  5
17AE4
102
{ACAD_REACTORS
330
7471
102
}
330
7471
100
AcDbDictionary
281
     1
  0
ACDBDICTIONARYWDFLT
  5
17ADF
102
{ACAD_REACTORS
330
7471
102
}
330
7471
100
AcDbDictionary
281
     1
  3
Normal
350
17AE0
100
AcDbDictionaryWithDefault
340
17AE0
  0
DICTIONARY
  5
1A42E
102
{ACAD_REACTORS
330
7471
102
}
330
7471
100
AcDbDictionary
281
     1
  3
COLORDICT
350
1A430
  3
MATERIALDICT
350
1A42F
  0
DICTIONARY
  5
1A42A
102
{ACAD_REACTORS
330
7471
102
}
330
7471
100
AcDbDictionary
281
     1
  3
DIMASSOC
350
1A42B
  3
PROJECTNAME
350
1A42C
  0
DICTIONARY
  5
E71C
102
{ACAD_REACTORS
330
7471
102
}
330
7471
100
AcDbDictionary
281
     1
  0
DICTIONARY
  5
F3B9
102
{ACAD_REACTORS
330
7471
102
}
330
7471
100
AcDbDictionary
281
     1
1001
DRAWINGVARIABLESXDATA
1000
POLARMODE
1000
1
  0
DICTIONARY
  5
19499
102
{ACAD_REACTORS
330
19498
102
}
330
19498
100
AcDbDictionary
281
     1
  0
GROUP
  5
17FA7
102
{ACAD_REACTORS
330
7472
102
}
330
7472
100
AcDbGroup
300

 70
     1
 71
     1
  0
GROUP
  5
180C7
102
{ACAD_REACTORS
330
7472
102
}
330
7472
100
AcDbGroup
300

 70
     1
 71
     1
  0
GROUP
  5
180D2
102
{ACAD_REACTORS
330
7472
102
}
330
7472
100
AcDbGroup
300

 70
     1
 71
     1
  0
GROUP
  5
18FC7
102
{ACAD_REACTORS
330
7472
102
}
330
7472
100
AcDbGroup
300

 70
     1
 71
     1
  0
LAYOUT
  5
17AE5
102
{ACAD_XDICTIONARY
360
1A431
102
}
102
{ACAD_REACTORS
330
17AE3
102
}
330
17AE3
100
AcDbPlotSettings
  1

  2
Canon iR C3880/C4580 LIPSLX
  4
A3
  6

 40
5.873749732971191
 41
5.873747825622558
 42
5.873748779296875
 43
5.873748779296875
 44
296.9259948730469
 45
419.9466552734374
 46
0.0
 47
0.0
 48
0.0
 49
0.0
140
0.0
141
0.0
142
1.0
143
40.0
 70
 11952
 72
     1
 73
     1
 74
     2
  7
inaba.ctb
 75
    24
147
0.025
148
0.0
149
0.0
100
AcDbLayout
  1
Model
 70
     1
 71
     0
 10
0.0
 20
0.0
 11
12.0
 21
9.0
 12
0.0
 22
0.0
 32
0.0
 14
0.0
 24
0.0
 34
0.0
 15
0.0
 25
0.0
 35
0.0
146
0.0
 13
0.0
 23
0.0
 33
0.0
 16
1.0
 26
0.0
 36
0.0
 17
0.0
 27
1.0
 37
0.0
 76
     0
330
747D
  0
LAYOUT
  5
17AE6
102
{ACAD_XDICTIONARY
360
1A433
102
}
102
{ACAD_REACTORS
330
17AE3
102
}
330
17AE3
100
AcDbPlotSettings
  1

  2
EPSON LP-8300
  4

  6

 40
0.0
 41
0.0
 42
0.0
 43
0.0
 44
0.0
 45
0.0
 46
0.0
 47
0.0
 48
0.0
 49
0.0
140
0.0
141
0.0
142
1.0
143
1.0
 70
   688
 72
     0
 73
     0
 74
     5
  7
inaba.ctb
 75
    16
147
1.0
148
0.0
149
0.0
100
AcDbLayout
  1
レイアウト1
 70
     0
 71
     1
 10
0.0
 20
0.0
 11
420.0
 21
297.0
 12
0.0
 22
0.0
 32
0.0
 14
1.000000000000000E+20
 24
1.000000000000000E+20
 34
1.000000000000000E+20
 15
-1.000000000000000E+20
 25
-1.000000000000000E+20
 35
-1.000000000000000E+20
146
0.0
 13
0.0
 23
0.0
 33
0.0
 16
1.0
 26
0.0
 36
0.0
 17
0.0
 27
1.0
 37
0.0
 76
     0
330
747A
  0
MLINESTYLE
  5
7480
102
{ACAD_REACTORS
330
7473
102
}
330
7473
100
AcDbMlineStyle
  2
STANDARD
 70
     0
  3

 62
     0
 51
90.0
 52
90.0
 71
     2
 49
0.5
 62
   256
  6
BYLAYER
 49
-0.5
 62
   256
  6
BYLAYER
  0
ACDBPLACEHOLDER
  5
17AE0
102
{ACAD_REACTORS
330
17ADF
102
}
330
17ADF
  0
XRECORD
  5
1A430
102
{ACAD_REACTORS
330
1A42E
102
}
330
1A42E
100
AcDbXrecord
280
     1
340
17AE2
  0
XRECORD
  5
1A42F
102
{ACAD_REACTORS
330
1A42E
102
}
330
1A42E
100
AcDbXrecord
280
     1
340
17AE1
  0
DICTIONARYVAR
  5
1A42B
102
{ACAD_REACTORS
330
1A42A
102
}
330
1A42A
100
DictionaryVariables
280
     0
  1
1
  0
DICTIONARYVAR
  5
1A42C
102
{ACAD_REACTORS
330
1A42A
102
}
330
1A42A
100
DictionaryVariables
280
     0
  1

  0
DICTIONARY
  5
1A431
330
17AE5
100
AcDbDictionary
280
     1
281
     1
  3
ACAD_XREC_ROUNDTRIP
360
1A432
  0
DICTIONARY
  5
1A433
330
17AE6
100
AcDbDictionary
280
     1
281
     1
  3
ACAD_XREC_ROUNDTRIP
360
1A434
  0
XRECORD
  5
1A432
102
{ACAD_REACTORS
330
1A431
102
}
330
1A431
100
AcDbXrecord
280
     1
102
SHADEPLOT
 70
     0
102
SHADEPLOTRESLEVEL
 70
     2
102
SHADEPLOTCUSTOMDPI
 70
   300
  0
XRECORD
  5
1A434
102
{ACAD_REACTORS
330
1A433
102
}
330
1A433
100
AcDbXrecord
280
     1
102
SHADEPLOT
 70
     0
102
SHADEPLOTRESLEVEL
 70
     2
102
SHADEPLOTCUSTOMDPI
 70
   300
  0
ENDSEC
  0
EOF
