  0
SECTION
  2
HEADER
  9
$ACADVER
  1
AC1015
  9
$ACADMAINTVER
 70
    20
  9
$DWGCODEPAGE
  3
ANSI_932
  9
$INSBASE
 10
0.0
 20
0.0
 30
0.0
  9
$EXTMIN
 10
139.9999999999995
 20
-0.0000000000000909
 30
0.0
  9
$EXTMAX
 10
16307.2
 20
11409.6
 30
0.0
  9
$LIMMIN
 10
0.0
 20
0.0
  9
$LIMMAX
 10
16800.0
 20
11880.0
  9
$ORTHOMODE
 70
     0
  9
$REGENMODE
 70
     1
  9
$FILLMODE
 70
     1
  9
$QTEXTMODE
 70
     0
  9
$MIRRTEXT
 70
     1
  9
$LTSCALE
 40
20.0
  9
$ATTMODE
 70
     1
  9
$TEXTSIZE
 40
4.0
  9
$TRACEWID
 40
1.0
  9
$TEXTSTYLE
  7
MSPゴシック
  9
$CLAYER
  8
寸法
  9
$CELTYPE
  6
BYLAYER
  9
$CECOLOR
 62
   256
  9
$CELTSCALE
 40
50.0
  9
$DISPSILH
 70
     0
  9
$DIMSCALE
 40
40.0
  9
$DIMASZ
 40
2.5
  9
$DIMEXO
 40
0.5
  9
$DIMDLI
 40
7.0
  9
$DIMRND
 40
0.0
  9
$DIMDLE
 40
0.0
  9
$DIMEXE
 40
1.5
  9
$DIMTP
 40
0.0
  9
$DIMTM
 40
0.0
  9
$DIMTXT
 40
3.0
  9
$DIMCEN
 40
0.0
  9
$DIMTSZ
 40
0.0
  9
$DIMTOL
 70
     0
  9
$DIMLIM
 70
     0
  9
$DIMTIH
 70
     0
  9
$DIMTOH
 70
     0
  9
$DIMSE1
 70
     0
  9
$DIMSE2
 70
     0
  9
$DIMTAD
 70
     3
  9
$DIMZIN
 70
     8
  9
$DIMBLK
  1

  9
$DIMASO
 70
     1
  9
$DIMSHO
 70
     1
  9
$DIMPOST
  1

  9
$DIMAPOST
  1

  9
$DIMALT
 70
     0
  9
$DIMALTD
 70
     2
  9
$DIMALTF
 40
0.0394
  9
$DIMLFAC
 40
1.0
  9
$DIMTOFL
 70
     1
  9
$DIMTVP
 40
0.0
  9
$DIMTIX
 70
     1
  9
$DIMSOXD
 70
     0
  9
$DIMSAH
 70
     1
  9
$DIMBLK1
  1
DOTSMALL
  9
$DIMBLK2
  1
DOTSMALL
  9
$DIMSTYLE
  2
INABA_S40G
  9
$DIMCLRD
 70
     0
  9
$DIMCLRE
 70
     0
  9
$DIMCLRT
 70
     7
  9
$DIMTFAC
 40
1.0
  9
$DIMGAP
 40
1.0
  9
$DIMJUST
 70
     0
  9
$DIMSD1
 70
     0
  9
$DIMSD2
 70
     0
  9
$DIMTOLJ
 70
     1
  9
$DIMTZIN
 70
     0
  9
$DIMALTZ
 70
     0
  9
$DIMALTTZ
 70
     0
  9
$DIMUPT
 70
     0
  9
$DIMDEC
 70
     1
  9
$DIMTDEC
 70
     4
  9
$DIMALTU
 70
     2
  9
$DIMALTTD
 70
     2
  9
$DIMTXSTY
  7
STYLE1
  9
$DIMAUNIT
 70
     0
  9
$DIMADEC
 70
     0
  9
$DIMALTRND
 40
0.0
  9
$DIMAZIN
 70
     0
  9
$DIMDSEP
 70
    46
  9
$DIMATFIT
 70
     3
  9
$DIMFRAC
 70
     0
  9
$DIMLDRBLK
  1

  9
$DIMLUNIT
 70
     2
  9
$DIMLWD
 70
    -2
  9
$DIMLWE
 70
    -2
  9
$DIMTMOVE
 70
     2
  9
$LUNITS
 70
     2
  9
$LUPREC
 70
     1
  9
$SKETCHINC
 40
1.0
  9
$FILLETRAD
 40
3.0
  9
$AUNITS
 70
     0
  9
$AUPREC
 70
     0
  9
$MENU
  1
acad
  9
$ELEVATION
 40
0.0
  9
$PELEVATION
 40
0.0
  9
$THICKNESS
 40
0.0
  9
$LIMCHECK
 70
     0
  9
$CHAMFERA
 40
0.0
  9
$CHAMFERB
 40
0.0
  9
$CHAMFERC
 40
0.0
  9
$CHAMFERD
 40
0.0
  9
$SKPOLY
 70
     0
  9
$TDCREATE
 40
2451368.612993866
  9
$TDUCREATE
 40
2451368.237993866
  9
$TDUPDATE
 40
2455569.643142720
  9
$TDUUPDATE
 40
2455569.268142720
  9
$TDINDWG
 40
0.8844833912
  9
$TDUSRTIMER
 40
0.8844833912
  9
$USRTIMER
 70
     1
  9
$ANGBASE
 50
0.0
  9
$ANGDIR
 70
     0
  9
$PDMODE
 70
     3
  9
$PDSIZE
 40
2.0
  9
$PLINEWID
 40
0.0
  9
$SPLFRAME
 70
     0
  9
$SPLINETYPE
 70
     6
  9
$SPLINESEGS
 70
     8
  9
$HANDSEED
  5
1A5BF
  9
$SURFTAB1
 70
     6
  9
$SURFTAB2
 70
     6
  9
$SURFTYPE
 70
     6
  9
$SURFU
 70
     6
  9
$SURFV
 70
     6
  9
$UCSBASE
  2

  9
$UCSNAME
  2

  9
$UCSORG
 10
0.0
 20
0.0
 30
0.0
  9
$UCSXDIR
 10
1.0
 20
0.0
 30
0.0
  9
$UCSYDIR
 10
0.0
 20
1.0
 30
0.0
  9
$UCSORTHOREF
  2

  9
$UCSORTHOVIEW
 70
     0
  9
$UCSORGTOP
 10
0.0
 20
0.0
 30
0.0
  9
$UCSORGBOTTOM
 10
0.0
 20
0.0
 30
0.0
  9
$UCSORGLEFT
 10
0.0
 20
0.0
 30
0.0
  9
$UCSORGRIGHT
 10
0.0
 20
0.0
 30
0.0
  9
$UCSORGFRONT
 10
0.0
 20
0.0
 30
0.0
  9
$UCSORGBACK
 10
0.0
 20
0.0
 30
0.0
  9
$PUCSBASE
  2

  9
$PUCSNAME
  2

  9
$PUCSORG
 10
0.0
 20
0.0
 30
0.0
  9
$PUCSXDIR
 10
1.0
 20
0.0
 30
0.0
  9
$PUCSYDIR
 10
0.0
 20
1.0
 30
0.0
  9
$PUCSORTHOREF
  2

  9
$PUCSORTHOVIEW
 70
     0
  9
$PUCSORGTOP
 10
0.0
 20
0.0
 30
0.0
  9
$PUCSORGBOTTOM
 10
0.0
 20
0.0
 30
0.0
  9
$PUCSORGLEFT
 10
0.0
 20
0.0
 30
0.0
  9
$PUCSORGRIGHT
 10
0.0
 20
0.0
 30
0.0
  9
$PUCSORGFRONT
 10
0.0
 20
0.0
 30
0.0
  9
$PUCSORGBACK
 10
0.0
 20
0.0
 30
0.0
  9
$USERI1
 70
     0
  9
$USERI2
 70
     0
  9
$USERI3
 70
     0
  9
$USERI4
 70
     0
  9
$USERI5
 70
     0
  9
$USERR1
 40
0.0
  9
$USERR2
 40
0.0
  9
$USERR3
 40
0.0
  9
$USERR4
 40
0.0
  9
$USERR5
 40
0.0
  9
$WORLDVIEW
 70
     1
  9
$SHADEDGE
 70
     3
  9
$SHADEDIF
 70
    70
  9
$TILEMODE
 70
     1
  9
$MAXACTVP
 70
    16
  9
$PINSBASE
 10
0.0
 20
0.0
 30
0.0
  9
$PLIMCHECK
 70
     0
  9
$PEXTMIN
 10
1.000000000000000E+20
 20
1.000000000000000E+20
 30
1.000000000000000E+20
  9
$PEXTMAX
 10
-1.000000000000000E+20
 20
-1.000000000000000E+20
 30
-1.000000000000000E+20
  9
$PLIMMIN
 10
0.0
 20
0.0
  9
$PLIMMAX
 10
420.0
 20
297.0
  9
$UNITMODE
 70
     0
  9
$VISRETAIN
 70
     0
  9
$PLINEGEN
 70
     0
  9
$PSLTSCALE
 70
     0
  9
$TREEDEPTH
 70
  3020
  9
$CMLSTYLE
  2
STANDARD
  9
$CMLJUST
 70
     0
  9
$CMLSCALE
 40
1.0
  9
$PROXYGRAPHICS
 70
     1
  9
$MEASUREMENT
 70
     1
  9
$CELWEIGHT
370
    -1
  9
$ENDCAPS
280
     0
  9
$JOINSTYLE
280
     0
  9
$LWDISPLAY
290
     0
  9
$INSUNITS
 70
     0
  9
$HYPERLINKBASE
  1

  9
$STYLESHEET
  1
inaba.ctb
  9
$XEDIT
290
     1
  9
$CEPSNTYPE
380
     0
  9
$PSTYLEMODE
290
     1
  9
$FINGERPRINTGUID
  2
{0E4A3AB3-ADAA-44DC-861C-9525B65BB1EC}
  9
$VERSIONGUID
  2
{467CABAE-BBE8-46D1-9C98-F5014D759B24}
  9
$EXTNAMES
290
     1
  9
$PSVPSCALE
 40
0.0
  9
$OLESTARTUP
290
     0
  0
ENDSEC
  0
SECTION
  2
CLASSES
  0
CLASS
  1
ACDBDICTIONARYWDFLT
  2
AcDbDictionaryWithDefault
  3
ObjectDBX Classes
 90
        0
280
     0
281
     0
  0
CLASS
  1
DICTIONARYVAR
  2
AcDbDictionaryVar
  3
ObjectDBX Classes
 90
        0
280
     0
281
     0
  0
CLASS
  1
ACDBPLACEHOLDER
  2
AcDbPlaceHolder
  3
ObjectDBX Classes
 90
        0
280
     0
281
     0
  0
CLASS
  1
LAYOUT
  2
AcDbLayout
  3
ObjectDBX Classes
 90
        0
280
     0
281
     0
  0
ENDSEC
  0
SECTION
  2
TABLES
  0
TABLE
  2
VPORT
  5
746D
330
0
100
AcDbSymbolTable
 70
     2
  0
VPORT
  5
1A5B7
330
746D
100
AcDbSymbolTableRecord
100
AcDbViewportTableRecord
  2
*Active
 70
     0
 10
0.0
 20
0.0
 11
1.0
 21
1.0
 12
11720.03460912035
 22
5704.872900782047
 13
0.0
 23
0.0
 14
10.0
 24
10.0
 15
10.0
 25
10.0
 16
0.0
 26
0.0
 36
1.0
 17
0.0
 27
0.0
 37
0.0
 40
11513.2111641413
 41
2.234800838574423
 42
50.0
 43
0.0
 44
0.0
 50
0.0
 51
0.0
 71
     0
 72
     0
 73
     1
 74
     0
 75
     0
 76
     0
 77
     0
 78
     0
281
     0
 65
     1
110
0.0
120
0.0
130
0.0
111
1.0
121
0.0
131
0.0
112
0.0
122
1.0
132
0.0
 79
     0
146
0.0
  0
ENDTAB
  0
TABLE
  2
LTYPE
  5
746A
330
0
100
AcDbSymbolTable
 70
     3
  0
LTYPE
  5
7477
330
746A
100
AcDbSymbolTableRecord
100
AcDbLinetypeTableRecord
  2
BYBLOCK
 70
     0
  3

 72
    65
 73
     0
 40
0.0
  0
LTYPE
  5
7478
330
746A
100
AcDbSymbolTableRecord
100
AcDbLinetypeTableRecord
  2
BYLAYER
 70
     0
  3

 72
    65
 73
     0
 40
0.0
  0
LTYPE
  5
7479
330
746A
100
AcDbSymbolTableRecord
100
AcDbLinetypeTableRecord
  2
CONTINUOUS
 70
     0
  3
Solid line
 72
    65
 73
     0
 40
0.0
  0
LTYPE
  5
781A
330
746A
100
AcDbSymbolTableRecord
100
AcDbLinetypeTableRecord
  2
HIDDEN
 70
     0
  3
__ __ __ __ __ __ __ __ __ __ __ __ __ __ __ __
 72
    65
 73
     2
 40
0.375
 49
0.25
 74
     0
 49
-0.125
 74
     0
  0
LTYPE
  5
781B
330
746A
100
AcDbSymbolTableRecord
100
AcDbLinetypeTableRecord
  2
PHANTOM
 70
     0
  3
______  __  __  ______  __  __  ______  __  __ 
 72
    65
 73
     6
 40
2.5
 49
1.25
 74
     0
 49
-0.25
 74
     0
 49
0.25
 74
     0
 49
-0.25
 74
     0
 49
0.25
 74
     0
 49
-0.25
 74
     0
  0
ENDTAB
  0
TABLE
  2
LAYER
  5
7467
102
{ACAD_XDICTIONARY
360
1963F
102
}
330
0
100
AcDbSymbolTable
 70
    10
  0
LAYER
  5
7474
330
7467
100
AcDbSymbolTableRecord
100
AcDbLayerTableRecord
  2
0
 70
     0
 62
     7
  6
CONTINUOUS
370
    -3
390
17AE0
  0
LAYER
  5
DEB3
330
7467
100
AcDbSymbolTableRecord
100
AcDbLayerTableRecord
  2
寸法
 70
     0
 62
     4
  6
CONTINUOUS
370
    -3
390
17AE0
  0
LAYER
  5
DEB4
330
7467
100
AcDbSymbolTableRecord
100
AcDbLayerTableRecord
  2
部品1
 70
     0
 62
     7
  6
CONTINUOUS
370
    -3
390
17AE0
  0
LAYER
  5
DEB5
330
7467
100
AcDbSymbolTableRecord
100
AcDbLayerTableRecord
  2
補助
 70
     0
 62
    -1
  6
CONTINUOUS
370
    -3
390
17AE0
  0
LAYER
  5
DEB6
330
7467
100
AcDbSymbolTableRecord
100
AcDbLayerTableRecord
  2
文字
 70
     0
 62
     7
  6
CONTINUOUS
370
    -3
390
17AE0
  0
LAYER
  5
F255
330
7467
100
AcDbSymbolTableRecord
100
AcDbLayerTableRecord
  2
DEFPOINTS
 70
     0
 62
     7
  6
CONTINUOUS
290
     0
370
    -3
390
17AE0
  0
LAYER
  5
10B54
330
7467
100
AcDbSymbolTableRecord
100
AcDbLayerTableRecord
  2
仕様書枠
 70
     0
 62
   230
  6
CONTINUOUS
370
    -3
390
17AE0
  0
LAYER
  5
11729
330
7467
100
AcDbSymbolTableRecord
100
AcDbLayerTableRecord
  2
Ｇ．Ｌ
 70
     0
 62
    30
  6
CONTINUOUS
370
    -3
390
17AE0
  0
LAYER
  5
1173F
330
7467
100
AcDbSymbolTableRecord
100
AcDbLayerTableRecord
  2
細線
 70
     0
 62
     5
  6
CONTINUOUS
370
    -3
390
17AE0
  0
LAYER
  5
142E2
330
7467
100
AcDbSymbolTableRecord
100
AcDbLayerTableRecord
  2
破線
 70
     0
 62
     2
  6
HIDDEN
370
    -3
390
17AE0
  0
ENDTAB
  0
TABLE
  2
STYLE
  5
7468
330
0
100
AcDbSymbolTable
 70
     7
  0
STYLE
  5
7475
330
7468
100
AcDbSymbolTableRecord
100
AcDbTextStyleTableRecord
  2
STANDARD
 70
     0
 40
0.0
 41
1.0
 50
0.0
 71
     0
 42
4.0
  3
txt
  4
C:\AutoCAD LT\bigfont.shx
  0
STYLE
  5
763C
330
7468
100
AcDbSymbolTableRecord
100
AcDbTextStyleTableRecord
  2
MSMINCHO
 70
     0
 40
0.0
 41
1.0
 50
0.0
 71
     0
 42
1.199999999999999
  3
MS PMincho.ttf
  4

1001
ACAD
1000
MS PMincho
1071
    32786
  0
STYLE
  5
F706
330
7468
100
AcDbSymbolTableRecord
100
AcDbTextStyleTableRecord
  2
STYLE1
 70
     0
 40
0.0
 41
1.0
 50
0.0
 71
     0
 42
4.0
  3
isocp.shx
  4
bigfont.shx
  0
STYLE
  5
103BF
330
7468
100
AcDbSymbolTableRecord
100
AcDbTextStyleTableRecord
  2
STYLE2
 70
     0
 40
0.0
 41
1.0
 50
0.0
 71
     0
 42
100.0
  3
MS PGothic.ttf
  4

1001
ACAD
1000
MS PGothic
1071
    32818
  0
STYLE
  5
10BAA
330
7468
100
AcDbSymbolTableRecord
100
AcDbTextStyleTableRecord
  2
STYLE3
 70
     0
 40
0.0
 41
1.0
 50
0.0
 71
     0
 42
100.0
  3
DFPGothic-EB.ttf
  4

1001
ACAD
1000
DFPGothic-EB
1071
    32818
  0
STYLE
  5
11A15
330
7468
100
AcDbSymbolTableRecord
100
AcDbTextStyleTableRecord
  2
MSGOTHIC
 70
     0
 40
0.0
 41
1.0
 50
0.0
 71
     0
 42
3.5
  3
MS PGothic.ttf
  4

1001
ACAD
1000
MS PGothic
1071
    32818
  0
STYLE
  5
13E96
330
7468
100
AcDbSymbolTableRecord
100
AcDbTextStyleTableRecord
  2
MSPゴシック
 70
     0
 40
0.0
 41
1.0
 50
0.0
 71
     0
 42
4.0
  3
MS PGothic.ttf
  4

1001
ACAD
1000
MS PGothic
1071
    32818
  0
ENDTAB
  0
TABLE
  2
VIEW
  5
746B
330
0
100
AcDbSymbolTable
 70
     0
  0
ENDTAB
  0
TABLE
  2
UCS
  5
746C
330
0
100
AcDbSymbolTable
 70
     0
  0
ENDTAB
  0
TABLE
  2
APPID
  5
746E
330
0
100
AcDbSymbolTable
 70
     6
  0
APPID
  5
7476
330
746E
100
AcDbSymbolTableRecord
100
AcDbRegAppTableRecord
  2
ACAD
 70
     0
  0
APPID
  5
DEA9
330
746E
100
AcDbSymbolTableRecord
100
AcDbRegAppTableRecord
  2
CONTENTBLOCKICON
 70
     0
  0
APPID
  5
DEAA
330
746E
100
AcDbSymbolTableRecord
100
AcDbRegAppTableRecord
  2
CONTENTBLOCKDESCRIPTION
 70
     0
  0
APPID
  5
E71D
330
746E
100
AcDbSymbolTableRecord
100
AcDbRegAppTableRecord
  2
CONTENTTABDATA
 70
     0
  0
APPID
  5
E71E
330
746E
100
AcDbSymbolTableRecord
100
AcDbRegAppTableRecord
  2
CONTENTCURRENTTAB
 70
     0
  0
APPID
  5
F3BA
330
746E
100
AcDbSymbolTableRecord
100
AcDbRegAppTableRecord
  2
DRAWINGVARIABLESXDATA
 70
     0
  0
ENDTAB
  0
TABLE
  2
DIMSTYLE
  5
746F
330
0
100
AcDbSymbolTable
 70
     1
100
AcDbDimStyleTable
 71
     1
340
F71F
  0
DIMSTYLE
105
F71F
102
{ACAD_REACTORS
330
162CD
330
162CE
330
162CF
330
162D0
330
162E4
330
162E7
330
162EA
330
162EB
330
16301
330
16302
330
1631F
330
16320
330
16333
330
1659C
330
1659A
330
165E9
330
166DD
330
16913
330
17BC3
330
17B87
330
17B86
330
19864
330
19873
330
19874
330
19875
330
198BE
330
198BF
330
198C5
330
198C6
330
198C7
330
19902
330
19E43
330
19E42
330
19E41
330
19E40
330
1A3E3
330
1A3E4
330
1A3E5
102
}
330
746F
100
AcDbSymbolTableRecord
100
AcDbDimStyleTableRecord
  2
INABA_S40G
 70
     0
 40
40.0
 41
2.5
 42
0.5
 43
7.0
 44
1.5
 73
     0
 74
     0
 77
     3
 78
     8
140
3.0
141
0.0
143
0.0394
147
1.0
172
     1
173
     1
174
     1
178
     7
271
     1
340
F706
341
F770
343
F770
344
F770
  0
ENDTAB
  0
TABLE
  2
BLOCK_RECORD
  5
7466
330
0
100
AcDbSymbolTable
 70
    39
  0
BLOCK_RECORD
  5
747D
330
7466
100
AcDbSymbolTableRecord
100
AcDbBlockTableRecord
  2
*MODEL_SPACE
340
17AE5
  0
BLOCK_RECORD
  5
747A
330
7466
100
AcDbSymbolTableRecord
100
AcDbBlockTableRecord
  2
*PAPER_SPACE
340
17AE6
  0
BLOCK_RECORD
  5
F770
330
7466
100
AcDbSymbolTableRecord
100
AcDbBlockTableRecord
  2
_DOTSMALL
340
0
102
{BLKREFS
331
192F3
331
192F4
331
192FC
331
192FD
331
19305
331
19306
331
1930D
331
1930E
331
19318
331
19319
331
19322
331
19323
331
1932D
331
1932E
331
19338
331
19339
331
19342
331
19343
331
1934D
331
1934E
331
19356
331
19357
331
19361
331
19362
331
1936D
331
1936E
331
19378
331
19379
331
19382
331
19383
331
1938B
331
1938C
331
19393
331
19394
331
1939C
331
1939D
331
193A7
331
193A8
331
193B2
331
193B3
331
193BB
331
193BC
331
19D8C
331
19D8D
331
19D96
331
19D97
331
19DA0
331
19DA1
331
19DAB
331
19DAC
331
19DC8
331
19DC9
331
19DD1
331
19DD2
331
19DF6
331
19DF7
331
19F00
331
19F01
331
19F0B
331
19F0C
331
19F16
331
19F17
331
19F1F
331
19F20
331
1A287
331
1A288
331
1A505
331
1A506
331
1A563
331
1A564
331
1A578
331
1A579
331
1A598
331
1A599
331
1A5A4
331
1A5A5
102
}
  0
BLOCK_RECORD
  5
16338
330
7466
100
AcDbSymbolTableRecord
100
AcDbBlockTableRecord
  2
*D1
340
0
  0
BLOCK_RECORD
  5
16344
330
7466
100
AcDbSymbolTableRecord
100
AcDbBlockTableRecord
  2
*D2
340
0
  0
BLOCK_RECORD
  5
16352
330
7466
100
AcDbSymbolTableRecord
100
AcDbBlockTableRecord
  2
*D3
340
0
  0
BLOCK_RECORD
  5
16360
330
7466
100
AcDbSymbolTableRecord
100
AcDbBlockTableRecord
  2
*D4
340
0
  0
BLOCK_RECORD
  5
16384
330
7466
100
AcDbSymbolTableRecord
100
AcDbBlockTableRecord
  2
*D5
340
0
  0
BLOCK_RECORD
  5
1638F
330
7466
100
AcDbSymbolTableRecord
100
AcDbBlockTableRecord
  2
*D6
340
0
  0
BLOCK_RECORD
  5
1639B
330
7466
100
AcDbSymbolTableRecord
100
AcDbBlockTableRecord
  2
*D7
340
0
  0
BLOCK_RECORD
  5
163A9
330
7466
100
AcDbSymbolTableRecord
100
AcDbBlockTableRecord
  2
*D8
340
0
  0
BLOCK_RECORD
  5
163B8
330
7466
100
AcDbSymbolTableRecord
100
AcDbBlockTableRecord
  2
*D9
340
0
  0
BLOCK_RECORD
  5
163C7
330
7466
100
AcDbSymbolTableRecord
100
AcDbBlockTableRecord
  2
*D10
340
0
  0
BLOCK_RECORD
  5
163E1
330
7466
100
AcDbSymbolTableRecord
100
AcDbBlockTableRecord
  2
*D11
340
0
  0
BLOCK_RECORD
  5
163ED
330
7466
100
AcDbSymbolTableRecord
100
AcDbBlockTableRecord
  2
*D12
340
0
  0
BLOCK_RECORD
  5
163FB
330
7466
100
AcDbSymbolTableRecord
100
AcDbBlockTableRecord
  2
*D13
340
0
  0
BLOCK_RECORD
  5
165B5
330
7466
100
AcDbSymbolTableRecord
100
AcDbBlockTableRecord
  2
*D14
340
0
  0
BLOCK_RECORD
  5
165C4
330
7466
100
AcDbSymbolTableRecord
100
AcDbBlockTableRecord
  2
*D15
340
0
  0
BLOCK_RECORD
  5
165EA
330
7466
100
AcDbSymbolTableRecord
100
AcDbBlockTableRecord
  2
*D16
340
0
  0
BLOCK_RECORD
  5
166CF
330
7466
100
AcDbSymbolTableRecord
100
AcDbBlockTableRecord
  2
*D17
340
0
  0
BLOCK_RECORD
  5
16908
330
7466
100
AcDbSymbolTableRecord
100
AcDbBlockTableRecord
  2
*D18
340
0
  0
BLOCK_RECORD
  5
17BD3
330
7466
100
AcDbSymbolTableRecord
100
AcDbBlockTableRecord
  2
*D19
340
0
  0
BLOCK_RECORD
  5
17BDE
330
7466
100
AcDbSymbolTableRecord
100
AcDbBlockTableRecord
  2
*D20
340
0
  0
BLOCK_RECORD
  5
17BF8
330
7466
100
AcDbSymbolTableRecord
100
AcDbBlockTableRecord
  2
*D21
340
0
  0
BLOCK_RECORD
  5
19A31
330
7466
100
AcDbSymbolTableRecord
100
AcDbBlockTableRecord
  2
*D22
340
0
  0
BLOCK_RECORD
  5
19A55
330
7466
100
AcDbSymbolTableRecord
100
AcDbBlockTableRecord
  2
*D23
340
0
  0
BLOCK_RECORD
  5
19A61
330
7466
100
AcDbSymbolTableRecord
100
AcDbBlockTableRecord
  2
*D24
340
0
  0
BLOCK_RECORD
  5
19A6E
330
7466
100
AcDbSymbolTableRecord
100
AcDbBlockTableRecord
  2
*D25
340
0
  0
BLOCK_RECORD
  5
19AB0
330
7466
100
AcDbSymbolTableRecord
100
AcDbBlockTableRecord
  2
*D26
340
0
  0
BLOCK_RECORD
  5
19ABC
330
7466
100
AcDbSymbolTableRecord
100
AcDbBlockTableRecord
  2
*D27
340
0
  0
BLOCK_RECORD
  5
19AC8
330
7466
100
AcDbSymbolTableRecord
100
AcDbBlockTableRecord
  2
*D28
340
0
  0
BLOCK_RECORD
  5
19AD6
330
7466
100
AcDbSymbolTableRecord
100
AcDbBlockTableRecord
  2
*D29
340
0
  0
BLOCK_RECORD
  5
19AE3
330
7466
100
AcDbSymbolTableRecord
100
AcDbBlockTableRecord
  2
*D30
340
0
  0
BLOCK_RECORD
  5
19AF0
330
7466
100
AcDbSymbolTableRecord
100
AcDbBlockTableRecord
  2
*D31
340
0
  0
BLOCK_RECORD
  5
19E45
330
7466
100
AcDbSymbolTableRecord
100
AcDbBlockTableRecord
  2
*D32
340
0
  0
BLOCK_RECORD
  5
19E51
330
7466
100
AcDbSymbolTableRecord
100
AcDbBlockTableRecord
  2
*D33
340
0
  0
BLOCK_RECORD
  5
19E5F
330
7466
100
AcDbSymbolTableRecord
100
AcDbBlockTableRecord
  2
*D34
340
0
  0
BLOCK_RECORD
  5
19E6D
330
7466
100
AcDbSymbolTableRecord
100
AcDbBlockTableRecord
  2
*D35
340
0
  0
BLOCK_RECORD
  5
1A443
330
7466
100
AcDbSymbolTableRecord
100
AcDbBlockTableRecord
  2
*D36
340
0
  0
BLOCK_RECORD
  5
1A44F
330
7466
100
AcDbSymbolTableRecord
100
AcDbBlockTableRecord
  2
*D37
340
0
  0
BLOCK_RECORD
  5
1A45D
330
7466
100
AcDbSymbolTableRecord
100
AcDbBlockTableRecord
  2
*D38
340
0
  0
ENDTAB
  0
ENDSEC
  0
SECTION
  2
BLOCKS
  0
BLOCK
  5
7489
330
747D
100
AcDbEntity
  8
0
100
AcDbBlockBegin
  2
*MODEL_SPACE
 70
     0
 10
0.0
 20
0.0
 30
0.0
  3
*MODEL_SPACE
  1

  0
ENDBLK
  5
748A
330
747D
100
AcDbEntity
  8
0
100
AcDbBlockEnd
  0
BLOCK
  5
7487
330
747A
100
AcDbEntity
 67
     1
  8
0
100
AcDbBlockBegin
  2
*PAPER_SPACE
 70
     0
 10
0.0
 20
0.0
 30
0.0
  3
*PAPER_SPACE
  1

  0
ENDBLK
  5
7488
330
747A
100
AcDbEntity
 67
     1
  8
0
100
AcDbBlockEnd
  0
BLOCK
  5
F771
330
F770
100
AcDbEntity
  8
0
 48
50.0
100
AcDbBlockBegin
  2
_DOTSMALL
 70
     0
 10
0.0
 20
0.0
 30
0.0
  3
_DOTSMALL
  1

  0
LWPOLYLINE
  5
F772
330
F770
100
AcDbEntity
  8
0
  6
ByBlock
 62
     0
 48
50.0
100
AcDbPolyline
 90
        2
 70
     1
 43
0.5
 10
-0.0625
 20
0.0
 42
1.0
 10
0.0625
 20
0.0
 42
1.0
  0
ENDBLK
  5
F776
330
F770
100
AcDbEntity
  8
0
 48
50.0
100
AcDbBlockEnd
  0
BLOCK
  5
164EB
330
16338
100
AcDbEntity
  8
0
 48
50.0
100
AcDbBlockBegin
  2
*D1
 70
     1
 10
0.0
 20
0.0
 30
0.0
  3
*D1
  1

  0
LINE
  5
193B8
330
16338
100
AcDbEntity
  8
寸法
 62
     0
 48
50.0
370
    -2
100
AcDbLine
 10
7099.582777791759
 20
9751.500206066831
 30
0.0
 11
7787.009123526167
 21
9751.500206066831
 31
0.0
  0
LINE
  5
193B9
330
16338
100
AcDbEntity
  8
寸法
 62
     0
 48
50.0
370
    -2
100
AcDbLine
 10
7099.582777791735
 20
7651.500206066815
 30
0.0
 11
7787.009123526167
 21
7651.500206066815
 31
0.0
  0
LINE
  5
193BA
330
16338
100
AcDbEntity
  8
寸法
 62
     0
 48
50.0
370
    -2
100
AcDbLine
 10
7727.009123526165
 20
9751.500206066831
 30
0.0
 11
7727.009123526165
 21
7651.500206066815
 31
0.0
  0
INSERT
  5
193BB
330
16338
100
AcDbEntity
  8
寸法
 62
     0
 48
50.0
370
    -2
100
AcDbBlockReference
  2
_DOTSMALL
 10
7727.009123526165
 20
9751.500206066831
 30
0.0
 41
100.0
 42
100.0
 43
100.0
 50
90.0
  0
INSERT
  5
193BC
330
16338
100
AcDbEntity
  8
寸法
 62
     0
 48
50.0
370
    -2
100
AcDbBlockReference
  2
_DOTSMALL
 10
7727.009123526165
 20
7651.500206066815
 30
0.0
 41
100.0
 42
100.0
 43
100.0
 50
270.0
  0
MTEXT
  5
193BD
330
16338
100
AcDbEntity
  8
寸法
 62
     7
 48
50.0
100
AcDbMText
 10
7626.997312502543
 20
8701.500206066825
 30
0.0
 40
120.0
 41
0.0
 71
     5
 72
     1
  1
\A1;5X420=2100
  7
STYLE1
 11
0.0000000000000001
 21
1.0
 31
0.0
 73
     1
 44
1.0
1001
ACAD
1000
MTEXTBEGIN
1070
    73
1070
     1
1070
    44
1040
1.0
1070
    74
1070
     0
1000
MTEXTEND
  0
POINT
  5
193BE
330
16338
100
AcDbEntity
  8
DEFPOINTS
 62
     0
 48
50.0
100
AcDbPoint
 10
7079.582777791761
 20
9751.500206066831
 30
0.0
  0
POINT
  5
193BF
330
16338
100
AcDbEntity
  8
DEFPOINTS
 62
     0
 48
50.0
100
AcDbPoint
 10
7079.582777791735
 20
7651.500206066815
 30
0.0
  0
POINT
  5
193C0
330
16338
100
AcDbEntity
  8
DEFPOINTS
 62
     0
 48
50.0
100
AcDbPoint
 10
7727.009123526165
 20
7651.500206066815
 30
0.0
  0
ENDBLK
  5
164F5
330
16338
100
AcDbEntity
  8
0
 48
50.0
100
AcDbBlockEnd
  0
BLOCK
  5
16414
330
16344
100
AcDbEntity
  8
0
 48
50.0
100
AcDbBlockBegin
  2
*D2
 70
     1
 10
0.0
 20
0.0
 30
0.0
  3
*D2
  1

  0
LINE
  5
193AD
330
16344
100
AcDbEntity
  8
寸法
 62
     0
 48
50.0
370
    -2
100
AcDbLine
 10
7099.582777791735
 20
7651.500206066815
 30
0.0
 11
7787.009123526146
 21
7651.500206066815
 31
0.0
  0
LINE
  5
193AE
330
16344
100
AcDbEntity
  8
寸法
 62
     0
 48
50.0
370
    -2
100
AcDbLine
 10
7099.582777791735
 20
7596.50020606682
 30
0.0
 11
7787.009123526146
 21
7596.50020606682
 31
0.0
  0
LINE
  5
193AF
330
16344
100
AcDbEntity
  8
寸法
 62
     0
 48
50.0
370
    -2
100
AcDbLine
 10
7727.009123526146
 20
7651.500206066815
 30
0.0
 11
7727.009123526146
 21
7751.500206066815
 31
0.0
  0
LINE
  5
193B0
330
16344
100
AcDbEntity
  8
寸法
 62
     0
 48
50.0
370
    -2
100
AcDbLine
 10
7727.009123526146
 20
7596.50020606682
 30
0.0
 11
7727.009123526146
 21
7110.153457787717
 31
0.0
  0
LINE
  5
193B1
330
16344
100
AcDbEntity
  8
寸法
 62
     0
 48
50.0
370
    -2
100
AcDbLine
 10
7727.009123526146
 20
7651.500206066815
 30
0.0
 11
7727.009123526146
 21
7596.50020606682
 31
0.0
  0
INSERT
  5
193B2
330
16344
100
AcDbEntity
  8
寸法
 62
     0
 48
50.0
370
    -2
100
AcDbBlockReference
  2
_DOTSMALL
 10
7727.009123526146
 20
7651.500206066815
 30
0.0
 41
100.0
 42
100.0
 43
100.0
 50
270.0
  0
INSERT
  5
193B3
330
16344
100
AcDbEntity
  8
寸法
 62
     0
 48
50.0
370
    -2
100
AcDbBlockReference
  2
_DOTSMALL
 10
7727.009123526146
 20
7596.50020606682
 30
0.0
 41
100.0
 42
100.0
 43
100.0
 50
90.0
  0
MTEXT
  5
193B4
330
16344
100
AcDbEntity
  8
寸法
 62
     7
 48
50.0
100
AcDbMText
 10
7627.009123526145
 20
7218.638739161957
 30
0.0
 40
120.0
 41
0.0
 71
     5
 72
     1
  1
\A1;55
  7
STYLE1
 11
0.0000000000000001
 21
1.0
 31
0.0
 73
     1
 44
1.0
1001
ACAD
1000
MTEXTBEGIN
1070
    73
1070
     1
1070
    44
1040
1.0
1070
    74
1070
     0
1000
MTEXTEND
  0
POINT
  5
193B5
330
16344
100
AcDbEntity
  8
DEFPOINTS
 62
     0
 48
50.0
100
AcDbPoint
 10
7079.582777791735
 20
7651.500206066815
 30
0.0
  0
POINT
  5
193B6
330
16344
100
AcDbEntity
  8
DEFPOINTS
 62
     0
 48
50.0
100
AcDbPoint
 10
7079.582777791735
 20
7596.50020606682
 30
0.0
  0
POINT
  5
193B7
330
16344
100
AcDbEntity
  8
DEFPOINTS
 62
     0
 48
50.0
100
AcDbPoint
 10
7727.009123526146
 20
7596.50020606682
 30
0.0
  0
ENDBLK
  5
16420
330
16344
100
AcDbEntity
  8
0
 48
50.0
100
AcDbBlockEnd
  0
BLOCK
  5
16421
330
16352
100
AcDbEntity
  8
0
 48
50.0
100
AcDbBlockBegin
  2
*D3
 70
     1
 10
0.0
 20
0.0
 30
0.0
  3
*D3
  1

  0
LINE
  5
193A2
330
16352
100
AcDbEntity
  8
寸法
 62
     0
 48
50.0
370
    -2
100
AcDbLine
 10
7099.582777791759
 20
9806.500206066827
 30
0.0
 11
7787.009123526171
 21
9806.500206066827
 31
0.0
  0
LINE
  5
193A3
330
16352
100
AcDbEntity
  8
寸法
 62
     0
 48
50.0
370
    -2
100
AcDbLine
 10
7099.582777791759
 20
9751.500206066831
 30
0.0
 11
7787.009123526171
 21
9751.500206066831
 31
0.0
  0
LINE
  5
193A4
330
16352
100
AcDbEntity
  8
寸法
 62
     0
 48
50.0
370
    -2
100
AcDbLine
 10
7727.00912352617
 20
9751.500206066831
 30
0.0
 11
7727.00912352617
 21
9651.500206066831
 31
0.0
  0
LINE
  5
193A5
330
16352
100
AcDbEntity
  8
寸法
 62
     0
 48
50.0
370
    -2
100
AcDbLine
 10
7727.00912352617
 20
9806.500206066827
 30
0.0
 11
7727.00912352617
 21
10223.4707688153
 31
0.0
  0
LINE
  5
193A6
330
16352
100
AcDbEntity
  8
寸法
 62
     0
 48
50.0
370
    -2
100
AcDbLine
 10
7727.00912352617
 20
9751.500206066831
 30
0.0
 11
7727.00912352617
 21
9806.500206066827
 31
0.0
  0
INSERT
  5
193A7
330
16352
100
AcDbEntity
  8
寸法
 62
     0
 48
50.0
370
    -2
100
AcDbBlockReference
  2
_DOTSMALL
 10
7727.00912352617
 20
9751.500206066831
 30
0.0
 41
100.0
 42
100.0
 43
100.0
 50
90.0
  0
INSERT
  5
193A8
330
16352
100
AcDbEntity
  8
寸法
 62
     0
 48
50.0
370
    -2
100
AcDbBlockReference
  2
_DOTSMALL
 10
7727.00912352617
 20
9806.500206066827
 30
0.0
 41
100.0
 42
100.0
 43
100.0
 50
270.0
  0
MTEXT
  5
193A9
330
16352
100
AcDbEntity
  8
寸法
 62
     7
 48
50.0
100
AcDbMText
 10
7627.00912352617
 20
10114.98548744106
 30
0.0
 40
120.0
 41
0.0
 71
     5
 72
     1
  1
\A1;55
  7
STYLE1
 11
0.0000000000000001
 21
1.0
 31
0.0
 73
     1
 44
1.0
1001
ACAD
1000
MTEXTBEGIN
1070
    73
1070
     1
1070
    44
1040
1.0
1070
    74
1070
     0
1000
MTEXTEND
  0
POINT
  5
193AA
330
16352
100
AcDbEntity
  8
DEFPOINTS
 62
     0
 48
50.0
100
AcDbPoint
 10
7079.582777791761
 20
9806.500206066827
 30
0.0
  0
POINT
  5
193AB
330
16352
100
AcDbEntity
  8
DEFPOINTS
 62
     0
 48
50.0
100
AcDbPoint
 10
7079.582777791761
 20
9751.500206066831
 30
0.0
  0
POINT
  5
193AC
330
16352
100
AcDbEntity
  8
DEFPOINTS
 62
     0
 48
50.0
100
AcDbPoint
 10
7727.00912352617
 20
9751.500206066831
 30
0.0
  0
ENDBLK
  5
1642D
330
16352
100
AcDbEntity
  8
0
 48
50.0
100
AcDbBlockEnd
  0
BLOCK
  5
164CA
330
16360
100
AcDbEntity
  8
0
 48
50.0
100
AcDbBlockBegin
  2
*D4
 70
     1
 10
0.0
 20
0.0
 30
0.0
  3
*D4
  1

  0
LINE
  5
19399
330
16360
100
AcDbEntity
  8
寸法
 62
     0
 48
50.0
370
    -2
100
AcDbLine
 10
7099.582777791759
 20
9806.500206066827
 30
0.0
 11
8152.116065265806
 21
9806.500206066827
 31
0.0
  0
LINE
  5
1939A
330
16360
100
AcDbEntity
  8
寸法
 62
     0
 48
50.0
370
    -2
100
AcDbLine
 10
7099.582777791735
 20
7596.50020606682
 30
0.0
 11
8152.116065265806
 21
7596.50020606682
 31
0.0
  0
LINE
  5
1939B
330
16360
100
AcDbEntity
  8
寸法
 62
     0
 48
50.0
370
    -2
100
AcDbLine
 10
8092.116065265805
 20
9806.500206066827
 30
0.0
 11
8092.116065265805
 21
7596.50020606682
 31
0.0
  0
INSERT
  5
1939C
330
16360
100
AcDbEntity
  8
寸法
 62
     0
 48
50.0
370
    -2
100
AcDbBlockReference
  2
_DOTSMALL
 10
8092.116065265805
 20
9806.500206066827
 30
0.0
 41
100.0
 42
100.0
 43
100.0
 50
90.0
  0
INSERT
  5
1939D
330
16360
100
AcDbEntity
  8
寸法
 62
     0
 48
50.0
370
    -2
100
AcDbBlockReference
  2
_DOTSMALL
 10
8092.116065265805
 20
7596.50020606682
 30
0.0
 41
100.0
 42
100.0
 43
100.0
 50
270.0
  0
MTEXT
  5
1939E
330
16360
100
AcDbEntity
  8
寸法
 62
     7
 48
50.0
100
AcDbMText
 10
7992.104254242183
 20
8701.500206066825
 30
0.0
 40
120.0
 41
0.0
 71
     5
 72
     1
  1
\A1;2210
  7
STYLE1
 11
0.0000000000000001
 21
1.0
 31
0.0
 73
     1
 44
1.0
1001
ACAD
1000
MTEXTBEGIN
1070
    73
1070
     1
1070
    44
1040
1.0
1070
    74
1070
     0
1000
MTEXTEND
  0
POINT
  5
1939F
330
16360
100
AcDbEntity
  8
DEFPOINTS
 62
     0
 48
50.0
100
AcDbPoint
 10
7079.582777791761
 20
9806.500206066827
 30
0.0
  0
POINT
  5
193A0
330
16360
100
AcDbEntity
  8
DEFPOINTS
 62
     0
 48
50.0
100
AcDbPoint
 10
7079.582777791735
 20
7596.50020606682
 30
0.0
  0
POINT
  5
193A1
330
16360
100
AcDbEntity
  8
DEFPOINTS
 62
     0
 48
50.0
100
AcDbPoint
 10
8092.116065265805
 20
7596.50020606682
 30
0.0
  0
ENDBLK
  5
164D4
330
16360
100
AcDbEntity
  8
0
 48
50.0
100
AcDbBlockEnd
  0
BLOCK
  5
1728C
330
16384
100
AcDbEntity
  8
0
 48
50.0
100
AcDbBlockBegin
  2
*D5
 70
     1
 10
0.0
 20
0.0
 30
0.0
  3
*D5
  1

  0
LINE
  5
19391
330
16384
100
AcDbEntity
  8
寸法
 62
     0
 48
50.0
370
    -2
100
AcDbLine
 10
5812.582777791753
 20
7602.500206066728
 30
0.0
 11
5812.582777791753
 21
7002.069435300564
 31
0.0
  0
LINE
  5
19392
330
16384
100
AcDbEntity
  8
寸法
 62
     0
 48
50.0
370
    -2
100
AcDbLine
 10
6976.582777791735
 20
7062.069435300564
 30
0.0
 11
5812.582777791753
 21
7062.069435300564
 31
0.0
  0
INSERT
  5
19393
330
16384
100
AcDbEntity
  8
寸法
 62
     0
 48
50.0
370
    -2
100
AcDbBlockReference
  2
_DOTSMALL
 10
6976.582777791735
 20
7062.069435300564
 30
0.0
 41
100.0
 42
100.0
 43
100.0
  0
INSERT
  5
19394
330
16384
100
AcDbEntity
  8
寸法
 62
     0
 48
50.0
370
    -2
100
AcDbBlockReference
  2
_DOTSMALL
 10
5812.582777791753
 20
7062.069435300564
 30
0.0
 41
100.0
 42
100.0
 43
100.0
 50
180.0
  0
MTEXT
  5
19395
330
16384
100
AcDbEntity
  8
寸法
 62
     7
 48
50.0
100
AcDbMText
 10
6394.582777791743
 20
7262.069435300564
 30
0.0
 40
120.0
 41
0.0
 71
     5
 72
     1
  1
\A1;有効開口部間口\P 1164
  7
STYLE1
 73
     1
 44
1.0
1001
ACAD
1000
MTEXTBEGIN
1070
    73
1070
     1
1070
    44
1040
1.0
1070
    74
1070
     0
1000
MTEXTEND
  0
POINT
  5
19396
330
16384
100
AcDbEntity
  8
DEFPOINTS
 62
     0
 48
50.0
100
AcDbPoint
 10
6976.582777791735
 20
7622.500206066728
 30
0.0
  0
POINT
  5
19397
330
16384
100
AcDbEntity
  8
DEFPOINTS
 62
     0
 48
50.0
100
AcDbPoint
 10
5812.582777791753
 20
7622.500206066728
 30
0.0
  0
POINT
  5
19398
330
16384
100
AcDbEntity
  8
DEFPOINTS
 62
     0
 48
50.0
100
AcDbPoint
 10
5812.582777791753
 20
7062.069435300564
 30
0.0
  0
ENDBLK
  5
17295
330
16384
100
AcDbEntity
  8
0
 48
50.0
100
AcDbBlockEnd
  0
BLOCK
  5
17261
330
1638F
100
AcDbEntity
  8
0
 48
50.0
100
AcDbBlockBegin
  2
*D6
 70
     1
 10
0.0
 20
0.0
 30
0.0
  3
*D6
  1

  0
LINE
  5
19388
330
1638F
100
AcDbEntity
  8
寸法
 62
     0
 48
50.0
370
    -2
100
AcDbLine
 10
4339.582777791753
 20
7576.500206066724
 30
0.0
 11
4339.582777791753
 21
6555.89643970969
 31
0.0
  0
LINE
  5
19389
330
1638F
100
AcDbEntity
  8
寸法
 62
     0
 48
50.0
370
    -2
100
AcDbLine
 10
7079.582777791724
 20
7576.500206066819
 30
0.0
 11
7079.582777791724
 21
6555.89643970969
 31
0.0
  0
LINE
  5
1938A
330
1638F
100
AcDbEntity
  8
寸法
 62
     0
 48
50.0
370
    -2
100
AcDbLine
 10
4339.582777791753
 20
6615.89643970969
 30
0.0
 11
7079.582777791724
 21
6615.89643970969
 31
0.0
  0
INSERT
  5
1938B
330
1638F
100
AcDbEntity
  8
寸法
 62
     0
 48
50.0
370
    -2
100
AcDbBlockReference
  2
_DOTSMALL
 10
4339.582777791753
 20
6615.89643970969
 30
0.0
 41
100.0
 42
100.0
 43
100.0
 50
180.0
  0
INSERT
  5
1938C
330
1638F
100
AcDbEntity
  8
寸法
 62
     0
 48
50.0
370
    -2
100
AcDbBlockReference
  2
_DOTSMALL
 10
7079.582777791724
 20
6615.89643970969
 30
0.0
 41
100.0
 42
100.0
 43
100.0
  0
MTEXT
  5
1938D
330
1638F
100
AcDbEntity
  8
寸法
 62
     7
 48
50.0
100
AcDbMText
 10
5709.582777791738
 20
6715.908250733311
 30
0.0
 40
120.0
 41
0.0
 71
     5
 72
     1
  1
\A1;2740
  7
STYLE1
 73
     1
 44
1.0
1001
ACAD
1000
MTEXTBEGIN
1070
    73
1070
     1
1070
    44
1040
1.0
1070
    74
1070
     0
1000
MTEXTEND
  0
POINT
  5
1938E
330
1638F
100
AcDbEntity
  8
DEFPOINTS
 62
     0
 48
50.0
100
AcDbPoint
 10
4339.582777791753
 20
7596.500206066725
 30
0.0
  0
POINT
  5
1938F
330
1638F
100
AcDbEntity
  8
DEFPOINTS
 62
     0
 48
50.0
100
AcDbPoint
 10
7079.582777791724
 20
7596.50020606682
 30
0.0
  0
POINT
  5
19390
330
1638F
100
AcDbEntity
  8
DEFPOINTS
 62
     0
 48
50.0
100
AcDbPoint
 10
7079.582777791724
 20
6615.89643970969
 30
0.0
  0
ENDBLK
  5
1726B
330
1638F
100
AcDbEntity
  8
0
 48
50.0
100
AcDbBlockEnd
  0
BLOCK
  5
16464
330
1639B
100
AcDbEntity
  8
0
 48
50.0
100
AcDbBlockBegin
  2
*D7
 70
     1
 10
0.0
 20
0.0
 30
0.0
  3
*D7
  1

  0
LINE
  5
1937D
330
1639B
100
AcDbEntity
  8
寸法
 62
     0
 48
50.0
370
    -2
100
AcDbLine
 10
4394.582777791749
 20
7576.500206066727
 30
0.0
 11
4394.582777791749
 21
7002.069435300564
 31
0.0
  0
LINE
  5
1937E
330
1639B
100
AcDbEntity
  8
寸法
 62
     0
 48
50.0
370
    -2
100
AcDbLine
 10
4339.582777791753
 20
7576.500206066724
 30
0.0
 11
4339.582777791753
 21
7002.069435300564
 31
0.0
  0
LINE
  5
1937F
330
1639B
100
AcDbEntity
  8
寸法
 62
     0
 48
50.0
370
    -2
100
AcDbLine
 10
4394.582777791749
 20
7062.069435300564
 30
0.0
 11
4494.582777791749
 21
7062.069435300564
 31
0.0
  0
LINE
  5
19380
330
1639B
100
AcDbEntity
  8
寸法
 62
     0
 48
50.0
370
    -2
100
AcDbLine
 10
4339.582777791753
 20
7062.069435300564
 30
0.0
 11
3922.612215043276
 21
7062.069435300564
 31
0.0
  0
LINE
  5
19381
330
1639B
100
AcDbEntity
  8
寸法
 62
     0
 48
50.0
370
    -2
100
AcDbLine
 10
4394.582777791749
 20
7062.069435300564
 30
0.0
 11
4339.582777791753
 21
7062.069435300564
 31
0.0
  0
INSERT
  5
19382
330
1639B
100
AcDbEntity
  8
寸法
 62
     0
 48
50.0
370
    -2
100
AcDbBlockReference
  2
_DOTSMALL
 10
4394.582777791749
 20
7062.069435300564
 30
0.0
 41
100.0
 42
100.0
 43
100.0
 50
180.0
  0
INSERT
  5
19383
330
1639B
100
AcDbEntity
  8
寸法
 62
     0
 48
50.0
370
    -2
100
AcDbBlockReference
  2
_DOTSMALL
 10
4339.582777791753
 20
7062.069435300564
 30
0.0
 41
100.0
 42
100.0
 43
100.0
  0
MTEXT
  5
19384
330
1639B
100
AcDbEntity
  8
寸法
 62
     7
 48
50.0
100
AcDbMText
 10
4031.097496417515
 20
7162.069435300565
 30
0.0
 40
120.0
 41
0.0
 71
     5
 72
     1
  1
\A1;55
  7
STYLE1
 73
     1
 44
1.0
1001
ACAD
1000
MTEXTBEGIN
1070
    73
1070
     1
1070
    44
1040
1.0
1070
    74
1070
     0
1000
MTEXTEND
  0
POINT
  5
19385
330
1639B
100
AcDbEntity
  8
DEFPOINTS
 62
     0
 48
50.0
100
AcDbPoint
 10
4394.582777791749
 20
7596.500206066727
 30
0.0
  0
POINT
  5
19386
330
1639B
100
AcDbEntity
  8
DEFPOINTS
 62
     0
 48
50.0
100
AcDbPoint
 10
4339.582777791753
 20
7596.500206066725
 30
0.0
  0
POINT
  5
19387
330
1639B
100
AcDbEntity
  8
DEFPOINTS
 62
     0
 48
50.0
100
AcDbPoint
 10
4339.582777791753
 20
7062.069435300564
 30
0.0
  0
ENDBLK
  5
16470
330
1639B
100
AcDbEntity
  8
0
 48
50.0
100
AcDbBlockEnd
  0
BLOCK
  5
16471
330
163A9
100
AcDbEntity
  8
0
 48
50.0
100
AcDbBlockBegin
  2
*D8
 70
     1
 10
0.0
 20
0.0
 30
0.0
  3
*D8
  1

  0
LINE
  5
19372
330
163A9
100
AcDbEntity
  8
寸法
 62
     0
 48
50.0
370
    -2
100
AcDbLine
 10
5812.582777791753
 20
7602.500206066728
 30
0.0
 11
5812.582777791753
 21
7002.069435300564
 31
0.0
  0
LINE
  5
19373
330
163A9
100
AcDbEntity
  8
寸法
 62
     0
 48
50.0
370
    -2
100
AcDbLine
 10
5764.582777791749
 20
7576.500206066727
 30
0.0
 11
5764.582777791749
 21
7002.069435300564
 31
0.0
  0
LINE
  5
19374
330
163A9
100
AcDbEntity
  8
寸法
 62
     0
 48
50.0
370
    -2
100
AcDbLine
 10
5812.582777791753
 20
7062.069435300564
 30
0.0
 11
5912.582777791753
 21
7062.069435300564
 31
0.0
  0
LINE
  5
19375
330
163A9
100
AcDbEntity
  8
寸法
 62
     0
 48
50.0
370
    -2
100
AcDbLine
 10
5764.582777791749
 20
7062.069435300564
 30
0.0
 11
5664.58277779175
 21
7062.069435300564
 31
0.0
  0
MTEXT
  5
19376
330
163A9
100
AcDbEntity
  8
寸法
 62
     7
 48
50.0
100
AcDbMText
 10
5925.48474879181
 20
7162.069435300565
 30
0.0
 40
120.0
 41
0.0
 71
     5
 72
     1
  1
\A1;48
  7
STYLE1
 73
     1
 44
1.0
1001
ACAD
1000
MTEXTBEGIN
1070
    73
1070
     1
1070
    44
1040
1.0
1070
    74
1070
     0
1000
MTEXTEND
  0
LINE
  5
19377
330
163A9
100
AcDbEntity
  8
寸法
 62
     0
 48
50.0
370
    -2
100
AcDbLine
 10
5812.582777791753
 20
7062.069435300564
 30
0.0
 11
5764.582777791749
 21
7062.069435300564
 31
0.0
  0
INSERT
  5
19378
330
163A9
100
AcDbEntity
  8
寸法
 62
     0
 48
50.0
370
    -2
100
AcDbBlockReference
  2
_DOTSMALL
 10
5812.582777791753
 20
7062.069435300564
 30
0.0
 41
100.0
 42
100.0
 43
100.0
 50
180.0
  0
INSERT
  5
19379
330
163A9
100
AcDbEntity
  8
寸法
 62
     0
 48
50.0
370
    -2
100
AcDbBlockReference
  2
_DOTSMALL
 10
5764.582777791749
 20
7062.069435300564
 30
0.0
 41
100.0
 42
100.0
 43
100.0
  0
POINT
  5
1937A
330
163A9
100
AcDbEntity
  8
DEFPOINTS
 62
     0
 48
50.0
100
AcDbPoint
 10
5812.582777791753
 20
7622.500206066728
 30
0.0
  0
POINT
  5
1937B
330
163A9
100
AcDbEntity
  8
DEFPOINTS
 62
     0
 48
50.0
100
AcDbPoint
 10
5764.582777791749
 20
7596.500206066727
 30
0.0
  0
POINT
  5
1937C
330
163A9
100
AcDbEntity
  8
DEFPOINTS
 62
     0
 48
50.0
100
AcDbPoint
 10
5764.582777791749
 20
7062.069435300564
 30
0.0
  0
ENDBLK
  5
1647E
330
163A9
100
AcDbEntity
  8
0
 48
50.0
100
AcDbBlockEnd
  0
BLOCK
  5
1647F
330
163B8
100
AcDbEntity
  8
0
 48
50.0
100
AcDbBlockBegin
  2
*D9
 70
     1
 10
0.0
 20
0.0
 30
0.0
  3
*D9
  1

  0
LINE
  5
19367
330
163B8
100
AcDbEntity
  8
寸法
 62
     0
 48
50.0
370
    -2
100
AcDbLine
 10
7024.582777791737
 20
7576.500206066815
 30
0.0
 11
7024.582777791737
 21
7002.069435300564
 31
0.0
  0
LINE
  5
19368
330
163B8
100
AcDbEntity
  8
寸法
 62
     0
 48
50.0
370
    -2
100
AcDbLine
 10
6976.582777791735
 20
7602.500206066729
 30
0.0
 11
6976.582777791735
 21
7002.069435300564
 31
0.0
  0
LINE
  5
19369
330
163B8
100
AcDbEntity
  8
寸法
 62
     0
 48
50.0
370
    -2
100
AcDbLine
 10
7024.582777791737
 20
7062.069435300564
 30
0.0
 11
7124.582777791736
 21
7062.069435300564
 31
0.0
  0
LINE
  5
1936A
330
163B8
100
AcDbEntity
  8
寸法
 62
     0
 48
50.0
370
    -2
100
AcDbLine
 10
6976.582777791735
 20
7062.069435300564
 30
0.0
 11
6876.582777791735
 21
7062.069435300564
 31
0.0
  0
MTEXT
  5
1936B
330
163B8
100
AcDbEntity
  8
寸法
 62
     7
 48
50.0
100
AcDbMText
 10
6865.619880142988
 20
7162.069435300565
 30
0.0
 40
120.0
 41
0.0
 71
     5
 72
     1
  1
\A1;48
  7
STYLE1
 73
     1
 44
1.0
1001
ACAD
1000
MTEXTBEGIN
1070
    73
1070
     1
1070
    44
1040
1.0
1070
    74
1070
     0
1000
MTEXTEND
  0
LINE
  5
1936C
330
163B8
100
AcDbEntity
  8
寸法
 62
     0
 48
50.0
370
    -2
100
AcDbLine
 10
7024.582777791737
 20
7062.069435300564
 30
0.0
 11
6976.582777791735
 21
7062.069435300564
 31
0.0
  0
INSERT
  5
1936D
330
163B8
100
AcDbEntity
  8
寸法
 62
     0
 48
50.0
370
    -2
100
AcDbBlockReference
  2
_DOTSMALL
 10
7024.582777791737
 20
7062.069435300564
 30
0.0
 41
100.0
 42
100.0
 43
100.0
 50
180.0
  0
INSERT
  5
1936E
330
163B8
100
AcDbEntity
  8
寸法
 62
     0
 48
50.0
370
    -2
100
AcDbBlockReference
  2
_DOTSMALL
 10
6976.582777791735
 20
7062.069435300564
 30
0.0
 41
100.0
 42
100.0
 43
100.0
  0
POINT
  5
1936F
330
163B8
100
AcDbEntity
  8
DEFPOINTS
 62
     0
 48
50.0
100
AcDbPoint
 10
7024.582777791737
 20
7596.500206066815
 30
0.0
  0
POINT
  5
19370
330
163B8
100
AcDbEntity
  8
DEFPOINTS
 62
     0
 48
50.0
100
AcDbPoint
 10
6976.582777791735
 20
7622.500206066728
 30
0.0
  0
POINT
  5
19371
330
163B8
100
AcDbEntity
  8
DEFPOINTS
 62
     0
 48
50.0
100
AcDbPoint
 10
6976.582777791735
 20
7062.069435300564
 30
0.0
  0
ENDBLK
  5
1648C
330
163B8
100
AcDbEntity
  8
0
 48
50.0
100
AcDbBlockEnd
  0
BLOCK
  5
1648D
330
163C7
100
AcDbEntity
  8
0
 48
50.0
100
AcDbBlockBegin
  2
*D10
 70
     1
 10
0.0
 20
0.0
 30
0.0
  3
*D10
  1

  0
LINE
  5
1935C
330
163C7
100
AcDbEntity
  8
寸法
 62
     0
 48
50.0
370
    -2
100
AcDbLine
 10
7079.582777791735
 20
7576.500206066819
 30
0.0
 11
7079.582777791735
 21
7002.069435300565
 31
0.0
  0
LINE
  5
1935D
330
163C7
100
AcDbEntity
  8
寸法
 62
     0
 48
50.0
370
    -2
100
AcDbLine
 10
7024.582777791737
 20
7576.500206066815
 30
0.0
 11
7024.582777791737
 21
7002.069435300565
 31
0.0
  0
LINE
  5
1935E
330
163C7
100
AcDbEntity
  8
寸法
 62
     0
 48
50.0
370
    -2
100
AcDbLine
 10
7024.582777791737
 20
7062.069435300564
 30
0.0
 11
6924.582777791737
 21
7062.069435300564
 31
0.0
  0
LINE
  5
1935F
330
163C7
100
AcDbEntity
  8
寸法
 62
     0
 48
50.0
370
    -2
100
AcDbLine
 10
7079.582777791735
 20
7062.069435300564
 30
0.0
 11
7496.553340540213
 21
7062.069435300564
 31
0.0
  0
LINE
  5
19360
330
163C7
100
AcDbEntity
  8
寸法
 62
     0
 48
50.0
370
    -2
100
AcDbLine
 10
7024.582777791737
 20
7062.069435300564
 30
0.0
 11
7079.582777791735
 21
7062.069435300564
 31
0.0
  0
INSERT
  5
19361
330
163C7
100
AcDbEntity
  8
寸法
 62
     0
 48
50.0
370
    -2
100
AcDbBlockReference
  2
_DOTSMALL
 10
7024.582777791737
 20
7062.069435300564
 30
0.0
 41
100.0
 42
100.0
 43
100.0
  0
INSERT
  5
19362
330
163C7
100
AcDbEntity
  8
寸法
 62
     0
 48
50.0
370
    -2
100
AcDbBlockReference
  2
_DOTSMALL
 10
7079.582777791735
 20
7062.069435300564
 30
0.0
 41
100.0
 42
100.0
 43
100.0
 50
180.0
  0
MTEXT
  5
19363
330
163C7
100
AcDbEntity
  8
寸法
 62
     7
 48
50.0
100
AcDbMText
 10
7388.068059165973
 20
7162.069435300565
 30
0.0
 40
120.0
 41
0.0
 71
     5
 72
     1
  1
\A1;55
  7
STYLE1
 73
     1
 44
1.0
1001
ACAD
1000
MTEXTBEGIN
1070
    73
1070
     1
1070
    44
1040
1.0
1070
    74
1070
     0
1000
MTEXTEND
  0
POINT
  5
19364
330
163C7
100
AcDbEntity
  8
DEFPOINTS
 62
     0
 48
50.0
100
AcDbPoint
 10
7079.582777791735
 20
7596.50020606682
 30
0.0
  0
POINT
  5
19365
330
163C7
100
AcDbEntity
  8
DEFPOINTS
 62
     0
 48
50.0
100
AcDbPoint
 10
7024.582777791737
 20
7596.500206066815
 30
0.0
  0
POINT
  5
19366
330
163C7
100
AcDbEntity
  8
DEFPOINTS
 62
     0
 48
50.0
100
AcDbPoint
 10
7024.582777791737
 20
7062.069435300564
 30
0.0
  0
ENDBLK
  5
16499
330
163C7
100
AcDbEntity
  8
0
 48
50.0
100
AcDbBlockEnd
  0
BLOCK
  5
172A1
330
163E1
100
AcDbEntity
  8
0
 48
50.0
100
AcDbBlockBegin
  2
*D11
 70
     1
 10
0.0
 20
0.0
 30
0.0
  3
*D11
  1

  0
LINE
  5
19353
330
163E1
100
AcDbEntity
  8
寸法
 62
     0
 48
50.0
370
    -2
100
AcDbLine
 10
5764.582777791759
 20
9826.500206066732
 30
0.0
 11
5764.582777791759
 21
10082.30842569183
 31
0.0
  0
LINE
  5
19354
330
163E1
100
AcDbEntity
  8
寸法
 62
     0
 48
50.0
370
    -2
100
AcDbLine
 10
7024.58277779176
 20
9826.500206066826
 30
0.0
 11
7024.58277779176
 21
10082.30842569183
 31
0.0
  0
LINE
  5
19355
330
163E1
100
AcDbEntity
  8
寸法
 62
     0
 48
50.0
370
    -2
100
AcDbLine
 10
5764.582777791759
 20
10022.30842569183
 30
0.0
 11
7024.58277779176
 21
10022.30842569183
 31
0.0
  0
INSERT
  5
19356
330
163E1
100
AcDbEntity
  8
寸法
 62
     0
 48
50.0
370
    -2
100
AcDbBlockReference
  2
_DOTSMALL
 10
5764.582777791759
 20
10022.30842569183
 30
0.0
 41
100.0
 42
100.0
 43
100.0
 50
180.0
  0
INSERT
  5
19357
330
163E1
100
AcDbEntity
  8
寸法
 62
     0
 48
50.0
370
    -2
100
AcDbBlockReference
  2
_DOTSMALL
 10
7024.58277779176
 20
10022.30842569183
 30
0.0
 41
100.0
 42
100.0
 43
100.0
  0
MTEXT
  5
19358
330
163E1
100
AcDbEntity
  8
寸法
 62
     7
 48
50.0
100
AcDbMText
 10
6394.582777791761
 20
10122.32023671545
 30
0.0
 40
120.0
 41
0.0
 71
     5
 72
     1
  1
\A1;3X420=1260
  7
STYLE1
 73
     1
 44
1.0
1001
ACAD
1000
MTEXTBEGIN
1070
    73
1070
     1
1070
    44
1040
1.0
1070
    74
1070
     0
1000
MTEXTEND
  0
POINT
  5
19359
330
163E1
100
AcDbEntity
  8
DEFPOINTS
 62
     0
 48
50.0
100
AcDbPoint
 10
5764.582777791759
 20
9806.500206066733
 30
0.0
  0
POINT
  5
1935A
330
163E1
100
AcDbEntity
  8
DEFPOINTS
 62
     0
 48
50.0
100
AcDbPoint
 10
7024.58277779176
 20
9806.500206066827
 30
0.0
  0
POINT
  5
1935B
330
163E1
100
AcDbEntity
  8
DEFPOINTS
 62
     0
 48
50.0
100
AcDbPoint
 10
7024.58277779176
 20
10022.30842569183
 30
0.0
  0
ENDBLK
  5
172AB
330
163E1
100
AcDbEntity
  8
0
 48
50.0
100
AcDbBlockEnd
  0
BLOCK
  5
164B0
330
163ED
100
AcDbEntity
  8
0
 48
50.0
100
AcDbBlockBegin
  2
*D12
 70
     1
 10
0.0
 20
0.0
 30
0.0
  3
*D12
  1

  0
LINE
  5
19348
330
163ED
100
AcDbEntity
  8
寸法
 62
     0
 48
50.0
370
    -2
100
AcDbLine
 10
4339.582777791725
 20
9826.500206066732
 30
0.0
 11
4339.582777791725
 21
10082.30842569171
 31
0.0
  0
LINE
  5
19349
330
163ED
100
AcDbEntity
  8
寸法
 62
     0
 48
50.0
370
    -2
100
AcDbLine
 10
4394.582777791759
 20
9826.500206066732
 30
0.0
 11
4394.582777791759
 21
10082.30842569171
 31
0.0
  0
LINE
  5
1934A
330
163ED
100
AcDbEntity
  8
寸法
 62
     0
 48
50.0
370
    -2
100
AcDbLine
 10
4394.582777791759
 20
10022.30842569171
 30
0.0
 11
4494.582777791759
 21
10022.30842569171
 31
0.0
  0
LINE
  5
1934B
330
163ED
100
AcDbEntity
  8
寸法
 62
     0
 48
50.0
370
    -2
100
AcDbLine
 10
4339.582777791725
 20
10022.30842569171
 30
0.0
 11
3922.612215043247
 21
10022.30842569171
 31
0.0
  0
LINE
  5
1934C
330
163ED
100
AcDbEntity
  8
寸法
 62
     0
 48
50.0
370
    -2
100
AcDbLine
 10
4394.582777791759
 20
10022.30842569171
 30
0.0
 11
4339.582777791725
 21
10022.30842569171
 31
0.0
  0
INSERT
  5
1934D
330
163ED
100
AcDbEntity
  8
寸法
 62
     0
 48
50.0
370
    -2
100
AcDbBlockReference
  2
_DOTSMALL
 10
4394.582777791759
 20
10022.30842569171
 30
0.0
 41
100.0
 42
100.0
 43
100.0
 50
180.0
  0
INSERT
  5
1934E
330
163ED
100
AcDbEntity
  8
寸法
 62
     0
 48
50.0
370
    -2
100
AcDbBlockReference
  2
_DOTSMALL
 10
4339.582777791725
 20
10022.30842569171
 30
0.0
 41
100.0
 42
100.0
 43
100.0
  0
MTEXT
  5
1934F
330
163ED
100
AcDbEntity
  8
寸法
 62
     7
 48
50.0
100
AcDbMText
 10
4031.097496417486
 20
10122.30842569171
 30
0.0
 40
120.0
 41
0.0
 71
     5
 72
     1
  1
\A1;55
  7
STYLE1
 73
     1
 44
1.0
1001
ACAD
1000
MTEXTBEGIN
1070
    73
1070
     1
1070
    44
1040
1.0
1070
    74
1070
     0
1000
MTEXTEND
  0
POINT
  5
19350
330
163ED
100
AcDbEntity
  8
DEFPOINTS
 62
     0
 48
50.0
100
AcDbPoint
 10
4339.582777791725
 20
9806.500206066733
 30
0.0
  0
POINT
  5
19351
330
163ED
100
AcDbEntity
  8
DEFPOINTS
 62
     0
 48
50.0
100
AcDbPoint
 10
4394.582777791759
 20
9806.500206066733
 30
0.0
  0
POINT
  5
19352
330
163ED
100
AcDbEntity
  8
DEFPOINTS
 62
     0
 48
50.0
100
AcDbPoint
 10
4394.582777791759
 20
10022.30842569171
 30
0.0
  0
ENDBLK
  5
164BC
330
163ED
100
AcDbEntity
  8
0
 48
50.0
100
AcDbBlockEnd
  0
BLOCK
  5
164BD
330
163FB
100
AcDbEntity
  8
0
 48
50.0
100
AcDbBlockBegin
  2
*D13
 70
     1
 10
0.0
 20
0.0
 30
0.0
  3
*D13
  1

  0
LINE
  5
1933D
330
163FB
100
AcDbEntity
  8
寸法
 62
     0
 48
50.0
370
    -2
100
AcDbLine
 10
7024.58277779176
 20
9826.500206066826
 30
0.0
 11
7024.58277779176
 21
10082.30842569181
 31
0.0
  0
LINE
  5
1933E
330
163FB
100
AcDbEntity
  8
寸法
 62
     0
 48
50.0
370
    -2
100
AcDbLine
 10
7079.582777791761
 20
9826.500206066826
 30
0.0
 11
7079.582777791761
 21
10082.30842569181
 31
0.0
  0
LINE
  5
1933F
330
163FB
100
AcDbEntity
  8
寸法
 62
     0
 48
50.0
370
    -2
100
AcDbLine
 10
7024.58277779176
 20
10022.30842569181
 30
0.0
 11
6924.582777791759
 21
10022.30842569181
 31
0.0
  0
LINE
  5
19340
330
163FB
100
AcDbEntity
  8
寸法
 62
     0
 48
50.0
370
    -2
100
AcDbLine
 10
7079.582777791761
 20
10022.30842569181
 30
0.0
 11
7496.553340540238
 21
10022.30842569181
 31
0.0
  0
LINE
  5
19341
330
163FB
100
AcDbEntity
  8
寸法
 62
     0
 48
50.0
370
    -2
100
AcDbLine
 10
7024.58277779176
 20
10022.30842569181
 30
0.0
 11
7079.582777791761
 21
10022.30842569181
 31
0.0
  0
INSERT
  5
19342
330
163FB
100
AcDbEntity
  8
寸法
 62
     0
 48
50.0
370
    -2
100
AcDbBlockReference
  2
_DOTSMALL
 10
7024.58277779176
 20
10022.30842569181
 30
0.0
 41
100.0
 42
100.0
 43
100.0
  0
INSERT
  5
19343
330
163FB
100
AcDbEntity
  8
寸法
 62
     0
 48
50.0
370
    -2
100
AcDbBlockReference
  2
_DOTSMALL
 10
7079.582777791761
 20
10022.30842569181
 30
0.0
 41
100.0
 42
100.0
 43
100.0
 50
180.0
  0
MTEXT
  5
19344
330
163FB
100
AcDbEntity
  8
寸法
 62
     7
 48
50.0
100
AcDbMText
 10
7388.068059165998
 20
10122.30842569181
 30
0.0
 40
120.0
 41
0.0
 71
     5
 72
     1
  1
\A1;55
  7
STYLE1
 73
     1
 44
1.0
1001
ACAD
1000
MTEXTBEGIN
1070
    73
1070
     1
1070
    44
1040
1.0
1070
    74
1070
     0
1000
MTEXTEND
  0
POINT
  5
19345
330
163FB
100
AcDbEntity
  8
DEFPOINTS
 62
     0
 48
50.0
100
AcDbPoint
 10
7024.58277779176
 20
9806.500206066827
 30
0.0
  0
POINT
  5
19346
330
163FB
100
AcDbEntity
  8
DEFPOINTS
 62
     0
 48
50.0
100
AcDbPoint
 10
7079.582777791761
 20
9806.500206066827
 30
0.0
  0
POINT
  5
19347
330
163FB
100
AcDbEntity
  8
DEFPOINTS
 62
     0
 48
50.0
100
AcDbPoint
 10
7079.582777791761
 20
10022.30842569181
 30
0.0
  0
ENDBLK
  5
164C9
330
163FB
100
AcDbEntity
  8
0
 48
50.0
100
AcDbBlockEnd
  0
BLOCK
  5
165B6
330
165B5
100
AcDbEntity
  8
0
 48
50.0
100
AcDbBlockBegin
  2
*D14
 70
     1
 10
0.0
 20
0.0
 30
0.0
  3
*D14
  1

  0
LINE
  5
19327
330
165B5
100
AcDbEntity
  8
寸法
 62
     0
 48
50.0
370
    -2
100
AcDbLine
 10
4442.582777791753
 20
7602.500206066728
 30
0.0
 11
4442.582777791753
 21
7002.069435300564
 31
0.0
  0
LINE
  5
19328
330
165B5
100
AcDbEntity
  8
寸法
 62
     0
 48
50.0
370
    -2
100
AcDbLine
 10
4394.582777791749
 20
7576.500206066727
 30
0.0
 11
4394.582777791749
 21
7002.069435300564
 31
0.0
  0
LINE
  5
19329
330
165B5
100
AcDbEntity
  8
寸法
 62
     0
 48
50.0
370
    -2
100
AcDbLine
 10
4442.582777791753
 20
7062.069435300564
 30
0.0
 11
4542.582777791753
 21
7062.069435300564
 31
0.0
  0
LINE
  5
1932A
330
165B5
100
AcDbEntity
  8
寸法
 62
     0
 48
50.0
370
    -2
100
AcDbLine
 10
4394.582777791749
 20
7062.069435300564
 30
0.0
 11
4294.582777791749
 21
7062.069435300564
 31
0.0
  0
MTEXT
  5
1932B
330
165B5
100
AcDbEntity
  8
寸法
 62
     7
 48
50.0
100
AcDbMText
 10
4555.48474879181
 20
7162.069435300565
 30
0.0
 40
120.0
 41
0.0
 71
     5
 72
     1
  1
\A1;48
  7
STYLE1
 73
     1
 44
1.0
1001
ACAD
1000
MTEXTBEGIN
1070
    73
1070
     1
1070
    44
1040
1.0
1070
    74
1070
     0
1000
MTEXTEND
  0
LINE
  5
1932C
330
165B5
100
AcDbEntity
  8
寸法
 62
     0
 48
50.0
370
    -2
100
AcDbLine
 10
4442.582777791753
 20
7062.069435300564
 30
0.0
 11
4394.582777791749
 21
7062.069435300564
 31
0.0
  0
INSERT
  5
1932D
330
165B5
100
AcDbEntity
  8
寸法
 62
     0
 48
50.0
370
    -2
100
AcDbBlockReference
  2
_DOTSMALL
 10
4442.582777791753
 20
7062.069435300564
 30
0.0
 41
100.0
 42
100.0
 43
100.0
 50
180.0
  0
INSERT
  5
1932E
330
165B5
100
AcDbEntity
  8
寸法
 62
     0
 48
50.0
370
    -2
100
AcDbBlockReference
  2
_DOTSMALL
 10
4394.582777791749
 20
7062.069435300564
 30
0.0
 41
100.0
 42
100.0
 43
100.0
  0
POINT
  5
1932F
330
165B5
100
AcDbEntity
  8
DEFPOINTS
 62
     0
 48
50.0
100
AcDbPoint
 10
4442.582777791753
 20
7622.500206066728
 30
0.0
  0
POINT
  5
19330
330
165B5
100
AcDbEntity
  8
DEFPOINTS
 62
     0
 48
50.0
100
AcDbPoint
 10
4394.582777791749
 20
7596.500206066727
 30
0.0
  0
POINT
  5
19331
330
165B5
100
AcDbEntity
  8
DEFPOINTS
 62
     0
 48
50.0
100
AcDbPoint
 10
4394.582777791749
 20
7062.069435300564
 30
0.0
  0
ENDBLK
  5
165C3
330
165B5
100
AcDbEntity
  8
0
 48
50.0
100
AcDbBlockEnd
  0
BLOCK
  5
165C5
330
165C4
100
AcDbEntity
  8
0
 48
50.0
100
AcDbBlockBegin
  2
*D15
 70
     1
 10
0.0
 20
0.0
 30
0.0
  3
*D15
  1

  0
LINE
  5
19332
330
165C4
100
AcDbEntity
  8
寸法
 62
     0
 48
50.0
370
    -2
100
AcDbLine
 10
5654.582777791737
 20
7576.500206066815
 30
0.0
 11
5654.582777791737
 21
7002.069435300564
 31
0.0
  0
LINE
  5
19333
330
165C4
100
AcDbEntity
  8
寸法
 62
     0
 48
50.0
370
    -2
100
AcDbLine
 10
5606.582777791735
 20
7602.500206066729
 30
0.0
 11
5606.582777791735
 21
7002.069435300564
 31
0.0
  0
LINE
  5
19334
330
165C4
100
AcDbEntity
  8
寸法
 62
     0
 48
50.0
370
    -2
100
AcDbLine
 10
5654.582777791737
 20
7062.069435300564
 30
0.0
 11
5754.582777791736
 21
7062.069435300564
 31
0.0
  0
LINE
  5
19335
330
165C4
100
AcDbEntity
  8
寸法
 62
     0
 48
50.0
370
    -2
100
AcDbLine
 10
5606.582777791735
 20
7062.069435300564
 30
0.0
 11
5506.582777791734
 21
7062.069435300564
 31
0.0
  0
MTEXT
  5
19336
330
165C4
100
AcDbEntity
  8
寸法
 62
     7
 48
50.0
100
AcDbMText
 10
5495.619880142988
 20
7162.069435300565
 30
0.0
 40
120.0
 41
0.0
 71
     5
 72
     1
  1
\A1;48
  7
STYLE1
 73
     1
 44
1.0
1001
ACAD
1000
MTEXTBEGIN
1070
    73
1070
     1
1070
    44
1040
1.0
1070
    74
1070
     0
1000
MTEXTEND
  0
LINE
  5
19337
330
165C4
100
AcDbEntity
  8
寸法
 62
     0
 48
50.0
370
    -2
100
AcDbLine
 10
5654.582777791737
 20
7062.069435300564
 30
0.0
 11
5606.582777791735
 21
7062.069435300564
 31
0.0
  0
INSERT
  5
19338
330
165C4
100
AcDbEntity
  8
寸法
 62
     0
 48
50.0
370
    -2
100
AcDbBlockReference
  2
_DOTSMALL
 10
5654.582777791737
 20
7062.069435300564
 30
0.0
 41
100.0
 42
100.0
 43
100.0
 50
180.0
  0
INSERT
  5
19339
330
165C4
100
AcDbEntity
  8
寸法
 62
     0
 48
50.0
370
    -2
100
AcDbBlockReference
  2
_DOTSMALL
 10
5606.582777791735
 20
7062.069435300564
 30
0.0
 41
100.0
 42
100.0
 43
100.0
  0
POINT
  5
1933A
330
165C4
100
AcDbEntity
  8
DEFPOINTS
 62
     0
 48
50.0
100
AcDbPoint
 10
5654.582777791737
 20
7596.500206066815
 30
0.0
  0
POINT
  5
1933B
330
165C4
100
AcDbEntity
  8
DEFPOINTS
 62
     0
 48
50.0
100
AcDbPoint
 10
5606.582777791735
 20
7622.500206066728
 30
0.0
  0
POINT
  5
1933C
330
165C4
100
AcDbEntity
  8
DEFPOINTS
 62
     0
 48
50.0
100
AcDbPoint
 10
5606.582777791735
 20
7062.069435300564
 30
0.0
  0
ENDBLK
  5
165D2
330
165C4
100
AcDbEntity
  8
0
 48
50.0
100
AcDbBlockEnd
  0
BLOCK
  5
1663F
330
165EA
100
AcDbEntity
  8
0
 48
50.0
100
AcDbBlockBegin
  2
*D16
 70
     1
 10
0.0
 20
0.0
 30
0.0
  3
*D16
  1

  0
LINE
  5
1931E
330
165EA
100
AcDbEntity
  8
寸法
 62
     0
 48
50.0
370
    -2
100
AcDbLine
 10
5764.582777791749
 20
7576.500206066727
 30
0.0
 11
5764.582777791749
 21
7002.069435300565
 31
0.0
  0
LINE
  5
1931F
330
165EA
100
AcDbEntity
  8
寸法
 62
     0
 48
50.0
370
    -2
100
AcDbLine
 10
5654.582777791737
 20
7576.500206066815
 30
0.0
 11
5654.582777791737
 21
7002.069435300565
 31
0.0
  0
LINE
  5
19320
330
165EA
100
AcDbEntity
  8
寸法
 62
     0
 48
50.0
370
    -2
100
AcDbLine
 10
5764.582777791749
 20
7062.069435300564
 30
0.0
 11
5654.582777791737
 21
7062.069435300564
 31
0.0
  0
MTEXT
  5
19321
330
165EA
100
AcDbEntity
  8
寸法
 62
     7
 48
50.0
100
AcDbMText
 10
5709.582777791743
 20
6910.377540264334
 30
0.0
 40
120.0
 41
0.0
 71
     5
 72
     1
  1
\A1;110
  7
STYLE1
 73
     1
 44
1.0
1001
ACAD
1000
MTEXTBEGIN
1070
    73
1070
     1
1070
    44
1040
1.0
1070
    74
1070
     0
1000
MTEXTEND
  0
INSERT
  5
19322
330
165EA
100
AcDbEntity
  8
寸法
 62
     0
 48
50.0
370
    -2
100
AcDbBlockReference
  2
_DOTSMALL
 10
5764.582777791749
 20
7062.069435300564
 30
0.0
 41
100.0
 42
100.0
 43
100.0
  0
INSERT
  5
19323
330
165EA
100
AcDbEntity
  8
寸法
 62
     0
 48
50.0
370
    -2
100
AcDbBlockReference
  2
_DOTSMALL
 10
5654.582777791737
 20
7062.069435300564
 30
0.0
 41
100.0
 42
100.0
 43
100.0
 50
180.0
  0
POINT
  5
19324
330
165EA
100
AcDbEntity
  8
DEFPOINTS
 62
     0
 48
50.0
100
AcDbPoint
 10
5764.582777791749
 20
7596.500206066727
 30
0.0
  0
POINT
  5
19325
330
165EA
100
AcDbEntity
  8
DEFPOINTS
 62
     0
 48
50.0
100
AcDbPoint
 10
5654.582777791737
 20
7596.500206066815
 30
0.0
  0
POINT
  5
19326
330
165EA
100
AcDbEntity
  8
DEFPOINTS
 62
     0
 48
50.0
100
AcDbPoint
 10
5654.582777791737
 20
7062.069435300564
 30
0.0
  0
ENDBLK
  5
16649
330
165EA
100
AcDbEntity
  8
0
 48
50.0
100
AcDbBlockEnd
  0
BLOCK
  5
166D0
330
166CF
100
AcDbEntity
  8
0
 48
50.0
100
AcDbBlockBegin
  2
*D17
 70
     1
 10
0.0
 20
0.0
 30
0.0
  3
*D17
  1

  0
LINE
  5
19313
330
166CF
100
AcDbEntity
  8
寸法
 62
     0
 48
50.0
370
    -2
100
AcDbLine
 10
5764.582777791759
 20
9826.500206066782
 30
0.0
 11
5764.582777791759
 21
10082.30842569183
 31
0.0
  0
LINE
  5
19314
330
166CF
100
AcDbEntity
  8
寸法
 62
     0
 48
50.0
370
    -2
100
AcDbLine
 10
5654.58277779176
 20
9826.500206066778
 30
0.0
 11
5654.58277779176
 21
10082.30842569183
 31
0.0
  0
LINE
  5
19315
330
166CF
100
AcDbEntity
  8
寸法
 62
     0
 48
50.0
370
    -2
100
AcDbLine
 10
5764.582777791759
 20
10022.30842569183
 30
0.0
 11
5864.58277779176
 21
10022.30842569183
 31
0.0
  0
LINE
  5
19316
330
166CF
100
AcDbEntity
  8
寸法
 62
     0
 48
50.0
370
    -2
100
AcDbLine
 10
5654.58277779176
 20
10022.30842569183
 30
0.0
 11
5554.58277779176
 21
10022.30842569183
 31
0.0
  0
LINE
  5
19317
330
166CF
100
AcDbEntity
  8
寸法
 62
     0
 48
50.0
370
    -2
100
AcDbLine
 10
5764.582777791759
 20
10022.30842569183
 30
0.0
 11
5654.58277779176
 21
10022.30842569183
 31
0.0
  0
INSERT
  5
19318
330
166CF
100
AcDbEntity
  8
寸法
 62
     0
 48
50.0
370
    -2
100
AcDbBlockReference
  2
_DOTSMALL
 10
5764.582777791759
 20
10022.30842569183
 30
0.0
 41
100.0
 42
100.0
 43
100.0
 50
180.0
  0
INSERT
  5
19319
330
166CF
100
AcDbEntity
  8
寸法
 62
     0
 48
50.0
370
    -2
100
AcDbBlockReference
  2
_DOTSMALL
 10
5654.58277779176
 20
10022.30842569183
 30
0.0
 41
100.0
 42
100.0
 43
100.0
  0
MTEXT
  5
1931A
330
166CF
100
AcDbEntity
  8
寸法
 62
     7
 48
50.0
100
AcDbMText
 10
5709.58277779176
 20
10122.30842569183
 30
0.0
 40
120.0
 41
0.0
 71
     5
 72
     1
  1
\A1;110
  7
STYLE1
 73
     1
 44
1.0
1001
ACAD
1000
MTEXTBEGIN
1070
    73
1070
     1
1070
    44
1040
1.0
1070
    74
1070
     0
1000
MTEXTEND
  0
POINT
  5
1931B
330
166CF
100
AcDbEntity
  8
DEFPOINTS
 62
     0
 48
50.0
100
AcDbPoint
 10
5764.582777791759
 20
9806.500206066781
 30
0.0
  0
POINT
  5
1931C
330
166CF
100
AcDbEntity
  8
DEFPOINTS
 62
     0
 48
50.0
100
AcDbPoint
 10
5654.58277779176
 20
9806.500206066779
 30
0.0
  0
POINT
  5
1931D
330
166CF
100
AcDbEntity
  8
DEFPOINTS
 62
     0
 48
50.0
100
AcDbPoint
 10
5654.58277779176
 20
10022.30842569183
 30
0.0
  0
ENDBLK
  5
166DC
330
166CF
100
AcDbEntity
  8
0
 48
50.0
100
AcDbBlockEnd
  0
BLOCK
  5
1726C
330
16908
100
AcDbEntity
  8
0
 48
50.0
100
AcDbBlockBegin
  2
*D18
 70
     1
 10
0.0
 20
0.0
 30
0.0
  3
*D18
  1

  0
LINE
  5
1930B
330
16908
100
AcDbEntity
  8
寸法
 62
     0
 48
50.0
370
    -2
100
AcDbLine
 10
7079.582777791761
 20
9826.500206066826
 30
0.0
 11
7079.582777791761
 21
10331.62989924812
 31
0.0
  0
LINE
  5
1930C
330
16908
100
AcDbEntity
  8
寸法
 62
     0
 48
50.0
370
    -2
100
AcDbLine
 10
5709.58277779176
 20
10271.62989924812
 30
0.0
 11
7079.582777791761
 21
10271.62989924812
 31
0.0
  0
INSERT
  5
1930D
330
16908
100
AcDbEntity
  8
寸法
 62
     0
 48
50.0
370
    -2
100
AcDbBlockReference
  2
_DOTSMALL
 10
5709.58277779176
 20
10271.62989924812
 30
0.0
 41
100.0
 42
100.0
 43
100.0
 50
180.0
  0
INSERT
  5
1930E
330
16908
100
AcDbEntity
  8
寸法
 62
     0
 48
50.0
370
    -2
100
AcDbBlockReference
  2
_DOTSMALL
 10
7079.582777791761
 20
10271.62989924812
 30
0.0
 41
100.0
 42
100.0
 43
100.0
  0
MTEXT
  5
1930F
330
16908
100
AcDbEntity
  8
寸法
 62
     7
 48
50.0
100
AcDbMText
 10
6394.582777791761
 20
10371.62989924812
 30
0.0
 40
120.0
 41
0.0
 71
     5
 72
     1
  1
\A1;1370
  7
STYLE1
 73
     1
 44
1.0
1001
ACAD
1000
MTEXTBEGIN
1070
    73
1070
     1
1070
    44
1040
1.0
1070
    74
1070
     0
1000
MTEXTEND
  0
POINT
  5
19310
330
16908
100
AcDbEntity
  8
DEFPOINTS
 62
     0
 48
50.0
100
AcDbPoint
 10
5709.58277779176
 20
10181.29634004977
 30
0.0
  0
POINT
  5
19311
330
16908
100
AcDbEntity
  8
DEFPOINTS
 62
     0
 48
50.0
100
AcDbPoint
 10
7079.582777791761
 20
9806.500206066827
 30
0.0
  0
POINT
  5
19312
330
16908
100
AcDbEntity
  8
DEFPOINTS
 62
     0
 48
50.0
100
AcDbPoint
 10
7079.582777791761
 20
10271.62989924812
 30
0.0
  0
ENDBLK
  5
17275
330
16908
100
AcDbEntity
  8
0
 48
50.0
100
AcDbBlockEnd
  0
BLOCK
  5
17BDC
330
17BD3
100
AcDbEntity
  8
0
 48
50.0
100
AcDbBlockBegin
  2
*D19
 70
     1
 10
0.0
 20
0.0
 30
0.0
  3
*D19
  1

  0
LINE
  5
192F1
330
17BD3
100
AcDbEntity
  8
寸法
 62
     0
 48
50.0
370
    -2
100
AcDbLine
 10
4442.582777791753
 20
7602.500206066728
 30
0.0
 11
4442.582777791753
 21
7002.069435300564
 31
0.0
  0
LINE
  5
192F2
330
17BD3
100
AcDbEntity
  8
寸法
 62
     0
 48
50.0
370
    -2
100
AcDbLine
 10
5606.582777791735
 20
7062.069435300564
 30
0.0
 11
4442.582777791753
 21
7062.069435300564
 31
0.0
  0
INSERT
  5
192F3
330
17BD3
100
AcDbEntity
  8
寸法
 62
     0
 48
50.0
370
    -2
100
AcDbBlockReference
  2
_DOTSMALL
 10
5606.582777791735
 20
7062.069435300564
 30
0.0
 41
100.0
 42
100.0
 43
100.0
  0
INSERT
  5
192F4
330
17BD3
100
AcDbEntity
  8
寸法
 62
     0
 48
50.0
370
    -2
100
AcDbBlockReference
  2
_DOTSMALL
 10
4442.582777791753
 20
7062.069435300564
 30
0.0
 41
100.0
 42
100.0
 43
100.0
 50
180.0
  0
MTEXT
  5
192F5
330
17BD3
100
AcDbEntity
  8
寸法
 62
     7
 48
50.0
100
AcDbMText
 10
5024.582777791744
 20
7262.069435300564
 30
0.0
 40
120.0
 41
0.0
 71
     5
 72
     1
  1
\A1;有効開口部間口\P 1164
  7
STYLE1
 73
     1
 44
1.0
1001
ACAD
1000
MTEXTBEGIN
1070
    73
1070
     1
1070
    44
1040
1.0
1070
    74
1070
     0
1000
MTEXTEND
  0
POINT
  5
192F6
330
17BD3
100
AcDbEntity
  8
DEFPOINTS
 62
     0
 48
50.0
100
AcDbPoint
 10
5606.582777791735
 20
7622.500206066728
 30
0.0
  0
POINT
  5
192F7
330
17BD3
100
AcDbEntity
  8
DEFPOINTS
 62
     0
 48
50.0
100
AcDbPoint
 10
4442.582777791753
 20
7622.500206066728
 30
0.0
  0
POINT
  5
192F8
330
17BD3
100
AcDbEntity
  8
DEFPOINTS
 62
     0
 48
50.0
100
AcDbPoint
 10
4442.582777791753
 20
7062.069435300564
 30
0.0
  0
ENDBLK
  5
17BDD
330
17BD3
100
AcDbEntity
  8
0
 48
50.0
100
AcDbBlockEnd
  0
BLOCK
  5
17BE8
330
17BDE
100
AcDbEntity
  8
0
 48
50.0
100
AcDbBlockBegin
  2
*D20
 70
     1
 10
0.0
 20
0.0
 30
0.0
  3
*D20
  1

  0
LINE
  5
192F9
330
17BDE
100
AcDbEntity
  8
寸法
 62
     0
 48
50.0
370
    -2
100
AcDbLine
 10
4394.582777791759
 20
9826.500206066732
 30
0.0
 11
4394.582777791759
 21
10082.30842569183
 31
0.0
  0
LINE
  5
192FA
330
17BDE
100
AcDbEntity
  8
寸法
 62
     0
 48
50.0
370
    -2
100
AcDbLine
 10
5654.58277779176
 20
9826.500206066826
 30
0.0
 11
5654.58277779176
 21
10082.30842569183
 31
0.0
  0
LINE
  5
192FB
330
17BDE
100
AcDbEntity
  8
寸法
 62
     0
 48
50.0
370
    -2
100
AcDbLine
 10
4394.582777791759
 20
10022.30842569183
 30
0.0
 11
5654.58277779176
 21
10022.30842569183
 31
0.0
  0
INSERT
  5
192FC
330
17BDE
100
AcDbEntity
  8
寸法
 62
     0
 48
50.0
370
    -2
100
AcDbBlockReference
  2
_DOTSMALL
 10
4394.582777791759
 20
10022.30842569183
 30
0.0
 41
100.0
 42
100.0
 43
100.0
 50
180.0
  0
INSERT
  5
192FD
330
17BDE
100
AcDbEntity
  8
寸法
 62
     0
 48
50.0
370
    -2
100
AcDbBlockReference
  2
_DOTSMALL
 10
5654.58277779176
 20
10022.30842569183
 30
0.0
 41
100.0
 42
100.0
 43
100.0
  0
MTEXT
  5
192FE
330
17BDE
100
AcDbEntity
  8
寸法
 62
     7
 48
50.0
100
AcDbMText
 10
5024.58277779176
 20
10122.32023671545
 30
0.0
 40
120.0
 41
0.0
 71
     5
 72
     1
  1
\A1;3X420=1260
  7
STYLE1
 73
     1
 44
1.0
1001
ACAD
1000
MTEXTBEGIN
1070
    73
1070
     1
1070
    44
1040
1.0
1070
    74
1070
     0
1000
MTEXTEND
  0
POINT
  5
192FF
330
17BDE
100
AcDbEntity
  8
DEFPOINTS
 62
     0
 48
50.0
100
AcDbPoint
 10
4394.582777791759
 20
9806.500206066733
 30
0.0
  0
POINT
  5
19300
330
17BDE
100
AcDbEntity
  8
DEFPOINTS
 62
     0
 48
50.0
100
AcDbPoint
 10
5654.58277779176
 20
9806.500206066827
 30
0.0
  0
POINT
  5
19301
330
17BDE
100
AcDbEntity
  8
DEFPOINTS
 62
     0
 48
50.0
100
AcDbPoint
 10
5654.58277779176
 20
10022.30842569183
 30
0.0
  0
ENDBLK
  5
17BE9
330
17BDE
100
AcDbEntity
  8
0
 48
50.0
100
AcDbBlockEnd
  0
BLOCK
  5
17C02
330
17BF8
100
AcDbEntity
  8
0
 48
50.0
100
AcDbBlockBegin
  2
*D21
 70
     1
 10
0.0
 20
0.0
 30
0.0
  3
*D21
  1

  0
LINE
  5
19302
330
17BF8
100
AcDbEntity
  8
寸法
 62
     0
 48
50.0
370
    -2
100
AcDbLine
 10
4339.582777791725
 20
9826.5002060667
 30
0.0
 11
4339.582777791725
 21
10331.62989924812
 31
0.0
  0
LINE
  5
19303
330
17BF8
100
AcDbEntity
  8
寸法
 62
     0
 48
50.0
370
    -2
100
AcDbLine
 10
5709.58277779176
 20
10201.29634004977
 30
0.0
 11
5709.58277779176
 21
10331.62989924812
 31
0.0
  0
LINE
  5
19304
330
17BF8
100
AcDbEntity
  8
寸法
 62
     0
 48
50.0
370
    -2
100
AcDbLine
 10
4339.582777791725
 20
10271.62989924812
 30
0.0
 11
5709.58277779176
 21
10271.62989924812
 31
0.0
  0
INSERT
  5
19305
330
17BF8
100
AcDbEntity
  8
寸法
 62
     0
 48
50.0
370
    -2
100
AcDbBlockReference
  2
_DOTSMALL
 10
4339.582777791725
 20
10271.62989924812
 30
0.0
 41
100.0
 42
100.0
 43
100.0
 50
180.0
  0
INSERT
  5
19306
330
17BF8
100
AcDbEntity
  8
寸法
 62
     0
 48
50.0
370
    -2
100
AcDbBlockReference
  2
_DOTSMALL
 10
5709.58277779176
 20
10271.62989924812
 30
0.0
 41
100.0
 42
100.0
 43
100.0
  0
MTEXT
  5
19307
330
17BF8
100
AcDbEntity
  8
寸法
 62
     7
 48
50.0
100
AcDbMText
 10
5024.582777791742
 20
10371.62989924812
 30
0.0
 40
120.0
 41
0.0
 71
     5
 72
     1
  1
\A1;1370
  7
STYLE1
 73
     1
 44
1.0
1001
ACAD
1000
MTEXTBEGIN
1070
    73
1070
     1
1070
    44
1040
1.0
1070
    74
1070
     0
1000
MTEXTEND
  0
POINT
  5
19308
330
17BF8
100
AcDbEntity
  8
DEFPOINTS
 62
     0
 48
50.0
100
AcDbPoint
 10
4339.582777791725
 20
9806.500206066701
 30
0.0
  0
POINT
  5
19309
330
17BF8
100
AcDbEntity
  8
DEFPOINTS
 62
     0
 48
50.0
100
AcDbPoint
 10
5709.58277779176
 20
10181.29634004977
 30
0.0
  0
POINT
  5
1930A
330
17BF8
100
AcDbEntity
  8
DEFPOINTS
 62
     0
 48
50.0
100
AcDbPoint
 10
5709.58277779176
 20
10271.62989924812
 30
0.0
  0
ENDBLK
  5
17C03
330
17BF8
100
AcDbEntity
  8
0
 48
50.0
100
AcDbBlockEnd
  0
BLOCK
  5
19A3B
330
19A31
100
AcDbEntity
  8
0
 48
50.0
100
AcDbBlockBegin
  2
*D22
 70
     1
 10
0.0
 20
0.0
 30
0.0
  3
*D22
  1

  0
LINE
  5
1A284
330
19A31
100
AcDbEntity
  8
寸法
 62
     0
 48
50.0
370
    -2
100
AcDbLine
 10
12083.29996814195
 20
2537.931598713262
 30
0.0
 11
12828.22712611408
 21
2537.931598713262
 31
0.0
  0
LINE
  5
1A285
330
19A31
100
AcDbEntity
  8
寸法
 62
     0
 48
50.0
370
    -2
100
AcDbLine
 10
12178.29996814195
 20
4857.931598713261
 30
0.0
 11
12828.22712611408
 21
4857.931598713261
 31
0.0
  0
LINE
  5
1A286
330
19A31
100
AcDbEntity
  8
寸法
 62
     0
 48
50.0
370
    -2
100
AcDbLine
 10
12768.22712611408
 20
2537.931598713262
 30
0.0
 11
12768.22712611408
 21
4857.931598713261
 31
0.0
  0
INSERT
  5
1A287
330
19A31
100
AcDbEntity
  8
寸法
 62
     0
 48
50.0
370
    -2
100
AcDbBlockReference
  2
_DOTSMALL
 10
12768.22712611408
 20
2537.931598713262
 30
0.0
 41
100.0
 42
100.0
 43
100.0
 50
270.0
  0
INSERT
  5
1A288
330
19A31
100
AcDbEntity
  8
寸法
 62
     0
 48
50.0
370
    -2
100
AcDbBlockReference
  2
_DOTSMALL
 10
12768.22712611408
 20
4857.931598713261
 30
0.0
 41
100.0
 42
100.0
 43
100.0
 50
90.0
  0
MTEXT
  5
1A289
330
19A31
100
AcDbEntity
  8
寸法
 62
     7
 48
50.0
100
AcDbMText
 10
12668.21531509046
 20
3697.931598713262
 30
0.0
 40
120.0
 41
0.0
 71
     5
 72
     1
  1
\A1;2320
  7
STYLE1
 11
0.0000000000000001
 21
1.0
 31
0.0
 73
     1
 44
1.0
1001
ACAD
1000
MTEXTBEGIN
1070
    73
1070
     1
1070
    44
1040
1.0
1070
    74
1070
     0
1000
MTEXTEND
  0
POINT
  5
1A28A
330
19A31
100
AcDbEntity
  8
DEFPOINTS
 62
     0
 48
50.0
100
AcDbPoint
 10
12063.29996814195
 20
2537.931598713262
 30
0.0
  0
POINT
  5
1A28B
330
19A31
100
AcDbEntity
  8
DEFPOINTS
 62
     0
 48
50.0
100
AcDbPoint
 10
12158.29996814195
 20
4857.931598713261
 30
0.0
  0
POINT
  5
1A28C
330
19A31
100
AcDbEntity
  8
DEFPOINTS
 62
     0
 48
50.0
100
AcDbPoint
 10
12768.22712611408
 20
4857.931598713261
 30
0.0
  0
ENDBLK
  5
19A3C
330
19A31
100
AcDbEntity
  8
0
 48
50.0
100
AcDbBlockEnd
  0
BLOCK
  5
19A5F
330
19A55
100
AcDbEntity
  8
0
 48
50.0
100
AcDbBlockBegin
  2
*D23
 70
     1
 10
0.0
 20
0.0
 30
0.0
  3
*D23
  1

  0
LINE
  5
19DCE
330
19A55
100
AcDbEntity
  8
寸法
 62
     0
 48
50.0
370
    -2
100
AcDbLine
 10
9833.299968141957
 20
4677.931598713261
 30
0.0
 11
8949.5498389587
 21
4677.931598713261
 31
0.0
  0
LINE
  5
19DCF
330
19A55
100
AcDbEntity
  8
寸法
 62
     0
 48
50.0
370
    -2
100
AcDbLine
 10
9833.299968141957
 20
2587.931598713262
 30
0.0
 11
8949.549838958697
 21
2587.931598713263
 31
0.0
  0
LINE
  5
19DD0
330
19A55
100
AcDbEntity
  8
寸法
 62
     0
 48
50.0
370
    -2
100
AcDbLine
 10
9009.549838958699
 20
4677.931598713261
 30
0.0
 11
9009.549838958697
 21
2587.931598713263
 31
0.0
  0
INSERT
  5
19DD1
330
19A55
100
AcDbEntity
  8
寸法
 62
     0
 48
50.0
370
    -2
100
AcDbBlockReference
  2
_DOTSMALL
 10
9009.549838958699
 20
4677.931598713261
 30
0.0
 41
100.0
 42
100.0
 43
100.0
 50
90.0
  0
INSERT
  5
19DD2
330
19A55
100
AcDbEntity
  8
寸法
 62
     0
 48
50.0
370
    -2
100
AcDbBlockReference
  2
_DOTSMALL
 10
9009.549838958697
 20
2587.931598713263
 30
0.0
 41
100.0
 42
100.0
 43
100.0
 50
270.0
  0
MTEXT
  5
19DD3
330
19A55
100
AcDbEntity
  8
寸法
 62
     7
 48
50.0
100
AcDbMText
 10
8909.538027935075
 20
3632.931598713263
 30
0.0
 40
120.0
 41
0.0
 71
     5
 72
     1
  1
\A1;2090
  7
STYLE1
 11
0.0000000000000001
 21
1.0
 31
0.0
 73
     1
 44
1.0
1001
ACAD
1000
MTEXTBEGIN
1070
    73
1070
     1
1070
    44
1040
1.0
1070
    74
1070
     0
1000
MTEXTEND
  0
POINT
  5
19DD4
330
19A55
100
AcDbEntity
  8
DEFPOINTS
 62
     0
 48
50.0
100
AcDbPoint
 10
9853.299968141957
 20
4677.931598713261
 30
0.0
  0
POINT
  5
19DD5
330
19A55
100
AcDbEntity
  8
DEFPOINTS
 62
     0
 48
50.0
100
AcDbPoint
 10
9853.299968141957
 20
2587.931598713262
 30
0.0
  0
POINT
  5
19DD6
330
19A55
100
AcDbEntity
  8
DEFPOINTS
 62
     0
 48
50.0
100
AcDbPoint
 10
9009.549838958697
 20
2587.931598713263
 30
0.0
  0
ENDBLK
  5
19A60
330
19A55
100
AcDbEntity
  8
0
 48
50.0
100
AcDbBlockEnd
  0
BLOCK
  5
19A6C
330
19A61
100
AcDbEntity
  8
0
 48
50.0
100
AcDbBlockBegin
  2
*D24
 70
     1
 10
0.0
 20
0.0
 30
0.0
  3
*D24
  1

  0
LINE
  5
19DF2
330
19A61
100
AcDbEntity
  8
寸法
 62
     0
 48
50.0
370
    -2
100
AcDbLine
 10
9778.299968141958
 20
2537.931598713262
 30
0.0
 11
8649.549838958696
 21
2537.931598713262
 31
0.0
  0
LINE
  5
19DF3
330
19A61
100
AcDbEntity
  8
寸法
 62
     0
 48
50.0
370
    -2
100
AcDbLine
 10
8776.798892246825
 20
2437.931598713262
 30
0.0
 11
8649.549838958696
 21
2437.931598713262
 31
0.0
  0
LINE
  5
19DF4
330
19A61
100
AcDbEntity
  8
寸法
 62
     0
 48
50.0
370
    -2
100
AcDbLine
 10
8709.549838958698
 20
2537.931598713262
 30
0.0
 11
8709.549838958698
 21
2437.931598713262
 31
0.0
  0
LINE
  5
19DF5
330
19A61
100
AcDbEntity
  8
寸法
 62
     0
 48
50.0
370
    -2
100
AcDbLine
 10
8709.549838958698
 20
2437.931598713262
 30
0.0
 11
8709.549838958698
 21
1886.884354618772
 31
0.0
  0
INSERT
  5
19DF6
330
19A61
100
AcDbEntity
  8
寸法
 62
     0
 48
50.0
370
    -2
100
AcDbBlockReference
  2
_DOTSMALL
 10
8709.549838958698
 20
2537.931598713262
 30
0.0
 41
100.0
 42
100.0
 43
100.0
 50
90.0
  0
INSERT
  5
19DF7
330
19A61
100
AcDbEntity
  8
寸法
 62
     0
 48
50.0
370
    -2
100
AcDbBlockReference
  2
_DOTSMALL
 10
8709.549838958698
 20
2437.931598713262
 30
0.0
 41
100.0
 42
100.0
 43
100.0
 50
270.0
  0
MTEXT
  5
19DF8
330
19A61
100
AcDbEntity
  8
寸法
 62
     7
 48
50.0
100
AcDbMText
 10
8609.549838958697
 20
2022.931598713262
 30
0.0
 40
120.0
 41
0.0
 71
     5
 72
     1
  1
\A1;100
  7
STYLE1
 11
0.0000000000000001
 21
1.0
 31
0.0
 73
     1
 44
1.0
1001
ACAD
1000
MTEXTBEGIN
1070
    73
1070
     1
1070
    44
1040
1.0
1070
    74
1070
     0
1000
MTEXTEND
  0
POINT
  5
19DF9
330
19A61
100
AcDbEntity
  8
DEFPOINTS
 62
     0
 48
50.0
100
AcDbPoint
 10
9798.299968141957
 20
2537.931598713262
 30
0.0
  0
POINT
  5
19DFA
330
19A61
100
AcDbEntity
  8
DEFPOINTS
 62
     0
 48
50.0
100
AcDbPoint
 10
8796.798892246824
 20
2437.931598713262
 30
0.0
  0
POINT
  5
19DFB
330
19A61
100
AcDbEntity
  8
DEFPOINTS
 62
     0
 48
50.0
100
AcDbPoint
 10
8709.549838958698
 20
2437.931598713262
 30
0.0
  0
ENDBLK
  5
19A6D
330
19A61
100
AcDbEntity
  8
0
 48
50.0
100
AcDbBlockEnd
  0
BLOCK
  5
19A7A
330
19A6E
100
AcDbEntity
  8
0
 48
50.0
100
AcDbBlockBegin
  2
*D25
 70
     1
 10
0.0
 20
0.0
 30
0.0
  3
*D25
  1

  0
LINE
  5
19DC3
330
19A6E
100
AcDbEntity
  8
寸法
 62
     0
 48
50.0
370
    -2
100
AcDbLine
 10
9833.299968141957
 20
2587.931598713262
 30
0.0
 11
8949.549838958697
 21
2587.931598713263
 31
0.0
  0
LINE
  5
19DC4
330
19A6E
100
AcDbEntity
  8
寸法
 62
     0
 48
50.0
370
    -2
100
AcDbLine
 10
9778.299968141958
 20
2537.931598713262
 30
0.0
 11
8949.549838958697
 21
2537.931598713262
 31
0.0
  0
LINE
  5
19DC5
330
19A6E
100
AcDbEntity
  8
寸法
 62
     0
 48
50.0
370
    -2
100
AcDbLine
 10
9009.549838958697
 20
2587.931598713263
 30
0.0
 11
9009.549838958697
 21
2687.931598713263
 31
0.0
  0
LINE
  5
19DC6
330
19A6E
100
AcDbEntity
  8
寸法
 62
     0
 48
50.0
370
    -2
100
AcDbLine
 10
9009.549838958697
 20
2537.931598713262
 30
0.0
 11
9009.549838958697
 21
2048.134354618772
 31
0.0
  0
LINE
  5
19DC7
330
19A6E
100
AcDbEntity
  8
寸法
 62
     0
 48
50.0
370
    -2
100
AcDbLine
 10
9009.549838958697
 20
2587.931598713263
 30
0.0
 11
9009.549838958697
 21
2537.931598713262
 31
0.0
  0
INSERT
  5
19DC8
330
19A6E
100
AcDbEntity
  8
寸法
 62
     0
 48
50.0
370
    -2
100
AcDbBlockReference
  2
_DOTSMALL
 10
9009.549838958697
 20
2587.931598713263
 30
0.0
 41
100.0
 42
100.0
 43
100.0
 50
270.0
  0
INSERT
  5
19DC9
330
19A6E
100
AcDbEntity
  8
寸法
 62
     0
 48
50.0
370
    -2
100
AcDbBlockReference
  2
_DOTSMALL
 10
9009.549838958697
 20
2537.931598713262
 30
0.0
 41
100.0
 42
100.0
 43
100.0
 50
90.0
  0
MTEXT
  5
19DCA
330
19A6E
100
AcDbEntity
  8
寸法
 62
     7
 48
50.0
100
AcDbMText
 10
8909.549838958698
 20
2154.181598713262
 30
0.0
 40
120.0
 41
0.0
 71
     5
 72
     1
  1
\A1;50
  7
STYLE1
 11
0.0000000000000001
 21
1.0
 31
0.0
 73
     1
 44
1.0
1001
ACAD
1000
MTEXTBEGIN
1070
    73
1070
     1
1070
    44
1040
1.0
1070
    74
1070
     0
1000
MTEXTEND
  0
POINT
  5
19DCB
330
19A6E
100
AcDbEntity
  8
DEFPOINTS
 62
     0
 48
50.0
100
AcDbPoint
 10
9853.299968141957
 20
2587.931598713262
 30
0.0
  0
POINT
  5
19DCC
330
19A6E
100
AcDbEntity
  8
DEFPOINTS
 62
     0
 48
50.0
100
AcDbPoint
 10
9798.299968141957
 20
2537.931598713262
 30
0.0
  0
POINT
  5
19DCD
330
19A6E
100
AcDbEntity
  8
DEFPOINTS
 62
     0
 48
50.0
100
AcDbPoint
 10
9009.549838958697
 20
2537.931598713262
 30
0.0
  0
ENDBLK
  5
19A7B
330
19A6E
100
AcDbEntity
  8
0
 48
50.0
100
AcDbBlockEnd
  0
BLOCK
  5
19ABA
330
19AB0
100
AcDbEntity
  8
0
 48
50.0
100
AcDbBlockBegin
  2
*D26
 70
     1
 10
0.0
 20
0.0
 30
0.0
  3
*D26
  1

  0
LINE
  5
1A560
330
19AB0
100
AcDbEntity
  8
寸法
 62
     0
 48
50.0
370
    -2
100
AcDbLine
 10
12143.29996814195
 20
4877.931598713264
 30
0.0
 11
12143.29996814195
 21
5590.790885966857
 31
0.0
  0
LINE
  5
1A561
330
19AB0
100
AcDbEntity
  8
寸法
 62
     0
 48
50.0
370
    -2
100
AcDbLine
 10
9793.299968141957
 20
4932.931598713267
 30
0.0
 11
9793.299968141957
 21
5590.790885966857
 31
0.0
  0
LINE
  5
1A562
330
19AB0
100
AcDbEntity
  8
寸法
 62
     0
 48
50.0
370
    -2
100
AcDbLine
 10
12143.29996814195
 20
5530.790885966857
 30
0.0
 11
9793.299968141957
 21
5530.790885966857
 31
0.0
  0
INSERT
  5
1A563
330
19AB0
100
AcDbEntity
  8
寸法
 62
     0
 48
50.0
370
    -2
100
AcDbBlockReference
  2
_DOTSMALL
 10
12143.29996814195
 20
5530.790885966857
 30
0.0
 41
100.0
 42
100.0
 43
100.0
  0
INSERT
  5
1A564
330
19AB0
100
AcDbEntity
  8
寸法
 62
     0
 48
50.0
370
    -2
100
AcDbBlockReference
  2
_DOTSMALL
 10
9793.299968141957
 20
5530.790885966857
 30
0.0
 41
100.0
 42
100.0
 43
100.0
 50
180.0
  0
MTEXT
  5
1A565
330
19AB0
100
AcDbEntity
  8
寸法
 62
     7
 48
50.0
100
AcDbMText
 10
10968.29996814195
 20
5630.802696990478
 30
0.0
 40
120.0
 41
0.0
 71
     5
 72
     1
  1
\A1;2350
  7
STYLE1
 73
     1
 44
1.0
1001
ACAD
1000
MTEXTBEGIN
1070
    73
1070
     1
1070
    44
1040
1.0
1070
    74
1070
     0
1000
MTEXTEND
  0
POINT
  5
1A566
330
19AB0
100
AcDbEntity
  8
DEFPOINTS
 62
     0
 48
50.0
100
AcDbPoint
 10
12143.29996814195
 20
4857.931598713263
 30
0.0
  0
POINT
  5
1A567
330
19AB0
100
AcDbEntity
  8
DEFPOINTS
 62
     0
 48
50.0
100
AcDbPoint
 10
9793.299968141957
 20
4912.931598713267
 30
0.0
  0
POINT
  5
1A568
330
19AB0
100
AcDbEntity
  8
DEFPOINTS
 62
     0
 48
50.0
100
AcDbPoint
 10
9793.299968141957
 20
5530.790885966857
 30
0.0
  0
ENDBLK
  5
19ABB
330
19AB0
100
AcDbEntity
  8
0
 48
50.0
100
AcDbBlockEnd
  0
BLOCK
  5
19AC6
330
19ABC
100
AcDbEntity
  8
0
 48
50.0
100
AcDbBlockBegin
  2
*D27
 70
     1
 10
0.0
 20
0.0
 30
0.0
  3
*D27
  1

  0
LINE
  5
1A575
330
19ABC
100
AcDbEntity
  8
寸法
 62
     0
 48
50.0
370
    -2
100
AcDbLine
 10
12063.29996814195
 20
4879.742278324915
 30
0.0
 11
12063.29996814195
 21
5371.589052292566
 31
0.0
  0
LINE
  5
1A576
330
19ABC
100
AcDbEntity
  8
寸法
 62
     0
 48
50.0
370
    -2
100
AcDbLine
 10
9853.299968141955
 20
4928.933216836238
 30
0.0
 11
9853.299968141955
 21
5371.589052292566
 31
0.0
  0
LINE
  5
1A577
330
19ABC
100
AcDbEntity
  8
寸法
 62
     0
 48
50.0
370
    -2
100
AcDbLine
 10
12063.29996814195
 20
5311.589052292566
 30
0.0
 11
9853.299968141955
 21
5311.589052292566
 31
0.0
  0
INSERT
  5
1A578
330
19ABC
100
AcDbEntity
  8
寸法
 62
     0
 48
50.0
370
    -2
100
AcDbBlockReference
  2
_DOTSMALL
 10
12063.29996814195
 20
5311.589052292566
 30
0.0
 41
100.0
 42
100.0
 43
100.0
  0
INSERT
  5
1A579
330
19ABC
100
AcDbEntity
  8
寸法
 62
     0
 48
50.0
370
    -2
100
AcDbBlockReference
  2
_DOTSMALL
 10
9853.299968141955
 20
5311.589052292566
 30
0.0
 41
100.0
 42
100.0
 43
100.0
 50
180.0
  0
MTEXT
  5
1A57A
330
19ABC
100
AcDbEntity
  8
寸法
 62
     7
 48
50.0
100
AcDbMText
 10
10958.29996814195
 20
5411.600863316188
 30
0.0
 40
120.0
 41
0.0
 71
     5
 72
     1
  1
\A1;柱外寸法2210
  7
STYLE1
 73
     1
 44
1.0
1001
ACAD
1000
MTEXTBEGIN
1070
    73
1070
     1
1070
    44
1040
1.0
1070
    74
1070
     0
1000
MTEXTEND
  0
POINT
  5
1A57B
330
19ABC
100
AcDbEntity
  8
DEFPOINTS
 62
     0
 48
50.0
100
AcDbPoint
 10
12063.29996814195
 20
4859.742278324915
 30
0.0
  0
POINT
  5
1A57C
330
19ABC
100
AcDbEntity
  8
DEFPOINTS
 62
     0
 48
50.0
100
AcDbPoint
 10
9853.299968141955
 20
4908.933216836238
 30
0.0
  0
POINT
  5
1A57D
330
19ABC
100
AcDbEntity
  8
DEFPOINTS
 62
     0
 48
50.0
100
AcDbPoint
 10
9853.299968141955
 20
5311.589052292566
 30
0.0
  0
ENDBLK
  5
19AC7
330
19ABC
100
AcDbEntity
  8
0
 48
50.0
100
AcDbBlockEnd
  0
BLOCK
  5
19AD4
330
19AC8
100
AcDbEntity
  8
0
 48
50.0
100
AcDbBlockBegin
  2
*D28
 70
     1
 10
0.0
 20
0.0
 30
0.0
  3
*D28
  1

  0
LINE
  5
19DA6
330
19AC8
100
AcDbEntity
  8
寸法
 62
     0
 48
50.0
370
    -2
100
AcDbLine
 10
9853.299968141955
 20
4928.933216836238
 30
0.0
 11
9853.299968141955
 21
5371.589052292566
 31
0.0
  0
LINE
  5
19DA7
330
19AC8
100
AcDbEntity
  8
寸法
 62
     0
 48
50.0
370
    -2
100
AcDbLine
 10
9793.299968141957
 20
4932.931598713267
 30
0.0
 11
9793.299968141957
 21
5371.589052292566
 31
0.0
  0
LINE
  5
19DA8
330
19AC8
100
AcDbEntity
  8
寸法
 62
     0
 48
50.0
370
    -2
100
AcDbLine
 10
9853.299968141955
 20
5311.589052292566
 30
0.0
 11
9953.299968141955
 21
5311.589052292566
 31
0.0
  0
LINE
  5
19DA9
330
19AC8
100
AcDbEntity
  8
寸法
 62
     0
 48
50.0
370
    -2
100
AcDbLine
 10
9793.299968141957
 20
5311.589052292566
 30
0.0
 11
9374.024377590775
 21
5311.589052292566
 31
0.0
  0
LINE
  5
19DAA
330
19AC8
100
AcDbEntity
  8
寸法
 62
     0
 48
50.0
370
    -2
100
AcDbLine
 10
9853.299968141955
 20
5311.589052292566
 30
0.0
 11
9793.299968141957
 21
5311.589052292566
 31
0.0
  0
INSERT
  5
19DAB
330
19AC8
100
AcDbEntity
  8
寸法
 62
     0
 48
50.0
370
    -2
100
AcDbBlockReference
  2
_DOTSMALL
 10
9853.299968141955
 20
5311.589052292566
 30
0.0
 41
100.0
 42
100.0
 43
100.0
 50
180.0
  0
INSERT
  5
19DAC
330
19AC8
100
AcDbEntity
  8
寸法
 62
     0
 48
50.0
370
    -2
100
AcDbBlockReference
  2
_DOTSMALL
 10
9793.299968141957
 20
5311.589052292566
 30
0.0
 41
100.0
 42
100.0
 43
100.0
  0
MTEXT
  5
19DAD
330
19AC8
100
AcDbEntity
  8
寸法
 62
     7
 48
50.0
100
AcDbMText
 10
9483.662172866365
 20
5411.589052292566
 30
0.0
 40
120.0
 41
0.0
 71
     5
 72
     1
  1
\A1;60
  7
STYLE1
 73
     1
 44
1.0
1001
ACAD
1000
MTEXTBEGIN
1070
    73
1070
     1
1070
    44
1040
1.0
1070
    74
1070
     0
1000
MTEXTEND
  0
POINT
  5
19DAE
330
19AC8
100
AcDbEntity
  8
DEFPOINTS
 62
     0
 48
50.0
100
AcDbPoint
 10
9853.299968141955
 20
4908.933216836238
 30
0.0
  0
POINT
  5
19DAF
330
19AC8
100
AcDbEntity
  8
DEFPOINTS
 62
     0
 48
50.0
100
AcDbPoint
 10
9793.299968141957
 20
4912.931598713267
 30
0.0
  0
POINT
  5
19DB0
330
19AC8
100
AcDbEntity
  8
DEFPOINTS
 62
     0
 48
50.0
100
AcDbPoint
 10
9793.299968141957
 20
5311.589052292566
 30
0.0
  0
ENDBLK
  5
19AD5
330
19AC8
100
AcDbEntity
  8
0
 48
50.0
100
AcDbBlockEnd
  0
BLOCK
  5
19AE1
330
19AD6
100
AcDbEntity
  8
0
 48
50.0
100
AcDbBlockBegin
  2
*D29
 70
     1
 10
0.0
 20
0.0
 30
0.0
  3
*D29
  1

  0
LINE
  5
19D9C
330
19AD6
100
AcDbEntity
  8
寸法
 62
     0
 48
50.0
370
    -2
100
AcDbLine
 10
9792.704254433058
 20
4912.229305782923
 30
0.0
 11
9176.769815327784
 21
4929.943456057253
 31
0.0
  0
LINE
  5
19D9D
330
19AD6
100
AcDbEntity
  8
寸法
 62
     0
 48
50.0
370
    -2
100
AcDbLine
 10
9788.650798876432
 20
4771.287582017209
 30
0.0
 11
9172.716359771156
 21
4789.001732291539
 31
0.0
  0
LINE
  5
19D9E
330
19AD6
100
AcDbEntity
  8
寸法
 62
     0
 48
50.0
370
    -2
100
AcDbLine
 10
9232.69156137359
 20
4787.276857586592
 30
0.0
 11
9236.745016930216
 21
4928.218581352306
 31
0.0
  0
LINE
  5
19D9F
330
19AD6
100
AcDbEntity
  8
寸法
 62
     0
 48
50.0
370
    -2
100
AcDbLine
 10
9236.745016930216
 20
4928.218581352306
 30
0.0
 11
9247.094265159899
 21
5288.069790966893
 31
0.0
  0
INSERT
  5
19DA0
330
19AD6
100
AcDbEntity
  8
寸法
 62
     0
 48
50.0
370
    -2
100
AcDbBlockReference
  2
_DOTSMALL
 10
9232.69156137359
 20
4787.276857586592
 30
0.0
 41
100.0
 42
100.0
 43
100.0
 50
268.3526390256378
  0
INSERT
  5
19DA1
330
19AD6
100
AcDbEntity
  8
寸法
 62
     0
 48
50.0
370
    -2
100
AcDbBlockReference
  2
_DOTSMALL
 10
9236.745016930216
 20
4928.218581352306
 30
0.0
 41
100.0
 42
100.0
 43
100.0
 50
88.35263902563776
  0
MTEXT
  5
19DA2
330
19AD6
100
AcDbEntity
  8
寸法
 62
     7
 48
50.0
100
AcDbMText
 10
9143.398367295127
 20
5160.998312003204
 30
0.0
 40
120.0
 41
0.0
 71
     5
 72
     1
  1
\A1;141
  7
STYLE1
 11
0.0287479117491237
 21
0.9995866933738488
 31
0.0
 73
     1
 44
1.0
1001
ACAD
1000
MTEXTBEGIN
1070
    73
1070
     1
1070
    44
1040
1.0
1070
    74
1070
     0
1000
MTEXTEND
  0
POINT
  5
19DA3
330
19AD6
100
AcDbEntity
  8
DEFPOINTS
 62
     0
 48
50.0
100
AcDbPoint
 10
9812.695988300536
 20
4911.654347547941
 30
0.0
  0
POINT
  5
19DA4
330
19AD6
100
AcDbEntity
  8
DEFPOINTS
 62
     0
 48
50.0
100
AcDbPoint
 10
9808.64253274391
 20
4770.712623782228
 30
0.0
  0
POINT
  5
19DA5
330
19AD6
100
AcDbEntity
  8
DEFPOINTS
 62
     0
 48
50.0
100
AcDbPoint
 10
9232.69156137359
 20
4787.276857586592
 30
0.0
  0
ENDBLK
  5
19AE2
330
19AD6
100
AcDbEntity
  8
0
 48
50.0
100
AcDbBlockEnd
  0
BLOCK
  5
19AEE
330
19AE3
100
AcDbEntity
  8
0
 48
50.0
100
AcDbBlockBegin
  2
*D30
 70
     1
 10
0.0
 20
0.0
 30
0.0
  3
*D30
  1

  0
LINE
  5
19D92
330
19AE3
100
AcDbEntity
  8
寸法
 62
     0
 48
50.0
370
    -2
100
AcDbLine
 10
12063.29996814195
 20
4879.742278324915
 30
0.0
 11
12063.29996814195
 21
5371.589052292566
 31
0.0
  0
LINE
  5
19D93
330
19AE3
100
AcDbEntity
  8
寸法
 62
     0
 48
50.0
370
    -2
100
AcDbLine
 10
12143.29996814195
 20
4877.931598713264
 30
0.0
 11
12143.29996814195
 21
5371.589052292566
 31
0.0
  0
LINE
  5
19D94
330
19AE3
100
AcDbEntity
  8
寸法
 62
     0
 48
50.0
370
    -2
100
AcDbLine
 10
12063.29996814195
 20
5311.589052292566
 30
0.0
 11
12143.29996814195
 21
5311.589052292566
 31
0.0
  0
LINE
  5
19D95
330
19AE3
100
AcDbEntity
  8
寸法
 62
     0
 48
50.0
370
    -2
100
AcDbLine
 10
12143.29996814195
 20
5311.589052292566
 30
0.0
 11
12455.39445633093
 21
5311.589052292566
 31
0.0
  0
INSERT
  5
19D96
330
19AE3
100
AcDbEntity
  8
寸法
 62
     0
 48
50.0
370
    -2
100
AcDbBlockReference
  2
_DOTSMALL
 10
12063.29996814195
 20
5311.589052292566
 30
0.0
 41
100.0
 42
100.0
 43
100.0
 50
180.0
  0
INSERT
  5
19D97
330
19AE3
100
AcDbEntity
  8
寸法
 62
     0
 48
50.0
370
    -2
100
AcDbBlockReference
  2
_DOTSMALL
 10
12143.29996814195
 20
5311.589052292566
 30
0.0
 41
100.0
 42
100.0
 43
100.0
  0
MTEXT
  5
19D98
330
19AE3
100
AcDbEntity
  8
寸法
 62
     7
 48
50.0
100
AcDbMText
 10
12349.34721223644
 20
5411.589052292566
 30
0.0
 40
120.0
 41
0.0
 71
     5
 72
     1
  1
\A1;80
  7
STYLE1
 73
     1
 44
1.0
1001
ACAD
1000
MTEXTBEGIN
1070
    73
1070
     1
1070
    44
1040
1.0
1070
    74
1070
     0
1000
MTEXTEND
  0
POINT
  5
19D99
330
19AE3
100
AcDbEntity
  8
DEFPOINTS
 62
     0
 48
50.0
100
AcDbPoint
 10
12063.29996814195
 20
4859.742278324915
 30
0.0
  0
POINT
  5
19D9A
330
19AE3
100
AcDbEntity
  8
DEFPOINTS
 62
     0
 48
50.0
100
AcDbPoint
 10
12143.29996814195
 20
4857.931598713263
 30
0.0
  0
POINT
  5
19D9B
330
19AE3
100
AcDbEntity
  8
DEFPOINTS
 62
     0
 48
50.0
100
AcDbPoint
 10
12143.29996814195
 20
5311.589052292566
 30
0.0
  0
ENDBLK
  5
19AEF
330
19AE3
100
AcDbEntity
  8
0
 48
50.0
100
AcDbBlockEnd
  0
BLOCK
  5
19AFA
330
19AF0
100
AcDbEntity
  8
0
 48
50.0
100
AcDbBlockBegin
  2
*D31
 70
     1
 10
0.0
 20
0.0
 30
0.0
  3
*D31
  1

  0
LINE
  5
19D89
330
19AF0
100
AcDbEntity
  8
寸法
 62
     0
 48
50.0
370
    -2
100
AcDbLine
 10
9833.299968141959
 20
2537.931598713262
 30
0.0
 11
8649.549838958696
 21
2537.931598713262
 31
0.0
  0
LINE
  5
19D8A
330
19AF0
100
AcDbEntity
  8
寸法
 62
     0
 48
50.0
370
    -2
100
AcDbLine
 10
9773.299968141959
 20
4912.931598713267
 30
0.0
 11
8649.5498389587
 21
4912.931598713267
 31
0.0
  0
LINE
  5
19D8B
330
19AF0
100
AcDbEntity
  8
寸法
 62
     0
 48
50.0
370
    -2
100
AcDbLine
 10
8709.549838958698
 20
2537.931598713262
 30
0.0
 11
8709.549838958698
 21
4912.931598713267
 31
0.0
  0
INSERT
  5
19D8C
330
19AF0
100
AcDbEntity
  8
寸法
 62
     0
 48
50.0
370
    -2
100
AcDbBlockReference
  2
_DOTSMALL
 10
8709.549838958698
 20
2537.931598713262
 30
0.0
 41
100.0
 42
100.0
 43
100.0
 50
270.0
  0
INSERT
  5
19D8D
330
19AF0
100
AcDbEntity
  8
寸法
 62
     0
 48
50.0
370
    -2
100
AcDbBlockReference
  2
_DOTSMALL
 10
8709.549838958698
 20
4912.931598713267
 30
0.0
 41
100.0
 42
100.0
 43
100.0
 50
90.0
  0
MTEXT
  5
19D8E
330
19AF0
100
AcDbEntity
  8
寸法
 62
     7
 48
50.0
100
AcDbMText
 10
8609.538027935077
 20
3725.431598713266
 30
0.0
 40
120.0
 41
0.0
 71
     5
 72
     1
  1
\A1;2375
  7
STYLE1
 11
0.0000000000000001
 21
1.0
 31
0.0
 73
     1
 44
1.0
1001
ACAD
1000
MTEXTBEGIN
1070
    73
1070
     1
1070
    44
1040
1.0
1070
    74
1070
     0
1000
MTEXTEND
  0
POINT
  5
19D8F
330
19AF0
100
AcDbEntity
  8
DEFPOINTS
 62
     0
 48
50.0
100
AcDbPoint
 10
9853.299968141961
 20
2537.931598713262
 30
0.0
  0
POINT
  5
19D90
330
19AF0
100
AcDbEntity
  8
DEFPOINTS
 62
     0
 48
50.0
100
AcDbPoint
 10
9793.299968141958
 20
4912.931598713267
 30
0.0
  0
POINT
  5
19D91
330
19AF0
100
AcDbEntity
  8
DEFPOINTS
 62
     0
 48
50.0
100
AcDbPoint
 10
8709.549838958698
 20
4912.931598713267
 30
0.0
  0
ENDBLK
  5
19AFB
330
19AF0
100
AcDbEntity
  8
0
 48
50.0
100
AcDbBlockEnd
  0
BLOCK
  5
19E4F
330
19E45
100
AcDbEntity
  8
0
 48
50.0
100
AcDbBlockBegin
  2
*D32
 70
     1
 10
0.0
 20
0.0
 30
0.0
  3
*D32
  1

  0
LINE
  5
19EFD
330
19E45
100
AcDbEntity
  8
寸法
 62
     0
 48
50.0
370
    -2
100
AcDbLine
 10
4289.582777791753
 20
4932.931598713267
 30
0.0
 11
4289.582777791753
 21
5578.566791659262
 31
0.0
  0
LINE
  5
19EFE
330
19E45
100
AcDbEntity
  8
寸法
 62
     0
 48
50.0
370
    -2
100
AcDbLine
 10
7129.582777791751
 20
4932.931598713265
 30
0.0
 11
7129.582777791751
 21
5578.566791659262
 31
0.0
  0
LINE
  5
19EFF
330
19E45
100
AcDbEntity
  8
寸法
 62
     0
 48
50.0
370
    -2
100
AcDbLine
 10
4289.582777791753
 20
5518.566791659261
 30
0.0
 11
7129.582777791751
 21
5518.566791659261
 31
0.0
  0
INSERT
  5
19F00
330
19E45
100
AcDbEntity
  8
寸法
 62
     0
 48
50.0
370
    -2
100
AcDbBlockReference
  2
_DOTSMALL
 10
4289.582777791753
 20
5518.566791659261
 30
0.0
 41
100.0
 42
100.0
 43
100.0
 50
180.0
  0
INSERT
  5
19F01
330
19E45
100
AcDbEntity
  8
寸法
 62
     0
 48
50.0
370
    -2
100
AcDbBlockReference
  2
_DOTSMALL
 10
7129.582777791751
 20
5518.566791659261
 30
0.0
 41
100.0
 42
100.0
 43
100.0
  0
MTEXT
  5
19F02
330
19E45
100
AcDbEntity
  8
寸法
 62
     7
 48
50.0
100
AcDbMText
 10
5709.582777791752
 20
5618.578602682883
 30
0.0
 40
120.0
 41
0.0
 71
     5
 72
     1
  1
\A1;2840
  7
STYLE1
 73
     1
 44
1.0
1001
ACAD
1000
MTEXTBEGIN
1070
    73
1070
     1
1070
    44
1040
1.0
1070
    74
1070
     0
1000
MTEXTEND
  0
POINT
  5
19F03
330
19E45
100
AcDbEntity
  8
DEFPOINTS
 62
     0
 48
50.0
100
AcDbPoint
 10
4289.582777791753
 20
4912.931598713267
 30
0.0
  0
POINT
  5
19F04
330
19E45
100
AcDbEntity
  8
DEFPOINTS
 62
     0
 48
50.0
100
AcDbPoint
 10
7129.582777791751
 20
4912.931598713265
 30
0.0
  0
POINT
  5
19F05
330
19E45
100
AcDbEntity
  8
DEFPOINTS
 62
     0
 48
50.0
100
AcDbPoint
 10
7129.582777791751
 20
5518.566791659261
 30
0.0
  0
ENDBLK
  5
19E50
330
19E45
100
AcDbEntity
  8
0
 48
50.0
100
AcDbBlockEnd
  0
BLOCK
  5
19E5D
330
19E51
100
AcDbEntity
  8
0
 48
50.0
100
AcDbBlockBegin
  2
*D33
 70
     1
 10
0.0
 20
0.0
 30
0.0
  3
*D33
  1

  0
LINE
  5
19F06
330
19E51
100
AcDbEntity
  8
寸法
 62
     0
 48
50.0
370
    -2
100
AcDbLine
 10
7129.582777791751
 20
4932.931598713265
 30
0.0
 11
7129.582777791751
 21
5378.657870445172
 31
0.0
  0
LINE
  5
19F07
330
19E51
100
AcDbEntity
  8
寸法
 62
     0
 48
50.0
370
    -2
100
AcDbLine
 10
7079.582777791753
 20
4932.931598713268
 30
0.0
 11
7079.582777791753
 21
5378.657870445172
 31
0.0
  0
LINE
  5
19F08
330
19E51
100
AcDbEntity
  8
寸法
 62
     0
 48
50.0
370
    -2
100
AcDbLine
 10
7079.582777791753
 20
5318.657870445172
 30
0.0
 11
6979.582777791754
 21
5318.657870445172
 31
0.0
  0
LINE
  5
19F09
330
19E51
100
AcDbEntity
  8
寸法
 62
     0
 48
50.0
370
    -2
100
AcDbLine
 10
7129.582777791751
 20
5318.657870445172
 30
0.0
 11
7549.115303260477
 21
5318.657870445172
 31
0.0
  0
LINE
  5
19F0A
330
19E51
100
AcDbEntity
  8
寸法
 62
     0
 48
50.0
370
    -2
100
AcDbLine
 10
7079.582777791753
 20
5318.657870445172
 30
0.0
 11
7129.582777791751
 21
5318.657870445172
 31
0.0
  0
INSERT
  5
19F0B
330
19E51
100
AcDbEntity
  8
寸法
 62
     0
 48
50.0
370
    -2
100
AcDbBlockReference
  2
_DOTSMALL
 10
7079.582777791753
 20
5318.657870445172
 30
0.0
 41
100.0
 42
100.0
 43
100.0
  0
INSERT
  5
19F0C
330
19E51
100
AcDbEntity
  8
寸法
 62
     0
 48
50.0
370
    -2
100
AcDbBlockReference
  2
_DOTSMALL
 10
7129.582777791751
 20
5318.657870445172
 30
0.0
 41
100.0
 42
100.0
 43
100.0
 50
180.0
  0
MTEXT
  5
19F0D
330
19E51
100
AcDbEntity
  8
寸法
 62
     7
 48
50.0
100
AcDbMText
 10
7443.068059165989
 20
5418.657870445173
 30
0.0
 40
120.0
 41
0.0
 71
     5
 72
     1
  1
\A1;50
  7
STYLE1
 73
     1
 44
1.0
1001
ACAD
1000
MTEXTBEGIN
1070
    73
1070
     1
1070
    44
1040
1.0
1070
    74
1070
     0
1000
MTEXTEND
  0
POINT
  5
19F0E
330
19E51
100
AcDbEntity
  8
DEFPOINTS
 62
     0
 48
50.0
100
AcDbPoint
 10
7129.582777791751
 20
4912.931598713265
 30
0.0
  0
POINT
  5
19F0F
330
19E51
100
AcDbEntity
  8
DEFPOINTS
 62
     0
 48
50.0
100
AcDbPoint
 10
7079.582777791753
 20
4912.931598713267
 30
0.0
  0
POINT
  5
19F10
330
19E51
100
AcDbEntity
  8
DEFPOINTS
 62
     0
 48
50.0
100
AcDbPoint
 10
7079.582777791753
 20
5318.657870445172
 30
0.0
  0
ENDBLK
  5
19E5E
330
19E51
100
AcDbEntity
  8
0
 48
50.0
100
AcDbBlockEnd
  0
BLOCK
  5
19E6B
330
19E5F
100
AcDbEntity
  8
0
 48
50.0
100
AcDbBlockBegin
  2
*D34
 70
     1
 10
0.0
 20
0.0
 30
0.0
  3
*D34
  1

  0
LINE
  5
19F11
330
19E5F
100
AcDbEntity
  8
寸法
 62
     0
 48
50.0
370
    -2
100
AcDbLine
 10
4339.582777791753
 20
4932.931598713268
 30
0.0
 11
4339.582777791753
 21
5378.657870445171
 31
0.0
  0
LINE
  5
19F12
330
19E5F
100
AcDbEntity
  8
寸法
 62
     0
 48
50.0
370
    -2
100
AcDbLine
 10
4289.582777791753
 20
4932.931598713267
 30
0.0
 11
4289.582777791753
 21
5378.657870445171
 31
0.0
  0
LINE
  5
19F13
330
19E5F
100
AcDbEntity
  8
寸法
 62
     0
 48
50.0
370
    -2
100
AcDbLine
 10
4339.582777791753
 20
5318.657870445171
 30
0.0
 11
4439.582777791753
 21
5318.657870445171
 31
0.0
  0
LINE
  5
19F14
330
19E5F
100
AcDbEntity
  8
寸法
 62
     0
 48
50.0
370
    -2
100
AcDbLine
 10
4289.582777791753
 20
5318.657870445171
 30
0.0
 11
3870.050252323018
 21
5318.657870445171
 31
0.0
  0
LINE
  5
19F15
330
19E5F
100
AcDbEntity
  8
寸法
 62
     0
 48
50.0
370
    -2
100
AcDbLine
 10
4339.582777791753
 20
5318.657870445171
 30
0.0
 11
4289.582777791753
 21
5318.657870445171
 31
0.0
  0
INSERT
  5
19F16
330
19E5F
100
AcDbEntity
  8
寸法
 62
     0
 48
50.0
370
    -2
100
AcDbBlockReference
  2
_DOTSMALL
 10
4339.582777791753
 20
5318.657870445171
 30
0.0
 41
100.0
 42
100.0
 43
100.0
 50
180.0
  0
INSERT
  5
19F17
330
19E5F
100
AcDbEntity
  8
寸法
 62
     0
 48
50.0
370
    -2
100
AcDbBlockReference
  2
_DOTSMALL
 10
4289.582777791753
 20
5318.657870445171
 30
0.0
 41
100.0
 42
100.0
 43
100.0
  0
MTEXT
  5
19F18
330
19E5F
100
AcDbEntity
  8
寸法
 62
     7
 48
50.0
100
AcDbMText
 10
3976.097496417505
 20
5418.657870445171
 30
0.0
 40
120.0
 41
0.0
 71
     5
 72
     1
  1
\A1;50
  7
STYLE1
 73
     1
 44
1.0
1001
ACAD
1000
MTEXTBEGIN
1070
    73
1070
     1
1070
    44
1040
1.0
1070
    74
1070
     0
1000
MTEXTEND
  0
POINT
  5
19F19
330
19E5F
100
AcDbEntity
  8
DEFPOINTS
 62
     0
 48
50.0
100
AcDbPoint
 10
4339.582777791753
 20
4912.931598713267
 30
0.0
  0
POINT
  5
19F1A
330
19E5F
100
AcDbEntity
  8
DEFPOINTS
 62
     0
 48
50.0
100
AcDbPoint
 10
4289.582777791753
 20
4912.931598713267
 30
0.0
  0
POINT
  5
19F1B
330
19E5F
100
AcDbEntity
  8
DEFPOINTS
 62
     0
 48
50.0
100
AcDbPoint
 10
4289.582777791753
 20
5318.657870445171
 30
0.0
  0
ENDBLK
  5
19E6C
330
19E5F
100
AcDbEntity
  8
0
 48
50.0
100
AcDbBlockEnd
  0
BLOCK
  5
19E77
330
19E6D
100
AcDbEntity
  8
0
 48
50.0
100
AcDbBlockBegin
  2
*D35
 70
     1
 10
0.0
 20
0.0
 30
0.0
  3
*D35
  1

  0
LINE
  5
19F1C
330
19E6D
100
AcDbEntity
  8
寸法
 62
     0
 48
50.0
370
    -2
100
AcDbLine
 10
7079.582777791753
 20
4932.931598713268
 30
0.0
 11
7079.582777791753
 21
5378.657870445171
 31
0.0
  0
LINE
  5
19F1D
330
19E6D
100
AcDbEntity
  8
寸法
 62
     0
 48
50.0
370
    -2
100
AcDbLine
 10
4339.582777791753
 20
4932.931598713268
 30
0.0
 11
4339.582777791753
 21
5378.657870445171
 31
0.0
  0
LINE
  5
19F1E
330
19E6D
100
AcDbEntity
  8
寸法
 62
     0
 48
50.0
370
    -2
100
AcDbLine
 10
7079.582777791753
 20
5318.657870445171
 30
0.0
 11
4339.582777791753
 21
5318.657870445171
 31
0.0
  0
INSERT
  5
19F1F
330
19E6D
100
AcDbEntity
  8
寸法
 62
     0
 48
50.0
370
    -2
100
AcDbBlockReference
  2
_DOTSMALL
 10
7079.582777791753
 20
5318.657870445171
 30
0.0
 41
100.0
 42
100.0
 43
100.0
  0
INSERT
  5
19F20
330
19E6D
100
AcDbEntity
  8
寸法
 62
     0
 48
50.0
370
    -2
100
AcDbBlockReference
  2
_DOTSMALL
 10
4339.582777791753
 20
5318.657870445171
 30
0.0
 41
100.0
 42
100.0
 43
100.0
 50
180.0
  0
MTEXT
  5
19F21
330
19E6D
100
AcDbEntity
  8
寸法
 62
     7
 48
50.0
100
AcDbMText
 10
5709.582777791752
 20
5418.669681468793
 30
0.0
 40
120.0
 41
0.0
 71
     5
 72
     1
  1
\A1;柱外寸法2740
  7
STYLE1
 73
     1
 44
1.0
1001
ACAD
1000
MTEXTBEGIN
1070
    73
1070
     1
1070
    44
1040
1.0
1070
    74
1070
     0
1000
MTEXTEND
  0
POINT
  5
19F22
330
19E6D
100
AcDbEntity
  8
DEFPOINTS
 62
     0
 48
50.0
100
AcDbPoint
 10
7079.582777791753
 20
4912.931598713267
 30
0.0
  0
POINT
  5
19F23
330
19E6D
100
AcDbEntity
  8
DEFPOINTS
 62
     0
 48
50.0
100
AcDbPoint
 10
4339.582777791753
 20
4912.931598713267
 30
0.0
  0
POINT
  5
19F24
330
19E6D
100
AcDbEntity
  8
DEFPOINTS
 62
     0
 48
50.0
100
AcDbPoint
 10
4339.582777791753
 20
5318.657870445171
 30
0.0
  0
ENDBLK
  5
19E78
330
19E6D
100
AcDbEntity
  8
0
 48
50.0
100
AcDbBlockEnd
  0
BLOCK
  5
1A44D
330
1A443
100
AcDbEntity
  8
0
 48
50.0
100
AcDbBlockBegin
  2
*D36
 70
     1
 10
0.0
 20
0.0
 30
0.0
  3
*D36
  1

  0
LINE
  5
1A502
330
1A443
100
AcDbEntity
  8
寸法
 62
     0
 48
50.0
370
    -2
100
AcDbLine
 10
7099.582777791752
 20
2537.931598713262
 30
0.0
 11
7427.125880113499
 21
2537.931598713261
 31
0.0
  0
LINE
  5
1A503
330
1A443
100
AcDbEntity
  8
寸法
 62
     0
 48
50.0
370
    -2
100
AcDbLine
 10
7099.582777791752
 20
4485.931598713261
 30
0.0
 11
7427.125880113499
 21
4485.931598713261
 31
0.0
  0
LINE
  5
1A504
330
1A443
100
AcDbEntity
  8
寸法
 62
     0
 48
50.0
370
    -2
100
AcDbLine
 10
7367.1258801135
 20
2537.931598713261
 30
0.0
 11
7367.1258801135
 21
4485.931598713261
 31
0.0
  0
INSERT
  5
1A505
330
1A443
100
AcDbEntity
  8
寸法
 62
     0
 48
50.0
370
    -2
100
AcDbBlockReference
  2
_DOTSMALL
 10
7367.1258801135
 20
2537.931598713261
 30
0.0
 41
100.0
 42
100.0
 43
100.0
 50
270.0
  0
INSERT
  5
1A506
330
1A443
100
AcDbEntity
  8
寸法
 62
     0
 48
50.0
370
    -2
100
AcDbBlockReference
  2
_DOTSMALL
 10
7367.1258801135
 20
4485.931598713261
 30
0.0
 41
100.0
 42
100.0
 43
100.0
 50
90.0
  0
MTEXT
  5
1A507
330
1A443
100
AcDbEntity
  8
寸法
 62
     7
 48
50.0
100
AcDbMText
 10
7267.125880113498
 20
3511.931598713263
 30
0.0
 40
120.0
 41
0.0
 71
     5
 72
     1
  1
\A1;有効開口部高サ 1948
  7
STYLE1
 11
0.0000000000000001
 21
1.0
 31
0.0
 73
     1
 44
1.0
1001
ACAD
1000
MTEXTBEGIN
1070
    73
1070
     1
1070
    44
1040
1.0
1070
    74
1070
     0
1000
MTEXTEND
  0
POINT
  5
1A508
330
1A443
100
AcDbEntity
  8
DEFPOINTS
 62
     0
 48
50.0
100
AcDbPoint
 10
7079.582777791753
 20
2537.931598713262
 30
0.0
  0
POINT
  5
1A509
330
1A443
100
AcDbEntity
  8
DEFPOINTS
 62
     0
 48
50.0
100
AcDbPoint
 10
7079.582777791753
 20
4485.931598713261
 30
0.0
  0
POINT
  5
1A50A
330
1A443
100
AcDbEntity
  8
DEFPOINTS
 62
     0
 48
50.0
100
AcDbPoint
 10
7367.1258801135
 20
4485.931598713261
 30
0.0
  0
ENDBLK
  5
1A44E
330
1A443
100
AcDbEntity
  8
0
 48
50.0
100
AcDbBlockEnd
  0
BLOCK
  5
1A45B
330
1A44F
100
AcDbEntity
  8
0
 48
50.0
100
AcDbBlockBegin
  2
*D37
 70
     1
 10
0.0
 20
0.0
 30
0.0
  3
*D37
  1

  0
LINE
  5
1A59E
330
1A44F
100
AcDbEntity
  8
寸法
 62
     0
 48
50.0
370
    -2
100
AcDbLine
 10
7099.582777791752
 20
4485.931598713261
 30
0.0
 11
7427.125880113499
 21
4485.931598713261
 31
0.0
  0
LINE
  5
1A59F
330
1A44F
100
AcDbEntity
  8
寸法
 62
     0
 48
50.0
370
    -2
100
AcDbLine
 10
7099.582777791752
 20
4512.931598713262
 30
0.0
 11
7427.125880113499
 21
4512.931598713262
 31
0.0
  0
LINE
  5
1A5A0
330
1A44F
100
AcDbEntity
  8
寸法
 62
     0
 48
50.0
370
    -2
100
AcDbLine
 10
7367.1258801135
 20
4485.931598713261
 30
0.0
 11
7367.1258801135
 21
4385.931598713261
 31
0.0
  0
LINE
  5
1A5A1
330
1A44F
100
AcDbEntity
  8
寸法
 62
     0
 48
50.0
370
    -2
100
AcDbLine
 10
7367.1258801135
 20
4512.931598713262
 30
0.0
 11
7367.1258801135
 21
4612.931598713262
 31
0.0
  0
MTEXT
  5
1A5A2
330
1A44F
100
AcDbEntity
  8
寸法
 62
     7
 48
50.0
100
AcDbMText
 10
7507.295703359865
 20
4513.89879855292
 30
0.0
 40
120.0
 41
0.0
 71
     5
 72
     1
  1
\A1;27
  7
STYLE1
 11
0.0000000000000001
 21
1.0
 31
0.0
 73
     1
 44
1.0
1001
ACAD
1000
MTEXTBEGIN
1070
    73
1070
     1
1070
    44
1040
1.0
1070
    74
1070
     0
1000
MTEXTEND
  0
LINE
  5
1A5A3
330
1A44F
100
AcDbEntity
  8
寸法
 62
     0
 48
50.0
370
    -2
100
AcDbLine
 10
7367.1258801135
 20
4485.931598713261
 30
0.0
 11
7367.1258801135
 21
4512.931598713262
 31
0.0
  0
INSERT
  5
1A5A4
330
1A44F
100
AcDbEntity
  8
寸法
 62
     0
 48
50.0
370
    -2
100
AcDbBlockReference
  2
_DOTSMALL
 10
7367.1258801135
 20
4485.931598713261
 30
0.0
 41
100.0
 42
100.0
 43
100.0
 50
90.0
  0
INSERT
  5
1A5A5
330
1A44F
100
AcDbEntity
  8
寸法
 62
     0
 48
50.0
370
    -2
100
AcDbBlockReference
  2
_DOTSMALL
 10
7367.1258801135
 20
4512.931598713262
 30
0.0
 41
100.0
 42
100.0
 43
100.0
 50
270.0
  0
POINT
  5
1A5A6
330
1A44F
100
AcDbEntity
  8
DEFPOINTS
 62
     0
 48
50.0
100
AcDbPoint
 10
7079.582777791753
 20
4485.931598713261
 30
0.0
  0
POINT
  5
1A5A7
330
1A44F
100
AcDbEntity
  8
DEFPOINTS
 62
     0
 48
50.0
100
AcDbPoint
 10
7079.582777791753
 20
4512.931598713262
 30
0.0
  0
POINT
  5
1A5A8
330
1A44F
100
AcDbEntity
  8
DEFPOINTS
 62
     0
 48
50.0
100
AcDbPoint
 10
7367.1258801135
 20
4512.931598713262
 30
0.0
  0
ENDBLK
  5
1A45C
330
1A44F
100
AcDbEntity
  8
0
 48
50.0
100
AcDbBlockEnd
  0
BLOCK
  5
1A468
330
1A45D
100
AcDbEntity
  8
0
 48
50.0
100
AcDbBlockBegin
  2
*D38
 70
     1
 10
0.0
 20
0.0
 30
0.0
  3
*D38
  1

  0
LINE
  5
1A594
330
1A45D
100
AcDbEntity
  8
寸法
 62
     0
 48
50.0
370
    -2
100
AcDbLine
 10
7099.582777791752
 20
4512.931598713262
 30
0.0
 11
7427.1258801135
 21
4512.931598713262
 31
0.0
  0
LINE
  5
1A595
330
1A45D
100
AcDbEntity
  8
寸法
 62
     0
 48
50.0
370
    -2
100
AcDbLine
 10
7099.582777791752
 20
4677.931598713261
 30
0.0
 11
7427.1258801135
 21
4677.931598713261
 31
0.0
  0
LINE
  5
1A596
330
1A45D
100
AcDbEntity
  8
寸法
 62
     0
 48
50.0
370
    -2
100
AcDbLine
 10
7367.1258801135
 20
4512.931598713262
 30
0.0
 11
7367.1258801135
 21
4677.931598713261
 31
0.0
  0
LINE
  5
1A597
330
1A45D
100
AcDbEntity
  8
寸法
 62
     0
 48
50.0
370
    -2
100
AcDbLine
 10
7367.1258801135
 20
4677.931598713261
 30
0.0
 11
7367.1258801135
 21
5054.902161461739
 31
0.0
  0
INSERT
  5
1A598
330
1A45D
100
AcDbEntity
  8
寸法
 62
     0
 48
50.0
370
    -2
100
AcDbBlockReference
  2
_DOTSMALL
 10
7367.1258801135
 20
4512.931598713262
 30
0.0
 41
100.0
 42
100.0
 43
100.0
 50
270.0
  0
INSERT
  5
1A599
330
1A45D
100
AcDbEntity
  8
寸法
 62
     0
 48
50.0
370
    -2
100
AcDbBlockReference
  2
_DOTSMALL
 10
7367.1258801135
 20
4677.931598713261
 30
0.0
 41
100.0
 42
100.0
 43
100.0
 50
90.0
  0
MTEXT
  5
1A59A
330
1A45D
100
AcDbEntity
  8
寸法
 62
     7
 48
50.0
100
AcDbMText
 10
7267.1258801135
 20
4916.416880087502
 30
0.0
 40
120.0
 41
0.0
 71
     5
 72
     1
  1
\A1;165
  7
STYLE1
 11
0.0000000000000001
 21
1.0
 31
0.0
 73
     1
 44
1.0
1001
ACAD
1000
MTEXTBEGIN
1070
    73
1070
     1
1070
    44
1040
1.0
1070
    74
1070
     0
1000
MTEXTEND
  0
POINT
  5
1A59B
330
1A45D
100
AcDbEntity
  8
DEFPOINTS
 62
     0
 48
50.0
100
AcDbPoint
 10
7079.582777791753
 20
4512.931598713262
 30
0.0
  0
POINT
  5
1A59C
330
1A45D
100
AcDbEntity
  8
DEFPOINTS
 62
     0
 48
50.0
100
AcDbPoint
 10
7079.582777791753
 20
4677.931598713261
 30
0.0
  0
POINT
  5
1A59D
330
1A45D
100
AcDbEntity
  8
DEFPOINTS
 62
     0
 48
50.0
100
AcDbPoint
 10
7367.1258801135
 20
4677.931598713261
 30
0.0
  0
ENDBLK
  5
1A469
330
1A45D
100
AcDbEntity
  8
0
 48
50.0
100
AcDbBlockEnd
  0
ENDSEC
  0
SECTION
  2
ENTITIES
  0
MTEXT
  5
763F
330
747D
100
AcDbEntity
  8
0
100
AcDbMText
 10
302.846345836809
 20
280.1983726409901
 30
0.0
 40
3.5
 41
5.323721266742722
 71
     1
 72
     5
  1

  7
MSMINCHO
 73
     1
 44
1.0
1001
ACAD
1000
MTEXTBEGIN
1070
    73
1070
     1
1070
    44
1040
1.0
1070
    74
1070
     0
1000
MTEXTEND
  0
LINE
  5
10B57
330
747D
100
AcDbEntity
  8
補助
  6
PHANTOM
 62
   230
 48
50.0
100
AcDbLine
 10
139.9999999999995
 20
11409.6
 30
0.0
 11
16307.2
 21
11409.6
 31
0.0
  0
LINE
  5
10B59
330
747D
100
AcDbEntity
  8
仕様書枠
  6
Continuous
 48
50.0
100
AcDbLine
 10
13107.2
 20
1200.0
 30
0.0
 11
13107.2
 21
-0.0000000000000729
 31
0.0
  0
LINE
  5
10B5C
330
747D
100
AcDbEntity
  8
仕様書枠
 48
50.0
100
AcDbLine
 10
16307.2
 20
1200.0
 30
0.0
 11
16307.2
 21
-0.0000000000000909
 31
0.0
  0
LINE
  5
10B5D
330
747D
100
AcDbEntity
  8
仕様書枠
 48
50.0
100
AcDbLine
 10
140.0
 20
0.0
 30
0.0
 11
16307.2
 21
-0.0000000000000909
 31
0.0
  0
LINE
  5
10B5E
330
747D
100
AcDbEntity
  8
補助
  6
PHANTOM
 62
   230
 48
50.0
100
AcDbLine
 10
16307.2
 20
11409.6
 30
0.0
 11
16307.2
 21
1200.0
 31
0.0
  0
LINE
  5
10B6C
330
747D
100
AcDbEntity
  8
仕様書枠
 48
50.0
100
AcDbLine
 10
13107.2
 20
1200.0
 30
0.0
 11
16307.2
 21
1200.0
 31
0.0
  0
LINE
  5
10B6D
330
747D
100
AcDbEntity
  8
補助
  6
PHANTOM
 62
   230
 48
50.0
100
AcDbLine
 10
13107.2
 20
11409.6
 30
0.0
 11
13107.2
 21
4800.0
 31
0.0
  0
LINE
  5
10B6F
330
747D
100
AcDbEntity
  8
補助
  6
PHANTOM
 62
   230
 48
50.0
100
AcDbLine
 10
13107.2
 20
4800.0
 30
0.0
 11
16307.2
 21
4800.0
 31
0.0
  0
LINE
  5
10B72
330
747D
100
AcDbEntity
  8
文字
 62
     7
 48
50.0
100
AcDbLine
 10
13187.2
 20
400.0
 30
0.0
 11
16227.2
 21
400.0
 31
0.0
  0
TEXT
  5
10B73
330
747D
100
AcDbEntity
  8
文字
 62
     7
 48
50.0
100
AcDbText
 10
13162.9790565769
 20
895.0906074299405
 30
0.0
 40
200.0
  1
外 形 図
  7
STYLE2
100
AcDbText
  0
TEXT
  5
10B74
330
747D
100
AcDbEntity
  8
文字
 62
     7
 48
50.0
100
AcDbText
 10
13201.43669998441
 20
477.2740661031255
 30
0.0
 40
160.0
  1
機種名
  7
STYLE2
100
AcDbText
  0
TEXT
  5
10B75
330
747D
100
AcDbEntity
  8
文字
 62
     7
 48
50.0
100
AcDbText
 10
13209.4053442172
 20
228.5435242569016
 30
0.0
 40
100.0
  1
○有効開口寸法 ： 1164×1948(mm)
  7
STYLE2
100
AcDbText
  0
TEXT
  5
10B79
330
747D
100
AcDbEntity
  8
文字
 62
     7
 48
50.0
100
AcDbText
 10
14524.131837222
 20
1031.557706291228
 30
0.0
 40
100.0
  1
NO.05      <縮尺> S=1/40
  7
STYLE2
100
AcDbText
  0
LINE
  5
10B7B
330
747D
100
AcDbEntity
  8
仕様書枠
 48
50.0
100
AcDbLine
 10
13107.2
 20
800.0
 30
0.0
 11
14251.2
 21
800.0
 31
0.0
  0
LINE
  5
10B88
330
747D
100
AcDbEntity
  8
仕様書枠
  6
Continuous
 48
50.0
100
AcDbLine
 10
14251.2
 20
1200.0
 30
0.0
 11
14251.2
 21
800.0
 31
0.0
  0
LINE
  5
127A8
330
747D
100
AcDbEntity
  8
部品1
100
AcDbLine
 10
3350.81318644537
 20
2567.835409280926
 30
0.0
 11
3500.81318644537
 21
2567.835409280926
 31
0.0
  0
LINE
  5
127A9
330
747D
100
AcDbEntity
  8
部品1
100
AcDbLine
 10
3425.81318644537
 20
2437.931598713261
 30
0.0
 11
3350.81318644537
 21
2567.835409280926
 31
0.0
  0
TEXT
  5
127AA
330
747D
100
AcDbEntity
  8
部品1
100
AcDbText
 10
3528.918128570143
 20
2474.038502319163
 30
0.0
 40
125.0
  1
G.L
  7
MSGOTHIC
100
AcDbText
  0
LINE
  5
127AB
330
747D
100
AcDbEntity
  8
部品1
100
AcDbLine
 10
3500.81318644537
 20
2567.835409280926
 30
0.0
 11
3425.81318644537
 21
2437.931598713261
 31
0.0
  0
LINE
  5
13C1F
330
747D
100
AcDbEntity
  8
部品1
100
AcDbLine
 10
4339.582777791753
 20
4771.931598713268
 30
0.0
 11
4339.582777791753
 21
2437.931598713261
 31
0.0
  0
LINE
  5
13CFC
330
747D
100
AcDbEntity
  8
部品1
100
AcDbLine
 10
7024.582777791753
 20
4512.931598713262
 30
0.0
 11
7024.582777791751
 21
2537.931598713262
 31
0.0
  0
LINE
  5
13CFE
330
747D
100
AcDbEntity
  8
部品1
100
AcDbLine
 10
4394.582777791753
 20
4512.931598713262
 30
0.0
 11
4394.582777791753
 21
2537.931598713262
 31
0.0
  0
LINE
  5
13D18
330
747D
100
AcDbEntity
  8
部品1
100
AcDbLine
 10
7079.582777791753
 20
4771.931598713268
 30
0.0
 11
7079.582777791753
 21
2437.931598713261
 31
0.0
  0
LINE
  5
146B2
330
747D
100
AcDbEntity
  8
破線
 48
5.0
100
AcDbLine
 10
7079.582777791753
 20
2437.931598713261
 30
0.0
 11
7079.582777791753
 21
2187.931598713261
 31
0.0
  0
LINE
  5
146B3
330
747D
100
AcDbEntity
  8
破線
 48
5.0
100
AcDbLine
 10
4339.582777791753
 20
2437.931598713261
 30
0.0
 11
4339.582777791751
 21
2187.931598713261
 31
0.0
  0
TEXT
  5
149A1
330
747D
100
AcDbEntity
  8
部品1
100
AcDbText
 10
5418.372848415475
 20
1595.038069494737
 30
0.0
 40
135.0
  1
正面図
  7
MSGOTHIC
100
AcDbText
  0
LWPOLYLINE
  5
149A2
330
747D
100
AcDbEntity
  8
部品1
100
AcDbPolyline
 90
        4
 70
     1
 43
0.0
 10
5327.847444677519
 20
1787.931598713261
 10
5327.847444677519
 20
1548.039277167729
 10
6091.318110905957
 20
1548.039277167729
 10
6091.318110905957
 20
1787.931598713261
  0
TEXT
  5
149A3
330
747D
100
AcDbEntity
  8
部品1
100
AcDbText
 10
10666.01073645134
 20
1595.038069494737
 30
0.0
 40
135.0
  1
側面図
  7
MSGOTHIC
100
AcDbText
  0
LWPOLYLINE
  5
149A4
330
747D
100
AcDbEntity
  8
部品1
100
AcDbPolyline
 90
        4
 70
     1
 43
0.0
 10
10576.56463502774
 20
1787.931598713261
 10
10576.56463502774
 20
1548.039277167729
 10
11340.03530125617
 20
1548.039277167729
 10
11340.03530125617
 20
1787.931598713261
  0
TEXT
  5
14E88
330
747D
100
AcDbEntity
  8
部品1
100
AcDbText
 10
5417.767054506556
 20
6256.381640371876
 30
0.0
 40
135.0
  1
平面図
  7
MSGOTHIC
100
AcDbText
  0
LWPOLYLINE
  5
14E89
330
747D
100
AcDbEntity
  8
部品1
100
AcDbPolyline
 90
        4
 70
     1
 43
0.0
 10
5327.847444677519
 20
6449.275169590399
 10
5327.847444677519
 20
6209.382848044866
 10
6091.318110905958
 20
6209.382848044866
 10
6091.318110905958
 20
6449.275169590399
  0
TEXT
  5
15550
330
747D
100
AcDbEntity
  8
文字
 62
     7
 48
50.0
100
AcDbText
 10
14700.0475972514
 20
871.9640646083623
 30
0.0
 40
100.0
  1
～一般型・多雪地型～
  7
STYLE2
100
AcDbText
  0
LINE
  5
15CE5
330
747D
100
AcDbEntity
  8
破線
 48
5.0
100
AcDbLine
 10
7024.582777791751
 20
2537.931598713262
 30
0.0
 11
7024.582777791753
 21
2187.931598713261
 31
0.0
  0
LINE
  5
15CE6
330
747D
100
AcDbEntity
  8
破線
 48
5.0
100
AcDbLine
 10
4394.582777791753
 20
2537.931598713262
 30
0.0
 11
4394.582777791751
 21
2187.931598713261
 31
0.0
  0
LINE
  5
15CE7
330
747D
100
AcDbEntity
  8
破線
 48
5.0
100
AcDbLine
 10
7079.582777791751
 20
2187.931598713261
 30
0.0
 11
7024.582777791753
 21
2187.931598713261
 31
0.0
  0
LINE
  5
15CE8
330
747D
100
AcDbEntity
  8
破線
 48
5.0
100
AcDbLine
 10
4394.582777791751
 20
2187.931598713269
 30
0.0
 11
4339.582777791751
 21
2187.931598713269
 31
0.0
  0
LINE
  5
15CE9
330
747D
100
AcDbEntity
  8
部品1
100
AcDbLine
 10
4442.582777791753
 20
4512.931598713261
 30
0.0
 11
4442.582777791753
 21
2537.931598713262
 31
0.0
  0
LINE
  5
15CEA
330
747D
100
AcDbEntity
  8
破線
 48
5.0
100
AcDbLine
 10
4442.582777791753
 20
2537.931598713262
 30
0.0
 11
4442.582777791751
 21
2287.931598713267
 31
0.0
  0
LINE
  5
15CEB
330
747D
100
AcDbEntity
  8
部品1
100
AcDbLine
 10
6976.582777791755
 20
4512.931598713262
 30
0.0
 11
6976.582777791751
 21
2537.931598713262
 31
0.0
  0
LINE
  5
15CEC
330
747D
100
AcDbEntity
  8
破線
 48
5.0
100
AcDbLine
 10
6976.582777791751
 20
2537.931598713262
 30
0.0
 11
6976.582777791754
 21
2287.931598713262
 31
0.0
  0
LINE
  5
15CED
330
747D
100
AcDbEntity
  8
破線
 48
5.0
100
AcDbLine
 10
7024.582777791755
 20
2287.931598713262
 30
0.0
 11
6976.582777791754
 21
2287.931598713262
 31
0.0
  0
LINE
  5
15CEE
330
747D
100
AcDbEntity
  8
破線
 48
5.0
100
AcDbLine
 10
4442.582777791751
 20
2287.931598713267
 30
0.0
 11
4394.582777791751
 21
2287.931598713267
 31
0.0
  0
LINE
  5
15D20
330
747D
100
AcDbEntity
  8
細線
100
AcDbLine
 10
5812.58277779175
 20
4172.931598713261
 30
0.0
 11
6976.582777791751
 21
4172.931598713261
 31
0.0
  0
LINE
  5
15D21
330
747D
100
AcDbEntity
  8
細線
100
AcDbLine
 10
5812.58277779175
 20
4237.931598713261
 30
0.0
 11
6976.582777791751
 21
4237.931598713261
 31
0.0
  0
LINE
  5
15D22
330
747D
100
AcDbEntity
  8
細線
100
AcDbLine
 10
5812.58277779175
 20
4302.931598713261
 30
0.0
 11
6976.582777791751
 21
4302.931598713261
 31
0.0
  0
LINE
  5
15D23
330
747D
100
AcDbEntity
  8
細線
100
AcDbLine
 10
5812.58277779175
 20
3782.931598713262
 30
0.0
 11
6976.582777791751
 21
3782.931598713262
 31
0.0
  0
LINE
  5
15D24
330
747D
100
AcDbEntity
  8
細線
100
AcDbLine
 10
5812.58277779175
 20
3847.931598713262
 30
0.0
 11
6976.582777791751
 21
3847.931598713262
 31
0.0
  0
LINE
  5
15D25
330
747D
100
AcDbEntity
  8
細線
100
AcDbLine
 10
5812.58277779175
 20
3912.931598713262
 30
0.0
 11
6976.582777791751
 21
3912.931598713262
 31
0.0
  0
LINE
  5
15D26
330
747D
100
AcDbEntity
  8
細線
100
AcDbLine
 10
5812.58277779175
 20
3977.931598713261
 30
0.0
 11
6976.582777791751
 21
3977.931598713261
 31
0.0
  0
LINE
  5
15D27
330
747D
100
AcDbEntity
  8
細線
100
AcDbLine
 10
5812.58277779175
 20
4042.931598713261
 30
0.0
 11
6976.582777791751
 21
4042.931598713261
 31
0.0
  0
LINE
  5
15D28
330
747D
100
AcDbEntity
  8
細線
100
AcDbLine
 10
5812.58277779175
 20
4107.931598713261
 30
0.0
 11
6976.582777791751
 21
4107.931598713261
 31
0.0
  0
LINE
  5
15D29
330
747D
100
AcDbEntity
  8
細線
100
AcDbLine
 10
5812.58277779175
 20
3132.931598713261
 30
0.0
 11
6976.582777791751
 21
3132.931598713261
 31
0.0
  0
LINE
  5
15D2A
330
747D
100
AcDbEntity
  8
細線
100
AcDbLine
 10
5812.58277779175
 20
3197.931598713262
 30
0.0
 11
6976.582777791751
 21
3197.931598713262
 31
0.0
  0
LINE
  5
15D2B
330
747D
100
AcDbEntity
  8
細線
100
AcDbLine
 10
5812.58277779175
 20
3262.931598713262
 30
0.0
 11
6976.582777791751
 21
3262.931598713262
 31
0.0
  0
LINE
  5
15D2C
330
747D
100
AcDbEntity
  8
細線
100
AcDbLine
 10
5812.58277779175
 20
3327.931598713262
 30
0.0
 11
6976.582777791751
 21
3327.931598713262
 31
0.0
  0
LINE
  5
15D2D
330
747D
100
AcDbEntity
  8
細線
100
AcDbLine
 10
5812.58277779175
 20
3392.931598713261
 30
0.0
 11
6976.582777791751
 21
3392.931598713261
 31
0.0
  0
LINE
  5
15D2E
330
747D
100
AcDbEntity
  8
細線
100
AcDbLine
 10
5812.58277779175
 20
3457.931598713262
 30
0.0
 11
6976.582777791751
 21
3457.931598713262
 31
0.0
  0
LINE
  5
15D2F
330
747D
100
AcDbEntity
  8
細線
100
AcDbLine
 10
5812.58277779175
 20
3522.931598713262
 30
0.0
 11
6976.582777791751
 21
3522.931598713262
 31
0.0
  0
LINE
  5
15D30
330
747D
100
AcDbEntity
  8
細線
100
AcDbLine
 10
5812.58277779175
 20
3587.931598713261
 30
0.0
 11
6976.582777791751
 21
3587.931598713261
 31
0.0
  0
LINE
  5
15D31
330
747D
100
AcDbEntity
  8
細線
100
AcDbLine
 10
5812.58277779175
 20
3652.931598713261
 30
0.0
 11
6976.582777791751
 21
3652.931598713261
 31
0.0
  0
LINE
  5
15D32
330
747D
100
AcDbEntity
  8
細線
100
AcDbLine
 10
5812.58277779175
 20
3717.931598713261
 30
0.0
 11
6976.582777791751
 21
3717.931598713261
 31
0.0
  0
LINE
  5
15D33
330
747D
100
AcDbEntity
  8
細線
100
AcDbLine
 10
5812.58277779175
 20
4432.931598713262
 30
0.0
 11
6976.582777791751
 21
4432.931598713262
 31
0.0
  0
LINE
  5
15D34
330
747D
100
AcDbEntity
  8
細線
100
AcDbLine
 10
5812.58277779175
 20
4497.931598713261
 30
0.0
 11
6976.582777791751
 21
4497.931598713261
 31
0.0
  0
LINE
  5
15D35
330
747D
100
AcDbEntity
  8
細線
100
AcDbLine
 10
5812.58277779175
 20
4367.931598713261
 30
0.0
 11
6976.582777791751
 21
4367.931598713261
 31
0.0
  0
LINE
  5
15D36
330
747D
100
AcDbEntity
  8
細線
100
AcDbLine
 10
5812.58277779175
 20
2547.931598713262
 30
0.0
 11
6976.582777791751
 21
2547.931598713262
 31
0.0
  0
LINE
  5
15D37
330
747D
100
AcDbEntity
  8
細線
100
AcDbLine
 10
5812.58277779175
 20
2612.931598713262
 30
0.0
 11
6976.582777791751
 21
2612.931598713262
 31
0.0
  0
LINE
  5
15D38
330
747D
100
AcDbEntity
  8
細線
100
AcDbLine
 10
5812.58277779175
 20
2677.931598713261
 30
0.0
 11
6976.582777791751
 21
2677.931598713261
 31
0.0
  0
LINE
  5
15D39
330
747D
100
AcDbEntity
  8
細線
100
AcDbLine
 10
5812.58277779175
 20
2742.931598713262
 30
0.0
 11
6976.582777791751
 21
2742.931598713262
 31
0.0
  0
LINE
  5
15D3A
330
747D
100
AcDbEntity
  8
細線
100
AcDbLine
 10
5812.58277779175
 20
2807.931598713262
 30
0.0
 11
6976.582777791751
 21
2807.931598713262
 31
0.0
  0
LINE
  5
15D3B
330
747D
100
AcDbEntity
  8
細線
100
AcDbLine
 10
5812.58277779175
 20
2872.931598713261
 30
0.0
 11
6976.582777791751
 21
2872.931598713261
 31
0.0
  0
LINE
  5
15D3C
330
747D
100
AcDbEntity
  8
細線
100
AcDbLine
 10
5812.58277779175
 20
2937.931598713261
 30
0.0
 11
6976.582777791751
 21
2937.931598713261
 31
0.0
  0
LINE
  5
15D3D
330
747D
100
AcDbEntity
  8
細線
100
AcDbLine
 10
5812.58277779175
 20
3002.931598713261
 30
0.0
 11
6976.582777791751
 21
3002.931598713261
 31
0.0
  0
LINE
  5
15D3E
330
747D
100
AcDbEntity
  8
細線
100
AcDbLine
 10
5812.58277779175
 20
3067.931598713262
 30
0.0
 11
6976.582777791751
 21
3067.931598713262
 31
0.0
  0
LINE
  5
15D3F
330
747D
100
AcDbEntity
  8
細線
100
AcDbLine
 10
6976.582777791754
 20
2547.931598713262
 30
0.0
 11
5812.582777791748
 21
2547.931598713262
 31
0.0
  0
DIMENSION
  5
162CD
330
747D
100
AcDbEntity
  8
寸法
100
AcDbDimension
  2
*D1
 10
7727.009123526165
 20
7651.500206066815
 30
0.0
 11
7626.997312502543
 21
8701.500206066825
 31
0.0
 70
    32
  1
5X420=<>
 71
     5
 42
2100.000000000015
  3
INABA_S40G
100
AcDbAlignedDimension
 13
7079.582777791761
 23
9751.500206066831
 33
0.0
 14
7079.582777791735
 24
7651.500206066815
 34
0.0
 50
90.0
100
AcDbRotatedDimension
1001
ACAD
1000
DSTYLE
1002
{
1002
}
  0
DIMENSION
  5
162CE
330
747D
100
AcDbEntity
  8
寸法
100
AcDbDimension
  2
*D2
 10
7727.009123526146
 20
7596.50020606682
 30
0.0
 11
7727.009123526144
 21
7218.638739161957
 31
0.0
 70
   160
 71
     5
 42
54.99999999999636
  3
INABA_S40G
100
AcDbAlignedDimension
 13
7079.582777791735
 23
7651.500206066815
 33
0.0
 14
7079.582777791735
 24
7596.50020606682
 34
0.0
 50
90.0
100
AcDbRotatedDimension
1001
ACAD
1000
DSTYLE
1002
{
1002
}
  0
DIMENSION
  5
162CF
330
747D
100
AcDbEntity
  8
寸法
100
AcDbDimension
  2
*D3
 10
7727.00912352617
 20
9751.500206066831
 30
0.0
 11
7727.00912352617
 21
10114.98548744106
 31
0.0
 70
   160
 71
     5
 42
54.99999999999636
  3
INABA_S40G
100
AcDbAlignedDimension
 13
7079.582777791761
 23
9806.500206066827
 33
0.0
 14
7079.582777791761
 24
9751.500206066831
 34
0.0
 50
90.0
100
AcDbRotatedDimension
1001
ACAD
1000
DSTYLE
1002
{
1002
}
  0
DIMENSION
  5
162D0
330
747D
100
AcDbEntity
  8
寸法
100
AcDbDimension
  2
*D4
 10
8092.116065265805
 20
7596.50020606682
 30
0.0
 11
7992.104254242183
 21
8701.500206066825
 31
0.0
 70
    32
 71
     5
 42
2210.000000000007
  3
INABA_S40G
100
AcDbAlignedDimension
 13
7079.582777791761
 23
9806.500206066827
 33
0.0
 14
7079.582777791735
 24
7596.50020606682
 34
0.0
 50
90.0
100
AcDbRotatedDimension
1001
ACAD
1000
DSTYLE
1002
{
1002
}
  0
LINE
  5
162DC
330
747D
100
AcDbEntity
  8
部品1
100
AcDbLine
 10
7051.582777791743
 20
9778.500206066826
 30
0.0
 11
7051.582777791736
 21
7651.500206066815
 31
0.0
  0
LINE
  5
162DD
330
747D
100
AcDbEntity
  8
部品1
100
AcDbLine
 10
4367.582777791734
 20
7651.500206066685
 30
0.0
 11
4367.582777791745
 21
9778.500206066734
 31
0.0
  0
LINE
  5
162DE
330
747D
100
AcDbEntity
  8
部品1
100
AcDbLine
 10
7079.582777791761
 20
9806.500206066827
 30
0.0
 11
7079.582777791735
 21
7596.50020606682
 31
0.0
  0
LINE
  5
162DF
330
747D
100
AcDbEntity
  8
部品1
100
AcDbLine
 10
4339.582777791725
 20
9806.500206066701
 30
0.0
 11
4339.582777791753
 21
7596.500206066689
 31
0.0
  0
DIMENSION
  5
162E4
330
747D
100
AcDbEntity
  8
寸法
 48
50.0
100
AcDbDimension
  2
*D5
 10
5812.582777791753
 20
7062.069435300564
 30
0.0
 11
6394.582777791743
 21
7262.069435300564
 31
0.0
 70
    32
  1
有効開口部間口\P <>
 71
     5
 42
1163.999999999981
  3
INABA_S40G
100
AcDbAlignedDimension
 13
6976.582777791735
 23
7622.500206066728
 33
0.0
 14
5812.582777791753
 24
7622.500206066728
 34
0.0
100
AcDbRotatedDimension
1001
ACAD
1000
DSTYLE
1002
{
1070
    75
1070
     1
1070
   279
1070
     2
1002
}
  0
LINE
  5
162E6
330
747D
100
AcDbEntity
  8
部品1
 48
50.0
100
AcDbLine
 10
5776.582777791752
 20
7642.000206066727
 30
0.0
 11
7012.582777791736
 21
7642.000206066727
 31
0.0
  0
DIMENSION
  5
162E7
330
747D
100
AcDbEntity
  8
寸法
100
AcDbDimension
  2
*D6
 10
7079.582777791724
 20
6615.89643970969
 30
0.0
 11
5709.582777791738
 21
6715.908250733311
 31
0.0
 70
    32
 71
     5
 42
2739.999999999971
  3
INABA_S40G
100
AcDbAlignedDimension
 13
4339.582777791753
 23
7596.500206066725
 33
0.0
 14
7079.582777791724
 24
7596.50020606682
 34
0.0
100
AcDbRotatedDimension
1001
ACAD
1000
DSTYLE
1002
{
1002
}
  0
LINE
  5
162E8
330
747D
100
AcDbEntity
  8
部品1
100
AcDbLine
 10
4394.582777791729
 20
9751.500206066751
 30
0.0
 11
4394.582777791751
 21
7661.500206066726
 31
0.0
  0
LINE
  5
162E9
330
747D
100
AcDbEntity
  8
部品1
100
AcDbLine
 10
4419.58277779173
 20
9751.500206066749
 30
0.0
 11
4419.582777791752
 21
7661.500206066726
 31
0.0
  0
DIMENSION
  5
162EA
330
747D
100
AcDbEntity
  8
寸法
 48
50.0
100
AcDbDimension
  2
*D7
 10
4339.582777791753
 20
7062.069435300564
 30
0.0
 11
4031.097496417515
 21
7062.069435300564
 31
0.0
 70
   160
 71
     5
 42
54.99999999999636
  3
INABA_S40G
100
AcDbAlignedDimension
 13
4394.582777791749
 23
7596.500206066727
 33
0.0
 14
4339.582777791753
 24
7596.500206066725
 34
0.0
100
AcDbRotatedDimension
1001
ACAD
1000
DSTYLE
1002
{
1002
}
  0
DIMENSION
  5
162EB
330
747D
100
AcDbEntity
  8
寸法
 48
50.0
100
AcDbDimension
  2
*D8
 10
5764.582777791749
 20
7062.069435300564
 30
0.0
 11
5925.48474879181
 21
7162.069435300565
 31
0.0
 70
   160
 71
     5
 42
48.00000000000363
  3
INABA_S40G
100
AcDbAlignedDimension
 13
5812.582777791753
 23
7622.500206066728
 33
0.0
 14
5764.582777791749
 24
7596.500206066727
 34
0.0
100
AcDbRotatedDimension
1001
ACAD
1000
DSTYLE
1002
{
1070
   279
1070
     2
1002
}
  0
LINE
  5
162EC
330
747D
100
AcDbEntity
  8
部品1
100
AcDbLine
 10
4394.582777791748
 20
7596.500206066727
 30
0.0
 11
4339.582777791753
 21
7596.500206066725
 31
0.0
  0
LINE
  5
162ED
330
747D
100
AcDbEntity
  8
部品1
 48
50.0
100
AcDbLine
 10
4394.582777791753
 20
7632.500206066727
 30
0.0
 11
4371.582777791753
 21
7632.500206066727
 31
0.0
  0
LINE
  5
162EE
330
747D
100
AcDbEntity
  8
部品1
 48
50.0
100
AcDbLine
 10
4404.582777791753
 20
7622.500206066728
 30
0.0
 11
4394.582777791753
 21
7601.500206066727
 31
0.0
  0
LINE
  5
162EF
330
747D
100
AcDbEntity
  8
部品1
 48
50.0
100
AcDbLine
 10
4394.582777791753
 20
7661.500206066726
 30
0.0
 11
4394.582777791749
 21
7596.500206066727
 31
0.0
  0
LINE
  5
162F0
330
747D
100
AcDbEntity
  8
部品1
 48
50.0
100
AcDbLine
 10
4442.582777791753
 20
7622.500206066728
 30
0.0
 11
4442.582777791753
 21
7631.500206066728
 31
0.0
  0
LINE
  5
162F1
330
747D
100
AcDbEntity
  8
部品1
 48
50.0
100
AcDbLine
 10
4442.582777791753
 20
7661.500206066728
 30
0.0
 11
4442.582777791753
 21
7652.500206066729
 31
0.0
  0
LINE
  5
162F2
330
747D
100
AcDbEntity
  8
部品1
100
AcDbLine
 10
4442.582777791753
 20
7661.500206066728
 30
0.0
 11
4394.582777791753
 21
7661.500206066728
 31
0.0
  0
LINE
  5
162F3
330
747D
100
AcDbEntity
  8
部品1
100
AcDbLine
 10
4442.582777791753
 20
7622.500206066728
 30
0.0
 11
4394.582777791753
 21
7622.500206066728
 31
0.0
  0
LINE
  5
162F4
330
747D
100
AcDbEntity
  8
部品1
100
AcDbLine
 10
4394.582777791751
 20
7632.500206066727
 30
0.0
 11
4371.582777791753
 21
7632.500206066727
 31
0.0
  0
LINE
  5
162F5
330
747D
100
AcDbEntity
  8
部品1
100
AcDbLine
 10
4394.582777791751
 20
7651.500206066652
 30
0.0
 11
4339.582777791751
 21
7651.500206066652
 31
0.0
  0
LINE
  5
162F6
330
747D
100
AcDbEntity
  8
部品1
100
AcDbLine
 10
4367.582777791734
 20
7651.500206066689
 30
0.0
 11
4339.582777791751
 21
7651.500206066689
 31
0.0
  0
LINE
  5
162F7
330
747D
100
AcDbEntity
  8
部品1
100
AcDbLine
 10
4367.582777791751
 20
7651.500206066703
 30
0.0
 11
4339.582777791751
 21
7651.500206066703
 31
0.0
  0
LINE
  5
162FB
330
747D
100
AcDbEntity
  8
部品1
100
AcDbLine
 10
4367.58277779174
 20
8071.500206066703
 30
0.0
 11
4339.58277779174
 21
8071.500206066703
 31
0.0
  0
LINE
  5
162FC
330
747D
100
AcDbEntity
  8
部品1
100
AcDbLine
 10
4367.58277779174
 20
8491.500206066703
 30
0.0
 11
4339.58277779174
 21
8491.500206066703
 31
0.0
  0
LINE
  5
162FE
330
747D
100
AcDbEntity
  8
部品1
100
AcDbLine
 10
4367.582777791732
 20
8911.500206066703
 30
0.0
 11
4339.582777791733
 21
8911.500206066703
 31
0.0
  0
LINE
  5
162FF
330
747D
100
AcDbEntity
  8
部品1
100
AcDbLine
 10
7024.582777791756
 20
9751.500206066749
 30
0.0
 11
7024.582777791737
 21
7596.500206066815
 31
0.0
  0
LINE
  5
16300
330
747D
100
AcDbEntity
  8
部品1
100
AcDbLine
 10
6999.58277779176
 20
9751.500206066747
 30
0.0
 11
6999.582777791736
 21
7661.500206066728
 31
0.0
  0
DIMENSION
  5
16301
330
747D
100
AcDbEntity
  8
寸法
 48
50.0
100
AcDbDimension
  2
*D9
 10
6976.582777791735
 20
7062.069435300564
 30
0.0
 11
6865.619880142988
 21
7162.069435300565
 31
0.0
 70
   160
 71
     5
 42
48.00000000000181
  3
INABA_S40G
100
AcDbAlignedDimension
 13
7024.582777791737
 23
7596.500206066815
 33
0.0
 14
6976.582777791735
 24
7622.500206066728
 34
0.0
100
AcDbRotatedDimension
1001
ACAD
1000
DSTYLE
1002
{
1070
   279
1070
     2
1002
}
  0
DIMENSION
  5
16302
330
747D
100
AcDbEntity
  8
寸法
 48
50.0
100
AcDbDimension
  2
*D10
 10
7024.582777791737
 20
7062.069435300564
 30
0.0
 11
7388.068059165973
 21
7062.069435300564
 31
0.0
 70
   160
 71
     5
 42
54.99999999999818
  3
INABA_S40G
100
AcDbAlignedDimension
 13
7079.582777791735
 23
7596.50020606682
 33
0.0
 14
7024.582777791737
 24
7596.500206066815
 34
0.0
100
AcDbRotatedDimension
1001
ACAD
1000
DSTYLE
1002
{
1002
}
  0
LINE
  5
16303
330
747D
100
AcDbEntity
  8
部品1
 48
50.0
100
AcDbLine
 10
7014.582777791734
 20
7622.500206066728
 30
0.0
 11
7024.582777791735
 21
7601.500206066727
 31
0.0
  0
LINE
  5
16304
330
747D
100
AcDbEntity
  8
部品1
100
AcDbLine
 10
6976.582777791735
 20
7661.500206066728
 30
0.0
 11
7024.582777791737
 21
7661.500206066728
 31
0.0
  0
LINE
  5
16305
330
747D
100
AcDbEntity
  8
部品1
100
AcDbLine
 10
6976.582777791735
 20
7622.500206066728
 30
0.0
 11
7024.582777791735
 21
7622.500206066728
 31
0.0
  0
LINE
  5
16306
330
747D
100
AcDbEntity
  8
部品1
 48
50.0
100
AcDbLine
 10
6976.582777791735
 20
7661.500206066728
 30
0.0
 11
6976.582777791735
 21
7652.500206066729
 31
0.0
  0
LINE
  5
16307
330
747D
100
AcDbEntity
  8
部品1
 48
50.0
100
AcDbLine
 10
6976.582777791735
 20
7622.500206066728
 30
0.0
 11
6976.582777791735
 21
7631.500206066728
 31
0.0
  0
LINE
  5
16308
330
747D
100
AcDbEntity
  8
部品1
100
AcDbLine
 10
7024.582777791735
 20
7632.500206066726
 30
0.0
 11
7047.582777791735
 21
7632.500206066727
 31
0.0
  0
LINE
  5
16309
330
747D
100
AcDbEntity
  8
部品1
100
AcDbLine
 10
7024.582777791735
 20
7651.500206066831
 30
0.0
 11
7079.582777791768
 21
7651.500206066831
 31
0.0
  0
LINE
  5
1630A
330
747D
100
AcDbEntity
  8
部品1
100
AcDbLine
 10
7079.582777791735
 20
7596.50020606682
 30
0.0
 11
7024.582777791737
 21
7596.500206066817
 31
0.0
  0
LINE
  5
16317
330
747D
100
AcDbEntity
  8
部品1
100
AcDbLine
 10
7051.582777791764
 20
8071.500206066831
 30
0.0
 11
7079.582777791763
 21
8071.500206066831
 31
0.0
  0
LINE
  5
16319
330
747D
100
AcDbEntity
  8
部品1
100
AcDbLine
 10
7051.582777791764
 20
8491.500206066829
 30
0.0
 11
7079.582777791763
 21
8491.500206066829
 31
0.0
  0
LINE
  5
1631A
330
747D
100
AcDbEntity
  8
部品1
100
AcDbLine
 10
7051.582777791761
 20
8911.500206066831
 30
0.0
 11
7079.582777791761
 21
8911.500206066831
 31
0.0
  0
LINE
  5
1631B
330
747D
100
AcDbEntity
  8
部品1
100
AcDbLine
 10
5764.582777791758
 20
9778.500206066849
 30
0.0
 11
6184.582777791758
 21
9778.500206066849
 31
0.0
  0
LINE
  5
1631C
330
747D
100
AcDbEntity
  8
部品1
100
AcDbLine
 10
5737.582777791758
 20
9778.500206066732
 30
0.0
 11
5974.582777791758
 21
9778.500206066736
 31
0.0
  0
DIMENSION
  5
1631F
330
747D
100
AcDbEntity
  8
寸法
100
AcDbDimension
  2
*D11
 10
7024.58277779176
 20
10022.30842569183
 30
0.0
 11
6394.582777791761
 21
10122.32023671545
 31
0.0
 70
    32
  1
3X420=<>
 71
     5
 42
1260.000000000001
  3
INABA_S40G
100
AcDbAlignedDimension
 13
5764.582777791759
 23
9806.500206066733
 33
0.0
 14
7024.58277779176
 24
9806.500206066827
 34
0.0
100
AcDbRotatedDimension
1001
ACAD
1000
DSTYLE
1002
{
1002
}
  0
DIMENSION
  5
16320
330
747D
100
AcDbEntity
  8
寸法
100
AcDbDimension
  2
*D12
 10
4394.582777791759
 20
10022.30842569171
 30
0.0
 11
4031.097496417486
 21
10022.30842569171
 31
0.0
 70
   160
 71
     5
 42
55.00000000003456
  3
INABA_S40G
100
AcDbAlignedDimension
 13
4339.582777791725
 23
9806.500206066733
 33
0.0
 14
4394.582777791759
 24
9806.500206066733
 34
0.0
100
AcDbRotatedDimension
1001
ACAD
1000
DSTYLE
1002
{
1002
}
  0
LINE
  5
16321
330
747D
100
AcDbEntity
  8
部品1
100
AcDbLine
 10
4394.582777791725
 20
9806.500206066701
 30
0.0
 11
4394.582777791725
 21
9778.5002060667
 31
0.0
  0
LINE
  5
16322
330
747D
100
AcDbEntity
  8
部品1
100
AcDbLine
 10
4394.582777791758
 20
9806.500206066733
 30
0.0
 11
4394.582777791758
 21
9778.500206066732
 31
0.0
  0
LINE
  5
16323
330
747D
100
AcDbEntity
  8
部品1
100
AcDbLine
 10
4367.582777791725
 20
9751.500206066703
 30
0.0
 11
4339.582777791725
 21
9751.500206066703
 31
0.0
  0
LINE
  5
16327
330
747D
100
AcDbEntity
  8
部品1
100
AcDbLine
 10
6184.58277779176
 20
9778.500206066844
 30
0.0
 11
7051.582777791761
 21
9778.500206066826
 31
0.0
  0
LINE
  5
1632C
330
747D
100
AcDbEntity
  8
部品1
100
AcDbLine
 10
6184.582777791758
 20
9806.50020606685
 30
0.0
 11
6184.582777791758
 21
9778.500206066849
 31
0.0
  0
DIMENSION
  5
16333
330
747D
100
AcDbEntity
  8
寸法
100
AcDbDimension
  2
*D13
 10
7079.582777791761
 20
10022.30842569181
 30
0.0
 11
7388.068059165998
 21
10022.30842569181
 31
0.0
 70
   160
 71
     5
 42
55.0
  3
INABA_S40G
100
AcDbAlignedDimension
 13
7024.58277779176
 23
9806.500206066827
 33
0.0
 14
7079.582777791761
 24
9806.500206066827
 34
0.0
100
AcDbRotatedDimension
1001
ACAD
1000
DSTYLE
1002
{
1002
}
  0
LINE
  5
16334
330
747D
100
AcDbEntity
  8
部品1
100
AcDbLine
 10
6604.582777791758
 20
9806.50020606685
 30
0.0
 11
6604.582777791758
 21
9778.500206066849
 31
0.0
  0
LINE
  5
16335
330
747D
100
AcDbEntity
  8
部品1
100
AcDbLine
 10
7024.58277779176
 20
9806.500206066827
 30
0.0
 11
7024.58277779176
 21
9778.500206066826
 31
0.0
  0
LINE
  5
16336
330
747D
100
AcDbEntity
  8
部品1
100
AcDbLine
 10
7024.58277779176
 20
9806.50020606685
 30
0.0
 11
7024.58277779176
 21
9778.500206066849
 31
0.0
  0
LINE
  5
16337
330
747D
100
AcDbEntity
  8
部品1
100
AcDbLine
 10
7051.582777791761
 20
9751.500206066831
 30
0.0
 11
7079.582777791761
 21
9751.500206066831
 31
0.0
  0
LINE
  5
1655C
330
747D
100
AcDbEntity
  8
部品1
100
AcDbLine
 10
5606.582777791754
 20
4512.931598713262
 30
0.0
 11
5606.582777791751
 21
2537.931598713262
 31
0.0
  0
LINE
  5
1655D
330
747D
100
AcDbEntity
  8
部品1
100
AcDbLine
 10
5654.582777791753
 20
4512.931598713262
 30
0.0
 11
5654.582777791751
 21
2537.931598713262
 31
0.0
  0
LINE
  5
1655E
330
747D
100
AcDbEntity
  8
破線
 48
5.0
100
AcDbLine
 10
5606.582777791751
 20
2537.931598713262
 30
0.0
 11
5606.582777791754
 21
2287.931598713262
 31
0.0
  0
LINE
  5
1655F
330
747D
100
AcDbEntity
  8
破線
 48
5.0
100
AcDbLine
 10
5654.582777791755
 20
2287.931598713262
 30
0.0
 11
5606.582777791754
 21
2287.931598713262
 31
0.0
  0
LINE
  5
16560
330
747D
100
AcDbEntity
  8
破線
 48
5.0
100
AcDbLine
 10
5654.582777791751
 20
2537.931598713262
 30
0.0
 11
5654.582777791754
 21
2262.931598713262
 31
0.0
  0
LINE
  5
16561
330
747D
100
AcDbEntity
  8
破線
 48
5.0
100
AcDbLine
 10
5764.582777791751
 20
2262.931598713262
 30
0.0
 11
5654.582777791753
 21
2262.931598713262
 31
0.0
  0
LINE
  5
16562
330
747D
100
AcDbEntity
  8
部品1
100
AcDbLine
 10
5812.582777791753
 20
4512.931598713261
 30
0.0
 11
5812.582777791753
 21
2537.931598713262
 31
0.0
  0
LINE
  5
16563
330
747D
100
AcDbEntity
  8
破線
 48
5.0
100
AcDbLine
 10
5812.582777791753
 20
2537.931598713262
 30
0.0
 11
5812.58277779175
 21
2287.931598713267
 31
0.0
  0
LINE
  5
16564
330
747D
100
AcDbEntity
  8
破線
 48
5.0
100
AcDbLine
 10
5812.582777791751
 20
2287.931598713267
 30
0.0
 11
5764.582777791751
 21
2287.931598713267
 31
0.0
  0
LINE
  5
16565
330
747D
100
AcDbEntity
  8
破線
 48
5.0
100
AcDbLine
 10
5764.582777791753
 20
2537.931598713262
 30
0.0
 11
5764.582777791751
 21
2262.931598713262
 31
0.0
  0
LINE
  5
16566
330
747D
100
AcDbEntity
  8
部品1
100
AcDbLine
 10
5764.582777791753
 20
4512.931598713262
 30
0.0
 11
5764.582777791753
 21
2537.931598713262
 31
0.0
  0
LINE
  5
16567
330
747D
100
AcDbEntity
  8
部品1
100
AcDbLine
 10
5764.582777791753
 20
4512.931598713261
 30
0.0
 11
7079.582777791753
 21
4512.931598713263
 31
0.0
  0
DIMENSION
  5
1659A
330
747D
100
AcDbEntity
  8
寸法
 48
50.0
100
AcDbDimension
  2
*D15
 10
5606.582777791735
 20
7062.069435300564
 30
0.0
 11
5495.619880142988
 21
7162.069435300565
 31
0.0
 70
   160
 71
     5
 42
48.00000000000181
  3
INABA_S40G
100
AcDbAlignedDimension
 13
5654.582777791737
 23
7596.500206066815
 33
0.0
 14
5606.582777791735
 24
7622.500206066728
 34
0.0
100
AcDbRotatedDimension
1001
ACAD
1000
DSTYLE
1002
{
1070
   279
1070
     2
1002
}
  0
DIMENSION
  5
1659C
330
747D
100
AcDbEntity
  8
寸法
 48
50.0
100
AcDbDimension
  2
*D14
 10
4394.582777791749
 20
7062.069435300564
 30
0.0
 11
4555.48474879181
 21
7162.069435300565
 31
0.0
 70
   160
 71
     5
 42
48.00000000000363
  3
INABA_S40G
100
AcDbAlignedDimension
 13
4442.582777791753
 23
7622.500206066728
 33
0.0
 14
4394.582777791749
 24
7596.500206066727
 34
0.0
100
AcDbRotatedDimension
1001
ACAD
1000
DSTYLE
1002
{
1070
   279
1070
     2
1002
}
  0
DIMENSION
  5
165E9
330
747D
100
AcDbEntity
  8
寸法
 48
50.0
100
AcDbDimension
  2
*D16
 10
5654.582777791737
 20
7062.069435300564
 30
0.0
 11
5709.582777791743
 21
6910.377540264334
 31
0.0
 70
   160
 71
     5
 42
110.0000000000127
  3
INABA_S40G
100
AcDbAlignedDimension
 13
5764.582777791749
 23
7596.500206066727
 33
0.0
 14
5654.582777791737
 24
7596.500206066815
 34
0.0
100
AcDbRotatedDimension
1001
ACAD
1000
DSTYLE
1002
{
1070
   279
1070
     2
1002
}
  0
LINE
  5
16656
330
747D
100
AcDbEntity
  8
部品1
100
AcDbLine
 10
5606.582777791735
 20
7661.500206066728
 30
0.0
 11
5654.582777791737
 21
7661.500206066728
 31
0.0
  0
LINE
  5
16657
330
747D
100
AcDbEntity
  8
部品1
 48
50.0
100
AcDbLine
 10
5606.582777791735
 20
7661.500206066728
 30
0.0
 11
5606.582777791735
 21
7652.500206066729
 31
0.0
  0
LINE
  5
16658
330
747D
100
AcDbEntity
  8
部品1
100
AcDbLine
 10
5606.582777791735
 20
7622.500206066728
 30
0.0
 11
5654.582777791734
 21
7622.500206066728
 31
0.0
  0
LINE
  5
16659
330
747D
100
AcDbEntity
  8
部品1
 48
50.0
100
AcDbLine
 10
5606.582777791735
 20
7622.500206066728
 30
0.0
 11
5606.582777791735
 21
7631.500206066728
 31
0.0
  0
LINE
  5
1665A
330
747D
100
AcDbEntity
  8
部品1
 48
50.0
100
AcDbLine
 10
5644.582777791735
 20
7622.500206066728
 30
0.0
 11
5654.582777791734
 21
7601.500206066727
 31
0.0
  0
LINE
  5
1665B
330
747D
100
AcDbEntity
  8
部品1
100
AcDbLine
 10
5654.582777791734
 20
7632.500206066726
 30
0.0
 11
5677.582777791735
 21
7632.500206066727
 31
0.0
  0
LINE
  5
1665C
330
747D
100
AcDbEntity
  8
部品1
100
AcDbLine
 10
5812.582777791753
 20
7661.500206066728
 30
0.0
 11
5764.582777791753
 21
7661.500206066728
 31
0.0
  0
LINE
  5
1665D
330
747D
100
AcDbEntity
  8
部品1
 48
50.0
100
AcDbLine
 10
5812.582777791753
 20
7661.500206066728
 30
0.0
 11
5812.582777791753
 21
7652.500206066729
 31
0.0
  0
LINE
  5
1665E
330
747D
100
AcDbEntity
  8
部品1
100
AcDbLine
 10
5812.582777791753
 20
7622.500206066728
 30
0.0
 11
5764.582777791753
 21
7622.500206066728
 31
0.0
  0
LINE
  5
1665F
330
747D
100
AcDbEntity
  8
部品1
 48
50.0
100
AcDbLine
 10
5774.582777791753
 20
7622.500206066728
 30
0.0
 11
5764.582777791753
 21
7601.500206066727
 31
0.0
  0
LINE
  5
16660
330
747D
100
AcDbEntity
  8
部品1
100
AcDbLine
 10
5764.582777791751
 20
7632.500206066727
 30
0.0
 11
5741.582777791752
 21
7632.500206066727
 31
0.0
  0
LINE
  5
16661
330
747D
100
AcDbEntity
  8
部品1
 48
50.0
100
AcDbLine
 10
5764.582777791753
 20
7661.500206066726
 30
0.0
 11
5764.582777791749
 21
7596.500206066727
 31
0.0
  0
LINE
  5
16662
330
747D
100
AcDbEntity
  8
部品1
 48
50.0
100
AcDbLine
 10
5812.582777791753
 20
7622.500206066728
 30
0.0
 11
5812.582777791753
 21
7631.500206066728
 31
0.0
  0
LINE
  5
16663
330
747D
100
AcDbEntity
  8
部品1
100
AcDbLine
 10
5764.582777791748
 20
7596.500206066727
 30
0.0
 11
5654.582777791739
 21
7596.500206066721
 31
0.0
  0
LINE
  5
16664
330
747D
100
AcDbEntity
  8
部品1
 48
50.0
100
AcDbLine
 10
5654.58277779174
 20
7661.500206066815
 30
0.0
 11
5654.582777791737
 21
7596.500206066815
 31
0.0
  0
LINE
  5
16666
330
747D
100
AcDbEntity
  8
部品1
100
AcDbLine
 10
5764.582777791758
 20
9806.500206066733
 30
0.0
 11
5764.582777791758
 21
9778.500206066732
 31
0.0
  0
LINE
  5
16692
330
747D
100
AcDbEntity
  8
部品1
100
AcDbLine
 10
5654.58277779176
 20
9806.500206066827
 30
0.0
 11
5654.58277779176
 21
9778.500206066826
 31
0.0
  0
DIMENSION
  5
166DD
330
747D
100
AcDbEntity
  8
寸法
 48
50.0
100
AcDbDimension
  2
*D17
 10
5654.58277779176
 20
10022.30842569183
 30
0.0
 11
5709.58277779176
 21
10122.30842569183
 31
0.0
 70
    32
 71
     5
 42
109.9999999999991
  3
INABA_S40G
100
AcDbAlignedDimension
 13
5764.582777791759
 23
9806.500206066781
 33
0.0
 14
5654.58277779176
 24
9806.500206066779
 34
0.0
100
AcDbRotatedDimension
1001
ACAD
1000
DSTYLE
1002
{
1070
   279
1070
     2
1002
}
  0
LINE
  5
16760
330
747D
100
AcDbEntity
  8
部品1
 48
50.0
100
AcDbLine
 10
5709.582777791726
 20
9778.500206066773
 30
0.0
 11
5681.582777791728
 21
9806.500206066829
 31
0.0
  0
LINE
  5
16761
330
747D
100
AcDbEntity
  8
部品1
100
AcDbLine
 10
7024.582777791755
 20
9751.500206066747
 30
0.0
 11
5764.582777791741
 21
9751.500206066749
 31
0.0
  0
LINE
  5
16762
330
747D
100
AcDbEntity
  8
部品1
 48
50.0
100
AcDbLine
 10
5681.582777791728
 20
9778.50020606688
 30
0.0
 11
5681.582777791725
 21
9806.500206066829
 31
0.0
  0
LINE
  5
16763
330
747D
100
AcDbEntity
  8
部品1
 48
50.0
100
AcDbLine
 10
4367.582777791819
 20
9778.500206066773
 30
0.0
 11
5709.582777791726
 21
9778.500206066777
 31
0.0
  0
LINE
  5
168C3
330
747D
100
AcDbEntity
  8
部品1
100
AcDbLine
 10
5733.582777791744
 20
7651.500206066724
 30
0.0
 11
5685.582777791744
 21
7651.500206066723
 31
0.0
  0
LINE
  5
168C4
330
747D
100
AcDbEntity
  8
部品1
 48
50.0
100
AcDbLine
 10
5685.582777791744
 20
7651.500206066724
 30
0.0
 11
5685.582777791747
 21
7596.500206066725
 31
0.0
  0
LINE
  5
168C5
330
747D
100
AcDbEntity
  8
部品1
 48
50.0
100
AcDbLine
 10
5733.582777791744
 20
7651.500206066724
 30
0.0
 11
5733.582777791747
 21
7596.500206066725
 31
0.0
  0
DIMENSION
  5
16913
330
747D
100
AcDbEntity
  8
寸法
 48
50.0
100
AcDbDimension
  2
*D18
 10
7079.582777791761
 20
10271.62989924812
 30
0.0
 11
6394.582777791761
 21
10371.62989924812
 31
0.0
 70
    32
 71
     5
 42
1370.0
  3
INABA_S40G
100
AcDbAlignedDimension
 13
5709.58277779176
 23
10181.29634004977
 33
0.0
 14
7079.582777791761
 24
9806.500206066827
 34
0.0
100
AcDbRotatedDimension
1001
ACAD
1000
DSTYLE
1002
{
1070
    75
1070
     1
1070
   279
1070
     2
1002
}
  0
LINE
  5
172BC
330
747D
100
AcDbEntity
  8
部品1
 48
50.0
100
AcDbLine
 10
5737.582777791727
 20
9751.500206066749
 30
0.0
 11
5737.582777791793
 21
9806.500206066779
 31
0.0
  0
LINE
  5
172BD
330
747D
100
AcDbEntity
  8
部品1
 48
50.0
100
AcDbLine
 10
5681.582777791728
 20
9751.500206066749
 30
0.0
 11
5681.582777791728
 21
9778.500206066773
 31
0.0
  0
LINE
  5
174C8
330
747D
100
AcDbEntity
  8
部品1
 48
50.0
100
AcDbLine
 10
6999.58277779176
 20
9726.500206066704
 30
0.0
 11
5789.582777791713
 21
9726.500206066681
 31
0.0
  0
LINE
  5
174C9
330
747D
100
AcDbEntity
  8
部品1
 48
50.0
100
AcDbLine
 10
7051.582777791761
 20
9778.500206066826
 30
0.0
 11
7024.582777791755
 21
9751.500206066747
 31
0.0
  0
LINE
  5
174CA
330
747D
100
AcDbEntity
  8
部品1
 48
50.0
100
AcDbLine
 10
4394.582777791729
 20
9751.500206066751
 30
0.0
 11
4367.582777791745
 21
9778.500206066849
 31
0.0
  0
LINE
  5
17B10
330
747D
100
AcDbEntity
  8
細線
100
AcDbLine
 10
5606.582777791754
 20
2547.931598713262
 30
0.0
 11
4442.582777791748
 21
2547.931598713262
 31
0.0
  0
LINE
  5
17B1E
330
747D
100
AcDbEntity
  8
細線
100
AcDbLine
 10
4442.582777791749
 20
4172.931598713261
 30
0.0
 11
5606.582777791751
 21
4172.931598713261
 31
0.0
  0
LINE
  5
17B1F
330
747D
100
AcDbEntity
  8
細線
100
AcDbLine
 10
4442.582777791749
 20
4237.931598713261
 30
0.0
 11
5606.582777791751
 21
4237.931598713261
 31
0.0
  0
LINE
  5
17B20
330
747D
100
AcDbEntity
  8
細線
100
AcDbLine
 10
4442.582777791749
 20
4302.931598713261
 30
0.0
 11
5606.582777791751
 21
4302.931598713261
 31
0.0
  0
LINE
  5
17B21
330
747D
100
AcDbEntity
  8
細線
100
AcDbLine
 10
4442.582777791749
 20
3782.931598713262
 30
0.0
 11
5606.582777791751
 21
3782.931598713262
 31
0.0
  0
LINE
  5
17B22
330
747D
100
AcDbEntity
  8
細線
100
AcDbLine
 10
4442.582777791749
 20
3847.931598713262
 30
0.0
 11
5606.582777791751
 21
3847.931598713262
 31
0.0
  0
LINE
  5
17B23
330
747D
100
AcDbEntity
  8
細線
100
AcDbLine
 10
4442.582777791749
 20
3912.931598713262
 30
0.0
 11
5606.582777791751
 21
3912.931598713262
 31
0.0
  0
LINE
  5
17B24
330
747D
100
AcDbEntity
  8
細線
100
AcDbLine
 10
4442.582777791749
 20
3977.931598713262
 30
0.0
 11
5606.582777791751
 21
3977.931598713262
 31
0.0
  0
LINE
  5
17B25
330
747D
100
AcDbEntity
  8
細線
100
AcDbLine
 10
4442.582777791749
 20
4042.931598713262
 30
0.0
 11
5606.582777791751
 21
4042.931598713262
 31
0.0
  0
LINE
  5
17B26
330
747D
100
AcDbEntity
  8
細線
100
AcDbLine
 10
4442.582777791749
 20
4107.931598713261
 30
0.0
 11
5606.582777791751
 21
4107.931598713261
 31
0.0
  0
LINE
  5
17B27
330
747D
100
AcDbEntity
  8
細線
100
AcDbLine
 10
4442.582777791749
 20
3132.931598713262
 30
0.0
 11
5606.582777791751
 21
3132.931598713262
 31
0.0
  0
LINE
  5
17B28
330
747D
100
AcDbEntity
  8
細線
100
AcDbLine
 10
4442.582777791749
 20
3197.931598713262
 30
0.0
 11
5606.582777791751
 21
3197.931598713262
 31
0.0
  0
LINE
  5
17B29
330
747D
100
AcDbEntity
  8
細線
100
AcDbLine
 10
4442.582777791749
 20
3262.931598713262
 30
0.0
 11
5606.582777791751
 21
3262.931598713262
 31
0.0
  0
LINE
  5
17B2A
330
747D
100
AcDbEntity
  8
細線
100
AcDbLine
 10
4442.582777791749
 20
3327.931598713262
 30
0.0
 11
5606.582777791751
 21
3327.931598713262
 31
0.0
  0
LINE
  5
17B2B
330
747D
100
AcDbEntity
  8
細線
100
AcDbLine
 10
4442.582777791749
 20
3392.931598713262
 30
0.0
 11
5606.582777791751
 21
3392.931598713262
 31
0.0
  0
LINE
  5
17B2C
330
747D
100
AcDbEntity
  8
細線
100
AcDbLine
 10
4442.582777791749
 20
3457.931598713262
 30
0.0
 11
5606.582777791751
 21
3457.931598713262
 31
0.0
  0
LINE
  5
17B2D
330
747D
100
AcDbEntity
  8
細線
100
AcDbLine
 10
4442.582777791749
 20
3522.931598713262
 30
0.0
 11
5606.582777791751
 21
3522.931598713262
 31
0.0
  0
LINE
  5
17B2E
330
747D
100
AcDbEntity
  8
細線
100
AcDbLine
 10
4442.582777791749
 20
3587.931598713262
 30
0.0
 11
5606.582777791751
 21
3587.931598713262
 31
0.0
  0
LINE
  5
17B2F
330
747D
100
AcDbEntity
  8
細線
100
AcDbLine
 10
4442.582777791749
 20
3652.931598713262
 30
0.0
 11
5606.582777791751
 21
3652.931598713262
 31
0.0
  0
LINE
  5
17B30
330
747D
100
AcDbEntity
  8
細線
100
AcDbLine
 10
4442.582777791749
 20
3717.931598713262
 30
0.0
 11
5606.582777791751
 21
3717.931598713262
 31
0.0
  0
LINE
  5
17B31
330
747D
100
AcDbEntity
  8
細線
100
AcDbLine
 10
4442.582777791749
 20
4432.931598713262
 30
0.0
 11
5606.582777791751
 21
4432.931598713262
 31
0.0
  0
LINE
  5
17B32
330
747D
100
AcDbEntity
  8
細線
100
AcDbLine
 10
4442.582777791749
 20
4367.931598713261
 30
0.0
 11
5606.582777791751
 21
4367.931598713261
 31
0.0
  0
LINE
  5
17B33
330
747D
100
AcDbEntity
  8
細線
100
AcDbLine
 10
4442.582777791749
 20
2612.931598713262
 30
0.0
 11
5606.582777791751
 21
2612.931598713262
 31
0.0
  0
LINE
  5
17B34
330
747D
100
AcDbEntity
  8
細線
100
AcDbLine
 10
4442.582777791749
 20
2677.931598713262
 30
0.0
 11
5606.582777791751
 21
2677.931598713262
 31
0.0
  0
LINE
  5
17B35
330
747D
100
AcDbEntity
  8
細線
100
AcDbLine
 10
4442.582777791749
 20
2742.931598713262
 30
0.0
 11
5606.582777791751
 21
2742.931598713262
 31
0.0
  0
LINE
  5
17B36
330
747D
100
AcDbEntity
  8
細線
100
AcDbLine
 10
4442.582777791749
 20
2807.931598713262
 30
0.0
 11
5606.582777791751
 21
2807.931598713262
 31
0.0
  0
LINE
  5
17B37
330
747D
100
AcDbEntity
  8
細線
100
AcDbLine
 10
4442.582777791749
 20
2872.931598713262
 30
0.0
 11
5606.582777791751
 21
2872.931598713262
 31
0.0
  0
LINE
  5
17B38
330
747D
100
AcDbEntity
  8
細線
100
AcDbLine
 10
4442.582777791749
 20
2937.931598713262
 30
0.0
 11
5606.582777791751
 21
2937.931598713262
 31
0.0
  0
LINE
  5
17B39
330
747D
100
AcDbEntity
  8
細線
100
AcDbLine
 10
4442.582777791749
 20
3002.931598713262
 30
0.0
 11
5606.582777791751
 21
3002.931598713262
 31
0.0
  0
LINE
  5
17B3A
330
747D
100
AcDbEntity
  8
細線
100
AcDbLine
 10
4442.582777791749
 20
3067.931598713262
 30
0.0
 11
5606.582777791751
 21
3067.931598713262
 31
0.0
  0
LINE
  5
17B3D
330
747D
100
AcDbEntity
  8
細線
100
AcDbLine
 10
4442.582777791749
 20
4497.931598713261
 30
0.0
 11
5606.582777791751
 21
4497.931598713261
 31
0.0
  0
DIMENSION
  5
17B86
330
747D
100
AcDbEntity
  8
寸法
 48
50.0
100
AcDbDimension
  2
*D21
 10
5709.58277779176
 20
10271.62989924812
 30
0.0
 11
5024.582777791742
 21
10371.62989924812
 31
0.0
 70
    32
 71
     5
 42
1370.000000000035
  3
INABA_S40G
100
AcDbAlignedDimension
 13
4339.582777791725
 23
9806.500206066701
 33
0.0
 14
5709.58277779176
 24
10181.29634004977
 34
0.0
100
AcDbRotatedDimension
1001
ACAD
1000
DSTYLE
1002
{
1070
   279
1070
     2
1002
}
  0
DIMENSION
  5
17B87
330
747D
100
AcDbEntity
  8
寸法
100
AcDbDimension
  2
*D20
 10
5654.58277779176
 20
10022.30842569183
 30
0.0
 11
5024.58277779176
 21
10122.32023671545
 31
0.0
 70
    32
  1
3X420=<>
 71
     5
 42
1260.000000000001
  3
INABA_S40G
100
AcDbAlignedDimension
 13
4394.582777791759
 23
9806.500206066733
 33
0.0
 14
5654.58277779176
 24
9806.500206066827
 34
0.0
100
AcDbRotatedDimension
1001
ACAD
1000
DSTYLE
1002
{
1002
}
  0
LINE
  5
17B8B
330
747D
100
AcDbEntity
  8
部品1
 48
50.0
100
AcDbLine
 10
5629.582777791729
 20
9726.500206066654
 30
0.0
 11
4419.582777791729
 21
9726.500206066653
 31
0.0
  0
LINE
  5
17BA3
330
747D
100
AcDbEntity
  8
部品1
100
AcDbLine
 10
5234.582777791758
 20
9806.50020606685
 30
0.0
 11
5234.582777791758
 21
9778.500206066849
 31
0.0
  0
LINE
  5
17BA4
330
747D
100
AcDbEntity
  8
部品1
100
AcDbLine
 10
4814.582777791759
 20
9806.500206066733
 30
0.0
 11
4814.582777791759
 21
9778.500206066732
 31
0.0
  0
LINE
  5
17BA5
330
747D
100
AcDbEntity
  8
部品1
100
AcDbLine
 10
4814.582777791759
 20
9806.500206066733
 30
0.0
 11
4814.582777791759
 21
9778.500206066732
 31
0.0
  0
LINE
  5
17BA6
330
747D
100
AcDbEntity
  8
部品1
100
AcDbLine
 10
4814.582777791759
 20
9806.50020606685
 30
0.0
 11
4814.582777791759
 21
9778.500206066849
 31
0.0
  0
LINE
  5
17BA7
330
747D
100
AcDbEntity
  8
部品1
100
AcDbLine
 10
4814.582777791759
 20
9806.500206066733
 30
0.0
 11
4814.582777791759
 21
9778.500206066732
 31
0.0
  0
LINE
  5
17BA8
330
747D
100
AcDbEntity
  8
部品1
100
AcDbLine
 10
4814.582777791759
 20
9806.500206066733
 30
0.0
 11
4814.582777791759
 21
9778.500206066732
 31
0.0
  0
LINE
  5
17BA9
330
747D
100
AcDbEntity
  8
部品1
100
AcDbLine
 10
4814.582777791759
 20
9806.50020606685
 30
0.0
 11
4814.582777791759
 21
9778.500206066849
 31
0.0
  0
LINE
  5
17BC2
330
747D
100
AcDbEntity
  8
部品1
 48
50.0
100
AcDbLine
 10
4406.582777791751
 20
7642.000206066727
 30
0.0
 11
5642.582777791737
 21
7642.000206066727
 31
0.0
  0
DIMENSION
  5
17BC3
330
747D
100
AcDbEntity
  8
寸法
 48
50.0
100
AcDbDimension
  2
*D19
 10
4442.582777791753
 20
7062.069435300564
 30
0.0
 11
5024.582777791744
 21
7262.069435300564
 31
0.0
 70
    32
  1
有効開口部間口\P <>
 71
     5
 42
1163.999999999981
  3
INABA_S40G
100
AcDbAlignedDimension
 13
5606.582777791735
 23
7622.500206066728
 33
0.0
 14
4442.582777791753
 24
7622.500206066728
 34
0.0
100
AcDbRotatedDimension
1001
ACAD
1000
DSTYLE
1002
{
1070
    75
1070
     1
1070
   279
1070
     2
1002
}
  0
LINE
  5
17D10
330
747D
100
AcDbEntity
  8
部品1
100
AcDbLine
 10
7051.582777791755
 20
9331.500206066822
 30
0.0
 11
7079.582777791755
 21
9331.500206066822
 31
0.0
  0
LINE
  5
17D12
330
747D
100
AcDbEntity
  8
部品1
100
AcDbLine
 10
4367.582777791729
 20
9331.500206066694
 30
0.0
 11
4339.582777791729
 21
9331.500206066694
 31
0.0
  0
LINE
  5
180E0
330
747D
100
AcDbEntity
  8
部品1
100
AcDbLine
 10
4339.582777791753
 20
4512.931598713262
 30
0.0
 11
5764.582777791754
 21
4512.931598713262
 31
0.0
  0
LINE
  5
180FF
330
747D
100
AcDbEntity
  8
部品1
100
AcDbLine
 10
4339.582777791753
 20
2537.931598713262
 30
0.0
 11
7079.582777791753
 21
2537.931598713262
 31
0.0
  0
LINE
  5
18100
330
747D
100
AcDbEntity
  8
Ｇ．Ｌ
100
AcDbLine
 10
3251.31617512127
 20
2437.931598713262
 30
0.0
 11
12931.52971066081
 21
2437.931598713261
 31
0.0
  0
LINE
  5
18105
330
747D
100
AcDbEntity
  8
部品1
100
AcDbLine
 10
4339.582777791725
 20
9806.500206066701
 30
0.0
 11
7079.582777791761
 21
9806.500206066827
 31
0.0
  0
LINE
  5
18106
330
747D
100
AcDbEntity
  8
寸法
 48
50.0
100
AcDbLine
 10
5709.473077901232
 20
10198.77263703273
 30
0.0
 11
5709.473077901232
 21
10337.92376464069
 31
0.0
  0
LINE
  5
18161
330
747D
100
AcDbEntity
  8
部品1
100
AcDbLine
 10
5709.582777791745
 20
9751.500206066696
 30
0.0
 11
5709.582777791719
 21
7651.50020606667
 31
0.0
  0
LINE
  5
18162
330
747D
100
AcDbEntity
  8
部品1
100
AcDbLine
 10
5737.582777791706
 20
7596.500206066676
 30
0.0
 11
5737.582777791729
 21
9806.500206066726
 31
0.0
  0
LINE
  5
18163
330
747D
100
AcDbEntity
  8
部品1
 48
10.0
100
AcDbLine
 10
5789.582777791761
 20
7661.500206066675
 30
0.0
 11
5789.582777791713
 21
9751.500206066696
 31
0.0
  0
LINE
  5
18164
330
747D
100
AcDbEntity
  8
部品1
100
AcDbLine
 10
5764.582777791765
 20
7661.500206066675
 30
0.0
 11
5764.582777791738
 21
9751.500206066673
 31
0.0
  0
LINE
  5
18165
330
747D
100
AcDbEntity
  8
部品1
100
AcDbLine
 10
5681.582777791728
 20
9778.500206066773
 30
0.0
 11
5681.582777791711
 21
7596.500206066671
 31
0.0
  0
LINE
  5
18166
330
747D
100
AcDbEntity
  8
部品1
 48
10.0
100
AcDbLine
 10
5629.582777791755
 20
7661.500206066675
 30
0.0
 11
5629.582777791729
 21
9751.500206066678
 31
0.0
  0
LINE
  5
18167
330
747D
100
AcDbEntity
  8
部品1
100
AcDbLine
 10
5654.582777791746
 20
7661.500206066675
 30
0.0
 11
5654.582777791739
 21
9751.500206066678
 31
0.0
  0
LINE
  5
18168
330
747D
100
AcDbEntity
  8
部品1
100
AcDbLine
 10
5681.582777791748
 20
8911.500206066778
 30
0.0
 11
5709.582777791748
 21
8911.500206066778
 31
0.0
  0
LINE
  5
18169
330
747D
100
AcDbEntity
  8
部品1
100
AcDbLine
 10
5681.582777791748
 20
9331.500206066777
 30
0.0
 11
5709.582777791748
 21
9331.500206066777
 31
0.0
  0
LINE
  5
1816B
330
747D
100
AcDbEntity
  8
部品1
 48
50.0
100
AcDbLine
 10
5737.58277779178
 20
9778.500206066588
 30
0.0
 11
5764.582777791769
 21
9751.5002060666
 31
0.0
  0
LINE
  5
1816C
330
747D
100
AcDbEntity
  8
部品1
 48
50.0
100
AcDbLine
 10
5681.582777791795
 20
9778.500206066681
 30
0.0
 11
5654.582777791791
 21
9751.500206066676
 31
0.0
  0
LINE
  5
1816F
330
747D
100
AcDbEntity
  8
部品1
100
AcDbLine
 10
5654.582777791739
 20
9751.500206066747
 30
0.0
 11
4394.582777791729
 21
9751.500206066751
 31
0.0
  0
LINE
  5
18170
330
747D
100
AcDbEntity
  8
部品1
100
AcDbLine
 10
5737.582777791729
 20
9751.500206066749
 30
0.0
 11
5681.582777791725
 21
9751.500206066747
 31
0.0
  0
LINE
  5
18171
330
747D
100
AcDbEntity
  8
部品1
100
AcDbLine
 10
5681.582777791755
 20
8491.500206066778
 30
0.0
 11
5709.582777791755
 21
8491.500206066778
 31
0.0
  0
LINE
  5
18172
330
747D
100
AcDbEntity
  8
部品1
100
AcDbLine
 10
5681.582777791755
 20
8071.500206066778
 30
0.0
 11
5709.582777791755
 21
8071.500206066778
 31
0.0
  0
ARC
  5
18C61
330
747D
100
AcDbEntity
  8
細線
 48
50.0
100
AcDbCircle
 10
4724.582777791755
 20
3100.431598713262
 30
0.0
 40
15.0
100
AcDbArc
 50
90.0
 51
270.0
  0
ARC
  5
18C62
330
747D
100
AcDbEntity
  8
細線
 48
50.0
100
AcDbCircle
 10
4824.582777791754
 20
3100.431598713262
 30
0.0
 40
15.0
100
AcDbArc
 50
270.0
 51
90.0
  0
LINE
  5
18C63
330
747D
100
AcDbEntity
  8
細線
 48
50.0
100
AcDbLine
 10
4724.582777791755
 20
3115.431598713261
 30
0.0
 11
4824.582777791754
 21
3115.431598713261
 31
0.0
  0
LINE
  5
18C64
330
747D
100
AcDbEntity
  8
細線
 48
50.0
100
AcDbLine
 10
4824.582777791754
 20
3085.431598713262
 30
0.0
 11
4724.582777791755
 21
3085.431598713262
 31
0.0
  0
LINE
  5
18C65
330
747D
100
AcDbEntity
  8
細線
 48
50.0
100
AcDbLine
 10
5324.582777791754
 20
3085.431598713262
 30
0.0
 11
5224.582777791755
 21
3085.431598713262
 31
0.0
  0
LINE
  5
18C66
330
747D
100
AcDbEntity
  8
細線
 48
50.0
100
AcDbLine
 10
5224.582777791755
 20
3115.431598713261
 30
0.0
 11
5324.582777791754
 21
3115.431598713261
 31
0.0
  0
ARC
  5
18C67
330
747D
100
AcDbEntity
  8
細線
 48
50.0
100
AcDbCircle
 10
5224.582777791755
 20
3100.431598713262
 30
0.0
 40
15.0
100
AcDbArc
 50
90.0
 51
270.0
  0
ARC
  5
18C68
330
747D
100
AcDbEntity
  8
細線
 48
50.0
100
AcDbCircle
 10
5324.582777791754
 20
3100.431598713262
 30
0.0
 40
15.0
100
AcDbArc
 50
270.0
 51
90.0
  0
CIRCLE
  5
18C69
330
747D
100
AcDbEntity
  8
細線
 48
50.0
100
AcDbCircle
 10
5024.582777791755
 20
3425.431598713262
 30
0.0
 40
18.0
  0
ARC
  5
18C86
330
747D
100
AcDbEntity
  8
細線
 48
50.0
100
AcDbCircle
 10
6094.582777791751
 20
3100.431598713262
 30
0.0
 40
15.0
100
AcDbArc
 50
90.0
 51
270.0
  0
ARC
  5
18C87
330
747D
100
AcDbEntity
  8
細線
 48
50.0
100
AcDbCircle
 10
6194.582777791751
 20
3100.431598713262
 30
0.0
 40
15.0
100
AcDbArc
 50
270.0
 51
90.0
  0
LINE
  5
18C88
330
747D
100
AcDbEntity
  8
細線
 48
50.0
100
AcDbLine
 10
6094.582777791751
 20
3115.431598713261
 30
0.0
 11
6194.582777791751
 21
3115.431598713261
 31
0.0
  0
LINE
  5
18C89
330
747D
100
AcDbEntity
  8
細線
 48
50.0
100
AcDbLine
 10
6194.582777791751
 20
3085.431598713262
 30
0.0
 11
6094.582777791751
 21
3085.431598713262
 31
0.0
  0
LINE
  5
18C8A
330
747D
100
AcDbEntity
  8
細線
 48
50.0
100
AcDbLine
 10
6694.582777791751
 20
3085.431598713262
 30
0.0
 11
6594.582777791751
 21
3085.431598713262
 31
0.0
  0
LINE
  5
18C8B
330
747D
100
AcDbEntity
  8
細線
 48
50.0
100
AcDbLine
 10
6594.582777791751
 20
3115.431598713261
 30
0.0
 11
6694.582777791751
 21
3115.431598713261
 31
0.0
  0
ARC
  5
18C8C
330
747D
100
AcDbEntity
  8
細線
 48
50.0
100
AcDbCircle
 10
6594.582777791751
 20
3100.431598713262
 30
0.0
 40
15.0
100
AcDbArc
 50
90.0
 51
270.0
  0
ARC
  5
18C8D
330
747D
100
AcDbEntity
  8
細線
 48
50.0
100
AcDbCircle
 10
6694.582777791751
 20
3100.431598713262
 30
0.0
 40
15.0
100
AcDbArc
 50
270.0
 51
90.0
  0
CIRCLE
  5
18C8E
330
747D
100
AcDbEntity
  8
細線
 48
50.0
100
AcDbCircle
 10
6394.582777791751
 20
3425.431598713262
 30
0.0
 40
18.0
  0
LINE
  5
190FE
330
747D
100
AcDbEntity
  8
仕様書枠
 48
50.0
100
AcDbLine
 10
13127.2
 20
11239.6
 30
0.0
 11
13127.20000000001
 21
8179.600000000002
 31
0.0
  0
TEXT
  5
190FF
330
747D
100
AcDbEntity
  8
文字
 62
     7
 48
50.0
100
AcDbText
 10
13229.83081656555
 20
8210.013745883731
 30
0.0
 40
100.0
  1
Z08→塗装溶融亜鉛めっき鋼板(JIS G 3313)
  7
STYLE1
100
AcDbText
  0
TEXT
  5
19100
330
747D
100
AcDbEntity
  8
文字
 62
     7
 48
50.0
100
AcDbText
 10
13229.83081656555
 20
8380.013745883728
 30
0.0
 40
100.0
  1
Y10→溶融亜鉛-5％アルミニウム合金めっき鋼板(JIS G 3317)
 41
0.9
  7
STYLE1
100
AcDbText
  0
TEXT
  5
19101
330
747D
100
AcDbEntity
  8
文字
 62
     7
 48
50.0
100
AcDbText
 10
13229.83081656555
 20
8550.013745883729
 30
0.0
 40
100.0
  1
F12→溶融亜鉛めっき鋼板(JIS G 3302)
  7
STYLE1
100
AcDbText
  0
LINE
  5
19102
330
747D
100
AcDbEntity
  8
仕様書枠
 48
50.0
100
AcDbLine
 10
16307.19999999999
 20
8179.6
 30
0.0
 11
13127.2
 21
8179.600000000002
 31
0.0
  0
LINE
  5
19103
330
747D
100
AcDbEntity
  8
仕様書枠
 48
50.0
100
AcDbLine
 10
16307.19999999999
 20
8349.6
 30
0.0
 11
13127.2
 21
8349.600000000002
 31
0.0
  0
LINE
  5
19104
330
747D
100
AcDbEntity
  8
仕様書枠
 48
50.0
100
AcDbLine
 10
16307.19999999999
 20
8519.600000000002
 30
0.0
 11
13127.2
 21
8519.600000000002
 31
0.0
  0
TEXT
  5
19105
330
747D
100
AcDbEntity
  8
文字
 62
     7
 48
50.0
100
AcDbText
 10
15022.63965474515
 20
8720.013745883729
 30
0.0
 40
100.0
  1
F12            0.6
  7
STYLE1
100
AcDbText
  0
TEXT
  5
19106
330
747D
100
AcDbEntity
  8
文字
 62
     7
 48
50.0
100
AcDbText
 10
15022.63965474515
 20
9230.013745883727
 30
0.0
 40
100.0
  1
Z08            0.5
  7
STYLE1
100
AcDbText
  0
TEXT
  5
19108
330
747D
100
AcDbEntity
  8
文字
 62
     7
 48
50.0
100
AcDbText
 10
14850.83183167176
 20
8890.013745883727
 30
0.0
 40
100.0
  1
アルミニウム合金押出形材
  7
STYLE1
100
AcDbText
  0
TEXT
  5
19109
330
747D
100
AcDbEntity
  8
文字
 62
     7
 48
50.0
100
AcDbText
 10
15022.63965474516
 20
9400.013745883727
 30
0.0
 40
100.0
  1
F12            0.7
  7
STYLE1
100
AcDbText
  0
TEXT
  5
1910A
330
747D
100
AcDbEntity
  8
文字
 62
     7
 48
50.0
100
AcDbText
 10
15022.63965474517
 20
9570.013745883727
 30
0.0
 40
100.0
  1
Y10            0.5
  7
STYLE1
100
AcDbText
  0
TEXT
  5
1910B
330
747D
100
AcDbEntity
  8
文字
 62
     7
 48
50.0
100
AcDbText
 10
15022.63965474517
 20
9740.013745883729
 30
0.0
 40
100.0
  1
F12            1.0
  7
STYLE1
100
AcDbText
  0
TEXT
  5
1910C
330
747D
100
AcDbEntity
  8
文字
 62
     7
 48
50.0
100
AcDbText
 10
15022.63965474516
 20
10080.01374588372
 30
0.0
 40
100.0
  1
Y10            0.7
  7
STYLE1
100
AcDbText
  0
TEXT
  5
1910D
330
747D
100
AcDbEntity
  8
文字
 62
     7
 48
50.0
100
AcDbText
 10
15022.63965474517
 20
10250.01374588373
 30
0.0
 40
100.0
  1
Y10            0.7
  7
STYLE1
100
AcDbText
  0
TEXT
  5
1910E
330
747D
100
AcDbEntity
  8
文字
 62
     7
 48
50.0
100
AcDbText
 10
15022.63965474516
 20
10420.01374588372
 30
0.0
 40
100.0
  1
Y10            1.0
  7
STYLE1
100
AcDbText
  0
TEXT
  5
1910F
330
747D
100
AcDbEntity
  8
文字
 62
     7
 48
50.0
100
AcDbText
 10
15022.63965474517
 20
10590.01374588373
 30
0.0
 40
100.0
  1
Y10            1.0
  7
STYLE1
100
AcDbText
  0
TEXT
  5
19111
330
747D
100
AcDbEntity
  8
文字
 62
     7
 48
50.0
100
AcDbText
 10
15022.63965474517
 20
10930.01374588372
 30
0.0
 40
100.0
  1
F12            1.2
  7
STYLE1
100
AcDbText
  0
TEXT
  5
19112
330
747D
100
AcDbEntity
  8
文字
 62
     7
 48
50.0
100
AcDbText
 10
13248.77747366448
 20
9060.013745883731
 30
0.0
 40
100.0
  1
12
  7
STYLE1
100
AcDbText
  0
TEXT
  5
19113
330
747D
100
AcDbEntity
  8
文字
 62
     7
 48
50.0
100
AcDbText
 10
13248.77747366448
 20
8890.013745883731
 30
0.0
 40
100.0
  1
13
  7
STYLE1
100
AcDbText
  0
TEXT
  5
19114
330
747D
100
AcDbEntity
  8
文字
 62
     7
 48
50.0
100
AcDbText
 10
13583.11819016569
 20
9230.013745883731
 30
0.0
 40
100.0
  1
シャッター
  7
STYLE1
100
AcDbText
  0
LINE
  5
19115
330
747D
100
AcDbEntity
  8
仕様書枠
 48
50.0
100
AcDbLine
 10
16307.19999999999
 20
8859.600000000002
 30
0.0
 11
13127.2
 21
8859.600000000005
 31
0.0
  0
TEXT
  5
19116
330
747D
100
AcDbEntity
  8
文字
 62
     7
 48
50.0
100
AcDbText
 10
13583.11819016569
 20
8720.013745883731
 30
0.0
 40
100.0
  1
棚板（別売）
  7
STYLE1
100
AcDbText
  0
LINE
  5
19117
330
747D
100
AcDbEntity
  8
仕様書枠
 48
50.0
100
AcDbLine
 10
16307.19999999999
 20
8689.6
 30
0.0
 11
13127.2
 21
8689.600000000003
 31
0.0
  0
LINE
  5
19118
330
747D
100
AcDbEntity
  8
仕様書枠
 48
50.0
100
AcDbLine
 10
16307.19999999999
 20
9029.6
 30
0.0
 11
13127.2
 21
9029.600000000002
 31
0.0
  0
TEXT
  5
19119
330
747D
100
AcDbEntity
  8
文字
 62
     7
 48
50.0
100
AcDbText
 10
13583.11819016569
 20
9060.013745883729
 30
0.0
 40
100.0
  1
シャッターカバー
 41
0.9
  7
STYLE1
100
AcDbText
  0
TEXT
  5
1911A
330
747D
100
AcDbEntity
  8
文字
 62
     7
 48
50.0
100
AcDbText
 10
13248.77747366448
 20
9230.013745883729
 30
0.0
 40
100.0
  1
11
  7
STYLE1
100
AcDbText
  0
LINE
  5
1911B
330
747D
100
AcDbEntity
  8
仕様書枠
 48
50.0
100
AcDbLine
 10
16307.2
 20
9709.600000000001
 30
0.0
 11
13127.2
 21
9709.600000000001
 31
0.0
  0
LINE
  5
1911C
330
747D
100
AcDbEntity
  8
仕様書枠
 48
50.0
100
AcDbLine
 10
16307.2
 20
10049.6
 30
0.0
 11
13127.2
 21
10049.6
 31
0.0
  0
LINE
  5
1911D
330
747D
100
AcDbEntity
  8
仕様書枠
 48
50.0
100
AcDbLine
 10
16307.19999999999
 20
9369.600000000001
 30
0.0
 11
13127.2
 21
9369.600000000003
 31
0.0
  0
LINE
  5
1911E
330
747D
100
AcDbEntity
  8
仕様書枠
 48
50.0
100
AcDbLine
 10
16307.19999999999
 20
9199.600000000001
 30
0.0
 11
13127.2
 21
9199.600000000001
 31
0.0
  0
LINE
  5
1911F
330
747D
100
AcDbEntity
  8
仕様書枠
 48
50.0
100
AcDbLine
 10
16307.19999999999
 20
9539.6
 30
0.0
 11
13127.2
 21
9539.600000000003
 31
0.0
  0
TEXT
  5
19120
330
747D
100
AcDbEntity
  8
文字
 62
     7
 48
50.0
100
AcDbText
 10
13271.19032244792
 20
10080.01374588373
 30
0.0
 40
100.0
  1
6
  7
STYLE1
100
AcDbText
  0
TEXT
  5
19121
330
747D
100
AcDbEntity
  8
文字
 62
     7
 48
50.0
100
AcDbText
 10
13271.19032244792
 20
9910.01374588373
 30
0.0
 40
100.0
  1
7
  7
STYLE1
100
AcDbText
  0
TEXT
  5
19122
330
747D
100
AcDbEntity
  8
文字
 62
     7
 48
50.0
100
AcDbText
 10
13271.19032244792
 20
9570.013745883731
 30
0.0
 40
100.0
  1
9
  7
STYLE1
100
AcDbText
  0
TEXT
  5
19123
330
747D
100
AcDbEntity
  8
文字
 62
     7
 48
50.0
100
AcDbText
 10
13271.19032244792
 20
9740.013745883731
 30
0.0
 40
100.0
  1
8
  7
STYLE1
100
AcDbText
  0
TEXT
  5
19124
330
747D
100
AcDbEntity
  8
文字
 62
     7
 48
50.0
100
AcDbText
 10
13583.11819016569
 20
10080.01374588373
 30
0.0
 40
100.0
  1
鼻隠シ前後
  7
STYLE1
100
AcDbText
  0
TEXT
  5
19125
330
747D
100
AcDbEntity
  8
文字
 62
     7
 48
50.0
100
AcDbText
 10
13583.11819016569
 20
9740.013745883729
 30
0.0
 40
100.0
  1
母屋中
  7
STYLE1
100
AcDbText
  0
TEXT
  5
19126
330
747D
100
AcDbEntity
  8
文字
 62
     7
 48
50.0
100
AcDbText
 10
13583.11819016569
 20
9570.013745883729
 30
0.0
 40
100.0
  1
屋根パネル
  7
STYLE1
100
AcDbText
  0
TEXT
  5
19127
330
747D
100
AcDbEntity
  8
文字
 62
     7
 48
50.0
100
AcDbText
 10
13583.11819016569
 20
9400.013745883731
 30
0.0
 40
100.0
  1
壁パネル
  7
STYLE1
100
AcDbText
  0
TEXT
  5
19128
330
747D
100
AcDbEntity
  8
文字
 62
     7
 48
50.0
100
AcDbText
 10
13248.77747366448
 20
9400.013745883729
 30
0.0
 40
100.0
  1
10
  7
STYLE1
100
AcDbText
  0
TEXT
  5
19129
330
747D
100
AcDbEntity
  8
文字
 62
     7
 48
50.0
100
AcDbText
 10
13583.11819016569
 20
8890.013745883729
 30
0.0
 40
100.0
  1
シャッターレール
  7
STYLE1
100
AcDbText
  0
TEXT
  5
1912A
330
747D
100
AcDbEntity
  8
文字
 62
     7
 48
50.0
100
AcDbText
 10
13583.11819016569
 20
10250.01374588373
 30
0.0
 40
100.0
  1
妻板左右
  7
STYLE1
100
AcDbText
  0
TEXT
  5
1912B
330
747D
100
AcDbEntity
  8
文字
 62
     7
 48
50.0
100
AcDbText
 10
13271.19032244792
 20
10250.01374588373
 30
0.0
 40
100.0
  1
5
  7
STYLE1
100
AcDbText
  0
TEXT
  5
1912C
330
747D
100
AcDbEntity
  8
文字
 62
     7
 48
50.0
100
AcDbText
 10
13583.11819016569
 20
10420.01374588373
 30
0.0
 40
100.0
  1
桁後
  7
STYLE1
100
AcDbText
  0
TEXT
  5
1912D
330
747D
100
AcDbEntity
  8
文字
 62
     7
 48
50.0
100
AcDbText
 10
13583.11819016569
 20
10590.01374588373
 30
0.0
 40
100.0
  1
桁前
  7
STYLE1
100
AcDbText
  0
TEXT
  5
1912E
330
747D
100
AcDbEntity
  8
文字
 62
     7
 48
50.0
100
AcDbText
 10
13583.11819016569
 20
10760.01374588373
 30
0.0
 40
100.0
  1
柱
  7
STYLE1
100
AcDbText
  0
TEXT
  5
1912F
330
747D
100
AcDbEntity
  8
文字
 62
     7
 48
50.0
100
AcDbText
 10
13583.11819016569
 20
10930.01374588373
 30
0.0
 40
100.0
  1
土台枠
  7
STYLE1
100
AcDbText
  0
TEXT
  5
19130
330
747D
100
AcDbEntity
  8
文字
 62
     7
 48
50.0
100
AcDbText
 10
14859.79774614482
 20
11100.01374588373
 30
0.0
 40
100.0
  1
材料（材質）　　単位mm
  7
STYLE1
100
AcDbText
  0
TEXT
  5
19131
330
747D
100
AcDbEntity
  8
文字
 62
     7
 48
50.0
100
AcDbText
 10
13732.03840939435
 20
11100.01374588373
 30
0.0
 40
100.0
  1
部　　品　　名
  7
STYLE1
100
AcDbText
  0
TEXT
  5
19132
330
747D
100
AcDbEntity
  8
文字
 62
     7
 48
50.0
100
AcDbText
 10
13271.19032244792
 20
10590.01374588373
 30
0.0
 40
100.0
  1
3
  7
STYLE1
100
AcDbText
  0
TEXT
  5
19133
330
747D
100
AcDbEntity
  8
文字
 62
     7
 48
50.0
100
AcDbText
 10
13271.19032244792
 20
10420.01374588373
 30
0.0
 40
100.0
  1
4
  7
STYLE1
100
AcDbText
  0
TEXT
  5
19134
330
747D
100
AcDbEntity
  8
文字
 62
     7
 48
50.0
100
AcDbText
 10
13271.19032244792
 20
10760.01374588373
 30
0.0
 40
100.0
  1
2
  7
STYLE1
100
AcDbText
  0
TEXT
  5
19135
330
747D
100
AcDbEntity
  8
文字
 62
     7
 48
50.0
100
AcDbText
 10
13271.19032244792
 20
10930.01374588373
 30
0.0
 40
100.0
  1
1
  7
STYLE1
100
AcDbText
  0
TEXT
  5
19136
330
747D
100
AcDbEntity
  8
文字
 62
     7
 48
50.0
100
AcDbText
 10
13197.42518560407
 20
11100.01374588373
 30
0.0
 40
100.0
  1
品番
  7
STYLE1
100
AcDbText
  0
LINE
  5
19137
330
747D
100
AcDbEntity
  8
仕様書枠
 48
50.0
100
AcDbLine
 10
16307.19999999999
 20
10559.6
 30
0.0
 11
13127.2
 21
10559.6
 31
0.0
  0
LINE
  5
19138
330
747D
100
AcDbEntity
  8
仕様書枠
 48
50.0
100
AcDbLine
 10
16307.19999999999
 20
10219.6
 30
0.0
 11
13127.2
 21
10219.6
 31
0.0
  0
LINE
  5
19139
330
747D
100
AcDbEntity
  8
仕様書枠
 48
50.0
100
AcDbLine
 10
16307.19999999999
 20
10389.6
 30
0.0
 11
13127.2
 21
10389.6
 31
0.0
  0
LINE
  5
1913A
330
747D
100
AcDbEntity
  8
仕様書枠
 48
50.0
100
AcDbLine
 10
16307.2
 20
10899.6
 30
0.0
 11
13127.2
 21
10899.6
 31
0.0
  0
LINE
  5
1913B
330
747D
100
AcDbEntity
  8
仕様書枠
 48
50.0
100
AcDbLine
 10
16307.2
 20
10729.6
 30
0.0
 11
13127.2
 21
10729.6
 31
0.0
  0
LINE
  5
1913C
330
747D
100
AcDbEntity
  8
仕様書枠
 48
50.0
100
AcDbLine
 10
16307.2
 20
11069.6
 30
0.0
 11
13127.2
 21
11069.6
 31
0.0
  0
LINE
  5
1913D
330
747D
100
AcDbEntity
  8
仕様書枠
 48
50.0
100
AcDbLine
 10
13490.2
 20
11239.6
 30
0.0
 11
13490.20000000001
 21
8689.600000000003
 31
0.0
  0
LINE
  5
1913E
330
747D
100
AcDbEntity
  8
仕様書枠
 48
50.0
100
AcDbLine
 10
14785.2
 20
11239.6
 30
0.0
 11
14785.2
 21
8689.600000000003
 31
0.0
  0
LINE
  5
1913F
330
747D
100
AcDbEntity
  8
仕様書枠
 48
50.0
100
AcDbLine
 10
16307.2
 20
8179.6
 30
0.0
 11
16307.2
 21
11239.6
 31
0.0
  0
LINE
  5
19140
330
747D
100
AcDbEntity
  8
仕様書枠
 48
50.0
100
AcDbLine
 10
16307.2
 20
11239.6
 30
0.0
 11
13127.2
 21
11239.6
 31
0.0
  0
LINE
  5
19141
330
747D
100
AcDbEntity
  8
仕様書枠
 48
50.0
100
AcDbLine
 10
16307.2
 20
9879.600000000001
 30
0.0
 11
13127.2
 21
9879.600000000003
 31
0.0
  0
TEXT
  5
19142
330
747D
100
AcDbEntity
  8
文字
 62
     7
 48
50.0
100
AcDbText
 10
13248.77747366448
 20
8720.013745883733
 30
0.0
 40
100.0
  1
14
  7
STYLE1
100
AcDbText
  0
TEXT
  5
19143
330
747D
100
AcDbEntity
  8
文字
 62
     7
 48
50.0
100
AcDbText
 10
13583.11819016569
 20
9910.01374588373
 30
0.0
 40
100.0
  1
梁中
  7
STYLE1
100
AcDbText
  0
TEXT
  5
19144
330
747D
100
AcDbEntity
  8
文字
 62
     7
 48
50.0
100
AcDbText
 10
15022.63965474516
 20
9910.01374588373
 30
0.0
 40
100.0
  1
F12,Y10        1.0
  7
STYLE1
100
AcDbText
  0
TEXT
  5
19267
330
747D
100
AcDbEntity
  8
文字
 62
     7
 48
50.0
100
AcDbText
 10
13209.21412272472
 20
76.80799540191538
 30
0.0
 40
100.0
  1
○床面積 ： 6.06㎡(1.83坪)
  7
STYLE2
100
AcDbText
  0
TEXT
  5
197D7
330
747D
100
AcDbEntity
  8
文字
 62
     7
 48
50.0
100
AcDbText
 10
14222.92738283254
 20
483.8967129911416
 30
0.0
 40
160.0
  1
FXN-1322HL-2
  7
MSPゴシック
100
AcDbText
  0
LINE
  5
19862
330
747D
100
AcDbEntity
  8
部品1
100
AcDbLine
 10
12063.29996814195
 20
4732.608036344485
 30
0.0
 11
12063.29996814195
 21
2437.931598713262
 31
0.0
  0
LINE
  5
19863
330
747D
100
AcDbEntity
  8
部品1
100
AcDbLine
 10
12008.29996814195
 20
4677.931598713261
 30
0.0
 11
12008.29996814195
 21
2587.931598713262
 31
0.0
  0
DIMENSION
  5
19864
330
747D
100
AcDbEntity
  8
寸法
100
AcDbDimension
  2
*D22
 10
12768.22712611408
 20
4857.931598713261
 30
0.0
 11
12768.22712611408
 21
3697.931598713262
 31
0.0
 70
   160
 71
     5
 42
2320.0
  3
INABA_S40G
100
AcDbAlignedDimension
 13
12063.29996814195
 23
2537.931598713262
 33
0.0
 14
12158.29996814195
 24
4857.931598713261
 34
0.0
 50
90.0
100
AcDbRotatedDimension
1001
ACAD
1000
DSTYLE
1002
{
1070
   288
1070
     1
1002
}
  0
LINE
  5
19865
330
747D
100
AcDbEntity
  8
部品1
100
AcDbLine
 10
9853.299968141957
 20
2537.931598713262
 30
0.0
 11
9460.302753933111
 21
2437.931598713262
 31
0.0
  0
LINE
  5
19866
330
747D
100
AcDbEntity
  8
部品1
100
AcDbLine
 10
9908.299968141957
 20
4677.931598713261
 30
0.0
 11
9908.299968141957
 21
2437.931598713262
 31
0.0
  0
LINE
  5
19867
330
747D
100
AcDbEntity
  8
部品1
100
AcDbLine
 10
9853.299968141962
 20
4769.95789575785
 30
0.0
 11
9853.299968141957
 21
2437.931598713262
 31
0.0
  0
LINE
  5
19868
330
747D
100
AcDbEntity
  8
部品1
100
AcDbLine
 10
9853.299968141957
 20
4677.931598713261
 30
0.0
 11
12063.29996814195
 21
4677.931598713261
 31
0.0
  0
LINE
  5
19869
330
747D
100
AcDbEntity
  8
部品1
100
AcDbLine
 10
9908.299968141957
 20
2587.931598713262
 30
0.0
 11
12063.29996814195
 21
2587.931598713262
 31
0.0
  0
LINE
  5
1986A
330
747D
100
AcDbEntity
  8
部品1
100
AcDbLine
 10
9908.299968141957
 20
2537.931598713262
 30
0.0
 11
12063.29996814195
 21
2537.931598713262
 31
0.0
  0
LINE
  5
1986B
330
747D
100
AcDbEntity
  8
破線
 48
5.0
100
AcDbLine
 10
9853.299968141957
 20
2187.931598713262
 30
0.0
 11
9908.299968141957
 21
2187.931598713262
 31
0.0
  0
LINE
  5
19871
330
747D
100
AcDbEntity
  8
破線
 48
5.0
100
AcDbLine
 10
9908.299968141957
 20
2437.931598713262
 30
0.0
 11
9908.299968141957
 21
2187.931598713262
 31
0.0
  0
LINE
  5
19872
330
747D
100
AcDbEntity
  8
破線
 48
5.0
100
AcDbLine
 10
9853.299968141957
 20
2437.931598713262
 30
0.0
 11
9853.299968141957
 21
2187.931598713262
 31
0.0
  0
DIMENSION
  5
19873
330
747D
100
AcDbEntity
  8
寸法
100
AcDbDimension
  2
*D23
 10
9009.549838958697
 20
2587.931598713263
 30
0.0
 11
8909.538027935075
 21
3632.931598713263
 31
0.0
 70
    32
 71
     5
 42
2089.999999999999
  3
INABA_S40G
100
AcDbAlignedDimension
 13
9853.299968141957
 23
4677.931598713261
 33
0.0
 14
9853.299968141957
 24
2587.931598713262
 34
0.0
 50
90.0
100
AcDbRotatedDimension
1001
ACAD
1000
DSTYLE
1002
{
1070
   288
1070
     1
1002
}
  0
DIMENSION
  5
19874
330
747D
100
AcDbEntity
  8
寸法
100
AcDbDimension
  2
*D24
 10
8709.549838958698
 20
2437.931598713262
 30
0.0
 11
8709.549838958698
 21
2022.931598713262
 31
0.0
 70
   160
 71
     5
 42
100.0000000000004
  3
INABA_S40G
100
AcDbAlignedDimension
 13
9798.299968141957
 23
2537.931598713262
 33
0.0
 14
8796.798892246824
 24
2437.931598713262
 34
0.0
 50
90.0
100
AcDbRotatedDimension
1001
ACAD
1000
DSTYLE
1002
{
1070
   288
1070
     1
1002
}
  0
DIMENSION
  5
19875
330
747D
100
AcDbEntity
  8
寸法
100
AcDbDimension
  2
*D25
 10
9009.549838958697
 20
2537.931598713262
 30
0.0
 11
9009.549838958697
 21
2154.181598713262
 31
0.0
 70
   160
 71
     5
 42
50.0
  3
INABA_S40G
100
AcDbAlignedDimension
 13
9853.299968141957
 23
2587.931598713262
 33
0.0
 14
9798.299968141957
 24
2537.931598713262
 34
0.0
 50
90.0
100
AcDbRotatedDimension
1001
ACAD
1000
DSTYLE
1002
{
1070
   288
1070
     1
1002
}
  0
DIMENSION
  5
198BE
330
747D
100
AcDbEntity
  8
寸法
 48
50.0
100
AcDbDimension
  2
*D26
 10
9793.299968141957
 20
5530.790885966857
 30
0.0
 11
10968.29996814195
 21
5530.790885966857
 31
0.0
 70
   160
 71
     5
 42
2350.0
  3
INABA_S40G
100
AcDbAlignedDimension
 13
12143.29996814195
 23
4857.931598713263
 33
0.0
 14
9793.299968141957
 24
4912.931598713267
 34
0.0
100
AcDbRotatedDimension
1001
ACAD
1000
DSTYLE
1002
{
1070
   174
1070
     0
1070
   272
1070
     1
1070
   288
1070
     0
1070
   341
1005
0
1002
}
  0
DIMENSION
  5
198BF
330
747D
100
AcDbEntity
  8
寸法
 48
50.0
100
AcDbDimension
  2
*D27
 10
9853.299968141955
 20
5311.589052292566
 30
0.0
 11
10958.29996814195
 21
5311.589052292566
 31
0.0
 70
   160
  1
柱外寸法<>
 71
     5
 42
2210.0
  3
INABA_S40G
100
AcDbAlignedDimension
 13
12063.29996814195
 23
4859.742278324915
 33
0.0
 14
9853.299968141955
 24
4908.933216836238
 34
0.0
100
AcDbRotatedDimension
1001
ACAD
1000
DSTYLE
1002
{
1070
   174
1070
     0
1070
   272
1070
     1
1070
   288
1070
     0
1070
   341
1005
0
1002
}
  0
TEXT
  5
198C0
330
747D
100
AcDbEntity
  8
部品1
 48
50.0
100
AcDbText
 10
10796.56780336568
 20
5079.248044206806
 30
0.0
 40
120.0
  1
1000
  7
STYLE1
100
AcDbText
  0
LINE
  5
198C1
330
747D
100
AcDbEntity
  8
部品1
 48
50.0
100
AcDbLine
 10
11108.29996814195
 20
5043.364022054372
 30
0.0
 11
11108.29996814195
 21
5027.164022054375
 31
0.0
  0
LINE
  5
198C2
330
747D
100
AcDbEntity
  8
部品1
 48
50.0
100
AcDbLine
 10
10808.29996814195
 20
5043.364022054372
 30
0.0
 11
11108.29996814195
 21
5043.364022054372
 31
0.0
  0
LINE
  5
198C3
330
747D
100
AcDbEntity
  8
部品1
100
AcDbLine
 10
10782.84495449892
 20
5044.682081013235
 30
0.0
 11
11108.29996814195
 21
5027.164022054375
 31
0.0
  0
TEXT
  5
198C4
330
747D
100
AcDbEntity
  8
部品1
 48
50.0
100
AcDbText
 10
11274.20082603077
 20
4941.746785988524
 30
0.0
 40
120.0
  1
44
 50
90.0
  7
STYLE1
100
AcDbText
  0
DIMENSION
  5
198C5
330
747D
100
AcDbEntity
  8
寸法
 48
50.0
100
AcDbDimension
  2
*D28
 10
9793.299968141957
 20
5311.589052292566
 30
0.0
 11
9483.662172866365
 21
5311.589052292566
 31
0.0
 70
   160
 71
     5
 42
60.0
  3
INABA_S40G
100
AcDbAlignedDimension
 13
9853.299968141955
 23
4908.933216836238
 33
0.0
 14
9793.299968141957
 24
4912.931598713267
 34
0.0
100
AcDbRotatedDimension
1001
ACAD
1000
DSTYLE
1002
{
1070
   174
1070
     0
1070
   272
1070
     1
1070
   288
1070
     0
1070
   341
1005
0
1002
}
  0
DIMENSION
  5
198C6
330
747D
100
AcDbEntity
  8
寸法
 48
50.0
100
AcDbDimension
  2
*D29
 10
9232.69156137359
 20
4787.276857586592
 30
0.0
 11
9243.357036632513
 21
5158.123520828293
 31
0.0
 70
   161
 71
     5
 42
141.0000000000009
  3
INABA_S40G
100
AcDbAlignedDimension
 13
9812.695988300536
 23
4911.654347547941
 33
0.0
 14
9808.64253274391
 24
4770.712623782229
 34
0.0
1001
ACAD
1000
DSTYLE
1002
{
1070
   174
1070
     0
1070
   272
1070
     1
1070
   288
1070
     0
1070
   341
1005
0
1002
}
  0
DIMENSION
  5
198C7
330
747D
100
AcDbEntity
  8
寸法
 48
50.0
100
AcDbDimension
  2
*D30
 10
12143.29996814195
 20
5311.589052292566
 30
0.0
 11
12349.34721223644
 21
5311.589052292566
 31
0.0
 70
   160
 71
     5
 42
80.0
  3
INABA_S40G
100
AcDbAlignedDimension
 13
12063.29996814195
 23
4859.742278324915
 33
0.0
 14
12143.29996814195
 24
4857.931598713263
 34
0.0
100
AcDbRotatedDimension
1001
ACAD
1000
DSTYLE
1002
{
1070
   174
1070
     0
1070
   272
1070
     1
1070
   288
1070
     0
1070
   341
1005
0
1002
}
  0
LINE
  5
198C8
330
747D
100
AcDbEntity
  8
細線
 48
50.0
100
AcDbLine
 10
9826.299968141956
 20
4910.331275088667
 30
0.0
 11
9821.010866586448
 21
4770.245642461311
 31
0.0
  0
LINE
  5
198C9
330
747D
100
AcDbEntity
  8
部品1
 48
50.0
100
AcDbLine
 10
9793.484254055062
 20
4904.525144877954
 30
0.0
 11
9793.864513832874
 21
4884.598180431543
 31
0.0
  0
LINE
  5
198CA
330
747D
100
AcDbEntity
  8
部品1
 48
50.0
100
AcDbLine
 10
9796.93328593912
 20
4881.02289893807
 30
0.0
 11
9798.637187430484
 21
4791.732402231423
 31
0.0
  0
LINE
  5
198CB
330
747D
100
AcDbEntity
  8
部品1
 48
50.0
100
AcDbLine
 10
9801.705959536727
 20
4788.157120737952
 30
0.0
 11
9801.907912157158
 21
4777.574085344858
 31
0.0
  0
ARC
  5
198CC
330
747D
100
AcDbEntity
  8
部品1
 48
50.0
100
AcDbCircle
 10
9800.482979883403
 20
4904.658699285382
 30
0.0
 40
7.0
100
AcDbArc
 50
87.03587545283228
 51
181.0932240293156
  0
ARC
  5
198CD
330
747D
100
AcDbEntity
  8
部品1
 48
50.0
100
AcDbCircle
 10
9808.906637985499
 20
4777.707639752287
 30
0.0
 40
7.0
100
AcDbArc
 50
181.0932240293156
 51
267.8377559869492
  0
ARC
  5
198CE
330
747D
100
AcDbEntity
  8
部品1
100
AcDbCircle
 10
9798.706505610297
 20
4788.099883134768
 30
0.0
 40
3.0
100
AcDbArc
 50
1.093224029315636
 51
80.18775403169875
  0
ARC
  5
198CF
330
747D
100
AcDbEntity
  8
部品1
100
AcDbCircle
 10
9793.93383201269
 20
4880.965661334887
 30
0.0
 40
3.0
100
AcDbArc
 50
1.093224029315636
 51
80.18775403169875
  0
ARC
  5
198D0
330
747D
100
AcDbEntity
  8
部品1
100
AcDbCircle
 10
9794.564386415713
 20
4884.611535872285
 30
0.0
 40
0.7
100
AcDbArc
 50
181.0932240292114
 51
260.1877540314845
  0
ARC
  5
198D1
330
747D
100
AcDbEntity
  8
部品1
100
AcDbCircle
 10
9799.337060013321
 20
4791.745757672166
 30
0.0
 40
0.7
100
AcDbArc
 50
181.0932240292635
 51
260.1877540314845
  0
LINE
  5
198D2
330
747D
100
AcDbEntity
  8
部品1
100
AcDbLine
 10
9800.844954498918
 20
4911.649334047528
 30
0.0
 11
12135.91184500342
 21
4856.572396422402
 31
0.0
  0
LINE
  5
198D3
330
747D
100
AcDbEntity
  8
部品1
100
AcDbLine
 10
9808.64253274391
 20
4770.712623782229
 30
0.0
 11
12117.9636686818
 21
4731.684198548024
 31
0.0
  0
LINE
  5
198D4
330
747D
100
AcDbEntity
  8
細線
 48
50.0
100
AcDbLine
 10
9794.33939124277
 20
4883.948680554624
 30
0.0
 11
12139.97537598794
 21
4828.324475913796
 31
0.0
  0
LINE
  5
198D5
330
747D
100
AcDbEntity
  8
細線
 48
50.0
100
AcDbLine
 10
9799.099866480055
 20
4791.08716885676
 30
0.0
 11
12129.10353091069
 21
4751.277849882266
 31
0.0
  0
LINE
  5
198D6
330
747D
100
AcDbEntity
  8
細線
 48
50.0
100
AcDbLine
 10
12110.29996814196
 20
4857.898577748557
 30
0.0
 11
12105.55228525396
 21
4732.152805257814
 31
0.0
  0
LINE
  5
198D7
330
747D
100
AcDbEntity
  8
部品1
 48
50.0
100
AcDbLine
 10
12142.51387095266
 20
4848.872750987481
 30
0.0
 11
12140.48324976169
 21
4828.9277097297
 31
0.0
  0
LINE
  5
198D8
330
747D
100
AcDbEntity
  8
部品1
 48
50.0
100
AcDbLine
 10
12137.13068327721
 20
4825.617075656792
 30
0.0
 11
12129.62390401237
 21
4751.884454911778
 31
0.0
  0
LINE
  5
198D9
330
747D
100
AcDbEntity
  8
部品1
 48
50.0
100
AcDbLine
 10
12126.27133752788
 20
4748.573820838866
 30
0.0
 11
12125.19177448814
 21
4737.970203845309
 31
0.0
  0
ARC
  5
198DA
330
747D
100
AcDbEntity
  8
部品1
 48
50.0
100
AcDbCircle
 10
12135.5498703879
 20
4849.581761660254
 30
0.0
 40
7.0
100
AcDbArc
 50
354.1866997665532
 51
87.03587545283228
  0
ARC
  5
198DB
330
747D
100
AcDbEntity
  8
部品1
 48
50.0
100
AcDbCircle
 10
12118.22777392339
 20
4738.679214518082
 30
0.0
 40
7.0
100
AcDbArc
 50
267.8377559869492
 51
354.1866997665532
  0
ARC
  5
198DC
330
747D
100
AcDbEntity
  8
部品1
100
AcDbCircle
 10
12129.25590919849
 20
4748.269959121964
 30
0.0
 40
3.0
100
AcDbArc
 50
95.09216976420788
 51
174.1866997665532
  0
ARC
  5
198DD
330
747D
100
AcDbEntity
  8
部品1
100
AcDbCircle
 10
12140.11525494782
 20
4825.313213939888
 30
0.0
 40
3.0
100
AcDbArc
 50
95.09216976442012
 51
174.1866997665532
  0
ARC
  5
198DE
330
747D
100
AcDbEntity
  8
部品1
100
AcDbCircle
 10
12139.78684970521
 20
4828.998610796978
 30
0.0
 40
0.7
100
AcDbArc
 50
275.0921697642079
 51
354.1866997665532
  0
ARC
  5
198DF
330
747D
100
AcDbEntity
  8
部品1
100
AcDbCircle
 10
12128.92750395589
 20
4751.955355979054
 30
0.0
 40
0.7
100
AcDbArc
 50
275.0921697642079
 51
354.1866997667087
  0
LINE
  5
198E0
330
747D
100
AcDbEntity
  8
細線
 48
50.0
100
AcDbLine
 10
11930.79996814196
 20
4677.931598713261
 30
0.0
 11
11930.79996814196
 21
2587.931598713262
 31
0.0
  0
LINE
  5
198E1
330
747D
100
AcDbEntity
  8
細線
 48
50.0
100
AcDbLine
 10
11945.79996814196
 20
4677.931598713261
 30
0.0
 11
11945.79996814196
 21
2587.931598713262
 31
0.0
  0
LINE
  5
198E2
330
747D
100
AcDbEntity
  8
細線
 48
50.0
100
AcDbLine
 10
11805.79996814196
 20
4677.931598713261
 30
0.0
 11
11805.79996814196
 21
2587.931598713262
 31
0.0
  0
LINE
  5
198E3
330
747D
100
AcDbEntity
  8
細線
 48
50.0
100
AcDbLine
 10
11790.79996814196
 20
4677.931598713261
 30
0.0
 11
11790.79996814196
 21
2587.931598713262
 31
0.0
  0
LINE
  5
198E4
330
747D
100
AcDbEntity
  8
細線
 48
50.0
100
AcDbLine
 10
11650.79996814196
 20
4677.931598713261
 30
0.0
 11
11650.79996814196
 21
2587.931598713262
 31
0.0
  0
LINE
  5
198E5
330
747D
100
AcDbEntity
  8
細線
 48
50.0
100
AcDbLine
 10
11665.79996814196
 20
4677.931598713261
 30
0.0
 11
11665.79996814196
 21
2587.931598713262
 31
0.0
  0
LINE
  5
198E6
330
747D
100
AcDbEntity
  8
部品1
100
AcDbLine
 10
11168.29996814195
 20
4677.931598713261
 30
0.0
 11
11168.29996814195
 21
2587.931598713262
 31
0.0
  0
LINE
  5
198E7
330
747D
100
AcDbEntity
  8
細線
 48
50.0
100
AcDbLine
 10
10825.79996814195
 20
4677.931598713261
 30
0.0
 11
10825.79996814195
 21
2587.931598713262
 31
0.0
  0
LINE
  5
198E8
330
747D
100
AcDbEntity
  8
細線
 48
50.0
100
AcDbLine
 10
10810.79996814195
 20
4677.931598713261
 30
0.0
 11
10810.79996814195
 21
2587.931598713262
 31
0.0
  0
LINE
  5
198E9
330
747D
100
AcDbEntity
  8
細線
 48
50.0
100
AcDbLine
 10
10950.79996814195
 20
4677.931598713261
 30
0.0
 11
10950.79996814195
 21
2587.931598713262
 31
0.0
  0
LINE
  5
198EA
330
747D
100
AcDbEntity
  8
細線
 48
50.0
100
AcDbLine
 10
10965.79996814195
 20
4677.931598713261
 30
0.0
 11
10965.79996814195
 21
2587.931598713262
 31
0.0
  0
LINE
  5
198EB
330
747D
100
AcDbEntity
  8
細線
 48
50.0
100
AcDbLine
 10
11105.79996814195
 20
4677.931598713261
 30
0.0
 11
11105.79996814195
 21
2587.931598713262
 31
0.0
  0
LINE
  5
198EC
330
747D
100
AcDbEntity
  8
細線
 48
50.0
100
AcDbLine
 10
11090.79996814195
 20
4677.931598713261
 30
0.0
 11
11090.79996814195
 21
2587.931598713262
 31
0.0
  0
LINE
  5
198ED
330
747D
100
AcDbEntity
  8
部品1
100
AcDbLine
 10
10748.29996814195
 20
4677.931598713261
 30
0.0
 11
10748.29996814195
 21
2587.931598713262
 31
0.0
  0
LINE
  5
198EE
330
747D
100
AcDbEntity
  8
細線
 48
50.0
100
AcDbLine
 10
9985.799968141952
 20
4677.931598713261
 30
0.0
 11
9985.799968141952
 21
2587.931598713262
 31
0.0
  0
LINE
  5
198EF
330
747D
100
AcDbEntity
  8
細線
 48
50.0
100
AcDbLine
 10
9970.799968141953
 20
4677.931598713261
 30
0.0
 11
9970.799968141953
 21
2587.931598713262
 31
0.0
  0
LINE
  5
198F0
330
747D
100
AcDbEntity
  8
細線
 48
50.0
100
AcDbLine
 10
10110.79996814195
 20
4677.931598713261
 30
0.0
 11
10110.79996814195
 21
2587.931598713262
 31
0.0
  0
LINE
  5
198F1
330
747D
100
AcDbEntity
  8
細線
 48
50.0
100
AcDbLine
 10
10125.79996814195
 20
4677.931598713261
 30
0.0
 11
10125.79996814195
 21
2587.931598713262
 31
0.0
  0
LINE
  5
198F2
330
747D
100
AcDbEntity
  8
細線
 48
50.0
100
AcDbLine
 10
10265.79996814195
 20
4677.931598713261
 30
0.0
 11
10265.79996814195
 21
2587.931598713262
 31
0.0
  0
LINE
  5
198F3
330
747D
100
AcDbEntity
  8
細線
 48
50.0
100
AcDbLine
 10
10250.79996814195
 20
4677.931598713261
 30
0.0
 11
10250.79996814195
 21
2587.931598713262
 31
0.0
  0
LINE
  5
198F4
330
747D
100
AcDbEntity
  8
細線
 48
50.0
100
AcDbLine
 10
10670.79996814195
 20
4677.931598713261
 30
0.0
 11
10670.79996814195
 21
2587.931598713262
 31
0.0
  0
LINE
  5
198F5
330
747D
100
AcDbEntity
  8
細線
 48
50.0
100
AcDbLine
 10
10685.79996814195
 20
4677.931598713261
 30
0.0
 11
10685.79996814195
 21
2587.931598713262
 31
0.0
  0
LINE
  5
198F6
330
747D
100
AcDbEntity
  8
細線
 48
50.0
100
AcDbLine
 10
10545.79996814195
 20
4677.931598713261
 30
0.0
 11
10545.79996814195
 21
2587.931598713262
 31
0.0
  0
LINE
  5
198F7
330
747D
100
AcDbEntity
  8
細線
 48
50.0
100
AcDbLine
 10
10530.79996814195
 20
4677.931598713261
 30
0.0
 11
10530.79996814195
 21
2587.931598713262
 31
0.0
  0
LINE
  5
198F8
330
747D
100
AcDbEntity
  8
細線
 48
50.0
100
AcDbLine
 10
10390.79996814195
 20
4677.931598713261
 30
0.0
 11
10390.79996814195
 21
2587.931598713262
 31
0.0
  0
LINE
  5
198F9
330
747D
100
AcDbEntity
  8
細線
 48
50.0
100
AcDbLine
 10
10405.79996814195
 20
4677.931598713261
 30
0.0
 11
10405.79996814195
 21
2587.931598713262
 31
0.0
  0
LINE
  5
198FA
330
747D
100
AcDbEntity
  8
部品1
100
AcDbLine
 10
10328.29996814195
 20
4677.931598713261
 30
0.0
 11
10328.29996814195
 21
2587.931598713262
 31
0.0
  0
LINE
  5
198FB
330
747D
100
AcDbEntity
  8
細線
 48
50.0
100
AcDbLine
 10
11510.79996814195
 20
4677.931598713261
 30
0.0
 11
11510.79996814195
 21
2587.931598713262
 31
0.0
  0
LINE
  5
198FC
330
747D
100
AcDbEntity
  8
細線
 48
50.0
100
AcDbLine
 10
11525.79996814195
 20
4677.931598713261
 30
0.0
 11
11525.79996814195
 21
2587.931598713262
 31
0.0
  0
LINE
  5
198FD
330
747D
100
AcDbEntity
  8
細線
 48
50.0
100
AcDbLine
 10
11385.79996814195
 20
4677.931598713261
 30
0.0
 11
11385.79996814195
 21
2587.931598713262
 31
0.0
  0
LINE
  5
198FE
330
747D
100
AcDbEntity
  8
細線
 48
50.0
100
AcDbLine
 10
11370.79996814195
 20
4677.931598713261
 30
0.0
 11
11370.79996814195
 21
2587.931598713262
 31
0.0
  0
LINE
  5
198FF
330
747D
100
AcDbEntity
  8
細線
 48
50.0
100
AcDbLine
 10
11230.79996814195
 20
4677.931598713261
 30
0.0
 11
11230.79996814195
 21
2587.931598713262
 31
0.0
  0
LINE
  5
19900
330
747D
100
AcDbEntity
  8
細線
 48
50.0
100
AcDbLine
 10
11245.79996814195
 20
4677.931598713261
 30
0.0
 11
11245.79996814195
 21
2587.931598713262
 31
0.0
  0
LINE
  5
19901
330
747D
100
AcDbEntity
  8
部品1
100
AcDbLine
 10
11588.29996814195
 20
4677.931598713261
 30
0.0
 11
11588.29996814195
 21
2587.931598713262
 31
0.0
  0
DIMENSION
  5
19902
330
747D
100
AcDbEntity
  8
寸法
100
AcDbDimension
  2
*D31
 10
8709.549838958698
 20
4912.931598713267
 30
0.0
 11
8609.538027935077
 21
3725.431598713266
 31
0.0
 70
    32
 71
     5
 42
2375.000000000005
  3
INABA_S40G
100
AcDbAlignedDimension
 13
9853.299968141961
 23
2537.931598713262
 33
0.0
 14
9793.299968141958
 24
4912.931598713267
 34
0.0
 50
90.0
100
AcDbRotatedDimension
1001
ACAD
1000
DSTYLE
1002
{
1070
   174
1070
     0
1070
   272
1070
     1
1070
   288
1070
     0
1070
   341
1005
0
1002
}
  0
LINE
  5
19D88
330
747D
100
AcDbEntity
  8
補助
  6
PHANTOM
 62
   230
 48
50.0
100
AcDbLine
 10
140.0
 20
0.0
 30
0.0
 11
140.0
 21
11409.6
 31
0.0
  0
ARC
  5
19DFC
330
747D
100
AcDbEntity
  8
部品1
 48
0.01
100
AcDbCircle
 10
4802.582777791752
 20
4710.431598713261
 30
0.0
 40
2.0
100
AcDbArc
 50
270.0
 51
0.0
  0
ARC
  5
19DFD
330
747D
100
AcDbEntity
  8
部品1
 48
0.01
100
AcDbCircle
 10
4802.582777791752
 20
4741.931598713261
 30
0.0
 40
2.0
100
AcDbArc
 50
0.0
 51
90.0
  0
ARC
  5
19DFE
330
747D
100
AcDbEntity
  8
部品1
 48
0.01
100
AcDbCircle
 10
4626.582777791752
 20
4710.431598713261
 30
0.0
 40
2.0
100
AcDbArc
 50
180.0
 51
270.0
  0
ARC
  5
19DFF
330
747D
100
AcDbEntity
  8
部品1
 48
0.01
100
AcDbCircle
 10
4626.582777791752
 20
4741.931598713261
 30
0.0
 40
2.0
100
AcDbArc
 50
90.0
 51
180.0
  0
LINE
  5
19E00
330
747D
100
AcDbEntity
  8
細線
100
AcDbLine
 10
4714.582777791753
 20
4714.431598713261
 30
0.0
 11
4788.582777791753
 21
4714.431598713261
 31
0.0
  0
LINE
  5
19E01
330
747D
100
AcDbEntity
  8
細線
100
AcDbLine
 10
4714.582777791753
 20
4737.431598713261
 30
0.0
 11
4640.582777791752
 21
4737.431598713261
 31
0.0
  0
LINE
  5
19E02
330
747D
100
AcDbEntity
  8
細線
100
AcDbLine
 10
4640.582777791752
 20
4714.431598713261
 30
0.0
 11
4714.582777791753
 21
4714.431598713261
 31
0.0
  0
LINE
  5
19E03
330
747D
100
AcDbEntity
  8
細線
100
AcDbLine
 10
4788.582777791753
 20
4737.431598713261
 30
0.0
 11
4714.582777791753
 21
4737.431598713261
 31
0.0
  0
LINE
  5
19E04
330
747D
100
AcDbEntity
  8
細線
100
AcDbLine
 10
4788.582777791753
 20
4714.431598713261
 30
0.0
 11
4788.582777791753
 21
4737.431598713261
 31
0.0
  0
LINE
  5
19E05
330
747D
100
AcDbEntity
  8
細線
100
AcDbLine
 10
4640.582777791752
 20
4737.431598713261
 30
0.0
 11
4640.582777791752
 21
4714.431598713261
 31
0.0
  0
LINE
  5
19E06
330
747D
100
AcDbEntity
  8
部品1
 48
0.01
100
AcDbLine
 10
4804.582777791753
 20
4710.431598713261
 30
0.0
 11
4804.582777791753
 21
4741.931598713261
 31
0.0
  0
LINE
  5
19E07
330
747D
100
AcDbEntity
  8
部品1
 48
0.01
100
AcDbLine
 10
4626.582777791752
 20
4708.431598713261
 30
0.0
 11
4802.582777791752
 21
4708.431598713261
 31
0.0
  0
LINE
  5
19E08
330
747D
100
AcDbEntity
  8
部品1
 48
0.01
100
AcDbLine
 10
4624.582777791753
 20
4741.931598713261
 30
0.0
 11
4624.582777791753
 21
4710.431598713261
 31
0.0
  0
LINE
  5
19E09
330
747D
100
AcDbEntity
  8
部品1
 48
0.01
100
AcDbLine
 10
4802.582777791752
 20
4743.931598713261
 30
0.0
 11
4626.582777791752
 21
4743.931598713261
 31
0.0
  0
LINE
  5
19E0A
330
747D
100
AcDbEntity
  8
細線
100
AcDbLine
 10
4640.582777791752
 20
4731.431598713261
 30
0.0
 11
4714.582777791753
 21
4731.431598713261
 31
0.0
  0
LINE
  5
19E0B
330
747D
100
AcDbEntity
  8
細線
100
AcDbLine
 10
4640.582777791752
 20
4725.431598713261
 30
0.0
 11
4714.582777791753
 21
4725.431598713261
 31
0.0
  0
LINE
  5
19E0C
330
747D
100
AcDbEntity
  8
細線
100
AcDbLine
 10
4640.582777791752
 20
4719.431598713261
 30
0.0
 11
4714.582777791753
 21
4719.431598713261
 31
0.0
  0
LINE
  5
19E0D
330
747D
100
AcDbEntity
  8
細線
100
AcDbLine
 10
4640.582777791752
 20
4731.431598713261
 30
0.0
 11
4709.582777791752
 21
4731.431598713261
 31
0.0
  0
LINE
  5
19E0E
330
747D
100
AcDbEntity
  8
細線
100
AcDbLine
 10
4788.582777791753
 20
4731.43159871326
 30
0.0
 11
4714.582777791753
 21
4731.431598713261
 31
0.0
  0
LINE
  5
19E0F
330
747D
100
AcDbEntity
  8
細線
100
AcDbLine
 10
4788.582777791753
 20
4719.43159871326
 30
0.0
 11
4714.582777791753
 21
4719.431598713261
 31
0.0
  0
LINE
  5
19E10
330
747D
100
AcDbEntity
  8
細線
100
AcDbLine
 10
4788.582777791753
 20
4725.431598713261
 30
0.0
 11
4714.582777791753
 21
4725.431598713261
 31
0.0
  0
LINE
  5
19E11
330
747D
100
AcDbEntity
  8
細線
100
AcDbLine
 10
4714.582777791753
 20
4737.431598713261
 30
0.0
 11
4714.582777791753
 21
4714.431598713261
 31
0.0
  0
LINE
  5
19E12
330
747D
100
AcDbEntity
  8
細線
100
AcDbLine
 10
5334.582777791752
 20
4737.431598713261
 30
0.0
 11
5334.582777791752
 21
4714.431598713261
 31
0.0
  0
LINE
  5
19E13
330
747D
100
AcDbEntity
  8
細線
100
AcDbLine
 10
5260.582777791753
 20
4725.431598713261
 30
0.0
 11
5334.582777791752
 21
4725.431598713261
 31
0.0
  0
LINE
  5
19E14
330
747D
100
AcDbEntity
  8
細線
100
AcDbLine
 10
5260.582777791753
 20
4719.43159871326
 30
0.0
 11
5334.582777791752
 21
4719.431598713261
 31
0.0
  0
LINE
  5
19E15
330
747D
100
AcDbEntity
  8
細線
100
AcDbLine
 10
5260.582777791753
 20
4731.43159871326
 30
0.0
 11
5334.582777791752
 21
4731.431598713261
 31
0.0
  0
LINE
  5
19E16
330
747D
100
AcDbEntity
  8
細線
100
AcDbLine
 10
5408.582777791751
 20
4731.431598713261
 30
0.0
 11
5339.582777791753
 21
4731.431598713261
 31
0.0
  0
LINE
  5
19E17
330
747D
100
AcDbEntity
  8
細線
100
AcDbLine
 10
5408.582777791753
 20
4719.431598713261
 30
0.0
 11
5334.582777791752
 21
4719.431598713261
 31
0.0
  0
LINE
  5
19E18
330
747D
100
AcDbEntity
  8
細線
100
AcDbLine
 10
5408.582777791751
 20
4725.431598713261
 30
0.0
 11
5334.582777791752
 21
4725.431598713261
 31
0.0
  0
LINE
  5
19E19
330
747D
100
AcDbEntity
  8
細線
100
AcDbLine
 10
5408.582777791751
 20
4731.431598713261
 30
0.0
 11
5334.582777791752
 21
4731.431598713261
 31
0.0
  0
LINE
  5
19E1A
330
747D
100
AcDbEntity
  8
部品1
 48
0.01
100
AcDbLine
 10
5246.582777791753
 20
4743.931598713261
 30
0.0
 11
5422.582777791752
 21
4743.931598713261
 31
0.0
  0
LINE
  5
19E1B
330
747D
100
AcDbEntity
  8
部品1
 48
0.01
100
AcDbLine
 10
5424.582777791751
 20
4741.931598713261
 30
0.0
 11
5424.582777791751
 21
4710.431598713261
 31
0.0
  0
LINE
  5
19E1C
330
747D
100
AcDbEntity
  8
部品1
 48
0.01
100
AcDbLine
 10
5422.582777791752
 20
4708.431598713261
 30
0.0
 11
5246.582777791753
 21
4708.431598713261
 31
0.0
  0
LINE
  5
19E1D
330
747D
100
AcDbEntity
  8
部品1
 48
0.01
100
AcDbLine
 10
5244.582777791753
 20
4710.431598713261
 30
0.0
 11
5244.582777791753
 21
4741.931598713261
 31
0.0
  0
LINE
  5
19E1E
330
747D
100
AcDbEntity
  8
細線
100
AcDbLine
 10
5408.582777791751
 20
4737.431598713261
 30
0.0
 11
5408.582777791751
 21
4714.431598713261
 31
0.0
  0
LINE
  5
19E1F
330
747D
100
AcDbEntity
  8
細線
100
AcDbLine
 10
5260.582777791753
 20
4714.431598713261
 30
0.0
 11
5260.582777791753
 21
4737.431598713261
 31
0.0
  0
LINE
  5
19E20
330
747D
100
AcDbEntity
  8
細線
100
AcDbLine
 10
5260.582777791753
 20
4737.431598713261
 30
0.0
 11
5334.582777791752
 21
4737.431598713261
 31
0.0
  0
LINE
  5
19E21
330
747D
100
AcDbEntity
  8
細線
100
AcDbLine
 10
5408.582777791751
 20
4714.431598713261
 30
0.0
 11
5334.582777791752
 21
4714.431598713261
 31
0.0
  0
LINE
  5
19E22
330
747D
100
AcDbEntity
  8
細線
100
AcDbLine
 10
5334.582777791752
 20
4737.431598713261
 30
0.0
 11
5408.582777791751
 21
4737.431598713261
 31
0.0
  0
LINE
  5
19E23
330
747D
100
AcDbEntity
  8
細線
100
AcDbLine
 10
5334.582777791752
 20
4714.431598713261
 30
0.0
 11
5260.582777791753
 21
4714.431598713261
 31
0.0
  0
ARC
  5
19E24
330
747D
100
AcDbEntity
  8
部品1
 48
0.01
100
AcDbCircle
 10
5422.582777791752
 20
4741.931598713261
 30
0.0
 40
2.0
100
AcDbArc
 50
0.0
 51
90.0
  0
ARC
  5
19E25
330
747D
100
AcDbEntity
  8
部品1
 48
0.01
100
AcDbCircle
 10
5422.582777791752
 20
4710.431598713261
 30
0.0
 40
2.0
100
AcDbArc
 50
270.0
 51
0.0
  0
ARC
  5
19E26
330
747D
100
AcDbEntity
  8
部品1
 48
0.01
100
AcDbCircle
 10
5246.582777791753
 20
4741.931598713261
 30
0.0
 40
2.0
100
AcDbArc
 50
90.0
 51
180.0
  0
ARC
  5
19E27
330
747D
100
AcDbEntity
  8
部品1
 48
0.01
100
AcDbCircle
 10
5246.582777791753
 20
4710.431598713261
 30
0.0
 40
2.0
100
AcDbArc
 50
180.0
 51
270.0
  0
LINE
  5
19E28
330
747D
100
AcDbEntity
  8
部品1
100
AcDbLine
 10
4290.002438807083
 20
4905.535073318026
 30
0.0
 11
4291.135836139432
 21
4885.558945335427
 31
0.0
  0
LINE
  5
19E29
330
747D
100
AcDbEntity
  8
部品1
100
AcDbLine
 10
4302.572856461009
 20
4789.901538168367
 30
0.0
 11
4303.217762268118
 21
4778.535073318027
 31
0.0
  0
LINE
  5
19E2A
330
747D
100
AcDbEntity
  8
部品1
100
AcDbLine
 10
4294.336825936161
 20
4882.101538168369
 30
0.0
 11
4299.371866664272
 21
4793.358945335425
 31
0.0
  0
ARC
  5
19E2B
330
747D
100
AcDbEntity
  8
部品1
 48
50.0
100
AcDbCircle
 10
4291.341643039976
 20
4881.931598713267
 30
0.0
 40
3.0
100
AcDbArc
 50
3.247342790337682
 51
82.3418727926348
  0
ARC
  5
19E2C
330
747D
100
AcDbEntity
  8
部品1
 48
50.0
100
AcDbCircle
 10
4299.57767356482
 20
4789.731598713264
 30
0.0
 40
3.0
100
AcDbArc
 50
3.247342790337682
 51
82.3418727926348
  0
ARC
  5
19E2D
330
747D
100
AcDbEntity
  8
部品1
 48
50.0
100
AcDbCircle
 10
4300.07074267338
 20
4793.398597874949
 30
0.0
 40
0.7
100
AcDbArc
 50
183.2473427903377
 51
262.3418727926349
  0
ARC
  5
19E2E
330
747D
100
AcDbEntity
  8
部品1
 48
50.0
100
AcDbCircle
 10
4291.83471214854
 20
4885.598597874952
 30
0.0
 40
0.7
100
AcDbArc
 50
183.2473427903897
 51
262.3418727926349
  0
ARC
  5
19E2F
330
747D
100
AcDbEntity
  8
部品1
100
AcDbCircle
 10
4310.206522359216
 20
4778.931598713266
 30
0.0
 40
7.0
100
AcDbArc
 50
183.2473427903377
 51
270.0
  0
ARC
  5
19E30
330
747D
100
AcDbEntity
  8
部品1
100
AcDbCircle
 10
4296.991198898186
 20
4905.931598713266
 30
0.0
 40
7.0
100
AcDbArc
 50
90.0
 51
183.2473427903377
  0
ARC
  5
19E31
330
747D
100
AcDbEntity
  8
部品1
100
AcDbCircle
 10
7122.17435668532
 20
4905.931598713267
 30
0.0
 40
7.0
100
AcDbArc
 50
356.7526572096623
 51
90.0
  0
ARC
  5
19E32
330
747D
100
AcDbEntity
  8
部品1
100
AcDbCircle
 10
7108.959033224286
 20
4778.931598713268
 30
0.0
 40
7.0
100
AcDbArc
 50
270.0
 51
356.7526572096623
  0
ARC
  5
19E33
330
747D
100
AcDbEntity
  8
部品1
 48
50.0
100
AcDbCircle
 10
7127.330843434965
 20
4885.598597874952
 30
0.0
 40
0.7
100
AcDbArc
 50
277.6581272073652
 51
356.7526572096103
  0
ARC
  5
19E34
330
747D
100
AcDbEntity
  8
部品1
 48
50.0
100
AcDbCircle
 10
7119.094812910121
 20
4793.39859787495
 30
0.0
 40
0.7
100
AcDbArc
 50
277.6581272073652
 51
356.7526572096623
  0
ARC
  5
19E35
330
747D
100
AcDbEntity
  8
部品1
 48
50.0
100
AcDbCircle
 10
7119.587882018683
 20
4789.731598713265
 30
0.0
 40
3.0
100
AcDbArc
 50
97.65812720736519
 51
176.7526572096623
  0
ARC
  5
19E36
330
747D
100
AcDbEntity
  8
部品1
 48
50.0
100
AcDbCircle
 10
7127.823912543526
 20
4881.931598713268
 30
0.0
 40
3.0
100
AcDbArc
 50
97.65812720736519
 51
176.7526572096623
  0
LINE
  5
19E37
330
747D
100
AcDbEntity
  8
部品1
100
AcDbLine
 10
7124.82872964734
 20
4882.10153816837
 30
0.0
 11
7119.793688919229
 21
4793.358945335426
 31
0.0
  0
LINE
  5
19E38
330
747D
100
AcDbEntity
  8
部品1
100
AcDbLine
 10
7116.592699122495
 20
4789.901538168368
 30
0.0
 11
7115.947793315385
 21
4778.535073318028
 31
0.0
  0
LINE
  5
19E39
330
747D
100
AcDbEntity
  8
細線
 48
50.0
100
AcDbLine
 10
4322.582777791753
 20
4912.931598713266
 30
0.0
 11
4322.582777791753
 21
4771.931598713265
 31
0.0
  0
LINE
  5
19E3A
330
747D
100
AcDbEntity
  8
細線
 48
50.0
100
AcDbLine
 10
7096.582777791751
 20
4912.931598713267
 30
0.0
 11
7096.582777791751
 21
4771.931598713266
 31
0.0
  0
LINE
  5
19E3B
330
747D
100
AcDbEntity
  8
部品1
100
AcDbLine
 10
7129.163116776419
 20
4905.535073318027
 30
0.0
 11
7128.029719444072
 21
4885.558945335428
 31
0.0
  0
LINE
  5
19E3C
330
747D
100
AcDbEntity
  8
細線
 48
50.0
100
AcDbLine
 10
7119.307209045468
 20
4792.731598713263
 30
0.0
 11
4299.858346538023
 21
4792.731598713266
 31
0.0
  0
LINE
  5
19E3D
330
747D
100
AcDbEntity
  8
細線
 48
50.0
100
AcDbLine
 10
7127.543239570314
 20
4884.931598713268
 30
0.0
 11
4291.622316013194
 21
4884.931598713264
 31
0.0
  0
LINE
  5
19E3E
330
747D
100
AcDbEntity
  8
部品1
 48
50.0
100
AcDbLine
 10
7108.959033224286
 20
4771.931598713268
 30
0.0
 11
4310.206522359216
 21
4771.931598713266
 31
0.0
  0
LINE
  5
19E3F
330
747D
100
AcDbEntity
  8
部品1
 48
50.0
100
AcDbLine
 10
7122.17435668532
 20
4912.931598713264
 30
0.0
 11
4296.991198898186
 21
4912.931598713267
 31
0.0
  0
DIMENSION
  5
19E40
330
747D
100
AcDbEntity
  8
寸法
 48
50.0
100
AcDbDimension
  2
*D35
 10
4339.582777791753
 20
5318.657870445171
 30
0.0
 11
5709.582777791752
 21
5318.657870445171
 31
0.0
 70
   160
  1
柱外寸法<>
 71
     5
 42
2740.0
  3
INABA_S40G
100
AcDbAlignedDimension
 13
7079.582777791753
 23
4912.931598713267
 33
0.0
 14
4339.582777791753
 24
4912.931598713267
 34
0.0
100
AcDbRotatedDimension
  0
DIMENSION
  5
19E41
330
747D
100
AcDbEntity
  8
寸法
 48
50.0
100
AcDbDimension
  2
*D34
 10
4289.582777791753
 20
5318.657870445171
 30
0.0
 11
3976.097496417505
 21
5318.657870445171
 31
0.0
 70
   160
 71
     5
 42
50.0
  3
INABA_S40G
100
AcDbAlignedDimension
 13
4339.582777791753
 23
4912.931598713267
 33
0.0
 14
4289.582777791753
 24
4912.931598713267
 34
0.0
100
AcDbRotatedDimension
1001
ACAD
1000
DSTYLE
1002
{
1002
}
  0
DIMENSION
  5
19E42
330
747D
100
AcDbEntity
  8
寸法
 48
50.0
100
AcDbDimension
  2
*D33
 10
7079.582777791753
 20
5318.657870445172
 30
0.0
 11
7443.068059165989
 21
5318.657870445172
 31
0.0
 70
   160
 71
     5
 42
49.99999999999818
  3
INABA_S40G
100
AcDbAlignedDimension
 13
7129.582777791751
 23
4912.931598713265
 33
0.0
 14
7079.582777791753
 24
4912.931598713267
 34
0.0
100
AcDbRotatedDimension
  0
DIMENSION
  5
19E43
330
747D
100
AcDbEntity
  8
寸法
 48
50.0
100
AcDbDimension
  2
*D32
 10
7129.582777791751
 20
5518.566791659261
 30
0.0
 11
5709.582777791752
 21
5518.566791659261
 31
0.0
 70
   160
 71
     5
 42
2839.999999999998
  3
INABA_S40G
100
AcDbAlignedDimension
 13
4289.582777791753
 23
4912.931598713267
 33
0.0
 14
7129.582777791751
 24
4912.931598713265
 34
0.0
100
AcDbRotatedDimension
  0
LINE
  5
19E44
330
747D
100
AcDbEntity
  8
部品1
100
AcDbLine
 10
4339.582777791753
 20
4677.931598713261
 30
0.0
 11
7079.582777791753
 21
4677.93159871326
 31
0.0
  0
ARC
  5
19EAC
330
747D
100
AcDbEntity
  8
部品1
 48
0.01
100
AcDbCircle
 10
6616.582777791752
 20
4710.431598713261
 30
0.0
 40
2.0
100
AcDbArc
 50
180.0
 51
270.0
  0
ARC
  5
19EAD
330
747D
100
AcDbEntity
  8
部品1
 48
0.01
100
AcDbCircle
 10
6616.582777791752
 20
4741.931598713261
 30
0.0
 40
2.0
100
AcDbArc
 50
90.0
 51
180.0
  0
ARC
  5
19EAE
330
747D
100
AcDbEntity
  8
部品1
 48
0.01
100
AcDbCircle
 10
6792.582777791752
 20
4710.431598713261
 30
0.0
 40
2.0
100
AcDbArc
 50
270.0
 51
0.0
  0
ARC
  5
19EAF
330
747D
100
AcDbEntity
  8
部品1
 48
0.01
100
AcDbCircle
 10
6792.582777791752
 20
4741.931598713261
 30
0.0
 40
2.0
100
AcDbArc
 50
0.0
 51
90.0
  0
LINE
  5
19EB0
330
747D
100
AcDbEntity
  8
細線
100
AcDbLine
 10
6704.582777791753
 20
4714.431598713261
 30
0.0
 11
6630.582777791753
 21
4714.431598713261
 31
0.0
  0
LINE
  5
19EB1
330
747D
100
AcDbEntity
  8
細線
100
AcDbLine
 10
6704.582777791753
 20
4737.431598713261
 30
0.0
 11
6778.582777791752
 21
4737.431598713261
 31
0.0
  0
LINE
  5
19EB2
330
747D
100
AcDbEntity
  8
細線
100
AcDbLine
 10
6778.582777791752
 20
4714.431598713261
 30
0.0
 11
6704.582777791753
 21
4714.431598713261
 31
0.0
  0
LINE
  5
19EB3
330
747D
100
AcDbEntity
  8
細線
100
AcDbLine
 10
6630.582777791753
 20
4737.431598713261
 30
0.0
 11
6704.582777791753
 21
4737.431598713261
 31
0.0
  0
LINE
  5
19EB4
330
747D
100
AcDbEntity
  8
細線
100
AcDbLine
 10
6630.582777791753
 20
4714.431598713261
 30
0.0
 11
6630.582777791753
 21
4737.431598713261
 31
0.0
  0
LINE
  5
19EB5
330
747D
100
AcDbEntity
  8
細線
100
AcDbLine
 10
6778.582777791752
 20
4737.431598713261
 30
0.0
 11
6778.582777791752
 21
4714.431598713261
 31
0.0
  0
LINE
  5
19EB6
330
747D
100
AcDbEntity
  8
部品1
 48
0.01
100
AcDbLine
 10
6614.582777791753
 20
4710.431598713261
 30
0.0
 11
6614.582777791753
 21
4741.931598713261
 31
0.0
  0
LINE
  5
19EB7
330
747D
100
AcDbEntity
  8
部品1
 48
0.01
100
AcDbLine
 10
6792.582777791752
 20
4708.431598713261
 30
0.0
 11
6616.582777791752
 21
4708.431598713261
 31
0.0
  0
LINE
  5
19EB8
330
747D
100
AcDbEntity
  8
部品1
 48
0.01
100
AcDbLine
 10
6794.582777791752
 20
4741.931598713261
 30
0.0
 11
6794.582777791752
 21
4710.431598713261
 31
0.0
  0
LINE
  5
19EB9
330
747D
100
AcDbEntity
  8
部品1
 48
0.01
100
AcDbLine
 10
6616.582777791752
 20
4743.931598713261
 30
0.0
 11
6792.582777791752
 21
4743.931598713261
 31
0.0
  0
LINE
  5
19EBA
330
747D
100
AcDbEntity
  8
細線
100
AcDbLine
 10
6778.582777791752
 20
4731.431598713261
 30
0.0
 11
6704.582777791753
 21
4731.431598713261
 31
0.0
  0
LINE
  5
19EBB
330
747D
100
AcDbEntity
  8
細線
100
AcDbLine
 10
6778.582777791752
 20
4725.431598713261
 30
0.0
 11
6704.582777791753
 21
4725.431598713261
 31
0.0
  0
LINE
  5
19EBC
330
747D
100
AcDbEntity
  8
細線
100
AcDbLine
 10
6778.582777791753
 20
4719.431598713261
 30
0.0
 11
6704.582777791753
 21
4719.431598713261
 31
0.0
  0
LINE
  5
19EBD
330
747D
100
AcDbEntity
  8
細線
100
AcDbLine
 10
6778.582777791752
 20
4731.431598713261
 30
0.0
 11
6709.582777791753
 21
4731.431598713261
 31
0.0
  0
LINE
  5
19EBE
330
747D
100
AcDbEntity
  8
細線
100
AcDbLine
 10
6630.582777791753
 20
4731.43159871326
 30
0.0
 11
6704.582777791753
 21
4731.431598713261
 31
0.0
  0
LINE
  5
19EBF
330
747D
100
AcDbEntity
  8
細線
100
AcDbLine
 10
6630.582777791753
 20
4719.43159871326
 30
0.0
 11
6704.582777791753
 21
4719.431598713261
 31
0.0
  0
LINE
  5
19EC0
330
747D
100
AcDbEntity
  8
細線
100
AcDbLine
 10
6630.582777791753
 20
4725.431598713261
 30
0.0
 11
6704.582777791753
 21
4725.431598713261
 31
0.0
  0
LINE
  5
19EC1
330
747D
100
AcDbEntity
  8
細線
100
AcDbLine
 10
6704.582777791753
 20
4737.431598713261
 30
0.0
 11
6704.582777791753
 21
4714.431598713261
 31
0.0
  0
LINE
  5
19EC2
330
747D
100
AcDbEntity
  8
細線
100
AcDbLine
 10
6084.582777791752
 20
4737.431598713261
 30
0.0
 11
6084.582777791752
 21
4714.431598713261
 31
0.0
  0
LINE
  5
19EC3
330
747D
100
AcDbEntity
  8
細線
100
AcDbLine
 10
6158.582777791753
 20
4725.431598713261
 30
0.0
 11
6084.582777791752
 21
4725.431598713261
 31
0.0
  0
LINE
  5
19EC4
330
747D
100
AcDbEntity
  8
細線
100
AcDbLine
 10
6158.582777791753
 20
4719.43159871326
 30
0.0
 11
6084.582777791752
 21
4719.431598713261
 31
0.0
  0
LINE
  5
19EC5
330
747D
100
AcDbEntity
  8
細線
100
AcDbLine
 10
6158.582777791753
 20
4731.43159871326
 30
0.0
 11
6084.582777791752
 21
4731.431598713261
 31
0.0
  0
LINE
  5
19EC6
330
747D
100
AcDbEntity
  8
細線
100
AcDbLine
 10
6010.582777791753
 20
4731.431598713261
 30
0.0
 11
6079.582777791753
 21
4731.431598713261
 31
0.0
  0
LINE
  5
19EC7
330
747D
100
AcDbEntity
  8
細線
100
AcDbLine
 10
6010.582777791753
 20
4719.431598713261
 30
0.0
 11
6084.582777791752
 21
4719.431598713261
 31
0.0
  0
LINE
  5
19EC8
330
747D
100
AcDbEntity
  8
細線
100
AcDbLine
 10
6010.582777791753
 20
4725.431598713261
 30
0.0
 11
6084.582777791752
 21
4725.431598713261
 31
0.0
  0
LINE
  5
19EC9
330
747D
100
AcDbEntity
  8
細線
100
AcDbLine
 10
6010.582777791753
 20
4731.431598713261
 30
0.0
 11
6084.582777791752
 21
4731.431598713261
 31
0.0
  0
LINE
  5
19ECA
330
747D
100
AcDbEntity
  8
部品1
 48
0.01
100
AcDbLine
 10
6172.582777791753
 20
4743.931598713261
 30
0.0
 11
5996.582777791753
 21
4743.931598713261
 31
0.0
  0
LINE
  5
19ECB
330
747D
100
AcDbEntity
  8
部品1
 48
0.01
100
AcDbLine
 10
5994.582777791753
 20
4741.931598713261
 30
0.0
 11
5994.582777791753
 21
4710.431598713261
 31
0.0
  0
LINE
  5
19ECC
330
747D
100
AcDbEntity
  8
部品1
 48
0.01
100
AcDbLine
 10
5996.582777791753
 20
4708.431598713261
 30
0.0
 11
6172.582777791753
 21
4708.431598713261
 31
0.0
  0
LINE
  5
19ECD
330
747D
100
AcDbEntity
  8
部品1
 48
0.01
100
AcDbLine
 10
6174.582777791753
 20
4710.431598713261
 30
0.0
 11
6174.582777791753
 21
4741.931598713261
 31
0.0
  0
LINE
  5
19ECE
330
747D
100
AcDbEntity
  8
細線
100
AcDbLine
 10
6010.582777791753
 20
4737.431598713261
 30
0.0
 11
6010.582777791753
 21
4714.431598713261
 31
0.0
  0
LINE
  5
19ECF
330
747D
100
AcDbEntity
  8
細線
100
AcDbLine
 10
6158.582777791753
 20
4714.431598713261
 30
0.0
 11
6158.582777791753
 21
4737.431598713261
 31
0.0
  0
LINE
  5
19ED0
330
747D
100
AcDbEntity
  8
細線
100
AcDbLine
 10
6158.582777791753
 20
4737.431598713261
 30
0.0
 11
6084.582777791752
 21
4737.431598713261
 31
0.0
  0
LINE
  5
19ED1
330
747D
100
AcDbEntity
  8
細線
100
AcDbLine
 10
6010.582777791753
 20
4714.431598713261
 30
0.0
 11
6084.582777791752
 21
4714.431598713261
 31
0.0
  0
LINE
  5
19ED2
330
747D
100
AcDbEntity
  8
細線
100
AcDbLine
 10
6084.582777791752
 20
4737.431598713261
 30
0.0
 11
6010.582777791753
 21
4737.431598713261
 31
0.0
  0
LINE
  5
19ED3
330
747D
100
AcDbEntity
  8
細線
100
AcDbLine
 10
6084.582777791752
 20
4714.431598713261
 30
0.0
 11
6158.582777791753
 21
4714.431598713261
 31
0.0
  0
ARC
  5
19ED4
330
747D
100
AcDbEntity
  8
部品1
 48
0.01
100
AcDbCircle
 10
5996.582777791753
 20
4741.931598713261
 30
0.0
 40
2.0
100
AcDbArc
 50
90.0
 51
180.0
  0
ARC
  5
19ED5
330
747D
100
AcDbEntity
  8
部品1
 48
0.01
100
AcDbCircle
 10
5996.582777791753
 20
4710.431598713261
 30
0.0
 40
2.0
100
AcDbArc
 50
180.0
 51
270.0
  0
ARC
  5
19ED6
330
747D
100
AcDbEntity
  8
部品1
 48
0.01
100
AcDbCircle
 10
6172.582777791753
 20
4741.931598713261
 30
0.0
 40
2.0
100
AcDbArc
 50
0.0
 51
90.0
  0
ARC
  5
19ED7
330
747D
100
AcDbEntity
  8
部品1
 48
0.01
100
AcDbCircle
 10
6172.582777791753
 20
4710.431598713261
 30
0.0
 40
2.0
100
AcDbArc
 50
270.0
 51
0.0
  0
LINE
  5
1A26B
330
747D
100
AcDbEntity
  8
部品1
 48
50.0
100
AcDbLine
 10
5699.582777791754
 20
4771.931598713264
 30
0.0
 11
5699.582777791754
 21
4912.931598713264
 31
0.0
  0
LINE
  5
1A26C
330
747D
100
AcDbEntity
  8
部品1
 48
50.0
100
AcDbLine
 10
5709.582777791755
 20
4512.931598713262
 30
0.0
 11
5709.582777791755
 21
4771.931598713264
 31
0.0
  0
DIMENSION
  5
1A3E3
330
747D
100
AcDbEntity
  8
寸法
 48
50.0
100
AcDbDimension
  2
*D36
 10
7367.1258801135
 20
4485.931598713261
 30
0.0
 11
7267.125880113498
 21
3511.931598713263
 31
0.0
 70
    32
  1
有効開口部高サ <>
 71
     5
 42
1948.0
  3
INABA_S40G
100
AcDbAlignedDimension
 13
7079.582777791753
 23
2537.931598713262
 33
0.0
 14
7079.582777791753
 24
4485.931598713261
 34
0.0
 50
90.0
100
AcDbRotatedDimension
  0
DIMENSION
  5
1A3E4
330
747D
100
AcDbEntity
  8
寸法
 48
50.0
100
AcDbDimension
  2
*D37
 10
7367.1258801135
 20
4512.931598713262
 30
0.0
 11
7507.295703359865
 21
4513.89879855292
 31
0.0
 70
   160
 71
     5
 42
27.00000000000091
  3
INABA_S40G
100
AcDbAlignedDimension
 13
7079.582777791753
 23
4485.931598713261
 33
0.0
 14
7079.582777791753
 24
4512.931598713262
 34
0.0
 50
90.0
100
AcDbRotatedDimension
1001
ACAD
1000
DSTYLE
1002
{
1070
   279
1070
     2
1002
}
  0
DIMENSION
  5
1A3E5
330
747D
100
AcDbEntity
  8
寸法
 48
50.0
100
AcDbDimension
  2
*D38
 10
7367.1258801135
 20
4677.931598713261
 30
0.0
 11
7367.1258801135
 21
4916.416880087502
 31
0.0
 70
   160
 71
     5
 42
164.9999999999991
  3
INABA_S40G
100
AcDbAlignedDimension
 13
7079.582777791753
 23
4512.931598713262
 33
0.0
 14
7079.582777791753
 24
4677.931598713261
 34
0.0
 50
90.0
100
AcDbRotatedDimension
1001
ACAD
1000
DSTYLE
1002
{
1002
}
  0
TEXT
  5
1A528
330
747D
100
AcDbEntity
  8
文字
 62
     7
 48
50.0
100
AcDbText
 10
15022.63965474517
 20
10760.01374588372
 30
0.0
 40
100.0
  1
F12         1.0,1.2
  7
STYLE1
100
AcDbText
  0
TEXT
  5
1A52F
330
747D
100
AcDbEntity
  8
文字
 62
     7
 48
50.0
100
AcDbText
 10
15022.63965474516
 20
9060.013745883727
 30
0.0
 40
100.0
  1
F12            0.7
  7
STYLE1
100
AcDbText
  0
LINE
  5
1A531
330
747D
100
AcDbEntity
  8
破線
 48
5.0
100
AcDbLine
 10
5709.582777791752
 20
2262.931598713262
 30
0.0
 11
5709.582777791752
 21
2187.931598713261
 31
0.0
  0
LINE
  5
1A532
330
747D
100
AcDbEntity
  8
破線
 48
5.0
100
AcDbLine
 10
5659.582777791752
 20
2187.931598713261
 30
0.0
 11
5759.582777791752
 21
2187.931598713261
 31
0.0
  0
ENDSEC
  0
SECTION
  2
OBJECTS
  0
DICTIONARY
  5
7471
330
0
100
AcDbDictionary
281
     1
  3
ACAD_COLOR
350
17AE2
  3
ACAD_GROUP
350
7472
  3
ACAD_LAYOUT
350
17AE3
  3
ACAD_MATERIAL
350
17AE1
  3
ACAD_MLINESTYLE
350
7473
  3
ACAD_PLOTSETTINGS
350
17AE4
  3
ACAD_PLOTSTYLENAME
350
17ADF
  3
ACDBHEADERROUNDTRIPXREC
350
1A5B8
  3
AcDbVariableDictionary
350
1A5B4
  3
CONTENTDICTIONARY
350
E71C
  3
DRAWINGVARIABLESDICT
350
F3B9
  0
DICTIONARY
  5
1963F
330
7467
100
AcDbDictionary
280
     1
281
     1
  3
ACAD_LAYERSTATES
360
19640
  0
DICTIONARY
  5
17AE2
102
{ACAD_REACTORS
330
7471
102
}
330
7471
100
AcDbDictionary
281
     1
  0
DICTIONARY
  5
7472
102
{ACAD_REACTORS
330
7471
102
}
330
7471
100
AcDbDictionary
281
     1
  3
*A1
350
17FA7
  3
*A2
350
180C7
  3
*A3
350
180D2
  3
*A4
350
18FC7
  0
DICTIONARY
  5
17AE3
102
{ACAD_REACTORS
330
7471
102
}
330
7471
100
AcDbDictionary
281
     1
  3
Model
350
17AE5
  3
レイアウト1
350
17AE6
  0
DICTIONARY
  5
17AE1
102
{ACAD_REACTORS
330
7471
102
}
330
7471
100
AcDbDictionary
281
     1
  0
DICTIONARY
  5
7473
102
{ACAD_REACTORS
330
7471
102
}
330
7471
100
AcDbDictionary
281
     1
  3
STANDARD
350
7480
  0
DICTIONARY
  5
17AE4
102
{ACAD_REACTORS
330
7471
102
}
330
7471
100
AcDbDictionary
281
     1
  0
ACDBDICTIONARYWDFLT
  5
17ADF
102
{ACAD_REACTORS
330
7471
102
}
330
7471
100
AcDbDictionary
281
     1
  3
Normal
350
17AE0
100
AcDbDictionaryWithDefault
340
17AE0
  0
DICTIONARY
  5
1A5B8
102
{ACAD_REACTORS
330
7471
102
}
330
7471
100
AcDbDictionary
281
     1
  3
COLORDICT
350
1A5BA
  3
MATERIALDICT
350
1A5B9
  0
DICTIONARY
  5
1A5B4
102
{ACAD_REACTORS
330
7471
102
}
330
7471
100
AcDbDictionary
281
     1
  3
DIMASSOC
350
1A5B5
  3
PROJECTNAME
350
1A5B6
  0
DICTIONARY
  5
E71C
102
{ACAD_REACTORS
330
7471
102
}
330
7471
100
AcDbDictionary
281
     1
  0
DICTIONARY
  5
F3B9
102
{ACAD_REACTORS
330
7471
102
}
330
7471
100
AcDbDictionary
281
     1
1001
DRAWINGVARIABLESXDATA
1000
POLARMODE
1000
1
  0
DICTIONARY
  5
19640
102
{ACAD_REACTORS
330
1963F
102
}
330
1963F
100
AcDbDictionary
281
     1
  0
GROUP
  5
17FA7
102
{ACAD_REACTORS
330
7472
102
}
330
7472
100
AcDbGroup
300

 70
     1
 71
     1
  0
GROUP
  5
180C7
102
{ACAD_REACTORS
330
7472
102
}
330
7472
100
AcDbGroup
300

 70
     1
 71
     1
  0
GROUP
  5
180D2
102
{ACAD_REACTORS
330
7472
102
}
330
7472
100
AcDbGroup
300

 70
     1
 71
     1
  0
GROUP
  5
18FC7
102
{ACAD_REACTORS
330
7472
102
}
330
7472
100
AcDbGroup
300

 70
     1
 71
     1
  0
LAYOUT
  5
17AE5
102
{ACAD_XDICTIONARY
360
1A5BB
102
}
102
{ACAD_REACTORS
330
17AE3
102
}
330
17AE3
100
AcDbPlotSettings
  1

  2
Canon iR C3880/C4580 LIPSLX
  4
A3
  6

 40
5.873749732971191
 41
5.873747825622558
 42
5.873748779296875
 43
5.873748779296875
 44
296.9259948730469
 45
419.9466552734374
 46
0.0
 47
0.0
 48
0.0
 49
0.0
140
0.0
141
0.0
142
1.0
143
40.0
 70
 11952
 72
     1
 73
     1
 74
     2
  7
inaba.ctb
 75
    24
147
0.025
148
0.0
149
0.0
100
AcDbLayout
  1
Model
 70
     1
 71
     0
 10
0.0
 20
0.0
 11
12.0
 21
9.0
 12
0.0
 22
0.0
 32
0.0
 14
0.0
 24
0.0
 34
0.0
 15
0.0
 25
0.0
 35
0.0
146
0.0
 13
0.0
 23
0.0
 33
0.0
 16
1.0
 26
0.0
 36
0.0
 17
0.0
 27
1.0
 37
0.0
 76
     0
330
747D
  0
LAYOUT
  5
17AE6
102
{ACAD_XDICTIONARY
360
1A5BD
102
}
102
{ACAD_REACTORS
330
17AE3
102
}
330
17AE3
100
AcDbPlotSettings
  1

  2
EPSON LP-8300
  4

  6

 40
0.0
 41
0.0
 42
0.0
 43
0.0
 44
0.0
 45
0.0
 46
0.0
 47
0.0
 48
0.0
 49
0.0
140
0.0
141
0.0
142
1.0
143
1.0
 70
   688
 72
     0
 73
     0
 74
     5
  7
inaba.ctb
 75
    16
147
1.0
148
0.0
149
0.0
100
AcDbLayout
  1
レイアウト1
 70
     0
 71
     1
 10
0.0
 20
0.0
 11
420.0
 21
297.0
 12
0.0
 22
0.0
 32
0.0
 14
1.000000000000000E+20
 24
1.000000000000000E+20
 34
1.000000000000000E+20
 15
-1.000000000000000E+20
 25
-1.000000000000000E+20
 35
-1.000000000000000E+20
146
0.0
 13
0.0
 23
0.0
 33
0.0
 16
1.0
 26
0.0
 36
0.0
 17
0.0
 27
1.0
 37
0.0
 76
     0
330
747A
  0
MLINESTYLE
  5
7480
102
{ACAD_REACTORS
330
7473
102
}
330
7473
100
AcDbMlineStyle
  2
STANDARD
 70
     0
  3

 62
     0
 51
90.0
 52
90.0
 71
     2
 49
0.5
 62
   256
  6
BYLAYER
 49
-0.5
 62
   256
  6
BYLAYER
  0
ACDBPLACEHOLDER
  5
17AE0
102
{ACAD_REACTORS
330
17ADF
102
}
330
17ADF
  0
XRECORD
  5
1A5BA
102
{ACAD_REACTORS
330
1A5B8
102
}
330
1A5B8
100
AcDbXrecord
280
     1
340
17AE2
  0
XRECORD
  5
1A5B9
102
{ACAD_REACTORS
330
1A5B8
102
}
330
1A5B8
100
AcDbXrecord
280
     1
340
17AE1
  0
DICTIONARYVAR
  5
1A5B5
102
{ACAD_REACTORS
330
1A5B4
102
}
330
1A5B4
100
DictionaryVariables
280
     0
  1
1
  0
DICTIONARYVAR
  5
1A5B6
102
{ACAD_REACTORS
330
1A5B4
102
}
330
1A5B4
100
DictionaryVariables
280
     0
  1

  0
DICTIONARY
  5
1A5BB
330
17AE5
100
AcDbDictionary
280
     1
281
     1
  3
ACAD_XREC_ROUNDTRIP
360
1A5BC
  0
DICTIONARY
  5
1A5BD
330
17AE6
100
AcDbDictionary
280
     1
281
     1
  3
ACAD_XREC_ROUNDTRIP
360
1A5BE
  0
XRECORD
  5
1A5BC
102
{ACAD_REACTORS
330
1A5BB
102
}
330
1A5BB
100
AcDbXrecord
280
     1
102
SHADEPLOT
 70
     0
102
SHADEPLOTRESLEVEL
 70
     2
102
SHADEPLOTCUSTOMDPI
 70
   300
  0
XRECORD
  5
1A5BE
102
{ACAD_REACTORS
330
1A5BD
102
}
330
1A5BD
100
AcDbXrecord
280
     1
102
SHADEPLOT
 70
     0
102
SHADEPLOTRESLEVEL
 70
     2
102
SHADEPLOTCUSTOMDPI
 70
   300
  0
ENDSEC
  0
EOF
