  0
SECTION
  2
HEADER
  9
$ACADVER
  1
AC1015
  9
$ACADMAINTVER
 70
    20
  9
$DWGCODEPAGE
  3
ANSI_932
  9
$INSBASE
 10
0.0
 20
0.0
 30
0.0
  9
$EXTMIN
 10
139.9999999999995
 20
-0.0000000000000909
 30
0.0
  9
$EXTMAX
 10
16307.2
 20
11409.6
 30
0.0
  9
$LIMMIN
 10
0.0
 20
0.0
  9
$LIMMAX
 10
16800.0
 20
11880.0
  9
$ORTHOMODE
 70
     0
  9
$REGENMODE
 70
     1
  9
$FILLMODE
 70
     1
  9
$QTEXTMODE
 70
     0
  9
$MIRRTEXT
 70
     1
  9
$LTSCALE
 40
20.0
  9
$ATTMODE
 70
     1
  9
$TEXTSIZE
 40
3.5
  9
$TRACEWID
 40
1.0
  9
$TEXTSTYLE
  7
MSGOTHIC
  9
$CLAYER
  8
寸法
  9
$CELTYPE
  6
BYLAYER
  9
$CECOLOR
 62
   256
  9
$CELTSCALE
 40
50.0
  9
$DISPSILH
 70
     0
  9
$DIMSCALE
 40
40.0
  9
$DIMASZ
 40
2.5
  9
$DIMEXO
 40
0.5
  9
$DIMDLI
 40
7.0
  9
$DIMRND
 40
0.0
  9
$DIMDLE
 40
0.0
  9
$DIMEXE
 40
1.5
  9
$DIMTP
 40
0.0
  9
$DIMTM
 40
0.0
  9
$DIMTXT
 40
3.0
  9
$DIMCEN
 40
0.0
  9
$DIMTSZ
 40
0.0
  9
$DIMTOL
 70
     0
  9
$DIMLIM
 70
     0
  9
$DIMTIH
 70
     0
  9
$DIMTOH
 70
     0
  9
$DIMSE1
 70
     0
  9
$DIMSE2
 70
     0
  9
$DIMTAD
 70
     3
  9
$DIMZIN
 70
     8
  9
$DIMBLK
  1

  9
$DIMASO
 70
     1
  9
$DIMSHO
 70
     1
  9
$DIMPOST
  1

  9
$DIMAPOST
  1

  9
$DIMALT
 70
     0
  9
$DIMALTD
 70
     2
  9
$DIMALTF
 40
0.0394
  9
$DIMLFAC
 40
1.0
  9
$DIMTOFL
 70
     1
  9
$DIMTVP
 40
0.0
  9
$DIMTIX
 70
     1
  9
$DIMSOXD
 70
     0
  9
$DIMSAH
 70
     1
  9
$DIMBLK1
  1
DOTSMALL
  9
$DIMBLK2
  1
DOTSMALL
  9
$DIMSTYLE
  2
INABA_S40G
  9
$DIMCLRD
 70
     0
  9
$DIMCLRE
 70
     0
  9
$DIMCLRT
 70
     7
  9
$DIMTFAC
 40
1.0
  9
$DIMGAP
 40
1.0
  9
$DIMJUST
 70
     0
  9
$DIMSD1
 70
     0
  9
$DIMSD2
 70
     0
  9
$DIMTOLJ
 70
     1
  9
$DIMTZIN
 70
     0
  9
$DIMALTZ
 70
     0
  9
$DIMALTTZ
 70
     0
  9
$DIMUPT
 70
     0
  9
$DIMDEC
 70
     1
  9
$DIMTDEC
 70
     4
  9
$DIMALTU
 70
     2
  9
$DIMALTTD
 70
     2
  9
$DIMTXSTY
  7
STYLE1
  9
$DIMAUNIT
 70
     0
  9
$DIMADEC
 70
     0
  9
$DIMALTRND
 40
0.0
  9
$DIMAZIN
 70
     0
  9
$DIMDSEP
 70
    46
  9
$DIMATFIT
 70
     3
  9
$DIMFRAC
 70
     0
  9
$DIMLDRBLK
  1

  9
$DIMLUNIT
 70
     2
  9
$DIMLWD
 70
    -2
  9
$DIMLWE
 70
    -2
  9
$DIMTMOVE
 70
     0
  9
$LUNITS
 70
     2
  9
$LUPREC
 70
     1
  9
$SKETCHINC
 40
1.0
  9
$FILLETRAD
 40
3.0
  9
$AUNITS
 70
     0
  9
$AUPREC
 70
     0
  9
$MENU
  1
acad
  9
$ELEVATION
 40
0.0
  9
$PELEVATION
 40
0.0
  9
$THICKNESS
 40
0.0
  9
$LIMCHECK
 70
     0
  9
$CHAMFERA
 40
0.0
  9
$CHAMFERB
 40
0.0
  9
$CHAMFERC
 40
0.0
  9
$CHAMFERD
 40
0.0
  9
$SKPOLY
 70
     0
  9
$TDCREATE
 40
2451368.612993866
  9
$TDUCREATE
 40
2451368.237993866
  9
$TDUPDATE
 40
2455569.643090278
  9
$TDUUPDATE
 40
2455569.268090278
  9
$TDINDWG
 40
0.7193248148
  9
$TDUSRTIMER
 40
0.7193248148
  9
$USRTIMER
 70
     1
  9
$ANGBASE
 50
0.0
  9
$ANGDIR
 70
     0
  9
$PDMODE
 70
     3
  9
$PDSIZE
 40
2.0
  9
$PLINEWID
 40
0.0
  9
$SPLFRAME
 70
     0
  9
$SPLINETYPE
 70
     6
  9
$SPLINESEGS
 70
     8
  9
$HANDSEED
  5
17D40
  9
$SURFTAB1
 70
     6
  9
$SURFTAB2
 70
     6
  9
$SURFTYPE
 70
     6
  9
$SURFU
 70
     6
  9
$SURFV
 70
     6
  9
$UCSBASE
  2

  9
$UCSNAME
  2

  9
$UCSORG
 10
0.0
 20
0.0
 30
0.0
  9
$UCSXDIR
 10
1.0
 20
0.0
 30
0.0
  9
$UCSYDIR
 10
0.0
 20
1.0
 30
0.0
  9
$UCSORTHOREF
  2

  9
$UCSORTHOVIEW
 70
     0
  9
$UCSORGTOP
 10
0.0
 20
0.0
 30
0.0
  9
$UCSORGBOTTOM
 10
0.0
 20
0.0
 30
0.0
  9
$UCSORGLEFT
 10
0.0
 20
0.0
 30
0.0
  9
$UCSORGRIGHT
 10
0.0
 20
0.0
 30
0.0
  9
$UCSORGFRONT
 10
0.0
 20
0.0
 30
0.0
  9
$UCSORGBACK
 10
0.0
 20
0.0
 30
0.0
  9
$PUCSBASE
  2

  9
$PUCSNAME
  2

  9
$PUCSORG
 10
0.0
 20
0.0
 30
0.0
  9
$PUCSXDIR
 10
1.0
 20
0.0
 30
0.0
  9
$PUCSYDIR
 10
0.0
 20
1.0
 30
0.0
  9
$PUCSORTHOREF
  2

  9
$PUCSORTHOVIEW
 70
     0
  9
$PUCSORGTOP
 10
0.0
 20
0.0
 30
0.0
  9
$PUCSORGBOTTOM
 10
0.0
 20
0.0
 30
0.0
  9
$PUCSORGLEFT
 10
0.0
 20
0.0
 30
0.0
  9
$PUCSORGRIGHT
 10
0.0
 20
0.0
 30
0.0
  9
$PUCSORGFRONT
 10
0.0
 20
0.0
 30
0.0
  9
$PUCSORGBACK
 10
0.0
 20
0.0
 30
0.0
  9
$USERI1
 70
     0
  9
$USERI2
 70
     0
  9
$USERI3
 70
     0
  9
$USERI4
 70
     0
  9
$USERI5
 70
     0
  9
$USERR1
 40
0.0
  9
$USERR2
 40
0.0
  9
$USERR3
 40
0.0
  9
$USERR4
 40
0.0
  9
$USERR5
 40
0.0
  9
$WORLDVIEW
 70
     1
  9
$SHADEDGE
 70
     3
  9
$SHADEDIF
 70
    70
  9
$TILEMODE
 70
     1
  9
$MAXACTVP
 70
    16
  9
$PINSBASE
 10
0.0
 20
0.0
 30
0.0
  9
$PLIMCHECK
 70
     0
  9
$PEXTMIN
 10
1.000000000000000E+20
 20
1.000000000000000E+20
 30
1.000000000000000E+20
  9
$PEXTMAX
 10
-1.000000000000000E+20
 20
-1.000000000000000E+20
 30
-1.000000000000000E+20
  9
$PLIMMIN
 10
0.0
 20
0.0
  9
$PLIMMAX
 10
420.0
 20
297.0
  9
$UNITMODE
 70
     0
  9
$VISRETAIN
 70
     0
  9
$PLINEGEN
 70
     0
  9
$PSLTSCALE
 70
     0
  9
$TREEDEPTH
 70
  3020
  9
$CMLSTYLE
  2
STANDARD
  9
$CMLJUST
 70
     0
  9
$CMLSCALE
 40
1.0
  9
$PROXYGRAPHICS
 70
     1
  9
$MEASUREMENT
 70
     1
  9
$CELWEIGHT
370
    -1
  9
$ENDCAPS
280
     0
  9
$JOINSTYLE
280
     0
  9
$LWDISPLAY
290
     0
  9
$INSUNITS
 70
     0
  9
$HYPERLINKBASE
  1

  9
$STYLESHEET
  1
inaba.ctb
  9
$XEDIT
290
     1
  9
$CEPSNTYPE
380
     0
  9
$PSTYLEMODE
290
     1
  9
$FINGERPRINTGUID
  2
{77ABBCC8-E499-47A5-842F-55F583DC8CE7}
  9
$VERSIONGUID
  2
{CA97F513-254C-4DAD-9688-7853A30CF2AD}
  9
$EXTNAMES
290
     1
  9
$PSVPSCALE
 40
0.0
  9
$OLESTARTUP
290
     0
  0
ENDSEC
  0
SECTION
  2
CLASSES
  0
CLASS
  1
ACDBDICTIONARYWDFLT
  2
AcDbDictionaryWithDefault
  3
ObjectDBX Classes
 90
        0
280
     0
281
     0
  0
CLASS
  1
DICTIONARYVAR
  2
AcDbDictionaryVar
  3
ObjectDBX Classes
 90
        0
280
     0
281
     0
  0
CLASS
  1
ACDBPLACEHOLDER
  2
AcDbPlaceHolder
  3
ObjectDBX Classes
 90
        0
280
     0
281
     0
  0
CLASS
  1
LAYOUT
  2
AcDbLayout
  3
ObjectDBX Classes
 90
        0
280
     0
281
     0
  0
ENDSEC
  0
SECTION
  2
TABLES
  0
TABLE
  2
VPORT
  5
746D
330
0
100
AcDbSymbolTable
 70
     2
  0
VPORT
  5
17D38
330
746D
100
AcDbSymbolTableRecord
100
AcDbViewportTableRecord
  2
*Active
 70
     0
 10
0.0
 20
0.0
 11
1.0
 21
1.0
 12
11720.03460912035
 22
5704.872900782047
 13
0.0
 23
0.0
 14
10.0
 24
10.0
 15
10.0
 25
10.0
 16
0.0
 26
0.0
 36
1.0
 17
0.0
 27
0.0
 37
0.0
 40
11513.2111641413
 41
2.234800838574423
 42
50.0
 43
0.0
 44
0.0
 50
0.0
 51
0.0
 71
     0
 72
     0
 73
     1
 74
     0
 75
     0
 76
     0
 77
     0
 78
     0
281
     0
 65
     1
110
0.0
120
0.0
130
0.0
111
1.0
121
0.0
131
0.0
112
0.0
122
1.0
132
0.0
 79
     0
146
0.0
  0
ENDTAB
  0
TABLE
  2
LTYPE
  5
746A
330
0
100
AcDbSymbolTable
 70
     3
  0
LTYPE
  5
7477
330
746A
100
AcDbSymbolTableRecord
100
AcDbLinetypeTableRecord
  2
BYBLOCK
 70
     0
  3

 72
    65
 73
     0
 40
0.0
  0
LTYPE
  5
7478
330
746A
100
AcDbSymbolTableRecord
100
AcDbLinetypeTableRecord
  2
BYLAYER
 70
     0
  3

 72
    65
 73
     0
 40
0.0
  0
LTYPE
  5
7479
330
746A
100
AcDbSymbolTableRecord
100
AcDbLinetypeTableRecord
  2
CONTINUOUS
 70
     0
  3
Solid line
 72
    65
 73
     0
 40
0.0
  0
LTYPE
  5
781A
330
746A
100
AcDbSymbolTableRecord
100
AcDbLinetypeTableRecord
  2
HIDDEN
 70
     0
  3
__ __ __ __ __ __ __ __ __ __ __ __ __ __ __ __
 72
    65
 73
     2
 40
0.375
 49
0.25
 74
     0
 49
-0.125
 74
     0
  0
LTYPE
  5
781B
330
746A
100
AcDbSymbolTableRecord
100
AcDbLinetypeTableRecord
  2
PHANTOM
 70
     0
  3
______  __  __  ______  __  __  ______  __  __ 
 72
    65
 73
     6
 40
2.5
 49
1.25
 74
     0
 49
-0.25
 74
     0
 49
0.25
 74
     0
 49
-0.25
 74
     0
 49
0.25
 74
     0
 49
-0.25
 74
     0
  0
ENDTAB
  0
TABLE
  2
LAYER
  5
7467
102
{ACAD_XDICTIONARY
360
172E1
102
}
330
0
100
AcDbSymbolTable
 70
    10
  0
LAYER
  5
7474
330
7467
100
AcDbSymbolTableRecord
100
AcDbLayerTableRecord
  2
0
 70
     0
 62
     7
  6
CONTINUOUS
370
    -3
390
166AC
  0
LAYER
  5
DEB3
330
7467
100
AcDbSymbolTableRecord
100
AcDbLayerTableRecord
  2
寸法
 70
     0
 62
     4
  6
CONTINUOUS
370
    -3
390
166AC
  0
LAYER
  5
DEB4
330
7467
100
AcDbSymbolTableRecord
100
AcDbLayerTableRecord
  2
部品1
 70
     0
 62
     7
  6
CONTINUOUS
370
    -3
390
166AC
  0
LAYER
  5
DEB5
330
7467
100
AcDbSymbolTableRecord
100
AcDbLayerTableRecord
  2
補助
 70
     0
 62
    -1
  6
CONTINUOUS
370
    -3
390
166AC
  0
LAYER
  5
DEB6
330
7467
100
AcDbSymbolTableRecord
100
AcDbLayerTableRecord
  2
文字
 70
     0
 62
     7
  6
CONTINUOUS
370
    -3
390
166AC
  0
LAYER
  5
F255
330
7467
100
AcDbSymbolTableRecord
100
AcDbLayerTableRecord
  2
DEFPOINTS
 70
     0
 62
     7
  6
CONTINUOUS
290
     0
370
    -3
390
166AC
  0
LAYER
  5
10B54
330
7467
100
AcDbSymbolTableRecord
100
AcDbLayerTableRecord
  2
仕様書枠
 70
     0
 62
   230
  6
CONTINUOUS
370
    -3
390
166AC
  0
LAYER
  5
11729
330
7467
100
AcDbSymbolTableRecord
100
AcDbLayerTableRecord
  2
Ｇ．Ｌ
 70
     0
 62
    30
  6
CONTINUOUS
370
    -3
390
166AC
  0
LAYER
  5
1173F
330
7467
100
AcDbSymbolTableRecord
100
AcDbLayerTableRecord
  2
細線
 70
     0
 62
     5
  6
CONTINUOUS
370
    -3
390
166AC
  0
LAYER
  5
142E2
330
7467
100
AcDbSymbolTableRecord
100
AcDbLayerTableRecord
  2
破線
 70
     0
 62
     2
  6
HIDDEN
370
    -3
390
166AC
  0
ENDTAB
  0
TABLE
  2
STYLE
  5
7468
330
0
100
AcDbSymbolTable
 70
     6
  0
STYLE
  5
7475
330
7468
100
AcDbSymbolTableRecord
100
AcDbTextStyleTableRecord
  2
STANDARD
 70
     0
 40
0.0
 41
1.0
 50
0.0
 71
     0
 42
4.0
  3
txt
  4
C:\AutoCAD LT\bigfont.shx
  0
STYLE
  5
763C
330
7468
100
AcDbSymbolTableRecord
100
AcDbTextStyleTableRecord
  2
MSMINCHO
 70
     0
 40
0.0
 41
1.0
 50
0.0
 71
     0
 42
1.199999999999999
  3
C:\AutoCAD LT\msminch2.TTF
  4

  0
STYLE
  5
F706
330
7468
100
AcDbSymbolTableRecord
100
AcDbTextStyleTableRecord
  2
STYLE1
 70
     0
 40
0.0
 41
1.0
 50
0.0
 71
     0
 42
4.0
  3
isocp.shx
  4
bigfont.shx
  0
STYLE
  5
103BF
330
7468
100
AcDbSymbolTableRecord
100
AcDbTextStyleTableRecord
  2
STYLE2
 70
     0
 40
0.0
 41
1.0
 50
0.0
 71
     0
 42
100.0
  3
MS PGothic.ttf
  4

1001
ACAD
1000
MS PGothic
1071
    32818
  0
STYLE
  5
10BAA
330
7468
100
AcDbSymbolTableRecord
100
AcDbTextStyleTableRecord
  2
STYLE3
 70
     0
 40
0.0
 41
1.0
 50
0.0
 71
     0
 42
100.0
  3
DFPGothic-EB.ttf
  4

1001
ACAD
1000
DFPGothic-EB
1071
    32818
  0
STYLE
  5
11A15
330
7468
100
AcDbSymbolTableRecord
100
AcDbTextStyleTableRecord
  2
MSGOTHIC
 70
     0
 40
0.0
 41
1.0
 50
0.0
 71
     0
 42
3.5
  3
MS PGothic.ttf
  4

1001
ACAD
1000
MS PGothic
1071
    32818
  0
ENDTAB
  0
TABLE
  2
VIEW
  5
746B
330
0
100
AcDbSymbolTable
 70
     0
  0
ENDTAB
  0
TABLE
  2
UCS
  5
746C
330
0
100
AcDbSymbolTable
 70
     0
  0
ENDTAB
  0
TABLE
  2
APPID
  5
746E
330
0
100
AcDbSymbolTable
 70
     6
  0
APPID
  5
7476
330
746E
100
AcDbSymbolTableRecord
100
AcDbRegAppTableRecord
  2
ACAD
 70
     0
  0
APPID
  5
DEA9
330
746E
100
AcDbSymbolTableRecord
100
AcDbRegAppTableRecord
  2
CONTENTBLOCKICON
 70
     0
  0
APPID
  5
DEAA
330
746E
100
AcDbSymbolTableRecord
100
AcDbRegAppTableRecord
  2
CONTENTBLOCKDESCRIPTION
 70
     0
  0
APPID
  5
E71D
330
746E
100
AcDbSymbolTableRecord
100
AcDbRegAppTableRecord
  2
CONTENTTABDATA
 70
     0
  0
APPID
  5
E71E
330
746E
100
AcDbSymbolTableRecord
100
AcDbRegAppTableRecord
  2
CONTENTCURRENTTAB
 70
     0
  0
APPID
  5
F3BA
330
746E
100
AcDbSymbolTableRecord
100
AcDbRegAppTableRecord
  2
DRAWINGVARIABLESXDATA
 70
     0
  0
ENDTAB
  0
TABLE
  2
DIMSTYLE
  5
746F
330
0
100
AcDbSymbolTable
 70
     1
100
AcDbDimStyleTable
 71
     1
340
F71F
  0
DIMSTYLE
105
F71F
102
{ACAD_REACTORS
330
17469
330
174A4
330
174A5
330
174A6
330
174AC
330
174AD
330
174F2
330
174F3
330
174F4
330
174F5
330
17539
330
1753B
330
1754A
330
17561
330
17562
330
17569
330
1756B
330
17579
330
1757A
330
1757B
330
1758B
330
1758C
330
1758D
330
1758F
330
17592
330
17599
330
1759A
330
1759B
330
1759C
102
}
330
746F
100
AcDbSymbolTableRecord
100
AcDbDimStyleTableRecord
  2
INABA_S40G
 70
     0
 40
40.0
 41
2.5
 42
0.5
 43
7.0
 44
1.5
 73
     0
 74
     0
 77
     3
 78
     8
140
3.0
141
0.0
143
0.0394
147
1.0
172
     1
173
     1
174
     1
178
     7
271
     1
340
F706
341
F770
343
F770
344
F770
  0
ENDTAB
  0
TABLE
  2
BLOCK_RECORD
  5
7466
330
0
100
AcDbSymbolTable
 70
    30
  0
BLOCK_RECORD
  5
747D
330
7466
100
AcDbSymbolTableRecord
100
AcDbBlockTableRecord
  2
*MODEL_SPACE
340
166B1
  0
BLOCK_RECORD
  5
747A
330
7466
100
AcDbSymbolTableRecord
100
AcDbBlockTableRecord
  2
*PAPER_SPACE
340
166B2
  0
BLOCK_RECORD
  5
F770
330
7466
100
AcDbSymbolTableRecord
100
AcDbBlockTableRecord
  2
_DOTSMALL
340
0
102
{BLKREFS
331
17AE8
331
17AE9
331
17AF1
331
17AF2
331
17AF9
331
17AFA
331
17B02
331
17B03
331
17B0D
331
17B0E
331
17B19
331
17B1A
331
17B24
331
17B25
331
17B2E
331
17B2F
331
17B39
331
17B3A
331
17B42
331
17B43
331
17B4D
331
17B4E
331
17B58
331
17B59
331
17B63
331
17B64
331
17B87
331
17B88
331
17B9C
331
17B9D
331
17BE1
331
17BE2
331
17BEB
331
17BEC
331
17BF5
331
17BF6
331
17BFE
331
17BFF
331
17C1C
331
17C1D
331
17C27
331
17C28
331
17C30
331
17C31
331
17C4E
331
17C4F
331
17C80
331
17C81
331
17CE2
331
17CE3
331
17CF6
331
17CF7
331
17CFF
331
17D00
331
17D1F
331
17D20
331
17D28
331
17D29
102
}
  0
BLOCK_RECORD
  5
175EB
330
7466
100
AcDbSymbolTableRecord
100
AcDbBlockTableRecord
  2
*D1
340
0
  0
BLOCK_RECORD
  5
175F7
330
7466
100
AcDbSymbolTableRecord
100
AcDbBlockTableRecord
  2
*D2
340
0
  0
BLOCK_RECORD
  5
17604
330
7466
100
AcDbSymbolTableRecord
100
AcDbBlockTableRecord
  2
*D3
340
0
  0
BLOCK_RECORD
  5
17611
330
7466
100
AcDbSymbolTableRecord
100
AcDbBlockTableRecord
  2
*D4
340
0
  0
BLOCK_RECORD
  5
1761F
330
7466
100
AcDbSymbolTableRecord
100
AcDbBlockTableRecord
  2
*D5
340
0
  0
BLOCK_RECORD
  5
1762B
330
7466
100
AcDbSymbolTableRecord
100
AcDbBlockTableRecord
  2
*D6
340
0
  0
BLOCK_RECORD
  5
17637
330
7466
100
AcDbSymbolTableRecord
100
AcDbBlockTableRecord
  2
*D7
340
0
  0
BLOCK_RECORD
  5
17643
330
7466
100
AcDbSymbolTableRecord
100
AcDbBlockTableRecord
  2
*D8
340
0
  0
BLOCK_RECORD
  5
17651
330
7466
100
AcDbSymbolTableRecord
100
AcDbBlockTableRecord
  2
*D9
340
0
  0
BLOCK_RECORD
  5
1765F
330
7466
100
AcDbSymbolTableRecord
100
AcDbBlockTableRecord
  2
*D10
340
0
  0
BLOCK_RECORD
  5
1766B
330
7466
100
AcDbSymbolTableRecord
100
AcDbBlockTableRecord
  2
*D11
340
0
  0
BLOCK_RECORD
  5
17686
330
7466
100
AcDbSymbolTableRecord
100
AcDbBlockTableRecord
  2
*D12
340
0
  0
BLOCK_RECORD
  5
176AA
330
7466
100
AcDbSymbolTableRecord
100
AcDbBlockTableRecord
  2
*D13
340
0
  0
BLOCK_RECORD
  5
176B6
330
7466
100
AcDbSymbolTableRecord
100
AcDbBlockTableRecord
  2
*D14
340
0
  0
BLOCK_RECORD
  5
176C4
330
7466
100
AcDbSymbolTableRecord
100
AcDbBlockTableRecord
  2
*D15
340
0
  0
BLOCK_RECORD
  5
176D2
330
7466
100
AcDbSymbolTableRecord
100
AcDbBlockTableRecord
  2
*D16
340
0
  0
BLOCK_RECORD
  5
176E0
330
7466
100
AcDbSymbolTableRecord
100
AcDbBlockTableRecord
  2
*D17
340
0
  0
BLOCK_RECORD
  5
176EC
330
7466
100
AcDbSymbolTableRecord
100
AcDbBlockTableRecord
  2
*D18
340
0
  0
BLOCK_RECORD
  5
176FA
330
7466
100
AcDbSymbolTableRecord
100
AcDbBlockTableRecord
  2
*D19
340
0
  0
BLOCK_RECORD
  5
17708
330
7466
100
AcDbSymbolTableRecord
100
AcDbBlockTableRecord
  2
*D20
340
0
  0
BLOCK_RECORD
  5
17716
330
7466
100
AcDbSymbolTableRecord
100
AcDbBlockTableRecord
  2
*D21
340
0
  0
BLOCK_RECORD
  5
17724
330
7466
100
AcDbSymbolTableRecord
100
AcDbBlockTableRecord
  2
*D22
340
0
  0
BLOCK_RECORD
  5
17732
330
7466
100
AcDbSymbolTableRecord
100
AcDbBlockTableRecord
  2
*D23
340
0
  0
BLOCK_RECORD
  5
1773E
330
7466
100
AcDbSymbolTableRecord
100
AcDbBlockTableRecord
  2
*D24
340
0
  0
BLOCK_RECORD
  5
17749
330
7466
100
AcDbSymbolTableRecord
100
AcDbBlockTableRecord
  2
*D25
340
0
  0
BLOCK_RECORD
  5
17755
330
7466
100
AcDbSymbolTableRecord
100
AcDbBlockTableRecord
  2
*D26
340
0
  0
BLOCK_RECORD
  5
17761
330
7466
100
AcDbSymbolTableRecord
100
AcDbBlockTableRecord
  2
*D27
340
0
  0
BLOCK_RECORD
  5
1776E
330
7466
100
AcDbSymbolTableRecord
100
AcDbBlockTableRecord
  2
*D28
340
0
  0
BLOCK_RECORD
  5
1777C
330
7466
100
AcDbSymbolTableRecord
100
AcDbBlockTableRecord
  2
*D29
340
0
  0
ENDTAB
  0
ENDSEC
  0
SECTION
  2
BLOCKS
  0
BLOCK
  5
7489
330
747D
100
AcDbEntity
  8
0
100
AcDbBlockBegin
  2
*MODEL_SPACE
 70
     0
 10
0.0
 20
0.0
 30
0.0
  3
*MODEL_SPACE
  1

  0
ENDBLK
  5
748A
330
747D
100
AcDbEntity
  8
0
100
AcDbBlockEnd
  0
BLOCK
  5
7487
330
747A
100
AcDbEntity
 67
     1
  8
0
100
AcDbBlockBegin
  2
*PAPER_SPACE
 70
     0
 10
0.0
 20
0.0
 30
0.0
  3
*PAPER_SPACE
  1

  0
ENDBLK
  5
7488
330
747A
100
AcDbEntity
 67
     1
  8
0
100
AcDbBlockEnd
  0
BLOCK
  5
F771
330
F770
100
AcDbEntity
  8
0
 48
50.0
100
AcDbBlockBegin
  2
_DOTSMALL
 70
     0
 10
0.0
 20
0.0
 30
0.0
  3
_DOTSMALL
  1

  0
LWPOLYLINE
  5
F772
330
F770
100
AcDbEntity
  8
0
  6
ByBlock
 62
     0
 48
50.0
100
AcDbPolyline
 90
        2
 70
     1
 43
0.5
 10
-0.0625
 20
0.0
 42
1.0
 10
0.0625
 20
0.0
 42
1.0
  0
ENDBLK
  5
F776
330
F770
100
AcDbEntity
  8
0
 48
50.0
100
AcDbBlockEnd
  0
BLOCK
  5
175F5
330
175EB
100
AcDbEntity
  8
0
 48
50.0
100
AcDbBlockBegin
  2
*D1
 70
     1
 10
0.0
 20
0.0
 30
0.0
  3
*D1
  1

  0
LINE
  5
17BFB
330
175EB
100
AcDbEntity
  8
寸法
 62
     0
 48
50.0
370
    -2
100
AcDbLine
 10
8795.481182201326
 20
2687.416571881594
 30
0.0
 11
7611.731053018067
 21
2687.416571881594
 31
0.0
  0
LINE
  5
17BFC
330
175EB
100
AcDbEntity
  8
寸法
 62
     0
 48
50.0
370
    -2
100
AcDbLine
 10
8735.481182201327
 20
5062.416571881598
 30
0.0
 11
7611.731053018067
 21
5062.416571881598
 31
0.0
  0
LINE
  5
17BFD
330
175EB
100
AcDbEntity
  8
寸法
 62
     0
 48
50.0
370
    -2
100
AcDbLine
 10
7671.731053018068
 20
2687.416571881594
 30
0.0
 11
7671.731053018068
 21
5062.416571881598
 31
0.0
  0
INSERT
  5
17BFE
330
175EB
100
AcDbEntity
  8
寸法
 62
     0
 48
50.0
370
    -2
100
AcDbBlockReference
  2
_DOTSMALL
 10
7671.731053018068
 20
2687.416571881594
 30
0.0
 41
100.0
 42
100.0
 43
100.0
 50
270.0
  0
INSERT
  5
17BFF
330
175EB
100
AcDbEntity
  8
寸法
 62
     0
 48
50.0
370
    -2
100
AcDbBlockReference
  2
_DOTSMALL
 10
7671.731053018068
 20
5062.416571881598
 30
0.0
 41
100.0
 42
100.0
 43
100.0
 50
90.0
  0
MTEXT
  5
17C00
330
175EB
100
AcDbEntity
  8
寸法
 62
     7
 48
50.0
100
AcDbMText
 10
7571.719241994445
 20
3874.916571881597
 30
0.0
 40
120.0
 41
0.0
 71
     5
 72
     1
  1
\A1;2375
  7
STYLE1
 11
0.0000000000000001
 21
1.0
 31
0.0
 73
     1
 44
1.0
1001
ACAD
1000
MTEXTBEGIN
1070
    73
1070
     1
1070
    44
1040
1.0
1070
    74
1070
     0
1000
MTEXTEND
  0
POINT
  5
17C01
330
175EB
100
AcDbEntity
  8
DEFPOINTS
 62
     0
 48
50.0
100
AcDbPoint
 10
8815.481182201327
 20
2687.416571881594
 30
0.0
  0
POINT
  5
17C02
330
175EB
100
AcDbEntity
  8
DEFPOINTS
 62
     0
 48
50.0
100
AcDbPoint
 10
8755.481182201327
 20
5062.416571881598
 30
0.0
  0
POINT
  5
17C03
330
175EB
100
AcDbEntity
  8
DEFPOINTS
 62
     0
 48
50.0
100
AcDbPoint
 10
7671.731053018068
 20
5062.416571881598
 30
0.0
  0
ENDBLK
  5
175F6
330
175EB
100
AcDbEntity
  8
0
 48
50.0
100
AcDbBlockEnd
  0
BLOCK
  5
17602
330
175F7
100
AcDbEntity
  8
0
 48
50.0
100
AcDbBlockBegin
  2
*D2
 70
     1
 10
0.0
 20
0.0
 30
0.0
  3
*D2
  1

  0
LINE
  5
17BF1
330
175F7
100
AcDbEntity
  8
寸法
 62
     0
 48
50.0
370
    -2
100
AcDbLine
 10
11025.48118220132
 20
5029.227251493248
 30
0.0
 11
11025.48118220132
 21
5521.074025460898
 31
0.0
  0
LINE
  5
17BF2
330
175F7
100
AcDbEntity
  8
寸法
 62
     0
 48
50.0
370
    -2
100
AcDbLine
 10
11105.48118220132
 20
5027.416571881595
 30
0.0
 11
11105.48118220132
 21
5521.074025460898
 31
0.0
  0
LINE
  5
17BF3
330
175F7
100
AcDbEntity
  8
寸法
 62
     0
 48
50.0
370
    -2
100
AcDbLine
 10
11025.48118220132
 20
5461.074025460899
 30
0.0
 11
11105.48118220132
 21
5461.074025460899
 31
0.0
  0
LINE
  5
17BF4
330
175F7
100
AcDbEntity
  8
寸法
 62
     0
 48
50.0
370
    -2
100
AcDbLine
 10
11105.48118220132
 20
5461.074025460899
 30
0.0
 11
11417.5756703903
 21
5461.074025460899
 31
0.0
  0
INSERT
  5
17BF5
330
175F7
100
AcDbEntity
  8
寸法
 62
     0
 48
50.0
370
    -2
100
AcDbBlockReference
  2
_DOTSMALL
 10
11025.48118220132
 20
5461.074025460899
 30
0.0
 41
100.0
 42
100.0
 43
100.0
 50
180.0
  0
INSERT
  5
17BF6
330
175F7
100
AcDbEntity
  8
寸法
 62
     0
 48
50.0
370
    -2
100
AcDbBlockReference
  2
_DOTSMALL
 10
11105.48118220132
 20
5461.074025460899
 30
0.0
 41
100.0
 42
100.0
 43
100.0
  0
MTEXT
  5
17BF7
330
175F7
100
AcDbEntity
  8
寸法
 62
     7
 48
50.0
100
AcDbMText
 10
11311.52842629581
 20
5561.074025460898
 30
0.0
 40
120.0
 41
0.0
 71
     5
 72
     1
  1
\A1;80
  7
STYLE1
 73
     1
 44
1.0
1001
ACAD
1000
MTEXTBEGIN
1070
    73
1070
     1
1070
    44
1040
1.0
1070
    74
1070
     0
1000
MTEXTEND
  0
POINT
  5
17BF8
330
175F7
100
AcDbEntity
  8
DEFPOINTS
 62
     0
 48
50.0
100
AcDbPoint
 10
11025.48118220132
 20
5009.227251493247
 30
0.0
  0
POINT
  5
17BF9
330
175F7
100
AcDbEntity
  8
DEFPOINTS
 62
     0
 48
50.0
100
AcDbPoint
 10
11105.48118220132
 20
5007.416571881595
 30
0.0
  0
POINT
  5
17BFA
330
175F7
100
AcDbEntity
  8
DEFPOINTS
 62
     0
 48
50.0
100
AcDbPoint
 10
11105.48118220132
 20
5461.074025460899
 30
0.0
  0
ENDBLK
  5
17603
330
175F7
100
AcDbEntity
  8
0
 48
50.0
100
AcDbBlockEnd
  0
BLOCK
  5
1760F
330
17604
100
AcDbEntity
  8
0
 48
50.0
100
AcDbBlockBegin
  2
*D3
 70
     1
 10
0.0
 20
0.0
 30
0.0
  3
*D3
  1

  0
LINE
  5
17BE7
330
17604
100
AcDbEntity
  8
寸法
 62
     0
 48
50.0
370
    -2
100
AcDbLine
 10
8754.885468492425
 20
5061.714278951257
 30
0.0
 11
8138.951029387154
 21
5079.428429225586
 31
0.0
  0
LINE
  5
17BE8
330
17604
100
AcDbEntity
  8
寸法
 62
     0
 48
50.0
370
    -2
100
AcDbLine
 10
8750.832012935799
 20
4920.772555185543
 30
0.0
 11
8134.897573830526
 21
4938.486705459872
 31
0.0
  0
LINE
  5
17BE9
330
17604
100
AcDbEntity
  8
寸法
 62
     0
 48
50.0
370
    -2
100
AcDbLine
 10
8194.872775432958
 20
4936.761830754925
 30
0.0
 11
8198.926230989583
 21
5077.703554520638
 31
0.0
  0
LINE
  5
17BEA
330
17604
100
AcDbEntity
  8
寸法
 62
     0
 48
50.0
370
    -2
100
AcDbLine
 10
8198.926230989583
 20
5077.703554520638
 30
0.0
 11
8209.275479219268
 21
5437.554764135224
 31
0.0
  0
INSERT
  5
17BEB
330
17604
100
AcDbEntity
  8
寸法
 62
     0
 48
50.0
370
    -2
100
AcDbBlockReference
  2
_DOTSMALL
 10
8194.872775432958
 20
4936.761830754925
 30
0.0
 41
100.0
 42
100.0
 43
100.0
 50
268.3526390256378
  0
INSERT
  5
17BEC
330
17604
100
AcDbEntity
  8
寸法
 62
     0
 48
50.0
370
    -2
100
AcDbBlockReference
  2
_DOTSMALL
 10
8198.926230989583
 20
5077.703554520638
 30
0.0
 41
100.0
 42
100.0
 43
100.0
 50
88.35263902563776
  0
MTEXT
  5
17BED
330
17604
100
AcDbEntity
  8
寸法
 62
     7
 48
50.0
100
AcDbMText
 10
8105.579581354495
 20
5310.483285171536
 30
0.0
 40
120.0
 41
0.0
 71
     5
 72
     1
  1
\A1;141
  7
STYLE1
 11
0.0287479117491237
 21
0.9995866933738488
 31
0.0
 73
     1
 44
1.0
1001
ACAD
1000
MTEXTBEGIN
1070
    73
1070
     1
1070
    44
1040
1.0
1070
    74
1070
     0
1000
MTEXTEND
  0
POINT
  5
17BEE
330
17604
100
AcDbEntity
  8
DEFPOINTS
 62
     0
 48
50.0
100
AcDbPoint
 10
8774.877202359901
 20
5061.139320716275
 30
0.0
  0
POINT
  5
17BEF
330
17604
100
AcDbEntity
  8
DEFPOINTS
 62
     0
 48
50.0
100
AcDbPoint
 10
8770.823746803275
 20
4920.197596950561
 30
0.0
  0
POINT
  5
17BF0
330
17604
100
AcDbEntity
  8
DEFPOINTS
 62
     0
 48
50.0
100
AcDbPoint
 10
8194.872775432958
 20
4936.761830754925
 30
0.0
  0
ENDBLK
  5
17610
330
17604
100
AcDbEntity
  8
0
 48
50.0
100
AcDbBlockEnd
  0
BLOCK
  5
1761D
330
17611
100
AcDbEntity
  8
0
 48
50.0
100
AcDbBlockBegin
  2
*D4
 70
     1
 10
0.0
 20
0.0
 30
0.0
  3
*D4
  1

  0
LINE
  5
17BDC
330
17611
100
AcDbEntity
  8
寸法
 62
     0
 48
50.0
370
    -2
100
AcDbLine
 10
8815.481182201322
 20
5078.418190004571
 30
0.0
 11
8815.481182201322
 21
5521.074025460898
 31
0.0
  0
LINE
  5
17BDD
330
17611
100
AcDbEntity
  8
寸法
 62
     0
 48
50.0
370
    -2
100
AcDbLine
 10
8755.481182201323
 20
5082.416571881598
 30
0.0
 11
8755.481182201323
 21
5521.074025460898
 31
0.0
  0
LINE
  5
17BDE
330
17611
100
AcDbEntity
  8
寸法
 62
     0
 48
50.0
370
    -2
100
AcDbLine
 10
8815.481182201322
 20
5461.074025460899
 30
0.0
 11
8915.481182201324
 21
5461.074025460899
 31
0.0
  0
LINE
  5
17BDF
330
17611
100
AcDbEntity
  8
寸法
 62
     0
 48
50.0
370
    -2
100
AcDbLine
 10
8755.481182201323
 20
5461.074025460899
 30
0.0
 11
8336.205591650143
 21
5461.074025460899
 31
0.0
  0
LINE
  5
17BE0
330
17611
100
AcDbEntity
  8
寸法
 62
     0
 48
50.0
370
    -2
100
AcDbLine
 10
8815.481182201322
 20
5461.074025460899
 30
0.0
 11
8755.481182201323
 21
5461.074025460899
 31
0.0
  0
INSERT
  5
17BE1
330
17611
100
AcDbEntity
  8
寸法
 62
     0
 48
50.0
370
    -2
100
AcDbBlockReference
  2
_DOTSMALL
 10
8815.481182201322
 20
5461.074025460899
 30
0.0
 41
100.0
 42
100.0
 43
100.0
 50
180.0
  0
INSERT
  5
17BE2
330
17611
100
AcDbEntity
  8
寸法
 62
     0
 48
50.0
370
    -2
100
AcDbBlockReference
  2
_DOTSMALL
 10
8755.481182201323
 20
5461.074025460899
 30
0.0
 41
100.0
 42
100.0
 43
100.0
  0
MTEXT
  5
17BE3
330
17611
100
AcDbEntity
  8
寸法
 62
     7
 48
50.0
100
AcDbMText
 10
8445.843386925734
 20
5561.074025460898
 30
0.0
 40
120.0
 41
0.0
 71
     5
 72
     1
  1
\A1;60
  7
STYLE1
 73
     1
 44
1.0
1001
ACAD
1000
MTEXTBEGIN
1070
    73
1070
     1
1070
    44
1040
1.0
1070
    74
1070
     0
1000
MTEXTEND
  0
POINT
  5
17BE4
330
17611
100
AcDbEntity
  8
DEFPOINTS
 62
     0
 48
50.0
100
AcDbPoint
 10
8815.481182201322
 20
5058.41819000457
 30
0.0
  0
POINT
  5
17BE5
330
17611
100
AcDbEntity
  8
DEFPOINTS
 62
     0
 48
50.0
100
AcDbPoint
 10
8755.481182201323
 20
5062.416571881598
 30
0.0
  0
POINT
  5
17BE6
330
17611
100
AcDbEntity
  8
DEFPOINTS
 62
     0
 48
50.0
100
AcDbPoint
 10
8755.481182201323
 20
5461.074025460899
 30
0.0
  0
ENDBLK
  5
1761E
330
17611
100
AcDbEntity
  8
0
 48
50.0
100
AcDbBlockEnd
  0
BLOCK
  5
17629
330
1761F
100
AcDbEntity
  8
0
 48
50.0
100
AcDbBlockBegin
  2
*D5
 70
     1
 10
0.0
 20
0.0
 30
0.0
  3
*D5
  1

  0
LINE
  5
17CFC
330
1761F
100
AcDbEntity
  8
寸法
 62
     0
 48
50.0
370
    -2
100
AcDbLine
 10
11025.48118220132
 20
5029.227251493248
 30
0.0
 11
11025.48118220132
 21
5521.074025460898
 31
0.0
  0
LINE
  5
17CFD
330
1761F
100
AcDbEntity
  8
寸法
 62
     0
 48
50.0
370
    -2
100
AcDbLine
 10
8815.481182201322
 20
5078.418190004571
 30
0.0
 11
8815.481182201322
 21
5521.074025460898
 31
0.0
  0
LINE
  5
17CFE
330
1761F
100
AcDbEntity
  8
寸法
 62
     0
 48
50.0
370
    -2
100
AcDbLine
 10
11025.48118220132
 20
5461.074025460899
 30
0.0
 11
8815.481182201322
 21
5461.074025460899
 31
0.0
  0
INSERT
  5
17CFF
330
1761F
100
AcDbEntity
  8
寸法
 62
     0
 48
50.0
370
    -2
100
AcDbBlockReference
  2
_DOTSMALL
 10
11025.48118220132
 20
5461.074025460899
 30
0.0
 41
100.0
 42
100.0
 43
100.0
  0
INSERT
  5
17D00
330
1761F
100
AcDbEntity
  8
寸法
 62
     0
 48
50.0
370
    -2
100
AcDbBlockReference
  2
_DOTSMALL
 10
8815.481182201322
 20
5461.074025460899
 30
0.0
 41
100.0
 42
100.0
 43
100.0
 50
180.0
  0
MTEXT
  5
17D01
330
1761F
100
AcDbEntity
  8
寸法
 62
     7
 48
50.0
100
AcDbMText
 10
9920.481182201324
 20
5561.08583648452
 30
0.0
 40
120.0
 41
0.0
 71
     5
 72
     1
  1
\A1;柱外寸法2210
  7
STYLE1
 73
     1
 44
1.0
1001
ACAD
1000
MTEXTBEGIN
1070
    73
1070
     1
1070
    44
1040
1.0
1070
    74
1070
     0
1000
MTEXTEND
  0
POINT
  5
17D02
330
1761F
100
AcDbEntity
  8
DEFPOINTS
 62
     0
 48
50.0
100
AcDbPoint
 10
11025.48118220132
 20
5009.227251493247
 30
0.0
  0
POINT
  5
17D03
330
1761F
100
AcDbEntity
  8
DEFPOINTS
 62
     0
 48
50.0
100
AcDbPoint
 10
8815.481182201322
 20
5058.41819000457
 30
0.0
  0
POINT
  5
17D04
330
1761F
100
AcDbEntity
  8
DEFPOINTS
 62
     0
 48
50.0
100
AcDbPoint
 10
8815.481182201322
 20
5461.074025460899
 30
0.0
  0
ENDBLK
  5
1762A
330
1761F
100
AcDbEntity
  8
0
 48
50.0
100
AcDbBlockEnd
  0
BLOCK
  5
17635
330
1762B
100
AcDbEntity
  8
0
 48
50.0
100
AcDbBlockBegin
  2
*D6
 70
     1
 10
0.0
 20
0.0
 30
0.0
  3
*D6
  1

  0
LINE
  5
17CF3
330
1762B
100
AcDbEntity
  8
寸法
 62
     0
 48
50.0
370
    -2
100
AcDbLine
 10
11105.48118220132
 20
5027.416571881595
 30
0.0
 11
11105.48118220132
 21
5740.27585913519
 31
0.0
  0
LINE
  5
17CF4
330
1762B
100
AcDbEntity
  8
寸法
 62
     0
 48
50.0
370
    -2
100
AcDbLine
 10
8755.481182201323
 20
5082.416571881598
 30
0.0
 11
8755.481182201323
 21
5740.27585913519
 31
0.0
  0
LINE
  5
17CF5
330
1762B
100
AcDbEntity
  8
寸法
 62
     0
 48
50.0
370
    -2
100
AcDbLine
 10
11105.48118220132
 20
5680.275859135189
 30
0.0
 11
8755.481182201323
 21
5680.275859135189
 31
0.0
  0
INSERT
  5
17CF6
330
1762B
100
AcDbEntity
  8
寸法
 62
     0
 48
50.0
370
    -2
100
AcDbBlockReference
  2
_DOTSMALL
 10
11105.48118220132
 20
5680.275859135189
 30
0.0
 41
100.0
 42
100.0
 43
100.0
  0
INSERT
  5
17CF7
330
1762B
100
AcDbEntity
  8
寸法
 62
     0
 48
50.0
370
    -2
100
AcDbBlockReference
  2
_DOTSMALL
 10
8755.481182201323
 20
5680.275859135189
 30
0.0
 41
100.0
 42
100.0
 43
100.0
 50
180.0
  0
MTEXT
  5
17CF8
330
1762B
100
AcDbEntity
  8
寸法
 62
     7
 48
50.0
100
AcDbMText
 10
9930.481182201324
 20
5780.287670158811
 30
0.0
 40
120.0
 41
0.0
 71
     5
 72
     1
  1
\A1;2350
  7
STYLE1
 73
     1
 44
1.0
1001
ACAD
1000
MTEXTBEGIN
1070
    73
1070
     1
1070
    44
1040
1.0
1070
    74
1070
     0
1000
MTEXTEND
  0
POINT
  5
17CF9
330
1762B
100
AcDbEntity
  8
DEFPOINTS
 62
     0
 48
50.0
100
AcDbPoint
 10
11105.48118220132
 20
5007.416571881595
 30
0.0
  0
POINT
  5
17CFA
330
1762B
100
AcDbEntity
  8
DEFPOINTS
 62
     0
 48
50.0
100
AcDbPoint
 10
8755.481182201323
 20
5062.416571881598
 30
0.0
  0
POINT
  5
17CFB
330
1762B
100
AcDbEntity
  8
DEFPOINTS
 62
     0
 48
50.0
100
AcDbPoint
 10
8755.481182201323
 20
5680.275859135189
 30
0.0
  0
ENDBLK
  5
17636
330
1762B
100
AcDbEntity
  8
0
 48
50.0
100
AcDbBlockEnd
  0
BLOCK
  5
17641
330
17637
100
AcDbEntity
  8
0
 48
50.0
100
AcDbBlockBegin
  2
*D7
 70
     1
 10
0.0
 20
0.0
 30
0.0
  3
*D7
  1

  0
LINE
  5
17C2D
330
17637
100
AcDbEntity
  8
寸法
 62
     0
 48
50.0
370
    -2
100
AcDbLine
 10
6041.763991851123
 20
5082.4165718816
 30
0.0
 11
6041.763991851123
 21
5528.142843613504
 31
0.0
  0
LINE
  5
17C2E
330
17637
100
AcDbEntity
  8
寸法
 62
     0
 48
50.0
370
    -2
100
AcDbLine
 10
4671.763991851123
 20
5082.416571881601
 30
0.0
 11
4671.763991851123
 21
5528.142843613504
 31
0.0
  0
LINE
  5
17C2F
330
17637
100
AcDbEntity
  8
寸法
 62
     0
 48
50.0
370
    -2
100
AcDbLine
 10
6041.763991851123
 20
5468.142843613503
 30
0.0
 11
4671.763991851123
 21
5468.142843613503
 31
0.0
  0
INSERT
  5
17C30
330
17637
100
AcDbEntity
  8
寸法
 62
     0
 48
50.0
370
    -2
100
AcDbBlockReference
  2
_DOTSMALL
 10
6041.763991851123
 20
5468.142843613503
 30
0.0
 41
100.0
 42
100.0
 43
100.0
  0
INSERT
  5
17C31
330
17637
100
AcDbEntity
  8
寸法
 62
     0
 48
50.0
370
    -2
100
AcDbBlockReference
  2
_DOTSMALL
 10
4671.763991851123
 20
5468.142843613503
 30
0.0
 41
100.0
 42
100.0
 43
100.0
 50
180.0
  0
MTEXT
  5
17C32
330
17637
100
AcDbEntity
  8
寸法
 62
     7
 48
50.0
100
AcDbMText
 10
5360.356532218977
 20
5568.142843613504
 30
0.0
 40
120.0
 41
0.0
 71
     5
 72
     1
  1
\A1;柱外寸法1370
  7
STYLE1
 73
     1
 44
1.0
1001
ACAD
1000
MTEXTBEGIN
1070
    73
1070
     1
1070
    44
1040
1.0
1070
    74
1070
     0
1000
MTEXTEND
  0
POINT
  5
17C33
330
17637
100
AcDbEntity
  8
DEFPOINTS
 62
     0
 48
50.0
100
AcDbPoint
 10
6041.763991851123
 20
5062.416571881599
 30
0.0
  0
POINT
  5
17C34
330
17637
100
AcDbEntity
  8
DEFPOINTS
 62
     0
 48
50.0
100
AcDbPoint
 10
4671.763991851123
 20
5062.4165718816
 30
0.0
  0
POINT
  5
17C35
330
17637
100
AcDbEntity
  8
DEFPOINTS
 62
     0
 48
50.0
100
AcDbPoint
 10
4671.763991851123
 20
5468.142843613503
 30
0.0
  0
ENDBLK
  5
17642
330
17637
100
AcDbEntity
  8
0
 48
50.0
100
AcDbBlockEnd
  0
BLOCK
  5
1764F
330
17643
100
AcDbEntity
  8
0
 48
50.0
100
AcDbBlockBegin
  2
*D8
 70
     1
 10
0.0
 20
0.0
 30
0.0
  3
*D8
  1

  0
LINE
  5
17C22
330
17643
100
AcDbEntity
  8
寸法
 62
     0
 48
50.0
370
    -2
100
AcDbLine
 10
4671.763991851123
 20
5082.416571881601
 30
0.0
 11
4671.763991851123
 21
5528.142843613504
 31
0.0
  0
LINE
  5
17C23
330
17643
100
AcDbEntity
  8
寸法
 62
     0
 48
50.0
370
    -2
100
AcDbLine
 10
4621.763991851123
 20
5082.4165718816
 30
0.0
 11
4621.763991851123
 21
5528.142843613504
 31
0.0
  0
LINE
  5
17C24
330
17643
100
AcDbEntity
  8
寸法
 62
     0
 48
50.0
370
    -2
100
AcDbLine
 10
4671.763991851123
 20
5468.142843613503
 30
0.0
 11
4771.763991851122
 21
5468.142843613503
 31
0.0
  0
LINE
  5
17C25
330
17643
100
AcDbEntity
  8
寸法
 62
     0
 48
50.0
370
    -2
100
AcDbLine
 10
4621.763991851123
 20
5468.142843613503
 30
0.0
 11
4202.231466382388
 21
5468.142843613503
 31
0.0
  0
LINE
  5
17C26
330
17643
100
AcDbEntity
  8
寸法
 62
     0
 48
50.0
370
    -2
100
AcDbLine
 10
4671.763991851123
 20
5468.142843613503
 30
0.0
 11
4621.763991851123
 21
5468.142843613503
 31
0.0
  0
INSERT
  5
17C27
330
17643
100
AcDbEntity
  8
寸法
 62
     0
 48
50.0
370
    -2
100
AcDbBlockReference
  2
_DOTSMALL
 10
4671.763991851123
 20
5468.142843613503
 30
0.0
 41
100.0
 42
100.0
 43
100.0
 50
180.0
  0
INSERT
  5
17C28
330
17643
100
AcDbEntity
  8
寸法
 62
     0
 48
50.0
370
    -2
100
AcDbBlockReference
  2
_DOTSMALL
 10
4621.763991851123
 20
5468.142843613503
 30
0.0
 41
100.0
 42
100.0
 43
100.0
  0
MTEXT
  5
17C29
330
17643
100
AcDbEntity
  8
寸法
 62
     7
 48
50.0
100
AcDbMText
 10
4308.278710476876
 20
5568.142843613504
 30
0.0
 40
120.0
 41
0.0
 71
     5
 72
     1
  1
\A1;50
  7
STYLE1
 73
     1
 44
1.0
1001
ACAD
1000
MTEXTBEGIN
1070
    73
1070
     1
1070
    44
1040
1.0
1070
    74
1070
     0
1000
MTEXTEND
  0
POINT
  5
17C2A
330
17643
100
AcDbEntity
  8
DEFPOINTS
 62
     0
 48
50.0
100
AcDbPoint
 10
4671.763991851123
 20
5062.4165718816
 30
0.0
  0
POINT
  5
17C2B
330
17643
100
AcDbEntity
  8
DEFPOINTS
 62
     0
 48
50.0
100
AcDbPoint
 10
4621.763991851123
 20
5062.416571881599
 30
0.0
  0
POINT
  5
17C2C
330
17643
100
AcDbEntity
  8
DEFPOINTS
 62
     0
 48
50.0
100
AcDbPoint
 10
4621.763991851123
 20
5468.142843613503
 30
0.0
  0
ENDBLK
  5
17650
330
17643
100
AcDbEntity
  8
0
 48
50.0
100
AcDbBlockEnd
  0
BLOCK
  5
1765D
330
17651
100
AcDbEntity
  8
0
 48
50.0
100
AcDbBlockBegin
  2
*D9
 70
     1
 10
0.0
 20
0.0
 30
0.0
  3
*D9
  1

  0
LINE
  5
17C17
330
17651
100
AcDbEntity
  8
寸法
 62
     0
 48
50.0
370
    -2
100
AcDbLine
 10
6091.763991851121
 20
5082.416571881597
 30
0.0
 11
6091.763991851121
 21
5528.142843613504
 31
0.0
  0
LINE
  5
17C18
330
17651
100
AcDbEntity
  8
寸法
 62
     0
 48
50.0
370
    -2
100
AcDbLine
 10
6041.763991851123
 20
5082.4165718816
 30
0.0
 11
6041.763991851123
 21
5528.142843613504
 31
0.0
  0
LINE
  5
17C19
330
17651
100
AcDbEntity
  8
寸法
 62
     0
 48
50.0
370
    -2
100
AcDbLine
 10
6041.763991851123
 20
5468.142843613503
 30
0.0
 11
5941.763991851123
 21
5468.142843613503
 31
0.0
  0
LINE
  5
17C1A
330
17651
100
AcDbEntity
  8
寸法
 62
     0
 48
50.0
370
    -2
100
AcDbLine
 10
6091.763991851121
 20
5468.142843613503
 30
0.0
 11
6511.296517319848
 21
5468.142843613503
 31
0.0
  0
LINE
  5
17C1B
330
17651
100
AcDbEntity
  8
寸法
 62
     0
 48
50.0
370
    -2
100
AcDbLine
 10
6041.763991851123
 20
5468.142843613503
 30
0.0
 11
6091.763991851121
 21
5468.142843613503
 31
0.0
  0
INSERT
  5
17C1C
330
17651
100
AcDbEntity
  8
寸法
 62
     0
 48
50.0
370
    -2
100
AcDbBlockReference
  2
_DOTSMALL
 10
6041.763991851123
 20
5468.142843613503
 30
0.0
 41
100.0
 42
100.0
 43
100.0
  0
INSERT
  5
17C1D
330
17651
100
AcDbEntity
  8
寸法
 62
     0
 48
50.0
370
    -2
100
AcDbBlockReference
  2
_DOTSMALL
 10
6091.763991851121
 20
5468.142843613503
 30
0.0
 41
100.0
 42
100.0
 43
100.0
 50
180.0
  0
MTEXT
  5
17C1E
330
17651
100
AcDbEntity
  8
寸法
 62
     7
 48
50.0
100
AcDbMText
 10
6405.24927322536
 20
5568.142843613504
 30
0.0
 40
120.0
 41
0.0
 71
     5
 72
     1
  1
\A1;50
  7
STYLE1
 73
     1
 44
1.0
1001
ACAD
1000
MTEXTBEGIN
1070
    73
1070
     1
1070
    44
1040
1.0
1070
    74
1070
     0
1000
MTEXTEND
  0
POINT
  5
17C1F
330
17651
100
AcDbEntity
  8
DEFPOINTS
 62
     0
 48
50.0
100
AcDbPoint
 10
6091.763991851121
 20
5062.416571881596
 30
0.0
  0
POINT
  5
17C20
330
17651
100
AcDbEntity
  8
DEFPOINTS
 62
     0
 48
50.0
100
AcDbPoint
 10
6041.763991851123
 20
5062.416571881599
 30
0.0
  0
POINT
  5
17C21
330
17651
100
AcDbEntity
  8
DEFPOINTS
 62
     0
 48
50.0
100
AcDbPoint
 10
6041.763991851123
 20
5468.142843613503
 30
0.0
  0
ENDBLK
  5
1765E
330
17651
100
AcDbEntity
  8
0
 48
50.0
100
AcDbBlockEnd
  0
BLOCK
  5
17669
330
1765F
100
AcDbEntity
  8
0
 48
50.0
100
AcDbBlockBegin
  2
*D10
 70
     1
 10
0.0
 20
0.0
 30
0.0
  3
*D10
  1

  0
LINE
  5
17CDF
330
1765F
100
AcDbEntity
  8
寸法
 62
     0
 48
50.0
370
    -2
100
AcDbLine
 10
4621.763991851123
 20
5082.4165718816
 30
0.0
 11
4621.763991851123
 21
5728.051764827593
 31
0.0
  0
LINE
  5
17CE0
330
1765F
100
AcDbEntity
  8
寸法
 62
     0
 48
50.0
370
    -2
100
AcDbLine
 10
6091.763991851121
 20
5082.416571881597
 30
0.0
 11
6091.763991851121
 21
5728.051764827593
 31
0.0
  0
LINE
  5
17CE1
330
1765F
100
AcDbEntity
  8
寸法
 62
     0
 48
50.0
370
    -2
100
AcDbLine
 10
4621.763991851123
 20
5668.051764827594
 30
0.0
 11
6091.763991851121
 21
5668.051764827594
 31
0.0
  0
INSERT
  5
17CE2
330
1765F
100
AcDbEntity
  8
寸法
 62
     0
 48
50.0
370
    -2
100
AcDbBlockReference
  2
_DOTSMALL
 10
4621.763991851123
 20
5668.051764827594
 30
0.0
 41
100.0
 42
100.0
 43
100.0
 50
180.0
  0
INSERT
  5
17CE3
330
1765F
100
AcDbEntity
  8
寸法
 62
     0
 48
50.0
370
    -2
100
AcDbBlockReference
  2
_DOTSMALL
 10
6091.763991851121
 20
5668.051764827594
 30
0.0
 41
100.0
 42
100.0
 43
100.0
  0
MTEXT
  5
17CE4
330
1765F
100
AcDbEntity
  8
寸法
 62
     7
 48
50.0
100
AcDbMText
 10
5356.763991851122
 20
5768.051764827593
 30
0.0
 40
120.0
 41
0.0
 71
     5
 72
     1
  1
\A1;1470
  7
STYLE1
 73
     1
 44
1.0
1001
ACAD
1000
MTEXTBEGIN
1070
    73
1070
     1
1070
    44
1040
1.0
1070
    74
1070
     0
1000
MTEXTEND
  0
POINT
  5
17CE5
330
1765F
100
AcDbEntity
  8
DEFPOINTS
 62
     0
 48
50.0
100
AcDbPoint
 10
4621.763991851123
 20
5062.416571881599
 30
0.0
  0
POINT
  5
17CE6
330
1765F
100
AcDbEntity
  8
DEFPOINTS
 62
     0
 48
50.0
100
AcDbPoint
 10
6091.763991851121
 20
5062.416571881596
 30
0.0
  0
POINT
  5
17CE7
330
1765F
100
AcDbEntity
  8
DEFPOINTS
 62
     0
 48
50.0
100
AcDbPoint
 10
6091.763991851121
 20
5668.051764827594
 30
0.0
  0
ENDBLK
  5
1766A
330
1765F
100
AcDbEntity
  8
0
 48
50.0
100
AcDbBlockEnd
  0
BLOCK
  5
17677
330
1766B
100
AcDbEntity
  8
0
 48
50.0
100
AcDbBlockBegin
  2
*D11
 70
     1
 10
0.0
 20
0.0
 30
0.0
  3
*D11
  1

  0
LINE
  5
17B97
330
1766B
100
AcDbEntity
  8
寸法
 62
     0
 48
50.0
370
    -2
100
AcDbLine
 10
8795.481182201326
 20
2737.416571881594
 30
0.0
 11
7911.731053018067
 21
2737.416571881594
 31
0.0
  0
LINE
  5
17B98
330
1766B
100
AcDbEntity
  8
寸法
 62
     0
 48
50.0
370
    -2
100
AcDbLine
 10
8740.481182201326
 20
2687.416571881594
 30
0.0
 11
7911.731053018067
 21
2687.416571881594
 31
0.0
  0
LINE
  5
17B99
330
1766B
100
AcDbEntity
  8
寸法
 62
     0
 48
50.0
370
    -2
100
AcDbLine
 10
7971.731053018067
 20
2737.416571881594
 30
0.0
 11
7971.731053018067
 21
2837.416571881594
 31
0.0
  0
LINE
  5
17B9A
330
1766B
100
AcDbEntity
  8
寸法
 62
     0
 48
50.0
370
    -2
100
AcDbLine
 10
7971.731053018067
 20
2687.416571881594
 30
0.0
 11
7971.731053018067
 21
2197.619327787105
 31
0.0
  0
LINE
  5
17B9B
330
1766B
100
AcDbEntity
  8
寸法
 62
     0
 48
50.0
370
    -2
100
AcDbLine
 10
7971.731053018067
 20
2737.416571881594
 30
0.0
 11
7971.731053018067
 21
2687.416571881594
 31
0.0
  0
INSERT
  5
17B9C
330
1766B
100
AcDbEntity
  8
寸法
 62
     0
 48
50.0
370
    -2
100
AcDbBlockReference
  2
_DOTSMALL
 10
7971.731053018067
 20
2737.416571881594
 30
0.0
 41
100.0
 42
100.0
 43
100.0
 50
270.0
  0
INSERT
  5
17B9D
330
1766B
100
AcDbEntity
  8
寸法
 62
     0
 48
50.0
370
    -2
100
AcDbBlockReference
  2
_DOTSMALL
 10
7971.731053018067
 20
2687.416571881594
 30
0.0
 41
100.0
 42
100.0
 43
100.0
 50
90.0
  0
MTEXT
  5
17B9E
330
1766B
100
AcDbEntity
  8
寸法
 62
     7
 48
50.0
100
AcDbMText
 10
7871.731053018065
 20
2303.666571881594
 30
0.0
 40
120.0
 41
0.0
 71
     5
 72
     1
  1
\A1;50
  7
STYLE1
 11
0.0000000000000001
 21
1.0
 31
0.0
 73
     1
 44
1.0
1001
ACAD
1000
MTEXTBEGIN
1070
    73
1070
     1
1070
    44
1040
1.0
1070
    74
1070
     0
1000
MTEXTEND
  0
POINT
  5
17B9F
330
1766B
100
AcDbEntity
  8
DEFPOINTS
 62
     0
 48
50.0
100
AcDbPoint
 10
8815.481182201326
 20
2737.416571881594
 30
0.0
  0
POINT
  5
17BA0
330
1766B
100
AcDbEntity
  8
DEFPOINTS
 62
     0
 48
50.0
100
AcDbPoint
 10
8760.481182201326
 20
2687.416571881594
 30
0.0
  0
POINT
  5
17BA1
330
1766B
100
AcDbEntity
  8
DEFPOINTS
 62
     0
 48
50.0
100
AcDbPoint
 10
7971.731053018067
 20
2687.416571881594
 30
0.0
  0
ENDBLK
  5
17678
330
1766B
100
AcDbEntity
  8
0
 48
50.0
100
AcDbBlockEnd
  0
BLOCK
  5
17690
330
17686
100
AcDbEntity
  8
0
 48
50.0
100
AcDbBlockBegin
  2
*D12
 70
     1
 10
0.0
 20
0.0
 30
0.0
  3
*D12
  1

  0
LINE
  5
17B84
330
17686
100
AcDbEntity
  8
寸法
 62
     0
 48
50.0
370
    -2
100
AcDbLine
 10
8795.481182201326
 20
4827.416571881594
 30
0.0
 11
7911.731053018065
 21
4827.416571881594
 31
0.0
  0
LINE
  5
17B85
330
17686
100
AcDbEntity
  8
寸法
 62
     0
 48
50.0
370
    -2
100
AcDbLine
 10
8795.481182201326
 20
2737.416571881594
 30
0.0
 11
7911.731053018065
 21
2737.416571881594
 31
0.0
  0
LINE
  5
17B86
330
17686
100
AcDbEntity
  8
寸法
 62
     0
 48
50.0
370
    -2
100
AcDbLine
 10
7971.731053018065
 20
4827.416571881594
 30
0.0
 11
7971.731053018065
 21
2737.416571881594
 31
0.0
  0
INSERT
  5
17B87
330
17686
100
AcDbEntity
  8
寸法
 62
     0
 48
50.0
370
    -2
100
AcDbBlockReference
  2
_DOTSMALL
 10
7971.731053018065
 20
4827.416571881594
 30
0.0
 41
100.0
 42
100.0
 43
100.0
 50
90.0
  0
INSERT
  5
17B88
330
17686
100
AcDbEntity
  8
寸法
 62
     0
 48
50.0
370
    -2
100
AcDbBlockReference
  2
_DOTSMALL
 10
7971.731053018065
 20
2737.416571881594
 30
0.0
 41
100.0
 42
100.0
 43
100.0
 50
270.0
  0
MTEXT
  5
17B89
330
17686
100
AcDbEntity
  8
寸法
 62
     7
 48
50.0
100
AcDbMText
 10
7871.719241994442
 20
3782.416571881596
 30
0.0
 40
120.0
 41
0.0
 71
     5
 72
     1
  1
\A1;2090
  7
STYLE1
 11
0.0000000000000001
 21
1.0
 31
0.0
 73
     1
 44
1.0
1001
ACAD
1000
MTEXTBEGIN
1070
    73
1070
     1
1070
    44
1040
1.0
1070
    74
1070
     0
1000
MTEXTEND
  0
POINT
  5
17B8A
330
17686
100
AcDbEntity
  8
DEFPOINTS
 62
     0
 48
50.0
100
AcDbPoint
 10
8815.481182201326
 20
4827.416571881594
 30
0.0
  0
POINT
  5
17B8B
330
17686
100
AcDbEntity
  8
DEFPOINTS
 62
     0
 48
50.0
100
AcDbPoint
 10
8815.481182201326
 20
2737.416571881594
 30
0.0
  0
POINT
  5
17B8C
330
17686
100
AcDbEntity
  8
DEFPOINTS
 62
     0
 48
50.0
100
AcDbPoint
 10
7971.731053018065
 20
2737.416571881594
 30
0.0
  0
ENDBLK
  5
17691
330
17686
100
AcDbEntity
  8
0
 48
50.0
100
AcDbBlockEnd
  0
BLOCK
  5
176B4
330
176AA
100
AcDbEntity
  8
0
 48
50.0
100
AcDbBlockBegin
  2
*D13
 70
     1
 10
0.0
 20
0.0
 30
0.0
  3
*D13
  1

  0
LINE
  5
17C4B
330
176AA
100
AcDbEntity
  8
寸法
 62
     0
 48
50.0
370
    -2
100
AcDbLine
 10
11045.48118220132
 20
2687.416571881594
 30
0.0
 11
11790.40834017345
 21
2687.416571881593
 31
0.0
  0
LINE
  5
17C4C
330
176AA
100
AcDbEntity
  8
寸法
 62
     0
 48
50.0
370
    -2
100
AcDbLine
 10
11140.48118220132
 20
5007.416571881594
 30
0.0
 11
11790.40834017345
 21
5007.416571881594
 31
0.0
  0
LINE
  5
17C4D
330
176AA
100
AcDbEntity
  8
寸法
 62
     0
 48
50.0
370
    -2
100
AcDbLine
 10
11730.40834017345
 20
2687.416571881593
 30
0.0
 11
11730.40834017345
 21
5007.416571881594
 31
0.0
  0
INSERT
  5
17C4E
330
176AA
100
AcDbEntity
  8
寸法
 62
     0
 48
50.0
370
    -2
100
AcDbBlockReference
  2
_DOTSMALL
 10
11730.40834017345
 20
2687.416571881593
 30
0.0
 41
100.0
 42
100.0
 43
100.0
 50
270.0
  0
INSERT
  5
17C4F
330
176AA
100
AcDbEntity
  8
寸法
 62
     0
 48
50.0
370
    -2
100
AcDbBlockReference
  2
_DOTSMALL
 10
11730.40834017345
 20
5007.416571881594
 30
0.0
 41
100.0
 42
100.0
 43
100.0
 50
90.0
  0
MTEXT
  5
17C50
330
176AA
100
AcDbEntity
  8
寸法
 62
     7
 48
50.0
100
AcDbMText
 10
11630.39652914983
 20
3847.416571881594
 30
0.0
 40
120.0
 41
0.0
 71
     5
 72
     1
  1
\A1;2320
  7
STYLE1
 11
0.0000000000000001
 21
1.0
 31
0.0
 73
     1
 44
1.0
1001
ACAD
1000
MTEXTBEGIN
1070
    73
1070
     1
1070
    44
1040
1.0
1070
    74
1070
     0
1000
MTEXTEND
  0
POINT
  5
17C51
330
176AA
100
AcDbEntity
  8
DEFPOINTS
 62
     0
 48
50.0
100
AcDbPoint
 10
11025.48118220132
 20
2687.416571881594
 30
0.0
  0
POINT
  5
17C52
330
176AA
100
AcDbEntity
  8
DEFPOINTS
 62
     0
 48
50.0
100
AcDbPoint
 10
11120.48118220132
 20
5007.416571881594
 30
0.0
  0
POINT
  5
17C53
330
176AA
100
AcDbEntity
  8
DEFPOINTS
 62
     0
 48
50.0
100
AcDbPoint
 10
11730.40834017345
 20
5007.416571881594
 30
0.0
  0
ENDBLK
  5
176B5
330
176AA
100
AcDbEntity
  8
0
 48
50.0
100
AcDbBlockEnd
  0
BLOCK
  5
176C2
330
176B6
100
AcDbEntity
  8
0
 48
50.0
100
AcDbBlockBegin
  2
*D14
 70
     1
 10
0.0
 20
0.0
 30
0.0
  3
*D14
  1

  0
LINE
  5
17B5E
330
176B6
100
AcDbEntity
  8
寸法
 62
     0
 48
50.0
370
    -2
100
AcDbLine
 10
5986.763991851129
 20
9894.944172279281
 30
0.0
 11
5986.763991851129
 21
10150.75239190426
 31
0.0
  0
LINE
  5
17B5F
330
176B6
100
AcDbEntity
  8
寸法
 62
     0
 48
50.0
370
    -2
100
AcDbLine
 10
6041.763991851128
 20
9894.944172279281
 30
0.0
 11
6041.763991851128
 21
10150.75239190426
 31
0.0
  0
LINE
  5
17B60
330
176B6
100
AcDbEntity
  8
寸法
 62
     0
 48
50.0
370
    -2
100
AcDbLine
 10
5986.763991851129
 20
10090.75239190426
 30
0.0
 11
5886.763991851129
 21
10090.75239190426
 31
0.0
  0
LINE
  5
17B61
330
176B6
100
AcDbEntity
  8
寸法
 62
     0
 48
50.0
370
    -2
100
AcDbLine
 10
6041.763991851128
 20
10090.75239190426
 30
0.0
 11
6458.734554599605
 21
10090.75239190426
 31
0.0
  0
LINE
  5
17B62
330
176B6
100
AcDbEntity
  8
寸法
 62
     0
 48
50.0
370
    -2
100
AcDbLine
 10
5986.763991851129
 20
10090.75239190426
 30
0.0
 11
6041.763991851128
 21
10090.75239190426
 31
0.0
  0
INSERT
  5
17B63
330
176B6
100
AcDbEntity
  8
寸法
 62
     0
 48
50.0
370
    -2
100
AcDbBlockReference
  2
_DOTSMALL
 10
5986.763991851129
 20
10090.75239190426
 30
0.0
 41
100.0
 42
100.0
 43
100.0
  0
INSERT
  5
17B64
330
176B6
100
AcDbEntity
  8
寸法
 62
     0
 48
50.0
370
    -2
100
AcDbBlockReference
  2
_DOTSMALL
 10
6041.763991851128
 20
10090.75239190426
 30
0.0
 41
100.0
 42
100.0
 43
100.0
 50
180.0
  0
MTEXT
  5
17B65
330
176B6
100
AcDbEntity
  8
寸法
 62
     7
 48
50.0
100
AcDbMText
 10
6350.249273225367
 20
10190.75239190426
 30
0.0
 40
120.0
 41
0.0
 71
     5
 72
     1
  1
\A1;55
  7
STYLE1
 73
     1
 44
1.0
1001
ACAD
1000
MTEXTBEGIN
1070
    73
1070
     1
1070
    44
1040
1.0
1070
    74
1070
     0
1000
MTEXTEND
  0
POINT
  5
17B66
330
176B6
100
AcDbEntity
  8
DEFPOINTS
 62
     0
 48
50.0
100
AcDbPoint
 10
5986.763991851129
 20
9874.944172279279
 30
0.0
  0
POINT
  5
17B67
330
176B6
100
AcDbEntity
  8
DEFPOINTS
 62
     0
 48
50.0
100
AcDbPoint
 10
6041.763991851128
 20
9874.944172279279
 30
0.0
  0
POINT
  5
17B68
330
176B6
100
AcDbEntity
  8
DEFPOINTS
 62
     0
 48
50.0
100
AcDbPoint
 10
6041.763991851128
 20
10090.75239190426
 30
0.0
  0
ENDBLK
  5
176C3
330
176B6
100
AcDbEntity
  8
0
 48
50.0
100
AcDbBlockEnd
  0
BLOCK
  5
176D0
330
176C4
100
AcDbEntity
  8
0
 48
50.0
100
AcDbBlockBegin
  2
*D15
 70
     1
 10
0.0
 20
0.0
 30
0.0
  3
*D15
  1

  0
LINE
  5
17B53
330
176C4
100
AcDbEntity
  8
寸法
 62
     0
 48
50.0
370
    -2
100
AcDbLine
 10
6061.763991851129
 20
9874.944172279279
 30
0.0
 11
6749.190337585538
 21
9874.944172279279
 31
0.0
  0
LINE
  5
17B54
330
176C4
100
AcDbEntity
  8
寸法
 62
     0
 48
50.0
370
    -2
100
AcDbLine
 10
6061.763991851129
 20
9819.944172279285
 30
0.0
 11
6749.190337585538
 21
9819.944172279285
 31
0.0
  0
LINE
  5
17B55
330
176C4
100
AcDbEntity
  8
寸法
 62
     0
 48
50.0
370
    -2
100
AcDbLine
 10
6689.190337585539
 20
9819.944172279285
 30
0.0
 11
6689.190337585539
 21
9719.944172279284
 31
0.0
  0
LINE
  5
17B56
330
176C4
100
AcDbEntity
  8
寸法
 62
     0
 48
50.0
370
    -2
100
AcDbLine
 10
6689.190337585539
 20
9874.944172279279
 30
0.0
 11
6689.19033758554
 21
10291.91473502775
 31
0.0
  0
LINE
  5
17B57
330
176C4
100
AcDbEntity
  8
寸法
 62
     0
 48
50.0
370
    -2
100
AcDbLine
 10
6689.190337585539
 20
9819.944172279285
 30
0.0
 11
6689.190337585539
 21
9874.944172279279
 31
0.0
  0
INSERT
  5
17B58
330
176C4
100
AcDbEntity
  8
寸法
 62
     0
 48
50.0
370
    -2
100
AcDbBlockReference
  2
_DOTSMALL
 10
6689.190337585539
 20
9819.944172279285
 30
0.0
 41
100.0
 42
100.0
 43
100.0
 50
90.0
  0
INSERT
  5
17B59
330
176C4
100
AcDbEntity
  8
寸法
 62
     0
 48
50.0
370
    -2
100
AcDbBlockReference
  2
_DOTSMALL
 10
6689.190337585539
 20
9874.944172279279
 30
0.0
 41
100.0
 42
100.0
 43
100.0
 50
270.0
  0
MTEXT
  5
17B5A
330
176C4
100
AcDbEntity
  8
寸法
 62
     7
 48
50.0
100
AcDbMText
 10
6589.190337585538
 20
10183.42945365352
 30
0.0
 40
120.0
 41
0.0
 71
     5
 72
     1
  1
\A1;55
  7
STYLE1
 11
0.0000000000000001
 21
1.0
 31
0.0
 73
     1
 44
1.0
1001
ACAD
1000
MTEXTBEGIN
1070
    73
1070
     1
1070
    44
1040
1.0
1070
    74
1070
     0
1000
MTEXTEND
  0
POINT
  5
17B5B
330
176C4
100
AcDbEntity
  8
DEFPOINTS
 62
     0
 48
50.0
100
AcDbPoint
 10
6041.763991851128
 20
9874.944172279279
 30
0.0
  0
POINT
  5
17B5C
330
176C4
100
AcDbEntity
  8
DEFPOINTS
 62
     0
 48
50.0
100
AcDbPoint
 10
6041.763991851128
 20
9819.944172279285
 30
0.0
  0
POINT
  5
17B5D
330
176C4
100
AcDbEntity
  8
DEFPOINTS
 62
     0
 48
50.0
100
AcDbPoint
 10
6689.190337585539
 20
9819.944172279285
 30
0.0
  0
ENDBLK
  5
176D1
330
176C4
100
AcDbEntity
  8
0
 48
50.0
100
AcDbBlockEnd
  0
BLOCK
  5
176DE
330
176D2
100
AcDbEntity
  8
0
 48
50.0
100
AcDbBlockBegin
  2
*D16
 70
     1
 10
0.0
 20
0.0
 30
0.0
  3
*D16
  1

  0
LINE
  5
17B48
330
176D2
100
AcDbEntity
  8
寸法
 62
     0
 48
50.0
370
    -2
100
AcDbLine
 10
4671.763991851094
 20
9894.944172279187
 30
0.0
 11
4671.763991851094
 21
10150.75239190416
 31
0.0
  0
LINE
  5
17B49
330
176D2
100
AcDbEntity
  8
寸法
 62
     0
 48
50.0
370
    -2
100
AcDbLine
 10
4726.763991851127
 20
9894.944172279187
 30
0.0
 11
4726.763991851127
 21
10150.75239190416
 31
0.0
  0
LINE
  5
17B4A
330
176D2
100
AcDbEntity
  8
寸法
 62
     0
 48
50.0
370
    -2
100
AcDbLine
 10
4726.763991851127
 20
10090.75239190416
 30
0.0
 11
4826.763991851127
 21
10090.75239190416
 31
0.0
  0
LINE
  5
17B4B
330
176D2
100
AcDbEntity
  8
寸法
 62
     0
 48
50.0
370
    -2
100
AcDbLine
 10
4671.763991851094
 20
10090.75239190416
 30
0.0
 11
4254.793429102615
 21
10090.75239190416
 31
0.0
  0
LINE
  5
17B4C
330
176D2
100
AcDbEntity
  8
寸法
 62
     0
 48
50.0
370
    -2
100
AcDbLine
 10
4726.763991851127
 20
10090.75239190416
 30
0.0
 11
4671.763991851094
 21
10090.75239190416
 31
0.0
  0
INSERT
  5
17B4D
330
176D2
100
AcDbEntity
  8
寸法
 62
     0
 48
50.0
370
    -2
100
AcDbBlockReference
  2
_DOTSMALL
 10
4726.763991851127
 20
10090.75239190416
 30
0.0
 41
100.0
 42
100.0
 43
100.0
 50
180.0
  0
INSERT
  5
17B4E
330
176D2
100
AcDbEntity
  8
寸法
 62
     0
 48
50.0
370
    -2
100
AcDbBlockReference
  2
_DOTSMALL
 10
4671.763991851094
 20
10090.75239190416
 30
0.0
 41
100.0
 42
100.0
 43
100.0
  0
MTEXT
  5
17B4F
330
176D2
100
AcDbEntity
  8
寸法
 62
     7
 48
50.0
100
AcDbMText
 10
4363.278710476854
 20
10190.75239190416
 30
0.0
 40
120.0
 41
0.0
 71
     5
 72
     1
  1
\A1;55
  7
STYLE1
 73
     1
 44
1.0
1001
ACAD
1000
MTEXTBEGIN
1070
    73
1070
     1
1070
    44
1040
1.0
1070
    74
1070
     0
1000
MTEXTEND
  0
POINT
  5
17B50
330
176D2
100
AcDbEntity
  8
DEFPOINTS
 62
     0
 48
50.0
100
AcDbPoint
 10
4671.763991851094
 20
9874.944172279185
 30
0.0
  0
POINT
  5
17B51
330
176D2
100
AcDbEntity
  8
DEFPOINTS
 62
     0
 48
50.0
100
AcDbPoint
 10
4726.763991851127
 20
9874.944172279185
 30
0.0
  0
POINT
  5
17B52
330
176D2
100
AcDbEntity
  8
DEFPOINTS
 62
     0
 48
50.0
100
AcDbPoint
 10
4726.763991851127
 20
10090.75239190416
 30
0.0
  0
ENDBLK
  5
176DF
330
176D2
100
AcDbEntity
  8
0
 48
50.0
100
AcDbBlockEnd
  0
BLOCK
  5
176EA
330
176E0
100
AcDbEntity
  8
0
 48
50.0
100
AcDbBlockBegin
  2
*D17
 70
     1
 10
0.0
 20
0.0
 30
0.0
  3
*D17
  1

  0
LINE
  5
17B3F
330
176E0
100
AcDbEntity
  8
寸法
 62
     0
 48
50.0
370
    -2
100
AcDbLine
 10
4726.763991851127
 20
9894.944172279187
 30
0.0
 11
4726.763991851127
 21
10150.75239190428
 31
0.0
  0
LINE
  5
17B40
330
176E0
100
AcDbEntity
  8
寸法
 62
     0
 48
50.0
370
    -2
100
AcDbLine
 10
5986.763991851129
 20
9894.944172279281
 30
0.0
 11
5986.763991851129
 21
10150.75239190428
 31
0.0
  0
LINE
  5
17B41
330
176E0
100
AcDbEntity
  8
寸法
 62
     0
 48
50.0
370
    -2
100
AcDbLine
 10
4726.763991851127
 20
10090.75239190428
 30
0.0
 11
5986.763991851129
 21
10090.75239190428
 31
0.0
  0
INSERT
  5
17B42
330
176E0
100
AcDbEntity
  8
寸法
 62
     0
 48
50.0
370
    -2
100
AcDbBlockReference
  2
_DOTSMALL
 10
4726.763991851127
 20
10090.75239190428
 30
0.0
 41
100.0
 42
100.0
 43
100.0
 50
180.0
  0
INSERT
  5
17B43
330
176E0
100
AcDbEntity
  8
寸法
 62
     0
 48
50.0
370
    -2
100
AcDbBlockReference
  2
_DOTSMALL
 10
5986.763991851129
 20
10090.75239190428
 30
0.0
 41
100.0
 42
100.0
 43
100.0
  0
MTEXT
  5
17B44
330
176E0
100
AcDbEntity
  8
寸法
 62
     7
 48
50.0
100
AcDbMText
 10
5356.763991851128
 20
10190.7642029279
 30
0.0
 40
120.0
 41
0.0
 71
     5
 72
     1
  1
\A1;3X420=1260
  7
STYLE1
 73
     1
 44
1.0
1001
ACAD
1000
MTEXTBEGIN
1070
    73
1070
     1
1070
    44
1040
1.0
1070
    74
1070
     0
1000
MTEXTEND
  0
POINT
  5
17B45
330
176E0
100
AcDbEntity
  8
DEFPOINTS
 62
     0
 48
50.0
100
AcDbPoint
 10
4726.763991851127
 20
9874.944172279185
 30
0.0
  0
POINT
  5
17B46
330
176E0
100
AcDbEntity
  8
DEFPOINTS
 62
     0
 48
50.0
100
AcDbPoint
 10
5986.763991851129
 20
9874.944172279279
 30
0.0
  0
POINT
  5
17B47
330
176E0
100
AcDbEntity
  8
DEFPOINTS
 62
     0
 48
50.0
100
AcDbPoint
 10
5986.763991851129
 20
10090.75239190428
 30
0.0
  0
ENDBLK
  5
176EB
330
176E0
100
AcDbEntity
  8
0
 48
50.0
100
AcDbBlockEnd
  0
BLOCK
  5
176F8
330
176EC
100
AcDbEntity
  8
0
 48
50.0
100
AcDbBlockBegin
  2
*D18
 70
     1
 10
0.0
 20
0.0
 30
0.0
  3
*D18
  1

  0
LINE
  5
17B34
330
176EC
100
AcDbEntity
  8
寸法
 62
     0
 48
50.0
370
    -2
100
AcDbLine
 10
6061.763991851103
 20
7719.944172279269
 30
0.0
 11
6749.190337585514
 21
7719.944172279268
 31
0.0
  0
LINE
  5
17B35
330
176EC
100
AcDbEntity
  8
寸法
 62
     0
 48
50.0
370
    -2
100
AcDbLine
 10
6061.763991851103
 20
7664.944172279273
 30
0.0
 11
6749.190337585514
 21
7664.944172279273
 31
0.0
  0
LINE
  5
17B36
330
176EC
100
AcDbEntity
  8
寸法
 62
     0
 48
50.0
370
    -2
100
AcDbLine
 10
6689.190337585515
 20
7719.944172279268
 30
0.0
 11
6689.190337585515
 21
7819.944172279268
 31
0.0
  0
LINE
  5
17B37
330
176EC
100
AcDbEntity
  8
寸法
 62
     0
 48
50.0
370
    -2
100
AcDbLine
 10
6689.190337585515
 20
7664.944172279273
 30
0.0
 11
6689.190337585515
 21
7178.59742400017
 31
0.0
  0
LINE
  5
17B38
330
176EC
100
AcDbEntity
  8
寸法
 62
     0
 48
50.0
370
    -2
100
AcDbLine
 10
6689.190337585515
 20
7719.944172279268
 30
0.0
 11
6689.190337585515
 21
7664.944172279273
 31
0.0
  0
INSERT
  5
17B39
330
176EC
100
AcDbEntity
  8
寸法
 62
     0
 48
50.0
370
    -2
100
AcDbBlockReference
  2
_DOTSMALL
 10
6689.190337585515
 20
7719.944172279268
 30
0.0
 41
100.0
 42
100.0
 43
100.0
 50
270.0
  0
INSERT
  5
17B3A
330
176EC
100
AcDbEntity
  8
寸法
 62
     0
 48
50.0
370
    -2
100
AcDbBlockReference
  2
_DOTSMALL
 10
6689.190337585515
 20
7664.944172279273
 30
0.0
 41
100.0
 42
100.0
 43
100.0
 50
90.0
  0
MTEXT
  5
17B3B
330
176EC
100
AcDbEntity
  8
寸法
 62
     7
 48
50.0
100
AcDbMText
 10
6589.190337585512
 20
7287.082705374412
 30
0.0
 40
120.0
 41
0.0
 71
     5
 72
     1
  1
\A1;55
  7
STYLE1
 11
0.0000000000000001
 21
1.0
 31
0.0
 73
     1
 44
1.0
1001
ACAD
1000
MTEXTBEGIN
1070
    73
1070
     1
1070
    44
1040
1.0
1070
    74
1070
     0
1000
MTEXTEND
  0
POINT
  5
17B3C
330
176EC
100
AcDbEntity
  8
DEFPOINTS
 62
     0
 48
50.0
100
AcDbPoint
 10
6041.763991851103
 20
7719.944172279269
 30
0.0
  0
POINT
  5
17B3D
330
176EC
100
AcDbEntity
  8
DEFPOINTS
 62
     0
 48
50.0
100
AcDbPoint
 10
6041.763991851103
 20
7664.944172279273
 30
0.0
  0
POINT
  5
17B3E
330
176EC
100
AcDbEntity
  8
DEFPOINTS
 62
     0
 48
50.0
100
AcDbPoint
 10
6689.190337585515
 20
7664.944172279273
 30
0.0
  0
ENDBLK
  5
176F9
330
176EC
100
AcDbEntity
  8
0
 48
50.0
100
AcDbBlockEnd
  0
BLOCK
  5
17706
330
176FA
100
AcDbEntity
  8
0
 48
50.0
100
AcDbBlockBegin
  2
*D19
 70
     1
 10
0.0
 20
0.0
 30
0.0
  3
*D19
  1

  0
LINE
  5
17B29
330
176FA
100
AcDbEntity
  8
寸法
 62
     0
 48
50.0
370
    -2
100
AcDbLine
 10
6041.763991851103
 20
7644.944172279274
 30
0.0
 11
6041.763991851103
 21
7070.513401513018
 31
0.0
  0
LINE
  5
17B2A
330
176FA
100
AcDbEntity
  8
寸法
 62
     0
 48
50.0
370
    -2
100
AcDbLine
 10
5986.763991851105
 20
7644.94417227927
 30
0.0
 11
5986.763991851105
 21
7070.513401513018
 31
0.0
  0
LINE
  5
17B2B
330
176FA
100
AcDbEntity
  8
寸法
 62
     0
 48
50.0
370
    -2
100
AcDbLine
 10
5986.763991851105
 20
7130.513401513019
 30
0.0
 11
5886.763991851105
 21
7130.513401513019
 31
0.0
  0
LINE
  5
17B2C
330
176FA
100
AcDbEntity
  8
寸法
 62
     0
 48
50.0
370
    -2
100
AcDbLine
 10
6041.763991851103
 20
7130.513401513019
 30
0.0
 11
6458.73455459958
 21
7130.513401513019
 31
0.0
  0
LINE
  5
17B2D
330
176FA
100
AcDbEntity
  8
寸法
 62
     0
 48
50.0
370
    -2
100
AcDbLine
 10
5986.763991851105
 20
7130.513401513019
 30
0.0
 11
6041.763991851103
 21
7130.513401513019
 31
0.0
  0
INSERT
  5
17B2E
330
176FA
100
AcDbEntity
  8
寸法
 62
     0
 48
50.0
370
    -2
100
AcDbBlockReference
  2
_DOTSMALL
 10
5986.763991851105
 20
7130.513401513019
 30
0.0
 41
100.0
 42
100.0
 43
100.0
  0
INSERT
  5
17B2F
330
176FA
100
AcDbEntity
  8
寸法
 62
     0
 48
50.0
370
    -2
100
AcDbBlockReference
  2
_DOTSMALL
 10
6041.763991851103
 20
7130.513401513019
 30
0.0
 41
100.0
 42
100.0
 43
100.0
 50
180.0
  0
MTEXT
  5
17B30
330
176FA
100
AcDbEntity
  8
寸法
 62
     7
 48
50.0
100
AcDbMText
 10
6350.249273225341
 20
7230.513401513019
 30
0.0
 40
120.0
 41
0.0
 71
     5
 72
     1
  1
\A1;55
  7
STYLE1
 73
     1
 44
1.0
1001
ACAD
1000
MTEXTBEGIN
1070
    73
1070
     1
1070
    44
1040
1.0
1070
    74
1070
     0
1000
MTEXTEND
  0
POINT
  5
17B31
330
176FA
100
AcDbEntity
  8
DEFPOINTS
 62
     0
 48
50.0
100
AcDbPoint
 10
6041.763991851103
 20
7664.944172279273
 30
0.0
  0
POINT
  5
17B32
330
176FA
100
AcDbEntity
  8
DEFPOINTS
 62
     0
 48
50.0
100
AcDbPoint
 10
5986.763991851105
 20
7664.94417227927
 30
0.0
  0
POINT
  5
17B33
330
176FA
100
AcDbEntity
  8
DEFPOINTS
 62
     0
 48
50.0
100
AcDbPoint
 10
5986.763991851105
 20
7130.513401513019
 30
0.0
  0
ENDBLK
  5
17707
330
176FA
100
AcDbEntity
  8
0
 48
50.0
100
AcDbBlockEnd
  0
BLOCK
  5
17714
330
17708
100
AcDbEntity
  8
0
 48
50.0
100
AcDbBlockBegin
  2
*D20
 70
     1
 10
0.0
 20
0.0
 30
0.0
  3
*D20
  1

  0
LINE
  5
17B1E
330
17708
100
AcDbEntity
  8
寸法
 62
     0
 48
50.0
370
    -2
100
AcDbLine
 10
5986.763991851105
 20
7644.94417227927
 30
0.0
 11
5986.763991851105
 21
7070.513401513018
 31
0.0
  0
LINE
  5
17B1F
330
17708
100
AcDbEntity
  8
寸法
 62
     0
 48
50.0
370
    -2
100
AcDbLine
 10
5938.763991851104
 20
7670.944172279182
 30
0.0
 11
5938.763991851104
 21
7070.513401513018
 31
0.0
  0
LINE
  5
17B20
330
17708
100
AcDbEntity
  8
寸法
 62
     0
 48
50.0
370
    -2
100
AcDbLine
 10
5986.763991851105
 20
7130.513401513018
 30
0.0
 11
6086.763991851105
 21
7130.513401513018
 31
0.0
  0
LINE
  5
17B21
330
17708
100
AcDbEntity
  8
寸法
 62
     0
 48
50.0
370
    -2
100
AcDbLine
 10
5938.763991851104
 20
7130.513401513018
 30
0.0
 11
5838.763991851103
 21
7130.513401513018
 31
0.0
  0
MTEXT
  5
17B22
330
17708
100
AcDbEntity
  8
寸法
 62
     7
 48
50.0
100
AcDbMText
 10
5827.801094202356
 20
7230.513401513018
 30
0.0
 40
120.0
 41
0.0
 71
     5
 72
     1
  1
\A1;48
  7
STYLE1
 73
     1
 44
1.0
1001
ACAD
1000
MTEXTBEGIN
1070
    73
1070
     1
1070
    44
1040
1.0
1070
    74
1070
     0
1000
MTEXTEND
  0
LINE
  5
17B23
330
17708
100
AcDbEntity
  8
寸法
 62
     0
 48
50.0
370
    -2
100
AcDbLine
 10
5986.763991851105
 20
7130.513401513018
 30
0.0
 11
5938.763991851104
 21
7130.513401513018
 31
0.0
  0
INSERT
  5
17B24
330
17708
100
AcDbEntity
  8
寸法
 62
     0
 48
50.0
370
    -2
100
AcDbBlockReference
  2
_DOTSMALL
 10
5986.763991851105
 20
7130.513401513018
 30
0.0
 41
100.0
 42
100.0
 43
100.0
 50
180.0
  0
INSERT
  5
17B25
330
17708
100
AcDbEntity
  8
寸法
 62
     0
 48
50.0
370
    -2
100
AcDbBlockReference
  2
_DOTSMALL
 10
5938.763991851104
 20
7130.513401513018
 30
0.0
 41
100.0
 42
100.0
 43
100.0
  0
POINT
  5
17B26
330
17708
100
AcDbEntity
  8
DEFPOINTS
 62
     0
 48
50.0
100
AcDbPoint
 10
5986.763991851105
 20
7664.94417227927
 30
0.0
  0
POINT
  5
17B27
330
17708
100
AcDbEntity
  8
DEFPOINTS
 62
     0
 48
50.0
100
AcDbPoint
 10
5938.763991851104
 20
7690.944172279182
 30
0.0
  0
POINT
  5
17B28
330
17708
100
AcDbEntity
  8
DEFPOINTS
 62
     0
 48
50.0
100
AcDbPoint
 10
5938.763991851104
 20
7130.513401513018
 30
0.0
  0
ENDBLK
  5
17715
330
17708
100
AcDbEntity
  8
0
 48
50.0
100
AcDbBlockEnd
  0
BLOCK
  5
17722
330
17716
100
AcDbEntity
  8
0
 48
50.0
100
AcDbBlockBegin
  2
*D21
 70
     1
 10
0.0
 20
0.0
 30
0.0
  3
*D21
  1

  0
LINE
  5
17B13
330
17716
100
AcDbEntity
  8
寸法
 62
     0
 48
50.0
370
    -2
100
AcDbLine
 10
4774.763991851121
 20
7670.944172279182
 30
0.0
 11
4774.763991851121
 21
7070.513401513018
 31
0.0
  0
LINE
  5
17B14
330
17716
100
AcDbEntity
  8
寸法
 62
     0
 48
50.0
370
    -2
100
AcDbLine
 10
4726.763991851117
 20
7644.944172279181
 30
0.0
 11
4726.763991851117
 21
7070.513401513018
 31
0.0
  0
LINE
  5
17B15
330
17716
100
AcDbEntity
  8
寸法
 62
     0
 48
50.0
370
    -2
100
AcDbLine
 10
4774.763991851121
 20
7130.513401513018
 30
0.0
 11
4874.763991851121
 21
7130.513401513018
 31
0.0
  0
LINE
  5
17B16
330
17716
100
AcDbEntity
  8
寸法
 62
     0
 48
50.0
370
    -2
100
AcDbLine
 10
4726.763991851117
 20
7130.513401513018
 30
0.0
 11
4626.763991851118
 21
7130.513401513018
 31
0.0
  0
MTEXT
  5
17B17
330
17716
100
AcDbEntity
  8
寸法
 62
     7
 48
50.0
100
AcDbMText
 10
4887.665962851179
 20
7230.513401513018
 30
0.0
 40
120.0
 41
0.0
 71
     5
 72
     1
  1
\A1;48
  7
STYLE1
 73
     1
 44
1.0
1001
ACAD
1000
MTEXTBEGIN
1070
    73
1070
     1
1070
    44
1040
1.0
1070
    74
1070
     0
1000
MTEXTEND
  0
LINE
  5
17B18
330
17716
100
AcDbEntity
  8
寸法
 62
     0
 48
50.0
370
    -2
100
AcDbLine
 10
4774.763991851121
 20
7130.513401513018
 30
0.0
 11
4726.763991851117
 21
7130.513401513018
 31
0.0
  0
INSERT
  5
17B19
330
17716
100
AcDbEntity
  8
寸法
 62
     0
 48
50.0
370
    -2
100
AcDbBlockReference
  2
_DOTSMALL
 10
4774.763991851121
 20
7130.513401513018
 30
0.0
 41
100.0
 42
100.0
 43
100.0
 50
180.0
  0
INSERT
  5
17B1A
330
17716
100
AcDbEntity
  8
寸法
 62
     0
 48
50.0
370
    -2
100
AcDbBlockReference
  2
_DOTSMALL
 10
4726.763991851117
 20
7130.513401513018
 30
0.0
 41
100.0
 42
100.0
 43
100.0
  0
POINT
  5
17B1B
330
17716
100
AcDbEntity
  8
DEFPOINTS
 62
     0
 48
50.0
100
AcDbPoint
 10
4774.763991851121
 20
7690.944172279181
 30
0.0
  0
POINT
  5
17B1C
330
17716
100
AcDbEntity
  8
DEFPOINTS
 62
     0
 48
50.0
100
AcDbPoint
 10
4726.763991851117
 20
7664.944172279182
 30
0.0
  0
POINT
  5
17B1D
330
17716
100
AcDbEntity
  8
DEFPOINTS
 62
     0
 48
50.0
100
AcDbPoint
 10
4726.763991851117
 20
7130.513401513018
 30
0.0
  0
ENDBLK
  5
17723
330
17716
100
AcDbEntity
  8
0
 48
50.0
100
AcDbBlockEnd
  0
BLOCK
  5
17730
330
17724
100
AcDbEntity
  8
0
 48
50.0
100
AcDbBlockBegin
  2
*D22
 70
     1
 10
0.0
 20
0.0
 30
0.0
  3
*D22
  1

  0
LINE
  5
17B08
330
17724
100
AcDbEntity
  8
寸法
 62
     0
 48
50.0
370
    -2
100
AcDbLine
 10
4726.763991851117
 20
7644.944172279181
 30
0.0
 11
4726.763991851117
 21
7070.513401513018
 31
0.0
  0
LINE
  5
17B09
330
17724
100
AcDbEntity
  8
寸法
 62
     0
 48
50.0
370
    -2
100
AcDbLine
 10
4671.763991851121
 20
7644.944172279179
 30
0.0
 11
4671.763991851121
 21
7070.513401513018
 31
0.0
  0
LINE
  5
17B0A
330
17724
100
AcDbEntity
  8
寸法
 62
     0
 48
50.0
370
    -2
100
AcDbLine
 10
4726.763991851117
 20
7130.513401513018
 30
0.0
 11
4826.763991851118
 21
7130.513401513018
 31
0.0
  0
LINE
  5
17B0B
330
17724
100
AcDbEntity
  8
寸法
 62
     0
 48
50.0
370
    -2
100
AcDbLine
 10
4671.763991851121
 20
7130.513401513018
 30
0.0
 11
4254.793429102644
 21
7130.513401513018
 31
0.0
  0
LINE
  5
17B0C
330
17724
100
AcDbEntity
  8
寸法
 62
     0
 48
50.0
370
    -2
100
AcDbLine
 10
4726.763991851117
 20
7130.513401513018
 30
0.0
 11
4671.763991851121
 21
7130.513401513018
 31
0.0
  0
INSERT
  5
17B0D
330
17724
100
AcDbEntity
  8
寸法
 62
     0
 48
50.0
370
    -2
100
AcDbBlockReference
  2
_DOTSMALL
 10
4726.763991851117
 20
7130.513401513018
 30
0.0
 41
100.0
 42
100.0
 43
100.0
 50
180.0
  0
INSERT
  5
17B0E
330
17724
100
AcDbEntity
  8
寸法
 62
     0
 48
50.0
370
    -2
100
AcDbBlockReference
  2
_DOTSMALL
 10
4671.763991851121
 20
7130.513401513018
 30
0.0
 41
100.0
 42
100.0
 43
100.0
  0
MTEXT
  5
17B0F
330
17724
100
AcDbEntity
  8
寸法
 62
     7
 48
50.0
100
AcDbMText
 10
4363.278710476882
 20
7230.513401513018
 30
0.0
 40
120.0
 41
0.0
 71
     5
 72
     1
  1
\A1;55
  7
STYLE1
 73
     1
 44
1.0
1001
ACAD
1000
MTEXTBEGIN
1070
    73
1070
     1
1070
    44
1040
1.0
1070
    74
1070
     0
1000
MTEXTEND
  0
POINT
  5
17B10
330
17724
100
AcDbEntity
  8
DEFPOINTS
 62
     0
 48
50.0
100
AcDbPoint
 10
4726.763991851117
 20
7664.944172279182
 30
0.0
  0
POINT
  5
17B11
330
17724
100
AcDbEntity
  8
DEFPOINTS
 62
     0
 48
50.0
100
AcDbPoint
 10
4671.763991851121
 20
7664.944172279179
 30
0.0
  0
POINT
  5
17B12
330
17724
100
AcDbEntity
  8
DEFPOINTS
 62
     0
 48
50.0
100
AcDbPoint
 10
4671.763991851121
 20
7130.513401513018
 30
0.0
  0
ENDBLK
  5
17731
330
17724
100
AcDbEntity
  8
0
 48
50.0
100
AcDbBlockEnd
  0
BLOCK
  5
1773C
330
17732
100
AcDbEntity
  8
0
 48
50.0
100
AcDbBlockBegin
  2
*D23
 70
     1
 10
0.0
 20
0.0
 30
0.0
  3
*D23
  1

  0
LINE
  5
17AFF
330
17732
100
AcDbEntity
  8
寸法
 62
     0
 48
50.0
370
    -2
100
AcDbLine
 10
4671.763991851121
 20
7644.944172279109
 30
0.0
 11
4671.763991851121
 21
6784.340405922144
 31
0.0
  0
LINE
  5
17B00
330
17732
100
AcDbEntity
  8
寸法
 62
     0
 48
50.0
370
    -2
100
AcDbLine
 10
6041.763991851103
 20
7644.944172279237
 30
0.0
 11
6041.763991851103
 21
6784.340405922144
 31
0.0
  0
LINE
  5
17B01
330
17732
100
AcDbEntity
  8
寸法
 62
     0
 48
50.0
370
    -2
100
AcDbLine
 10
4671.763991851121
 20
6844.340405922143
 30
0.0
 11
6041.763991851103
 21
6844.340405922143
 31
0.0
  0
INSERT
  5
17B02
330
17732
100
AcDbEntity
  8
寸法
 62
     0
 48
50.0
370
    -2
100
AcDbBlockReference
  2
_DOTSMALL
 10
4671.763991851121
 20
6844.340405922143
 30
0.0
 41
100.0
 42
100.0
 43
100.0
 50
180.0
  0
INSERT
  5
17B03
330
17732
100
AcDbEntity
  8
寸法
 62
     0
 48
50.0
370
    -2
100
AcDbBlockReference
  2
_DOTSMALL
 10
6041.763991851103
 20
6844.340405922143
 30
0.0
 41
100.0
 42
100.0
 43
100.0
  0
MTEXT
  5
17B04
330
17732
100
AcDbEntity
  8
寸法
 62
     7
 48
50.0
100
AcDbMText
 10
5356.763991851113
 20
6944.340405922144
 30
0.0
 40
120.0
 41
0.0
 71
     5
 72
     1
  1
\A1;1370
  7
STYLE1
 73
     1
 44
1.0
1001
ACAD
1000
MTEXTBEGIN
1070
    73
1070
     1
1070
    44
1040
1.0
1070
    74
1070
     0
1000
MTEXTEND
  0
POINT
  5
17B05
330
17732
100
AcDbEntity
  8
DEFPOINTS
 62
     0
 48
50.0
100
AcDbPoint
 10
4671.763991851121
 20
7664.94417227911
 30
0.0
  0
POINT
  5
17B06
330
17732
100
AcDbEntity
  8
DEFPOINTS
 62
     0
 48
50.0
100
AcDbPoint
 10
6041.763991851103
 20
7664.944172279238
 30
0.0
  0
POINT
  5
17B07
330
17732
100
AcDbEntity
  8
DEFPOINTS
 62
     0
 48
50.0
100
AcDbPoint
 10
6041.763991851103
 20
6844.340405922143
 30
0.0
  0
ENDBLK
  5
1773D
330
17732
100
AcDbEntity
  8
0
 48
50.0
100
AcDbBlockEnd
  0
BLOCK
  5
17747
330
1773E
100
AcDbEntity
  8
0
 48
50.0
100
AcDbBlockBegin
  2
*D24
 70
     1
 10
0.0
 20
0.0
 30
0.0
  3
*D24
  1

  0
LINE
  5
17AF7
330
1773E
100
AcDbEntity
  8
寸法
 62
     0
 48
50.0
370
    -2
100
AcDbLine
 10
4774.763991851121
 20
7670.944172279182
 30
0.0
 11
4774.763991851121
 21
7070.513401513018
 31
0.0
  0
LINE
  5
17AF8
330
1773E
100
AcDbEntity
  8
寸法
 62
     0
 48
50.0
370
    -2
100
AcDbLine
 10
5938.763991851104
 20
7130.513401513018
 30
0.0
 11
4774.763991851121
 21
7130.513401513018
 31
0.0
  0
INSERT
  5
17AF9
330
1773E
100
AcDbEntity
  8
寸法
 62
     0
 48
50.0
370
    -2
100
AcDbBlockReference
  2
_DOTSMALL
 10
5938.763991851104
 20
7130.513401513018
 30
0.0
 41
100.0
 42
100.0
 43
100.0
  0
INSERT
  5
17AFA
330
1773E
100
AcDbEntity
  8
寸法
 62
     0
 48
50.0
370
    -2
100
AcDbBlockReference
  2
_DOTSMALL
 10
4774.763991851121
 20
7130.513401513018
 30
0.0
 41
100.0
 42
100.0
 43
100.0
 50
180.0
  0
MTEXT
  5
17AFB
330
1773E
100
AcDbEntity
  8
寸法
 62
     7
 48
50.0
100
AcDbMText
 10
5356.763991851113
 20
7330.513401513018
 30
0.0
 40
120.0
 41
0.0
 71
     5
 72
     1
  1
\A1;有効開口部間口\P1164
  7
STYLE1
 73
     1
 44
1.0
1001
ACAD
1000
MTEXTBEGIN
1070
    73
1070
     1
1070
    44
1040
1.0
1070
    74
1070
     0
1000
MTEXTEND
  0
POINT
  5
17AFC
330
1773E
100
AcDbEntity
  8
DEFPOINTS
 62
     0
 48
50.0
100
AcDbPoint
 10
5938.763991851104
 20
7690.944172279182
 30
0.0
  0
POINT
  5
17AFD
330
1773E
100
AcDbEntity
  8
DEFPOINTS
 62
     0
 48
50.0
100
AcDbPoint
 10
4774.763991851121
 20
7690.944172279181
 30
0.0
  0
POINT
  5
17AFE
330
1773E
100
AcDbEntity
  8
DEFPOINTS
 62
     0
 48
50.0
100
AcDbPoint
 10
4774.763991851121
 20
7130.513401513018
 30
0.0
  0
ENDBLK
  5
17748
330
1773E
100
AcDbEntity
  8
0
 48
50.0
100
AcDbBlockEnd
  0
BLOCK
  5
17753
330
17749
100
AcDbEntity
  8
0
 48
50.0
100
AcDbBlockBegin
  2
*D25
 70
     1
 10
0.0
 20
0.0
 30
0.0
  3
*D25
  1

  0
LINE
  5
17AEE
330
17749
100
AcDbEntity
  8
寸法
 62
     0
 48
50.0
370
    -2
100
AcDbLine
 10
6061.763991851129
 20
9819.944172279285
 30
0.0
 11
6749.190337585535
 21
9819.944172279285
 31
0.0
  0
LINE
  5
17AEF
330
17749
100
AcDbEntity
  8
寸法
 62
     0
 48
50.0
370
    -2
100
AcDbLine
 10
6061.763991851103
 20
7719.944172279269
 30
0.0
 11
6749.190337585535
 21
7719.944172279268
 31
0.0
  0
LINE
  5
17AF0
330
17749
100
AcDbEntity
  8
寸法
 62
     0
 48
50.0
370
    -2
100
AcDbLine
 10
6689.190337585536
 20
9819.944172279285
 30
0.0
 11
6689.190337585536
 21
7719.944172279268
 31
0.0
  0
INSERT
  5
17AF1
330
17749
100
AcDbEntity
  8
寸法
 62
     0
 48
50.0
370
    -2
100
AcDbBlockReference
  2
_DOTSMALL
 10
6689.190337585536
 20
9819.944172279285
 30
0.0
 41
100.0
 42
100.0
 43
100.0
 50
90.0
  0
INSERT
  5
17AF2
330
17749
100
AcDbEntity
  8
寸法
 62
     0
 48
50.0
370
    -2
100
AcDbBlockReference
  2
_DOTSMALL
 10
6689.190337585536
 20
7719.944172279268
 30
0.0
 41
100.0
 42
100.0
 43
100.0
 50
270.0
  0
MTEXT
  5
17AF3
330
17749
100
AcDbEntity
  8
寸法
 62
     7
 48
50.0
100
AcDbMText
 10
6589.178526561913
 20
8769.944172279279
 30
0.0
 40
120.0
 41
0.0
 71
     5
 72
     1
  1
\A1;5X420=2100
  7
STYLE1
 11
0.0000000000000001
 21
1.0
 31
0.0
 73
     1
 44
1.0
1001
ACAD
1000
MTEXTBEGIN
1070
    73
1070
     1
1070
    44
1040
1.0
1070
    74
1070
     0
1000
MTEXTEND
  0
POINT
  5
17AF4
330
17749
100
AcDbEntity
  8
DEFPOINTS
 62
     0
 48
50.0
100
AcDbPoint
 10
6041.763991851128
 20
9819.944172279285
 30
0.0
  0
POINT
  5
17AF5
330
17749
100
AcDbEntity
  8
DEFPOINTS
 62
     0
 48
50.0
100
AcDbPoint
 10
6041.763991851103
 20
7719.944172279269
 30
0.0
  0
POINT
  5
17AF6
330
17749
100
AcDbEntity
  8
DEFPOINTS
 62
     0
 48
50.0
100
AcDbPoint
 10
6689.190337585536
 20
7719.944172279268
 30
0.0
  0
ENDBLK
  5
17754
330
17749
100
AcDbEntity
  8
0
 48
50.0
100
AcDbBlockEnd
  0
BLOCK
  5
1775F
330
17755
100
AcDbEntity
  8
0
 48
50.0
100
AcDbBlockBegin
  2
*D26
 70
     1
 10
0.0
 20
0.0
 30
0.0
  3
*D26
  1

  0
LINE
  5
17AE5
330
17755
100
AcDbEntity
  8
寸法
 62
     0
 48
50.0
370
    -2
100
AcDbLine
 10
6061.763991851129
 20
9874.944172279279
 30
0.0
 11
7114.297279325175
 21
9874.944172279279
 31
0.0
  0
LINE
  5
17AE6
330
17755
100
AcDbEntity
  8
寸法
 62
     0
 48
50.0
370
    -2
100
AcDbLine
 10
6061.763991851103
 20
7664.944172279273
 30
0.0
 11
7114.297279325175
 21
7664.944172279273
 31
0.0
  0
LINE
  5
17AE7
330
17755
100
AcDbEntity
  8
寸法
 62
     0
 48
50.0
370
    -2
100
AcDbLine
 10
7054.297279325173
 20
9874.944172279279
 30
0.0
 11
7054.297279325173
 21
7664.944172279273
 31
0.0
  0
INSERT
  5
17AE8
330
17755
100
AcDbEntity
  8
寸法
 62
     0
 48
50.0
370
    -2
100
AcDbBlockReference
  2
_DOTSMALL
 10
7054.297279325173
 20
9874.944172279279
 30
0.0
 41
100.0
 42
100.0
 43
100.0
 50
90.0
  0
INSERT
  5
17AE9
330
17755
100
AcDbEntity
  8
寸法
 62
     0
 48
50.0
370
    -2
100
AcDbBlockReference
  2
_DOTSMALL
 10
7054.297279325173
 20
7664.944172279273
 30
0.0
 41
100.0
 42
100.0
 43
100.0
 50
270.0
  0
MTEXT
  5
17AEA
330
17755
100
AcDbEntity
  8
寸法
 62
     7
 48
50.0
100
AcDbMText
 10
6954.285468301552
 20
8769.944172279279
 30
0.0
 40
120.0
 41
0.0
 71
     5
 72
     1
  1
\A1;2210
  7
STYLE1
 11
0.0000000000000001
 21
1.0
 31
0.0
 73
     1
 44
1.0
1001
ACAD
1000
MTEXTBEGIN
1070
    73
1070
     1
1070
    44
1040
1.0
1070
    74
1070
     0
1000
MTEXTEND
  0
POINT
  5
17AEB
330
17755
100
AcDbEntity
  8
DEFPOINTS
 62
     0
 48
50.0
100
AcDbPoint
 10
6041.763991851128
 20
9874.944172279279
 30
0.0
  0
POINT
  5
17AEC
330
17755
100
AcDbEntity
  8
DEFPOINTS
 62
     0
 48
50.0
100
AcDbPoint
 10
6041.763991851103
 20
7664.944172279273
 30
0.0
  0
POINT
  5
17AED
330
17755
100
AcDbEntity
  8
DEFPOINTS
 62
     0
 48
50.0
100
AcDbPoint
 10
7054.297279325173
 20
7664.944172279273
 30
0.0
  0
ENDBLK
  5
17760
330
17755
100
AcDbEntity
  8
0
 48
50.0
100
AcDbBlockEnd
  0
BLOCK
  5
1776C
330
17761
100
AcDbEntity
  8
0
 48
50.0
100
AcDbBlockBegin
  2
*D27
 70
     1
 10
0.0
 20
0.0
 30
0.0
  3
*D27
  1

  0
LINE
  5
17D24
330
17761
100
AcDbEntity
  8
寸法
 62
     0
 48
50.0
370
    -2
100
AcDbLine
 10
6061.763991851122
 20
4662.416571881595
 30
0.0
 11
6389.307094172869
 21
4662.416571881593
 31
0.0
  0
LINE
  5
17D25
330
17761
100
AcDbEntity
  8
寸法
 62
     0
 48
50.0
370
    -2
100
AcDbLine
 10
6061.763991851122
 20
4827.416571881594
 30
0.0
 11
6389.307094172869
 21
4827.416571881593
 31
0.0
  0
LINE
  5
17D26
330
17761
100
AcDbEntity
  8
寸法
 62
     0
 48
50.0
370
    -2
100
AcDbLine
 10
6329.307094172868
 20
4662.416571881593
 30
0.0
 11
6329.307094172868
 21
4827.416571881593
 31
0.0
  0
LINE
  5
17D27
330
17761
100
AcDbEntity
  8
寸法
 62
     0
 48
50.0
370
    -2
100
AcDbLine
 10
6329.307094172868
 20
4827.416571881593
 30
0.0
 11
6329.307094172868
 21
5204.387134630071
 31
0.0
  0
INSERT
  5
17D28
330
17761
100
AcDbEntity
  8
寸法
 62
     0
 48
50.0
370
    -2
100
AcDbBlockReference
  2
_DOTSMALL
 10
6329.307094172868
 20
4662.416571881593
 30
0.0
 41
100.0
 42
100.0
 43
100.0
 50
270.0
  0
INSERT
  5
17D29
330
17761
100
AcDbEntity
  8
寸法
 62
     0
 48
50.0
370
    -2
100
AcDbBlockReference
  2
_DOTSMALL
 10
6329.307094172868
 20
4827.416571881593
 30
0.0
 41
100.0
 42
100.0
 43
100.0
 50
90.0
  0
MTEXT
  5
17D2A
330
17761
100
AcDbEntity
  8
寸法
 62
     7
 48
50.0
100
AcDbMText
 10
6229.307094172868
 20
5065.901853255833
 30
0.0
 40
120.0
 41
0.0
 71
     5
 72
     1
  1
\A1;165
  7
STYLE1
 11
0.0000000000000001
 21
1.0
 31
0.0
 73
     1
 44
1.0
1001
ACAD
1000
MTEXTBEGIN
1070
    73
1070
     1
1070
    44
1040
1.0
1070
    74
1070
     0
1000
MTEXTEND
  0
POINT
  5
17D2B
330
17761
100
AcDbEntity
  8
DEFPOINTS
 62
     0
 48
50.0
100
AcDbPoint
 10
6041.763991851121
 20
4662.416571881595
 30
0.0
  0
POINT
  5
17D2C
330
17761
100
AcDbEntity
  8
DEFPOINTS
 62
     0
 48
50.0
100
AcDbPoint
 10
6041.763991851121
 20
4827.416571881594
 30
0.0
  0
POINT
  5
17D2D
330
17761
100
AcDbEntity
  8
DEFPOINTS
 62
     0
 48
50.0
100
AcDbPoint
 10
6329.307094172868
 20
4827.416571881593
 30
0.0
  0
ENDBLK
  5
1776D
330
17761
100
AcDbEntity
  8
0
 48
50.0
100
AcDbBlockEnd
  0
BLOCK
  5
1777A
330
1776E
100
AcDbEntity
  8
0
 48
50.0
100
AcDbBlockBegin
  2
*D28
 70
     1
 10
0.0
 20
0.0
 30
0.0
  3
*D28
  1

  0
LINE
  5
17D19
330
1776E
100
AcDbEntity
  8
寸法
 62
     0
 48
50.0
370
    -2
100
AcDbLine
 10
6061.763991851122
 20
4635.416571881594
 30
0.0
 11
6389.307094172867
 21
4635.416571881592
 31
0.0
  0
LINE
  5
17D1A
330
1776E
100
AcDbEntity
  8
寸法
 62
     0
 48
50.0
370
    -2
100
AcDbLine
 10
6061.763991851122
 20
4662.416571881595
 30
0.0
 11
6389.307094172867
 21
4662.416571881593
 31
0.0
  0
LINE
  5
17D1B
330
1776E
100
AcDbEntity
  8
寸法
 62
     0
 48
50.0
370
    -2
100
AcDbLine
 10
6329.307094172868
 20
4635.416571881592
 30
0.0
 11
6329.307094172868
 21
4535.416571881593
 31
0.0
  0
LINE
  5
17D1C
330
1776E
100
AcDbEntity
  8
寸法
 62
     0
 48
50.0
370
    -2
100
AcDbLine
 10
6329.307094172868
 20
4662.416571881593
 30
0.0
 11
6329.307094172868
 21
4762.416571881593
 31
0.0
  0
MTEXT
  5
17D1D
330
1776E
100
AcDbEntity
  8
寸法
 62
     7
 48
50.0
100
AcDbMText
 10
6469.476917419233
 20
4663.383771721252
 30
0.0
 40
120.0
 41
0.0
 71
     5
 72
     1
  1
\A1;27
  7
STYLE1
 11
0.0000000000000001
 21
1.0
 31
0.0
 73
     1
 44
1.0
1001
ACAD
1000
MTEXTBEGIN
1070
    73
1070
     1
1070
    44
1040
1.0
1070
    74
1070
     0
1000
MTEXTEND
  0
LINE
  5
17D1E
330
1776E
100
AcDbEntity
  8
寸法
 62
     0
 48
50.0
370
    -2
100
AcDbLine
 10
6329.307094172868
 20
4635.416571881592
 30
0.0
 11
6329.307094172868
 21
4662.416571881593
 31
0.0
  0
INSERT
  5
17D1F
330
1776E
100
AcDbEntity
  8
寸法
 62
     0
 48
50.0
370
    -2
100
AcDbBlockReference
  2
_DOTSMALL
 10
6329.307094172868
 20
4635.416571881592
 30
0.0
 41
100.0
 42
100.0
 43
100.0
 50
90.0
  0
INSERT
  5
17D20
330
1776E
100
AcDbEntity
  8
寸法
 62
     0
 48
50.0
370
    -2
100
AcDbBlockReference
  2
_DOTSMALL
 10
6329.307094172868
 20
4662.416571881593
 30
0.0
 41
100.0
 42
100.0
 43
100.0
 50
270.0
  0
POINT
  5
17D21
330
1776E
100
AcDbEntity
  8
DEFPOINTS
 62
     0
 48
50.0
100
AcDbPoint
 10
6041.763991851121
 20
4635.416571881594
 30
0.0
  0
POINT
  5
17D22
330
1776E
100
AcDbEntity
  8
DEFPOINTS
 62
     0
 48
50.0
100
AcDbPoint
 10
6041.763991851121
 20
4662.416571881595
 30
0.0
  0
POINT
  5
17D23
330
1776E
100
AcDbEntity
  8
DEFPOINTS
 62
     0
 48
50.0
100
AcDbPoint
 10
6329.307094172868
 20
4662.416571881593
 30
0.0
  0
ENDBLK
  5
1777B
330
1776E
100
AcDbEntity
  8
0
 48
50.0
100
AcDbBlockEnd
  0
BLOCK
  5
17786
330
1777C
100
AcDbEntity
  8
0
 48
50.0
100
AcDbBlockBegin
  2
*D29
 70
     1
 10
0.0
 20
0.0
 30
0.0
  3
*D29
  1

  0
LINE
  5
17C7D
330
1777C
100
AcDbEntity
  8
寸法
 62
     0
 48
50.0
370
    -2
100
AcDbLine
 10
6061.763991851122
 20
2687.416571881594
 30
0.0
 11
6389.307094172867
 21
2687.416571881594
 31
0.0
  0
LINE
  5
17C7E
330
1777C
100
AcDbEntity
  8
寸法
 62
     0
 48
50.0
370
    -2
100
AcDbLine
 10
6061.763991851122
 20
4635.416571881594
 30
0.0
 11
6389.307094172867
 21
4635.416571881592
 31
0.0
  0
LINE
  5
17C7F
330
1777C
100
AcDbEntity
  8
寸法
 62
     0
 48
50.0
370
    -2
100
AcDbLine
 10
6329.307094172868
 20
2687.416571881594
 30
0.0
 11
6329.307094172868
 21
4635.416571881592
 31
0.0
  0
INSERT
  5
17C80
330
1777C
100
AcDbEntity
  8
寸法
 62
     0
 48
50.0
370
    -2
100
AcDbBlockReference
  2
_DOTSMALL
 10
6329.307094172868
 20
2687.416571881594
 30
0.0
 41
100.0
 42
100.0
 43
100.0
 50
270.0
  0
INSERT
  5
17C81
330
1777C
100
AcDbEntity
  8
寸法
 62
     0
 48
50.0
370
    -2
100
AcDbBlockReference
  2
_DOTSMALL
 10
6329.307094172868
 20
4635.416571881592
 30
0.0
 41
100.0
 42
100.0
 43
100.0
 50
90.0
  0
MTEXT
  5
17C82
330
1777C
100
AcDbEntity
  8
寸法
 62
     7
 48
50.0
100
AcDbMText
 10
6229.307094172867
 20
3661.416571881595
 30
0.0
 40
120.0
 41
0.0
 71
     5
 72
     1
  1
\A1;有効開口部高サ 1948
  7
STYLE1
 11
0.0000000000000001
 21
1.0
 31
0.0
 73
     1
 44
1.0
1001
ACAD
1000
MTEXTBEGIN
1070
    73
1070
     1
1070
    44
1040
1.0
1070
    74
1070
     0
1000
MTEXTEND
  0
POINT
  5
17C83
330
1777C
100
AcDbEntity
  8
DEFPOINTS
 62
     0
 48
50.0
100
AcDbPoint
 10
6041.763991851121
 20
2687.416571881594
 30
0.0
  0
POINT
  5
17C84
330
1777C
100
AcDbEntity
  8
DEFPOINTS
 62
     0
 48
50.0
100
AcDbPoint
 10
6041.763991851121
 20
4635.416571881594
 30
0.0
  0
POINT
  5
17C85
330
1777C
100
AcDbEntity
  8
DEFPOINTS
 62
     0
 48
50.0
100
AcDbPoint
 10
6329.307094172868
 20
4635.416571881592
 30
0.0
  0
ENDBLK
  5
17787
330
1777C
100
AcDbEntity
  8
0
 48
50.0
100
AcDbBlockEnd
  0
ENDSEC
  0
SECTION
  2
ENTITIES
  0
MTEXT
  5
763F
330
747D
100
AcDbEntity
  8
0
100
AcDbMText
 10
302.846345836809
 20
280.1983726409901
 30
0.0
 40
3.5
 41
5.323721266742722
 71
     1
 72
     5
  1

  7
MSMINCHO
 73
     1
 44
1.0
1001
ACAD
1000
MTEXTBEGIN
1070
    73
1070
     1
1070
    44
1040
1.0
1070
    74
1070
     0
1000
MTEXTEND
  0
LINE
  5
10B57
330
747D
100
AcDbEntity
  8
補助
  6
PHANTOM
 62
   230
 48
50.0
100
AcDbLine
 10
139.9999999999995
 20
11409.6
 30
0.0
 11
16307.2
 21
11409.6
 31
0.0
  0
LINE
  5
10B59
330
747D
100
AcDbEntity
  8
仕様書枠
  6
Continuous
 48
50.0
100
AcDbLine
 10
13107.2
 20
1200.0
 30
0.0
 11
13107.2
 21
-0.0000000000000729
 31
0.0
  0
LINE
  5
10B5C
330
747D
100
AcDbEntity
  8
仕様書枠
 48
50.0
100
AcDbLine
 10
16307.2
 20
1200.0
 30
0.0
 11
16307.2
 21
-0.0000000000000909
 31
0.0
  0
LINE
  5
10B5D
330
747D
100
AcDbEntity
  8
仕様書枠
 48
50.0
100
AcDbLine
 10
140.0
 20
0.0
 30
0.0
 11
16307.2
 21
-0.0000000000000909
 31
0.0
  0
LINE
  5
10B5E
330
747D
100
AcDbEntity
  8
補助
  6
PHANTOM
 62
   230
 48
50.0
100
AcDbLine
 10
16307.2
 20
11409.6
 30
0.0
 11
16307.2
 21
1200.0
 31
0.0
  0
LINE
  5
10B6C
330
747D
100
AcDbEntity
  8
仕様書枠
 48
50.0
100
AcDbLine
 10
13107.2
 20
1200.0
 30
0.0
 11
16307.2
 21
1200.0
 31
0.0
  0
LINE
  5
10B6D
330
747D
100
AcDbEntity
  8
補助
  6
PHANTOM
 62
   230
 48
50.0
100
AcDbLine
 10
13107.2
 20
11409.6
 30
0.0
 11
13107.2
 21
4800.0
 31
0.0
  0
LINE
  5
10B6F
330
747D
100
AcDbEntity
  8
補助
  6
PHANTOM
 62
   230
 48
50.0
100
AcDbLine
 10
13107.2
 20
4800.0
 30
0.0
 11
16307.2
 21
4800.0
 31
0.0
  0
LINE
  5
10B72
330
747D
100
AcDbEntity
  8
文字
 62
     7
 48
50.0
100
AcDbLine
 10
13187.2
 20
400.0
 30
0.0
 11
16227.2
 21
400.0
 31
0.0
  0
TEXT
  5
10B73
330
747D
100
AcDbEntity
  8
文字
 62
     7
 48
50.0
100
AcDbText
 10
13162.9790565769
 20
895.0906074299405
 30
0.0
 40
200.0
  1
外 形 図
  7
STYLE2
100
AcDbText
  0
TEXT
  5
10B74
330
747D
100
AcDbEntity
  8
文字
 62
     7
 48
50.0
100
AcDbText
 10
13201.43669998441
 20
477.2740661031255
 30
0.0
 40
160.0
  1
機種名
  7
STYLE2
100
AcDbText
  0
TEXT
  5
10B75
330
747D
100
AcDbEntity
  8
文字
 62
     7
 48
50.0
100
AcDbText
 10
13209.4053442172
 20
228.5435242569016
 30
0.0
 40
100.0
  1
○有効開口寸法 ： 1164×1948(mm)
  7
STYLE2
100
AcDbText
  0
TEXT
  5
10B76
330
747D
100
AcDbEntity
  8
文字
 62
     7
 48
50.0
100
AcDbText
 10
13209.4053442172
 20
76.09434707649343
 30
0.0
 40
100.0
  1
○床面積 ： 3.03㎡(0.92坪) 　
  7
STYLE2
100
AcDbText
  0
TEXT
  5
10B79
330
747D
100
AcDbEntity
  8
文字
 62
     7
 48
50.0
100
AcDbText
 10
14524.131837222
 20
1031.557706291228
 30
0.0
 40
100.0
  1
NO.04      <縮尺> S=1/40
  7
STYLE2
100
AcDbText
  0
LINE
  5
10B7B
330
747D
100
AcDbEntity
  8
仕様書枠
 48
50.0
100
AcDbLine
 10
13107.2
 20
800.0
 30
0.0
 11
14251.2
 21
800.0
 31
0.0
  0
LINE
  5
10B88
330
747D
100
AcDbEntity
  8
仕様書枠
  6
Continuous
 48
50.0
100
AcDbLine
 10
14251.2
 20
1200.0
 30
0.0
 11
14251.2
 21
800.0
 31
0.0
  0
TEXT
  5
15550
330
747D
100
AcDbEntity
  8
文字
 62
     7
 48
50.0
100
AcDbText
 10
14675.44848773736
 20
871.9640646083623
 30
0.0
 40
100.0
  1
～一般型・多雪地型～
  7
STYLE2
100
AcDbText
  0
LINE
  5
16F98
330
747D
100
AcDbEntity
  8
仕様書枠
 48
50.0
100
AcDbLine
 10
16307.2
 20
11239.6
 30
0.0
 11
13127.2
 21
11239.6
 31
0.0
  0
LINE
  5
16F99
330
747D
100
AcDbEntity
  8
仕様書枠
 48
50.0
100
AcDbLine
 10
13127.2
 20
11239.6
 30
0.0
 11
13127.2
 21
8349.600000000004
 31
0.0
  0
LINE
  5
16F9B
330
747D
100
AcDbEntity
  8
仕様書枠
 48
50.0
100
AcDbLine
 10
16307.2
 20
8349.600000000002
 30
0.0
 11
16307.2
 21
11239.6
 31
0.0
  0
LINE
  5
16F9C
330
747D
100
AcDbEntity
  8
仕様書枠
 48
50.0
100
AcDbLine
 10
14785.2
 20
11239.6
 30
0.0
 11
14785.2
 21
8859.600000000005
 31
0.0
  0
LINE
  5
16F9D
330
747D
100
AcDbEntity
  8
仕様書枠
 48
50.0
100
AcDbLine
 10
13490.2
 20
11239.6
 30
0.0
 11
13490.20000000001
 21
8859.600000000005
 31
0.0
  0
LINE
  5
16FE9
330
747D
100
AcDbEntity
  8
仕様書枠
 48
50.0
100
AcDbLine
 10
16307.2
 20
11069.6
 30
0.0
 11
13127.2
 21
11069.6
 31
0.0
  0
LINE
  5
16FEA
330
747D
100
AcDbEntity
  8
仕様書枠
 48
50.0
100
AcDbLine
 10
16307.2
 20
10729.6
 30
0.0
 11
13127.2
 21
10729.6
 31
0.0
  0
LINE
  5
16FEB
330
747D
100
AcDbEntity
  8
仕様書枠
 48
50.0
100
AcDbLine
 10
16307.2
 20
10899.6
 30
0.0
 11
13127.2
 21
10899.6
 31
0.0
  0
LINE
  5
16FEC
330
747D
100
AcDbEntity
  8
仕様書枠
 48
50.0
100
AcDbLine
 10
16307.19999999999
 20
10389.6
 30
0.0
 11
13127.2
 21
10389.6
 31
0.0
  0
LINE
  5
16FED
330
747D
100
AcDbEntity
  8
仕様書枠
 48
50.0
100
AcDbLine
 10
16307.19999999999
 20
10219.6
 30
0.0
 11
13127.2
 21
10219.6
 31
0.0
  0
LINE
  5
16FEE
330
747D
100
AcDbEntity
  8
仕様書枠
 48
50.0
100
AcDbLine
 10
16307.19999999999
 20
10559.6
 30
0.0
 11
13127.2
 21
10559.6
 31
0.0
  0
TEXT
  5
16FEF
330
747D
100
AcDbEntity
  8
文字
 62
     7
 48
50.0
100
AcDbText
 10
13197.42518560407
 20
11100.01374588373
 30
0.0
 40
100.0
  1
品番
  7
STYLE1
100
AcDbText
  0
TEXT
  5
16FF0
330
747D
100
AcDbEntity
  8
文字
 62
     7
 48
50.0
100
AcDbText
 10
13271.19032244792
 20
10930.01374588373
 30
0.0
 40
100.0
  1
1
  7
STYLE1
100
AcDbText
  0
TEXT
  5
16FF1
330
747D
100
AcDbEntity
  8
文字
 62
     7
 48
50.0
100
AcDbText
 10
13271.19032244792
 20
10760.01374588373
 30
0.0
 40
100.0
  1
2
  7
STYLE1
100
AcDbText
  0
TEXT
  5
16FF2
330
747D
100
AcDbEntity
  8
文字
 62
     7
 48
50.0
100
AcDbText
 10
13271.19032244792
 20
10420.01374588373
 30
0.0
 40
100.0
  1
4
  7
STYLE1
100
AcDbText
  0
TEXT
  5
16FF3
330
747D
100
AcDbEntity
  8
文字
 62
     7
 48
50.0
100
AcDbText
 10
13271.19032244792
 20
10590.01374588373
 30
0.0
 40
100.0
  1
3
  7
STYLE1
100
AcDbText
  0
TEXT
  5
16FF4
330
747D
100
AcDbEntity
  8
文字
 62
     7
 48
50.0
100
AcDbText
 10
13732.03840939435
 20
11100.01374588373
 30
0.0
 40
100.0
  1
部　　品　　名
  7
STYLE1
100
AcDbText
  0
TEXT
  5
17003
330
747D
100
AcDbEntity
  8
文字
 62
     7
 48
50.0
100
AcDbText
 10
14859.79774614482
 20
11100.01374588373
 30
0.0
 40
100.0
  1
材料（材質）　　単位mm
  7
STYLE1
100
AcDbText
  0
TEXT
  5
17004
330
747D
100
AcDbEntity
  8
文字
 62
     7
 48
50.0
100
AcDbText
 10
13583.11819016569
 20
10930.01374588373
 30
0.0
 40
100.0
  1
土台枠
  7
STYLE1
100
AcDbText
  0
TEXT
  5
17005
330
747D
100
AcDbEntity
  8
文字
 62
     7
 48
50.0
100
AcDbText
 10
13583.11819016569
 20
10760.01374588373
 30
0.0
 40
100.0
  1
柱
  7
STYLE1
100
AcDbText
  0
TEXT
  5
17006
330
747D
100
AcDbEntity
  8
文字
 62
     7
 48
50.0
100
AcDbText
 10
13583.11819016569
 20
10590.01374588373
 30
0.0
 40
100.0
  1
桁前
  7
STYLE1
100
AcDbText
  0
TEXT
  5
17007
330
747D
100
AcDbEntity
  8
文字
 62
     7
 48
50.0
100
AcDbText
 10
13583.11819016569
 20
10420.01374588373
 30
0.0
 40
100.0
  1
桁後
  7
STYLE1
100
AcDbText
  0
TEXT
  5
17008
330
747D
100
AcDbEntity
  8
文字
 62
     7
 48
50.0
100
AcDbText
 10
13271.19032244792
 20
10250.01374588373
 30
0.0
 40
100.0
  1
5
  7
STYLE1
100
AcDbText
  0
TEXT
  5
17009
330
747D
100
AcDbEntity
  8
文字
 62
     7
 48
50.0
100
AcDbText
 10
13583.11819016569
 20
10250.01374588373
 30
0.0
 40
100.0
  1
妻板左右
  7
STYLE1
100
AcDbText
  0
TEXT
  5
1700A
330
747D
100
AcDbEntity
  8
文字
 62
     7
 48
50.0
100
AcDbText
 10
13583.11819016569
 20
9060.013745883731
 30
0.0
 40
100.0
  1
シャッターレール
  7
STYLE1
100
AcDbText
  0
TEXT
  5
1700B
330
747D
100
AcDbEntity
  8
文字
 62
     7
 48
50.0
100
AcDbText
 10
13248.77747366448
 20
9400.013745883729
 30
0.0
 40
100.0
  1
10
  7
STYLE1
100
AcDbText
  0
TEXT
  5
1700C
330
747D
100
AcDbEntity
  8
文字
 62
     7
 48
50.0
100
AcDbText
 10
13583.11819016569
 20
9570.013745883731
 30
0.0
 40
100.0
  1
壁パネル
  7
STYLE1
100
AcDbText
  0
TEXT
  5
1700D
330
747D
100
AcDbEntity
  8
文字
 62
     7
 48
50.0
100
AcDbText
 10
13583.11819016569
 20
9740.013745883729
 30
0.0
 40
100.0
  1
屋根パネル
  7
STYLE1
100
AcDbText
  0
TEXT
  5
1700E
330
747D
100
AcDbEntity
  8
文字
 62
     7
 48
50.0
100
AcDbText
 10
13583.11819016569
 20
9910.01374588373
 30
0.0
 40
100.0
  1
母屋中
  7
STYLE1
100
AcDbText
  0
TEXT
  5
1700F
330
747D
100
AcDbEntity
  8
文字
 62
     7
 48
50.0
100
AcDbText
 10
13583.11819016569
 20
10080.01374588373
 30
0.0
 40
100.0
  1
鼻隠シ前後
  7
STYLE1
100
AcDbText
  0
TEXT
  5
17010
330
747D
100
AcDbEntity
  8
文字
 62
     7
 48
50.0
100
AcDbText
 10
13271.19032244792
 20
9740.013745883731
 30
0.0
 40
100.0
  1
8
  7
STYLE1
100
AcDbText
  0
TEXT
  5
17011
330
747D
100
AcDbEntity
  8
文字
 62
     7
 48
50.0
100
AcDbText
 10
13271.19032244792
 20
9570.013745883731
 30
0.0
 40
100.0
  1
9
  7
STYLE1
100
AcDbText
  0
TEXT
  5
17012
330
747D
100
AcDbEntity
  8
文字
 62
     7
 48
50.0
100
AcDbText
 10
13271.19032244792
 20
9910.01374588373
 30
0.0
 40
100.0
  1
7
  7
STYLE1
100
AcDbText
  0
TEXT
  5
17013
330
747D
100
AcDbEntity
  8
文字
 62
     7
 48
50.0
100
AcDbText
 10
13271.19032244792
 20
10080.01374588373
 30
0.0
 40
100.0
  1
6
  7
STYLE1
100
AcDbText
  0
LINE
  5
17014
330
747D
100
AcDbEntity
  8
仕様書枠
 48
50.0
100
AcDbLine
 10
16307.19999999999
 20
9709.600000000001
 30
0.0
 11
13127.2
 21
9709.600000000001
 31
0.0
  0
LINE
  5
17015
330
747D
100
AcDbEntity
  8
仕様書枠
 48
50.0
100
AcDbLine
 10
16307.19999999999
 20
9369.600000000001
 30
0.0
 11
13127.2
 21
9369.600000000003
 31
0.0
  0
LINE
  5
17016
330
747D
100
AcDbEntity
  8
仕様書枠
 48
50.0
100
AcDbLine
 10
16307.19999999999
 20
9539.6
 30
0.0
 11
13127.2
 21
9539.600000000003
 31
0.0
  0
LINE
  5
17017
330
747D
100
AcDbEntity
  8
仕様書枠
 48
50.0
100
AcDbLine
 10
16307.2
 20
10049.6
 30
0.0
 11
13127.2
 21
10049.6
 31
0.0
  0
LINE
  5
17018
330
747D
100
AcDbEntity
  8
仕様書枠
 48
50.0
100
AcDbLine
 10
16307.2
 20
9879.600000000001
 30
0.0
 11
13127.2
 21
9879.600000000003
 31
0.0
  0
TEXT
  5
17019
330
747D
100
AcDbEntity
  8
文字
 62
     7
 48
50.0
100
AcDbText
 10
13248.77747366448
 20
9230.013745883729
 30
0.0
 40
100.0
  1
11
  7
STYLE1
100
AcDbText
  0
TEXT
  5
1701A
330
747D
100
AcDbEntity
  8
文字
 62
     7
 48
50.0
100
AcDbText
 10
13583.11819016569
 20
9230.013745883729
 30
0.0
 40
100.0
  1
シャッターカバー
 41
0.9
  7
STYLE1
100
AcDbText
  0
LINE
  5
1701B
330
747D
100
AcDbEntity
  8
仕様書枠
 48
50.0
100
AcDbLine
 10
16307.19999999999
 20
9199.600000000001
 30
0.0
 11
13127.2
 21
9199.600000000001
 31
0.0
  0
LINE
  5
1701C
330
747D
100
AcDbEntity
  8
仕様書枠
 48
50.0
100
AcDbLine
 10
16307.19999999999
 20
8859.600000000002
 30
0.0
 11
13127.2
 21
8859.600000000005
 31
0.0
  0
TEXT
  5
1701D
330
747D
100
AcDbEntity
  8
文字
 62
     7
 48
50.0
100
AcDbText
 10
13583.11819016569
 20
8890.013745883731
 30
0.0
 40
100.0
  1
棚板（別売）
  7
STYLE1
100
AcDbText
  0
LINE
  5
1701E
330
747D
100
AcDbEntity
  8
仕様書枠
 48
50.0
100
AcDbLine
 10
16307.19999999999
 20
9029.600000000002
 30
0.0
 11
13127.2
 21
9029.600000000003
 31
0.0
  0
TEXT
  5
1701F
330
747D
100
AcDbEntity
  8
文字
 62
     7
 48
50.0
100
AcDbText
 10
13583.1181901657
 20
9400.013745883729
 30
0.0
 40
100.0
  1
シャッター
  7
STYLE1
100
AcDbText
  0
TEXT
  5
17020
330
747D
100
AcDbEntity
  8
文字
 62
     7
 48
50.0
100
AcDbText
 10
13248.77747366448
 20
8890.013745883731
 30
0.0
 40
100.0
  1
13
  7
STYLE1
100
AcDbText
  0
TEXT
  5
17021
330
747D
100
AcDbEntity
  8
文字
 62
     7
 48
50.0
100
AcDbText
 10
13248.77747366448
 20
9060.013745883731
 30
0.0
 40
100.0
  1
12
  7
STYLE1
100
AcDbText
  0
TEXT
  5
17022
330
747D
100
AcDbEntity
  8
文字
 62
     7
 48
50.0
100
AcDbText
 10
15022.63965474517
 20
10930.01374588372
 30
0.0
 40
100.0
  1
F12            1.2
  7
STYLE1
100
AcDbText
  0
TEXT
  5
17024
330
747D
100
AcDbEntity
  8
文字
 62
     7
 48
50.0
100
AcDbText
 10
15022.63965474517
 20
10590.01374588373
 30
0.0
 40
100.0
  1
Y10            1.0
  7
STYLE1
100
AcDbText
  0
TEXT
  5
17025
330
747D
100
AcDbEntity
  8
文字
 62
     7
 48
50.0
100
AcDbText
 10
15022.63965474516
 20
10420.01374588372
 30
0.0
 40
100.0
  1
Y10            1.0
  7
STYLE1
100
AcDbText
  0
TEXT
  5
17026
330
747D
100
AcDbEntity
  8
文字
 62
     7
 48
50.0
100
AcDbText
 10
15022.63965474517
 20
10250.01374588373
 30
0.0
 40
100.0
  1
Y10            0.7
  7
STYLE1
100
AcDbText
  0
TEXT
  5
17027
330
747D
100
AcDbEntity
  8
文字
 62
     7
 48
50.0
100
AcDbText
 10
15022.63965474516
 20
10080.01374588372
 30
0.0
 40
100.0
  1
Y10            0.7
  7
STYLE1
100
AcDbText
  0
TEXT
  5
17028
330
747D
100
AcDbEntity
  8
文字
 62
     7
 48
50.0
100
AcDbText
 10
15022.63965474517
 20
9910.013745883727
 30
0.0
 40
100.0
  1
F12            1.0
  7
STYLE1
100
AcDbText
  0
TEXT
  5
17029
330
747D
100
AcDbEntity
  8
文字
 62
     7
 48
50.0
100
AcDbText
 10
15022.63965474517
 20
9740.013745883729
 30
0.0
 40
100.0
  1
Y10            0.5
  7
STYLE1
100
AcDbText
  0
TEXT
  5
1702A
330
747D
100
AcDbEntity
  8
文字
 62
     7
 48
50.0
100
AcDbText
 10
15022.63965474516
 20
9570.013745883727
 30
0.0
 40
100.0
  1
F12            0.7
  7
STYLE1
100
AcDbText
  0
TEXT
  5
1702B
330
747D
100
AcDbEntity
  8
文字
 62
     7
 48
50.0
100
AcDbText
 10
14850.83183167177
 20
9060.013745883729
 30
0.0
 40
100.0
  1
アルミニウム合金押出形材
  7
STYLE1
100
AcDbText
  0
TEXT
  5
1702D
330
747D
100
AcDbEntity
  8
文字
 62
     7
 48
50.0
100
AcDbText
 10
15022.63965474516
 20
9400.013745883725
 30
0.0
 40
100.0
  1
Z08            0.5
  7
STYLE1
100
AcDbText
  0
TEXT
  5
1702E
330
747D
100
AcDbEntity
  8
文字
 62
     7
 48
50.0
100
AcDbText
 10
15022.63965474516
 20
8890.013745883729
 30
0.0
 40
100.0
  1
F12            0.6
  7
STYLE1
100
AcDbText
  0
LINE
  5
1702F
330
747D
100
AcDbEntity
  8
仕様書枠
 48
50.0
100
AcDbLine
 10
16307.19999999999
 20
8689.600000000003
 30
0.0
 11
13127.19999999999
 21
8689.600000000003
 31
0.0
  0
LINE
  5
17030
330
747D
100
AcDbEntity
  8
仕様書枠
 48
50.0
100
AcDbLine
 10
16307.19999999999
 20
8519.600000000002
 30
0.0
 11
13127.19999999999
 21
8519.600000000004
 31
0.0
  0
LINE
  5
17031
330
747D
100
AcDbEntity
  8
仕様書枠
 48
50.0
100
AcDbLine
 10
16307.19999999999
 20
8349.600000000002
 30
0.0
 11
13127.19999999999
 21
8349.600000000004
 31
0.0
  0
TEXT
  5
17032
330
747D
100
AcDbEntity
  8
文字
 62
     7
 48
50.0
100
AcDbText
 10
13229.83081656555
 20
8720.013745883731
 30
0.0
 40
100.0
  1
F12→溶融亜鉛めっき鋼板(JIS G 3302)
  7
STYLE1
100
AcDbText
  0
TEXT
  5
17033
330
747D
100
AcDbEntity
  8
文字
 62
     7
 48
50.0
100
AcDbText
 10
13229.83081656554
 20
8550.013745883731
 30
0.0
 40
100.0
  1
Y10→溶融亜鉛-5％アルミニウム合金めっき鋼板(JIS G 3317)
 41
0.9
  7
STYLE1
100
AcDbText
  0
TEXT
  5
17034
330
747D
100
AcDbEntity
  8
文字
 62
     7
 48
50.0
100
AcDbText
 10
13229.83081656555
 20
8380.013745883733
 30
0.0
 40
100.0
  1
Z08→塗装溶融亜鉛めっき鋼板(JIS G 3313)
  7
STYLE1
100
AcDbText
  0
DIMENSION
  5
17469
330
747D
100
AcDbEntity
  8
寸法
100
AcDbDimension
  2
*D1
 10
7671.731053018068
 20
5062.416571881598
 30
0.0
 11
7571.719241994445
 21
3874.916571881597
 31
0.0
 70
    32
 71
     5
 42
2375.000000000005
  3
INABA_S40G
100
AcDbAlignedDimension
 13
8815.481182201327
 23
2687.416571881594
 33
0.0
 14
8755.481182201327
 24
5062.416571881598
 34
0.0
 50
90.0
100
AcDbRotatedDimension
1001
ACAD
1000
DSTYLE
1002
{
1070
   174
1070
     0
1070
   272
1070
     1
1070
   288
1070
     0
1070
   341
1005
0
1002
}
  0
LINE
  5
1746A
330
747D
100
AcDbEntity
  8
部品1
100
AcDbLine
 10
10550.48118220132
 20
4827.416571881594
 30
0.0
 11
10550.48118220132
 21
2737.416571881594
 31
0.0
  0
LINE
  5
1746B
330
747D
100
AcDbEntity
  8
細線
 48
50.0
100
AcDbLine
 10
10207.98118220132
 20
4827.416571881594
 30
0.0
 11
10207.98118220132
 21
2737.416571881594
 31
0.0
  0
LINE
  5
1746C
330
747D
100
AcDbEntity
  8
細線
 48
50.0
100
AcDbLine
 10
10192.98118220132
 20
4827.416571881594
 30
0.0
 11
10192.98118220132
 21
2737.416571881594
 31
0.0
  0
LINE
  5
1746D
330
747D
100
AcDbEntity
  8
細線
 48
50.0
100
AcDbLine
 10
10332.98118220132
 20
4827.416571881594
 30
0.0
 11
10332.98118220132
 21
2737.416571881594
 31
0.0
  0
LINE
  5
1746E
330
747D
100
AcDbEntity
  8
細線
 48
50.0
100
AcDbLine
 10
10347.98118220132
 20
4827.416571881594
 30
0.0
 11
10347.98118220132
 21
2737.416571881594
 31
0.0
  0
LINE
  5
1746F
330
747D
100
AcDbEntity
  8
細線
 48
50.0
100
AcDbLine
 10
10487.98118220132
 20
4827.416571881594
 30
0.0
 11
10487.98118220132
 21
2737.416571881594
 31
0.0
  0
LINE
  5
17470
330
747D
100
AcDbEntity
  8
細線
 48
50.0
100
AcDbLine
 10
10472.98118220132
 20
4827.416571881594
 30
0.0
 11
10472.98118220132
 21
2737.416571881594
 31
0.0
  0
LINE
  5
17471
330
747D
100
AcDbEntity
  8
部品1
100
AcDbLine
 10
9290.48118220132
 20
4827.416571881594
 30
0.0
 11
9290.48118220132
 21
2737.416571881594
 31
0.0
  0
LINE
  5
17472
330
747D
100
AcDbEntity
  8
細線
 48
50.0
100
AcDbLine
 10
9367.981182201321
 20
4827.416571881594
 30
0.0
 11
9367.981182201321
 21
2737.416571881594
 31
0.0
  0
LINE
  5
17473
330
747D
100
AcDbEntity
  8
細線
 48
50.0
100
AcDbLine
 10
9352.98118220132
 20
4827.416571881594
 30
0.0
 11
9352.98118220132
 21
2737.416571881594
 31
0.0
  0
LINE
  5
17474
330
747D
100
AcDbEntity
  8
細線
 48
50.0
100
AcDbLine
 10
9492.981182201321
 20
4827.416571881594
 30
0.0
 11
9492.981182201321
 21
2737.416571881594
 31
0.0
  0
LINE
  5
17475
330
747D
100
AcDbEntity
  8
細線
 48
50.0
100
AcDbLine
 10
9507.981182201319
 20
4827.416571881594
 30
0.0
 11
9507.981182201319
 21
2737.416571881594
 31
0.0
  0
LINE
  5
17476
330
747D
100
AcDbEntity
  8
細線
 48
50.0
100
AcDbLine
 10
9647.98118220132
 20
4827.416571881594
 30
0.0
 11
9647.98118220132
 21
2737.416571881594
 31
0.0
  0
LINE
  5
17477
330
747D
100
AcDbEntity
  8
細線
 48
50.0
100
AcDbLine
 10
9632.981182201319
 20
4827.416571881594
 30
0.0
 11
9632.981182201319
 21
2737.416571881594
 31
0.0
  0
LINE
  5
17478
330
747D
100
AcDbEntity
  8
細線
 48
50.0
100
AcDbLine
 10
9212.981182201319
 20
4827.416571881594
 30
0.0
 11
9212.981182201319
 21
2737.416571881594
 31
0.0
  0
LINE
  5
17479
330
747D
100
AcDbEntity
  8
細線
 48
50.0
100
AcDbLine
 10
9227.98118220132
 20
4827.416571881594
 30
0.0
 11
9227.98118220132
 21
2737.416571881594
 31
0.0
  0
LINE
  5
1747A
330
747D
100
AcDbEntity
  8
細線
 48
50.0
100
AcDbLine
 10
9087.981182201319
 20
4827.416571881594
 30
0.0
 11
9087.981182201319
 21
2737.416571881594
 31
0.0
  0
LINE
  5
1747B
330
747D
100
AcDbEntity
  8
細線
 48
50.0
100
AcDbLine
 10
9072.981182201321
 20
4827.416571881594
 30
0.0
 11
9072.981182201321
 21
2737.416571881594
 31
0.0
  0
LINE
  5
1747C
330
747D
100
AcDbEntity
  8
細線
 48
50.0
100
AcDbLine
 10
8932.98118220132
 20
4827.416571881594
 30
0.0
 11
8932.98118220132
 21
2737.416571881594
 31
0.0
  0
LINE
  5
1747D
330
747D
100
AcDbEntity
  8
細線
 48
50.0
100
AcDbLine
 10
8947.981182201321
 20
4827.416571881594
 30
0.0
 11
8947.981182201321
 21
2737.416571881594
 31
0.0
  0
LINE
  5
1747E
330
747D
100
AcDbEntity
  8
部品1
100
AcDbLine
 10
9710.48118220132
 20
4827.416571881594
 30
0.0
 11
9710.48118220132
 21
2737.416571881594
 31
0.0
  0
LINE
  5
1747F
330
747D
100
AcDbEntity
  8
細線
 48
50.0
100
AcDbLine
 10
10052.98118220132
 20
4827.416571881594
 30
0.0
 11
10052.98118220132
 21
2737.416571881594
 31
0.0
  0
LINE
  5
17480
330
747D
100
AcDbEntity
  8
細線
 48
50.0
100
AcDbLine
 10
10067.98118220132
 20
4827.416571881594
 30
0.0
 11
10067.98118220132
 21
2737.416571881594
 31
0.0
  0
LINE
  5
17481
330
747D
100
AcDbEntity
  8
細線
 48
50.0
100
AcDbLine
 10
9927.981182201325
 20
4827.416571881594
 30
0.0
 11
9927.981182201325
 21
2737.416571881594
 31
0.0
  0
LINE
  5
17482
330
747D
100
AcDbEntity
  8
細線
 48
50.0
100
AcDbLine
 10
9912.981182201324
 20
4827.416571881594
 30
0.0
 11
9912.981182201324
 21
2737.416571881594
 31
0.0
  0
LINE
  5
17483
330
747D
100
AcDbEntity
  8
細線
 48
50.0
100
AcDbLine
 10
9772.981182201323
 20
4827.416571881594
 30
0.0
 11
9772.981182201323
 21
2737.416571881594
 31
0.0
  0
LINE
  5
17484
330
747D
100
AcDbEntity
  8
細線
 48
50.0
100
AcDbLine
 10
9787.981182201324
 20
4827.416571881594
 30
0.0
 11
9787.981182201324
 21
2737.416571881594
 31
0.0
  0
LINE
  5
17485
330
747D
100
AcDbEntity
  8
部品1
100
AcDbLine
 10
10130.48118220132
 20
4827.416571881594
 30
0.0
 11
10130.48118220132
 21
2737.416571881594
 31
0.0
  0
LINE
  5
17486
330
747D
100
AcDbEntity
  8
細線
 48
50.0
100
AcDbLine
 10
10627.98118220132
 20
4827.416571881594
 30
0.0
 11
10627.98118220132
 21
2737.416571881594
 31
0.0
  0
LINE
  5
17487
330
747D
100
AcDbEntity
  8
細線
 48
50.0
100
AcDbLine
 10
10612.98118220133
 20
4827.416571881594
 30
0.0
 11
10612.98118220133
 21
2737.416571881594
 31
0.0
  0
LINE
  5
17488
330
747D
100
AcDbEntity
  8
細線
 48
50.0
100
AcDbLine
 10
10752.98118220132
 20
4827.416571881594
 30
0.0
 11
10752.98118220132
 21
2737.416571881594
 31
0.0
  0
LINE
  5
17489
330
747D
100
AcDbEntity
  8
細線
 48
50.0
100
AcDbLine
 10
10767.98118220132
 20
4827.416571881594
 30
0.0
 11
10767.98118220132
 21
2737.416571881594
 31
0.0
  0
LINE
  5
1748A
330
747D
100
AcDbEntity
  8
細線
 48
50.0
100
AcDbLine
 10
10907.98118220132
 20
4827.416571881594
 30
0.0
 11
10907.98118220132
 21
2737.416571881594
 31
0.0
  0
LINE
  5
1748B
330
747D
100
AcDbEntity
  8
細線
 48
50.0
100
AcDbLine
 10
10892.98118220132
 20
4827.416571881594
 30
0.0
 11
10892.98118220132
 21
2737.416571881594
 31
0.0
  0
ARC
  5
1748C
330
747D
100
AcDbEntity
  8
部品1
100
AcDbCircle
 10
11091.10871801527
 20
4901.440329147386
 30
0.0
 40
0.7
100
AcDbArc
 50
275.0921697642102
 51
354.1866997666828
  0
ARC
  5
1748D
330
747D
100
AcDbEntity
  8
部品1
100
AcDbCircle
 10
11101.96806376458
 20
4978.48358396531
 30
0.0
 40
0.7
100
AcDbArc
 50
275.0921697642102
 51
354.1866997665273
  0
ARC
  5
1748E
330
747D
100
AcDbEntity
  8
部品1
100
AcDbCircle
 10
11102.29646900719
 20
4974.79818710822
 30
0.0
 40
3.0
100
AcDbArc
 50
95.09216976441781
 51
174.1866997665272
  0
ARC
  5
1748F
330
747D
100
AcDbEntity
  8
部品1
100
AcDbCircle
 10
11091.43712325786
 20
4897.754932290296
 30
0.0
 40
3.0
100
AcDbArc
 50
95.0921697642102
 51
174.1866997665272
  0
ARC
  5
17490
330
747D
100
AcDbEntity
  8
部品1
 48
50.0
100
AcDbCircle
 10
11080.40898798275
 20
4888.164187686414
 30
0.0
 40
7.0
100
AcDbArc
 50
267.8377559869492
 51
354.1866997665273
  0
ARC
  5
17491
330
747D
100
AcDbEntity
  8
部品1
 48
50.0
100
AcDbCircle
 10
11097.73108444727
 20
4999.066734828587
 30
0.0
 40
7.0
100
AcDbArc
 50
354.1866997665273
 51
87.03587545283093
  0
LINE
  5
17492
330
747D
100
AcDbEntity
  8
部品1
 48
50.0
100
AcDbLine
 10
11088.45255158725
 20
4898.058794007199
 30
0.0
 11
11087.37298854751
 21
4887.455177013641
 31
0.0
  0
LINE
  5
17493
330
747D
100
AcDbEntity
  8
部品1
 48
50.0
100
AcDbLine
 10
11099.31189733657
 20
4975.102048825124
 30
0.0
 11
11091.80511807174
 21
4901.369428080111
 31
0.0
  0
LINE
  5
17494
330
747D
100
AcDbEntity
  8
部品1
 48
50.0
100
AcDbLine
 10
11104.69508501203
 20
4998.357724155813
 30
0.0
 11
11102.66446382106
 21
4978.412682898032
 31
0.0
  0
LINE
  5
17495
330
747D
100
AcDbEntity
  8
細線
 48
50.0
100
AcDbLine
 10
11072.48118220133
 20
5007.38355091689
 30
0.0
 11
11067.73349931333
 21
4881.637778426146
 31
0.0
  0
LINE
  5
17496
330
747D
100
AcDbEntity
  8
細線
 48
50.0
100
AcDbLine
 10
8761.281080539424
 20
4940.572142025092
 30
0.0
 11
11091.28474497006
 21
4900.762823050598
 31
0.0
  0
LINE
  5
17497
330
747D
100
AcDbEntity
  8
細線
 48
50.0
100
AcDbLine
 10
8756.520605302137
 20
5033.433653722955
 30
0.0
 11
11102.15659004731
 21
4977.809449082127
 31
0.0
  0
LINE
  5
17498
330
747D
100
AcDbEntity
  8
部品1
100
AcDbLine
 10
8770.823746803277
 20
4920.197596950561
 30
0.0
 11
11080.14488274117
 21
4881.169171716356
 31
0.0
  0
LINE
  5
17499
330
747D
100
AcDbEntity
  8
部品1
100
AcDbLine
 10
8763.026168558287
 20
5061.13430721586
 30
0.0
 11
11098.09305906279
 21
5006.057369590734
 31
0.0
  0
ARC
  5
1749A
330
747D
100
AcDbEntity
  8
部品1
100
AcDbCircle
 10
8761.51827407269
 20
4941.230730840498
 30
0.0
 40
0.7
100
AcDbArc
 50
181.0932240292375
 51
260.187754031489
  0
ARC
  5
1749B
330
747D
100
AcDbEntity
  8
部品1
100
AcDbCircle
 10
8756.745600475081
 20
5034.096509040617
 30
0.0
 40
0.7
100
AcDbArc
 50
181.0932240292114
 51
260.187754031489
  0
ARC
  5
1749C
330
747D
100
AcDbEntity
  8
部品1
100
AcDbCircle
 10
8756.115046072059
 20
5030.450634503219
 30
0.0
 40
3.0
100
AcDbArc
 50
1.093224029289586
 51
80.18775403169431
  0
ARC
  5
1749D
330
747D
100
AcDbEntity
  8
部品1
100
AcDbCircle
 10
8760.887719669666
 20
4937.5848563031
 30
0.0
 40
3.0
100
AcDbArc
 50
1.093224029289586
 51
80.18775403169431
  0
ARC
  5
1749E
330
747D
100
AcDbEntity
  8
部品1
 48
50.0
100
AcDbCircle
 10
8771.087852044866
 20
4927.192612920619
 30
0.0
 40
7.0
100
AcDbArc
 50
181.0932240292895
 51
267.8377559869492
  0
ARC
  5
1749F
330
747D
100
AcDbEntity
  8
部品1
 48
50.0
100
AcDbCircle
 10
8762.66419394277
 20
5054.143672453714
 30
0.0
 40
7.0
100
AcDbArc
 50
87.03587545283093
 51
181.0932240292895
  0
LINE
  5
174A0
330
747D
100
AcDbEntity
  8
部品1
 48
50.0
100
AcDbLine
 10
8763.887173596094
 20
4937.642093906283
 30
0.0
 11
8764.089126216525
 21
4927.059058513191
 31
0.0
  0
LINE
  5
174A1
330
747D
100
AcDbEntity
  8
部品1
 48
50.0
100
AcDbLine
 10
8759.114499998487
 20
5030.507872106403
 30
0.0
 11
8760.818401489853
 21
4941.217375399755
 31
0.0
  0
LINE
  5
174A2
330
747D
100
AcDbEntity
  8
部品1
 48
50.0
100
AcDbLine
 10
8755.665468114431
 20
5054.010118046287
 30
0.0
 11
8756.045727892242
 21
5034.083153599875
 31
0.0
  0
LINE
  5
174A3
330
747D
100
AcDbEntity
  8
細線
 48
50.0
100
AcDbLine
 10
8788.481182201323
 20
5059.816248256999
 30
0.0
 11
8783.192080645816
 21
4919.730615629645
 31
0.0
  0
DIMENSION
  5
174A4
330
747D
100
AcDbEntity
  8
寸法
 48
50.0
100
AcDbDimension
  2
*D2
 10
11105.48118220132
 20
5461.074025460899
 30
0.0
 11
11311.52842629581
 21
5461.074025460899
 31
0.0
 70
   160
 71
     5
 42
80.0
  3
INABA_S40G
100
AcDbAlignedDimension
 13
11025.48118220132
 23
5009.227251493247
 33
0.0
 14
11105.48118220132
 24
5007.416571881595
 34
0.0
100
AcDbRotatedDimension
1001
ACAD
1000
DSTYLE
1002
{
1070
   174
1070
     0
1070
   272
1070
     1
1070
   288
1070
     0
1070
   341
1005
0
1002
}
  0
DIMENSION
  5
174A5
330
747D
100
AcDbEntity
  8
寸法
 48
50.0
100
AcDbDimension
  2
*D3
 10
8194.872775432958
 20
4936.761830754925
 30
0.0
 11
8205.538250691882
 21
5307.608493996625
 31
0.0
 70
   161
 71
     5
 42
141.0000000000009
  3
INABA_S40G
100
AcDbAlignedDimension
 13
8774.877202359903
 23
5061.139320716273
 33
0.0
 14
8770.823746803277
 24
4920.197596950561
 34
0.0
1001
ACAD
1000
DSTYLE
1002
{
1070
   174
1070
     0
1070
   272
1070
     1
1070
   288
1070
     0
1070
   341
1005
0
1002
}
  0
DIMENSION
  5
174A6
330
747D
100
AcDbEntity
  8
寸法
 48
50.0
100
AcDbDimension
  2
*D4
 10
8755.481182201323
 20
5461.074025460899
 30
0.0
 11
8445.843386925734
 21
5461.074025460899
 31
0.0
 70
   160
 71
     5
 42
60.0
  3
INABA_S40G
100
AcDbAlignedDimension
 13
8815.481182201322
 23
5058.41819000457
 33
0.0
 14
8755.481182201323
 24
5062.416571881598
 34
0.0
100
AcDbRotatedDimension
1001
ACAD
1000
DSTYLE
1002
{
1070
   174
1070
     0
1070
   272
1070
     1
1070
   288
1070
     0
1070
   341
1005
0
1002
}
  0
TEXT
  5
174A7
330
747D
100
AcDbEntity
  8
部品1
 48
50.0
100
AcDbText
 10
10236.38204009014
 20
5091.231759156855
 30
0.0
 40
120.0
  1
44
 50
90.0
  7
STYLE1
100
AcDbText
  0
LINE
  5
174A8
330
747D
100
AcDbEntity
  8
部品1
100
AcDbLine
 10
9745.026168558286
 20
5194.167054181566
 30
0.0
 11
10070.48118220132
 21
5176.648995222706
 31
0.0
  0
LINE
  5
174A9
330
747D
100
AcDbEntity
  8
部品1
 48
50.0
100
AcDbLine
 10
9770.481182201324
 20
5192.848995222704
 30
0.0
 11
10070.48118220132
 21
5192.848995222704
 31
0.0
  0
LINE
  5
174AA
330
747D
100
AcDbEntity
  8
部品1
 48
50.0
100
AcDbLine
 10
10070.48118220132
 20
5192.848995222704
 30
0.0
 11
10070.48118220132
 21
5176.648995222706
 31
0.0
  0
TEXT
  5
174AB
330
747D
100
AcDbEntity
  8
部品1
 48
50.0
100
AcDbText
 10
9758.749017425051
 20
5228.733017375137
 30
0.0
 40
120.0
  1
1000
  7
STYLE1
100
AcDbText
  0
DIMENSION
  5
174AC
330
747D
100
AcDbEntity
  8
寸法
 48
50.0
100
AcDbDimension
  2
*D5
 10
8815.481182201322
 20
5461.074025460899
 30
0.0
 11
9920.481182201324
 21
5461.074025460899
 31
0.0
 70
   160
  1
柱外寸法<>
 71
     5
 42
2210.0
  3
INABA_S40G
100
AcDbAlignedDimension
 13
11025.48118220132
 23
5009.227251493247
 33
0.0
 14
8815.481182201322
 24
5058.41819000457
 34
0.0
100
AcDbRotatedDimension
1001
ACAD
1000
DSTYLE
1002
{
1070
   174
1070
     0
1070
   272
1070
     1
1070
   288
1070
     0
1070
   341
1005
0
1002
}
  0
DIMENSION
  5
174AD
330
747D
100
AcDbEntity
  8
寸法
 48
50.0
100
AcDbDimension
  2
*D6
 10
8755.481182201323
 20
5680.275859135189
 30
0.0
 11
9930.481182201324
 21
5680.275859135189
 31
0.0
 70
   160
 71
     5
 42
2350.0
  3
INABA_S40G
100
AcDbAlignedDimension
 13
11105.48118220132
 23
5007.416571881595
 33
0.0
 14
8755.481182201323
 24
5062.416571881598
 34
0.0
100
AcDbRotatedDimension
1001
ACAD
1000
DSTYLE
1002
{
1070
   174
1070
     0
1070
   272
1070
     1
1070
   288
1070
     0
1070
   341
1005
0
1002
}
  0
ARC
  5
174AE
330
747D
100
AcDbEntity
  8
部品1
 48
0.01
100
AcDbCircle
 10
5134.763991851121
 20
4859.916571881594
 30
0.0
 40
2.0
100
AcDbArc
 50
270.0
 51
0.0
  0
ARC
  5
174AF
330
747D
100
AcDbEntity
  8
部品1
 48
0.01
100
AcDbCircle
 10
5134.763991851123
 20
4891.416571881594
 30
0.0
 40
2.0
100
AcDbArc
 50
0.0
 51
90.0
  0
ARC
  5
174B0
330
747D
100
AcDbEntity
  8
部品1
 48
0.01
100
AcDbCircle
 10
4958.763991851123
 20
4859.916571881594
 30
0.0
 40
2.0
100
AcDbArc
 50
180.0
 51
270.0
  0
ARC
  5
174B1
330
747D
100
AcDbEntity
  8
部品1
 48
0.01
100
AcDbCircle
 10
4958.763991851123
 20
4891.416571881594
 30
0.0
 40
2.0
100
AcDbArc
 50
90.0
 51
180.0
  0
LINE
  5
174B2
330
747D
100
AcDbEntity
  8
細線
100
AcDbLine
 10
5046.763991851122
 20
4863.916571881594
 30
0.0
 11
5120.763991851124
 21
4863.916571881594
 31
0.0
  0
LINE
  5
174B3
330
747D
100
AcDbEntity
  8
細線
100
AcDbLine
 10
5046.763991851123
 20
4886.916571881594
 30
0.0
 11
4972.763991851123
 21
4886.916571881594
 31
0.0
  0
LINE
  5
174B4
330
747D
100
AcDbEntity
  8
細線
100
AcDbLine
 10
4972.763991851123
 20
4863.916571881594
 30
0.0
 11
5046.763991851123
 21
4863.916571881594
 31
0.0
  0
LINE
  5
174B5
330
747D
100
AcDbEntity
  8
細線
100
AcDbLine
 10
5120.763991851124
 20
4886.916571881594
 30
0.0
 11
5046.763991851123
 21
4886.916571881594
 31
0.0
  0
LINE
  5
174B6
330
747D
100
AcDbEntity
  8
細線
100
AcDbLine
 10
5120.763991851124
 20
4863.916571881594
 30
0.0
 11
5120.763991851124
 21
4886.916571881594
 31
0.0
  0
LINE
  5
174B7
330
747D
100
AcDbEntity
  8
細線
100
AcDbLine
 10
4972.763991851123
 20
4886.916571881594
 30
0.0
 11
4972.763991851123
 21
4863.916571881594
 31
0.0
  0
LINE
  5
174B8
330
747D
100
AcDbEntity
  8
部品1
 48
0.01
100
AcDbLine
 10
5136.763991851122
 20
4859.916571881594
 30
0.0
 11
5136.763991851123
 21
4891.416571881594
 31
0.0
  0
LINE
  5
174B9
330
747D
100
AcDbEntity
  8
部品1
 48
0.01
100
AcDbLine
 10
4958.763991851123
 20
4857.916571881594
 30
0.0
 11
5134.763991851121
 21
4857.916571881594
 31
0.0
  0
LINE
  5
174BA
330
747D
100
AcDbEntity
  8
部品1
 48
0.01
100
AcDbLine
 10
4956.763991851123
 20
4891.416571881594
 30
0.0
 11
4956.763991851123
 21
4859.916571881594
 31
0.0
  0
LINE
  5
174BB
330
747D
100
AcDbEntity
  8
部品1
 48
0.01
100
AcDbLine
 10
5134.763991851123
 20
4893.416571881594
 30
0.0
 11
4958.763991851123
 21
4893.416571881594
 31
0.0
  0
LINE
  5
174BC
330
747D
100
AcDbEntity
  8
細線
100
AcDbLine
 10
4972.763991851123
 20
4880.916571881594
 30
0.0
 11
5046.763991851123
 21
4880.916571881594
 31
0.0
  0
LINE
  5
174BD
330
747D
100
AcDbEntity
  8
細線
100
AcDbLine
 10
4972.763991851123
 20
4874.916571881594
 30
0.0
 11
5046.763991851123
 21
4874.916571881594
 31
0.0
  0
LINE
  5
174BE
330
747D
100
AcDbEntity
  8
細線
100
AcDbLine
 10
4972.763991851121
 20
4868.916571881594
 30
0.0
 11
5046.763991851123
 21
4868.916571881594
 31
0.0
  0
LINE
  5
174BF
330
747D
100
AcDbEntity
  8
細線
100
AcDbLine
 10
4972.763991851123
 20
4880.916571881594
 30
0.0
 11
5041.763991851123
 21
4880.916571881594
 31
0.0
  0
LINE
  5
174C0
330
747D
100
AcDbEntity
  8
細線
100
AcDbLine
 10
5120.763991851121
 20
4880.916571881593
 30
0.0
 11
5046.763991851123
 21
4880.916571881594
 31
0.0
  0
LINE
  5
174C1
330
747D
100
AcDbEntity
  8
細線
100
AcDbLine
 10
5120.763991851121
 20
4868.916571881593
 30
0.0
 11
5046.763991851123
 21
4868.916571881594
 31
0.0
  0
LINE
  5
174C2
330
747D
100
AcDbEntity
  8
細線
100
AcDbLine
 10
5120.763991851121
 20
4874.916571881594
 30
0.0
 11
5046.763991851123
 21
4874.916571881594
 31
0.0
  0
LINE
  5
174C3
330
747D
100
AcDbEntity
  8
細線
100
AcDbLine
 10
5046.763991851123
 20
4886.916571881594
 30
0.0
 11
5046.763991851122
 21
4863.916571881594
 31
0.0
  0
LINE
  5
174C4
330
747D
100
AcDbEntity
  8
細線
100
AcDbLine
 10
5666.763991851121
 20
4886.916571881594
 30
0.0
 11
5666.763991851123
 21
4863.916571881594
 31
0.0
  0
LINE
  5
174C5
330
747D
100
AcDbEntity
  8
細線
100
AcDbLine
 10
5592.763991851123
 20
4874.916571881594
 30
0.0
 11
5666.763991851121
 21
4874.916571881594
 31
0.0
  0
LINE
  5
174C6
330
747D
100
AcDbEntity
  8
細線
100
AcDbLine
 10
5592.763991851123
 20
4868.916571881593
 30
0.0
 11
5666.763991851121
 21
4868.916571881594
 31
0.0
  0
LINE
  5
174C7
330
747D
100
AcDbEntity
  8
細線
100
AcDbLine
 10
5592.763991851123
 20
4880.916571881593
 30
0.0
 11
5666.763991851121
 21
4880.916571881594
 31
0.0
  0
LINE
  5
174C8
330
747D
100
AcDbEntity
  8
細線
100
AcDbLine
 10
5740.763991851121
 20
4880.916571881594
 30
0.0
 11
5671.763991851122
 21
4880.916571881594
 31
0.0
  0
LINE
  5
174C9
330
747D
100
AcDbEntity
  8
細線
100
AcDbLine
 10
5740.763991851123
 20
4868.916571881594
 30
0.0
 11
5666.763991851121
 21
4868.916571881594
 31
0.0
  0
LINE
  5
174CA
330
747D
100
AcDbEntity
  8
細線
100
AcDbLine
 10
5740.763991851121
 20
4874.916571881594
 30
0.0
 11
5666.763991851121
 21
4874.916571881594
 31
0.0
  0
LINE
  5
174CB
330
747D
100
AcDbEntity
  8
細線
100
AcDbLine
 10
5740.763991851121
 20
4880.916571881594
 30
0.0
 11
5666.763991851121
 21
4880.916571881594
 31
0.0
  0
LINE
  5
174CC
330
747D
100
AcDbEntity
  8
部品1
 48
0.01
100
AcDbLine
 10
5578.763991851122
 20
4893.416571881594
 30
0.0
 11
5754.763991851121
 21
4893.416571881594
 31
0.0
  0
LINE
  5
174CD
330
747D
100
AcDbEntity
  8
部品1
 48
0.01
100
AcDbLine
 10
5756.763991851121
 20
4891.416571881594
 30
0.0
 11
5756.763991851121
 21
4859.916571881594
 31
0.0
  0
LINE
  5
174CE
330
747D
100
AcDbEntity
  8
部品1
 48
0.01
100
AcDbLine
 10
5754.763991851121
 20
4857.916571881594
 30
0.0
 11
5578.763991851123
 21
4857.916571881594
 31
0.0
  0
LINE
  5
174CF
330
747D
100
AcDbEntity
  8
部品1
 48
0.01
100
AcDbLine
 10
5576.763991851123
 20
4859.916571881594
 30
0.0
 11
5576.763991851121
 21
4891.416571881594
 31
0.0
  0
LINE
  5
174D0
330
747D
100
AcDbEntity
  8
細線
100
AcDbLine
 10
5740.763991851121
 20
4886.916571881594
 30
0.0
 11
5740.763991851121
 21
4863.916571881594
 31
0.0
  0
LINE
  5
174D1
330
747D
100
AcDbEntity
  8
細線
100
AcDbLine
 10
5592.763991851121
 20
4863.916571881594
 30
0.0
 11
5592.763991851121
 21
4886.916571881594
 31
0.0
  0
LINE
  5
174D2
330
747D
100
AcDbEntity
  8
細線
100
AcDbLine
 10
5592.763991851121
 20
4886.916571881594
 30
0.0
 11
5666.763991851121
 21
4886.916571881594
 31
0.0
  0
LINE
  5
174D3
330
747D
100
AcDbEntity
  8
細線
100
AcDbLine
 10
5740.763991851121
 20
4863.916571881594
 30
0.0
 11
5666.763991851121
 21
4863.916571881594
 31
0.0
  0
LINE
  5
174D4
330
747D
100
AcDbEntity
  8
細線
100
AcDbLine
 10
5666.763991851121
 20
4886.916571881594
 30
0.0
 11
5740.763991851121
 21
4886.916571881594
 31
0.0
  0
LINE
  5
174D5
330
747D
100
AcDbEntity
  8
細線
100
AcDbLine
 10
5666.763991851123
 20
4863.916571881594
 30
0.0
 11
5592.763991851121
 21
4863.916571881594
 31
0.0
  0
ARC
  5
174D6
330
747D
100
AcDbEntity
  8
部品1
 48
0.01
100
AcDbCircle
 10
5754.763991851121
 20
4891.416571881594
 30
0.0
 40
2.0
100
AcDbArc
 50
0.0
 51
90.0
  0
ARC
  5
174D7
330
747D
100
AcDbEntity
  8
部品1
 48
0.01
100
AcDbCircle
 10
5754.763991851121
 20
4859.916571881594
 30
0.0
 40
2.0
100
AcDbArc
 50
270.0
 51
0.0
  0
ARC
  5
174D8
330
747D
100
AcDbEntity
  8
部品1
 48
0.01
100
AcDbCircle
 10
5578.763991851122
 20
4891.416571881594
 30
0.0
 40
2.0
100
AcDbArc
 50
90.0
 51
180.0
  0
ARC
  5
174D9
330
747D
100
AcDbEntity
  8
部品1
 48
0.01
100
AcDbCircle
 10
5578.763991851123
 20
4859.916571881594
 30
0.0
 40
2.0
100
AcDbArc
 50
180.0
 51
270.0
  0
LINE
  5
174DA
330
747D
100
AcDbEntity
  8
部品1
100
AcDbLine
 10
4622.183652866455
 20
5055.020046486358
 30
0.0
 11
4623.317050198802
 21
5035.04391850376
 31
0.0
  0
LINE
  5
174DB
330
747D
100
AcDbEntity
  8
部品1
100
AcDbLine
 10
4634.754070520378
 20
4939.386511336699
 30
0.0
 11
4635.398976327487
 21
4928.02004648636
 31
0.0
  0
LINE
  5
174DC
330
747D
100
AcDbEntity
  8
部品1
100
AcDbLine
 10
4626.518039995532
 20
5031.586511336701
 30
0.0
 11
4631.553080723643
 21
4942.843918503758
 31
0.0
  0
ARC
  5
174DD
330
747D
100
AcDbEntity
  8
部品1
 48
50.0
100
AcDbCircle
 10
4623.522857099348
 20
5031.416571881599
 30
0.0
 40
3.0
100
AcDbArc
 50
3.247342790337682
 51
82.3418727926348
  0
ARC
  5
174DE
330
747D
100
AcDbEntity
  8
部品1
 48
50.0
100
AcDbCircle
 10
4631.758887624189
 20
4939.216571881597
 30
0.0
 40
3.0
100
AcDbArc
 50
3.247342790337682
 51
82.3418727926348
  0
ARC
  5
174DF
330
747D
100
AcDbEntity
  8
部品1
 48
50.0
100
AcDbCircle
 10
4632.25195673275
 20
4942.883571043282
 30
0.0
 40
0.7
100
AcDbArc
 50
183.2473427903116
 51
262.3418727926349
  0
ARC
  5
174E0
330
747D
100
AcDbEntity
  8
部品1
 48
50.0
100
AcDbCircle
 10
4624.01592620791
 20
5035.083571043283
 30
0.0
 40
0.7
100
AcDbArc
 50
183.2473427903897
 51
262.3418727926349
  0
ARC
  5
174E1
330
747D
100
AcDbEntity
  8
部品1
100
AcDbCircle
 10
4642.387736418586
 20
4928.416571881599
 30
0.0
 40
7.0
100
AcDbArc
 50
183.2473427903377
 51
270.0
  0
ARC
  5
174E2
330
747D
100
AcDbEntity
  8
部品1
100
AcDbCircle
 10
4629.172412957553
 20
5055.416571881599
 30
0.0
 40
7.0
100
AcDbArc
 50
90.0
 51
183.2473427903377
  0
ARC
  5
174E3
330
747D
100
AcDbEntity
  8
部品1
100
AcDbCircle
 10
6084.355570744691
 20
5055.416571881599
 30
0.0
 40
7.0
100
AcDbArc
 50
356.7526572096623
 51
90.0
  0
ARC
  5
174E4
330
747D
100
AcDbEntity
  8
部品1
100
AcDbCircle
 10
6071.140247283656
 20
4928.416571881599
 30
0.0
 40
7.0
100
AcDbArc
 50
270.0
 51
356.7526572096623
  0
ARC
  5
174E5
330
747D
100
AcDbEntity
  8
部品1
 48
50.0
100
AcDbCircle
 10
6089.512057494334
 20
5035.083571043283
 30
0.0
 40
0.7
100
AcDbArc
 50
277.6581272073652
 51
356.7526572096103
  0
ARC
  5
174E6
330
747D
100
AcDbEntity
  8
部品1
 48
50.0
100
AcDbCircle
 10
6081.276026969492
 20
4942.883571043282
 30
0.0
 40
0.7
100
AcDbArc
 50
277.6581272073652
 51
356.7526572096883
  0
ARC
  5
174E7
330
747D
100
AcDbEntity
  8
部品1
 48
50.0
100
AcDbCircle
 10
6081.769096078053
 20
4939.216571881597
 30
0.0
 40
3.0
100
AcDbArc
 50
97.65812720736519
 51
176.7526572096623
  0
ARC
  5
174E8
330
747D
100
AcDbEntity
  8
部品1
 48
50.0
100
AcDbCircle
 10
6090.005126602896
 20
5031.416571881599
 30
0.0
 40
3.0
100
AcDbArc
 50
97.65812720736519
 51
176.7526572096623
  0
LINE
  5
174E9
330
747D
100
AcDbEntity
  8
部品1
100
AcDbLine
 10
6087.009943706711
 20
5031.586511336701
 30
0.0
 11
6081.9749029786
 21
4942.843918503758
 31
0.0
  0
LINE
  5
174EA
330
747D
100
AcDbEntity
  8
部品1
100
AcDbLine
 10
6078.773913181866
 20
4939.386511336699
 30
0.0
 11
6078.129007374755
 21
4928.02004648636
 31
0.0
  0
LINE
  5
174EB
330
747D
100
AcDbEntity
  8
細線
 48
50.0
100
AcDbLine
 10
4654.763991851122
 20
5062.416571881598
 30
0.0
 11
4654.763991851122
 21
4921.416571881598
 31
0.0
  0
LINE
  5
174EC
330
747D
100
AcDbEntity
  8
細線
 48
50.0
100
AcDbLine
 10
6058.763991851122
 20
5062.416571881598
 30
0.0
 11
6058.763991851122
 21
4921.416571881598
 31
0.0
  0
LINE
  5
174ED
330
747D
100
AcDbEntity
  8
部品1
100
AcDbLine
 10
6091.344330835789
 20
5055.020046486358
 30
0.0
 11
6090.210933503442
 21
5035.04391850376
 31
0.0
  0
LINE
  5
174EE
330
747D
100
AcDbEntity
  8
細線
 48
50.0
100
AcDbLine
 10
6081.488423104845
 20
4942.216571881597
 30
0.0
 11
4632.039560597394
 21
4942.216571881599
 31
0.0
  0
LINE
  5
174EF
330
747D
100
AcDbEntity
  8
細線
 48
50.0
100
AcDbLine
 10
6089.724453629682
 20
5034.416571881599
 30
0.0
 11
4623.803530072566
 21
5034.416571881596
 31
0.0
  0
LINE
  5
174F0
330
747D
100
AcDbEntity
  8
部品1
 48
50.0
100
AcDbLine
 10
6071.140247283656
 20
4921.416571881599
 30
0.0
 11
4642.387736418586
 21
4921.416571881599
 31
0.0
  0
LINE
  5
174F1
330
747D
100
AcDbEntity
  8
部品1
 48
50.0
100
AcDbLine
 10
6084.355570744691
 20
5062.416571881598
 30
0.0
 11
4629.172412957553
 21
5062.4165718816
 31
0.0
  0
DIMENSION
  5
174F2
330
747D
100
AcDbEntity
  8
寸法
 48
50.0
100
AcDbDimension
  2
*D7
 10
4671.763991851123
 20
5468.142843613503
 30
0.0
 11
5360.356532218977
 21
5468.142843613503
 31
0.0
 70
   160
  1
柱外寸法<>
 71
     5
 42
1370.0
  3
INABA_S40G
100
AcDbAlignedDimension
 13
6041.763991851123
 23
5062.416571881599
 33
0.0
 14
4671.763991851123
 24
5062.4165718816
 34
0.0
100
AcDbRotatedDimension
  0
DIMENSION
  5
174F3
330
747D
100
AcDbEntity
  8
寸法
 48
50.0
100
AcDbDimension
  2
*D8
 10
4621.763991851123
 20
5468.142843613503
 30
0.0
 11
4308.278710476876
 21
5468.142843613503
 31
0.0
 70
   160
 71
     5
 42
50.0
  3
INABA_S40G
100
AcDbAlignedDimension
 13
4671.763991851123
 23
5062.4165718816
 33
0.0
 14
4621.763991851123
 24
5062.416571881599
 34
0.0
100
AcDbRotatedDimension
1001
ACAD
1000
DSTYLE
1002
{
1002
}
  0
DIMENSION
  5
174F4
330
747D
100
AcDbEntity
  8
寸法
 48
50.0
100
AcDbDimension
  2
*D9
 10
6041.763991851123
 20
5468.142843613503
 30
0.0
 11
6405.24927322536
 21
5468.142843613503
 31
0.0
 70
   160
 71
     5
 42
49.99999999999818
  3
INABA_S40G
100
AcDbAlignedDimension
 13
6091.763991851121
 23
5062.416571881596
 33
0.0
 14
6041.763991851123
 24
5062.416571881599
 34
0.0
100
AcDbRotatedDimension
  0
DIMENSION
  5
174F5
330
747D
100
AcDbEntity
  8
寸法
 48
50.0
100
AcDbDimension
  2
*D10
 10
6091.763991851121
 20
5668.051764827594
 30
0.0
 11
5356.763991851122
 21
5668.051764827594
 31
0.0
 70
   160
 71
     5
 42
1469.999999999998
  3
INABA_S40G
100
AcDbAlignedDimension
 13
4621.763991851123
 23
5062.416571881599
 33
0.0
 14
6091.763991851121
 24
5062.416571881596
 34
0.0
100
AcDbRotatedDimension
  0
DIMENSION
  5
17539
330
747D
100
AcDbEntity
  8
寸法
100
AcDbDimension
  2
*D11
 10
7971.731053018067
 20
2687.416571881594
 30
0.0
 11
7971.731053018065
 21
2303.666571881594
 31
0.0
 70
   160
 71
     5
 42
50.0
  3
INABA_S40G
100
AcDbAlignedDimension
 13
8815.481182201326
 23
2737.416571881594
 33
0.0
 14
8760.481182201326
 24
2687.416571881594
 34
0.0
 50
90.0
100
AcDbRotatedDimension
1001
ACAD
1000
DSTYLE
1002
{
1070
   288
1070
     1
1002
}
  0
DIMENSION
  5
1753B
330
747D
100
AcDbEntity
  8
寸法
100
AcDbDimension
  2
*D12
 10
7971.731053018065
 20
2737.416571881594
 30
0.0
 11
7871.719241994442
 21
3782.416571881596
 31
0.0
 70
    32
 71
     5
 42
2090.0
  3
INABA_S40G
100
AcDbAlignedDimension
 13
8815.481182201326
 23
4827.416571881594
 33
0.0
 14
8815.481182201326
 24
2737.416571881594
 34
0.0
 50
90.0
100
AcDbRotatedDimension
1001
ACAD
1000
DSTYLE
1002
{
1070
   288
1070
     1
1002
}
  0
LINE
  5
1753C
330
747D
100
AcDbEntity
  8
破線
 48
5.0
100
AcDbLine
 10
8815.481182201326
 20
2587.416571881594
 30
0.0
 11
8815.481182201326
 21
2337.416571881594
 31
0.0
  0
LINE
  5
1753D
330
747D
100
AcDbEntity
  8
破線
 48
5.0
100
AcDbLine
 10
8870.481182201325
 20
2587.416571881594
 30
0.0
 11
8870.481182201325
 21
2337.416571881594
 31
0.0
  0
LINE
  5
17543
330
747D
100
AcDbEntity
  8
破線
 48
5.0
100
AcDbLine
 10
8815.481182201326
 20
2337.416571881594
 30
0.0
 11
8870.481182201325
 21
2337.416571881594
 31
0.0
  0
LINE
  5
17544
330
747D
100
AcDbEntity
  8
部品1
100
AcDbLine
 10
8870.481182201325
 20
2687.416571881594
 30
0.0
 11
11025.48118220132
 21
2687.416571881594
 31
0.0
  0
LINE
  5
17545
330
747D
100
AcDbEntity
  8
部品1
100
AcDbLine
 10
8870.481182201325
 20
2737.416571881594
 30
0.0
 11
11025.48118220132
 21
2737.416571881594
 31
0.0
  0
LINE
  5
17546
330
747D
100
AcDbEntity
  8
部品1
100
AcDbLine
 10
8815.481182201326
 20
4827.416571881594
 30
0.0
 11
11025.48118220132
 21
4827.416571881594
 31
0.0
  0
LINE
  5
17547
330
747D
100
AcDbEntity
  8
部品1
100
AcDbLine
 10
8815.481182201331
 20
4919.442868926182
 30
0.0
 11
8815.481182201326
 21
2587.416571881594
 31
0.0
  0
LINE
  5
17548
330
747D
100
AcDbEntity
  8
部品1
100
AcDbLine
 10
8870.481182201325
 20
4827.416571881594
 30
0.0
 11
8870.481182201325
 21
2587.416571881594
 31
0.0
  0
LINE
  5
17549
330
747D
100
AcDbEntity
  8
部品1
100
AcDbLine
 10
8815.481182201326
 20
2687.416571881594
 30
0.0
 11
8422.483967992482
 21
2587.416571881594
 31
0.0
  0
DIMENSION
  5
1754A
330
747D
100
AcDbEntity
  8
寸法
100
AcDbDimension
  2
*D13
 10
11730.40834017345
 20
5007.416571881594
 30
0.0
 11
11730.40834017345
 21
3847.416571881594
 31
0.0
 70
   160
 71
     5
 42
2320.000000000001
  3
INABA_S40G
100
AcDbAlignedDimension
 13
11025.48118220132
 23
2687.416571881594
 33
0.0
 14
11120.48118220132
 24
5007.416571881594
 34
0.0
 50
90.0
100
AcDbRotatedDimension
1001
ACAD
1000
DSTYLE
1002
{
1070
   288
1070
     1
1002
}
  0
LINE
  5
1754B
330
747D
100
AcDbEntity
  8
部品1
100
AcDbLine
 10
10970.48118220132
 20
4827.416571881594
 30
0.0
 11
10970.48118220132
 21
2737.416571881594
 31
0.0
  0
LINE
  5
1754C
330
747D
100
AcDbEntity
  8
部品1
100
AcDbLine
 10
11025.48118220132
 20
4882.093009512817
 30
0.0
 11
11025.48118220132
 21
2587.416571881594
 31
0.0
  0
CIRCLE
  5
1754D
330
747D
100
AcDbEntity
  8
細線
 48
50.0
100
AcDbCircle
 10
5356.763991851123
 20
3574.916571881594
 30
0.0
 40
18.0
  0
ARC
  5
1754E
330
747D
100
AcDbEntity
  8
細線
 48
50.0
100
AcDbCircle
 10
5656.763991851123
 20
3249.916571881594
 30
0.0
 40
15.0
100
AcDbArc
 50
270.0
 51
90.0
  0
ARC
  5
1754F
330
747D
100
AcDbEntity
  8
細線
 48
50.0
100
AcDbCircle
 10
5556.763991851124
 20
3249.916571881594
 30
0.0
 40
15.0
100
AcDbArc
 50
90.0
 51
270.0
  0
LINE
  5
17550
330
747D
100
AcDbEntity
  8
細線
 48
50.0
100
AcDbLine
 10
5556.763991851124
 20
3264.916571881594
 30
0.0
 11
5656.763991851123
 21
3264.916571881594
 31
0.0
  0
LINE
  5
17551
330
747D
100
AcDbEntity
  8
細線
 48
50.0
100
AcDbLine
 10
5656.763991851123
 20
3234.916571881594
 30
0.0
 11
5556.763991851124
 21
3234.916571881594
 31
0.0
  0
LINE
  5
17552
330
747D
100
AcDbEntity
  8
細線
 48
50.0
100
AcDbLine
 10
5156.763991851123
 20
3234.916571881594
 30
0.0
 11
5056.763991851124
 21
3234.916571881594
 31
0.0
  0
LINE
  5
17553
330
747D
100
AcDbEntity
  8
細線
 48
50.0
100
AcDbLine
 10
5056.763991851124
 20
3264.916571881594
 30
0.0
 11
5156.763991851123
 21
3264.916571881594
 31
0.0
  0
ARC
  5
17554
330
747D
100
AcDbEntity
  8
細線
 48
50.0
100
AcDbCircle
 10
5156.763991851123
 20
3249.916571881594
 30
0.0
 40
15.0
100
AcDbArc
 50
270.0
 51
90.0
  0
ARC
  5
17555
330
747D
100
AcDbEntity
  8
細線
 48
50.0
100
AcDbCircle
 10
5056.763991851124
 20
3249.916571881594
 30
0.0
 40
15.0
100
AcDbArc
 50
90.0
 51
270.0
  0
LINE
  5
17556
330
747D
100
AcDbEntity
  8
部品1
100
AcDbLine
 10
5146.763991851129
 20
9846.944172279295
 30
0.0
 11
6013.763991851116
 21
9846.944172279279
 31
0.0
  0
LINE
  5
17557
330
747D
100
AcDbEntity
  8
部品1
100
AcDbLine
 10
5146.763991851127
 20
9874.944172279302
 30
0.0
 11
5146.763991851127
 21
9846.944172279302
 31
0.0
  0
LINE
  5
17558
330
747D
100
AcDbEntity
  8
部品1
100
AcDbLine
 10
5146.763991851127
 20
9874.944172279244
 30
0.0
 11
5146.763991851127
 21
9846.944172279243
 31
0.0
  0
LINE
  5
17559
330
747D
100
AcDbEntity
  8
部品1
 48
50.0
100
AcDbLine
 10
6013.763991851116
 20
9846.944172279279
 30
0.0
 11
5986.76399185112
 21
9819.944172279143
 31
0.0
  0
LINE
  5
1755A
330
747D
100
AcDbEntity
  8
部品1
 48
50.0
100
AcDbLine
 10
4726.763991851101
 20
9819.944172279157
 30
0.0
 11
4699.763991851127
 21
9846.944172279187
 31
0.0
  0
LINE
  5
1755B
330
747D
100
AcDbEntity
  8
部品1
100
AcDbLine
 10
5986.76399185112
 20
9819.944172279143
 30
0.0
 11
4726.763991851103
 21
9819.944172279157
 31
0.0
  0
LINE
  5
1755C
330
747D
100
AcDbEntity
  8
部品1
 48
50.0
100
AcDbLine
 10
5961.763991851126
 20
9794.944172279102
 30
0.0
 11
4751.763991851102
 21
9794.944172279073
 31
0.0
  0
LINE
  5
1755D
330
747D
100
AcDbEntity
  8
部品1
100
AcDbLine
 10
6013.763991851129
 20
9819.944172279285
 30
0.0
 11
6041.763991851128
 21
9819.944172279285
 31
0.0
  0
LINE
  5
1755E
330
747D
100
AcDbEntity
  8
部品1
100
AcDbLine
 10
5986.763991851129
 20
9874.944172279302
 30
0.0
 11
5986.763991851129
 21
9846.944172279302
 31
0.0
  0
LINE
  5
1755F
330
747D
100
AcDbEntity
  8
部品1
100
AcDbLine
 10
5986.763991851129
 20
9874.944172279279
 30
0.0
 11
5986.763991851129
 21
9846.944172279279
 31
0.0
  0
LINE
  5
17560
330
747D
100
AcDbEntity
  8
部品1
100
AcDbLine
 10
6013.763991851129
 20
9399.944172279283
 30
0.0
 11
6041.763991851128
 21
9399.944172279283
 31
0.0
  0
DIMENSION
  5
17561
330
747D
100
AcDbEntity
  8
寸法
100
AcDbDimension
  2
*D14
 10
6041.763991851128
 20
10090.75239190426
 30
0.0
 11
6350.249273225367
 21
10090.75239190426
 31
0.0
 70
   160
 71
     5
 42
55.0
  3
INABA_S40G
100
AcDbAlignedDimension
 13
5986.763991851129
 23
9874.944172279279
 33
0.0
 14
6041.763991851128
 24
9874.944172279279
 34
0.0
100
AcDbRotatedDimension
1001
ACAD
1000
DSTYLE
1002
{
1002
}
  0
DIMENSION
  5
17562
330
747D
100
AcDbEntity
  8
寸法
100
AcDbDimension
  2
*D15
 10
6689.190337585539
 20
9819.944172279285
 30
0.0
 11
6689.190337585538
 21
10183.42945365352
 31
0.0
 70
   160
 71
     5
 42
54.99999999999636
  3
INABA_S40G
100
AcDbAlignedDimension
 13
6041.763991851128
 23
9874.944172279279
 33
0.0
 14
6041.763991851128
 24
9819.944172279285
 34
0.0
 50
90.0
100
AcDbRotatedDimension
1001
ACAD
1000
DSTYLE
1002
{
1002
}
  0
LINE
  5
17563
330
747D
100
AcDbEntity
  8
部品1
100
AcDbLine
 10
5566.763991851127
 20
9874.944172279302
 30
0.0
 11
5566.763991851127
 21
9846.944172279302
 31
0.0
  0
LINE
  5
17564
330
747D
100
AcDbEntity
  8
部品1
100
AcDbLine
 10
5146.763991851127
 20
9874.944172279302
 30
0.0
 11
5146.763991851127
 21
9846.944172279302
 31
0.0
  0
LINE
  5
17565
330
747D
100
AcDbEntity
  8
部品1
100
AcDbLine
 10
4699.763991851094
 20
9819.944172279157
 30
0.0
 11
4671.763991851094
 21
9819.944172279157
 31
0.0
  0
LINE
  5
17566
330
747D
100
AcDbEntity
  8
部品1
100
AcDbLine
 10
4726.763991851127
 20
9874.944172279185
 30
0.0
 11
4726.763991851127
 21
9846.944172279187
 31
0.0
  0
LINE
  5
17567
330
747D
100
AcDbEntity
  8
部品1
100
AcDbLine
 10
4726.763991851094
 20
9874.944172279153
 30
0.0
 11
4726.763991851094
 21
9846.944172279153
 31
0.0
  0
LINE
  5
17568
330
747D
100
AcDbEntity
  8
部品1
100
AcDbLine
 10
4699.763991851101
 20
9399.944172279155
 30
0.0
 11
4671.763991851101
 21
9399.944172279155
 31
0.0
  0
DIMENSION
  5
17569
330
747D
100
AcDbEntity
  8
寸法
100
AcDbDimension
  2
*D16
 10
4726.763991851127
 20
10090.75239190416
 30
0.0
 11
4363.278710476854
 21
10090.75239190416
 31
0.0
 70
   160
 71
     5
 42
55.00000000003274
  3
INABA_S40G
100
AcDbAlignedDimension
 13
4671.763991851094
 23
9874.944172279185
 33
0.0
 14
4726.763991851127
 24
9874.944172279185
 34
0.0
100
AcDbRotatedDimension
1001
ACAD
1000
DSTYLE
1002
{
1002
}
  0
LINE
  5
1756A
330
747D
100
AcDbEntity
  8
部品1
100
AcDbLine
 10
4699.763991851127
 20
9846.944172279187
 30
0.0
 11
4936.763991851126
 21
9846.944172279188
 31
0.0
  0
DIMENSION
  5
1756B
330
747D
100
AcDbEntity
  8
寸法
100
AcDbDimension
  2
*D17
 10
5986.763991851129
 20
10090.75239190428
 30
0.0
 11
5356.763991851128
 21
10190.7642029279
 31
0.0
 70
    32
  1
3X420=<>
 71
     5
 42
1260.000000000002
  3
INABA_S40G
100
AcDbAlignedDimension
 13
4726.763991851127
 23
9874.944172279185
 33
0.0
 14
5986.763991851129
 24
9874.944172279279
 34
0.0
100
AcDbRotatedDimension
1001
ACAD
1000
DSTYLE
1002
{
1002
}
  0
LINE
  5
1756C
330
747D
100
AcDbEntity
  8
部品1
100
AcDbLine
 10
4671.763991851126
 20
9874.944172279185
 30
0.0
 11
6041.763991851128
 21
9874.944172279279
 31
0.0
  0
LINE
  5
1756D
330
747D
100
AcDbEntity
  8
部品1
100
AcDbLine
 10
4726.763991851127
 20
9846.944172279302
 30
0.0
 11
5146.763991851129
 21
9846.944172279291
 31
0.0
  0
LINE
  5
1756E
330
747D
100
AcDbEntity
  8
部品1
100
AcDbLine
 10
6013.763991851132
 20
8979.944172279283
 30
0.0
 11
6041.763991851133
 21
8979.944172279283
 31
0.0
  0
LINE
  5
1756F
330
747D
100
AcDbEntity
  8
部品1
100
AcDbLine
 10
6013.763991851132
 20
8559.944172279283
 30
0.0
 11
6041.763991851133
 21
8559.944172279283
 31
0.0
  0
LINE
  5
17570
330
747D
100
AcDbEntity
  8
部品1
100
AcDbLine
 10
6013.763991851132
 20
8139.944172279284
 30
0.0
 11
6041.763991851133
 21
8139.944172279284
 31
0.0
  0
LINE
  5
17571
330
747D
100
AcDbEntity
  8
部品1
100
AcDbLine
 10
6041.763991851103
 20
7664.944172279273
 30
0.0
 11
5986.763991851105
 21
7664.944172279271
 31
0.0
  0
LINE
  5
17572
330
747D
100
AcDbEntity
  8
部品1
100
AcDbLine
 10
5986.763991851103
 20
7719.944172279284
 30
0.0
 11
6041.763991851136
 21
7719.944172279284
 31
0.0
  0
LINE
  5
17573
330
747D
100
AcDbEntity
  8
部品1
100
AcDbLine
 10
5938.763991851104
 20
7690.944172279182
 30
0.0
 11
5986.763991851103
 21
7690.944172279181
 31
0.0
  0
LINE
  5
17574
330
747D
100
AcDbEntity
  8
部品1
 48
50.0
100
AcDbLine
 10
5938.763991851104
 20
7690.944172279182
 30
0.0
 11
5938.763991851104
 21
7699.944172279183
 31
0.0
  0
LINE
  5
17575
330
747D
100
AcDbEntity
  8
部品1
100
AcDbLine
 10
5938.763991851104
 20
7729.944172279182
 30
0.0
 11
5986.763991851105
 21
7729.944172279181
 31
0.0
  0
LINE
  5
17576
330
747D
100
AcDbEntity
  8
部品1
 48
50.0
100
AcDbLine
 10
5938.763991851104
 20
7729.944172279182
 30
0.0
 11
5938.763991851104
 21
7720.944172279182
 31
0.0
  0
LINE
  5
17577
330
747D
100
AcDbEntity
  8
部品1
100
AcDbLine
 10
5986.763991851103
 20
7700.94417227918
 30
0.0
 11
6009.763991851103
 21
7700.94417227918
 31
0.0
  0
LINE
  5
17578
330
747D
100
AcDbEntity
  8
部品1
 48
50.0
100
AcDbLine
 10
5976.763991851103
 20
7690.944172279181
 30
0.0
 11
5986.763991851103
 21
7669.944172279182
 31
0.0
  0
DIMENSION
  5
17579
330
747D
100
AcDbEntity
  8
寸法
100
AcDbDimension
  2
*D18
 10
6689.190337585515
 20
7664.944172279273
 30
0.0
 11
6689.190337585512
 21
7287.082705374412
 31
0.0
 70
   160
 71
     5
 42
54.99999999999636
  3
INABA_S40G
100
AcDbAlignedDimension
 13
6041.763991851103
 23
7719.944172279269
 33
0.0
 14
6041.763991851103
 24
7664.944172279273
 34
0.0
 50
90.0
100
AcDbRotatedDimension
1001
ACAD
1000
DSTYLE
1002
{
1002
}
  0
DIMENSION
  5
1757A
330
747D
100
AcDbEntity
  8
寸法
 48
50.0
100
AcDbDimension
  2
*D19
 10
5986.763991851105
 20
7130.513401513019
 30
0.0
 11
6350.249273225341
 21
7130.513401513019
 31
0.0
 70
   160
 71
     5
 42
54.99999999999818
  3
INABA_S40G
100
AcDbAlignedDimension
 13
6041.763991851103
 23
7664.944172279273
 33
0.0
 14
5986.763991851105
 24
7664.94417227927
 34
0.0
100
AcDbRotatedDimension
1001
ACAD
1000
DSTYLE
1002
{
1002
}
  0
DIMENSION
  5
1757B
330
747D
100
AcDbEntity
  8
寸法
 48
50.0
100
AcDbDimension
  2
*D20
 10
5938.763991851104
 20
7130.513401513018
 30
0.0
 11
5827.801094202356
 21
7230.513401513018
 31
0.0
 70
   160
 71
     5
 42
48.00000000000181
  3
INABA_S40G
100
AcDbAlignedDimension
 13
5986.763991851105
 23
7664.94417227927
 33
0.0
 14
5938.763991851104
 24
7690.944172279182
 34
0.0
100
AcDbRotatedDimension
1001
ACAD
1000
DSTYLE
1002
{
1070
   279
1070
     2
1002
}
  0
LINE
  5
1757C
330
747D
100
AcDbEntity
  8
部品1
100
AcDbLine
 10
4671.763991851104
 20
8979.944172279294
 30
0.0
 11
4699.763991851105
 21
8979.944172279294
 31
0.0
  0
LINE
  5
1757D
330
747D
100
AcDbEntity
  8
部品1
100
AcDbLine
 10
4671.763991851104
 20
8559.944172279294
 30
0.0
 11
4699.763991851105
 21
8559.944172279294
 31
0.0
  0
LINE
  5
1757E
330
747D
100
AcDbEntity
  8
部品1
100
AcDbLine
 10
4671.763991851104
 20
8139.944172279296
 30
0.0
 11
4699.763991851105
 21
8139.944172279296
 31
0.0
  0
LINE
  5
1757F
330
747D
100
AcDbEntity
  8
部品1
100
AcDbLine
 10
4699.76399185112
 20
7719.944172279157
 30
0.0
 11
4671.763991851119
 21
7719.944172279157
 31
0.0
  0
LINE
  5
17580
330
747D
100
AcDbEntity
  8
部品1
100
AcDbLine
 10
4699.763991851103
 20
7719.944172279143
 30
0.0
 11
4671.763991851119
 21
7719.944172279143
 31
0.0
  0
LINE
  5
17581
330
747D
100
AcDbEntity
  8
部品1
100
AcDbLine
 10
4726.763991851119
 20
7719.944172279106
 30
0.0
 11
4671.763991851119
 21
7719.944172279106
 31
0.0
  0
LINE
  5
17582
330
747D
100
AcDbEntity
  8
部品1
100
AcDbLine
 10
4726.763991851119
 20
7700.94417227918
 30
0.0
 11
4703.763991851121
 21
7700.94417227918
 31
0.0
  0
LINE
  5
17583
330
747D
100
AcDbEntity
  8
部品1
100
AcDbLine
 10
4774.763991851121
 20
7690.944172279182
 30
0.0
 11
4726.763991851121
 21
7690.944172279181
 31
0.0
  0
LINE
  5
17584
330
747D
100
AcDbEntity
  8
部品1
100
AcDbLine
 10
4774.763991851121
 20
7729.944172279182
 30
0.0
 11
4726.763991851121
 21
7729.944172279181
 31
0.0
  0
LINE
  5
17585
330
747D
100
AcDbEntity
  8
部品1
 48
50.0
100
AcDbLine
 10
4774.763991851121
 20
7729.944172279182
 30
0.0
 11
4774.763991851121
 21
7720.944172279182
 31
0.0
  0
LINE
  5
17586
330
747D
100
AcDbEntity
  8
部品1
 48
50.0
100
AcDbLine
 10
4774.763991851121
 20
7690.944172279182
 30
0.0
 11
4774.763991851121
 21
7699.944172279183
 31
0.0
  0
LINE
  5
17587
330
747D
100
AcDbEntity
  8
部品1
 48
50.0
100
AcDbLine
 10
4726.763991851121
 20
7729.944172279181
 30
0.0
 11
4726.763991851117
 21
7664.944172279182
 31
0.0
  0
LINE
  5
17588
330
747D
100
AcDbEntity
  8
部品1
 48
50.0
100
AcDbLine
 10
4736.763991851121
 20
7690.944172279181
 30
0.0
 11
4726.763991851121
 21
7669.944172279182
 31
0.0
  0
LINE
  5
17589
330
747D
100
AcDbEntity
  8
部品1
 48
50.0
100
AcDbLine
 10
4726.763991851121
 20
7700.94417227918
 30
0.0
 11
4703.763991851121
 21
7700.94417227918
 31
0.0
  0
LINE
  5
1758A
330
747D
100
AcDbEntity
  8
部品1
100
AcDbLine
 10
4726.763991851115
 20
7664.944172279182
 30
0.0
 11
4671.763991851121
 21
7664.944172279179
 31
0.0
  0
DIMENSION
  5
1758B
330
747D
100
AcDbEntity
  8
寸法
 48
50.0
100
AcDbDimension
  2
*D21
 10
4726.763991851117
 20
7130.513401513018
 30
0.0
 11
4887.665962851179
 21
7230.513401513018
 31
0.0
 70
   160
 71
     5
 42
48.00000000000363
  3
INABA_S40G
100
AcDbAlignedDimension
 13
4774.763991851121
 23
7690.944172279181
 33
0.0
 14
4726.763991851117
 24
7664.944172279182
 34
0.0
100
AcDbRotatedDimension
1001
ACAD
1000
DSTYLE
1002
{
1070
   279
1070
     2
1002
}
  0
DIMENSION
  5
1758C
330
747D
100
AcDbEntity
  8
寸法
 48
50.0
100
AcDbDimension
  2
*D22
 10
4671.763991851121
 20
7130.513401513018
 30
0.0
 11
4363.278710476882
 21
7130.513401513018
 31
0.0
 70
   160
 71
     5
 42
54.99999999999636
  3
INABA_S40G
100
AcDbAlignedDimension
 13
4726.763991851117
 23
7664.944172279182
 33
0.0
 14
4671.763991851121
 24
7664.944172279179
 34
0.0
100
AcDbRotatedDimension
1001
ACAD
1000
DSTYLE
1002
{
1002
}
  0
DIMENSION
  5
1758D
330
747D
100
AcDbEntity
  8
寸法
100
AcDbDimension
  2
*D23
 10
6041.763991851103
 20
6844.340405922143
 30
0.0
 11
5356.763991851113
 21
6944.340405922144
 31
0.0
 70
    32
 71
     5
 42
1369.999999999982
  3
INABA_S40G
100
AcDbAlignedDimension
 13
4671.763991851121
 23
7664.94417227911
 33
0.0
 14
6041.763991851103
 24
7664.944172279238
 34
0.0
100
AcDbRotatedDimension
1001
ACAD
1000
DSTYLE
1002
{
1002
}
  0
LINE
  5
1758E
330
747D
100
AcDbEntity
  8
部品1
 48
50.0
100
AcDbLine
 10
4738.763991851119
 20
7710.44417227918
 30
0.0
 11
5974.763991851105
 21
7710.44417227918
 31
0.0
  0
DIMENSION
  5
1758F
330
747D
100
AcDbEntity
  8
寸法
 48
50.0
100
AcDbDimension
  2
*D24
 10
4774.763991851121
 20
7130.513401513018
 30
0.0
 11
5356.763991851113
 21
7330.513401513018
 31
0.0
 70
    32
  1
有効開口部間口\P<>
 71
     5
 42
1163.999999999981
  3
INABA_S40G
100
AcDbAlignedDimension
 13
5938.763991851104
 23
7690.944172279182
 33
0.0
 14
4774.763991851121
 24
7690.944172279181
 34
0.0
100
AcDbRotatedDimension
1001
ACAD
1000
DSTYLE
1002
{
1070
    75
1070
     1
1070
   279
1070
     2
1002
}
  0
LINE
  5
17590
330
747D
100
AcDbEntity
  8
部品1
100
AcDbLine
 10
4699.763991851103
 20
7719.944172279139
 30
0.0
 11
4699.763991851116
 21
9846.944172279187
 31
0.0
  0
LINE
  5
17591
330
747D
100
AcDbEntity
  8
部品1
100
AcDbLine
 10
4671.763991851094
 20
9874.944172279153
 30
0.0
 11
4671.763991851121
 21
7664.944172279142
 31
0.0
  0
DIMENSION
  5
17592
330
747D
100
AcDbEntity
  8
寸法
100
AcDbDimension
  2
*D25
 10
6689.190337585536
 20
7719.944172279268
 30
0.0
 11
6589.178526561913
 21
8769.944172279279
 31
0.0
 70
    32
  1
5X420=<>
 71
     5
 42
2100.000000000015
  3
INABA_S40G
100
AcDbAlignedDimension
 13
6041.763991851128
 23
9819.944172279285
 33
0.0
 14
6041.763991851103
 24
7719.944172279269
 34
0.0
 50
90.0
100
AcDbRotatedDimension
1001
ACAD
1000
DSTYLE
1002
{
1002
}
  0
LINE
  5
17593
330
747D
100
AcDbEntity
  8
部品1
100
AcDbLine
 10
6041.763991851128
 20
9874.944172279279
 30
0.0
 11
6041.763991851103
 21
7664.944172279273
 31
0.0
  0
LINE
  5
17594
330
747D
100
AcDbEntity
  8
部品1
100
AcDbLine
 10
6013.763991851116
 20
9846.944172279279
 30
0.0
 11
6013.763991851105
 21
7719.944172279269
 31
0.0
  0
LINE
  5
17595
330
747D
100
AcDbEntity
  8
部品1
100
AcDbLine
 10
5986.76399185112
 20
9819.944172279143
 30
0.0
 11
5986.763991851105
 21
7664.94417227927
 31
0.0
  0
LINE
  5
17596
330
747D
100
AcDbEntity
  8
部品1
100
AcDbLine
 10
4726.763991851101
 20
9819.944172279157
 30
0.0
 11
4726.763991851119
 21
7729.944172279181
 31
0.0
  0
LINE
  5
17597
330
747D
100
AcDbEntity
  8
部品1
100
AcDbLine
 10
4751.763991851102
 20
9819.944172279157
 30
0.0
 11
4751.763991851119
 21
7729.944172279181
 31
0.0
  0
LINE
  5
17598
330
747D
100
AcDbEntity
  8
部品1
100
AcDbLine
 10
5961.763991851126
 20
9819.944172279143
 30
0.0
 11
5961.763991851105
 21
7729.944172279181
 31
0.0
  0
DIMENSION
  5
17599
330
747D
100
AcDbEntity
  8
寸法
100
AcDbDimension
  2
*D26
 10
7054.297279325173
 20
7664.944172279273
 30
0.0
 11
6954.285468301552
 21
8769.944172279279
 31
0.0
 70
    32
 71
     5
 42
2210.000000000007
  3
INABA_S40G
100
AcDbAlignedDimension
 13
6041.763991851128
 23
9874.944172279279
 33
0.0
 14
6041.763991851103
 24
7664.944172279273
 34
0.0
 50
90.0
100
AcDbRotatedDimension
1001
ACAD
1000
DSTYLE
1002
{
1002
}
  0
DIMENSION
  5
1759A
330
747D
100
AcDbEntity
  8
寸法
 48
50.0
100
AcDbDimension
  2
*D27
 10
6329.307094172868
 20
4827.416571881593
 30
0.0
 11
6329.307094172868
 21
5065.901853255833
 31
0.0
 70
   160
 71
     5
 42
164.9999999999991
  3
INABA_S40G
100
AcDbAlignedDimension
 13
6041.763991851121
 23
4662.416571881595
 33
0.0
 14
6041.763991851121
 24
4827.416571881594
 34
0.0
 50
90.0
100
AcDbRotatedDimension
1001
ACAD
1000
DSTYLE
1002
{
1002
}
  0
DIMENSION
  5
1759B
330
747D
100
AcDbEntity
  8
寸法
 48
50.0
100
AcDbDimension
  2
*D28
 10
6329.307094172868
 20
4662.416571881593
 30
0.0
 11
6469.476917419233
 21
4663.383771721252
 31
0.0
 70
   160
 71
     5
 42
27.00000000000091
  3
INABA_S40G
100
AcDbAlignedDimension
 13
6041.763991851121
 23
4635.416571881594
 33
0.0
 14
6041.763991851121
 24
4662.416571881595
 34
0.0
 50
90.0
100
AcDbRotatedDimension
1001
ACAD
1000
DSTYLE
1002
{
1070
   279
1070
     2
1002
}
  0
DIMENSION
  5
1759C
330
747D
100
AcDbEntity
  8
寸法
 48
50.0
100
AcDbDimension
  2
*D29
 10
6329.307094172868
 20
4635.416571881592
 30
0.0
 11
6229.307094172867
 21
3661.416571881595
 31
0.0
 70
    32
  1
有効開口部高サ <>
 71
     5
 42
1948.0
  3
INABA_S40G
100
AcDbAlignedDimension
 13
6041.763991851121
 23
2687.416571881594
 33
0.0
 14
6041.763991851121
 24
4635.416571881594
 34
0.0
 50
90.0
100
AcDbRotatedDimension
  0
LINE
  5
1759D
330
747D
100
AcDbEntity
  8
細線
100
AcDbLine
 10
5938.763991851121
 20
2697.416571881594
 30
0.0
 11
4774.763991851115
 21
2697.416571881594
 31
0.0
  0
LINE
  5
1759E
330
747D
100
AcDbEntity
  8
細線
100
AcDbLine
 10
4774.763991851117
 20
3217.416571881595
 30
0.0
 11
5938.76399185112
 21
3217.416571881595
 31
0.0
  0
LINE
  5
1759F
330
747D
100
AcDbEntity
  8
細線
100
AcDbLine
 10
4774.763991851117
 20
3152.416571881594
 30
0.0
 11
5938.76399185112
 21
3152.416571881594
 31
0.0
  0
LINE
  5
175A0
330
747D
100
AcDbEntity
  8
細線
100
AcDbLine
 10
4774.763991851117
 20
3087.416571881594
 30
0.0
 11
5938.76399185112
 21
3087.416571881594
 31
0.0
  0
LINE
  5
175A1
330
747D
100
AcDbEntity
  8
細線
100
AcDbLine
 10
4774.763991851117
 20
3022.416571881594
 30
0.0
 11
5938.76399185112
 21
3022.416571881594
 31
0.0
  0
LINE
  5
175A2
330
747D
100
AcDbEntity
  8
細線
100
AcDbLine
 10
4774.763991851117
 20
2957.416571881594
 30
0.0
 11
5938.76399185112
 21
2957.416571881594
 31
0.0
  0
LINE
  5
175A3
330
747D
100
AcDbEntity
  8
細線
100
AcDbLine
 10
4774.763991851117
 20
2892.416571881594
 30
0.0
 11
5938.76399185112
 21
2892.416571881594
 31
0.0
  0
LINE
  5
175A4
330
747D
100
AcDbEntity
  8
細線
100
AcDbLine
 10
4774.763991851117
 20
2827.416571881594
 30
0.0
 11
5938.76399185112
 21
2827.416571881594
 31
0.0
  0
LINE
  5
175A5
330
747D
100
AcDbEntity
  8
細線
100
AcDbLine
 10
4774.763991851117
 20
2762.416571881594
 30
0.0
 11
5938.76399185112
 21
2762.416571881594
 31
0.0
  0
LINE
  5
175A6
330
747D
100
AcDbEntity
  8
細線
100
AcDbLine
 10
4774.763991851117
 20
2697.416571881594
 30
0.0
 11
5938.76399185112
 21
2697.416571881594
 31
0.0
  0
LINE
  5
175A7
330
747D
100
AcDbEntity
  8
細線
100
AcDbLine
 10
4774.763991851117
 20
3867.416571881594
 30
0.0
 11
5938.76399185112
 21
3867.416571881594
 31
0.0
  0
LINE
  5
175A8
330
747D
100
AcDbEntity
  8
細線
100
AcDbLine
 10
4774.763991851117
 20
3802.416571881594
 30
0.0
 11
5938.76399185112
 21
3802.416571881594
 31
0.0
  0
LINE
  5
175A9
330
747D
100
AcDbEntity
  8
細線
100
AcDbLine
 10
4774.763991851117
 20
3737.416571881594
 30
0.0
 11
5938.76399185112
 21
3737.416571881594
 31
0.0
  0
LINE
  5
175AA
330
747D
100
AcDbEntity
  8
細線
100
AcDbLine
 10
4774.763991851117
 20
3672.416571881594
 30
0.0
 11
5938.76399185112
 21
3672.416571881594
 31
0.0
  0
LINE
  5
175AB
330
747D
100
AcDbEntity
  8
細線
100
AcDbLine
 10
4774.763991851117
 20
3607.416571881594
 30
0.0
 11
5938.76399185112
 21
3607.416571881594
 31
0.0
  0
LINE
  5
175AC
330
747D
100
AcDbEntity
  8
細線
100
AcDbLine
 10
4774.763991851117
 20
3542.416571881594
 30
0.0
 11
5938.76399185112
 21
3542.416571881594
 31
0.0
  0
LINE
  5
175AD
330
747D
100
AcDbEntity
  8
細線
100
AcDbLine
 10
4774.763991851117
 20
3477.416571881594
 30
0.0
 11
5938.76399185112
 21
3477.416571881594
 31
0.0
  0
LINE
  5
175AE
330
747D
100
AcDbEntity
  8
細線
100
AcDbLine
 10
4774.763991851117
 20
3412.416571881594
 30
0.0
 11
5938.76399185112
 21
3412.416571881594
 31
0.0
  0
LINE
  5
175AF
330
747D
100
AcDbEntity
  8
細線
100
AcDbLine
 10
4774.763991851117
 20
3347.416571881594
 30
0.0
 11
5938.76399185112
 21
3347.416571881594
 31
0.0
  0
LINE
  5
175B0
330
747D
100
AcDbEntity
  8
細線
100
AcDbLine
 10
4774.763991851117
 20
3282.416571881594
 30
0.0
 11
5938.76399185112
 21
3282.416571881594
 31
0.0
  0
LINE
  5
175B6
330
747D
100
AcDbEntity
  8
細線
100
AcDbLine
 10
4774.763991851117
 20
3932.416571881594
 30
0.0
 11
5938.76399185112
 21
3932.416571881594
 31
0.0
  0
LINE
  5
175B8
330
747D
100
AcDbEntity
  8
部品1
100
AcDbLine
 10
4671.763991851121
 20
4662.416571881593
 30
0.0
 11
6041.763991851121
 21
4662.416571881595
 31
0.0
  0
LINE
  5
175B9
330
747D
100
AcDbEntity
  8
破線
 48
5.0
100
AcDbLine
 10
4774.763991851119
 20
2437.4165718816
 30
0.0
 11
4726.763991851119
 21
2437.4165718816
 31
0.0
  0
LINE
  5
175BA
330
747D
100
AcDbEntity
  8
破線
 48
5.0
100
AcDbLine
 10
5986.763991851123
 20
2437.416571881594
 30
0.0
 11
5938.763991851121
 21
2437.416571881594
 31
0.0
  0
LINE
  5
175BB
330
747D
100
AcDbEntity
  8
破線
 48
5.0
100
AcDbLine
 10
5938.76399185112
 20
2687.416571881594
 30
0.0
 11
5938.763991851121
 21
2437.416571881594
 31
0.0
  0
LINE
  5
175BC
330
747D
100
AcDbEntity
  8
部品1
100
AcDbLine
 10
5938.763991851123
 20
4662.416571881595
 30
0.0
 11
5938.76399185112
 21
2687.416571881594
 31
0.0
  0
LINE
  5
175BD
330
747D
100
AcDbEntity
  8
破線
 48
5.0
100
AcDbLine
 10
4774.763991851121
 20
2687.416571881594
 30
0.0
 11
4774.763991851119
 21
2437.416571881599
 31
0.0
  0
LINE
  5
175BE
330
747D
100
AcDbEntity
  8
部品1
100
AcDbLine
 10
4774.763991851121
 20
4662.416571881593
 30
0.0
 11
4774.763991851121
 21
2687.416571881594
 31
0.0
  0
LINE
  5
175BF
330
747D
100
AcDbEntity
  8
破線
 48
5.0
100
AcDbLine
 10
4726.763991851119
 20
2337.416571881601
 30
0.0
 11
4671.763991851119
 21
2337.416571881601
 31
0.0
  0
LINE
  5
175C0
330
747D
100
AcDbEntity
  8
破線
 48
5.0
100
AcDbLine
 10
6041.763991851119
 20
2337.416571881594
 30
0.0
 11
5986.763991851121
 21
2337.416571881594
 31
0.0
  0
LINE
  5
175C1
330
747D
100
AcDbEntity
  8
破線
 48
5.0
100
AcDbLine
 10
4726.763991851121
 20
2687.416571881594
 30
0.0
 11
4726.763991851119
 21
2337.416571881594
 31
0.0
  0
LINE
  5
175C2
330
747D
100
AcDbEntity
  8
破線
 48
5.0
100
AcDbLine
 10
5986.76399185112
 20
2687.416571881594
 30
0.0
 11
5986.763991851121
 21
2337.416571881594
 31
0.0
  0
LWPOLYLINE
  5
175C4
330
747D
100
AcDbEntity
  8
部品1
100
AcDbPolyline
 90
        4
 70
     1
 43
0.0
 10
4975.028658736908
 20
6677.719135802921
 10
4975.028658736908
 20
6437.826814257388
 10
5738.499324965347
 20
6437.826814257388
 10
5738.499324965347
 20
6677.719135802921
  0
TEXT
  5
175C5
330
747D
100
AcDbEntity
  8
部品1
100
AcDbText
 10
5054.771521960677
 20
6484.825606584398
 30
0.0
 40
135.0
  1
平面図
  7
MSGOTHIC
100
AcDbText
  0
LWPOLYLINE
  5
175C6
330
747D
100
AcDbEntity
  8
部品1
100
AcDbPolyline
 90
        4
 70
     1
 43
0.0
 10
9538.745849087106
 20
1937.416571881601
 10
9538.745849087106
 20
1697.524250336068
 10
10302.21651531554
 20
1697.524250336068
 10
10302.21651531554
 20
1937.416571881601
  0
TEXT
  5
175C7
330
747D
100
AcDbEntity
  8
部品1
100
AcDbText
 10
9618.015203905445
 20
1744.523042663077
 30
0.0
 40
135.0
  1
側面図
  7
MSGOTHIC
100
AcDbText
  0
LWPOLYLINE
  5
175C8
330
747D
100
AcDbEntity
  8
部品1
100
AcDbPolyline
 90
        4
 70
     1
 43
0.0
 10
4975.028658736908
 20
1937.416571881601
 10
4975.028658736908
 20
1697.524250336068
 10
5738.499324965346
 20
1697.524250336068
 10
5738.499324965346
 20
1937.416571881601
  0
TEXT
  5
175C9
330
747D
100
AcDbEntity
  8
部品1
100
AcDbText
 10
5055.377315869593
 20
1744.523042663077
 30
0.0
 40
135.0
  1
正面図
  7
MSGOTHIC
100
AcDbText
  0
LINE
  5
175CB
330
747D
100
AcDbEntity
  8
破線
 48
5.0
100
AcDbLine
 10
4671.763991851121
 20
2587.416571881594
 30
0.0
 11
4671.763991851119
 21
2337.416571881594
 31
0.0
  0
LINE
  5
175CC
330
747D
100
AcDbEntity
  8
破線
 48
5.0
100
AcDbLine
 10
6041.763991851121
 20
2587.416571881594
 30
0.0
 11
6041.763991851121
 21
2337.416571881594
 31
0.0
  0
LINE
  5
175D3
330
747D
100
AcDbEntity
  8
部品1
100
AcDbLine
 10
6041.763991851121
 20
4921.416571881599
 30
0.0
 11
6041.763991851121
 21
2587.416571881594
 31
0.0
  0
LINE
  5
175D4
330
747D
100
AcDbEntity
  8
部品1
100
AcDbLine
 10
4726.763991851121
 20
4662.416571881593
 30
0.0
 11
4726.763991851121
 21
2687.416571881594
 31
0.0
  0
LINE
  5
175D5
330
747D
100
AcDbEntity
  8
部品1
100
AcDbLine
 10
5986.76399185112
 20
4662.416571881595
 30
0.0
 11
5986.76399185112
 21
2687.416571881594
 31
0.0
  0
LINE
  5
175D6
330
747D
100
AcDbEntity
  8
部品1
100
AcDbLine
 10
4671.763991851121
 20
4921.416571881599
 30
0.0
 11
4671.763991851121
 21
2587.416571881594
 31
0.0
  0
LINE
  5
175D7
330
747D
100
AcDbEntity
  8
部品1
100
AcDbLine
 10
4671.763991851121
 20
4827.416571881594
 30
0.0
 11
6041.763991851121
 21
4827.416571881594
 31
0.0
  0
LINE
  5
175D8
330
747D
100
AcDbEntity
  8
部品1
100
AcDbLine
 10
4671.763991851121
 20
2687.416571881594
 30
0.0
 11
6041.763991851121
 21
2687.416571881594
 31
0.0
  0
LINE
  5
175D9
330
747D
100
AcDbEntity
  8
部品1
100
AcDbLine
 10
3832.994400504738
 20
2717.320382449259
 30
0.0
 11
3757.994400504738
 21
2587.416571881594
 31
0.0
  0
TEXT
  5
175DA
330
747D
100
AcDbEntity
  8
部品1
100
AcDbText
 10
3861.099342629512
 20
2623.523475487496
 30
0.0
 40
125.0
  1
G.L
  7
MSGOTHIC
100
AcDbText
  0
LINE
  5
175DB
330
747D
100
AcDbEntity
  8
部品1
100
AcDbLine
 10
3757.994400504738
 20
2587.416571881594
 30
0.0
 11
3682.994400504738
 21
2717.320382449259
 31
0.0
  0
LINE
  5
175DC
330
747D
100
AcDbEntity
  8
部品1
100
AcDbLine
 10
3682.994400504738
 20
2717.320382449259
 30
0.0
 11
3832.994400504738
 21
2717.320382449259
 31
0.0
  0
LINE
  5
175DD
330
747D
100
AcDbEntity
  8
Ｇ．Ｌ
100
AcDbLine
 10
3583.497389180639
 20
2587.416571881594
 30
0.0
 11
12297.88448027429
 21
2587.416571881594
 31
0.0
  0
TEXT
  5
175DE
330
747D
100
AcDbEntity
  8
文字
 62
     7
 48
50.0
100
AcDbText
 10
14528.81784699908
 20
483.8967129911416
 30
0.0
 40
160.0
  1
FXN-1322H
  7
MSGOTHIC
100
AcDbText
  0
LINE
  5
178DA
330
747D
100
AcDbEntity
  8
補助
  6
PHANTOM
 62
   230
 48
50.0
100
AcDbLine
 10
140.0
 20
0.0
 30
0.0
 11
140.0
 21
11409.6
 31
0.0
  0
LINE
  5
17AB3
330
747D
100
AcDbEntity
  8
細線
100
AcDbLine
 10
4774.763991851117
 20
4582.416571881593
 30
0.0
 11
5938.76399185112
 21
4582.416571881593
 31
0.0
  0
LINE
  5
17AB4
330
747D
100
AcDbEntity
  8
細線
100
AcDbLine
 10
4774.763991851117
 20
3997.416571881594
 30
0.0
 11
5938.76399185112
 21
3997.416571881594
 31
0.0
  0
LINE
  5
17AB5
330
747D
100
AcDbEntity
  8
細線
100
AcDbLine
 10
4774.763991851117
 20
4062.416571881594
 30
0.0
 11
5938.76399185112
 21
4062.416571881594
 31
0.0
  0
LINE
  5
17AB6
330
747D
100
AcDbEntity
  8
細線
100
AcDbLine
 10
4774.763991851117
 20
4127.416571881593
 30
0.0
 11
5938.76399185112
 21
4127.416571881593
 31
0.0
  0
LINE
  5
17AB7
330
747D
100
AcDbEntity
  8
細線
100
AcDbLine
 10
4774.763991851117
 20
4192.416571881594
 30
0.0
 11
5938.76399185112
 21
4192.416571881594
 31
0.0
  0
LINE
  5
17AB8
330
747D
100
AcDbEntity
  8
細線
100
AcDbLine
 10
4774.763991851117
 20
4257.416571881594
 30
0.0
 11
5938.76399185112
 21
4257.416571881594
 31
0.0
  0
LINE
  5
17AB9
330
747D
100
AcDbEntity
  8
細線
100
AcDbLine
 10
4774.763991851117
 20
4322.416571881594
 30
0.0
 11
5938.76399185112
 21
4322.416571881594
 31
0.0
  0
LINE
  5
17ABA
330
747D
100
AcDbEntity
  8
細線
100
AcDbLine
 10
4774.763991851117
 20
4387.416571881593
 30
0.0
 11
5938.76399185112
 21
4387.416571881593
 31
0.0
  0
LINE
  5
17ABB
330
747D
100
AcDbEntity
  8
細線
100
AcDbLine
 10
4774.763991851117
 20
4452.416571881594
 30
0.0
 11
5938.76399185112
 21
4452.416571881594
 31
0.0
  0
LINE
  5
17ABC
330
747D
100
AcDbEntity
  8
細線
100
AcDbLine
 10
4774.763991851117
 20
4517.416571881594
 30
0.0
 11
5938.76399185112
 21
4517.416571881594
 31
0.0
  0
LINE
  5
17ABD
330
747D
100
AcDbEntity
  8
細線
100
AcDbLine
 10
4774.763991851114
 20
4647.416571881594
 30
0.0
 11
5938.763991851116
 21
4647.416571881594
 31
0.0
  0
TEXT
  5
17CA7
330
747D
100
AcDbEntity
  8
文字
 62
     7
 48
50.0
100
AcDbText
 10
15022.63965474517
 20
10760.01374588372
 30
0.0
 40
100.0
  1
F12         1.0,1.2
  7
STYLE1
100
AcDbText
  0
TEXT
  5
17CAC
330
747D
100
AcDbEntity
  8
文字
 62
     7
 48
50.0
100
AcDbText
 10
15022.63965474516
 20
9230.013745883727
 30
0.0
 40
100.0
  1
F12            0.7
  7
STYLE1
100
AcDbText
  0
ENDSEC
  0
SECTION
  2
OBJECTS
  0
DICTIONARY
  5
7471
330
0
100
AcDbDictionary
281
     1
  3
ACAD_COLOR
350
166AE
  3
ACAD_GROUP
350
7472
  3
ACAD_LAYOUT
350
166AF
  3
ACAD_MATERIAL
350
166AD
  3
ACAD_MLINESTYLE
350
7473
  3
ACAD_PLOTSETTINGS
350
166B0
  3
ACAD_PLOTSTYLENAME
350
166AB
  3
ACDBHEADERROUNDTRIPXREC
350
17D39
  3
AcDbVariableDictionary
350
16F8D
  3
CONTENTDICTIONARY
350
E71C
  3
DRAWINGVARIABLESDICT
350
F3B9
  0
DICTIONARY
  5
172E1
330
7467
100
AcDbDictionary
280
     1
281
     1
  3
ACAD_LAYERSTATES
360
172E2
  0
DICTIONARY
  5
166AE
102
{ACAD_REACTORS
330
7471
102
}
330
7471
100
AcDbDictionary
281
     1
  0
DICTIONARY
  5
7472
102
{ACAD_REACTORS
330
7471
102
}
330
7471
100
AcDbDictionary
281
     1
  0
DICTIONARY
  5
166AF
102
{ACAD_REACTORS
330
7471
102
}
330
7471
100
AcDbDictionary
281
     1
  3
Model
350
166B1
  3
レイアウト1
350
166B2
  0
DICTIONARY
  5
166AD
102
{ACAD_REACTORS
330
7471
102
}
330
7471
100
AcDbDictionary
281
     1
  0
DICTIONARY
  5
7473
102
{ACAD_REACTORS
330
7471
102
}
330
7471
100
AcDbDictionary
281
     1
  3
STANDARD
350
7480
  0
DICTIONARY
  5
166B0
102
{ACAD_REACTORS
330
7471
102
}
330
7471
100
AcDbDictionary
281
     1
  0
ACDBDICTIONARYWDFLT
  5
166AB
102
{ACAD_REACTORS
330
7471
102
}
330
7471
100
AcDbDictionary
281
     1
  3
Normal
350
166AC
100
AcDbDictionaryWithDefault
340
166AC
  0
DICTIONARY
  5
17D39
102
{ACAD_REACTORS
330
7471
102
}
330
7471
100
AcDbDictionary
281
     1
  3
COLORDICT
350
17D3B
  3
MATERIALDICT
350
17D3A
  0
DICTIONARY
  5
16F8D
102
{ACAD_REACTORS
330
7471
102
}
330
7471
100
AcDbDictionary
281
     1
  3
DIMASSOC
350
16F8E
  3
PROJECTNAME
350
16F8F
  0
DICTIONARY
  5
E71C
102
{ACAD_REACTORS
330
7471
102
}
330
7471
100
AcDbDictionary
281
     1
  0
DICTIONARY
  5
F3B9
102
{ACAD_REACTORS
330
7471
102
}
330
7471
100
AcDbDictionary
281
     1
1001
DRAWINGVARIABLESXDATA
1000
POLARMODE
1000
1
  0
DICTIONARY
  5
172E2
102
{ACAD_REACTORS
330
172E1
102
}
330
172E1
100
AcDbDictionary
281
     1
  0
LAYOUT
  5
166B1
102
{ACAD_XDICTIONARY
360
17D3C
102
}
102
{ACAD_REACTORS
330
166AF
102
}
330
166AF
100
AcDbPlotSettings
  1

  2
Canon iR C3880/C4580 LIPSLX
  4
A3
  6

 40
5.873749732971191
 41
5.873747825622558
 42
5.873748779296875
 43
5.873748779296875
 44
296.9259948730469
 45
419.9466552734374
 46
0.0
 47
0.0
 48
0.0
 49
0.0
140
0.0
141
0.0
142
1.0
143
40.0
 70
 11952
 72
     1
 73
     1
 74
     2
  7
inaba.ctb
 75
    24
147
0.025
148
0.0
149
0.0
100
AcDbLayout
  1
Model
 70
     1
 71
     0
 10
0.0
 20
0.0
 11
12.0
 21
9.0
 12
0.0
 22
0.0
 32
0.0
 14
0.0
 24
0.0
 34
0.0
 15
0.0
 25
0.0
 35
0.0
146
0.0
 13
0.0
 23
0.0
 33
0.0
 16
1.0
 26
0.0
 36
0.0
 17
0.0
 27
1.0
 37
0.0
 76
     0
330
747D
  0
LAYOUT
  5
166B2
102
{ACAD_XDICTIONARY
360
17D3E
102
}
102
{ACAD_REACTORS
330
166AF
102
}
330
166AF
100
AcDbPlotSettings
  1

  2
EPSON LP-7000C
  4

  6

 40
0.0
 41
0.0
 42
0.0
 43
0.0
 44
0.0
 45
0.0
 46
0.0
 47
0.0
 48
0.0
 49
0.0
140
0.0
141
0.0
142
1.0
143
1.0
 70
   688
 72
     0
 73
     0
 74
     5
  7
inaba.ctb
 75
    16
147
1.0
148
0.0
149
0.0
100
AcDbLayout
  1
レイアウト1
 70
     0
 71
     1
 10
0.0
 20
0.0
 11
420.0
 21
297.0
 12
0.0
 22
0.0
 32
0.0
 14
1.000000000000000E+20
 24
1.000000000000000E+20
 34
1.000000000000000E+20
 15
-1.000000000000000E+20
 25
-1.000000000000000E+20
 35
-1.000000000000000E+20
146
0.0
 13
0.0
 23
0.0
 33
0.0
 16
1.0
 26
0.0
 36
0.0
 17
0.0
 27
1.0
 37
0.0
 76
     0
330
747A
  0
MLINESTYLE
  5
7480
102
{ACAD_REACTORS
330
7473
102
}
330
7473
100
AcDbMlineStyle
  2
STANDARD
 70
     0
  3

 62
     0
 51
90.0
 52
90.0
 71
     2
 49
0.5
 62
   256
  6
BYLAYER
 49
-0.5
 62
   256
  6
BYLAYER
  0
ACDBPLACEHOLDER
  5
166AC
102
{ACAD_REACTORS
330
166AB
102
}
330
166AB
  0
XRECORD
  5
17D3B
102
{ACAD_REACTORS
330
17D39
102
}
330
17D39
100
AcDbXrecord
280
     1
340
166AE
  0
XRECORD
  5
17D3A
102
{ACAD_REACTORS
330
17D39
102
}
330
17D39
100
AcDbXrecord
280
     1
340
166AD
  0
DICTIONARYVAR
  5
16F8E
102
{ACAD_REACTORS
330
16F8D
102
}
330
16F8D
100
DictionaryVariables
280
     0
  1
1
  0
DICTIONARYVAR
  5
16F8F
102
{ACAD_REACTORS
330
16F8D
102
}
330
16F8D
100
DictionaryVariables
280
     0
  1

  0
DICTIONARY
  5
17D3C
330
166B1
100
AcDbDictionary
280
     1
281
     1
  3
ACAD_XREC_ROUNDTRIP
360
17D3D
  0
DICTIONARY
  5
17D3E
330
166B2
100
AcDbDictionary
280
     1
281
     1
  3
ACAD_XREC_ROUNDTRIP
360
17D3F
  0
XRECORD
  5
17D3D
102
{ACAD_REACTORS
330
17D3C
102
}
330
17D3C
100
AcDbXrecord
280
     1
102
SHADEPLOT
 70
     0
102
SHADEPLOTRESLEVEL
 70
     2
102
SHADEPLOTCUSTOMDPI
 70
   300
  0
XRECORD
  5
17D3F
102
{ACAD_REACTORS
330
17D3E
102
}
330
17D3E
100
AcDbXrecord
280
     1
102
SHADEPLOT
 70
     0
102
SHADEPLOTRESLEVEL
 70
     2
102
SHADEPLOTCUSTOMDPI
 70
   300
  0
ENDSEC
  0
EOF
