  0
SECTION
  2
HEADER
  9
$ACADVER
  1
AC1015
  9
$ACADMAINTVER
 70
    20
  9
$DWGCODEPAGE
  3
ANSI_932
  9
$INSBASE
 10
0.0
 20
0.0
 30
0.0
  9
$EXTMIN
 10
174.9999999999993
 20
-0.0000075012905659
 30
0.0
  9
$EXTMAX
 10
20384.0
 20
14262.0
 30
0.0
  9
$LIMMIN
 10
0.0
 20
0.0
  9
$LIMMAX
 10
21000.0
 20
14850.0
  9
$ORTHOMODE
 70
     0
  9
$REGENMODE
 70
     1
  9
$FILLMODE
 70
     1
  9
$QTEXTMODE
 70
     0
  9
$MIRRTEXT
 70
     1
  9
$LTSCALE
 40
20.0
  9
$ATTMODE
 70
     1
  9
$TEXTSIZE
 40
150.0
  9
$TRACEWID
 40
1.0
  9
$TEXTSTYLE
  7
STYLE1
  9
$CLAYER
  8
寸法
  9
$CELTYPE
  6
BYLAYER
  9
$CECOLOR
 62
   256
  9
$CELTSCALE
 40
50.0
  9
$DISPSILH
 70
     0
  9
$DIMSCALE
 40
0.0
  9
$DIMASZ
 40
125.0
  9
$DIMEXO
 40
25.0
  9
$DIMDLI
 40
7.0
  9
$DIMRND
 40
0.0
  9
$DIMDLE
 40
0.0
  9
$DIMEXE
 40
75.0
  9
$DIMTP
 40
0.0
  9
$DIMTM
 40
0.0
  9
$DIMTXT
 40
150.0
  9
$DIMCEN
 40
0.0
  9
$DIMTSZ
 40
0.0
  9
$DIMTOL
 70
     0
  9
$DIMLIM
 70
     0
  9
$DIMTIH
 70
     0
  9
$DIMTOH
 70
     0
  9
$DIMSE1
 70
     0
  9
$DIMSE2
 70
     0
  9
$DIMTAD
 70
     3
  9
$DIMZIN
 70
     8
  9
$DIMBLK
  1

  9
$DIMASO
 70
     1
  9
$DIMSHO
 70
     1
  9
$DIMPOST
  1

  9
$DIMAPOST
  1

  9
$DIMALT
 70
     0
  9
$DIMALTD
 70
     2
  9
$DIMALTF
 40
0.0394
  9
$DIMLFAC
 40
1.0
  9
$DIMTOFL
 70
     1
  9
$DIMTVP
 40
0.0
  9
$DIMTIX
 70
     1
  9
$DIMSOXD
 70
     0
  9
$DIMSAH
 70
     1
  9
$DIMBLK1
  1
DOTSMALL
  9
$DIMBLK2
  1
DOTSMALL
  9
$DIMSTYLE
  2
INABA_S50G
  9
$DIMCLRD
 70
     0
  9
$DIMCLRE
 70
     0
  9
$DIMCLRT
 70
     7
  9
$DIMTFAC
 40
1.0
  9
$DIMGAP
 40
25.0
  9
$DIMJUST
 70
     0
  9
$DIMSD1
 70
     0
  9
$DIMSD2
 70
     0
  9
$DIMTOLJ
 70
     1
  9
$DIMTZIN
 70
     0
  9
$DIMALTZ
 70
     0
  9
$DIMALTTZ
 70
     0
  9
$DIMUPT
 70
     0
  9
$DIMDEC
 70
     1
  9
$DIMTDEC
 70
     4
  9
$DIMALTU
 70
     2
  9
$DIMALTTD
 70
     2
  9
$DIMTXSTY
  7
STYLE1
  9
$DIMAUNIT
 70
     0
  9
$DIMADEC
 70
     0
  9
$DIMALTRND
 40
0.0
  9
$DIMAZIN
 70
     0
  9
$DIMDSEP
 70
    46
  9
$DIMATFIT
 70
     3
  9
$DIMFRAC
 70
     0
  9
$DIMLDRBLK
  1
DOTSMALL
  9
$DIMLUNIT
 70
     2
  9
$DIMLWD
 70
    -2
  9
$DIMLWE
 70
    -2
  9
$DIMTMOVE
 70
     0
  9
$LUNITS
 70
     2
  9
$LUPREC
 70
     1
  9
$SKETCHINC
 40
1.0
  9
$FILLETRAD
 40
5.0
  9
$AUNITS
 70
     0
  9
$AUPREC
 70
     0
  9
$MENU
  1
acad
  9
$ELEVATION
 40
0.0
  9
$PELEVATION
 40
0.0
  9
$THICKNESS
 40
0.0
  9
$LIMCHECK
 70
     0
  9
$CHAMFERA
 40
0.0
  9
$CHAMFERB
 40
0.0
  9
$CHAMFERC
 40
0.0
  9
$CHAMFERD
 40
0.0
  9
$SKPOLY
 70
     0
  9
$TDCREATE
 40
2451376.453362153
  9
$TDUCREATE
 40
2451376.078362153
  9
$TDUPDATE
 40
2455569.654930012
  9
$TDUUPDATE
 40
2455569.279930012
  9
$TDINDWG
 40
2.2456063426
  9
$TDUSRTIMER
 40
2.2456063426
  9
$USRTIMER
 70
     1
  9
$ANGBASE
 50
0.0
  9
$ANGDIR
 70
     0
  9
$PDMODE
 70
     3
  9
$PDSIZE
 40
2.0
  9
$PLINEWID
 40
0.0
  9
$SPLFRAME
 70
     0
  9
$SPLINETYPE
 70
     6
  9
$SPLINESEGS
 70
     8
  9
$HANDSEED
  5
280D5
  9
$SURFTAB1
 70
     6
  9
$SURFTAB2
 70
     6
  9
$SURFTYPE
 70
     6
  9
$SURFU
 70
     6
  9
$SURFV
 70
     6
  9
$UCSBASE
  2

  9
$UCSNAME
  2

  9
$UCSORG
 10
0.0
 20
0.0
 30
0.0
  9
$UCSXDIR
 10
1.0
 20
0.0
 30
0.0
  9
$UCSYDIR
 10
0.0
 20
1.0
 30
0.0
  9
$UCSORTHOREF
  2

  9
$UCSORTHOVIEW
 70
     0
  9
$UCSORGTOP
 10
0.0
 20
0.0
 30
0.0
  9
$UCSORGBOTTOM
 10
0.0
 20
0.0
 30
0.0
  9
$UCSORGLEFT
 10
0.0
 20
0.0
 30
0.0
  9
$UCSORGRIGHT
 10
0.0
 20
0.0
 30
0.0
  9
$UCSORGFRONT
 10
0.0
 20
0.0
 30
0.0
  9
$UCSORGBACK
 10
0.0
 20
0.0
 30
0.0
  9
$PUCSBASE
  2

  9
$PUCSNAME
  2

  9
$PUCSORG
 10
0.0
 20
0.0
 30
0.0
  9
$PUCSXDIR
 10
1.0
 20
0.0
 30
0.0
  9
$PUCSYDIR
 10
0.0
 20
1.0
 30
0.0
  9
$PUCSORTHOREF
  2

  9
$PUCSORTHOVIEW
 70
     0
  9
$PUCSORGTOP
 10
0.0
 20
0.0
 30
0.0
  9
$PUCSORGBOTTOM
 10
0.0
 20
0.0
 30
0.0
  9
$PUCSORGLEFT
 10
0.0
 20
0.0
 30
0.0
  9
$PUCSORGRIGHT
 10
0.0
 20
0.0
 30
0.0
  9
$PUCSORGFRONT
 10
0.0
 20
0.0
 30
0.0
  9
$PUCSORGBACK
 10
0.0
 20
0.0
 30
0.0
  9
$USERI1
 70
     0
  9
$USERI2
 70
     0
  9
$USERI3
 70
     0
  9
$USERI4
 70
     0
  9
$USERI5
 70
     0
  9
$USERR1
 40
0.0
  9
$USERR2
 40
0.0
  9
$USERR3
 40
0.0
  9
$USERR4
 40
0.0
  9
$USERR5
 40
0.0
  9
$WORLDVIEW
 70
     1
  9
$SHADEDGE
 70
     3
  9
$SHADEDIF
 70
    70
  9
$TILEMODE
 70
     1
  9
$MAXACTVP
 70
    16
  9
$PINSBASE
 10
0.0
 20
0.0
 30
0.0
  9
$PLIMCHECK
 70
     0
  9
$PEXTMIN
 10
1.000000000000000E+20
 20
1.000000000000000E+20
 30
1.000000000000000E+20
  9
$PEXTMAX
 10
-1.000000000000000E+20
 20
-1.000000000000000E+20
 30
-1.000000000000000E+20
  9
$PLIMMIN
 10
0.0
 20
0.0
  9
$PLIMMAX
 10
420.0
 20
297.0
  9
$UNITMODE
 70
     0
  9
$VISRETAIN
 70
     0
  9
$PLINEGEN
 70
     0
  9
$PSLTSCALE
 70
     0
  9
$TREEDEPTH
 70
  3020
  9
$CMLSTYLE
  2
STANDARD
  9
$CMLJUST
 70
     0
  9
$CMLSCALE
 40
1.0
  9
$PROXYGRAPHICS
 70
     1
  9
$MEASUREMENT
 70
     1
  9
$CELWEIGHT
370
    -1
  9
$ENDCAPS
280
     0
  9
$JOINSTYLE
280
     0
  9
$LWDISPLAY
290
     0
  9
$INSUNITS
 70
     0
  9
$HYPERLINKBASE
  1

  9
$STYLESHEET
  1
inaba.ctb
  9
$XEDIT
290
     1
  9
$CEPSNTYPE
380
     0
  9
$PSTYLEMODE
290
     1
  9
$FINGERPRINTGUID
  2
{8A9045F4-6790-4200-B653-50126A12A1CF}
  9
$VERSIONGUID
  2
{38E6F1B6-2FDA-44BB-828D-222F08930126}
  9
$EXTNAMES
290
     1
  9
$PSVPSCALE
 40
0.0
  9
$OLESTARTUP
290
     0
  0
ENDSEC
  0
SECTION
  2
CLASSES
  0
CLASS
  1
DICTIONARYVAR
  2
AcDbDictionaryVar
  3
ObjectDBX Classes
 90
        0
280
     0
281
     0
  0
CLASS
  1
ACDBDICTIONARYWDFLT
  2
AcDbDictionaryWithDefault
  3
ObjectDBX Classes
 90
        0
280
     0
281
     0
  0
CLASS
  1
ACDBPLACEHOLDER
  2
AcDbPlaceHolder
  3
ObjectDBX Classes
 90
        0
280
     0
281
     0
  0
CLASS
  1
LAYOUT
  2
AcDbLayout
  3
ObjectDBX Classes
 90
        0
280
     0
281
     0
  0
ENDSEC
  0
SECTION
  2
TABLES
  0
TABLE
  2
VPORT
  5
746D
330
0
100
AcDbSymbolTable
 70
     2
  0
VPORT
  5
280CD
330
746D
100
AcDbSymbolTableRecord
100
AcDbViewportTableRecord
  2
*Active
 70
     0
 10
0.0
 20
0.0
 11
1.0
 21
1.0
 12
14182.78123330126
 22
7130.877875661379
 13
0.0
 23
0.0
 14
500.0
 24
500.0
 15
500.0
 25
500.0
 16
0.0
 26
0.0
 36
1.0
 17
0.0
 27
0.0
 37
0.0
 40
14399.17015742114
 41
2.234800838574423
 42
50.0
 43
0.0
 44
0.0
 50
0.0
 51
0.0
 71
     0
 72
     0
 73
     1
 74
     0
 75
     0
 76
     0
 77
     0
 78
     0
281
     0
 65
     1
110
0.0
120
0.0
130
0.0
111
1.0
121
0.0
131
0.0
112
0.0
122
1.0
132
0.0
 79
     0
146
0.0
  0
ENDTAB
  0
TABLE
  2
LTYPE
  5
746A
330
0
100
AcDbSymbolTable
 70
     4
  0
LTYPE
  5
7477
330
746A
100
AcDbSymbolTableRecord
100
AcDbLinetypeTableRecord
  2
BYBLOCK
 70
     0
  3

 72
    65
 73
     0
 40
0.0
  0
LTYPE
  5
7478
330
746A
100
AcDbSymbolTableRecord
100
AcDbLinetypeTableRecord
  2
BYLAYER
 70
     0
  3

 72
    65
 73
     0
 40
0.0
  0
LTYPE
  5
7479
330
746A
100
AcDbSymbolTableRecord
100
AcDbLinetypeTableRecord
  2
CONTINUOUS
 70
     0
  3
Solid line
 72
    65
 73
     0
 40
0.0
  0
LTYPE
  5
7816
330
746A
100
AcDbSymbolTableRecord
100
AcDbLinetypeTableRecord
  2
CENTER
 70
     0
  3
____ _ ____ _ ____ _ ____ _ ____ _ ____ _ ____ 
 72
    65
 73
     4
 40
2.0
 49
1.25
 74
     0
 49
-0.25
 74
     0
 49
0.25
 74
     0
 49
-0.25
 74
     0
  0
LTYPE
  5
781A
330
746A
100
AcDbSymbolTableRecord
100
AcDbLinetypeTableRecord
  2
HIDDEN
 70
     0
  3
__ __ __ __ __ __ __ __ __ __ __ __ __ __ __ __
 72
    65
 73
     2
 40
0.375
 49
0.25
 74
     0
 49
-0.125
 74
     0
  0
LTYPE
  5
781B
330
746A
100
AcDbSymbolTableRecord
100
AcDbLinetypeTableRecord
  2
PHANTOM
 70
     0
  3
______  __  __  ______  __  __  ______  __  __ 
 72
    65
 73
     6
 40
2.5
 49
1.25
 74
     0
 49
-0.25
 74
     0
 49
0.25
 74
     0
 49
-0.25
 74
     0
 49
0.25
 74
     0
 49
-0.25
 74
     0
  0
ENDTAB
  0
TABLE
  2
LAYER
  5
7467
102
{ACAD_XDICTIONARY
360
2678E
102
}
330
0
100
AcDbSymbolTable
 70
    12
  0
LAYER
  5
7474
330
7467
100
AcDbSymbolTableRecord
100
AcDbLayerTableRecord
  2
0
 70
     0
 62
     7
  6
CONTINUOUS
370
    -3
390
1BE95
  0
LAYER
  5
DEB2
330
7467
100
AcDbSymbolTableRecord
100
AcDbLayerTableRecord
  2
センター
 70
     0
 62
     3
  6
CENTER
370
    -3
390
1BE95
  0
LAYER
  5
DEB3
330
7467
100
AcDbSymbolTableRecord
100
AcDbLayerTableRecord
  2
寸法
 70
     0
 62
     4
  6
CONTINUOUS
370
    -3
390
1BE95
  0
LAYER
  5
DEB4
330
7467
100
AcDbSymbolTableRecord
100
AcDbLayerTableRecord
  2
部品1
 70
     0
 62
     7
  6
CONTINUOUS
370
    -3
390
1BE95
  0
LAYER
  5
DEB5
330
7467
100
AcDbSymbolTableRecord
100
AcDbLayerTableRecord
  2
補助
 70
     0
 62
    -1
  6
CONTINUOUS
370
    -3
390
1BE95
  0
LAYER
  5
DEB6
330
7467
100
AcDbSymbolTableRecord
100
AcDbLayerTableRecord
  2
文字
 70
     0
 62
     7
  6
CONTINUOUS
370
    -3
390
1BE95
  0
LAYER
  5
F255
330
7467
100
AcDbSymbolTableRecord
100
AcDbLayerTableRecord
  2
DEFPOINTS
 70
     0
 62
     7
  6
CONTINUOUS
290
     0
370
    -3
390
1BE95
  0
LAYER
  5
10B54
330
7467
100
AcDbSymbolTableRecord
100
AcDbLayerTableRecord
  2
仕様書枠
 70
     0
 62
   230
  6
CONTINUOUS
370
    -3
390
1BE95
  0
LAYER
  5
1173F
330
7467
100
AcDbSymbolTableRecord
100
AcDbLayerTableRecord
  2
細線
 70
     0
 62
     5
  6
CONTINUOUS
370
    -3
390
1BE95
  0
LAYER
  5
1180C
330
7467
100
AcDbSymbolTableRecord
100
AcDbLayerTableRecord
  2
想像線
 70
     0
 62
     6
  6
PHANTOM
370
    -3
390
1BE95
  0
LAYER
  5
1E63D
330
7467
100
AcDbSymbolTableRecord
100
AcDbLayerTableRecord
  2
点線
 70
     0
 62
     2
  6
HIDDEN
370
    -3
390
1BE95
  0
LAYER
  5
2678C
330
7467
100
AcDbSymbolTableRecord
100
AcDbLayerTableRecord
  2
Ｇ．Ｌ
 70
     0
 62
    30
  6
CONTINUOUS
370
    -3
390
1BE95
  0
ENDTAB
  0
TABLE
  2
STYLE
  5
7468
330
0
100
AcDbSymbolTable
 70
     5
  0
STYLE
  5
7475
330
7468
100
AcDbSymbolTableRecord
100
AcDbTextStyleTableRecord
  2
STANDARD
 70
     0
 40
0.0
 41
1.0
 50
0.0
 71
     0
 42
4.0
  3
txt
  4
C:\AutoCAD LT\bigfont.shx
  0
STYLE
  5
763C
330
7468
100
AcDbSymbolTableRecord
100
AcDbTextStyleTableRecord
  2
MSMINCHO
 70
     0
 40
0.0
 41
1.0
 50
0.0
 71
     0
 42
1.199999999999999
  3
MS PMincho.ttf
  4

1001
ACAD
1000
MS PMincho
1071
    32786
  0
STYLE
  5
F706
330
7468
100
AcDbSymbolTableRecord
100
AcDbTextStyleTableRecord
  2
STYLE1
 70
     0
 40
0.0
 41
1.0
 50
0.0
 71
     0
 42
150.0
  3
isocp.shx
  4
bigfont.shx
  0
STYLE
  5
103BF
330
7468
100
AcDbSymbolTableRecord
100
AcDbTextStyleTableRecord
  2
STYLE2
 70
     0
 40
0.0
 41
1.0
 50
0.0
 71
     0
 42
100.0
  3
MS PGothic.ttf
  4

1001
ACAD
1000
MS PGothic
1071
    32818
  0
STYLE
  5
2678D
330
7468
100
AcDbSymbolTableRecord
100
AcDbTextStyleTableRecord
  2
STYLE3
 70
     0
 40
0.0
 41
1.0
 50
0.0
 71
     0
 42
100.0
  3
DFPGothic-EB.ttf
  4

1001
ACAD
1000
DFPGothic-EB
1071
    32818
  0
ENDTAB
  0
TABLE
  2
VIEW
  5
746B
330
0
100
AcDbSymbolTable
 70
     0
  0
ENDTAB
  0
TABLE
  2
UCS
  5
746C
330
0
100
AcDbSymbolTable
 70
     0
  0
ENDTAB
  0
TABLE
  2
APPID
  5
746E
330
0
100
AcDbSymbolTable
 70
     6
  0
APPID
  5
7476
330
746E
100
AcDbSymbolTableRecord
100
AcDbRegAppTableRecord
  2
ACAD
 70
     0
  0
APPID
  5
DEA9
330
746E
100
AcDbSymbolTableRecord
100
AcDbRegAppTableRecord
  2
CONTENTBLOCKICON
 70
     0
  0
APPID
  5
DEAA
330
746E
100
AcDbSymbolTableRecord
100
AcDbRegAppTableRecord
  2
CONTENTBLOCKDESCRIPTION
 70
     0
  0
APPID
  5
E71D
330
746E
100
AcDbSymbolTableRecord
100
AcDbRegAppTableRecord
  2
CONTENTTABDATA
 70
     0
  0
APPID
  5
E71E
330
746E
100
AcDbSymbolTableRecord
100
AcDbRegAppTableRecord
  2
CONTENTCURRENTTAB
 70
     0
  0
APPID
  5
F3BA
330
746E
100
AcDbSymbolTableRecord
100
AcDbRegAppTableRecord
  2
DRAWINGVARIABLESXDATA
 70
     0
  0
ENDTAB
  0
TABLE
  2
DIMSTYLE
  5
746F
330
0
100
AcDbSymbolTable
 70
     4
100
AcDbDimStyleTable
 71
     3
340
F71F
340
24575
340
214DF
  0
DIMSTYLE
105
F71F
102
{ACAD_REACTORS
330
27AA7
330
27AA8
330
27AA9
330
27ABB
330
27ABC
330
27ABD
330
27ABE
330
27ABF
330
27AC0
330
27B2D
330
27B2E
330
27B2F
330
27B30
330
27D30
330
27D3F
102
}
330
746F
100
AcDbSymbolTableRecord
100
AcDbDimStyleTableRecord
  2
INABA_S50G
 70
     0
 40
0.0
 41
125.0
 42
25.0
 43
7.0
 44
75.0
 73
     0
 74
     0
 77
     3
 78
     8
140
150.0
141
0.0
143
0.0394
147
25.0
172
     1
173
     1
174
     1
178
     7
271
     1
340
F706
341
F770
343
F770
344
F770
  0
DIMSTYLE
105
214DF
330
746F
100
AcDbSymbolTableRecord
100
AcDbDimStyleTableRecord
  2
INABA_S50G詳細用
 70
     0
 40
0.0
 41
125.0
 42
25.0
 43
7.0
 44
35.0
 73
     0
 74
     0
 77
     3
 78
     8
140
150.0
141
0.0
143
0.0394
144
0.5
147
25.0
172
     1
173
     1
178
     7
271
     1
272
     1
340
F706
341
11750
343
F770
344
F770
  0
DIMSTYLE
105
24575
330
746F
100
AcDbSymbolTableRecord
100
AcDbDimStyleTableRecord
  2
INABA_S50G詳細S20用
 70
     0
 40
0.0
 41
125.0
 42
25.0
 43
7.0
 44
35.0
 73
     0
 74
     0
 77
     3
 78
     8
140
150.0
141
0.0
143
0.0394
144
0.4
147
25.0
172
     1
173
     1
178
     7
271
     1
272
     1
340
F706
341
11750
343
F770
344
F770
  0
DIMSTYLE
105
26E97
102
{ACAD_REACTORS
330
27F4F
330
27F52
330
27FAB
330
27FBE
102
}
330
746F
100
AcDbSymbolTableRecord
100
AcDbDimStyleTableRecord
  2
INABA_S40G
 70
     0
 40
40.0
 41
2.5
 42
0.5
 43
7.0
 44
1.5
 73
     0
 74
     0
 77
     3
 78
     8
140
3.0
141
0.0
143
0.0394
147
1.0
172
     1
173
     1
174
     1
178
     7
271
     1
288
     1
340
F706
341
F770
343
F770
344
F770
  0
ENDTAB
  0
TABLE
  2
BLOCK_RECORD
  5
7466
330
0
100
AcDbSymbolTable
 70
    40
  0
BLOCK_RECORD
  5
747D
330
7466
100
AcDbSymbolTableRecord
100
AcDbBlockTableRecord
  2
*MODEL_SPACE
340
1BE9A
  0
BLOCK_RECORD
  5
747A
330
7466
100
AcDbSymbolTableRecord
100
AcDbBlockTableRecord
  2
*PAPER_SPACE
340
1BE9B
  0
BLOCK_RECORD
  5
ECB3
330
7466
100
AcDbSymbolTableRecord
100
AcDbBlockTableRecord
  2
作図枠S50
340
0
310
2800000020000000200000000100040000000000000200000000000000000000000000000000000000000000000080000080000000808000800000008000800080800000C0C0C000808080000000FF0000FF000000FFFF00FF000000FF00FF00FFFF0000FFFFFF00FFFFFFFFFFFFFFFFFFFFFFFFFFFFFFFFFFFFFFFFFFFFFF
310
FFFFFFFFFFFFFFFFFFFFFFFFFFFFFFFFFFFFFFFFFFFFFFFFFFFFFFFFFFFFFFFFFFFFFFFFFFFFFFFFFFFFFFFFFFFFFFFFFFFFFFFFFFFFFFFFFFFFFFFFFFFFFFFFFFFFFFFFFFFFFFFFFF999999999999999999999999999999999FFFFFFFFFFFFFFFFFFFFFFFFFFFFFF99FFFFFFFFFFFFFFFFFFFFFFFFFFFFFF99FFFFFFFFFFF
310
FFFFFFFFFFFFFFFFFFF99FFFFFFFFFFFFFFFFFFFFFFFFFFFFFF99FFFFFFFFFFFFFFFFFFFFFFFFFFFFFF99FFFFFFFFFFFFFFFFFFFFFFFFFFFFFF99FFFFFFFFFFFFFFFFFFFFFFFFFFFFFF99FFFFFFFFFFFFFFFFFFFFFFFFFFFFFF99FFFFFFFFFFFFFFFFFFFFFFFFFFFFFF99FFFFFFFFFFFFFFFFFFFFFFFFFFFFFF99FFFFFFFFF
310
FFFFFFFFFFFFFFFFFFFFF99FFFFFFFFFFFFFFFFFFFFFFFFFFFFFF99FFFFFFFFFFFFFFFFFFFFFFFFFFFFFF99FFFFFFFFFFFFFFFFFFFFFFFFFFFFFF99FFFFFFFFFFFFFFFFFFFFFFFFFFFFFF99FFFFFFFFFFFFFFFFFFFFFFFFFFFFFF99FFFFFFFFFFFFFFFFFFFFFFFFFFFFFF99FFFFFFFFFFFFFFFFFFFFF99999999999FFFFFFF
310
FFFFFFFFFFFFFF9FFFFFFFFF99999999999999999999999FFFFFFFFFFFFFFFFFFFFFFFFFFFFFFFFFFFFFFFFFFFFFFFFFFFFFFFFFFFFFFFFFFFFFFFFFFFFFFFFFFFFFFFFFFFFFFFFFFFFFFFFFFFFFFFFFFFFFFFFFFFFFFFFFFFFFFFFFFFFFFFFFFFFFFFFFFFFFFFFFFFFFFFFF
102
{BLKREFS
331
F235
102
}
  0
BLOCK_RECORD
  5
F770
330
7466
100
AcDbSymbolTableRecord
100
AcDbBlockTableRecord
  2
_DOTSMALL
340
0
102
{BLKREFS
331
27C3A
331
27C3B
331
27C43
331
27C44
331
27C4D
331
27C4E
331
27C57
331
27C58
331
27C75
331
27C76
331
27C7E
331
27C7F
331
27C87
331
27C88
331
27C92
331
27C93
331
27C9B
331
27C9C
331
27CA4
331
27CA5
331
27CAF
331
27CB0
331
27CB9
331
27CBA
331
27CC1
331
27CC2
331
27CCA
331
27CCB
331
27CD3
331
27CD4
331
27CDC
331
27CDD
331
27CE5
331
27CE6
331
27D14
331
27D15
331
27D1F
331
27D20
331
27D2A
331
27D2B
331
27D37
331
27D38
331
27D46
331
27D47
331
27D52
331
27D53
331
27D5B
331
27D5C
331
27D64
331
27D65
331
27D6D
331
27D6E
331
27D76
331
27D77
331
27D81
331
27D82
331
27DA5
331
27DA6
331
27D8D
331
27D8E
331
27D99
331
27D9A
331
2809F
331
280A0
331
280A8
331
280A9
331
280B1
331
280B2
331
280BA
331
280BB
102
}
  0
BLOCK_RECORD
  5
11750
330
7466
100
AcDbSymbolTableRecord
100
AcDbBlockTableRecord
  2
_NONE
340
0
  0
BLOCK_RECORD
  5
228B7
330
7466
100
AcDbSymbolTableRecord
100
AcDbBlockTableRecord
  2
_Open
340
0
  0
BLOCK_RECORD
  5
26658
330
7466
100
AcDbSymbolTableRecord
100
AcDbBlockTableRecord
  2
A$C1BA55281
340
0
  0
BLOCK_RECORD
  5
27B31
330
7466
100
AcDbSymbolTableRecord
100
AcDbBlockTableRecord
  2
*D10
340
0
  0
BLOCK_RECORD
  5
27B3F
330
7466
100
AcDbSymbolTableRecord
100
AcDbBlockTableRecord
  2
*D11
340
0
  0
BLOCK_RECORD
  5
27B4B
330
7466
100
AcDbSymbolTableRecord
100
AcDbBlockTableRecord
  2
*D12
340
0
  0
BLOCK_RECORD
  5
27B70
330
7466
100
AcDbSymbolTableRecord
100
AcDbBlockTableRecord
  2
*D15
340
0
  0
BLOCK_RECORD
  5
27B7E
330
7466
100
AcDbSymbolTableRecord
100
AcDbBlockTableRecord
  2
*D16
340
0
  0
BLOCK_RECORD
  5
27B8A
330
7466
100
AcDbSymbolTableRecord
100
AcDbBlockTableRecord
  2
*D17
340
0
  0
BLOCK_RECORD
  5
27B98
330
7466
100
AcDbSymbolTableRecord
100
AcDbBlockTableRecord
  2
*D18
340
0
  0
BLOCK_RECORD
  5
27BA4
330
7466
100
AcDbSymbolTableRecord
100
AcDbBlockTableRecord
  2
*D19
340
0
  0
BLOCK_RECORD
  5
27BB0
330
7466
100
AcDbSymbolTableRecord
100
AcDbBlockTableRecord
  2
*D20
340
0
  0
BLOCK_RECORD
  5
27BFC
330
7466
100
AcDbSymbolTableRecord
100
AcDbBlockTableRecord
  2
*D26
340
0
  0
BLOCK_RECORD
  5
27C08
330
7466
100
AcDbSymbolTableRecord
100
AcDbBlockTableRecord
  2
*D27
340
0
  0
BLOCK_RECORD
  5
27C14
330
7466
100
AcDbSymbolTableRecord
100
AcDbBlockTableRecord
  2
*D28
340
0
  0
BLOCK_RECORD
  5
27C20
330
7466
100
AcDbSymbolTableRecord
100
AcDbBlockTableRecord
  2
*D29
340
0
  0
BLOCK_RECORD
  5
27D31
330
7466
100
AcDbSymbolTableRecord
100
AcDbBlockTableRecord
  2
*D30
340
0
  0
BLOCK_RECORD
  5
27D40
330
7466
100
AcDbSymbolTableRecord
100
AcDbBlockTableRecord
  2
*D31
340
0
  0
BLOCK_RECORD
  5
2806C
330
7466
100
AcDbSymbolTableRecord
100
AcDbBlockTableRecord
  2
*D36
340
0
  0
BLOCK_RECORD
  5
28078
330
7466
100
AcDbSymbolTableRecord
100
AcDbBlockTableRecord
  2
*D37
340
0
  0
BLOCK_RECORD
  5
28084
330
7466
100
AcDbSymbolTableRecord
100
AcDbBlockTableRecord
  2
*D38
340
0
  0
BLOCK_RECORD
  5
28090
330
7466
100
AcDbSymbolTableRecord
100
AcDbBlockTableRecord
  2
*D39
340
0
  0
ENDTAB
  0
ENDSEC
  0
SECTION
  2
BLOCKS
  0
BLOCK
  5
7489
330
747D
100
AcDbEntity
  8
0
100
AcDbBlockBegin
  2
*MODEL_SPACE
 70
     0
 10
0.0
 20
0.0
 30
0.0
  3
*MODEL_SPACE
  1

  0
ENDBLK
  5
748A
330
747D
100
AcDbEntity
  8
0
100
AcDbBlockEnd
  0
BLOCK
  5
7487
330
747A
100
AcDbEntity
 67
     1
  8
0
100
AcDbBlockBegin
  2
*PAPER_SPACE
 70
     0
 10
0.0
 20
0.0
 30
0.0
  3
*PAPER_SPACE
  1

  0
ENDBLK
  5
7488
330
747A
100
AcDbEntity
 67
     1
  8
0
100
AcDbBlockEnd
  0
BLOCK
  5
ECB4
330
ECB3
100
AcDbEntity
  8
0
100
AcDbBlockBegin
  2
作図枠S50
 70
     0
 10
0.0
 20
0.0
 30
0.0
  3
作図枠S50
  1

  4
作図領域枠 縮尺 1/50
  0
LINE
  5
ECB5
330
ECB3
100
AcDbEntity
  8
補助
100
AcDbLine
 10
14364.0
 20
14262.0
 30
0.0
 11
174.9999999999993
 21
14262.0
 31
0.0
  0
LINE
  5
ECB6
330
ECB3
100
AcDbEntity
  8
補助
100
AcDbLine
 10
174.9999999999993
 20
14262.0
 30
0.0
 11
174.9999999999993
 21
1520.0
 31
0.0
  0
LINE
  5
ECB7
330
ECB3
100
AcDbEntity
  8
補助
100
AcDbLine
 10
174.9999999999993
 20
1520.0
 30
0.0
 11
20384.0
 21
1520.0
 31
0.0
  0
LINE
  5
ECB8
330
ECB3
100
AcDbEntity
  8
補助
100
AcDbLine
 10
20384.0
 20
1520.0
 30
0.0
 11
20384.0
 21
13042.0
 31
0.0
  0
LINE
  5
ECB9
330
ECB3
100
AcDbEntity
  8
補助
100
AcDbLine
 10
20384.0
 20
13042.0
 30
0.0
 11
14364.0
 21
13042.0
 31
0.0
  0
LINE
  5
ECBA
330
ECB3
100
AcDbEntity
  8
補助
100
AcDbLine
 10
14364.0
 20
13042.0
 30
0.0
 11
14364.0
 21
14262.0
 31
0.0
  0
ENDBLK
  5
ECBB
330
ECB3
100
AcDbEntity
  8
0
100
AcDbBlockEnd
  0
BLOCK
  5
F771
330
F770
100
AcDbEntity
  8
0
 48
50.0
100
AcDbBlockBegin
  2
_DOTSMALL
 70
     0
 10
0.0
 20
0.0
 30
0.0
  3
_DOTSMALL
  1

  0
LWPOLYLINE
  5
F772
330
F770
100
AcDbEntity
  8
0
  6
ByBlock
 62
     0
 48
50.0
100
AcDbPolyline
 90
        2
 70
     1
 43
0.5
 10
-0.0625
 20
0.0
 42
1.0
 10
0.0625
 20
0.0
 42
1.0
  0
ENDBLK
  5
F776
330
F770
100
AcDbEntity
  8
0
 48
50.0
100
AcDbBlockEnd
  0
BLOCK
  5
11752
330
11750
100
AcDbEntity
  8
0
 48
50.0
100
AcDbBlockBegin
  2
_NONE
 70
     0
 10
0.0
 20
0.0
 30
0.0
  3
_NONE
  1

  0
CIRCLE
  5
11751
330
11750
100
AcDbEntity
  8
0
  6
ByBlock
 62
     0
 48
50.0
100
AcDbCircle
 10
0.0
 20
0.0
 30
0.0
 40
0.25
  0
ENDBLK
  5
11753
330
11750
100
AcDbEntity
  8
0
 48
50.0
100
AcDbBlockEnd
  0
BLOCK
  5
228BB
330
228B7
100
AcDbEntity
  8
0
 48
50.0
100
AcDbBlockBegin
  2
_Open
 70
     0
 10
0.0
 20
0.0
 30
0.0
  3
_Open
  1

  0
LINE
  5
228B8
330
228B7
100
AcDbEntity
  8
0
  6
ByBlock
 62
     0
370
    -2
100
AcDbLine
 10
-1.0
 20
0.1666666666666666
 30
0.0
 11
0.0
 21
0.0
 31
0.0
  0
LINE
  5
228B9
330
228B7
100
AcDbEntity
  8
0
  6
ByBlock
 62
     0
370
    -2
100
AcDbLine
 10
-1.0
 20
-0.1666666666666666
 30
0.0
 11
0.0
 21
0.0
 31
0.0
  0
LINE
  5
228BA
330
228B7
100
AcDbEntity
  8
0
  6
ByBlock
 62
     0
370
    -2
100
AcDbLine
 10
0.0
 20
0.0
 30
0.0
 11
-1.0
 21
0.0
 31
0.0
  0
ENDBLK
  5
228BC
330
228B7
100
AcDbEntity
  8
0
 48
50.0
100
AcDbBlockEnd
  0
BLOCK
  5
26659
330
26658
100
AcDbEntity
  8
0
 48
50.0
100
AcDbBlockBegin
  2
A$C1BA55281
 70
     0
 10
0.0
 20
0.0
 30
0.0
  3
A$C1BA55281
  1

  0
LINE
  5
2665A
330
26658
100
AcDbEntity
  8
細線
100
AcDbLine
 10
646.0422180577734
 20
299.9999987719807
 30
0.0
 11
446.0422180577752
 21
499.9999987719802
 31
0.0
  0
LINE
  5
2665B
330
26658
100
AcDbEntity
  8
Ｇ．Ｌ
100
AcDbLine
 10
0.0000102186186268
 20
299.9999987719807
 30
0.0
 11
1368.538394350012
 21
299.9999987719807
 31
0.0
  0
LINE
  5
2665C
330
26658
100
AcDbEntity
  8
部品1
100
AcDbLine
 10
300.0000102186186
 20
499.9999987719802
 30
0.0
 11
700.0000102186167
 21
499.9999987719802
 31
0.0
  0
LINE
  5
2665D
330
26658
100
AcDbEntity
  8
部品1
100
AcDbLine
 10
200.0000102186168
 20
199.9999987719775
 30
0.0
 11
800.0000102186177
 21
199.9999987719802
 31
0.0
  0
LINE
  5
2665E
330
26658
100
AcDbEntity
  8
部品1
100
AcDbLine
 10
200.0000102186168
 20
-0.0000012280233932
 30
0.0
 11
800.0000102186177
 21
-0.0000012280206647
 31
0.0
  0
LINE
  5
2665F
330
26658
100
AcDbEntity
  8
細線
100
AcDbLine
 10
270.6127686791824
 20
199.9999987719777
 30
0.0
 11
370.6127686791824
 21
299.9999987719805
 31
0.0
  0
LINE
  5
26660
330
26658
100
AcDbEntity
  8
細線
100
AcDbLine
 10
327.1813111741085
 20
199.9999987719782
 30
0.0
 11
427.1813111741058
 21
299.9999987719807
 31
0.0
  0
LINE
  5
26661
330
26658
100
AcDbEntity
  8
細線
100
AcDbLine
 10
298.8970399266473
 20
199.9999987719802
 30
0.0
 11
398.8970399266436
 21
299.9999987719807
 31
0.0
  0
LINE
  5
26662
330
26658
100
AcDbEntity
  8
部品1
100
AcDbLine
 10
200.0000102186168
 20
-0.0000012280233932
 30
0.0
 11
200.0000102186168
 21
299.9999987719807
 31
0.0
  0
LINE
  5
26663
330
26658
100
AcDbEntity
  8
細線
100
AcDbLine
 10
200.0000102186168
 20
199.9999987719775
 30
0.0
 11
253.5898487048417
 21
-0.0000012280261217
 31
0.0
  0
LINE
  5
26664
330
26658
100
AcDbEntity
  8
細線
100
AcDbLine
 10
240.1923890832841
 20
49.99999877197751
 30
0.0
 11
226.7949294617283
 21
-0.0000012280233932
 31
0.0
  0
LINE
  5
26665
330
26658
100
AcDbEntity
  8
細線
100
AcDbLine
 10
226.7949294617283
 20
199.9999987719775
 30
0.0
 11
213.3974698401744
 21
149.9999987719766
 31
0.0
  0
LINE
  5
26666
330
26658
100
AcDbEntity
  8
細線
100
AcDbLine
 10
300.0000102186186
 20
199.9999987719775
 30
0.0
 11
353.5898487048398
 21
-0.0000012280261217
 31
0.0
  0
LINE
  5
26667
330
26658
100
AcDbEntity
  8
細線
100
AcDbLine
 10
400.0000102186167
 20
199.9999987719802
 30
0.0
 11
453.5898487048398
 21
-0.0000012280233932
 31
0.0
  0
LINE
  5
26668
330
26658
100
AcDbEntity
  8
細線
100
AcDbLine
 10
340.1923890832859
 20
49.99999877197751
 30
0.0
 11
326.7949294617283
 21
-0.0000012280233932
 31
0.0
  0
LINE
  5
26669
330
26658
100
AcDbEntity
  8
細線
100
AcDbLine
 10
440.192389083284
 20
49.99999877198025
 30
0.0
 11
426.7949294617301
 21
-0.0000012280206647
 31
0.0
  0
LINE
  5
2666A
330
26658
100
AcDbEntity
  8
細線
100
AcDbLine
 10
326.7949294617283
 20
199.9999987719775
 30
0.0
 11
313.3974698401726
 21
149.9999987719766
 31
0.0
  0
LINE
  5
2666B
330
26658
100
AcDbEntity
  8
細線
100
AcDbLine
 10
426.7949294617301
 20
199.9999987719802
 30
0.0
 11
413.3974698401726
 21
149.9999987719807
 31
0.0
  0
LINE
  5
2666C
330
26658
100
AcDbEntity
  8
細線
100
AcDbLine
 10
419.7680480780782
 20
299.9999987719807
 30
0.0
 11
300.0000102186186
 21
419.7680366314409
 31
0.0
  0
LINE
  5
2666D
330
26658
100
AcDbEntity
  8
部品1
100
AcDbLine
 10
300.0000102186186
 20
299.9999987719807
 30
0.0
 11
300.0000102186186
 21
499.9999987719802
 31
0.0
  0
LINE
  5
2666E
330
26658
100
AcDbEntity
  8
細線
100
AcDbLine
 10
462.1944549492709
 20
299.9999987719807
 30
0.0
 11
300.0000102186177
 21
462.194443502633
 31
0.0
  0
MTEXT
  5
2666F
102
{ACAD_REACTORS
330
26670
102
}
330
26658
100
AcDbEntity
  8
寸法
 62
     7
 48
50.0
100
AcDbMText
 10
728.9227685106716
 20
821.432899623403
 30
0.0
 40
150.0
 41
1.0
 71
     4
 72
     1
  1
\A1;C.B
  7
STYLE1
 73
     1
 44
1.0
1001
ACAD
1000
MTEXTBEGIN
1070
    73
1070
     1
1070
    44
1040
1.0
1070
    74
1070
     0
1000
MTEXTEND
  0
LEADER
  5
26670
330
26658
100
AcDbEntity
  8
寸法
 48
50.0
100
AcDbLeader
  3
INABA_S50G
 73
     0
 74
     0
 75
     1
 40
150.0
 41
231.9898538650463
 76
     3
 10
500.0000102186176
 20
499.9999987719802
 30
0.0
 10
578.9227685106716
 20
721.432899623403
 30
0.0
 10
703.9227685106716
 20
721.432899623403
 30
0.0
340
2666F
1001
ACAD
1000
DSTYLE
1002
{
1070
    40
1040
1.0
1002
}
  0
LINE
  5
26671
330
26658
100
AcDbEntity
  8
文字
 48
50.0
100
AcDbLine
 10
1023.74179387398
 20
428.9872899549959
 30
0.0
 11
875.8807454884063
 21
428.9872899549959
 31
0.0
  0
LINE
  5
26672
330
26658
100
AcDbEntity
  8
文字
 48
50.0
100
AcDbLine
 10
875.8807454884063
 20
428.9872899549959
 30
0.0
 11
949.8112696811931
 21
300.9358658228894
 31
0.0
  0
LINE
  5
26673
330
26658
100
AcDbEntity
  8
細線
100
AcDbLine
 10
570.6127686791842
 20
199.9999987719791
 30
0.0
 11
670.6127686791814
 21
299.9999987719807
 31
0.0
  0
LINE
  5
26674
330
26658
100
AcDbEntity
  8
細線
100
AcDbLine
 10
627.1813111741066
 20
199.9999987719795
 30
0.0
 11
727.1813111741048
 21
299.9999987719807
 31
0.0
  0
LINE
  5
26675
330
26658
100
AcDbEntity
  8
細線
100
AcDbLine
 10
598.8970399266472
 20
199.9999987719802
 30
0.0
 11
698.8970399266436
 21
299.9999987719807
 31
0.0
  0
LINE
  5
26676
330
26658
100
AcDbEntity
  8
部品1
100
AcDbLine
 10
800.0000102186177
 20
299.9999987719807
 30
0.0
 11
800.0000102186177
 21
-0.0000012280206647
 31
0.0
  0
LINE
  5
26677
330
26658
100
AcDbEntity
  8
細線
100
AcDbLine
 10
500.0000102186167
 20
199.9999987719802
 30
0.0
 11
553.5898487048416
 21
-0.0000012280233932
 31
0.0
  0
LINE
  5
26678
330
26658
100
AcDbEntity
  8
細線
100
AcDbLine
 10
600.0000102186186
 20
199.9999987719802
 30
0.0
 11
653.5898487048398
 21
-0.0000012280233932
 31
0.0
  0
LINE
  5
26679
330
26658
100
AcDbEntity
  8
細線
100
AcDbLine
 10
540.192389083284
 20
49.99999877198025
 30
0.0
 11
526.7949294617283
 21
-0.0000012280206647
 31
0.0
  0
LINE
  5
2667A
330
26658
100
AcDbEntity
  8
細線
100
AcDbLine
 10
640.1923890832859
 20
49.99999877198025
 30
0.0
 11
626.7949294617283
 21
-0.0000012280206647
 31
0.0
  0
LINE
  5
2667B
330
26658
100
AcDbEntity
  8
細線
100
AcDbLine
 10
526.7949294617283
 20
199.9999987719802
 30
0.0
 11
513.3974698401743
 21
149.9999987719807
 31
0.0
  0
LINE
  5
2667C
330
26658
100
AcDbEntity
  8
細線
100
AcDbLine
 10
626.7949294617283
 20
199.9999987719802
 30
0.0
 11
613.3974698401726
 21
149.9999987719807
 31
0.0
  0
LINE
  5
2667D
330
26658
100
AcDbEntity
  8
細線
100
AcDbLine
 10
700.0000102186167
 20
199.9999987719802
 30
0.0
 11
753.5898487048398
 21
-0.0000012280206647
 31
0.0
  0
LINE
  5
2667E
330
26658
100
AcDbEntity
  8
細線
100
AcDbLine
 10
740.192389083284
 20
49.99999877198025
 30
0.0
 11
726.7949294617301
 21
-0.0000012280206647
 31
0.0
  0
LINE
  5
2667F
330
26658
100
AcDbEntity
  8
細線
100
AcDbLine
 10
726.7949294617301
 20
199.9999987719802
 30
0.0
 11
713.3974698401726
 21
149.9999987719807
 31
0.0
  0
LINE
  5
26680
330
26658
100
AcDbEntity
  8
細線
100
AcDbLine
 10
688.468624928967
 20
299.9999987719809
 30
0.0
 11
488.4686249289679
 21
499.9999987719802
 31
0.0
  0
LINE
  5
26681
330
26658
100
AcDbEntity
  8
部品1
100
AcDbLine
 10
700.0000102186167
 20
499.9999987719802
 30
0.0
 11
700.0000102186167
 21
299.9999987719807
 31
0.0
  0
TEXT
  5
26682
330
26658
100
AcDbEntity
  8
部品1
100
AcDbText
 10
1044.344543432127
 20
322.7965089842533
 30
0.0
 40
150.0
  1
G.L
  7
STYLE1
100
AcDbText
  0
LINE
  5
26683
330
26658
100
AcDbEntity
  8
文字
 48
50.0
100
AcDbLine
 10
949.8112696811922
 20
300.9358658228889
 30
0.0
 11
1023.74179387398
 21
428.9872899549959
 31
0.0
  0
ENDBLK
  5
26684
330
26658
100
AcDbEntity
  8
0
 48
50.0
100
AcDbBlockEnd
  0
BLOCK
  5
27B3D
330
27B31
100
AcDbEntity
  8
0
 48
50.0
100
AcDbBlockBegin
  2
*D10
 70
     1
 10
0.0
 20
0.0
 30
0.0
  3
*D10
  1

  0
LINE
  5
27D25
330
27B31
100
AcDbEntity
  8
寸法
 62
     0
 48
50.0
370
    -2
100
AcDbLine
 10
11529.84202293515
 20
10290.29349738973
 30
0.0
 11
11529.84202293515
 21
10960.84556935107
 31
0.0
  0
LINE
  5
27D26
330
27B31
100
AcDbEntity
  8
寸法
 62
     0
 48
50.0
370
    -2
100
AcDbLine
 10
11480.84202293515
 20
10211.29349738973
 30
0.0
 11
11480.84202293515
 21
10960.84556935107
 31
0.0
  0
LINE
  5
27D27
330
27B31
100
AcDbEntity
  8
寸法
 62
     0
 48
50.0
370
    -2
100
AcDbLine
 10
11480.84202293515
 20
10885.84556935107
 30
0.0
 11
11355.84202293515
 21
10885.84556935107
 31
0.0
  0
LINE
  5
27D28
330
27B31
100
AcDbEntity
  8
寸法
 62
     0
 48
50.0
370
    -2
100
AcDbLine
 10
11529.84202293515
 20
10885.84556935107
 30
0.0
 11
11895.2785759413
 21
10885.84556935107
 31
0.0
  0
LINE
  5
27D29
330
27B31
100
AcDbEntity
  8
寸法
 62
     0
 48
50.0
370
    -2
100
AcDbLine
 10
11480.84202293515
 20
10885.84556935107
 30
0.0
 11
11529.84202293515
 21
10885.84556935107
 31
0.0
  0
INSERT
  5
27D2A
330
27B31
100
AcDbEntity
  8
寸法
 62
     0
 48
50.0
370
    -2
100
AcDbBlockReference
  2
_DOTSMALL
 10
11480.84202293515
 20
10885.84556935107
 30
0.0
 41
125.0
 42
125.0
 43
125.0
  0
INSERT
  5
27D2B
330
27B31
100
AcDbEntity
  8
寸法
 62
     0
 48
50.0
370
    -2
100
AcDbBlockReference
  2
_DOTSMALL
 10
11529.84202293515
 20
10885.84556935107
 30
0.0
 41
125.0
 42
125.0
 43
125.0
 50
180.0
  0
MTEXT
  5
27D2C
330
27B31
100
AcDbEntity
  8
寸法
 62
     7
 48
50.0
100
AcDbMText
 10
11837.56029943822
 20
10985.84556935107
 30
0.0
 40
150.0
 41
0.0
 71
     5
 72
     1
  1
\A1;a
  7
STYLE1
 73
     1
 44
1.0
1001
ACAD
1000
MTEXTBEGIN
1070
    73
1070
     1
1070
    44
1040
1.0
1070
    74
1070
     0
1000
MTEXTEND
  0
POINT
  5
27D2D
330
27B31
100
AcDbEntity
  8
DEFPOINTS
 62
     0
 48
50.0
100
AcDbPoint
 10
11529.84202293515
 20
10265.29349738973
 30
0.0
  0
POINT
  5
27D2E
330
27B31
100
AcDbEntity
  8
DEFPOINTS
 62
     0
 48
50.0
100
AcDbPoint
 10
11480.84202293515
 20
10186.29349738973
 30
0.0
  0
POINT
  5
27D2F
330
27B31
100
AcDbEntity
  8
DEFPOINTS
 62
     0
 48
50.0
100
AcDbPoint
 10
11480.84202293515
 20
10885.84556935107
 30
0.0
  0
ENDBLK
  5
27B3E
330
27B31
100
AcDbEntity
  8
0
 48
50.0
100
AcDbBlockEnd
  0
BLOCK
  5
27B49
330
27B3F
100
AcDbEntity
  8
0
 48
50.0
100
AcDbBlockBegin
  2
*D11
 70
     1
 10
0.0
 20
0.0
 30
0.0
  3
*D11
  1

  0
LINE
  5
27C37
330
27B3F
100
AcDbEntity
  8
寸法
 62
     0
 48
50.0
370
    -2
100
AcDbLine
 10
11480.84202293515
 20
10211.29349738973
 30
0.0
 11
11480.84202293515
 21
10960.84556935107
 31
0.0
  0
LINE
  5
27C38
330
27B3F
100
AcDbEntity
  8
寸法
 62
     0
 48
50.0
370
    -2
100
AcDbLine
 10
9268.842022935151
 20
10211.29349738973
 30
0.0
 11
9268.842022935151
 21
10960.84556935107
 31
0.0
  0
LINE
  5
27C39
330
27B3F
100
AcDbEntity
  8
寸法
 62
     0
 48
50.0
370
    -2
100
AcDbLine
 10
11480.84202293515
 20
10885.84556935107
 30
0.0
 11
9268.842022935151
 21
10885.84556935107
 31
0.0
  0
INSERT
  5
27C3A
330
27B3F
100
AcDbEntity
  8
寸法
 62
     0
 48
50.0
370
    -2
100
AcDbBlockReference
  2
_DOTSMALL
 10
11480.84202293515
 20
10885.84556935107
 30
0.0
 41
125.0
 42
125.0
 43
125.0
  0
INSERT
  5
27C3B
330
27B3F
100
AcDbEntity
  8
寸法
 62
     0
 48
50.0
370
    -2
100
AcDbBlockReference
  2
_DOTSMALL
 10
9268.842022935151
 20
10885.84556935107
 30
0.0
 41
125.0
 42
125.0
 43
125.0
 50
180.0
  0
MTEXT
  5
27C3C
330
27B3F
100
AcDbEntity
  8
寸法
 62
     7
 48
50.0
100
AcDbMText
 10
10374.84202293515
 20
10985.8603331306
 30
0.0
 40
150.0
 41
0.0
 71
     5
 72
     1
  1
\A1;2212
  7
STYLE1
 73
     1
 44
1.0
1001
ACAD
1000
MTEXTBEGIN
1070
    73
1070
     1
1070
    44
1040
1.0
1070
    74
1070
     0
1000
MTEXTEND
  0
POINT
  5
27C3D
330
27B3F
100
AcDbEntity
  8
DEFPOINTS
 62
     0
 48
50.0
100
AcDbPoint
 10
11480.84202293515
 20
10186.29349738973
 30
0.0
  0
POINT
  5
27C3E
330
27B3F
100
AcDbEntity
  8
DEFPOINTS
 62
     0
 48
50.0
100
AcDbPoint
 10
9268.842022935151
 20
10186.29349738973
 30
0.0
  0
POINT
  5
27C3F
330
27B3F
100
AcDbEntity
  8
DEFPOINTS
 62
     0
 48
50.0
100
AcDbPoint
 10
9268.842022935151
 20
10885.84556935107
 30
0.0
  0
ENDBLK
  5
27B4A
330
27B3F
100
AcDbEntity
  8
0
 48
50.0
100
AcDbBlockEnd
  0
BLOCK
  5
27B55
330
27B4B
100
AcDbEntity
  8
0
 48
50.0
100
AcDbBlockBegin
  2
*D12
 70
     1
 10
0.0
 20
0.0
 30
0.0
  3
*D12
  1

  0
LINE
  5
27C40
330
27B4B
100
AcDbEntity
  8
寸法
 62
     0
 48
50.0
370
    -2
100
AcDbLine
 10
10720.84202293515
 20
10211.29349738973
 30
0.0
 11
10720.84202293515
 21
10674.92298935688
 31
0.0
  0
LINE
  5
27C41
330
27B4B
100
AcDbEntity
  8
寸法
 62
     0
 48
50.0
370
    -2
100
AcDbLine
 10
11480.84202293515
 20
10211.29349738973
 30
0.0
 11
11480.84202293515
 21
10674.92298935688
 31
0.0
  0
LINE
  5
27C42
330
27B4B
100
AcDbEntity
  8
寸法
 62
     0
 48
50.0
370
    -2
100
AcDbLine
 10
10720.84202293515
 20
10599.92298935689
 30
0.0
 11
11480.84202293515
 21
10599.92298935689
 31
0.0
  0
INSERT
  5
27C43
330
27B4B
100
AcDbEntity
  8
寸法
 62
     0
 48
50.0
370
    -2
100
AcDbBlockReference
  2
_DOTSMALL
 10
10720.84202293515
 20
10599.92298935689
 30
0.0
 41
125.0
 42
125.0
 43
125.0
 50
180.0
  0
INSERT
  5
27C44
330
27B4B
100
AcDbEntity
  8
寸法
 62
     0
 48
50.0
370
    -2
100
AcDbBlockReference
  2
_DOTSMALL
 10
11480.84202293515
 20
10599.92298935689
 30
0.0
 41
125.0
 42
125.0
 43
125.0
  0
MTEXT
  5
27C45
330
27B4B
100
AcDbEntity
  8
寸法
 62
     7
 48
50.0
100
AcDbMText
 10
11100.84202293515
 20
10699.92298935689
 30
0.0
 40
150.0
 41
0.0
 71
     5
 72
     1
  1
\A1;760
  7
STYLE1
 73
     1
 44
1.0
1001
ACAD
1000
MTEXTBEGIN
1070
    73
1070
     1
1070
    44
1040
1.0
1070
    74
1070
     0
1000
MTEXTEND
  0
POINT
  5
27C46
330
27B4B
100
AcDbEntity
  8
DEFPOINTS
 62
     0
 48
50.0
100
AcDbPoint
 10
10720.84202293515
 20
10186.29349738973
 30
0.0
  0
POINT
  5
27C47
330
27B4B
100
AcDbEntity
  8
DEFPOINTS
 62
     0
 48
50.0
100
AcDbPoint
 10
11480.84202293515
 20
10186.29349738973
 30
0.0
  0
POINT
  5
27C48
330
27B4B
100
AcDbEntity
  8
DEFPOINTS
 62
     0
 48
50.0
100
AcDbPoint
 10
11480.84202293515
 20
10599.92298935689
 30
0.0
  0
ENDBLK
  5
27B56
330
27B4B
100
AcDbEntity
  8
0
 48
50.0
100
AcDbBlockEnd
  0
BLOCK
  5
27B7C
330
27B70
100
AcDbEntity
  8
0
 48
50.0
100
AcDbBlockBegin
  2
*D15
 70
     1
 10
0.0
 20
0.0
 30
0.0
  3
*D15
  1

  0
LINE
  5
27D1A
330
27B70
100
AcDbEntity
  8
寸法
 62
     0
 48
50.0
370
    -2
100
AcDbLine
 10
9243.842022935153
 20
7134.293497389736
 30
0.0
 11
8108.62974189782
 21
7134.293497389736
 31
0.0
  0
LINE
  5
27D1B
330
27B70
100
AcDbEntity
  8
寸法
 62
     0
 48
50.0
370
    -2
100
AcDbLine
 10
9194.842022935153
 20
7075.293497389733
 30
0.0
 11
8108.62974189782
 21
7075.293497389733
 31
0.0
  0
LINE
  5
27D1C
330
27B70
100
AcDbEntity
  8
寸法
 62
     0
 48
50.0
370
    -2
100
AcDbLine
 10
8183.629741897819
 20
7134.293497389736
 30
0.0
 11
8183.629741897819
 21
7259.293497389736
 31
0.0
  0
LINE
  5
27D1D
330
27B70
100
AcDbEntity
  8
寸法
 62
     0
 48
50.0
370
    -2
100
AcDbLine
 10
8183.629741897819
 20
7075.293497389733
 30
0.0
 11
8183.629741897819
 21
6950.293497389733
 31
0.0
  0
LINE
  5
27D1E
330
27B70
100
AcDbEntity
  8
寸法
 62
     0
 48
50.0
370
    -2
100
AcDbLine
 10
8183.629741897819
 20
7134.293497389736
 30
0.0
 11
8183.629741897819
 21
7075.293497389733
 31
0.0
  0
INSERT
  5
27D1F
330
27B70
100
AcDbEntity
  8
寸法
 62
     0
 48
50.0
370
    -2
100
AcDbBlockReference
  2
_DOTSMALL
 10
8183.629741897819
 20
7134.293497389736
 30
0.0
 41
125.0
 42
125.0
 43
125.0
 50
270.0
  0
INSERT
  5
27D20
330
27B70
100
AcDbEntity
  8
寸法
 62
     0
 48
50.0
370
    -2
100
AcDbBlockReference
  2
_DOTSMALL
 10
8183.629741897819
 20
7075.293497389733
 30
0.0
 41
125.0
 42
125.0
 43
125.0
 50
90.0
  0
MTEXT
  5
27D21
330
27B70
100
AcDbEntity
  8
寸法
 62
     7
 48
50.0
100
AcDbMText
 10
8083.629741897818
 20
7104.793497389734
 30
0.0
 40
150.0
 41
0.0
 71
     5
 72
     1
  1
\A1;b
  7
STYLE1
 11
0.0000000000000001
 21
1.0
 31
0.0
 73
     1
 44
1.0
1001
ACAD
1000
MTEXTBEGIN
1070
    73
1070
     1
1070
    44
1040
1.0
1070
    74
1070
     0
1000
MTEXTEND
  0
POINT
  5
27D22
330
27B70
100
AcDbEntity
  8
DEFPOINTS
 62
     0
 48
50.0
100
AcDbPoint
 10
9268.842022935151
 20
7134.293497389736
 30
0.0
  0
POINT
  5
27D23
330
27B70
100
AcDbEntity
  8
DEFPOINTS
 62
     0
 48
50.0
100
AcDbPoint
 10
9219.842022935152
 20
7075.293497389733
 30
0.0
  0
POINT
  5
27D24
330
27B70
100
AcDbEntity
  8
DEFPOINTS
 62
     0
 48
50.0
100
AcDbPoint
 10
8183.629741897819
 20
7075.293497389733
 30
0.0
  0
ENDBLK
  5
27B7D
330
27B70
100
AcDbEntity
  8
0
 48
50.0
100
AcDbBlockEnd
  0
BLOCK
  5
27B88
330
27B7E
100
AcDbEntity
  8
0
 48
50.0
100
AcDbBlockBegin
  2
*D16
 70
     1
 10
0.0
 20
0.0
 30
0.0
  3
*D16
  1

  0
LINE
  5
27D11
330
27B7E
100
AcDbEntity
  8
寸法
 62
     0
 48
50.0
370
    -2
100
AcDbLine
 10
9243.842022935153
 20
10186.29349738973
 30
0.0
 11
8108.62974189782
 21
10186.29349738973
 31
0.0
  0
LINE
  5
27D12
330
27B7E
100
AcDbEntity
  8
寸法
 62
     0
 48
50.0
370
    -2
100
AcDbLine
 10
9243.842022935153
 20
7134.293497389736
 30
0.0
 11
8108.62974189782
 21
7134.293497389736
 31
0.0
  0
LINE
  5
27D13
330
27B7E
100
AcDbEntity
  8
寸法
 62
     0
 48
50.0
370
    -2
100
AcDbLine
 10
8183.629741897819
 20
10186.29349738973
 30
0.0
 11
8183.629741897819
 21
7134.293497389736
 31
0.0
  0
INSERT
  5
27D14
330
27B7E
100
AcDbEntity
  8
寸法
 62
     0
 48
50.0
370
    -2
100
AcDbBlockReference
  2
_DOTSMALL
 10
8183.629741897819
 20
10186.29349738973
 30
0.0
 41
125.0
 42
125.0
 43
125.0
 50
90.0
  0
INSERT
  5
27D15
330
27B7E
100
AcDbEntity
  8
寸法
 62
     0
 48
50.0
370
    -2
100
AcDbBlockReference
  2
_DOTSMALL
 10
8183.629741897819
 20
7134.293497389736
 30
0.0
 41
125.0
 42
125.0
 43
125.0
 50
270.0
  0
MTEXT
  5
27D16
330
27B7E
100
AcDbEntity
  8
寸法
 62
     7
 48
50.0
100
AcDbMText
 10
8083.614978118291
 20
8660.293497389735
 30
0.0
 40
150.0
 41
0.0
 71
     5
 72
     1
  1
\A1;3052
  7
STYLE1
 11
0.0000000000000001
 21
1.0
 31
0.0
 73
     1
 44
1.0
1001
ACAD
1000
MTEXTBEGIN
1070
    73
1070
     1
1070
    44
1040
1.0
1070
    74
1070
     0
1000
MTEXTEND
  0
POINT
  5
27D17
330
27B7E
100
AcDbEntity
  8
DEFPOINTS
 62
     0
 48
50.0
100
AcDbPoint
 10
9268.842022935151
 20
10186.29349738973
 30
0.0
  0
POINT
  5
27D18
330
27B7E
100
AcDbEntity
  8
DEFPOINTS
 62
     0
 48
50.0
100
AcDbPoint
 10
9268.842022935151
 20
7134.293497389736
 30
0.0
  0
POINT
  5
27D19
330
27B7E
100
AcDbEntity
  8
DEFPOINTS
 62
     0
 48
50.0
100
AcDbPoint
 10
8183.629741897819
 20
7134.293497389736
 30
0.0
  0
ENDBLK
  5
27B89
330
27B7E
100
AcDbEntity
  8
0
 48
50.0
100
AcDbBlockEnd
  0
BLOCK
  5
27B96
330
27B8A
100
AcDbEntity
  8
0
 48
50.0
100
AcDbBlockBegin
  2
*D17
 70
     1
 10
0.0
 20
0.0
 30
0.0
  3
*D17
  1

  0
LINE
  5
27C70
330
27B8A
100
AcDbEntity
  8
寸法
 62
     0
 48
50.0
370
    -2
100
AcDbLine
 10
9194.842022935153
 20
10265.29349738973
 30
0.0
 11
8108.62974189782
 21
10265.29349738973
 31
0.0
  0
LINE
  5
27C71
330
27B8A
100
AcDbEntity
  8
寸法
 62
     0
 48
50.0
370
    -2
100
AcDbLine
 10
9243.842022935153
 20
10186.29349738973
 30
0.0
 11
8108.62974189782
 21
10186.29349738973
 31
0.0
  0
LINE
  5
27C72
330
27B8A
100
AcDbEntity
  8
寸法
 62
     0
 48
50.0
370
    -2
100
AcDbLine
 10
8183.629741897821
 20
10265.29349738973
 30
0.0
 11
8183.629741897821
 21
10390.29349738973
 31
0.0
  0
LINE
  5
27C73
330
27B8A
100
AcDbEntity
  8
寸法
 62
     0
 48
50.0
370
    -2
100
AcDbLine
 10
8183.629741897819
 20
10186.29349738973
 30
0.0
 11
8183.629741897819
 21
10061.29349738973
 31
0.0
  0
LINE
  5
27C74
330
27B8A
100
AcDbEntity
  8
寸法
 62
     0
 48
50.0
370
    -2
100
AcDbLine
 10
8183.629741897821
 20
10265.29349738973
 30
0.0
 11
8183.629741897819
 21
10186.29349738973
 31
0.0
  0
INSERT
  5
27C75
330
27B8A
100
AcDbEntity
  8
寸法
 62
     0
 48
50.0
370
    -2
100
AcDbBlockReference
  2
_DOTSMALL
 10
8183.629741897821
 20
10265.29349738973
 30
0.0
 41
125.0
 42
125.0
 43
125.0
 50
270.0
  0
INSERT
  5
27C76
330
27B8A
100
AcDbEntity
  8
寸法
 62
     0
 48
50.0
370
    -2
100
AcDbBlockReference
  2
_DOTSMALL
 10
8183.629741897819
 20
10186.29349738973
 30
0.0
 41
125.0
 42
125.0
 43
125.0
 50
90.0
  0
MTEXT
  5
27C77
330
27B8A
100
AcDbEntity
  8
寸法
 62
     7
 48
50.0
100
AcDbMText
 10
8083.629741897819
 20
10225.79349738973
 30
0.0
 40
150.0
 41
0.0
 71
     5
 72
     1
  1
\A1;c
  7
STYLE1
 11
0.0000000000000001
 21
1.0
 31
0.0
 73
     1
 44
1.0
1001
ACAD
1000
MTEXTBEGIN
1070
    73
1070
     1
1070
    44
1040
1.0
1070
    74
1070
     0
1000
MTEXTEND
  0
POINT
  5
27C78
330
27B8A
100
AcDbEntity
  8
DEFPOINTS
 62
     0
 48
50.0
100
AcDbPoint
 10
9219.842022935152
 20
10265.29349738973
 30
0.0
  0
POINT
  5
27C79
330
27B8A
100
AcDbEntity
  8
DEFPOINTS
 62
     0
 48
50.0
100
AcDbPoint
 10
9268.842022935151
 20
10186.29349738973
 30
0.0
  0
POINT
  5
27C7A
330
27B8A
100
AcDbEntity
  8
DEFPOINTS
 62
     0
 48
50.0
100
AcDbPoint
 10
8183.629741897819
 20
10186.29349738973
 30
0.0
  0
ENDBLK
  5
27B97
330
27B8A
100
AcDbEntity
  8
0
 48
50.0
100
AcDbBlockEnd
  0
BLOCK
  5
27BA2
330
27B98
100
AcDbEntity
  8
0
 48
50.0
100
AcDbBlockBegin
  2
*D18
 70
     1
 10
0.0
 20
0.0
 30
0.0
  3
*D18
  1

  0
LINE
  5
27C7B
330
27B98
100
AcDbEntity
  8
寸法
 62
     0
 48
50.0
370
    -2
100
AcDbLine
 10
10028.84202293515
 20
10211.29349738973
 30
0.0
 11
10028.84202293515
 21
10674.92298935688
 31
0.0
  0
LINE
  5
27C7C
330
27B98
100
AcDbEntity
  8
寸法
 62
     0
 48
50.0
370
    -2
100
AcDbLine
 10
10720.84202293515
 20
10211.29349738973
 30
0.0
 11
10720.84202293515
 21
10674.92298935688
 31
0.0
  0
LINE
  5
27C7D
330
27B98
100
AcDbEntity
  8
寸法
 62
     0
 48
50.0
370
    -2
100
AcDbLine
 10
10028.84202293515
 20
10599.92298935689
 30
0.0
 11
10720.84202293515
 21
10599.92298935689
 31
0.0
  0
INSERT
  5
27C7E
330
27B98
100
AcDbEntity
  8
寸法
 62
     0
 48
50.0
370
    -2
100
AcDbBlockReference
  2
_DOTSMALL
 10
10028.84202293515
 20
10599.92298935689
 30
0.0
 41
125.0
 42
125.0
 43
125.0
 50
180.0
  0
INSERT
  5
27C7F
330
27B98
100
AcDbEntity
  8
寸法
 62
     0
 48
50.0
370
    -2
100
AcDbBlockReference
  2
_DOTSMALL
 10
10720.84202293515
 20
10599.92298935689
 30
0.0
 41
125.0
 42
125.0
 43
125.0
  0
MTEXT
  5
27C80
330
27B98
100
AcDbEntity
  8
寸法
 62
     7
 48
50.0
100
AcDbMText
 10
10374.84202293515
 20
10699.97400506289
 30
0.0
 40
150.0
 41
0.0
 71
     5
 72
     1
  1
\A1;692
  7
STYLE1
 73
     1
 44
1.0
1001
ACAD
1000
MTEXTBEGIN
1070
    73
1070
     1
1070
    44
1040
1.0
1070
    74
1070
     0
1000
MTEXTEND
  0
POINT
  5
27C81
330
27B98
100
AcDbEntity
  8
DEFPOINTS
 62
     0
 48
50.0
100
AcDbPoint
 10
10028.84202293515
 20
10186.29349738973
 30
0.0
  0
POINT
  5
27C82
330
27B98
100
AcDbEntity
  8
DEFPOINTS
 62
     0
 48
50.0
100
AcDbPoint
 10
10720.84202293515
 20
10186.29349738973
 30
0.0
  0
POINT
  5
27C83
330
27B98
100
AcDbEntity
  8
DEFPOINTS
 62
     0
 48
50.0
100
AcDbPoint
 10
10720.84202293515
 20
10599.92298935689
 30
0.0
  0
ENDBLK
  5
27BA3
330
27B98
100
AcDbEntity
  8
0
 48
50.0
100
AcDbBlockEnd
  0
BLOCK
  5
27BAE
330
27BA4
100
AcDbEntity
  8
0
 48
50.0
100
AcDbBlockBegin
  2
*D19
 70
     1
 10
0.0
 20
0.0
 30
0.0
  3
*D19
  1

  0
LINE
  5
27C84
330
27BA4
100
AcDbEntity
  8
寸法
 62
     0
 48
50.0
370
    -2
100
AcDbLine
 10
9268.842022935151
 20
10211.29349738973
 30
0.0
 11
9268.842022935151
 21
10674.92298935688
 31
0.0
  0
LINE
  5
27C85
330
27BA4
100
AcDbEntity
  8
寸法
 62
     0
 48
50.0
370
    -2
100
AcDbLine
 10
10028.84202293515
 20
10211.29349738973
 30
0.0
 11
10028.84202293515
 21
10674.92298935688
 31
0.0
  0
LINE
  5
27C86
330
27BA4
100
AcDbEntity
  8
寸法
 62
     0
 48
50.0
370
    -2
100
AcDbLine
 10
9268.842022935151
 20
10599.92298935689
 30
0.0
 11
10028.84202293515
 21
10599.92298935689
 31
0.0
  0
INSERT
  5
27C87
330
27BA4
100
AcDbEntity
  8
寸法
 62
     0
 48
50.0
370
    -2
100
AcDbBlockReference
  2
_DOTSMALL
 10
9268.842022935151
 20
10599.92298935689
 30
0.0
 41
125.0
 42
125.0
 43
125.0
 50
180.0
  0
INSERT
  5
27C88
330
27BA4
100
AcDbEntity
  8
寸法
 62
     0
 48
50.0
370
    -2
100
AcDbBlockReference
  2
_DOTSMALL
 10
10028.84202293515
 20
10599.92298935689
 30
0.0
 41
125.0
 42
125.0
 43
125.0
  0
MTEXT
  5
27C89
330
27BA4
100
AcDbEntity
  8
寸法
 62
     7
 48
50.0
100
AcDbMText
 10
9648.842022935152
 20
10699.92298935689
 30
0.0
 40
150.0
 41
0.0
 71
     5
 72
     1
  1
\A1;760
  7
STYLE1
 73
     1
 44
1.0
1001
ACAD
1000
MTEXTBEGIN
1070
    73
1070
     1
1070
    44
1040
1.0
1070
    74
1070
     0
1000
MTEXTEND
  0
POINT
  5
27C8A
330
27BA4
100
AcDbEntity
  8
DEFPOINTS
 62
     0
 48
50.0
100
AcDbPoint
 10
9268.842022935151
 20
10186.29349738973
 30
0.0
  0
POINT
  5
27C8B
330
27BA4
100
AcDbEntity
  8
DEFPOINTS
 62
     0
 48
50.0
100
AcDbPoint
 10
10028.84202293515
 20
10186.29349738973
 30
0.0
  0
POINT
  5
27C8C
330
27BA4
100
AcDbEntity
  8
DEFPOINTS
 62
     0
 48
50.0
100
AcDbPoint
 10
10028.84202293515
 20
10599.92298935689
 30
0.0
  0
ENDBLK
  5
27BAF
330
27BA4
100
AcDbEntity
  8
0
 48
50.0
100
AcDbBlockEnd
  0
BLOCK
  5
27BBC
330
27BB0
100
AcDbEntity
  8
0
 48
50.0
100
AcDbBlockBegin
  2
*D20
 70
     1
 10
0.0
 20
0.0
 30
0.0
  3
*D20
  1

  0
LINE
  5
27C8D
330
27BB0
100
AcDbEntity
  8
寸法
 62
     0
 48
50.0
370
    -2
100
AcDbLine
 10
9268.842022935151
 20
10211.29349738973
 30
0.0
 11
9268.842022935151
 21
10960.84556935107
 31
0.0
  0
LINE
  5
27C8E
330
27BB0
100
AcDbEntity
  8
寸法
 62
     0
 48
50.0
370
    -2
100
AcDbLine
 10
9219.842022935152
 20
10290.29349738973
 30
0.0
 11
9219.842022935152
 21
10960.84556935107
 31
0.0
  0
LINE
  5
27C8F
330
27BB0
100
AcDbEntity
  8
寸法
 62
     0
 48
50.0
370
    -2
100
AcDbLine
 10
9268.842022935151
 20
10885.84556935107
 30
0.0
 11
9393.842022935151
 21
10885.84556935107
 31
0.0
  0
LINE
  5
27C90
330
27BB0
100
AcDbEntity
  8
寸法
 62
     0
 48
50.0
370
    -2
100
AcDbLine
 10
9219.842022935152
 20
10885.84556935107
 30
0.0
 11
8854.405469929004
 21
10885.84556935107
 31
0.0
  0
LINE
  5
27C91
330
27BB0
100
AcDbEntity
  8
寸法
 62
     0
 48
50.0
370
    -2
100
AcDbLine
 10
9268.842022935151
 20
10885.84556935107
 30
0.0
 11
9219.842022935152
 21
10885.84556935107
 31
0.0
  0
INSERT
  5
27C92
330
27BB0
100
AcDbEntity
  8
寸法
 62
     0
 48
50.0
370
    -2
100
AcDbBlockReference
  2
_DOTSMALL
 10
9268.842022935151
 20
10885.84556935107
 30
0.0
 41
125.0
 42
125.0
 43
125.0
 50
180.0
  0
INSERT
  5
27C93
330
27BB0
100
AcDbEntity
  8
寸法
 62
     0
 48
50.0
370
    -2
100
AcDbBlockReference
  2
_DOTSMALL
 10
9219.842022935152
 20
10885.84556935107
 30
0.0
 41
125.0
 42
125.0
 43
125.0
  0
MTEXT
  5
27C94
330
27BB0
100
AcDbEntity
  8
寸法
 62
     7
 48
50.0
100
AcDbMText
 10
8912.123746432078
 20
10985.84556935107
 30
0.0
 40
150.0
 41
0.0
 71
     5
 72
     1
  1
\A1;a
  7
STYLE1
 73
     1
 44
1.0
1001
ACAD
1000
MTEXTBEGIN
1070
    73
1070
     1
1070
    44
1040
1.0
1070
    74
1070
     0
1000
MTEXTEND
  0
POINT
  5
27C95
330
27BB0
100
AcDbEntity
  8
DEFPOINTS
 62
     0
 48
50.0
100
AcDbPoint
 10
9268.842022935151
 20
10186.29349738973
 30
0.0
  0
POINT
  5
27C96
330
27BB0
100
AcDbEntity
  8
DEFPOINTS
 62
     0
 48
50.0
100
AcDbPoint
 10
9219.842022935152
 20
10265.29349738973
 30
0.0
  0
POINT
  5
27C97
330
27BB0
100
AcDbEntity
  8
DEFPOINTS
 62
     0
 48
50.0
100
AcDbPoint
 10
9219.842022935152
 20
10885.84556935107
 30
0.0
  0
ENDBLK
  5
27BBD
330
27BB0
100
AcDbEntity
  8
0
 48
50.0
100
AcDbBlockEnd
  0
BLOCK
  5
27C06
330
27BFC
100
AcDbEntity
  8
0
 48
50.0
100
AcDbBlockBegin
  2
*D26
 70
     1
 10
0.0
 20
0.0
 30
0.0
  3
*D26
  1

  0
LINE
  5
27CC7
330
27BFC
100
AcDbEntity
  8
寸法
 62
     0
 48
50.0
370
    -2
100
AcDbLine
 10
10840.84202293515
 20
10186.29349738973
 30
0.0
 11
11086.59704722048
 21
10186.29349738973
 31
0.0
  0
LINE
  5
27CC8
330
27BFC
100
AcDbEntity
  8
寸法
 62
     0
 48
50.0
370
    -2
100
AcDbLine
 10
10840.84202293515
 20
9465.293497389717
 30
0.0
 11
11086.59704722048
 21
9465.293497389717
 31
0.0
  0
LINE
  5
27CC9
330
27BFC
100
AcDbEntity
  8
寸法
 62
     0
 48
50.0
370
    -2
100
AcDbLine
 10
11011.59704722048
 20
10186.29349738973
 30
0.0
 11
11011.59704722048
 21
9465.293497389717
 31
0.0
  0
INSERT
  5
27CCA
330
27BFC
100
AcDbEntity
  8
寸法
 62
     0
 48
50.0
370
    -2
100
AcDbBlockReference
  2
_DOTSMALL
 10
11011.59704722048
 20
10186.29349738973
 30
0.0
 41
125.0
 42
125.0
 43
125.0
 50
90.0
  0
INSERT
  5
27CCB
330
27BFC
100
AcDbEntity
  8
寸法
 62
     0
 48
50.0
370
    -2
100
AcDbBlockReference
  2
_DOTSMALL
 10
11011.59704722048
 20
9465.293497389717
 30
0.0
 41
125.0
 42
125.0
 43
125.0
 50
270.0
  0
MTEXT
  5
27CCC
330
27BFC
100
AcDbEntity
  8
寸法
 62
     7
 48
50.0
100
AcDbMText
 10
10911.58228344095
 20
9825.793497389726
 30
0.0
 40
150.0
 41
0.0
 71
     5
 72
     1
  1
\A1;721
  7
STYLE1
 11
0.0000000000000001
 21
1.0
 31
0.0
 73
     1
 44
1.0
1001
ACAD
1000
MTEXTBEGIN
1070
    73
1070
     1
1070
    44
1040
1.0
1070
    74
1070
     0
1000
MTEXTEND
  0
POINT
  5
27CCD
330
27BFC
100
AcDbEntity
  8
DEFPOINTS
 62
     0
 48
50.0
100
AcDbPoint
 10
10815.84202293515
 20
10186.29349738973
 30
0.0
  0
POINT
  5
27CCE
330
27BFC
100
AcDbEntity
  8
DEFPOINTS
 62
     0
 48
50.0
100
AcDbPoint
 10
10815.84202293515
 20
9465.293497389717
 30
0.0
  0
POINT
  5
27CCF
330
27BFC
100
AcDbEntity
  8
DEFPOINTS
 62
     0
 48
50.0
100
AcDbPoint
 10
11011.59704722048
 20
9465.293497389717
 30
0.0
  0
ENDBLK
  5
27C07
330
27BFC
100
AcDbEntity
  8
0
 48
50.0
100
AcDbBlockEnd
  0
BLOCK
  5
27C12
330
27C08
100
AcDbEntity
  8
0
 48
50.0
100
AcDbBlockBegin
  2
*D27
 70
     1
 10
0.0
 20
0.0
 30
0.0
  3
*D27
  1

  0
LINE
  5
27CD0
330
27C08
100
AcDbEntity
  8
寸法
 62
     0
 48
50.0
370
    -2
100
AcDbLine
 10
10840.84202293515
 20
9465.293497389717
 30
0.0
 11
11086.59704722048
 21
9465.293497389717
 31
0.0
  0
LINE
  5
27CD1
330
27C08
100
AcDbEntity
  8
寸法
 62
     0
 48
50.0
370
    -2
100
AcDbLine
 10
10840.84202293515
 20
8665.293497389717
 30
0.0
 11
11086.59704722048
 21
8665.293497389717
 31
0.0
  0
LINE
  5
27CD2
330
27C08
100
AcDbEntity
  8
寸法
 62
     0
 48
50.0
370
    -2
100
AcDbLine
 10
11011.59704722048
 20
9465.293497389717
 30
0.0
 11
11011.59704722048
 21
8665.293497389717
 31
0.0
  0
INSERT
  5
27CD3
330
27C08
100
AcDbEntity
  8
寸法
 62
     0
 48
50.0
370
    -2
100
AcDbBlockReference
  2
_DOTSMALL
 10
11011.59704722048
 20
9465.293497389717
 30
0.0
 41
125.0
 42
125.0
 43
125.0
 50
90.0
  0
INSERT
  5
27CD4
330
27C08
100
AcDbEntity
  8
寸法
 62
     0
 48
50.0
370
    -2
100
AcDbBlockReference
  2
_DOTSMALL
 10
11011.59704722048
 20
8665.293497389717
 30
0.0
 41
125.0
 42
125.0
 43
125.0
 50
270.0
  0
MTEXT
  5
27CD5
330
27C08
100
AcDbEntity
  8
寸法
 62
     7
 48
50.0
100
AcDbMText
 10
10911.59704722048
 20
9065.293497389717
 30
0.0
 40
150.0
 41
0.0
 71
     5
 72
     1
  1
\A1;800
  7
STYLE1
 11
0.0000000000000001
 21
1.0
 31
0.0
 73
     1
 44
1.0
1001
ACAD
1000
MTEXTBEGIN
1070
    73
1070
     1
1070
    44
1040
1.0
1070
    74
1070
     0
1000
MTEXTEND
  0
POINT
  5
27CD6
330
27C08
100
AcDbEntity
  8
DEFPOINTS
 62
     0
 48
50.0
100
AcDbPoint
 10
10815.84202293515
 20
9465.293497389717
 30
0.0
  0
POINT
  5
27CD7
330
27C08
100
AcDbEntity
  8
DEFPOINTS
 62
     0
 48
50.0
100
AcDbPoint
 10
10815.84202293515
 20
8665.293497389717
 30
0.0
  0
POINT
  5
27CD8
330
27C08
100
AcDbEntity
  8
DEFPOINTS
 62
     0
 48
50.0
100
AcDbPoint
 10
11011.59704722048
 20
8665.293497389717
 30
0.0
  0
ENDBLK
  5
27C13
330
27C08
100
AcDbEntity
  8
0
 48
50.0
100
AcDbBlockEnd
  0
BLOCK
  5
27C1E
330
27C14
100
AcDbEntity
  8
0
 48
50.0
100
AcDbBlockBegin
  2
*D28
 70
     1
 10
0.0
 20
0.0
 30
0.0
  3
*D28
  1

  0
LINE
  5
27CD9
330
27C14
100
AcDbEntity
  8
寸法
 62
     0
 48
50.0
370
    -2
100
AcDbLine
 10
10840.84202293515
 20
8665.293497389717
 30
0.0
 11
11086.59704722048
 21
8665.293497389717
 31
0.0
  0
LINE
  5
27CDA
330
27C14
100
AcDbEntity
  8
寸法
 62
     0
 48
50.0
370
    -2
100
AcDbLine
 10
10840.84202293515
 20
7865.293497389716
 30
0.0
 11
11086.59704722048
 21
7865.293497389716
 31
0.0
  0
LINE
  5
27CDB
330
27C14
100
AcDbEntity
  8
寸法
 62
     0
 48
50.0
370
    -2
100
AcDbLine
 10
11011.59704722048
 20
8665.293497389717
 30
0.0
 11
11011.59704722048
 21
7865.293497389716
 31
0.0
  0
INSERT
  5
27CDC
330
27C14
100
AcDbEntity
  8
寸法
 62
     0
 48
50.0
370
    -2
100
AcDbBlockReference
  2
_DOTSMALL
 10
11011.59704722048
 20
8665.293497389717
 30
0.0
 41
125.0
 42
125.0
 43
125.0
 50
90.0
  0
INSERT
  5
27CDD
330
27C14
100
AcDbEntity
  8
寸法
 62
     0
 48
50.0
370
    -2
100
AcDbBlockReference
  2
_DOTSMALL
 10
11011.59704722048
 20
7865.293497389716
 30
0.0
 41
125.0
 42
125.0
 43
125.0
 50
270.0
  0
MTEXT
  5
27CDE
330
27C14
100
AcDbEntity
  8
寸法
 62
     7
 48
50.0
100
AcDbMText
 10
10911.59704722048
 20
8265.293497389718
 30
0.0
 40
150.0
 41
0.0
 71
     5
 72
     1
  1
\A1;800
  7
STYLE1
 11
0.0000000000000001
 21
1.0
 31
0.0
 73
     1
 44
1.0
1001
ACAD
1000
MTEXTBEGIN
1070
    73
1070
     1
1070
    44
1040
1.0
1070
    74
1070
     0
1000
MTEXTEND
  0
POINT
  5
27CDF
330
27C14
100
AcDbEntity
  8
DEFPOINTS
 62
     0
 48
50.0
100
AcDbPoint
 10
10815.84202293515
 20
8665.293497389717
 30
0.0
  0
POINT
  5
27CE0
330
27C14
100
AcDbEntity
  8
DEFPOINTS
 62
     0
 48
50.0
100
AcDbPoint
 10
10815.84202293515
 20
7865.293497389716
 30
0.0
  0
POINT
  5
27CE1
330
27C14
100
AcDbEntity
  8
DEFPOINTS
 62
     0
 48
50.0
100
AcDbPoint
 10
11011.59704722048
 20
7865.293497389716
 30
0.0
  0
ENDBLK
  5
27C1F
330
27C14
100
AcDbEntity
  8
0
 48
50.0
100
AcDbBlockEnd
  0
BLOCK
  5
27C2A
330
27C20
100
AcDbEntity
  8
0
 48
50.0
100
AcDbBlockBegin
  2
*D29
 70
     1
 10
0.0
 20
0.0
 30
0.0
  3
*D29
  1

  0
LINE
  5
27CE2
330
27C20
100
AcDbEntity
  8
寸法
 62
     0
 48
50.0
370
    -2
100
AcDbLine
 10
10840.84202293515
 20
7865.293497389716
 30
0.0
 11
11086.59704722048
 21
7865.293497389716
 31
0.0
  0
LINE
  5
27CE3
330
27C20
100
AcDbEntity
  8
寸法
 62
     0
 48
50.0
370
    -2
100
AcDbLine
 10
10840.84202293515
 20
7134.293497389731
 30
0.0
 11
11086.59704722048
 21
7134.293497389731
 31
0.0
  0
LINE
  5
27CE4
330
27C20
100
AcDbEntity
  8
寸法
 62
     0
 48
50.0
370
    -2
100
AcDbLine
 10
11011.59704722048
 20
7865.293497389716
 30
0.0
 11
11011.59704722048
 21
7134.293497389731
 31
0.0
  0
INSERT
  5
27CE5
330
27C20
100
AcDbEntity
  8
寸法
 62
     0
 48
50.0
370
    -2
100
AcDbBlockReference
  2
_DOTSMALL
 10
11011.59704722048
 20
7865.293497389716
 30
0.0
 41
125.0
 42
125.0
 43
125.0
 50
90.0
  0
INSERT
  5
27CE6
330
27C20
100
AcDbEntity
  8
寸法
 62
     0
 48
50.0
370
    -2
100
AcDbBlockReference
  2
_DOTSMALL
 10
11011.59704722048
 20
7134.293497389731
 30
0.0
 41
125.0
 42
125.0
 43
125.0
 50
270.0
  0
MTEXT
  5
27CE7
330
27C20
100
AcDbEntity
  8
寸法
 62
     7
 48
50.0
100
AcDbMText
 10
10911.59704722048
 20
7499.793497389726
 30
0.0
 40
150.0
 41
0.0
 71
     5
 72
     1
  1
\A1;731
  7
STYLE1
 11
0.0000000000000001
 21
1.0
 31
0.0
 73
     1
 44
1.0
1001
ACAD
1000
MTEXTBEGIN
1070
    73
1070
     1
1070
    44
1040
1.0
1070
    74
1070
     0
1000
MTEXTEND
  0
POINT
  5
27CE8
330
27C20
100
AcDbEntity
  8
DEFPOINTS
 62
     0
 48
50.0
100
AcDbPoint
 10
10815.84202293515
 20
7865.293497389716
 30
0.0
  0
POINT
  5
27CE9
330
27C20
100
AcDbEntity
  8
DEFPOINTS
 62
     0
 48
50.0
100
AcDbPoint
 10
10815.84202293515
 20
7134.293497389731
 30
0.0
  0
POINT
  5
27CEA
330
27C20
100
AcDbEntity
  8
DEFPOINTS
 62
     0
 48
50.0
100
AcDbPoint
 10
11011.59704722048
 20
7134.293497389731
 30
0.0
  0
ENDBLK
  5
27C2B
330
27C20
100
AcDbEntity
  8
0
 48
50.0
100
AcDbBlockEnd
  0
BLOCK
  5
27D3D
330
27D31
100
AcDbEntity
  8
0
 48
50.0
100
AcDbBlockBegin
  2
*D30
 70
     1
 10
0.0
 20
0.0
 30
0.0
  3
*D30
  1

  0
LINE
  5
27D32
330
27D31
100
AcDbEntity
  8
寸法
 62
     0
 48
50.0
370
    -2
100
AcDbLine
 10
11380.84202293515
 20
7009.293497389731
 30
0.0
 11
11380.84202293515
 21
6462.396910521093
 31
0.0
  0
LINE
  5
27D33
330
27D31
100
AcDbEntity
  8
寸法
 62
     0
 48
50.0
370
    -2
100
AcDbLine
 10
11580.84202293515
 20
7009.293497389731
 30
0.0
 11
11580.84202293515
 21
6462.396910521093
 31
0.0
  0
LINE
  5
27D34
330
27D31
100
AcDbEntity
  8
寸法
 62
     0
 48
50.0
370
    -2
100
AcDbLine
 10
11380.84202293515
 20
6537.396910521093
 30
0.0
 11
11255.84202293515
 21
6537.396910521093
 31
0.0
  0
LINE
  5
27D35
330
27D31
100
AcDbEntity
  8
寸法
 62
     0
 48
50.0
370
    -2
100
AcDbLine
 10
11580.84202293515
 20
6537.396910521093
 30
0.0
 11
11705.84202293515
 21
6537.396910521093
 31
0.0
  0
LINE
  5
27D36
330
27D31
100
AcDbEntity
  8
寸法
 62
     0
 48
50.0
370
    -2
100
AcDbLine
 10
11380.84202293515
 20
6537.396910521093
 30
0.0
 11
11580.84202293515
 21
6537.396910521093
 31
0.0
  0
INSERT
  5
27D37
330
27D31
100
AcDbEntity
  8
寸法
 62
     0
 48
50.0
370
    -2
100
AcDbBlockReference
  2
_DOTSMALL
 10
11380.84202293515
 20
6537.396910521093
 30
0.0
 41
125.0
 42
125.0
 43
125.0
  0
INSERT
  5
27D38
330
27D31
100
AcDbEntity
  8
寸法
 62
     0
 48
50.0
370
    -2
100
AcDbBlockReference
  2
_DOTSMALL
 10
11580.84202293515
 20
6537.396910521093
 30
0.0
 41
125.0
 42
125.0
 43
125.0
 50
180.0
  0
MTEXT
  5
27D39
330
27D31
100
AcDbEntity
  8
寸法
 62
     7
 48
50.0
100
AcDbMText
 10
11480.84202293515
 20
6637.411674300619
 30
0.0
 40
150.0
 41
0.0
 71
     5
 72
     1
  1
\A1;200
  7
STYLE1
 73
     1
 44
1.0
1001
ACAD
1000
MTEXTBEGIN
1070
    73
1070
     1
1070
    44
1040
1.0
1070
    74
1070
     0
1000
MTEXTEND
  0
POINT
  5
27D3A
330
27D31
100
AcDbEntity
  8
DEFPOINTS
 62
     0
 48
50.0
100
AcDbPoint
 10
11380.84202293515
 20
7034.293497389731
 30
0.0
  0
POINT
  5
27D3B
330
27D31
100
AcDbEntity
  8
DEFPOINTS
 62
     0
 48
50.0
100
AcDbPoint
 10
11580.84202293515
 20
7034.293497389731
 30
0.0
  0
POINT
  5
27D3C
330
27D31
100
AcDbEntity
  8
DEFPOINTS
 62
     0
 48
50.0
100
AcDbPoint
 10
11580.84202293515
 20
6537.396910521093
 30
0.0
  0
ENDBLK
  5
27D3E
330
27D31
100
AcDbEntity
  8
0
 48
50.0
100
AcDbBlockEnd
  0
BLOCK
  5
27D4C
330
27D40
100
AcDbEntity
  8
0
 48
50.0
100
AcDbBlockBegin
  2
*D31
 70
     1
 10
0.0
 20
0.0
 30
0.0
  3
*D31
  1

  0
LINE
  5
27D41
330
27D40
100
AcDbEntity
  8
寸法
 62
     0
 48
50.0
370
    -2
100
AcDbLine
 10
11605.84202293515
 20
7234.293497389732
 30
0.0
 11
12223.50099548274
 21
7234.293497389732
 31
0.0
  0
LINE
  5
27D42
330
27D40
100
AcDbEntity
  8
寸法
 62
     0
 48
50.0
370
    -2
100
AcDbLine
 10
11605.84202293515
 20
7034.293497389731
 30
0.0
 11
12223.50099548274
 21
7034.293497389731
 31
0.0
  0
LINE
  5
27D43
330
27D40
100
AcDbEntity
  8
寸法
 62
     0
 48
50.0
370
    -2
100
AcDbLine
 10
12148.50099548274
 20
7234.293497389732
 30
0.0
 11
12148.50099548274
 21
7359.293497389732
 31
0.0
  0
LINE
  5
27D44
330
27D40
100
AcDbEntity
  8
寸法
 62
     0
 48
50.0
370
    -2
100
AcDbLine
 10
12148.50099548274
 20
7034.293497389731
 30
0.0
 11
12148.50099548274
 21
6909.293497389731
 31
0.0
  0
LINE
  5
27D45
330
27D40
100
AcDbEntity
  8
寸法
 62
     0
 48
50.0
370
    -2
100
AcDbLine
 10
12148.50099548274
 20
7234.293497389732
 30
0.0
 11
12148.50099548274
 21
7034.293497389731
 31
0.0
  0
INSERT
  5
27D46
330
27D40
100
AcDbEntity
  8
寸法
 62
     0
 48
50.0
370
    -2
100
AcDbBlockReference
  2
_DOTSMALL
 10
12148.50099548274
 20
7234.293497389732
 30
0.0
 41
125.0
 42
125.0
 43
125.0
 50
270.0
  0
INSERT
  5
27D47
330
27D40
100
AcDbEntity
  8
寸法
 62
     0
 48
50.0
370
    -2
100
AcDbBlockReference
  2
_DOTSMALL
 10
12148.50099548274
 20
7034.293497389731
 30
0.0
 41
125.0
 42
125.0
 43
125.0
 50
90.0
  0
MTEXT
  5
27D48
330
27D40
100
AcDbEntity
  8
寸法
 62
     7
 48
50.0
100
AcDbMText
 10
12048.48623170321
 20
7134.293497389734
 30
0.0
 40
150.0
 41
0.0
 71
     5
 72
     1
  1
\A1;200
  7
STYLE1
 11
0.0000000000000001
 21
1.0
 31
0.0
 73
     1
 44
1.0
1001
ACAD
1000
MTEXTBEGIN
1070
    73
1070
     1
1070
    44
1040
1.0
1070
    74
1070
     0
1000
MTEXTEND
  0
POINT
  5
27D49
330
27D40
100
AcDbEntity
  8
DEFPOINTS
 62
     0
 48
50.0
100
AcDbPoint
 10
11580.84202293515
 20
7234.293497389732
 30
0.0
  0
POINT
  5
27D4A
330
27D40
100
AcDbEntity
  8
DEFPOINTS
 62
     0
 48
50.0
100
AcDbPoint
 10
11580.84202293515
 20
7034.293497389731
 30
0.0
  0
POINT
  5
27D4B
330
27D40
100
AcDbEntity
  8
DEFPOINTS
 62
     0
 48
50.0
100
AcDbPoint
 10
12148.50099548274
 20
7034.293497389731
 30
0.0
  0
ENDBLK
  5
27D4D
330
27D40
100
AcDbEntity
  8
0
 48
50.0
100
AcDbBlockEnd
  0
BLOCK
  5
28076
330
2806C
100
AcDbEntity
  8
0
 48
50.0
100
AcDbBlockBegin
  2
*D36
 70
     1
 10
0.0
 20
0.0
 30
0.0
  3
*D36
  1

  0
LINE
  5
2809C
330
2806C
100
AcDbEntity
  8
寸法
 62
     0
 48
50.0
370
    -2
100
AcDbLine
 10
8705.29422979246
 20
2706.848900255178
 30
0.0
 11
9067.786535460971
 21
2706.848900255178
 31
0.0
  0
LINE
  5
2809D
330
2806C
100
AcDbEntity
  8
寸法
 62
     0
 48
50.0
370
    -2
100
AcDbLine
 10
8705.29422979246
 20
2446.848900255178
 30
0.0
 11
9067.786535460971
 21
2446.848900255178
 31
0.0
  0
LINE
  5
2809E
330
2806C
100
AcDbEntity
  8
寸法
 62
     0
 48
50.0
370
    -2
100
AcDbLine
 10
9007.78653546097
 20
2706.848900255178
 30
0.0
 11
9007.78653546097
 21
2446.848900255178
 31
0.0
  0
INSERT
  5
2809F
330
2806C
100
AcDbEntity
  8
寸法
 62
     0
 48
50.0
370
    -2
100
AcDbBlockReference
  2
_DOTSMALL
 10
9007.78653546097
 20
2706.848900255178
 30
0.0
 41
100.0
 42
100.0
 43
100.0
 50
90.0
  0
INSERT
  5
280A0
330
2806C
100
AcDbEntity
  8
寸法
 62
     0
 48
50.0
370
    -2
100
AcDbBlockReference
  2
_DOTSMALL
 10
9007.78653546097
 20
2446.848900255178
 30
0.0
 41
100.0
 42
100.0
 43
100.0
 50
270.0
  0
MTEXT
  5
280A1
330
2806C
100
AcDbEntity
  8
寸法
 62
     7
 48
50.0
100
AcDbMText
 10
8907.786535460971
 20
2576.848900255179
 30
0.0
 40
120.0
 41
0.0
 71
     5
 72
     1
  1
\A1;a
  7
STYLE1
 11
0.0000000000000001
 21
1.0
 31
0.0
 73
     1
 44
1.0
1001
ACAD
1000
MTEXTBEGIN
1070
    73
1070
     1
1070
    44
1040
1.0
1070
    74
1070
     0
1000
MTEXTEND
  0
POINT
  5
280A2
330
2806C
100
AcDbEntity
  8
DEFPOINTS
 62
     0
 48
50.0
100
AcDbPoint
 10
8685.294229792459
 20
2706.848900255178
 30
0.0
  0
POINT
  5
280A3
330
2806C
100
AcDbEntity
  8
DEFPOINTS
 62
     0
 48
50.0
100
AcDbPoint
 10
8685.294229792459
 20
2446.848900255178
 30
0.0
  0
POINT
  5
280A4
330
2806C
100
AcDbEntity
  8
DEFPOINTS
 62
     0
 48
50.0
100
AcDbPoint
 10
9007.78653546097
 20
2446.848900255178
 30
0.0
  0
ENDBLK
  5
28077
330
2806C
100
AcDbEntity
  8
0
 48
50.0
100
AcDbBlockEnd
  0
BLOCK
  5
28082
330
28078
100
AcDbEntity
  8
0
 48
50.0
100
AcDbBlockBegin
  2
*D37
 70
     1
 10
0.0
 20
0.0
 30
0.0
  3
*D37
  1

  0
LINE
  5
280A5
330
28078
100
AcDbEntity
  8
寸法
 62
     0
 48
50.0
370
    -2
100
AcDbLine
 10
8145.294229792456
 20
2446.848900255178
 30
0.0
 11
7983.965558594268
 21
2446.848900255178
 31
0.0
  0
LINE
  5
280A6
330
28078
100
AcDbEntity
  8
寸法
 62
     0
 48
50.0
370
    -2
100
AcDbLine
 10
8340.294229792457
 20
1926.848900255176
 30
0.0
 11
7983.965558594268
 21
1926.848900255176
 31
0.0
  0
LINE
  5
280A7
330
28078
100
AcDbEntity
  8
寸法
 62
     0
 48
50.0
370
    -2
100
AcDbLine
 10
8043.965558594269
 20
2446.848900255178
 30
0.0
 11
8043.965558594267
 21
1926.848900255176
 31
0.0
  0
INSERT
  5
280A8
330
28078
100
AcDbEntity
  8
寸法
 62
     0
 48
50.0
370
    -2
100
AcDbBlockReference
  2
_DOTSMALL
 10
8043.965558594269
 20
2446.848900255178
 30
0.0
 41
100.0
 42
100.0
 43
100.0
 50
90.0
  0
INSERT
  5
280A9
330
28078
100
AcDbEntity
  8
寸法
 62
     0
 48
50.0
370
    -2
100
AcDbBlockReference
  2
_DOTSMALL
 10
8043.965558594267
 20
1926.848900255176
 30
0.0
 41
100.0
 42
100.0
 43
100.0
 50
270.0
  0
MTEXT
  5
280AA
330
28078
100
AcDbEntity
  8
寸法
 62
     7
 48
50.0
100
AcDbMText
 10
7943.953747570645
 20
2170.760923305854
 30
0.0
 40
120.0
 41
0.0
 71
     5
 72
     1
  1
\A1;200
  7
STYLE1
 11
0.0000000000000001
 21
1.0
 31
0.0
 73
     1
 44
1.0
1001
ACAD
1000
MTEXTBEGIN
1070
    73
1070
     1
1070
    44
1040
1.0
1070
    74
1070
     0
1000
MTEXTEND
  0
POINT
  5
280AB
330
28078
100
AcDbEntity
  8
DEFPOINTS
 62
     0
 48
50.0
100
AcDbPoint
 10
8165.294229792456
 20
2446.848900255178
 30
0.0
  0
POINT
  5
280AC
330
28078
100
AcDbEntity
  8
DEFPOINTS
 62
     0
 48
50.0
100
AcDbPoint
 10
8360.294229792456
 20
1926.848900255176
 30
0.0
  0
POINT
  5
280AD
330
28078
100
AcDbEntity
  8
DEFPOINTS
 62
     0
 48
50.0
100
AcDbPoint
 10
8043.965558594267
 20
1926.848900255176
 30
0.0
  0
ENDBLK
  5
28083
330
28078
100
AcDbEntity
  8
0
 48
50.0
100
AcDbBlockEnd
  0
BLOCK
  5
2808E
330
28084
100
AcDbEntity
  8
0
 48
50.0
100
AcDbBlockBegin
  2
*D38
 70
     1
 10
0.0
 20
0.0
 30
0.0
  3
*D38
  1

  0
LINE
  5
280AE
330
28084
100
AcDbEntity
  8
寸法
 62
     0
 48
50.0
370
    -2
100
AcDbLine
 10
12752.84318671893
 20
2836.848900255178
 30
0.0
 11
13056.26940655118
 21
2836.848900255178
 31
0.0
  0
LINE
  5
280AF
330
28084
100
AcDbEntity
  8
寸法
 62
     0
 48
50.0
370
    -2
100
AcDbLine
 10
12791.69876723636
 20
2446.848900255178
 30
0.0
 11
13056.26940655118
 21
2446.848900255178
 31
0.0
  0
LINE
  5
280B0
330
28084
100
AcDbEntity
  8
寸法
 62
     0
 48
50.0
370
    -2
100
AcDbLine
 10
12996.26940655118
 20
2836.848900255178
 30
0.0
 11
12996.26940655118
 21
2446.848900255178
 31
0.0
  0
INSERT
  5
280B1
330
28084
100
AcDbEntity
  8
寸法
 62
     0
 48
50.0
370
    -2
100
AcDbBlockReference
  2
_DOTSMALL
 10
12996.26940655118
 20
2836.848900255178
 30
0.0
 41
100.0
 42
100.0
 43
100.0
 50
90.0
  0
INSERT
  5
280B2
330
28084
100
AcDbEntity
  8
寸法
 62
     0
 48
50.0
370
    -2
100
AcDbBlockReference
  2
_DOTSMALL
 10
12996.26940655118
 20
2446.848900255178
 30
0.0
 41
100.0
 42
100.0
 43
100.0
 50
270.0
  0
MTEXT
  5
280B3
330
28084
100
AcDbEntity
  8
寸法
 62
     7
 48
50.0
100
AcDbMText
 10
12896.26940655118
 20
2641.84890025518
 30
0.0
 40
120.0
 41
0.0
 71
     5
 72
     1
  1
\A1;c
  7
STYLE1
 11
0.0000000000000001
 21
1.0
 31
0.0
 73
     1
 44
1.0
1001
ACAD
1000
MTEXTBEGIN
1070
    73
1070
     1
1070
    44
1040
1.0
1070
    74
1070
     0
1000
MTEXTEND
  0
POINT
  5
280B4
330
28084
100
AcDbEntity
  8
DEFPOINTS
 62
     0
 48
50.0
100
AcDbPoint
 10
12732.84318671893
 20
2836.848900255178
 30
0.0
  0
POINT
  5
280B5
330
28084
100
AcDbEntity
  8
DEFPOINTS
 62
     0
 48
50.0
100
AcDbPoint
 10
12771.69876723636
 20
2446.848900255178
 30
0.0
  0
POINT
  5
280B6
330
28084
100
AcDbEntity
  8
DEFPOINTS
 62
     0
 48
50.0
100
AcDbPoint
 10
12996.26940655118
 20
2446.848900255178
 30
0.0
  0
ENDBLK
  5
2808F
330
28084
100
AcDbEntity
  8
0
 48
50.0
100
AcDbBlockEnd
  0
BLOCK
  5
2809A
330
28090
100
AcDbEntity
  8
0
 48
50.0
100
AcDbBlockBegin
  2
*D39
 70
     1
 10
0.0
 20
0.0
 30
0.0
  3
*D39
  1

  0
LINE
  5
280B7
330
28090
100
AcDbEntity
  8
寸法
 62
     0
 48
50.0
370
    -2
100
AcDbLine
 10
10802.98237314664
 20
2706.84890025518
 30
0.0
 11
11131.85959484842
 21
2706.84890025518
 31
0.0
  0
LINE
  5
280B8
330
28090
100
AcDbEntity
  8
寸法
 62
     0
 48
50.0
370
    -2
100
AcDbLine
 10
10828.26638110948
 20
2446.848900255178
 30
0.0
 11
11131.85959484842
 21
2446.848900255178
 31
0.0
  0
LINE
  5
280B9
330
28090
100
AcDbEntity
  8
寸法
 62
     0
 48
50.0
370
    -2
100
AcDbLine
 10
11071.85959484842
 20
2706.84890025518
 30
0.0
 11
11071.85959484842
 21
2446.848900255178
 31
0.0
  0
INSERT
  5
280BA
330
28090
100
AcDbEntity
  8
寸法
 62
     0
 48
50.0
370
    -2
100
AcDbBlockReference
  2
_DOTSMALL
 10
11071.85959484842
 20
2706.84890025518
 30
0.0
 41
100.0
 42
100.0
 43
100.0
 50
90.0
  0
INSERT
  5
280BB
330
28090
100
AcDbEntity
  8
寸法
 62
     0
 48
50.0
370
    -2
100
AcDbBlockReference
  2
_DOTSMALL
 10
11071.85959484842
 20
2446.848900255178
 30
0.0
 41
100.0
 42
100.0
 43
100.0
 50
270.0
  0
MTEXT
  5
280BC
330
28090
100
AcDbEntity
  8
寸法
 62
     7
 48
50.0
100
AcDbMText
 10
10971.85959484842
 20
2576.848900255181
 30
0.0
 40
120.0
 41
0.0
 71
     5
 72
     1
  1
\A1;b
  7
STYLE1
 11
0.0000000000000001
 21
1.0
 31
0.0
 73
     1
 44
1.0
1001
ACAD
1000
MTEXTBEGIN
1070
    73
1070
     1
1070
    44
1040
1.0
1070
    74
1070
     0
1000
MTEXTEND
  0
POINT
  5
280BD
330
28090
100
AcDbEntity
  8
DEFPOINTS
 62
     0
 48
50.0
100
AcDbPoint
 10
10782.98237314664
 20
2706.84890025518
 30
0.0
  0
POINT
  5
280BE
330
28090
100
AcDbEntity
  8
DEFPOINTS
 62
     0
 48
50.0
100
AcDbPoint
 10
10808.26638110948
 20
2446.848900255178
 30
0.0
  0
POINT
  5
280BF
330
28090
100
AcDbEntity
  8
DEFPOINTS
 62
     0
 48
50.0
100
AcDbPoint
 10
11071.85959484842
 20
2446.848900255178
 30
0.0
  0
ENDBLK
  5
2809B
330
28090
100
AcDbEntity
  8
0
 48
50.0
100
AcDbBlockEnd
  0
ENDSEC
  0
SECTION
  2
ENTITIES
  0
MTEXT
  5
763F
330
747D
100
AcDbEntity
  8
0
100
AcDbMText
 10
302.846345836809
 20
280.1983726409901
 30
0.0
 40
3.5
 41
5.323721266742722
 71
     1
 72
     5
  1

  7
MSMINCHO
 73
     1
 44
1.0
1001
ACAD
1000
MTEXTBEGIN
1070
    73
1070
     1
1070
    44
1040
1.0
1070
    74
1070
     0
1000
MTEXTEND
  0
INSERT
  5
F235
330
747D
100
AcDbEntity
  8
0
100
AcDbBlockReference
  2
作図枠S50
 10
0.0
 20
0.0
 30
0.0
  0
LINE
  5
10B56
330
747D
100
AcDbEntity
  8
補助
  6
PHANTOM
 62
   230
 48
50.0
100
AcDbLine
 10
175.0
 20
0.0
 30
0.0
 11
174.9999999999993
 21
14262.0
 31
0.0
  0
LINE
  5
10B57
330
747D
100
AcDbEntity
  8
補助
  6
PHANTOM
 62
   230
 48
50.0
100
AcDbLine
 10
174.9999999999993
 20
14262.0
 30
0.0
 11
20384.0
 21
14262.0
 31
0.0
  0
LINE
  5
10B5C
330
747D
100
AcDbEntity
  8
仕様書枠
 48
50.0
100
AcDbLine
 10
20384.0
 20
1500.0
 30
0.0
 11
20384.0
 21
-0.0000000000001137
 31
0.0
  0
LINE
  5
10B5D
330
747D
100
AcDbEntity
  8
仕様書枠
 48
50.0
100
AcDbLine
 10
175.0
 20
0.0
 30
0.0
 11
20384.0
 21
-0.0000000000001137
 31
0.0
  0
LINE
  5
10B5E
330
747D
100
AcDbEntity
  8
補助
  6
PHANTOM
 62
   230
 48
50.0
100
AcDbLine
 10
20384.0
 20
14262.0
 30
0.0
 11
20384.0
 21
1500.0
 31
0.0
  0
LINE
  5
10B6C
330
747D
100
AcDbEntity
  8
仕様書枠
 48
50.0
100
AcDbLine
 10
16384.0
 20
1500.0
 30
0.0
 11
20384.0
 21
1500.0
 31
0.0
  0
LINE
  5
10B6D
330
747D
100
AcDbEntity
  8
補助
  6
PHANTOM
 62
   230
 48
50.0
100
AcDbLine
 10
16384.0
 20
14262.0
 30
0.0
 11
16384.0
 21
6000.0
 31
0.0
  0
LINE
  5
10B6F
330
747D
100
AcDbEntity
  8
補助
  6
PHANTOM
 62
   230
 48
50.0
100
AcDbLine
 10
16384.0
 20
6000.0
 30
0.0
 11
20384.0
 21
6000.0
 31
0.0
  0
LINE
  5
10B72
330
747D
100
AcDbEntity
  8
文字
 62
     7
 48
50.0
100
AcDbLine
 10
16484.0
 20
500.0
 30
0.0
 11
20284.0
 21
500.0
 31
0.0
  0
TEXT
  5
10B73
330
747D
100
AcDbEntity
  8
文字
 62
     7
 48
50.0
100
AcDbText
 10
16453.72382072112
 20
1118.863259287425
 30
0.0
 40
250.0
  1
基 礎 図
  7
STYLE2
100
AcDbText
  0
LINE
  5
10B7B
330
747D
100
AcDbEntity
  8
仕様書枠
 48
50.0
100
AcDbLine
 10
16384.0
 20
1000.0
 30
0.0
 11
17814.0
 21
1000.0
 31
0.0
  0
LINE
  5
10B88
330
747D
100
AcDbEntity
  8
仕様書枠
  6
Continuous
 48
50.0
100
AcDbLine
 10
17814.0
 20
1500.0
 30
0.0
 11
17814.0
 21
1000.0
 31
0.0
  0
TEXT
  5
10BB0
330
747D
100
AcDbEntity
  8
文字
 62
     7
 48
50.0
100
AcDbText
 10
18011.04151481741
 20
604.8708912389265
 30
0.0
 40
200.0
  1
ＦＸＮ-２２３０ＨＹ
  7
STYLE2
100
AcDbText
  0
TEXT
  5
17483
330
747D
100
AcDbEntity
  8
文字
 62
     7
 48
50.0
100
AcDbText
 10
16511.75668531126
 20
270.5931184260625
 30
0.0
 40
100.0
  1
※寒冷地等は、地域の実情に合わせた基礎にしてください。
  7
STYLE2
100
AcDbText
  0
LINE
  5
17484
330
747D
100
AcDbEntity
  8
仕様書枠
  6
Continuous
 48
50.0
100
AcDbLine
 10
16384.00000503976
 20
1499.999992498709
 30
0.0
 11
16384.00000503976
 21
-0.0000075012905659
 31
0.0
  0
TEXT
  5
1A873
330
747D
100
AcDbEntity
  8
文字
 62
     7
 48
50.0
100
AcDbText
 10
18155.16479652749
 20
1289.447132864036
 30
0.0
 40
125.0
  1
NO.52      <縮尺> S=1/50
  7
STYLE2
100
AcDbText
  0
TEXT
  5
1A874
330
747D
100
AcDbEntity
  8
文字
 62
     7
 48
50.0
100
AcDbText
 10
18286.2300055311
 20
1089.955080760453
 30
0.0
 40
125.0
  1
～一般型・多雪地型～
  7
STYLE2
100
AcDbText
  0
TEXT
  5
1A875
330
747D
100
AcDbEntity
  8
文字
 62
     7
 48
50.0
100
AcDbText
 10
16501.79587498051
 20
596.5925826289069
 30
0.0
 40
200.0
  1
機種名
  7
STYLE2
100
AcDbText
  0
LINE
  5
27A9A
330
747D
100
AcDbEntity
  8
想像線
 48
10.0
100
AcDbLine
 10
11529.84202293515
 20
7075.293497389733
 30
0.0
 11
11529.84202293515
 21
10265.29349738973
 31
0.0
  0
LINE
  5
27A9B
330
747D
100
AcDbEntity
  8
部品1
 48
50.0
100
AcDbLine
 10
11290.84202293515
 20
9560.293497389718
 30
0.0
 11
11480.84202293515
 21
9560.293497389718
 31
0.0
  0
LINE
  5
27A9C
330
747D
100
AcDbEntity
  8
部品1
 48
50.0
100
AcDbLine
 10
11480.84202293515
 20
9560.293497389718
 30
0.0
 11
11480.84202293515
 21
9370.293497389717
 31
0.0
  0
LINE
  5
27A9D
330
747D
100
AcDbEntity
  8
部品1
 48
50.0
100
AcDbLine
 10
11480.84202293515
 20
9370.293497389717
 30
0.0
 11
11290.84202293515
 21
9370.293497389717
 31
0.0
  0
LINE
  5
27A9E
330
747D
100
AcDbEntity
  8
部品1
 48
50.0
100
AcDbLine
 10
11290.84202293515
 20
9370.293497389717
 30
0.0
 11
11290.84202293515
 21
9560.293497389718
 31
0.0
  0
LINE
  5
27A9F
330
747D
100
AcDbEntity
  8
部品1
 48
50.0
100
AcDbLine
 10
11090.84202293515
 20
10186.29349738973
 30
0.0
 11
11480.84202293515
 21
10186.29349738973
 31
0.0
  0
LINE
  5
27AA0
330
747D
100
AcDbEntity
  8
部品1
 48
50.0
100
AcDbLine
 10
11090.84202293515
 20
9996.293497389732
 30
0.0
 11
11090.84202293515
 21
10186.29349738973
 31
0.0
  0
LINE
  5
27AA1
330
747D
100
AcDbEntity
  8
部品1
 48
50.0
100
AcDbLine
 10
11480.84202293515
 20
9996.293497389732
 30
0.0
 11
11090.84202293515
 21
9996.293497389732
 31
0.0
  0
LINE
  5
27AA2
330
747D
100
AcDbEntity
  8
部品1
 48
50.0
100
AcDbLine
 10
11480.84202293515
 20
10186.29349738973
 30
0.0
 11
11480.84202293515
 21
9996.293497389732
 31
0.0
  0
LINE
  5
27AA3
330
747D
100
AcDbEntity
  8
部品1
 48
50.0
100
AcDbLine
 10
11290.84202293515
 20
8570.293497389716
 30
0.0
 11
11290.84202293515
 21
8760.293497389715
 31
0.0
  0
LINE
  5
27AA4
330
747D
100
AcDbEntity
  8
部品1
 48
50.0
100
AcDbLine
 10
11480.84202293515
 20
8570.293497389716
 30
0.0
 11
11290.84202293515
 21
8570.293497389716
 31
0.0
  0
LINE
  5
27AA5
330
747D
100
AcDbEntity
  8
部品1
 48
50.0
100
AcDbLine
 10
11480.84202293515
 20
8760.293497389715
 30
0.0
 11
11480.84202293515
 21
8570.293497389716
 31
0.0
  0
LINE
  5
27AA6
330
747D
100
AcDbEntity
  8
部品1
 48
50.0
100
AcDbLine
 10
11290.84202293515
 20
8760.293497389715
 30
0.0
 11
11480.84202293515
 21
8760.293497389715
 31
0.0
  0
DIMENSION
  5
27AA7
330
747D
100
AcDbEntity
  8
寸法
 48
50.0
100
AcDbDimension
  2
*D10
 10
11480.84202293515
 20
10885.84556935107
 30
0.0
 11
11837.56029943822
 21
10885.84556935107
 31
0.0
 70
   160
  1
a
 71
     5
 42
49.0
  3
INABA_S50G
100
AcDbAlignedDimension
 13
11529.84202293515
 23
10265.29349738973
 33
0.0
 14
11480.84202293515
 24
10186.29349738973
 34
0.0
100
AcDbRotatedDimension
1001
ACAD
1000
DSTYLE
1002
{
1070
    40
1040
1.0
1070
   341
1005
0
1002
}
  0
DIMENSION
  5
27AA8
330
747D
100
AcDbEntity
  8
寸法
 48
50.0
100
AcDbDimension
  2
*D11
 10
9268.842022935151
 20
10885.84556935107
 30
0.0
 11
10374.84202293515
 21
10985.8603331306
 31
0.0
 70
    32
 71
     5
 42
2212.0
  3
INABA_S50G
100
AcDbAlignedDimension
 13
11480.84202293515
 23
10186.29349738973
 33
0.0
 14
9268.842022935151
 24
10186.29349738973
 34
0.0
100
AcDbRotatedDimension
1001
ACAD
1000
DSTYLE
1002
{
1070
    40
1040
1.0
1070
   279
1070
     1
1070
   341
1005
0
1002
}
  0
DIMENSION
  5
27AA9
330
747D
100
AcDbEntity
  8
寸法
 48
50.0
100
AcDbDimension
  2
*D12
 10
11480.84202293515
 20
10599.92298935689
 30
0.0
 11
11100.84202293515
 21
10699.92298935689
 31
0.0
 70
    32
 71
     5
 42
760.0
  3
INABA_S50G
100
AcDbAlignedDimension
 13
10720.84202293515
 23
10186.29349738973
 33
0.0
 14
11480.84202293515
 24
10186.29349738973
 34
0.0
100
AcDbRotatedDimension
1001
ACAD
1000
DSTYLE
1002
{
1070
    40
1040
1.0
1070
   279
1070
     1
1070
   341
1005
0
1002
}
  0
MTEXT
  5
27AAA
330
747D
100
AcDbEntity
  8
部品1
 62
     7
 48
50.0
100
AcDbMText
 10
12594.87000086823
 20
9325.41411285776
 30
0.0
 40
150.0
 41
0.0
 71
     6
 72
     1
  1
深サ:200
  7
STYLE1
 73
     1
 44
1.0
1001
ACAD
1000
MTEXTBEGIN
1070
    73
1070
     1
1070
    44
1040
1.0
1070
    74
1070
     0
1000
MTEXTEND
  0
MTEXT
  5
27AAB
102
{ACAD_REACTORS
330
27AAC
102
}
330
747D
100
AcDbEntity
  8
部品1
 62
     7
 48
50.0
100
AcDbMText
 10
13519.19329281832
 20
9713.236866158547
 30
0.0
 40
150.0
 41
0.0
 71
     6
 72
     1
  1
組立後　　　　　　\P現場打コンクリート
  7
STYLE1
 73
     1
 44
1.0
1001
ACAD
1000
MTEXTBEGIN
1070
    73
1070
     1
1070
    44
1040
1.0
1070
    74
1070
     0
1000
MTEXTEND
  0
LEADER
  5
27AAC
330
747D
100
AcDbEntity
  8
寸法
 48
50.0
100
AcDbLeader
  3
INABA_S50G
 71
     0
 73
     0
 74
     0
 75
     1
 40
400.0
 41
1617.5
 76
     3
 10
11516.71075669613
 20
10130.96070470035
 30
0.0
 10
11774.82674214686
 20
9433.14267448423
 30
0.0
 10
11899.82674214686
 20
9433.14267448423
 30
0.0
340
27AAB
210
0.0
220
0.0
230
-1.0
213
23.13344932854306
223
-105.0941916743177
233
0.0
1001
ACAD
1000
DSTYLE
1002
{
1070
   341
1005
11750
1070
    40
1040
1.0
1070
   343
1005
11750
1070
   344
1005
11750
1002
}
  0
LINE
  5
27AAD
330
747D
100
AcDbEntity
  8
点線
 48
10.0
100
AcDbLine
 10
11380.84202293515
 20
10286.29349738973
 30
0.0
 11
11580.84202293515
 21
10286.29349738973
 31
0.0
  0
LINE
  5
27AAE
330
747D
100
AcDbEntity
  8
点線
 48
10.0
100
AcDbLine
 10
11580.84202293515
 20
10286.29349738973
 30
0.0
 11
11580.84202293515
 21
10086.29349738973
 31
0.0
  0
LINE
  5
27AAF
330
747D
100
AcDbEntity
  8
点線
 48
10.0
100
AcDbLine
 10
11580.84202293515
 20
10086.29349738973
 30
0.0
 11
11380.84202293515
 21
10086.29349738973
 31
0.0
  0
LINE
  5
27AB0
330
747D
100
AcDbEntity
  8
点線
 48
10.0
100
AcDbLine
 10
11380.84202293515
 20
10086.29349738973
 30
0.0
 11
11380.84202293515
 21
10286.29349738973
 31
0.0
  0
LINE
  5
27AB3
330
747D
100
AcDbEntity
  8
点線
 48
10.0
100
AcDbLine
 10
9168.842022935152
 20
10286.29349738973
 30
0.0
 11
9368.842022935153
 21
10286.29349738973
 31
0.0
  0
LINE
  5
27AB4
330
747D
100
AcDbEntity
  8
点線
 48
10.0
100
AcDbLine
 10
9368.842022935153
 20
10286.29349738973
 30
0.0
 11
9368.842022935153
 21
10086.29349738973
 31
0.0
  0
LINE
  5
27AB5
330
747D
100
AcDbEntity
  8
点線
 48
10.0
100
AcDbLine
 10
9368.842022935153
 20
10086.29349738973
 30
0.0
 11
9168.842022935152
 21
10086.29349738973
 31
0.0
  0
LINE
  5
27AB6
330
747D
100
AcDbEntity
  8
点線
 48
10.0
100
AcDbLine
 10
9168.842022935152
 20
10086.29349738973
 30
0.0
 11
9168.842022935152
 21
10286.29349738973
 31
0.0
  0
LEADER
  5
27AB7
330
747D
100
AcDbEntity
  8
寸法
 48
50.0
100
AcDbLeader
  3
INABA_S50G
 71
     0
 73
     0
 75
     1
 40
150.0
 41
231.9898538650463
 76
     3
 10
10625.84202293515
 20
9465.293497389717
 30
0.0
 10
10546.21346841082
 20
9120.977413702211
 30
0.0
 10
10421.21346841083
 20
9120.977413702211
 30
0.0
340
27AB8
213
-86.25565337437638
223
0.0
233
0.0
1001
ACAD
1000
DSTYLE
1002
{
1070
   341
1005
11750
1070
    40
1040
1.0
1070
   343
1005
11750
1070
   344
1005
11750
1002
}
  0
MTEXT
  5
27AB8
102
{ACAD_REACTORS
330
27AB7
102
}
330
747D
100
AcDbEntity
  8
部品1
 62
     7
 48
50.0
100
AcDbMText
 10
10482.4691217852
 20
9220.977413702211
 30
0.0
 40
150.0
 41
0.0
 71
     6
 72
     1
  1
\A1;C.B
  7
STYLE1
 73
     1
 44
1.0
1001
ACAD
1000
MTEXTBEGIN
1070
    73
1070
     1
1070
    44
1040
1.0
1070
    74
1070
     0
1000
MTEXTEND
  0
TEXT
  5
27AB9
330
747D
100
AcDbEntity
  8
文字
 48
50.0
100
AcDbText
 10
9651.803344452153
 20
8951.594527641036
 30
0.0
 40
150.0
  1
100x190x390
  7
STYLE1
100
AcDbText
  0
TEXT
  5
27ABA
330
747D
100
AcDbEntity
  8
部品1
 48
50.0
100
AcDbText
 10
9842.409664515793
 20
6844.169636283329
 30
0.0
 40
150.0
  1
シャッター面
  7
STYLE1
 72
     1
 11
10372.40966451579
 21
6824.169636283328
 31
0.0
100
AcDbText
 73
     1
  0
DIMENSION
  5
27ABB
330
747D
100
AcDbEntity
  8
寸法
 48
50.0
100
AcDbDimension
  2
*D15
 10
8183.629741897819
 20
7075.293497389733
 30
0.0
 11
8083.629741897818
 21
7104.793497389734
 31
0.0
 70
    32
  1
b
 71
     5
 42
59.00000000000364
  3
INABA_S50G
100
AcDbAlignedDimension
 13
9268.842022935151
 23
7134.293497389736
 33
0.0
 14
9219.842022935152
 24
7075.293497389733
 34
0.0
 50
90.0
100
AcDbRotatedDimension
1001
ACAD
1000
DSTYLE
1002
{
1070
    40
1040
1.0
1070
   279
1070
     1
1070
   341
1005
0
1002
}
  0
DIMENSION
  5
27ABC
330
747D
100
AcDbEntity
  8
寸法
 48
50.0
100
AcDbDimension
  2
*D16
 10
8183.629741897819
 20
7134.293497389736
 30
0.0
 11
8083.614978118291
 21
8660.293497389735
 31
0.0
 70
    32
 71
     5
 42
3051.999999999996
  3
INABA_S50G
100
AcDbAlignedDimension
 13
9268.842022935151
 23
10186.29349738973
 33
0.0
 14
9268.842022935151
 24
7134.293497389736
 34
0.0
 50
90.0
100
AcDbRotatedDimension
1001
ACAD
1000
DSTYLE
1002
{
1070
    40
1040
1.0
1070
   279
1070
     1
1070
   341
1005
0
1002
}
  0
DIMENSION
  5
27ABD
330
747D
100
AcDbEntity
  8
寸法
 48
50.0
100
AcDbDimension
  2
*D17
 10
8183.629741897819
 20
10186.29349738973
 30
0.0
 11
8083.629741897819
 21
10225.79349738973
 31
0.0
 70
    32
  1
c
 71
     5
 42
79.0
  3
INABA_S50G
100
AcDbAlignedDimension
 13
9219.842022935152
 23
10265.29349738973
 33
0.0
 14
9268.842022935151
 24
10186.29349738973
 34
0.0
 50
90.0
100
AcDbRotatedDimension
1001
ACAD
1000
DSTYLE
1002
{
1070
    40
1040
1.0
1070
   341
1005
0
1002
}
  0
DIMENSION
  5
27ABE
330
747D
100
AcDbEntity
  8
寸法
 48
50.0
100
AcDbDimension
  2
*D18
 10
10720.84202293515
 20
10599.92298935689
 30
0.0
 11
10374.84202293515
 21
10699.97400506289
 31
0.0
 70
    32
 71
     5
 42
692.0
  3
INABA_S50G
100
AcDbAlignedDimension
 13
10028.84202293515
 23
10186.29349738973
 33
0.0
 14
10720.84202293515
 24
10186.29349738973
 34
0.0
100
AcDbRotatedDimension
1001
ACAD
1000
DSTYLE
1002
{
1070
    40
1040
1.0
1070
   279
1070
     1
1070
   341
1005
0
1002
}
  0
DIMENSION
  5
27ABF
330
747D
100
AcDbEntity
  8
寸法
 48
50.0
100
AcDbDimension
  2
*D19
 10
10028.84202293515
 20
10599.92298935689
 30
0.0
 11
9648.842022935152
 21
10699.92298935689
 31
0.0
 70
    32
 71
     5
 42
760.0
  3
INABA_S50G
100
AcDbAlignedDimension
 13
9268.842022935151
 23
10186.29349738973
 33
0.0
 14
10028.84202293515
 24
10186.29349738973
 34
0.0
100
AcDbRotatedDimension
1001
ACAD
1000
DSTYLE
1002
{
1070
    40
1040
1.0
1070
   341
1005
0
1002
}
  0
DIMENSION
  5
27AC0
330
747D
100
AcDbEntity
  8
寸法
 48
50.0
100
AcDbDimension
  2
*D20
 10
9219.842022935152
 20
10885.84556935107
 30
0.0
 11
8912.123746432078
 21
10885.84556935107
 31
0.0
 70
   160
  1
a
 71
     5
 42
49.0
  3
INABA_S50G
100
AcDbAlignedDimension
 13
9268.842022935151
 23
10186.29349738973
 33
0.0
 14
9219.842022935152
 24
10265.29349738973
 34
0.0
100
AcDbRotatedDimension
1001
ACAD
1000
DSTYLE
1002
{
1070
    40
1040
1.0
1070
   341
1005
0
1002
}
  0
LINE
  5
27AC1
330
747D
100
AcDbEntity
  8
部品1
 48
50.0
100
AcDbLine
 10
9933.842022935152
 20
9270.293497389717
 30
0.0
 11
9933.842022935152
 21
9660.293497389718
 31
0.0
  0
LINE
  5
27AC2
330
747D
100
AcDbEntity
  8
部品1
 48
50.0
100
AcDbLine
 10
10123.84202293515
 20
9270.293497389717
 30
0.0
 11
9933.842022935152
 21
9270.293497389717
 31
0.0
  0
LINE
  5
27AC3
330
747D
100
AcDbEntity
  8
部品1
 48
50.0
100
AcDbLine
 10
10123.84202293515
 20
9660.293497389718
 30
0.0
 11
10123.84202293515
 21
9270.293497389717
 31
0.0
  0
LINE
  5
27AC4
330
747D
100
AcDbEntity
  8
部品1
 48
50.0
100
AcDbLine
 10
9933.842022935152
 20
9660.293497389718
 30
0.0
 11
10123.84202293515
 21
9660.293497389718
 31
0.0
  0
LINE
  5
27AC5
330
747D
100
AcDbEntity
  8
部品1
 48
50.0
100
AcDbLine
 10
10815.84202293515
 20
9660.293497389718
 30
0.0
 11
10815.84202293515
 21
9270.293497389717
 31
0.0
  0
LINE
  5
27AC6
330
747D
100
AcDbEntity
  8
部品1
 48
50.0
100
AcDbLine
 10
10815.84202293515
 20
9270.293497389717
 30
0.0
 11
10625.84202293515
 21
9270.293497389717
 31
0.0
  0
LINE
  5
27AC7
330
747D
100
AcDbEntity
  8
部品1
 48
50.0
100
AcDbLine
 10
10625.84202293515
 20
9270.293497389717
 30
0.0
 11
10625.84202293515
 21
9660.293497389718
 31
0.0
  0
LINE
  5
27AC8
330
747D
100
AcDbEntity
  8
部品1
 48
50.0
100
AcDbLine
 10
10625.84202293515
 20
9660.293497389718
 30
0.0
 11
10815.84202293515
 21
9660.293497389718
 31
0.0
  0
LINE
  5
27AC9
330
747D
100
AcDbEntity
  8
部品1
 48
50.0
100
AcDbLine
 10
10625.84202293515
 20
8860.293497389715
 30
0.0
 11
10815.84202293515
 21
8860.293497389715
 31
0.0
  0
LINE
  5
27ACA
330
747D
100
AcDbEntity
  8
部品1
 48
50.0
100
AcDbLine
 10
10625.84202293515
 20
8470.293497389716
 30
0.0
 11
10625.84202293515
 21
8860.293497389715
 31
0.0
  0
LINE
  5
27ACB
330
747D
100
AcDbEntity
  8
部品1
 48
50.0
100
AcDbLine
 10
10815.84202293515
 20
8470.293497389716
 30
0.0
 11
10625.84202293515
 21
8470.293497389716
 31
0.0
  0
LINE
  5
27ACC
330
747D
100
AcDbEntity
  8
部品1
 48
50.0
100
AcDbLine
 10
10815.84202293515
 20
8860.293497389715
 30
0.0
 11
10815.84202293515
 21
8470.293497389716
 31
0.0
  0
LINE
  5
27ACD
330
747D
100
AcDbEntity
  8
部品1
 48
50.0
100
AcDbLine
 10
9933.842022935152
 20
9996.293497389732
 30
0.0
 11
9933.842022935152
 21
10186.29349738973
 31
0.0
  0
LINE
  5
27ACE
330
747D
100
AcDbEntity
  8
部品1
 48
50.0
100
AcDbLine
 10
9933.842022935152
 20
7134.293497389731
 30
0.0
 11
9933.842022935152
 21
7324.293497389732
 31
0.0
  0
LINE
  5
27ACF
330
747D
100
AcDbEntity
  8
部品1
 48
50.0
100
AcDbLine
 10
9933.842022935152
 20
10186.29349738973
 30
0.0
 11
10123.84202293515
 21
10186.29349738973
 31
0.0
  0
LINE
  5
27AD0
330
747D
100
AcDbEntity
  8
部品1
 48
50.0
100
AcDbLine
 10
10123.84202293515
 20
10186.29349738973
 30
0.0
 11
10123.84202293515
 21
9996.293497389732
 31
0.0
  0
LINE
  5
27AD1
330
747D
100
AcDbEntity
  8
部品1
 48
50.0
100
AcDbLine
 10
10123.84202293515
 20
9996.293497389732
 30
0.0
 11
9933.842022935152
 21
9996.293497389732
 31
0.0
  0
LINE
  5
27AD2
330
747D
100
AcDbEntity
  8
部品1
 48
50.0
100
AcDbLine
 10
10123.84202293515
 20
7134.293497389731
 30
0.0
 11
9933.842022935152
 21
7134.293497389731
 31
0.0
  0
LINE
  5
27AD3
330
747D
100
AcDbEntity
  8
部品1
 48
50.0
100
AcDbLine
 10
10123.84202293515
 20
7324.293497389732
 30
0.0
 11
10123.84202293515
 21
7134.293497389731
 31
0.0
  0
LINE
  5
27AD4
330
747D
100
AcDbEntity
  8
部品1
 48
50.0
100
AcDbLine
 10
9933.842022935152
 20
7324.293497389732
 30
0.0
 11
10123.84202293515
 21
7324.293497389732
 31
0.0
  0
LINE
  5
27AD5
330
747D
100
AcDbEntity
  8
部品1
 48
50.0
100
AcDbLine
 10
10625.84202293515
 20
7324.293497389732
 30
0.0
 11
10815.84202293515
 21
7324.293497389732
 31
0.0
  0
LINE
  5
27AD6
330
747D
100
AcDbEntity
  8
部品1
 48
50.0
100
AcDbLine
 10
10815.84202293515
 20
7324.293497389732
 30
0.0
 11
10815.84202293515
 21
7134.293497389731
 31
0.0
  0
LINE
  5
27AD7
330
747D
100
AcDbEntity
  8
部品1
 48
50.0
100
AcDbLine
 10
10815.84202293515
 20
7134.293497389731
 30
0.0
 11
10625.84202293515
 21
7134.293497389731
 31
0.0
  0
LINE
  5
27AD8
330
747D
100
AcDbEntity
  8
部品1
 48
50.0
100
AcDbLine
 10
10625.84202293515
 20
7134.293497389731
 30
0.0
 11
10625.84202293515
 21
7324.293497389732
 31
0.0
  0
LINE
  5
27AD9
330
747D
100
AcDbEntity
  8
部品1
 48
50.0
100
AcDbLine
 10
10625.84202293515
 20
9996.293497389732
 30
0.0
 11
10625.84202293515
 21
10186.29349738973
 31
0.0
  0
LINE
  5
27ADA
330
747D
100
AcDbEntity
  8
部品1
 48
50.0
100
AcDbLine
 10
10815.84202293515
 20
9996.293497389732
 30
0.0
 11
10625.84202293515
 21
9996.293497389732
 31
0.0
  0
LINE
  5
27ADB
330
747D
100
AcDbEntity
  8
部品1
 48
50.0
100
AcDbLine
 10
10815.84202293515
 20
10186.29349738973
 30
0.0
 11
10815.84202293515
 21
9996.293497389732
 31
0.0
  0
LINE
  5
27ADC
330
747D
100
AcDbEntity
  8
部品1
 48
50.0
100
AcDbLine
 10
10625.84202293515
 20
10186.29349738973
 30
0.0
 11
10815.84202293515
 21
10186.29349738973
 31
0.0
  0
LINE
  5
27ADD
330
747D
100
AcDbEntity
  8
部品1
 48
50.0
100
AcDbLine
 10
9268.842022935151
 20
9370.293497389717
 30
0.0
 11
9268.842022935151
 21
9560.293497389718
 31
0.0
  0
LINE
  5
27ADE
330
747D
100
AcDbEntity
  8
部品1
 48
50.0
100
AcDbLine
 10
9458.842022935153
 20
9370.293497389717
 30
0.0
 11
9268.842022935151
 21
9370.293497389717
 31
0.0
  0
LINE
  5
27ADF
330
747D
100
AcDbEntity
  8
部品1
 48
50.0
100
AcDbLine
 10
9458.842022935153
 20
9560.293497389718
 30
0.0
 11
9458.842022935153
 21
9370.293497389717
 31
0.0
  0
LINE
  5
27AE0
330
747D
100
AcDbEntity
  8
部品1
 48
50.0
100
AcDbLine
 10
9268.842022935151
 20
9560.293497389718
 30
0.0
 11
9458.842022935153
 21
9560.293497389718
 31
0.0
  0
LINE
  5
27AE1
330
747D
100
AcDbEntity
  8
部品1
 48
50.0
100
AcDbLine
 10
9268.842022935151
 20
8760.293497389715
 30
0.0
 11
9458.842022935153
 21
8760.293497389715
 31
0.0
  0
LINE
  5
27AE2
330
747D
100
AcDbEntity
  8
部品1
 48
50.0
100
AcDbLine
 10
9458.842022935153
 20
8760.293497389715
 30
0.0
 11
9458.842022935153
 21
8570.293497389716
 31
0.0
  0
LINE
  5
27AE3
330
747D
100
AcDbEntity
  8
部品1
 48
50.0
100
AcDbLine
 10
9458.842022935153
 20
8570.293497389716
 30
0.0
 11
9268.842022935151
 21
8570.293497389716
 31
0.0
  0
LINE
  5
27AE4
330
747D
100
AcDbEntity
  8
部品1
 48
50.0
100
AcDbLine
 10
9268.842022935151
 20
8570.293497389716
 30
0.0
 11
9268.842022935151
 21
8760.293497389715
 31
0.0
  0
LINE
  5
27AE5
330
747D
100
AcDbEntity
  8
部品1
 48
50.0
100
AcDbLine
 10
9268.842022935151
 20
10186.29349738973
 30
0.0
 11
9658.842022935154
 21
10186.29349738973
 31
0.0
  0
LINE
  5
27AE6
330
747D
100
AcDbEntity
  8
部品1
 48
50.0
100
AcDbLine
 10
9268.842022935151
 20
9996.293497389732
 30
0.0
 11
9268.842022935151
 21
10186.29349738973
 31
0.0
  0
LINE
  5
27AE7
330
747D
100
AcDbEntity
  8
部品1
 48
50.0
100
AcDbLine
 10
9658.842022935154
 20
9996.293497389732
 30
0.0
 11
9268.842022935151
 21
9996.293497389732
 31
0.0
  0
LINE
  5
27AE8
330
747D
100
AcDbEntity
  8
部品1
 48
50.0
100
AcDbLine
 10
9658.842022935154
 20
10186.29349738973
 30
0.0
 11
9658.842022935154
 21
9996.293497389732
 31
0.0
  0
LINE
  5
27AE9
330
747D
100
AcDbEntity
  8
部品1
 48
50.0
100
AcDbLine
 10
9933.842022935152
 20
8860.293497389715
 30
0.0
 11
10123.84202293515
 21
8860.293497389715
 31
0.0
  0
LINE
  5
27AEA
330
747D
100
AcDbEntity
  8
部品1
 48
50.0
100
AcDbLine
 10
10123.84202293515
 20
8860.293497389715
 30
0.0
 11
10123.84202293515
 21
8470.293497389716
 31
0.0
  0
LINE
  5
27AEB
330
747D
100
AcDbEntity
  8
部品1
 48
50.0
100
AcDbLine
 10
10123.84202293515
 20
8470.293497389716
 30
0.0
 11
9933.842022935152
 21
8470.293497389716
 31
0.0
  0
LINE
  5
27AEC
330
747D
100
AcDbEntity
  8
部品1
 48
50.0
100
AcDbLine
 10
9933.842022935152
 20
8470.293497389716
 30
0.0
 11
9933.842022935152
 21
8860.293497389715
 31
0.0
  0
LINE
  5
27B14
330
747D
100
AcDbEntity
  8
想像線
 48
10.0
100
AcDbLine
 10
11529.84202293515
 20
10265.29349738973
 30
0.0
 11
9219.842022935152
 21
10265.29349738973
 31
0.0
  0
LINE
  5
27B15
330
747D
100
AcDbEntity
  8
想像線
 48
10.0
100
AcDbLine
 10
9219.842022935152
 20
7075.293497389733
 30
0.0
 11
9219.842022935152
 21
10265.29349738973
 31
0.0
  0
TEXT
  5
27B16
330
747D
100
AcDbEntity
  8
部品1
 48
50.0
100
AcDbText
 10
11867.9627829205
 20
7760.380531524806
 30
0.0
 40
100.0
  1
(a=49,b=59,c=79)
  7
STYLE1
100
AcDbText
  0
LEADER
  5
27B17
330
747D
100
AcDbEntity
  8
寸法
 48
50.0
100
AcDbLeader
  3
INABA_S50G
 73
     0
 74
     0
 75
     1
 40
150.0
 41
840.0
 76
     3
 10
11529.84202293515
 20
8670.293497389732
 30
0.0
 10
11676.97301696339
 20
8018.075416277094
 30
0.0
 10
11801.97301696339
 20
8018.075416277094
 30
0.0
340
27B18
1001
ACAD
1000
DSTYLE
1002
{
1070
   341
1005
0
1070
    40
1040
1.0
1070
   343
1005
0
1070
   344
1005
0
1002
}
  0
MTEXT
  5
27B18
102
{ACAD_REACTORS
330
27B17
102
}
330
747D
100
AcDbEntity
  8
部品1
 62
     7
 48
50.0
100
AcDbMText
 10
12666.97301696339
 20
8118.075416277092
 30
0.0
 40
150.0
 41
0.0
 71
     6
 72
     1
  1
\A1;屋根の外寸
  7
STYLE1
 73
     1
 44
1.0
1001
ACAD
1000
MTEXTBEGIN
1070
    73
1070
     1
1070
    44
1040
1.0
1070
    74
1070
     0
1000
MTEXTEND
  0
TEXT
  5
27B19
330
747D
100
AcDbEntity
  8
部品1
 48
50.0
100
AcDbText
 10
11669.73902197762
 20
7893.937057610749
 30
0.0
 40
100.0
  1
※a,b,cは屋根の出幅です。
  7
STYLE1
100
AcDbText
  0
LINE
  5
27B1A
330
747D
100
AcDbEntity
  8
想像線
 48
10.0
100
AcDbLine
 10
11529.84202293515
 20
7075.293497389733
 30
0.0
 11
9219.842022935152
 21
7075.293497389733
 31
0.0
  0
LINE
  5
27B1D
330
747D
100
AcDbEntity
  8
部品1
 48
50.0
100
AcDbLine
 10
9933.842022935149
 20
7670.293497389716
 30
0.0
 11
9933.842022935149
 21
8060.293497389714
 31
0.0
  0
LINE
  5
27B1E
330
747D
100
AcDbEntity
  8
部品1
 48
50.0
100
AcDbLine
 10
10123.84202293515
 20
7670.293497389716
 30
0.0
 11
9933.842022935149
 21
7670.293497389716
 31
0.0
  0
LINE
  5
27B1F
330
747D
100
AcDbEntity
  8
部品1
 48
50.0
100
AcDbLine
 10
10123.84202293515
 20
8060.293497389714
 30
0.0
 11
10123.84202293515
 21
7670.293497389716
 31
0.0
  0
LINE
  5
27B20
330
747D
100
AcDbEntity
  8
部品1
 48
50.0
100
AcDbLine
 10
9933.842022935149
 20
8060.293497389714
 30
0.0
 11
10123.84202293515
 21
8060.293497389714
 31
0.0
  0
LINE
  5
27B21
330
747D
100
AcDbEntity
  8
部品1
 48
50.0
100
AcDbLine
 10
9268.84202293515
 20
7770.293497389715
 30
0.0
 11
9268.84202293515
 21
7960.293497389715
 31
0.0
  0
LINE
  5
27B22
330
747D
100
AcDbEntity
  8
部品1
 48
50.0
100
AcDbLine
 10
9458.842022935149
 20
7770.293497389715
 30
0.0
 11
9268.84202293515
 21
7770.293497389715
 31
0.0
  0
LINE
  5
27B23
330
747D
100
AcDbEntity
  8
部品1
 48
50.0
100
AcDbLine
 10
9458.842022935149
 20
7960.293497389715
 30
0.0
 11
9458.842022935149
 21
7770.293497389715
 31
0.0
  0
LINE
  5
27B24
330
747D
100
AcDbEntity
  8
部品1
 48
50.0
100
AcDbLine
 10
9268.84202293515
 20
7960.293497389715
 30
0.0
 11
9458.842022935149
 21
7960.293497389715
 31
0.0
  0
LINE
  5
27B25
330
747D
100
AcDbEntity
  8
部品1
 48
50.0
100
AcDbLine
 10
10815.84202293515
 20
8060.293497389714
 30
0.0
 11
10815.84202293515
 21
7670.293497389716
 31
0.0
  0
LINE
  5
27B26
330
747D
100
AcDbEntity
  8
部品1
 48
50.0
100
AcDbLine
 10
10815.84202293515
 20
7670.293497389716
 30
0.0
 11
10625.84202293515
 21
7670.293497389716
 31
0.0
  0
LINE
  5
27B27
330
747D
100
AcDbEntity
  8
部品1
 48
50.0
100
AcDbLine
 10
10625.84202293515
 20
7670.293497389716
 30
0.0
 11
10625.84202293515
 21
8060.293497389714
 31
0.0
  0
LINE
  5
27B28
330
747D
100
AcDbEntity
  8
部品1
 48
50.0
100
AcDbLine
 10
10625.84202293515
 20
8060.293497389714
 30
0.0
 11
10815.84202293515
 21
8060.293497389714
 31
0.0
  0
LINE
  5
27B29
330
747D
100
AcDbEntity
  8
部品1
 48
50.0
100
AcDbLine
 10
11290.84202293515
 20
7960.293497389715
 30
0.0
 11
11480.84202293515
 21
7960.293497389715
 31
0.0
  0
LINE
  5
27B2A
330
747D
100
AcDbEntity
  8
部品1
 48
50.0
100
AcDbLine
 10
11480.84202293515
 20
7960.293497389715
 30
0.0
 11
11480.84202293515
 21
7770.293497389715
 31
0.0
  0
LINE
  5
27B2B
330
747D
100
AcDbEntity
  8
部品1
 48
50.0
100
AcDbLine
 10
11480.84202293515
 20
7770.293497389715
 30
0.0
 11
11290.84202293515
 21
7770.293497389715
 31
0.0
  0
LINE
  5
27B2C
330
747D
100
AcDbEntity
  8
部品1
 48
50.0
100
AcDbLine
 10
11290.84202293515
 20
7770.293497389715
 30
0.0
 11
11290.84202293515
 21
7960.293497389715
 31
0.0
  0
DIMENSION
  5
27B2D
330
747D
100
AcDbEntity
  8
寸法
 48
50.0
100
AcDbDimension
  2
*D26
 10
11011.59704722048
 20
9465.293497389717
 30
0.0
 11
10911.58228344095
 21
9825.793497389726
 31
0.0
 70
    32
 71
     5
 42
721.0000000000145
  3
INABA_S50G
100
AcDbAlignedDimension
 13
10815.84202293515
 23
10186.29349738973
 33
0.0
 14
10815.84202293515
 24
9465.293497389717
 34
0.0
 50
90.0
100
AcDbRotatedDimension
1001
ACAD
1000
DSTYLE
1002
{
1070
    40
1040
1.0
1070
   341
1005
0
1002
}
  0
DIMENSION
  5
27B2E
330
747D
100
AcDbEntity
  8
寸法
 48
50.0
100
AcDbDimension
  2
*D27
 10
11011.59704722048
 20
8665.293497389717
 30
0.0
 11
10911.59704722048
 21
9065.293497389717
 31
0.0
 70
    32
 71
     5
 42
800.0000000000017
  3
INABA_S50G
100
AcDbAlignedDimension
 13
10815.84202293515
 23
9465.293497389717
 33
0.0
 14
10815.84202293515
 24
8665.293497389717
 34
0.0
 50
90.0
100
AcDbRotatedDimension
1001
ACAD
1000
DSTYLE
1002
{
1070
    40
1040
1.0
1070
   279
1070
     1
1070
   341
1005
0
1002
}
  0
DIMENSION
  5
27B2F
330
747D
100
AcDbEntity
  8
寸法
 48
50.0
100
AcDbDimension
  2
*D28
 10
11011.59704722048
 20
7865.293497389716
 30
0.0
 11
10911.59704722048
 21
8265.293497389718
 31
0.0
 70
    32
 71
     5
 42
799.9999999999991
  3
INABA_S50G
100
AcDbAlignedDimension
 13
10815.84202293515
 23
8665.293497389717
 33
0.0
 14
10815.84202293515
 24
7865.293497389716
 34
0.0
 50
90.0
100
AcDbRotatedDimension
1001
ACAD
1000
DSTYLE
1002
{
1070
    40
1040
1.0
1070
   279
1070
     1
1070
   341
1005
0
1002
}
  0
DIMENSION
  5
27B30
330
747D
100
AcDbEntity
  8
寸法
 48
50.0
100
AcDbDimension
  2
*D29
 10
11011.59704722048
 20
7134.293497389731
 30
0.0
 11
10911.59704722048
 21
7499.793497389726
 31
0.0
 70
    32
 71
     5
 42
730.9999999999836
  3
INABA_S50G
100
AcDbAlignedDimension
 13
10815.84202293515
 23
7865.293497389716
 33
0.0
 14
10815.84202293515
 24
7134.293497389731
 34
0.0
 50
90.0
100
AcDbRotatedDimension
1001
ACAD
1000
DSTYLE
1002
{
1070
    40
1040
1.0
1070
   279
1070
     1
1070
   341
1005
0
1002
}
  0
LINE
  5
27D01
330
747D
100
AcDbEntity
  8
部品1
 48
50.0
100
AcDbLine
 10
9658.842022935154
 20
7134.293497389731
 30
0.0
 11
9268.842022935151
 21
7134.293497389731
 31
0.0
  0
LINE
  5
27D02
330
747D
100
AcDbEntity
  8
部品1
 48
50.0
100
AcDbLine
 10
9268.842022935151
 20
7324.293497389732
 30
0.0
 11
9658.842022935154
 21
7324.293497389732
 31
0.0
  0
LINE
  5
27D03
330
747D
100
AcDbEntity
  8
部品1
 48
50.0
100
AcDbLine
 10
9268.842022935151
 20
7134.293497389731
 30
0.0
 11
9268.842022935151
 21
7324.293497389732
 31
0.0
  0
LINE
  5
27D04
330
747D
100
AcDbEntity
  8
部品1
 48
50.0
100
AcDbLine
 10
9658.842022935154
 20
7324.293497389732
 30
0.0
 11
9658.842022935154
 21
7134.293497389731
 31
0.0
  0
LINE
  5
27D05
330
747D
100
AcDbEntity
  8
部品1
 48
50.0
100
AcDbLine
 10
11480.84202293515
 20
7134.293497389731
 30
0.0
 11
11090.84202293515
 21
7134.293497389731
 31
0.0
  0
LINE
  5
27D06
330
747D
100
AcDbEntity
  8
部品1
 48
50.0
100
AcDbLine
 10
11090.84202293515
 20
7324.293497389732
 30
0.0
 11
11480.84202293515
 21
7324.293497389732
 31
0.0
  0
LINE
  5
27D07
330
747D
100
AcDbEntity
  8
部品1
 48
50.0
100
AcDbLine
 10
11090.84202293515
 20
7134.293497389731
 30
0.0
 11
11090.84202293515
 21
7324.293497389732
 31
0.0
  0
LINE
  5
27D08
330
747D
100
AcDbEntity
  8
部品1
 48
50.0
100
AcDbLine
 10
11480.84202293515
 20
7324.293497389732
 30
0.0
 11
11480.84202293515
 21
7134.293497389731
 31
0.0
  0
LINE
  5
27D09
330
747D
100
AcDbEntity
  8
点線
 48
10.0
100
AcDbLine
 10
9368.842022935153
 20
7034.293497389731
 30
0.0
 11
9168.842022935152
 21
7034.293497389731
 31
0.0
  0
LINE
  5
27D0A
330
747D
100
AcDbEntity
  8
点線
 48
10.0
100
AcDbLine
 10
9168.842022935152
 20
7234.293497389732
 30
0.0
 11
9368.842022935153
 21
7234.293497389732
 31
0.0
  0
LINE
  5
27D0B
330
747D
100
AcDbEntity
  8
点線
 48
10.0
100
AcDbLine
 10
9168.842022935152
 20
7034.293497389731
 30
0.0
 11
9168.842022935152
 21
7234.293497389732
 31
0.0
  0
LINE
  5
27D0C
330
747D
100
AcDbEntity
  8
点線
 48
10.0
100
AcDbLine
 10
9368.842022935153
 20
7234.293497389732
 30
0.0
 11
9368.842022935153
 21
7034.293497389731
 31
0.0
  0
LINE
  5
27D0D
330
747D
100
AcDbEntity
  8
点線
 48
10.0
100
AcDbLine
 10
11580.84202293515
 20
7034.293497389731
 30
0.0
 11
11380.84202293515
 21
7034.293497389731
 31
0.0
  0
LINE
  5
27D0E
330
747D
100
AcDbEntity
  8
点線
 48
10.0
100
AcDbLine
 10
11380.84202293515
 20
7234.293497389732
 30
0.0
 11
11580.84202293515
 21
7234.293497389732
 31
0.0
  0
LINE
  5
27D0F
330
747D
100
AcDbEntity
  8
点線
 48
10.0
100
AcDbLine
 10
11380.84202293515
 20
7034.293497389731
 30
0.0
 11
11380.84202293515
 21
7234.293497389732
 31
0.0
  0
LINE
  5
27D10
330
747D
100
AcDbEntity
  8
点線
 48
10.0
100
AcDbLine
 10
11580.84202293515
 20
7234.293497389732
 30
0.0
 11
11580.84202293515
 21
7034.293497389731
 31
0.0
  0
DIMENSION
  5
27D30
330
747D
100
AcDbEntity
  8
寸法
 48
50.0
100
AcDbDimension
  2
*D30
 10
11580.84202293515
 20
6537.396910521093
 30
0.0
 11
11480.84202293515
 21
6637.411674300619
 31
0.0
 70
    32
 71
     5
 42
200.0
  3
INABA_S50G
100
AcDbAlignedDimension
 13
11380.84202293515
 23
7034.293497389731
 33
0.0
 14
11580.84202293515
 24
7034.293497389731
 34
0.0
100
AcDbRotatedDimension
1001
ACAD
1000
DSTYLE
1002
{
1070
    40
1040
1.0
1002
}
  0
DIMENSION
  5
27D3F
330
747D
100
AcDbEntity
  8
寸法
 48
50.0
100
AcDbDimension
  2
*D31
 10
12148.50099548274
 20
7034.293497389731
 30
0.0
 11
12048.48623170321
 21
7134.293497389734
 31
0.0
 70
    32
 71
     5
 42
200.0
  3
INABA_S50G
100
AcDbAlignedDimension
 13
11580.84202293515
 23
7234.293497389732
 33
0.0
 14
11580.84202293515
 24
7034.293497389731
 34
0.0
 50
90.0
100
AcDbRotatedDimension
1001
ACAD
1000
DSTYLE
1002
{
1070
    40
1040
1.0
1002
}
  0
LINE
  5
27F0E
330
747D
100
AcDbEntity
  8
部品1
 48
50.0
100
AcDbLine
 10
5587.774216850295
 20
3719.859876359897
 30
0.0
 11
13907.77421685029
 21
3719.859876359897
 31
0.0
  0
LINE
  5
27F0F
330
747D
100
AcDbEntity
  8
部品1
 48
50.0
100
AcDbLine
 10
13907.77421685029
 20
4031.859876359896
 30
0.0
 11
7667.774216850296
 21
4031.859876359896
 31
0.0
  0
LINE
  5
27F10
330
747D
100
AcDbEntity
  8
部品1
 48
50.0
100
AcDbLine
 10
13907.77421685029
 20
4343.859876359896
 30
0.0
 11
5587.774216850295
 21
4343.859876359898
 31
0.0
  0
LINE
  5
27F11
330
747D
100
AcDbEntity
  8
部品1
 48
50.0
100
AcDbLine
 10
5587.774216850295
 20
1223.859876359896
 30
0.0
 11
13907.77421685029
 21
1223.859876359896
 31
0.0
  0
TEXT
  5
27F12
330
747D
100
AcDbEntity
  8
部品1
100
AcDbText
 10
9817.619728142595
 20
4102.142835343449
 30
0.0
 40
156.0
  1
アンカー部詳細
  7
STYLE2
100
AcDbText
  0
LINE
  5
27F13
330
747D
100
AcDbEntity
  8
Ｇ．Ｌ
100
AcDbLine
 10
9839.435617892821
 20
2446.848900255176
 30
0.0
 11
11742.68142828638
 21
2446.848900255176
 31
0.0
  0
LINE
  5
27F14
330
747D
100
AcDbEntity
  8
細線
 48
10.0
100
AcDbLine
 10
10117.65665107202
 20
2047.855243714108
 30
0.0
 11
10516.65030761306
 21
2446.848900255176
 31
0.0
  0
LINE
  5
27F15
330
747D
100
AcDbEntity
  8
部品1
100
AcDbLine
 10
9839.435617892814
 20
2706.84890025518
 30
0.0
 11
10651.22451352201
 21
2706.84890025518
 31
0.0
  0
LINE
  5
27F16
330
747D
100
AcDbEntity
  8
部品1
100
AcDbLine
 10
9839.435617892814
 20
2836.848900255182
 30
0.0
 11
10626.26638110949
 21
2836.84890025518
 31
0.0
  0
LINE
  5
27F17
330
747D
100
AcDbEntity
  8
部品1
100
AcDbLine
 10
9839.435617892814
 20
2829.048900255182
 30
0.0
 11
10663.70357972826
 21
2829.048900255182
 31
0.0
  0
LINE
  5
27F18
330
747D
100
AcDbEntity
  8
細線
100
AcDbLine
 10
10627.50736210175
 20
2474.601081736379
 30
0.0
 11
10395.25954358295
 21
2706.848900255176
 31
0.0
  0
LINE
  5
27F19
330
747D
100
AcDbEntity
  8
細線
100
AcDbLine
 10
10632.61784097348
 20
2524.6449317972
 30
0.0
 11
10450.4138725155
 21
2706.848900255176
 31
0.0
  0
TEXT
  5
27F1A
330
747D
100
AcDbEntity
  8
部品1
100
AcDbText
 10
9863.691651273471
 20
1839.962519161138
 30
0.0
 40
104.0
  1
b寸法：100～120mmに対応
  7
STYLE2
100
AcDbText
  0
TEXT
  5
27F1B
330
747D
100
AcDbEntity
  8
部品1
100
AcDbText
 10
9869.600742182564
 20
1650.674640373258
 30
0.0
 40
104.0
  1
\U+203BオールアンカーM10(市販品)
  7
STYLE2
100
AcDbText
  0
TEXT
  5
27F1C
330
747D
100
AcDbEntity
  8
部品1
100
AcDbText
 10
9871.373469455292
 20
1456.068579767198
 30
0.0
 40
104.0
  1
  が4本必要になります。
  7
STYLE2
100
AcDbText
  0
LEADER
  5
27F1D
330
747D
100
AcDbEntity
  8
寸法
 48
50.0
100
AcDbLeader
  3
INABA_S50G
 71
     0
 73
     0
 74
     0
 75
     1
 40
156.0
 41
241.269448019648
 76
     3
 10
6530.110092596792
 20
2706.848900255178
 30
0.0
 10
6776.952749939322
 20
2991.056393406576
 30
0.0
 10
6901.952749939322
 20
2991.056393406576
 30
0.0
340
27F1E
213
88.05124360030459
223
0.0
233
0.0
1001
ACAD
1000
DSTYLE
1002
{
1070
    40
1040
1.0
1002
}
  0
MTEXT
  5
27F1E
102
{ACAD_REACTORS
330
27F1D
102
}
330
747D
100
AcDbEntity
  8
寸法
 62
     7
 48
50.0
100
AcDbMText
 10
6838.901506339017
 20
3094.056393406576
 30
0.0
 40
156.0
 41
1.3
 71
     4
 72
     1
  1
\A1;C.B
  7
STYLE1
 73
     1
 44
1.0
1001
ACAD
1000
MTEXTBEGIN
1070
    73
1070
     1
1070
    44
1040
1.0
1070
    74
1070
     0
1000
MTEXTEND
  0
LINE
  5
27F1F
330
747D
100
AcDbEntity
  8
部品1
 48
50.0
100
AcDbLine
 10
5587.774216850295
 20
4343.859876359896
 30
0.0
 11
5587.774216850295
 21
1223.859876359896
 31
0.0
  0
LINE
  5
27F20
330
747D
100
AcDbEntity
  8
部品1
 48
50.0
100
AcDbLine
 10
9747.774216850295
 20
4031.859876359896
 30
0.0
 11
9747.774216850295
 21
1223.859876359896
 31
0.0
  0
LINE
  5
27F21
330
747D
100
AcDbEntity
  8
部品1
 48
50.0
100
AcDbLine
 10
7667.774216850296
 20
4343.859876359896
 30
0.0
 11
7667.774216850296
 21
1223.859876359896
 31
0.0
  0
LINE
  5
27F22
330
747D
100
AcDbEntity
  8
部品1
100
AcDbLine
 10
8685.294229792457
 20
3486.848900255174
 30
0.0
 11
8685.294229792457
 21
2446.848900255176
 31
0.0
  0
LINE
  5
27F23
330
747D
100
AcDbEntity
  8
部品1
100
AcDbLine
 10
8685.294229792457
 20
2788.748900255177
 30
0.0
 11
8685.294229792459
 21
2402.188009939589
 31
0.0
  0
LINE
  5
27F24
330
747D
100
AcDbEntity
  8
部品1
100
AcDbLine
 10
8581.294229792456
 20
2790.048900255177
 30
0.0
 11
8581.294229792456
 21
2402.188009939589
 31
0.0
  0
CIRCLE
  5
27F25
330
747D
100
AcDbEntity
  8
部品1
100
AcDbCircle
 10
8633.294229792456
 20
2764.048900255177
 30
0.0
 40
20.8
  0
LINE
  5
27F26
330
747D
100
AcDbEntity
  8
Ｇ．Ｌ
100
AcDbLine
 10
5710.978784737868
 20
2446.84890025518
 30
0.0
 11
7571.140053707975
 21
2446.84890025518
 31
0.0
  0
TEXT
  5
27F27
330
747D
100
AcDbEntity
  8
部品1
100
AcDbText
 10
7080.338506224446
 20
2457.126754437755
 30
0.0
 40
156.0
  1
▽G.L
  7
STYLE1
100
AcDbText
  0
LINE
  5
27F28
330
747D
100
AcDbEntity
  8
部品1
100
AcDbLine
 10
6270.110092596791
 20
2706.848900255176
 30
0.0
 11
6790.110092596788
 21
2706.848900255176
 31
0.0
  0
LINE
  5
27F29
330
747D
100
AcDbEntity
  8
部品1
100
AcDbLine
 10
6140.110092596787
 20
2316.848900255176
 30
0.0
 11
6920.110092596788
 21
2316.848900255176
 31
0.0
  0
LINE
  5
27F2A
330
747D
100
AcDbEntity
  8
部品1
100
AcDbLine
 10
6140.110092596787
 20
2056.848900255173
 30
0.0
 11
6920.110092596788
 21
2056.848900255176
 31
0.0
  0
LINE
  5
27F2B
330
747D
100
AcDbEntity
  8
細線
100
AcDbLine
 10
6480.96287074664
 20
2446.84890025518
 30
0.0
 11
6270.110092596787
 21
2657.701678405028
 31
0.0
  0
LINE
  5
27F2C
330
747D
100
AcDbEntity
  8
細線
100
AcDbLine
 10
6305.445783838928
 20
2316.848900255176
 30
0.0
 11
6435.445783838925
 21
2446.84890025518
 31
0.0
  0
LINE
  5
27F2D
330
747D
100
AcDbEntity
  8
細線
100
AcDbLine
 10
6425.808541814091
 20
2446.84890025518
 30
0.0
 11
6270.110092596791
 21
2602.547349472476
 31
0.0
  0
LINE
  5
27F2E
330
747D
100
AcDbEntity
  8
細線
100
AcDbLine
 10
6268.676231217228
 20
2316.848900255176
 30
0.0
 11
6398.676231217222
 21
2446.84890025518
 31
0.0
  0
LINE
  5
27F2F
330
747D
100
AcDbEntity
  8
細線
100
AcDbLine
 10
6270.110092596791
 20
2316.848900255176
 30
0.0
 11
6339.776882628878
 21
2056.848900255169
 31
0.0
  0
LINE
  5
27F30
330
747D
100
AcDbEntity
  8
細線
100
AcDbLine
 10
6140.110092596787
 20
2316.848900255176
 30
0.0
 11
6209.776882628881
 21
2056.848900255169
 31
0.0
  0
LINE
  5
27F31
330
747D
100
AcDbEntity
  8
部品1
100
AcDbLine
 10
6140.110092596787
 20
2056.848900255173
 30
0.0
 11
6140.110092596787
 21
2446.84890025518
 31
0.0
  0
LINE
  5
27F32
330
747D
100
AcDbEntity
  8
細線
100
AcDbLine
 10
6192.360185120855
 20
2121.848900255176
 30
0.0
 11
6174.943487612832
 21
2056.848900255173
 31
0.0
  0
LINE
  5
27F33
330
747D
100
AcDbEntity
  8
細線
100
AcDbLine
 10
6322.360185120858
 20
2121.848900255176
 30
0.0
 11
6304.943487612832
 21
2056.848900255173
 31
0.0
  0
LINE
  5
27F34
330
747D
100
AcDbEntity
  8
部品1
100
AcDbLine
 10
6270.110092596791
 20
2446.84890025518
 30
0.0
 11
6270.110092596791
 21
2706.848900255176
 31
0.0
  0
LINE
  5
27F35
330
747D
100
AcDbEntity
  8
細線
100
AcDbLine
 10
6174.943487612832
 20
2316.848900255176
 30
0.0
 11
6157.526790104814
 21
2251.848900255172
 31
0.0
  0
LINE
  5
27F36
330
747D
100
AcDbEntity
  8
細線
100
AcDbLine
 10
6231.906678595525
 20
2316.848900255176
 30
0.0
 11
6361.906678595525
 21
2446.84890025518
 31
0.0
  0
LINE
  5
27F37
330
747D
100
AcDbEntity
  8
細線
100
AcDbLine
 10
6304.943487612832
 20
2316.848900255176
 30
0.0
 11
6287.52679010481
 21
2251.848900255172
 31
0.0
  0
LINE
  5
27F38
330
747D
100
AcDbEntity
  8
細線
100
AcDbLine
 10
6400.110092596787
 20
2316.848900255176
 30
0.0
 11
6469.776882628877
 21
2056.848900255173
 31
0.0
  0
LINE
  5
27F39
330
747D
100
AcDbEntity
  8
細線
100
AcDbLine
 10
6530.110092596787
 20
2316.848900255176
 30
0.0
 11
6599.776882628882
 21
2056.848900255173
 31
0.0
  0
LINE
  5
27F3A
330
747D
100
AcDbEntity
  8
細線
100
AcDbLine
 10
6790.110092596788
 20
2316.848900255176
 30
0.0
 11
6859.776882628877
 21
2056.848900255176
 31
0.0
  0
LINE
  5
27F3B
330
747D
100
AcDbEntity
  8
細線
100
AcDbLine
 10
6660.110092596791
 20
2316.848900255176
 30
0.0
 11
6729.776882628877
 21
2056.848900255173
 31
0.0
  0
LINE
  5
27F3C
330
747D
100
AcDbEntity
  8
部品1
100
AcDbLine
 10
6920.110092596788
 20
2446.84890025518
 30
0.0
 11
6920.110092596788
 21
2056.848900255176
 31
0.0
  0
LINE
  5
27F3D
330
747D
100
AcDbEntity
  8
細線
100
AcDbLine
 10
6452.360185120856
 20
2121.848900255176
 30
0.0
 11
6434.943487612835
 21
2056.848900255176
 31
0.0
  0
LINE
  5
27F3E
330
747D
100
AcDbEntity
  8
細線
100
AcDbLine
 10
6582.360185120855
 20
2121.848900255176
 30
0.0
 11
6564.943487612833
 21
2056.848900255176
 31
0.0
  0
LINE
  5
27F3F
330
747D
100
AcDbEntity
  8
細線
100
AcDbLine
 10
6712.360185120859
 20
2121.848900255176
 30
0.0
 11
6694.943487612832
 21
2056.848900255176
 31
0.0
  0
LINE
  5
27F40
330
747D
100
AcDbEntity
  8
細線
100
AcDbLine
 10
6842.360185120854
 20
2121.848900255176
 30
0.0
 11
6824.943487612836
 21
2056.848900255176
 31
0.0
  0
LINE
  5
27F41
330
747D
100
AcDbEntity
  8
細線
100
AcDbLine
 10
6695.445783838924
 20
2316.848900255176
 30
0.0
 11
6825.445783838924
 21
2446.84890025518
 31
0.0
  0
LINE
  5
27F42
330
747D
100
AcDbEntity
  8
細線
100
AcDbLine
 10
6824.943487612836
 20
2316.848900255176
 30
0.0
 11
6807.526790104811
 21
2251.84890025518
 31
0.0
  0
LINE
  5
27F43
330
747D
100
AcDbEntity
  8
細線
100
AcDbLine
 10
6719.964962787694
 20
2446.84890025518
 30
0.0
 11
6459.964962787697
 21
2706.848900255176
 31
0.0
  0
LINE
  5
27F44
330
747D
100
AcDbEntity
  8
細線
100
AcDbLine
 10
6775.119291720243
 20
2446.84890025518
 30
0.0
 11
6515.119291720246
 21
2706.848900255176
 31
0.0
  0
LINE
  5
27F45
330
747D
100
AcDbEntity
  8
部品1
100
AcDbLine
 10
6790.110092596788
 20
2706.848900255176
 30
0.0
 11
6790.110092596788
 21
2446.84890025518
 31
0.0
  0
LINE
  5
27F46
330
747D
100
AcDbEntity
  8
細線
100
AcDbLine
 10
6434.943487612835
 20
2316.848900255176
 30
0.0
 11
6417.52679010481
 21
2251.84890025518
 31
0.0
  0
LINE
  5
27F47
330
747D
100
AcDbEntity
  8
細線
100
AcDbLine
 10
6564.943487612833
 20
2316.848900255176
 30
0.0
 11
6547.526790104814
 21
2251.84890025518
 31
0.0
  0
LINE
  5
27F48
330
747D
100
AcDbEntity
  8
細線
100
AcDbLine
 10
6621.906678595526
 20
2316.848900255176
 30
0.0
 11
6751.906678595521
 21
2446.84890025518
 31
0.0
  0
LINE
  5
27F49
330
747D
100
AcDbEntity
  8
細線
100
AcDbLine
 10
6658.676231217228
 20
2316.848900255176
 30
0.0
 11
6788.676231217221
 21
2446.84890025518
 31
0.0
  0
LINE
  5
27F4A
330
747D
100
AcDbEntity
  8
細線
100
AcDbLine
 10
6694.943487612832
 20
2316.848900255176
 30
0.0
 11
6677.52679010481
 21
2251.84890025518
 31
0.0
  0
LINE
  5
27F4B
330
747D
100
AcDbEntity
  8
細線
  6
HIDDEN
 48
10.0
100
AcDbLine
 10
8730.438977364995
 20
1926.848900255179
 30
0.0
 11
8880.294229792452
 21
2076.70415268264
 31
0.0
  0
LINE
  5
27F4C
330
747D
100
AcDbEntity
  8
細線
  6
HIDDEN
 48
10.0
100
AcDbLine
 10
8693.669424743296
 20
1926.848900255179
 30
0.0
 11
8880.294229792456
 21
2113.473705304339
 31
0.0
  0
LINE
  5
27F4D
330
747D
100
AcDbEntity
  8
細線
  6
HIDDEN
 48
10.0
100
AcDbLine
 10
8767.208529986699
 20
1926.848900255179
 30
0.0
 11
8880.294229792452
 21
2039.934600060937
 31
0.0
  0
LINE
  5
27F4E
330
747D
100
AcDbEntity
  8
Ｇ．Ｌ
100
AcDbLine
 10
8685.294229792457
 20
2446.848900255176
 30
0.0
 11
9663.019344702298
 21
2446.848900255176
 31
0.0
  0
DIMENSION
  5
27F4F
330
747D
100
AcDbEntity
  8
寸法
 48
50.0
100
AcDbDimension
  2
*D36
 10
9007.78653546097
 20
2446.848900255178
 30
0.0
 11
8907.786535460971
 21
2576.848900255179
 31
0.0
 70
    32
  1
a
 71
     5
 42
260.0
  3
INABA_S40G
100
AcDbAlignedDimension
 13
8685.294229792459
 23
2706.848900255178
 33
0.0
 14
8685.294229792459
 24
2446.848900255178
 34
0.0
 50
90.0
100
AcDbRotatedDimension
1001
ACAD
1000
DSTYLE
1002
{
1070
   174
1070
     0
1070
   272
1070
     1
1070
   288
1070
     0
1070
   341
1005
0
1002
}
  0
TEXT
  5
27F50
330
747D
100
AcDbEntity
  8
部品1
100
AcDbText
 10
7845.288278313922
 20
1486.57865362502
 30
0.0
 40
104.0
  1
a寸法：100～150mmに対応
  7
STYLE2
100
AcDbText
  0
LINE
  5
27F51
330
747D
100
AcDbEntity
  8
部品1
 48
50.0
100
AcDbLine
 10
8880.294229792452
 20
1926.848900255179
 30
0.0
 11
8360.294229792456
 21
1926.848900255176
 31
0.0
  0
DIMENSION
  5
27F52
330
747D
100
AcDbEntity
  8
寸法
 48
50.0
100
AcDbDimension
  2
*D37
 10
8043.965558594267
 20
1926.848900255176
 30
0.0
 11
8043.965558594267
 21
2170.760923305854
 31
0.0
 70
   160
  1
200
 71
     5
 42
520.0000000000017
  3
INABA_S40G
100
AcDbAlignedDimension
 13
8165.294229792456
 23
2446.848900255178
 33
0.0
 14
8360.294229792456
 24
1926.848900255176
 34
0.0
 50
90.0
100
AcDbRotatedDimension
1001
ACAD
1000
DSTYLE
1002
{
1070
   174
1070
     0
1070
   272
1070
     1
1070
   288
1070
     0
1070
   341
1005
0
1002
}
  0
LINE
  5
27F53
330
747D
100
AcDbEntity
  8
Ｇ．Ｌ
100
AcDbLine
 10
7755.463466575784
 20
2446.848900255176
 30
0.0
 11
8581.294229792456
 21
2446.848900255176
 31
0.0
  0
LINE
  5
27F54
330
747D
100
AcDbEntity
  8
部品1
100
AcDbLine
 10
7755.463466575784
 20
2706.848900255176
 30
0.0
 11
8581.294229792456
 21
2706.848900255176
 31
0.0
  0
LINE
  5
27F55
330
747D
100
AcDbEntity
  8
細線
  6
HIDDEN
 48
10.0
100
AcDbLine
 10
8360.294229792456
 20
2111.360058191314
 30
0.0
 11
8572.535253531659
 21
2323.60108193053
 31
0.0
  0
LINE
  5
27F56
330
747D
100
AcDbEntity
  8
細線
  6
HIDDEN
 48
10.0
100
AcDbLine
 10
8360.294229792456
 20
2148.129610813014
 30
0.0
 11
8576.717223787245
 21
2364.552604807807
 31
0.0
  0
LINE
  5
27F57
330
747D
100
AcDbEntity
  8
細線
  6
HIDDEN
 48
10.0
100
AcDbLine
 10
8360.294229792456
 20
2074.590505569615
 30
0.0
 11
8568.353283276069
 21
2282.649559053247
 31
0.0
  0
LINE
  5
27F58
330
747D
100
AcDbEntity
  8
部品1
100
AcDbLine
 10
8580.128430081968
 20
2397.956499163749
 30
0.0
 11
8542.294229792457
 21
2027.468900255177
 31
0.0
  0
LINE
  5
27F59
330
747D
100
AcDbEntity
  8
部品1
100
AcDbLine
 10
8686.460029502951
 20
2397.956499163749
 30
0.0
 11
8724.294229792457
 21
2027.468900255177
 31
0.0
  0
LINE
  5
27F5A
330
747D
100
AcDbEntity
  8
部品1
 48
50.0
100
AcDbLine
 10
8360.294229792456
 20
1926.848900255176
 30
0.0
 11
8360.294229792456
 21
2446.848900255176
 31
0.0
  0
LINE
  5
27F5B
330
747D
100
AcDbEntity
  8
部品1
100
AcDbLine
 10
8542.294229792457
 20
2027.468900255177
 30
0.0
 11
8724.294229792457
 21
2027.468900255177
 31
0.0
  0
LINE
  5
27F5C
330
747D
100
AcDbEntity
  8
部品1
100
AcDbLine
 10
8542.294229792457
 20
2011.868900255176
 30
0.0
 11
8724.294229792457
 21
2011.868900255176
 31
0.0
  0
LINE
  5
27F5D
330
747D
100
AcDbEntity
  8
部品1
100
AcDbLine
 10
8542.294229792457
 20
2027.468900255175
 30
0.0
 11
8542.294229792457
 21
2011.868900255176
 31
0.0
  0
LINE
  5
27F5E
330
747D
100
AcDbEntity
  8
細線
100
AcDbLine
 10
8613.794229792457
 20
2043.068900255179
 30
0.0
 11
8652.794229792457
 21
2043.068900255173
 31
0.0
  0
LINE
  5
27F5F
330
747D
100
AcDbEntity
  8
細線
100
AcDbLine
 10
8613.794229792457
 20
2050.86890025518
 30
0.0
 11
8652.794229792457
 21
2050.868900255173
 31
0.0
  0
LINE
  5
27F60
330
747D
100
AcDbEntity
  8
細線
100
AcDbLine
 10
8613.794229792457
 20
2102.86890025518
 30
0.0
 11
8652.794229792457
 21
2102.868900255173
 31
0.0
  0
LINE
  5
27F61
330
747D
100
AcDbEntity
  8
細線
100
AcDbLine
 10
8613.794229792457
 20
2095.068900255181
 30
0.0
 11
8652.794229792457
 21
2095.068900255174
 31
0.0
  0
LINE
  5
27F62
330
747D
100
AcDbEntity
  8
細線
100
AcDbLine
 10
8613.794229792457
 20
2050.86890025518
 30
0.0
 11
8613.794229792457
 21
2043.068900255173
 31
0.0
  0
LINE
  5
27F63
330
747D
100
AcDbEntity
  8
細線
100
AcDbLine
 10
8613.794229792457
 20
2102.86890025518
 30
0.0
 11
8613.794229792457
 21
2095.068900255174
 31
0.0
  0
LINE
  5
27F64
330
747D
100
AcDbEntity
  8
細線
100
AcDbLine
 10
8652.794229792457
 20
2050.868900255173
 30
0.0
 11
8652.794229792457
 21
2043.068900255172
 31
0.0
  0
LINE
  5
27F65
330
747D
100
AcDbEntity
  8
細線
100
AcDbLine
 10
8652.794229792457
 20
2102.868900255169
 30
0.0
 11
8652.794229792457
 21
2095.06890025517
 31
0.0
  0
LINE
  5
27F66
330
747D
100
AcDbEntity
  8
部品1
100
AcDbLine
 10
8724.294229792457
 20
2027.468900255177
 30
0.0
 11
8724.294229792457
 21
2011.868900255176
 31
0.0
  0
LINE
  5
27F67
330
747D
100
AcDbEntity
  8
細線
100
AcDbLine
 10
8571.28739226592
 20
2446.848900255176
 30
0.0
 11
8311.287392265921
 21
2706.848900255176
 31
0.0
  0
LINE
  5
27F68
330
747D
100
AcDbEntity
  8
細線
100
AcDbLine
 10
8581.294229792456
 20
2491.996391661193
 30
0.0
 11
8366.441721198469
 21
2706.848900255176
 31
0.0
  0
LINE
  5
27F69
330
747D
100
AcDbEntity
  8
細線
100
AcDbLine
 10
8332.285300224866
 20
2446.848900255176
 30
0.0
 11
8165.294229792456
 21
2613.839970687586
 31
0.0
  0
LINE
  5
27F6A
330
747D
100
AcDbEntity
  8
部品1
100
AcDbLine
 10
8165.294229792456
 20
2446.848900255176
 30
0.0
 11
8165.294229792456
 21
2706.848900255176
 31
0.0
  0
LINE
  5
27F6B
330
747D
100
AcDbEntity
  8
細線
100
AcDbLine
 10
8277.130971292313
 20
2446.848900255176
 30
0.0
 11
8165.294229792456
 21
2558.685641755037
 31
0.0
  0
LINE
  5
27F6C
330
747D
100
AcDbEntity
  8
部品1
100
AcDbLine
 10
8593.064507116775
 20
2409.668900255176
 30
0.0
 11
8673.523952468139
 21
2409.668900255168
 31
0.0
  0
ARC
  5
27F6D
330
747D
100
AcDbEntity
  8
部品1
100
AcDbCircle
 10
8593.064507116775
 20
2396.668900255176
 30
0.0
 40
13.0
100
AcDbArc
 50
90.0
 51
174.3157584018239
  0
CIRCLE
  5
27F6E
330
747D
100
AcDbEntity
  8
細線
100
AcDbCircle
 10
8633.294229792456
 20
2380.548900255177
 30
0.0
 40
20.8
  0
LINE
  5
27F6F
330
747D
100
AcDbEntity
  8
細線
100
AcDbLine
 10
8613.794229792457
 20
2290.068900255179
 30
0.0
 11
8615.094229792456
 21
2290.068900255179
 31
0.0
  0
LINE
  5
27F70
330
747D
100
AcDbEntity
  8
細線
100
AcDbLine
 10
8613.794229792457
 20
2297.86890025518
 30
0.0
 11
8652.794229792457
 21
2297.868900255173
 31
0.0
  0
ARC
  5
27F71
330
747D
100
AcDbEntity
  8
細線
100
AcDbCircle
 10
8633.294229792456
 20
2329.068900255172
 30
0.0
 40
10.4
100
AcDbArc
 50
180.0
 51
0.0
  0
LINE
  5
27F72
330
747D
100
AcDbEntity
  8
細線
100
AcDbLine
 10
8613.794229792457
 20
2297.86890025518
 30
0.0
 11
8613.794229792457
 21
2290.068900255174
 31
0.0
  0
LINE
  5
27F73
330
747D
100
AcDbEntity
  8
細線
100
AcDbLine
 10
8613.794229792457
 20
2296.048900255169
 30
0.0
 11
8652.794229792457
 21
2296.048900255177
 31
0.0
  0
LINE
  5
27F74
330
747D
100
AcDbEntity
  8
細線
100
AcDbLine
 10
8623.054267105763
 20
2274.468900255164
 30
0.0
 11
8643.534192479156
 21
2274.468900255171
 31
0.0
  0
LINE
  5
27F75
330
747D
100
AcDbEntity
  8
細線
100
AcDbLine
 10
8615.094229792456
 20
2296.048900255169
 30
0.0
 11
8615.094229792456
 21
2290.068900255174
 31
0.0
  0
LINE
  5
27F76
330
747D
100
AcDbEntity
  8
細線
100
AcDbLine
 10
8615.094229792456
 20
2290.068900255172
 30
0.0
 11
8618.009526105009
 21
2278.407715004978
 31
0.0
  0
ARC
  5
27F77
330
747D
100
AcDbEntity
  8
細線
100
AcDbCircle
 10
8623.054267105763
 20
2279.668900255169
 30
0.0
 40
5.2
100
AcDbArc
 50
194.0362434679821
 51
270.0
  0
LINE
  5
27F78
330
747D
100
AcDbEntity
  8
細線
100
AcDbLine
 10
8651.494229792458
 20
2296.048900255173
 30
0.0
 11
8651.494229792458
 21
2290.068900255174
 31
0.0
  0
LINE
  5
27F79
330
747D
100
AcDbEntity
  8
細線
100
AcDbLine
 10
8651.494229792458
 20
2290.068900255172
 30
0.0
 11
8648.578933479905
 21
2278.407715004978
 31
0.0
  0
ARC
  5
27F7A
330
747D
100
AcDbEntity
  8
細線
100
AcDbCircle
 10
8643.534192479156
 20
2279.668900255169
 30
0.0
 40
5.2
100
AcDbArc
 50
270.0
 51
345.9637565320164
  0
LINE
  5
27F7B
330
747D
100
AcDbEntity
  8
細線
100
AcDbLine
 10
8652.794229792457
 20
2297.868900255173
 30
0.0
 11
8652.794229792457
 21
2290.068900255172
 31
0.0
  0
LINE
  5
27F7C
330
747D
100
AcDbEntity
  8
細線
100
AcDbLine
 10
8651.494229792458
 20
2290.068900255179
 30
0.0
 11
8652.794229792457
 21
2290.068900255174
 31
0.0
  0
LINE
  5
27F7D
330
747D
100
AcDbEntity
  8
細線
100
AcDbLine
 10
8643.694229792455
 20
2362.535571856461
 30
0.0
 11
8643.694229792455
 21
2329.068900255172
 31
0.0
  0
LINE
  5
27F7E
330
747D
100
AcDbEntity
  8
細線
100
AcDbLine
 10
8622.894229792459
 20
2362.535571856461
 30
0.0
 11
8622.894229792459
 21
2329.068900255172
 31
0.0
  0
LINE
  5
27F7F
330
747D
100
AcDbEntity
  8
細線
  6
HIDDEN
 48
10.0
100
AcDbLine
 10
8685.294229792457
 20
2436.360058191331
 30
0.0
 11
8695.783071856306
 21
2446.848900255176
 31
0.0
  0
LINE
  5
27F80
330
747D
100
AcDbEntity
  8
細線
  6
HIDDEN
 48
10.0
100
AcDbLine
 10
8686.005909146409
 20
2400.302184923592
 30
0.0
 11
8732.552624477998
 21
2446.84890025518
 31
0.0
  0
ARC
  5
27F81
330
747D
100
AcDbEntity
  8
部品1
100
AcDbCircle
 10
8673.523952468139
 20
2396.668900255169
 30
0.0
 40
13.0
100
AcDbArc
 50
5.684241598176082
 51
90.0
  0
CIRCLE
  5
27F82
330
747D
100
AcDbEntity
  8
細線
100
AcDbCircle
 10
8633.294229792456
 20
2582.04890025518
 30
0.0
 40
7.8
  0
CIRCLE
  5
27F83
330
747D
100
AcDbEntity
  8
細線
100
AcDbCircle
 10
8633.294229792456
 20
2582.04890025518
 30
0.0
 40
9.099999999999999
  0
ARC
  5
27F84
330
747D
100
AcDbEntity
  8
細線
100
AcDbCircle
 10
8633.294229792456
 20
2725.048900255177
 30
0.0
 40
10.4
100
AcDbArc
 50
0.0
 51
180.0
  0
ARC
  5
27F85
330
747D
100
AcDbEntity
  8
細線
100
AcDbCircle
 10
8633.294229792456
 20
2673.048900255177
 30
0.0
 40
10.4
100
AcDbArc
 50
180.0
 51
0.0
  0
LINE
  5
27F86
330
747D
100
AcDbEntity
  8
細線
100
AcDbLine
 10
8622.894229792459
 20
2725.048900255177
 30
0.0
 11
8622.894229792459
 21
2673.048900255177
 31
0.0
  0
LINE
  5
27F87
330
747D
100
AcDbEntity
  8
細線
100
AcDbLine
 10
8643.694229792455
 20
2725.048900255177
 30
0.0
 11
8643.694229792455
 21
2673.048900255177
 31
0.0
  0
LINE
  5
27F88
330
747D
100
AcDbEntity
  8
部品1
 48
50.0
100
AcDbLine
 10
8880.294229792456
 20
2446.848900255176
 30
0.0
 11
8880.294229792452
 21
1926.848900255179
 31
0.0
  0
TEXT
  5
27F89
330
747D
100
AcDbEntity
  8
部品1
100
AcDbText
 10
9185.226840982949
 20
2457.126754437752
 30
0.0
 40
156.0
  1
▽G.L
  7
STYLE1
100
AcDbText
  0
LINE
  5
27F8A
330
747D
100
AcDbEntity
  8
細線
 48
10.0
100
AcDbLine
 10
10080.88709845032
 20
2047.855243714108
 30
0.0
 11
10479.88075499137
 21
2446.848900255176
 31
0.0
  0
LINE
  5
27F8B
330
747D
100
AcDbEntity
  8
細線
 48
10.0
100
AcDbLine
 10
10044.11754582862
 20
2047.855243714108
 30
0.0
 11
10443.11120236968
 21
2446.848900255176
 31
0.0
  0
LINE
  5
27F8C
330
747D
100
AcDbEntity
  8
細線
 48
10.0
100
AcDbLine
 10
9839.435617892814
 20
2397.829221287004
 30
0.0
 11
9888.455296860994
 21
2446.848900255176
 31
0.0
  0
LINE
  5
27F8D
330
747D
100
AcDbEntity
  8
細線
 48
10.0
100
AcDbLine
 10
9839.435617892821
 20
2324.290116043612
 30
0.0
 11
9961.994402104371
 21
2446.848900255176
 31
0.0
  0
LINE
  5
27F8E
330
747D
100
AcDbEntity
  8
細線
 48
10.0
100
AcDbLine
 10
9839.435617892821
 20
2361.05966866531
 30
0.0
 11
9925.224849482679
 21
2446.848900255176
 31
0.0
  0
LINE
  5
27F8F
330
747D
100
AcDbEntity
  8
細線
100
AcDbLine
 10
10361.10312260934
 20
2446.848900255176
 30
0.0
 11
10249.26638110948
 21
2558.685641755037
 31
0.0
  0
LINE
  5
27F90
330
747D
100
AcDbEntity
  8
細線
100
AcDbLine
 10
10416.25745154189
 20
2446.848900255176
 30
0.0
 11
10249.26638110948
 21
2613.839970687586
 31
0.0
  0
LINE
  5
27F91
330
747D
100
AcDbEntity
  8
部品1
100
AcDbLine
 10
10249.26638110948
 20
2446.848900255176
 30
0.0
 11
10249.26638110948
 21
2706.84890025518
 31
0.0
  0
TEXT
  5
27F92
330
747D
100
AcDbEntity
  8
部品1
100
AcDbText
 10
6193.054244156535
 20
3964.223758691715
 30
0.0
 40
156.0
  1
基礎詳細
  7
STYLE2
100
AcDbText
  0
TEXT
  5
27F93
330
747D
100
AcDbEntity
  8
部品1
100
AcDbText
 10
7943.573586720434
 20
3795.63052760346
 30
0.0
 40
156.0
  1
地盤が土の場合
  7
STYLE2
100
AcDbText
  0
LINE
  5
27F94
330
747D
100
AcDbEntity
  8
部品1
100
AcDbLine
 10
7755.463466575784
 20
2829.048900255177
 30
0.0
 11
8685.294229792457
 21
2829.048900255177
 31
0.0
  0
LINE
  5
27F95
330
747D
100
AcDbEntity
  8
部品1
100
AcDbLine
 10
7755.463466575784
 20
2836.84890025518
 30
0.0
 11
8542.294229792457
 21
2836.848900255178
 31
0.0
  0
LINE
  5
27F96
330
747D
100
AcDbEntity
  8
細線
 48
50.0
100
AcDbLine
 10
7976.794229792457
 20
3486.848900255174
 30
0.0
 11
7976.794229792457
 21
2836.848900255178
 31
0.0
  0
LINE
  5
27F97
330
747D
100
AcDbEntity
  8
細線
 48
50.0
100
AcDbLine
 10
8015.794229792456
 20
3486.848900255174
 30
0.0
 11
8015.794229792456
 21
2836.848900255178
 31
0.0
  0
LINE
  5
27F98
330
747D
100
AcDbEntity
  8
細線
 48
50.0
100
AcDbLine
 10
8379.794229792457
 20
3486.848900255174
 30
0.0
 11
8379.794229792457
 21
2836.848900255178
 31
0.0
  0
LINE
  5
27F99
330
747D
100
AcDbEntity
  8
細線
 48
50.0
100
AcDbLine
 10
8340.794229792455
 20
3486.848900255174
 30
0.0
 11
8340.794229792455
 21
2836.848900255178
 31
0.0
  0
LINE
  5
27F9A
330
747D
100
AcDbEntity
  8
部品1
100
AcDbLine
 10
8542.294229792457
 20
3486.848900255174
 30
0.0
 11
8542.29422979246
 21
2829.048900255181
 31
0.0
  0
LINE
  5
27F9B
330
747D
100
AcDbEntity
  8
部品1
100
AcDbLine
 10
8594.294229792456
 20
2803.048900255177
 30
0.0
 11
8672.294229792456
 21
2803.048900255177
 31
0.0
  0
ARC
  5
27F9C
330
747D
100
AcDbEntity
  8
部品1
100
AcDbCircle
 10
8594.294229792456
 20
2790.048900255177
 30
0.0
 40
13.0
100
AcDbArc
 50
90.0
 51
180.0
  0
ARC
  5
27F9D
330
747D
100
AcDbEntity
  8
部品1
100
AcDbCircle
 10
8672.294229792456
 20
2790.048900255177
 30
0.0
 40
13.0
100
AcDbArc
 50
0.0
 51
90.0
  0
LINE
  5
27F9E
330
747D
100
AcDbEntity
  8
細線
 48
50.0
100
AcDbLine
 10
10463.76638110948
 20
3486.848900255176
 30
0.0
 11
10463.76638110948
 21
2836.84890025518
 31
0.0
  0
LINE
  5
27F9F
330
747D
100
AcDbEntity
  8
細線
 48
50.0
100
AcDbLine
 10
10424.76638110948
 20
3486.848900255176
 30
0.0
 11
10424.76638110948
 21
2836.84890025518
 31
0.0
  0
LINE
  5
27FA0
330
747D
100
AcDbEntity
  8
細線
 48
50.0
100
AcDbLine
 10
10099.76638110948
 20
3486.848900255176
 30
0.0
 11
10099.76638110948
 21
2836.84890025518
 31
0.0
  0
LINE
  5
27FA1
330
747D
100
AcDbEntity
  8
細線
 48
50.0
100
AcDbLine
 10
10060.76638110948
 20
3486.848900255176
 30
0.0
 11
10060.76638110948
 21
2836.84890025518
 31
0.0
  0
LINE
  5
27FA2
330
747D
100
AcDbEntity
  8
部品1
 48
50.0
100
AcDbLine
 10
11827.77421685029
 20
3719.859876359897
 30
0.0
 11
11827.77421685029
 21
1223.859876359896
 31
0.0
  0
LINE
  5
27FA3
330
747D
100
AcDbEntity
  8
部品1
100
AcDbLine
 10
10770.43218081998
 20
2832.93649916375
 30
0.0
 11
10808.26638110948
 21
2462.448900255179
 31
0.0
  0
LINE
  5
27FA4
330
747D
100
AcDbEntity
  8
部品1
100
AcDbLine
 10
10664.100581399
 20
2832.93649916375
 30
0.0
 11
10626.26638110948
 21
2462.448900255179
 31
0.0
  0
CIRCLE
  5
27FA5
330
747D
100
AcDbEntity
  8
部品1
100
AcDbCircle
 10
10717.26638110948
 20
2764.048900255177
 30
0.0
 40
20.8
  0
LINE
  5
27FA6
330
747D
100
AcDbEntity
  8
細線
100
AcDbLine
 10
10706.86638110948
 20
2816.048900255175
 30
0.0
 11
10706.86638110948
 21
2782.062228653895
 31
0.0
  0
LINE
  5
27FA7
330
747D
100
AcDbEntity
  8
細線
100
AcDbLine
 10
10727.66638110948
 20
2816.048900255175
 30
0.0
 11
10727.66638110948
 21
2782.062228653895
 31
0.0
  0
LINE
  5
27FA8
330
747D
100
AcDbEntity
  8
細線
100
AcDbLine
 10
12590.93974822863
 20
2474.601081736379
 30
0.0
 11
12228.69192970982
 21
2836.848900255178
 31
0.0
  0
LINE
  5
27FA9
330
747D
100
AcDbEntity
  8
細線
100
AcDbLine
 10
12596.05022710035
 20
2524.6449317972
 30
0.0
 11
12283.84625864238
 21
2836.848900255178
 31
0.0
  0
LINE
  5
27FAA
330
747D
100
AcDbEntity
  8
部品1
100
AcDbLine
 10
12212.69876723636
 20
2446.848900255173
 30
0.0
 11
12212.69876723636
 21
2836.848900255178
 31
0.0
  0
DIMENSION
  5
27FAB
330
747D
100
AcDbEntity
  8
寸法
 48
50.0
100
AcDbDimension
  2
*D38
 10
12996.26940655118
 20
2446.848900255178
 30
0.0
 11
12896.26940655118
 21
2641.84890025518
 31
0.0
 70
    32
  1
c
 71
     5
 42
390.0
  3
INABA_S40G
100
AcDbAlignedDimension
 13
12732.84318671893
 23
2836.848900255178
 33
0.0
 14
12771.69876723636
 24
2446.848900255178
 34
0.0
 50
90.0
100
AcDbRotatedDimension
1001
ACAD
1000
DSTYLE
1002
{
1070
   174
1070
     0
1070
   272
1070
     1
1070
   288
1070
     0
1070
   341
1005
0
1002
}
  0
LINE
  5
27FAC
330
747D
100
AcDbEntity
  8
部品1
100
AcDbLine
 10
12627.53296752587
 20
2832.936499163747
 30
0.0
 11
12589.69876723636
 21
2462.448900255179
 31
0.0
  0
LINE
  5
27FAD
330
747D
100
AcDbEntity
  8
部品1
100
AcDbLine
 10
12733.86456694685
 20
2832.936499163747
 30
0.0
 11
12771.69876723636
 21
2462.448900255179
 31
0.0
  0
LINE
  5
27FAE
330
747D
100
AcDbEntity
  8
細線
100
AcDbLine
 10
12618.1956355445
 20
2741.501615394107
 30
0.0
 11
12522.84835068344
 21
2836.848900255178
 31
0.0
  0
LINE
  5
27FAF
330
747D
100
AcDbEntity
  8
細線
100
AcDbLine
 10
12670.29876723636
 20
2816.048900255173
 30
0.0
 11
12670.29876723636
 21
2781.542228653894
 31
0.0
  0
LINE
  5
27FB0
330
747D
100
AcDbEntity
  8
細線
100
AcDbLine
 10
12691.09876723636
 20
2816.048900255173
 30
0.0
 11
12691.09876723636
 21
2781.542228653894
 31
0.0
  0
CIRCLE
  5
27FB1
330
747D
100
AcDbEntity
  8
部品1
100
AcDbCircle
 10
12680.69876723636
 20
2763.528900255174
 30
0.0
 40
20.8
  0
LINE
  5
27FB2
330
747D
100
AcDbEntity
  8
部品1
 48
50.0
100
AcDbLine
 10
13907.77421685029
 20
4343.859876359898
 30
0.0
 11
13907.77421685029
 21
1223.859876359896
 31
0.0
  0
LINE
  5
27FB3
330
747D
100
AcDbEntity
  8
Ｇ．Ｌ
100
AcDbLine
 10
11923.06215139804
 20
2446.848900255176
 30
0.0
 11
13801.42136400473
 21
2446.848900255176
 31
0.0
  0
TEXT
  5
27FB4
330
747D
100
AcDbEntity
  8
部品1
100
AcDbText
 10
11890.82304915549
 20
1839.962519161138
 30
0.0
 40
104.0
  1
c寸法：135～175,190mmに対応
  7
STYLE2
100
AcDbText
  0
TEXT
  5
27FB5
330
747D
100
AcDbEntity
  8
部品1
100
AcDbText
 10
11896.14123097368
 20
1650.674640373258
 30
0.0
 40
104.0
  1
\U+203BオールアンカーM10(市販品)
  7
STYLE2
100
AcDbText
  0
TEXT
  5
27FB6
330
747D
100
AcDbEntity
  8
部品1
100
AcDbText
 10
11897.9139582464
 20
1456.068579767198
 30
0.0
 40
104.0
  1
  が4本必要になります。
  7
STYLE2
100
AcDbText
  0
LINE
  5
27FB7
330
747D
100
AcDbEntity
  8
細線
 48
10.0
100
AcDbLine
 10
11226.96846208935
 20
2047.855243714108
 30
0.0
 11
11625.96211863041
 21
2446.848900255176
 31
0.0
  0
LINE
  5
27FB8
330
747D
100
AcDbEntity
  8
細線
 48
10.0
100
AcDbLine
 10
11190.19890946765
 20
2047.855243714108
 30
0.0
 11
11589.19256600871
 21
2446.848900255176
 31
0.0
  0
LINE
  5
27FB9
330
747D
100
AcDbEntity
  8
細線
 48
10.0
100
AcDbLine
 10
11153.42935684595
 20
2047.855243714108
 30
0.0
 11
11552.42301338701
 21
2446.848900255176
 31
0.0
  0
TEXT
  5
27FBA
330
747D
100
AcDbEntity
  8
部品1
100
AcDbText
 10
11256.10234535837
 20
2457.126754437752
 30
0.0
 40
156.0
  1
▽G.L
  7
STYLE1
100
AcDbText
  0
LINE
  5
27FBB
330
747D
100
AcDbEntity
  8
細線
 48
10.0
100
AcDbLine
 10
10635.54300395899
 20
2047.855243714108
 30
0.0
 11
11034.53666050004
 21
2446.848900255176
 31
0.0
  0
LINE
  5
27FBC
330
747D
100
AcDbEntity
  8
細線
 48
10.0
100
AcDbLine
 10
10598.77345133729
 20
2047.855243714108
 30
0.0
 11
10997.76710787834
 21
2446.848900255176
 31
0.0
  0
LINE
  5
27FBD
330
747D
100
AcDbEntity
  8
細線
 48
10.0
100
AcDbLine
 10
10672.31255658069
 20
2047.855243714108
 30
0.0
 11
11071.30621312175
 21
2446.848900255176
 31
0.0
  0
DIMENSION
  5
27FBE
330
747D
100
AcDbEntity
  8
寸法
 48
50.0
100
AcDbDimension
  2
*D39
 10
11071.85959484842
 20
2446.848900255178
 30
0.0
 11
10971.85959484842
 21
2576.848900255181
 31
0.0
 70
    32
  1
b
 71
     5
 42
260.0000000000018
  3
INABA_S40G
100
AcDbAlignedDimension
 13
10782.98237314664
 23
2706.84890025518
 33
0.0
 14
10808.26638110948
 24
2446.848900255178
 34
0.0
 50
90.0
100
AcDbRotatedDimension
1001
ACAD
1000
DSTYLE
1002
{
1070
   174
1070
     0
1070
   272
1070
     1
1070
   288
1070
     0
1070
   341
1005
0
1002
}
  0
LINE
  5
27FBF
330
747D
100
AcDbEntity
  8
部品1
100
AcDbLine
 10
10704.26638110948
 20
2466.348900255176
 30
0.0
 11
10704.26638110948
 21
2514.448900255179
 31
0.0
  0
LINE
  5
27FC0
330
747D
100
AcDbEntity
  8
部品1
100
AcDbLine
 10
10730.26638110948
 20
2466.348900255176
 30
0.0
 11
10730.26638110948
 21
2514.448900255179
 31
0.0
  0
LINE
  5
27FC1
330
747D
100
AcDbEntity
  8
部品1
100
AcDbLine
 10
10626.26638110948
 20
2462.448900255179
 30
0.0
 11
10808.26638110948
 21
2462.448900255179
 31
0.0
  0
LINE
  5
27FC2
330
747D
100
AcDbEntity
  8
部品1
100
AcDbLine
 10
10626.26638110948
 20
2446.848900255176
 30
0.0
 11
10808.26638110948
 21
2446.848900255176
 31
0.0
  0
LINE
  5
27FC3
330
747D
100
AcDbEntity
  8
部品1
100
AcDbLine
 10
10678.26638110948
 20
2466.348900255176
 30
0.0
 11
10756.26638110948
 21
2466.348900255184
 31
0.0
  0
LINE
  5
27FC4
330
747D
100
AcDbEntity
  8
部品1
100
AcDbLine
 10
10695.16638110948
 20
2487.148900255179
 30
0.0
 11
10739.36638110948
 21
2487.148900255179
 31
0.0
  0
LINE
  5
27FC5
330
747D
100
AcDbEntity
  8
部品1
100
AcDbLine
 10
10691.26638110948
 20
2483.248900255181
 30
0.0
 11
10743.26638110948
 21
2483.248900255181
 31
0.0
  0
ARC
  5
27FC6
330
747D
100
AcDbEntity
  8
部品1
100
AcDbCircle
 10
10717.26638110948
 20
2455.833677068115
 30
0.0
 40
30.34129961614032
100
AcDbArc
 50
64.63020194521458
 51
115.3697980547854
  0
LINE
  5
27FC7
330
747D
100
AcDbEntity
  8
部品1
100
AcDbLine
 10
10696.46638110949
 20
2348.828900255178
 30
0.0
 11
10706.75131917931
 21
2347.286159544707
 31
0.0
  0
LINE
  5
27FC8
330
747D
100
AcDbEntity
  8
部品1
100
AcDbLine
 10
10697.62343664234
 20
2356.542603807549
 30
0.0
 11
10707.90837471217
 21
2354.999863097073
 31
0.0
  0
LINE
  5
27FC9
330
747D
100
AcDbEntity
  8
部品1
100
AcDbLine
 10
10698.78049217519
 20
2364.256307359923
 30
0.0
 11
10709.06543024502
 21
2362.713566649447
 31
0.0
  0
LINE
  5
27FCA
330
747D
100
AcDbEntity
  8
部品1
100
AcDbLine
 10
10699.93754770804
 20
2371.970010912292
 30
0.0
 11
10710.22248577788
 21
2370.427270201817
 31
0.0
  0
LINE
  5
27FCB
330
747D
100
AcDbEntity
  8
部品1
100
AcDbLine
 10
10701.0946032409
 20
2379.683714464667
 30
0.0
 11
10711.37954131073
 21
2378.140973754195
 31
0.0
  0
LINE
  5
27FCC
330
747D
100
AcDbEntity
  8
部品1
100
AcDbLine
 10
10702.25165877375
 20
2387.397418017037
 30
0.0
 11
10712.53659684358
 21
2385.854677306561
 31
0.0
  0
LINE
  5
27FCD
330
747D
100
AcDbEntity
  8
部品1
100
AcDbLine
 10
10703.40871430661
 20
2395.111121569411
 30
0.0
 11
10713.69365237644
 21
2393.568380858935
 31
0.0
  0
LINE
  5
27FCE
330
747D
100
AcDbEntity
  8
部品1
100
AcDbLine
 10
10626.26638110948
 20
2462.448900255179
 30
0.0
 11
10626.26638110948
 21
2446.848900255176
 31
0.0
  0
LINE
  5
27FCF
330
747D
100
AcDbEntity
  8
部品1
100
AcDbLine
 10
10697.76638110948
 20
2488.968900255182
 30
0.0
 11
10704.26638110948
 21
2488.968900255182
 31
0.0
  0
LINE
  5
27FD0
330
747D
100
AcDbEntity
  8
部品1
100
AcDbLine
 10
10697.76638110948
 20
2488.968900255182
 30
0.0
 11
10697.76638110948
 21
2487.148900255179
 31
0.0
  0
LINE
  5
27FD1
330
747D
100
AcDbEntity
  8
部品1
100
AcDbLine
 10
10691.26638110948
 20
2466.348900255176
 30
0.0
 11
10691.26638110948
 21
2483.248900255181
 31
0.0
  0
LINE
  5
27FD2
330
747D
100
AcDbEntity
  8
部品1
100
AcDbLine
 10
10695.16638110948
 20
2487.148900255179
 30
0.0
 11
10691.26638110948
 21
2483.248900255181
 31
0.0
  0
LINE
  5
27FD3
330
747D
100
AcDbEntity
  8
部品1
100
AcDbLine
 10
10678.26638110948
 20
2462.448900255179
 30
0.0
 11
10678.26638110948
 21
2466.348900255176
 31
0.0
  0
ARC
  5
27FD4
330
747D
100
AcDbEntity
  8
部品1
100
AcDbCircle
 10
10697.76638110948
 20
2477.379719027766
 30
0.0
 40
8.757698800495116
100
AcDbArc
 50
42.08048849858188
 51
137.9195115014181
  0
LINE
  5
27FD5
330
747D
100
AcDbEntity
  8
部品1
100
AcDbLine
 10
10704.26638110948
 20
2446.848900255176
 30
0.0
 11
10704.26638110948
 21
2400.828900255179
 31
0.0
  0
LINE
  5
27FD6
330
747D
100
AcDbEntity
  8
部品1
100
AcDbLine
 10
10704.26638110948
 20
2400.828900255179
 30
0.0
 11
10696.46638110949
 21
2348.828900255178
 31
0.0
  0
LINE
  5
27FD7
330
747D
100
AcDbEntity
  8
部品1
100
AcDbLine
 10
10808.26638110948
 20
2462.448900255179
 30
0.0
 11
10808.26638110948
 21
2446.848900255176
 31
0.0
  0
LINE
  5
27FD8
330
747D
100
AcDbEntity
  8
部品1
100
AcDbLine
 10
10736.76638110948
 20
2488.968900255175
 30
0.0
 11
10736.76638110948
 21
2487.148900255179
 31
0.0
  0
LINE
  5
27FD9
330
747D
100
AcDbEntity
  8
部品1
100
AcDbLine
 10
10743.26638110948
 20
2466.348900255184
 30
0.0
 11
10743.26638110948
 21
2483.248900255181
 31
0.0
  0
LINE
  5
27FDA
330
747D
100
AcDbEntity
  8
部品1
100
AcDbLine
 10
10739.36638110948
 20
2487.148900255179
 30
0.0
 11
10743.26638110948
 21
2483.248900255181
 31
0.0
  0
LINE
  5
27FDB
330
747D
100
AcDbEntity
  8
部品1
100
AcDbLine
 10
10756.26638110948
 20
2462.448900255179
 30
0.0
 11
10756.26638110948
 21
2466.348900255191
 31
0.0
  0
LINE
  5
27FDC
330
747D
100
AcDbEntity
  8
部品1
100
AcDbLine
 10
10730.26638110948
 20
2488.968900255182
 30
0.0
 11
10736.76638110948
 21
2488.968900255182
 31
0.0
  0
ARC
  5
27FDD
330
747D
100
AcDbEntity
  8
部品1
100
AcDbCircle
 10
10736.76638110948
 20
2477.379719027766
 30
0.0
 40
8.757698800495116
100
AcDbArc
 50
42.08048849858188
 51
137.9195115014181
  0
LINE
  5
27FDE
330
747D
100
AcDbEntity
  8
部品1
100
AcDbLine
 10
10730.26638110948
 20
2446.848900255176
 30
0.0
 11
10730.26638110948
 21
2400.828900255179
 31
0.0
  0
LINE
  5
27FDF
330
747D
100
AcDbEntity
  8
部品1
100
AcDbLine
 10
10714.78273028588
 20
2400.828900255179
 30
0.0
 11
10719.75003193308
 21
2400.828900255179
 31
0.0
  0
LINE
  5
27FE0
330
747D
100
AcDbEntity
  8
部品1
100
AcDbLine
 10
10738.06638110948
 20
2348.828900255178
 30
0.0
 11
10730.26638110948
 21
2400.828900255179
 31
0.0
  0
LINE
  5
27FE1
330
747D
100
AcDbEntity
  8
部品1
100
AcDbLine
 10
10714.78273028588
 20
2400.828900255179
 30
0.0
 11
10706.75131917931
 21
2347.286159544707
 31
0.0
  0
LINE
  5
27FE2
330
747D
100
AcDbEntity
  8
部品1
100
AcDbLine
 10
10727.78144303965
 20
2347.286159544707
 30
0.0
 11
10719.75003193308
 21
2400.828900255179
 31
0.0
  0
LINE
  5
27FE3
330
747D
100
AcDbEntity
  8
部品1
100
AcDbLine
 10
10727.78144303965
 20
2347.286159544707
 30
0.0
 11
10738.06638110948
 21
2348.828900255178
 31
0.0
  0
LINE
  5
27FE4
330
747D
100
AcDbEntity
  8
部品1
100
AcDbLine
 10
10726.62438750679
 20
2354.999863097073
 30
0.0
 11
10736.90932557663
 21
2356.542603807549
 31
0.0
  0
LINE
  5
27FE5
330
747D
100
AcDbEntity
  8
部品1
100
AcDbLine
 10
10725.46733197395
 20
2362.713566649447
 30
0.0
 11
10735.75227004377
 21
2364.256307359923
 31
0.0
  0
LINE
  5
27FE6
330
747D
100
AcDbEntity
  8
部品1
100
AcDbLine
 10
10724.31027644109
 20
2370.427270201817
 30
0.0
 11
10734.59521451092
 21
2371.970010912292
 31
0.0
  0
LINE
  5
27FE7
330
747D
100
AcDbEntity
  8
部品1
100
AcDbLine
 10
10723.15322090824
 20
2378.140973754195
 30
0.0
 11
10733.43815897807
 21
2379.683714464667
 31
0.0
  0
LINE
  5
27FE8
330
747D
100
AcDbEntity
  8
部品1
100
AcDbLine
 10
10721.99616537538
 20
2385.854677306561
 30
0.0
 11
10732.28110344521
 21
2387.397418017037
 31
0.0
  0
LINE
  5
27FE9
330
747D
100
AcDbEntity
  8
部品1
100
AcDbLine
 10
10720.83910984253
 20
2393.568380858935
 30
0.0
 11
10731.12404791235
 21
2395.111121569411
 31
0.0
  0
LINE
  5
27FEA
330
747D
100
AcDbEntity
  8
部品1
100
AcDbLine
 10
10697.76638110948
 20
2533.168900255183
 30
0.0
 11
10736.76638110948
 21
2533.168900255183
 31
0.0
  0
LINE
  5
27FEB
330
747D
100
AcDbEntity
  8
部品1
100
AcDbLine
 10
10697.76638110948
 20
2540.968900255182
 30
0.0
 11
10736.76638110948
 21
2540.968900255182
 31
0.0
  0
LINE
  5
27FEC
330
747D
100
AcDbEntity
  8
部品1
100
AcDbLine
 10
10704.26638110948
 20
2514.448900255179
 30
0.0
 11
10730.26638110948
 21
2514.448900255179
 31
0.0
  0
LINE
  5
27FED
330
747D
100
AcDbEntity
  8
細線
100
AcDbLine
 10
10697.76638110948
 20
2732.84890025518
 30
0.0
 11
10736.76638110948
 21
2732.84890025518
 31
0.0
  0
LINE
  5
27FEE
330
747D
100
AcDbEntity
  8
細線
100
AcDbLine
 10
10697.76638110948
 20
2725.04890025518
 30
0.0
 11
10736.76638110948
 21
2725.04890025518
 31
0.0
  0
LINE
  5
27FEF
330
747D
100
AcDbEntity
  8
部品1
100
AcDbLine
 10
10697.76638110948
 20
2540.968900255182
 30
0.0
 11
10697.76638110948
 21
2533.168900255183
 31
0.0
  0
LINE
  5
27FF0
330
747D
100
AcDbEntity
  8
細線
100
AcDbLine
 10
10697.76638110948
 20
2732.84890025518
 30
0.0
 11
10697.76638110948
 21
2725.04890025518
 31
0.0
  0
LINE
  5
27FF1
330
747D
100
AcDbEntity
  8
部品1
100
AcDbLine
 10
10736.76638110948
 20
2540.968900255175
 30
0.0
 11
10736.76638110948
 21
2533.168900255176
 31
0.0
  0
LINE
  5
27FF2
330
747D
100
AcDbEntity
  8
部品1
100
AcDbLine
 10
10708.16638110948
 20
2530.377665085936
 30
0.0
 11
10726.36638110948
 21
2530.377665085936
 31
0.0
  0
LINE
  5
27FF3
330
747D
100
AcDbEntity
  8
部品1
100
AcDbLine
 10
10710.76638110948
 20
2514.448900255179
 30
0.0
 11
10710.76638110948
 21
2525.177665085936
 31
0.0
  0
LINE
  5
27FF4
330
747D
100
AcDbEntity
  8
部品1
100
AcDbLine
 10
10723.76638110948
 20
2514.448900255179
 30
0.0
 11
10723.76638110948
 21
2525.177665085936
 31
0.0
  0
LINE
  5
27FF5
330
747D
100
AcDbEntity
  8
部品1
100
AcDbLine
 10
10708.16638110948
 20
2525.177665085936
 30
0.0
 11
10708.16638110948
 21
2530.377665085936
 31
0.0
  0
LINE
  5
27FF6
330
747D
100
AcDbEntity
  8
部品1
100
AcDbLine
 10
10726.36638110948
 20
2525.177665085936
 30
0.0
 11
10726.36638110948
 21
2530.377665085936
 31
0.0
  0
LINE
  5
27FF7
330
747D
100
AcDbEntity
  8
部品1
100
AcDbLine
 10
10708.16638110948
 20
2525.177665085936
 30
0.0
 11
10726.36638110948
 21
2525.177665085936
 31
0.0
  0
LINE
  5
27FF8
330
747D
100
AcDbEntity
  8
細線
100
AcDbLine
 10
10736.76638110948
 20
2732.848900255172
 30
0.0
 11
10736.76638110948
 21
2725.048900255173
 31
0.0
  0
LINE
  5
27FF9
330
747D
100
AcDbEntity
  8
細線
 48
10.0
100
AcDbLine
 10
11923.06215139804
 20
2290.157147871592
 30
0.0
 11
12079.75390378161
 21
2446.848900255176
 31
0.0
  0
LINE
  5
27FFA
330
747D
100
AcDbEntity
  8
細線
 48
10.0
100
AcDbLine
 10
11923.06215139804
 20
2326.92670049329
 30
0.0
 11
12042.98435115992
 21
2446.848900255176
 31
0.0
  0
LINE
  5
27FFB
330
747D
100
AcDbEntity
  8
細線
 48
10.0
100
AcDbLine
 10
11923.06215139804
 20
2363.69625311498
 30
0.0
 11
12006.21479853823
 21
2446.848900255176
 31
0.0
  0
LINE
  5
27FFC
330
747D
100
AcDbEntity
  8
細線
 48
10.0
100
AcDbLine
 10
12790.07205825793
 20
2047.855243714108
 30
0.0
 11
13189.06571479899
 21
2446.84890025518
 31
0.0
  0
LINE
  5
27FFD
330
747D
100
AcDbEntity
  8
細線
 48
10.0
100
AcDbLine
 10
12753.30250563623
 20
2047.855243714108
 30
0.0
 11
13152.29616217729
 21
2446.848900255176
 31
0.0
  0
LINE
  5
27FFE
330
747D
100
AcDbEntity
  8
細線
 48
10.0
100
AcDbLine
 10
12716.53295301454
 20
2047.855243714108
 30
0.0
 11
13115.52660955559
 21
2446.848900255176
 31
0.0
  0
LINE
  5
27FFF
330
747D
100
AcDbEntity
  8
細線
 48
10.0
100
AcDbLine
 10
12161.87704750587
 20
2047.855243714108
 30
0.0
 11
12560.87070404692
 21
2446.84890025518
 31
0.0
  0
LINE
  5
28000
330
747D
100
AcDbEntity
  8
細線
 48
10.0
100
AcDbLine
 10
12198.64660012756
 20
2047.855243714108
 30
0.0
 11
12597.64025666861
 21
2446.848900255176
 31
0.0
  0
LINE
  5
28001
330
747D
100
AcDbEntity
  8
細線
 48
10.0
100
AcDbLine
 10
12235.41615274927
 20
2047.855243714108
 30
0.0
 11
12634.4098092903
 21
2446.848900255176
 31
0.0
  0
LINE
  5
28002
330
747D
100
AcDbEntity
  8
細線
100
AcDbLine
 10
12379.68983766877
 20
2446.848900255176
 30
0.0
 11
12212.69876723636
 21
2613.839970687586
 31
0.0
  0
LINE
  5
28003
330
747D
100
AcDbEntity
  8
細線
100
AcDbLine
 10
12324.53550873622
 20
2446.848900255176
 30
0.0
 11
12212.69876723636
 21
2558.685641755037
 31
0.0
  0
LINE
  5
28004
330
747D
100
AcDbEntity
  8
部品1
100
AcDbLine
 10
12693.69876723636
 20
2466.348900255176
 30
0.0
 11
12693.69876723636
 21
2514.448900255179
 31
0.0
  0
LINE
  5
28005
330
747D
100
AcDbEntity
  8
部品1
100
AcDbLine
 10
12667.69876723636
 20
2466.348900255176
 30
0.0
 11
12667.69876723636
 21
2514.448900255179
 31
0.0
  0
LINE
  5
28006
330
747D
100
AcDbEntity
  8
部品1
100
AcDbLine
 10
12589.69876723636
 20
2462.448900255179
 30
0.0
 11
12771.69876723636
 21
2462.448900255179
 31
0.0
  0
LINE
  5
28007
330
747D
100
AcDbEntity
  8
部品1
100
AcDbLine
 10
12589.69876723636
 20
2446.848900255176
 30
0.0
 11
12771.69876723636
 21
2446.848900255176
 31
0.0
  0
LINE
  5
28008
330
747D
100
AcDbEntity
  8
部品1
100
AcDbLine
 10
12691.21382916653
 20
2347.286159544703
 30
0.0
 11
12683.18241805996
 21
2400.828900255176
 31
0.0
  0
LINE
  5
28009
330
747D
100
AcDbEntity
  8
部品1
100
AcDbLine
 10
12678.21511641276
 20
2400.828900255176
 30
0.0
 11
12670.18370530619
 21
2347.286159544703
 31
0.0
  0
LINE
  5
2800A
330
747D
100
AcDbEntity
  8
部品1
100
AcDbLine
 10
12701.49876723636
 20
2348.828900255176
 30
0.0
 11
12693.69876723636
 21
2400.828900255176
 31
0.0
  0
LINE
  5
2800B
330
747D
100
AcDbEntity
  8
部品1
100
AcDbLine
 10
12667.69876723636
 20
2400.828900255176
 30
0.0
 11
12659.89876723636
 21
2348.828900255176
 31
0.0
  0
LINE
  5
2800C
330
747D
100
AcDbEntity
  8
部品1
100
AcDbLine
 10
12688.89971810082
 20
2362.713566649443
 30
0.0
 11
12699.18465617065
 21
2364.256307359919
 31
0.0
  0
LINE
  5
2800D
330
747D
100
AcDbEntity
  8
部品1
100
AcDbLine
 10
12690.05677363367
 20
2354.999863097073
 30
0.0
 11
12700.3417117035
 21
2356.542603807549
 31
0.0
  0
LINE
  5
2800E
330
747D
100
AcDbEntity
  8
部品1
100
AcDbLine
 10
12662.21287830207
 20
2364.256307359919
 30
0.0
 11
12672.4978163719
 21
2362.713566649443
 31
0.0
  0
LINE
  5
2800F
330
747D
100
AcDbEntity
  8
部品1
100
AcDbLine
 10
12661.05582276921
 20
2356.542603807549
 30
0.0
 11
12671.34076083905
 21
2354.999863097073
 31
0.0
  0
LINE
  5
28010
330
747D
100
AcDbEntity
  8
部品1
100
AcDbLine
 10
12691.21382916653
 20
2347.286159544703
 30
0.0
 11
12701.49876723636
 21
2348.828900255176
 31
0.0
  0
LINE
  5
28011
330
747D
100
AcDbEntity
  8
部品1
100
AcDbLine
 10
12659.89876723636
 20
2348.828900255176
 30
0.0
 11
12670.18370530619
 21
2347.286159544703
 31
0.0
  0
LINE
  5
28012
330
747D
100
AcDbEntity
  8
部品1
100
AcDbLine
 10
12589.69876723636
 20
2462.448900255179
 30
0.0
 11
12589.69876723636
 21
2446.848900255176
 31
0.0
  0
LINE
  5
28013
330
747D
100
AcDbEntity
  8
部品1
100
AcDbLine
 10
12661.19876723636
 20
2488.968900255179
 30
0.0
 11
12667.69876723636
 21
2488.968900255179
 31
0.0
  0
LINE
  5
28014
330
747D
100
AcDbEntity
  8
部品1
100
AcDbLine
 10
12661.19876723636
 20
2488.968900255179
 30
0.0
 11
12661.19876723636
 21
2487.148900255172
 31
0.0
  0
LINE
  5
28015
330
747D
100
AcDbEntity
  8
部品1
100
AcDbLine
 10
12700.19876723636
 20
2488.968900255175
 30
0.0
 11
12700.19876723636
 21
2487.148900255177
 31
0.0
  0
LINE
  5
28016
330
747D
100
AcDbEntity
  8
部品1
100
AcDbLine
 10
12661.19876723636
 20
2487.148900255177
 30
0.0
 11
12700.19876723636
 21
2487.148900255177
 31
0.0
  0
LINE
  5
28017
330
747D
100
AcDbEntity
  8
部品1
100
AcDbLine
 10
12684.2714959694
 20
2393.568380858931
 30
0.0
 11
12694.55643403923
 21
2395.111121569407
 31
0.0
  0
LINE
  5
28018
330
747D
100
AcDbEntity
  8
部品1
100
AcDbLine
 10
12685.42855150226
 20
2385.854677306561
 30
0.0
 11
12695.71348957209
 21
2387.397418017037
 31
0.0
  0
LINE
  5
28019
330
747D
100
AcDbEntity
  8
部品1
100
AcDbLine
 10
12686.58560703511
 20
2378.140973754193
 30
0.0
 11
12696.87054510495
 21
2379.683714464663
 31
0.0
  0
LINE
  5
2801A
330
747D
100
AcDbEntity
  8
部品1
100
AcDbLine
 10
12687.74266256796
 20
2370.427270201817
 30
0.0
 11
12698.0276006378
 21
2371.97001091229
 31
0.0
  0
LINE
  5
2801B
330
747D
100
AcDbEntity
  8
部品1
100
AcDbLine
 10
12666.84110043349
 20
2395.111121569407
 30
0.0
 11
12677.12603850331
 21
2393.568380858931
 31
0.0
  0
LINE
  5
2801C
330
747D
100
AcDbEntity
  8
部品1
100
AcDbLine
 10
12665.68404490063
 20
2387.397418017037
 30
0.0
 11
12675.96898297046
 21
2385.854677306561
 31
0.0
  0
LINE
  5
2801D
330
747D
100
AcDbEntity
  8
部品1
100
AcDbLine
 10
12664.52698936778
 20
2379.683714464663
 30
0.0
 11
12674.81192743761
 21
2378.140973754193
 31
0.0
  0
LINE
  5
2801E
330
747D
100
AcDbEntity
  8
部品1
100
AcDbLine
 10
12663.36993383492
 20
2371.97001091229
 30
0.0
 11
12673.65487190476
 21
2370.427270201817
 31
0.0
  0
LINE
  5
2801F
330
747D
100
AcDbEntity
  8
部品1
100
AcDbLine
 10
12678.21511641276
 20
2400.828900255176
 30
0.0
 11
12683.18241805996
 21
2400.828900255176
 31
0.0
  0
LINE
  5
28020
330
747D
100
AcDbEntity
  8
部品1
100
AcDbLine
 10
12693.69876723636
 20
2446.848900255176
 30
0.0
 11
12693.69876723636
 21
2400.828900255176
 31
0.0
  0
LINE
  5
28021
330
747D
100
AcDbEntity
  8
部品1
100
AcDbLine
 10
12667.69876723636
 20
2446.848900255176
 30
0.0
 11
12667.69876723636
 21
2400.828900255176
 31
0.0
  0
ARC
  5
28022
330
747D
100
AcDbEntity
  8
部品1
100
AcDbCircle
 10
12680.69876723636
 20
2455.833677068115
 30
0.0
 40
30.34129961614032
100
AcDbArc
 50
64.63020194521458
 51
115.3697980547854
  0
ARC
  5
28023
330
747D
100
AcDbEntity
  8
部品1
100
AcDbCircle
 10
12700.19876723636
 20
2477.379719027764
 30
0.0
 40
8.757698800495116
100
AcDbArc
 50
42.08048849858188
 51
137.9195115014181
  0
ARC
  5
28024
330
747D
100
AcDbEntity
  8
部品1
100
AcDbCircle
 10
12661.19876723636
 20
2477.379719027764
 30
0.0
 40
8.757698800495116
100
AcDbArc
 50
42.08048849858188
 51
137.9195115014181
  0
LINE
  5
28025
330
747D
100
AcDbEntity
  8
部品1
100
AcDbLine
 10
12654.69876723636
 20
2483.248900255178
 30
0.0
 11
12706.69876723636
 21
2483.248900255178
 31
0.0
  0
LINE
  5
28026
330
747D
100
AcDbEntity
  8
部品1
100
AcDbLine
 10
12693.69876723636
 20
2488.968900255179
 30
0.0
 11
12700.19876723636
 21
2488.968900255179
 31
0.0
  0
LINE
  5
28027
330
747D
100
AcDbEntity
  8
部品1
100
AcDbLine
 10
12661.19876723636
 20
2488.968900255179
 30
0.0
 11
12667.69876723636
 21
2488.968900255179
 31
0.0
  0
LINE
  5
28028
330
747D
100
AcDbEntity
  8
部品1
100
AcDbLine
 10
12706.69876723636
 20
2466.348900255184
 30
0.0
 11
12706.69876723636
 21
2483.248900255178
 31
0.0
  0
LINE
  5
28029
330
747D
100
AcDbEntity
  8
部品1
100
AcDbLine
 10
12654.69876723636
 20
2466.348900255176
 30
0.0
 11
12654.69876723636
 21
2483.248900255178
 31
0.0
  0
LINE
  5
2802A
330
747D
100
AcDbEntity
  8
部品1
100
AcDbLine
 10
12719.69876723636
 20
2462.448900255179
 30
0.0
 11
12719.69876723636
 21
2466.348900255187
 31
0.0
  0
LINE
  5
2802B
330
747D
100
AcDbEntity
  8
部品1
100
AcDbLine
 10
12641.69876723636
 20
2462.448900255179
 30
0.0
 11
12641.69876723636
 21
2466.348900255176
 31
0.0
  0
LINE
  5
2802C
330
747D
100
AcDbEntity
  8
部品1
100
AcDbLine
 10
12641.69876723636
 20
2466.348900255176
 30
0.0
 11
12719.69876723636
 21
2466.348900255184
 31
0.0
  0
LINE
  5
2802D
330
747D
100
AcDbEntity
  8
部品1
100
AcDbLine
 10
12700.19876723636
 20
2488.968900255175
 30
0.0
 11
12700.19876723636
 21
2487.148900255177
 31
0.0
  0
LINE
  5
2802E
330
747D
100
AcDbEntity
  8
部品1
100
AcDbLine
 10
12661.19876723636
 20
2488.968900255179
 30
0.0
 11
12661.19876723636
 21
2487.148900255177
 31
0.0
  0
LINE
  5
2802F
330
747D
100
AcDbEntity
  8
部品1
100
AcDbLine
 10
12702.79876723636
 20
2487.148900255177
 30
0.0
 11
12706.69876723636
 21
2483.248900255178
 31
0.0
  0
LINE
  5
28030
330
747D
100
AcDbEntity
  8
部品1
100
AcDbLine
 10
12658.59876723636
 20
2487.148900255177
 30
0.0
 11
12702.79876723636
 21
2487.148900255177
 31
0.0
  0
LINE
  5
28031
330
747D
100
AcDbEntity
  8
部品1
100
AcDbLine
 10
12658.59876723636
 20
2487.148900255177
 30
0.0
 11
12654.69876723636
 21
2483.248900255178
 31
0.0
  0
LINE
  5
28032
330
747D
100
AcDbEntity
  8
部品1
100
AcDbLine
 10
12693.69876723636
 20
2488.968900255179
 30
0.0
 11
12700.19876723636
 21
2488.968900255179
 31
0.0
  0
LINE
  5
28033
330
747D
100
AcDbEntity
  8
部品1
100
AcDbLine
 10
12771.69876723636
 20
2462.448900255179
 30
0.0
 11
12771.69876723636
 21
2446.848900255176
 31
0.0
  0
LINE
  5
28034
330
747D
100
AcDbEntity
  8
部品1
100
AcDbLine
 10
12661.19876723636
 20
2533.16890025518
 30
0.0
 11
12700.19876723636
 21
2533.16890025518
 31
0.0
  0
LINE
  5
28035
330
747D
100
AcDbEntity
  8
部品1
100
AcDbLine
 10
12661.19876723636
 20
2540.968900255179
 30
0.0
 11
12700.19876723636
 21
2540.968900255179
 31
0.0
  0
LINE
  5
28036
330
747D
100
AcDbEntity
  8
部品1
100
AcDbLine
 10
12661.19876723636
 20
2540.968900255179
 30
0.0
 11
12661.19876723636
 21
2533.16890025518
 31
0.0
  0
LINE
  5
28037
330
747D
100
AcDbEntity
  8
部品1
100
AcDbLine
 10
12700.19876723636
 20
2540.968900255175
 30
0.0
 11
12700.19876723636
 21
2533.168900255176
 31
0.0
  0
LINE
  5
28038
330
747D
100
AcDbEntity
  8
部品1
100
AcDbLine
 10
12689.79876723636
 20
2525.177665085936
 30
0.0
 11
12689.79876723636
 21
2530.377665085934
 31
0.0
  0
LINE
  5
28039
330
747D
100
AcDbEntity
  8
部品1
100
AcDbLine
 10
12671.59876723636
 20
2525.177665085936
 30
0.0
 11
12671.59876723636
 21
2530.377665085934
 31
0.0
  0
LINE
  5
2803A
330
747D
100
AcDbEntity
  8
部品1
100
AcDbLine
 10
12687.19876723636
 20
2514.448900255179
 30
0.0
 11
12687.19876723636
 21
2525.177665085936
 31
0.0
  0
LINE
  5
2803B
330
747D
100
AcDbEntity
  8
部品1
100
AcDbLine
 10
12674.19876723636
 20
2514.448900255179
 30
0.0
 11
12674.19876723636
 21
2525.177665085936
 31
0.0
  0
LINE
  5
2803C
330
747D
100
AcDbEntity
  8
部品1
100
AcDbLine
 10
12671.59876723636
 20
2525.177665085936
 30
0.0
 11
12689.79876723636
 21
2525.177665085936
 31
0.0
  0
LINE
  5
2803D
330
747D
100
AcDbEntity
  8
部品1
100
AcDbLine
 10
12667.69876723636
 20
2514.448900255179
 30
0.0
 11
12693.69876723636
 21
2514.448900255179
 31
0.0
  0
LINE
  5
2803E
330
747D
100
AcDbEntity
  8
部品1
100
AcDbLine
 10
12671.59876723636
 20
2530.377665085934
 30
0.0
 11
12689.79876723636
 21
2530.377665085934
 31
0.0
  0
LINE
  5
2803F
330
747D
100
AcDbEntity
  8
部品1
100
AcDbLine
 10
12700.19876723636
 20
2540.968900255175
 30
0.0
 11
12700.19876723636
 21
2533.168900255176
 31
0.0
  0
LINE
  5
28040
330
747D
100
AcDbEntity
  8
部品1
100
AcDbLine
 10
12661.19876723636
 20
2540.968900255179
 30
0.0
 11
12661.19876723636
 21
2533.16890025518
 31
0.0
  0
LINE
  5
28041
330
747D
100
AcDbEntity
  8
部品1
100
AcDbLine
 10
12661.19876723636
 20
2540.968900255179
 30
0.0
 11
12700.19876723636
 21
2540.968900255179
 31
0.0
  0
LINE
  5
28042
330
747D
100
AcDbEntity
  8
部品1
100
AcDbLine
 10
12661.19876723636
 20
2533.16890025518
 30
0.0
 11
12700.19876723636
 21
2533.16890025518
 31
0.0
  0
LINE
  5
28043
330
747D
100
AcDbEntity
  8
細線
100
AcDbLine
 10
12661.19876723636
 20
2725.048900255177
 30
0.0
 11
12700.19876723636
 21
2725.048900255177
 31
0.0
  0
LINE
  5
28044
330
747D
100
AcDbEntity
  8
細線
100
AcDbLine
 10
12661.19876723636
 20
2732.848900255176
 30
0.0
 11
12700.19876723636
 21
2732.848900255176
 31
0.0
  0
LINE
  5
28045
330
747D
100
AcDbEntity
  8
細線
100
AcDbLine
 10
12661.19876723636
 20
2732.848900255176
 30
0.0
 11
12661.19876723636
 21
2725.048900255177
 31
0.0
  0
LINE
  5
28046
330
747D
100
AcDbEntity
  8
細線
100
AcDbLine
 10
12700.19876723636
 20
2732.848900255172
 30
0.0
 11
12700.19876723636
 21
2725.048900255173
 31
0.0
  0
LINE
  5
28047
330
747D
100
AcDbEntity
  8
細線
 48
10.0
100
AcDbLine
 10
13344.7279637666
 20
2047.855243714108
 30
0.0
 11
13743.72162030767
 21
2446.848900255176
 31
0.0
  0
LINE
  5
28048
330
747D
100
AcDbEntity
  8
細線
 48
10.0
100
AcDbLine
 10
13307.9584111449
 20
2047.855243714108
 30
0.0
 11
13706.95206768595
 21
2446.848900255176
 31
0.0
  0
LINE
  5
28049
330
747D
100
AcDbEntity
  8
細線
 48
10.0
100
AcDbLine
 10
13271.1888585232
 20
2047.855243714108
 30
0.0
 11
13670.18251506426
 21
2446.848900255176
 31
0.0
  0
TEXT
  5
2804A
330
747D
100
AcDbEntity
  8
部品1
100
AcDbText
 10
13317.79007228368
 20
2457.126754437752
 30
0.0
 40
156.0
  1
▽G.L
  7
STYLE1
100
AcDbText
  0
LINE
  5
2804B
330
747D
100
AcDbEntity
  8
部品1
100
AcDbLine
 10
11923.06215139804
 20
2836.848900255178
 30
0.0
 11
12628.55434775379
 21
2836.84890025518
 31
0.0
  0
LINE
  5
2804C
330
747D
100
AcDbEntity
  8
部品1
100
AcDbLine
 10
11923.06215139804
 20
2966.84890025518
 30
0.0
 11
12589.69876723637
 21
2966.84890025518
 31
0.0
  0
LINE
  5
2804D
330
747D
100
AcDbEntity
  8
部品1
100
AcDbLine
 10
11923.06215139804
 20
2959.048900255181
 30
0.0
 11
12628.69876723637
 21
2959.048900255181
 31
0.0
  0
TEXT
  5
2804E
330
747D
100
AcDbEntity
  8
部品1
100
AcDbText
 10
10737.52243194915
 20
3792.485740715929
 30
0.0
 40
156.0
  1
地盤がコンクリートの場合
  7
STYLE2
100
AcDbText
  0
LINE
  5
2804F
330
747D
100
AcDbEntity
  8
部品1
100
AcDbLine
 10
10626.26638110949
 20
3486.848900255176
 30
0.0
 11
10626.26638110949
 21
2829.048900255182
 31
0.0
  0
LINE
  5
28050
330
747D
100
AcDbEntity
  8
部品1
100
AcDbLine
 10
10769.26638110949
 20
3486.848900255176
 30
0.0
 11
10769.26638110949
 21
2837.168009939585
 31
0.0
  0
LINE
  5
28051
330
747D
100
AcDbEntity
  8
部品1
100
AcDbLine
 10
10677.0366584338
 20
2844.648900255177
 30
0.0
 11
10757.49610378517
 21
2844.648900255176
 31
0.0
  0
ARC
  5
28052
330
747D
100
AcDbEntity
  8
部品1
100
AcDbCircle
 10
10677.0366584338
 20
2831.648900255179
 30
0.0
 40
13.0
100
AcDbArc
 50
90.0
 51
174.3157584018239
  0
ARC
  5
28053
330
747D
100
AcDbEntity
  8
細線
100
AcDbCircle
 10
10717.26638110948
 20
2816.048900255175
 30
0.0
 40
10.4
100
AcDbArc
 50
0.0
 51
180.0
  0
ARC
  5
28054
330
747D
100
AcDbEntity
  8
部品1
100
AcDbCircle
 10
10757.49610378517
 20
2831.648900255175
 30
0.0
 40
13.0
100
AcDbArc
 50
5.684241598176082
 51
90.0
  0
LINE
  5
28055
330
747D
100
AcDbEntity
  8
細線
 48
50.0
100
AcDbLine
 10
12024.19876723636
 20
3616.848900255174
 30
0.0
 11
12024.19876723636
 21
2966.84890025518
 31
0.0
  0
LINE
  5
28056
330
747D
100
AcDbEntity
  8
細線
 48
50.0
100
AcDbLine
 10
12063.19876723636
 20
3616.848900255174
 30
0.0
 11
12063.19876723636
 21
2966.84890025518
 31
0.0
  0
LINE
  5
28057
330
747D
100
AcDbEntity
  8
部品1
100
AcDbLine
 10
12589.69876723637
 20
3616.848900255174
 30
0.0
 11
12589.69876723637
 21
2959.048900255181
 31
0.0
  0
LINE
  5
28058
330
747D
100
AcDbEntity
  8
部品1
100
AcDbLine
 10
12732.69876723637
 20
3616.848900255174
 30
0.0
 11
12732.69876723637
 21
2967.168009939586
 31
0.0
  0
LINE
  5
28059
330
747D
100
AcDbEntity
  8
細線
 48
50.0
100
AcDbLine
 10
12388.19876723636
 20
3616.848900255174
 30
0.0
 11
12388.19876723636
 21
2966.84890025518
 31
0.0
  0
LINE
  5
2805A
330
747D
100
AcDbEntity
  8
細線
 48
50.0
100
AcDbLine
 10
12427.19876723636
 20
3616.848900255174
 30
0.0
 11
12427.19876723636
 21
2966.84890025518
 31
0.0
  0
LINE
  5
2805B
330
747D
100
AcDbEntity
  8
細線
100
AcDbLine
 10
12623.30611441623
 20
2791.545465454931
 30
0.0
 11
12578.00267961598
 21
2836.848900255178
 31
0.0
  0
LINE
  5
2805C
330
747D
100
AcDbEntity
  8
部品1
100
AcDbLine
 10
12641.69876723636
 20
2984.528900255174
 30
0.0
 11
12719.69876723636
 21
2984.52890025518
 31
0.0
  0
ARC
  5
2805D
330
747D
100
AcDbEntity
  8
部品1
100
AcDbCircle
 10
12641.69876723636
 20
2971.528900255174
 30
0.0
 40
13.0
100
AcDbArc
 50
90.0
 51
180.0
  0
ARC
  5
2805E
330
747D
100
AcDbEntity
  8
部品1
100
AcDbCircle
 10
12719.69876723636
 20
2971.52890025518
 30
0.0
 40
13.0
100
AcDbArc
 50
0.0
 51
90.0
  0
ARC
  5
2805F
330
747D
100
AcDbEntity
  8
部品1
100
AcDbCircle
 10
12680.69876723636
 20
2906.528900255175
 30
0.0
 40
10.4
100
AcDbArc
 50
28.00674301449114
 51
151.9932569855088
  0
CIRCLE
  5
28060
330
747D
100
AcDbEntity
  8
部品1
100
AcDbCircle
 10
12680.69876723636
 20
2892.748900255178
 30
0.0
 40
20.8
  0
CIRCLE
  5
28061
330
747D
100
AcDbEntity
  8
細線
100
AcDbCircle
 10
12680.69876723636
 20
2945.528900255175
 30
0.0
 40
10.4
  0
ARC
  5
28062
330
747D
100
AcDbEntity
  8
細線
100
AcDbCircle
 10
12680.69876723636
 20
2816.048900255173
 30
0.0
 40
10.4
100
AcDbArc
 50
0.0
 51
180.0
  0
LINE
  5
28063
330
747D
100
AcDbEntity
  8
部品1
100
AcDbLine
 10
12640.46904456067
 20
2844.648900255177
 30
0.0
 11
12720.92848991204
 21
2844.648900255172
 31
0.0
  0
ARC
  5
28064
330
747D
100
AcDbEntity
  8
部品1
100
AcDbCircle
 10
12640.46904456067
 20
2831.648900255177
 30
0.0
 40
13.0
100
AcDbArc
 50
90.0
 51
174.3157584018239
  0
ARC
  5
28065
330
747D
100
AcDbEntity
  8
部品1
100
AcDbCircle
 10
12720.92848991204
 20
2831.648900255172
 30
0.0
 40
13.0
100
AcDbArc
 50
5.684241598176082
 51
90.0
  0
ARC
  5
28066
330
747D
100
AcDbEntity
  8
部品1
100
AcDbCircle
 10
12680.69876723636
 20
2854.528900255175
 30
0.0
 40
10.4
100
AcDbArc
 50
180.0
 51
251.8051276613344
  0
ARC
  5
28067
330
747D
100
AcDbEntity
  8
部品1
100
AcDbCircle
 10
12680.69876723636
 20
2854.528900255175
 30
0.0
 40
10.4
100
AcDbArc
 50
288.1948723386656
 51
0.0
  0
LINE
  5
28068
330
747D
100
AcDbEntity
  8
部品1
100
AcDbLine
 10
12628.69876723636
 20
2971.528900255174
 30
0.0
 11
12628.69876723636
 21
2837.168009939585
 31
0.0
  0
LINE
  5
28069
330
747D
100
AcDbEntity
  8
部品1
100
AcDbLine
 10
12732.69876723636
 20
2971.52890025518
 30
0.0
 11
12732.69876723636
 21
2837.168009939593
 31
0.0
  0
LINE
  5
2806A
330
747D
100
AcDbEntity
  8
部品1
100
AcDbLine
 10
12691.09876723636
 20
2874.73557185646
 30
0.0
 11
12691.09876723636
 21
2854.528900255175
 31
0.0
  0
LINE
  5
2806B
330
747D
100
AcDbEntity
  8
部品1
100
AcDbLine
 10
12670.29876723636
 20
2874.73557185646
 30
0.0
 11
12670.29876723636
 21
2854.528900255175
 31
0.0
  0
ENDSEC
  0
SECTION
  2
OBJECTS
  0
DICTIONARY
  5
7471
330
0
100
AcDbDictionary
281
     1
  3
ACAD_COLOR
350
1BE97
  3
ACAD_GROUP
350
7472
  3
ACAD_LAYOUT
350
1BE98
  3
ACAD_MATERIAL
350
1BE96
  3
ACAD_MLINESTYLE
350
7473
  3
ACAD_PLOTSETTINGS
350
1BE99
  3
ACAD_PLOTSTYLENAME
350
1BE94
  3
AcadDim
350
2230C
  3
ACDBHEADERROUNDTRIPXREC
350
280CE
  3
ACDBVARIABLEDICTIONARY
350
141CA
  3
CONTENTDICTIONARY
350
E71C
  3
DRAWINGVARIABLESDICT
350
F3B9
  0
DICTIONARY
  5
2678E
330
7467
100
AcDbDictionary
280
     1
281
     1
  3
ACAD_LAYERSTATES
360
2678F
  0
DICTIONARY
  5
1BE97
102
{ACAD_REACTORS
330
7471
102
}
330
7471
100
AcDbDictionary
281
     1
  0
DICTIONARY
  5
7472
102
{ACAD_REACTORS
330
7471
102
}
330
7471
100
AcDbDictionary
281
     1
  0
DICTIONARY
  5
1BE98
102
{ACAD_REACTORS
330
7471
102
}
330
7471
100
AcDbDictionary
281
     1
  3
Model
350
1BE9A
  3
レイアウト1
350
1BE9B
  0
DICTIONARY
  5
1BE96
102
{ACAD_REACTORS
330
7471
102
}
330
7471
100
AcDbDictionary
281
     1
  0
DICTIONARY
  5
7473
102
{ACAD_REACTORS
330
7471
102
}
330
7471
100
AcDbDictionary
281
     1
  3
STANDARD
350
7480
  0
DICTIONARY
  5
1BE99
102
{ACAD_REACTORS
330
7471
102
}
330
7471
100
AcDbDictionary
281
     1
  0
ACDBDICTIONARYWDFLT
  5
1BE94
102
{ACAD_REACTORS
330
7471
102
}
330
7471
100
AcDbDictionary
281
     1
  3
Normal
350
1BE95
100
AcDbDictionaryWithDefault
340
1BE95
  0
XRECORD
  5
2230C
102
{ACAD_REACTORS
330
7471
102
}
330
7471
100
AcDbXrecord
280
     1
 90
   990106
  3
DOTSMALL
 60
     0
 61
     0
 62
     4
 63
     4
 64
     1
 65
     0
 66
     0
 67
     2
 68
     0
 69
     0
 70
     0
 71
     0
 72
     0
 40
0.0
170
     2
340
0
  0
DICTIONARY
  5
280CE
102
{ACAD_REACTORS
330
7471
102
}
330
7471
100
AcDbDictionary
281
     1
  3
COLORDICT
350
280D0
  3
MATERIALDICT
350
280CF
  0
DICTIONARY
  5
141CA
102
{ACAD_REACTORS
330
7471
102
}
330
7471
100
AcDbDictionary
281
     1
  3
DIMASSOC
350
280CB
  3
PROJECTNAME
350
280CC
  3
SORTENTS
350
141CB
  0
DICTIONARY
  5
E71C
102
{ACAD_REACTORS
330
7471
102
}
330
7471
100
AcDbDictionary
281
     1
  0
DICTIONARY
  5
F3B9
102
{ACAD_REACTORS
330
7471
102
}
330
7471
100
AcDbDictionary
281
     1
1001
DRAWINGVARIABLESXDATA
1000
POLARMODE
1000
1
  0
DICTIONARY
  5
2678F
102
{ACAD_REACTORS
330
2678E
102
}
330
2678E
100
AcDbDictionary
281
     1
  0
LAYOUT
  5
1BE9A
102
{ACAD_XDICTIONARY
360
280D1
102
}
102
{ACAD_REACTORS
330
1BE98
102
}
330
1BE98
100
AcDbPlotSettings
  1

  2
EPSON LP-8100
  4
A3
  6

 40
5.873749732971191
 41
5.873747825622558
 42
5.873748779296875
 43
5.873748779296875
 44
297.0106506347656
 45
419.9466552734374
 46
0.0
 47
0.0
 48
0.0
 49
0.0
140
0.0
141
0.0
142
1.0
143
50.0
 70
 11952
 72
     1
 73
     1
 74
     2
  7
inaba.ctb
 75
    25
147
0.02
148
0.0
149
0.0
100
AcDbLayout
  1
Model
 70
     1
 71
     0
 10
0.0
 20
0.0
 11
12.0
 21
9.0
 12
0.0
 22
0.0
 32
0.0
 14
0.0
 24
0.0
 34
0.0
 15
0.0
 25
0.0
 35
0.0
146
0.0
 13
0.0
 23
0.0
 33
0.0
 16
1.0
 26
0.0
 36
0.0
 17
0.0
 27
1.0
 37
0.0
 76
     0
330
747D
  0
LAYOUT
  5
1BE9B
102
{ACAD_XDICTIONARY
360
280D3
102
}
102
{ACAD_REACTORS
330
1BE98
102
}
330
1BE98
100
AcDbPlotSettings
  1

  2
EPSON LP-7000C
  4

  6

 40
0.0
 41
0.0
 42
0.0
 43
0.0
 44
0.0
 45
0.0
 46
0.0
 47
0.0
 48
0.0
 49
0.0
140
0.0
141
0.0
142
1.0
143
1.0
 70
   688
 72
     0
 73
     0
 74
     5
  7
inaba.ctb
 75
    16
147
1.0
148
0.0
149
0.0
100
AcDbLayout
  1
レイアウト1
 70
     0
 71
     1
 10
0.0
 20
0.0
 11
420.0
 21
297.0
 12
0.0
 22
0.0
 32
0.0
 14
1.000000000000000E+20
 24
1.000000000000000E+20
 34
1.000000000000000E+20
 15
-1.000000000000000E+20
 25
-1.000000000000000E+20
 35
-1.000000000000000E+20
146
0.0
 13
0.0
 23
0.0
 33
0.0
 16
1.0
 26
0.0
 36
0.0
 17
0.0
 27
1.0
 37
0.0
 76
     0
330
747A
  0
MLINESTYLE
  5
7480
102
{ACAD_REACTORS
330
7473
102
}
330
7473
100
AcDbMlineStyle
  2
STANDARD
 70
     0
  3

 62
     0
 51
90.0
 52
90.0
 71
     2
 49
0.5
 62
   256
  6
BYLAYER
 49
-0.5
 62
   256
  6
BYLAYER
  0
ACDBPLACEHOLDER
  5
1BE95
102
{ACAD_REACTORS
330
1BE94
102
}
330
1BE94
  0
XRECORD
  5
280D0
102
{ACAD_REACTORS
330
280CE
102
}
330
280CE
100
AcDbXrecord
280
     1
340
1BE97
  0
XRECORD
  5
280CF
102
{ACAD_REACTORS
330
280CE
102
}
330
280CE
100
AcDbXrecord
280
     1
340
1BE96
  0
DICTIONARYVAR
  5
280CB
102
{ACAD_REACTORS
330
141CA
102
}
330
141CA
100
DictionaryVariables
280
     0
  1
1
  0
DICTIONARYVAR
  5
280CC
102
{ACAD_REACTORS
330
141CA
102
}
330
141CA
100
DictionaryVariables
280
     0
  1

  0
DICTIONARYVAR
  5
141CB
102
{ACAD_REACTORS
330
141CA
102
}
330
141CA
100
DictionaryVariables
280
     0
  1
96
  0
DICTIONARY
  5
280D1
330
1BE9A
100
AcDbDictionary
280
     1
281
     1
  3
ACAD_XREC_ROUNDTRIP
360
280D2
  0
DICTIONARY
  5
280D3
330
1BE9B
100
AcDbDictionary
280
     1
281
     1
  3
ACAD_XREC_ROUNDTRIP
360
280D4
  0
XRECORD
  5
280D2
102
{ACAD_REACTORS
330
280D1
102
}
330
280D1
100
AcDbXrecord
280
     1
102
SHADEPLOT
 70
     0
102
SHADEPLOTRESLEVEL
 70
     2
102
SHADEPLOTCUSTOMDPI
 70
   300
  0
XRECORD
  5
280D4
102
{ACAD_REACTORS
330
280D3
102
}
330
280D3
100
AcDbXrecord
280
     1
102
SHADEPLOT
 70
     0
102
SHADEPLOTRESLEVEL
 70
     2
102
SHADEPLOTCUSTOMDPI
 70
   300
  0
ENDSEC
  0
EOF
