  0
SECTION
  2
HEADER
  9
$ACADVER
  1
AC1015
  9
$ACADMAINTVER
 70
    20
  9
$DWGCODEPAGE
  3
ANSI_932
  9
$INSBASE
 10
0.0
 20
0.0
 30
0.0
  9
$EXTMIN
 10
174.9999999999993
 20
-0.0000075012905659
 30
0.0
  9
$EXTMAX
 10
20384.0
 20
14262.0
 30
0.0
  9
$LIMMIN
 10
0.0
 20
0.0
  9
$LIMMAX
 10
21000.0
 20
14850.0
  9
$ORTHOMODE
 70
     0
  9
$REGENMODE
 70
     1
  9
$FILLMODE
 70
     1
  9
$QTEXTMODE
 70
     0
  9
$MIRRTEXT
 70
     1
  9
$LTSCALE
 40
20.0
  9
$ATTMODE
 70
     1
  9
$TEXTSIZE
 40
150.0
  9
$TRACEWID
 40
1.0
  9
$TEXTSTYLE
  7
STYLE1
  9
$CLAYER
  8
寸法
  9
$CELTYPE
  6
BYLAYER
  9
$CECOLOR
 62
   256
  9
$CELTSCALE
 40
50.0
  9
$DISPSILH
 70
     0
  9
$DIMSCALE
 40
0.0
  9
$DIMASZ
 40
125.0
  9
$DIMEXO
 40
25.0
  9
$DIMDLI
 40
7.0
  9
$DIMRND
 40
0.0
  9
$DIMDLE
 40
0.0
  9
$DIMEXE
 40
75.0
  9
$DIMTP
 40
0.0
  9
$DIMTM
 40
0.0
  9
$DIMTXT
 40
150.0
  9
$DIMCEN
 40
0.0
  9
$DIMTSZ
 40
0.0
  9
$DIMTOL
 70
     0
  9
$DIMLIM
 70
     0
  9
$DIMTIH
 70
     0
  9
$DIMTOH
 70
     0
  9
$DIMSE1
 70
     0
  9
$DIMSE2
 70
     0
  9
$DIMTAD
 70
     3
  9
$DIMZIN
 70
     8
  9
$DIMBLK
  1

  9
$DIMASO
 70
     1
  9
$DIMSHO
 70
     1
  9
$DIMPOST
  1

  9
$DIMAPOST
  1

  9
$DIMALT
 70
     0
  9
$DIMALTD
 70
     2
  9
$DIMALTF
 40
0.0394
  9
$DIMLFAC
 40
1.0
  9
$DIMTOFL
 70
     1
  9
$DIMTVP
 40
0.0
  9
$DIMTIX
 70
     1
  9
$DIMSOXD
 70
     0
  9
$DIMSAH
 70
     1
  9
$DIMBLK1
  1
DOTSMALL
  9
$DIMBLK2
  1
DOTSMALL
  9
$DIMSTYLE
  2
INABA_S50G
  9
$DIMCLRD
 70
     0
  9
$DIMCLRE
 70
     0
  9
$DIMCLRT
 70
     7
  9
$DIMTFAC
 40
1.0
  9
$DIMGAP
 40
25.0
  9
$DIMJUST
 70
     0
  9
$DIMSD1
 70
     0
  9
$DIMSD2
 70
     0
  9
$DIMTOLJ
 70
     1
  9
$DIMTZIN
 70
     0
  9
$DIMALTZ
 70
     0
  9
$DIMALTTZ
 70
     0
  9
$DIMUPT
 70
     0
  9
$DIMDEC
 70
     1
  9
$DIMTDEC
 70
     4
  9
$DIMALTU
 70
     2
  9
$DIMALTTD
 70
     2
  9
$DIMTXSTY
  7
STYLE1
  9
$DIMAUNIT
 70
     0
  9
$DIMADEC
 70
     0
  9
$DIMALTRND
 40
0.0
  9
$DIMAZIN
 70
     0
  9
$DIMDSEP
 70
    46
  9
$DIMATFIT
 70
     3
  9
$DIMFRAC
 70
     0
  9
$DIMLDRBLK
  1
DOTSMALL
  9
$DIMLUNIT
 70
     2
  9
$DIMLWD
 70
    -2
  9
$DIMLWE
 70
    -2
  9
$DIMTMOVE
 70
     0
  9
$LUNITS
 70
     2
  9
$LUPREC
 70
     1
  9
$SKETCHINC
 40
1.0
  9
$FILLETRAD
 40
5.0
  9
$AUNITS
 70
     0
  9
$AUPREC
 70
     0
  9
$MENU
  1
acad
  9
$ELEVATION
 40
0.0
  9
$PELEVATION
 40
0.0
  9
$THICKNESS
 40
0.0
  9
$LIMCHECK
 70
     0
  9
$CHAMFERA
 40
0.0
  9
$CHAMFERB
 40
0.0
  9
$CHAMFERC
 40
0.0
  9
$CHAMFERD
 40
0.0
  9
$SKPOLY
 70
     0
  9
$TDCREATE
 40
2451376.453362153
  9
$TDUCREATE
 40
2451376.078362153
  9
$TDUPDATE
 40
2455569.654847547
  9
$TDUUPDATE
 40
2455569.279847547
  9
$TDINDWG
 40
2.2921410764
  9
$TDUSRTIMER
 40
2.2921410764
  9
$USRTIMER
 70
     1
  9
$ANGBASE
 50
0.0
  9
$ANGDIR
 70
     0
  9
$PDMODE
 70
     3
  9
$PDSIZE
 40
2.0
  9
$PLINEWID
 40
0.0
  9
$SPLFRAME
 70
     0
  9
$SPLINETYPE
 70
     6
  9
$SPLINESEGS
 70
     8
  9
$HANDSEED
  5
27CF1
  9
$SURFTAB1
 70
     6
  9
$SURFTAB2
 70
     6
  9
$SURFTYPE
 70
     6
  9
$SURFU
 70
     6
  9
$SURFV
 70
     6
  9
$UCSBASE
  2

  9
$UCSNAME
  2

  9
$UCSORG
 10
0.0
 20
0.0
 30
0.0
  9
$UCSXDIR
 10
1.0
 20
0.0
 30
0.0
  9
$UCSYDIR
 10
0.0
 20
1.0
 30
0.0
  9
$UCSORTHOREF
  2

  9
$UCSORTHOVIEW
 70
     0
  9
$UCSORGTOP
 10
0.0
 20
0.0
 30
0.0
  9
$UCSORGBOTTOM
 10
0.0
 20
0.0
 30
0.0
  9
$UCSORGLEFT
 10
0.0
 20
0.0
 30
0.0
  9
$UCSORGRIGHT
 10
0.0
 20
0.0
 30
0.0
  9
$UCSORGFRONT
 10
0.0
 20
0.0
 30
0.0
  9
$UCSORGBACK
 10
0.0
 20
0.0
 30
0.0
  9
$PUCSBASE
  2

  9
$PUCSNAME
  2

  9
$PUCSORG
 10
0.0
 20
0.0
 30
0.0
  9
$PUCSXDIR
 10
1.0
 20
0.0
 30
0.0
  9
$PUCSYDIR
 10
0.0
 20
1.0
 30
0.0
  9
$PUCSORTHOREF
  2

  9
$PUCSORTHOVIEW
 70
     0
  9
$PUCSORGTOP
 10
0.0
 20
0.0
 30
0.0
  9
$PUCSORGBOTTOM
 10
0.0
 20
0.0
 30
0.0
  9
$PUCSORGLEFT
 10
0.0
 20
0.0
 30
0.0
  9
$PUCSORGRIGHT
 10
0.0
 20
0.0
 30
0.0
  9
$PUCSORGFRONT
 10
0.0
 20
0.0
 30
0.0
  9
$PUCSORGBACK
 10
0.0
 20
0.0
 30
0.0
  9
$USERI1
 70
     0
  9
$USERI2
 70
     0
  9
$USERI3
 70
     0
  9
$USERI4
 70
     0
  9
$USERI5
 70
     0
  9
$USERR1
 40
0.0
  9
$USERR2
 40
0.0
  9
$USERR3
 40
0.0
  9
$USERR4
 40
0.0
  9
$USERR5
 40
0.0
  9
$WORLDVIEW
 70
     1
  9
$SHADEDGE
 70
     3
  9
$SHADEDIF
 70
    70
  9
$TILEMODE
 70
     1
  9
$MAXACTVP
 70
    16
  9
$PINSBASE
 10
0.0
 20
0.0
 30
0.0
  9
$PLIMCHECK
 70
     0
  9
$PEXTMIN
 10
1.000000000000000E+20
 20
1.000000000000000E+20
 30
1.000000000000000E+20
  9
$PEXTMAX
 10
-1.000000000000000E+20
 20
-1.000000000000000E+20
 30
-1.000000000000000E+20
  9
$PLIMMIN
 10
0.0
 20
0.0
  9
$PLIMMAX
 10
420.0
 20
297.0
  9
$UNITMODE
 70
     0
  9
$VISRETAIN
 70
     0
  9
$PLINEGEN
 70
     0
  9
$PSLTSCALE
 70
     0
  9
$TREEDEPTH
 70
  3020
  9
$CMLSTYLE
  2
STANDARD
  9
$CMLJUST
 70
     0
  9
$CMLSCALE
 40
1.0
  9
$PROXYGRAPHICS
 70
     1
  9
$MEASUREMENT
 70
     1
  9
$CELWEIGHT
370
    -1
  9
$ENDCAPS
280
     0
  9
$JOINSTYLE
280
     0
  9
$LWDISPLAY
290
     0
  9
$INSUNITS
 70
     0
  9
$HYPERLINKBASE
  1

  9
$STYLESHEET
  1
inaba.ctb
  9
$XEDIT
290
     1
  9
$CEPSNTYPE
380
     0
  9
$PSTYLEMODE
290
     1
  9
$FINGERPRINTGUID
  2
{8A9045F4-6790-4200-B653-50126A12A1CF}
  9
$VERSIONGUID
  2
{1BD67E42-C848-46E0-9D06-ADE151907968}
  9
$EXTNAMES
290
     1
  9
$PSVPSCALE
 40
0.0
  9
$OLESTARTUP
290
     0
  0
ENDSEC
  0
SECTION
  2
CLASSES
  0
CLASS
  1
DICTIONARYVAR
  2
AcDbDictionaryVar
  3
ObjectDBX Classes
 90
        0
280
     0
281
     0
  0
CLASS
  1
ACDBDICTIONARYWDFLT
  2
AcDbDictionaryWithDefault
  3
ObjectDBX Classes
 90
        0
280
     0
281
     0
  0
CLASS
  1
ACDBPLACEHOLDER
  2
AcDbPlaceHolder
  3
ObjectDBX Classes
 90
        0
280
     0
281
     0
  0
CLASS
  1
LAYOUT
  2
AcDbLayout
  3
ObjectDBX Classes
 90
        0
280
     0
281
     0
  0
ENDSEC
  0
SECTION
  2
TABLES
  0
TABLE
  2
VPORT
  5
746D
330
0
100
AcDbSymbolTable
 70
     2
  0
VPORT
  5
27CE9
330
746D
100
AcDbSymbolTableRecord
100
AcDbViewportTableRecord
  2
*Active
 70
     0
 10
0.0
 20
0.0
 11
1.0
 21
1.0
 12
14182.70938601406
 22
7130.973292350406
 13
0.0
 23
0.0
 14
500.0
 24
500.0
 15
500.0
 25
500.0
 16
0.0
 26
0.0
 36
1.0
 17
0.0
 27
0.0
 37
0.0
 40
14398.90509974192
 41
2.234800838574423
 42
50.0
 43
0.0
 44
0.0
 50
0.0
 51
0.0
 71
     0
 72
     0
 73
     1
 74
     0
 75
     0
 76
     0
 77
     0
 78
     0
281
     0
 65
     1
110
0.0
120
0.0
130
0.0
111
1.0
121
0.0
131
0.0
112
0.0
122
1.0
132
0.0
 79
     0
146
0.0
  0
ENDTAB
  0
TABLE
  2
LTYPE
  5
746A
330
0
100
AcDbSymbolTable
 70
     4
  0
LTYPE
  5
7477
330
746A
100
AcDbSymbolTableRecord
100
AcDbLinetypeTableRecord
  2
BYBLOCK
 70
     0
  3

 72
    65
 73
     0
 40
0.0
  0
LTYPE
  5
7478
330
746A
100
AcDbSymbolTableRecord
100
AcDbLinetypeTableRecord
  2
BYLAYER
 70
     0
  3

 72
    65
 73
     0
 40
0.0
  0
LTYPE
  5
7479
330
746A
100
AcDbSymbolTableRecord
100
AcDbLinetypeTableRecord
  2
CONTINUOUS
 70
     0
  3
Solid line
 72
    65
 73
     0
 40
0.0
  0
LTYPE
  5
7816
330
746A
100
AcDbSymbolTableRecord
100
AcDbLinetypeTableRecord
  2
CENTER
 70
     0
  3
____ _ ____ _ ____ _ ____ _ ____ _ ____ _ ____ 
 72
    65
 73
     4
 40
2.0
 49
1.25
 74
     0
 49
-0.25
 74
     0
 49
0.25
 74
     0
 49
-0.25
 74
     0
  0
LTYPE
  5
781A
330
746A
100
AcDbSymbolTableRecord
100
AcDbLinetypeTableRecord
  2
HIDDEN
 70
     0
  3
__ __ __ __ __ __ __ __ __ __ __ __ __ __ __ __
 72
    65
 73
     2
 40
0.375
 49
0.25
 74
     0
 49
-0.125
 74
     0
  0
LTYPE
  5
781B
330
746A
100
AcDbSymbolTableRecord
100
AcDbLinetypeTableRecord
  2
PHANTOM
 70
     0
  3
______  __  __  ______  __  __  ______  __  __ 
 72
    65
 73
     6
 40
2.5
 49
1.25
 74
     0
 49
-0.25
 74
     0
 49
0.25
 74
     0
 49
-0.25
 74
     0
 49
0.25
 74
     0
 49
-0.25
 74
     0
  0
ENDTAB
  0
TABLE
  2
LAYER
  5
7467
102
{ACAD_XDICTIONARY
360
2678E
102
}
330
0
100
AcDbSymbolTable
 70
    12
  0
LAYER
  5
7474
330
7467
100
AcDbSymbolTableRecord
100
AcDbLayerTableRecord
  2
0
 70
     0
 62
     7
  6
CONTINUOUS
370
    -3
390
1BE95
  0
LAYER
  5
DEB2
330
7467
100
AcDbSymbolTableRecord
100
AcDbLayerTableRecord
  2
センター
 70
     0
 62
     3
  6
CENTER
370
    -3
390
1BE95
  0
LAYER
  5
DEB3
330
7467
100
AcDbSymbolTableRecord
100
AcDbLayerTableRecord
  2
寸法
 70
     0
 62
     4
  6
CONTINUOUS
370
    -3
390
1BE95
  0
LAYER
  5
DEB4
330
7467
100
AcDbSymbolTableRecord
100
AcDbLayerTableRecord
  2
部品1
 70
     0
 62
     7
  6
CONTINUOUS
370
    -3
390
1BE95
  0
LAYER
  5
DEB5
330
7467
100
AcDbSymbolTableRecord
100
AcDbLayerTableRecord
  2
補助
 70
     0
 62
    -1
  6
CONTINUOUS
370
    -3
390
1BE95
  0
LAYER
  5
DEB6
330
7467
100
AcDbSymbolTableRecord
100
AcDbLayerTableRecord
  2
文字
 70
     0
 62
     7
  6
CONTINUOUS
370
    -3
390
1BE95
  0
LAYER
  5
F255
330
7467
100
AcDbSymbolTableRecord
100
AcDbLayerTableRecord
  2
DEFPOINTS
 70
     0
 62
     7
  6
CONTINUOUS
290
     0
370
    -3
390
1BE95
  0
LAYER
  5
10B54
330
7467
100
AcDbSymbolTableRecord
100
AcDbLayerTableRecord
  2
仕様書枠
 70
     0
 62
   230
  6
CONTINUOUS
370
    -3
390
1BE95
  0
LAYER
  5
1173F
330
7467
100
AcDbSymbolTableRecord
100
AcDbLayerTableRecord
  2
細線
 70
     0
 62
     5
  6
CONTINUOUS
370
    -3
390
1BE95
  0
LAYER
  5
1180C
330
7467
100
AcDbSymbolTableRecord
100
AcDbLayerTableRecord
  2
想像線
 70
     0
 62
     6
  6
PHANTOM
370
    -3
390
1BE95
  0
LAYER
  5
1E63D
330
7467
100
AcDbSymbolTableRecord
100
AcDbLayerTableRecord
  2
点線
 70
     0
 62
     2
  6
HIDDEN
370
    -3
390
1BE95
  0
LAYER
  5
2678C
330
7467
100
AcDbSymbolTableRecord
100
AcDbLayerTableRecord
  2
Ｇ．Ｌ
 70
     0
 62
    30
  6
CONTINUOUS
370
    -3
390
1BE95
  0
ENDTAB
  0
TABLE
  2
STYLE
  5
7468
330
0
100
AcDbSymbolTable
 70
     5
  0
STYLE
  5
7475
330
7468
100
AcDbSymbolTableRecord
100
AcDbTextStyleTableRecord
  2
STANDARD
 70
     0
 40
0.0
 41
1.0
 50
0.0
 71
     0
 42
4.0
  3
txt
  4
C:\AutoCAD LT\bigfont.shx
  0
STYLE
  5
763C
330
7468
100
AcDbSymbolTableRecord
100
AcDbTextStyleTableRecord
  2
MSMINCHO
 70
     0
 40
0.0
 41
1.0
 50
0.0
 71
     0
 42
1.199999999999999
  3
MS PMincho.ttf
  4

1001
ACAD
1000
MS PMincho
1071
    32786
  0
STYLE
  5
F706
330
7468
100
AcDbSymbolTableRecord
100
AcDbTextStyleTableRecord
  2
STYLE1
 70
     0
 40
0.0
 41
1.0
 50
0.0
 71
     0
 42
150.0
  3
isocp.shx
  4
bigfont.shx
  0
STYLE
  5
103BF
330
7468
100
AcDbSymbolTableRecord
100
AcDbTextStyleTableRecord
  2
STYLE2
 70
     0
 40
0.0
 41
1.0
 50
0.0
 71
     0
 42
100.0
  3
MS PGothic.ttf
  4

1001
ACAD
1000
MS PGothic
1071
    32818
  0
STYLE
  5
2678D
330
7468
100
AcDbSymbolTableRecord
100
AcDbTextStyleTableRecord
  2
STYLE3
 70
     0
 40
0.0
 41
1.0
 50
0.0
 71
     0
 42
100.0
  3
DFPGothic-EB.ttf
  4

1001
ACAD
1000
DFPGothic-EB
1071
    32818
  0
ENDTAB
  0
TABLE
  2
VIEW
  5
746B
330
0
100
AcDbSymbolTable
 70
     0
  0
ENDTAB
  0
TABLE
  2
UCS
  5
746C
330
0
100
AcDbSymbolTable
 70
     0
  0
ENDTAB
  0
TABLE
  2
APPID
  5
746E
330
0
100
AcDbSymbolTable
 70
     6
  0
APPID
  5
7476
330
746E
100
AcDbSymbolTableRecord
100
AcDbRegAppTableRecord
  2
ACAD
 70
     0
  0
APPID
  5
DEA9
330
746E
100
AcDbSymbolTableRecord
100
AcDbRegAppTableRecord
  2
CONTENTBLOCKICON
 70
     0
  0
APPID
  5
DEAA
330
746E
100
AcDbSymbolTableRecord
100
AcDbRegAppTableRecord
  2
CONTENTBLOCKDESCRIPTION
 70
     0
  0
APPID
  5
E71D
330
746E
100
AcDbSymbolTableRecord
100
AcDbRegAppTableRecord
  2
CONTENTTABDATA
 70
     0
  0
APPID
  5
E71E
330
746E
100
AcDbSymbolTableRecord
100
AcDbRegAppTableRecord
  2
CONTENTCURRENTTAB
 70
     0
  0
APPID
  5
F3BA
330
746E
100
AcDbSymbolTableRecord
100
AcDbRegAppTableRecord
  2
DRAWINGVARIABLESXDATA
 70
     0
  0
ENDTAB
  0
TABLE
  2
DIMSTYLE
  5
746F
330
0
100
AcDbSymbolTable
 70
     4
100
AcDbDimStyleTable
 71
     3
340
F71F
340
24575
340
214DF
  0
DIMSTYLE
105
F71F
102
{ACAD_REACTORS
330
27655
330
27656
330
27657
330
27658
330
2769A
330
2769B
330
2769C
330
2769D
330
2769E
330
2769F
330
276A0
330
276A1
330
2792F
330
2795D
102
}
330
746F
100
AcDbSymbolTableRecord
100
AcDbDimStyleTableRecord
  2
INABA_S50G
 70
     0
 40
0.0
 41
125.0
 42
25.0
 43
7.0
 44
75.0
 73
     0
 74
     0
 77
     3
 78
     8
140
150.0
141
0.0
143
0.0394
147
25.0
172
     1
173
     1
174
     1
178
     7
271
     1
340
F706
341
F770
343
F770
344
F770
  0
DIMSTYLE
105
214DF
330
746F
100
AcDbSymbolTableRecord
100
AcDbDimStyleTableRecord
  2
INABA_S50G詳細用
 70
     0
 40
0.0
 41
125.0
 42
25.0
 43
7.0
 44
35.0
 73
     0
 74
     0
 77
     3
 78
     8
140
150.0
141
0.0
143
0.0394
144
0.5
147
25.0
172
     1
173
     1
178
     7
271
     1
272
     1
340
F706
341
11750
343
F770
344
F770
  0
DIMSTYLE
105
24575
330
746F
100
AcDbSymbolTableRecord
100
AcDbDimStyleTableRecord
  2
INABA_S50G詳細S20用
 70
     0
 40
0.0
 41
125.0
 42
25.0
 43
7.0
 44
35.0
 73
     0
 74
     0
 77
     3
 78
     8
140
150.0
141
0.0
143
0.0394
144
0.4
147
25.0
172
     1
173
     1
178
     7
271
     1
272
     1
340
F706
341
11750
343
F770
344
F770
  0
DIMSTYLE
105
26E97
102
{ACAD_REACTORS
330
27B55
330
27B58
330
27BB1
330
27BC4
102
}
330
746F
100
AcDbSymbolTableRecord
100
AcDbDimStyleTableRecord
  2
INABA_S40G
 70
     0
 40
40.0
 41
2.5
 42
0.5
 43
7.0
 44
1.5
 73
     0
 74
     0
 77
     3
 78
     8
140
3.0
141
0.0
143
0.0394
147
1.0
172
     1
173
     1
174
     1
178
     7
271
     1
288
     1
340
F706
341
F770
343
F770
344
F770
  0
ENDTAB
  0
TABLE
  2
BLOCK_RECORD
  5
7466
330
0
100
AcDbSymbolTable
 70
    23
  0
BLOCK_RECORD
  5
747D
330
7466
100
AcDbSymbolTableRecord
100
AcDbBlockTableRecord
  2
*MODEL_SPACE
340
1BE9A
  0
BLOCK_RECORD
  5
747A
330
7466
100
AcDbSymbolTableRecord
100
AcDbBlockTableRecord
  2
*PAPER_SPACE
340
1BE9B
  0
BLOCK_RECORD
  5
ECB3
330
7466
100
AcDbSymbolTableRecord
100
AcDbBlockTableRecord
  2
作図枠S50
340
0
310
2800000020000000200000000100040000000000000200000000000000000000000000000000000000000000000080000080000000808000800000008000800080800000C0C0C000808080000000FF0000FF000000FFFF00FF000000FF00FF00FFFF0000FFFFFF00FFFFFFFFFFFFFFFFFFFFFFFFFFFFFFFFFFFFFFFFFFFFFF
310
FFFFFFFFFFFFFFFFFFFFFFFFFFFFFFFFFFFFFFFFFFFFFFFFFFFFFFFFFFFFFFFFFFFFFFFFFFFFFFFFFFFFFFFFFFFFFFFFFFFFFFFFFFFFFFFFFFFFFFFFFFFFFFFFFFFFFFFFFFFFFFFFFF999999999999999999999999999999999FFFFFFFFFFFFFFFFFFFFFFFFFFFFFF99FFFFFFFFFFFFFFFFFFFFFFFFFFFFFF99FFFFFFFFFFF
310
FFFFFFFFFFFFFFFFFFF99FFFFFFFFFFFFFFFFFFFFFFFFFFFFFF99FFFFFFFFFFFFFFFFFFFFFFFFFFFFFF99FFFFFFFFFFFFFFFFFFFFFFFFFFFFFF99FFFFFFFFFFFFFFFFFFFFFFFFFFFFFF99FFFFFFFFFFFFFFFFFFFFFFFFFFFFFF99FFFFFFFFFFFFFFFFFFFFFFFFFFFFFF99FFFFFFFFFFFFFFFFFFFFFFFFFFFFFF99FFFFFFFFF
310
FFFFFFFFFFFFFFFFFFFFF99FFFFFFFFFFFFFFFFFFFFFFFFFFFFFF99FFFFFFFFFFFFFFFFFFFFFFFFFFFFFF99FFFFFFFFFFFFFFFFFFFFFFFFFFFFFF99FFFFFFFFFFFFFFFFFFFFFFFFFFFFFF99FFFFFFFFFFFFFFFFFFFFFFFFFFFFFF99FFFFFFFFFFFFFFFFFFFFFFFFFFFFFF99FFFFFFFFFFFFFFFFFFFFF99999999999FFFFFFF
310
FFFFFFFFFFFFFF9FFFFFFFFF99999999999999999999999FFFFFFFFFFFFFFFFFFFFFFFFFFFFFFFFFFFFFFFFFFFFFFFFFFFFFFFFFFFFFFFFFFFFFFFFFFFFFFFFFFFFFFFFFFFFFFFFFFFFFFFFFFFFFFFFFFFFFFFFFFFFFFFFFFFFFFFFFFFFFFFFFFFFFFFFFFFFFFFFFFFFFFFFF
102
{BLKREFS
331
F235
102
}
  0
BLOCK_RECORD
  5
F770
330
7466
100
AcDbSymbolTableRecord
100
AcDbBlockTableRecord
  2
_DOTSMALL
340
0
102
{BLKREFS
331
2785F
331
27860
331
2787C
331
2787D
331
278A3
331
278A4
331
278AC
331
278AD
331
278B8
331
278B9
331
278C2
331
278C3
331
278CB
331
278CC
331
278D4
331
278D5
331
278DD
331
278DE
331
278E9
331
278EA
331
278F1
331
278F2
331
27957
331
27958
331
27971
331
27972
331
27CA5
331
27CA6
331
27CAE
331
27CAF
331
27CB7
331
27CB8
331
27CC0
331
27CC1
331
27CD6
331
27CD7
102
}
  0
BLOCK_RECORD
  5
11750
330
7466
100
AcDbSymbolTableRecord
100
AcDbBlockTableRecord
  2
_NONE
340
0
  0
BLOCK_RECORD
  5
228B7
330
7466
100
AcDbSymbolTableRecord
100
AcDbBlockTableRecord
  2
_Open
340
0
  0
BLOCK_RECORD
  5
26658
330
7466
100
AcDbSymbolTableRecord
100
AcDbBlockTableRecord
  2
A$C1BA55281
340
0
  0
BLOCK_RECORD
  5
276D8
330
7466
100
AcDbSymbolTableRecord
100
AcDbBlockTableRecord
  2
*D5
340
0
  0
BLOCK_RECORD
  5
276E4
330
7466
100
AcDbSymbolTableRecord
100
AcDbBlockTableRecord
  2
*D6
340
0
  0
BLOCK_RECORD
  5
276F0
330
7466
100
AcDbSymbolTableRecord
100
AcDbBlockTableRecord
  2
*D7
340
0
  0
BLOCK_RECORD
  5
276FC
330
7466
100
AcDbSymbolTableRecord
100
AcDbBlockTableRecord
  2
*D8
340
0
  0
BLOCK_RECORD
  5
2772F
330
7466
100
AcDbSymbolTableRecord
100
AcDbBlockTableRecord
  2
*D9
340
0
  0
BLOCK_RECORD
  5
2773B
330
7466
100
AcDbSymbolTableRecord
100
AcDbBlockTableRecord
  2
*D10
340
0
  0
BLOCK_RECORD
  5
27747
330
7466
100
AcDbSymbolTableRecord
100
AcDbBlockTableRecord
  2
*D11
340
0
  0
BLOCK_RECORD
  5
27755
330
7466
100
AcDbSymbolTableRecord
100
AcDbBlockTableRecord
  2
*D12
340
0
  0
BLOCK_RECORD
  5
27761
330
7466
100
AcDbSymbolTableRecord
100
AcDbBlockTableRecord
  2
*D13
340
0
  0
BLOCK_RECORD
  5
2776F
330
7466
100
AcDbSymbolTableRecord
100
AcDbBlockTableRecord
  2
*D14
340
0
  0
BLOCK_RECORD
  5
2777D
330
7466
100
AcDbSymbolTableRecord
100
AcDbBlockTableRecord
  2
*D15
340
0
  0
BLOCK_RECORD
  5
27789
330
7466
100
AcDbSymbolTableRecord
100
AcDbBlockTableRecord
  2
*D16
340
0
  0
BLOCK_RECORD
  5
27930
330
7466
100
AcDbSymbolTableRecord
100
AcDbBlockTableRecord
  2
*D17
340
0
  0
BLOCK_RECORD
  5
2795E
330
7466
100
AcDbSymbolTableRecord
100
AcDbBlockTableRecord
  2
*D18
340
0
  0
BLOCK_RECORD
  5
27C72
330
7466
100
AcDbSymbolTableRecord
100
AcDbBlockTableRecord
  2
*D19
340
0
  0
BLOCK_RECORD
  5
27C7E
330
7466
100
AcDbSymbolTableRecord
100
AcDbBlockTableRecord
  2
*D20
340
0
  0
BLOCK_RECORD
  5
27C8A
330
7466
100
AcDbSymbolTableRecord
100
AcDbBlockTableRecord
  2
*D21
340
0
  0
BLOCK_RECORD
  5
27C96
330
7466
100
AcDbSymbolTableRecord
100
AcDbBlockTableRecord
  2
*D22
340
0
  0
ENDTAB
  0
ENDSEC
  0
SECTION
  2
BLOCKS
  0
BLOCK
  5
7489
330
747D
100
AcDbEntity
  8
0
100
AcDbBlockBegin
  2
*MODEL_SPACE
 70
     0
 10
0.0
 20
0.0
 30
0.0
  3
*MODEL_SPACE
  1

  0
ENDBLK
  5
748A
330
747D
100
AcDbEntity
  8
0
100
AcDbBlockEnd
  0
BLOCK
  5
7487
330
747A
100
AcDbEntity
 67
     1
  8
0
100
AcDbBlockBegin
  2
*PAPER_SPACE
 70
     0
 10
0.0
 20
0.0
 30
0.0
  3
*PAPER_SPACE
  1

  0
ENDBLK
  5
7488
330
747A
100
AcDbEntity
 67
     1
  8
0
100
AcDbBlockEnd
  0
BLOCK
  5
ECB4
330
ECB3
100
AcDbEntity
  8
0
100
AcDbBlockBegin
  2
作図枠S50
 70
     0
 10
0.0
 20
0.0
 30
0.0
  3
作図枠S50
  1

  4
作図領域枠 縮尺 1/50
  0
LINE
  5
ECB5
330
ECB3
100
AcDbEntity
  8
補助
100
AcDbLine
 10
14364.0
 20
14262.0
 30
0.0
 11
174.9999999999993
 21
14262.0
 31
0.0
  0
LINE
  5
ECB6
330
ECB3
100
AcDbEntity
  8
補助
100
AcDbLine
 10
174.9999999999993
 20
14262.0
 30
0.0
 11
174.9999999999993
 21
1520.0
 31
0.0
  0
LINE
  5
ECB7
330
ECB3
100
AcDbEntity
  8
補助
100
AcDbLine
 10
174.9999999999993
 20
1520.0
 30
0.0
 11
20384.0
 21
1520.0
 31
0.0
  0
LINE
  5
ECB8
330
ECB3
100
AcDbEntity
  8
補助
100
AcDbLine
 10
20384.0
 20
1520.0
 30
0.0
 11
20384.0
 21
13042.0
 31
0.0
  0
LINE
  5
ECB9
330
ECB3
100
AcDbEntity
  8
補助
100
AcDbLine
 10
20384.0
 20
13042.0
 30
0.0
 11
14364.0
 21
13042.0
 31
0.0
  0
LINE
  5
ECBA
330
ECB3
100
AcDbEntity
  8
補助
100
AcDbLine
 10
14364.0
 20
13042.0
 30
0.0
 11
14364.0
 21
14262.0
 31
0.0
  0
ENDBLK
  5
ECBB
330
ECB3
100
AcDbEntity
  8
0
100
AcDbBlockEnd
  0
BLOCK
  5
F771
330
F770
100
AcDbEntity
  8
0
 48
50.0
100
AcDbBlockBegin
  2
_DOTSMALL
 70
     0
 10
0.0
 20
0.0
 30
0.0
  3
_DOTSMALL
  1

  0
LWPOLYLINE
  5
F772
330
F770
100
AcDbEntity
  8
0
  6
ByBlock
 62
     0
 48
50.0
100
AcDbPolyline
 90
        2
 70
     1
 43
0.5
 10
-0.0625
 20
0.0
 42
1.0
 10
0.0625
 20
0.0
 42
1.0
  0
ENDBLK
  5
F776
330
F770
100
AcDbEntity
  8
0
 48
50.0
100
AcDbBlockEnd
  0
BLOCK
  5
11752
330
11750
100
AcDbEntity
  8
0
 48
50.0
100
AcDbBlockBegin
  2
_NONE
 70
     0
 10
0.0
 20
0.0
 30
0.0
  3
_NONE
  1

  0
CIRCLE
  5
11751
330
11750
100
AcDbEntity
  8
0
  6
ByBlock
 62
     0
 48
50.0
100
AcDbCircle
 10
0.0
 20
0.0
 30
0.0
 40
0.25
  0
ENDBLK
  5
11753
330
11750
100
AcDbEntity
  8
0
 48
50.0
100
AcDbBlockEnd
  0
BLOCK
  5
228BB
330
228B7
100
AcDbEntity
  8
0
 48
50.0
100
AcDbBlockBegin
  2
_Open
 70
     0
 10
0.0
 20
0.0
 30
0.0
  3
_Open
  1

  0
LINE
  5
228B8
330
228B7
100
AcDbEntity
  8
0
  6
ByBlock
 62
     0
370
    -2
100
AcDbLine
 10
-1.0
 20
0.1666666666666666
 30
0.0
 11
0.0
 21
0.0
 31
0.0
  0
LINE
  5
228B9
330
228B7
100
AcDbEntity
  8
0
  6
ByBlock
 62
     0
370
    -2
100
AcDbLine
 10
-1.0
 20
-0.1666666666666666
 30
0.0
 11
0.0
 21
0.0
 31
0.0
  0
LINE
  5
228BA
330
228B7
100
AcDbEntity
  8
0
  6
ByBlock
 62
     0
370
    -2
100
AcDbLine
 10
0.0
 20
0.0
 30
0.0
 11
-1.0
 21
0.0
 31
0.0
  0
ENDBLK
  5
228BC
330
228B7
100
AcDbEntity
  8
0
 48
50.0
100
AcDbBlockEnd
  0
BLOCK
  5
26659
330
26658
100
AcDbEntity
  8
0
 48
50.0
100
AcDbBlockBegin
  2
A$C1BA55281
 70
     0
 10
0.0
 20
0.0
 30
0.0
  3
A$C1BA55281
  1

  0
LINE
  5
2665A
330
26658
100
AcDbEntity
  8
細線
100
AcDbLine
 10
646.0422180577734
 20
299.9999987719807
 30
0.0
 11
446.0422180577752
 21
499.9999987719802
 31
0.0
  0
LINE
  5
2665B
330
26658
100
AcDbEntity
  8
Ｇ．Ｌ
100
AcDbLine
 10
0.0000102186186268
 20
299.9999987719807
 30
0.0
 11
1368.538394350012
 21
299.9999987719807
 31
0.0
  0
LINE
  5
2665C
330
26658
100
AcDbEntity
  8
部品1
100
AcDbLine
 10
300.0000102186186
 20
499.9999987719802
 30
0.0
 11
700.0000102186167
 21
499.9999987719802
 31
0.0
  0
LINE
  5
2665D
330
26658
100
AcDbEntity
  8
部品1
100
AcDbLine
 10
200.0000102186168
 20
199.9999987719775
 30
0.0
 11
800.0000102186177
 21
199.9999987719802
 31
0.0
  0
LINE
  5
2665E
330
26658
100
AcDbEntity
  8
部品1
100
AcDbLine
 10
200.0000102186168
 20
-0.0000012280233932
 30
0.0
 11
800.0000102186177
 21
-0.0000012280206647
 31
0.0
  0
LINE
  5
2665F
330
26658
100
AcDbEntity
  8
細線
100
AcDbLine
 10
270.6127686791824
 20
199.9999987719777
 30
0.0
 11
370.6127686791824
 21
299.9999987719805
 31
0.0
  0
LINE
  5
26660
330
26658
100
AcDbEntity
  8
細線
100
AcDbLine
 10
327.1813111741085
 20
199.9999987719782
 30
0.0
 11
427.1813111741058
 21
299.9999987719807
 31
0.0
  0
LINE
  5
26661
330
26658
100
AcDbEntity
  8
細線
100
AcDbLine
 10
298.8970399266473
 20
199.9999987719802
 30
0.0
 11
398.8970399266436
 21
299.9999987719807
 31
0.0
  0
LINE
  5
26662
330
26658
100
AcDbEntity
  8
部品1
100
AcDbLine
 10
200.0000102186168
 20
-0.0000012280233932
 30
0.0
 11
200.0000102186168
 21
299.9999987719807
 31
0.0
  0
LINE
  5
26663
330
26658
100
AcDbEntity
  8
細線
100
AcDbLine
 10
200.0000102186168
 20
199.9999987719775
 30
0.0
 11
253.5898487048417
 21
-0.0000012280261217
 31
0.0
  0
LINE
  5
26664
330
26658
100
AcDbEntity
  8
細線
100
AcDbLine
 10
240.1923890832841
 20
49.99999877197751
 30
0.0
 11
226.7949294617283
 21
-0.0000012280233932
 31
0.0
  0
LINE
  5
26665
330
26658
100
AcDbEntity
  8
細線
100
AcDbLine
 10
226.7949294617283
 20
199.9999987719775
 30
0.0
 11
213.3974698401744
 21
149.9999987719766
 31
0.0
  0
LINE
  5
26666
330
26658
100
AcDbEntity
  8
細線
100
AcDbLine
 10
300.0000102186186
 20
199.9999987719775
 30
0.0
 11
353.5898487048398
 21
-0.0000012280261217
 31
0.0
  0
LINE
  5
26667
330
26658
100
AcDbEntity
  8
細線
100
AcDbLine
 10
400.0000102186167
 20
199.9999987719802
 30
0.0
 11
453.5898487048398
 21
-0.0000012280233932
 31
0.0
  0
LINE
  5
26668
330
26658
100
AcDbEntity
  8
細線
100
AcDbLine
 10
340.1923890832859
 20
49.99999877197751
 30
0.0
 11
326.7949294617283
 21
-0.0000012280233932
 31
0.0
  0
LINE
  5
26669
330
26658
100
AcDbEntity
  8
細線
100
AcDbLine
 10
440.192389083284
 20
49.99999877198025
 30
0.0
 11
426.7949294617301
 21
-0.0000012280206647
 31
0.0
  0
LINE
  5
2666A
330
26658
100
AcDbEntity
  8
細線
100
AcDbLine
 10
326.7949294617283
 20
199.9999987719775
 30
0.0
 11
313.3974698401726
 21
149.9999987719766
 31
0.0
  0
LINE
  5
2666B
330
26658
100
AcDbEntity
  8
細線
100
AcDbLine
 10
426.7949294617301
 20
199.9999987719802
 30
0.0
 11
413.3974698401726
 21
149.9999987719807
 31
0.0
  0
LINE
  5
2666C
330
26658
100
AcDbEntity
  8
細線
100
AcDbLine
 10
419.7680480780782
 20
299.9999987719807
 30
0.0
 11
300.0000102186186
 21
419.7680366314409
 31
0.0
  0
LINE
  5
2666D
330
26658
100
AcDbEntity
  8
部品1
100
AcDbLine
 10
300.0000102186186
 20
299.9999987719807
 30
0.0
 11
300.0000102186186
 21
499.9999987719802
 31
0.0
  0
LINE
  5
2666E
330
26658
100
AcDbEntity
  8
細線
100
AcDbLine
 10
462.1944549492709
 20
299.9999987719807
 30
0.0
 11
300.0000102186177
 21
462.194443502633
 31
0.0
  0
MTEXT
  5
2666F
102
{ACAD_REACTORS
330
26670
102
}
330
26658
100
AcDbEntity
  8
寸法
 62
     7
 48
50.0
100
AcDbMText
 10
728.9227685106716
 20
821.432899623403
 30
0.0
 40
150.0
 41
1.0
 71
     4
 72
     1
  1
\A1;C.B
  7
STYLE1
 73
     1
 44
1.0
1001
ACAD
1000
MTEXTBEGIN
1070
    73
1070
     1
1070
    44
1040
1.0
1070
    74
1070
     0
1000
MTEXTEND
  0
LEADER
  5
26670
330
26658
100
AcDbEntity
  8
寸法
 48
50.0
100
AcDbLeader
  3
INABA_S50G
 73
     0
 74
     0
 75
     1
 40
150.0
 41
231.9898538650463
 76
     3
 10
500.0000102186176
 20
499.9999987719802
 30
0.0
 10
578.9227685106716
 20
721.432899623403
 30
0.0
 10
703.9227685106716
 20
721.432899623403
 30
0.0
340
2666F
1001
ACAD
1000
DSTYLE
1002
{
1070
    40
1040
1.0
1002
}
  0
LINE
  5
26671
330
26658
100
AcDbEntity
  8
文字
 48
50.0
100
AcDbLine
 10
1023.74179387398
 20
428.9872899549959
 30
0.0
 11
875.8807454884063
 21
428.9872899549959
 31
0.0
  0
LINE
  5
26672
330
26658
100
AcDbEntity
  8
文字
 48
50.0
100
AcDbLine
 10
875.8807454884063
 20
428.9872899549959
 30
0.0
 11
949.8112696811931
 21
300.9358658228894
 31
0.0
  0
LINE
  5
26673
330
26658
100
AcDbEntity
  8
細線
100
AcDbLine
 10
570.6127686791842
 20
199.9999987719791
 30
0.0
 11
670.6127686791814
 21
299.9999987719807
 31
0.0
  0
LINE
  5
26674
330
26658
100
AcDbEntity
  8
細線
100
AcDbLine
 10
627.1813111741066
 20
199.9999987719795
 30
0.0
 11
727.1813111741048
 21
299.9999987719807
 31
0.0
  0
LINE
  5
26675
330
26658
100
AcDbEntity
  8
細線
100
AcDbLine
 10
598.8970399266472
 20
199.9999987719802
 30
0.0
 11
698.8970399266436
 21
299.9999987719807
 31
0.0
  0
LINE
  5
26676
330
26658
100
AcDbEntity
  8
部品1
100
AcDbLine
 10
800.0000102186177
 20
299.9999987719807
 30
0.0
 11
800.0000102186177
 21
-0.0000012280206647
 31
0.0
  0
LINE
  5
26677
330
26658
100
AcDbEntity
  8
細線
100
AcDbLine
 10
500.0000102186167
 20
199.9999987719802
 30
0.0
 11
553.5898487048416
 21
-0.0000012280233932
 31
0.0
  0
LINE
  5
26678
330
26658
100
AcDbEntity
  8
細線
100
AcDbLine
 10
600.0000102186186
 20
199.9999987719802
 30
0.0
 11
653.5898487048398
 21
-0.0000012280233932
 31
0.0
  0
LINE
  5
26679
330
26658
100
AcDbEntity
  8
細線
100
AcDbLine
 10
540.192389083284
 20
49.99999877198025
 30
0.0
 11
526.7949294617283
 21
-0.0000012280206647
 31
0.0
  0
LINE
  5
2667A
330
26658
100
AcDbEntity
  8
細線
100
AcDbLine
 10
640.1923890832859
 20
49.99999877198025
 30
0.0
 11
626.7949294617283
 21
-0.0000012280206647
 31
0.0
  0
LINE
  5
2667B
330
26658
100
AcDbEntity
  8
細線
100
AcDbLine
 10
526.7949294617283
 20
199.9999987719802
 30
0.0
 11
513.3974698401743
 21
149.9999987719807
 31
0.0
  0
LINE
  5
2667C
330
26658
100
AcDbEntity
  8
細線
100
AcDbLine
 10
626.7949294617283
 20
199.9999987719802
 30
0.0
 11
613.3974698401726
 21
149.9999987719807
 31
0.0
  0
LINE
  5
2667D
330
26658
100
AcDbEntity
  8
細線
100
AcDbLine
 10
700.0000102186167
 20
199.9999987719802
 30
0.0
 11
753.5898487048398
 21
-0.0000012280206647
 31
0.0
  0
LINE
  5
2667E
330
26658
100
AcDbEntity
  8
細線
100
AcDbLine
 10
740.192389083284
 20
49.99999877198025
 30
0.0
 11
726.7949294617301
 21
-0.0000012280206647
 31
0.0
  0
LINE
  5
2667F
330
26658
100
AcDbEntity
  8
細線
100
AcDbLine
 10
726.7949294617301
 20
199.9999987719802
 30
0.0
 11
713.3974698401726
 21
149.9999987719807
 31
0.0
  0
LINE
  5
26680
330
26658
100
AcDbEntity
  8
細線
100
AcDbLine
 10
688.468624928967
 20
299.9999987719809
 30
0.0
 11
488.4686249289679
 21
499.9999987719802
 31
0.0
  0
LINE
  5
26681
330
26658
100
AcDbEntity
  8
部品1
100
AcDbLine
 10
700.0000102186167
 20
499.9999987719802
 30
0.0
 11
700.0000102186167
 21
299.9999987719807
 31
0.0
  0
TEXT
  5
26682
330
26658
100
AcDbEntity
  8
部品1
100
AcDbText
 10
1044.344543432127
 20
322.7965089842533
 30
0.0
 40
150.0
  1
G.L
  7
STYLE1
100
AcDbText
  0
LINE
  5
26683
330
26658
100
AcDbEntity
  8
文字
 48
50.0
100
AcDbLine
 10
949.8112696811922
 20
300.9358658228889
 30
0.0
 11
1023.74179387398
 21
428.9872899549959
 31
0.0
  0
ENDBLK
  5
26684
330
26658
100
AcDbEntity
  8
0
 48
50.0
100
AcDbBlockEnd
  0
BLOCK
  5
276E2
330
276D8
100
AcDbEntity
  8
0
 48
50.0
100
AcDbBlockBegin
  2
*D5
 70
     1
 10
0.0
 20
0.0
 30
0.0
  3
*D5
  1

  0
LINE
  5
27879
330
276D8
100
AcDbEntity
  8
寸法
 62
     0
 48
50.0
370
    -2
100
AcDbLine
 10
10494.84202293515
 20
7866.293497389715
 30
0.0
 11
10740.59704722048
 21
7866.293497389715
 31
0.0
  0
LINE
  5
2787A
330
276D8
100
AcDbEntity
  8
寸法
 62
     0
 48
50.0
370
    -2
100
AcDbLine
 10
10494.84202293515
 20
7135.293497389731
 30
0.0
 11
10740.59704722048
 21
7135.293497389731
 31
0.0
  0
LINE
  5
2787B
330
276D8
100
AcDbEntity
  8
寸法
 62
     0
 48
50.0
370
    -2
100
AcDbLine
 10
10665.59704722048
 20
7866.293497389715
 30
0.0
 11
10665.59704722048
 21
7135.293497389731
 31
0.0
  0
INSERT
  5
2787C
330
276D8
100
AcDbEntity
  8
寸法
 62
     0
 48
50.0
370
    -2
100
AcDbBlockReference
  2
_DOTSMALL
 10
10665.59704722048
 20
7866.293497389715
 30
0.0
 41
125.0
 42
125.0
 43
125.0
 50
90.0
  0
INSERT
  5
2787D
330
276D8
100
AcDbEntity
  8
寸法
 62
     0
 48
50.0
370
    -2
100
AcDbBlockReference
  2
_DOTSMALL
 10
10665.59704722048
 20
7135.293497389731
 30
0.0
 41
125.0
 42
125.0
 43
125.0
 50
270.0
  0
MTEXT
  5
2787E
330
276D8
100
AcDbEntity
  8
寸法
 62
     7
 48
50.0
100
AcDbMText
 10
10565.59704722048
 20
7500.793497389725
 30
0.0
 40
150.0
 41
0.0
 71
     5
 72
     1
  1
\A1;731
  7
STYLE1
 11
0.0000000000000001
 21
1.0
 31
0.0
 73
     1
 44
1.0
1001
ACAD
1000
MTEXTBEGIN
1070
    73
1070
     1
1070
    44
1040
1.0
1070
    74
1070
     0
1000
MTEXTEND
  0
POINT
  5
2787F
330
276D8
100
AcDbEntity
  8
DEFPOINTS
 62
     0
 48
50.0
100
AcDbPoint
 10
10469.84202293515
 20
7866.293497389715
 30
0.0
  0
POINT
  5
27880
330
276D8
100
AcDbEntity
  8
DEFPOINTS
 62
     0
 48
50.0
100
AcDbPoint
 10
10469.84202293515
 20
7135.293497389731
 30
0.0
  0
POINT
  5
27881
330
276D8
100
AcDbEntity
  8
DEFPOINTS
 62
     0
 48
50.0
100
AcDbPoint
 10
10665.59704722048
 20
7135.293497389731
 30
0.0
  0
ENDBLK
  5
276E3
330
276D8
100
AcDbEntity
  8
0
 48
50.0
100
AcDbBlockEnd
  0
BLOCK
  5
276EE
330
276E4
100
AcDbEntity
  8
0
 48
50.0
100
AcDbBlockBegin
  2
*D6
 70
     1
 10
0.0
 20
0.0
 30
0.0
  3
*D6
  1

  0
LINE
  5
278D1
330
276E4
100
AcDbEntity
  8
寸法
 62
     0
 48
50.0
370
    -2
100
AcDbLine
 10
10494.84202293515
 20
8666.293497389714
 30
0.0
 11
10740.59704722048
 21
8666.293497389714
 31
0.0
  0
LINE
  5
278D2
330
276E4
100
AcDbEntity
  8
寸法
 62
     0
 48
50.0
370
    -2
100
AcDbLine
 10
10494.84202293515
 20
7866.293497389715
 30
0.0
 11
10740.59704722048
 21
7866.293497389715
 31
0.0
  0
LINE
  5
278D3
330
276E4
100
AcDbEntity
  8
寸法
 62
     0
 48
50.0
370
    -2
100
AcDbLine
 10
10665.59704722048
 20
8666.293497389714
 30
0.0
 11
10665.59704722048
 21
7866.293497389715
 31
0.0
  0
INSERT
  5
278D4
330
276E4
100
AcDbEntity
  8
寸法
 62
     0
 48
50.0
370
    -2
100
AcDbBlockReference
  2
_DOTSMALL
 10
10665.59704722048
 20
8666.293497389714
 30
0.0
 41
125.0
 42
125.0
 43
125.0
 50
90.0
  0
INSERT
  5
278D5
330
276E4
100
AcDbEntity
  8
寸法
 62
     0
 48
50.0
370
    -2
100
AcDbBlockReference
  2
_DOTSMALL
 10
10665.59704722048
 20
7866.293497389715
 30
0.0
 41
125.0
 42
125.0
 43
125.0
 50
270.0
  0
MTEXT
  5
278D6
330
276E4
100
AcDbEntity
  8
寸法
 62
     7
 48
50.0
100
AcDbMText
 10
10565.59704722048
 20
8266.293497389717
 30
0.0
 40
150.0
 41
0.0
 71
     5
 72
     1
  1
\A1;800
  7
STYLE1
 11
0.0000000000000001
 21
1.0
 31
0.0
 73
     1
 44
1.0
1001
ACAD
1000
MTEXTBEGIN
1070
    73
1070
     1
1070
    44
1040
1.0
1070
    74
1070
     0
1000
MTEXTEND
  0
POINT
  5
278D7
330
276E4
100
AcDbEntity
  8
DEFPOINTS
 62
     0
 48
50.0
100
AcDbPoint
 10
10469.84202293515
 20
8666.293497389714
 30
0.0
  0
POINT
  5
278D8
330
276E4
100
AcDbEntity
  8
DEFPOINTS
 62
     0
 48
50.0
100
AcDbPoint
 10
10469.84202293515
 20
7866.293497389715
 30
0.0
  0
POINT
  5
278D9
330
276E4
100
AcDbEntity
  8
DEFPOINTS
 62
     0
 48
50.0
100
AcDbPoint
 10
10665.59704722048
 20
7866.293497389715
 30
0.0
  0
ENDBLK
  5
276EF
330
276E4
100
AcDbEntity
  8
0
 48
50.0
100
AcDbBlockEnd
  0
BLOCK
  5
276FA
330
276F0
100
AcDbEntity
  8
0
 48
50.0
100
AcDbBlockBegin
  2
*D7
 70
     1
 10
0.0
 20
0.0
 30
0.0
  3
*D7
  1

  0
LINE
  5
278DA
330
276F0
100
AcDbEntity
  8
寸法
 62
     0
 48
50.0
370
    -2
100
AcDbLine
 10
10494.84202293515
 20
9466.293497389719
 30
0.0
 11
10740.59704722048
 21
9466.293497389719
 31
0.0
  0
LINE
  5
278DB
330
276F0
100
AcDbEntity
  8
寸法
 62
     0
 48
50.0
370
    -2
100
AcDbLine
 10
10494.84202293515
 20
8666.293497389714
 30
0.0
 11
10740.59704722048
 21
8666.293497389714
 31
0.0
  0
LINE
  5
278DC
330
276F0
100
AcDbEntity
  8
寸法
 62
     0
 48
50.0
370
    -2
100
AcDbLine
 10
10665.59704722048
 20
9466.293497389719
 30
0.0
 11
10665.59704722048
 21
8666.293497389714
 31
0.0
  0
INSERT
  5
278DD
330
276F0
100
AcDbEntity
  8
寸法
 62
     0
 48
50.0
370
    -2
100
AcDbBlockReference
  2
_DOTSMALL
 10
10665.59704722048
 20
9466.293497389719
 30
0.0
 41
125.0
 42
125.0
 43
125.0
 50
90.0
  0
INSERT
  5
278DE
330
276F0
100
AcDbEntity
  8
寸法
 62
     0
 48
50.0
370
    -2
100
AcDbBlockReference
  2
_DOTSMALL
 10
10665.59704722048
 20
8666.293497389714
 30
0.0
 41
125.0
 42
125.0
 43
125.0
 50
270.0
  0
MTEXT
  5
278DF
330
276F0
100
AcDbEntity
  8
寸法
 62
     7
 48
50.0
100
AcDbMText
 10
10565.59704722048
 20
9066.293497389718
 30
0.0
 40
150.0
 41
0.0
 71
     5
 72
     1
  1
\A1;800
  7
STYLE1
 11
0.0000000000000001
 21
1.0
 31
0.0
 73
     1
 44
1.0
1001
ACAD
1000
MTEXTBEGIN
1070
    73
1070
     1
1070
    44
1040
1.0
1070
    74
1070
     0
1000
MTEXTEND
  0
POINT
  5
278E0
330
276F0
100
AcDbEntity
  8
DEFPOINTS
 62
     0
 48
50.0
100
AcDbPoint
 10
10469.84202293515
 20
9466.293497389719
 30
0.0
  0
POINT
  5
278E1
330
276F0
100
AcDbEntity
  8
DEFPOINTS
 62
     0
 48
50.0
100
AcDbPoint
 10
10469.84202293515
 20
8666.293497389714
 30
0.0
  0
POINT
  5
278E2
330
276F0
100
AcDbEntity
  8
DEFPOINTS
 62
     0
 48
50.0
100
AcDbPoint
 10
10665.59704722048
 20
8666.293497389714
 30
0.0
  0
ENDBLK
  5
276FB
330
276F0
100
AcDbEntity
  8
0
 48
50.0
100
AcDbBlockEnd
  0
BLOCK
  5
27706
330
276FC
100
AcDbEntity
  8
0
 48
50.0
100
AcDbBlockBegin
  2
*D8
 70
     1
 10
0.0
 20
0.0
 30
0.0
  3
*D8
  1

  0
LINE
  5
278C8
330
276FC
100
AcDbEntity
  8
寸法
 62
     0
 48
50.0
370
    -2
100
AcDbLine
 10
10494.84202293515
 20
10187.29349738973
 30
0.0
 11
10740.59704722048
 21
10187.29349738973
 31
0.0
  0
LINE
  5
278C9
330
276FC
100
AcDbEntity
  8
寸法
 62
     0
 48
50.0
370
    -2
100
AcDbLine
 10
10494.84202293515
 20
9466.293497389719
 30
0.0
 11
10740.59704722048
 21
9466.293497389719
 31
0.0
  0
LINE
  5
278CA
330
276FC
100
AcDbEntity
  8
寸法
 62
     0
 48
50.0
370
    -2
100
AcDbLine
 10
10665.59704722048
 20
10187.29349738973
 30
0.0
 11
10665.59704722048
 21
9466.293497389719
 31
0.0
  0
INSERT
  5
278CB
330
276FC
100
AcDbEntity
  8
寸法
 62
     0
 48
50.0
370
    -2
100
AcDbBlockReference
  2
_DOTSMALL
 10
10665.59704722048
 20
10187.29349738973
 30
0.0
 41
125.0
 42
125.0
 43
125.0
 50
90.0
  0
INSERT
  5
278CC
330
276FC
100
AcDbEntity
  8
寸法
 62
     0
 48
50.0
370
    -2
100
AcDbBlockReference
  2
_DOTSMALL
 10
10665.59704722048
 20
9466.293497389719
 30
0.0
 41
125.0
 42
125.0
 43
125.0
 50
270.0
  0
MTEXT
  5
278CD
330
276FC
100
AcDbEntity
  8
寸法
 62
     7
 48
50.0
100
AcDbMText
 10
10565.58228344095
 20
9826.793497389727
 30
0.0
 40
150.0
 41
0.0
 71
     5
 72
     1
  1
\A1;721
  7
STYLE1
 11
0.0000000000000001
 21
1.0
 31
0.0
 73
     1
 44
1.0
1001
ACAD
1000
MTEXTBEGIN
1070
    73
1070
     1
1070
    44
1040
1.0
1070
    74
1070
     0
1000
MTEXTEND
  0
POINT
  5
278CE
330
276FC
100
AcDbEntity
  8
DEFPOINTS
 62
     0
 48
50.0
100
AcDbPoint
 10
10469.84202293515
 20
10187.29349738973
 30
0.0
  0
POINT
  5
278CF
330
276FC
100
AcDbEntity
  8
DEFPOINTS
 62
     0
 48
50.0
100
AcDbPoint
 10
10469.84202293515
 20
9466.293497389719
 30
0.0
  0
POINT
  5
278D0
330
276FC
100
AcDbEntity
  8
DEFPOINTS
 62
     0
 48
50.0
100
AcDbPoint
 10
10665.59704722048
 20
9466.293497389719
 30
0.0
  0
ENDBLK
  5
27707
330
276FC
100
AcDbEntity
  8
0
 48
50.0
100
AcDbBlockEnd
  0
BLOCK
  5
27739
330
2772F
100
AcDbEntity
  8
0
 48
50.0
100
AcDbBlockBegin
  2
*D9
 70
     1
 10
0.0
 20
0.0
 30
0.0
  3
*D9
  1

  0
LINE
  5
278EE
330
2772F
100
AcDbEntity
  8
寸法
 62
     0
 48
50.0
370
    -2
100
AcDbLine
 10
10374.84202293515
 20
10212.29349738973
 30
0.0
 11
10374.84202293515
 21
10569.43854355818
 31
0.0
  0
LINE
  5
278EF
330
2772F
100
AcDbEntity
  8
寸法
 62
     0
 48
50.0
370
    -2
100
AcDbLine
 10
11270.84202293515
 20
10502.79648850989
 30
0.0
 11
11270.84202293515
 21
10419.43854355818
 31
0.0
  0
LINE
  5
278F0
330
2772F
100
AcDbEntity
  8
寸法
 62
     0
 48
50.0
370
    -2
100
AcDbLine
 10
10374.84202293515
 20
10494.43854355818
 30
0.0
 11
11270.84202293515
 21
10494.43854355818
 31
0.0
  0
INSERT
  5
278F1
330
2772F
100
AcDbEntity
  8
寸法
 62
     0
 48
50.0
370
    -2
100
AcDbBlockReference
  2
_DOTSMALL
 10
10374.84202293515
 20
10494.43854355818
 30
0.0
 41
125.0
 42
125.0
 43
125.0
 50
180.0
  0
INSERT
  5
278F2
330
2772F
100
AcDbEntity
  8
寸法
 62
     0
 48
50.0
370
    -2
100
AcDbBlockReference
  2
_DOTSMALL
 10
11270.84202293515
 20
10494.43854355818
 30
0.0
 41
125.0
 42
125.0
 43
125.0
  0
MTEXT
  5
278F3
330
2772F
100
AcDbEntity
  8
寸法
 62
     7
 48
50.0
100
AcDbMText
 10
10822.84202293515
 20
10594.43854355818
 30
0.0
 40
150.0
 41
0.0
 71
     5
 72
     1
  1
\A1;896
  7
STYLE1
 73
     1
 44
1.0
1001
ACAD
1000
MTEXTBEGIN
1070
    73
1070
     1
1070
    44
1040
1.0
1070
    74
1070
     0
1000
MTEXTEND
  0
POINT
  5
278F4
330
2772F
100
AcDbEntity
  8
DEFPOINTS
 62
     0
 48
50.0
100
AcDbPoint
 10
10374.84202293515
 20
10187.29349738973
 30
0.0
  0
POINT
  5
278F5
330
2772F
100
AcDbEntity
  8
DEFPOINTS
 62
     0
 48
50.0
100
AcDbPoint
 10
11270.84202293515
 20
10527.79648850989
 30
0.0
  0
POINT
  5
278F6
330
2772F
100
AcDbEntity
  8
DEFPOINTS
 62
     0
 48
50.0
100
AcDbPoint
 10
11270.84202293515
 20
10494.43854355818
 30
0.0
  0
ENDBLK
  5
2773A
330
2772F
100
AcDbEntity
  8
0
 48
50.0
100
AcDbBlockEnd
  0
BLOCK
  5
27745
330
2773B
100
AcDbEntity
  8
0
 48
50.0
100
AcDbBlockBegin
  2
*D10
 70
     1
 10
0.0
 20
0.0
 30
0.0
  3
*D10
  1

  0
LINE
  5
278A9
330
2773B
100
AcDbEntity
  8
寸法
 62
     0
 48
50.0
370
    -2
100
AcDbLine
 10
9478.842022935152
 20
10281.29349738973
 30
0.0
 11
9478.842022935152
 21
10569.43854355818
 31
0.0
  0
LINE
  5
278AA
330
2773B
100
AcDbEntity
  8
寸法
 62
     0
 48
50.0
370
    -2
100
AcDbLine
 10
10374.84202293515
 20
10212.29349738973
 30
0.0
 11
10374.84202293515
 21
10569.43854355818
 31
0.0
  0
LINE
  5
278AB
330
2773B
100
AcDbEntity
  8
寸法
 62
     0
 48
50.0
370
    -2
100
AcDbLine
 10
9478.842022935152
 20
10494.43854355818
 30
0.0
 11
10374.84202293515
 21
10494.43854355818
 31
0.0
  0
INSERT
  5
278AC
330
2773B
100
AcDbEntity
  8
寸法
 62
     0
 48
50.0
370
    -2
100
AcDbBlockReference
  2
_DOTSMALL
 10
9478.842022935152
 20
10494.43854355818
 30
0.0
 41
125.0
 42
125.0
 43
125.0
 50
180.0
  0
INSERT
  5
278AD
330
2773B
100
AcDbEntity
  8
寸法
 62
     0
 48
50.0
370
    -2
100
AcDbBlockReference
  2
_DOTSMALL
 10
10374.84202293515
 20
10494.43854355818
 30
0.0
 41
125.0
 42
125.0
 43
125.0
  0
MTEXT
  5
278AE
330
2773B
100
AcDbEntity
  8
寸法
 62
     7
 48
50.0
100
AcDbMText
 10
9926.842022935153
 20
10594.43854355818
 30
0.0
 40
150.0
 41
0.0
 71
     5
 72
     1
  1
\A1;896
  7
STYLE1
 73
     1
 44
1.0
1001
ACAD
1000
MTEXTBEGIN
1070
    73
1070
     1
1070
    44
1040
1.0
1070
    74
1070
     0
1000
MTEXTEND
  0
POINT
  5
278AF
330
2773B
100
AcDbEntity
  8
DEFPOINTS
 62
     0
 48
50.0
100
AcDbPoint
 10
9478.842022935152
 20
10256.29349738973
 30
0.0
  0
POINT
  5
278B0
330
2773B
100
AcDbEntity
  8
DEFPOINTS
 62
     0
 48
50.0
100
AcDbPoint
 10
10374.84202293515
 20
10187.29349738973
 30
0.0
  0
POINT
  5
278B1
330
2773B
100
AcDbEntity
  8
DEFPOINTS
 62
     0
 48
50.0
100
AcDbPoint
 10
10374.84202293515
 20
10494.43854355818
 30
0.0
  0
ENDBLK
  5
27746
330
2773B
100
AcDbEntity
  8
0
 48
50.0
100
AcDbBlockEnd
  0
BLOCK
  5
27753
330
27747
100
AcDbEntity
  8
0
 48
50.0
100
AcDbBlockBegin
  2
*D11
 70
     1
 10
0.0
 20
0.0
 30
0.0
  3
*D11
  1

  0
LINE
  5
27CD1
330
27747
100
AcDbEntity
  8
寸法
 62
     0
 48
50.0
370
    -2
100
AcDbLine
 10
9453.842022935148
 20
7135.293497389731
 30
0.0
 11
8529.306426849883
 21
7135.293497389731
 31
0.0
  0
LINE
  5
27CD2
330
27747
100
AcDbEntity
  8
寸法
 62
     0
 48
50.0
370
    -2
100
AcDbLine
 10
9404.842022935152
 20
7075.293497389733
 30
0.0
 11
8529.306426849883
 21
7075.293497389733
 31
0.0
  0
LINE
  5
27CD3
330
27747
100
AcDbEntity
  8
寸法
 62
     0
 48
50.0
370
    -2
100
AcDbLine
 10
8604.306426849884
 20
7135.293497389731
 30
0.0
 11
8604.306426849884
 21
7260.293497389731
 31
0.0
  0
LINE
  5
27CD4
330
27747
100
AcDbEntity
  8
寸法
 62
     0
 48
50.0
370
    -2
100
AcDbLine
 10
8604.306426849884
 20
7075.293497389733
 30
0.0
 11
8604.306426849884
 21
6950.293497389733
 31
0.0
  0
LINE
  5
27CD5
330
27747
100
AcDbEntity
  8
寸法
 62
     0
 48
50.0
370
    -2
100
AcDbLine
 10
8604.306426849884
 20
7135.293497389731
 30
0.0
 11
8604.306426849884
 21
7075.293497389733
 31
0.0
  0
INSERT
  5
27CD6
330
27747
100
AcDbEntity
  8
寸法
 62
     0
 48
50.0
370
    -2
100
AcDbBlockReference
  2
_DOTSMALL
 10
8604.306426849884
 20
7135.293497389731
 30
0.0
 41
125.0
 42
125.0
 43
125.0
 50
270.0
  0
INSERT
  5
27CD7
330
27747
100
AcDbEntity
  8
寸法
 62
     0
 48
50.0
370
    -2
100
AcDbBlockReference
  2
_DOTSMALL
 10
8604.306426849884
 20
7075.293497389733
 30
0.0
 41
125.0
 42
125.0
 43
125.0
 50
90.0
  0
MTEXT
  5
27CD8
330
27747
100
AcDbEntity
  8
寸法
 62
     7
 48
50.0
100
AcDbMText
 10
8504.306426849883
 20
7105.293497389732
 30
0.0
 40
150.0
 41
0.0
 71
     5
 72
     1
  1
\A1;b
  7
STYLE1
 11
0.0000000000000001
 21
1.0
 31
0.0
 73
     1
 44
1.0
1001
ACAD
1000
MTEXTBEGIN
1070
    73
1070
     1
1070
    44
1040
1.0
1070
    74
1070
     0
1000
MTEXTEND
  0
POINT
  5
27CD9
330
27747
100
AcDbEntity
  8
DEFPOINTS
 62
     0
 48
50.0
100
AcDbPoint
 10
9478.842022935149
 20
7135.293497389731
 30
0.0
  0
POINT
  5
27CDA
330
27747
100
AcDbEntity
  8
DEFPOINTS
 62
     0
 48
50.0
100
AcDbPoint
 10
9429.842022935153
 20
7075.293497389733
 30
0.0
  0
POINT
  5
27CDB
330
27747
100
AcDbEntity
  8
DEFPOINTS
 62
     0
 48
50.0
100
AcDbPoint
 10
8604.306426849884
 20
7075.293497389733
 30
0.0
  0
ENDBLK
  5
27754
330
27747
100
AcDbEntity
  8
0
 48
50.0
100
AcDbBlockEnd
  0
BLOCK
  5
2775F
330
27755
100
AcDbEntity
  8
0
 48
50.0
100
AcDbBlockBegin
  2
*D12
 70
     1
 10
0.0
 20
0.0
 30
0.0
  3
*D12
  1

  0
LINE
  5
2785C
330
27755
100
AcDbEntity
  8
寸法
 62
     0
 48
50.0
370
    -2
100
AcDbLine
 10
9453.842022935154
 20
10187.29349738973
 30
0.0
 11
8529.306426849883
 21
10187.29349738973
 31
0.0
  0
LINE
  5
2785D
330
27755
100
AcDbEntity
  8
寸法
 62
     0
 48
50.0
370
    -2
100
AcDbLine
 10
9453.842022935148
 20
7135.293497389731
 30
0.0
 11
8529.306426849883
 21
7135.293497389731
 31
0.0
  0
LINE
  5
2785E
330
27755
100
AcDbEntity
  8
寸法
 62
     0
 48
50.0
370
    -2
100
AcDbLine
 10
8604.306426849884
 20
10187.29349738973
 30
0.0
 11
8604.306426849884
 21
7135.293497389731
 31
0.0
  0
INSERT
  5
2785F
330
27755
100
AcDbEntity
  8
寸法
 62
     0
 48
50.0
370
    -2
100
AcDbBlockReference
  2
_DOTSMALL
 10
8604.306426849884
 20
10187.29349738973
 30
0.0
 41
125.0
 42
125.0
 43
125.0
 50
90.0
  0
INSERT
  5
27860
330
27755
100
AcDbEntity
  8
寸法
 62
     0
 48
50.0
370
    -2
100
AcDbBlockReference
  2
_DOTSMALL
 10
8604.306426849884
 20
7135.293497389731
 30
0.0
 41
125.0
 42
125.0
 43
125.0
 50
270.0
  0
MTEXT
  5
27861
330
27755
100
AcDbEntity
  8
寸法
 62
     7
 48
50.0
100
AcDbMText
 10
8504.291663070354
 20
8661.293497389733
 30
0.0
 40
150.0
 41
0.0
 71
     5
 72
     1
  1
\A1;3052
  7
STYLE1
 11
0.0000000000000001
 21
1.0
 31
0.0
 73
     1
 44
1.0
1001
ACAD
1000
MTEXTBEGIN
1070
    73
1070
     1
1070
    44
1040
1.0
1070
    74
1070
     0
1000
MTEXTEND
  0
POINT
  5
27862
330
27755
100
AcDbEntity
  8
DEFPOINTS
 62
     0
 48
50.0
100
AcDbPoint
 10
9478.842022935152
 20
10187.29349738973
 30
0.0
  0
POINT
  5
27863
330
27755
100
AcDbEntity
  8
DEFPOINTS
 62
     0
 48
50.0
100
AcDbPoint
 10
9478.842022935149
 20
7135.293497389731
 30
0.0
  0
POINT
  5
27864
330
27755
100
AcDbEntity
  8
DEFPOINTS
 62
     0
 48
50.0
100
AcDbPoint
 10
8604.306426849884
 20
7135.293497389731
 30
0.0
  0
ENDBLK
  5
27760
330
27755
100
AcDbEntity
  8
0
 48
50.0
100
AcDbBlockEnd
  0
BLOCK
  5
2776D
330
27761
100
AcDbEntity
  8
0
 48
50.0
100
AcDbBlockBegin
  2
*D13
 70
     1
 10
0.0
 20
0.0
 30
0.0
  3
*D13
  1

  0
LINE
  5
278BD
330
27761
100
AcDbEntity
  8
寸法
 62
     0
 48
50.0
370
    -2
100
AcDbLine
 10
9404.842022935152
 20
10267.29349738973
 30
0.0
 11
8529.306426849883
 21
10267.29349738973
 31
0.0
  0
LINE
  5
278BE
330
27761
100
AcDbEntity
  8
寸法
 62
     0
 48
50.0
370
    -2
100
AcDbLine
 10
9453.842022935154
 20
10187.29349738973
 30
0.0
 11
8529.306426849883
 21
10187.29349738973
 31
0.0
  0
LINE
  5
278BF
330
27761
100
AcDbEntity
  8
寸法
 62
     0
 48
50.0
370
    -2
100
AcDbLine
 10
8604.306426849884
 20
10267.29349738973
 30
0.0
 11
8604.306426849884
 21
10392.29349738973
 31
0.0
  0
LINE
  5
278C0
330
27761
100
AcDbEntity
  8
寸法
 62
     0
 48
50.0
370
    -2
100
AcDbLine
 10
8604.306426849884
 20
10187.29349738973
 30
0.0
 11
8604.306426849884
 21
10062.29349738973
 31
0.0
  0
LINE
  5
278C1
330
27761
100
AcDbEntity
  8
寸法
 62
     0
 48
50.0
370
    -2
100
AcDbLine
 10
8604.306426849884
 20
10267.29349738973
 30
0.0
 11
8604.306426849884
 21
10187.29349738973
 31
0.0
  0
INSERT
  5
278C2
330
27761
100
AcDbEntity
  8
寸法
 62
     0
 48
50.0
370
    -2
100
AcDbBlockReference
  2
_DOTSMALL
 10
8604.306426849884
 20
10267.29349738973
 30
0.0
 41
125.0
 42
125.0
 43
125.0
 50
270.0
  0
INSERT
  5
278C3
330
27761
100
AcDbEntity
  8
寸法
 62
     0
 48
50.0
370
    -2
100
AcDbBlockReference
  2
_DOTSMALL
 10
8604.306426849884
 20
10187.29349738973
 30
0.0
 41
125.0
 42
125.0
 43
125.0
 50
90.0
  0
MTEXT
  5
278C4
330
27761
100
AcDbEntity
  8
寸法
 62
     7
 48
50.0
100
AcDbMText
 10
8504.306426849883
 20
10227.29349738973
 30
0.0
 40
150.0
 41
0.0
 71
     5
 72
     1
  1
\A1;c
  7
STYLE1
 11
0.0000000000000001
 21
1.0
 31
0.0
 73
     1
 44
1.0
1001
ACAD
1000
MTEXTBEGIN
1070
    73
1070
     1
1070
    44
1040
1.0
1070
    74
1070
     0
1000
MTEXTEND
  0
POINT
  5
278C5
330
27761
100
AcDbEntity
  8
DEFPOINTS
 62
     0
 48
50.0
100
AcDbPoint
 10
9429.842022935153
 20
10267.29349738973
 30
0.0
  0
POINT
  5
278C6
330
27761
100
AcDbEntity
  8
DEFPOINTS
 62
     0
 48
50.0
100
AcDbPoint
 10
9478.842022935152
 20
10187.29349738973
 30
0.0
  0
POINT
  5
278C7
330
27761
100
AcDbEntity
  8
DEFPOINTS
 62
     0
 48
50.0
100
AcDbPoint
 10
8604.306426849884
 20
10187.29349738973
 30
0.0
  0
ENDBLK
  5
2776E
330
27761
100
AcDbEntity
  8
0
 48
50.0
100
AcDbBlockEnd
  0
BLOCK
  5
2777B
330
2776F
100
AcDbEntity
  8
0
 48
50.0
100
AcDbBlockBegin
  2
*D14
 70
     1
 10
0.0
 20
0.0
 30
0.0
  3
*D14
  1

  0
LINE
  5
278B2
330
2776F
100
AcDbEntity
  8
寸法
 62
     0
 48
50.0
370
    -2
100
AcDbLine
 10
9478.842022935152
 20
10212.29349738973
 30
0.0
 11
9478.842022935152
 21
10843.29947963004
 31
0.0
  0
LINE
  5
278B3
330
2776F
100
AcDbEntity
  8
寸法
 62
     0
 48
50.0
370
    -2
100
AcDbLine
 10
9429.842022935153
 20
10272.29349738973
 30
0.0
 11
9429.842022935153
 21
10843.29947963004
 31
0.0
  0
LINE
  5
278B4
330
2776F
100
AcDbEntity
  8
寸法
 62
     0
 48
50.0
370
    -2
100
AcDbLine
 10
9478.842022935152
 20
10768.29947963004
 30
0.0
 11
9603.842022935154
 21
10768.29947963004
 31
0.0
  0
LINE
  5
278B5
330
2776F
100
AcDbEntity
  8
寸法
 62
     0
 48
50.0
370
    -2
100
AcDbLine
 10
9429.842022935153
 20
10768.29947963004
 30
0.0
 11
9304.842022935153
 21
10768.29947963004
 31
0.0
  0
MTEXT
  5
278B6
330
2776F
100
AcDbEntity
  8
寸法
 62
     7
 48
50.0
100
AcDbMText
 10
9367.342022935153
 20
10868.29947963004
 30
0.0
 40
150.0
 41
0.0
 71
     5
 72
     1
  1
\A1;a
  7
STYLE1
 73
     1
 44
1.0
1001
ACAD
1000
MTEXTBEGIN
1070
    73
1070
     1
1070
    44
1040
1.0
1070
    74
1070
     0
1000
MTEXTEND
  0
LINE
  5
278B7
330
2776F
100
AcDbEntity
  8
寸法
 62
     0
 48
50.0
370
    -2
100
AcDbLine
 10
9478.842022935152
 20
10768.29947963004
 30
0.0
 11
9429.842022935153
 21
10768.29947963004
 31
0.0
  0
INSERT
  5
278B8
330
2776F
100
AcDbEntity
  8
寸法
 62
     0
 48
50.0
370
    -2
100
AcDbBlockReference
  2
_DOTSMALL
 10
9478.842022935152
 20
10768.29947963004
 30
0.0
 41
125.0
 42
125.0
 43
125.0
 50
180.0
  0
INSERT
  5
278B9
330
2776F
100
AcDbEntity
  8
寸法
 62
     0
 48
50.0
370
    -2
100
AcDbBlockReference
  2
_DOTSMALL
 10
9429.842022935153
 20
10768.29947963004
 30
0.0
 41
125.0
 42
125.0
 43
125.0
  0
POINT
  5
278BA
330
2776F
100
AcDbEntity
  8
DEFPOINTS
 62
     0
 48
50.0
100
AcDbPoint
 10
9478.842022935152
 20
10187.29349738973
 30
0.0
  0
POINT
  5
278BB
330
2776F
100
AcDbEntity
  8
DEFPOINTS
 62
     0
 48
50.0
100
AcDbPoint
 10
9429.842022935153
 20
10247.29349738973
 30
0.0
  0
POINT
  5
278BC
330
2776F
100
AcDbEntity
  8
DEFPOINTS
 62
     0
 48
50.0
100
AcDbPoint
 10
9429.842022935153
 20
10768.29947963004
 30
0.0
  0
ENDBLK
  5
2777C
330
2776F
100
AcDbEntity
  8
0
 48
50.0
100
AcDbBlockEnd
  0
BLOCK
  5
27787
330
2777D
100
AcDbEntity
  8
0
 48
50.0
100
AcDbBlockBegin
  2
*D15
 70
     1
 10
0.0
 20
0.0
 30
0.0
  3
*D15
  1

  0
LINE
  5
278A0
330
2777D
100
AcDbEntity
  8
寸法
 62
     0
 48
50.0
370
    -2
100
AcDbLine
 10
11270.84202293515
 20
10212.29349738973
 30
0.0
 11
11270.84202293515
 21
10843.29947963004
 31
0.0
  0
LINE
  5
278A1
330
2777D
100
AcDbEntity
  8
寸法
 62
     0
 48
50.0
370
    -2
100
AcDbLine
 10
9478.842022935152
 20
10212.29349738973
 30
0.0
 11
9478.842022935152
 21
10843.29947963004
 31
0.0
  0
LINE
  5
278A2
330
2777D
100
AcDbEntity
  8
寸法
 62
     0
 48
50.0
370
    -2
100
AcDbLine
 10
11270.84202293515
 20
10768.29947963004
 30
0.0
 11
9478.842022935152
 21
10768.29947963004
 31
0.0
  0
INSERT
  5
278A3
330
2777D
100
AcDbEntity
  8
寸法
 62
     0
 48
50.0
370
    -2
100
AcDbBlockReference
  2
_DOTSMALL
 10
11270.84202293515
 20
10768.29947963004
 30
0.0
 41
125.0
 42
125.0
 43
125.0
  0
INSERT
  5
278A4
330
2777D
100
AcDbEntity
  8
寸法
 62
     0
 48
50.0
370
    -2
100
AcDbBlockReference
  2
_DOTSMALL
 10
9478.842022935152
 20
10768.29947963004
 30
0.0
 41
125.0
 42
125.0
 43
125.0
 50
180.0
  0
MTEXT
  5
278A5
330
2777D
100
AcDbEntity
  8
寸法
 62
     7
 48
50.0
100
AcDbMText
 10
10374.84202293515
 20
10868.35049533605
 30
0.0
 40
150.0
 41
0.0
 71
     5
 72
     1
  1
\A1;1792
  7
STYLE1
 73
     1
 44
1.0
1001
ACAD
1000
MTEXTBEGIN
1070
    73
1070
     1
1070
    44
1040
1.0
1070
    74
1070
     0
1000
MTEXTEND
  0
POINT
  5
278A6
330
2777D
100
AcDbEntity
  8
DEFPOINTS
 62
     0
 48
50.0
100
AcDbPoint
 10
11270.84202293515
 20
10187.29349738973
 30
0.0
  0
POINT
  5
278A7
330
2777D
100
AcDbEntity
  8
DEFPOINTS
 62
     0
 48
50.0
100
AcDbPoint
 10
9478.842022935152
 20
10187.29349738973
 30
0.0
  0
POINT
  5
278A8
330
2777D
100
AcDbEntity
  8
DEFPOINTS
 62
     0
 48
50.0
100
AcDbPoint
 10
9478.842022935152
 20
10768.29947963004
 30
0.0
  0
ENDBLK
  5
27788
330
2777D
100
AcDbEntity
  8
0
 48
50.0
100
AcDbBlockEnd
  0
BLOCK
  5
27795
330
27789
100
AcDbEntity
  8
0
 48
50.0
100
AcDbBlockBegin
  2
*D16
 70
     1
 10
0.0
 20
0.0
 30
0.0
  3
*D16
  1

  0
LINE
  5
278E3
330
27789
100
AcDbEntity
  8
寸法
 62
     0
 48
50.0
370
    -2
100
AcDbLine
 10
11319.84202293515
 20
10281.29349738973
 30
0.0
 11
11319.84202293515
 21
10843.29947963004
 31
0.0
  0
LINE
  5
278E4
330
27789
100
AcDbEntity
  8
寸法
 62
     0
 48
50.0
370
    -2
100
AcDbLine
 10
11270.84202293515
 20
10212.29349738973
 30
0.0
 11
11270.84202293515
 21
10843.29947963004
 31
0.0
  0
LINE
  5
278E5
330
27789
100
AcDbEntity
  8
寸法
 62
     0
 48
50.0
370
    -2
100
AcDbLine
 10
11319.84202293515
 20
10768.29947963004
 30
0.0
 11
11444.84202293515
 21
10768.29947963004
 31
0.0
  0
LINE
  5
278E6
330
27789
100
AcDbEntity
  8
寸法
 62
     0
 48
50.0
370
    -2
100
AcDbLine
 10
11270.84202293515
 20
10768.29947963004
 30
0.0
 11
11145.84202293515
 21
10768.29947963004
 31
0.0
  0
MTEXT
  5
278E7
330
27789
100
AcDbEntity
  8
寸法
 62
     7
 48
50.0
100
AcDbMText
 10
11382.34202293515
 20
10868.29947963004
 30
0.0
 40
150.0
 41
0.0
 71
     5
 72
     1
  1
\A1;a
  7
STYLE1
 73
     1
 44
1.0
1001
ACAD
1000
MTEXTBEGIN
1070
    73
1070
     1
1070
    44
1040
1.0
1070
    74
1070
     0
1000
MTEXTEND
  0
LINE
  5
278E8
330
27789
100
AcDbEntity
  8
寸法
 62
     0
 48
50.0
370
    -2
100
AcDbLine
 10
11319.84202293515
 20
10768.29947963004
 30
0.0
 11
11270.84202293515
 21
10768.29947963004
 31
0.0
  0
INSERT
  5
278E9
330
27789
100
AcDbEntity
  8
寸法
 62
     0
 48
50.0
370
    -2
100
AcDbBlockReference
  2
_DOTSMALL
 10
11319.84202293515
 20
10768.29947963004
 30
0.0
 41
125.0
 42
125.0
 43
125.0
 50
180.0
  0
INSERT
  5
278EA
330
27789
100
AcDbEntity
  8
寸法
 62
     0
 48
50.0
370
    -2
100
AcDbBlockReference
  2
_DOTSMALL
 10
11270.84202293515
 20
10768.29947963004
 30
0.0
 41
125.0
 42
125.0
 43
125.0
  0
POINT
  5
278EB
330
27789
100
AcDbEntity
  8
DEFPOINTS
 62
     0
 48
50.0
100
AcDbPoint
 10
11319.84202293515
 20
10256.29349738973
 30
0.0
  0
POINT
  5
278EC
330
27789
100
AcDbEntity
  8
DEFPOINTS
 62
     0
 48
50.0
100
AcDbPoint
 10
11270.84202293515
 20
10187.29349738973
 30
0.0
  0
POINT
  5
278ED
330
27789
100
AcDbEntity
  8
DEFPOINTS
 62
     0
 48
50.0
100
AcDbPoint
 10
11270.84202293515
 20
10768.29947963004
 30
0.0
  0
ENDBLK
  5
27796
330
27789
100
AcDbEntity
  8
0
 48
50.0
100
AcDbBlockEnd
  0
BLOCK
  5
2793C
330
27930
100
AcDbEntity
  8
0
 48
50.0
100
AcDbBlockBegin
  2
*D17
 70
     1
 10
0.0
 20
0.0
 30
0.0
  3
*D17
  1

  0
LINE
  5
27952
330
27930
100
AcDbEntity
  8
寸法
 62
     0
 48
50.0
370
    -2
100
AcDbLine
 10
11395.84202293515
 20
7235.293497389732
 30
0.0
 11
11860.37706875195
 21
7235.293497389732
 31
0.0
  0
LINE
  5
27953
330
27930
100
AcDbEntity
  8
寸法
 62
     0
 48
50.0
370
    -2
100
AcDbLine
 10
11395.84202293515
 20
7035.293497389734
 30
0.0
 11
11860.37706875195
 21
7035.293497389734
 31
0.0
  0
LINE
  5
27954
330
27930
100
AcDbEntity
  8
寸法
 62
     0
 48
50.0
370
    -2
100
AcDbLine
 10
11785.37706875195
 20
7235.293497389732
 30
0.0
 11
11785.37706875195
 21
7360.293497389732
 31
0.0
  0
LINE
  5
27955
330
27930
100
AcDbEntity
  8
寸法
 62
     0
 48
50.0
370
    -2
100
AcDbLine
 10
11785.37706875195
 20
7035.293497389734
 30
0.0
 11
11785.37706875195
 21
6910.293497389734
 31
0.0
  0
LINE
  5
27956
330
27930
100
AcDbEntity
  8
寸法
 62
     0
 48
50.0
370
    -2
100
AcDbLine
 10
11785.37706875195
 20
7235.293497389732
 30
0.0
 11
11785.37706875195
 21
7035.293497389734
 31
0.0
  0
INSERT
  5
27957
330
27930
100
AcDbEntity
  8
寸法
 62
     0
 48
50.0
370
    -2
100
AcDbBlockReference
  2
_DOTSMALL
 10
11785.37706875195
 20
7235.293497389732
 30
0.0
 41
125.0
 42
125.0
 43
125.0
 50
270.0
  0
INSERT
  5
27958
330
27930
100
AcDbEntity
  8
寸法
 62
     0
 48
50.0
370
    -2
100
AcDbBlockReference
  2
_DOTSMALL
 10
11785.37706875195
 20
7035.293497389734
 30
0.0
 41
125.0
 42
125.0
 43
125.0
 50
90.0
  0
MTEXT
  5
27959
330
27930
100
AcDbEntity
  8
寸法
 62
     7
 48
50.0
100
AcDbMText
 10
11685.36230497242
 20
7135.293497389735
 30
0.0
 40
150.0
 41
0.0
 71
     5
 72
     1
  1
\A1;200
  7
STYLE1
 11
0.0000000000000001
 21
1.0
 31
0.0
 73
     1
 44
1.0
1001
ACAD
1000
MTEXTBEGIN
1070
    73
1070
     1
1070
    44
1040
1.0
1070
    74
1070
     0
1000
MTEXTEND
  0
POINT
  5
2795A
330
27930
100
AcDbEntity
  8
DEFPOINTS
 62
     0
 48
50.0
100
AcDbPoint
 10
11370.84202293515
 20
7235.293497389732
 30
0.0
  0
POINT
  5
2795B
330
27930
100
AcDbEntity
  8
DEFPOINTS
 62
     0
 48
50.0
100
AcDbPoint
 10
11370.84202293515
 20
7035.293497389734
 30
0.0
  0
POINT
  5
2795C
330
27930
100
AcDbEntity
  8
DEFPOINTS
 62
     0
 48
50.0
100
AcDbPoint
 10
11785.37706875195
 20
7035.293497389734
 30
0.0
  0
ENDBLK
  5
2793D
330
27930
100
AcDbEntity
  8
0
 48
50.0
100
AcDbBlockEnd
  0
BLOCK
  5
2796A
330
2795E
100
AcDbEntity
  8
0
 48
50.0
100
AcDbBlockBegin
  2
*D18
 70
     1
 10
0.0
 20
0.0
 30
0.0
  3
*D18
  1

  0
LINE
  5
2796C
330
2795E
100
AcDbEntity
  8
寸法
 62
     0
 48
50.0
370
    -2
100
AcDbLine
 10
11170.84202293515
 20
7010.293497389733
 30
0.0
 11
11170.84202293515
 21
6421.301748615551
 31
0.0
  0
LINE
  5
2796D
330
2795E
100
AcDbEntity
  8
寸法
 62
     0
 48
50.0
370
    -2
100
AcDbLine
 10
11370.84202293515
 20
7010.293497389733
 30
0.0
 11
11370.84202293515
 21
6421.301748615551
 31
0.0
  0
LINE
  5
2796E
330
2795E
100
AcDbEntity
  8
寸法
 62
     0
 48
50.0
370
    -2
100
AcDbLine
 10
11170.84202293515
 20
6496.30174861555
 30
0.0
 11
11045.84202293515
 21
6496.30174861555
 31
0.0
  0
LINE
  5
2796F
330
2795E
100
AcDbEntity
  8
寸法
 62
     0
 48
50.0
370
    -2
100
AcDbLine
 10
11370.84202293515
 20
6496.30174861555
 30
0.0
 11
11495.84202293515
 21
6496.30174861555
 31
0.0
  0
LINE
  5
27970
330
2795E
100
AcDbEntity
  8
寸法
 62
     0
 48
50.0
370
    -2
100
AcDbLine
 10
11170.84202293515
 20
6496.30174861555
 30
0.0
 11
11370.84202293515
 21
6496.30174861555
 31
0.0
  0
INSERT
  5
27971
330
2795E
100
AcDbEntity
  8
寸法
 62
     0
 48
50.0
370
    -2
100
AcDbBlockReference
  2
_DOTSMALL
 10
11170.84202293515
 20
6496.30174861555
 30
0.0
 41
125.0
 42
125.0
 43
125.0
  0
INSERT
  5
27972
330
2795E
100
AcDbEntity
  8
寸法
 62
     0
 48
50.0
370
    -2
100
AcDbBlockReference
  2
_DOTSMALL
 10
11370.84202293515
 20
6496.30174861555
 30
0.0
 41
125.0
 42
125.0
 43
125.0
 50
180.0
  0
MTEXT
  5
27973
330
2795E
100
AcDbEntity
  8
寸法
 62
     7
 48
50.0
100
AcDbMText
 10
11270.84202293515
 20
6596.316512395079
 30
0.0
 40
150.0
 41
0.0
 71
     5
 72
     1
  1
\A1;200
  7
STYLE1
 73
     1
 44
1.0
1001
ACAD
1000
MTEXTBEGIN
1070
    73
1070
     1
1070
    44
1040
1.0
1070
    74
1070
     0
1000
MTEXTEND
  0
POINT
  5
27974
330
2795E
100
AcDbEntity
  8
DEFPOINTS
 62
     0
 48
50.0
100
AcDbPoint
 10
11170.84202293515
 20
7035.293497389734
 30
0.0
  0
POINT
  5
27975
330
2795E
100
AcDbEntity
  8
DEFPOINTS
 62
     0
 48
50.0
100
AcDbPoint
 10
11370.84202293515
 20
7035.293497389734
 30
0.0
  0
POINT
  5
27976
330
2795E
100
AcDbEntity
  8
DEFPOINTS
 62
     0
 48
50.0
100
AcDbPoint
 10
11370.84202293515
 20
6496.30174861555
 30
0.0
  0
ENDBLK
  5
2796B
330
2795E
100
AcDbEntity
  8
0
 48
50.0
100
AcDbBlockEnd
  0
BLOCK
  5
27C7C
330
27C72
100
AcDbEntity
  8
0
 48
50.0
100
AcDbBlockBegin
  2
*D19
 70
     1
 10
0.0
 20
0.0
 30
0.0
  3
*D19
  1

  0
LINE
  5
27CA2
330
27C72
100
AcDbEntity
  8
寸法
 62
     0
 48
50.0
370
    -2
100
AcDbLine
 10
8705.29422979246
 20
2706.848900255178
 30
0.0
 11
9067.786535460971
 21
2706.848900255178
 31
0.0
  0
LINE
  5
27CA3
330
27C72
100
AcDbEntity
  8
寸法
 62
     0
 48
50.0
370
    -2
100
AcDbLine
 10
8705.29422979246
 20
2446.848900255178
 30
0.0
 11
9067.786535460971
 21
2446.848900255178
 31
0.0
  0
LINE
  5
27CA4
330
27C72
100
AcDbEntity
  8
寸法
 62
     0
 48
50.0
370
    -2
100
AcDbLine
 10
9007.78653546097
 20
2706.848900255178
 30
0.0
 11
9007.78653546097
 21
2446.848900255178
 31
0.0
  0
INSERT
  5
27CA5
330
27C72
100
AcDbEntity
  8
寸法
 62
     0
 48
50.0
370
    -2
100
AcDbBlockReference
  2
_DOTSMALL
 10
9007.78653546097
 20
2706.848900255178
 30
0.0
 41
100.0
 42
100.0
 43
100.0
 50
90.0
  0
INSERT
  5
27CA6
330
27C72
100
AcDbEntity
  8
寸法
 62
     0
 48
50.0
370
    -2
100
AcDbBlockReference
  2
_DOTSMALL
 10
9007.78653546097
 20
2446.848900255178
 30
0.0
 41
100.0
 42
100.0
 43
100.0
 50
270.0
  0
MTEXT
  5
27CA7
330
27C72
100
AcDbEntity
  8
寸法
 62
     7
 48
50.0
100
AcDbMText
 10
8907.786535460971
 20
2576.848900255179
 30
0.0
 40
120.0
 41
0.0
 71
     5
 72
     1
  1
\A1;a
  7
STYLE1
 11
0.0000000000000001
 21
1.0
 31
0.0
 73
     1
 44
1.0
1001
ACAD
1000
MTEXTBEGIN
1070
    73
1070
     1
1070
    44
1040
1.0
1070
    74
1070
     0
1000
MTEXTEND
  0
POINT
  5
27CA8
330
27C72
100
AcDbEntity
  8
DEFPOINTS
 62
     0
 48
50.0
100
AcDbPoint
 10
8685.294229792459
 20
2706.848900255178
 30
0.0
  0
POINT
  5
27CA9
330
27C72
100
AcDbEntity
  8
DEFPOINTS
 62
     0
 48
50.0
100
AcDbPoint
 10
8685.294229792459
 20
2446.848900255178
 30
0.0
  0
POINT
  5
27CAA
330
27C72
100
AcDbEntity
  8
DEFPOINTS
 62
     0
 48
50.0
100
AcDbPoint
 10
9007.78653546097
 20
2446.848900255178
 30
0.0
  0
ENDBLK
  5
27C7D
330
27C72
100
AcDbEntity
  8
0
 48
50.0
100
AcDbBlockEnd
  0
BLOCK
  5
27C88
330
27C7E
100
AcDbEntity
  8
0
 48
50.0
100
AcDbBlockBegin
  2
*D20
 70
     1
 10
0.0
 20
0.0
 30
0.0
  3
*D20
  1

  0
LINE
  5
27CAB
330
27C7E
100
AcDbEntity
  8
寸法
 62
     0
 48
50.0
370
    -2
100
AcDbLine
 10
8145.294229792456
 20
2446.848900255178
 30
0.0
 11
7983.965558594268
 21
2446.848900255178
 31
0.0
  0
LINE
  5
27CAC
330
27C7E
100
AcDbEntity
  8
寸法
 62
     0
 48
50.0
370
    -2
100
AcDbLine
 10
8340.294229792457
 20
1926.848900255176
 30
0.0
 11
7983.965558594268
 21
1926.848900255176
 31
0.0
  0
LINE
  5
27CAD
330
27C7E
100
AcDbEntity
  8
寸法
 62
     0
 48
50.0
370
    -2
100
AcDbLine
 10
8043.965558594269
 20
2446.848900255178
 30
0.0
 11
8043.965558594267
 21
1926.848900255176
 31
0.0
  0
INSERT
  5
27CAE
330
27C7E
100
AcDbEntity
  8
寸法
 62
     0
 48
50.0
370
    -2
100
AcDbBlockReference
  2
_DOTSMALL
 10
8043.965558594269
 20
2446.848900255178
 30
0.0
 41
100.0
 42
100.0
 43
100.0
 50
90.0
  0
INSERT
  5
27CAF
330
27C7E
100
AcDbEntity
  8
寸法
 62
     0
 48
50.0
370
    -2
100
AcDbBlockReference
  2
_DOTSMALL
 10
8043.965558594267
 20
1926.848900255176
 30
0.0
 41
100.0
 42
100.0
 43
100.0
 50
270.0
  0
MTEXT
  5
27CB0
330
27C7E
100
AcDbEntity
  8
寸法
 62
     7
 48
50.0
100
AcDbMText
 10
7943.953747570645
 20
2170.760923305854
 30
0.0
 40
120.0
 41
0.0
 71
     5
 72
     1
  1
\A1;200
  7
STYLE1
 11
0.0000000000000001
 21
1.0
 31
0.0
 73
     1
 44
1.0
1001
ACAD
1000
MTEXTBEGIN
1070
    73
1070
     1
1070
    44
1040
1.0
1070
    74
1070
     0
1000
MTEXTEND
  0
POINT
  5
27CB1
330
27C7E
100
AcDbEntity
  8
DEFPOINTS
 62
     0
 48
50.0
100
AcDbPoint
 10
8165.294229792456
 20
2446.848900255178
 30
0.0
  0
POINT
  5
27CB2
330
27C7E
100
AcDbEntity
  8
DEFPOINTS
 62
     0
 48
50.0
100
AcDbPoint
 10
8360.294229792456
 20
1926.848900255176
 30
0.0
  0
POINT
  5
27CB3
330
27C7E
100
AcDbEntity
  8
DEFPOINTS
 62
     0
 48
50.0
100
AcDbPoint
 10
8043.965558594267
 20
1926.848900255176
 30
0.0
  0
ENDBLK
  5
27C89
330
27C7E
100
AcDbEntity
  8
0
 48
50.0
100
AcDbBlockEnd
  0
BLOCK
  5
27C94
330
27C8A
100
AcDbEntity
  8
0
 48
50.0
100
AcDbBlockBegin
  2
*D21
 70
     1
 10
0.0
 20
0.0
 30
0.0
  3
*D21
  1

  0
LINE
  5
27CB4
330
27C8A
100
AcDbEntity
  8
寸法
 62
     0
 48
50.0
370
    -2
100
AcDbLine
 10
12752.84318671893
 20
2836.848900255178
 30
0.0
 11
13056.26940655118
 21
2836.848900255178
 31
0.0
  0
LINE
  5
27CB5
330
27C8A
100
AcDbEntity
  8
寸法
 62
     0
 48
50.0
370
    -2
100
AcDbLine
 10
12791.69876723636
 20
2446.848900255178
 30
0.0
 11
13056.26940655118
 21
2446.848900255178
 31
0.0
  0
LINE
  5
27CB6
330
27C8A
100
AcDbEntity
  8
寸法
 62
     0
 48
50.0
370
    -2
100
AcDbLine
 10
12996.26940655118
 20
2836.848900255178
 30
0.0
 11
12996.26940655118
 21
2446.848900255178
 31
0.0
  0
INSERT
  5
27CB7
330
27C8A
100
AcDbEntity
  8
寸法
 62
     0
 48
50.0
370
    -2
100
AcDbBlockReference
  2
_DOTSMALL
 10
12996.26940655118
 20
2836.848900255178
 30
0.0
 41
100.0
 42
100.0
 43
100.0
 50
90.0
  0
INSERT
  5
27CB8
330
27C8A
100
AcDbEntity
  8
寸法
 62
     0
 48
50.0
370
    -2
100
AcDbBlockReference
  2
_DOTSMALL
 10
12996.26940655118
 20
2446.848900255178
 30
0.0
 41
100.0
 42
100.0
 43
100.0
 50
270.0
  0
MTEXT
  5
27CB9
330
27C8A
100
AcDbEntity
  8
寸法
 62
     7
 48
50.0
100
AcDbMText
 10
12896.26940655118
 20
2641.84890025518
 30
0.0
 40
120.0
 41
0.0
 71
     5
 72
     1
  1
\A1;c
  7
STYLE1
 11
0.0000000000000001
 21
1.0
 31
0.0
 73
     1
 44
1.0
1001
ACAD
1000
MTEXTBEGIN
1070
    73
1070
     1
1070
    44
1040
1.0
1070
    74
1070
     0
1000
MTEXTEND
  0
POINT
  5
27CBA
330
27C8A
100
AcDbEntity
  8
DEFPOINTS
 62
     0
 48
50.0
100
AcDbPoint
 10
12732.84318671893
 20
2836.848900255178
 30
0.0
  0
POINT
  5
27CBB
330
27C8A
100
AcDbEntity
  8
DEFPOINTS
 62
     0
 48
50.0
100
AcDbPoint
 10
12771.69876723636
 20
2446.848900255178
 30
0.0
  0
POINT
  5
27CBC
330
27C8A
100
AcDbEntity
  8
DEFPOINTS
 62
     0
 48
50.0
100
AcDbPoint
 10
12996.26940655118
 20
2446.848900255178
 30
0.0
  0
ENDBLK
  5
27C95
330
27C8A
100
AcDbEntity
  8
0
 48
50.0
100
AcDbBlockEnd
  0
BLOCK
  5
27CA0
330
27C96
100
AcDbEntity
  8
0
 48
50.0
100
AcDbBlockBegin
  2
*D22
 70
     1
 10
0.0
 20
0.0
 30
0.0
  3
*D22
  1

  0
LINE
  5
27CBD
330
27C96
100
AcDbEntity
  8
寸法
 62
     0
 48
50.0
370
    -2
100
AcDbLine
 10
10802.98237314664
 20
2706.84890025518
 30
0.0
 11
11131.85959484842
 21
2706.84890025518
 31
0.0
  0
LINE
  5
27CBE
330
27C96
100
AcDbEntity
  8
寸法
 62
     0
 48
50.0
370
    -2
100
AcDbLine
 10
10828.26638110948
 20
2446.848900255178
 30
0.0
 11
11131.85959484842
 21
2446.848900255178
 31
0.0
  0
LINE
  5
27CBF
330
27C96
100
AcDbEntity
  8
寸法
 62
     0
 48
50.0
370
    -2
100
AcDbLine
 10
11071.85959484842
 20
2706.84890025518
 30
0.0
 11
11071.85959484842
 21
2446.848900255178
 31
0.0
  0
INSERT
  5
27CC0
330
27C96
100
AcDbEntity
  8
寸法
 62
     0
 48
50.0
370
    -2
100
AcDbBlockReference
  2
_DOTSMALL
 10
11071.85959484842
 20
2706.84890025518
 30
0.0
 41
100.0
 42
100.0
 43
100.0
 50
90.0
  0
INSERT
  5
27CC1
330
27C96
100
AcDbEntity
  8
寸法
 62
     0
 48
50.0
370
    -2
100
AcDbBlockReference
  2
_DOTSMALL
 10
11071.85959484842
 20
2446.848900255178
 30
0.0
 41
100.0
 42
100.0
 43
100.0
 50
270.0
  0
MTEXT
  5
27CC2
330
27C96
100
AcDbEntity
  8
寸法
 62
     7
 48
50.0
100
AcDbMText
 10
10971.85959484842
 20
2576.848900255181
 30
0.0
 40
120.0
 41
0.0
 71
     5
 72
     1
  1
\A1;b
  7
STYLE1
 11
0.0000000000000001
 21
1.0
 31
0.0
 73
     1
 44
1.0
1001
ACAD
1000
MTEXTBEGIN
1070
    73
1070
     1
1070
    44
1040
1.0
1070
    74
1070
     0
1000
MTEXTEND
  0
POINT
  5
27CC3
330
27C96
100
AcDbEntity
  8
DEFPOINTS
 62
     0
 48
50.0
100
AcDbPoint
 10
10782.98237314664
 20
2706.84890025518
 30
0.0
  0
POINT
  5
27CC4
330
27C96
100
AcDbEntity
  8
DEFPOINTS
 62
     0
 48
50.0
100
AcDbPoint
 10
10808.26638110948
 20
2446.848900255178
 30
0.0
  0
POINT
  5
27CC5
330
27C96
100
AcDbEntity
  8
DEFPOINTS
 62
     0
 48
50.0
100
AcDbPoint
 10
11071.85959484842
 20
2446.848900255178
 30
0.0
  0
ENDBLK
  5
27CA1
330
27C96
100
AcDbEntity
  8
0
 48
50.0
100
AcDbBlockEnd
  0
ENDSEC
  0
SECTION
  2
ENTITIES
  0
MTEXT
  5
763F
330
747D
100
AcDbEntity
  8
0
100
AcDbMText
 10
302.846345836809
 20
280.1983726409901
 30
0.0
 40
3.5
 41
5.323721266742722
 71
     1
 72
     5
  1

  7
MSMINCHO
 73
     1
 44
1.0
1001
ACAD
1000
MTEXTBEGIN
1070
    73
1070
     1
1070
    44
1040
1.0
1070
    74
1070
     0
1000
MTEXTEND
  0
INSERT
  5
F235
330
747D
100
AcDbEntity
  8
0
100
AcDbBlockReference
  2
作図枠S50
 10
0.0
 20
0.0
 30
0.0
  0
LINE
  5
10B56
330
747D
100
AcDbEntity
  8
補助
  6
PHANTOM
 62
   230
 48
50.0
100
AcDbLine
 10
175.0
 20
0.0
 30
0.0
 11
174.9999999999993
 21
14262.0
 31
0.0
  0
LINE
  5
10B57
330
747D
100
AcDbEntity
  8
補助
  6
PHANTOM
 62
   230
 48
50.0
100
AcDbLine
 10
174.9999999999993
 20
14262.0
 30
0.0
 11
20384.0
 21
14262.0
 31
0.0
  0
LINE
  5
10B5C
330
747D
100
AcDbEntity
  8
仕様書枠
 48
50.0
100
AcDbLine
 10
20384.0
 20
1500.0
 30
0.0
 11
20384.0
 21
-0.0000000000001137
 31
0.0
  0
LINE
  5
10B5D
330
747D
100
AcDbEntity
  8
仕様書枠
 48
50.0
100
AcDbLine
 10
175.0
 20
0.0
 30
0.0
 11
20384.0
 21
-0.0000000000001137
 31
0.0
  0
LINE
  5
10B5E
330
747D
100
AcDbEntity
  8
補助
  6
PHANTOM
 62
   230
 48
50.0
100
AcDbLine
 10
20384.0
 20
14262.0
 30
0.0
 11
20384.0
 21
1500.0
 31
0.0
  0
LINE
  5
10B6C
330
747D
100
AcDbEntity
  8
仕様書枠
 48
50.0
100
AcDbLine
 10
16384.0
 20
1500.0
 30
0.0
 11
20384.0
 21
1500.0
 31
0.0
  0
LINE
  5
10B6D
330
747D
100
AcDbEntity
  8
補助
  6
PHANTOM
 62
   230
 48
50.0
100
AcDbLine
 10
16384.0
 20
14262.0
 30
0.0
 11
16384.0
 21
6000.0
 31
0.0
  0
LINE
  5
10B6F
330
747D
100
AcDbEntity
  8
補助
  6
PHANTOM
 62
   230
 48
50.0
100
AcDbLine
 10
16384.0
 20
6000.0
 30
0.0
 11
20384.0
 21
6000.0
 31
0.0
  0
LINE
  5
10B72
330
747D
100
AcDbEntity
  8
文字
 62
     7
 48
50.0
100
AcDbLine
 10
16484.0
 20
500.0
 30
0.0
 11
20284.0
 21
500.0
 31
0.0
  0
TEXT
  5
10B73
330
747D
100
AcDbEntity
  8
文字
 62
     7
 48
50.0
100
AcDbText
 10
16453.72382072112
 20
1118.863259287425
 30
0.0
 40
250.0
  1
基 礎 図
  7
STYLE2
100
AcDbText
  0
LINE
  5
10B7B
330
747D
100
AcDbEntity
  8
仕様書枠
 48
50.0
100
AcDbLine
 10
16384.0
 20
1000.0
 30
0.0
 11
17814.0
 21
1000.0
 31
0.0
  0
LINE
  5
10B88
330
747D
100
AcDbEntity
  8
仕様書枠
  6
Continuous
 48
50.0
100
AcDbLine
 10
17814.0
 20
1500.0
 30
0.0
 11
17814.0
 21
1000.0
 31
0.0
  0
TEXT
  5
10BB0
330
747D
100
AcDbEntity
  8
文字
 62
     7
 48
50.0
100
AcDbText
 10
18011.04151481741
 20
604.8708912389265
 30
0.0
 40
200.0
  1
ＦＸＮ-１７３０ＨＹ
  7
STYLE2
100
AcDbText
  0
TEXT
  5
17483
330
747D
100
AcDbEntity
  8
文字
 62
     7
 48
50.0
100
AcDbText
 10
16511.75668531126
 20
270.5931184260625
 30
0.0
 40
100.0
  1
※寒冷地等は、地域の実情に合わせた基礎にしてください。
  7
STYLE2
100
AcDbText
  0
LINE
  5
17484
330
747D
100
AcDbEntity
  8
仕様書枠
  6
Continuous
 48
50.0
100
AcDbLine
 10
16384.00000503976
 20
1499.999992498709
 30
0.0
 11
16384.00000503976
 21
-0.0000075012905659
 31
0.0
  0
TEXT
  5
1A873
330
747D
100
AcDbEntity
  8
文字
 62
     7
 48
50.0
100
AcDbText
 10
18155.16479652749
 20
1289.447132864036
 30
0.0
 40
125.0
  1
NO.50      <縮尺> S=1/50
  7
STYLE2
100
AcDbText
  0
TEXT
  5
1A874
330
747D
100
AcDbEntity
  8
文字
 62
     7
 48
50.0
100
AcDbText
 10
18286.2300055311
 20
1089.955080760453
 30
0.0
 40
125.0
  1
～一般型・多雪地型～
  7
STYLE2
100
AcDbText
  0
TEXT
  5
1A875
330
747D
100
AcDbEntity
  8
文字
 62
     7
 48
50.0
100
AcDbText
 10
16501.79587498051
 20
596.5925826289069
 30
0.0
 40
200.0
  1
機種名
  7
STYLE2
100
AcDbText
  0
LINE
  5
26985
330
747D
100
AcDbEntity
  8
部品1
 48
50.0
100
AcDbLine
 10
10469.84202293515
 20
7135.293497389731
 30
0.0
 11
10279.84202293515
 21
7135.293497389731
 31
0.0
  0
DIMENSION
  5
27655
330
747D
100
AcDbEntity
  8
寸法
 48
50.0
100
AcDbDimension
  2
*D5
 10
10665.59704722048
 20
7135.293497389731
 30
0.0
 11
10565.59704722048
 21
7500.793497389725
 31
0.0
 70
    32
 71
     5
 42
730.9999999999836
  3
INABA_S50G
100
AcDbAlignedDimension
 13
10469.84202293515
 23
7866.293497389715
 33
0.0
 14
10469.84202293515
 24
7135.293497389731
 34
0.0
 50
90.0
100
AcDbRotatedDimension
1001
ACAD
1000
DSTYLE
1002
{
1070
    40
1040
1.0
1070
   279
1070
     1
1070
   341
1005
0
1002
}
  0
DIMENSION
  5
27656
330
747D
100
AcDbEntity
  8
寸法
 48
50.0
100
AcDbDimension
  2
*D6
 10
10665.59704722048
 20
7866.293497389715
 30
0.0
 11
10565.59704722048
 21
8266.293497389717
 31
0.0
 70
    32
 71
     5
 42
799.9999999999991
  3
INABA_S50G
100
AcDbAlignedDimension
 13
10469.84202293515
 23
8666.293497389714
 33
0.0
 14
10469.84202293515
 24
7866.293497389715
 34
0.0
 50
90.0
100
AcDbRotatedDimension
1001
ACAD
1000
DSTYLE
1002
{
1070
    40
1040
1.0
1070
   279
1070
     1
1070
   341
1005
0
1002
}
  0
DIMENSION
  5
27657
330
747D
100
AcDbEntity
  8
寸法
 48
50.0
100
AcDbDimension
  2
*D7
 10
10665.59704722048
 20
8666.293497389714
 30
0.0
 11
10565.59704722048
 21
9066.293497389718
 31
0.0
 70
    32
 71
     5
 42
800.0000000000017
  3
INABA_S50G
100
AcDbAlignedDimension
 13
10469.84202293515
 23
9466.293497389719
 33
0.0
 14
10469.84202293515
 24
8666.293497389714
 34
0.0
 50
90.0
100
AcDbRotatedDimension
1001
ACAD
1000
DSTYLE
1002
{
1070
    40
1040
1.0
1070
   279
1070
     1
1070
   341
1005
0
1002
}
  0
DIMENSION
  5
27658
330
747D
100
AcDbEntity
  8
寸法
 48
50.0
100
AcDbDimension
  2
*D8
 10
10665.59704722048
 20
9466.293497389719
 30
0.0
 11
10565.58228344095
 21
9826.793497389727
 31
0.0
 70
    32
 71
     5
 42
721.0000000000145
  3
INABA_S50G
100
AcDbAlignedDimension
 13
10469.84202293515
 23
10187.29349738973
 33
0.0
 14
10469.84202293515
 24
9466.293497389719
 34
0.0
 50
90.0
100
AcDbRotatedDimension
1001
ACAD
1000
DSTYLE
1002
{
1070
    40
1040
1.0
1070
   341
1005
0
1002
}
  0
LINE
  5
27681
330
747D
100
AcDbEntity
  8
部品1
 48
50.0
100
AcDbLine
 10
10279.84202293515
 20
8471.293497389716
 30
0.0
 11
10279.84202293515
 21
8861.293497389715
 31
0.0
  0
LINE
  5
27682
330
747D
100
AcDbEntity
  8
部品1
 48
50.0
100
AcDbLine
 10
10469.84202293515
 20
8471.293497389716
 30
0.0
 11
10279.84202293515
 21
8471.293497389716
 31
0.0
  0
LINE
  5
27683
330
747D
100
AcDbEntity
  8
部品1
 48
50.0
100
AcDbLine
 10
10469.84202293515
 20
8861.293497389715
 30
0.0
 11
10469.84202293515
 21
8471.293497389716
 31
0.0
  0
LINE
  5
27684
330
747D
100
AcDbEntity
  8
部品1
 48
50.0
100
AcDbLine
 10
10279.84202293515
 20
8861.293497389715
 30
0.0
 11
10469.84202293515
 21
8861.293497389715
 31
0.0
  0
LINE
  5
27685
330
747D
100
AcDbEntity
  8
部品1
 48
50.0
100
AcDbLine
 10
9478.842022935152
 20
8571.293497389715
 30
0.0
 11
9478.842022935152
 21
8761.293497389715
 31
0.0
  0
LINE
  5
27686
330
747D
100
AcDbEntity
  8
部品1
 48
50.0
100
AcDbLine
 10
9668.842022935152
 20
8571.293497389715
 30
0.0
 11
9478.842022935152
 21
8571.293497389715
 31
0.0
  0
LINE
  5
27687
330
747D
100
AcDbEntity
  8
部品1
 48
50.0
100
AcDbLine
 10
9668.842022935152
 20
8761.293497389715
 30
0.0
 11
9668.842022935152
 21
8571.293497389715
 31
0.0
  0
LINE
  5
27688
330
747D
100
AcDbEntity
  8
部品1
 48
50.0
100
AcDbLine
 10
9478.842022935152
 20
8761.293497389715
 30
0.0
 11
9668.842022935152
 21
8761.293497389715
 31
0.0
  0
LINE
  5
27689
330
747D
100
AcDbEntity
  8
部品1
 48
50.0
100
AcDbLine
 10
11080.84202293515
 20
8761.293497389715
 30
0.0
 11
11270.84202293515
 21
8761.293497389715
 31
0.0
  0
LINE
  5
2768A
330
747D
100
AcDbEntity
  8
部品1
 48
50.0
100
AcDbLine
 10
11270.84202293515
 20
8761.293497389715
 30
0.0
 11
11270.84202293515
 21
8571.293497389715
 31
0.0
  0
LINE
  5
2768B
330
747D
100
AcDbEntity
  8
部品1
 48
50.0
100
AcDbLine
 10
11270.84202293515
 20
8571.293497389715
 30
0.0
 11
11080.84202293515
 21
8571.293497389715
 31
0.0
  0
LINE
  5
2768C
330
747D
100
AcDbEntity
  8
部品1
 48
50.0
100
AcDbLine
 10
11080.84202293515
 20
8571.293497389715
 30
0.0
 11
11080.84202293515
 21
8761.293497389715
 31
0.0
  0
TEXT
  5
2768D
330
747D
100
AcDbEntity
  8
部品1
 48
50.0
100
AcDbText
 10
11637.8644707713
 20
7820.425810373598
 30
0.0
 40
100.0
  1
(a=50,b=60,c=80)
  7
STYLE1
100
AcDbText
  0
TEXT
  5
2768E
330
747D
100
AcDbEntity
  8
文字
 48
50.0
100
AcDbText
 10
11465.97151574142
 20
9487.352262255283
 30
0.0
 40
150.0
  1
100x190x390
  7
STYLE1
100
AcDbText
  0
MTEXT
  5
2768F
102
{ACAD_REACTORS
330
27690
102
}
330
747D
100
AcDbEntity
  8
部品1
 62
     7
 48
50.0
100
AcDbMText
 10
13412.32067333696
 20
10774.29439667148
 30
0.0
 40
150.0
 41
0.0
 71
     6
 72
     1
  1
組立後　　　　　　\P現場打コンクリート
  7
STYLE1
 73
     1
 44
1.0
1001
ACAD
1000
MTEXTBEGIN
1070
    73
1070
     1
1070
    44
1040
1.0
1070
    74
1070
     0
1000
MTEXTEND
  0
LEADER
  5
27690
330
747D
100
AcDbEntity
  8
寸法
 48
50.0
100
AcDbLeader
  3
INABA_S50G
 71
     0
 73
     0
 74
     0
 75
     1
 40
400.0
 41
1617.5
 76
     3
 10
11370.84202293515
 20
10187.29349738973
 30
0.0
 10
11654.06378674828
 20
10525.71921214839
 30
0.0
 10
11779.06378674828
 20
10525.71921214839
 30
0.0
340
2768F
213
9.24311341131397
223
-23.57518452308432
233
0.0
1001
ACAD
1000
DSTYLE
1002
{
1070
   341
1005
11750
1070
    40
1040
1.0
1070
   343
1005
11750
1070
   344
1005
11750
1002
}
  0
MTEXT
  5
27691
330
747D
100
AcDbEntity
  8
部品1
 62
     7
 48
50.0
100
AcDbMText
 10
12537.02927953257
 20
10374.87660574944
 30
0.0
 40
150.0
 41
0.0
 71
     6
 72
     1
  1
深サ:200
  7
STYLE1
 73
     1
 44
1.0
1001
ACAD
1000
MTEXTBEGIN
1070
    73
1070
     1
1070
    44
1040
1.0
1070
    74
1070
     0
1000
MTEXTEND
  0
LINE
  5
27692
330
747D
100
AcDbEntity
  8
点線
 48
10.0
100
AcDbLine
 10
11170.84202293515
 20
10287.29349738973
 30
0.0
 11
11170.84202293515
 21
10087.29349738973
 31
0.0
  0
LINE
  5
27693
330
747D
100
AcDbEntity
  8
点線
 48
10.0
100
AcDbLine
 10
11170.84202293515
 20
10087.29349738973
 30
0.0
 11
11370.84202293515
 21
10087.29349738973
 31
0.0
  0
LINE
  5
27694
330
747D
100
AcDbEntity
  8
点線
 48
10.0
100
AcDbLine
 10
11370.84202293515
 20
10087.29349738973
 30
0.0
 11
11370.84202293515
 21
10287.29349738973
 31
0.0
  0
LINE
  5
27695
330
747D
100
AcDbEntity
  8
点線
 48
10.0
100
AcDbLine
 10
11370.84202293515
 20
10287.29349738973
 30
0.0
 11
11170.84202293515
 21
10287.29349738973
 31
0.0
  0
LINE
  5
27696
330
747D
100
AcDbEntity
  8
点線
 48
10.0
100
AcDbLine
 10
9578.842022935154
 20
10287.29349738973
 30
0.0
 11
9378.842022935153
 21
10287.29349738973
 31
0.0
  0
LINE
  5
27697
330
747D
100
AcDbEntity
  8
点線
 48
10.0
100
AcDbLine
 10
9578.842022935154
 20
10087.29349738973
 30
0.0
 11
9578.842022935154
 21
10287.29349738973
 31
0.0
  0
LINE
  5
27698
330
747D
100
AcDbEntity
  8
点線
 48
10.0
100
AcDbLine
 10
9378.842022935153
 20
10087.29349738973
 30
0.0
 11
9578.842022935154
 21
10087.29349738973
 31
0.0
  0
LINE
  5
27699
330
747D
100
AcDbEntity
  8
点線
 48
10.0
100
AcDbLine
 10
9378.842022935153
 20
10287.29349738973
 30
0.0
 11
9378.842022935153
 21
10087.29349738973
 31
0.0
  0
DIMENSION
  5
2769A
330
747D
100
AcDbEntity
  8
寸法
 48
50.0
100
AcDbDimension
  2
*D9
 10
11270.84202293515
 20
10494.43854355818
 30
0.0
 11
10822.84202293515
 21
10594.43854355818
 31
0.0
 70
    32
 71
     5
 42
896.0
  3
INABA_S50G
100
AcDbAlignedDimension
 13
10374.84202293515
 23
10187.29349738973
 33
0.0
 14
11270.84202293515
 24
10527.79648850989
 34
0.0
100
AcDbRotatedDimension
1001
ACAD
1000
DSTYLE
1002
{
1070
    40
1040
1.0
1070
   279
1070
     1
1070
   341
1005
0
1002
}
  0
DIMENSION
  5
2769B
330
747D
100
AcDbEntity
  8
寸法
 48
50.0
100
AcDbDimension
  2
*D10
 10
10374.84202293515
 20
10494.43854355818
 30
0.0
 11
9926.842022935153
 21
10594.43854355818
 31
0.0
 70
    32
 71
     5
 42
896.0
  3
INABA_S50G
100
AcDbAlignedDimension
 13
9478.842022935152
 23
10256.29349738973
 33
0.0
 14
10374.84202293515
 24
10187.29349738973
 34
0.0
100
AcDbRotatedDimension
1001
ACAD
1000
DSTYLE
1002
{
1070
    40
1040
1.0
1070
   341
1005
0
1002
}
  0
DIMENSION
  5
2769C
330
747D
100
AcDbEntity
  8
寸法
 48
50.0
100
AcDbDimension
  2
*D11
 10
8604.306426849884
 20
7075.293497389733
 30
0.0
 11
8504.306426849883
 21
7105.293497389732
 31
0.0
 70
    32
  1
b
 71
     5
 42
60.0
  3
INABA_S50G
100
AcDbAlignedDimension
 13
9478.842022935149
 23
7135.293497389731
 33
0.0
 14
9429.842022935153
 24
7075.293497389733
 34
0.0
 50
90.0
100
AcDbRotatedDimension
1001
ACAD
1000
DSTYLE
1002
{
1070
    40
1040
1.0
1070
   279
1070
     1
1070
   341
1005
0
1002
}
  0
DIMENSION
  5
2769D
330
747D
100
AcDbEntity
  8
寸法
 48
50.0
100
AcDbDimension
  2
*D12
 10
8604.306426849884
 20
7135.293497389731
 30
0.0
 11
8504.291663070354
 21
8661.293497389733
 31
0.0
 70
    32
 71
     5
 42
3052.0
  3
INABA_S50G
100
AcDbAlignedDimension
 13
9478.842022935152
 23
10187.29349738973
 33
0.0
 14
9478.842022935149
 24
7135.293497389731
 34
0.0
 50
90.0
100
AcDbRotatedDimension
1001
ACAD
1000
DSTYLE
1002
{
1070
    40
1040
1.0
1070
   279
1070
     1
1070
   341
1005
0
1002
}
  0
DIMENSION
  5
2769E
330
747D
100
AcDbEntity
  8
寸法
 48
50.0
100
AcDbDimension
  2
*D13
 10
8604.306426849884
 20
10187.29349738973
 30
0.0
 11
8504.306426849883
 21
10227.29349738973
 31
0.0
 70
    32
  1
c
 71
     5
 42
80.0
  3
INABA_S50G
100
AcDbAlignedDimension
 13
9429.842022935153
 23
10267.29349738973
 33
0.0
 14
9478.842022935152
 24
10187.29349738973
 34
0.0
 50
90.0
100
AcDbRotatedDimension
1001
ACAD
1000
DSTYLE
1002
{
1070
    40
1040
1.0
1070
   341
1005
0
1002
}
  0
DIMENSION
  5
2769F
330
747D
100
AcDbEntity
  8
寸法
 48
50.0
100
AcDbDimension
  2
*D14
 10
9429.842022935153
 20
10768.29947963004
 30
0.0
 11
9367.342022935153
 21
10768.29947963004
 31
0.0
 70
   160
  1
a
 71
     5
 42
49.0
  3
INABA_S50G
100
AcDbAlignedDimension
 13
9478.842022935152
 23
10187.29349738973
 33
0.0
 14
9429.842022935153
 24
10247.29349738973
 34
0.0
100
AcDbRotatedDimension
1001
ACAD
1000
DSTYLE
1002
{
1070
    40
1040
1.0
1070
   279
1070
     1
1070
   341
1005
0
1002
}
  0
DIMENSION
  5
276A0
330
747D
100
AcDbEntity
  8
寸法
 48
50.0
100
AcDbDimension
  2
*D15
 10
9478.842022935152
 20
10768.29947963004
 30
0.0
 11
10374.84202293515
 21
10868.35049533605
 31
0.0
 70
    32
 71
     5
 42
1792.0
  3
INABA_S50G
100
AcDbAlignedDimension
 13
11270.84202293515
 23
10187.29349738973
 33
0.0
 14
9478.842022935152
 24
10187.29349738973
 34
0.0
100
AcDbRotatedDimension
1001
ACAD
1000
DSTYLE
1002
{
1070
    40
1040
1.0
1070
   279
1070
     1
1070
   341
1005
0
1002
}
  0
DIMENSION
  5
276A1
330
747D
100
AcDbEntity
  8
寸法
 48
50.0
100
AcDbDimension
  2
*D16
 10
11270.84202293515
 20
10768.29947963004
 30
0.0
 11
11382.34202293515
 21
10768.29947963004
 31
0.0
 70
   160
  1
a
 71
     5
 42
49.0
  3
INABA_S50G
100
AcDbAlignedDimension
 13
11319.84202293515
 23
10256.29349738973
 33
0.0
 14
11270.84202293515
 24
10187.29349738973
 34
0.0
100
AcDbRotatedDimension
1001
ACAD
1000
DSTYLE
1002
{
1070
    40
1040
1.0
1070
   279
1070
     1
1070
   341
1005
0
1002
}
  0
LINE
  5
276A2
330
747D
100
AcDbEntity
  8
想像線
 48
10.0
100
AcDbLine
 10
9429.842022935153
 20
7075.293497389733
 30
0.0
 11
11319.84202293515
 21
7075.293497389733
 31
0.0
  0
LINE
  5
276A3
330
747D
100
AcDbEntity
  8
想像線
 48
10.0
100
AcDbLine
 10
9429.842022935153
 20
10267.29349738973
 30
0.0
 11
11319.84202293515
 21
10267.29349738973
 31
0.0
  0
LINE
  5
276A4
330
747D
100
AcDbEntity
  8
想像線
 48
10.0
100
AcDbLine
 10
9429.842022935153
 20
10267.29349738973
 30
0.0
 11
9429.842022935153
 21
7075.293497389733
 31
0.0
  0
LINE
  5
276A5
330
747D
100
AcDbEntity
  8
想像線
 48
10.0
100
AcDbLine
 10
11319.84202293515
 20
10267.29349738973
 30
0.0
 11
11319.84202293515
 21
7075.293497389733
 31
0.0
  0
TEXT
  5
276A6
330
747D
100
AcDbEntity
  8
部品1
 48
50.0
100
AcDbText
 10
9843.139099396161
 20
6813.448702322827
 30
0.0
 40
150.0
  1
シャッター面
  7
STYLE1
 72
     1
 11
10373.13909939616
 21
6793.448702322827
 31
0.0
100
AcDbText
 73
     1
  0
TEXT
  5
276A7
330
747D
100
AcDbEntity
  8
部品1
 48
50.0
100
AcDbText
 10
11536.4888266254
 20
7942.028497967943
 30
0.0
 40
100.0
  1
※a,bは屋根の出幅です。
  7
STYLE1
100
AcDbText
  0
MTEXT
  5
276A8
102
{ACAD_REACTORS
330
276A9
102
}
330
747D
100
AcDbEntity
  8
部品1
 62
     7
 48
50.0
100
AcDbMText
 10
12499.55240080229
 20
8166.276105429941
 30
0.0
 40
150.0
 41
0.0
 71
     6
 72
     1
  1
\A1;屋根の外寸
  7
STYLE1
 73
     1
 44
1.0
1001
ACAD
1000
MTEXTBEGIN
1070
    73
1070
     1
1070
    44
1040
1.0
1070
    74
1070
     0
1000
MTEXTEND
  0
LEADER
  5
276A9
330
747D
100
AcDbEntity
  8
寸法
 48
50.0
100
AcDbLeader
  3
INABA_S50G
 71
     0
 73
     0
 74
     0
 75
     1
 40
150.0
 41
840.0
 76
     3
 10
11319.84202293515
 20
8461.293497389732
 30
0.0
 10
11509.55240080229
 20
8066.27610542994
 30
0.0
 10
11634.55240080229
 20
8066.27610542994
 30
0.0
340
276A8
1001
ACAD
1000
DSTYLE
1002
{
1070
   341
1005
11750
1070
    40
1040
1.0
1070
   343
1005
11750
1070
   344
1005
11750
1002
}
  0
MTEXT
  5
276AA
102
{ACAD_REACTORS
330
276AB
102
}
330
747D
100
AcDbEntity
  8
部品1
 62
     7
 48
50.0
100
AcDbMText
 10
11600.79925933699
 20
9780.132020939271
 30
0.0
 40
150.0
 41
0.0
 71
     4
 72
     1
  1
\A1;C.B
  7
STYLE1
 73
     1
 44
1.0
1001
ACAD
1000
MTEXTBEGIN
1070
    73
1070
     1
1070
    44
1040
1.0
1070
    74
1070
     0
1000
MTEXTEND
  0
LEADER
  5
276AB
330
747D
100
AcDbEntity
  8
寸法
 48
50.0
100
AcDbLeader
  3
INABA_S50G
 71
     0
 73
     0
 74
     0
 75
     1
 40
150.0
 41
231.9898538650463
 76
     3
 10
11173.13803478393
 20
9988.471626903285
 30
0.0
 10
11450.79925933699
 20
9680.132020939272
 30
0.0
 10
11575.79925933699
 20
9680.132020939272
 30
0.0
340
276AA
1001
ACAD
1000
DSTYLE
1002
{
1070
   341
1005
11750
1070
    40
1040
1.0
1070
   343
1005
11750
1070
   344
1005
11750
1002
}
  0
LINE
  5
276AC
330
747D
100
AcDbEntity
  8
部品1
 48
50.0
100
AcDbLine
 10
10279.84202293515
 20
7135.293497389731
 30
0.0
 11
10279.84202293515
 21
7325.293497389733
 31
0.0
  0
LINE
  5
276AD
330
747D
100
AcDbEntity
  8
部品1
 48
50.0
100
AcDbLine
 10
10279.84202293515
 20
7325.293497389733
 30
0.0
 11
10469.84202293515
 21
7325.293497389733
 31
0.0
  0
LINE
  5
276AF
330
747D
100
AcDbEntity
  8
部品1
 48
50.0
100
AcDbLine
 10
10469.84202293515
 20
7325.293497389733
 30
0.0
 11
10469.84202293515
 21
7135.293497389731
 31
0.0
  0
LINE
  5
276B0
330
747D
100
AcDbEntity
  8
部品1
 48
50.0
100
AcDbLine
 10
10279.84202293515
 20
9997.293497389733
 30
0.0
 11
10279.84202293515
 21
10187.29349738973
 31
0.0
  0
LINE
  5
276B1
330
747D
100
AcDbEntity
  8
部品1
 48
50.0
100
AcDbLine
 10
10279.84202293515
 20
10187.29349738973
 30
0.0
 11
10469.84202293515
 21
10187.29349738973
 31
0.0
  0
LINE
  5
276B2
330
747D
100
AcDbEntity
  8
部品1
 48
50.0
100
AcDbLine
 10
10469.84202293515
 20
9997.293497389733
 30
0.0
 11
10279.84202293515
 21
9997.293497389733
 31
0.0
  0
LINE
  5
276B3
330
747D
100
AcDbEntity
  8
部品1
 48
50.0
100
AcDbLine
 10
10469.84202293515
 20
10187.29349738973
 30
0.0
 11
10469.84202293515
 21
9997.293497389733
 31
0.0
  0
LINE
  5
276B4
330
747D
100
AcDbEntity
  8
部品1
 48
50.0
100
AcDbLine
 10
11080.84202293515
 20
9561.293497389717
 30
0.0
 11
11270.84202293515
 21
9561.293497389717
 31
0.0
  0
LINE
  5
276B5
330
747D
100
AcDbEntity
  8
部品1
 48
50.0
100
AcDbLine
 10
11270.84202293515
 20
9561.293497389717
 30
0.0
 11
11270.84202293515
 21
9371.293497389718
 31
0.0
  0
LINE
  5
276B6
330
747D
100
AcDbEntity
  8
部品1
 48
50.0
100
AcDbLine
 10
11270.84202293515
 20
9371.293497389718
 30
0.0
 11
11080.84202293515
 21
9371.293497389718
 31
0.0
  0
LINE
  5
276B7
330
747D
100
AcDbEntity
  8
部品1
 48
50.0
100
AcDbLine
 10
11080.84202293515
 20
9371.293497389718
 30
0.0
 11
11080.84202293515
 21
9561.293497389717
 31
0.0
  0
LINE
  5
276B8
330
747D
100
AcDbEntity
  8
部品1
 48
50.0
100
AcDbLine
 10
11080.84202293515
 20
7771.293497389716
 30
0.0
 11
11080.84202293515
 21
7961.293497389715
 31
0.0
  0
LINE
  5
276B9
330
747D
100
AcDbEntity
  8
部品1
 48
50.0
100
AcDbLine
 10
11270.84202293515
 20
7771.293497389716
 30
0.0
 11
11080.84202293515
 21
7771.293497389716
 31
0.0
  0
LINE
  5
276BA
330
747D
100
AcDbEntity
  8
部品1
 48
50.0
100
AcDbLine
 10
11270.84202293515
 20
7961.293497389715
 30
0.0
 11
11270.84202293515
 21
7771.293497389716
 31
0.0
  0
LINE
  5
276BB
330
747D
100
AcDbEntity
  8
部品1
 48
50.0
100
AcDbLine
 10
11080.84202293515
 20
7961.293497389715
 30
0.0
 11
11270.84202293515
 21
7961.293497389715
 31
0.0
  0
LINE
  5
276BC
330
747D
100
AcDbEntity
  8
部品1
 48
50.0
100
AcDbLine
 10
9478.842022935152
 20
7961.293497389715
 30
0.0
 11
9668.842022935152
 21
7961.293497389715
 31
0.0
  0
LINE
  5
276BD
330
747D
100
AcDbEntity
  8
部品1
 48
50.0
100
AcDbLine
 10
9668.842022935152
 20
7961.293497389715
 30
0.0
 11
9668.842022935152
 21
7771.293497389716
 31
0.0
  0
LINE
  5
276BE
330
747D
100
AcDbEntity
  8
部品1
 48
50.0
100
AcDbLine
 10
9668.842022935152
 20
7771.293497389716
 30
0.0
 11
9478.842022935152
 21
7771.293497389716
 31
0.0
  0
LINE
  5
276BF
330
747D
100
AcDbEntity
  8
部品1
 48
50.0
100
AcDbLine
 10
9478.842022935152
 20
7771.293497389716
 30
0.0
 11
9478.842022935152
 21
7961.293497389715
 31
0.0
  0
LINE
  5
276C0
330
747D
100
AcDbEntity
  8
部品1
 48
50.0
100
AcDbLine
 10
9478.842022935152
 20
9371.293497389718
 30
0.0
 11
9478.842022935152
 21
9561.293497389717
 31
0.0
  0
LINE
  5
276C1
330
747D
100
AcDbEntity
  8
部品1
 48
50.0
100
AcDbLine
 10
9668.842022935152
 20
9371.293497389718
 30
0.0
 11
9478.842022935152
 21
9371.293497389718
 31
0.0
  0
LINE
  5
276C2
330
747D
100
AcDbEntity
  8
部品1
 48
50.0
100
AcDbLine
 10
9668.842022935152
 20
9561.293497389717
 30
0.0
 11
9668.842022935152
 21
9371.293497389718
 31
0.0
  0
LINE
  5
276C3
330
747D
100
AcDbEntity
  8
部品1
 48
50.0
100
AcDbLine
 10
9478.842022935152
 20
9561.293497389717
 30
0.0
 11
9668.842022935152
 21
9561.293497389717
 31
0.0
  0
LINE
  5
276C4
330
747D
100
AcDbEntity
  8
部品1
 48
50.0
100
AcDbLine
 10
10279.84202293515
 20
8061.293497389716
 30
0.0
 11
10469.84202293515
 21
8061.293497389716
 31
0.0
  0
LINE
  5
276C5
330
747D
100
AcDbEntity
  8
部品1
 48
50.0
100
AcDbLine
 10
10469.84202293515
 20
8061.293497389716
 30
0.0
 11
10469.84202293515
 21
7671.293497389716
 31
0.0
  0
LINE
  5
276C6
330
747D
100
AcDbEntity
  8
部品1
 48
50.0
100
AcDbLine
 10
10469.84202293515
 20
7671.293497389716
 30
0.0
 11
10279.84202293515
 21
7671.293497389716
 31
0.0
  0
LINE
  5
276C7
330
747D
100
AcDbEntity
  8
部品1
 48
50.0
100
AcDbLine
 10
10279.84202293515
 20
7671.293497389716
 30
0.0
 11
10279.84202293515
 21
8061.293497389716
 31
0.0
  0
LINE
  5
276C8
330
747D
100
AcDbEntity
  8
部品1
 48
50.0
100
AcDbLine
 10
10279.84202293515
 20
9271.293497389718
 30
0.0
 11
10279.84202293515
 21
9661.293497389717
 31
0.0
  0
LINE
  5
276C9
330
747D
100
AcDbEntity
  8
部品1
 48
50.0
100
AcDbLine
 10
10469.84202293515
 20
9271.293497389718
 30
0.0
 11
10279.84202293515
 21
9271.293497389718
 31
0.0
  0
LINE
  5
276CA
330
747D
100
AcDbEntity
  8
部品1
 48
50.0
100
AcDbLine
 10
10469.84202293515
 20
9661.293497389717
 30
0.0
 11
10469.84202293515
 21
9271.293497389718
 31
0.0
  0
LINE
  5
276CB
330
747D
100
AcDbEntity
  8
部品1
 48
50.0
100
AcDbLine
 10
10279.84202293515
 20
9661.293497389717
 30
0.0
 11
10469.84202293515
 21
9661.293497389717
 31
0.0
  0
LINE
  5
276CC
330
747D
100
AcDbEntity
  8
部品1
 48
50.0
100
AcDbLine
 10
11270.84202293515
 20
10187.29349738973
 30
0.0
 11
11270.84202293515
 21
9997.293497389733
 31
0.0
  0
LINE
  5
276CD
330
747D
100
AcDbEntity
  8
部品1
 48
50.0
100
AcDbLine
 10
11270.84202293515
 20
9997.293497389733
 30
0.0
 11
10880.84202293515
 21
9997.293497389733
 31
0.0
  0
LINE
  5
276CE
330
747D
100
AcDbEntity
  8
部品1
 48
50.0
100
AcDbLine
 10
10880.84202293515
 20
9997.293497389733
 30
0.0
 11
10880.84202293515
 21
10187.29349738973
 31
0.0
  0
LINE
  5
276CF
330
747D
100
AcDbEntity
  8
部品1
 48
50.0
100
AcDbLine
 10
10880.84202293515
 20
10187.29349738973
 30
0.0
 11
11270.84202293515
 21
10187.29349738973
 31
0.0
  0
LINE
  5
276D0
330
747D
100
AcDbEntity
  8
部品1
 48
50.0
100
AcDbLine
 10
9478.842022935152
 20
10187.29349738973
 30
0.0
 11
9868.842022935153
 21
10187.29349738973
 31
0.0
  0
LINE
  5
276D1
330
747D
100
AcDbEntity
  8
部品1
 48
50.0
100
AcDbLine
 10
9478.842022935152
 20
9997.293497389733
 30
0.0
 11
9478.842022935152
 21
10187.29349738973
 31
0.0
  0
LINE
  5
276D2
330
747D
100
AcDbEntity
  8
部品1
 48
50.0
100
AcDbLine
 10
9868.842022935153
 20
9997.293497389733
 30
0.0
 11
9478.842022935152
 21
9997.293497389733
 31
0.0
  0
LINE
  5
276D3
330
747D
100
AcDbEntity
  8
部品1
 48
50.0
100
AcDbLine
 10
9868.842022935153
 20
10187.29349738973
 30
0.0
 11
9868.842022935153
 21
9997.293497389733
 31
0.0
  0
LINE
  5
27910
330
747D
100
AcDbEntity
  8
部品1
 48
50.0
100
AcDbLine
 10
9868.842022935153
 20
7135.293497389731
 30
0.0
 11
9478.842022935152
 21
7135.293497389731
 31
0.0
  0
LINE
  5
27911
330
747D
100
AcDbEntity
  8
部品1
 48
50.0
100
AcDbLine
 10
9478.842022935152
 20
7325.293497389733
 30
0.0
 11
9868.842022935153
 21
7325.293497389733
 31
0.0
  0
LINE
  5
27912
330
747D
100
AcDbEntity
  8
部品1
 48
50.0
100
AcDbLine
 10
9478.842022935152
 20
7135.293497389731
 30
0.0
 11
9478.842022935152
 21
7325.293497389733
 31
0.0
  0
LINE
  5
27913
330
747D
100
AcDbEntity
  8
部品1
 48
50.0
100
AcDbLine
 10
9868.842022935153
 20
7325.293497389733
 30
0.0
 11
9868.842022935153
 21
7135.293497389731
 31
0.0
  0
LINE
  5
27914
330
747D
100
AcDbEntity
  8
部品1
 48
50.0
100
AcDbLine
 10
10880.84202293515
 20
7325.293497389733
 30
0.0
 11
11270.84202293515
 21
7325.293497389733
 31
0.0
  0
LINE
  5
27915
330
747D
100
AcDbEntity
  8
部品1
 48
50.0
100
AcDbLine
 10
11270.84202293515
 20
7135.293497389731
 30
0.0
 11
10880.84202293515
 21
7135.293497389731
 31
0.0
  0
LINE
  5
27916
330
747D
100
AcDbEntity
  8
部品1
 48
50.0
100
AcDbLine
 10
10880.84202293515
 20
7135.293497389731
 30
0.0
 11
10880.84202293515
 21
7325.293497389733
 31
0.0
  0
LINE
  5
27917
330
747D
100
AcDbEntity
  8
部品1
 48
50.0
100
AcDbLine
 10
11270.84202293515
 20
7325.293497389733
 30
0.0
 11
11270.84202293515
 21
7135.293497389731
 31
0.0
  0
LINE
  5
27918
330
747D
100
AcDbEntity
  8
点線
 48
10.0
100
AcDbLine
 10
9378.842022935153
 20
7035.293497389732
 30
0.0
 11
9578.842022935154
 21
7035.293497389732
 31
0.0
  0
LINE
  5
27919
330
747D
100
AcDbEntity
  8
点線
 48
10.0
100
AcDbLine
 10
9578.842022935154
 20
7235.293497389732
 30
0.0
 11
9378.842022935153
 21
7235.293497389732
 31
0.0
  0
LINE
  5
2791A
330
747D
100
AcDbEntity
  8
点線
 48
10.0
100
AcDbLine
 10
9378.842022935153
 20
7235.293497389732
 30
0.0
 11
9378.842022935153
 21
7035.293497389732
 31
0.0
  0
LINE
  5
2791B
330
747D
100
AcDbEntity
  8
点線
 48
10.0
100
AcDbLine
 10
9578.842022935154
 20
7035.293497389732
 30
0.0
 11
9578.842022935154
 21
7235.293497389732
 31
0.0
  0
LINE
  5
2791C
330
747D
100
AcDbEntity
  8
点線
 48
10.0
100
AcDbLine
 10
11370.84202293515
 20
7235.293497389732
 30
0.0
 11
11170.84202293515
 21
7235.293497389732
 31
0.0
  0
LINE
  5
2791D
330
747D
100
AcDbEntity
  8
点線
 48
10.0
100
AcDbLine
 10
11170.84202293515
 20
7035.293497389732
 30
0.0
 11
11370.84202293515
 21
7035.293497389732
 31
0.0
  0
LINE
  5
2791E
330
747D
100
AcDbEntity
  8
点線
 48
10.0
100
AcDbLine
 10
11170.84202293515
 20
7235.293497389732
 30
0.0
 11
11170.84202293515
 21
7035.293497389732
 31
0.0
  0
LINE
  5
2791F
330
747D
100
AcDbEntity
  8
点線
 48
10.0
100
AcDbLine
 10
11370.84202293515
 20
7035.293497389732
 30
0.0
 11
11370.84202293515
 21
7235.293497389732
 31
0.0
  0
DIMENSION
  5
2792F
330
747D
100
AcDbEntity
  8
寸法
 48
50.0
100
AcDbDimension
  2
*D17
 10
11785.37706875195
 20
7035.293497389734
 30
0.0
 11
11685.36230497242
 21
7135.293497389735
 31
0.0
 70
    32
 71
     5
 42
199.9999999999991
  3
INABA_S50G
100
AcDbAlignedDimension
 13
11370.84202293515
 23
7235.293497389732
 33
0.0
 14
11370.84202293515
 24
7035.293497389734
 34
0.0
 50
90.0
100
AcDbRotatedDimension
1001
ACAD
1000
DSTYLE
1002
{
1070
    40
1040
1.0
1002
}
  0
DIMENSION
  5
2795D
330
747D
100
AcDbEntity
  8
寸法
 48
50.0
100
AcDbDimension
  2
*D18
 10
11370.84202293515
 20
6496.30174861555
 30
0.0
 11
11270.84202293515
 21
6596.316512395079
 31
0.0
 70
    32
 71
     5
 42
200.0
  3
INABA_S50G
100
AcDbAlignedDimension
 13
11170.84202293515
 23
7035.293497389734
 33
0.0
 14
11370.84202293515
 24
7035.293497389734
 34
0.0
100
AcDbRotatedDimension
1001
ACAD
1000
DSTYLE
1002
{
1070
    40
1040
1.0
1002
}
  0
LINE
  5
27B14
330
747D
100
AcDbEntity
  8
部品1
 48
50.0
100
AcDbLine
 10
5587.774216850295
 20
3719.859876359897
 30
0.0
 11
13907.77421685029
 21
3719.859876359897
 31
0.0
  0
LINE
  5
27B15
330
747D
100
AcDbEntity
  8
部品1
 48
50.0
100
AcDbLine
 10
13907.77421685029
 20
4031.859876359896
 30
0.0
 11
7667.774216850296
 21
4031.859876359896
 31
0.0
  0
LINE
  5
27B16
330
747D
100
AcDbEntity
  8
部品1
 48
50.0
100
AcDbLine
 10
13907.77421685029
 20
4343.859876359896
 30
0.0
 11
5587.774216850295
 21
4343.859876359898
 31
0.0
  0
LINE
  5
27B17
330
747D
100
AcDbEntity
  8
部品1
 48
50.0
100
AcDbLine
 10
5587.774216850295
 20
1223.859876359896
 30
0.0
 11
13907.77421685029
 21
1223.859876359896
 31
0.0
  0
TEXT
  5
27B18
330
747D
100
AcDbEntity
  8
部品1
100
AcDbText
 10
9817.619728142595
 20
4102.142835343449
 30
0.0
 40
156.0
  1
アンカー部詳細
  7
STYLE2
100
AcDbText
  0
LINE
  5
27B19
330
747D
100
AcDbEntity
  8
Ｇ．Ｌ
100
AcDbLine
 10
9839.435617892821
 20
2446.848900255176
 30
0.0
 11
11742.68142828638
 21
2446.848900255176
 31
0.0
  0
LINE
  5
27B1A
330
747D
100
AcDbEntity
  8
細線
 48
10.0
100
AcDbLine
 10
10117.65665107202
 20
2047.855243714108
 30
0.0
 11
10516.65030761306
 21
2446.848900255176
 31
0.0
  0
LINE
  5
27B1B
330
747D
100
AcDbEntity
  8
部品1
100
AcDbLine
 10
9839.435617892814
 20
2706.84890025518
 30
0.0
 11
10651.22451352201
 21
2706.84890025518
 31
0.0
  0
LINE
  5
27B1C
330
747D
100
AcDbEntity
  8
部品1
100
AcDbLine
 10
9839.435617892814
 20
2836.848900255182
 30
0.0
 11
10626.26638110949
 21
2836.84890025518
 31
0.0
  0
LINE
  5
27B1D
330
747D
100
AcDbEntity
  8
部品1
100
AcDbLine
 10
9839.435617892814
 20
2829.048900255182
 30
0.0
 11
10663.70357972826
 21
2829.048900255182
 31
0.0
  0
LINE
  5
27B1E
330
747D
100
AcDbEntity
  8
細線
100
AcDbLine
 10
10627.50736210175
 20
2474.601081736379
 30
0.0
 11
10395.25954358295
 21
2706.848900255176
 31
0.0
  0
LINE
  5
27B1F
330
747D
100
AcDbEntity
  8
細線
100
AcDbLine
 10
10632.61784097348
 20
2524.6449317972
 30
0.0
 11
10450.4138725155
 21
2706.848900255176
 31
0.0
  0
TEXT
  5
27B20
330
747D
100
AcDbEntity
  8
部品1
100
AcDbText
 10
9863.691651273471
 20
1839.962519161138
 30
0.0
 40
104.0
  1
b寸法：100～120mmに対応
  7
STYLE2
100
AcDbText
  0
TEXT
  5
27B21
330
747D
100
AcDbEntity
  8
部品1
100
AcDbText
 10
9869.600742182564
 20
1650.674640373258
 30
0.0
 40
104.0
  1
\U+203BオールアンカーM10(市販品)
  7
STYLE2
100
AcDbText
  0
TEXT
  5
27B22
330
747D
100
AcDbEntity
  8
部品1
100
AcDbText
 10
9871.373469455292
 20
1456.068579767198
 30
0.0
 40
104.0
  1
  が4本必要になります。
  7
STYLE2
100
AcDbText
  0
LEADER
  5
27B23
330
747D
100
AcDbEntity
  8
寸法
 48
50.0
100
AcDbLeader
  3
INABA_S50G
 71
     0
 73
     0
 74
     0
 75
     1
 40
156.0
 41
241.269448019648
 76
     3
 10
6530.110092596792
 20
2706.848900255178
 30
0.0
 10
6776.952749939322
 20
2991.056393406576
 30
0.0
 10
6901.952749939322
 20
2991.056393406576
 30
0.0
340
27B24
213
88.05124360030459
223
0.0
233
0.0
1001
ACAD
1000
DSTYLE
1002
{
1070
    40
1040
1.0
1002
}
  0
MTEXT
  5
27B24
102
{ACAD_REACTORS
330
27B23
102
}
330
747D
100
AcDbEntity
  8
寸法
 62
     7
 48
50.0
100
AcDbMText
 10
6838.901506339017
 20
3094.056393406576
 30
0.0
 40
156.0
 41
1.3
 71
     4
 72
     1
  1
\A1;C.B
  7
STYLE1
 73
     1
 44
1.0
1001
ACAD
1000
MTEXTBEGIN
1070
    73
1070
     1
1070
    44
1040
1.0
1070
    74
1070
     0
1000
MTEXTEND
  0
LINE
  5
27B25
330
747D
100
AcDbEntity
  8
部品1
 48
50.0
100
AcDbLine
 10
5587.774216850295
 20
4343.859876359896
 30
0.0
 11
5587.774216850295
 21
1223.859876359896
 31
0.0
  0
LINE
  5
27B26
330
747D
100
AcDbEntity
  8
部品1
 48
50.0
100
AcDbLine
 10
9747.774216850295
 20
4031.859876359896
 30
0.0
 11
9747.774216850295
 21
1223.859876359896
 31
0.0
  0
LINE
  5
27B27
330
747D
100
AcDbEntity
  8
部品1
 48
50.0
100
AcDbLine
 10
7667.774216850296
 20
4343.859876359896
 30
0.0
 11
7667.774216850296
 21
1223.859876359896
 31
0.0
  0
LINE
  5
27B28
330
747D
100
AcDbEntity
  8
部品1
100
AcDbLine
 10
8685.294229792457
 20
3486.848900255174
 30
0.0
 11
8685.294229792457
 21
2446.848900255176
 31
0.0
  0
LINE
  5
27B29
330
747D
100
AcDbEntity
  8
部品1
100
AcDbLine
 10
8685.294229792457
 20
2788.748900255177
 30
0.0
 11
8685.294229792459
 21
2402.188009939589
 31
0.0
  0
LINE
  5
27B2A
330
747D
100
AcDbEntity
  8
部品1
100
AcDbLine
 10
8581.294229792456
 20
2790.048900255177
 30
0.0
 11
8581.294229792456
 21
2402.188009939589
 31
0.0
  0
CIRCLE
  5
27B2B
330
747D
100
AcDbEntity
  8
部品1
100
AcDbCircle
 10
8633.294229792456
 20
2764.048900255177
 30
0.0
 40
20.8
  0
LINE
  5
27B2C
330
747D
100
AcDbEntity
  8
Ｇ．Ｌ
100
AcDbLine
 10
5710.978784737868
 20
2446.84890025518
 30
0.0
 11
7571.140053707975
 21
2446.84890025518
 31
0.0
  0
TEXT
  5
27B2D
330
747D
100
AcDbEntity
  8
部品1
100
AcDbText
 10
7080.338506224446
 20
2457.126754437755
 30
0.0
 40
156.0
  1
▽G.L
  7
STYLE1
100
AcDbText
  0
LINE
  5
27B2E
330
747D
100
AcDbEntity
  8
部品1
100
AcDbLine
 10
6270.110092596791
 20
2706.848900255176
 30
0.0
 11
6790.110092596788
 21
2706.848900255176
 31
0.0
  0
LINE
  5
27B2F
330
747D
100
AcDbEntity
  8
部品1
100
AcDbLine
 10
6140.110092596787
 20
2316.848900255176
 30
0.0
 11
6920.110092596788
 21
2316.848900255176
 31
0.0
  0
LINE
  5
27B30
330
747D
100
AcDbEntity
  8
部品1
100
AcDbLine
 10
6140.110092596787
 20
2056.848900255173
 30
0.0
 11
6920.110092596788
 21
2056.848900255176
 31
0.0
  0
LINE
  5
27B31
330
747D
100
AcDbEntity
  8
細線
100
AcDbLine
 10
6480.96287074664
 20
2446.84890025518
 30
0.0
 11
6270.110092596787
 21
2657.701678405028
 31
0.0
  0
LINE
  5
27B32
330
747D
100
AcDbEntity
  8
細線
100
AcDbLine
 10
6305.445783838928
 20
2316.848900255176
 30
0.0
 11
6435.445783838925
 21
2446.84890025518
 31
0.0
  0
LINE
  5
27B33
330
747D
100
AcDbEntity
  8
細線
100
AcDbLine
 10
6425.808541814091
 20
2446.84890025518
 30
0.0
 11
6270.110092596791
 21
2602.547349472476
 31
0.0
  0
LINE
  5
27B34
330
747D
100
AcDbEntity
  8
細線
100
AcDbLine
 10
6268.676231217228
 20
2316.848900255176
 30
0.0
 11
6398.676231217222
 21
2446.84890025518
 31
0.0
  0
LINE
  5
27B35
330
747D
100
AcDbEntity
  8
細線
100
AcDbLine
 10
6270.110092596791
 20
2316.848900255176
 30
0.0
 11
6339.776882628878
 21
2056.848900255169
 31
0.0
  0
LINE
  5
27B36
330
747D
100
AcDbEntity
  8
細線
100
AcDbLine
 10
6140.110092596787
 20
2316.848900255176
 30
0.0
 11
6209.776882628881
 21
2056.848900255169
 31
0.0
  0
LINE
  5
27B37
330
747D
100
AcDbEntity
  8
部品1
100
AcDbLine
 10
6140.110092596787
 20
2056.848900255173
 30
0.0
 11
6140.110092596787
 21
2446.84890025518
 31
0.0
  0
LINE
  5
27B38
330
747D
100
AcDbEntity
  8
細線
100
AcDbLine
 10
6192.360185120855
 20
2121.848900255176
 30
0.0
 11
6174.943487612832
 21
2056.848900255173
 31
0.0
  0
LINE
  5
27B39
330
747D
100
AcDbEntity
  8
細線
100
AcDbLine
 10
6322.360185120858
 20
2121.848900255176
 30
0.0
 11
6304.943487612832
 21
2056.848900255173
 31
0.0
  0
LINE
  5
27B3A
330
747D
100
AcDbEntity
  8
部品1
100
AcDbLine
 10
6270.110092596791
 20
2446.84890025518
 30
0.0
 11
6270.110092596791
 21
2706.848900255176
 31
0.0
  0
LINE
  5
27B3B
330
747D
100
AcDbEntity
  8
細線
100
AcDbLine
 10
6174.943487612832
 20
2316.848900255176
 30
0.0
 11
6157.526790104814
 21
2251.848900255172
 31
0.0
  0
LINE
  5
27B3C
330
747D
100
AcDbEntity
  8
細線
100
AcDbLine
 10
6231.906678595525
 20
2316.848900255176
 30
0.0
 11
6361.906678595525
 21
2446.84890025518
 31
0.0
  0
LINE
  5
27B3D
330
747D
100
AcDbEntity
  8
細線
100
AcDbLine
 10
6304.943487612832
 20
2316.848900255176
 30
0.0
 11
6287.52679010481
 21
2251.848900255172
 31
0.0
  0
LINE
  5
27B3E
330
747D
100
AcDbEntity
  8
細線
100
AcDbLine
 10
6400.110092596787
 20
2316.848900255176
 30
0.0
 11
6469.776882628877
 21
2056.848900255173
 31
0.0
  0
LINE
  5
27B3F
330
747D
100
AcDbEntity
  8
細線
100
AcDbLine
 10
6530.110092596787
 20
2316.848900255176
 30
0.0
 11
6599.776882628882
 21
2056.848900255173
 31
0.0
  0
LINE
  5
27B40
330
747D
100
AcDbEntity
  8
細線
100
AcDbLine
 10
6790.110092596788
 20
2316.848900255176
 30
0.0
 11
6859.776882628877
 21
2056.848900255176
 31
0.0
  0
LINE
  5
27B41
330
747D
100
AcDbEntity
  8
細線
100
AcDbLine
 10
6660.110092596791
 20
2316.848900255176
 30
0.0
 11
6729.776882628877
 21
2056.848900255173
 31
0.0
  0
LINE
  5
27B42
330
747D
100
AcDbEntity
  8
部品1
100
AcDbLine
 10
6920.110092596788
 20
2446.84890025518
 30
0.0
 11
6920.110092596788
 21
2056.848900255176
 31
0.0
  0
LINE
  5
27B43
330
747D
100
AcDbEntity
  8
細線
100
AcDbLine
 10
6452.360185120856
 20
2121.848900255176
 30
0.0
 11
6434.943487612835
 21
2056.848900255176
 31
0.0
  0
LINE
  5
27B44
330
747D
100
AcDbEntity
  8
細線
100
AcDbLine
 10
6582.360185120855
 20
2121.848900255176
 30
0.0
 11
6564.943487612833
 21
2056.848900255176
 31
0.0
  0
LINE
  5
27B45
330
747D
100
AcDbEntity
  8
細線
100
AcDbLine
 10
6712.360185120859
 20
2121.848900255176
 30
0.0
 11
6694.943487612832
 21
2056.848900255176
 31
0.0
  0
LINE
  5
27B46
330
747D
100
AcDbEntity
  8
細線
100
AcDbLine
 10
6842.360185120854
 20
2121.848900255176
 30
0.0
 11
6824.943487612836
 21
2056.848900255176
 31
0.0
  0
LINE
  5
27B47
330
747D
100
AcDbEntity
  8
細線
100
AcDbLine
 10
6695.445783838924
 20
2316.848900255176
 30
0.0
 11
6825.445783838924
 21
2446.84890025518
 31
0.0
  0
LINE
  5
27B48
330
747D
100
AcDbEntity
  8
細線
100
AcDbLine
 10
6824.943487612836
 20
2316.848900255176
 30
0.0
 11
6807.526790104811
 21
2251.84890025518
 31
0.0
  0
LINE
  5
27B49
330
747D
100
AcDbEntity
  8
細線
100
AcDbLine
 10
6719.964962787694
 20
2446.84890025518
 30
0.0
 11
6459.964962787697
 21
2706.848900255176
 31
0.0
  0
LINE
  5
27B4A
330
747D
100
AcDbEntity
  8
細線
100
AcDbLine
 10
6775.119291720243
 20
2446.84890025518
 30
0.0
 11
6515.119291720246
 21
2706.848900255176
 31
0.0
  0
LINE
  5
27B4B
330
747D
100
AcDbEntity
  8
部品1
100
AcDbLine
 10
6790.110092596788
 20
2706.848900255176
 30
0.0
 11
6790.110092596788
 21
2446.84890025518
 31
0.0
  0
LINE
  5
27B4C
330
747D
100
AcDbEntity
  8
細線
100
AcDbLine
 10
6434.943487612835
 20
2316.848900255176
 30
0.0
 11
6417.52679010481
 21
2251.84890025518
 31
0.0
  0
LINE
  5
27B4D
330
747D
100
AcDbEntity
  8
細線
100
AcDbLine
 10
6564.943487612833
 20
2316.848900255176
 30
0.0
 11
6547.526790104814
 21
2251.84890025518
 31
0.0
  0
LINE
  5
27B4E
330
747D
100
AcDbEntity
  8
細線
100
AcDbLine
 10
6621.906678595526
 20
2316.848900255176
 30
0.0
 11
6751.906678595521
 21
2446.84890025518
 31
0.0
  0
LINE
  5
27B4F
330
747D
100
AcDbEntity
  8
細線
100
AcDbLine
 10
6658.676231217228
 20
2316.848900255176
 30
0.0
 11
6788.676231217221
 21
2446.84890025518
 31
0.0
  0
LINE
  5
27B50
330
747D
100
AcDbEntity
  8
細線
100
AcDbLine
 10
6694.943487612832
 20
2316.848900255176
 30
0.0
 11
6677.52679010481
 21
2251.84890025518
 31
0.0
  0
LINE
  5
27B51
330
747D
100
AcDbEntity
  8
細線
  6
HIDDEN
 48
10.0
100
AcDbLine
 10
8730.438977364995
 20
1926.848900255179
 30
0.0
 11
8880.294229792452
 21
2076.70415268264
 31
0.0
  0
LINE
  5
27B52
330
747D
100
AcDbEntity
  8
細線
  6
HIDDEN
 48
10.0
100
AcDbLine
 10
8693.669424743296
 20
1926.848900255179
 30
0.0
 11
8880.294229792456
 21
2113.473705304339
 31
0.0
  0
LINE
  5
27B53
330
747D
100
AcDbEntity
  8
細線
  6
HIDDEN
 48
10.0
100
AcDbLine
 10
8767.208529986699
 20
1926.848900255179
 30
0.0
 11
8880.294229792452
 21
2039.934600060937
 31
0.0
  0
LINE
  5
27B54
330
747D
100
AcDbEntity
  8
Ｇ．Ｌ
100
AcDbLine
 10
8685.294229792457
 20
2446.848900255176
 30
0.0
 11
9663.019344702298
 21
2446.848900255176
 31
0.0
  0
DIMENSION
  5
27B55
330
747D
100
AcDbEntity
  8
寸法
 48
50.0
100
AcDbDimension
  2
*D19
 10
9007.78653546097
 20
2446.848900255178
 30
0.0
 11
8907.786535460971
 21
2576.848900255179
 31
0.0
 70
    32
  1
a
 71
     5
 42
260.0
  3
INABA_S40G
100
AcDbAlignedDimension
 13
8685.294229792459
 23
2706.848900255178
 33
0.0
 14
8685.294229792459
 24
2446.848900255178
 34
0.0
 50
90.0
100
AcDbRotatedDimension
1001
ACAD
1000
DSTYLE
1002
{
1070
   174
1070
     0
1070
   272
1070
     1
1070
   288
1070
     0
1070
   341
1005
0
1002
}
  0
TEXT
  5
27B56
330
747D
100
AcDbEntity
  8
部品1
100
AcDbText
 10
7845.288278313922
 20
1486.57865362502
 30
0.0
 40
104.0
  1
a寸法：100～150mmに対応
  7
STYLE2
100
AcDbText
  0
LINE
  5
27B57
330
747D
100
AcDbEntity
  8
部品1
 48
50.0
100
AcDbLine
 10
8880.294229792452
 20
1926.848900255179
 30
0.0
 11
8360.294229792456
 21
1926.848900255176
 31
0.0
  0
DIMENSION
  5
27B58
330
747D
100
AcDbEntity
  8
寸法
 48
50.0
100
AcDbDimension
  2
*D20
 10
8043.965558594267
 20
1926.848900255176
 30
0.0
 11
8043.965558594267
 21
2170.760923305854
 31
0.0
 70
   160
  1
200
 71
     5
 42
520.0000000000017
  3
INABA_S40G
100
AcDbAlignedDimension
 13
8165.294229792456
 23
2446.848900255178
 33
0.0
 14
8360.294229792456
 24
1926.848900255176
 34
0.0
 50
90.0
100
AcDbRotatedDimension
1001
ACAD
1000
DSTYLE
1002
{
1070
   174
1070
     0
1070
   272
1070
     1
1070
   288
1070
     0
1070
   341
1005
0
1002
}
  0
LINE
  5
27B59
330
747D
100
AcDbEntity
  8
Ｇ．Ｌ
100
AcDbLine
 10
7755.463466575784
 20
2446.848900255176
 30
0.0
 11
8581.294229792456
 21
2446.848900255176
 31
0.0
  0
LINE
  5
27B5A
330
747D
100
AcDbEntity
  8
部品1
100
AcDbLine
 10
7755.463466575784
 20
2706.848900255176
 30
0.0
 11
8581.294229792456
 21
2706.848900255176
 31
0.0
  0
LINE
  5
27B5B
330
747D
100
AcDbEntity
  8
細線
  6
HIDDEN
 48
10.0
100
AcDbLine
 10
8360.294229792456
 20
2111.360058191314
 30
0.0
 11
8572.535253531659
 21
2323.60108193053
 31
0.0
  0
LINE
  5
27B5C
330
747D
100
AcDbEntity
  8
細線
  6
HIDDEN
 48
10.0
100
AcDbLine
 10
8360.294229792456
 20
2148.129610813014
 30
0.0
 11
8576.717223787245
 21
2364.552604807807
 31
0.0
  0
LINE
  5
27B5D
330
747D
100
AcDbEntity
  8
細線
  6
HIDDEN
 48
10.0
100
AcDbLine
 10
8360.294229792456
 20
2074.590505569615
 30
0.0
 11
8568.353283276069
 21
2282.649559053247
 31
0.0
  0
LINE
  5
27B5E
330
747D
100
AcDbEntity
  8
部品1
100
AcDbLine
 10
8580.128430081968
 20
2397.956499163749
 30
0.0
 11
8542.294229792457
 21
2027.468900255177
 31
0.0
  0
LINE
  5
27B5F
330
747D
100
AcDbEntity
  8
部品1
100
AcDbLine
 10
8686.460029502951
 20
2397.956499163749
 30
0.0
 11
8724.294229792457
 21
2027.468900255177
 31
0.0
  0
LINE
  5
27B60
330
747D
100
AcDbEntity
  8
部品1
 48
50.0
100
AcDbLine
 10
8360.294229792456
 20
1926.848900255176
 30
0.0
 11
8360.294229792456
 21
2446.848900255176
 31
0.0
  0
LINE
  5
27B61
330
747D
100
AcDbEntity
  8
部品1
100
AcDbLine
 10
8542.294229792457
 20
2027.468900255177
 30
0.0
 11
8724.294229792457
 21
2027.468900255177
 31
0.0
  0
LINE
  5
27B62
330
747D
100
AcDbEntity
  8
部品1
100
AcDbLine
 10
8542.294229792457
 20
2011.868900255176
 30
0.0
 11
8724.294229792457
 21
2011.868900255176
 31
0.0
  0
LINE
  5
27B63
330
747D
100
AcDbEntity
  8
部品1
100
AcDbLine
 10
8542.294229792457
 20
2027.468900255175
 30
0.0
 11
8542.294229792457
 21
2011.868900255176
 31
0.0
  0
LINE
  5
27B64
330
747D
100
AcDbEntity
  8
細線
100
AcDbLine
 10
8613.794229792457
 20
2043.068900255179
 30
0.0
 11
8652.794229792457
 21
2043.068900255173
 31
0.0
  0
LINE
  5
27B65
330
747D
100
AcDbEntity
  8
細線
100
AcDbLine
 10
8613.794229792457
 20
2050.86890025518
 30
0.0
 11
8652.794229792457
 21
2050.868900255173
 31
0.0
  0
LINE
  5
27B66
330
747D
100
AcDbEntity
  8
細線
100
AcDbLine
 10
8613.794229792457
 20
2102.86890025518
 30
0.0
 11
8652.794229792457
 21
2102.868900255173
 31
0.0
  0
LINE
  5
27B67
330
747D
100
AcDbEntity
  8
細線
100
AcDbLine
 10
8613.794229792457
 20
2095.068900255181
 30
0.0
 11
8652.794229792457
 21
2095.068900255174
 31
0.0
  0
LINE
  5
27B68
330
747D
100
AcDbEntity
  8
細線
100
AcDbLine
 10
8613.794229792457
 20
2050.86890025518
 30
0.0
 11
8613.794229792457
 21
2043.068900255173
 31
0.0
  0
LINE
  5
27B69
330
747D
100
AcDbEntity
  8
細線
100
AcDbLine
 10
8613.794229792457
 20
2102.86890025518
 30
0.0
 11
8613.794229792457
 21
2095.068900255174
 31
0.0
  0
LINE
  5
27B6A
330
747D
100
AcDbEntity
  8
細線
100
AcDbLine
 10
8652.794229792457
 20
2050.868900255173
 30
0.0
 11
8652.794229792457
 21
2043.068900255172
 31
0.0
  0
LINE
  5
27B6B
330
747D
100
AcDbEntity
  8
細線
100
AcDbLine
 10
8652.794229792457
 20
2102.868900255169
 30
0.0
 11
8652.794229792457
 21
2095.06890025517
 31
0.0
  0
LINE
  5
27B6C
330
747D
100
AcDbEntity
  8
部品1
100
AcDbLine
 10
8724.294229792457
 20
2027.468900255177
 30
0.0
 11
8724.294229792457
 21
2011.868900255176
 31
0.0
  0
LINE
  5
27B6D
330
747D
100
AcDbEntity
  8
細線
100
AcDbLine
 10
8571.28739226592
 20
2446.848900255176
 30
0.0
 11
8311.287392265921
 21
2706.848900255176
 31
0.0
  0
LINE
  5
27B6E
330
747D
100
AcDbEntity
  8
細線
100
AcDbLine
 10
8581.294229792456
 20
2491.996391661193
 30
0.0
 11
8366.441721198469
 21
2706.848900255176
 31
0.0
  0
LINE
  5
27B6F
330
747D
100
AcDbEntity
  8
細線
100
AcDbLine
 10
8332.285300224866
 20
2446.848900255176
 30
0.0
 11
8165.294229792456
 21
2613.839970687586
 31
0.0
  0
LINE
  5
27B70
330
747D
100
AcDbEntity
  8
部品1
100
AcDbLine
 10
8165.294229792456
 20
2446.848900255176
 30
0.0
 11
8165.294229792456
 21
2706.848900255176
 31
0.0
  0
LINE
  5
27B71
330
747D
100
AcDbEntity
  8
細線
100
AcDbLine
 10
8277.130971292313
 20
2446.848900255176
 30
0.0
 11
8165.294229792456
 21
2558.685641755037
 31
0.0
  0
LINE
  5
27B72
330
747D
100
AcDbEntity
  8
部品1
100
AcDbLine
 10
8593.064507116775
 20
2409.668900255176
 30
0.0
 11
8673.523952468139
 21
2409.668900255168
 31
0.0
  0
ARC
  5
27B73
330
747D
100
AcDbEntity
  8
部品1
100
AcDbCircle
 10
8593.064507116775
 20
2396.668900255176
 30
0.0
 40
13.0
100
AcDbArc
 50
90.0
 51
174.3157584018239
  0
CIRCLE
  5
27B74
330
747D
100
AcDbEntity
  8
細線
100
AcDbCircle
 10
8633.294229792456
 20
2380.548900255177
 30
0.0
 40
20.8
  0
LINE
  5
27B75
330
747D
100
AcDbEntity
  8
細線
100
AcDbLine
 10
8613.794229792457
 20
2290.068900255179
 30
0.0
 11
8615.094229792456
 21
2290.068900255179
 31
0.0
  0
LINE
  5
27B76
330
747D
100
AcDbEntity
  8
細線
100
AcDbLine
 10
8613.794229792457
 20
2297.86890025518
 30
0.0
 11
8652.794229792457
 21
2297.868900255173
 31
0.0
  0
ARC
  5
27B77
330
747D
100
AcDbEntity
  8
細線
100
AcDbCircle
 10
8633.294229792456
 20
2329.068900255172
 30
0.0
 40
10.4
100
AcDbArc
 50
180.0
 51
0.0
  0
LINE
  5
27B78
330
747D
100
AcDbEntity
  8
細線
100
AcDbLine
 10
8613.794229792457
 20
2297.86890025518
 30
0.0
 11
8613.794229792457
 21
2290.068900255174
 31
0.0
  0
LINE
  5
27B79
330
747D
100
AcDbEntity
  8
細線
100
AcDbLine
 10
8613.794229792457
 20
2296.048900255169
 30
0.0
 11
8652.794229792457
 21
2296.048900255177
 31
0.0
  0
LINE
  5
27B7A
330
747D
100
AcDbEntity
  8
細線
100
AcDbLine
 10
8623.054267105763
 20
2274.468900255164
 30
0.0
 11
8643.534192479156
 21
2274.468900255171
 31
0.0
  0
LINE
  5
27B7B
330
747D
100
AcDbEntity
  8
細線
100
AcDbLine
 10
8615.094229792456
 20
2296.048900255169
 30
0.0
 11
8615.094229792456
 21
2290.068900255174
 31
0.0
  0
LINE
  5
27B7C
330
747D
100
AcDbEntity
  8
細線
100
AcDbLine
 10
8615.094229792456
 20
2290.068900255172
 30
0.0
 11
8618.009526105009
 21
2278.407715004978
 31
0.0
  0
ARC
  5
27B7D
330
747D
100
AcDbEntity
  8
細線
100
AcDbCircle
 10
8623.054267105763
 20
2279.668900255169
 30
0.0
 40
5.2
100
AcDbArc
 50
194.0362434679821
 51
270.0
  0
LINE
  5
27B7E
330
747D
100
AcDbEntity
  8
細線
100
AcDbLine
 10
8651.494229792458
 20
2296.048900255173
 30
0.0
 11
8651.494229792458
 21
2290.068900255174
 31
0.0
  0
LINE
  5
27B7F
330
747D
100
AcDbEntity
  8
細線
100
AcDbLine
 10
8651.494229792458
 20
2290.068900255172
 30
0.0
 11
8648.578933479905
 21
2278.407715004978
 31
0.0
  0
ARC
  5
27B80
330
747D
100
AcDbEntity
  8
細線
100
AcDbCircle
 10
8643.534192479156
 20
2279.668900255169
 30
0.0
 40
5.2
100
AcDbArc
 50
270.0
 51
345.9637565320164
  0
LINE
  5
27B81
330
747D
100
AcDbEntity
  8
細線
100
AcDbLine
 10
8652.794229792457
 20
2297.868900255173
 30
0.0
 11
8652.794229792457
 21
2290.068900255172
 31
0.0
  0
LINE
  5
27B82
330
747D
100
AcDbEntity
  8
細線
100
AcDbLine
 10
8651.494229792458
 20
2290.068900255179
 30
0.0
 11
8652.794229792457
 21
2290.068900255174
 31
0.0
  0
LINE
  5
27B83
330
747D
100
AcDbEntity
  8
細線
100
AcDbLine
 10
8643.694229792455
 20
2362.535571856461
 30
0.0
 11
8643.694229792455
 21
2329.068900255172
 31
0.0
  0
LINE
  5
27B84
330
747D
100
AcDbEntity
  8
細線
100
AcDbLine
 10
8622.894229792459
 20
2362.535571856461
 30
0.0
 11
8622.894229792459
 21
2329.068900255172
 31
0.0
  0
LINE
  5
27B85
330
747D
100
AcDbEntity
  8
細線
  6
HIDDEN
 48
10.0
100
AcDbLine
 10
8685.294229792457
 20
2436.360058191331
 30
0.0
 11
8695.783071856306
 21
2446.848900255176
 31
0.0
  0
LINE
  5
27B86
330
747D
100
AcDbEntity
  8
細線
  6
HIDDEN
 48
10.0
100
AcDbLine
 10
8686.005909146409
 20
2400.302184923592
 30
0.0
 11
8732.552624477998
 21
2446.84890025518
 31
0.0
  0
ARC
  5
27B87
330
747D
100
AcDbEntity
  8
部品1
100
AcDbCircle
 10
8673.523952468139
 20
2396.668900255169
 30
0.0
 40
13.0
100
AcDbArc
 50
5.684241598176082
 51
90.0
  0
CIRCLE
  5
27B88
330
747D
100
AcDbEntity
  8
細線
100
AcDbCircle
 10
8633.294229792456
 20
2582.04890025518
 30
0.0
 40
7.8
  0
CIRCLE
  5
27B89
330
747D
100
AcDbEntity
  8
細線
100
AcDbCircle
 10
8633.294229792456
 20
2582.04890025518
 30
0.0
 40
9.099999999999999
  0
ARC
  5
27B8A
330
747D
100
AcDbEntity
  8
細線
100
AcDbCircle
 10
8633.294229792456
 20
2725.048900255177
 30
0.0
 40
10.4
100
AcDbArc
 50
0.0
 51
180.0
  0
ARC
  5
27B8B
330
747D
100
AcDbEntity
  8
細線
100
AcDbCircle
 10
8633.294229792456
 20
2673.048900255177
 30
0.0
 40
10.4
100
AcDbArc
 50
180.0
 51
0.0
  0
LINE
  5
27B8C
330
747D
100
AcDbEntity
  8
細線
100
AcDbLine
 10
8622.894229792459
 20
2725.048900255177
 30
0.0
 11
8622.894229792459
 21
2673.048900255177
 31
0.0
  0
LINE
  5
27B8D
330
747D
100
AcDbEntity
  8
細線
100
AcDbLine
 10
8643.694229792455
 20
2725.048900255177
 30
0.0
 11
8643.694229792455
 21
2673.048900255177
 31
0.0
  0
LINE
  5
27B8E
330
747D
100
AcDbEntity
  8
部品1
 48
50.0
100
AcDbLine
 10
8880.294229792456
 20
2446.848900255176
 30
0.0
 11
8880.294229792452
 21
1926.848900255179
 31
0.0
  0
TEXT
  5
27B8F
330
747D
100
AcDbEntity
  8
部品1
100
AcDbText
 10
9185.226840982949
 20
2457.126754437752
 30
0.0
 40
156.0
  1
▽G.L
  7
STYLE1
100
AcDbText
  0
LINE
  5
27B90
330
747D
100
AcDbEntity
  8
細線
 48
10.0
100
AcDbLine
 10
10080.88709845032
 20
2047.855243714108
 30
0.0
 11
10479.88075499137
 21
2446.848900255176
 31
0.0
  0
LINE
  5
27B91
330
747D
100
AcDbEntity
  8
細線
 48
10.0
100
AcDbLine
 10
10044.11754582862
 20
2047.855243714108
 30
0.0
 11
10443.11120236968
 21
2446.848900255176
 31
0.0
  0
LINE
  5
27B92
330
747D
100
AcDbEntity
  8
細線
 48
10.0
100
AcDbLine
 10
9839.435617892814
 20
2397.829221287004
 30
0.0
 11
9888.455296860994
 21
2446.848900255176
 31
0.0
  0
LINE
  5
27B93
330
747D
100
AcDbEntity
  8
細線
 48
10.0
100
AcDbLine
 10
9839.435617892821
 20
2324.290116043612
 30
0.0
 11
9961.994402104371
 21
2446.848900255176
 31
0.0
  0
LINE
  5
27B94
330
747D
100
AcDbEntity
  8
細線
 48
10.0
100
AcDbLine
 10
9839.435617892821
 20
2361.05966866531
 30
0.0
 11
9925.224849482679
 21
2446.848900255176
 31
0.0
  0
LINE
  5
27B95
330
747D
100
AcDbEntity
  8
細線
100
AcDbLine
 10
10361.10312260934
 20
2446.848900255176
 30
0.0
 11
10249.26638110948
 21
2558.685641755037
 31
0.0
  0
LINE
  5
27B96
330
747D
100
AcDbEntity
  8
細線
100
AcDbLine
 10
10416.25745154189
 20
2446.848900255176
 30
0.0
 11
10249.26638110948
 21
2613.839970687586
 31
0.0
  0
LINE
  5
27B97
330
747D
100
AcDbEntity
  8
部品1
100
AcDbLine
 10
10249.26638110948
 20
2446.848900255176
 30
0.0
 11
10249.26638110948
 21
2706.84890025518
 31
0.0
  0
TEXT
  5
27B98
330
747D
100
AcDbEntity
  8
部品1
100
AcDbText
 10
6193.054244156535
 20
3964.223758691715
 30
0.0
 40
156.0
  1
基礎詳細
  7
STYLE2
100
AcDbText
  0
TEXT
  5
27B99
330
747D
100
AcDbEntity
  8
部品1
100
AcDbText
 10
7943.573586720434
 20
3795.63052760346
 30
0.0
 40
156.0
  1
地盤が土の場合
  7
STYLE2
100
AcDbText
  0
LINE
  5
27B9A
330
747D
100
AcDbEntity
  8
部品1
100
AcDbLine
 10
7755.463466575784
 20
2829.048900255177
 30
0.0
 11
8685.294229792457
 21
2829.048900255177
 31
0.0
  0
LINE
  5
27B9B
330
747D
100
AcDbEntity
  8
部品1
100
AcDbLine
 10
7755.463466575784
 20
2836.84890025518
 30
0.0
 11
8542.294229792457
 21
2836.848900255178
 31
0.0
  0
LINE
  5
27B9C
330
747D
100
AcDbEntity
  8
細線
 48
50.0
100
AcDbLine
 10
7976.794229792457
 20
3486.848900255174
 30
0.0
 11
7976.794229792457
 21
2836.848900255178
 31
0.0
  0
LINE
  5
27B9D
330
747D
100
AcDbEntity
  8
細線
 48
50.0
100
AcDbLine
 10
8015.794229792456
 20
3486.848900255174
 30
0.0
 11
8015.794229792456
 21
2836.848900255178
 31
0.0
  0
LINE
  5
27B9E
330
747D
100
AcDbEntity
  8
細線
 48
50.0
100
AcDbLine
 10
8379.794229792457
 20
3486.848900255174
 30
0.0
 11
8379.794229792457
 21
2836.848900255178
 31
0.0
  0
LINE
  5
27B9F
330
747D
100
AcDbEntity
  8
細線
 48
50.0
100
AcDbLine
 10
8340.794229792455
 20
3486.848900255174
 30
0.0
 11
8340.794229792455
 21
2836.848900255178
 31
0.0
  0
LINE
  5
27BA0
330
747D
100
AcDbEntity
  8
部品1
100
AcDbLine
 10
8542.294229792457
 20
3486.848900255174
 30
0.0
 11
8542.29422979246
 21
2829.048900255181
 31
0.0
  0
LINE
  5
27BA1
330
747D
100
AcDbEntity
  8
部品1
100
AcDbLine
 10
8594.294229792456
 20
2803.048900255177
 30
0.0
 11
8672.294229792456
 21
2803.048900255177
 31
0.0
  0
ARC
  5
27BA2
330
747D
100
AcDbEntity
  8
部品1
100
AcDbCircle
 10
8594.294229792456
 20
2790.048900255177
 30
0.0
 40
13.0
100
AcDbArc
 50
90.0
 51
180.0
  0
ARC
  5
27BA3
330
747D
100
AcDbEntity
  8
部品1
100
AcDbCircle
 10
8672.294229792456
 20
2790.048900255177
 30
0.0
 40
13.0
100
AcDbArc
 50
0.0
 51
90.0
  0
LINE
  5
27BA4
330
747D
100
AcDbEntity
  8
細線
 48
50.0
100
AcDbLine
 10
10463.76638110948
 20
3486.848900255176
 30
0.0
 11
10463.76638110948
 21
2836.84890025518
 31
0.0
  0
LINE
  5
27BA5
330
747D
100
AcDbEntity
  8
細線
 48
50.0
100
AcDbLine
 10
10424.76638110948
 20
3486.848900255176
 30
0.0
 11
10424.76638110948
 21
2836.84890025518
 31
0.0
  0
LINE
  5
27BA6
330
747D
100
AcDbEntity
  8
細線
 48
50.0
100
AcDbLine
 10
10099.76638110948
 20
3486.848900255176
 30
0.0
 11
10099.76638110948
 21
2836.84890025518
 31
0.0
  0
LINE
  5
27BA7
330
747D
100
AcDbEntity
  8
細線
 48
50.0
100
AcDbLine
 10
10060.76638110948
 20
3486.848900255176
 30
0.0
 11
10060.76638110948
 21
2836.84890025518
 31
0.0
  0
LINE
  5
27BA8
330
747D
100
AcDbEntity
  8
部品1
 48
50.0
100
AcDbLine
 10
11827.77421685029
 20
3719.859876359897
 30
0.0
 11
11827.77421685029
 21
1223.859876359896
 31
0.0
  0
LINE
  5
27BA9
330
747D
100
AcDbEntity
  8
部品1
100
AcDbLine
 10
10770.43218081998
 20
2832.93649916375
 30
0.0
 11
10808.26638110948
 21
2462.448900255179
 31
0.0
  0
LINE
  5
27BAA
330
747D
100
AcDbEntity
  8
部品1
100
AcDbLine
 10
10664.100581399
 20
2832.93649916375
 30
0.0
 11
10626.26638110948
 21
2462.448900255179
 31
0.0
  0
CIRCLE
  5
27BAB
330
747D
100
AcDbEntity
  8
部品1
100
AcDbCircle
 10
10717.26638110948
 20
2764.048900255177
 30
0.0
 40
20.8
  0
LINE
  5
27BAC
330
747D
100
AcDbEntity
  8
細線
100
AcDbLine
 10
10706.86638110948
 20
2816.048900255175
 30
0.0
 11
10706.86638110948
 21
2782.062228653895
 31
0.0
  0
LINE
  5
27BAD
330
747D
100
AcDbEntity
  8
細線
100
AcDbLine
 10
10727.66638110948
 20
2816.048900255175
 30
0.0
 11
10727.66638110948
 21
2782.062228653895
 31
0.0
  0
LINE
  5
27BAE
330
747D
100
AcDbEntity
  8
細線
100
AcDbLine
 10
12590.93974822863
 20
2474.601081736379
 30
0.0
 11
12228.69192970982
 21
2836.848900255178
 31
0.0
  0
LINE
  5
27BAF
330
747D
100
AcDbEntity
  8
細線
100
AcDbLine
 10
12596.05022710035
 20
2524.6449317972
 30
0.0
 11
12283.84625864238
 21
2836.848900255178
 31
0.0
  0
LINE
  5
27BB0
330
747D
100
AcDbEntity
  8
部品1
100
AcDbLine
 10
12212.69876723636
 20
2446.848900255173
 30
0.0
 11
12212.69876723636
 21
2836.848900255178
 31
0.0
  0
DIMENSION
  5
27BB1
330
747D
100
AcDbEntity
  8
寸法
 48
50.0
100
AcDbDimension
  2
*D21
 10
12996.26940655118
 20
2446.848900255178
 30
0.0
 11
12896.26940655118
 21
2641.84890025518
 31
0.0
 70
    32
  1
c
 71
     5
 42
390.0
  3
INABA_S40G
100
AcDbAlignedDimension
 13
12732.84318671893
 23
2836.848900255178
 33
0.0
 14
12771.69876723636
 24
2446.848900255178
 34
0.0
 50
90.0
100
AcDbRotatedDimension
1001
ACAD
1000
DSTYLE
1002
{
1070
   174
1070
     0
1070
   272
1070
     1
1070
   288
1070
     0
1070
   341
1005
0
1002
}
  0
LINE
  5
27BB2
330
747D
100
AcDbEntity
  8
部品1
100
AcDbLine
 10
12627.53296752587
 20
2832.936499163747
 30
0.0
 11
12589.69876723636
 21
2462.448900255179
 31
0.0
  0
LINE
  5
27BB3
330
747D
100
AcDbEntity
  8
部品1
100
AcDbLine
 10
12733.86456694685
 20
2832.936499163747
 30
0.0
 11
12771.69876723636
 21
2462.448900255179
 31
0.0
  0
LINE
  5
27BB4
330
747D
100
AcDbEntity
  8
細線
100
AcDbLine
 10
12618.1956355445
 20
2741.501615394107
 30
0.0
 11
12522.84835068344
 21
2836.848900255178
 31
0.0
  0
LINE
  5
27BB5
330
747D
100
AcDbEntity
  8
細線
100
AcDbLine
 10
12670.29876723636
 20
2816.048900255173
 30
0.0
 11
12670.29876723636
 21
2781.542228653894
 31
0.0
  0
LINE
  5
27BB6
330
747D
100
AcDbEntity
  8
細線
100
AcDbLine
 10
12691.09876723636
 20
2816.048900255173
 30
0.0
 11
12691.09876723636
 21
2781.542228653894
 31
0.0
  0
CIRCLE
  5
27BB7
330
747D
100
AcDbEntity
  8
部品1
100
AcDbCircle
 10
12680.69876723636
 20
2763.528900255174
 30
0.0
 40
20.8
  0
LINE
  5
27BB8
330
747D
100
AcDbEntity
  8
部品1
 48
50.0
100
AcDbLine
 10
13907.77421685029
 20
4343.859876359898
 30
0.0
 11
13907.77421685029
 21
1223.859876359896
 31
0.0
  0
LINE
  5
27BB9
330
747D
100
AcDbEntity
  8
Ｇ．Ｌ
100
AcDbLine
 10
11923.06215139804
 20
2446.848900255176
 30
0.0
 11
13801.42136400473
 21
2446.848900255176
 31
0.0
  0
TEXT
  5
27BBA
330
747D
100
AcDbEntity
  8
部品1
100
AcDbText
 10
11890.82304915549
 20
1839.962519161138
 30
0.0
 40
104.0
  1
c寸法：135～175,190mmに対応
  7
STYLE2
100
AcDbText
  0
TEXT
  5
27BBB
330
747D
100
AcDbEntity
  8
部品1
100
AcDbText
 10
11896.14123097368
 20
1650.674640373258
 30
0.0
 40
104.0
  1
\U+203BオールアンカーM10(市販品)
  7
STYLE2
100
AcDbText
  0
TEXT
  5
27BBC
330
747D
100
AcDbEntity
  8
部品1
100
AcDbText
 10
11897.9139582464
 20
1456.068579767198
 30
0.0
 40
104.0
  1
  が4本必要になります。
  7
STYLE2
100
AcDbText
  0
LINE
  5
27BBD
330
747D
100
AcDbEntity
  8
細線
 48
10.0
100
AcDbLine
 10
11226.96846208935
 20
2047.855243714108
 30
0.0
 11
11625.96211863041
 21
2446.848900255176
 31
0.0
  0
LINE
  5
27BBE
330
747D
100
AcDbEntity
  8
細線
 48
10.0
100
AcDbLine
 10
11190.19890946765
 20
2047.855243714108
 30
0.0
 11
11589.19256600871
 21
2446.848900255176
 31
0.0
  0
LINE
  5
27BBF
330
747D
100
AcDbEntity
  8
細線
 48
10.0
100
AcDbLine
 10
11153.42935684595
 20
2047.855243714108
 30
0.0
 11
11552.42301338701
 21
2446.848900255176
 31
0.0
  0
TEXT
  5
27BC0
330
747D
100
AcDbEntity
  8
部品1
100
AcDbText
 10
11256.10234535837
 20
2457.126754437752
 30
0.0
 40
156.0
  1
▽G.L
  7
STYLE1
100
AcDbText
  0
LINE
  5
27BC1
330
747D
100
AcDbEntity
  8
細線
 48
10.0
100
AcDbLine
 10
10635.54300395899
 20
2047.855243714108
 30
0.0
 11
11034.53666050004
 21
2446.848900255176
 31
0.0
  0
LINE
  5
27BC2
330
747D
100
AcDbEntity
  8
細線
 48
10.0
100
AcDbLine
 10
10598.77345133729
 20
2047.855243714108
 30
0.0
 11
10997.76710787834
 21
2446.848900255176
 31
0.0
  0
LINE
  5
27BC3
330
747D
100
AcDbEntity
  8
細線
 48
10.0
100
AcDbLine
 10
10672.31255658069
 20
2047.855243714108
 30
0.0
 11
11071.30621312175
 21
2446.848900255176
 31
0.0
  0
DIMENSION
  5
27BC4
330
747D
100
AcDbEntity
  8
寸法
 48
50.0
100
AcDbDimension
  2
*D22
 10
11071.85959484842
 20
2446.848900255178
 30
0.0
 11
10971.85959484842
 21
2576.848900255181
 31
0.0
 70
    32
  1
b
 71
     5
 42
260.0000000000018
  3
INABA_S40G
100
AcDbAlignedDimension
 13
10782.98237314664
 23
2706.84890025518
 33
0.0
 14
10808.26638110948
 24
2446.848900255178
 34
0.0
 50
90.0
100
AcDbRotatedDimension
1001
ACAD
1000
DSTYLE
1002
{
1070
   174
1070
     0
1070
   272
1070
     1
1070
   288
1070
     0
1070
   341
1005
0
1002
}
  0
LINE
  5
27BC5
330
747D
100
AcDbEntity
  8
部品1
100
AcDbLine
 10
10704.26638110948
 20
2466.348900255176
 30
0.0
 11
10704.26638110948
 21
2514.448900255179
 31
0.0
  0
LINE
  5
27BC6
330
747D
100
AcDbEntity
  8
部品1
100
AcDbLine
 10
10730.26638110948
 20
2466.348900255176
 30
0.0
 11
10730.26638110948
 21
2514.448900255179
 31
0.0
  0
LINE
  5
27BC7
330
747D
100
AcDbEntity
  8
部品1
100
AcDbLine
 10
10626.26638110948
 20
2462.448900255179
 30
0.0
 11
10808.26638110948
 21
2462.448900255179
 31
0.0
  0
LINE
  5
27BC8
330
747D
100
AcDbEntity
  8
部品1
100
AcDbLine
 10
10626.26638110948
 20
2446.848900255176
 30
0.0
 11
10808.26638110948
 21
2446.848900255176
 31
0.0
  0
LINE
  5
27BC9
330
747D
100
AcDbEntity
  8
部品1
100
AcDbLine
 10
10678.26638110948
 20
2466.348900255176
 30
0.0
 11
10756.26638110948
 21
2466.348900255184
 31
0.0
  0
LINE
  5
27BCA
330
747D
100
AcDbEntity
  8
部品1
100
AcDbLine
 10
10695.16638110948
 20
2487.148900255179
 30
0.0
 11
10739.36638110948
 21
2487.148900255179
 31
0.0
  0
LINE
  5
27BCB
330
747D
100
AcDbEntity
  8
部品1
100
AcDbLine
 10
10691.26638110948
 20
2483.248900255181
 30
0.0
 11
10743.26638110948
 21
2483.248900255181
 31
0.0
  0
ARC
  5
27BCC
330
747D
100
AcDbEntity
  8
部品1
100
AcDbCircle
 10
10717.26638110948
 20
2455.833677068115
 30
0.0
 40
30.34129961614032
100
AcDbArc
 50
64.63020194521458
 51
115.3697980547854
  0
LINE
  5
27BCD
330
747D
100
AcDbEntity
  8
部品1
100
AcDbLine
 10
10696.46638110949
 20
2348.828900255178
 30
0.0
 11
10706.75131917931
 21
2347.286159544707
 31
0.0
  0
LINE
  5
27BCE
330
747D
100
AcDbEntity
  8
部品1
100
AcDbLine
 10
10697.62343664234
 20
2356.542603807549
 30
0.0
 11
10707.90837471217
 21
2354.999863097073
 31
0.0
  0
LINE
  5
27BCF
330
747D
100
AcDbEntity
  8
部品1
100
AcDbLine
 10
10698.78049217519
 20
2364.256307359923
 30
0.0
 11
10709.06543024502
 21
2362.713566649447
 31
0.0
  0
LINE
  5
27BD0
330
747D
100
AcDbEntity
  8
部品1
100
AcDbLine
 10
10699.93754770804
 20
2371.970010912292
 30
0.0
 11
10710.22248577788
 21
2370.427270201817
 31
0.0
  0
LINE
  5
27BD1
330
747D
100
AcDbEntity
  8
部品1
100
AcDbLine
 10
10701.0946032409
 20
2379.683714464667
 30
0.0
 11
10711.37954131073
 21
2378.140973754195
 31
0.0
  0
LINE
  5
27BD2
330
747D
100
AcDbEntity
  8
部品1
100
AcDbLine
 10
10702.25165877375
 20
2387.397418017037
 30
0.0
 11
10712.53659684358
 21
2385.854677306561
 31
0.0
  0
LINE
  5
27BD3
330
747D
100
AcDbEntity
  8
部品1
100
AcDbLine
 10
10703.40871430661
 20
2395.111121569411
 30
0.0
 11
10713.69365237644
 21
2393.568380858935
 31
0.0
  0
LINE
  5
27BD4
330
747D
100
AcDbEntity
  8
部品1
100
AcDbLine
 10
10626.26638110948
 20
2462.448900255179
 30
0.0
 11
10626.26638110948
 21
2446.848900255176
 31
0.0
  0
LINE
  5
27BD5
330
747D
100
AcDbEntity
  8
部品1
100
AcDbLine
 10
10697.76638110948
 20
2488.968900255182
 30
0.0
 11
10704.26638110948
 21
2488.968900255182
 31
0.0
  0
LINE
  5
27BD6
330
747D
100
AcDbEntity
  8
部品1
100
AcDbLine
 10
10697.76638110948
 20
2488.968900255182
 30
0.0
 11
10697.76638110948
 21
2487.148900255179
 31
0.0
  0
LINE
  5
27BD7
330
747D
100
AcDbEntity
  8
部品1
100
AcDbLine
 10
10691.26638110948
 20
2466.348900255176
 30
0.0
 11
10691.26638110948
 21
2483.248900255181
 31
0.0
  0
LINE
  5
27BD8
330
747D
100
AcDbEntity
  8
部品1
100
AcDbLine
 10
10695.16638110948
 20
2487.148900255179
 30
0.0
 11
10691.26638110948
 21
2483.248900255181
 31
0.0
  0
LINE
  5
27BD9
330
747D
100
AcDbEntity
  8
部品1
100
AcDbLine
 10
10678.26638110948
 20
2462.448900255179
 30
0.0
 11
10678.26638110948
 21
2466.348900255176
 31
0.0
  0
ARC
  5
27BDA
330
747D
100
AcDbEntity
  8
部品1
100
AcDbCircle
 10
10697.76638110948
 20
2477.379719027766
 30
0.0
 40
8.757698800495116
100
AcDbArc
 50
42.08048849858188
 51
137.9195115014181
  0
LINE
  5
27BDB
330
747D
100
AcDbEntity
  8
部品1
100
AcDbLine
 10
10704.26638110948
 20
2446.848900255176
 30
0.0
 11
10704.26638110948
 21
2400.828900255179
 31
0.0
  0
LINE
  5
27BDC
330
747D
100
AcDbEntity
  8
部品1
100
AcDbLine
 10
10704.26638110948
 20
2400.828900255179
 30
0.0
 11
10696.46638110949
 21
2348.828900255178
 31
0.0
  0
LINE
  5
27BDD
330
747D
100
AcDbEntity
  8
部品1
100
AcDbLine
 10
10808.26638110948
 20
2462.448900255179
 30
0.0
 11
10808.26638110948
 21
2446.848900255176
 31
0.0
  0
LINE
  5
27BDE
330
747D
100
AcDbEntity
  8
部品1
100
AcDbLine
 10
10736.76638110948
 20
2488.968900255175
 30
0.0
 11
10736.76638110948
 21
2487.148900255179
 31
0.0
  0
LINE
  5
27BDF
330
747D
100
AcDbEntity
  8
部品1
100
AcDbLine
 10
10743.26638110948
 20
2466.348900255184
 30
0.0
 11
10743.26638110948
 21
2483.248900255181
 31
0.0
  0
LINE
  5
27BE0
330
747D
100
AcDbEntity
  8
部品1
100
AcDbLine
 10
10739.36638110948
 20
2487.148900255179
 30
0.0
 11
10743.26638110948
 21
2483.248900255181
 31
0.0
  0
LINE
  5
27BE1
330
747D
100
AcDbEntity
  8
部品1
100
AcDbLine
 10
10756.26638110948
 20
2462.448900255179
 30
0.0
 11
10756.26638110948
 21
2466.348900255191
 31
0.0
  0
LINE
  5
27BE2
330
747D
100
AcDbEntity
  8
部品1
100
AcDbLine
 10
10730.26638110948
 20
2488.968900255182
 30
0.0
 11
10736.76638110948
 21
2488.968900255182
 31
0.0
  0
ARC
  5
27BE3
330
747D
100
AcDbEntity
  8
部品1
100
AcDbCircle
 10
10736.76638110948
 20
2477.379719027766
 30
0.0
 40
8.757698800495116
100
AcDbArc
 50
42.08048849858188
 51
137.9195115014181
  0
LINE
  5
27BE4
330
747D
100
AcDbEntity
  8
部品1
100
AcDbLine
 10
10730.26638110948
 20
2446.848900255176
 30
0.0
 11
10730.26638110948
 21
2400.828900255179
 31
0.0
  0
LINE
  5
27BE5
330
747D
100
AcDbEntity
  8
部品1
100
AcDbLine
 10
10714.78273028588
 20
2400.828900255179
 30
0.0
 11
10719.75003193308
 21
2400.828900255179
 31
0.0
  0
LINE
  5
27BE6
330
747D
100
AcDbEntity
  8
部品1
100
AcDbLine
 10
10738.06638110948
 20
2348.828900255178
 30
0.0
 11
10730.26638110948
 21
2400.828900255179
 31
0.0
  0
LINE
  5
27BE7
330
747D
100
AcDbEntity
  8
部品1
100
AcDbLine
 10
10714.78273028588
 20
2400.828900255179
 30
0.0
 11
10706.75131917931
 21
2347.286159544707
 31
0.0
  0
LINE
  5
27BE8
330
747D
100
AcDbEntity
  8
部品1
100
AcDbLine
 10
10727.78144303965
 20
2347.286159544707
 30
0.0
 11
10719.75003193308
 21
2400.828900255179
 31
0.0
  0
LINE
  5
27BE9
330
747D
100
AcDbEntity
  8
部品1
100
AcDbLine
 10
10727.78144303965
 20
2347.286159544707
 30
0.0
 11
10738.06638110948
 21
2348.828900255178
 31
0.0
  0
LINE
  5
27BEA
330
747D
100
AcDbEntity
  8
部品1
100
AcDbLine
 10
10726.62438750679
 20
2354.999863097073
 30
0.0
 11
10736.90932557663
 21
2356.542603807549
 31
0.0
  0
LINE
  5
27BEB
330
747D
100
AcDbEntity
  8
部品1
100
AcDbLine
 10
10725.46733197395
 20
2362.713566649447
 30
0.0
 11
10735.75227004377
 21
2364.256307359923
 31
0.0
  0
LINE
  5
27BEC
330
747D
100
AcDbEntity
  8
部品1
100
AcDbLine
 10
10724.31027644109
 20
2370.427270201817
 30
0.0
 11
10734.59521451092
 21
2371.970010912292
 31
0.0
  0
LINE
  5
27BED
330
747D
100
AcDbEntity
  8
部品1
100
AcDbLine
 10
10723.15322090824
 20
2378.140973754195
 30
0.0
 11
10733.43815897807
 21
2379.683714464667
 31
0.0
  0
LINE
  5
27BEE
330
747D
100
AcDbEntity
  8
部品1
100
AcDbLine
 10
10721.99616537538
 20
2385.854677306561
 30
0.0
 11
10732.28110344521
 21
2387.397418017037
 31
0.0
  0
LINE
  5
27BEF
330
747D
100
AcDbEntity
  8
部品1
100
AcDbLine
 10
10720.83910984253
 20
2393.568380858935
 30
0.0
 11
10731.12404791235
 21
2395.111121569411
 31
0.0
  0
LINE
  5
27BF0
330
747D
100
AcDbEntity
  8
部品1
100
AcDbLine
 10
10697.76638110948
 20
2533.168900255183
 30
0.0
 11
10736.76638110948
 21
2533.168900255183
 31
0.0
  0
LINE
  5
27BF1
330
747D
100
AcDbEntity
  8
部品1
100
AcDbLine
 10
10697.76638110948
 20
2540.968900255182
 30
0.0
 11
10736.76638110948
 21
2540.968900255182
 31
0.0
  0
LINE
  5
27BF2
330
747D
100
AcDbEntity
  8
部品1
100
AcDbLine
 10
10704.26638110948
 20
2514.448900255179
 30
0.0
 11
10730.26638110948
 21
2514.448900255179
 31
0.0
  0
LINE
  5
27BF3
330
747D
100
AcDbEntity
  8
細線
100
AcDbLine
 10
10697.76638110948
 20
2732.84890025518
 30
0.0
 11
10736.76638110948
 21
2732.84890025518
 31
0.0
  0
LINE
  5
27BF4
330
747D
100
AcDbEntity
  8
細線
100
AcDbLine
 10
10697.76638110948
 20
2725.04890025518
 30
0.0
 11
10736.76638110948
 21
2725.04890025518
 31
0.0
  0
LINE
  5
27BF5
330
747D
100
AcDbEntity
  8
部品1
100
AcDbLine
 10
10697.76638110948
 20
2540.968900255182
 30
0.0
 11
10697.76638110948
 21
2533.168900255183
 31
0.0
  0
LINE
  5
27BF6
330
747D
100
AcDbEntity
  8
細線
100
AcDbLine
 10
10697.76638110948
 20
2732.84890025518
 30
0.0
 11
10697.76638110948
 21
2725.04890025518
 31
0.0
  0
LINE
  5
27BF7
330
747D
100
AcDbEntity
  8
部品1
100
AcDbLine
 10
10736.76638110948
 20
2540.968900255175
 30
0.0
 11
10736.76638110948
 21
2533.168900255176
 31
0.0
  0
LINE
  5
27BF8
330
747D
100
AcDbEntity
  8
部品1
100
AcDbLine
 10
10708.16638110948
 20
2530.377665085936
 30
0.0
 11
10726.36638110948
 21
2530.377665085936
 31
0.0
  0
LINE
  5
27BF9
330
747D
100
AcDbEntity
  8
部品1
100
AcDbLine
 10
10710.76638110948
 20
2514.448900255179
 30
0.0
 11
10710.76638110948
 21
2525.177665085936
 31
0.0
  0
LINE
  5
27BFA
330
747D
100
AcDbEntity
  8
部品1
100
AcDbLine
 10
10723.76638110948
 20
2514.448900255179
 30
0.0
 11
10723.76638110948
 21
2525.177665085936
 31
0.0
  0
LINE
  5
27BFB
330
747D
100
AcDbEntity
  8
部品1
100
AcDbLine
 10
10708.16638110948
 20
2525.177665085936
 30
0.0
 11
10708.16638110948
 21
2530.377665085936
 31
0.0
  0
LINE
  5
27BFC
330
747D
100
AcDbEntity
  8
部品1
100
AcDbLine
 10
10726.36638110948
 20
2525.177665085936
 30
0.0
 11
10726.36638110948
 21
2530.377665085936
 31
0.0
  0
LINE
  5
27BFD
330
747D
100
AcDbEntity
  8
部品1
100
AcDbLine
 10
10708.16638110948
 20
2525.177665085936
 30
0.0
 11
10726.36638110948
 21
2525.177665085936
 31
0.0
  0
LINE
  5
27BFE
330
747D
100
AcDbEntity
  8
細線
100
AcDbLine
 10
10736.76638110948
 20
2732.848900255172
 30
0.0
 11
10736.76638110948
 21
2725.048900255173
 31
0.0
  0
LINE
  5
27BFF
330
747D
100
AcDbEntity
  8
細線
 48
10.0
100
AcDbLine
 10
11923.06215139804
 20
2290.157147871592
 30
0.0
 11
12079.75390378161
 21
2446.848900255176
 31
0.0
  0
LINE
  5
27C00
330
747D
100
AcDbEntity
  8
細線
 48
10.0
100
AcDbLine
 10
11923.06215139804
 20
2326.92670049329
 30
0.0
 11
12042.98435115992
 21
2446.848900255176
 31
0.0
  0
LINE
  5
27C01
330
747D
100
AcDbEntity
  8
細線
 48
10.0
100
AcDbLine
 10
11923.06215139804
 20
2363.69625311498
 30
0.0
 11
12006.21479853823
 21
2446.848900255176
 31
0.0
  0
LINE
  5
27C02
330
747D
100
AcDbEntity
  8
細線
 48
10.0
100
AcDbLine
 10
12790.07205825793
 20
2047.855243714108
 30
0.0
 11
13189.06571479899
 21
2446.84890025518
 31
0.0
  0
LINE
  5
27C03
330
747D
100
AcDbEntity
  8
細線
 48
10.0
100
AcDbLine
 10
12753.30250563623
 20
2047.855243714108
 30
0.0
 11
13152.29616217729
 21
2446.848900255176
 31
0.0
  0
LINE
  5
27C04
330
747D
100
AcDbEntity
  8
細線
 48
10.0
100
AcDbLine
 10
12716.53295301454
 20
2047.855243714108
 30
0.0
 11
13115.52660955559
 21
2446.848900255176
 31
0.0
  0
LINE
  5
27C05
330
747D
100
AcDbEntity
  8
細線
 48
10.0
100
AcDbLine
 10
12161.87704750587
 20
2047.855243714108
 30
0.0
 11
12560.87070404692
 21
2446.84890025518
 31
0.0
  0
LINE
  5
27C06
330
747D
100
AcDbEntity
  8
細線
 48
10.0
100
AcDbLine
 10
12198.64660012756
 20
2047.855243714108
 30
0.0
 11
12597.64025666861
 21
2446.848900255176
 31
0.0
  0
LINE
  5
27C07
330
747D
100
AcDbEntity
  8
細線
 48
10.0
100
AcDbLine
 10
12235.41615274927
 20
2047.855243714108
 30
0.0
 11
12634.4098092903
 21
2446.848900255176
 31
0.0
  0
LINE
  5
27C08
330
747D
100
AcDbEntity
  8
細線
100
AcDbLine
 10
12379.68983766877
 20
2446.848900255176
 30
0.0
 11
12212.69876723636
 21
2613.839970687586
 31
0.0
  0
LINE
  5
27C09
330
747D
100
AcDbEntity
  8
細線
100
AcDbLine
 10
12324.53550873622
 20
2446.848900255176
 30
0.0
 11
12212.69876723636
 21
2558.685641755037
 31
0.0
  0
LINE
  5
27C0A
330
747D
100
AcDbEntity
  8
部品1
100
AcDbLine
 10
12693.69876723636
 20
2466.348900255176
 30
0.0
 11
12693.69876723636
 21
2514.448900255179
 31
0.0
  0
LINE
  5
27C0B
330
747D
100
AcDbEntity
  8
部品1
100
AcDbLine
 10
12667.69876723636
 20
2466.348900255176
 30
0.0
 11
12667.69876723636
 21
2514.448900255179
 31
0.0
  0
LINE
  5
27C0C
330
747D
100
AcDbEntity
  8
部品1
100
AcDbLine
 10
12589.69876723636
 20
2462.448900255179
 30
0.0
 11
12771.69876723636
 21
2462.448900255179
 31
0.0
  0
LINE
  5
27C0D
330
747D
100
AcDbEntity
  8
部品1
100
AcDbLine
 10
12589.69876723636
 20
2446.848900255176
 30
0.0
 11
12771.69876723636
 21
2446.848900255176
 31
0.0
  0
LINE
  5
27C0E
330
747D
100
AcDbEntity
  8
部品1
100
AcDbLine
 10
12691.21382916653
 20
2347.286159544703
 30
0.0
 11
12683.18241805996
 21
2400.828900255176
 31
0.0
  0
LINE
  5
27C0F
330
747D
100
AcDbEntity
  8
部品1
100
AcDbLine
 10
12678.21511641276
 20
2400.828900255176
 30
0.0
 11
12670.18370530619
 21
2347.286159544703
 31
0.0
  0
LINE
  5
27C10
330
747D
100
AcDbEntity
  8
部品1
100
AcDbLine
 10
12701.49876723636
 20
2348.828900255176
 30
0.0
 11
12693.69876723636
 21
2400.828900255176
 31
0.0
  0
LINE
  5
27C11
330
747D
100
AcDbEntity
  8
部品1
100
AcDbLine
 10
12667.69876723636
 20
2400.828900255176
 30
0.0
 11
12659.89876723636
 21
2348.828900255176
 31
0.0
  0
LINE
  5
27C12
330
747D
100
AcDbEntity
  8
部品1
100
AcDbLine
 10
12688.89971810082
 20
2362.713566649443
 30
0.0
 11
12699.18465617065
 21
2364.256307359919
 31
0.0
  0
LINE
  5
27C13
330
747D
100
AcDbEntity
  8
部品1
100
AcDbLine
 10
12690.05677363367
 20
2354.999863097073
 30
0.0
 11
12700.3417117035
 21
2356.542603807549
 31
0.0
  0
LINE
  5
27C14
330
747D
100
AcDbEntity
  8
部品1
100
AcDbLine
 10
12662.21287830207
 20
2364.256307359919
 30
0.0
 11
12672.4978163719
 21
2362.713566649443
 31
0.0
  0
LINE
  5
27C15
330
747D
100
AcDbEntity
  8
部品1
100
AcDbLine
 10
12661.05582276921
 20
2356.542603807549
 30
0.0
 11
12671.34076083905
 21
2354.999863097073
 31
0.0
  0
LINE
  5
27C16
330
747D
100
AcDbEntity
  8
部品1
100
AcDbLine
 10
12691.21382916653
 20
2347.286159544703
 30
0.0
 11
12701.49876723636
 21
2348.828900255176
 31
0.0
  0
LINE
  5
27C17
330
747D
100
AcDbEntity
  8
部品1
100
AcDbLine
 10
12659.89876723636
 20
2348.828900255176
 30
0.0
 11
12670.18370530619
 21
2347.286159544703
 31
0.0
  0
LINE
  5
27C18
330
747D
100
AcDbEntity
  8
部品1
100
AcDbLine
 10
12589.69876723636
 20
2462.448900255179
 30
0.0
 11
12589.69876723636
 21
2446.848900255176
 31
0.0
  0
LINE
  5
27C19
330
747D
100
AcDbEntity
  8
部品1
100
AcDbLine
 10
12661.19876723636
 20
2488.968900255179
 30
0.0
 11
12667.69876723636
 21
2488.968900255179
 31
0.0
  0
LINE
  5
27C1A
330
747D
100
AcDbEntity
  8
部品1
100
AcDbLine
 10
12661.19876723636
 20
2488.968900255179
 30
0.0
 11
12661.19876723636
 21
2487.148900255172
 31
0.0
  0
LINE
  5
27C1B
330
747D
100
AcDbEntity
  8
部品1
100
AcDbLine
 10
12700.19876723636
 20
2488.968900255175
 30
0.0
 11
12700.19876723636
 21
2487.148900255177
 31
0.0
  0
LINE
  5
27C1C
330
747D
100
AcDbEntity
  8
部品1
100
AcDbLine
 10
12661.19876723636
 20
2487.148900255177
 30
0.0
 11
12700.19876723636
 21
2487.148900255177
 31
0.0
  0
LINE
  5
27C1D
330
747D
100
AcDbEntity
  8
部品1
100
AcDbLine
 10
12684.2714959694
 20
2393.568380858931
 30
0.0
 11
12694.55643403923
 21
2395.111121569407
 31
0.0
  0
LINE
  5
27C1E
330
747D
100
AcDbEntity
  8
部品1
100
AcDbLine
 10
12685.42855150226
 20
2385.854677306561
 30
0.0
 11
12695.71348957209
 21
2387.397418017037
 31
0.0
  0
LINE
  5
27C1F
330
747D
100
AcDbEntity
  8
部品1
100
AcDbLine
 10
12686.58560703511
 20
2378.140973754193
 30
0.0
 11
12696.87054510495
 21
2379.683714464663
 31
0.0
  0
LINE
  5
27C20
330
747D
100
AcDbEntity
  8
部品1
100
AcDbLine
 10
12687.74266256796
 20
2370.427270201817
 30
0.0
 11
12698.0276006378
 21
2371.97001091229
 31
0.0
  0
LINE
  5
27C21
330
747D
100
AcDbEntity
  8
部品1
100
AcDbLine
 10
12666.84110043349
 20
2395.111121569407
 30
0.0
 11
12677.12603850331
 21
2393.568380858931
 31
0.0
  0
LINE
  5
27C22
330
747D
100
AcDbEntity
  8
部品1
100
AcDbLine
 10
12665.68404490063
 20
2387.397418017037
 30
0.0
 11
12675.96898297046
 21
2385.854677306561
 31
0.0
  0
LINE
  5
27C23
330
747D
100
AcDbEntity
  8
部品1
100
AcDbLine
 10
12664.52698936778
 20
2379.683714464663
 30
0.0
 11
12674.81192743761
 21
2378.140973754193
 31
0.0
  0
LINE
  5
27C24
330
747D
100
AcDbEntity
  8
部品1
100
AcDbLine
 10
12663.36993383492
 20
2371.97001091229
 30
0.0
 11
12673.65487190476
 21
2370.427270201817
 31
0.0
  0
LINE
  5
27C25
330
747D
100
AcDbEntity
  8
部品1
100
AcDbLine
 10
12678.21511641276
 20
2400.828900255176
 30
0.0
 11
12683.18241805996
 21
2400.828900255176
 31
0.0
  0
LINE
  5
27C26
330
747D
100
AcDbEntity
  8
部品1
100
AcDbLine
 10
12693.69876723636
 20
2446.848900255176
 30
0.0
 11
12693.69876723636
 21
2400.828900255176
 31
0.0
  0
LINE
  5
27C27
330
747D
100
AcDbEntity
  8
部品1
100
AcDbLine
 10
12667.69876723636
 20
2446.848900255176
 30
0.0
 11
12667.69876723636
 21
2400.828900255176
 31
0.0
  0
ARC
  5
27C28
330
747D
100
AcDbEntity
  8
部品1
100
AcDbCircle
 10
12680.69876723636
 20
2455.833677068115
 30
0.0
 40
30.34129961614032
100
AcDbArc
 50
64.63020194521458
 51
115.3697980547854
  0
ARC
  5
27C29
330
747D
100
AcDbEntity
  8
部品1
100
AcDbCircle
 10
12700.19876723636
 20
2477.379719027764
 30
0.0
 40
8.757698800495116
100
AcDbArc
 50
42.08048849858188
 51
137.9195115014181
  0
ARC
  5
27C2A
330
747D
100
AcDbEntity
  8
部品1
100
AcDbCircle
 10
12661.19876723636
 20
2477.379719027764
 30
0.0
 40
8.757698800495116
100
AcDbArc
 50
42.08048849858188
 51
137.9195115014181
  0
LINE
  5
27C2B
330
747D
100
AcDbEntity
  8
部品1
100
AcDbLine
 10
12654.69876723636
 20
2483.248900255178
 30
0.0
 11
12706.69876723636
 21
2483.248900255178
 31
0.0
  0
LINE
  5
27C2C
330
747D
100
AcDbEntity
  8
部品1
100
AcDbLine
 10
12693.69876723636
 20
2488.968900255179
 30
0.0
 11
12700.19876723636
 21
2488.968900255179
 31
0.0
  0
LINE
  5
27C2D
330
747D
100
AcDbEntity
  8
部品1
100
AcDbLine
 10
12661.19876723636
 20
2488.968900255179
 30
0.0
 11
12667.69876723636
 21
2488.968900255179
 31
0.0
  0
LINE
  5
27C2E
330
747D
100
AcDbEntity
  8
部品1
100
AcDbLine
 10
12706.69876723636
 20
2466.348900255184
 30
0.0
 11
12706.69876723636
 21
2483.248900255178
 31
0.0
  0
LINE
  5
27C2F
330
747D
100
AcDbEntity
  8
部品1
100
AcDbLine
 10
12654.69876723636
 20
2466.348900255176
 30
0.0
 11
12654.69876723636
 21
2483.248900255178
 31
0.0
  0
LINE
  5
27C30
330
747D
100
AcDbEntity
  8
部品1
100
AcDbLine
 10
12719.69876723636
 20
2462.448900255179
 30
0.0
 11
12719.69876723636
 21
2466.348900255187
 31
0.0
  0
LINE
  5
27C31
330
747D
100
AcDbEntity
  8
部品1
100
AcDbLine
 10
12641.69876723636
 20
2462.448900255179
 30
0.0
 11
12641.69876723636
 21
2466.348900255176
 31
0.0
  0
LINE
  5
27C32
330
747D
100
AcDbEntity
  8
部品1
100
AcDbLine
 10
12641.69876723636
 20
2466.348900255176
 30
0.0
 11
12719.69876723636
 21
2466.348900255184
 31
0.0
  0
LINE
  5
27C33
330
747D
100
AcDbEntity
  8
部品1
100
AcDbLine
 10
12700.19876723636
 20
2488.968900255175
 30
0.0
 11
12700.19876723636
 21
2487.148900255177
 31
0.0
  0
LINE
  5
27C34
330
747D
100
AcDbEntity
  8
部品1
100
AcDbLine
 10
12661.19876723636
 20
2488.968900255179
 30
0.0
 11
12661.19876723636
 21
2487.148900255177
 31
0.0
  0
LINE
  5
27C35
330
747D
100
AcDbEntity
  8
部品1
100
AcDbLine
 10
12702.79876723636
 20
2487.148900255177
 30
0.0
 11
12706.69876723636
 21
2483.248900255178
 31
0.0
  0
LINE
  5
27C36
330
747D
100
AcDbEntity
  8
部品1
100
AcDbLine
 10
12658.59876723636
 20
2487.148900255177
 30
0.0
 11
12702.79876723636
 21
2487.148900255177
 31
0.0
  0
LINE
  5
27C37
330
747D
100
AcDbEntity
  8
部品1
100
AcDbLine
 10
12658.59876723636
 20
2487.148900255177
 30
0.0
 11
12654.69876723636
 21
2483.248900255178
 31
0.0
  0
LINE
  5
27C38
330
747D
100
AcDbEntity
  8
部品1
100
AcDbLine
 10
12693.69876723636
 20
2488.968900255179
 30
0.0
 11
12700.19876723636
 21
2488.968900255179
 31
0.0
  0
LINE
  5
27C39
330
747D
100
AcDbEntity
  8
部品1
100
AcDbLine
 10
12771.69876723636
 20
2462.448900255179
 30
0.0
 11
12771.69876723636
 21
2446.848900255176
 31
0.0
  0
LINE
  5
27C3A
330
747D
100
AcDbEntity
  8
部品1
100
AcDbLine
 10
12661.19876723636
 20
2533.16890025518
 30
0.0
 11
12700.19876723636
 21
2533.16890025518
 31
0.0
  0
LINE
  5
27C3B
330
747D
100
AcDbEntity
  8
部品1
100
AcDbLine
 10
12661.19876723636
 20
2540.968900255179
 30
0.0
 11
12700.19876723636
 21
2540.968900255179
 31
0.0
  0
LINE
  5
27C3C
330
747D
100
AcDbEntity
  8
部品1
100
AcDbLine
 10
12661.19876723636
 20
2540.968900255179
 30
0.0
 11
12661.19876723636
 21
2533.16890025518
 31
0.0
  0
LINE
  5
27C3D
330
747D
100
AcDbEntity
  8
部品1
100
AcDbLine
 10
12700.19876723636
 20
2540.968900255175
 30
0.0
 11
12700.19876723636
 21
2533.168900255176
 31
0.0
  0
LINE
  5
27C3E
330
747D
100
AcDbEntity
  8
部品1
100
AcDbLine
 10
12689.79876723636
 20
2525.177665085936
 30
0.0
 11
12689.79876723636
 21
2530.377665085934
 31
0.0
  0
LINE
  5
27C3F
330
747D
100
AcDbEntity
  8
部品1
100
AcDbLine
 10
12671.59876723636
 20
2525.177665085936
 30
0.0
 11
12671.59876723636
 21
2530.377665085934
 31
0.0
  0
LINE
  5
27C40
330
747D
100
AcDbEntity
  8
部品1
100
AcDbLine
 10
12687.19876723636
 20
2514.448900255179
 30
0.0
 11
12687.19876723636
 21
2525.177665085936
 31
0.0
  0
LINE
  5
27C41
330
747D
100
AcDbEntity
  8
部品1
100
AcDbLine
 10
12674.19876723636
 20
2514.448900255179
 30
0.0
 11
12674.19876723636
 21
2525.177665085936
 31
0.0
  0
LINE
  5
27C42
330
747D
100
AcDbEntity
  8
部品1
100
AcDbLine
 10
12671.59876723636
 20
2525.177665085936
 30
0.0
 11
12689.79876723636
 21
2525.177665085936
 31
0.0
  0
LINE
  5
27C43
330
747D
100
AcDbEntity
  8
部品1
100
AcDbLine
 10
12667.69876723636
 20
2514.448900255179
 30
0.0
 11
12693.69876723636
 21
2514.448900255179
 31
0.0
  0
LINE
  5
27C44
330
747D
100
AcDbEntity
  8
部品1
100
AcDbLine
 10
12671.59876723636
 20
2530.377665085934
 30
0.0
 11
12689.79876723636
 21
2530.377665085934
 31
0.0
  0
LINE
  5
27C45
330
747D
100
AcDbEntity
  8
部品1
100
AcDbLine
 10
12700.19876723636
 20
2540.968900255175
 30
0.0
 11
12700.19876723636
 21
2533.168900255176
 31
0.0
  0
LINE
  5
27C46
330
747D
100
AcDbEntity
  8
部品1
100
AcDbLine
 10
12661.19876723636
 20
2540.968900255179
 30
0.0
 11
12661.19876723636
 21
2533.16890025518
 31
0.0
  0
LINE
  5
27C47
330
747D
100
AcDbEntity
  8
部品1
100
AcDbLine
 10
12661.19876723636
 20
2540.968900255179
 30
0.0
 11
12700.19876723636
 21
2540.968900255179
 31
0.0
  0
LINE
  5
27C48
330
747D
100
AcDbEntity
  8
部品1
100
AcDbLine
 10
12661.19876723636
 20
2533.16890025518
 30
0.0
 11
12700.19876723636
 21
2533.16890025518
 31
0.0
  0
LINE
  5
27C49
330
747D
100
AcDbEntity
  8
細線
100
AcDbLine
 10
12661.19876723636
 20
2725.048900255177
 30
0.0
 11
12700.19876723636
 21
2725.048900255177
 31
0.0
  0
LINE
  5
27C4A
330
747D
100
AcDbEntity
  8
細線
100
AcDbLine
 10
12661.19876723636
 20
2732.848900255176
 30
0.0
 11
12700.19876723636
 21
2732.848900255176
 31
0.0
  0
LINE
  5
27C4B
330
747D
100
AcDbEntity
  8
細線
100
AcDbLine
 10
12661.19876723636
 20
2732.848900255176
 30
0.0
 11
12661.19876723636
 21
2725.048900255177
 31
0.0
  0
LINE
  5
27C4C
330
747D
100
AcDbEntity
  8
細線
100
AcDbLine
 10
12700.19876723636
 20
2732.848900255172
 30
0.0
 11
12700.19876723636
 21
2725.048900255173
 31
0.0
  0
LINE
  5
27C4D
330
747D
100
AcDbEntity
  8
細線
 48
10.0
100
AcDbLine
 10
13344.7279637666
 20
2047.855243714108
 30
0.0
 11
13743.72162030767
 21
2446.848900255176
 31
0.0
  0
LINE
  5
27C4E
330
747D
100
AcDbEntity
  8
細線
 48
10.0
100
AcDbLine
 10
13307.9584111449
 20
2047.855243714108
 30
0.0
 11
13706.95206768595
 21
2446.848900255176
 31
0.0
  0
LINE
  5
27C4F
330
747D
100
AcDbEntity
  8
細線
 48
10.0
100
AcDbLine
 10
13271.1888585232
 20
2047.855243714108
 30
0.0
 11
13670.18251506426
 21
2446.848900255176
 31
0.0
  0
TEXT
  5
27C50
330
747D
100
AcDbEntity
  8
部品1
100
AcDbText
 10
13317.79007228368
 20
2457.126754437752
 30
0.0
 40
156.0
  1
▽G.L
  7
STYLE1
100
AcDbText
  0
LINE
  5
27C51
330
747D
100
AcDbEntity
  8
部品1
100
AcDbLine
 10
11923.06215139804
 20
2836.848900255178
 30
0.0
 11
12628.55434775379
 21
2836.84890025518
 31
0.0
  0
LINE
  5
27C52
330
747D
100
AcDbEntity
  8
部品1
100
AcDbLine
 10
11923.06215139804
 20
2966.84890025518
 30
0.0
 11
12589.69876723637
 21
2966.84890025518
 31
0.0
  0
LINE
  5
27C53
330
747D
100
AcDbEntity
  8
部品1
100
AcDbLine
 10
11923.06215139804
 20
2959.048900255181
 30
0.0
 11
12628.69876723637
 21
2959.048900255181
 31
0.0
  0
TEXT
  5
27C54
330
747D
100
AcDbEntity
  8
部品1
100
AcDbText
 10
10737.52243194915
 20
3792.485740715929
 30
0.0
 40
156.0
  1
地盤がコンクリートの場合
  7
STYLE2
100
AcDbText
  0
LINE
  5
27C55
330
747D
100
AcDbEntity
  8
部品1
100
AcDbLine
 10
10626.26638110949
 20
3486.848900255176
 30
0.0
 11
10626.26638110949
 21
2829.048900255182
 31
0.0
  0
LINE
  5
27C56
330
747D
100
AcDbEntity
  8
部品1
100
AcDbLine
 10
10769.26638110949
 20
3486.848900255176
 30
0.0
 11
10769.26638110949
 21
2837.168009939585
 31
0.0
  0
LINE
  5
27C57
330
747D
100
AcDbEntity
  8
部品1
100
AcDbLine
 10
10677.0366584338
 20
2844.648900255177
 30
0.0
 11
10757.49610378517
 21
2844.648900255176
 31
0.0
  0
ARC
  5
27C58
330
747D
100
AcDbEntity
  8
部品1
100
AcDbCircle
 10
10677.0366584338
 20
2831.648900255179
 30
0.0
 40
13.0
100
AcDbArc
 50
90.0
 51
174.3157584018239
  0
ARC
  5
27C59
330
747D
100
AcDbEntity
  8
細線
100
AcDbCircle
 10
10717.26638110948
 20
2816.048900255175
 30
0.0
 40
10.4
100
AcDbArc
 50
0.0
 51
180.0
  0
ARC
  5
27C5A
330
747D
100
AcDbEntity
  8
部品1
100
AcDbCircle
 10
10757.49610378517
 20
2831.648900255175
 30
0.0
 40
13.0
100
AcDbArc
 50
5.684241598176082
 51
90.0
  0
LINE
  5
27C5B
330
747D
100
AcDbEntity
  8
細線
 48
50.0
100
AcDbLine
 10
12024.19876723636
 20
3616.848900255174
 30
0.0
 11
12024.19876723636
 21
2966.84890025518
 31
0.0
  0
LINE
  5
27C5C
330
747D
100
AcDbEntity
  8
細線
 48
50.0
100
AcDbLine
 10
12063.19876723636
 20
3616.848900255174
 30
0.0
 11
12063.19876723636
 21
2966.84890025518
 31
0.0
  0
LINE
  5
27C5D
330
747D
100
AcDbEntity
  8
部品1
100
AcDbLine
 10
12589.69876723637
 20
3616.848900255174
 30
0.0
 11
12589.69876723637
 21
2959.048900255181
 31
0.0
  0
LINE
  5
27C5E
330
747D
100
AcDbEntity
  8
部品1
100
AcDbLine
 10
12732.69876723637
 20
3616.848900255174
 30
0.0
 11
12732.69876723637
 21
2967.168009939586
 31
0.0
  0
LINE
  5
27C5F
330
747D
100
AcDbEntity
  8
細線
 48
50.0
100
AcDbLine
 10
12388.19876723636
 20
3616.848900255174
 30
0.0
 11
12388.19876723636
 21
2966.84890025518
 31
0.0
  0
LINE
  5
27C60
330
747D
100
AcDbEntity
  8
細線
 48
50.0
100
AcDbLine
 10
12427.19876723636
 20
3616.848900255174
 30
0.0
 11
12427.19876723636
 21
2966.84890025518
 31
0.0
  0
LINE
  5
27C61
330
747D
100
AcDbEntity
  8
細線
100
AcDbLine
 10
12623.30611441623
 20
2791.545465454931
 30
0.0
 11
12578.00267961598
 21
2836.848900255178
 31
0.0
  0
LINE
  5
27C62
330
747D
100
AcDbEntity
  8
部品1
100
AcDbLine
 10
12641.69876723636
 20
2984.528900255174
 30
0.0
 11
12719.69876723636
 21
2984.52890025518
 31
0.0
  0
ARC
  5
27C63
330
747D
100
AcDbEntity
  8
部品1
100
AcDbCircle
 10
12641.69876723636
 20
2971.528900255174
 30
0.0
 40
13.0
100
AcDbArc
 50
90.0
 51
180.0
  0
ARC
  5
27C64
330
747D
100
AcDbEntity
  8
部品1
100
AcDbCircle
 10
12719.69876723636
 20
2971.52890025518
 30
0.0
 40
13.0
100
AcDbArc
 50
0.0
 51
90.0
  0
ARC
  5
27C65
330
747D
100
AcDbEntity
  8
部品1
100
AcDbCircle
 10
12680.69876723636
 20
2906.528900255175
 30
0.0
 40
10.4
100
AcDbArc
 50
28.00674301449114
 51
151.9932569855088
  0
CIRCLE
  5
27C66
330
747D
100
AcDbEntity
  8
部品1
100
AcDbCircle
 10
12680.69876723636
 20
2892.748900255178
 30
0.0
 40
20.8
  0
CIRCLE
  5
27C67
330
747D
100
AcDbEntity
  8
細線
100
AcDbCircle
 10
12680.69876723636
 20
2945.528900255175
 30
0.0
 40
10.4
  0
ARC
  5
27C68
330
747D
100
AcDbEntity
  8
細線
100
AcDbCircle
 10
12680.69876723636
 20
2816.048900255173
 30
0.0
 40
10.4
100
AcDbArc
 50
0.0
 51
180.0
  0
LINE
  5
27C69
330
747D
100
AcDbEntity
  8
部品1
100
AcDbLine
 10
12640.46904456067
 20
2844.648900255177
 30
0.0
 11
12720.92848991204
 21
2844.648900255172
 31
0.0
  0
ARC
  5
27C6A
330
747D
100
AcDbEntity
  8
部品1
100
AcDbCircle
 10
12640.46904456067
 20
2831.648900255177
 30
0.0
 40
13.0
100
AcDbArc
 50
90.0
 51
174.3157584018239
  0
ARC
  5
27C6B
330
747D
100
AcDbEntity
  8
部品1
100
AcDbCircle
 10
12720.92848991204
 20
2831.648900255172
 30
0.0
 40
13.0
100
AcDbArc
 50
5.684241598176082
 51
90.0
  0
ARC
  5
27C6C
330
747D
100
AcDbEntity
  8
部品1
100
AcDbCircle
 10
12680.69876723636
 20
2854.528900255175
 30
0.0
 40
10.4
100
AcDbArc
 50
180.0
 51
251.8051276613344
  0
ARC
  5
27C6D
330
747D
100
AcDbEntity
  8
部品1
100
AcDbCircle
 10
12680.69876723636
 20
2854.528900255175
 30
0.0
 40
10.4
100
AcDbArc
 50
288.1948723386656
 51
0.0
  0
LINE
  5
27C6E
330
747D
100
AcDbEntity
  8
部品1
100
AcDbLine
 10
12628.69876723636
 20
2971.528900255174
 30
0.0
 11
12628.69876723636
 21
2837.168009939585
 31
0.0
  0
LINE
  5
27C6F
330
747D
100
AcDbEntity
  8
部品1
100
AcDbLine
 10
12732.69876723636
 20
2971.52890025518
 30
0.0
 11
12732.69876723636
 21
2837.168009939593
 31
0.0
  0
LINE
  5
27C70
330
747D
100
AcDbEntity
  8
部品1
100
AcDbLine
 10
12691.09876723636
 20
2874.73557185646
 30
0.0
 11
12691.09876723636
 21
2854.528900255175
 31
0.0
  0
LINE
  5
27C71
330
747D
100
AcDbEntity
  8
部品1
100
AcDbLine
 10
12670.29876723636
 20
2874.73557185646
 30
0.0
 11
12670.29876723636
 21
2854.528900255175
 31
0.0
  0
ENDSEC
  0
SECTION
  2
OBJECTS
  0
DICTIONARY
  5
7471
330
0
100
AcDbDictionary
281
     1
  3
ACAD_COLOR
350
1BE97
  3
ACAD_GROUP
350
7472
  3
ACAD_LAYOUT
350
1BE98
  3
ACAD_MATERIAL
350
1BE96
  3
ACAD_MLINESTYLE
350
7473
  3
ACAD_PLOTSETTINGS
350
1BE99
  3
ACAD_PLOTSTYLENAME
350
1BE94
  3
AcadDim
350
2230C
  3
ACDBHEADERROUNDTRIPXREC
350
27CEA
  3
ACDBVARIABLEDICTIONARY
350
141CA
  3
CONTENTDICTIONARY
350
E71C
  3
DRAWINGVARIABLESDICT
350
F3B9
  0
DICTIONARY
  5
2678E
330
7467
100
AcDbDictionary
280
     1
281
     1
  3
ACAD_LAYERSTATES
360
2678F
  0
DICTIONARY
  5
1BE97
102
{ACAD_REACTORS
330
7471
102
}
330
7471
100
AcDbDictionary
281
     1
  0
DICTIONARY
  5
7472
102
{ACAD_REACTORS
330
7471
102
}
330
7471
100
AcDbDictionary
281
     1
  0
DICTIONARY
  5
1BE98
102
{ACAD_REACTORS
330
7471
102
}
330
7471
100
AcDbDictionary
281
     1
  3
Model
350
1BE9A
  3
レイアウト1
350
1BE9B
  0
DICTIONARY
  5
1BE96
102
{ACAD_REACTORS
330
7471
102
}
330
7471
100
AcDbDictionary
281
     1
  0
DICTIONARY
  5
7473
102
{ACAD_REACTORS
330
7471
102
}
330
7471
100
AcDbDictionary
281
     1
  3
STANDARD
350
7480
  0
DICTIONARY
  5
1BE99
102
{ACAD_REACTORS
330
7471
102
}
330
7471
100
AcDbDictionary
281
     1
  0
ACDBDICTIONARYWDFLT
  5
1BE94
102
{ACAD_REACTORS
330
7471
102
}
330
7471
100
AcDbDictionary
281
     1
  3
Normal
350
1BE95
100
AcDbDictionaryWithDefault
340
1BE95
  0
XRECORD
  5
2230C
102
{ACAD_REACTORS
330
7471
102
}
330
7471
100
AcDbXrecord
280
     1
 90
   990106
  3
DOTSMALL
 60
     0
 61
     0
 62
     4
 63
     4
 64
     1
 65
     0
 66
     0
 67
     2
 68
     0
 69
     0
 70
     0
 71
     0
 72
     0
 40
0.0
170
     2
340
0
  0
DICTIONARY
  5
27CEA
102
{ACAD_REACTORS
330
7471
102
}
330
7471
100
AcDbDictionary
281
     1
  3
COLORDICT
350
27CEC
  3
MATERIALDICT
350
27CEB
  0
DICTIONARY
  5
141CA
102
{ACAD_REACTORS
330
7471
102
}
330
7471
100
AcDbDictionary
281
     1
  3
DIMASSOC
350
27CE7
  3
PROJECTNAME
350
27CE8
  3
SORTENTS
350
141CB
  0
DICTIONARY
  5
E71C
102
{ACAD_REACTORS
330
7471
102
}
330
7471
100
AcDbDictionary
281
     1
  0
DICTIONARY
  5
F3B9
102
{ACAD_REACTORS
330
7471
102
}
330
7471
100
AcDbDictionary
281
     1
1001
DRAWINGVARIABLESXDATA
1000
POLARMODE
1000
1
  0
DICTIONARY
  5
2678F
102
{ACAD_REACTORS
330
2678E
102
}
330
2678E
100
AcDbDictionary
281
     1
  0
LAYOUT
  5
1BE9A
102
{ACAD_XDICTIONARY
360
27CED
102
}
102
{ACAD_REACTORS
330
1BE98
102
}
330
1BE98
100
AcDbPlotSettings
  1

  2
EPSON LP-8100
  4
A3
  6

 40
5.873749732971191
 41
5.873747825622558
 42
5.873748779296875
 43
5.873748779296875
 44
297.0106506347656
 45
419.9466552734374
 46
0.0
 47
0.0
 48
0.0
 49
0.0
140
0.0
141
0.0
142
1.0
143
50.0
 70
 11952
 72
     1
 73
     1
 74
     2
  7
inaba.ctb
 75
    25
147
0.02
148
0.0
149
0.0
100
AcDbLayout
  1
Model
 70
     1
 71
     0
 10
0.0
 20
0.0
 11
12.0
 21
9.0
 12
0.0
 22
0.0
 32
0.0
 14
0.0
 24
0.0
 34
0.0
 15
0.0
 25
0.0
 35
0.0
146
0.0
 13
0.0
 23
0.0
 33
0.0
 16
1.0
 26
0.0
 36
0.0
 17
0.0
 27
1.0
 37
0.0
 76
     0
330
747D
  0
LAYOUT
  5
1BE9B
102
{ACAD_XDICTIONARY
360
27CEF
102
}
102
{ACAD_REACTORS
330
1BE98
102
}
330
1BE98
100
AcDbPlotSettings
  1

  2
EPSON LP-7000C
  4

  6

 40
0.0
 41
0.0
 42
0.0
 43
0.0
 44
0.0
 45
0.0
 46
0.0
 47
0.0
 48
0.0
 49
0.0
140
0.0
141
0.0
142
1.0
143
1.0
 70
   688
 72
     0
 73
     0
 74
     5
  7
inaba.ctb
 75
    16
147
1.0
148
0.0
149
0.0
100
AcDbLayout
  1
レイアウト1
 70
     0
 71
     1
 10
0.0
 20
0.0
 11
420.0
 21
297.0
 12
0.0
 22
0.0
 32
0.0
 14
1.000000000000000E+20
 24
1.000000000000000E+20
 34
1.000000000000000E+20
 15
-1.000000000000000E+20
 25
-1.000000000000000E+20
 35
-1.000000000000000E+20
146
0.0
 13
0.0
 23
0.0
 33
0.0
 16
1.0
 26
0.0
 36
0.0
 17
0.0
 27
1.0
 37
0.0
 76
     0
330
747A
  0
MLINESTYLE
  5
7480
102
{ACAD_REACTORS
330
7473
102
}
330
7473
100
AcDbMlineStyle
  2
STANDARD
 70
     0
  3

 62
     0
 51
90.0
 52
90.0
 71
     2
 49
0.5
 62
   256
  6
BYLAYER
 49
-0.5
 62
   256
  6
BYLAYER
  0
ACDBPLACEHOLDER
  5
1BE95
102
{ACAD_REACTORS
330
1BE94
102
}
330
1BE94
  0
XRECORD
  5
27CEC
102
{ACAD_REACTORS
330
27CEA
102
}
330
27CEA
100
AcDbXrecord
280
     1
340
1BE97
  0
XRECORD
  5
27CEB
102
{ACAD_REACTORS
330
27CEA
102
}
330
27CEA
100
AcDbXrecord
280
     1
340
1BE96
  0
DICTIONARYVAR
  5
27CE7
102
{ACAD_REACTORS
330
141CA
102
}
330
141CA
100
DictionaryVariables
280
     0
  1
1
  0
DICTIONARYVAR
  5
27CE8
102
{ACAD_REACTORS
330
141CA
102
}
330
141CA
100
DictionaryVariables
280
     0
  1

  0
DICTIONARYVAR
  5
141CB
102
{ACAD_REACTORS
330
141CA
102
}
330
141CA
100
DictionaryVariables
280
     0
  1
96
  0
DICTIONARY
  5
27CED
330
1BE9A
100
AcDbDictionary
280
     1
281
     1
  3
ACAD_XREC_ROUNDTRIP
360
27CEE
  0
DICTIONARY
  5
27CEF
330
1BE9B
100
AcDbDictionary
280
     1
281
     1
  3
ACAD_XREC_ROUNDTRIP
360
27CF0
  0
XRECORD
  5
27CEE
102
{ACAD_REACTORS
330
27CED
102
}
330
27CED
100
AcDbXrecord
280
     1
102
SHADEPLOT
 70
     0
102
SHADEPLOTRESLEVEL
 70
     2
102
SHADEPLOTCUSTOMDPI
 70
   300
  0
XRECORD
  5
27CF0
102
{ACAD_REACTORS
330
27CEF
102
}
330
27CEF
100
AcDbXrecord
280
     1
102
SHADEPLOT
 70
     0
102
SHADEPLOTRESLEVEL
 70
     2
102
SHADEPLOTCUSTOMDPI
 70
   300
  0
ENDSEC
  0
EOF
