  0
SECTION
  2
HEADER
  9
$ACADVER
  1
AC1015
  9
$ACADMAINTVER
 70
    20
  9
$DWGCODEPAGE
  3
ANSI_932
  9
$INSBASE
 10
0.0
 20
0.0
 30
0.0
  9
$EXTMIN
 10
104.9999999999996
 20
0.0
 30
0.0
  9
$EXTMAX
 10
12230.4
 20
8557.199999999999
 30
0.0
  9
$LIMMIN
 10
0.0
 20
0.0
  9
$LIMMAX
 10
12600.0
 20
8910.0
  9
$ORTHOMODE
 70
     0
  9
$REGENMODE
 70
     1
  9
$FILLMODE
 70
     1
  9
$QTEXTMODE
 70
     0
  9
$MIRRTEXT
 70
     1
  9
$LTSCALE
 40
3.0
  9
$ATTMODE
 70
     1
  9
$TEXTSIZE
 40
100.0
  9
$TRACEWID
 40
1.0
  9
$TEXTSTYLE
  7
STYLE3
  9
$CLAYER
  8
センター
  9
$CELTYPE
  6
BYLAYER
  9
$CECOLOR
 62
   256
  9
$CELTSCALE
 40
50.0
  9
$DISPSILH
 70
     0
  9
$DIMSCALE
 40
30.0
  9
$DIMASZ
 40
2.5
  9
$DIMEXO
 40
0.5
  9
$DIMDLI
 40
7.0
  9
$DIMRND
 40
0.0
  9
$DIMDLE
 40
0.0
  9
$DIMEXE
 40
1.5
  9
$DIMTP
 40
0.0
  9
$DIMTM
 40
0.0
  9
$DIMTXT
 40
3.0
  9
$DIMCEN
 40
0.0
  9
$DIMTSZ
 40
0.0
  9
$DIMTOL
 70
     0
  9
$DIMLIM
 70
     0
  9
$DIMTIH
 70
     0
  9
$DIMTOH
 70
     0
  9
$DIMSE1
 70
     0
  9
$DIMSE2
 70
     0
  9
$DIMTAD
 70
     3
  9
$DIMZIN
 70
     8
  9
$DIMBLK
  1

  9
$DIMASO
 70
     1
  9
$DIMSHO
 70
     1
  9
$DIMPOST
  1

  9
$DIMAPOST
  1

  9
$DIMALT
 70
     0
  9
$DIMALTD
 70
     2
  9
$DIMALTF
 40
0.0394
  9
$DIMLFAC
 40
1.0
  9
$DIMTOFL
 70
     1
  9
$DIMTVP
 40
0.0
  9
$DIMTIX
 70
     1
  9
$DIMSOXD
 70
     1
  9
$DIMSAH
 70
     1
  9
$DIMBLK1
  1
DOTSMALL
  9
$DIMBLK2
  1
DOTSMALL
  9
$DIMSTYLE
  2
INABA_S30G
  9
$DIMCLRD
 70
     0
  9
$DIMCLRE
 70
     0
  9
$DIMCLRT
 70
     7
  9
$DIMTFAC
 40
1.0
  9
$DIMGAP
 40
1.0
  9
$DIMJUST
 70
     0
  9
$DIMSD1
 70
     0
  9
$DIMSD2
 70
     0
  9
$DIMTOLJ
 70
     1
  9
$DIMTZIN
 70
     0
  9
$DIMALTZ
 70
     0
  9
$DIMALTTZ
 70
     0
  9
$DIMUPT
 70
     0
  9
$DIMDEC
 70
     1
  9
$DIMTDEC
 70
     4
  9
$DIMALTU
 70
     2
  9
$DIMALTTD
 70
     2
  9
$DIMTXSTY
  7
STYLE1
  9
$DIMAUNIT
 70
     0
  9
$DIMADEC
 70
     0
  9
$DIMALTRND
 40
0.0
  9
$DIMAZIN
 70
     0
  9
$DIMDSEP
 70
    46
  9
$DIMATFIT
 70
     3
  9
$DIMFRAC
 70
     0
  9
$DIMLDRBLK
  1

  9
$DIMLUNIT
 70
     2
  9
$DIMLWD
 70
    -2
  9
$DIMLWE
 70
    -2
  9
$DIMTMOVE
 70
     0
  9
$LUNITS
 70
     2
  9
$LUPREC
 70
     1
  9
$SKETCHINC
 40
1.0
  9
$FILLETRAD
 40
10.0
  9
$AUNITS
 70
     0
  9
$AUPREC
 70
     0
  9
$MENU
  1
acad
  9
$ELEVATION
 40
0.0
  9
$PELEVATION
 40
0.0
  9
$THICKNESS
 40
0.0
  9
$LIMCHECK
 70
     0
  9
$CHAMFERA
 40
5.0
  9
$CHAMFERB
 40
5.0
  9
$CHAMFERC
 40
0.0
  9
$CHAMFERD
 40
0.0
  9
$SKPOLY
 70
     0
  9
$TDCREATE
 40
2451225.538602894
  9
$TDUCREATE
 40
2451225.163602894
  9
$TDUPDATE
 40
2455579.572060185
  9
$TDUUPDATE
 40
2455579.197060185
  9
$TDINDWG
 40
0.2770837616
  9
$TDUSRTIMER
 40
0.2770837616
  9
$USRTIMER
 70
     1
  9
$ANGBASE
 50
0.0
  9
$ANGDIR
 70
     0
  9
$PDMODE
 70
     3
  9
$PDSIZE
 40
2.0
  9
$PLINEWID
 40
0.0
  9
$SPLFRAME
 70
     0
  9
$SPLINETYPE
 70
     6
  9
$SPLINESEGS
 70
     8
  9
$HANDSEED
  5
14EED
  9
$SURFTAB1
 70
     6
  9
$SURFTAB2
 70
     6
  9
$SURFTYPE
 70
     6
  9
$SURFU
 70
     6
  9
$SURFV
 70
     6
  9
$UCSBASE
  2

  9
$UCSNAME
  2

  9
$UCSORG
 10
0.0
 20
0.0
 30
0.0
  9
$UCSXDIR
 10
1.0
 20
0.0
 30
0.0
  9
$UCSYDIR
 10
0.0
 20
1.0
 30
0.0
  9
$UCSORTHOREF
  2

  9
$UCSORTHOVIEW
 70
     0
  9
$UCSORGTOP
 10
0.0
 20
0.0
 30
0.0
  9
$UCSORGBOTTOM
 10
0.0
 20
0.0
 30
0.0
  9
$UCSORGLEFT
 10
0.0
 20
0.0
 30
0.0
  9
$UCSORGRIGHT
 10
0.0
 20
0.0
 30
0.0
  9
$UCSORGFRONT
 10
0.0
 20
0.0
 30
0.0
  9
$UCSORGBACK
 10
0.0
 20
0.0
 30
0.0
  9
$PUCSBASE
  2

  9
$PUCSNAME
  2

  9
$PUCSORG
 10
0.0
 20
0.0
 30
0.0
  9
$PUCSXDIR
 10
1.0
 20
0.0
 30
0.0
  9
$PUCSYDIR
 10
0.0
 20
1.0
 30
0.0
  9
$PUCSORTHOREF
  2

  9
$PUCSORTHOVIEW
 70
     0
  9
$PUCSORGTOP
 10
0.0
 20
0.0
 30
0.0
  9
$PUCSORGBOTTOM
 10
0.0
 20
0.0
 30
0.0
  9
$PUCSORGLEFT
 10
0.0
 20
0.0
 30
0.0
  9
$PUCSORGRIGHT
 10
0.0
 20
0.0
 30
0.0
  9
$PUCSORGFRONT
 10
0.0
 20
0.0
 30
0.0
  9
$PUCSORGBACK
 10
0.0
 20
0.0
 30
0.0
  9
$USERI1
 70
     0
  9
$USERI2
 70
     0
  9
$USERI3
 70
     0
  9
$USERI4
 70
     0
  9
$USERI5
 70
     0
  9
$USERR1
 40
0.0
  9
$USERR2
 40
0.0
  9
$USERR3
 40
0.0
  9
$USERR4
 40
0.0
  9
$USERR5
 40
0.0
  9
$WORLDVIEW
 70
     1
  9
$SHADEDGE
 70
     3
  9
$SHADEDIF
 70
    70
  9
$TILEMODE
 70
     1
  9
$MAXACTVP
 70
    16
  9
$PINSBASE
 10
0.0
 20
0.0
 30
0.0
  9
$PLIMCHECK
 70
     0
  9
$PEXTMIN
 10
1.000000000000000E+20
 20
1.000000000000000E+20
 30
1.000000000000000E+20
  9
$PEXTMAX
 10
-1.000000000000000E+20
 20
-1.000000000000000E+20
 30
-1.000000000000000E+20
  9
$PLIMMIN
 10
0.0
 20
0.0
  9
$PLIMMAX
 10
420.0
 20
297.0
  9
$UNITMODE
 70
     0
  9
$VISRETAIN
 70
     0
  9
$PLINEGEN
 70
     0
  9
$PSLTSCALE
 70
     0
  9
$TREEDEPTH
 70
  3020
  9
$CMLSTYLE
  2
STANDARD
  9
$CMLJUST
 70
     0
  9
$CMLSCALE
 40
1.0
  9
$PROXYGRAPHICS
 70
     1
  9
$MEASUREMENT
 70
     1
  9
$CELWEIGHT
370
    -1
  9
$ENDCAPS
280
     0
  9
$JOINSTYLE
280
     0
  9
$LWDISPLAY
290
     0
  9
$INSUNITS
 70
     0
  9
$HYPERLINKBASE
  1

  9
$STYLESHEET
  1

  9
$XEDIT
290
     1
  9
$CEPSNTYPE
380
     0
  9
$PSTYLEMODE
290
     1
  9
$FINGERPRINTGUID
  2
{5370F8D6-FB1C-4B29-A119-0DA0D004CA0C}
  9
$VERSIONGUID
  2
{689D1B02-11E0-4676-8951-D10AEBEBB881}
  9
$EXTNAMES
290
     1
  9
$PSVPSCALE
 40
0.0
  9
$OLESTARTUP
290
     0
  0
ENDSEC
  0
SECTION
  2
CLASSES
  0
CLASS
  1
ACDBDICTIONARYWDFLT
  2
AcDbDictionaryWithDefault
  3
ObjectDBX Classes
 90
        0
280
     0
281
     0
  0
CLASS
  1
DICTIONARYVAR
  2
AcDbDictionaryVar
  3
ObjectDBX Classes
 90
        0
280
     0
281
     0
  0
CLASS
  1
ACDBPLACEHOLDER
  2
AcDbPlaceHolder
  3
ObjectDBX Classes
 90
        0
280
     0
281
     0
  0
CLASS
  1
LAYOUT
  2
AcDbLayout
  3
ObjectDBX Classes
 90
        0
280
     0
281
     0
  0
ENDSEC
  0
SECTION
  2
TABLES
  0
TABLE
  2
VPORT
  5
746D
330
0
100
AcDbSymbolTable
 70
     2
  0
VPORT
  5
14EE5
330
746D
100
AcDbSymbolTableRecord
100
AcDbViewportTableRecord
  2
*Active
 70
     0
 10
0.0
 20
0.0
 11
1.0
 21
1.0
 12
7559.363582101116
 22
4278.385467267247
 13
0.0
 23
0.0
 14
10.0
 24
10.0
 15
10.0
 25
10.0
 16
0.0
 26
0.0
 36
1.0
 17
0.0
 27
0.0
 37
0.0
 40
9939.591522658806
 41
1.5075
 42
50.0
 43
0.0
 44
0.0
 50
0.0
 51
0.0
 71
     0
 72
     0
 73
     1
 74
     0
 75
     0
 76
     0
 77
     0
 78
     0
281
     0
 65
     1
110
0.0
120
0.0
130
0.0
111
1.0
121
0.0
131
0.0
112
0.0
122
1.0
132
0.0
 79
     0
146
0.0
  0
ENDTAB
  0
TABLE
  2
LTYPE
  5
746A
330
0
100
AcDbSymbolTable
 70
     4
  0
LTYPE
  5
7477
330
746A
100
AcDbSymbolTableRecord
100
AcDbLinetypeTableRecord
  2
BYBLOCK
 70
     0
  3

 72
    65
 73
     0
 40
0.0
  0
LTYPE
  5
7478
330
746A
100
AcDbSymbolTableRecord
100
AcDbLinetypeTableRecord
  2
BYLAYER
 70
     0
  3

 72
    65
 73
     0
 40
0.0
  0
LTYPE
  5
7479
330
746A
100
AcDbSymbolTableRecord
100
AcDbLinetypeTableRecord
  2
CONTINUOUS
 70
     0
  3
Solid line
 72
    65
 73
     0
 40
0.0
  0
LTYPE
  5
7816
330
746A
100
AcDbSymbolTableRecord
100
AcDbLinetypeTableRecord
  2
CENTER
 70
     0
  3
____ _ ____ _ ____ _ ____ _ ____ _ ____ _ ____ 
 72
    65
 73
     4
 40
2.0
 49
1.25
 74
     0
 49
-0.25
 74
     0
 49
0.25
 74
     0
 49
-0.25
 74
     0
  0
LTYPE
  5
781A
330
746A
100
AcDbSymbolTableRecord
100
AcDbLinetypeTableRecord
  2
HIDDEN
 70
     0
  3
__ __ __ __ __ __ __ __ __ __ __ __ __ __ __ __
 72
    65
 73
     2
 40
0.375
 49
0.25
 74
     0
 49
-0.125
 74
     0
  0
LTYPE
  5
781B
330
746A
100
AcDbSymbolTableRecord
100
AcDbLinetypeTableRecord
  2
PHANTOM
 70
     0
  3
______  __  __  ______  __  __  ______  __  __ 
 72
    65
 73
     6
 40
2.5
 49
1.25
 74
     0
 49
-0.25
 74
     0
 49
0.25
 74
     0
 49
-0.25
 74
     0
 49
0.25
 74
     0
 49
-0.25
 74
     0
  0
ENDTAB
  0
TABLE
  2
LAYER
  5
7467
102
{ACAD_XDICTIONARY
360
14DB6
102
}
330
0
100
AcDbSymbolTable
 70
    11
  0
LAYER
  5
7474
330
7467
100
AcDbSymbolTableRecord
100
AcDbLayerTableRecord
  2
0
 70
     0
 62
     7
  6
CONTINUOUS
370
    -3
390
14DA8
  0
LAYER
  5
DEB2
330
7467
100
AcDbSymbolTableRecord
100
AcDbLayerTableRecord
  2
センター
 70
     0
 62
     3
  6
CENTER
370
    -3
390
14DA8
  0
LAYER
  5
DEB3
330
7467
100
AcDbSymbolTableRecord
100
AcDbLayerTableRecord
  2
寸法
 70
     0
 62
     4
  6
CONTINUOUS
370
    -3
390
14DA8
  0
LAYER
  5
DEB4
330
7467
100
AcDbSymbolTableRecord
100
AcDbLayerTableRecord
  2
部品1
 70
     0
 62
     7
  6
CONTINUOUS
370
    -3
390
14DA8
  0
LAYER
  5
DEB5
330
7467
100
AcDbSymbolTableRecord
100
AcDbLayerTableRecord
  2
補助
 70
     0
 62
    -1
  6
CONTINUOUS
370
    -3
390
14DA8
  0
LAYER
  5
DEB6
330
7467
100
AcDbSymbolTableRecord
100
AcDbLayerTableRecord
  2
文字
 70
     0
 62
     7
  6
CONTINUOUS
370
    -3
390
14DA8
  0
LAYER
  5
F255
330
7467
100
AcDbSymbolTableRecord
100
AcDbLayerTableRecord
  2
DEFPOINTS
 70
     0
 62
     7
  6
CONTINUOUS
290
     0
370
    -3
390
14DA8
  0
LAYER
  5
10B54
330
7467
100
AcDbSymbolTableRecord
100
AcDbLayerTableRecord
  2
仕様書枠
 70
     0
 62
   230
  6
CONTINUOUS
370
    -3
390
14DA8
  0
LAYER
  5
11729
330
7467
100
AcDbSymbolTableRecord
100
AcDbLayerTableRecord
  2
Ｇ．Ｌ
 70
     0
 62
    30
  6
CONTINUOUS
370
    -3
390
14DA8
  0
LAYER
  5
1173F
330
7467
100
AcDbSymbolTableRecord
100
AcDbLayerTableRecord
  2
細線
 70
     0
 62
     5
  6
CONTINUOUS
370
    -3
390
14DA8
  0
LAYER
  5
11740
330
7467
100
AcDbSymbolTableRecord
100
AcDbLayerTableRecord
  2
点線
 70
     0
 62
     2
  6
HIDDEN
370
    -3
390
14DA8
  0
ENDTAB
  0
TABLE
  2
STYLE
  5
7468
330
0
100
AcDbSymbolTable
 70
     5
  0
STYLE
  5
7475
330
7468
100
AcDbSymbolTableRecord
100
AcDbTextStyleTableRecord
  2
STANDARD
 70
     0
 40
0.0
 41
1.0
 50
0.0
 71
     0
 42
4.0
  3
txt
  4
C:\AutoCAD LT\bigfont.shx
  0
STYLE
  5
763C
330
7468
100
AcDbSymbolTableRecord
100
AcDbTextStyleTableRecord
  2
MSMINCHO
 70
     0
 40
0.0
 41
1.0
 50
0.0
 71
     0
 42
1.199999999999999
  3
C:\AutoCAD LT\msminch2.TTF
  4

  0
STYLE
  5
F706
330
7468
100
AcDbSymbolTableRecord
100
AcDbTextStyleTableRecord
  2
STYLE1
 70
     0
 40
0.0
 41
1.0
 50
0.0
 71
     0
 42
4.0
  3
isocp.shx
  4
bigfont.shx
  0
STYLE
  5
103BF
330
7468
100
AcDbSymbolTableRecord
100
AcDbTextStyleTableRecord
  2
STYLE2
 70
     0
 40
0.0
 41
1.0
 50
0.0
 71
     0
 42
100.0
  3
MS PGothic.ttf
  4

1001
ACAD
1000
MS PGothic
1071
    32818
  0
STYLE
  5
10BAA
330
7468
100
AcDbSymbolTableRecord
100
AcDbTextStyleTableRecord
  2
STYLE3
 70
     0
 40
0.0
 41
1.0
 50
0.0
 71
     0
 42
100.0
  3
MS PGothic.ttf
  4

1001
ACAD
1000
MS PGothic
1071
    32818
  0
ENDTAB
  0
TABLE
  2
VIEW
  5
746B
330
0
100
AcDbSymbolTable
 70
     0
  0
ENDTAB
  0
TABLE
  2
UCS
  5
746C
330
0
100
AcDbSymbolTable
 70
     0
  0
ENDTAB
  0
TABLE
  2
APPID
  5
746E
330
0
100
AcDbSymbolTable
 70
     6
  0
APPID
  5
7476
330
746E
100
AcDbSymbolTableRecord
100
AcDbRegAppTableRecord
  2
ACAD
 70
     0
  0
APPID
  5
DEA9
330
746E
100
AcDbSymbolTableRecord
100
AcDbRegAppTableRecord
  2
CONTENTBLOCKICON
 70
     0
  0
APPID
  5
DEAA
330
746E
100
AcDbSymbolTableRecord
100
AcDbRegAppTableRecord
  2
CONTENTBLOCKDESCRIPTION
 70
     0
  0
APPID
  5
E71D
330
746E
100
AcDbSymbolTableRecord
100
AcDbRegAppTableRecord
  2
CONTENTTABDATA
 70
     0
  0
APPID
  5
E71E
330
746E
100
AcDbSymbolTableRecord
100
AcDbRegAppTableRecord
  2
CONTENTCURRENTTAB
 70
     0
  0
APPID
  5
F3BA
330
746E
100
AcDbSymbolTableRecord
100
AcDbRegAppTableRecord
  2
DRAWINGVARIABLESXDATA
 70
     0
  0
ENDTAB
  0
TABLE
  2
DIMSTYLE
  5
746F
330
0
100
AcDbSymbolTable
 70
     4
100
AcDbDimStyleTable
 71
     1
340
F71F
  0
DIMSTYLE
105
7484
330
746F
100
AcDbSymbolTableRecord
100
AcDbDimStyleTableRecord
  2
JIS
 70
     0
 41
2.5
 42
1.0
 43
7.0
 44
1.0
 73
     0
 74
     0
 77
     1
 78
     8
140
2.5
141
0.0
143
0.0394
147
0.0
172
     1
174
     1
175
     1
340
7475
  0
DIMSTYLE
105
F236
330
746F
100
AcDbSymbolTableRecord
100
AcDbDimStyleTableRecord
  2
INABA_S30
 70
     0
 40
30.0
 41
2.5
 42
0.5
 43
7.0
 44
1.5
 73
     0
 74
     0
 77
     3
 78
     8
140
3.0
141
0.0
143
0.0394
147
1.0
172
     1
173
     1
174
     1
175
     1
178
     7
289
     0
340
7475
341
DEAC
343
DEAC
344
DEAC
  0
DIMSTYLE
105
F71F
102
{ACAD_REACTORS
330
148F3
330
148FB
330
148FC
330
148FD
330
149EF
330
14A3E
330
14A50
330
14A51
330
14A64
330
14A65
330
14A82
330
14AD1
330
14D02
102
}
330
746F
100
AcDbSymbolTableRecord
100
AcDbDimStyleTableRecord
  2
INABA_S30G
 70
     0
 40
30.0
 41
2.5
 42
0.5
 43
7.0
 44
1.5
 73
     0
 74
     0
 77
     3
 78
     8
140
3.0
141
0.0
143
0.0394
147
1.0
172
     1
173
     1
174
     1
175
     1
178
     7
271
     1
340
F706
341
F770
343
F770
344
F770
  0
DIMSTYLE
105
118AC
330
746F
100
AcDbSymbolTableRecord
100
AcDbDimStyleTableRecord
  2
INABA_S80
 70
     0
 40
80.0
 41
0.5
 42
0.2
 43
6.0
 44
0.5
 73
     0
 74
     0
 77
     3
 78
     8
140
2.5
141
0.0
143
0.0394
147
0.8
172
     1
173
     1
174
     1
175
     1
178
     5
271
     2
272
     2
289
     2
340
7475
341
F744
343
F744
344
F744
  0
ENDTAB
  0
TABLE
  2
BLOCK_RECORD
  5
7466
330
0
100
AcDbSymbolTable
 70
    17
  0
BLOCK_RECORD
  5
747D
330
7466
100
AcDbSymbolTableRecord
100
AcDbBlockTableRecord
  2
*MODEL_SPACE
340
14DAD
  0
BLOCK_RECORD
  5
747A
330
7466
100
AcDbSymbolTableRecord
100
AcDbBlockTableRecord
  2
*PAPER_SPACE
340
14DAE
  0
BLOCK_RECORD
  5
DEAC
330
7466
100
AcDbSymbolTableRecord
100
AcDbBlockTableRecord
  2
_OPEN
340
0
  0
BLOCK_RECORD
  5
ECB3
330
7466
100
AcDbSymbolTableRecord
100
AcDbBlockTableRecord
  2
作図枠S50
340
0
310
2800000020000000200000000100040000000000000200000000000000000000000000000000000000000000000080000080000000808000800000008000800080800000C0C0C000808080000000FF0000FF000000FFFF00FF000000FF00FF00FFFF0000FFFFFF00FFFFFFFFFFFFFFFFFFFFFFFFFFFFFFFFFFFFFFFFFFFFFF
310
FFFFFFFFFFFFFFFFFFFFFFFFFFFFFFFFFFFFFFFFFFFFFFFFFFFFFFFFFFFFFFFFFFFFFFFFFFFFFFFFFFFFFFFFFFFFFFFFFFFFFFFFFFFFFFFFFFFFFFFFFFFFFFFFFFFFFFFFFFFFFFFFFF999999999999999999999999999999999FFFFFFFFFFFFFFFFFFFFFFFFFFFFFF99FFFFFFFFFFFFFFFFFFFFFFFFFFFFFF99FFFFFFFFFFF
310
FFFFFFFFFFFFFFFFFFF99FFFFFFFFFFFFFFFFFFFFFFFFFFFFFF99FFFFFFFFFFFFFFFFFFFFFFFFFFFFFF99FFFFFFFFFFFFFFFFFFFFFFFFFFFFFF99FFFFFFFFFFFFFFFFFFFFFFFFFFFFFF99FFFFFFFFFFFFFFFFFFFFFFFFFFFFFF99FFFFFFFFFFFFFFFFFFFFFFFFFFFFFF99FFFFFFFFFFFFFFFFFFFFFFFFFFFFFF99FFFFFFFFF
310
FFFFFFFFFFFFFFFFFFFFF99FFFFFFFFFFFFFFFFFFFFFFFFFFFFFF99FFFFFFFFFFFFFFFFFFFFFFFFFFFFFF99FFFFFFFFFFFFFFFFFFFFFFFFFFFFFF99FFFFFFFFFFFFFFFFFFFFFFFFFFFFFF99FFFFFFFFFFFFFFFFFFFFFFFFFFFFFF99FFFFFFFFFFFFFFFFFFFFFFFFFFFFFF99FFFFFFFFFFFFFFFFFFFFF99999999999FFFFFFF
310
FFFFFFFFFFFFFF9FFFFFFFFF99999999999999999999999FFFFFFFFFFFFFFFFFFFFFFFFFFFFFFFFFFFFFFFFFFFFFFFFFFFFFFFFFFFFFFFFFFFFFFFFFFFFFFFFFFFFFFFFFFFFFFFFFFFFFFFFFFFFFFFFFFFFFFFFFFFFFFFFFFFFFFFFFFFFFFFFFFFFFFFFFFFFFFFFFFFFFFFFF
102
{BLKREFS
331
F235
102
}
  0
BLOCK_RECORD
  5
F744
330
7466
100
AcDbSymbolTableRecord
100
AcDbBlockTableRecord
  2
_DOT
340
0
  0
BLOCK_RECORD
  5
F770
330
7466
100
AcDbSymbolTableRecord
100
AcDbBlockTableRecord
  2
_DOTSMALL
340
0
102
{BLKREFS
331
14C90
331
14BBB
331
14BBC
331
14CCF
331
14CD0
331
14CC4
331
14CC5
331
14BDD
331
14BDE
331
14BF4
331
14BF5
331
14C0A
331
14C0B
331
14D5E
331
14D5F
331
14D6B
331
14D6C
331
14C2F
331
14C30
331
14C3A
331
14C3B
331
14C45
331
14C46
331
14E86
331
14E87
331
14E8F
331
14E90
102
}
  0
BLOCK_RECORD
  5
14B15
330
7466
100
AcDbSymbolTableRecord
100
AcDbBlockTableRecord
  2
*D4
340
0
  0
BLOCK_RECORD
  5
14B21
330
7466
100
AcDbSymbolTableRecord
100
AcDbBlockTableRecord
  2
*D5
340
0
  0
BLOCK_RECORD
  5
14B2D
330
7466
100
AcDbSymbolTableRecord
100
AcDbBlockTableRecord
  2
*D6
340
0
  0
BLOCK_RECORD
  5
14B39
330
7466
100
AcDbSymbolTableRecord
100
AcDbBlockTableRecord
  2
*D7
340
0
  0
BLOCK_RECORD
  5
14B52
330
7466
100
AcDbSymbolTableRecord
100
AcDbBlockTableRecord
  2
*D8
340
0
  0
BLOCK_RECORD
  5
14B5F
330
7466
100
AcDbSymbolTableRecord
100
AcDbBlockTableRecord
  2
*D9
340
0
  0
BLOCK_RECORD
  5
14B6B
330
7466
100
AcDbSymbolTableRecord
100
AcDbBlockTableRecord
  2
*D10
340
0
  0
BLOCK_RECORD
  5
14B77
330
7466
100
AcDbSymbolTableRecord
100
AcDbBlockTableRecord
  2
*D11
340
0
  0
BLOCK_RECORD
  5
14B85
330
7466
100
AcDbSymbolTableRecord
100
AcDbBlockTableRecord
  2
*D12
340
0
  0
BLOCK_RECORD
  5
14B93
330
7466
100
AcDbSymbolTableRecord
100
AcDbBlockTableRecord
  2
*D13
340
0
  0
BLOCK_RECORD
  5
14B9F
330
7466
100
AcDbSymbolTableRecord
100
AcDbBlockTableRecord
  2
*D14
340
0
  0
BLOCK_RECORD
  5
14BAB
330
7466
100
AcDbSymbolTableRecord
100
AcDbBlockTableRecord
  2
*D15
340
0
  0
BLOCK_RECORD
  5
14D03
330
7466
100
AcDbSymbolTableRecord
100
AcDbBlockTableRecord
  2
*D16
340
0
  0
ENDTAB
  0
ENDSEC
  0
SECTION
  2
BLOCKS
  0
BLOCK
  5
7489
330
747D
100
AcDbEntity
  8
0
100
AcDbBlockBegin
  2
*MODEL_SPACE
 70
     0
 10
0.0
 20
0.0
 30
0.0
  3
*MODEL_SPACE
  1

  0
ENDBLK
  5
748A
330
747D
100
AcDbEntity
  8
0
100
AcDbBlockEnd
  0
BLOCK
  5
7487
330
747A
100
AcDbEntity
 67
     1
  8
0
100
AcDbBlockBegin
  2
*PAPER_SPACE
 70
     0
 10
0.0
 20
0.0
 30
0.0
  3
*PAPER_SPACE
  1

  0
ENDBLK
  5
7488
330
747A
100
AcDbEntity
 67
     1
  8
0
100
AcDbBlockEnd
  0
BLOCK
  5
DEAD
330
DEAC
100
AcDbEntity
  8
0
100
AcDbBlockBegin
  2
_OPEN
 70
     0
 10
0.0
 20
0.0
 30
0.0
  3
_OPEN
  1

  0
LINE
  5
DEAE
330
DEAC
100
AcDbEntity
  8
0
  6
ByBlock
 62
     0
100
AcDbLine
 10
-1.0
 20
0.1666666666666666
 30
0.0
 11
0.0
 21
0.0
 31
0.0
  0
LINE
  5
DEAF
330
DEAC
100
AcDbEntity
  8
0
  6
ByBlock
 62
     0
100
AcDbLine
 10
0.0
 20
0.0
 30
0.0
 11
-1.0
 21
-0.1666666666666666
 31
0.0
  0
LINE
  5
DEB0
330
DEAC
100
AcDbEntity
  8
0
  6
ByBlock
 62
     0
100
AcDbLine
 10
0.0
 20
0.0
 30
0.0
 11
-1.0
 21
0.0
 31
0.0
  0
ENDBLK
  5
DEB1
330
DEAC
100
AcDbEntity
  8
0
100
AcDbBlockEnd
  0
BLOCK
  5
ECB4
330
ECB3
100
AcDbEntity
  8
0
100
AcDbBlockBegin
  2
作図枠S50
 70
     0
 10
0.0
 20
0.0
 30
0.0
  3
作図枠S50
  1

  4
作図領域枠 縮尺 1/50
  0
LINE
  5
ECB5
330
ECB3
100
AcDbEntity
  8
補助
100
AcDbLine
 10
14364.0
 20
14262.0
 30
0.0
 11
174.9999999999993
 21
14262.0
 31
0.0
  0
LINE
  5
ECB6
330
ECB3
100
AcDbEntity
  8
補助
100
AcDbLine
 10
174.9999999999993
 20
14262.0
 30
0.0
 11
174.9999999999993
 21
1520.0
 31
0.0
  0
LINE
  5
ECB7
330
ECB3
100
AcDbEntity
  8
補助
100
AcDbLine
 10
174.9999999999993
 20
1520.0
 30
0.0
 11
20384.0
 21
1520.0
 31
0.0
  0
LINE
  5
ECB8
330
ECB3
100
AcDbEntity
  8
補助
100
AcDbLine
 10
20384.0
 20
1520.0
 30
0.0
 11
20384.0
 21
13042.0
 31
0.0
  0
LINE
  5
ECB9
330
ECB3
100
AcDbEntity
  8
補助
100
AcDbLine
 10
20384.0
 20
13042.0
 30
0.0
 11
14364.0
 21
13042.0
 31
0.0
  0
LINE
  5
ECBA
330
ECB3
100
AcDbEntity
  8
補助
100
AcDbLine
 10
14364.0
 20
13042.0
 30
0.0
 11
14364.0
 21
14262.0
 31
0.0
  0
ENDBLK
  5
ECBB
330
ECB3
100
AcDbEntity
  8
0
100
AcDbBlockEnd
  0
BLOCK
  5
F745
330
F744
100
AcDbEntity
  8
0
 48
50.0
100
AcDbBlockBegin
  2
_DOT
 70
     0
 10
0.0
 20
0.0
 30
0.0
  3
_DOT
  1

  0
LWPOLYLINE
  5
F746
330
F744
100
AcDbEntity
  8
0
  6
ByBlock
 62
     0
 48
50.0
100
AcDbPolyline
 90
        2
 70
     1
 43
0.5
 10
-0.25
 20
0.0
 42
1.0
 10
0.25
 20
0.0
 42
1.0
  0
LINE
  5
F74A
330
F744
100
AcDbEntity
  8
0
  6
ByBlock
 62
     0
 48
50.0
100
AcDbLine
 10
-0.5
 20
0.0
 30
0.0
 11
-1.0
 21
0.0
 31
0.0
  0
ENDBLK
  5
F74B
330
F744
100
AcDbEntity
  8
0
 48
50.0
100
AcDbBlockEnd
  0
BLOCK
  5
F771
330
F770
100
AcDbEntity
  8
0
 48
50.0
100
AcDbBlockBegin
  2
_DOTSMALL
 70
     0
 10
0.0
 20
0.0
 30
0.0
  3
_DOTSMALL
  1

  0
LWPOLYLINE
  5
F772
330
F770
100
AcDbEntity
  8
0
  6
ByBlock
 62
     0
 48
50.0
100
AcDbPolyline
 90
        2
 70
     1
 43
0.5
 10
-0.0625
 20
0.0
 42
1.0
 10
0.0625
 20
0.0
 42
1.0
  0
ENDBLK
  5
F776
330
F770
100
AcDbEntity
  8
0
 48
50.0
100
AcDbBlockEnd
  0
BLOCK
  5
14BB7
330
14B15
100
AcDbEntity
  8
0
 48
50.0
100
AcDbBlockBegin
  2
*D4
 70
     1
 10
0.0
 20
0.0
 30
0.0
  3
*D4
  1

  0
LINE
  5
14BB8
330
14B15
100
AcDbEntity
  8
0
  6
ByBlock
 62
     0
 48
50.0
100
AcDbLine
 10
4192.426034866593
 20
1695.562576328022
 30
0.0
 11
4192.426034866593
 21
1333.658501641213
 31
0.0
  0
LINE
  5
14BB9
330
14B15
100
AcDbEntity
  8
0
  6
ByBlock
 62
     0
 48
50.0
100
AcDbLine
 10
7442.426034866594
 20
1695.562576328022
 30
0.0
 11
7442.426034866594
 21
1333.658501641213
 31
0.0
  0
LINE
  5
14BBA
330
14B15
100
AcDbEntity
  8
0
  6
ByBlock
 62
     0
 48
50.0
100
AcDbLine
 10
4192.426034866593
 20
1378.658501641213
 30
0.0
 11
7442.426034866594
 21
1378.658501641213
 31
0.0
  0
INSERT
  5
14BBB
330
14B15
100
AcDbEntity
  8
0
  6
ByBlock
 62
     0
 48
50.0
100
AcDbBlockReference
  2
_DOTSMALL
 10
4192.426034866593
 20
1378.658501641213
 30
0.0
 41
75.0
 42
75.0
 43
75.0
 50
180.0
  0
INSERT
  5
14BBC
330
14B15
100
AcDbEntity
  8
0
  6
ByBlock
 62
     0
 48
50.0
100
AcDbBlockReference
  2
_DOTSMALL
 10
7442.426034866594
 20
1378.658501641213
 30
0.0
 41
75.0
 42
75.0
 43
75.0
  0
MTEXT
  5
14BBD
330
14B15
100
AcDbEntity
  8
0
  6
ByBlock
 62
     7
 48
50.0
100
AcDbMText
 10
5817.426034866594
 20
1453.66735990893
 30
0.0
 40
90.0
 41
0.0
 71
     5
 72
     1
  1
\A1;3250
  7
STYLE1
 73
     1
 44
1.0
1001
ACAD
1000
MTEXTBEGIN
1070
    73
1070
     1
1070
    44
1040
1.0
1070
    74
1070
     0
1000
MTEXTEND
  0
POINT
  5
14BBE
330
14B15
100
AcDbEntity
  8
DEFPOINTS
  6
ByBlock
 62
     0
 48
50.0
100
AcDbPoint
 10
4192.426034866593
 20
1710.562576328022
 30
0.0
  0
POINT
  5
14BBF
330
14B15
100
AcDbEntity
  8
DEFPOINTS
  6
ByBlock
 62
     0
 48
50.0
100
AcDbPoint
 10
7442.426034866594
 20
1710.562576328022
 30
0.0
  0
POINT
  5
14BC0
330
14B15
100
AcDbEntity
  8
DEFPOINTS
  6
ByBlock
 62
     0
 48
50.0
100
AcDbPoint
 10
7442.426034866594
 20
1378.658501641213
 30
0.0
  0
ENDBLK
  5
14BC1
330
14B15
100
AcDbEntity
  8
0
 48
50.0
100
AcDbBlockEnd
  0
BLOCK
  5
14CCB
330
14B21
100
AcDbEntity
  8
0
 48
50.0
100
AcDbBlockBegin
  2
*D5
 70
     1
 10
0.0
 20
0.0
 30
0.0
  3
*D5
  1

  0
LINE
  5
14CCC
330
14B21
100
AcDbEntity
  8
0
  6
ByBlock
 62
     0
 48
50.0
100
AcDbLine
 10
1241.88268895891
 20
3985.897875741639
 30
0.0
 11
1241.88268895891
 21
4646.702425425583
 31
0.0
  0
LINE
  5
14CCD
330
14B21
100
AcDbEntity
  8
0
  6
ByBlock
 62
     0
 48
50.0
100
AcDbLine
 10
7741.882688958914
 20
3985.897875741637
 30
0.0
 11
7741.882688958914
 21
4646.702425425583
 31
0.0
  0
LINE
  5
14CCE
330
14B21
100
AcDbEntity
  8
0
  6
ByBlock
 62
     0
 48
50.0
100
AcDbLine
 10
1241.88268895891
 20
4601.702425425583
 30
0.0
 11
7741.882688958914
 21
4601.702425425583
 31
0.0
  0
INSERT
  5
14CCF
330
14B21
100
AcDbEntity
  8
0
  6
ByBlock
 62
     0
 48
50.0
100
AcDbBlockReference
  2
_DOTSMALL
 10
1241.88268895891
 20
4601.702425425583
 30
0.0
 41
75.0
 42
75.0
 43
75.0
 50
180.0
  0
INSERT
  5
14CD0
330
14B21
100
AcDbEntity
  8
0
  6
ByBlock
 62
     0
 48
50.0
100
AcDbBlockReference
  2
_DOTSMALL
 10
7741.882688958914
 20
4601.702425425583
 30
0.0
 41
75.0
 42
75.0
 43
75.0
  0
MTEXT
  5
14CD1
330
14B21
100
AcDbEntity
  8
0
  6
ByBlock
 62
     7
 48
50.0
100
AcDbMText
 10
4491.882688958912
 20
4676.7112836933
 30
0.0
 40
90.0
 41
0.0
 71
     5
 72
     1
  1
\A1;N X 3250
  7
STYLE1
 73
     1
 44
1.0
1001
ACAD
1000
MTEXTBEGIN
1070
    73
1070
     1
1070
    44
1040
1.0
1070
    74
1070
     0
1000
MTEXTEND
  0
POINT
  5
14CD2
330
14B21
100
AcDbEntity
  8
DEFPOINTS
  6
ByBlock
 62
     0
 48
50.0
100
AcDbPoint
 10
1241.88268895891
 20
3970.897875741638
 30
0.0
  0
POINT
  5
14CD3
330
14B21
100
AcDbEntity
  8
DEFPOINTS
  6
ByBlock
 62
     0
 48
50.0
100
AcDbPoint
 10
7741.882688958914
 20
3970.897875741638
 30
0.0
  0
POINT
  5
14CD4
330
14B21
100
AcDbEntity
  8
DEFPOINTS
  6
ByBlock
 62
     0
 48
50.0
100
AcDbPoint
 10
7741.882688958914
 20
4601.702425425583
 30
0.0
  0
ENDBLK
  5
14CD5
330
14B21
100
AcDbEntity
  8
0
 48
50.0
100
AcDbBlockEnd
  0
BLOCK
  5
14CC0
330
14B2D
100
AcDbEntity
  8
0
 48
50.0
100
AcDbBlockBegin
  2
*D6
 70
     1
 10
0.0
 20
0.0
 30
0.0
  3
*D6
  1

  0
LINE
  5
14CC1
330
14B2D
100
AcDbEntity
  8
0
  6
ByBlock
 62
     0
 48
50.0
100
AcDbLine
 10
991.88268895891
 20
4081.450581124186
 30
0.0
 11
991.88268895891
 21
4955.957606075116
 31
0.0
  0
LINE
  5
14CC2
330
14B2D
100
AcDbEntity
  8
0
  6
ByBlock
 62
     0
 48
50.0
100
AcDbLine
 10
7991.882688958914
 20
4081.450581124185
 30
0.0
 11
7991.882688958914
 21
4955.957606075116
 31
0.0
  0
LINE
  5
14CC3
330
14B2D
100
AcDbEntity
  8
0
  6
ByBlock
 62
     0
 48
50.0
100
AcDbLine
 10
991.88268895891
 20
4910.957606075115
 30
0.0
 11
7991.882688958914
 21
4910.957606075115
 31
0.0
  0
INSERT
  5
14CC4
330
14B2D
100
AcDbEntity
  8
0
  6
ByBlock
 62
     0
 48
50.0
100
AcDbBlockReference
  2
_DOTSMALL
 10
991.88268895891
 20
4910.957606075115
 30
0.0
 41
75.0
 42
75.0
 43
75.0
 50
180.0
  0
INSERT
  5
14CC5
330
14B2D
100
AcDbEntity
  8
0
  6
ByBlock
 62
     0
 48
50.0
100
AcDbBlockReference
  2
_DOTSMALL
 10
7991.882688958914
 20
4910.957606075115
 30
0.0
 41
75.0
 42
75.0
 43
75.0
  0
MTEXT
  5
14CC6
330
14B2D
100
AcDbEntity
  8
0
  6
ByBlock
 62
     7
 48
50.0
100
AcDbMText
 10
4491.882688958912
 20
4985.966464342832
 30
0.0
 40
90.0
 41
0.0
 71
     5
 72
     1
  1
\A1;N X 3250 + 500
  7
STYLE1
 73
     1
 44
1.0
1001
ACAD
1000
MTEXTBEGIN
1070
    73
1070
     1
1070
    44
1040
1.0
1070
    74
1070
     0
1000
MTEXTEND
  0
POINT
  5
14CC7
330
14B2D
100
AcDbEntity
  8
DEFPOINTS
  6
ByBlock
 62
     0
 48
50.0
100
AcDbPoint
 10
991.88268895891
 20
4066.450581124186
 30
0.0
  0
POINT
  5
14CC8
330
14B2D
100
AcDbEntity
  8
DEFPOINTS
  6
ByBlock
 62
     0
 48
50.0
100
AcDbPoint
 10
7991.882688958914
 20
4066.450581124185
 30
0.0
  0
POINT
  5
14CC9
330
14B2D
100
AcDbEntity
  8
DEFPOINTS
  6
ByBlock
 62
     0
 48
50.0
100
AcDbPoint
 10
7991.882688958914
 20
4910.957606075115
 30
0.0
  0
ENDBLK
  5
14CCA
330
14B2D
100
AcDbEntity
  8
0
 48
50.0
100
AcDbBlockEnd
  0
BLOCK
  5
14BD8
330
14B39
100
AcDbEntity
  8
0
 48
50.0
100
AcDbBlockBegin
  2
*D7
 70
     1
 10
0.0
 20
0.0
 30
0.0
  3
*D7
  1

  0
LINE
  5
14BD9
330
14B39
100
AcDbEntity
  8
0
  6
ByBlock
 62
     0
 48
50.0
100
AcDbLine
 10
692.4260348665902
 20
4081.450581124186
 30
0.0
 11
692.4260348665902
 21
4646.702425425583
 31
0.0
  0
LINE
  5
14BDA
330
14B39
100
AcDbEntity
  8
0
  6
ByBlock
 62
     0
 48
50.0
100
AcDbLine
 10
942.4260348665903
 20
3985.897875741639
 30
0.0
 11
942.4260348665903
 21
4646.702425425583
 31
0.0
  0
LINE
  5
14BDB
330
14B39
100
AcDbEntity
  8
0
  6
ByBlock
 62
     0
 48
50.0
100
AcDbLine
 10
942.4260348665903
 20
4601.702425425583
 30
0.0
 11
692.4260348665902
 21
4601.702425425583
 31
0.0
  0
LINE
  5
14BDC
330
14B39
100
AcDbEntity
  8
0
  6
ByBlock
 62
     0
 48
50.0
100
AcDbLine
 10
692.4260348665902
 20
4601.702425425583
 30
0.0
 11
393.0697356539917
 21
4601.702425425583
 31
0.0
  0
INSERT
  5
14BDD
330
14B39
100
AcDbEntity
  8
0
  6
ByBlock
 62
     0
 48
50.0
100
AcDbBlockReference
  2
_DOTSMALL
 10
942.4260348665903
 20
4601.702425425583
 30
0.0
 41
75.0
 42
75.0
 43
75.0
  0
INSERT
  5
14BDE
330
14B39
100
AcDbEntity
  8
0
  6
ByBlock
 62
     0
 48
50.0
100
AcDbBlockReference
  2
_DOTSMALL
 10
692.4260348665902
 20
4601.702425425583
 30
0.0
 41
75.0
 42
75.0
 43
75.0
 50
180.0
  0
MTEXT
  5
14BDF
330
14B39
100
AcDbEntity
  8
0
  6
ByBlock
 62
     7
 48
50.0
100
AcDbMText
 10
505.2478852602908
 20
4676.7112836933
 30
0.0
 40
90.0
 41
0.0
 71
     5
 72
     1
  1
\A1;250
  7
STYLE1
 73
     1
 44
1.0
1001
ACAD
1000
MTEXTBEGIN
1070
    73
1070
     1
1070
    44
1040
1.0
1070
    74
1070
     0
1000
MTEXTEND
  0
POINT
  5
14BE0
330
14B39
100
AcDbEntity
  8
DEFPOINTS
  6
ByBlock
 62
     0
 48
50.0
100
AcDbPoint
 10
692.4260348665902
 20
4066.450581124186
 30
0.0
  0
POINT
  5
14BE1
330
14B39
100
AcDbEntity
  8
DEFPOINTS
  6
ByBlock
 62
     0
 48
50.0
100
AcDbPoint
 10
942.4260348665903
 20
3970.897875741638
 30
0.0
  0
POINT
  5
14BE2
330
14B39
100
AcDbEntity
  8
DEFPOINTS
  6
ByBlock
 62
     0
 48
50.0
100
AcDbPoint
 10
942.4260348665903
 20
4601.702425425583
 30
0.0
  0
ENDBLK
  5
14BE3
330
14B39
100
AcDbEntity
  8
0
 48
50.0
100
AcDbBlockEnd
  0
BLOCK
  5
14BEF
330
14B52
100
AcDbEntity
  8
0
 48
50.0
100
AcDbBlockBegin
  2
*D8
 70
     1
 10
0.0
 20
0.0
 30
0.0
  3
*D8
  1

  0
LINE
  5
14BF0
330
14B52
100
AcDbEntity
  8
0
  6
ByBlock
 62
     0
 48
50.0
100
AcDbLine
 10
7442.426034866594
 20
3985.897875741637
 30
0.0
 11
7442.426034866594
 21
4646.702425425581
 31
0.0
  0
LINE
  5
14BF1
330
14B52
100
AcDbEntity
  8
0
  6
ByBlock
 62
     0
 48
50.0
100
AcDbLine
 10
7692.426034866594
 20
4081.450581124185
 30
0.0
 11
7692.426034866594
 21
4646.702425425581
 31
0.0
  0
LINE
  5
14BF2
330
14B52
100
AcDbEntity
  8
0
  6
ByBlock
 62
     0
 48
50.0
100
AcDbLine
 10
7442.426034866594
 20
4601.702425425581
 30
0.0
 11
7692.426034866594
 21
4601.702425425581
 31
0.0
  0
LINE
  5
14BF3
330
14B52
100
AcDbEntity
  8
0
  6
ByBlock
 62
     0
 48
50.0
100
AcDbLine
 10
7692.426034866594
 20
4601.702425425581
 30
0.0
 11
7991.782334079193
 21
4601.702425425581
 31
0.0
  0
INSERT
  5
14BF4
330
14B52
100
AcDbEntity
  8
0
  6
ByBlock
 62
     0
 48
50.0
100
AcDbBlockReference
  2
_DOTSMALL
 10
7442.426034866594
 20
4601.702425425581
 30
0.0
 41
75.0
 42
75.0
 43
75.0
 50
180.0
  0
INSERT
  5
14BF5
330
14B52
100
AcDbEntity
  8
0
  6
ByBlock
 62
     0
 48
50.0
100
AcDbBlockReference
  2
_DOTSMALL
 10
7692.426034866594
 20
4601.702425425581
 30
0.0
 41
75.0
 42
75.0
 43
75.0
  0
MTEXT
  5
14BF6
330
14B52
100
AcDbEntity
  8
0
  6
ByBlock
 62
     7
 48
50.0
100
AcDbMText
 10
7879.604184472893
 20
4676.711283693297
 30
0.0
 40
90.0
 41
0.0
 71
     5
 72
     1
  1
\A1;250
  7
STYLE1
 73
     1
 44
1.0
1001
ACAD
1000
MTEXTBEGIN
1070
    73
1070
     1
1070
    44
1040
1.0
1070
    74
1070
     0
1000
MTEXTEND
  0
POINT
  5
14BF7
330
14B52
100
AcDbEntity
  8
DEFPOINTS
  6
ByBlock
 62
     0
 48
50.0
100
AcDbPoint
 10
7442.426034866594
 20
3970.897875741638
 30
0.0
  0
POINT
  5
14BF8
330
14B52
100
AcDbEntity
  8
DEFPOINTS
  6
ByBlock
 62
     0
 48
50.0
100
AcDbPoint
 10
7692.426034866594
 20
4066.450581124185
 30
0.0
  0
POINT
  5
14BF9
330
14B52
100
AcDbEntity
  8
DEFPOINTS
  6
ByBlock
 62
     0
 48
50.0
100
AcDbPoint
 10
7692.426034866594
 20
4601.702425425581
 30
0.0
  0
ENDBLK
  5
14BFA
330
14B52
100
AcDbEntity
  8
0
 48
50.0
100
AcDbBlockEnd
  0
BLOCK
  5
14BFB
330
14B5F
100
AcDbEntity
  8
0
 48
50.0
100
AcDbBlockBegin
  2
*D9
 70
     1
 10
0.0
 20
0.0
 30
0.0
  3
*D9
  1

  0
LINE
  5
14E8C
330
14B5F
100
AcDbEntity
  8
寸法
 62
     0
 48
50.0
370
    -2
100
AcDbLine
 10
7991.882688958914
 20
7921.447238448386
 30
0.0
 11
8660.372223483793
 21
7921.447238448386
 31
0.0
  0
LINE
  5
14E8D
330
14B5F
100
AcDbEntity
  8
寸法
 62
     0
 48
50.0
370
    -2
100
AcDbLine
 10
7991.882688958914
 20
5921.447238448382
 30
0.0
 11
8660.372223483793
 21
5921.447238448382
 31
0.0
  0
LINE
  5
14E8E
330
14B5F
100
AcDbEntity
  8
寸法
 62
     0
 48
50.0
370
    -2
100
AcDbLine
 10
8615.372223483793
 20
7921.447238448386
 30
0.0
 11
8615.372223483793
 21
5921.447238448382
 31
0.0
  0
INSERT
  5
14E8F
330
14B5F
100
AcDbEntity
  8
寸法
 62
     0
 48
50.0
370
    -2
100
AcDbBlockReference
  2
_DOTSMALL
 10
8615.372223483793
 20
7921.447238448386
 30
0.0
 41
75.0
 42
75.0
 43
75.0
 50
90.0
  0
INSERT
  5
14E90
330
14B5F
100
AcDbEntity
  8
寸法
 62
     0
 48
50.0
370
    -2
100
AcDbBlockReference
  2
_DOTSMALL
 10
8615.372223483793
 20
5921.447238448382
 30
0.0
 41
75.0
 42
75.0
 43
75.0
 50
270.0
  0
MTEXT
  5
14E91
330
14B5F
100
AcDbEntity
  8
寸法
 62
     7
 48
50.0
100
AcDbMText
 10
8540.363365216075
 20
6921.447238448381
 30
0.0
 40
90.0
 41
0.0
 71
     5
 72
     1
  1
\A1;2000
  7
STYLE1
 11
0.0000000000000001
 21
1.0
 31
0.0
 73
     1
 44
1.0
1001
ACAD
1000
MTEXTBEGIN
1070
    73
1070
     1
1070
    44
1040
1.0
1070
    74
1070
     0
1000
MTEXTEND
  0
POINT
  5
14E92
330
14B5F
100
AcDbEntity
  8
DEFPOINTS
 62
     0
 48
50.0
100
AcDbPoint
 10
7976.882688958913
 20
7921.447238448386
 30
0.0
  0
POINT
  5
14E93
330
14B5F
100
AcDbEntity
  8
DEFPOINTS
 62
     0
 48
50.0
100
AcDbPoint
 10
7976.882688958913
 20
5921.447238448382
 30
0.0
  0
POINT
  5
14E94
330
14B5F
100
AcDbEntity
  8
DEFPOINTS
 62
     0
 48
50.0
100
AcDbPoint
 10
8615.372223483793
 20
5921.447238448382
 30
0.0
  0
ENDBLK
  5
14C05
330
14B5F
100
AcDbEntity
  8
0
 48
50.0
100
AcDbBlockEnd
  0
BLOCK
  5
14C06
330
14B6B
100
AcDbEntity
  8
0
 48
50.0
100
AcDbBlockBegin
  2
*D10
 70
     1
 10
0.0
 20
0.0
 30
0.0
  3
*D10
  1

  0
LINE
  5
14C07
330
14B6B
100
AcDbEntity
  8
0
  6
ByBlock
 62
     0
 48
50.0
100
AcDbLine
 10
9115.103549311355
 20
4081.450581124187
 30
0.0
 11
9115.103549311355
 21
4951.270106075114
 31
0.0
  0
LINE
  5
14C08
330
14B6B
100
AcDbEntity
  8
0
  6
ByBlock
 62
     0
 48
50.0
100
AcDbLine
 10
11115.10354931135
 20
4002.650581124186
 30
0.0
 11
11115.10354931135
 21
4951.270106075114
 31
0.0
  0
LINE
  5
14C09
330
14B6B
100
AcDbEntity
  8
0
  6
ByBlock
 62
     0
 48
50.0
100
AcDbLine
 10
9115.103549311355
 20
4906.270106075113
 30
0.0
 11
11115.10354931135
 21
4906.270106075113
 31
0.0
  0
INSERT
  5
14C0A
330
14B6B
100
AcDbEntity
  8
0
  6
ByBlock
 62
     0
 48
50.0
100
AcDbBlockReference
  2
_DOTSMALL
 10
9115.103549311355
 20
4906.270106075113
 30
0.0
 41
75.0
 42
75.0
 43
75.0
 50
180.0
  0
INSERT
  5
14C0B
330
14B6B
100
AcDbEntity
  8
0
  6
ByBlock
 62
     0
 48
50.0
100
AcDbBlockReference
  2
_DOTSMALL
 10
11115.10354931135
 20
4906.270106075113
 30
0.0
 41
75.0
 42
75.0
 43
75.0
  0
MTEXT
  5
14C0C
330
14B6B
100
AcDbEntity
  8
0
  6
ByBlock
 62
     7
 48
50.0
100
AcDbMText
 10
10115.10354931135
 20
4981.27896434283
 30
0.0
 40
90.0
 41
0.0
 71
     5
 72
     1
  1
\A1;2000
  7
STYLE1
 73
     1
 44
1.0
1001
ACAD
1000
MTEXTBEGIN
1070
    73
1070
     1
1070
    44
1040
1.0
1070
    74
1070
     0
1000
MTEXTEND
  0
POINT
  5
14C0D
330
14B6B
100
AcDbEntity
  8
DEFPOINTS
  6
ByBlock
 62
     0
 48
50.0
100
AcDbPoint
 10
9115.103549311355
 20
4066.450581124187
 30
0.0
  0
POINT
  5
14C0E
330
14B6B
100
AcDbEntity
  8
DEFPOINTS
  6
ByBlock
 62
     0
 48
50.0
100
AcDbPoint
 10
11115.10354931135
 20
3987.650581124186
 30
0.0
  0
POINT
  5
14C0F
330
14B6B
100
AcDbEntity
  8
DEFPOINTS
  6
ByBlock
 62
     0
 48
50.0
100
AcDbPoint
 10
11115.10354931135
 20
4906.270106075113
 30
0.0
  0
ENDBLK
  5
14C10
330
14B6B
100
AcDbEntity
  8
0
 48
50.0
100
AcDbBlockEnd
  0
BLOCK
  5
14D58
330
14B77
100
AcDbEntity
  8
0
 48
50.0
100
AcDbBlockBegin
  2
*D11
 70
     1
 10
0.0
 20
0.0
 30
0.0
  3
*D11
  1

  0
LINE
  5
14D59
330
14B77
100
AcDbEntity
  8
0
  6
ByBlock
 62
     0
 48
50.0
100
AcDbLine
 10
10469.56020340367
 20
1880.562576328022
 30
0.0
 11
11835.19765587827
 21
1880.562576328022
 31
0.0
  0
LINE
  5
14D5A
330
14B77
100
AcDbEntity
  8
0
  6
ByBlock
 62
     0
 48
50.0
100
AcDbLine
 10
11429.56020340367
 20
1830.562576328022
 30
0.0
 11
11835.19765587827
 21
1830.562576328022
 31
0.0
  0
LINE
  5
14D5B
330
14B77
100
AcDbEntity
  8
0
  6
ByBlock
 62
     0
 48
50.0
100
AcDbLine
 10
11790.19765587827
 20
1880.562576328022
 30
0.0
 11
11790.19765587827
 21
1955.562576328022
 31
0.0
  0
LINE
  5
14D5C
330
14B77
100
AcDbEntity
  8
0
  6
ByBlock
 62
     0
 48
50.0
100
AcDbLine
 10
11790.19765587827
 20
1830.562576328022
 30
0.0
 11
11790.19765587827
 21
1521.49171018629
 31
0.0
  0
LINE
  5
14D5D
330
14B77
100
AcDbEntity
  8
0
  6
ByBlock
 62
     0
 48
50.0
100
AcDbLine
 10
11790.19765587827
 20
1880.562576328022
 30
0.0
 11
11790.19765587827
 21
1830.562576328022
 31
0.0
  0
INSERT
  5
14D5E
330
14B77
100
AcDbEntity
  8
0
  6
ByBlock
 62
     0
 48
50.0
100
AcDbBlockReference
  2
_DOTSMALL
 10
11790.19765587827
 20
1880.562576328022
 30
0.0
 41
75.0
 42
75.0
 43
75.0
 50
270.0
  0
INSERT
  5
14D5F
330
14B77
100
AcDbEntity
  8
0
  6
ByBlock
 62
     0
 48
50.0
100
AcDbBlockReference
  2
_DOTSMALL
 10
11790.19765587827
 20
1830.562576328022
 30
0.0
 41
75.0
 42
75.0
 43
75.0
 50
90.0
  0
MTEXT
  5
14D60
330
14B77
100
AcDbEntity
  8
0
  6
ByBlock
 62
     7
 48
50.0
100
AcDbMText
 10
11715.19765587827
 20
1601.027143257156
 30
0.0
 40
90.0
 41
0.0
 71
     5
 72
     1
  1
\A1;50
  7
STYLE1
 11
0.0000000000000001
 21
1.0
 31
0.0
 73
     1
 44
1.0
1001
ACAD
1000
MTEXTBEGIN
1070
    73
1070
     1
1070
    44
1040
1.0
1070
    74
1070
     0
1000
MTEXTEND
  0
POINT
  5
14D61
330
14B77
100
AcDbEntity
  8
DEFPOINTS
  6
ByBlock
 62
     0
 48
50.0
100
AcDbPoint
 10
10454.56020340367
 20
1880.562576328022
 30
0.0
  0
POINT
  5
14D62
330
14B77
100
AcDbEntity
  8
DEFPOINTS
  6
ByBlock
 62
     0
 48
50.0
100
AcDbPoint
 10
11414.56020340367
 20
1830.562576328022
 30
0.0
  0
POINT
  5
14D63
330
14B77
100
AcDbEntity
  8
DEFPOINTS
  6
ByBlock
 62
     0
 48
50.0
100
AcDbPoint
 10
11790.19765587827
 20
1830.562576328022
 30
0.0
  0
ENDBLK
  5
14D64
330
14B77
100
AcDbEntity
  8
0
 48
50.0
100
AcDbBlockEnd
  0
BLOCK
  5
14D65
330
14B85
100
AcDbEntity
  8
0
 48
50.0
100
AcDbBlockBegin
  2
*D12
 70
     1
 10
0.0
 20
0.0
 30
0.0
  3
*D12
  1

  0
LINE
  5
14D66
330
14B85
100
AcDbEntity
  8
0
  6
ByBlock
 62
     0
 48
50.0
100
AcDbLine
 10
9399.560203403675
 20
1830.562576328022
 30
0.0
 11
8761.685094943322
 21
1830.562576328022
 31
0.0
  0
LINE
  5
14D67
330
14B85
100
AcDbEntity
  8
0
  6
ByBlock
 62
     0
 48
50.0
100
AcDbLine
 10
10359.56020340367
 20
1880.562576328023
 30
0.0
 11
8761.685094943322
 21
1880.562576328023
 31
0.0
  0
LINE
  5
14D68
330
14B85
100
AcDbEntity
  8
0
  6
ByBlock
 62
     0
 48
50.0
100
AcDbLine
 10
8806.685094943322
 20
1880.562576328023
 30
0.0
 11
8806.685094943322
 21
1955.562576328023
 31
0.0
  0
LINE
  5
14D69
330
14B85
100
AcDbEntity
  8
0
  6
ByBlock
 62
     0
 48
50.0
100
AcDbLine
 10
8806.685094943322
 20
1830.562576328022
 30
0.0
 11
8806.685094943322
 21
1521.49171018629
 31
0.0
  0
LINE
  5
14D6A
330
14B85
100
AcDbEntity
  8
0
  6
ByBlock
 62
     0
 48
50.0
100
AcDbLine
 10
8806.685094943322
 20
1880.562576328023
 30
0.0
 11
8806.685094943322
 21
1830.562576328022
 31
0.0
  0
INSERT
  5
14D6B
330
14B85
100
AcDbEntity
  8
0
  6
ByBlock
 62
     0
 48
50.0
100
AcDbBlockReference
  2
_DOTSMALL
 10
8806.685094943322
 20
1880.562576328023
 30
0.0
 41
75.0
 42
75.0
 43
75.0
 50
270.0
  0
INSERT
  5
14D6C
330
14B85
100
AcDbEntity
  8
0
  6
ByBlock
 62
     0
 48
50.0
100
AcDbBlockReference
  2
_DOTSMALL
 10
8806.685094943322
 20
1830.562576328022
 30
0.0
 41
75.0
 42
75.0
 43
75.0
 50
90.0
  0
MTEXT
  5
14D6D
330
14B85
100
AcDbEntity
  8
0
  6
ByBlock
 62
     7
 48
50.0
100
AcDbMText
 10
8731.685094943321
 20
1601.027143257156
 30
0.0
 40
90.0
 41
0.0
 71
     5
 72
     1
  1
\A1;50
  7
STYLE1
 11
0.0000000000000001
 21
1.0
 31
0.0
 73
     1
 44
1.0
1001
ACAD
1000
MTEXTBEGIN
1070
    73
1070
     1
1070
    44
1040
1.0
1070
    74
1070
     0
1000
MTEXTEND
  0
POINT
  5
14D6E
330
14B85
100
AcDbEntity
  8
DEFPOINTS
  6
ByBlock
 62
     0
 48
50.0
100
AcDbPoint
 10
9414.560203403674
 20
1830.562576328022
 30
0.0
  0
POINT
  5
14D6F
330
14B85
100
AcDbEntity
  8
DEFPOINTS
  6
ByBlock
 62
     0
 48
50.0
100
AcDbPoint
 10
10374.56020340367
 20
1880.562576328023
 30
0.0
  0
POINT
  5
14D70
330
14B85
100
AcDbEntity
  8
DEFPOINTS
  6
ByBlock
 62
     0
 48
50.0
100
AcDbPoint
 10
8806.685094943322
 20
1880.562576328023
 30
0.0
  0
ENDBLK
  5
14D71
330
14B85
100
AcDbEntity
  8
0
 48
50.0
100
AcDbBlockEnd
  0
BLOCK
  5
14C2B
330
14B93
100
AcDbEntity
  8
0
 48
50.0
100
AcDbBlockBegin
  2
*D13
 70
     1
 10
0.0
 20
0.0
 30
0.0
  3
*D13
  1

  0
LINE
  5
14C2C
330
14B93
100
AcDbEntity
  8
0
  6
ByBlock
 62
     0
 48
50.0
100
AcDbLine
 10
9100.103549311356
 20
4082.062576328023
 30
0.0
 11
8462.228440851003
 21
4082.062576328023
 31
0.0
  0
LINE
  5
14C2D
330
14B93
100
AcDbEntity
  8
0
  6
ByBlock
 62
     0
 48
50.0
100
AcDbLine
 10
9100.103549311356
 20
1880.562576328022
 30
0.0
 11
8462.228440851003
 21
1880.562576328022
 31
0.0
  0
LINE
  5
14C2E
330
14B93
100
AcDbEntity
  8
0
  6
ByBlock
 62
     0
 48
50.0
100
AcDbLine
 10
8507.228440851003
 20
4082.062576328023
 30
0.0
 11
8507.228440851003
 21
1880.562576328022
 31
0.0
  0
INSERT
  5
14C2F
330
14B93
100
AcDbEntity
  8
0
  6
ByBlock
 62
     0
 48
50.0
100
AcDbBlockReference
  2
_DOTSMALL
 10
8507.228440851003
 20
4082.062576328023
 30
0.0
 41
75.0
 42
75.0
 43
75.0
 50
90.0
  0
INSERT
  5
14C30
330
14B93
100
AcDbEntity
  8
0
  6
ByBlock
 62
     0
 48
50.0
100
AcDbBlockReference
  2
_DOTSMALL
 10
8507.228440851003
 20
1880.562576328022
 30
0.0
 41
75.0
 42
75.0
 43
75.0
 50
270.0
  0
MTEXT
  5
14C31
330
14B93
100
AcDbEntity
  8
0
  6
ByBlock
 62
     7
 48
50.0
100
AcDbMText
 10
8432.219582583286
 20
2981.312576328022
 30
0.0
 40
90.0
 41
0.0
 71
     5
 72
     1
  1
\A1;2201.5
  7
STYLE1
 11
0.0000000000000001
 21
1.0
 31
0.0
 73
     1
 44
1.0
1001
ACAD
1000
MTEXTBEGIN
1070
    73
1070
     1
1070
    44
1040
1.0
1070
    74
1070
     0
1000
MTEXTEND
  0
POINT
  5
14C32
330
14B93
100
AcDbEntity
  8
DEFPOINTS
  6
ByBlock
 62
     0
 48
50.0
100
AcDbPoint
 10
9115.103549311355
 20
4082.062576328023
 30
0.0
  0
POINT
  5
14C33
330
14B93
100
AcDbEntity
  8
DEFPOINTS
  6
ByBlock
 62
     0
 48
50.0
100
AcDbPoint
 10
9115.103549311355
 20
1880.562576328022
 30
0.0
  0
POINT
  5
14C34
330
14B93
100
AcDbEntity
  8
DEFPOINTS
  6
ByBlock
 62
     0
 48
50.0
100
AcDbPoint
 10
8507.228440851003
 20
1880.562576328022
 30
0.0
  0
ENDBLK
  5
14C35
330
14B93
100
AcDbEntity
  8
0
 48
50.0
100
AcDbBlockEnd
  0
BLOCK
  5
14C36
330
14B9F
100
AcDbEntity
  8
0
 48
50.0
100
AcDbBlockBegin
  2
*D14
 70
     1
 10
0.0
 20
0.0
 30
0.0
  3
*D14
  1

  0
LINE
  5
14C37
330
14B9F
100
AcDbEntity
  8
0
  6
ByBlock
 62
     0
 48
50.0
100
AcDbLine
 10
9115.715055505779
 20
4082.038116080246
 30
0.0
 11
8776.698635246756
 21
4095.598772890606
 31
0.0
  0
LINE
  5
14C38
330
14B9F
100
AcDbEntity
  8
0
  6
ByBlock
 62
     0
 48
50.0
100
AcDbLine
 10
9135.946881310283
 20
3977.646076141594
 30
0.0
 11
8772.561943277649
 21
3992.181473662899
 31
0.0
  0
LINE
  5
14C39
330
14B9F
100
AcDbEntity
  8
0
  6
ByBlock
 62
     0
 48
50.0
100
AcDbLine
 10
8821.662678389236
 20
4093.800211164907
 30
0.0
 11
8817.525986420127
 21
3990.382911937201
 31
0.0
  0
INSERT
  5
14C3A
330
14B9F
100
AcDbEntity
  8
0
  6
ByBlock
 62
     0
 48
50.0
100
AcDbBlockReference
  2
_DOTSMALL
 10
8821.662678389236
 20
4093.800211164907
 30
0.0
 41
75.0
 42
75.0
 43
75.0
 50
87.7093899573615
  0
INSERT
  5
14C3B
330
14B9F
100
AcDbEntity
  8
0
  6
ByBlock
 62
     0
 48
50.0
100
AcDbBlockReference
  2
_DOTSMALL
 10
8817.525986420127
 20
3990.382911937201
 30
0.0
 41
75.0
 42
75.0
 43
75.0
 50
267.7093899573615
  0
MTEXT
  5
14C3C
330
14B9F
100
AcDbEntity
  8
0
  6
ByBlock
 62
     7
 48
50.0
100
AcDbMText
 10
8744.654260500547
 20
4045.089164427219
 30
0.0
 40
90.0
 41
0.0
 71
     5
 72
     1
  1
\A1;103.5
  7
STYLE1
 11
0.0399680383488711
 21
0.9992009587217895
 31
0.0
 73
     1
 44
1.0
1001
ACAD
1000
MTEXTBEGIN
1070
    73
1070
     1
1070
    44
1040
1.0
1070
    74
1070
     0
1000
MTEXTEND
  0
POINT
  5
14C3D
330
14B9F
100
AcDbEntity
  8
DEFPOINTS
  6
ByBlock
 62
     0
 48
50.0
100
AcDbPoint
 10
9130.703069886605
 20
4081.438595505012
 30
0.0
 50
2.290610042638495
  0
POINT
  5
14C3E
330
14B9F
100
AcDbEntity
  8
DEFPOINTS
  6
ByBlock
 62
     0
 48
50.0
100
AcDbPoint
 10
9150.93489569111
 20
3977.046555566361
 30
0.0
 50
2.290610042638495
  0
POINT
  5
14C3F
330
14B9F
100
AcDbEntity
  8
DEFPOINTS
  6
ByBlock
 62
     0
 48
50.0
100
AcDbPoint
 10
8817.525986420127
 20
3990.382911937201
 30
0.0
 50
2.290610042638495
  0
ENDBLK
  5
14C40
330
14B9F
100
AcDbEntity
  8
0
 48
50.0
100
AcDbBlockEnd
  0
BLOCK
  5
14C41
330
14BAB
100
AcDbEntity
  8
0
 48
50.0
100
AcDbBlockBegin
  2
*D15
 70
     1
 10
0.0
 20
0.0
 30
0.0
  3
*D15
  1

  0
LINE
  5
14C42
330
14BAB
100
AcDbEntity
  8
0
  6
ByBlock
 62
     0
 48
50.0
100
AcDbLine
 10
11414.64429244082
 20
1880.562576328022
 30
0.0
 11
11535.74100178595
 21
1880.562576328022
 31
0.0
  0
LINE
  5
14C43
330
14BAB
100
AcDbEntity
  8
0
  6
ByBlock
 62
     0
 48
50.0
100
AcDbLine
 10
11130.10354931135
 20
4002.650581124186
 30
0.0
 11
11535.74100178595
 21
4002.650581124185
 31
0.0
  0
LINE
  5
14C44
330
14BAB
100
AcDbEntity
  8
0
  6
ByBlock
 62
     0
 48
50.0
100
AcDbLine
 10
11490.74100178595
 20
1880.562576328022
 30
0.0
 11
11490.74100178595
 21
4002.650581124185
 31
0.0
  0
INSERT
  5
14C45
330
14BAB
100
AcDbEntity
  8
0
  6
ByBlock
 62
     0
 48
50.0
100
AcDbBlockReference
  2
_DOTSMALL
 10
11490.74100178595
 20
1880.562576328022
 30
0.0
 41
75.0
 42
75.0
 43
75.0
 50
270.0
  0
INSERT
  5
14C46
330
14BAB
100
AcDbEntity
  8
0
  6
ByBlock
 62
     0
 48
50.0
100
AcDbBlockReference
  2
_DOTSMALL
 10
11490.74100178595
 20
4002.650581124185
 30
0.0
 41
75.0
 42
75.0
 43
75.0
 50
90.0
  0
MTEXT
  5
14C47
330
14BAB
100
AcDbEntity
  8
0
  6
ByBlock
 62
     7
 48
50.0
100
AcDbMText
 10
11415.73214351823
 20
2991.672581441367
 30
0.0
 40
90.0
 41
0.0
 71
     5
 72
     1
  1
\A1;2121.5
  7
STYLE1
 11
0.0000000000000001
 21
1.0
 31
0.0
 73
     1
 44
1.0
1001
ACAD
1000
MTEXTBEGIN
1070
    73
1070
     1
1070
    44
1040
1.0
1070
    74
1070
     0
1000
MTEXTEND
  0
POINT
  5
14C48
330
14BAB
100
AcDbEntity
  8
DEFPOINTS
  6
ByBlock
 62
     0
 48
50.0
100
AcDbPoint
 10
11399.64429244082
 20
1880.562576328022
 30
0.0
  0
POINT
  5
14C49
330
14BAB
100
AcDbEntity
  8
DEFPOINTS
  6
ByBlock
 62
     0
 48
50.0
100
AcDbPoint
 10
11115.10354931135
 20
4002.650581124186
 30
0.0
  0
POINT
  5
14C4A
330
14BAB
100
AcDbEntity
  8
DEFPOINTS
  6
ByBlock
 62
     0
 48
50.0
100
AcDbPoint
 10
11490.74100178595
 20
4002.650581124185
 30
0.0
  0
ENDBLK
  5
14C4B
330
14BAB
100
AcDbEntity
  8
0
 48
50.0
100
AcDbBlockEnd
  0
BLOCK
  5
14D25
330
14D03
100
AcDbEntity
  8
0
 48
50.0
100
AcDbBlockBegin
  2
*D16
 70
     1
 10
0.0
 20
0.0
 30
0.0
  3
*D16
  1

  0
LINE
  5
14E83
330
14D03
100
AcDbEntity
  8
寸法
 62
     0
 48
50.0
370
    -2
100
AcDbLine
 10
991.9070800347816
 20
7922.302304148465
 30
0.0
 11
991.9070800347816
 21
8301.946101440735
 31
0.0
  0
LINE
  5
14E84
330
14D03
100
AcDbEntity
  8
寸法
 62
     0
 48
50.0
370
    -2
100
AcDbLine
 10
7991.882688958914
 20
7921.447238448386
 30
0.0
 11
7991.882688958914
 21
8301.946101440735
 31
0.0
  0
LINE
  5
14E85
330
14D03
100
AcDbEntity
  8
寸法
 62
     0
 48
50.0
370
    -2
100
AcDbLine
 10
991.9070800347816
 20
8256.946101440735
 30
0.0
 11
7991.882688958914
 21
8256.946101440735
 31
0.0
  0
INSERT
  5
14E86
330
14D03
100
AcDbEntity
  8
寸法
 62
     0
 48
50.0
370
    -2
100
AcDbBlockReference
  2
_DOTSMALL
 10
991.9070800347816
 20
8256.946101440735
 30
0.0
 41
75.0
 42
75.0
 43
75.0
 50
180.0
  0
INSERT
  5
14E87
330
14D03
100
AcDbEntity
  8
寸法
 62
     0
 48
50.0
370
    -2
100
AcDbBlockReference
  2
_DOTSMALL
 10
7991.882688958914
 20
8256.946101440735
 30
0.0
 41
75.0
 42
75.0
 43
75.0
  0
MTEXT
  5
14E88
330
14D03
100
AcDbEntity
  8
寸法
 62
     7
 48
50.0
100
AcDbMText
 10
4491.894884496847
 20
8331.954959708452
 30
0.0
 40
90.0
 41
0.0
 71
     5
 72
     1
  1
\A1;N X 3250 + 500
  7
STYLE1
 73
     1
 44
1.0
1001
ACAD
1000
MTEXTBEGIN
1070
    73
1070
     1
1070
    44
1040
1.0
1070
    74
1070
     0
1000
MTEXTEND
  0
POINT
  5
14E89
330
14D03
100
AcDbEntity
  8
DEFPOINTS
 62
     0
 48
50.0
100
AcDbPoint
 10
991.9070800347816
 20
7907.302304148465
 30
0.0
  0
POINT
  5
14E8A
330
14D03
100
AcDbEntity
  8
DEFPOINTS
 62
     0
 48
50.0
100
AcDbPoint
 10
7991.882688958914
 20
7906.447238448385
 30
0.0
  0
POINT
  5
14E8B
330
14D03
100
AcDbEntity
  8
DEFPOINTS
 62
     0
 48
50.0
100
AcDbPoint
 10
7991.882688958914
 20
8256.946101440735
 30
0.0
  0
ENDBLK
  5
14D2F
330
14D03
100
AcDbEntity
  8
0
 48
50.0
100
AcDbBlockEnd
  0
ENDSEC
  0
SECTION
  2
ENTITIES
  0
MTEXT
  5
763F
330
747D
100
AcDbEntity
  8
0
100
AcDbMText
 10
302.846345836809
 20
280.1983726409901
 30
0.0
 40
3.5
 41
5.323721266742722
 71
     1
 72
     5
  1

  7
MSMINCHO
 73
     1
 44
1.0
1001
ACAD
1000
MTEXTBEGIN
1070
    73
1070
     1
1070
    44
1040
1.0
1070
    74
1070
     0
1000
MTEXTEND
  0
INSERT
  5
F235
330
747D
100
AcDbEntity
  8
0
100
AcDbBlockReference
  2
作図枠S50
 10
0.0
 20
0.0
 30
0.0
 41
0.6000000000000001
 42
0.6000000000000001
 43
0.6000000000000001
  0
LINE
  5
10B56
330
747D
100
AcDbEntity
  8
補助
  6
PHANTOM
 62
   230
 48
50.0
100
AcDbLine
 10
105.0
 20
0.0
 30
0.0
 11
104.9999999999996
 21
8557.199999999999
 31
0.0
  0
LINE
  5
10B57
330
747D
100
AcDbEntity
  8
補助
  6
PHANTOM
 62
   230
 48
50.0
100
AcDbLine
 10
104.9999999999996
 20
8557.199999999999
 30
0.0
 11
12230.4
 21
8557.199999999999
 31
0.0
  0
LINE
  5
10B5E
330
747D
100
AcDbEntity
  8
補助
  6
PHANTOM
 62
   230
 48
50.0
100
AcDbLine
 10
12230.4
 20
8557.199999999999
 30
0.0
 11
12230.4
 21
900.0
 31
0.0
  0
LINE
  5
10B6D
330
747D
100
AcDbEntity
  8
補助
  6
PHANTOM
 62
   230
 48
50.0
100
AcDbLine
 10
9830.400000000002
 20
8557.199999999999
 30
0.0
 11
9830.400000000002
 21
3600.0
 31
0.0
  0
LWPOLYLINE
  5
132CA
330
747D
100
AcDbEntity
  8
部品1
100
AcDbPolyline
 90
        4
 70
     1
 43
0.0
 10
10185.37361734032
 20
1149.796007513017
 10
10832.40499262085
 20
1149.796007513017
 10
10832.40499262085
 20
957.2758516958765
 10
10185.37361734032
 20
957.2758516958765
  0
TEXT
  5
132CB
330
747D
100
AcDbEntity
  8
仕様書枠
 62
     7
 48
50.0
100
AcDbText
 10
10216.78869410186
 20
995.9312831628349
 30
0.0
 40
112.0
  1
側 面 図
  7
STYLE2
100
AcDbText
  0
LINE
  5
145DE
330
747D
100
AcDbEntity
  8
仕様書枠
 48
50.0
100
AcDbLine
 10
105.0000000000018
 20
0.0
 30
0.0
 11
12230.4
 21
0.0
 31
0.0
  0
LINE
  5
145F5
330
747D
100
AcDbEntity
  8
補助
  6
PHANTOM
 62
   230
 48
50.0
100
AcDbLine
 10
11930.4
 20
8182.200000000003
 30
0.0
 11
11930.4
 21
6457.2
 31
0.0
  0
LINE
  5
145F6
330
747D
100
AcDbEntity
  8
補助
  6
PHANTOM
 62
   230
 48
50.0
100
AcDbLine
 10
9380.400000000003
 20
8182.199999999999
 30
0.0
 11
9380.400000000003
 21
6457.2
 31
0.0
  0
LINE
  5
145F7
330
747D
100
AcDbEntity
  8
補助
  6
PHANTOM
 62
   230
 48
50.0
100
AcDbLine
 10
9380.400000000003
 20
6457.2
 30
0.0
 11
11930.4
 21
6457.2
 31
0.0
  0
LINE
  5
145F9
330
747D
100
AcDbEntity
  8
補助
  6
PHANTOM
 62
   230
 48
50.0
100
AcDbLine
 10
9380.400000000003
 20
8182.199999999999
 30
0.0
 11
11930.4
 21
8182.200000000003
 31
0.0
  0
LINE
  5
148E6
330
747D
100
AcDbEntity
  8
点線
 48
50.0
100
AcDbLine
 10
4589.153388071775
 20
6148.947238448385
 30
0.0
 11
7952.882688958914
 21
6148.947238448386
 31
0.0
  0
LINE
  5
148E7
330
747D
100
AcDbEntity
  8
点線
 48
50.0
100
AcDbLine
 10
4571.736690563752
 20
6213.947238448388
 30
0.0
 11
7952.882688958914
 21
6213.947238448385
 31
0.0
  0
LINE
  5
148E8
330
747D
100
AcDbEntity
  8
点線
 48
50.0
100
AcDbLine
 10
4352.906958997478
 20
6963.947238448381
 30
0.0
 11
7952.882688958914
 21
6963.947238448385
 31
0.0
  0
LINE
  5
148E9
330
747D
100
AcDbEntity
  8
点線
 48
50.0
100
AcDbLine
 10
4396.591903753421
 20
6898.947238448385
 30
0.0
 11
7952.882688958914
 21
6898.947238448385
 31
0.0
  0
LINE
  5
148EA
330
747D
100
AcDbEntity
  8
点線
 48
50.0
100
AcDbLine
 10
4187.229599425092
 20
7648.94723844838
 30
0.0
 11
7952.882688958914
 21
7648.947238448385
 31
0.0
  0
LINE
  5
148EB
330
747D
100
AcDbEntity
  8
点線
 48
50.0
100
AcDbLine
 10
4169.812901917069
 20
7713.947238448381
 30
0.0
 11
7952.882688958914
 21
7713.947238448387
 31
0.0
  0
LINE
  5
148EE
330
747D
100
AcDbEntity
  8
部品1
 48
50.0
100
AcDbLine
 10
7976.882688958913
 20
7921.447238448383
 30
0.0
 11
1006.882688958913
 21
7921.447238448378
 31
0.0
  0
LINE
  5
148EF
330
747D
100
AcDbEntity
  8
部品1
 48
50.0
100
AcDbLine
 10
7709.882688958913
 20
3939.307144620489
 30
0.0
 11
4523.882688958913
 21
3939.307144620489
 31
0.0
  0
LINE
  5
148F0
330
747D
100
AcDbEntity
  8
部品1
 48
50.0
100
AcDbLine
 10
7709.882688958913
 20
3969.969012140659
 30
0.0
 11
4523.57167291819
 21
3969.969012140659
 31
0.0
  0
LINE
  5
148F1
330
747D
100
AcDbEntity
  8
部品1
 48
50.0
100
AcDbLine
 10
7709.882688958913
 20
3900.228017808708
 30
0.0
 11
4523.882688958913
 21
3900.228017808709
 31
0.0
  0
LINE
  5
148F2
330
747D
100
AcDbEntity
  8
部品1
 48
50.0
100
AcDbLine
 10
7709.882688958913
 20
3909.96901214066
 30
0.0
 11
4523.882688958913
 21
3909.96901214066
 31
0.0
  0
DIMENSION
  5
148F3
330
747D
100
AcDbEntity
  8
寸法
 48
50.0
100
AcDbDimension
  2
*D4
 10
7741.882688958914
 20
1378.658501641213
 30
0.0
 11
6116.882688958913
 21
1453.66735990893
 31
0.0
 12
299.4566540923197
 22
0.0
 32
0.0
 70
    32
 71
     5
 42
-1.0
  3
INABA_S30G
100
AcDbAlignedDimension
 13
4491.882688958912
 23
1710.562576328022
 33
0.0
 14
7741.882688958914
 24
1710.562576328022
 34
0.0
100
AcDbRotatedDimension
  0
LINE
  5
148F4
330
747D
100
AcDbEntity
  8
部品1
 48
50.0
100
AcDbLine
 10
7976.882688958913
 20
4081.450581124187
 30
0.0
 11
1006.88268895891
 21
4081.450581124189
 31
0.0
  0
LINE
  5
148F5
330
747D
100
AcDbEntity
  8
部品1
 48
50.0
100
AcDbLine
 10
7951.882688958914
 20
3977.046555566361
 30
0.0
 11
1031.88268895891
 21
3977.046555566363
 31
0.0
  0
LINE
  5
148F6
330
747D
100
AcDbEntity
  8
細線
 48
50.0
100
AcDbLine
 10
7949.506455067475
 20
4049.896378943234
 30
0.0
 11
1034.258922850348
 21
4049.896378943237
 31
0.0
  0
LINE
  5
148F7
330
747D
100
AcDbEntity
  8
細線
 48
50.0
100
AcDbLine
 10
7943.508960658388
 20
4038.276767503652
 30
0.0
 11
1040.256417259442
 21
4038.276767503655
 31
0.0
  0
LINE
  5
148F8
330
747D
100
AcDbEntity
  8
細線
 48
50.0
100
AcDbLine
 10
7938.302466297496
 20
4014.027143629733
 30
0.0
 11
1045.462911620331
 21
4014.027143629736
 31
0.0
  0
LINE
  5
148F9
330
747D
100
AcDbEntity
  8
細線
 48
50.0
100
AcDbLine
 10
7941.66407285751
 20
4002.407532190146
 30
0.0
 11
1042.101305060313
 21
4002.40753219015
 31
0.0
  0
LINE
  5
148FA
330
747D
100
AcDbEntity
  8
部品1
 48
50.0
100
AcDbLine
 10
7991.882688958914
 20
1880.562576328022
 30
0.0
 11
991.8826889589098
 21
1880.562576328024
 31
0.0
  0
DIMENSION
  5
148FB
330
747D
100
AcDbEntity
  8
寸法
 48
50.0
100
AcDbDimension
  2
*D5
 10
7741.882688958914
 20
4601.702425425583
 30
0.0
 11
4491.882688958912
 21
4676.7112836933
 31
0.0
 70
    32
  1
N X 3250
 71
     5
 42
-1.0
  3
INABA_S30G
100
AcDbAlignedDimension
 13
1241.88268895891
 23
3970.897875741638
 33
0.0
 14
7741.882688958914
 24
3970.897875741638
 34
0.0
100
AcDbRotatedDimension
  0
DIMENSION
  5
148FC
330
747D
100
AcDbEntity
  8
寸法
 48
50.0
100
AcDbDimension
  2
*D6
 10
7991.882688958914
 20
4910.957606075115
 30
0.0
 11
4491.882688958912
 21
4985.966464342832
 31
0.0
 70
    32
  1
N X 3250 + 500
 71
     5
 42
-1.0
  3
INABA_S30G
100
AcDbAlignedDimension
 13
991.88268895891
 23
4066.450581124186
 33
0.0
 14
7991.882688958914
 24
4066.450581124185
 34
0.0
100
AcDbRotatedDimension
  0
DIMENSION
  5
148FD
330
747D
100
AcDbEntity
  8
寸法
 48
50.0
100
AcDbDimension
  2
*D7
 10
1241.88268895891
 20
4601.702425425583
 30
0.0
 11
804.7045393526104
 21
4601.702425425583
 31
0.0
 12
299.4566540923197
 22
0.0
 32
0.0
 70
   160
 71
     5
 42
-1.0
  3
INABA_S30G
100
AcDbAlignedDimension
 13
991.88268895891
 23
4066.450581124186
 33
0.0
 14
1241.88268895891
 24
3970.897875741638
 34
0.0
100
AcDbRotatedDimension
  0
LINE
  5
148FE
330
747D
100
AcDbEntity
  8
部品1
 48
50.0
100
AcDbLine
 10
4459.882688958913
 20
3900.22801780871
 30
0.0
 11
1273.88268895891
 21
3900.228017808711
 31
0.0
  0
LINE
  5
148FF
330
747D
100
AcDbEntity
  8
部品1
 48
50.0
100
AcDbLine
 10
4459.882688958913
 20
3939.307144620489
 30
0.0
 11
1273.88268895891
 21
3939.30714462049
 31
0.0
  0
LINE
  5
14900
330
747D
100
AcDbEntity
  8
部品1
 48
50.0
100
AcDbLine
 10
4459.882688958913
 20
3909.96901214066
 30
0.0
 11
1273.88268895891
 21
3909.969012140661
 31
0.0
  0
LINE
  5
14901
330
747D
100
AcDbEntity
  8
部品1
 48
50.0
100
AcDbLine
 10
4460.193704999638
 20
3969.969012140659
 30
0.0
 11
1273.571672918187
 21
3969.969012140659
 31
0.0
  0
TEXT
  5
14907
330
747D
100
AcDbEntity
  8
部品1
 48
50.0
100
AcDbText
 10
318.1616899430401
 20
1869.953876758351
 30
0.0
 40
100.0
  1
▽G.L
  7
STYLE2
100
AcDbText
  0
LINE
  5
14908
330
747D
100
AcDbEntity
  8
部品1
 48
50.0
100
AcDbLine
 10
1201.882688958913
 20
3548.431828606206
 30
0.0
 11
1201.88268895891
 21
1880.562576328023
 31
0.0
  0
LINE
  5
14909
330
747D
100
AcDbEntity
  8
部品1
 48
50.0
100
AcDbLine
 10
1281.88268895891
 20
3548.431828606206
 30
0.0
 11
1281.88268895891
 21
1880.562576328023
 31
0.0
  0
LINE
  5
1490B
330
747D
100
AcDbEntity
  8
部品1
 48
50.0
100
AcDbLine
 10
991.88268895891
 20
1880.562576328023
 30
0.0
 11
991.88268895891
 21
1830.562576328023
 31
0.0
  0
LINE
  5
1490D
330
747D
100
AcDbEntity
  8
細線
 48
50.0
100
AcDbLine
 10
1280.523187696797
 20
1830.562576328023
 30
0.0
 11
1330.523187696797
 21
1880.562576328023
 31
0.0
  0
LINE
  5
1490E
330
747D
100
AcDbEntity
  8
細線
 48
50.0
100
AcDbLine
 10
1226.641627696799
 20
1830.562576328023
 30
0.0
 11
1276.641627696799
 21
1880.562576328023
 31
0.0
  0
LINE
  5
1490F
330
747D
100
AcDbEntity
  8
細線
 48
50.0
100
AcDbLine
 10
1253.582407696796
 20
1830.562576328023
 30
0.0
 11
1303.582407696797
 21
1880.562576328023
 31
0.0
  0
LINE
  5
14910
330
747D
100
AcDbEntity
  8
点線
 48
18.0
100
AcDbLine
 10
1201.88268895891
 20
1880.562576328023
 30
0.0
 11
1201.88268895891
 21
1830.562576328023
 31
0.0
  0
LINE
  5
14911
330
747D
100
AcDbEntity
  8
点線
 48
18.0
100
AcDbLine
 10
1281.88268895891
 20
1880.562576328023
 30
0.0
 11
1281.88268895891
 21
1830.562576328023
 31
0.0
  0
LINE
  5
14918
330
747D
100
AcDbEntity
  8
細線
 48
50.0
100
AcDbLine
 10
2519.79850913075
 20
1830.562576328022
 30
0.0
 11
2569.79850913075
 21
1880.562576328022
 31
0.0
  0
LINE
  5
14919
330
747D
100
AcDbEntity
  8
細線
 48
50.0
100
AcDbLine
 10
2546.739289130747
 20
1830.562576328022
 30
0.0
 11
2596.739289130747
 21
1880.562576328022
 31
0.0
  0
LINE
  5
1491A
330
747D
100
AcDbEntity
  8
細線
 48
50.0
100
AcDbLine
 10
2573.680069130748
 20
1830.562576328022
 30
0.0
 11
2623.680069130748
 21
1880.562576328022
 31
0.0
  0
LINE
  5
1491B
330
747D
100
AcDbEntity
  8
部品1
 48
50.0
100
AcDbLine
 10
1241.88268895891
 20
3907.348694766937
 30
0.0
 11
1241.88268895891
 21
3548.431828606208
 31
0.0
  0
LINE
  5
1491C
330
747D
100
AcDbEntity
  8
部品1
 48
50.0
100
AcDbLine
 10
1261.88268895891
 20
3907.348694766937
 30
0.0
 11
1261.88268895891
 21
3548.431828606208
 31
0.0
  0
LINE
  5
1491D
330
747D
100
AcDbEntity
  8
部品1
 48
50.0
100
AcDbLine
 10
1221.88268895891
 20
3907.348694766937
 30
0.0
 11
1221.88268895891
 21
3548.431828606208
 31
0.0
  0
LINE
  5
1491E
330
747D
100
AcDbEntity
  8
部品1
 48
50.0
100
AcDbLine
 10
1286.88268895891
 20
3548.431828606208
 30
0.0
 11
1286.88268895891
 21
3698.431828606209
 31
0.0
  0
LINE
  5
1491F
330
747D
100
AcDbEntity
  8
部品1
 48
50.0
100
AcDbLine
 10
1196.882688958913
 20
3548.431828606208
 30
0.0
 11
1196.882688958913
 21
3698.431828606209
 31
0.0
  0
LINE
  5
14920
330
747D
100
AcDbEntity
  8
部品1
 48
50.0
100
AcDbLine
 10
1196.88268895891
 20
3548.431828606208
 30
0.0
 11
1286.88268895891
 21
3548.431828606206
 31
0.0
  0
LINE
  5
14921
330
747D
100
AcDbEntity
  8
部品1
 48
50.0
100
AcDbLine
 10
1261.882688958914
 20
3698.431828606209
 30
0.0
 11
1286.88268895891
 21
3698.431828606209
 31
0.0
  0
LINE
  5
14922
330
747D
100
AcDbEntity
  8
部品1
 48
50.0
100
AcDbLine
 10
1196.88268895891
 20
3698.431828606209
 30
0.0
 11
1221.882688958914
 21
3698.431828606209
 31
0.0
  0
LINE
  5
14923
330
747D
100
AcDbEntity
  8
部品1
 48
50.0
100
AcDbLine
 10
1209.88268895891
 20
3900.228017808711
 30
0.0
 11
1031.88268895891
 21
3900.228017808711
 31
0.0
  0
LINE
  5
14924
330
747D
100
AcDbEntity
  8
部品1
 48
50.0
100
AcDbLine
 10
1209.88268895891
 20
3909.969012140662
 30
0.0
 11
1054.88268895891
 21
3909.969012140662
 31
0.0
  0
LINE
  5
14925
330
747D
100
AcDbEntity
  8
部品1
 48
50.0
100
AcDbLine
 10
1209.88268895891
 20
3939.30714462049
 30
0.0
 11
1054.88268895891
 21
3939.307144620491
 31
0.0
  0
LINE
  5
14927
330
747D
100
AcDbEntity
  8
部品1
 48
50.0
100
AcDbLine
 10
1209.88268895891
 20
3969.969012140659
 30
0.0
 11
1054.88268895891
 21
3969.969012140659
 31
0.0
  0
LINE
  5
1492A
330
747D
100
AcDbEntity
  8
部品1
 48
50.0
100
AcDbLine
 10
992.4582265617637
 20
3985.516841724655
 30
0.0
 11
1012.650072429386
 21
3914.741082286204
 31
0.0
  0
LINE
  5
1492B
330
747D
100
AcDbEntity
  8
部品1
 48
50.0
100
AcDbLine
 10
1054.88268895891
 20
3977.046555566363
 30
0.0
 11
1054.88268895891
 21
3900.228017808711
 31
0.0
  0
ARC
  5
1492C
330
747D
100
AcDbEntity
  8
部品1
 48
50.0
100
AcDbCircle
 10
1031.88268895891
 20
3920.228017808711
 30
0.0
 40
20.0
100
AcDbArc
 50
195.9230900765477
 51
270.0
  0
LINE
  5
1492D
330
747D
100
AcDbEntity
  8
部品1
 48
50.0
100
AcDbLine
 10
1054.88268895891
 20
4081.450581124189
 30
0.0
 11
1054.88268895891
 21
3977.046555566363
 31
0.0
  0
ARC
  5
1492E
330
747D
100
AcDbEntity
  8
部品1
 48
50.0
100
AcDbCircle
 10
1006.88268895891
 20
4066.450581124186
 30
0.0
 40
15.0
100
AcDbArc
 50
90.0
 51
195.9230900765452
  0
LINE
  5
1492F
330
747D
100
AcDbEntity
  8
部品1
 48
50.0
100
AcDbLine
 10
992.4582265617637
 20
4062.335379482306
 30
0.0
 11
1012.650072429386
 21
3991.559620043857
 31
0.0
  0
ARC
  5
14930
330
747D
100
AcDbEntity
  8
部品1
 48
50.0
100
AcDbCircle
 10
1031.88268895891
 20
3997.046555566363
 30
0.0
 40
20.0
100
AcDbArc
 50
195.9230900765477
 51
270.0
  0
LINE
  5
14931
330
747D
100
AcDbEntity
  8
細線
 48
50.0
100
AcDbLine
 10
1024.642614585586
 20
4037.152911181985
 30
0.0
 11
1032.484996795551
 21
4009.664064428895
 31
0.0
  0
LINE
  5
14932
330
747D
100
AcDbEntity
  8
細線
 48
50.0
100
AcDbLine
 10
1037.371524780013
 20
4034.453727175279
 30
0.0
 11
1042.578019140902
 21
4016.204103301361
 31
0.0
  0
ARC
  5
14933
330
747D
100
AcDbEntity
  8
細線
 48
50.0
100
AcDbCircle
 10
1034.258922850348
 20
4039.896378943238
 30
0.0
 40
10.0
100
AcDbArc
 50
90.0
 51
195.9230900765469
  0
ARC
  5
14934
330
747D
100
AcDbEntity
  8
細線
 48
50.0
100
AcDbCircle
 10
1042.101305060313
 20
4012.407532190148
 30
0.0
 40
10.0
100
AcDbArc
 50
195.9230900765468
 51
270.0
  0
ARC
  5
14935
330
747D
100
AcDbEntity
  8
細線
 48
50.0
100
AcDbCircle
 10
1040.256417259442
 20
4035.276767503654
 30
0.0
 40
3.0
100
AcDbArc
 50
90.0
 51
195.9230900765469
  0
ARC
  5
14936
330
747D
100
AcDbEntity
  8
細線
 48
50.0
100
AcDbCircle
 10
1045.462911620331
 20
4017.027143629735
 30
0.0
 40
3.0
100
AcDbArc
 50
195.9230900765464
 51
270.0
  0
ARC
  5
14937
330
747D
100
AcDbEntity
  8
部品1
 48
50.0
100
AcDbCircle
 10
1006.88268895891
 20
3989.632043366533
 30
0.0
 40
15.0
100
AcDbArc
 50
180.0
 51
195.9230900765452
  0
LINE
  5
14938
330
747D
100
AcDbEntity
  8
部品1
 48
50.0
100
AcDbLine
 10
991.88268895891
 20
4066.450581124186
 30
0.0
 11
991.88268895891
 21
3989.632043366533
 31
0.0
  0
LINE
  5
14939
330
747D
100
AcDbEntity
  8
部品1
 48
50.0
100
AcDbLine
 10
1273.88268895891
 20
3968.897875741639
 30
0.0
 11
1273.88268895891
 21
3909.348694766935
 31
0.0
  0
LINE
  5
1493A
330
747D
100
AcDbEntity
  8
部品1
 48
50.0
100
AcDbLine
 10
1209.88268895891
 20
3968.897875741639
 30
0.0
 11
1209.88268895891
 21
3909.348694766935
 31
0.0
  0
LINE
  5
1493B
330
747D
100
AcDbEntity
  8
部品1
 48
50.0
100
AcDbLine
 10
1209.88268895891
 20
3909.348694766935
 30
0.0
 11
1209.88268895891
 21
3846.81816445448
 31
0.0
  0
LINE
  5
1493C
330
747D
100
AcDbEntity
  8
部品1
 48
50.0
100
AcDbLine
 10
1273.88268895891
 20
3909.348694766935
 30
0.0
 11
1273.88268895891
 21
3846.81816445448
 31
0.0
  0
LINE
  5
1493D
330
747D
100
AcDbEntity
  8
部品1
 48
50.0
100
AcDbLine
 10
1261.88268895891
 20
3844.81816445448
 30
0.0
 11
1271.88268895891
 21
3844.81816445448
 31
0.0
  0
ARC
  5
1493E
330
747D
100
AcDbEntity
  8
部品1
 48
50.0
100
AcDbCircle
 10
1271.88268895891
 20
3846.81816445448
 30
0.0
 40
2.0
100
AcDbArc
 50
270.0
 51
0.000000000000007
  0
ARC
  5
1493F
330
747D
100
AcDbEntity
  8
部品1
 48
50.0
100
AcDbCircle
 10
1211.88268895891
 20
3846.81816445448
 30
0.0
 40
2.0
100
AcDbArc
 50
180.0
 51
270.0
  0
LINE
  5
14940
330
747D
100
AcDbEntity
  8
部品1
 48
50.0
100
AcDbLine
 10
1211.88268895891
 20
3844.81816445448
 30
0.0
 11
1221.88268895891
 21
3844.81816445448
 31
0.0
  0
LINE
  5
14941
330
747D
100
AcDbEntity
  8
細線
 48
50.0
100
AcDbLine
 10
1209.88268895891
 20
3922.897875741641
 30
0.0
 11
1273.88268895891
 21
3922.897875741639
 31
0.0
  0
LINE
  5
14942
330
747D
100
AcDbEntity
  8
細線
 48
50.0
100
AcDbLine
 10
1209.88268895891
 20
3932.89787574164
 30
0.0
 11
1273.88268895891
 21
3932.897875741639
 31
0.0
  0
LINE
  5
14943
330
747D
100
AcDbEntity
  8
部品1
 48
50.0
100
AcDbLine
 10
1211.88268895891
 20
3907.348694766935
 30
0.0
 11
1271.88268895891
 21
3907.348694766935
 31
0.0
  0
ARC
  5
14944
330
747D
100
AcDbEntity
  8
部品1
 48
50.0
100
AcDbCircle
 10
1271.88268895891
 20
3909.348694766935
 30
0.0
 40
2.0
100
AcDbArc
 50
270.0
 51
0.000000000000007
  0
ARC
  5
14945
330
747D
100
AcDbEntity
  8
部品1
 48
50.0
100
AcDbCircle
 10
1211.88268895891
 20
3909.348694766935
 30
0.0
 40
2.0
100
AcDbArc
 50
180.0000000000017
 51
270.0
  0
LINE
  5
14946
330
747D
100
AcDbEntity
  8
細線
 48
50.0
100
AcDbLine
 10
1209.88268895891
 20
3944.897875741641
 30
0.0
 11
1273.88268895891
 21
3944.897875741638
 31
0.0
  0
LINE
  5
14947
330
747D
100
AcDbEntity
  8
細線
 48
50.0
100
AcDbLine
 10
1209.88268895891
 20
3954.897875741639
 30
0.0
 11
1273.88268895891
 21
3954.897875741639
 31
0.0
  0
LINE
  5
14948
330
747D
100
AcDbEntity
  8
部品1
 48
50.0
100
AcDbLine
 10
1211.88268895891
 20
3970.897875741638
 30
0.0
 11
1271.88268895891
 21
3970.897875741638
 31
0.0
  0
ARC
  5
14949
330
747D
100
AcDbEntity
  8
部品1
 48
50.0
100
AcDbCircle
 10
1271.88268895891
 20
3968.897875741639
 30
0.0
 40
2.0
100
AcDbArc
 50
0.000000000000007
 51
90.0
  0
ARC
  5
1494A
330
747D
100
AcDbEntity
  8
部品1
 48
50.0
100
AcDbCircle
 10
1211.88268895891
 20
3968.897875741639
 30
0.0
 40
2.0
100
AcDbArc
 50
90.0
 51
180.0
  0
TEXT
  5
1494B
330
747D
100
AcDbEntity
  8
仕様書枠
 62
     7
 48
50.0
100
AcDbText
 10
4226.832563569181
 20
995.9312831628357
 30
0.0
 40
112.0
  1
正 面 図
  7
STYLE2
100
AcDbText
  0
LWPOLYLINE
  5
1494C
330
747D
100
AcDbEntity
  8
部品1
100
AcDbPolyline
 90
        4
 70
     1
 43
0.0
 10
4195.417486807651
 20
1149.796007513017
 10
4842.448862088176
 20
1149.796007513017
 10
4842.448862088176
 20
957.2758516958765
 10
4195.417486807651
 20
957.2758516958765
  0
LINE
  5
14951
330
747D
100
AcDbEntity
  8
部品1
 48
50.0
100
AcDbLine
 10
4451.882688958913
 20
3548.431828606204
 30
0.0
 11
4451.882688958913
 21
1880.562576328022
 31
0.0
  0
LINE
  5
14952
330
747D
100
AcDbEntity
  8
部品1
 48
50.0
100
AcDbLine
 10
4531.882688958914
 20
3548.431828606204
 30
0.0
 11
4531.882688958914
 21
1880.562576328022
 31
0.0
  0
LINE
  5
14956
330
747D
100
AcDbEntity
  8
細線
 48
50.0
100
AcDbLine
 10
3866.8369505647
 20
1830.562576328022
 30
0.0
 11
3916.8369505647
 21
1880.562576328022
 31
0.0
  0
LINE
  5
14957
330
747D
100
AcDbEntity
  8
細線
 48
50.0
100
AcDbLine
 10
3812.955390564698
 20
1830.562576328022
 30
0.0
 11
3862.955390564698
 21
1880.562576328022
 31
0.0
  0
LINE
  5
14958
330
747D
100
AcDbEntity
  8
細線
 48
50.0
100
AcDbLine
 10
3839.896170564699
 20
1830.562576328022
 30
0.0
 11
3889.896170564699
 21
1880.562576328022
 31
0.0
  0
LINE
  5
1495D
330
747D
100
AcDbEntity
  8
点線
 48
18.0
100
AcDbLine
 10
4531.882688958914
 20
1880.562576328022
 30
0.0
 11
4531.882688958914
 21
1830.562576328022
 31
0.0
  0
LINE
  5
1495E
330
747D
100
AcDbEntity
  8
点線
 48
18.0
100
AcDbLine
 10
4451.882688958913
 20
1880.562576328022
 30
0.0
 11
4451.882688958913
 21
1830.562576328022
 31
0.0
  0
LINE
  5
14961
330
747D
100
AcDbEntity
  8
部品1
 48
50.0
100
AcDbLine
 10
4511.882688958913
 20
3907.348694766935
 30
0.0
 11
4511.882688958913
 21
3548.431828606207
 31
0.0
  0
LINE
  5
14962
330
747D
100
AcDbEntity
  8
部品1
 48
50.0
100
AcDbLine
 10
4471.882688958913
 20
3907.348694766935
 30
0.0
 11
4471.882688958913
 21
3548.431828606207
 31
0.0
  0
LINE
  5
14963
330
747D
100
AcDbEntity
  8
部品1
 48
50.0
100
AcDbLine
 10
4491.882688958913
 20
3907.348694766935
 30
0.0
 11
4491.882688958913
 21
3548.431828606207
 31
0.0
  0
LINE
  5
14964
330
747D
100
AcDbEntity
  8
部品1
 48
50.0
100
AcDbLine
 10
4536.882688958914
 20
3548.431828606207
 30
0.0
 11
4536.882688958914
 21
3698.431828606209
 31
0.0
  0
LINE
  5
14965
330
747D
100
AcDbEntity
  8
部品1
 48
50.0
100
AcDbLine
 10
4446.882688958914
 20
3548.431828606207
 30
0.0
 11
4446.882688958914
 21
3698.431828606209
 31
0.0
  0
LINE
  5
14966
330
747D
100
AcDbEntity
  8
部品1
 48
50.0
100
AcDbLine
 10
4536.882688958914
 20
3548.431828606207
 30
0.0
 11
4446.882688958914
 21
3548.431828606204
 31
0.0
  0
LINE
  5
14967
330
747D
100
AcDbEntity
  8
部品1
 48
50.0
100
AcDbLine
 10
4471.882688958913
 20
3698.431828606209
 30
0.0
 11
4446.882688958914
 21
3698.431828606209
 31
0.0
  0
LINE
  5
14968
330
747D
100
AcDbEntity
  8
部品1
 48
50.0
100
AcDbLine
 10
4536.882688958914
 20
3698.431828606209
 30
0.0
 11
4511.882688958913
 21
3698.431828606209
 31
0.0
  0
LINE
  5
1496D
330
747D
100
AcDbEntity
  8
部品1
 48
50.0
100
AcDbLine
 10
4523.882688958913
 20
3968.897875741637
 30
0.0
 11
4523.882688958913
 21
3909.348694766933
 31
0.0
  0
LINE
  5
1496E
330
747D
100
AcDbEntity
  8
部品1
 48
50.0
100
AcDbLine
 10
4459.882688958913
 20
3968.897875741637
 30
0.0
 11
4459.882688958913
 21
3909.348694766933
 31
0.0
  0
LINE
  5
1496F
330
747D
100
AcDbEntity
  8
部品1
 48
50.0
100
AcDbLine
 10
4521.882688958913
 20
3907.348694766934
 30
0.0
 11
4461.882688958914
 21
3907.348694766934
 31
0.0
  0
LINE
  5
14970
330
747D
100
AcDbEntity
  8
細線
 48
50.0
100
AcDbLine
 10
4523.882688958913
 20
3932.897875741639
 30
0.0
 11
4459.882688958913
 21
3932.897875741637
 31
0.0
  0
LINE
  5
14971
330
747D
100
AcDbEntity
  8
細線
 48
50.0
100
AcDbLine
 10
4523.882688958913
 20
3922.897875741639
 30
0.0
 11
4459.882688958913
 21
3922.897875741637
 31
0.0
  0
ARC
  5
14972
330
747D
100
AcDbEntity
  8
部品1
 48
50.0
100
AcDbCircle
 10
4461.882688958914
 20
3846.818164454479
 30
0.0
 40
2.0
100
AcDbArc
 50
180.0
 51
270.0
  0
LINE
  5
14973
330
747D
100
AcDbEntity
  8
部品1
 48
50.0
100
AcDbLine
 10
4471.882688958913
 20
3844.818164454478
 30
0.0
 11
4461.882688958914
 21
3844.818164454478
 31
0.0
  0
LINE
  5
14974
330
747D
100
AcDbEntity
  8
部品1
 48
50.0
100
AcDbLine
 10
4459.882688958913
 20
3909.348694766933
 30
0.0
 11
4459.882688958913
 21
3846.818164454479
 31
0.0
  0
ARC
  5
14975
330
747D
100
AcDbEntity
  8
部品1
 48
50.0
100
AcDbCircle
 10
4461.882688958914
 20
3909.348694766933
 30
0.0
 40
2.0
100
AcDbArc
 50
180.0
 51
270.0
  0
LINE
  5
14976
330
747D
100
AcDbEntity
  8
部品1
 48
50.0
100
AcDbLine
 10
4521.882688958913
 20
3844.818164454478
 30
0.0
 11
4511.882688958913
 21
3844.818164454478
 31
0.0
  0
LINE
  5
14977
330
747D
100
AcDbEntity
  8
部品1
 48
50.0
100
AcDbLine
 10
4523.882688958913
 20
3909.348694766933
 30
0.0
 11
4523.882688958913
 21
3846.818164454479
 31
0.0
  0
ARC
  5
14978
330
747D
100
AcDbEntity
  8
部品1
 48
50.0
100
AcDbCircle
 10
4521.882688958913
 20
3846.818164454479
 30
0.0
 40
2.0
100
AcDbArc
 50
270.0
 51
0.0
  0
ARC
  5
14979
330
747D
100
AcDbEntity
  8
部品1
 48
50.0
100
AcDbCircle
 10
4521.882688958913
 20
3909.348694766933
 30
0.0
 40
2.0
100
AcDbArc
 50
270.0
 51
359.9999999999983
  0
LINE
  5
1497A
330
747D
100
AcDbEntity
  8
部品1
 48
50.0
100
AcDbLine
 10
4521.882688958913
 20
3970.897875741638
 30
0.0
 11
4461.882688958914
 21
3970.897875741638
 31
0.0
  0
LINE
  5
1497B
330
747D
100
AcDbEntity
  8
細線
 48
50.0
100
AcDbLine
 10
4523.882688958913
 20
3954.897875741637
 30
0.0
 11
4459.882688958913
 21
3954.897875741637
 31
0.0
  0
LINE
  5
1497C
330
747D
100
AcDbEntity
  8
細線
 48
50.0
100
AcDbLine
 10
4523.882688958913
 20
3944.897875741639
 30
0.0
 11
4459.882688958913
 21
3944.897875741637
 31
0.0
  0
ARC
  5
1497D
330
747D
100
AcDbEntity
  8
部品1
 48
50.0
100
AcDbCircle
 10
4461.882688958914
 20
3968.897875741637
 30
0.0
 40
2.0
100
AcDbArc
 50
90.0
 51
180.0
  0
LINE
  5
1497E
330
747D
100
AcDbEntity
  8
細線
 48
50.0
100
AcDbLine
 10
4481.882688958914
 20
3977.046555566361
 30
0.0
 11
4481.882688958914
 21
4081.450581124187
 31
0.0
  0
ARC
  5
1497F
330
747D
100
AcDbEntity
  8
部品1
 48
50.0
100
AcDbCircle
 10
4521.882688958913
 20
3968.897875741637
 30
0.0
 40
2.0
100
AcDbArc
 50
0.0
 51
90.0
  0
LINE
  5
14980
330
747D
100
AcDbEntity
  8
細線
 48
50.0
100
AcDbLine
 10
5106.112271998655
 20
1830.562576328022
 30
0.0
 11
5156.112271998654
 21
1880.562576328022
 31
0.0
  0
LINE
  5
14981
330
747D
100
AcDbEntity
  8
細線
 48
50.0
100
AcDbLine
 10
5133.053051998656
 20
1830.562576328022
 30
0.0
 11
5183.053051998656
 21
1880.562576328022
 31
0.0
  0
LINE
  5
14982
330
747D
100
AcDbEntity
  8
細線
 48
50.0
100
AcDbLine
 10
5159.993831998657
 20
1830.562576328022
 30
0.0
 11
5209.993831998657
 21
1880.562576328022
 31
0.0
  0
LINE
  5
14986
330
747D
100
AcDbEntity
  8
細線
 48
50.0
100
AcDbLine
 10
6426.209933432622
 20
1830.562576328022
 30
0.0
 11
6476.209933432622
 21
1880.562576328022
 31
0.0
  0
LINE
  5
14987
330
747D
100
AcDbEntity
  8
細線
 48
50.0
100
AcDbLine
 10
6399.269153432625
 20
1830.562576328022
 30
0.0
 11
6449.269153432625
 21
1880.562576328022
 31
0.0
  0
LINE
  5
14988
330
747D
100
AcDbEntity
  8
細線
 48
50.0
100
AcDbLine
 10
6453.150713432624
 20
1830.562576328022
 30
0.0
 11
6503.150713432623
 21
1880.562576328022
 31
0.0
  0
LINE
  5
14992
330
747D
100
AcDbEntity
  8
部品1
 48
50.0
100
AcDbLine
 10
1211.882688958914
 20
7648.947238448385
 30
0.0
 11
1211.882688958914
 21
6963.947238448381
 31
0.0
  0
LINE
  5
14993
330
747D
100
AcDbEntity
  8
部品1
 48
50.0
100
AcDbLine
 10
1271.882688958913
 20
7648.947238448385
 30
0.0
 11
1271.882688958913
 21
6963.947238448381
 31
0.0
  0
LINE
  5
14994
330
747D
100
AcDbEntity
  8
寸法
 48
50.0
100
AcDbLine
 10
531.7251915197584
 20
7531.123166211596
 30
0.0
 11
1242.532665433816
 21
7140.723527947156
 31
0.0
  0
LINE
  5
14995
330
747D
100
AcDbEntity
  8
部品1
 48
50.0
100
AcDbLine
 10
991.8826889589135
 20
7906.447238448381
 30
0.0
 11
991.8826889589135
 21
5936.44723844838
 31
0.0
  0
LINE
  5
14996
330
747D
100
AcDbEntity
  8
部品1
 48
50.0
100
AcDbLine
 10
1054.882688958914
 20
7921.447238448381
 30
0.0
 11
1054.882688958914
 21
5921.447238448384
 31
0.0
  0
LINE
  5
14997
330
747D
100
AcDbEntity
  8
部品1
 48
50.0
100
AcDbLine
 10
1076.882688958913
 20
7817.94723844838
 30
0.0
 11
1076.882688958913
 21
6014.947238448381
 31
0.0
  0
LINE
  5
14998
330
747D
100
AcDbEntity
  8
寸法
 48
50.0
100
AcDbLine
 10
546.1114541904553
 20
6792.785857648188
 30
0.0
 11
1137.134471587904
 21
6916.435141097877
 31
0.0
  0
TEXT
  5
14999
330
747D
100
AcDbEntity
  8
部品1
 48
50.0
100
AcDbText
 10
380.2808411591959
 20
6713.851766187021
 30
0.0
 40
120.0
  1
④
  7
STYLE2
100
AcDbText
  0
LINE
  5
1499A
330
747D
100
AcDbEntity
  8
寸法
 48
50.0
100
AcDbLine
 10
1673.061397749919
 20
5509.815332044446
 30
0.0
 11
1849.344919777114
 21
5972.52945711185
 31
0.0
  0
TEXT
  5
1499B
330
747D
100
AcDbEntity
  8
部品1
 48
50.0
100
AcDbText
 10
1541.323597893413
 20
5381.645491115685
 30
0.0
 40
120.0
  1
⑧
  7
STYLE2
100
AcDbText
  0
LINE
  5
1499C
330
747D
100
AcDbEntity
  8
部品1
 48
50.0
100
AcDbLine
 10
1271.882688958913
 20
6898.947238448385
 30
0.0
 11
1271.882688958913
 21
6213.947238448384
 31
0.0
  0
LINE
  5
1499D
330
747D
100
AcDbEntity
  8
部品1
 48
50.0
100
AcDbLine
 10
1211.882688958914
 20
6898.947238448385
 30
0.0
 11
1211.882688958914
 21
6213.947238448384
 31
0.0
  0
LINE
  5
1499E
330
747D
100
AcDbEntity
  8
部品1
 48
50.0
100
AcDbLine
 10
991.8826889589135
 20
5984.447238448384
 30
0.0
 11
1054.882688958914
 21
5984.447238448384
 31
0.0
  0
ARC
  5
1499F
330
747D
100
AcDbEntity
  8
部品1
 48
50.0
100
AcDbCircle
 10
1006.882688958913
 20
5936.44723844838
 30
0.0
 40
15.0
100
AcDbArc
 50
180.0
 51
270.0
  0
LINE
  5
149A0
330
747D
100
AcDbEntity
  8
点線
 48
18.0
100
AcDbLine
 10
1030.882688958913
 20
6148.947238448383
 30
0.0
 11
1076.882688958913
 21
6148.947238448385
 31
0.0
  0
LINE
  5
149A1
330
747D
100
AcDbEntity
  8
点線
 48
18.0
100
AcDbLine
 10
1030.882688958913
 20
6213.947238448384
 30
0.0
 11
1076.882688958913
 21
6213.947238448384
 31
0.0
  0
LINE
  5
149A2
330
747D
100
AcDbEntity
  8
部品1
 48
50.0
100
AcDbLine
 10
1209.882688958913
 20
6148.947238448385
 30
0.0
 11
1209.882688958913
 21
6113.947238448385
 31
0.0
  0
LINE
  5
149A3
330
747D
100
AcDbEntity
  8
部品1
 48
50.0
100
AcDbLine
 10
1273.882688958913
 20
6148.947238448385
 30
0.0
 11
1273.882688958913
 21
6113.947238448381
 31
0.0
  0
LINE
  5
149A4
330
747D
100
AcDbEntity
  8
部品1
 48
50.0
100
AcDbLine
 10
1219.882688958914
 20
6103.947238448384
 30
0.0
 11
1263.882688958913
 21
6103.94723844838
 31
0.0
  0
ARC
  5
149A5
330
747D
100
AcDbEntity
  8
部品1
 48
50.0
100
AcDbCircle
 10
1219.882688958914
 20
6113.947238448385
 30
0.0
 40
10.0
100
AcDbArc
 50
180.0
 51
270.0
  0
ARC
  5
149A6
330
747D
100
AcDbEntity
  8
部品1
 48
50.0
100
AcDbCircle
 10
1263.882688958913
 20
6113.947238448381
 30
0.0
 40
10.0
100
AcDbArc
 50
270.0
 51
0.0
  0
LINE
  5
149A7
330
747D
100
AcDbEntity
  8
点線
 48
18.0
100
AcDbLine
 10
1030.882688958913
 20
6898.947238448383
 30
0.0
 11
1076.882688958913
 21
6898.947238448385
 31
0.0
  0
LINE
  5
149A8
330
747D
100
AcDbEntity
  8
点線
 48
18.0
100
AcDbLine
 10
1030.882688958913
 20
6963.947238448381
 30
0.0
 11
1076.882688958913
 21
6963.947238448381
 31
0.0
  0
TEXT
  5
149A9
330
747D
100
AcDbEntity
  8
部品1
 48
50.0
100
AcDbText
 10
380.8773800800591
 20
7518.398786710577
 30
0.0
 40
120.0
  1
③
  7
STYLE2
100
AcDbText
  0
LINE
  5
149AA
330
747D
100
AcDbEntity
  8
点線
 48
18.0
100
AcDbLine
 10
1030.882688958913
 20
7713.947238448383
 30
0.0
 11
1076.882688958913
 21
7713.947238448383
 31
0.0
  0
LINE
  5
149AB
330
747D
100
AcDbEntity
  8
点線
 48
18.0
100
AcDbLine
 10
1030.882688958913
 20
7648.947238448385
 30
0.0
 11
1076.882688958913
 21
7648.947238448385
 31
0.0
  0
LINE
  5
149AC
330
747D
100
AcDbEntity
  8
部品1
 48
50.0
100
AcDbLine
 10
991.8826889589135
 20
7858.447238448381
 30
0.0
 11
1054.882688958914
 21
7858.447238448381
 31
0.0
  0
ARC
  5
149AD
330
747D
100
AcDbEntity
  8
部品1
 48
50.0
100
AcDbCircle
 10
1006.882688958913
 20
7906.447238448381
 30
0.0
 40
15.0
100
AcDbArc
 50
90.00000000000003
 51
180.0
  0
LINE
  5
149AE
330
747D
100
AcDbEntity
  8
部品1
 48
50.0
100
AcDbLine
 10
1209.882688958913
 20
7728.947238448384
 30
0.0
 11
1209.882688958913
 21
7713.947238448383
 31
0.0
  0
LINE
  5
149AF
330
747D
100
AcDbEntity
  8
部品1
 48
50.0
100
AcDbLine
 10
1273.882688958913
 20
7728.947238448384
 30
0.0
 11
1273.882688958913
 21
7713.947238448383
 31
0.0
  0
LINE
  5
149B0
330
747D
100
AcDbEntity
  8
部品1
 48
50.0
100
AcDbLine
 10
1219.882688958914
 20
7738.947238448384
 30
0.0
 11
1263.882688958913
 21
7738.947238448384
 31
0.0
  0
ARC
  5
149B1
330
747D
100
AcDbEntity
  8
部品1
 48
50.0
100
AcDbCircle
 10
1219.882688958914
 20
7728.947238448384
 30
0.0
 40
10.0
100
AcDbArc
 50
90.0
 51
180.0000000000005
  0
ARC
  5
149B2
330
747D
100
AcDbEntity
  8
部品1
 48
50.0
100
AcDbCircle
 10
1263.882688958913
 20
7728.947238448384
 30
0.0
 40
10.0
100
AcDbArc
 50
0.0
 51
90.0
  0
LINE
  5
149B3
330
747D
100
AcDbEntity
  8
部品1
 48
50.0
100
AcDbLine
 10
6338.382688958914
 20
7817.947238448386
 30
0.0
 11
6338.382688958914
 21
6014.947238448385
 31
0.0
  0
LINE
  5
149B4
330
747D
100
AcDbEntity
  8
部品1
 48
50.0
100
AcDbLine
 10
6315.382688958914
 20
7817.947238448386
 30
0.0
 11
6315.382688958914
 21
6014.947238448385
 31
0.0
  0
LINE
  5
149B5
330
747D
100
AcDbEntity
  8
部品1
 48
50.0
100
AcDbLine
 10
6559.882688958913
 20
7817.947238448386
 30
0.0
 11
6559.882688958913
 21
6014.947238448385
 31
0.0
  0
LINE
  5
149B6
330
747D
100
AcDbEntity
  8
部品1
 48
50.0
100
AcDbLine
 10
6486.882688958914
 20
7817.947238448386
 30
0.0
 11
6486.882688958914
 21
6014.947238448385
 31
0.0
  0
LINE
  5
149B7
330
747D
100
AcDbEntity
  8
部品1
 48
50.0
100
AcDbLine
 10
6531.882688958913
 20
7817.947238448386
 30
0.0
 11
6531.882688958913
 21
6014.947238448385
 31
0.0
  0
LINE
  5
149B8
330
747D
100
AcDbEntity
  8
部品1
 48
50.0
100
AcDbLine
 10
6111.882688958914
 20
7817.947238448386
 30
0.0
 11
6111.882688958914
 21
6014.947238448385
 31
0.0
  0
LINE
  5
149B9
330
747D
100
AcDbEntity
  8
部品1
 48
50.0
100
AcDbLine
 10
6066.882688958913
 20
7817.947238448386
 30
0.0
 11
6066.882688958913
 21
6014.947238448385
 31
0.0
  0
LINE
  5
149BA
330
747D
100
AcDbEntity
  8
部品1
 48
50.0
100
AcDbLine
 10
6139.882688958913
 20
7817.947238448386
 30
0.0
 11
6139.882688958913
 21
6014.947238448385
 31
0.0
  0
LINE
  5
149BB
330
747D
100
AcDbEntity
  8
部品1
 48
50.0
100
AcDbLine
 10
6184.882688958914
 20
7817.947238448386
 30
0.0
 11
6184.882688958914
 21
6014.947238448385
 31
0.0
  0
LINE
  5
149BC
330
747D
100
AcDbEntity
  8
部品1
 48
50.0
100
AcDbLine
 10
5895.382688958914
 20
7817.947238448386
 30
0.0
 11
5895.382688958914
 21
6014.947238448385
 31
0.0
  0
LINE
  5
149BD
330
747D
100
AcDbEntity
  8
部品1
 48
50.0
100
AcDbLine
 10
5918.382688958914
 20
7817.947238448386
 30
0.0
 11
5918.382688958914
 21
6014.947238448385
 31
0.0
  0
LINE
  5
149BE
330
747D
100
AcDbEntity
  8
部品1
 48
50.0
100
AcDbLine
 10
5078.382688958914
 20
7817.947238448384
 30
0.0
 11
5078.382688958914
 21
6014.947238448384
 31
0.0
  0
LINE
  5
149BF
330
747D
100
AcDbEntity
  8
部品1
 48
50.0
100
AcDbLine
 10
5498.382688958914
 20
7817.947238448384
 30
0.0
 11
5498.382688958914
 21
6014.947238448384
 31
0.0
  0
LINE
  5
149C0
330
747D
100
AcDbEntity
  8
部品1
 48
50.0
100
AcDbLine
 10
5475.382688958913
 20
7817.947238448384
 30
0.0
 11
5475.382688958913
 21
6014.947238448384
 31
0.0
  0
LINE
  5
149C1
330
747D
100
AcDbEntity
  8
部品1
 48
50.0
100
AcDbLine
 10
5764.882688958913
 20
7817.947238448384
 30
0.0
 11
5764.882688958913
 21
6014.947238448384
 31
0.0
  0
LINE
  5
149C2
330
747D
100
AcDbEntity
  8
部品1
 48
50.0
100
AcDbLine
 10
5719.882688958914
 20
7817.947238448384
 30
0.0
 11
5719.882688958914
 21
6014.947238448384
 31
0.0
  0
LINE
  5
149C3
330
747D
100
AcDbEntity
  8
部品1
 48
50.0
100
AcDbLine
 10
5646.882688958914
 20
7817.947238448384
 30
0.0
 11
5646.882688958914
 21
6014.947238448384
 31
0.0
  0
LINE
  5
149C4
330
747D
100
AcDbEntity
  8
部品1
 48
50.0
100
AcDbLine
 10
5691.882688958913
 20
7817.947238448384
 30
0.0
 11
5691.882688958913
 21
6014.947238448384
 31
0.0
  0
LINE
  5
149C5
330
747D
100
AcDbEntity
  8
部品1
 48
50.0
100
AcDbLine
 10
5344.882688958914
 20
7817.947238448384
 30
0.0
 11
5344.882688958914
 21
6014.947238448384
 31
0.0
  0
LINE
  5
149C6
330
747D
100
AcDbEntity
  8
部品1
 48
50.0
100
AcDbLine
 10
5299.882688958914
 20
7817.947238448384
 30
0.0
 11
5299.882688958914
 21
6014.947238448384
 31
0.0
  0
LINE
  5
149C7
330
747D
100
AcDbEntity
  8
部品1
 48
50.0
100
AcDbLine
 10
5226.882688958913
 20
7817.947238448384
 30
0.0
 11
5226.882688958913
 21
6014.947238448384
 31
0.0
  0
LINE
  5
149C8
330
747D
100
AcDbEntity
  8
部品1
 48
50.0
100
AcDbLine
 10
5271.882688958914
 20
7817.947238448384
 30
0.0
 11
5271.882688958914
 21
6014.947238448384
 31
0.0
  0
LINE
  5
149C9
330
747D
100
AcDbEntity
  8
部品1
 48
50.0
100
AcDbLine
 10
5055.382688958914
 20
7817.947238448384
 30
0.0
 11
5055.382688958914
 21
6014.947238448384
 31
0.0
  0
LINE
  5
149CA
330
747D
100
AcDbEntity
  8
部品1
 48
50.0
100
AcDbLine
 10
4851.882688958913
 20
7817.947238448384
 30
0.0
 11
4851.882688958913
 21
6014.947238448384
 31
0.0
  0
LINE
  5
149CB
330
747D
100
AcDbEntity
  8
部品1
 48
50.0
100
AcDbLine
 10
4806.882688958914
 20
7817.947238448384
 30
0.0
 11
4806.882688958914
 21
6014.947238448384
 31
0.0
  0
LINE
  5
149CC
330
747D
100
AcDbEntity
  8
部品1
 48
50.0
100
AcDbLine
 10
4879.882688958914
 20
7817.947238448384
 30
0.0
 11
4879.882688958914
 21
6014.947238448384
 31
0.0
  0
LINE
  5
149CD
330
747D
100
AcDbEntity
  8
部品1
 48
50.0
100
AcDbLine
 10
4924.882688958914
 20
7817.947238448384
 30
0.0
 11
4924.882688958914
 21
6014.947238448384
 31
0.0
  0
LINE
  5
149CE
330
747D
100
AcDbEntity
  8
部品1
 48
50.0
100
AcDbLine
 10
4658.382688958914
 20
7817.947238448384
 30
0.0
 11
4658.382688958914
 21
6014.947238448384
 31
0.0
  0
LINE
  5
149CF
330
747D
100
AcDbEntity
  8
部品1
 48
50.0
100
AcDbLine
 10
4461.882688958914
 20
7817.947238448384
 30
0.0
 11
4461.882688958913
 21
6213.947238448382
 31
0.0
  0
LINE
  5
149D0
330
747D
100
AcDbEntity
  8
部品1
 48
50.0
100
AcDbLine
 10
4521.882688958913
 20
7817.947238448384
 30
0.0
 11
4521.882688958913
 21
6213.947238448383
 31
0.0
  0
LINE
  5
149D1
330
747D
100
AcDbEntity
  8
部品1
 48
50.0
100
AcDbLine
 10
4635.382688958913
 20
7817.947238448384
 30
0.0
 11
4635.382688958913
 21
6014.947238448384
 31
0.0
  0
LINE
  5
149D2
330
747D
100
AcDbEntity
  8
部品1
 48
50.0
100
AcDbLine
 10
4348.382688958913
 20
7817.947238448384
 30
0.0
 11
4348.382688958913
 21
7047.515720511459
 31
0.0
  0
LINE
  5
149D3
330
747D
100
AcDbEntity
  8
部品1
 48
50.0
100
AcDbLine
 10
4325.382688958913
 20
7817.947238448384
 30
0.0
 11
4325.382688958913
 21
7133.352889085545
 31
0.0
  0
LINE
  5
149D4
330
747D
100
AcDbEntity
  8
部品1
 48
50.0
100
AcDbLine
 10
4074.021065622942
 20
8071.447238448381
 30
0.0
 11
4368.380959960544
 21
6972.881157069853
 31
0.0
  0
TEXT
  5
149D5
330
747D
100
AcDbEntity
  8
仕様書枠
 62
     7
 48
50.0
100
AcDbText
 10
4162.106410486262
 20
5415.371692272017
 30
0.0
 40
112.0
  1
平 面 図
  7
STYLE2
100
AcDbText
  0
LWPOLYLINE
  5
149D6
330
747D
100
AcDbEntity
  8
部品1
100
AcDbPolyline
 90
        4
 70
     1
 43
0.0
 10
4130.691333724732
 20
5569.236416622199
 10
4777.722709005257
 20
5569.236416622199
 10
4777.722709005257
 20
5376.71626080506
 10
4130.691333724732
 20
5376.71626080506
  0
LINE
  5
149D7
330
747D
100
AcDbEntity
  8
寸法
 48
50.0
100
AcDbLine
 10
4596.64747216827
 20
6321.110940589605
 30
0.0
 11
4995.872956476475
 21
5555.187647854363
 31
0.0
  0
LINE
  5
149D8
330
747D
100
AcDbEntity
  8
部品1
 48
50.0
100
AcDbLine
 10
4389.316935286896
 20
6894.747033445888
 30
0.0
 11
4690.304208214524
 21
5771.447238448381
 31
0.0
  0
LINE
  5
149D9
330
747D
100
AcDbEntity
  8
部品1
 48
50.0
100
AcDbLine
 10
4481.882688958918
 20
6014.947238448384
 30
0.0
 11
4481.882688958914
 21
5921.44723844838
 31
0.0
  0
LINE
  5
149DB
330
747D
100
AcDbEntity
  8
部品1
 48
50.0
100
AcDbLine
 10
4469.882688958914
 20
6103.947238448384
 30
0.0
 11
4513.882688958914
 21
6103.947238448384
 31
0.0
  0
LINE
  5
149DC
330
747D
100
AcDbEntity
  8
部品1
 48
50.0
100
AcDbLine
 10
4459.882688958913
 20
6148.947238448385
 30
0.0
 11
4459.882688958913
 21
6113.947238448385
 31
0.0
  0
ARC
  5
149DD
330
747D
100
AcDbEntity
  8
部品1
 48
50.0
100
AcDbCircle
 10
4469.882688958914
 20
6113.947238448385
 30
0.0
 40
10.0
100
AcDbArc
 50
180.0
 51
270.0
  0
LINE
  5
149DE
330
747D
100
AcDbEntity
  8
部品1
 48
50.0
100
AcDbLine
 10
4523.882688958913
 20
6148.947238448385
 30
0.0
 11
4523.882688958913
 21
6113.947238448385
 31
0.0
  0
ARC
  5
149DF
330
747D
100
AcDbEntity
  8
部品1
 48
50.0
100
AcDbCircle
 10
4513.882688958914
 20
6113.947238448385
 30
0.0
 40
10.0
100
AcDbArc
 50
270.0
 51
0.0000000000000254
  0
LINE
  5
149E0
330
747D
100
AcDbEntity
  8
部品1
 48
50.0
100
AcDbLine
 10
4275.039562570068
 20
6918.990476159921
 30
0.0
 11
4431.307809817982
 21
6918.990476159921
 31
0.0
  0
LINE
  5
149E1
330
747D
100
AcDbEntity
  8
部品1
 48
50.0
100
AcDbLine
 10
4275.039562570064
 20
6918.990476159923
 30
0.0
 11
4368.380959960544
 21
6972.881157069853
 31
0.0
  0
LINE
  5
149E2
330
747D
100
AcDbEntity
  8
部品1
 48
50.0
100
AcDbLine
 10
4325.382688958913
 20
6948.056093732367
 30
0.0
 11
4325.382688958913
 21
6918.990476159923
 31
0.0
  0
LINE
  5
149E3
330
747D
100
AcDbEntity
  8
部品1
 48
50.0
100
AcDbLine
 10
4348.382688958913
 20
6961.335149923731
 30
0.0
 11
4348.382688958913
 21
6918.990476159923
 31
0.0
  0
LINE
  5
149E4
330
747D
100
AcDbEntity
  8
部品1
 48
50.0
100
AcDbLine
 10
4431.307809817982
 20
6918.990476159921
 30
0.0
 11
4389.316935286896
 21
6894.747033445892
 31
0.0
  0
LINE
  5
149E5
330
747D
100
AcDbEntity
  8
寸法
 48
50.0
100
AcDbLine
 10
6079.501058890356
 20
5557.550825791265
 30
0.0
 11
5817.724769413459
 21
6344.247697710415
 31
0.0
  0
TEXT
  5
149E6
330
747D
100
AcDbEntity
  8
部品1
 48
50.0
100
AcDbText
 10
4945.710357762345
 20
5423.345443396547
 30
0.0
 40
120.0
  1
⑥
  7
STYLE2
100
AcDbText
  0
TEXT
  5
149E7
330
747D
100
AcDbEntity
  8
部品1
 48
50.0
100
AcDbText
 10
6021.386197975462
 20
5420.423537286386
 30
0.0
 40
120.0
  1
⑦
  7
STYLE2
100
AcDbText
  0
LINE
  5
149E8
330
747D
100
AcDbEntity
  8
点線
 48
50.0
100
AcDbLine
 10
4469.882688958914
 20
7738.947238448384
 30
0.0
 11
4513.882688958914
 21
7738.947238448384
 31
0.0
  0
LINE
  5
149E9
330
747D
100
AcDbEntity
  8
点線
 48
50.0
100
AcDbLine
 10
4459.882688958913
 20
7728.947238448384
 30
0.0
 11
4459.882688958913
 21
7713.947238448383
 31
0.0
  0
ARC
  5
149EA
330
747D
100
AcDbEntity
  8
点線
 48
50.0
100
AcDbCircle
 10
4469.882688958914
 20
7728.947238448384
 30
0.0
 40
10.0
100
AcDbArc
 50
90.0
 51
180.0
  0
LINE
  5
149EB
330
747D
100
AcDbEntity
  8
点線
 48
50.0
100
AcDbLine
 10
4523.882688958913
 20
7728.947238448384
 30
0.0
 11
4523.882688958913
 21
7713.947238448383
 31
0.0
  0
ARC
  5
149EC
330
747D
100
AcDbEntity
  8
点線
 48
50.0
100
AcDbCircle
 10
4513.882688958914
 20
7728.947238448384
 30
0.0
 40
10.0
100
AcDbArc
 50
0.0
 51
90.0
  0
LINE
  5
149ED
330
747D
100
AcDbEntity
  8
部品1
 48
50.0
100
AcDbLine
 10
4501.882688958917
 20
7817.947238448384
 30
0.0
 11
4501.882688958914
 21
7921.447238448388
 31
0.0
  0
DIMENSION
  5
149EF
330
747D
100
AcDbEntity
  8
寸法
 48
50.0
100
AcDbDimension
  2
*D8
 10
7991.882688958914
 20
4601.702425425581
 30
0.0
 11
8179.060838565213
 21
4601.702425425581
 31
0.0
 12
299.4566540923197
 22
0.0
 32
0.0
 70
   160
 71
     5
 42
-1.0
  3
INABA_S30G
100
AcDbAlignedDimension
 13
7741.882688958914
 23
3970.897875741638
 33
0.0
 14
7991.882688958914
 24
4066.450581124185
 34
0.0
100
AcDbRotatedDimension
  0
LINE
  5
149F0
330
747D
100
AcDbEntity
  8
部品1
 48
50.0
100
AcDbLine
 10
7701.882688958914
 20
3548.431828606204
 30
0.0
 11
7701.882688958914
 21
1880.562576328022
 31
0.0
  0
LINE
  5
149F1
330
747D
100
AcDbEntity
  8
部品1
 48
50.0
100
AcDbLine
 10
7781.882688958913
 20
3548.431828606204
 30
0.0
 11
7781.882688958913
 21
1880.562576328022
 31
0.0
  0
LINE
  5
149F6
330
747D
100
AcDbEntity
  8
細線
 48
50.0
100
AcDbLine
 10
7746.307594866592
 20
1830.562576328022
 30
0.0
 11
7796.307594866592
 21
1880.562576328022
 31
0.0
  0
LINE
  5
149F7
330
747D
100
AcDbEntity
  8
細線
 48
50.0
100
AcDbLine
 10
7719.366814866591
 20
1830.562576328022
 30
0.0
 11
7769.36681486659
 21
1880.562576328022
 31
0.0
  0
LINE
  5
149F8
330
747D
100
AcDbEntity
  8
細線
 48
50.0
100
AcDbLine
 10
7692.426034866594
 20
1830.562576328022
 30
0.0
 11
7742.426034866594
 21
1880.562576328022
 31
0.0
  0
LINE
  5
149F9
330
747D
100
AcDbEntity
  8
点線
 48
18.0
100
AcDbLine
 10
7701.882688958914
 20
1880.562576328022
 30
0.0
 11
7701.882688958914
 21
1830.562576328022
 31
0.0
  0
LINE
  5
149FA
330
747D
100
AcDbEntity
  8
点線
 48
18.0
100
AcDbLine
 10
7781.882688958913
 20
1880.562576328022
 30
0.0
 11
7781.882688958913
 21
1830.562576328022
 31
0.0
  0
LINE
  5
149FD
330
747D
100
AcDbEntity
  8
部品1
 48
50.0
100
AcDbLine
 10
7991.882688958914
 20
1880.562576328022
 30
0.0
 11
7991.882688958914
 21
1830.562576328022
 31
0.0
  0
LINE
  5
149FE
330
747D
100
AcDbEntity
  8
部品1
 48
50.0
100
AcDbLine
 10
7741.882688958914
 20
3907.348694766935
 30
0.0
 11
7741.882688958914
 21
3548.431828606207
 31
0.0
  0
LINE
  5
149FF
330
747D
100
AcDbEntity
  8
部品1
 48
50.0
100
AcDbLine
 10
7721.882688958913
 20
3907.348694766935
 30
0.0
 11
7721.882688958913
 21
3548.431828606207
 31
0.0
  0
LINE
  5
14A00
330
747D
100
AcDbEntity
  8
部品1
 48
50.0
100
AcDbLine
 10
7761.882688958914
 20
3907.348694766935
 30
0.0
 11
7761.882688958914
 21
3548.431828606207
 31
0.0
  0
LINE
  5
14A01
330
747D
100
AcDbEntity
  8
部品1
 48
50.0
100
AcDbLine
 10
7696.882688958914
 20
3548.431828606207
 30
0.0
 11
7696.882688958914
 21
3698.431828606209
 31
0.0
  0
LINE
  5
14A02
330
747D
100
AcDbEntity
  8
部品1
 48
50.0
100
AcDbLine
 10
7786.882688958915
 20
3548.431828606207
 30
0.0
 11
7786.882688958915
 21
3698.431828606209
 31
0.0
  0
LINE
  5
14A03
330
747D
100
AcDbEntity
  8
部品1
 48
50.0
100
AcDbLine
 10
7786.882688958915
 20
3548.431828606207
 30
0.0
 11
7696.882688958914
 21
3548.431828606204
 31
0.0
  0
LINE
  5
14A04
330
747D
100
AcDbEntity
  8
部品1
 48
50.0
100
AcDbLine
 10
7721.882688958913
 20
3698.431828606209
 30
0.0
 11
7696.882688958914
 21
3698.431828606209
 31
0.0
  0
LINE
  5
14A05
330
747D
100
AcDbEntity
  8
部品1
 48
50.0
100
AcDbLine
 10
7786.882688958915
 20
3698.431828606209
 30
0.0
 11
7761.882688958914
 21
3698.431828606209
 31
0.0
  0
LINE
  5
14A06
330
747D
100
AcDbEntity
  8
部品1
 48
50.0
100
AcDbLine
 10
7928.882688958913
 20
3939.307144620489
 30
0.0
 11
7773.882688958913
 21
3939.307144620489
 31
0.0
  0
LINE
  5
14A07
330
747D
100
AcDbEntity
  8
部品1
 48
50.0
100
AcDbLine
 10
7928.882688958913
 20
3969.969012140657
 30
0.0
 11
7773.882688958913
 21
3969.969012140657
 31
0.0
  0
LINE
  5
14A08
330
747D
100
AcDbEntity
  8
部品1
 48
50.0
100
AcDbLine
 10
7951.882688958914
 20
3900.22801780871
 30
0.0
 11
7773.882688958913
 21
3900.228017808708
 31
0.0
  0
LINE
  5
14A09
330
747D
100
AcDbEntity
  8
部品1
 48
50.0
100
AcDbLine
 10
7928.882688958913
 20
3909.96901214066
 30
0.0
 11
7773.882688958913
 21
3909.969012140658
 31
0.0
  0
LINE
  5
14A0A
330
747D
100
AcDbEntity
  8
部品1
 48
50.0
100
AcDbLine
 10
7709.882688958913
 20
3968.897875741637
 30
0.0
 11
7709.882688958913
 21
3909.348694766933
 31
0.0
  0
LINE
  5
14A0B
330
747D
100
AcDbEntity
  8
部品1
 48
50.0
100
AcDbLine
 10
7773.882688958913
 20
3968.897875741637
 30
0.0
 11
7773.882688958913
 21
3909.348694766933
 31
0.0
  0
LINE
  5
14A0C
330
747D
100
AcDbEntity
  8
部品1
 48
50.0
100
AcDbLine
 10
7771.882688958914
 20
3907.348694766934
 30
0.0
 11
7711.882688958914
 21
3907.348694766934
 31
0.0
  0
ARC
  5
14A0D
330
747D
100
AcDbEntity
  8
部品1
 48
50.0
100
AcDbCircle
 10
7771.882688958914
 20
3909.348694766933
 30
0.0
 40
2.0
100
AcDbArc
 50
270.0
 51
359.9999999999983
  0
ARC
  5
14A0E
330
747D
100
AcDbEntity
  8
部品1
 48
50.0
100
AcDbCircle
 10
7711.882688958914
 20
3909.348694766933
 30
0.0
 40
2.0
100
AcDbArc
 50
180.0
 51
270.0
  0
LINE
  5
14A0F
330
747D
100
AcDbEntity
  8
細線
 48
50.0
100
AcDbLine
 10
7773.882688958913
 20
3932.897875741639
 30
0.0
 11
7709.882688958913
 21
3932.897875741637
 31
0.0
  0
LINE
  5
14A10
330
747D
100
AcDbEntity
  8
細線
 48
50.0
100
AcDbLine
 10
7773.882688958913
 20
3922.897875741639
 30
0.0
 11
7709.882688958913
 21
3922.897875741637
 31
0.0
  0
LINE
  5
14A11
330
747D
100
AcDbEntity
  8
部品1
 48
50.0
100
AcDbLine
 10
7771.882688958914
 20
3844.818164454478
 30
0.0
 11
7761.882688958914
 21
3844.818164454478
 31
0.0
  0
LINE
  5
14A12
330
747D
100
AcDbEntity
  8
部品1
 48
50.0
100
AcDbLine
 10
7709.882688958913
 20
3909.348694766933
 30
0.0
 11
7709.882688958913
 21
3846.818164454479
 31
0.0
  0
LINE
  5
14A13
330
747D
100
AcDbEntity
  8
部品1
 48
50.0
100
AcDbLine
 10
7773.882688958913
 20
3909.348694766933
 30
0.0
 11
7773.882688958913
 21
3846.818164454479
 31
0.0
  0
LINE
  5
14A14
330
747D
100
AcDbEntity
  8
部品1
 48
50.0
100
AcDbLine
 10
7721.882688958913
 20
3844.818164454478
 30
0.0
 11
7711.882688958914
 21
3844.818164454478
 31
0.0
  0
ARC
  5
14A15
330
747D
100
AcDbEntity
  8
部品1
 48
50.0
100
AcDbCircle
 10
7711.882688958914
 20
3846.818164454479
 30
0.0
 40
2.0
100
AcDbArc
 50
180.0
 51
270.0
  0
ARC
  5
14A16
330
747D
100
AcDbEntity
  8
部品1
 48
50.0
100
AcDbCircle
 10
7771.882688958914
 20
3846.818164454479
 30
0.0
 40
2.0
100
AcDbArc
 50
270.0
 51
0.0
  0
LINE
  5
14A17
330
747D
100
AcDbEntity
  8
部品1
 48
50.0
100
AcDbLine
 10
7771.882688958914
 20
3970.897875741638
 30
0.0
 11
7711.882688958914
 21
3970.897875741638
 31
0.0
  0
ARC
  5
14A18
330
747D
100
AcDbEntity
  8
部品1
 48
50.0
100
AcDbCircle
 10
7711.882688958914
 20
3968.897875741637
 30
0.0
 40
2.0
100
AcDbArc
 50
90.0
 51
180.0
  0
ARC
  5
14A19
330
747D
100
AcDbEntity
  8
部品1
 48
50.0
100
AcDbCircle
 10
7771.882688958914
 20
3968.897875741637
 30
0.0
 40
2.0
100
AcDbArc
 50
0.0
 51
90.0
  0
LINE
  5
14A1A
330
747D
100
AcDbEntity
  8
細線
 48
50.0
100
AcDbLine
 10
7773.882688958913
 20
3954.897875741637
 30
0.0
 11
7709.882688958913
 21
3954.897875741637
 31
0.0
  0
LINE
  5
14A1B
330
747D
100
AcDbEntity
  8
細線
 48
50.0
100
AcDbLine
 10
7773.882688958913
 20
3944.897875741639
 30
0.0
 11
7709.882688958913
 21
3944.897875741637
 31
0.0
  0
LINE
  5
14A1C
330
747D
100
AcDbEntity
  8
部品1
 48
50.0
100
AcDbLine
 10
7991.30715135606
 20
3985.516841724653
 30
0.0
 11
7971.11530548844
 21
3914.741082286202
 31
0.0
  0
LINE
  5
14A1D
330
747D
100
AcDbEntity
  8
部品1
 48
50.0
100
AcDbLine
 10
7928.882688958913
 20
3977.046555566361
 30
0.0
 11
7928.882688958913
 21
3900.22801780871
 31
0.0
  0
ARC
  5
14A1E
330
747D
100
AcDbEntity
  8
部品1
 48
50.0
100
AcDbCircle
 10
7951.882688958914
 20
3920.228017808709
 30
0.0
 40
20.0
100
AcDbArc
 50
270.0
 51
344.0769099234519
  0
ARC
  5
14A1F
330
747D
100
AcDbEntity
  8
部品1
 48
50.0
100
AcDbCircle
 10
7951.882688958914
 20
3997.046555566362
 30
0.0
 40
20.0
100
AcDbArc
 50
270.0
 51
344.0769099234519
  0
LINE
  5
14A20
330
747D
100
AcDbEntity
  8
細線
 48
50.0
100
AcDbLine
 10
7959.12276333224
 20
4037.152911181982
 30
0.0
 11
7951.280381122272
 21
4009.664064428895
 31
0.0
  0
ARC
  5
14A21
330
747D
100
AcDbEntity
  8
細線
 48
50.0
100
AcDbCircle
 10
7949.506455067475
 20
4039.896378943234
 30
0.0
 40
10.0
100
AcDbArc
 50
344.0769099234531
 51
90.0
  0
LINE
  5
14A22
330
747D
100
AcDbEntity
  8
部品1
 48
50.0
100
AcDbLine
 10
7928.882688958913
 20
4081.450581124187
 30
0.0
 11
7928.882688958913
 21
3977.046555566361
 31
0.0
  0
LINE
  5
14A23
330
747D
100
AcDbEntity
  8
細線
 48
50.0
100
AcDbLine
 10
7946.393853137817
 20
4034.453727175278
 30
0.0
 11
7941.187358776925
 21
4016.204103301359
 31
0.0
  0
ARC
  5
14A24
330
747D
100
AcDbEntity
  8
細線
 48
50.0
100
AcDbCircle
 10
7941.66407285751
 20
4012.407532190147
 30
0.0
 40
10.0
100
AcDbArc
 50
270.0
 51
344.0769099234529
  0
ARC
  5
14A25
330
747D
100
AcDbEntity
  8
細線
 48
50.0
100
AcDbCircle
 10
7943.508960658388
 20
4035.276767503652
 30
0.0
 40
3.0
100
AcDbArc
 50
344.0769099234531
 51
90.0
  0
ARC
  5
14A26
330
747D
100
AcDbEntity
  8
細線
 48
50.0
100
AcDbCircle
 10
7938.302466297496
 20
4017.027143629733
 30
0.0
 40
3.0
100
AcDbArc
 50
270.0
 51
344.0769099234517
  0
ARC
  5
14A27
330
747D
100
AcDbEntity
  8
部品1
 48
50.0
100
AcDbCircle
 10
7976.882688958913
 20
4066.450581124185
 30
0.0
 40
15.0
100
AcDbArc
 50
344.0769099234545
 51
90.0
  0
LINE
  5
14A28
330
747D
100
AcDbEntity
  8
部品1
 48
50.0
100
AcDbLine
 10
7991.30715135606
 20
4062.335379482305
 30
0.0
 11
7971.11530548844
 21
3991.559620043856
 31
0.0
  0
LINE
  5
14A29
330
747D
100
AcDbEntity
  8
部品1
 48
50.0
100
AcDbLine
 10
7991.882688958914
 20
4066.450581124185
 30
0.0
 11
7991.882688958914
 21
3989.632043366532
 31
0.0
  0
ARC
  5
14A2A
330
747D
100
AcDbEntity
  8
部品1
 48
50.0
100
AcDbCircle
 10
7976.882688958913
 20
3989.632043366532
 30
0.0
 40
15.0
100
AcDbArc
 50
344.0769099234545
 51
0.0
  0
LINE
  5
14A2B
330
747D
100
AcDbEntity
  8
部品1
 48
50.0
100
AcDbLine
 10
6604.882688958913
 20
7817.947238448386
 30
0.0
 11
6604.882688958913
 21
6014.947238448385
 31
0.0
  0
LINE
  5
14A2C
330
747D
100
AcDbEntity
  8
点線
 48
50.0
100
AcDbLine
 10
7771.882688958914
 20
7648.947238448385
 30
0.0
 11
7771.882688958914
 21
6963.947238448385
 31
0.0
  0
LINE
  5
14A2D
330
747D
100
AcDbEntity
  8
点線
 48
50.0
100
AcDbLine
 10
7711.882688958914
 20
7648.947238448385
 30
0.0
 11
7711.882688958914
 21
6963.947238448385
 31
0.0
  0
LINE
  5
14A2E
330
747D
100
AcDbEntity
  8
部品1
 48
50.0
100
AcDbLine
 10
7991.882688958914
 20
7906.447238448385
 30
0.0
 11
7991.882688958914
 21
5936.447238448382
 31
0.0
  0
LINE
  5
14A2F
330
747D
100
AcDbEntity
  8
部品1
 48
50.0
100
AcDbLine
 10
7928.882688958913
 20
7921.447238448381
 30
0.0
 11
7928.882688958913
 21
5921.447238448386
 31
0.0
  0
LINE
  5
14A30
330
747D
100
AcDbEntity
  8
部品1
 48
50.0
100
AcDbLine
 10
6758.382688958914
 20
7817.947238448386
 30
0.0
 11
6758.382688958914
 21
6014.947238448385
 31
0.0
  0
LINE
  5
14A31
330
747D
100
AcDbEntity
  8
部品1
 48
50.0
100
AcDbLine
 10
7338.382688958914
 20
7817.947238448386
 30
0.0
 11
7338.382688958914
 21
6014.947238448385
 31
0.0
  0
LINE
  5
14A32
330
747D
100
AcDbEntity
  8
部品1
 48
50.0
100
AcDbLine
 10
7918.382688958914
 20
7817.947238448386
 30
0.0
 11
7918.382688958914
 21
6014.947238448385
 31
0.0
  0
LINE
  5
14A33
330
747D
100
AcDbEntity
  8
部品1
 48
50.0
100
AcDbLine
 10
6735.382688958914
 20
7817.947238448386
 30
0.0
 11
6735.382688958914
 21
6014.947238448385
 31
0.0
  0
LINE
  5
14A34
330
747D
100
AcDbEntity
  8
部品1
 48
50.0
100
AcDbLine
 10
7315.382688958914
 20
7817.947238448386
 30
0.0
 11
7315.382688958914
 21
6014.947238448385
 31
0.0
  0
LINE
  5
14A35
330
747D
100
AcDbEntity
  8
部品1
 48
50.0
100
AcDbLine
 10
7895.382688958914
 20
7817.947238448386
 30
0.0
 11
7895.382688958914
 21
6014.947238448385
 31
0.0
  0
LINE
  5
14A36
330
747D
100
AcDbEntity
  8
部品1
 48
50.0
100
AcDbLine
 10
7059.882688958913
 20
7817.947238448386
 30
0.0
 11
7059.882688958913
 21
6014.947238448385
 31
0.0
  0
LINE
  5
14A37
330
747D
100
AcDbEntity
  8
部品1
 48
50.0
100
AcDbLine
 10
7639.882688958913
 20
7817.947238448386
 30
0.0
 11
7639.882688958913
 21
6014.947238448385
 31
0.0
  0
LINE
  5
14A38
330
747D
100
AcDbEntity
  8
部品1
 48
50.0
100
AcDbLine
 10
6986.882688958914
 20
7817.947238448386
 30
0.0
 11
6986.882688958914
 21
6014.947238448385
 31
0.0
  0
LINE
  5
14A39
330
747D
100
AcDbEntity
  8
部品1
 48
50.0
100
AcDbLine
 10
7566.882688958914
 20
7817.947238448386
 30
0.0
 11
7566.882688958914
 21
6014.947238448385
 31
0.0
  0
LINE
  5
14A3A
330
747D
100
AcDbEntity
  8
部品1
 48
50.0
100
AcDbLine
 10
7104.882688958913
 20
7817.947238448386
 30
0.0
 11
7104.882688958913
 21
6014.947238448385
 31
0.0
  0
LINE
  5
14A3B
330
747D
100
AcDbEntity
  8
部品1
 48
50.0
100
AcDbLine
 10
7031.882688958913
 20
7817.947238448386
 30
0.0
 11
7031.882688958913
 21
6014.947238448385
 31
0.0
  0
LINE
  5
14A3C
330
747D
100
AcDbEntity
  8
部品1
 48
50.0
100
AcDbLine
 10
7611.882688958914
 20
7817.947238448386
 30
0.0
 11
7611.882688958914
 21
6014.947238448385
 31
0.0
  0
LINE
  5
14A3D
330
747D
100
AcDbEntity
  8
部品1
 48
50.0
100
AcDbLine
 10
7684.882688958913
 20
7817.947238448386
 30
0.0
 11
7684.882688958913
 21
6014.947238448385
 31
0.0
  0
DIMENSION
  5
14A3E
330
747D
100
AcDbEntity
  8
寸法
 48
50.0
100
AcDbDimension
  2
*D9
 10
8615.372223483793
 20
5921.447238448382
 30
0.0
 11
8615.372223483792
 21
6921.447238448381
 31
0.0
 70
   160
 71
     5
 42
2000.000000000003
  3
INABA_S30G
100
AcDbAlignedDimension
 13
7976.882688958913
 23
7921.447238448386
 33
0.0
 14
7976.882688958913
 24
5921.447238448382
 34
0.0
 50
90.0
100
AcDbRotatedDimension
  0
LINE
  5
14A3F
330
747D
100
AcDbEntity
  8
点線
 48
50.0
100
AcDbLine
 10
7771.882688958914
 20
6898.947238448385
 30
0.0
 11
7771.882688958914
 21
6213.947238448389
 31
0.0
  0
LINE
  5
14A40
330
747D
100
AcDbEntity
  8
点線
 48
50.0
100
AcDbLine
 10
7711.882688958914
 20
6898.947238448385
 30
0.0
 11
7711.882688958914
 21
6213.947238448389
 31
0.0
  0
LINE
  5
14A41
330
747D
100
AcDbEntity
  8
点線
 48
50.0
100
AcDbLine
 10
7773.882688958913
 20
6148.947238448389
 30
0.0
 11
7773.882688958913
 21
6113.947238448389
 31
0.0
  0
LINE
  5
14A42
330
747D
100
AcDbEntity
  8
点線
 48
50.0
100
AcDbLine
 10
7709.882688958913
 20
6148.947238448389
 30
0.0
 11
7709.882688958913
 21
6113.947238448385
 31
0.0
  0
LINE
  5
14A43
330
747D
100
AcDbEntity
  8
点線
 48
50.0
100
AcDbLine
 10
7719.882688958914
 20
6103.947238448385
 30
0.0
 11
7763.882688958914
 21
6103.947238448388
 31
0.0
  0
ARC
  5
14A44
330
747D
100
AcDbEntity
  8
点線
 48
50.0
100
AcDbCircle
 10
7719.882688958914
 20
6113.947238448385
 30
0.0
 40
10.0
100
AcDbArc
 50
180.0
 51
270.0000000000008
  0
ARC
  5
14A45
330
747D
100
AcDbEntity
  8
点線
 48
50.0
100
AcDbCircle
 10
7763.882688958914
 20
6113.947238448389
 30
0.0
 40
10.0
100
AcDbArc
 50
270.0000000000009
 51
0.0
  0
LINE
  5
14A46
330
747D
100
AcDbEntity
  8
部品1
 48
50.0
100
AcDbLine
 10
7928.882688958913
 20
5984.447238448385
 30
0.0
 11
7991.882688958914
 21
5984.447238448385
 31
0.0
  0
ARC
  5
14A47
330
747D
100
AcDbEntity
  8
部品1
 48
50.0
100
AcDbCircle
 10
7976.882688958913
 20
5936.447238448382
 30
0.0
 40
15.0
100
AcDbArc
 50
270.0
 51
0.0
  0
LINE
  5
14A48
330
747D
100
AcDbEntity
  8
点線
 48
50.0
100
AcDbLine
 10
7709.882688958913
 20
7728.947238448386
 30
0.0
 11
7709.882688958913
 21
7713.947238448385
 31
0.0
  0
LINE
  5
14A49
330
747D
100
AcDbEntity
  8
点線
 48
50.0
100
AcDbLine
 10
7773.882688958913
 20
7728.947238448386
 30
0.0
 11
7773.882688958913
 21
7713.947238448385
 31
0.0
  0
LINE
  5
14A4A
330
747D
100
AcDbEntity
  8
点線
 48
50.0
100
AcDbLine
 10
7719.882688958914
 20
7738.947238448385
 30
0.0
 11
7763.882688958914
 21
7738.947238448385
 31
0.0
  0
ARC
  5
14A4B
330
747D
100
AcDbEntity
  8
点線
 48
50.0
100
AcDbCircle
 10
7719.882688958914
 20
7728.947238448386
 30
0.0
 40
10.0
100
AcDbArc
 50
90.0
 51
180.0
  0
ARC
  5
14A4C
330
747D
100
AcDbEntity
  8
点線
 48
50.0
100
AcDbCircle
 10
7763.882688958914
 20
7728.947238448386
 30
0.0
 40
10.0
100
AcDbArc
 50
0.0
 51
90.0
  0
LINE
  5
14A4D
330
747D
100
AcDbEntity
  8
部品1
 48
50.0
100
AcDbLine
 10
7928.882688958913
 20
7858.447238448386
 30
0.0
 11
7991.882688958914
 21
7858.447238448386
 31
0.0
  0
ARC
  5
14A4E
330
747D
100
AcDbEntity
  8
部品1
 48
50.0
100
AcDbCircle
 10
7976.882688958913
 20
7906.447238448385
 30
0.0
 40
15.0
100
AcDbArc
 50
0.0
 51
90.0
  0
LINE
  5
14A4F
330
747D
100
AcDbEntity
  8
寸法
 48
50.0
100
AcDbLine
 10
9639.230348220493
 20
4053.222195217858
 30
0.0
 11
9153.08552712201
 21
4546.895830082074
 31
0.0
  0
DIMENSION
  5
14A50
330
747D
100
AcDbEntity
  8
寸法
 48
50.0
100
AcDbDimension
  2
*D10
 10
11414.56020340367
 20
4906.270106075113
 30
0.0
 11
10414.56020340367
 21
4981.27896434283
 31
0.0
 12
299.4566540923197
 22
0.0
 32
0.0
 70
    32
 71
     5
 42
-1.0
  3
INABA_S30G
100
AcDbAlignedDimension
 13
9414.560203403674
 23
4066.450581124187
 33
0.0
 14
11414.56020340367
 24
3987.650581124186
 34
0.0
100
AcDbRotatedDimension
  0
DIMENSION
  5
14A51
330
747D
100
AcDbEntity
  8
寸法
 48
50.0
100
AcDbDimension
  2
*D11
 10
11790.19765587827
 20
1830.562576328022
 30
0.0
 11
11790.19765587827
 21
1601.027143257156
 31
0.0
 70
   160
 71
     5
 42
-1.0
  3
INABA_S30G
100
AcDbAlignedDimension
 13
10454.56020340367
 23
1880.562576328022
 33
0.0
 14
11414.56020340367
 24
1830.562576328022
 34
0.0
 50
90.0
100
AcDbRotatedDimension
  0
LINE
  5
14A52
330
747D
100
AcDbEntity
  8
部品1
 48
50.0
100
AcDbLine
 10
9430.159723978908
 20
4081.438595505015
 30
0.0
 11
11400.15972397891
 21
4002.638595505014
 31
0.0
  0
LINE
  5
14A53
330
747D
100
AcDbEntity
  8
細線
 48
50.0
100
AcDbLine
 10
9465.340466369507
 20
4012.477387392127
 30
0.0
 11
11358.79115983805
 21
3936.739359653382
 31
0.0
  0
LINE
  5
14A54
330
747D
100
AcDbEntity
  8
細線
 48
50.0
100
AcDbLine
 10
9461.259683078727
 20
4036.659811049896
 30
0.0
 11
11365.09923101735
 21
3960.506229132352
 31
0.0
  0
LINE
  5
14A55
330
747D
100
AcDbEntity
  8
細線
 48
50.0
100
AcDbLine
 10
9456.23233895532
 20
4048.370101137771
 30
0.0
 11
11371.08972316743
 21
3971.775805769289
 31
0.0
  0
LINE
  5
14A56
330
747D
100
AcDbEntity
  8
部品1
 48
50.0
100
AcDbLine
 10
10432.64574075654
 20
3877.708407112094
 30
0.0
 11
10602.63282211905
 21
3870.908923857594
 31
0.0
  0
LINE
  5
14A57
330
747D
100
AcDbEntity
  8
部品1
 48
50.0
100
AcDbLine
 10
10459.56020340367
 20
3698.431828606209
 30
0.0
 11
10602.53290202317
 21
3868.410921460789
 31
0.0
  0
LINE
  5
14A58
330
747D
100
AcDbEntity
  8
細線
 48
50.0
100
AcDbLine
 10
10484.85605189734
 20
3615.324586635637
 30
0.0
 11
10674.40547845893
 21
3840.678377178493
 31
0.0
  0
LINE
  5
14A59
330
747D
100
AcDbEntity
  8
細線
 48
50.0
100
AcDbLine
 10
10480.26435491001
 20
3628.507948372575
 30
0.0
 11
10662.2287398637
 21
3844.843943880267
 31
0.0
  0
LINE
  5
14A5A
330
747D
100
AcDbEntity
  8
細線
 48
50.0
100
AcDbLine
 10
10484.85605189734
 20
3673.04473931075
 30
0.0
 11
10627.43621327011
 21
3842.557147786047
 31
0.0
  0
LINE
  5
14A5B
330
747D
100
AcDbEntity
  8
細線
 48
50.0
100
AcDbLine
 10
10480.26435491001
 20
3686.228101047691
 30
0.0
 11
10615.25947467488
 21
3846.72271448782
 31
0.0
  0
LINE
  5
14A5C
330
747D
100
AcDbEntity
  8
部品1
 48
50.0
100
AcDbLine
 10
10515.06505523412
 20
1908.537245717489
 30
0.0
 11
10541.37644861613
 21
1898.960681704368
 31
0.0
  0
LINE
  5
14A5D
330
747D
100
AcDbEntity
  8
部品1
 48
50.0
100
AcDbLine
 10
10534.56020340367
 20
1962.099725102283
 30
0.0
 11
10556.17313368176
 21
1954.233261805801
 31
0.0
  0
LINE
  5
14A5E
330
747D
100
AcDbEntity
  8
部品1
 48
50.0
100
AcDbLine
 10
10459.56020340367
 20
3548.431828606207
 30
0.0
 11
10724.59407913022
 21
3863.528474376506
 31
0.0
  0
LINE
  5
14A5F
330
747D
100
AcDbEntity
  8
部品1
 48
50.0
100
AcDbLine
 10
11279.56020340367
 20
3852.060422000177
 30
0.0
 11
10514.03899480413
 21
3573.433488370454
 31
0.0
  0
LINE
  5
14A60
330
747D
100
AcDbEntity
  8
部品1
 48
50.0
100
AcDbLine
 10
11175.54753181556
 20
3750.352239207043
 30
0.0
 11
10534.56020340367
 21
3517.0519311233
 31
0.0
  0
LINE
  5
14A61
330
747D
100
AcDbEntity
  8
部品1
 48
50.0
100
AcDbLine
 10
11404.56070336617
 20
1871.062571328397
 30
0.0
 11
10454.56020340365
 21
1880.562576328022
 31
0.0
  0
LINE
  5
14A62
330
747D
100
AcDbEntity
  8
部品1
 48
50.0
100
AcDbLine
 10
9450.391549783429
 20
3977.046555566364
 30
0.0
 11
11370.45547308568
 21
3900.243998634272
 31
0.0
  0
LINE
  5
14A63
330
747D
100
AcDbEntity
  8
細線
 48
50.0
100
AcDbLine
 10
9461.913865469652
 20
4001.105255105178
 30
0.0
 11
11361.18796797665
 21
3925.134291004899
 31
0.0
  0
DIMENSION
  5
14A64
330
747D
100
AcDbEntity
  8
寸法
 48
50.0
100
AcDbDimension
  2
*D12
 10
8806.685094943322
 20
1880.562576328023
 30
0.0
 11
8806.685094943322
 21
1601.027143257156
 31
0.0
 70
   160
 71
     5
 42
-1.0
  3
INABA_S30G
100
AcDbAlignedDimension
 13
9414.560203403674
 23
1830.562576328022
 33
0.0
 14
10374.56020340367
 24
1880.562576328023
 34
0.0
 50
90.0
100
AcDbRotatedDimension
  0
DIMENSION
  5
14A65
330
747D
100
AcDbEntity
  8
寸法
 48
50.0
100
AcDbDimension
  2
*D13
 10
8806.685094943322
 20
1880.562576328022
 30
0.0
 11
8806.685094943322
 21
2981.312576328022
 31
0.0
 12
299.4566540923197
 22
0.0
 32
0.0
 70
   160
 71
     5
 42
-1.0
  3
INABA_S30G
100
AcDbAlignedDimension
 13
9414.560203403674
 23
4082.062576328023
 33
0.0
 14
9414.560203403674
 24
1880.562576328022
 34
0.0
 50
90.0
100
AcDbRotatedDimension
  0
LINE
  5
14A66
330
747D
100
AcDbEntity
  8
部品1
 48
50.0
100
AcDbLine
 10
10374.56020340367
 20
3548.431828606207
 30
0.0
 11
10374.56020340367
 21
1880.562576328022
 31
0.0
  0
LINE
  5
14A67
330
747D
100
AcDbEntity
  8
部品1
 48
50.0
100
AcDbLine
 10
10454.56020340367
 20
3548.431828606208
 30
0.0
 11
10454.56020340367
 21
1880.562576328022
 31
0.0
  0
LINE
  5
14A68
330
747D
100
AcDbEntity
  8
部品1
 48
50.0
100
AcDbLine
 10
10474.56020340367
 20
3517.0519311233
 30
0.0
 11
10474.56020340367
 21
1962.099725102285
 31
0.0
  0
LINE
  5
14A69
330
747D
100
AcDbEntity
  8
部品1
 48
50.0
100
AcDbLine
 10
10534.56020340367
 20
3487.0519311233
 30
0.0
 11
10534.56020340367
 21
1962.099725102283
 31
0.0
  0
LINE
  5
14A6A
330
747D
100
AcDbEntity
  8
細線
 48
50.0
100
AcDbLine
 10
9530.908643762188
 20
1830.562576328022
 30
0.0
 11
9572.891961341559
 21
1872.5458939074
 31
0.0
  0
LINE
  5
14A6B
330
747D
100
AcDbEntity
  8
部品1
 48
50.0
100
AcDbLine
 10
9424.559703441174
 20
1871.062571328397
 30
0.0
 11
10374.56020340369
 21
1880.562576328022
 31
0.0
  0
LINE
  5
14A6C
330
747D
100
AcDbEntity
  8
部品1
 48
50.0
100
AcDbLine
 10
9414.560203403674
 20
1860.962576328022
 30
0.0
 11
9414.560203403674
 21
1830.562576328022
 31
0.0
  0
LINE
  5
14A6D
330
747D
100
AcDbEntity
  8
細線
 48
50.0
100
AcDbLine
 10
9503.967863762188
 20
1830.562576328022
 30
0.0
 11
9545.679052250656
 21
1872.27376481649
 31
0.0
  0
LINE
  5
14A6E
330
747D
100
AcDbEntity
  8
部品1
 48
50.0
100
AcDbLine
 10
9424.559703441174
 20
1871.062571328397
 30
0.0
 11
9414.560203403674
 21
1860.962576328022
 31
0.0
  0
LINE
  5
14A6F
330
747D
100
AcDbEntity
  8
細線
 48
50.0
100
AcDbLine
 10
9557.84942376219
 20
1830.562576328022
 30
0.0
 11
9600.104870432474
 21
1872.818022998309
 31
0.0
  0
LINE
  5
14A70
330
747D
100
AcDbEntity
  8
細線
 48
50.0
100
AcDbLine
 10
10204.42786447916
 20
1830.562576328022
 30
0.0
 11
10253.21440651022
 21
1879.349118359087
 31
0.0
  0
LINE
  5
14A71
330
747D
100
AcDbEntity
  8
細線
 48
50.0
100
AcDbLine
 10
10150.54630447916
 20
1830.562576328022
 30
0.0
 11
10198.7885883284
 21
1878.804860177268
 31
0.0
  0
LINE
  5
14A72
330
747D
100
AcDbEntity
  8
細線
 48
50.0
100
AcDbLine
 10
10177.48708447916
 20
1830.562576328022
 30
0.0
 11
10226.00149741931
 21
1879.076989268177
 31
0.0
  0
LINE
  5
14A73
330
747D
100
AcDbEntity
  8
点線
 48
18.0
100
AcDbLine
 10
10454.56020340367
 20
1880.562576328022
 30
0.0
 11
10454.56020340367
 21
1830.562576328022
 31
0.0
  0
LINE
  5
14A74
330
747D
100
AcDbEntity
  8
点線
 48
18.0
100
AcDbLine
 10
10374.56020340367
 20
1880.562576328022
 30
0.0
 11
10374.56020340367
 21
1830.562576328022
 31
0.0
  0
LINE
  5
14A75
330
747D
100
AcDbEntity
  8
部品1
 48
50.0
100
AcDbLine
 10
10374.56020340367
 20
1880.562576328022
 30
0.0
 11
10454.56020340365
 21
1880.562576328022
 31
0.0
  0
LINE
  5
14A76
330
747D
100
AcDbEntity
  8
部品1
 48
50.0
100
AcDbLine
 10
10454.56020340367
 20
1880.562576328022
 30
0.0
 11
10374.56020340369
 21
1880.562576328022
 31
0.0
  0
LINE
  5
14A77
330
747D
100
AcDbEntity
  8
部品1
 48
50.0
100
AcDbLine
 10
10454.56020340367
 20
1880.562576328022
 30
0.0
 11
10374.56020340369
 21
1880.562576328022
 31
0.0
  0
ARC
  5
14A78
330
747D
100
AcDbEntity
  8
部品1
 48
50.0
100
AcDbCircle
 10
10534.56020340367
 20
1962.099725102285
 30
0.0
 40
60.0
100
AcDbArc
 50
180.0
 51
249.9999999999999
  0
LINE
  5
14A79
330
747D
100
AcDbEntity
  8
細線
 48
50.0
100
AcDbLine
 10
10534.56020340367
 20
1962.099725102283
 30
0.0
 11
10514.03899480414
 21
1905.718167855131
 31
0.0
  0
LINE
  5
14A7A
330
747D
100
AcDbEntity
  8
細線
 48
50.0
100
AcDbLine
 10
10534.56020340367
 20
1987.099725102283
 30
0.0
 11
10474.56020340367
 21
1987.099725102285
 31
0.0
  0
LINE
  5
14A7B
330
747D
100
AcDbEntity
  8
部品1
 48
50.0
100
AcDbLine
 10
10536.06020340367
 20
1997.099725102285
 30
0.0
 11
10454.56020340367
 21
1997.099725102285
 31
0.0
  0
LINE
  5
14A7C
330
747D
100
AcDbEntity
  8
部品1
 48
50.0
100
AcDbLine
 10
10536.06020340367
 20
2017.099725102285
 30
0.0
 11
10454.56020340367
 21
2017.099725102285
 31
0.0
  0
LWPOLYLINE
  5
14A7D
330
747D
100
AcDbEntity
  8
細線
 48
50.0
100
AcDbPolyline
 90
        6
 70
     1
 43
0.0
 10
10469.56020340367
 20
2009.986476448234
 10
10464.56020340367
 20
2012.873227794182
 10
10459.56020340367
 20
2009.986476448234
 10
10459.56020340367
 20
2004.212973756338
 10
10464.56020340367
 20
2001.326222410389
 10
10469.56020340367
 20
2004.212973756338
  0
CIRCLE
  5
14A7E
330
747D
100
AcDbEntity
  8
細線
 48
50.0
100
AcDbCircle
 10
10464.56020340367
 20
2007.099725102285
 30
0.0
 40
6.5
  0
LINE
  5
14A7F
330
747D
100
AcDbEntity
  8
部品1
 48
50.0
100
AcDbLine
 10
10536.06020340367
 20
2017.099725102285
 30
0.0
 11
10536.06020340367
 21
1997.099725102285
 31
0.0
  0
LINE
  5
14A80
330
747D
100
AcDbEntity
  8
寸法
 48
50.0
100
AcDbLine
 10
10416.24662319983
 20
3035.520619798459
 30
0.0
 11
9771.603098228213
 21
2830.485466770115
 31
0.0
  0
TEXT
  5
14A81
330
747D
100
AcDbEntity
  8
部品1
 48
50.0
100
AcDbText
 10
9608.089361707412
 20
2739.15677552504
 30
0.0
 40
120.0
  1
②
  7
STYLE2
100
AcDbText
  0
DIMENSION
  5
14A82
330
747D
100
AcDbEntity
  8
寸法
 48
50.0
100
AcDbDimension
  2
*D14
 10
9116.982640512448
 20
3990.382911937201
 30
0.0
 11
9119.050986497001
 21
4042.091561551053
 31
0.0
 12
299.4566540923197
 22
0.0
 32
0.0
 70
   160
 71
     5
 42
-1.0
 51
2.290610042638495
  3
INABA_S30G
100
AcDbAlignedDimension
 13
9430.159723978922
 23
4081.438595505012
 33
0.0
 14
9450.391549783429
 24
3977.046555566361
 34
0.0
 50
87.70938995736154
100
AcDbRotatedDimension
  0
ARC
  5
14A83
330
747D
100
AcDbEntity
  8
部品1
 48
50.0
100
AcDbCircle
 10
9451.190910550407
 20
3997.030574740799
 30
0.0
 40
20.0
100
AcDbArc
 50
193.3635800495578
 51
267.7093899573604
  0
ARC
  5
14A84
330
747D
100
AcDbEntity
  8
部品1
 48
50.0
100
AcDbCircle
 10
9429.560203403674
 20
4066.450581124187
 30
0.0
 40
15.0
100
AcDbArc
 50
87.70938995736079
 51
193.3635800495583
  0
LINE
  5
14A85
330
747D
100
AcDbEntity
  8
部品1
 48
50.0
100
AcDbLine
 10
9414.966358527006
 20
4062.983638419761
 30
0.0
 11
9431.732450714852
 21
3992.407984468231
 31
0.0
  0
LINE
  5
14A86
330
747D
100
AcDbEntity
  8
部品1
 48
50.0
100
AcDbLine
 10
9478.12136999755
 20
4079.52012966427
 30
0.0
 11
9473.98467802844
 21
3976.102830436565
 31
0.0
  0
LINE
  5
14A87
330
747D
100
AcDbEntity
  8
細線
 48
50.0
100
AcDbLine
 10
9446.103428654053
 20
4036.06679641427
 30
0.0
 11
9452.584315935361
 21
4008.785969556113
 31
0.0
  0
LINE
  5
14A88
330
747D
100
AcDbEntity
  8
細線
 48
50.0
100
AcDbLine
 10
9458.22100998834
 20
4032.968819632846
 30
0.0
 11
9462.54160150922
 21
4014.781601727407
 31
0.0
  0
ARC
  5
14A89
330
747D
100
AcDbEntity
  8
細線
 48
50.0
100
AcDbCircle
 10
9461.13977896368
 20
4033.662208173729
 30
0.0
 40
3.0
100
AcDbArc
 50
87.70938995736145
 51
193.3635800495541
  0
ARC
  5
14A8A
330
747D
100
AcDbEntity
  8
細線
 48
50.0
100
AcDbCircle
 10
9465.460370484555
 20
4015.474990268292
 30
0.0
 40
3.0
100
AcDbArc
 50
193.363580049562
 51
267.7093899573615
  0
ARC
  5
14A8B
330
747D
100
AcDbEntity
  8
細線
 48
50.0
100
AcDbCircle
 10
9455.832658571832
 20
4038.378091550556
 30
0.0
 40
10.0
100
AcDbArc
 50
87.7093899573615
 51
193.3635800495596
  0
ARC
  5
14A8C
330
747D
100
AcDbEntity
  8
細線
 48
50.0
100
AcDbCircle
 10
9462.31354585314
 20
4011.097264692398
 30
0.0
 40
10.0
100
AcDbArc
 50
193.36358004956
 51
267.7093899573615
  0
LINE
  5
14A8D
330
747D
100
AcDbEntity
  8
部品1
 48
50.0
100
AcDbLine
 10
10369.56020340367
 20
3548.431828606207
 30
0.0
 11
10082.93795315999
 21
3889.194719415315
 31
0.0
  0
LINE
  5
14A8E
330
747D
100
AcDbEntity
  8
部品1
 48
50.0
100
AcDbLine
 10
10369.56020340367
 20
3698.431828606209
 30
0.0
 11
10213.49853182183
 21
3883.972296268843
 31
0.0
  0
LINE
  5
14A8F
330
747D
100
AcDbEntity
  8
細線
 48
50.0
100
AcDbLine
 10
10344.26435491
 20
3615.324586635637
 30
0.0
 11
10136.78116719327
 21
3861.999681749629
 31
0.0
  0
LINE
  5
14A90
330
747D
100
AcDbEntity
  8
細線
 48
50.0
100
AcDbLine
 10
10348.85605189734
 20
3686.228101047691
 30
0.0
 11
10199.72591330471
 21
3863.527724822121
 31
0.0
  0
LINE
  5
14A91
330
747D
100
AcDbEntity
  8
細線
 48
50.0
100
AcDbLine
 10
10348.85605189734
 20
3628.507948372575
 30
0.0
 11
10149.48606974663
 21
3865.537318564442
 31
0.0
  0
LINE
  5
14A92
330
747D
100
AcDbEntity
  8
細線
 48
50.0
100
AcDbLine
 10
10344.26435491001
 20
3673.04473931075
 30
0.0
 11
10187.02101075135
 21
3859.990088007304
 31
0.0
  0
LINE
  5
14A93
330
747D
100
AcDbEntity
  8
寸法
 48
50.0
100
AcDbLine
 10
10244.63995435547
 20
3713.704443316507
 30
0.0
 11
9771.658008099931
 21
3336.744762581548
 31
0.0
  0
TEXT
  5
14A94
330
747D
100
AcDbEntity
  8
部品1
 48
50.0
100
AcDbText
 10
9617.624434118168
 20
3231.533399241452
 30
0.0
 40
120.0
  1
①
  7
STYLE2
100
AcDbText
  0
LINE
  5
14A95
330
747D
100
AcDbEntity
  8
部品1
 48
50.0
100
AcDbLine
 10
10459.56020340367
 20
3698.431828606209
 30
0.0
 11
10459.56020340367
 21
3548.431828606208
 31
0.0
  0
LINE
  5
14A96
330
747D
100
AcDbEntity
  8
部品1
 48
50.0
100
AcDbLine
 10
10369.56020340367
 20
3698.431828606209
 30
0.0
 11
10369.56020340367
 21
3548.431828606207
 31
0.0
  0
CIRCLE
  5
14A97
330
747D
100
AcDbEntity
  8
細線
 48
50.0
100
AcDbCircle
 10
10414.56020340367
 20
3566.431828606206
 30
0.0
 40
9.0
  0
LWPOLYLINE
  5
14A98
330
747D
100
AcDbEntity
  8
細線
 48
50.0
100
AcDbPolyline
 90
        6
 70
     1
 43
0.0
 10
10408.06020340367
 20
3562.679051856475
 10
10414.56020340367
 20
3558.926275106743
 10
10421.06020340367
 20
3562.679051856475
 10
10421.06020340367
 20
3570.184605355939
 10
10414.56020340367
 20
3573.937382105672
 10
10408.06020340367
 20
3570.184605355939
  0
LINE
  5
14A99
330
747D
100
AcDbEntity
  8
部品1
 48
50.0
100
AcDbLine
 10
10369.56020340367
 20
3548.431828606207
 30
0.0
 11
10459.56020340367
 21
3548.431828606208
 31
0.0
  0
LINE
  5
14A9A
330
747D
100
AcDbEntity
  8
部品1
 48
50.0
100
AcDbLine
 10
10534.56020340367
 20
3517.0519311233
 30
0.0
 11
10534.56020340367
 21
3507.0519311233
 31
0.0
  0
ARC
  5
14A9B
330
747D
100
AcDbEntity
  8
部品1
 48
50.0
100
AcDbCircle
 10
10534.56020340367
 20
3517.0519311233
 30
0.0
 40
60.0
100
AcDbArc
 50
110.0
 51
180.0
  0
LINE
  5
14A9C
330
747D
100
AcDbEntity
  8
細線
 48
50.0
100
AcDbLine
 10
10534.56020340367
 20
3517.0519311233
 30
0.0
 11
10474.56020340367
 21
3517.0519311233
 31
0.0
  0
LINE
  5
14A9D
330
747D
100
AcDbEntity
  8
部品1
 48
50.0
100
AcDbLine
 10
10536.06020340367
 20
3507.0519311233
 30
0.0
 11
10454.56020340367
 21
3507.0519311233
 31
0.0
  0
LINE
  5
14A9E
330
747D
100
AcDbEntity
  8
部品1
 48
50.0
100
AcDbLine
 10
10536.06020340367
 20
3487.0519311233
 30
0.0
 11
10454.56020340367
 21
3487.0519311233
 31
0.0
  0
LINE
  5
14A9F
330
747D
100
AcDbEntity
  8
部品1
 48
50.0
100
AcDbLine
 10
10536.06020340367
 20
3507.0519311233
 30
0.0
 11
10536.06020340367
 21
3487.0519311233
 31
0.0
  0
LWPOLYLINE
  5
14AA0
330
747D
100
AcDbEntity
  8
細線
 48
50.0
100
AcDbPolyline
 90
        6
 70
     1
 43
0.0
 10
10469.56020340367
 20
3499.938682469249
 10
10464.56020340367
 20
3502.825433815198
 10
10459.56020340367
 20
3499.938682469249
 10
10459.56020340367
 20
3494.165179777353
 10
10464.56020340367
 20
3491.278428431405
 10
10469.56020340367
 20
3494.165179777353
  0
CIRCLE
  5
14AA1
330
747D
100
AcDbEntity
  8
細線
 48
50.0
100
AcDbCircle
 10
10464.56020340367
 20
3497.051931123301
 30
0.0
 40
6.5
  0
CIRCLE
  5
14AA2
330
747D
100
AcDbEntity
  8
細線
 48
50.0
100
AcDbCircle
 10
10414.56020340367
 20
3680.431828606208
 30
0.0
 40
9.0
  0
LWPOLYLINE
  5
14AA3
330
747D
100
AcDbEntity
  8
細線
 48
50.0
100
AcDbPolyline
 90
        6
 70
     1
 43
0.0
 10
10408.06020340367
 20
3676.679051856476
 10
10414.56020340367
 20
3672.926275106744
 10
10421.06020340367
 20
3676.679051856476
 10
10421.06020340367
 20
3684.18460535594
 10
10414.56020340367
 20
3687.937382105673
 10
10408.06020340367
 20
3684.18460535594
  0
LWPOLYLINE
  5
14AA4
330
747D
100
AcDbEntity
  8
細線
 48
50.0
100
AcDbPolyline
 90
        6
 70
     1
 43
0.0
 10
10408.06020340367
 20
3619.679051856476
 10
10414.56020340367
 20
3615.926275106744
 10
10421.06020340367
 20
3619.679051856476
 10
10421.06020340367
 20
3627.18460535594
 10
10414.56020340367
 20
3630.937382105673
 10
10408.06020340367
 20
3627.18460535594
  0
CIRCLE
  5
14AA5
330
747D
100
AcDbEntity
  8
細線
 48
50.0
100
AcDbCircle
 10
10414.56020340367
 20
3623.431828606209
 30
0.0
 40
9.0
  0
LINE
  5
14AA6
330
747D
100
AcDbEntity
  8
部品1
 48
50.0
100
AcDbLine
 10
10369.56020340367
 20
3698.431828606209
 30
0.0
 11
10459.56020340367
 21
3698.431828606209
 31
0.0
  0
LINE
  5
14AA7
330
747D
100
AcDbEntity
  8
細線
 48
50.0
100
AcDbLine
 10
10349.56020340367
 20
3684.297018528962
 30
0.0
 11
10349.56020340367
 21
3674.975821829477
 31
0.0
  0
LINE
  5
14AA8
330
747D
100
AcDbEntity
  8
細線
 48
50.0
100
AcDbLine
 10
10349.56020340367
 20
3626.576865853848
 30
0.0
 11
10349.56020340367
 21
3617.255669154366
 31
0.0
  0
ARC
  5
14AA9
330
747D
100
AcDbEntity
  8
細線
 48
50.0
100
AcDbCircle
 10
10346.56020340367
 20
3684.297018528962
 30
0.0
 40
3.0
100
AcDbArc
 50
359.9999999999985
 51
40.06783950280634
  0
ARC
  5
14AAA
330
747D
100
AcDbEntity
  8
細線
 48
50.0
100
AcDbCircle
 10
10346.56020340367
 20
3674.975821829477
 30
0.0
 40
3.0
100
AcDbArc
 50
220.0678395028065
 51
0.0
  0
ARC
  5
14AAB
330
747D
100
AcDbEntity
  8
細線
 48
50.0
100
AcDbCircle
 10
10346.56020340367
 20
3626.576865853848
 30
0.0
 40
3.0
100
AcDbArc
 50
359.9999999999987
 51
40.0678395028069
  0
ARC
  5
14AAC
330
747D
100
AcDbEntity
  8
細線
 48
50.0
100
AcDbCircle
 10
10346.56020340367
 20
3617.255669154366
 30
0.0
 40
3.0
100
AcDbArc
 50
220.0678395028068
 51
359.9999999999987
  0
ARC
  5
14AAD
330
747D
100
AcDbEntity
  8
細線
 48
50.0
100
AcDbCircle
 10
10482.56020340367
 20
3617.255669154366
 30
0.0
 40
3.0
100
AcDbArc
 50
180.0000000000013
 51
319.9321604971931
  0
LINE
  5
14AAE
330
747D
100
AcDbEntity
  8
細線
 48
50.0
100
AcDbLine
 10
10479.56020340367
 20
3626.576865853848
 30
0.0
 11
10479.56020340367
 21
3617.255669154366
 31
0.0
  0
ARC
  5
14AAF
330
747D
100
AcDbEntity
  8
細線
 48
50.0
100
AcDbCircle
 10
10482.56020340367
 20
3626.576865853848
 30
0.0
 40
3.0
100
AcDbArc
 50
139.9321604971931
 51
180.0000000000013
  0
ARC
  5
14AB0
330
747D
100
AcDbEntity
  8
細線
 48
50.0
100
AcDbCircle
 10
10482.56020340367
 20
3674.975821829477
 30
0.0
 40
3.0
100
AcDbArc
 50
180.0
 51
319.9321604971935
  0
LINE
  5
14AB1
330
747D
100
AcDbEntity
  8
細線
 48
50.0
100
AcDbLine
 10
10479.56020340367
 20
3684.297018528962
 30
0.0
 11
10479.56020340367
 21
3674.975821829477
 31
0.0
  0
ARC
  5
14AB2
330
747D
100
AcDbEntity
  8
細線
 48
50.0
100
AcDbCircle
 10
10482.56020340367
 20
3684.297018528962
 30
0.0
 40
3.0
100
AcDbArc
 50
139.9321604971936
 51
180.0000000000015
  0
ARC
  5
14AB3
330
747D
100
AcDbEntity
  8
部品1
 48
50.0
100
AcDbCircle
 10
10055.18263716264
 20
3940.344916067999
 30
0.0
 40
10.0
100
AcDbArc
 50
87.70938995736148
 51
220.067839502807
  0
LINE
  5
14AB4
330
747D
100
AcDbEntity
  8
部品1
 48
50.0
100
AcDbLine
 10
9682.645740756536
 20
3907.708407112094
 30
0.0
 11
10083.03787325586
 21
3891.69272181212
 31
0.0
  0
LINE
  5
14AB5
330
747D
100
AcDbEntity
  8
部品1
 48
50.0
100
AcDbLine
 10
9644.07658374988
 20
3969.299154207703
 30
0.0
 11
9641.598565372248
 21
3907.348694766954
 31
0.0
  0
LINE
  5
14AB6
330
747D
100
AcDbEntity
  8
部品1
 48
50.0
100
AcDbLine
 10
9685.043823057469
 20
3967.660464635403
 30
0.0
 11
9682.565804679839
 21
3905.710005194651
 31
0.0
  0
LINE
  5
14AB7
330
747D
100
AcDbEntity
  8
部品1
 48
50.0
100
AcDbLine
 10
9599.029436407091
 20
3964.80974643306
 30
0.0
 11
9609.943689647121
 21
3916.048296064384
 31
0.0
  0
LINE
  5
14AB8
330
747D
100
AcDbEntity
  8
部品1
 48
50.0
100
AcDbLine
 10
9641.598565372248
 20
3907.348694766954
 30
0.0
 11
9682.565804679839
 21
3905.710005194649
 31
0.0
  0
ARC
  5
14AB9
330
747D
100
AcDbEntity
  8
部品1
 48
50.0
100
AcDbCircle
 10
9619.702227251456
 20
3918.232545094321
 30
0.0
 40
10.0
100
AcDbArc
 50
192.6165368012922
 51
267.7093899573706
  0
LINE
  5
14ABA
330
747D
100
AcDbEntity
  8
部品1
 48
50.0
100
AcDbLine
 10
9619.302546867967
 20
3908.240535507103
 30
0.0
 11
9641.598565372248
 21
3907.348694766934
 31
0.0
  0
ARC
  5
14ABB
330
747D
100
AcDbEntity
  8
部品1
 48
50.0
100
AcDbCircle
 10
9603.908705209263
 20
3965.90187094803
 30
0.0
 40
5.0
100
AcDbArc
 50
87.70938995736711
 51
192.6165368012917
  0
LINE
  5
14ABC
330
747D
100
AcDbEntity
  8
部品1
 48
50.0
100
AcDbLine
 10
10213.5984519177
 20
3886.470298665647
 30
0.0
 11
10391.67850144894
 21
3879.347096684396
 31
0.0
  0
LINE
  5
14ABD
330
747D
100
AcDbEntity
  8
部品1
 48
50.0
100
AcDbLine
 10
10083.03787325586
 20
3891.69272181212
 30
0.0
 11
10047.52980885042
 21
3933.907974338905
 31
0.0
  0
LINE
  5
14ABE
330
747D
100
AcDbEntity
  8
部品1
 48
50.0
100
AcDbLine
 10
10213.5984519177
 20
3886.470298665647
 30
0.0
 11
10169.19384364397
 21
3939.262580729354
 31
0.0
  0
LINE
  5
14ABF
330
747D
100
AcDbEntity
  8
部品1
 48
50.0
100
AcDbLine
 10
10082.93795315999
 20
3889.194719415316
 30
0.0
 11
10213.49853182183
 21
3883.972296268843
 31
0.0
  0
CIRCLE
  5
14AC0
330
747D
100
AcDbEntity
  8
細線
 48
50.0
100
AcDbCircle
 10
10162.06020340367
 20
3918.555819013884
 30
0.0
 40
9.0
  0
LWPOLYLINE
  5
14AC1
330
747D
100
AcDbEntity
  8
細線
 48
50.0
100
AcDbPolyline
 90
        6
 70
     1
 43
0.0
 10
10155.56020340367
 20
3914.803042264151
 10
10162.06020340367
 20
3911.05026551442
 10
10168.56020340367
 20
3914.803042264151
 10
10168.56020340367
 20
3922.308595763616
 10
10162.06020340367
 20
3926.061372513348
 10
10155.56020340367
 20
3922.308595763616
  0
LINE
  5
14AC2
330
747D
100
AcDbEntity
  8
部品1
 48
50.0
100
AcDbLine
 10
10082.93795315999
 20
3889.194719415316
 30
0.0
 11
10083.03787325586
 21
3891.69272181212
 31
0.0
  0
LINE
  5
14AC3
330
747D
100
AcDbEntity
  8
細線
 48
50.0
100
AcDbLine
 10
10139.19691980197
 20
3866.928367144523
 30
0.0
 11
10147.31012536801
 21
3866.603838921881
 31
0.0
  0
ARC
  5
14AC4
330
747D
100
AcDbEntity
  8
細線
 48
50.0
100
AcDbCircle
 10
10139.07701568693
 20
3863.930764268356
 30
0.0
 40
3.0
100
AcDbArc
 50
87.70938995736102
 51
220.0678395028068
  0
ARC
  5
14AC5
330
747D
100
AcDbEntity
  8
細線
 48
50.0
100
AcDbCircle
 10
10147.19022125297
 20
3863.606236045715
 30
0.0
 40
3.0
100
AcDbArc
 50
40.06783950280684
 51
87.70938995735884
  0
LWPOLYLINE
  5
14AC6
330
747D
100
AcDbEntity
  8
細線
 48
50.0
100
AcDbPolyline
 90
        6
 70
     1
 43
0.0
 10
10095.56020340367
 20
3917.203042264151
 10
10102.06020340367
 20
3913.450265514419
 10
10108.56020340367
 20
3917.203042264151
 10
10108.56020340367
 20
3924.708595763615
 10
10102.06020340367
 20
3928.461372513348
 10
10095.56020340367
 20
3924.708595763615
  0
CIRCLE
  5
14AC7
330
747D
100
AcDbEntity
  8
細線
 48
50.0
100
AcDbCircle
 10
10102.06020340367
 20
3920.955819013882
 30
0.0
 40
9.0
  0
LINE
  5
14AC8
330
747D
100
AcDbEntity
  8
部品1
 48
50.0
100
AcDbLine
 10
10213.49853182183
 20
3883.972296268843
 30
0.0
 11
10213.5984519177
 21
3886.470298665647
 31
0.0
  0
LINE
  5
14AC9
330
747D
100
AcDbEntity
  8
細線
 48
50.0
100
AcDbLine
 10
10189.43676336006
 20
3864.918773402198
 30
0.0
 11
10197.5499689261
 21
3864.594245179556
 31
0.0
  0
ARC
  5
14ACA
330
747D
100
AcDbEntity
  8
細線
 48
50.0
100
AcDbCircle
 10
10189.31685924501
 20
3861.921170526031
 30
0.0
 40
3.0
100
AcDbArc
 50
87.70938995736125
 51
220.0678395028065
  0
ARC
  5
14ACB
330
747D
100
AcDbEntity
  8
細線
 48
50.0
100
AcDbCircle
 10
10197.43006481105
 20
3861.596642303392
 30
0.0
 40
3.0
100
AcDbArc
 50
40.06783950280669
 51
87.70938995736109
  0
ARC
  5
14ACC
330
747D
100
AcDbEntity
  8
部品1
 48
50.0
100
AcDbCircle
 10
10153.88818701955
 20
3926.388697271166
 30
0.0
 40
20.0
100
AcDbArc
 50
40.06783950280725
 51
87.70938995736152
  0
LINE
  5
14ACD
330
747D
100
AcDbEntity
  8
部品1
 48
50.0
100
AcDbLine
 10
10055.58231754613
 20
3950.336925655216
 30
0.0
 11
10154.68754778653
 21
3946.372716445602
 31
0.0
  0
LINE
  5
14ACE
330
747D
100
AcDbEntity
  8
部品1
 48
50.0
100
AcDbLine
 10
10435.04382305747
 20
3937.660464635403
 30
0.0
 11
10432.56580467984
 21
3875.710005194651
 31
0.0
  0
LINE
  5
14ACF
330
747D
100
AcDbEntity
  8
部品1
 48
50.0
100
AcDbLine
 10
10394.07658374988
 20
3939.299154207704
 30
0.0
 11
10391.59856537225
 21
3877.348694766953
 31
0.0
  0
LINE
  5
14AD0
330
747D
100
AcDbEntity
  8
部品1
 48
50.0
100
AcDbLine
 10
10391.59856537225
 20
3877.348694766952
 30
0.0
 11
10432.56580467984
 21
3875.71000519465
 31
0.0
  0
DIMENSION
  5
14AD1
330
747D
100
AcDbEntity
  8
寸法
 48
50.0
100
AcDbDimension
  2
*D15
 10
11790.19765587827
 20
4002.650581124185
 30
0.0
 11
11790.19765587827
 21
2991.672581441367
 31
0.0
 12
299.4566540923197
 22
0.0
 32
0.0
 70
   160
  1
2121.5
 71
     5
 42
-1.0
  3
INABA_S30G
100
AcDbAlignedDimension
 13
11699.10094653314
 23
1880.562576328022
 33
0.0
 14
11414.56020340367
 24
4002.650581124186
 34
0.0
 50
90.0
100
AcDbRotatedDimension
  0
LINE
  5
14AD2
330
747D
100
AcDbEntity
  8
細線
 48
50.0
100
AcDbLine
 10
10707.71708483764
 20
1830.562576328022
 30
0.0
 11
10754.71553155611
 21
1877.561023046497
 31
0.0
  0
LINE
  5
14AD3
330
747D
100
AcDbEntity
  8
細線
 48
50.0
100
AcDbLine
 10
10653.83552483763
 20
1830.562576328022
 30
0.0
 11
10701.36745234819
 21
1878.094503838577
 31
0.0
  0
LINE
  5
14AD4
330
747D
100
AcDbEntity
  8
細線
 48
50.0
100
AcDbLine
 10
10680.77630483763
 20
1830.562576328022
 30
0.0
 11
10728.04149195215
 21
1877.827763442537
 31
0.0
  0
LINE
  5
14AD5
330
747D
100
AcDbEntity
  8
部品1
 48
50.0
100
AcDbLine
 10
10556.17313368176
 20
1954.233261805801
 30
0.0
 11
10541.37644861612
 21
1898.96068170437
 31
0.0
  0
LINE
  5
14AD6
330
747D
100
AcDbEntity
  8
部品1
 48
50.0
100
AcDbLine
 10
11414.56020340367
 20
1860.962576328022
 30
0.0
 11
11414.56020340367
 21
1830.562576328022
 31
0.0
  0
LINE
  5
14AD7
330
747D
100
AcDbEntity
  8
細線
 48
50.0
100
AcDbLine
 10
11300.41396555461
 20
1830.562576328022
 30
0.0
 11
11341.54412632539
 21
1871.692737098804
 31
0.0
  0
LINE
  5
14AD8
330
747D
100
AcDbEntity
  8
細線
 48
50.0
100
AcDbLine
 10
11327.35474555461
 20
1830.562576328022
 30
0.0
 11
11368.21816592936
 21
1871.425996702765
 31
0.0
  0
LINE
  5
14AD9
330
747D
100
AcDbEntity
  8
細線
 48
50.0
100
AcDbLine
 10
11354.29552555461
 20
1830.562576328022
 30
0.0
 11
11394.89220553332
 21
1871.159256306725
 31
0.0
  0
LINE
  5
14ADA
330
747D
100
AcDbEntity
  8
部品1
 48
50.0
100
AcDbLine
 10
11404.56070336617
 20
1871.062571328397
 30
0.0
 11
11414.56020340367
 21
1860.962576328022
 31
0.0
  0
LINE
  5
14ADB
330
747D
100
AcDbEntity
  8
部品1
 48
50.0
100
AcDbLine
 10
11300.08141200321
 20
3795.67886475302
 30
0.0
 11
11194.34138423128
 21
3757.192642073555
 31
0.0
  0
LINE
  5
14ADC
330
747D
100
AcDbEntity
  8
部品1
 48
50.0
100
AcDbLine
 10
11148.52794049284
 20
3824.587956249132
 30
0.0
 11
11176.06056203055
 21
3748.942700275864
 31
0.0
  0
LINE
  5
14ADD
330
747D
100
AcDbEntity
  8
部品1
 48
50.0
100
AcDbLine
 10
11171.07380000319
 20
3821.119804345508
 30
0.0
 11
11194.85441444627
 21
3755.783103142377
 31
0.0
  0
LINE
  5
14ADE
330
747D
100
AcDbEntity
  8
細線
 48
50.0
100
AcDbLine
 10
10558.05251892332
 20
3525.602434706441
 30
0.0
 11
10537.53131032378
 21
3581.983991953595
 31
0.0
  0
LINE
  5
14ADF
330
747D
100
AcDbEntity
  8
部品1
 48
50.0
100
AcDbLine
 10
11194.85441444627
 20
3755.783103142377
 30
0.0
 11
11176.06056203055
 21
3748.942700275864
 31
0.0
  0
LINE
  5
14AE0
330
747D
100
AcDbEntity
  8
部品1
 48
50.0
100
AcDbLine
 10
10724.69399922609
 20
3866.026476773313
 30
0.0
 11
11141.67850144895
 21
3849.347096684397
 31
0.0
  0
CIRCLE
  5
14AE1
330
747D
100
AcDbEntity
  8
細線
 48
50.0
100
AcDbCircle
 10
10667.06020340367
 20
3898.355819013883
 30
0.0
 40
9.0
  0
LINE
  5
14AE2
330
747D
100
AcDbEntity
  8
部品1
 48
50.0
100
AcDbLine
 10
10659.25535166746
 20
3926.190004290365
 30
0.0
 11
10751.1355594862
 21
3922.514795977615
 31
0.0
  0
LINE
  5
14AE3
330
747D
100
AcDbEntity
  8
部品1
 48
50.0
100
AcDbLine
 10
10602.53290202317
 20
3868.410921460789
 30
0.0
 11
10724.59407913021
 21
3863.528474376506
 31
0.0
  0
ARC
  5
14AE4
330
747D
100
AcDbEntity
  8
部品1
 48
50.0
100
AcDbCircle
 10
10658.45599090048
 20
3906.205985115928
 30
0.0
 40
20.0
100
AcDbArc
 50
87.70938995736152
 51
139.9321604971932
  0
LINE
  5
14AE5
330
747D
100
AcDbEntity
  8
部品1
 48
50.0
100
AcDbLine
 10
10602.53290202317
 20
3868.410921460789
 30
0.0
 11
10602.63282211905
 21
3870.908923857594
 31
0.0
  0
LINE
  5
14AE6
330
747D
100
AcDbEntity
  8
部品1
 48
50.0
100
AcDbLine
 10
10602.63282211905
 20
3870.908923857598
 30
0.0
 11
10643.15033427605
 21
3919.079868574118
 31
0.0
  0
LINE
  5
14AE7
330
747D
100
AcDbEntity
  8
細線
 48
50.0
100
AcDbLine
 10
10617.67522728359
 20
3847.789234845255
 30
0.0
 11
10625.26026889149
 21
3847.485833180941
 31
0.0
  0
ARC
  5
14AE8
330
747D
100
AcDbEntity
  8
細線
 48
50.0
100
AcDbCircle
 10
10617.55532316854
 20
3844.791631969091
 30
0.0
 40
3.0
100
AcDbArc
 50
87.7093899573609
 51
139.9321604971936
  0
ARC
  5
14AE9
330
747D
100
AcDbEntity
  8
細線
 48
50.0
100
AcDbCircle
 10
10625.14036477645
 20
3844.488230304774
 30
0.0
 40
3.0
100
AcDbArc
 50
319.9321604971932
 51
87.70938995736116
  0
ARC
  5
14AEA
330
747D
100
AcDbEntity
  8
部品1
 48
50.0
100
AcDbCircle
 10
10750.73587910272
 20
3912.522786390397
 30
0.0
 40
10.0
100
AcDbArc
 50
319.932160497193
 51
87.70938995736143
  0
LINE
  5
14AEB
330
747D
100
AcDbEntity
  8
部品1
 48
50.0
100
AcDbLine
 10
10724.59407913022
 20
3863.528474376508
 30
0.0
 11
10724.69399922609
 21
3866.026476773312
 31
0.0
  0
LINE
  5
14AEC
330
747D
100
AcDbEntity
  8
部品1
 48
50.0
100
AcDbLine
 10
10724.6939992261
 20
3866.026476773313
 30
0.0
 11
10758.38870741493
 21
3906.085844661304
 31
0.0
  0
LWPOLYLINE
  5
14AED
330
747D
100
AcDbEntity
  8
細線
 48
50.0
100
AcDbPolyline
 90
        6
 70
     1
 43
0.0
 10
10720.56020340367
 20
3892.203042264152
 10
10727.06020340367
 20
3888.45026551442
 10
10733.56020340367
 20
3892.203042264152
 10
10733.56020340367
 20
3899.708595763616
 10
10727.06020340367
 20
3903.461372513349
 10
10720.56020340367
 20
3899.708595763616
  0
CIRCLE
  5
14AEE
330
747D
100
AcDbEntity
  8
細線
 48
50.0
100
AcDbCircle
 10
10727.06020340367
 20
3895.955819013884
 30
0.0
 40
9.0
  0
LINE
  5
14AEF
330
747D
100
AcDbEntity
  8
細線
 48
50.0
100
AcDbLine
 10
10664.64449247241
 20
3845.910464237704
 30
0.0
 11
10672.22953408031
 21
3845.607062573387
 31
0.0
  0
ARC
  5
14AF0
330
747D
100
AcDbEntity
  8
細線
 48
50.0
100
AcDbCircle
 10
10664.52458835736
 20
3842.91286136154
 30
0.0
 40
3.0
100
AcDbArc
 50
87.70938995736093
 51
139.9321604971935
  0
ARC
  5
14AF1
330
747D
100
AcDbEntity
  8
細線
 48
50.0
100
AcDbCircle
 10
10672.10962996526
 20
3842.609459697222
 30
0.0
 40
3.0
100
AcDbArc
 50
319.932160497193
 51
87.7093899573591
  0
LWPOLYLINE
  5
14AF2
330
747D
100
AcDbEntity
  8
細線
 48
50.0
100
AcDbPolyline
 90
        6
 70
     1
 43
0.0
 10
10660.56020340367
 20
3894.603042264153
 10
10667.06020340367
 20
3890.850265514421
 10
10673.56020340367
 20
3894.603042264153
 10
10673.56020340367
 20
3902.108595763617
 10
10667.06020340367
 20
3905.861372513349
 10
10660.56020340367
 20
3902.108595763617
  0
LINE
  5
14AF3
330
747D
100
AcDbEntity
  8
部品1
 48
50.0
100
AcDbLine
 10
11141.59856537225
 20
3847.348694766956
 30
0.0
 11
11182.56580467984
 21
3845.710005194651
 31
0.0
  0
ARC
  5
14AF4
330
747D
100
AcDbEntity
  8
部品1
 48
50.0
100
AcDbCircle
 10
11161.04301602897
 20
3820.550125054037
 30
0.0
 40
10.0
100
AcDbArc
 50
177.7093899573658
 51
357.7093899573658
  0
LINE
  5
14AF5
330
747D
100
AcDbEntity
  8
部品1
 48
50.0
100
AcDbLine
 10
11144.07658374988
 20
3909.299154207707
 30
0.0
 11
11141.59856537225
 21
3847.348694766953
 31
0.0
  0
LINE
  5
14AF6
330
747D
100
AcDbEntity
  8
部品1
 48
50.0
100
AcDbLine
 10
11152.09017543883
 20
3846.929030364292
 30
0.0
 11
11151.01103840341
 21
3819.950604478803
 31
0.0
  0
LINE
  5
14AF7
330
747D
100
AcDbEntity
  8
部品1
 48
50.0
100
AcDbLine
 10
11151.36554596404
 20
3828.813293494668
 30
0.0
 11
11150.32095792522
 21
3828.433094541466
 31
0.0
  0
ARC
  5
14AF8
330
747D
100
AcDbEntity
  8
部品1
 48
50.0
100
AcDbCircle
 10
11151.34701835519
 20
3825.614016679109
 30
0.0
 40
3.0
100
AcDbArc
 50
110.0000000000029
 51
200.0000000000011
  0
LINE
  5
14AF9
330
747D
100
AcDbEntity
  8
部品1
 48
50.0
100
AcDbLine
 10
11185.04382305747
 20
3907.660464635403
 30
0.0
 11
11182.56580467984
 21
3845.710005194651
 31
0.0
  0
ARC
  5
14AFA
330
747D
100
AcDbEntity
  8
部品1
 48
50.0
100
AcDbCircle
 10
11224.8120212146
 20
3901.06573830784
 30
0.0
 40
5.0
100
AcDbArc
 50
342.8022431134356
 51
87.70938995736022
  0
LINE
  5
14AFB
330
747D
100
AcDbEntity
  8
部品1
 48
50.0
100
AcDbLine
 10
11229.58847090598
 20
3899.58738505313
 30
0.0
 11
11214.81440295037
 21
3851.853467532277
 31
0.0
  0
LINE
  5
14AFC
330
747D
100
AcDbEntity
  8
部品1
 48
50.0
100
AcDbLine
 10
11204.86182318412
 20
3844.818164454478
 30
0.0
 11
11182.56580467984
 21
3845.710005194651
 31
0.0
  0
ARC
  5
14AFD
330
747D
100
AcDbEntity
  8
部品1
 48
50.0
100
AcDbCircle
 10
11205.26150356761
 20
3854.810174041697
 30
0.0
 40
10.0
100
AcDbArc
 50
267.7093899573567
 51
342.8022431134351
  0
LINE
  5
14AFE
330
747D
100
AcDbEntity
  8
部品1
 48
50.0
100
AcDbLine
 10
11172.07419461326
 20
3846.129669597314
 30
0.0
 11
11170.99505757784
 21
3819.151243711827
 31
0.0
  0
LINE
  5
14AFF
330
747D
100
AcDbEntity
  8
部品1
 48
50.0
100
AcDbLine
 10
11161.00304799063
 20
3819.550924095315
 30
0.0
 11
11161.00304799063
 21
3819.550924095315
 31
0.0
  0
CIRCLE
  5
14B00
330
747D
100
AcDbEntity
  8
細線
 48
50.0
100
AcDbCircle
 10
11161.00304799063
 20
3819.550924095315
 30
0.0
 40
6.5
  0
LWPOLYLINE
  5
14B01
330
747D
100
AcDbEntity
  8
細線
 48
50.0
100
AcDbPolyline
 90
        6
 70
     1
 43
0.0
 10
11166.00304799063
 20
3822.437675441264
 10
11161.00304799063
 20
3825.324426787213
 10
11156.00304799063
 20
3822.437675441264
 10
11156.00304799063
 20
3816.664172749368
 10
11161.00304799063
 20
3813.77742140342
 10
11166.00304799063
 20
3816.664172749368
  0
LINE
  5
14B02
330
747D
100
AcDbEntity
  8
部品1
 48
50.0
100
AcDbLine
 10
11413.75547812123
 20
3982.8035020354
 30
0.0
 11
11390.18186680941
 21
3913.765245690329
 31
0.0
  0
LINE
  5
14B03
330
747D
100
AcDbEntity
  8
部品1
 48
50.0
100
AcDbLine
 10
11352.19807796026
 20
4004.557061345758
 30
0.0
 11
11348.06138599115
 21
3901.139762118055
 31
0.0
  0
LINE
  5
14B04
330
747D
100
AcDbEntity
  8
細線
 48
50.0
100
AcDbLine
 10
11380.15355926231
 20
3958.552410122882
 30
0.0
 11
11371.05116483852
 21
3931.894914532928
 31
0.0
  0
ARC
  5
14B05
330
747D
100
AcDbEntity
  8
部品1
 48
50.0
100
AcDbCircle
 10
11371.25483385266
 20
3920.228017808709
 30
0.0
 40
20.0
100
AcDbArc
 50
267.7093899573605
 51
341.1471589320572
  0
ARC
  5
14B06
330
747D
100
AcDbEntity
  8
細線
 48
50.0
100
AcDbCircle
 10
11361.58764836014
 20
3935.126300592118
 30
0.0
 40
10.0
100
AcDbArc
 50
267.7093899573615
 51
341.1471589320593
  0
LINE
  5
14B07
330
747D
100
AcDbEntity
  8
部品1
 48
50.0
100
AcDbLine
 10
11279.56020340367
 20
3903.879809421553
 30
0.0
 11
11279.56020340367
 21
3852.060422000177
 31
0.0
  0
LINE
  5
14B08
330
747D
100
AcDbEntity
  8
部品1
 48
50.0
100
AcDbLine
 10
11339.56020340367
 20
3901.479809421552
 30
0.0
 11
11339.56020340367
 21
3852.060422000174
 31
0.0
  0
ARC
  5
14B09
330
747D
100
AcDbEntity
  8
部品1
 48
50.0
100
AcDbCircle
 10
11279.56020340367
 20
3852.060422000174
 30
0.0
 40
60.0
100
AcDbArc
 50
290.0
 51
359.9999999999994
  0
LINE
  5
14B0A
330
747D
100
AcDbEntity
  8
細線
 48
50.0
100
AcDbLine
 10
11279.56020340367
 20
3852.060422000177
 30
0.0
 11
11300.08141200321
 21
3795.67886475302
 31
0.0
  0
LINE
  5
14B0B
330
747D
100
AcDbEntity
  8
細線
 48
50.0
100
AcDbLine
 10
11279.56020340367
 20
3877.060422000172
 30
0.0
 11
11339.56020340367
 21
3877.06042200017
 31
0.0
  0
LINE
  5
14B0C
330
747D
100
AcDbEntity
  8
細線
 48
50.0
100
AcDbLine
 10
11367.81838184581
 20
3956.53921043843
 30
0.0
 11
11361.75011889661
 21
3938.767546711792
 31
0.0
  0
ARC
  5
14B0D
330
747D
100
AcDbEntity
  8
細線
 48
50.0
100
AcDbCircle
 10
11370.69004278394
 20
3961.783796182072
 30
0.0
 40
10.0
100
AcDbArc
 50
341.1471589320582
 51
87.7093899573615
  0
ARC
  5
14B0E
330
747D
100
AcDbEntity
  8
細線
 48
50.0
100
AcDbCircle
 10
11364.9793269023
 20
3957.508626256188
 30
0.0
 40
3.0
100
AcDbArc
 50
341.1471589320588
 51
87.70938995736148
  0
ARC
  5
14B0F
330
747D
100
AcDbEntity
  8
細線
 48
50.0
100
AcDbCircle
 10
11358.9110639531
 20
3939.736962529547
 30
0.0
 40
3.0
100
AcDbArc
 50
267.7093899573614
 51
341.1471589320563
  0
ARC
  5
14B10
330
747D
100
AcDbEntity
  8
部品1
 48
50.0
100
AcDbCircle
 10
11399.56020340367
 20
3987.650581124186
 30
0.0
 40
15.0
100
AcDbArc
 50
341.1471589320592
 51
87.70938995736051
  0
TEXT
  5
14B11
330
747D
100
AcDbEntity
  8
部品1
 48
50.0
100
AcDbText
 10
9006.511264186608
 20
4538.278146323937
 30
0.0
 40
120.0
  1
⑤
  7
STYLE2
100
AcDbText
  0
TEXT
  5
14B12
330
747D
100
AcDbEntity
  8
仕様書枠
 62
     7
 48
50.0
100
AcDbText
 10
10216.78869410186
 20
995.9312831628349
 30
0.0
 40
112.0
  1
側 面 図
  7
STYLE2
100
AcDbText
  0
LWPOLYLINE
  5
14B13
330
747D
100
AcDbEntity
  8
部品1
100
AcDbPolyline
 90
        4
 70
     1
 43
0.0
 10
10185.37361734032
 20
1149.796007513017
 10
10832.40499262085
 20
1149.796007513017
 10
10832.40499262085
 20
957.2758516958765
 10
10185.37361734032
 20
957.2758516958765
  0
MTEXT
  5
14C8C
330
747D
100
AcDbEntity
  8
部品1
 48
50.0
100
AcDbMText
 10
2466.624214157571
 20
1453.667359908934
 30
0.0
 40
90.0
 41
0.0
 71
     5
 72
     1
  1
\A1;3250
  7
STYLE1
 73
     1
 44
1.0
1001
ACAD
1000
MTEXTBEGIN
1070
    73
1070
     1
1070
    44
1040
1.0
1070
    74
1070
     0
1000
MTEXTEND
  0
MTEXT
  5
14C8D
330
747D
100
AcDbEntity
  8
部品1
 48
50.0
100
AcDbMText
 10
3298.198885851797
 20
1453.667359908932
 30
0.0
 40
90.0
 41
0.0
 71
     5
 72
     1
  1
\A1;3250
  7
STYLE1
 73
     1
 44
1.0
1001
ACAD
1000
MTEXTBEGIN
1070
    73
1070
     1
1070
    44
1040
1.0
1070
    74
1070
     0
1000
MTEXTEND
  0
LINE
  5
14C8E
330
747D
100
AcDbEntity
  8
寸法
 48
50.0
100
AcDbLine
 10
3081.882688958923
 20
1378.658501641215
 30
0.0
 11
4491.882688958912
 21
1378.658501641213
 31
0.0
  0
LINE
  5
14C8F
330
747D
100
AcDbEntity
  8
寸法
 48
50.0
100
AcDbLine
 10
1241.88268895891
 20
1378.658501641215
 30
0.0
 11
2651.88268895892
 21
1378.658501641218
 31
0.0
  0
INSERT
  5
14C90
330
747D
100
AcDbEntity
  8
寸法
 48
50.0
100
AcDbBlockReference
  2
_DOTSMALL
 10
1241.88268895891
 20
1378.658501641215
 30
0.0
 41
75.0
 42
75.0
 43
75.0
 50
180.0
  0
LINE
  5
14C91
330
747D
100
AcDbEntity
  8
寸法
 48
50.0
100
AcDbLine
 10
1241.88268895891
 20
1695.562576328023
 30
0.0
 11
1241.88268895891
 21
1333.658501641215
 31
0.0
  0
LINE
  5
14C9E
330
747D
100
AcDbEntity
  8
Ｇ．Ｌ
 48
50.0
100
AcDbLine
 10
312.3027140530261
 20
1830.562576328022
 30
0.0
 11
12206.75797645729
 21
1830.562576328022
 31
0.0
  0
LINE
  5
14CB3
330
747D
100
AcDbEntity
  8
部品1
 48
50.0
100
AcDbLine
 10
1054.882688958914
 20
7817.947238448383
 30
0.0
 11
7928.882688958913
 21
7817.947238448386
 31
0.0
  0
LINE
  5
14CB4
330
747D
100
AcDbEntity
  8
部品1
 48
50.0
100
AcDbLine
 10
1076.882688958913
 20
7713.947238448383
 30
0.0
 11
4169.812901917069
 21
7713.947238448383
 31
0.0
  0
LINE
  5
14CB5
330
747D
100
AcDbEntity
  8
部品1
 48
50.0
100
AcDbLine
 10
1076.882688958913
 20
7693.94723844838
 30
0.0
 11
4175.171885765688
 21
7693.947238448385
 31
0.0
  0
LINE
  5
14CB6
330
747D
100
AcDbEntity
  8
部品1
 48
50.0
100
AcDbLine
 10
1076.882688958913
 20
7648.947238448385
 30
0.0
 11
4187.229599425092
 21
7648.947238448387
 31
0.0
  0
LINE
  5
14CB7
330
747D
100
AcDbEntity
  8
部品1
 48
50.0
100
AcDbLine
 10
1076.882688958913
 20
6963.947238448381
 30
0.0
 11
4352.906958997478
 21
6963.947238448383
 31
0.0
  0
LINE
  5
14CB8
330
747D
100
AcDbEntity
  8
部品1
 48
50.0
100
AcDbLine
 10
1076.882688958913
 20
6943.947238448379
 30
0.0
 11
4318.2659428461
 21
6943.947238448385
 31
0.0
  0
LINE
  5
14CB9
330
747D
100
AcDbEntity
  8
部品1
 48
50.0
100
AcDbLine
 10
1076.882688958913
 20
6898.947238448383
 30
0.0
 11
4396.591903753421
 21
6898.947238448385
 31
0.0
  0
LINE
  5
14CBA
330
747D
100
AcDbEntity
  8
部品1
 48
50.0
100
AcDbLine
 10
1076.882688958913
 20
6213.947238448382
 30
0.0
 11
4571.736690563748
 21
6213.947238448384
 31
0.0
  0
LINE
  5
14CBB
330
747D
100
AcDbEntity
  8
部品1
 48
50.0
100
AcDbLine
 10
1076.882688958914
 20
6193.947238448387
 30
0.0
 11
4577.095674412372
 21
6193.947238448384
 31
0.0
  0
LINE
  5
14CBC
330
747D
100
AcDbEntity
  8
部品1
 48
50.0
100
AcDbLine
 10
1076.882688958913
 20
6148.947238448383
 30
0.0
 11
4589.153388071775
 21
6148.947238448385
 31
0.0
  0
LINE
  5
14CBD
330
747D
100
AcDbEntity
  8
部品1
 48
50.0
100
AcDbLine
 10
1054.882688958914
 20
6014.94723844839
 30
0.0
 11
7928.882688958913
 21
6014.947238448385
 31
0.0
  0
LINE
  5
14CBE
330
747D
100
AcDbEntity
  8
部品1
 48
50.0
100
AcDbLine
 10
1006.882688958913
 20
5921.447238448383
 30
0.0
 11
7976.882688958913
 21
5921.447238448382
 31
0.0
  0
LINE
  5
14CF0
330
747D
100
AcDbEntity
  8
補助
  6
PHANTOM
 62
   230
 48
50.0
100
AcDbLine
 10
9380.400000000003
 20
6767.200000000001
 30
0.0
 11
11930.4
 21
6767.200000000002
 31
0.0
  0
DIMENSION
  5
14D02
330
747D
100
AcDbEntity
  8
寸法
 48
50.0
100
AcDbDimension
  2
*D16
 10
7991.882688958914
 20
8256.946101440735
 30
0.0
 11
4491.894884496847
 21
8331.954959708452
 31
0.0
 70
    32
  1
N X 3250 + 500
 71
     5
 42
6999.975608924131
  3
INABA_S30G
100
AcDbAlignedDimension
 13
991.9070800347816
 23
7907.302304148465
 33
0.0
 14
7991.882688958914
 24
7906.447238448385
 34
0.0
100
AcDbRotatedDimension
  0
TEXT
  5
14DFE
330
747D
100
AcDbEntity
  8
文字
 62
     7
 48
50.0
100
AcDbText
 10
9907.054008162901
 20
171.4076431926769
 30
0.0
 40
75.0
  1
○間口奥行寸法は柱芯寸法です。    N : 連続数
  7
STYLE2
100
AcDbText
  0
TEXT
  5
14DFF
330
747D
100
AcDbEntity
  8
仕様書枠
 62
     7
 48
50.0
100
AcDbText
 10
11158.94957995053
 20
628.6895453046891
 30
0.0
 40
75.0
  1
～一般型～
  7
STYLE2
100
AcDbText
  0
TEXT
  5
14E00
330
747D
100
AcDbEntity
  8
仕様書枠
 62
     7
 48
50.0
100
AcDbText
 10
10984.92759423544
 20
362.9225347433557
 30
0.0
 40
120.0
  1
BY-３３L
  7
STYLE3
100
AcDbText
  0
TEXT
  5
14E01
330
747D
100
AcDbEntity
  8
文字
 62
     7
 48
50.0
100
AcDbText
 10
10893.0988779165
 20
773.6682797184214
 30
0.0
 40
75.0
  1
NO.08     <縮尺> S=1/30
  7
STYLE2
100
AcDbText
  0
TEXT
  5
14E02
330
747D
100
AcDbEntity
  8
仕様書枠
 62
     7
 48
50.0
100
AcDbText
 10
9901.077524988314
 20
357.9555495773438
 30
0.0
 40
120.0
  1
機種名
  7
STYLE2
100
AcDbText
  0
LINE
  5
14E03
330
747D
100
AcDbEntity
  8
仕様書枠
 48
50.0
100
AcDbLine
 10
9830.400000000002
 20
600.0
 30
0.0
 11
10688.4
 21
600.0
 31
0.0
  0
TEXT
  5
14E04
330
747D
100
AcDbEntity
  8
仕様書枠
 62
     7
 48
50.0
100
AcDbText
 10
9872.234292432679
 20
671.3179555724555
 30
0.0
 40
150.0
  1
外 形 図
  7
STYLE2
100
AcDbText
  0
LINE
  5
14E05
330
747D
100
AcDbEntity
  8
仕様書枠
  6
Continuous
 48
50.0
100
AcDbLine
 10
10688.4
 20
900.0
 30
0.0
 11
10688.4
 21
600.0
 31
0.0
  0
LINE
  5
14E06
330
747D
100
AcDbEntity
  8
仕様書枠
  6
Continuous
 48
50.0
100
AcDbLine
 10
10688.4
 20
900.0
 30
0.0
 11
10688.4
 21
600.0
 31
0.0
  0
LINE
  5
14E07
330
747D
100
AcDbEntity
  8
仕様書枠
 48
50.0
100
AcDbLine
 10
9830.400000000002
 20
900.0
 30
0.0
 11
12230.4
 21
900.0
 31
0.0
  0
LINE
  5
14E08
330
747D
100
AcDbEntity
  8
仕様書枠
 62
     7
 48
50.0
100
AcDbLine
 10
9890.400000000001
 20
300.0
 30
0.0
 11
12170.4
 21
300.0
 31
0.0
  0
LINE
  5
14E09
330
747D
100
AcDbEntity
  8
仕様書枠
  6
Continuous
 48
50.0
100
AcDbLine
 10
9830.400000000002
 20
900.0
 30
0.0
 11
9830.400000000002
 21
0.0
 31
0.0
  0
LINE
  5
14E0A
330
747D
100
AcDbEntity
  8
仕様書枠
 48
50.0
100
AcDbLine
 10
12230.4
 20
900.0
 30
0.0
 11
12230.4
 21
0.0
 31
0.0
  0
LINE
  5
14E0B
330
747D
100
AcDbEntity
  8
仕様書枠
 48
50.0
100
AcDbLine
 10
9830.400000000002
 20
900.0
 30
0.0
 11
12230.4
 21
900.0
 31
0.0
  0
LINE
  5
14E0C
330
747D
100
AcDbEntity
  8
仕様書枠
 48
50.0
100
AcDbLine
 10
9830.400000000002
 20
900.0
 30
0.0
 11
12230.4
 21
900.0
 31
0.0
  0
TEXT
  5
14E0D
330
747D
100
AcDbEntity
  8
文字
 62
     7
 48
50.0
100
AcDbText
 10
10872.5913960486
 20
7921.27587114006
 30
0.0
 40
81.11400000000001
  1
F12            2.3
  7
STYLE1
100
AcDbText
  0
TEXT
  5
14E0E
330
747D
100
AcDbEntity
  8
文字
 62
     7
 48
50.0
100
AcDbText
 10
10856.50649145821
 20
6956.019271140063
 30
0.0
 40
81.11400000000001
  1
Y10            0.7
  7
STYLE1
100
AcDbText
  0
TEXT
  5
14E0F
330
747D
100
AcDbEntity
  8
文字
 62
     7
 48
50.0
100
AcDbText
 10
10856.50649145821
 20
7369.70067114006
 30
0.0
 40
81.11400000000001
  1
Y10            0.7
  7
STYLE1
100
AcDbText
  0
TEXT
  5
14E10
330
747D
100
AcDbEntity
  8
文字
 62
     7
 48
50.0
100
AcDbText
 10
10856.50649145821
 20
7093.913071140065
 30
0.0
 40
81.11400000000001
  1
Y10            0.5
  7
STYLE1
100
AcDbText
  0
TEXT
  5
14E11
330
747D
100
AcDbEntity
  8
文字
 62
     7
 48
50.0
100
AcDbText
 10
10872.59139604859
 20
7645.488271140063
 30
0.0
 40
81.11400000000001
  1
PZ            2.3
  7
STYLE1
100
AcDbText
  0
TEXT
  5
14E12
330
747D
100
AcDbEntity
  8
文字
 62
     7
 48
50.0
100
AcDbText
 10
9732.660565549778
 20
7507.594471140063
 30
0.0
 40
81.11400000000001
  1
母屋
  7
STYLE1
100
AcDbText
  0
TEXT
  5
14E13
330
747D
100
AcDbEntity
  8
文字
 62
     7
 48
50.0
100
AcDbText
 10
10872.5913960486
 20
7507.594471140063
 30
0.0
 40
81.11400000000001
  1
F12            1.6
  7
STYLE1
100
AcDbText
  0
LINE
  5
14E14
330
747D
100
AcDbEntity
  8
部品1
100
AcDbLine
 10
9364.549674498597
 20
8172.393665303934
 30
0.0
 11
9364.549674498599
 21
6379.774265303936
 31
0.0
  0
TEXT
  5
14E15
330
747D
100
AcDbEntity
  8
文字
 62
     7
 48
50.0
100
AcDbText
 10
10872.5913960486
 20
6818.125471140061
 30
0.0
 40
81.11400000000001
  1
硬質塩化ビニール
  7
STYLE1
100
AcDbText
  0
TEXT
  5
14E16
330
747D
100
AcDbEntity
  8
文字
 62
     7
 48
50.0
100
AcDbText
 10
10872.5913960486
 20
7783.382071140062
 30
0.0
 40
81.11400000000001
  1
PZ            3.2
  7
STYLE1
100
AcDbText
  0
LINE
  5
14E17
330
747D
100
AcDbEntity
  8
部品1
100
AcDbLine
 10
11914.5496744986
 20
6655.561865303934
 30
0.0
 11
9364.549674498597
 21
6655.561865303936
 31
0.0
  0
LINE
  5
14E18
330
747D
100
AcDbEntity
  8
部品1
100
AcDbLine
 10
11914.5496744986
 20
7069.243265303936
 30
0.0
 11
9364.549674498595
 21
7069.243265303936
 31
0.0
  0
LINE
  5
14E19
330
747D
100
AcDbEntity
  8
部品1
100
AcDbLine
 10
11914.5496744986
 20
6379.774265303935
 30
0.0
 11
9364.549674498597
 21
6379.774265303935
 31
0.0
  0
LINE
  5
14E1A
330
747D
100
AcDbEntity
  8
部品1
100
AcDbLine
 10
11914.5496744986
 20
6517.668065303933
 30
0.0
 11
9364.549674498595
 21
6517.668065303933
 31
0.0
  0
TEXT
  5
14E1B
330
747D
100
AcDbEntity
  8
文字
 62
     7
 48
50.0
100
AcDbText
 10
9479.643394929178
 20
7231.806871140062
 30
0.0
 40
81.11400000000001
  1
6
  7
STYLE1
100
AcDbText
  0
TEXT
  5
14E1C
330
747D
100
AcDbEntity
  8
文字
 62
     7
 48
50.0
100
AcDbText
 10
9479.643394929174
 20
7093.913071140061
 30
0.0
 40
81.11400000000001
  1
7
  7
STYLE1
100
AcDbText
  0
TEXT
  5
14E1D
330
747D
100
AcDbEntity
  8
文字
 62
     7
 48
50.0
100
AcDbText
 10
9479.643394929174
 20
6956.019271140061
 30
0.0
 40
81.11400000000001
  1
8
  7
STYLE1
100
AcDbText
  0
TEXT
  5
14E1E
330
747D
100
AcDbEntity
  8
文字
 62
     7
 48
50.0
100
AcDbText
 10
9479.643394929178
 20
7369.700671140059
 30
0.0
 40
81.11400000000001
  1
5
  7
STYLE1
100
AcDbText
  0
TEXT
  5
14E1F
330
747D
100
AcDbEntity
  8
文字
 62
     7
 48
50.0
100
AcDbText
 10
9732.660565549776
 20
6956.019271140063
 30
0.0
 40
81.11400000000001
  1
鼻隠シ
  7
STYLE1
100
AcDbText
  0
TEXT
  5
14E20
330
747D
100
AcDbEntity
  8
文字
 62
     7
 48
50.0
100
AcDbText
 10
9732.660565549778
 20
7645.488271140063
 30
0.0
 40
81.11400000000001
  1
梁
  7
STYLE1
100
AcDbText
  0
TEXT
  5
14E21
330
747D
100
AcDbEntity
  8
文字
 62
     7
 48
50.0
100
AcDbText
 10
9732.660565549771
 20
7783.382071140062
 30
0.0
 40
81.11400000000001
  1
柱
  7
STYLE1
100
AcDbText
  0
TEXT
  5
14E22
330
747D
100
AcDbEntity
  8
文字
 62
     7
 48
50.0
100
AcDbText
 10
10740.50381030651
 20
8059.169671140059
 30
0.0
 40
81.11400000000001
  1
材料（材質）　　単位mm
  7
STYLE1
100
AcDbText
  0
TEXT
  5
14E23
330
747D
100
AcDbEntity
  8
文字
 62
     7
 48
50.0
100
AcDbText
 10
9872.785529996326
 20
8059.169671140059
 30
0.0
 40
81.11400000000001
  1
部　　品　　名
  7
STYLE1
100
AcDbText
  0
TEXT
  5
14E24
330
747D
100
AcDbEntity
  8
文字
 62
     7
 48
50.0
100
AcDbText
 10
9479.643394929178
 20
7645.48827114006
 30
0.0
 40
81.11400000000001
  1
3
  7
STYLE1
100
AcDbText
  0
TEXT
  5
14E25
330
747D
100
AcDbEntity
  8
文字
 62
     7
 48
50.0
100
AcDbText
 10
9479.643394929178
 20
7507.594471140061
 30
0.0
 40
81.11400000000001
  1
4
  7
STYLE1
100
AcDbText
  0
TEXT
  5
14E26
330
747D
100
AcDbEntity
  8
文字
 62
     7
 48
50.0
100
AcDbText
 10
9479.643394929178
 20
7783.382071140062
 30
0.0
 40
81.11400000000001
  1
2
  7
STYLE1
100
AcDbText
  0
TEXT
  5
14E27
330
747D
100
AcDbEntity
  8
文字
 62
     7
 48
50.0
100
AcDbText
 10
9479.643394929178
 20
7921.275871140061
 30
0.0
 40
81.11400000000001
  1
1
  7
STYLE1
100
AcDbText
  0
TEXT
  5
14E28
330
747D
100
AcDbEntity
  8
文字
 62
     7
 48
50.0
100
AcDbText
 10
9419.809541829655
 20
8059.169671140059
 30
0.0
 40
81.11400000000001
  1
品番
  7
STYLE1
100
AcDbText
  0
LINE
  5
14E29
330
747D
100
AcDbEntity
  8
部品1
100
AcDbLine
 10
11914.5496744986
 20
7620.818465303935
 30
0.0
 11
9364.549674498597
 21
7620.818465303935
 31
0.0
  0
LINE
  5
14E2A
330
747D
100
AcDbEntity
  8
部品1
100
AcDbLine
 10
11914.5496744986
 20
7345.030865303936
 30
0.0
 11
9364.549674498597
 21
7345.030865303936
 31
0.0
  0
LINE
  5
14E2B
330
747D
100
AcDbEntity
  8
部品1
100
AcDbLine
 10
11914.5496744986
 20
7482.924665303933
 30
0.0
 11
9364.549674498597
 21
7482.924665303933
 31
0.0
  0
LINE
  5
14E2C
330
747D
100
AcDbEntity
  8
部品1
100
AcDbLine
 10
11914.5496744986
 20
7896.606065303934
 30
0.0
 11
9364.549674498595
 21
7896.606065303934
 31
0.0
  0
LINE
  5
14E2D
330
747D
100
AcDbEntity
  8
部品1
100
AcDbLine
 10
11914.5496744986
 20
7758.712265303937
 30
0.0
 11
9364.549674498595
 21
7758.712265303936
 31
0.0
  0
LINE
  5
14E2E
330
747D
100
AcDbEntity
  8
部品1
100
AcDbLine
 10
11914.5496744986
 20
8034.499865303933
 30
0.0
 11
9364.549674498595
 21
8034.499865303935
 31
0.0
  0
LINE
  5
14E2F
330
747D
100
AcDbEntity
  8
部品1
100
AcDbLine
 10
9657.29090477877
 20
8172.393665303934
 30
0.0
 11
9657.290904778783
 21
6793.455665303937
 31
0.0
  0
LINE
  5
14E30
330
747D
100
AcDbEntity
  8
部品1
100
AcDbLine
 10
10679.9945944986
 20
8172.393665303934
 30
0.0
 11
10679.9945944986
 21
6793.455665303935
 31
0.0
  0
LINE
  5
14E31
330
747D
100
AcDbEntity
  8
部品1
100
AcDbLine
 10
11914.5496744986
 20
6379.774265303935
 30
0.0
 11
11914.5496744986
 21
8172.393665303934
 31
0.0
  0
LINE
  5
14E32
330
747D
100
AcDbEntity
  8
部品1
100
AcDbLine
 10
11914.5496744986
 20
8172.393665303934
 30
0.0
 11
9364.549674498595
 21
8172.393665303934
 31
0.0
  0
LINE
  5
14E33
330
747D
100
AcDbEntity
  8
部品1
100
AcDbLine
 10
11914.5496744986
 20
6793.455665303937
 30
0.0
 11
9364.549674498597
 21
6793.455665303937
 31
0.0
  0
TEXT
  5
14E34
330
747D
100
AcDbEntity
  8
文字
 62
     7
 48
50.0
100
AcDbText
 10
9732.660565549776
 20
7093.913071140065
 30
0.0
 40
81.11400000000001
  1
屋根パネル
  7
STYLE1
100
AcDbText
  0
TEXT
  5
14E35
330
747D
100
AcDbEntity
  8
文字
 62
     7
 48
50.0
100
AcDbText
 10
9732.660565549773
 20
7921.27587114006
 30
0.0
 40
81.11400000000001
  1
プレート
  7
STYLE1
100
AcDbText
  0
TEXT
  5
14E36
330
747D
100
AcDbEntity
  8
文字
 62
     7
 48
50.0
100
AcDbText
 10
9732.660565549776
 20
6818.125471140064
 30
0.0
 40
81.11400000000001
  1
雨とい(別売)
  7
STYLE1
100
AcDbText
  0
TEXT
  5
14E37
330
747D
100
AcDbEntity
  8
文字
 62
     7
 48
50.0
100
AcDbText
 10
9446.095045327728
 20
6542.337871140064
 30
0.0
 40
81.11400000000001
  1
F12→溶融亜鉛めっき鋼板(JIS G 3302)
  7
STYLE1
100
AcDbText
  0
TEXT
  5
14E38
330
747D
100
AcDbEntity
  8
文字
 62
     7
 48
50.0
100
AcDbText
 10
9446.095045327721
 20
6404.444071140062
 30
0.0
 40
81.11400000000001
  1
Y10→溶融亜鉛-5％アルミニウム合金めっき鋼板(JIS G 3317)
 41
0.9
  7
STYLE1
100
AcDbText
  0
TEXT
  5
14E39
330
747D
100
AcDbEntity
  8
文字
 62
     7
 48
50.0
100
AcDbText
 10
9446.095045327885
 20
6680.231671140063
 30
0.0
 40
81.11400000000001
  1
PZ→一般構造用角形鋼管(JIS G 3466)
 41
0.9
  7
STYLE1
100
AcDbText
  0
LINE
  5
14E3A
330
747D
100
AcDbEntity
  8
部品1
100
AcDbLine
 10
11914.5496744986
 20
6931.349465303935
 30
0.0
 11
9364.549674498595
 21
6931.349465303935
 31
0.0
  0
TEXT
  5
14E3B
330
747D
100
AcDbEntity
  8
文字
 62
     7
 48
50.0
100
AcDbText
 10
9732.660565549776
 20
7369.70067114006
 30
0.0
 40
81.11400000000001
  1
妻板
  7
STYLE1
100
AcDbText
  0
LINE
  5
14E3C
330
747D
100
AcDbEntity
  8
部品1
100
AcDbLine
 10
11914.5496744986
 20
7207.137065303935
 30
0.0
 11
9364.549674498595
 21
7207.137065303935
 31
0.0
  0
TEXT
  5
14E3D
330
747D
100
AcDbEntity
  8
文字
 62
     7
 48
50.0
100
AcDbText
 10
10856.50649145821
 20
7231.806871140064
 30
0.0
 40
81.11400000000001
  1
Y10            1.0
  7
STYLE1
100
AcDbText
  0
TEXT
  5
14E3E
330
747D
100
AcDbEntity
  8
文字
 62
     7
 48
50.0
100
AcDbText
 10
9732.660565549776
 20
7231.806871140064
 30
0.0
 40
81.11400000000001
  1
梁中屋根板
  7
STYLE1
100
AcDbText
  0
TEXT
  5
14E3F
330
747D
100
AcDbEntity
  8
文字
 62
     7
 48
50.0
100
AcDbText
 10
9479.643394929174
 20
6818.125471140063
 30
0.0
 40
81.11400000000001
  1
9
  7
STYLE1
100
AcDbText
  0
TEXT
  5
14E51
330
747D
100
AcDbEntity
  8
部品1
 48
50.0
100
AcDbText
 10
10969.26918715052
 20
2722.94658336242
 30
0.0
 40
80.0
  1
(別売)
  7
STYLE2
100
AcDbText
  0
LINE
  5
14E52
330
747D
100
AcDbEntity
  8
寸法
 48
50.0
100
AcDbLine
 10
10510.48883166744
 20
2869.446433548754
 30
0.0
 11
10784.54900443631
 21
2816.194779334889
 31
0.0
  0
TEXT
  5
14E53
330
747D
100
AcDbEntity
  8
部品1
 48
50.0
100
AcDbText
 10
10775.60833169293
 20
2739.15677552504
 30
0.0
 40
120.0
  1
⑨
  7
STYLE2
100
AcDbText
  0
LINE
  5
14E60
330
747D
100
AcDbEntity
  8
点線
 48
18.0
100
AcDbLine
 10
1076.882688958913
 20
7693.947238448385
 30
0.0
 11
1030.882688958913
 21
7693.947238448384
 31
0.0
  0
LINE
  5
14E61
330
747D
100
AcDbEntity
  8
点線
 48
18.0
100
AcDbLine
 10
1209.882688958913
 20
7713.947238448383
 30
0.0
 11
1209.882688958913
 21
7693.947238448385
 31
0.0
  0
LINE
  5
14E62
330
747D
100
AcDbEntity
  8
点線
 48
18.0
100
AcDbLine
 10
1273.882688958913
 20
7713.947238448383
 30
0.0
 11
1273.882688958913
 21
7693.947238448385
 31
0.0
  0
LINE
  5
14E63
330
747D
100
AcDbEntity
  8
点線
 48
18.0
100
AcDbLine
 10
1211.882688958914
 20
7648.947238448385
 30
0.0
 11
1211.882688958914
 21
7693.947238448385
 31
0.0
  0
LINE
  5
14E64
330
747D
100
AcDbEntity
  8
点線
 48
18.0
100
AcDbLine
 10
1271.882688958913
 20
7648.947238448385
 30
0.0
 11
1271.882688958913
 21
7693.947238448385
 31
0.0
  0
LINE
  5
14E65
330
747D
100
AcDbEntity
  8
点線
 48
18.0
100
AcDbLine
 10
1076.882688958913
 20
6943.94723844838
 30
0.0
 11
1030.882688958913
 21
6943.94723844838
 31
0.0
  0
LINE
  5
14E66
330
747D
100
AcDbEntity
  8
点線
 48
18.0
100
AcDbLine
 10
1211.882688958914
 20
6963.947238448381
 30
0.0
 11
1211.882688958914
 21
6898.947238448385
 31
0.0
  0
LINE
  5
14E68
330
747D
100
AcDbEntity
  8
点線
 48
18.0
100
AcDbLine
 10
1271.882688958913
 20
6963.947238448381
 30
0.0
 11
1271.882688958913
 21
6898.947238448385
 31
0.0
  0
LINE
  5
14E69
330
747D
100
AcDbEntity
  8
点線
 48
18.0
100
AcDbLine
 10
1076.882688958913
 20
6193.947238448384
 30
0.0
 11
1030.882688958913
 21
6193.947238448384
 31
0.0
  0
LINE
  5
14E6A
330
747D
100
AcDbEntity
  8
点線
 48
18.0
100
AcDbLine
 10
1211.882688958914
 20
6213.947238448384
 30
0.0
 11
1211.882688958914
 21
6148.947238448385
 31
0.0
  0
LINE
  5
14E6B
330
747D
100
AcDbEntity
  8
点線
 48
18.0
100
AcDbLine
 10
1271.882688958913
 20
6213.947238448384
 30
0.0
 11
1271.882688958913
 21
6148.947238448385
 31
0.0
  0
LINE
  5
14E6C
330
747D
100
AcDbEntity
  8
点線
 48
50.0
100
AcDbLine
 10
4175.171885765688
 20
7693.947238448385
 30
0.0
 11
7952.882688958914
 21
7693.947238448385
 31
0.0
  0
LINE
  5
14E6D
330
747D
100
AcDbEntity
  8
点線
 48
50.0
100
AcDbLine
 10
4318.265942846099
 20
6943.947238448385
 30
0.0
 11
7952.882688958915
 21
6943.947238448385
 31
0.0
  0
LINE
  5
14E6E
330
747D
100
AcDbEntity
  8
点線
 48
50.0
100
AcDbLine
 10
4577.095674412374
 20
6193.947238448384
 30
0.0
 11
7952.882688958915
 21
6193.947238448386
 31
0.0
  0
LINE
  5
14E6F
330
747D
100
AcDbEntity
  8
点線
 48
18.0
100
AcDbLine
 10
4461.882688958913
 20
6213.947238448382
 30
0.0
 11
4461.882688958913
 21
6148.947238448385
 31
0.0
  0
LINE
  5
14E70
330
747D
100
AcDbEntity
  8
点線
 48
18.0
100
AcDbLine
 10
4521.882688958913
 20
6213.947238448383
 30
0.0
 11
4521.882688958913
 21
6148.947238448385
 31
0.0
  0
LINE
  5
14E71
330
747D
100
AcDbEntity
  8
部品1
 48
50.0
100
AcDbLine
 10
4491.882688958913
 20
6148.947238448385
 30
0.0
 11
4491.882688958912
 21
6213.947238448382
 31
0.0
  0
LINE
  5
14E72
330
747D
100
AcDbEntity
  8
点線
 48
18.0
100
AcDbLine
 10
4491.882688958912
 20
7648.94723844838
 30
0.0
 11
4491.882688958913
 21
7713.94723844838
 31
0.0
  0
LINE
  5
14E73
330
747D
100
AcDbEntity
  8
点線
 48
18.0
100
AcDbLine
 10
4491.882688958913
 20
6898.947238448385
 30
0.0
 11
4491.882688958913
 21
6963.947238448381
 31
0.0
  0
SPLINE
  5
14EA4
330
747D
100
AcDbEntity
  8
部品1
 48
50.0
100
AcDbSpline
210
0.0
220
0.0
230
1.0
 70
     8
 71
     3
 72
    10
 73
     6
 74
     4
 42
0.0000000001
 43
0.0000000001
 44
0.0000000001
 40
0.0
 40
0.0
 40
0.0
 40
0.0
 40
147.8767566010009
 40
301.8091093202477
 40
466.5049223087734
 40
466.5049223087734
 40
466.5049223087734
 40
466.5049223087734
 10
2811.88067236252
 20
6994.207200363063
 30
0.0
 10
2888.762354857355
 20
6985.302766705224
 30
0.0
 10
3045.674047067482
 20
6967.129260245894
 30
0.0
 10
2722.86063712314
 20
6864.608675606551
 30
0.0
 10
2892.703256792513
 20
6845.973586894347
 30
0.0
 10
2980.493261999407
 20
6836.341290017037
 30
0.0
 11
2811.88067236252
 21
6994.207200363063
 31
0.0
 11
2954.71865067129
 21
6955.933879426734
 31
0.0
 11
2821.409322752116
 21
6878.96770306711
 31
0.0
 11
2980.493261999407
 21
6836.341290017037
 31
0.0
  0
LINE
  5
14EA5
330
747D
100
AcDbEntity
  8
部品1
 48
50.0
100
AcDbLine
 10
2582.434360246234
 20
8021.447238448384
 30
0.0
 11
3171.922583594702
 21
5821.447238448385
 31
0.0
  0
SPLINE
  5
14EAC
330
747D
100
AcDbEntity
  8
部品1
 48
50.0
100
AcDbSpline
210
0.0
220
0.0
230
1.0
 70
     8
 71
     3
 72
    10
 73
     6
 74
     4
 42
0.0000000001
 43
0.0000000001
 44
0.0000000001
 40
0.0
 40
0.0
 40
0.0
 40
0.0
 40
147.8767566010009
 40
301.8091093202477
 40
466.5049223087734
 40
466.5049223087734
 40
466.5049223087734
 40
466.5049223087734
 10
2811.88067236252
 20
2926.694166519134
 30
0.0
 10
2888.762354857354
 20
2917.789732861296
 30
0.0
 10
3045.674047067481
 20
2899.616226401965
 30
0.0
 10
2722.860637123139
 20
2797.095641762622
 30
0.0
 10
2892.703256792512
 20
2778.460553050419
 30
0.0
 10
2980.493261999406
 20
2768.828256173109
 30
0.0
 11
2811.88067236252
 21
2926.694166519134
 31
0.0
 11
2954.718650671289
 21
2888.420845582806
 31
0.0
 11
2821.409322752114
 21
2811.454669223183
 31
0.0
 11
2980.493261999406
 21
2768.828256173109
 31
0.0
  0
LINE
  5
14EAD
330
747D
100
AcDbEntity
  8
部品1
 48
50.0
100
AcDbLine
 10
2521.471530892917
 20
4181.45058112419
 30
0.0
 11
3178.184992517172
 21
1730.562576328024
 31
0.0
  0
LINE
  5
14EB7
330
747D
100
AcDbEntity
  8
部品1
 48
50.0
100
AcDbLine
 10
4491.882688958912
 20
3977.046555566362
 30
0.0
 11
4491.882688958912
 21
3970.897875741638
 31
0.0
  0
LINE
  5
14EB8
330
747D
100
AcDbEntity
  8
センター
 48
50.0
100
AcDbLine
 10
1241.88268895891
 20
2100.562576328024
 30
0.0
 11
1241.88268895891
 21
1710.562576328024
 31
0.0
  0
LINE
  5
14EBA
330
747D
100
AcDbEntity
  8
センター
 48
50.0
100
AcDbLine
 10
4491.882688958913
 20
2100.562576328022
 30
0.0
 11
4491.882688958912
 21
1710.562576328024
 31
0.0
  0
LINE
  5
14EBC
330
747D
100
AcDbEntity
  8
センター
 48
50.0
100
AcDbLine
 10
7741.882688958914
 20
2100.562576328022
 30
0.0
 11
7741.882688958914
 21
1710.562576328022
 31
0.0
  0
LINE
  5
14EC8
330
747D
100
AcDbEntity
  8
点線
 48
18.0
100
AcDbLine
 10
1030.882688958913
 20
7713.947238448383
 30
0.0
 11
1030.882688958913
 21
7648.947238448383
 31
0.0
  0
LINE
  5
14EC9
330
747D
100
AcDbEntity
  8
点線
 48
18.0
100
AcDbLine
 10
7952.882688958914
 20
7713.947238448387
 30
0.0
 11
7952.882688958914
 21
7648.947238448385
 31
0.0
  0
LINE
  5
14ECA
330
747D
100
AcDbEntity
  8
点線
 48
18.0
100
AcDbLine
 10
1030.882688958913
 20
6963.94723844838
 30
0.0
 11
1030.882688958913
 21
6898.947238448383
 31
0.0
  0
LINE
  5
14ECB
330
747D
100
AcDbEntity
  8
点線
 48
18.0
100
AcDbLine
 10
1030.882688958913
 20
6213.947238448384
 30
0.0
 11
1030.882688958913
 21
6148.947238448383
 31
0.0
  0
LINE
  5
14ECD
330
747D
100
AcDbEntity
  8
点線
 48
18.0
100
AcDbLine
 10
7952.882688958914
 20
6963.947238448385
 30
0.0
 11
7952.882688958914
 21
6898.947238448383
 31
0.0
  0
LINE
  5
14ECE
330
747D
100
AcDbEntity
  8
点線
 48
18.0
100
AcDbLine
 10
7952.882688958914
 20
6213.947238448385
 30
0.0
 11
7952.882688958914
 21
6148.947238448386
 31
0.0
  0
ENDSEC
  0
SECTION
  2
OBJECTS
  0
DICTIONARY
  5
7471
330
0
100
AcDbDictionary
281
     1
  3
ACAD_COLOR
350
14DAA
  3
ACAD_GROUP
350
7472
  3
ACAD_LAYOUT
350
14DAB
  3
ACAD_MATERIAL
350
14DA9
  3
ACAD_MLINESTYLE
350
7473
  3
ACAD_PLOTSETTINGS
350
14DAC
  3
ACAD_PLOTSTYLENAME
350
14DA7
  3
ACDBHEADERROUNDTRIPXREC
350
14EE6
  3
AcDbVariableDictionary
350
14EE2
  3
CONTENTDICTIONARY
350
E71C
  3
DRAWINGVARIABLESDICT
350
F3B9
  0
DICTIONARY
  5
14DB6
330
7467
100
AcDbDictionary
280
     1
281
     1
  3
ACAD_LAYERFILTERS
360
14E5F
  3
ACAD_LAYERSTATES
360
14DB7
  0
DICTIONARY
  5
14DAA
102
{ACAD_REACTORS
330
7471
102
}
330
7471
100
AcDbDictionary
281
     1
  0
DICTIONARY
  5
7472
102
{ACAD_REACTORS
330
7471
102
}
330
7471
100
AcDbDictionary
281
     1
  0
DICTIONARY
  5
14DAB
102
{ACAD_REACTORS
330
7471
102
}
330
7471
100
AcDbDictionary
281
     1
  3
Model
350
14DAD
  3
レイアウト1
350
14DAE
  0
DICTIONARY
  5
14DA9
102
{ACAD_REACTORS
330
7471
102
}
330
7471
100
AcDbDictionary
281
     1
  0
DICTIONARY
  5
7473
102
{ACAD_REACTORS
330
7471
102
}
330
7471
100
AcDbDictionary
281
     1
  3
STANDARD
350
7480
  0
DICTIONARY
  5
14DAC
102
{ACAD_REACTORS
330
7471
102
}
330
7471
100
AcDbDictionary
281
     1
  0
ACDBDICTIONARYWDFLT
  5
14DA7
102
{ACAD_REACTORS
330
7471
102
}
330
7471
100
AcDbDictionary
281
     1
  3
Normal
350
14DA8
100
AcDbDictionaryWithDefault
340
14DA8
  0
DICTIONARY
  5
14EE6
102
{ACAD_REACTORS
330
7471
102
}
330
7471
100
AcDbDictionary
281
     1
  3
COLORDICT
350
14EE8
  3
MATERIALDICT
350
14EE7
  0
DICTIONARY
  5
14EE2
102
{ACAD_REACTORS
330
7471
102
}
330
7471
100
AcDbDictionary
281
     1
  3
DIMASSOC
350
14EE3
  3
PROJECTNAME
350
14EE4
  0
DICTIONARY
  5
E71C
102
{ACAD_REACTORS
330
7471
102
}
330
7471
100
AcDbDictionary
281
     1
  0
DICTIONARY
  5
F3B9
102
{ACAD_REACTORS
330
7471
102
}
330
7471
100
AcDbDictionary
281
     1
1001
DRAWINGVARIABLESXDATA
1000
POLARMODE
1000
1
  0
DICTIONARY
  5
14E5F
102
{ACAD_REACTORS
330
14DB6
102
}
330
14DB6
100
AcDbDictionary
281
     1
  0
DICTIONARY
  5
14DB7
102
{ACAD_REACTORS
330
14DB6
102
}
330
14DB6
100
AcDbDictionary
281
     1
  0
LAYOUT
  5
14DAD
102
{ACAD_XDICTIONARY
360
14EE9
102
}
102
{ACAD_REACTORS
330
14DAB
102
}
330
14DAB
100
AcDbPlotSettings
  1

  2
Microsoft XPS Document Writer
  4

  6

 40
0.0
 41
0.0
 42
0.0
 43
0.0
 44
0.0
 45
0.0
 46
0.0
 47
0.0
 48
0.0
 49
0.0
140
0.0
141
0.0
142
1.0
143
1.0
 70
  1712
 72
     0
 73
     0
 74
     0
  7

 75
     0
147
1.0
148
0.0
149
0.0
100
AcDbLayout
  1
Model
 70
     1
 71
     0
 10
0.0
 20
0.0
 11
12.0
 21
9.0
 12
0.0
 22
0.0
 32
0.0
 14
0.0
 24
0.0
 34
0.0
 15
0.0
 25
0.0
 35
0.0
146
0.0
 13
0.0
 23
0.0
 33
0.0
 16
1.0
 26
0.0
 36
0.0
 17
0.0
 27
1.0
 37
0.0
 76
     0
330
747D
  0
LAYOUT
  5
14DAE
102
{ACAD_XDICTIONARY
360
14EEB
102
}
102
{ACAD_REACTORS
330
14DAB
102
}
330
14DAB
100
AcDbPlotSettings
  1

  2
Microsoft XPS Document Writer
  4

  6

 40
0.0
 41
0.0
 42
0.0
 43
0.0
 44
0.0
 45
0.0
 46
0.0
 47
0.0
 48
0.0
 49
0.0
140
0.0
141
0.0
142
1.0
143
1.0
 70
   688
 72
     0
 73
     0
 74
     5
  7

 75
    16
147
1.0
148
0.0
149
0.0
100
AcDbLayout
  1
レイアウト1
 70
     0
 71
     1
 10
0.0
 20
0.0
 11
420.0
 21
297.0
 12
0.0
 22
0.0
 32
0.0
 14
1.000000000000000E+20
 24
1.000000000000000E+20
 34
1.000000000000000E+20
 15
-1.000000000000000E+20
 25
-1.000000000000000E+20
 35
-1.000000000000000E+20
146
0.0
 13
0.0
 23
0.0
 33
0.0
 16
1.0
 26
0.0
 36
0.0
 17
0.0
 27
1.0
 37
0.0
 76
     0
330
747A
  0
MLINESTYLE
  5
7480
102
{ACAD_REACTORS
330
7473
102
}
330
7473
100
AcDbMlineStyle
  2
STANDARD
 70
     0
  3

 62
     0
 51
90.0
 52
90.0
 71
     2
 49
0.5
 62
   256
  6
BYLAYER
 49
-0.5
 62
   256
  6
BYLAYER
  0
ACDBPLACEHOLDER
  5
14DA8
102
{ACAD_REACTORS
330
14DA7
102
}
330
14DA7
  0
XRECORD
  5
14EE8
102
{ACAD_REACTORS
330
14EE6
102
}
330
14EE6
100
AcDbXrecord
280
     1
340
14DAA
  0
XRECORD
  5
14EE7
102
{ACAD_REACTORS
330
14EE6
102
}
330
14EE6
100
AcDbXrecord
280
     1
340
14DA9
  0
DICTIONARYVAR
  5
14EE3
102
{ACAD_REACTORS
330
14EE2
102
}
330
14EE2
100
DictionaryVariables
280
     0
  1
1
  0
DICTIONARYVAR
  5
14EE4
102
{ACAD_REACTORS
330
14EE2
102
}
330
14EE2
100
DictionaryVariables
280
     0
  1

  0
DICTIONARY
  5
14EE9
330
14DAD
100
AcDbDictionary
280
     1
281
     1
  3
ACAD_XREC_ROUNDTRIP
360
14EEA
  0
DICTIONARY
  5
14EEB
330
14DAE
100
AcDbDictionary
280
     1
281
     1
  3
ACAD_XREC_ROUNDTRIP
360
14EEC
  0
XRECORD
  5
14EEA
102
{ACAD_REACTORS
330
14EE9
102
}
330
14EE9
100
AcDbXrecord
280
     1
102
SHADEPLOT
 70
     0
102
SHADEPLOTRESLEVEL
 70
     2
102
SHADEPLOTCUSTOMDPI
 70
   300
  0
XRECORD
  5
14EEC
102
{ACAD_REACTORS
330
14EEB
102
}
330
14EEB
100
AcDbXrecord
280
     1
102
SHADEPLOT
 70
     0
102
SHADEPLOTRESLEVEL
 70
     2
102
SHADEPLOTCUSTOMDPI
 70
   300
  0
ENDSEC
  0
EOF
