  0
SECTION
  2
HEADER
  9
$ACADVER
  1
AC1015
  9
$ACADMAINTVER
 70
    20
  9
$DWGCODEPAGE
  3
ANSI_932
  9
$INSBASE
 10
0.0
 20
0.0
 30
0.0
  9
$EXTMIN
 10
104.9999999999996
 20
0.0
 30
0.0
  9
$EXTMAX
 10
12230.4
 20
8557.199999999999
 30
0.0
  9
$LIMMIN
 10
0.0
 20
0.0
  9
$LIMMAX
 10
12600.0
 20
8910.0
  9
$ORTHOMODE
 70
     0
  9
$REGENMODE
 70
     1
  9
$FILLMODE
 70
     1
  9
$QTEXTMODE
 70
     0
  9
$MIRRTEXT
 70
     1
  9
$LTSCALE
 40
3.0
  9
$ATTMODE
 70
     1
  9
$TEXTSIZE
 40
100.0
  9
$TRACEWID
 40
1.0
  9
$TEXTSTYLE
  7
STYLE3
  9
$CLAYER
  8
部品1
  9
$CELTYPE
  6
BYLAYER
  9
$CECOLOR
 62
   256
  9
$CELTSCALE
 40
50.0
  9
$DISPSILH
 70
     0
  9
$DIMSCALE
 40
30.0
  9
$DIMASZ
 40
2.5
  9
$DIMEXO
 40
0.5
  9
$DIMDLI
 40
7.0
  9
$DIMRND
 40
0.0
  9
$DIMDLE
 40
0.0
  9
$DIMEXE
 40
1.5
  9
$DIMTP
 40
0.0
  9
$DIMTM
 40
0.0
  9
$DIMTXT
 40
3.0
  9
$DIMCEN
 40
0.0
  9
$DIMTSZ
 40
0.0
  9
$DIMTOL
 70
     0
  9
$DIMLIM
 70
     0
  9
$DIMTIH
 70
     0
  9
$DIMTOH
 70
     0
  9
$DIMSE1
 70
     0
  9
$DIMSE2
 70
     0
  9
$DIMTAD
 70
     3
  9
$DIMZIN
 70
     8
  9
$DIMBLK
  1

  9
$DIMASO
 70
     1
  9
$DIMSHO
 70
     1
  9
$DIMPOST
  1

  9
$DIMAPOST
  1

  9
$DIMALT
 70
     0
  9
$DIMALTD
 70
     2
  9
$DIMALTF
 40
0.0394
  9
$DIMLFAC
 40
1.0
  9
$DIMTOFL
 70
     1
  9
$DIMTVP
 40
0.0
  9
$DIMTIX
 70
     1
  9
$DIMSOXD
 70
     1
  9
$DIMSAH
 70
     1
  9
$DIMBLK1
  1
DOTSMALL
  9
$DIMBLK2
  1
DOTSMALL
  9
$DIMSTYLE
  2
INABA_S30G
  9
$DIMCLRD
 70
     0
  9
$DIMCLRE
 70
     0
  9
$DIMCLRT
 70
     7
  9
$DIMTFAC
 40
1.0
  9
$DIMGAP
 40
1.0
  9
$DIMJUST
 70
     0
  9
$DIMSD1
 70
     0
  9
$DIMSD2
 70
     0
  9
$DIMTOLJ
 70
     1
  9
$DIMTZIN
 70
     0
  9
$DIMALTZ
 70
     0
  9
$DIMALTTZ
 70
     0
  9
$DIMUPT
 70
     0
  9
$DIMDEC
 70
     1
  9
$DIMTDEC
 70
     4
  9
$DIMALTU
 70
     2
  9
$DIMALTTD
 70
     2
  9
$DIMTXSTY
  7
STYLE1
  9
$DIMAUNIT
 70
     0
  9
$DIMADEC
 70
     0
  9
$DIMALTRND
 40
0.0
  9
$DIMAZIN
 70
     0
  9
$DIMDSEP
 70
    46
  9
$DIMATFIT
 70
     3
  9
$DIMFRAC
 70
     0
  9
$DIMLDRBLK
  1

  9
$DIMLUNIT
 70
     2
  9
$DIMLWD
 70
    -2
  9
$DIMLWE
 70
    -2
  9
$DIMTMOVE
 70
     0
  9
$LUNITS
 70
     2
  9
$LUPREC
 70
     1
  9
$SKETCHINC
 40
1.0
  9
$FILLETRAD
 40
10.0
  9
$AUNITS
 70
     0
  9
$AUPREC
 70
     0
  9
$MENU
  1
acad
  9
$ELEVATION
 40
0.0
  9
$PELEVATION
 40
0.0
  9
$THICKNESS
 40
0.0
  9
$LIMCHECK
 70
     0
  9
$CHAMFERA
 40
5.0
  9
$CHAMFERB
 40
5.0
  9
$CHAMFERC
 40
0.0
  9
$CHAMFERD
 40
0.0
  9
$SKPOLY
 70
     0
  9
$TDCREATE
 40
2451225.538602894
  9
$TDUCREATE
 40
2451225.163602894
  9
$TDUPDATE
 40
2455579.572030706
  9
$TDUUPDATE
 40
2455579.197030706
  9
$TDINDWG
 40
0.2765354282
  9
$TDUSRTIMER
 40
0.2765354282
  9
$USRTIMER
 70
     1
  9
$ANGBASE
 50
0.0
  9
$ANGDIR
 70
     0
  9
$PDMODE
 70
     3
  9
$PDSIZE
 40
2.0
  9
$PLINEWID
 40
0.0
  9
$SPLFRAME
 70
     0
  9
$SPLINETYPE
 70
     6
  9
$SPLINESEGS
 70
     8
  9
$HANDSEED
  5
14954
  9
$SURFTAB1
 70
     6
  9
$SURFTAB2
 70
     6
  9
$SURFTYPE
 70
     6
  9
$SURFU
 70
     6
  9
$SURFV
 70
     6
  9
$UCSBASE
  2

  9
$UCSNAME
  2

  9
$UCSORG
 10
0.0
 20
0.0
 30
0.0
  9
$UCSXDIR
 10
1.0
 20
0.0
 30
0.0
  9
$UCSYDIR
 10
0.0
 20
1.0
 30
0.0
  9
$UCSORTHOREF
  2

  9
$UCSORTHOVIEW
 70
     0
  9
$UCSORGTOP
 10
0.0
 20
0.0
 30
0.0
  9
$UCSORGBOTTOM
 10
0.0
 20
0.0
 30
0.0
  9
$UCSORGLEFT
 10
0.0
 20
0.0
 30
0.0
  9
$UCSORGRIGHT
 10
0.0
 20
0.0
 30
0.0
  9
$UCSORGFRONT
 10
0.0
 20
0.0
 30
0.0
  9
$UCSORGBACK
 10
0.0
 20
0.0
 30
0.0
  9
$PUCSBASE
  2

  9
$PUCSNAME
  2

  9
$PUCSORG
 10
0.0
 20
0.0
 30
0.0
  9
$PUCSXDIR
 10
1.0
 20
0.0
 30
0.0
  9
$PUCSYDIR
 10
0.0
 20
1.0
 30
0.0
  9
$PUCSORTHOREF
  2

  9
$PUCSORTHOVIEW
 70
     0
  9
$PUCSORGTOP
 10
0.0
 20
0.0
 30
0.0
  9
$PUCSORGBOTTOM
 10
0.0
 20
0.0
 30
0.0
  9
$PUCSORGLEFT
 10
0.0
 20
0.0
 30
0.0
  9
$PUCSORGRIGHT
 10
0.0
 20
0.0
 30
0.0
  9
$PUCSORGFRONT
 10
0.0
 20
0.0
 30
0.0
  9
$PUCSORGBACK
 10
0.0
 20
0.0
 30
0.0
  9
$USERI1
 70
     0
  9
$USERI2
 70
     0
  9
$USERI3
 70
     0
  9
$USERI4
 70
     0
  9
$USERI5
 70
     0
  9
$USERR1
 40
0.0
  9
$USERR2
 40
0.0
  9
$USERR3
 40
0.0
  9
$USERR4
 40
0.0
  9
$USERR5
 40
0.0
  9
$WORLDVIEW
 70
     1
  9
$SHADEDGE
 70
     3
  9
$SHADEDIF
 70
    70
  9
$TILEMODE
 70
     1
  9
$MAXACTVP
 70
    16
  9
$PINSBASE
 10
0.0
 20
0.0
 30
0.0
  9
$PLIMCHECK
 70
     0
  9
$PEXTMIN
 10
1.000000000000000E+20
 20
1.000000000000000E+20
 30
1.000000000000000E+20
  9
$PEXTMAX
 10
-1.000000000000000E+20
 20
-1.000000000000000E+20
 30
-1.000000000000000E+20
  9
$PLIMMIN
 10
0.0
 20
0.0
  9
$PLIMMAX
 10
420.0
 20
297.0
  9
$UNITMODE
 70
     0
  9
$VISRETAIN
 70
     0
  9
$PLINEGEN
 70
     0
  9
$PSLTSCALE
 70
     0
  9
$TREEDEPTH
 70
  3020
  9
$CMLSTYLE
  2
STANDARD
  9
$CMLJUST
 70
     0
  9
$CMLSCALE
 40
1.0
  9
$PROXYGRAPHICS
 70
     1
  9
$MEASUREMENT
 70
     1
  9
$CELWEIGHT
370
    -1
  9
$ENDCAPS
280
     0
  9
$JOINSTYLE
280
     0
  9
$LWDISPLAY
290
     0
  9
$INSUNITS
 70
     0
  9
$HYPERLINKBASE
  1

  9
$STYLESHEET
  1

  9
$XEDIT
290
     1
  9
$CEPSNTYPE
380
     0
  9
$PSTYLEMODE
290
     1
  9
$FINGERPRINTGUID
  2
{4B13871B-87FD-40AC-A5BB-580A9C96C136}
  9
$VERSIONGUID
  2
{E317746F-B344-41ED-B46F-B921E6F407F1}
  9
$EXTNAMES
290
     1
  9
$PSVPSCALE
 40
0.0
  9
$OLESTARTUP
290
     0
  0
ENDSEC
  0
SECTION
  2
CLASSES
  0
CLASS
  1
ACDBDICTIONARYWDFLT
  2
AcDbDictionaryWithDefault
  3
ObjectDBX Classes
 90
        0
280
     0
281
     0
  0
CLASS
  1
DICTIONARYVAR
  2
AcDbDictionaryVar
  3
ObjectDBX Classes
 90
        0
280
     0
281
     0
  0
CLASS
  1
ACDBPLACEHOLDER
  2
AcDbPlaceHolder
  3
ObjectDBX Classes
 90
        0
280
     0
281
     0
  0
CLASS
  1
LAYOUT
  2
AcDbLayout
  3
ObjectDBX Classes
 90
        0
280
     0
281
     0
  0
ENDSEC
  0
SECTION
  2
TABLES
  0
TABLE
  2
VPORT
  5
746D
330
0
100
AcDbSymbolTable
 70
     2
  0
VPORT
  5
1494C
330
746D
100
AcDbSymbolTableRecord
100
AcDbViewportTableRecord
  2
*Active
 70
     0
 10
0.0
 20
0.0
 11
1.0
 21
1.0
 12
7559.363582101116
 22
4278.58397774975
 13
0.0
 23
0.0
 14
10.0
 24
10.0
 15
10.0
 25
10.0
 16
0.0
 26
0.0
 36
1.0
 17
0.0
 27
0.0
 37
0.0
 40
9939.591522658806
 41
1.5075
 42
50.0
 43
0.0
 44
0.0
 50
0.0
 51
0.0
 71
     0
 72
     0
 73
     1
 74
     0
 75
     0
 76
     0
 77
     0
 78
     0
281
     0
 65
     1
110
0.0
120
0.0
130
0.0
111
1.0
121
0.0
131
0.0
112
0.0
122
1.0
132
0.0
 79
     0
146
0.0
  0
ENDTAB
  0
TABLE
  2
LTYPE
  5
746A
330
0
100
AcDbSymbolTable
 70
     4
  0
LTYPE
  5
7477
330
746A
100
AcDbSymbolTableRecord
100
AcDbLinetypeTableRecord
  2
BYBLOCK
 70
     0
  3

 72
    65
 73
     0
 40
0.0
  0
LTYPE
  5
7478
330
746A
100
AcDbSymbolTableRecord
100
AcDbLinetypeTableRecord
  2
BYLAYER
 70
     0
  3

 72
    65
 73
     0
 40
0.0
  0
LTYPE
  5
7479
330
746A
100
AcDbSymbolTableRecord
100
AcDbLinetypeTableRecord
  2
CONTINUOUS
 70
     0
  3
Solid line
 72
    65
 73
     0
 40
0.0
  0
LTYPE
  5
7816
330
746A
100
AcDbSymbolTableRecord
100
AcDbLinetypeTableRecord
  2
CENTER
 70
     0
  3
____ _ ____ _ ____ _ ____ _ ____ _ ____ _ ____ 
 72
    65
 73
     4
 40
2.0
 49
1.25
 74
     0
 49
-0.25
 74
     0
 49
0.25
 74
     0
 49
-0.25
 74
     0
  0
LTYPE
  5
781A
330
746A
100
AcDbSymbolTableRecord
100
AcDbLinetypeTableRecord
  2
HIDDEN
 70
     0
  3
__ __ __ __ __ __ __ __ __ __ __ __ __ __ __ __
 72
    65
 73
     2
 40
0.375
 49
0.25
 74
     0
 49
-0.125
 74
     0
  0
LTYPE
  5
781B
330
746A
100
AcDbSymbolTableRecord
100
AcDbLinetypeTableRecord
  2
PHANTOM
 70
     0
  3
______  __  __  ______  __  __  ______  __  __ 
 72
    65
 73
     6
 40
2.5
 49
1.25
 74
     0
 49
-0.25
 74
     0
 49
0.25
 74
     0
 49
-0.25
 74
     0
 49
0.25
 74
     0
 49
-0.25
 74
     0
  0
ENDTAB
  0
TABLE
  2
LAYER
  5
7467
102
{ACAD_XDICTIONARY
360
1480A
102
}
330
0
100
AcDbSymbolTable
 70
    11
  0
LAYER
  5
7474
330
7467
100
AcDbSymbolTableRecord
100
AcDbLayerTableRecord
  2
0
 70
     0
 62
     7
  6
CONTINUOUS
370
    -3
390
147FC
  0
LAYER
  5
DEB2
330
7467
100
AcDbSymbolTableRecord
100
AcDbLayerTableRecord
  2
センター
 70
     0
 62
     3
  6
CENTER
370
    -3
390
147FC
  0
LAYER
  5
DEB3
330
7467
100
AcDbSymbolTableRecord
100
AcDbLayerTableRecord
  2
寸法
 70
     0
 62
     4
  6
CONTINUOUS
370
    -3
390
147FC
  0
LAYER
  5
DEB4
330
7467
100
AcDbSymbolTableRecord
100
AcDbLayerTableRecord
  2
部品1
 70
     0
 62
     7
  6
CONTINUOUS
370
    -3
390
147FC
  0
LAYER
  5
DEB5
330
7467
100
AcDbSymbolTableRecord
100
AcDbLayerTableRecord
  2
補助
 70
     0
 62
    -1
  6
CONTINUOUS
370
    -3
390
147FC
  0
LAYER
  5
DEB6
330
7467
100
AcDbSymbolTableRecord
100
AcDbLayerTableRecord
  2
文字
 70
     0
 62
     7
  6
CONTINUOUS
370
    -3
390
147FC
  0
LAYER
  5
F255
330
7467
100
AcDbSymbolTableRecord
100
AcDbLayerTableRecord
  2
DEFPOINTS
 70
     0
 62
     7
  6
CONTINUOUS
290
     0
370
    -3
390
147FC
  0
LAYER
  5
10B54
330
7467
100
AcDbSymbolTableRecord
100
AcDbLayerTableRecord
  2
仕様書枠
 70
     0
 62
   230
  6
CONTINUOUS
370
    -3
390
147FC
  0
LAYER
  5
11729
330
7467
100
AcDbSymbolTableRecord
100
AcDbLayerTableRecord
  2
Ｇ．Ｌ
 70
     0
 62
    30
  6
CONTINUOUS
370
    -3
390
147FC
  0
LAYER
  5
1173F
330
7467
100
AcDbSymbolTableRecord
100
AcDbLayerTableRecord
  2
細線
 70
     0
 62
     5
  6
CONTINUOUS
370
    -3
390
147FC
  0
LAYER
  5
11740
330
7467
100
AcDbSymbolTableRecord
100
AcDbLayerTableRecord
  2
点線
 70
     0
 62
     2
  6
HIDDEN
370
    -3
390
147FC
  0
ENDTAB
  0
TABLE
  2
STYLE
  5
7468
330
0
100
AcDbSymbolTable
 70
     5
  0
STYLE
  5
7475
330
7468
100
AcDbSymbolTableRecord
100
AcDbTextStyleTableRecord
  2
STANDARD
 70
     0
 40
0.0
 41
1.0
 50
0.0
 71
     0
 42
4.0
  3
txt
  4
C:\AutoCAD LT\bigfont.shx
  0
STYLE
  5
763C
330
7468
100
AcDbSymbolTableRecord
100
AcDbTextStyleTableRecord
  2
MSMINCHO
 70
     0
 40
0.0
 41
1.0
 50
0.0
 71
     0
 42
1.199999999999999
  3
C:\AutoCAD LT\msminch2.TTF
  4

  0
STYLE
  5
F706
330
7468
100
AcDbSymbolTableRecord
100
AcDbTextStyleTableRecord
  2
STYLE1
 70
     0
 40
0.0
 41
1.0
 50
0.0
 71
     0
 42
4.0
  3
isocp.shx
  4
bigfont.shx
  0
STYLE
  5
103BF
330
7468
100
AcDbSymbolTableRecord
100
AcDbTextStyleTableRecord
  2
STYLE2
 70
     0
 40
0.0
 41
1.0
 50
0.0
 71
     0
 42
100.0
  3
MS PGothic.ttf
  4

1001
ACAD
1000
MS PGothic
1071
    32818
  0
STYLE
  5
10BAA
330
7468
100
AcDbSymbolTableRecord
100
AcDbTextStyleTableRecord
  2
STYLE3
 70
     0
 40
0.0
 41
1.0
 50
0.0
 71
     0
 42
100.0
  3
MS PGothic.ttf
  4

1001
ACAD
1000
MS PGothic
1071
    32818
  0
ENDTAB
  0
TABLE
  2
VIEW
  5
746B
330
0
100
AcDbSymbolTable
 70
     0
  0
ENDTAB
  0
TABLE
  2
UCS
  5
746C
330
0
100
AcDbSymbolTable
 70
     0
  0
ENDTAB
  0
TABLE
  2
APPID
  5
746E
330
0
100
AcDbSymbolTable
 70
     6
  0
APPID
  5
7476
330
746E
100
AcDbSymbolTableRecord
100
AcDbRegAppTableRecord
  2
ACAD
 70
     0
  0
APPID
  5
DEA9
330
746E
100
AcDbSymbolTableRecord
100
AcDbRegAppTableRecord
  2
CONTENTBLOCKICON
 70
     0
  0
APPID
  5
DEAA
330
746E
100
AcDbSymbolTableRecord
100
AcDbRegAppTableRecord
  2
CONTENTBLOCKDESCRIPTION
 70
     0
  0
APPID
  5
E71D
330
746E
100
AcDbSymbolTableRecord
100
AcDbRegAppTableRecord
  2
CONTENTTABDATA
 70
     0
  0
APPID
  5
E71E
330
746E
100
AcDbSymbolTableRecord
100
AcDbRegAppTableRecord
  2
CONTENTCURRENTTAB
 70
     0
  0
APPID
  5
F3BA
330
746E
100
AcDbSymbolTableRecord
100
AcDbRegAppTableRecord
  2
DRAWINGVARIABLESXDATA
 70
     0
  0
ENDTAB
  0
TABLE
  2
DIMSTYLE
  5
746F
330
0
100
AcDbSymbolTable
 70
     4
100
AcDbDimStyleTable
 71
     1
340
F71F
  0
DIMSTYLE
105
7484
330
746F
100
AcDbSymbolTableRecord
100
AcDbDimStyleTableRecord
  2
JIS
 70
     0
 41
2.5
 42
1.0
 43
7.0
 44
1.0
 73
     0
 74
     0
 77
     1
 78
     8
140
2.5
141
0.0
143
0.0394
147
0.0
172
     1
174
     1
175
     1
340
7475
  0
DIMSTYLE
105
F236
330
746F
100
AcDbSymbolTableRecord
100
AcDbDimStyleTableRecord
  2
INABA_S30
 70
     0
 40
30.0
 41
2.5
 42
0.5
 43
7.0
 44
1.5
 73
     0
 74
     0
 77
     3
 78
     8
140
3.0
141
0.0
143
0.0394
147
1.0
172
     1
173
     1
174
     1
175
     1
178
     7
289
     0
340
7475
341
DEAC
343
DEAC
344
DEAC
  0
DIMSTYLE
105
F71F
102
{ACAD_REACTORS
330
13378
330
1324C
330
12FB4
330
12F50
330
132B6
330
12F4F
330
132CC
330
13D64
330
13E7E
330
13E98
330
13EE7
330
13F13
330
14776
102
}
330
746F
100
AcDbSymbolTableRecord
100
AcDbDimStyleTableRecord
  2
INABA_S30G
 70
     0
 40
30.0
 41
2.5
 42
0.5
 43
7.0
 44
1.5
 73
     0
 74
     0
 77
     3
 78
     8
140
3.0
141
0.0
143
0.0394
147
1.0
172
     1
173
     1
174
     1
175
     1
178
     7
271
     1
340
F706
341
F770
343
F770
344
F770
  0
DIMSTYLE
105
118AC
330
746F
100
AcDbSymbolTableRecord
100
AcDbDimStyleTableRecord
  2
INABA_S80
 70
     0
 40
80.0
 41
0.5
 42
0.2
 43
6.0
 44
0.5
 73
     0
 74
     0
 77
     3
 78
     8
140
2.5
141
0.0
143
0.0394
147
0.8
172
     1
173
     1
174
     1
175
     1
178
     5
271
     2
272
     2
289
     2
340
7475
341
F744
343
F744
344
F744
  0
ENDTAB
  0
TABLE
  2
BLOCK_RECORD
  5
7466
330
0
100
AcDbSymbolTable
 70
    17
  0
BLOCK_RECORD
  5
747D
330
7466
100
AcDbSymbolTableRecord
100
AcDbBlockTableRecord
  2
*MODEL_SPACE
340
14801
  0
BLOCK_RECORD
  5
747A
330
7466
100
AcDbSymbolTableRecord
100
AcDbBlockTableRecord
  2
*PAPER_SPACE
340
14802
  0
BLOCK_RECORD
  5
DEAC
330
7466
100
AcDbSymbolTableRecord
100
AcDbBlockTableRecord
  2
_OPEN
340
0
  0
BLOCK_RECORD
  5
ECB3
330
7466
100
AcDbSymbolTableRecord
100
AcDbBlockTableRecord
  2
作図枠S50
340
0
310
2800000020000000200000000100040000000000000200000000000000000000000000000000000000000000000080000080000000808000800000008000800080800000C0C0C000808080000000FF0000FF000000FFFF00FF000000FF00FF00FFFF0000FFFFFF00FFFFFFFFFFFFFFFFFFFFFFFFFFFFFFFFFFFFFFFFFFFFFF
310
FFFFFFFFFFFFFFFFFFFFFFFFFFFFFFFFFFFFFFFFFFFFFFFFFFFFFFFFFFFFFFFFFFFFFFFFFFFFFFFFFFFFFFFFFFFFFFFFFFFFFFFFFFFFFFFFFFFFFFFFFFFFFFFFFFFFFFFFFFFFFFFFFF999999999999999999999999999999999FFFFFFFFFFFFFFFFFFFFFFFFFFFFFF99FFFFFFFFFFFFFFFFFFFFFFFFFFFFFF99FFFFFFFFFFF
310
FFFFFFFFFFFFFFFFFFF99FFFFFFFFFFFFFFFFFFFFFFFFFFFFFF99FFFFFFFFFFFFFFFFFFFFFFFFFFFFFF99FFFFFFFFFFFFFFFFFFFFFFFFFFFFFF99FFFFFFFFFFFFFFFFFFFFFFFFFFFFFF99FFFFFFFFFFFFFFFFFFFFFFFFFFFFFF99FFFFFFFFFFFFFFFFFFFFFFFFFFFFFF99FFFFFFFFFFFFFFFFFFFFFFFFFFFFFF99FFFFFFFFF
310
FFFFFFFFFFFFFFFFFFFFF99FFFFFFFFFFFFFFFFFFFFFFFFFFFFFF99FFFFFFFFFFFFFFFFFFFFFFFFFFFFFF99FFFFFFFFFFFFFFFFFFFFFFFFFFFFFF99FFFFFFFFFFFFFFFFFFFFFFFFFFFFFF99FFFFFFFFFFFFFFFFFFFFFFFFFFFFFF99FFFFFFFFFFFFFFFFFFFFFFFFFFFFFF99FFFFFFFFFFFFFFFFFFFFF99999999999FFFFFFF
310
FFFFFFFFFFFFFF9FFFFFFFFF99999999999999999999999FFFFFFFFFFFFFFFFFFFFFFFFFFFFFFFFFFFFFFFFFFFFFFFFFFFFFFFFFFFFFFFFFFFFFFFFFFFFFFFFFFFFFFFFFFFFFFFFFFFFFFFFFFFFFFFFFFFFFFFFFFFFFFFFFFFFFFFFFFFFFFFFFFFFFFFFFFFFFFFFFFFFFFFFF
102
{BLKREFS
331
F235
102
}
  0
BLOCK_RECORD
  5
F744
330
7466
100
AcDbSymbolTableRecord
100
AcDbBlockTableRecord
  2
_DOT
340
0
  0
BLOCK_RECORD
  5
F770
330
7466
100
AcDbSymbolTableRecord
100
AcDbBlockTableRecord
  2
_DOTSMALL
340
0
102
{BLKREFS
331
1468C
331
1473B
331
1473C
331
14746
331
14747
331
13E0F
331
13E10
331
146EE
331
146EF
331
146E0
331
146E1
331
13E9D
331
13E9E
331
13E47
331
13E48
331
13EBF
331
13EC0
331
14553
331
14554
331
147B8
331
147B9
331
14548
331
14549
331
148E8
331
148E9
331
148F1
331
148F2
102
}
  0
BLOCK_RECORD
  5
1344A
330
7466
100
AcDbSymbolTableRecord
100
AcDbBlockTableRecord
  2
*D4
340
0
  0
BLOCK_RECORD
  5
13456
330
7466
100
AcDbSymbolTableRecord
100
AcDbBlockTableRecord
  2
*D5
340
0
  0
BLOCK_RECORD
  5
1346D
330
7466
100
AcDbSymbolTableRecord
100
AcDbBlockTableRecord
  2
*D6
340
0
  0
BLOCK_RECORD
  5
134A6
330
7466
100
AcDbSymbolTableRecord
100
AcDbBlockTableRecord
  2
*D7
340
0
  0
BLOCK_RECORD
  5
134B1
330
7466
100
AcDbSymbolTableRecord
100
AcDbBlockTableRecord
  2
*D8
340
0
  0
BLOCK_RECORD
  5
134BC
330
7466
100
AcDbSymbolTableRecord
100
AcDbBlockTableRecord
  2
*D9
340
0
  0
BLOCK_RECORD
  5
134D8
330
7466
100
AcDbSymbolTableRecord
100
AcDbBlockTableRecord
  2
*D10
340
0
  0
BLOCK_RECORD
  5
13DBA
330
7466
100
AcDbSymbolTableRecord
100
AcDbBlockTableRecord
  2
*D11
340
0
  0
BLOCK_RECORD
  5
13E72
330
7466
100
AcDbSymbolTableRecord
100
AcDbBlockTableRecord
  2
*D12
340
0
  0
BLOCK_RECORD
  5
13E8C
330
7466
100
AcDbSymbolTableRecord
100
AcDbBlockTableRecord
  2
*D13
340
0
  0
BLOCK_RECORD
  5
13EDE
330
7466
100
AcDbSymbolTableRecord
100
AcDbBlockTableRecord
  2
*D14
340
0
  0
BLOCK_RECORD
  5
13F0A
330
7466
100
AcDbSymbolTableRecord
100
AcDbBlockTableRecord
  2
*D15
340
0
  0
BLOCK_RECORD
  5
14777
330
7466
100
AcDbSymbolTableRecord
100
AcDbBlockTableRecord
  2
*D16
340
0
  0
ENDTAB
  0
ENDSEC
  0
SECTION
  2
BLOCKS
  0
BLOCK
  5
7489
330
747D
100
AcDbEntity
  8
0
100
AcDbBlockBegin
  2
*MODEL_SPACE
 70
     0
 10
0.0
 20
0.0
 30
0.0
  3
*MODEL_SPACE
  1

  0
ENDBLK
  5
748A
330
747D
100
AcDbEntity
  8
0
100
AcDbBlockEnd
  0
BLOCK
  5
7487
330
747A
100
AcDbEntity
 67
     1
  8
0
100
AcDbBlockBegin
  2
*PAPER_SPACE
 70
     0
 10
0.0
 20
0.0
 30
0.0
  3
*PAPER_SPACE
  1

  0
ENDBLK
  5
7488
330
747A
100
AcDbEntity
 67
     1
  8
0
100
AcDbBlockEnd
  0
BLOCK
  5
DEAD
330
DEAC
100
AcDbEntity
  8
0
100
AcDbBlockBegin
  2
_OPEN
 70
     0
 10
0.0
 20
0.0
 30
0.0
  3
_OPEN
  1

  0
LINE
  5
DEAE
330
DEAC
100
AcDbEntity
  8
0
  6
ByBlock
 62
     0
100
AcDbLine
 10
-1.0
 20
0.1666666666666666
 30
0.0
 11
0.0
 21
0.0
 31
0.0
  0
LINE
  5
DEAF
330
DEAC
100
AcDbEntity
  8
0
  6
ByBlock
 62
     0
100
AcDbLine
 10
0.0
 20
0.0
 30
0.0
 11
-1.0
 21
-0.1666666666666666
 31
0.0
  0
LINE
  5
DEB0
330
DEAC
100
AcDbEntity
  8
0
  6
ByBlock
 62
     0
100
AcDbLine
 10
0.0
 20
0.0
 30
0.0
 11
-1.0
 21
0.0
 31
0.0
  0
ENDBLK
  5
DEB1
330
DEAC
100
AcDbEntity
  8
0
100
AcDbBlockEnd
  0
BLOCK
  5
ECB4
330
ECB3
100
AcDbEntity
  8
0
100
AcDbBlockBegin
  2
作図枠S50
 70
     0
 10
0.0
 20
0.0
 30
0.0
  3
作図枠S50
  1

  4
作図領域枠 縮尺 1/50
  0
LINE
  5
ECB5
330
ECB3
100
AcDbEntity
  8
補助
100
AcDbLine
 10
14364.0
 20
14262.0
 30
0.0
 11
174.9999999999993
 21
14262.0
 31
0.0
  0
LINE
  5
ECB6
330
ECB3
100
AcDbEntity
  8
補助
100
AcDbLine
 10
174.9999999999993
 20
14262.0
 30
0.0
 11
174.9999999999993
 21
1520.0
 31
0.0
  0
LINE
  5
ECB7
330
ECB3
100
AcDbEntity
  8
補助
100
AcDbLine
 10
174.9999999999993
 20
1520.0
 30
0.0
 11
20384.0
 21
1520.0
 31
0.0
  0
LINE
  5
ECB8
330
ECB3
100
AcDbEntity
  8
補助
100
AcDbLine
 10
20384.0
 20
1520.0
 30
0.0
 11
20384.0
 21
13042.0
 31
0.0
  0
LINE
  5
ECB9
330
ECB3
100
AcDbEntity
  8
補助
100
AcDbLine
 10
20384.0
 20
13042.0
 30
0.0
 11
14364.0
 21
13042.0
 31
0.0
  0
LINE
  5
ECBA
330
ECB3
100
AcDbEntity
  8
補助
100
AcDbLine
 10
14364.0
 20
13042.0
 30
0.0
 11
14364.0
 21
14262.0
 31
0.0
  0
ENDBLK
  5
ECBB
330
ECB3
100
AcDbEntity
  8
0
100
AcDbBlockEnd
  0
BLOCK
  5
F745
330
F744
100
AcDbEntity
  8
0
 48
50.0
100
AcDbBlockBegin
  2
_DOT
 70
     0
 10
0.0
 20
0.0
 30
0.0
  3
_DOT
  1

  0
LWPOLYLINE
  5
F746
330
F744
100
AcDbEntity
  8
0
  6
ByBlock
 62
     0
 48
50.0
100
AcDbPolyline
 90
        2
 70
     1
 43
0.5
 10
-0.25
 20
0.0
 42
1.0
 10
0.25
 20
0.0
 42
1.0
  0
LINE
  5
F74A
330
F744
100
AcDbEntity
  8
0
  6
ByBlock
 62
     0
 48
50.0
100
AcDbLine
 10
-0.5
 20
0.0
 30
0.0
 11
-1.0
 21
0.0
 31
0.0
  0
ENDBLK
  5
F74B
330
F744
100
AcDbEntity
  8
0
 48
50.0
100
AcDbBlockEnd
  0
BLOCK
  5
F771
330
F770
100
AcDbEntity
  8
0
 48
50.0
100
AcDbBlockBegin
  2
_DOTSMALL
 70
     0
 10
0.0
 20
0.0
 30
0.0
  3
_DOTSMALL
  1

  0
LWPOLYLINE
  5
F772
330
F770
100
AcDbEntity
  8
0
  6
ByBlock
 62
     0
 48
50.0
100
AcDbPolyline
 90
        2
 70
     1
 43
0.5
 10
-0.0625
 20
0.0
 42
1.0
 10
0.0625
 20
0.0
 42
1.0
  0
ENDBLK
  5
F776
330
F770
100
AcDbEntity
  8
0
 48
50.0
100
AcDbBlockEnd
  0
BLOCK
  5
14737
330
1344A
100
AcDbEntity
  8
0
 48
50.0
100
AcDbBlockBegin
  2
*D4
 70
     1
 10
0.0
 20
0.0
 30
0.0
  3
*D4
  1

  0
LINE
  5
14738
330
1344A
100
AcDbEntity
  8
0
  6
ByBlock
 62
     0
 48
50.0
100
AcDbLine
 10
902.4260348665903
 20
4081.450581124189
 30
0.0
 11
902.4260348665903
 21
4955.957606075111
 31
0.0
  0
LINE
  5
14739
330
1344A
100
AcDbEntity
  8
0
  6
ByBlock
 62
     0
 48
50.0
100
AcDbLine
 10
7062.426034866594
 20
4081.450581124181
 30
0.0
 11
7062.426034866594
 21
4955.957606075111
 31
0.0
  0
LINE
  5
1473A
330
1344A
100
AcDbEntity
  8
0
  6
ByBlock
 62
     0
 48
50.0
100
AcDbLine
 10
902.4260348665903
 20
4910.957606075111
 30
0.0
 11
7062.426034866594
 21
4910.957606075111
 31
0.0
  0
INSERT
  5
1473B
330
1344A
100
AcDbEntity
  8
0
  6
ByBlock
 62
     0
 48
50.0
100
AcDbBlockReference
  2
_DOTSMALL
 10
902.4260348665903
 20
4910.957606075111
 30
0.0
 41
75.0
 42
75.0
 43
75.0
 50
180.0
  0
INSERT
  5
1473C
330
1344A
100
AcDbEntity
  8
0
  6
ByBlock
 62
     0
 48
50.0
100
AcDbBlockReference
  2
_DOTSMALL
 10
7062.426034866594
 20
4910.957606075111
 30
0.0
 41
75.0
 42
75.0
 43
75.0
  0
MTEXT
  5
1473D
330
1344A
100
AcDbEntity
  8
0
  6
ByBlock
 62
     7
 48
50.0
100
AcDbMText
 10
3982.426034866593
 20
4985.966464342828
 30
0.0
 40
90.0
 41
0.0
 71
     5
 72
     1
  1
\A1;N X 2830 + 500
  7
STYLE1
 73
     1
 44
1.0
1001
ACAD
1000
MTEXTBEGIN
1070
    73
1070
     1
1070
    44
1040
1.0
1070
    74
1070
     0
1000
MTEXTEND
  0
POINT
  5
1473E
330
1344A
100
AcDbEntity
  8
DEFPOINTS
  6
ByBlock
 62
     0
 48
50.0
100
AcDbPoint
 10
902.4260348665903
 20
4066.450581124189
 30
0.0
  0
POINT
  5
1473F
330
1344A
100
AcDbEntity
  8
DEFPOINTS
  6
ByBlock
 62
     0
 48
50.0
100
AcDbPoint
 10
7062.426034866594
 20
4066.450581124181
 30
0.0
  0
POINT
  5
14740
330
1344A
100
AcDbEntity
  8
DEFPOINTS
  6
ByBlock
 62
     0
 48
50.0
100
AcDbPoint
 10
7062.426034866594
 20
4910.957606075111
 30
0.0
  0
ENDBLK
  5
14741
330
1344A
100
AcDbEntity
  8
0
 48
50.0
100
AcDbBlockEnd
  0
BLOCK
  5
14742
330
13456
100
AcDbEntity
  8
0
 48
50.0
100
AcDbBlockBegin
  2
*D5
 70
     1
 10
0.0
 20
0.0
 30
0.0
  3
*D5
  1

  0
LINE
  5
14743
330
13456
100
AcDbEntity
  8
0
  6
ByBlock
 62
     0
 48
50.0
100
AcDbLine
 10
1152.42603486659
 20
3985.897875741641
 30
0.0
 11
1152.42603486659
 21
4646.702425425579
 31
0.0
  0
LINE
  5
14744
330
13456
100
AcDbEntity
  8
0
  6
ByBlock
 62
     0
 48
50.0
100
AcDbLine
 10
6812.426034866594
 20
3985.897875741633
 30
0.0
 11
6812.426034866594
 21
4646.702425425579
 31
0.0
  0
LINE
  5
14745
330
13456
100
AcDbEntity
  8
0
  6
ByBlock
 62
     0
 48
50.0
100
AcDbLine
 10
1152.42603486659
 20
4601.702425425579
 30
0.0
 11
6812.426034866594
 21
4601.702425425579
 31
0.0
  0
INSERT
  5
14746
330
13456
100
AcDbEntity
  8
0
  6
ByBlock
 62
     0
 48
50.0
100
AcDbBlockReference
  2
_DOTSMALL
 10
1152.42603486659
 20
4601.702425425579
 30
0.0
 41
75.0
 42
75.0
 43
75.0
 50
180.0
  0
INSERT
  5
14747
330
13456
100
AcDbEntity
  8
0
  6
ByBlock
 62
     0
 48
50.0
100
AcDbBlockReference
  2
_DOTSMALL
 10
6812.426034866594
 20
4601.702425425579
 30
0.0
 41
75.0
 42
75.0
 43
75.0
  0
MTEXT
  5
14748
330
13456
100
AcDbEntity
  8
0
  6
ByBlock
 62
     7
 48
50.0
100
AcDbMText
 10
3982.426034866593
 20
4676.711283693296
 30
0.0
 40
90.0
 41
0.0
 71
     5
 72
     1
  1
\A1;N X 2830
  7
STYLE1
 73
     1
 44
1.0
1001
ACAD
1000
MTEXTBEGIN
1070
    73
1070
     1
1070
    44
1040
1.0
1070
    74
1070
     0
1000
MTEXTEND
  0
POINT
  5
14749
330
13456
100
AcDbEntity
  8
DEFPOINTS
  6
ByBlock
 62
     0
 48
50.0
100
AcDbPoint
 10
1152.42603486659
 20
3970.897875741641
 30
0.0
  0
POINT
  5
1474A
330
13456
100
AcDbEntity
  8
DEFPOINTS
  6
ByBlock
 62
     0
 48
50.0
100
AcDbPoint
 10
6812.426034866594
 20
3970.897875741633
 30
0.0
  0
POINT
  5
1474B
330
13456
100
AcDbEntity
  8
DEFPOINTS
  6
ByBlock
 62
     0
 48
50.0
100
AcDbPoint
 10
6812.426034866594
 20
4601.702425425579
 30
0.0
  0
ENDBLK
  5
1474C
330
13456
100
AcDbEntity
  8
0
 48
50.0
100
AcDbBlockEnd
  0
BLOCK
  5
13E0A
330
1346D
100
AcDbEntity
  8
0
 48
50.0
100
AcDbBlockBegin
  2
*D6
 70
     1
 10
0.0
 20
0.0
 30
0.0
  3
*D6
  1

  0
LINE
  5
13E0B
330
1346D
100
AcDbEntity
  8
0
  6
ByBlock
 62
     0
 48
50.0
100
AcDbLine
 10
2411.862185614296
 20
5342.367498923764
 30
0.0
 11
2411.862185614296
 21
5907.61934322516
 31
0.0
  0
LINE
  5
13E0C
330
1346D
100
AcDbEntity
  8
0
  6
ByBlock
 62
     0
 48
50.0
100
AcDbLine
 10
2661.862185614296
 20
5246.814793541216
 30
0.0
 11
2661.862185614296
 21
5907.61934322516
 31
0.0
  0
LINE
  5
13E0D
330
1346D
100
AcDbEntity
  8
0
  6
ByBlock
 62
     0
 48
50.0
100
AcDbLine
 10
2661.862185614296
 20
5862.61934322516
 30
0.0
 11
2411.862185614296
 21
5862.61934322516
 31
0.0
  0
LINE
  5
13E0E
330
1346D
100
AcDbEntity
  8
0
  6
ByBlock
 62
     0
 48
50.0
100
AcDbLine
 10
2411.862185614296
 20
5862.61934322516
 30
0.0
 11
2112.505886401698
 21
5862.61934322516
 31
0.0
  0
INSERT
  5
13E0F
330
1346D
100
AcDbEntity
  8
0
  6
ByBlock
 62
     0
 48
50.0
100
AcDbBlockReference
  2
_DOTSMALL
 10
2661.862185614296
 20
5862.61934322516
 30
0.0
 41
75.0
 42
75.0
 43
75.0
  0
INSERT
  5
13E10
330
1346D
100
AcDbEntity
  8
0
  6
ByBlock
 62
     0
 48
50.0
100
AcDbBlockReference
  2
_DOTSMALL
 10
2411.862185614296
 20
5862.61934322516
 30
0.0
 41
75.0
 42
75.0
 43
75.0
 50
180.0
  0
MTEXT
  5
13E11
330
1346D
100
AcDbEntity
  8
0
  6
ByBlock
 62
     7
 48
50.0
100
AcDbMText
 10
2224.684036007997
 20
5937.628201492877
 30
0.0
 40
90.0
 41
0.0
 71
     5
 72
     1
  1
\A1;250
  7
STYLE1
 73
     1
 44
1.0
1001
ACAD
1000
MTEXTBEGIN
1070
    73
1070
     1
1070
    44
1040
1.0
1070
    74
1070
     0
1000
MTEXTEND
  0
POINT
  5
13E12
330
1346D
100
AcDbEntity
  8
DEFPOINTS
  6
ByBlock
 62
     0
 48
50.0
100
AcDbPoint
 10
2411.862185614296
 20
5327.367498923764
 30
0.0
  0
POINT
  5
13E13
330
1346D
100
AcDbEntity
  8
DEFPOINTS
  6
ByBlock
 62
     0
 48
50.0
100
AcDbPoint
 10
2661.862185614296
 20
5231.814793541216
 30
0.0
  0
POINT
  5
13E14
330
1346D
100
AcDbEntity
  8
DEFPOINTS
  6
ByBlock
 62
     0
 48
50.0
100
AcDbPoint
 10
2661.862185614296
 20
5862.61934322516
 30
0.0
  0
ENDBLK
  5
13E15
330
1346D
100
AcDbEntity
  8
0
 48
50.0
100
AcDbBlockEnd
  0
BLOCK
  5
146EA
330
134A6
100
AcDbEntity
  8
0
 48
50.0
100
AcDbBlockBegin
  2
*D7
 70
     1
 10
0.0
 20
0.0
 30
0.0
  3
*D7
  1

  0
LINE
  5
146EB
330
134A6
100
AcDbEntity
  8
0
  6
ByBlock
 62
     0
 48
50.0
100
AcDbLine
 10
3982.426034866593
 20
1695.562576328023
 30
0.0
 11
3982.426034866593
 21
1333.658501641209
 31
0.0
  0
LINE
  5
146EC
330
134A6
100
AcDbEntity
  8
0
  6
ByBlock
 62
     0
 48
50.0
100
AcDbLine
 10
6812.426034866594
 20
1695.562576328018
 30
0.0
 11
6812.426034866594
 21
1333.658501641209
 31
0.0
  0
LINE
  5
146ED
330
134A6
100
AcDbEntity
  8
0
  6
ByBlock
 62
     0
 48
50.0
100
AcDbLine
 10
3982.426034866593
 20
1378.658501641209
 30
0.0
 11
6812.426034866594
 21
1378.658501641209
 31
0.0
  0
INSERT
  5
146EE
330
134A6
100
AcDbEntity
  8
0
  6
ByBlock
 62
     0
 48
50.0
100
AcDbBlockReference
  2
_DOTSMALL
 10
3982.426034866593
 20
1378.658501641209
 30
0.0
 41
75.0
 42
75.0
 43
75.0
 50
180.0
  0
INSERT
  5
146EF
330
134A6
100
AcDbEntity
  8
0
  6
ByBlock
 62
     0
 48
50.0
100
AcDbBlockReference
  2
_DOTSMALL
 10
6812.426034866594
 20
1378.658501641209
 30
0.0
 41
75.0
 42
75.0
 43
75.0
  0
MTEXT
  5
146F0
330
134A6
100
AcDbEntity
  8
0
  6
ByBlock
 62
     7
 48
50.0
100
AcDbMText
 10
5397.426034866594
 20
1453.667359908926
 30
0.0
 40
90.0
 41
0.0
 71
     5
 72
     1
  1
\A1;2830
  7
STYLE1
 73
     1
 44
1.0
1001
ACAD
1000
MTEXTBEGIN
1070
    73
1070
     1
1070
    44
1040
1.0
1070
    74
1070
     0
1000
MTEXTEND
  0
POINT
  5
146F1
330
134A6
100
AcDbEntity
  8
DEFPOINTS
  6
ByBlock
 62
     0
 48
50.0
100
AcDbPoint
 10
3982.426034866593
 20
1710.562576328023
 30
0.0
  0
POINT
  5
146F2
330
134A6
100
AcDbEntity
  8
DEFPOINTS
  6
ByBlock
 62
     0
 48
50.0
100
AcDbPoint
 10
6812.426034866594
 20
1710.562576328018
 30
0.0
  0
POINT
  5
146F3
330
134A6
100
AcDbEntity
  8
DEFPOINTS
  6
ByBlock
 62
     0
 48
50.0
100
AcDbPoint
 10
6812.426034866594
 20
1378.658501641209
 30
0.0
  0
ENDBLK
  5
146F4
330
134A6
100
AcDbEntity
  8
0
 48
50.0
100
AcDbBlockEnd
  0
BLOCK
  5
146DB
330
134B1
100
AcDbEntity
  8
0
 48
50.0
100
AcDbBlockBegin
  2
*D8
 70
     1
 10
0.0
 20
0.0
 30
0.0
  3
*D8
  1

  0
LINE
  5
146DC
330
134B1
100
AcDbEntity
  8
0
  6
ByBlock
 62
     0
 48
50.0
100
AcDbLine
 10
6392.426034866594
 20
3985.897875741633
 30
0.0
 11
6392.426034866594
 21
4646.702425425577
 31
0.0
  0
LINE
  5
146DD
330
134B1
100
AcDbEntity
  8
0
  6
ByBlock
 62
     0
 48
50.0
100
AcDbLine
 10
6642.426034866594
 20
4081.450581124181
 30
0.0
 11
6642.426034866594
 21
4646.702425425577
 31
0.0
  0
LINE
  5
146DE
330
134B1
100
AcDbEntity
  8
0
  6
ByBlock
 62
     0
 48
50.0
100
AcDbLine
 10
6392.426034866594
 20
4601.702425425577
 30
0.0
 11
6642.426034866594
 21
4601.702425425577
 31
0.0
  0
LINE
  5
146DF
330
134B1
100
AcDbEntity
  8
0
  6
ByBlock
 62
     0
 48
50.0
100
AcDbLine
 10
6642.426034866594
 20
4601.702425425577
 30
0.0
 11
6956.556233216062
 21
4601.702425425577
 31
0.0
  0
INSERT
  5
146E0
330
134B1
100
AcDbEntity
  8
0
  6
ByBlock
 62
     0
 48
50.0
100
AcDbBlockReference
  2
_DOTSMALL
 10
6392.426034866594
 20
4601.702425425577
 30
0.0
 41
75.0
 42
75.0
 43
75.0
 50
180.0
  0
INSERT
  5
146E1
330
134B1
100
AcDbEntity
  8
0
  6
ByBlock
 62
     0
 48
50.0
100
AcDbBlockReference
  2
_DOTSMALL
 10
6642.426034866594
 20
4601.702425425577
 30
0.0
 41
75.0
 42
75.0
 43
75.0
  0
MTEXT
  5
146E2
330
134B1
100
AcDbEntity
  8
0
  6
ByBlock
 62
     7
 48
50.0
100
AcDbMText
 10
6844.378083609763
 20
4676.711283693293
 30
0.0
 40
90.0
 41
0.0
 71
     5
 72
     1
  1
\A1;250
  7
STYLE1
 73
     1
 44
1.0
1001
ACAD
1000
MTEXTBEGIN
1070
    73
1070
     1
1070
    44
1040
1.0
1070
    74
1070
     0
1000
MTEXTEND
  0
POINT
  5
146E3
330
134B1
100
AcDbEntity
  8
DEFPOINTS
  6
ByBlock
 62
     0
 48
50.0
100
AcDbPoint
 10
6392.426034866594
 20
3970.897875741633
 30
0.0
  0
POINT
  5
146E4
330
134B1
100
AcDbEntity
  8
DEFPOINTS
  6
ByBlock
 62
     0
 48
50.0
100
AcDbPoint
 10
6642.426034866594
 20
4066.450581124181
 30
0.0
  0
POINT
  5
146E5
330
134B1
100
AcDbEntity
  8
DEFPOINTS
  6
ByBlock
 62
     0
 48
50.0
100
AcDbPoint
 10
6642.426034866594
 20
4601.702425425577
 30
0.0
  0
ENDBLK
  5
146E6
330
134B1
100
AcDbEntity
  8
0
 48
50.0
100
AcDbBlockEnd
  0
BLOCK
  5
13E99
330
134BC
100
AcDbEntity
  8
0
 48
50.0
100
AcDbBlockBegin
  2
*D9
 70
     1
 10
0.0
 20
0.0
 30
0.0
  3
*D9
  1

  0
LINE
  5
13E9A
330
134BC
100
AcDbEntity
  8
0
  6
ByBlock
 62
     0
 48
50.0
100
AcDbLine
 10
9115.715055505779
 20
4082.038116080246
 30
0.0
 11
8776.698635246754
 21
4095.598772890606
 31
0.0
  0
LINE
  5
13E9B
330
134BC
100
AcDbEntity
  8
0
  6
ByBlock
 62
     0
 48
50.0
100
AcDbLine
 10
9135.946881310283
 20
3977.646076141594
 30
0.0
 11
8772.561943277645
 21
3992.181473662899
 31
0.0
  0
LINE
  5
13E9C
330
134BC
100
AcDbEntity
  8
0
  6
ByBlock
 62
     0
 48
50.0
100
AcDbLine
 10
8821.662678389234
 20
4093.800211164907
 30
0.0
 11
8817.525986420125
 21
3990.382911937201
 31
0.0
  0
INSERT
  5
13E9D
330
134BC
100
AcDbEntity
  8
0
  6
ByBlock
 62
     0
 48
50.0
100
AcDbBlockReference
  2
_DOTSMALL
 10
8821.662678389234
 20
4093.800211164907
 30
0.0
 41
75.0
 42
75.0
 43
75.0
 50
87.7093899573615
  0
INSERT
  5
13E9E
330
134BC
100
AcDbEntity
  8
0
  6
ByBlock
 62
     0
 48
50.0
100
AcDbBlockReference
  2
_DOTSMALL
 10
8817.525986420125
 20
3990.382911937201
 30
0.0
 41
75.0
 42
75.0
 43
75.0
 50
267.7093899573615
  0
MTEXT
  5
13E9F
330
134BC
100
AcDbEntity
  8
0
  6
ByBlock
 62
     7
 48
50.0
100
AcDbMText
 10
8744.654260500544
 20
4045.089164427219
 30
0.0
 40
90.0
 41
0.0
 71
     5
 72
     1
  1
\A1;103.5
  7
STYLE1
 11
0.0399680383488711
 21
0.9992009587217895
 31
0.0
 73
     1
 44
1.0
1001
ACAD
1000
MTEXTBEGIN
1070
    73
1070
     1
1070
    44
1040
1.0
1070
    74
1070
     0
1000
MTEXTEND
  0
POINT
  5
13EA0
330
134BC
100
AcDbEntity
  8
DEFPOINTS
  6
ByBlock
 62
     0
 48
50.0
100
AcDbPoint
 10
9130.703069886605
 20
4081.438595505012
 30
0.0
 50
2.290610042638495
  0
POINT
  5
13EA1
330
134BC
100
AcDbEntity
  8
DEFPOINTS
  6
ByBlock
 62
     0
 48
50.0
100
AcDbPoint
 10
9150.93489569111
 20
3977.046555566361
 30
0.0
 50
2.290610042638495
  0
POINT
  5
13EA2
330
134BC
100
AcDbEntity
  8
DEFPOINTS
  6
ByBlock
 62
     0
 48
50.0
100
AcDbPoint
 10
8817.525986420125
 20
3990.382911937201
 30
0.0
 50
2.290610042638495
  0
ENDBLK
  5
13EA3
330
134BC
100
AcDbEntity
  8
0
 48
50.0
100
AcDbBlockEnd
  0
BLOCK
  5
13E43
330
134D8
100
AcDbEntity
  8
0
 48
50.0
100
AcDbBlockBegin
  2
*D10
 70
     1
 10
0.0
 20
0.0
 30
0.0
  3
*D10
  1

  0
LINE
  5
13E44
330
134D8
100
AcDbEntity
  8
0
  6
ByBlock
 62
     0
 48
50.0
100
AcDbLine
 10
10199.1662998724
 20
5342.367498923766
 30
0.0
 11
10199.1662998724
 21
6212.187023874692
 31
0.0
  0
LINE
  5
13E45
330
134D8
100
AcDbEntity
  8
0
  6
ByBlock
 62
     0
 48
50.0
100
AcDbLine
 10
12199.1662998724
 20
5263.567498923765
 30
0.0
 11
12199.1662998724
 21
6212.187023874692
 31
0.0
  0
LINE
  5
13E46
330
134D8
100
AcDbEntity
  8
0
  6
ByBlock
 62
     0
 48
50.0
100
AcDbLine
 10
10199.1662998724
 20
6167.187023874692
 30
0.0
 11
12199.1662998724
 21
6167.187023874692
 31
0.0
  0
INSERT
  5
13E47
330
134D8
100
AcDbEntity
  8
0
  6
ByBlock
 62
     0
 48
50.0
100
AcDbBlockReference
  2
_DOTSMALL
 10
10199.1662998724
 20
6167.187023874692
 30
0.0
 41
75.0
 42
75.0
 43
75.0
 50
180.0
  0
INSERT
  5
13E48
330
134D8
100
AcDbEntity
  8
0
  6
ByBlock
 62
     0
 48
50.0
100
AcDbBlockReference
  2
_DOTSMALL
 10
12199.1662998724
 20
6167.187023874692
 30
0.0
 41
75.0
 42
75.0
 43
75.0
  0
MTEXT
  5
13E49
330
134D8
100
AcDbEntity
  8
0
  6
ByBlock
 62
     7
 48
50.0
100
AcDbMText
 10
11199.1662998724
 20
6242.195882142409
 30
0.0
 40
90.0
 41
0.0
 71
     5
 72
     1
  1
\A1;2000
  7
STYLE1
 73
     1
 44
1.0
1001
ACAD
1000
MTEXTBEGIN
1070
    73
1070
     1
1070
    44
1040
1.0
1070
    74
1070
     0
1000
MTEXTEND
  0
POINT
  5
13E4A
330
134D8
100
AcDbEntity
  8
DEFPOINTS
  6
ByBlock
 62
     0
 48
50.0
100
AcDbPoint
 10
10199.1662998724
 20
5327.367498923766
 30
0.0
  0
POINT
  5
13E4B
330
134D8
100
AcDbEntity
  8
DEFPOINTS
  6
ByBlock
 62
     0
 48
50.0
100
AcDbPoint
 10
12199.1662998724
 20
5248.567498923765
 30
0.0
  0
POINT
  5
13E4C
330
134D8
100
AcDbEntity
  8
DEFPOINTS
  6
ByBlock
 62
     0
 48
50.0
100
AcDbPoint
 10
12199.1662998724
 20
6167.187023874692
 30
0.0
  0
ENDBLK
  5
13E4D
330
134D8
100
AcDbEntity
  8
0
 48
50.0
100
AcDbBlockEnd
  0
BLOCK
  5
13DFF
330
13DBA
100
AcDbEntity
  8
0
 48
50.0
100
AcDbBlockBegin
  2
*D11
 70
     1
 10
0.0
 20
0.0
 30
0.0
  3
*D11
  1

  0
LINE
  5
148EE
330
13DBA
100
AcDbEntity
  8
寸法
 62
     0
 48
50.0
370
    -2
100
AcDbLine
 10
7062.426034866589
 20
7921.447238448386
 30
0.0
 11
7730.915569391473
 21
7921.447238448386
 31
0.0
  0
LINE
  5
148EF
330
13DBA
100
AcDbEntity
  8
寸法
 62
     0
 48
50.0
370
    -2
100
AcDbLine
 10
7062.426034866589
 20
5921.447238448383
 30
0.0
 11
7730.915569391472
 21
5921.447238448383
 31
0.0
  0
LINE
  5
148F0
330
13DBA
100
AcDbEntity
  8
寸法
 62
     0
 48
50.0
370
    -2
100
AcDbLine
 10
7685.915569391473
 20
7921.447238448386
 30
0.0
 11
7685.915569391472
 21
5921.447238448383
 31
0.0
  0
INSERT
  5
148F1
330
13DBA
100
AcDbEntity
  8
寸法
 62
     0
 48
50.0
370
    -2
100
AcDbBlockReference
  2
_DOTSMALL
 10
7685.915569391473
 20
7921.447238448386
 30
0.0
 41
75.0
 42
75.0
 43
75.0
 50
90.0
  0
INSERT
  5
148F2
330
13DBA
100
AcDbEntity
  8
寸法
 62
     0
 48
50.0
370
    -2
100
AcDbBlockReference
  2
_DOTSMALL
 10
7685.915569391472
 20
5921.447238448383
 30
0.0
 41
75.0
 42
75.0
 43
75.0
 50
270.0
  0
MTEXT
  5
148F3
330
13DBA
100
AcDbEntity
  8
寸法
 62
     7
 48
50.0
100
AcDbMText
 10
7610.906711123755
 20
6921.447238448384
 30
0.0
 40
90.0
 41
0.0
 71
     5
 72
     1
  1
\A1;2000
  7
STYLE1
 11
0.0000000000000001
 21
1.0
 31
0.0
 73
     1
 44
1.0
1001
ACAD
1000
MTEXTBEGIN
1070
    73
1070
     1
1070
    44
1040
1.0
1070
    74
1070
     0
1000
MTEXTEND
  0
POINT
  5
148F4
330
13DBA
100
AcDbEntity
  8
DEFPOINTS
 62
     0
 48
50.0
100
AcDbPoint
 10
7047.426034866591
 20
7921.447238448386
 30
0.0
  0
POINT
  5
148F5
330
13DBA
100
AcDbEntity
  8
DEFPOINTS
 62
     0
 48
50.0
100
AcDbPoint
 10
7047.426034866591
 20
5921.447238448383
 30
0.0
  0
POINT
  5
148F6
330
13DBA
100
AcDbEntity
  8
DEFPOINTS
 62
     0
 48
50.0
100
AcDbPoint
 10
7685.915569391472
 20
5921.447238448383
 30
0.0
  0
ENDBLK
  5
13E09
330
13DBA
100
AcDbEntity
  8
0
 48
50.0
100
AcDbBlockEnd
  0
BLOCK
  5
13EBB
330
13E72
100
AcDbEntity
  8
0
 48
50.0
100
AcDbBlockBegin
  2
*D12
 70
     1
 10
0.0
 20
0.0
 30
0.0
  3
*D12
  1

  0
LINE
  5
13EBC
330
13E72
100
AcDbEntity
  8
0
  6
ByBlock
 62
     0
 48
50.0
100
AcDbLine
 10
9100.103549311356
 20
4082.062576328023
 30
0.0
 11
8462.228440851003
 21
4082.062576328023
 31
0.0
  0
LINE
  5
13EBD
330
13E72
100
AcDbEntity
  8
0
  6
ByBlock
 62
     0
 48
50.0
100
AcDbLine
 10
9100.103549311356
 20
1880.562576328022
 30
0.0
 11
8462.228440851003
 21
1880.562576328022
 31
0.0
  0
LINE
  5
13EBE
330
13E72
100
AcDbEntity
  8
0
  6
ByBlock
 62
     0
 48
50.0
100
AcDbLine
 10
8507.228440851003
 20
4082.062576328023
 30
0.0
 11
8507.228440851003
 21
1880.562576328022
 31
0.0
  0
INSERT
  5
13EBF
330
13E72
100
AcDbEntity
  8
0
  6
ByBlock
 62
     0
 48
50.0
100
AcDbBlockReference
  2
_DOTSMALL
 10
8507.228440851003
 20
4082.062576328023
 30
0.0
 41
75.0
 42
75.0
 43
75.0
 50
90.0
  0
INSERT
  5
13EC0
330
13E72
100
AcDbEntity
  8
0
  6
ByBlock
 62
     0
 48
50.0
100
AcDbBlockReference
  2
_DOTSMALL
 10
8507.228440851003
 20
1880.562576328022
 30
0.0
 41
75.0
 42
75.0
 43
75.0
 50
270.0
  0
MTEXT
  5
13EC1
330
13E72
100
AcDbEntity
  8
0
  6
ByBlock
 62
     7
 48
50.0
100
AcDbMText
 10
8432.219582583286
 20
2981.312576328022
 30
0.0
 40
90.0
 41
0.0
 71
     5
 72
     1
  1
\A1;2201.5
  7
STYLE1
 11
0.0000000000000001
 21
1.0
 31
0.0
 73
     1
 44
1.0
1001
ACAD
1000
MTEXTBEGIN
1070
    73
1070
     1
1070
    44
1040
1.0
1070
    74
1070
     0
1000
MTEXTEND
  0
POINT
  5
13EC2
330
13E72
100
AcDbEntity
  8
DEFPOINTS
  6
ByBlock
 62
     0
 48
50.0
100
AcDbPoint
 10
9115.103549311355
 20
4082.062576328023
 30
0.0
  0
POINT
  5
13EC3
330
13E72
100
AcDbEntity
  8
DEFPOINTS
  6
ByBlock
 62
     0
 48
50.0
100
AcDbPoint
 10
9115.103549311355
 20
1880.562576328022
 30
0.0
  0
POINT
  5
13EC4
330
13E72
100
AcDbEntity
  8
DEFPOINTS
  6
ByBlock
 62
     0
 48
50.0
100
AcDbPoint
 10
8507.228440851003
 20
1880.562576328022
 30
0.0
  0
ENDBLK
  5
13EC5
330
13E72
100
AcDbEntity
  8
0
 48
50.0
100
AcDbBlockEnd
  0
BLOCK
  5
1454F
330
13E8C
100
AcDbEntity
  8
0
 48
50.0
100
AcDbBlockBegin
  2
*D13
 70
     1
 10
0.0
 20
0.0
 30
0.0
  3
*D13
  1

  0
LINE
  5
14550
330
13E8C
100
AcDbEntity
  8
0
  6
ByBlock
 62
     0
 48
50.0
100
AcDbLine
 10
11414.64429244082
 20
1880.562576328022
 30
0.0
 11
11535.74100178595
 21
1880.562576328022
 31
0.0
  0
LINE
  5
14551
330
13E8C
100
AcDbEntity
  8
0
  6
ByBlock
 62
     0
 48
50.0
100
AcDbLine
 10
11130.10354931135
 20
4002.650581124186
 30
0.0
 11
11535.74100178595
 21
4002.650581124185
 31
0.0
  0
LINE
  5
14552
330
13E8C
100
AcDbEntity
  8
0
  6
ByBlock
 62
     0
 48
50.0
100
AcDbLine
 10
11490.74100178595
 20
1880.562576328022
 30
0.0
 11
11490.74100178595
 21
4002.650581124185
 31
0.0
  0
INSERT
  5
14553
330
13E8C
100
AcDbEntity
  8
0
  6
ByBlock
 62
     0
 48
50.0
100
AcDbBlockReference
  2
_DOTSMALL
 10
11490.74100178595
 20
1880.562576328022
 30
0.0
 41
75.0
 42
75.0
 43
75.0
 50
270.0
  0
INSERT
  5
14554
330
13E8C
100
AcDbEntity
  8
0
  6
ByBlock
 62
     0
 48
50.0
100
AcDbBlockReference
  2
_DOTSMALL
 10
11490.74100178595
 20
4002.650581124185
 30
0.0
 41
75.0
 42
75.0
 43
75.0
 50
90.0
  0
MTEXT
  5
14555
330
13E8C
100
AcDbEntity
  8
0
  6
ByBlock
 62
     7
 48
50.0
100
AcDbMText
 10
11415.73214351823
 20
2991.672581441367
 30
0.0
 40
90.0
 41
0.0
 71
     5
 72
     1
  1
\A1;2121.5
  7
STYLE1
 11
0.0000000000000001
 21
1.0
 31
0.0
 73
     1
 44
1.0
1001
ACAD
1000
MTEXTBEGIN
1070
    73
1070
     1
1070
    44
1040
1.0
1070
    74
1070
     0
1000
MTEXTEND
  0
POINT
  5
14556
330
13E8C
100
AcDbEntity
  8
DEFPOINTS
  6
ByBlock
 62
     0
 48
50.0
100
AcDbPoint
 10
11399.64429244082
 20
1880.562576328022
 30
0.0
  0
POINT
  5
14557
330
13E8C
100
AcDbEntity
  8
DEFPOINTS
  6
ByBlock
 62
     0
 48
50.0
100
AcDbPoint
 10
11115.10354931135
 20
4002.650581124186
 30
0.0
  0
POINT
  5
14558
330
13E8C
100
AcDbEntity
  8
DEFPOINTS
  6
ByBlock
 62
     0
 48
50.0
100
AcDbPoint
 10
11490.74100178595
 20
4002.650581124185
 30
0.0
  0
ENDBLK
  5
14559
330
13E8C
100
AcDbEntity
  8
0
 48
50.0
100
AcDbBlockEnd
  0
BLOCK
  5
147B2
330
13EDE
100
AcDbEntity
  8
0
 48
50.0
100
AcDbBlockBegin
  2
*D14
 70
     1
 10
0.0
 20
0.0
 30
0.0
  3
*D14
  1

  0
LINE
  5
147B3
330
13EDE
100
AcDbEntity
  8
0
  6
ByBlock
 62
     0
 48
50.0
100
AcDbLine
 10
8890.103549311355
 20
1830.562576328023
 30
0.0
 11
8252.228440851002
 21
1830.562576328023
 31
0.0
  0
LINE
  5
147B4
330
13EDE
100
AcDbEntity
  8
0
  6
ByBlock
 62
     0
 48
50.0
100
AcDbLine
 10
9850.103549311377
 20
1880.562576328023
 30
0.0
 11
8252.228440851002
 21
1880.562576328023
 31
0.0
  0
LINE
  5
147B5
330
13EDE
100
AcDbEntity
  8
0
  6
ByBlock
 62
     0
 48
50.0
100
AcDbLine
 10
8297.228440851002
 20
1880.562576328023
 30
0.0
 11
8297.228440851002
 21
1955.562576328023
 31
0.0
  0
LINE
  5
147B6
330
13EDE
100
AcDbEntity
  8
0
  6
ByBlock
 62
     0
 48
50.0
100
AcDbLine
 10
8297.228440851002
 20
1830.562576328023
 30
0.0
 11
8297.228440851002
 21
1521.49171018629
 31
0.0
  0
LINE
  5
147B7
330
13EDE
100
AcDbEntity
  8
0
  6
ByBlock
 62
     0
 48
50.0
100
AcDbLine
 10
8297.228440851002
 20
1880.562576328023
 30
0.0
 11
8297.228440851002
 21
1830.562576328023
 31
0.0
  0
INSERT
  5
147B8
330
13EDE
100
AcDbEntity
  8
0
  6
ByBlock
 62
     0
 48
50.0
100
AcDbBlockReference
  2
_DOTSMALL
 10
8297.228440851002
 20
1880.562576328023
 30
0.0
 41
75.0
 42
75.0
 43
75.0
 50
270.0
  0
INSERT
  5
147B9
330
13EDE
100
AcDbEntity
  8
0
  6
ByBlock
 62
     0
 48
50.0
100
AcDbBlockReference
  2
_DOTSMALL
 10
8297.228440851002
 20
1830.562576328023
 30
0.0
 41
75.0
 42
75.0
 43
75.0
 50
90.0
  0
MTEXT
  5
147BA
330
13EDE
100
AcDbEntity
  8
0
  6
ByBlock
 62
     7
 48
50.0
100
AcDbMText
 10
8222.228440851003
 20
1601.027143257157
 30
0.0
 40
90.0
 41
0.0
 71
     5
 72
     1
  1
\A1;50
  7
STYLE1
 11
0.0000000000000001
 21
1.0
 31
0.0
 73
     1
 44
1.0
1001
ACAD
1000
MTEXTBEGIN
1070
    73
1070
     1
1070
    44
1040
1.0
1070
    74
1070
     0
1000
MTEXTEND
  0
POINT
  5
147BB
330
13EDE
100
AcDbEntity
  8
DEFPOINTS
  6
ByBlock
 62
     0
 48
50.0
100
AcDbPoint
 10
8905.103549311355
 20
1830.562576328023
 30
0.0
  0
POINT
  5
147BC
330
13EDE
100
AcDbEntity
  8
DEFPOINTS
  6
ByBlock
 62
     0
 48
50.0
100
AcDbPoint
 10
9865.103549311378
 20
1880.562576328023
 30
0.0
  0
POINT
  5
147BD
330
13EDE
100
AcDbEntity
  8
DEFPOINTS
  6
ByBlock
 62
     0
 48
50.0
100
AcDbPoint
 10
8297.228440851002
 20
1880.562576328023
 30
0.0
  0
ENDBLK
  5
147BE
330
13EDE
100
AcDbEntity
  8
0
 48
50.0
100
AcDbBlockEnd
  0
BLOCK
  5
14542
330
13F0A
100
AcDbEntity
  8
0
 48
50.0
100
AcDbBlockBegin
  2
*D15
 70
     1
 10
0.0
 20
0.0
 30
0.0
  3
*D15
  1

  0
LINE
  5
14543
330
13F0A
100
AcDbEntity
  8
0
  6
ByBlock
 62
     0
 48
50.0
100
AcDbLine
 10
10170.10354931133
 20
1880.562576328022
 30
0.0
 11
11535.74100178595
 21
1880.562576328022
 31
0.0
  0
LINE
  5
14544
330
13F0A
100
AcDbEntity
  8
0
  6
ByBlock
 62
     0
 48
50.0
100
AcDbLine
 10
11130.10354931135
 20
1830.562576328022
 30
0.0
 11
11535.74100178595
 21
1830.562576328022
 31
0.0
  0
LINE
  5
14545
330
13F0A
100
AcDbEntity
  8
0
  6
ByBlock
 62
     0
 48
50.0
100
AcDbLine
 10
11490.74100178595
 20
1880.562576328022
 30
0.0
 11
11490.74100178595
 21
1955.562576328022
 31
0.0
  0
LINE
  5
14546
330
13F0A
100
AcDbEntity
  8
0
  6
ByBlock
 62
     0
 48
50.0
100
AcDbLine
 10
11490.74100178595
 20
1830.562576328022
 30
0.0
 11
11490.74100178595
 21
1521.49171018629
 31
0.0
  0
LINE
  5
14547
330
13F0A
100
AcDbEntity
  8
0
  6
ByBlock
 62
     0
 48
50.0
100
AcDbLine
 10
11490.74100178595
 20
1880.562576328022
 30
0.0
 11
11490.74100178595
 21
1830.562576328022
 31
0.0
  0
INSERT
  5
14548
330
13F0A
100
AcDbEntity
  8
0
  6
ByBlock
 62
     0
 48
50.0
100
AcDbBlockReference
  2
_DOTSMALL
 10
11490.74100178595
 20
1880.562576328022
 30
0.0
 41
75.0
 42
75.0
 43
75.0
 50
270.0
  0
INSERT
  5
14549
330
13F0A
100
AcDbEntity
  8
0
  6
ByBlock
 62
     0
 48
50.0
100
AcDbBlockReference
  2
_DOTSMALL
 10
11490.74100178595
 20
1830.562576328022
 30
0.0
 41
75.0
 42
75.0
 43
75.0
 50
90.0
  0
MTEXT
  5
1454A
330
13F0A
100
AcDbEntity
  8
0
  6
ByBlock
 62
     7
 48
50.0
100
AcDbMText
 10
11415.74100178595
 20
1601.027143257156
 30
0.0
 40
90.0
 41
0.0
 71
     5
 72
     1
  1
\A1;50
  7
STYLE1
 11
0.0000000000000001
 21
1.0
 31
0.0
 73
     1
 44
1.0
1001
ACAD
1000
MTEXTBEGIN
1070
    73
1070
     1
1070
    44
1040
1.0
1070
    74
1070
     0
1000
MTEXTEND
  0
POINT
  5
1454B
330
13F0A
100
AcDbEntity
  8
DEFPOINTS
  6
ByBlock
 62
     0
 48
50.0
100
AcDbPoint
 10
10155.10354931133
 20
1880.562576328022
 30
0.0
  0
POINT
  5
1454C
330
13F0A
100
AcDbEntity
  8
DEFPOINTS
  6
ByBlock
 62
     0
 48
50.0
100
AcDbPoint
 10
11115.10354931135
 20
1830.562576328022
 30
0.0
  0
POINT
  5
1454D
330
13F0A
100
AcDbEntity
  8
DEFPOINTS
  6
ByBlock
 62
     0
 48
50.0
100
AcDbPoint
 10
11490.74100178595
 20
1830.562576328022
 30
0.0
  0
ENDBLK
  5
1454E
330
13F0A
100
AcDbEntity
  8
0
 48
50.0
100
AcDbBlockEnd
  0
BLOCK
  5
14799
330
14777
100
AcDbEntity
  8
0
 48
50.0
100
AcDbBlockBegin
  2
*D16
 70
     1
 10
0.0
 20
0.0
 30
0.0
  3
*D16
  1

  0
LINE
  5
148E5
330
14777
100
AcDbEntity
  8
寸法
 62
     0
 48
50.0
370
    -2
100
AcDbLine
 10
902.4260348665906
 20
7921.447238448381
 30
0.0
 11
902.4260348665906
 21
8301.091035740652
 31
0.0
  0
LINE
  5
148E6
330
14777
100
AcDbEntity
  8
寸法
 62
     0
 48
50.0
370
    -2
100
AcDbLine
 10
7062.426034866589
 20
7920.978717162715
 30
0.0
 11
7062.426034866589
 21
8301.091035740652
 31
0.0
  0
LINE
  5
148E7
330
14777
100
AcDbEntity
  8
寸法
 62
     0
 48
50.0
370
    -2
100
AcDbLine
 10
902.4260348665906
 20
8256.091035740652
 30
0.0
 11
7062.426034866589
 21
8256.091035740652
 31
0.0
  0
INSERT
  5
148E8
330
14777
100
AcDbEntity
  8
寸法
 62
     0
 48
50.0
370
    -2
100
AcDbBlockReference
  2
_DOTSMALL
 10
902.4260348665906
 20
8256.091035740652
 30
0.0
 41
75.0
 42
75.0
 43
75.0
 50
180.0
  0
INSERT
  5
148E9
330
14777
100
AcDbEntity
  8
寸法
 62
     0
 48
50.0
370
    -2
100
AcDbBlockReference
  2
_DOTSMALL
 10
7062.426034866589
 20
8256.091035740652
 30
0.0
 41
75.0
 42
75.0
 43
75.0
  0
MTEXT
  5
148EA
330
14777
100
AcDbEntity
  8
寸法
 62
     7
 48
50.0
100
AcDbMText
 10
3982.42603486659
 20
8331.099894008367
 30
0.0
 40
90.0
 41
0.0
 71
     5
 72
     1
  1
\A1;N X 2830 + 500
  7
STYLE1
 73
     1
 44
1.0
1001
ACAD
1000
MTEXTBEGIN
1070
    73
1070
     1
1070
    44
1040
1.0
1070
    74
1070
     0
1000
MTEXTEND
  0
POINT
  5
148EB
330
14777
100
AcDbEntity
  8
DEFPOINTS
 62
     0
 48
50.0
100
AcDbPoint
 10
902.4260348665906
 20
7906.447238448382
 30
0.0
  0
POINT
  5
148EC
330
14777
100
AcDbEntity
  8
DEFPOINTS
 62
     0
 48
50.0
100
AcDbPoint
 10
7062.426034866589
 20
7905.978717162716
 30
0.0
  0
POINT
  5
148ED
330
14777
100
AcDbEntity
  8
DEFPOINTS
 62
     0
 48
50.0
100
AcDbPoint
 10
7062.426034866589
 20
8256.091035740652
 30
0.0
  0
ENDBLK
  5
147A3
330
14777
100
AcDbEntity
  8
0
 48
50.0
100
AcDbBlockEnd
  0
ENDSEC
  0
SECTION
  2
ENTITIES
  0
MTEXT
  5
763F
330
747D
100
AcDbEntity
  8
0
100
AcDbMText
 10
302.846345836809
 20
280.1983726409901
 30
0.0
 40
3.5
 41
5.323721266742722
 71
     1
 72
     5
  1

  7
MSMINCHO
 73
     1
 44
1.0
1001
ACAD
1000
MTEXTBEGIN
1070
    73
1070
     1
1070
    44
1040
1.0
1070
    74
1070
     0
1000
MTEXTEND
  0
INSERT
  5
F235
330
747D
100
AcDbEntity
  8
0
100
AcDbBlockReference
  2
作図枠S50
 10
0.0
 20
0.0
 30
0.0
 41
0.6000000000000001
 42
0.6000000000000001
 43
0.6000000000000001
  0
LINE
  5
10B56
330
747D
100
AcDbEntity
  8
補助
  6
PHANTOM
 62
   230
 48
50.0
100
AcDbLine
 10
105.0
 20
0.0
 30
0.0
 11
104.9999999999996
 21
8557.199999999999
 31
0.0
  0
LINE
  5
10B57
330
747D
100
AcDbEntity
  8
補助
  6
PHANTOM
 62
   230
 48
50.0
100
AcDbLine
 10
104.9999999999996
 20
8557.199999999999
 30
0.0
 11
12230.4
 21
8557.199999999999
 31
0.0
  0
LINE
  5
10B5E
330
747D
100
AcDbEntity
  8
補助
  6
PHANTOM
 62
   230
 48
50.0
100
AcDbLine
 10
12230.4
 20
8557.199999999999
 30
0.0
 11
12230.4
 21
900.0
 31
0.0
  0
LINE
  5
10B6D
330
747D
100
AcDbEntity
  8
補助
  6
PHANTOM
 62
   230
 48
50.0
100
AcDbLine
 10
9830.400000000002
 20
8557.199999999999
 30
0.0
 11
9830.400000000002
 21
3600.0
 31
0.0
  0
DIMENSION
  5
12F4F
330
747D
100
AcDbEntity
  8
寸法
 48
50.0
100
AcDbDimension
  2
*D4
 10
7062.426034866594
 20
4910.957606075111
 30
0.0
 11
3982.426034866593
 21
4985.966464342828
 31
0.0
 70
    32
  1
N X 2830 + 500
 71
     5
 42
-1.0
  3
INABA_S30G
100
AcDbAlignedDimension
 13
902.4260348665903
 23
4066.450581124189
 33
0.0
 14
7062.426034866594
 24
4066.450581124181
 34
0.0
100
AcDbRotatedDimension
  0
DIMENSION
  5
12F50
330
747D
100
AcDbEntity
  8
寸法
 48
50.0
100
AcDbDimension
  2
*D5
 10
6812.426034866594
 20
4601.702425425579
 30
0.0
 11
3982.426034866593
 21
4676.711283693296
 31
0.0
 70
    32
  1
N X 2830
 71
     5
 42
-1.0
  3
INABA_S30G
100
AcDbAlignedDimension
 13
1152.42603486659
 23
3970.897875741641
 33
0.0
 14
6812.426034866594
 24
3970.897875741633
 34
0.0
100
AcDbRotatedDimension
  0
LINE
  5
12F56
330
747D
100
AcDbEntity
  8
部品1
 48
50.0
100
AcDbLine
 10
7062.426034866594
 20
1880.562576328018
 30
0.0
 11
902.4260348665903
 21
1880.562576328024
 31
0.0
  0
LINE
  5
12F58
330
747D
100
AcDbEntity
  8
細線
 48
50.0
100
AcDbLine
 10
7012.20741876519
 20
4002.407532190143
 30
0.0
 11
952.6446509679935
 21
4002.40753219015
 31
0.0
  0
LINE
  5
12F59
330
747D
100
AcDbEntity
  8
細線
 48
50.0
100
AcDbLine
 10
7008.845812205176
 20
4014.027143629729
 30
0.0
 11
956.0062575280117
 21
4014.027143629737
 31
0.0
  0
LINE
  5
12F5A
330
747D
100
AcDbEntity
  8
細線
 48
50.0
100
AcDbLine
 10
7014.052306566068
 20
4038.276767503647
 30
0.0
 11
950.7997631671223
 21
4038.276767503655
 31
0.0
  0
LINE
  5
12F5B
330
747D
100
AcDbEntity
  8
細線
 48
50.0
100
AcDbLine
 10
7020.049800975155
 20
4049.89637894323
 30
0.0
 11
944.8022687580287
 21
4049.896378943237
 31
0.0
  0
LINE
  5
12F5C
330
747D
100
AcDbEntity
  8
部品1
 48
50.0
100
AcDbLine
 10
7022.426034866594
 20
3977.046555566357
 30
0.0
 11
942.4260348665903
 21
3977.046555566363
 31
0.0
  0
LINE
  5
12F5D
330
747D
100
AcDbEntity
  8
部品1
 48
50.0
100
AcDbLine
 10
7047.426034866593
 20
4081.450581124182
 30
0.0
 11
917.4260348665903
 21
4081.450581124189
 31
0.0
  0
LINE
  5
12F6B
330
747D
100
AcDbEntity
  8
部品1
 48
50.0
100
AcDbLine
 10
6780.426034866593
 20
3909.969012140661
 30
0.0
 11
4014.426034866594
 21
3909.969012140661
 31
0.0
  0
LINE
  5
12F6C
330
747D
100
AcDbEntity
  8
部品1
 48
50.0
100
AcDbLine
 10
6780.737050907323
 20
3969.96901214066
 30
0.0
 11
4014.11501882587
 21
3969.96901214066
 31
0.0
  0
LINE
  5
12F6D
330
747D
100
AcDbEntity
  8
部品1
 48
50.0
100
AcDbLine
 10
6780.426034866593
 20
3939.307144620489
 30
0.0
 11
4014.426034866594
 21
3939.307144620489
 31
0.0
  0
LINE
  5
12F6E
330
747D
100
AcDbEntity
  8
部品1
 48
50.0
100
AcDbLine
 10
6780.426034866595
 20
3900.228017808709
 30
0.0
 11
4014.426034866594
 21
3900.228017808711
 31
0.0
  0
LINE
  5
12F70
330
747D
100
AcDbEntity
  8
部品1
 48
50.0
100
AcDbLine
 10
965.4260348665902
 20
3977.046555566365
 30
0.0
 11
965.4260348665902
 21
3900.228017808713
 31
0.0
  0
LINE
  5
12F71
330
747D
100
AcDbEntity
  8
部品1
 48
50.0
100
AcDbLine
 10
1120.42603486659
 20
3968.897875741641
 30
0.0
 11
1120.42603486659
 21
3909.348694766937
 31
0.0
  0
LINE
  5
12F72
330
747D
100
AcDbEntity
  8
部品1
 48
50.0
100
AcDbLine
 10
1184.42603486659
 20
3968.897875741641
 30
0.0
 11
1184.42603486659
 21
3909.348694766937
 31
0.0
  0
LINE
  5
12F73
330
747D
100
AcDbEntity
  8
部品1
 48
50.0
100
AcDbLine
 10
903.001572469444
 20
3985.516841724657
 30
0.0
 11
923.1934183370666
 21
3914.741082286206
 31
0.0
  0
TEXT
  5
12F75
330
747D
100
AcDbEntity
  8
部品1
 48
50.0
100
AcDbText
 10
228.7050358507204
 20
1869.953876758353
 30
0.0
 40
100.0
  1
▽G.L
  7
STYLE2
100
AcDbText
  0
LINE
  5
12F77
330
747D
100
AcDbEntity
  8
部品1
 48
50.0
100
AcDbLine
 10
1192.42603486659
 20
3548.431828606208
 30
0.0
 11
1192.42603486659
 21
1880.562576328026
 31
0.0
  0
LINE
  5
12F78
330
747D
100
AcDbEntity
  8
部品1
 48
50.0
100
AcDbLine
 10
1112.426034866594
 20
3548.431828606208
 30
0.0
 11
1112.42603486659
 21
1880.562576328026
 31
0.0
  0
LINE
  5
12F7C
330
747D
100
AcDbEntity
  8
部品1
 48
50.0
100
AcDbLine
 10
902.4260348665903
 20
1880.562576328026
 30
0.0
 11
902.4260348665903
 21
1830.562576328025
 31
0.0
  0
LINE
  5
12F82
330
747D
100
AcDbEntity
  8
点線
 48
18.0
100
AcDbLine
 10
1192.42603486659
 20
1880.562576328026
 30
0.0
 11
1192.42603486659
 21
1830.562576328025
 31
0.0
  0
LINE
  5
12F83
330
747D
100
AcDbEntity
  8
点線
 48
18.0
100
AcDbLine
 10
1112.42603486659
 20
1880.562576328026
 30
0.0
 11
1112.42603486659
 21
1830.562576328025
 31
0.0
  0
LINE
  5
12F86
330
747D
100
AcDbEntity
  8
部品1
 48
50.0
100
AcDbLine
 10
1120.42603486659
 20
3909.969012140664
 30
0.0
 11
965.4260348665902
 21
3909.969012140664
 31
0.0
  0
LINE
  5
12F87
330
747D
100
AcDbEntity
  8
部品1
 48
50.0
100
AcDbLine
 10
1120.42603486659
 20
3900.228017808713
 30
0.0
 11
942.4260348665903
 21
3900.228017808713
 31
0.0
  0
ARC
  5
12F88
330
747D
100
AcDbEntity
  8
部品1
 48
50.0
100
AcDbCircle
 10
942.4260348665903
 20
3920.228017808713
 30
0.0
 40
20.0
100
AcDbArc
 50
195.9230900765477
 51
270.0
  0
ARC
  5
12F89
330
747D
100
AcDbEntity
  8
部品1
 48
50.0
100
AcDbCircle
 10
1122.42603486659
 20
3909.348694766937
 30
0.0
 40
2.0
100
AcDbArc
 50
180.0000000000017
 51
270.0
  0
ARC
  5
12F8A
330
747D
100
AcDbEntity
  8
部品1
 48
50.0
100
AcDbCircle
 10
1182.42603486659
 20
3909.348694766937
 30
0.0
 40
2.0
100
AcDbArc
 50
270.0
 51
0.000000000000007
  0
LINE
  5
12F8B
330
747D
100
AcDbEntity
  8
部品1
 48
50.0
100
AcDbLine
 10
1122.42603486659
 20
3907.348694766938
 30
0.0
 11
1182.42603486659
 21
3907.348694766938
 31
0.0
  0
LINE
  5
12F8C
330
747D
100
AcDbEntity
  8
細線
 48
50.0
100
AcDbLine
 10
1120.42603486659
 20
3932.897875741643
 30
0.0
 11
1184.42603486659
 21
3932.897875741641
 31
0.0
  0
LINE
  5
12F8D
330
747D
100
AcDbEntity
  8
細線
 48
50.0
100
AcDbLine
 10
1120.42603486659
 20
3922.897875741643
 30
0.0
 11
1184.42603486659
 21
3922.897875741641
 31
0.0
  0
LINE
  5
12F8E
330
747D
100
AcDbEntity
  8
部品1
 48
50.0
100
AcDbLine
 10
1107.42603486659
 20
3698.431828606212
 30
0.0
 11
1132.426034866594
 21
3698.431828606212
 31
0.0
  0
LINE
  5
12F8F
330
747D
100
AcDbEntity
  8
部品1
 48
50.0
100
AcDbLine
 10
1122.42603486659
 20
3844.818164454482
 30
0.0
 11
1132.42603486659
 21
3844.818164454482
 31
0.0
  0
ARC
  5
12F90
330
747D
100
AcDbEntity
  8
部品1
 48
50.0
100
AcDbCircle
 10
1122.42603486659
 20
3846.818164454482
 30
0.0
 40
2.0
100
AcDbArc
 50
180.0
 51
270.0
  0
LINE
  5
12F91
330
747D
100
AcDbEntity
  8
部品1
 48
50.0
100
AcDbLine
 10
1107.426034866594
 20
3548.43182860621
 30
0.0
 11
1107.426034866594
 21
3698.431828606212
 31
0.0
  0
ARC
  5
12F92
330
747D
100
AcDbEntity
  8
部品1
 48
50.0
100
AcDbCircle
 10
1182.42603486659
 20
3846.818164454482
 30
0.0
 40
2.0
100
AcDbArc
 50
270.0
 51
0.000000000000007
  0
LINE
  5
12F93
330
747D
100
AcDbEntity
  8
部品1
 48
50.0
100
AcDbLine
 10
1197.42603486659
 20
3548.43182860621
 30
0.0
 11
1197.42603486659
 21
3698.431828606212
 31
0.0
  0
LINE
  5
12F94
330
747D
100
AcDbEntity
  8
部品1
 48
50.0
100
AcDbLine
 10
1107.42603486659
 20
3548.43182860621
 30
0.0
 11
1197.42603486659
 21
3548.431828606208
 31
0.0
  0
LINE
  5
12F95
330
747D
100
AcDbEntity
  8
部品1
 48
50.0
100
AcDbLine
 10
1172.426034866594
 20
3698.431828606212
 30
0.0
 11
1197.42603486659
 21
3698.431828606212
 31
0.0
  0
LINE
  5
12F96
330
747D
100
AcDbEntity
  8
部品1
 48
50.0
100
AcDbLine
 10
1172.42603486659
 20
3844.818164454482
 30
0.0
 11
1182.42603486659
 21
3844.818164454482
 31
0.0
  0
LINE
  5
12F97
330
747D
100
AcDbEntity
  8
部品1
 48
50.0
100
AcDbLine
 10
1132.42603486659
 20
3907.348694766939
 30
0.0
 11
1132.42603486659
 21
3548.43182860621
 31
0.0
  0
LINE
  5
12F98
330
747D
100
AcDbEntity
  8
部品1
 48
50.0
100
AcDbLine
 10
1172.42603486659
 20
3907.348694766939
 30
0.0
 11
1172.42603486659
 21
3548.43182860621
 31
0.0
  0
LINE
  5
12F99
330
747D
100
AcDbEntity
  8
部品1
 48
50.0
100
AcDbLine
 10
1152.42603486659
 20
3907.348694766939
 30
0.0
 11
1152.42603486659
 21
3548.43182860621
 31
0.0
  0
LINE
  5
12F9A
330
747D
100
AcDbEntity
  8
部品1
 48
50.0
100
AcDbLine
 10
1184.42603486659
 20
3909.348694766937
 30
0.0
 11
1184.42603486659
 21
3846.818164454482
 31
0.0
  0
LINE
  5
12F9B
330
747D
100
AcDbEntity
  8
部品1
 48
50.0
100
AcDbLine
 10
1120.42603486659
 20
3909.348694766937
 30
0.0
 11
1120.42603486659
 21
3846.818164454482
 31
0.0
  0
DIMENSION
  5
12FB4
330
747D
100
AcDbEntity
  8
寸法
 48
50.0
100
AcDbDimension
  2
*D6
 10
1152.42603486659
 20
4601.702425425584
 30
0.0
 11
715.2478852602907
 21
4601.702425425584
 31
0.0
 12
-1509.436150747706
 22
-1260.916917799576
 32
0.0
 70
   160
 71
     5
 42
-1.0
  3
INABA_S30G
100
AcDbAlignedDimension
 13
902.4260348665903
 23
4066.450581124189
 33
0.0
 14
1152.42603486659
 24
3970.897875741641
 34
0.0
100
AcDbRotatedDimension
  0
LINE
  5
12FB5
330
747D
100
AcDbEntity
  8
部品1
 48
50.0
100
AcDbLine
 10
1120.42603486659
 20
3969.969012140661
 30
0.0
 11
965.4260348665902
 21
3969.969012140661
 31
0.0
  0
LINE
  5
12FB6
330
747D
100
AcDbEntity
  8
部品1
 48
50.0
100
AcDbLine
 10
1120.42603486659
 20
3939.307144620492
 30
0.0
 11
965.4260348665902
 21
3939.307144620492
 31
0.0
  0
LINE
  5
12FB7
330
747D
100
AcDbEntity
  8
部品1
 48
50.0
100
AcDbLine
 10
902.4260348665903
 20
4066.450581124189
 30
0.0
 11
902.4260348665903
 21
3989.632043366535
 31
0.0
  0
ARC
  5
12FB8
330
747D
100
AcDbEntity
  8
部品1
 48
50.0
100
AcDbCircle
 10
917.4260348665903
 20
3989.632043366535
 30
0.0
 40
15.0
100
AcDbArc
 50
180.0
 51
195.9230900765452
  0
ARC
  5
12FB9
330
747D
100
AcDbEntity
  8
細線
 48
50.0
100
AcDbCircle
 10
956.0062575280117
 20
4017.027143629737
 30
0.0
 40
3.0
100
AcDbArc
 50
195.9230900765464
 51
270.0
  0
ARC
  5
12FBA
330
747D
100
AcDbEntity
  8
細線
 48
50.0
100
AcDbCircle
 10
950.7997631671223
 20
4035.276767503655
 30
0.0
 40
3.0
100
AcDbArc
 50
90.0
 51
195.9230900765469
  0
ARC
  5
12FBB
330
747D
100
AcDbEntity
  8
細線
 48
50.0
100
AcDbCircle
 10
952.6446509679935
 20
4012.407532190151
 30
0.0
 40
10.0
100
AcDbArc
 50
195.9230900765468
 51
270.0
  0
ARC
  5
12FBC
330
747D
100
AcDbEntity
  8
細線
 48
50.0
100
AcDbCircle
 10
944.8022687580287
 20
4039.89637894324
 30
0.0
 40
10.0
100
AcDbArc
 50
90.0
 51
195.9230900765469
  0
LINE
  5
12FBD
330
747D
100
AcDbEntity
  8
細線
 48
50.0
100
AcDbLine
 10
947.914870687693
 20
4034.453727175281
 30
0.0
 11
953.1213650485824
 21
4016.204103301363
 31
0.0
  0
LINE
  5
12FBE
330
747D
100
AcDbEntity
  8
細線
 48
50.0
100
AcDbLine
 10
935.185960493267
 20
4037.152911181987
 30
0.0
 11
943.0283427032318
 21
4009.664064428898
 31
0.0
  0
ARC
  5
12FBF
330
747D
100
AcDbEntity
  8
部品1
 48
50.0
100
AcDbCircle
 10
942.4260348665903
 20
3997.046555566365
 30
0.0
 40
20.0
100
AcDbArc
 50
195.9230900765477
 51
270.0
  0
LINE
  5
12FC0
330
747D
100
AcDbEntity
  8
部品1
 48
50.0
100
AcDbLine
 10
903.001572469444
 20
4062.335379482308
 30
0.0
 11
923.1934183370666
 21
3991.559620043859
 31
0.0
  0
ARC
  5
12FC1
330
747D
100
AcDbEntity
  8
部品1
 48
50.0
100
AcDbCircle
 10
917.4260348665903
 20
4066.450581124189
 30
0.0
 40
15.0
100
AcDbArc
 50
90.0
 51
195.9230900765452
  0
LINE
  5
12FC2
330
747D
100
AcDbEntity
  8
部品1
 48
50.0
100
AcDbLine
 10
965.4260348665902
 20
4081.45058112419
 30
0.0
 11
965.4260348665902
 21
3977.046555566365
 31
0.0
  0
ARC
  5
12FC3
330
747D
100
AcDbEntity
  8
部品1
 48
50.0
100
AcDbCircle
 10
1122.42603486659
 20
3968.897875741641
 30
0.0
 40
2.0
100
AcDbArc
 50
90.0
 51
180.0
  0
ARC
  5
12FC4
330
747D
100
AcDbEntity
  8
部品1
 48
50.0
100
AcDbCircle
 10
1182.42603486659
 20
3968.897875741641
 30
0.0
 40
2.0
100
AcDbArc
 50
0.000000000000007
 51
90.0
  0
LINE
  5
12FC5
330
747D
100
AcDbEntity
  8
部品1
 48
50.0
100
AcDbLine
 10
1122.42603486659
 20
3970.897875741641
 30
0.0
 11
1182.42603486659
 21
3970.897875741641
 31
0.0
  0
LINE
  5
12FC6
330
747D
100
AcDbEntity
  8
細線
 48
50.0
100
AcDbLine
 10
1120.42603486659
 20
3954.897875741641
 30
0.0
 11
1184.42603486659
 21
3954.897875741641
 31
0.0
  0
LINE
  5
12FC7
330
747D
100
AcDbEntity
  8
細線
 48
50.0
100
AcDbLine
 10
1120.42603486659
 20
3944.897875741643
 30
0.0
 11
1184.42603486659
 21
3944.897875741641
 31
0.0
  0
LWPOLYLINE
  5
12FC8
330
747D
100
AcDbEntity
  8
部品1
100
AcDbPolyline
 90
        4
 70
     1
 43
0.0
 10
3685.960832715332
 20
1149.796007513017
 10
4332.992207995856
 20
1149.796007513017
 10
4332.992207995856
 20
957.2758516958773
 10
3685.960832715332
 20
957.2758516958773
  0
TEXT
  5
12FC9
330
747D
100
AcDbEntity
  8
仕様書枠
 62
     7
 48
50.0
100
AcDbText
 10
3717.375909476861
 20
995.9312831628365
 30
0.0
 40
112.0
  1
正 面 図
  7
STYLE2
100
AcDbText
  0
LINE
  5
13246
330
747D
100
AcDbEntity
  8
部品1
 48
50.0
100
AcDbLine
 10
3950.426034866594
 20
3968.897875741638
 30
0.0
 11
3950.426034866594
 21
3909.348694766935
 31
0.0
  0
LINE
  5
13247
330
747D
100
AcDbEntity
  8
部品1
 48
50.0
100
AcDbLine
 10
4014.426034866594
 20
3968.897875741638
 30
0.0
 11
4014.426034866594
 21
3909.348694766935
 31
0.0
  0
LINE
  5
13248
330
747D
100
AcDbEntity
  8
部品1
 48
50.0
100
AcDbLine
 10
6999.426034866594
 20
3977.046555566357
 30
0.0
 11
6999.426034866594
 21
3900.228017808705
 31
0.0
  0
LINE
  5
13249
330
747D
100
AcDbEntity
  8
部品1
 48
50.0
100
AcDbLine
 10
7061.850497263741
 20
3985.516841724649
 30
0.0
 11
7041.658651396121
 21
3914.741082286198
 31
0.0
  0
LINE
  5
1324A
330
747D
100
AcDbEntity
  8
部品1
 48
50.0
100
AcDbLine
 10
6844.426034866593
 20
3968.897875741633
 30
0.0
 11
6844.426034866593
 21
3909.348694766929
 31
0.0
  0
LINE
  5
1324B
330
747D
100
AcDbEntity
  8
部品1
 48
50.0
100
AcDbLine
 10
6780.426034866593
 20
3968.897875741633
 30
0.0
 11
6780.426034866593
 21
3909.348694766929
 31
0.0
  0
DIMENSION
  5
1324C
330
747D
100
AcDbEntity
  8
寸法
 48
50.0
100
AcDbDimension
  2
*D7
 10
6812.426034866594
 20
1378.658501641209
 30
0.0
 11
5397.426034866594
 21
1453.667359908926
 31
0.0
 70
    32
 71
     5
 42
-1.0
  3
INABA_S30G
100
AcDbAlignedDimension
 13
3982.426034866593
 23
1710.562576328023
 33
0.0
 14
6812.426034866594
 24
1710.562576328018
 34
0.0
100
AcDbRotatedDimension
  0
LINE
  5
13250
330
747D
100
AcDbEntity
  8
部品1
 48
50.0
100
AcDbLine
 10
4022.426034866594
 20
3548.431828606206
 30
0.0
 11
4022.426034866594
 21
1880.562576328023
 31
0.0
  0
LINE
  5
13251
330
747D
100
AcDbEntity
  8
部品1
 48
50.0
100
AcDbLine
 10
3942.426034866594
 20
3548.431828606206
 30
0.0
 11
3942.426034866594
 21
1880.562576328023
 31
0.0
  0
LINE
  5
1325A
330
747D
100
AcDbEntity
  8
点線
 48
18.0
100
AcDbLine
 10
3942.426034866594
 20
1880.562576328023
 30
0.0
 11
3942.426034866594
 21
1830.562576328023
 31
0.0
  0
LINE
  5
1325E
330
747D
100
AcDbEntity
  8
点線
 48
18.0
100
AcDbLine
 10
4022.426034866594
 20
1880.562576328023
 30
0.0
 11
4022.426034866594
 21
1830.562576328023
 31
0.0
  0
LINE
  5
1326E
330
747D
100
AcDbEntity
  8
部品1
 48
50.0
100
AcDbLine
 10
4027.426034866594
 20
3698.431828606209
 30
0.0
 11
4002.426034866593
 21
3698.431828606209
 31
0.0
  0
ARC
  5
1326F
330
747D
100
AcDbEntity
  8
部品1
 48
50.0
100
AcDbCircle
 10
4012.426034866594
 20
3909.348694766935
 30
0.0
 40
2.0
100
AcDbArc
 50
270.0
 51
359.9999999999983
  0
ARC
  5
13270
330
747D
100
AcDbEntity
  8
部品1
 48
50.0
100
AcDbCircle
 10
4012.426034866594
 20
3846.818164454479
 30
0.0
 40
2.0
100
AcDbArc
 50
270.0
 51
0.0
  0
LINE
  5
13271
330
747D
100
AcDbEntity
  8
部品1
 48
50.0
100
AcDbLine
 10
4027.426034866594
 20
3548.431828606207
 30
0.0
 11
3937.426034866594
 21
3548.431828606206
 31
0.0
  0
LINE
  5
13272
330
747D
100
AcDbEntity
  8
細線
 48
50.0
100
AcDbLine
 10
4014.426034866594
 20
3922.89787574164
 30
0.0
 11
3950.426034866594
 21
3922.897875741638
 31
0.0
  0
LINE
  5
13273
330
747D
100
AcDbEntity
  8
細線
 48
50.0
100
AcDbLine
 10
4014.426034866594
 20
3932.89787574164
 30
0.0
 11
3950.426034866594
 21
3932.897875741638
 31
0.0
  0
LINE
  5
13274
330
747D
100
AcDbEntity
  8
部品1
 48
50.0
100
AcDbLine
 10
3962.426034866594
 20
3698.431828606209
 30
0.0
 11
3937.426034866594
 21
3698.431828606209
 31
0.0
  0
LINE
  5
13275
330
747D
100
AcDbEntity
  8
部品1
 48
50.0
100
AcDbLine
 10
4012.426034866594
 20
3907.348694766934
 30
0.0
 11
3952.426034866594
 21
3907.348694766934
 31
0.0
  0
ARC
  5
13276
330
747D
100
AcDbEntity
  8
部品1
 48
50.0
100
AcDbCircle
 10
3952.426034866594
 20
3909.348694766935
 30
0.0
 40
2.0
100
AcDbArc
 50
180.0
 51
270.0
  0
LINE
  5
13277
330
747D
100
AcDbEntity
  8
部品1
 48
50.0
100
AcDbLine
 10
3950.426034866594
 20
3909.348694766935
 30
0.0
 11
3950.426034866594
 21
3846.818164454479
 31
0.0
  0
LINE
  5
13278
330
747D
100
AcDbEntity
  8
部品1
 48
50.0
100
AcDbLine
 10
3962.426034866594
 20
3844.81816445448
 30
0.0
 11
3952.426034866594
 21
3844.81816445448
 31
0.0
  0
ARC
  5
13279
330
747D
100
AcDbEntity
  8
部品1
 48
50.0
100
AcDbCircle
 10
3952.426034866594
 20
3846.818164454479
 30
0.0
 40
2.0
100
AcDbArc
 50
180.0
 51
270.0
  0
LINE
  5
1327A
330
747D
100
AcDbEntity
  8
部品1
 48
50.0
100
AcDbLine
 10
4014.426034866594
 20
3909.348694766935
 30
0.0
 11
4014.426034866594
 21
3846.818164454479
 31
0.0
  0
LINE
  5
1327B
330
747D
100
AcDbEntity
  8
部品1
 48
50.0
100
AcDbLine
 10
4012.426034866594
 20
3844.81816445448
 30
0.0
 11
4002.426034866593
 21
3844.81816445448
 31
0.0
  0
LINE
  5
1327C
330
747D
100
AcDbEntity
  8
部品1
 48
50.0
100
AcDbLine
 10
3982.426034866594
 20
3907.348694766937
 30
0.0
 11
3982.426034866594
 21
3548.431828606207
 31
0.0
  0
LINE
  5
1327D
330
747D
100
AcDbEntity
  8
部品1
 48
50.0
100
AcDbLine
 10
3962.426034866594
 20
3907.348694766937
 30
0.0
 11
3962.426034866594
 21
3548.431828606207
 31
0.0
  0
LINE
  5
1327E
330
747D
100
AcDbEntity
  8
部品1
 48
50.0
100
AcDbLine
 10
4002.426034866593
 20
3907.348694766937
 30
0.0
 11
4002.426034866593
 21
3548.431828606207
 31
0.0
  0
LINE
  5
1327F
330
747D
100
AcDbEntity
  8
部品1
 48
50.0
100
AcDbLine
 10
3937.426034866594
 20
3548.431828606207
 30
0.0
 11
3937.426034866594
 21
3698.431828606209
 31
0.0
  0
LINE
  5
13280
330
747D
100
AcDbEntity
  8
部品1
 48
50.0
100
AcDbLine
 10
4027.426034866594
 20
3548.431828606207
 30
0.0
 11
4027.426034866594
 21
3698.431828606209
 31
0.0
  0
LINE
  5
13282
330
747D
100
AcDbEntity
  8
部品1
 48
50.0
100
AcDbLine
 10
6852.426034866595
 20
3548.4318286062
 30
0.0
 11
6852.426034866595
 21
1880.562576328018
 31
0.0
  0
LINE
  5
13283
330
747D
100
AcDbEntity
  8
部品1
 48
50.0
100
AcDbLine
 10
6772.426034866594
 20
3548.4318286062
 30
0.0
 11
6772.426034866594
 21
1880.562576328018
 31
0.0
  0
LINE
  5
13284
330
747D
100
AcDbEntity
  8
細線
 48
50.0
100
AcDbLine
 10
5270.174838623318
 20
1830.562576328023
 30
0.0
 11
5320.174838623318
 21
1880.562576328023
 31
0.0
  0
LINE
  5
13285
330
747D
100
AcDbEntity
  8
細線
 48
50.0
100
AcDbLine
 10
5243.23405862332
 20
1830.562576328023
 30
0.0
 11
5293.23405862332
 21
1880.562576328023
 31
0.0
  0
LINE
  5
13286
330
747D
100
AcDbEntity
  8
細線
 48
50.0
100
AcDbLine
 10
5297.115618623319
 20
1830.562576328023
 30
0.0
 11
5347.115618623319
 21
1880.562576328023
 31
0.0
  0
LINE
  5
13292
330
747D
100
AcDbEntity
  8
点線
 48
18.0
100
AcDbLine
 10
6852.426034866595
 20
1880.562576328018
 30
0.0
 11
6852.426034866595
 21
1830.562576328018
 31
0.0
  0
LINE
  5
13293
330
747D
100
AcDbEntity
  8
点線
 48
18.0
100
AcDbLine
 10
6772.426034866594
 20
1880.562576328018
 30
0.0
 11
6772.426034866594
 21
1830.562576328018
 31
0.0
  0
LINE
  5
13297
330
747D
100
AcDbEntity
  8
部品1
 48
50.0
100
AcDbLine
 10
7062.426034866594
 20
1880.562576328018
 30
0.0
 11
7062.426034866594
 21
1830.562576328018
 31
0.0
  0
LINE
  5
13298
330
747D
100
AcDbEntity
  8
部品1
 48
50.0
100
AcDbLine
 10
6999.426034866594
 20
3909.969012140656
 30
0.0
 11
6844.426034866593
 21
3909.969012140654
 31
0.0
  0
LINE
  5
13299
330
747D
100
AcDbEntity
  8
部品1
 48
50.0
100
AcDbLine
 10
7022.426034866594
 20
3900.228017808705
 30
0.0
 11
6844.426034866593
 21
3900.228017808704
 31
0.0
  0
ARC
  5
1329A
330
747D
100
AcDbEntity
  8
部品1
 48
50.0
100
AcDbCircle
 10
6842.426034866594
 20
3846.818164454474
 30
0.0
 40
2.0
100
AcDbArc
 50
270.0
 51
0.0
  0
ARC
  5
1329B
330
747D
100
AcDbEntity
  8
部品1
 48
50.0
100
AcDbCircle
 10
6782.426034866595
 20
3846.818164454474
 30
0.0
 40
2.0
100
AcDbArc
 50
180.0
 51
270.0
  0
LINE
  5
1329C
330
747D
100
AcDbEntity
  8
部品1
 48
50.0
100
AcDbLine
 10
6792.426034866593
 20
3844.818164454474
 30
0.0
 11
6782.426034866595
 21
3844.818164454474
 31
0.0
  0
LINE
  5
1329D
330
747D
100
AcDbEntity
  8
部品1
 48
50.0
100
AcDbLine
 10
6844.426034866593
 20
3909.348694766929
 30
0.0
 11
6844.426034866593
 21
3846.818164454474
 31
0.0
  0
LINE
  5
1329E
330
747D
100
AcDbEntity
  8
部品1
 48
50.0
100
AcDbLine
 10
6780.426034866593
 20
3909.348694766929
 30
0.0
 11
6780.426034866593
 21
3846.818164454474
 31
0.0
  0
LINE
  5
1329F
330
747D
100
AcDbEntity
  8
部品1
 48
50.0
100
AcDbLine
 10
6842.426034866594
 20
3844.818164454474
 30
0.0
 11
6832.426034866594
 21
3844.818164454474
 31
0.0
  0
LINE
  5
132A0
330
747D
100
AcDbEntity
  8
細線
 48
50.0
100
AcDbLine
 10
6844.426034866593
 20
3922.897875741634
 30
0.0
 11
6780.426034866593
 21
3922.897875741633
 31
0.0
  0
LINE
  5
132A1
330
747D
100
AcDbEntity
  8
細線
 48
50.0
100
AcDbLine
 10
6844.426034866593
 20
3932.897875741634
 30
0.0
 11
6780.426034866593
 21
3932.897875741633
 31
0.0
  0
ARC
  5
132A2
330
747D
100
AcDbEntity
  8
部品1
 48
50.0
100
AcDbCircle
 10
6782.426034866595
 20
3909.348694766929
 30
0.0
 40
2.0
100
AcDbArc
 50
180.0
 51
270.0
  0
ARC
  5
132A3
330
747D
100
AcDbEntity
  8
部品1
 48
50.0
100
AcDbCircle
 10
6842.426034866594
 20
3909.348694766929
 30
0.0
 40
2.0
100
AcDbArc
 50
270.0
 51
359.9999999999983
  0
LINE
  5
132A4
330
747D
100
AcDbEntity
  8
部品1
 48
50.0
100
AcDbLine
 10
6842.426034866594
 20
3907.348694766929
 30
0.0
 11
6782.426034866595
 21
3907.348694766929
 31
0.0
  0
LINE
  5
132A5
330
747D
100
AcDbEntity
  8
部品1
 48
50.0
100
AcDbLine
 10
6792.426034866593
 20
3698.431828606203
 30
0.0
 11
6767.426034866594
 21
3698.431828606203
 31
0.0
  0
LINE
  5
132A6
330
747D
100
AcDbEntity
  8
部品1
 48
50.0
100
AcDbLine
 10
6832.426034866594
 20
3907.348694766931
 30
0.0
 11
6832.426034866594
 21
3548.431828606202
 31
0.0
  0
LINE
  5
132A7
330
747D
100
AcDbEntity
  8
部品1
 48
50.0
100
AcDbLine
 10
6792.426034866593
 20
3907.348694766931
 30
0.0
 11
6792.426034866593
 21
3548.431828606202
 31
0.0
  0
LINE
  5
132A8
330
747D
100
AcDbEntity
  8
部品1
 48
50.0
100
AcDbLine
 10
6857.426034866595
 20
3548.431828606202
 30
0.0
 11
6857.426034866595
 21
3698.431828606203
 31
0.0
  0
LINE
  5
132A9
330
747D
100
AcDbEntity
  8
部品1
 48
50.0
100
AcDbLine
 10
6767.426034866594
 20
3548.431828606202
 30
0.0
 11
6767.426034866594
 21
3698.431828606203
 31
0.0
  0
LINE
  5
132AA
330
747D
100
AcDbEntity
  8
部品1
 48
50.0
100
AcDbLine
 10
6812.426034866594
 20
3907.348694766931
 30
0.0
 11
6812.426034866594
 21
3548.431828606202
 31
0.0
  0
LINE
  5
132AB
330
747D
100
AcDbEntity
  8
部品1
 48
50.0
100
AcDbLine
 10
6857.426034866595
 20
3548.431828606202
 30
0.0
 11
6767.426034866594
 21
3548.4318286062
 31
0.0
  0
LINE
  5
132AC
330
747D
100
AcDbEntity
  8
部品1
 48
50.0
100
AcDbLine
 10
6857.426034866595
 20
3698.431828606203
 30
0.0
 11
6832.426034866594
 21
3698.431828606203
 31
0.0
  0
ARC
  5
132AD
330
747D
100
AcDbEntity
  8
部品1
 48
50.0
100
AcDbCircle
 10
7022.426034866594
 20
3920.228017808705
 30
0.0
 40
20.0
100
AcDbArc
 50
270.0
 51
344.0769099234519
  0
ARC
  5
132B0
330
747D
100
AcDbEntity
  8
部品1
 48
50.0
100
AcDbCircle
 10
4012.426034866594
 20
3968.897875741638
 30
0.0
 40
2.0
100
AcDbArc
 50
0.0
 51
90.0
  0
LINE
  5
132B1
330
747D
100
AcDbEntity
  8
細線
 48
50.0
100
AcDbLine
 10
3972.426034866595
 20
3977.046555566363
 30
0.0
 11
3972.426034866595
 21
4081.450581124188
 31
0.0
  0
LINE
  5
132B2
330
747D
100
AcDbEntity
  8
細線
 48
50.0
100
AcDbLine
 10
4014.426034866594
 20
3944.89787574164
 30
0.0
 11
3950.426034866594
 21
3944.897875741638
 31
0.0
  0
LINE
  5
132B3
330
747D
100
AcDbEntity
  8
細線
 48
50.0
100
AcDbLine
 10
4014.426034866594
 20
3954.897875741638
 30
0.0
 11
3950.426034866594
 21
3954.897875741638
 31
0.0
  0
LINE
  5
132B4
330
747D
100
AcDbEntity
  8
部品1
 48
50.0
100
AcDbLine
 10
4012.426034866594
 20
3970.897875741638
 30
0.0
 11
3952.426034866594
 21
3970.897875741638
 31
0.0
  0
ARC
  5
132B5
330
747D
100
AcDbEntity
  8
部品1
 48
50.0
100
AcDbCircle
 10
3952.426034866594
 20
3968.897875741638
 30
0.0
 40
2.0
100
AcDbArc
 50
90.0
 51
180.0
  0
DIMENSION
  5
132B6
330
747D
100
AcDbEntity
  8
寸法
 48
50.0
100
AcDbDimension
  2
*D8
 10
7062.426034866594
 20
4601.702425425577
 30
0.0
 11
7264.378083609763
 21
4601.702425425577
 31
0.0
 12
420.0
 22
0.0
 32
0.0
 70
   160
 71
     5
 42
-1.0
  3
INABA_S30G
100
AcDbAlignedDimension
 13
6812.426034866594
 23
3970.897875741633
 33
0.0
 14
7062.426034866594
 24
4066.450581124181
 34
0.0
100
AcDbRotatedDimension
  0
LINE
  5
132B7
330
747D
100
AcDbEntity
  8
部品1
 48
50.0
100
AcDbLine
 10
6999.426034866594
 20
3969.969012140652
 30
0.0
 11
6844.426034866593
 21
3969.969012140652
 31
0.0
  0
LINE
  5
132B8
330
747D
100
AcDbEntity
  8
部品1
 48
50.0
100
AcDbLine
 10
6999.426034866594
 20
3939.307144620484
 30
0.0
 11
6844.426034866593
 21
3939.307144620484
 31
0.0
  0
LINE
  5
132B9
330
747D
100
AcDbEntity
  8
細線
 48
50.0
100
AcDbLine
 10
6844.426034866593
 20
3944.897875741634
 30
0.0
 11
6780.426034866593
 21
3944.897875741633
 31
0.0
  0
LINE
  5
132BA
330
747D
100
AcDbEntity
  8
細線
 48
50.0
100
AcDbLine
 10
6844.426034866593
 20
3954.897875741633
 30
0.0
 11
6780.426034866593
 21
3954.897875741633
 31
0.0
  0
ARC
  5
132BB
330
747D
100
AcDbEntity
  8
部品1
 48
50.0
100
AcDbCircle
 10
6842.426034866594
 20
3968.897875741633
 30
0.0
 40
2.0
100
AcDbArc
 50
0.0
 51
90.0
  0
ARC
  5
132BC
330
747D
100
AcDbEntity
  8
部品1
 48
50.0
100
AcDbCircle
 10
6782.426034866595
 20
3968.897875741633
 30
0.0
 40
2.0
100
AcDbArc
 50
90.0
 51
180.0
  0
LINE
  5
132BD
330
747D
100
AcDbEntity
  8
部品1
 48
50.0
100
AcDbLine
 10
6842.426034866594
 20
3970.897875741633
 30
0.0
 11
6782.426034866595
 21
3970.897875741633
 31
0.0
  0
ARC
  5
132BE
330
747D
100
AcDbEntity
  8
部品1
 48
50.0
100
AcDbCircle
 10
7047.426034866593
 20
3989.632043366527
 30
0.0
 40
15.0
100
AcDbArc
 50
344.0769099234545
 51
0.0
  0
LINE
  5
132BF
330
747D
100
AcDbEntity
  8
部品1
 48
50.0
100
AcDbLine
 10
7062.426034866594
 20
4066.450581124181
 30
0.0
 11
7062.426034866594
 21
3989.632043366527
 31
0.0
  0
ARC
  5
132C0
330
747D
100
AcDbEntity
  8
細線
 48
50.0
100
AcDbCircle
 10
7008.845812205176
 20
4017.027143629729
 30
0.0
 40
3.0
100
AcDbArc
 50
270.0
 51
344.0769099234517
  0
ARC
  5
132C1
330
747D
100
AcDbEntity
  8
細線
 48
50.0
100
AcDbCircle
 10
7014.052306566068
 20
4035.276767503647
 30
0.0
 40
3.0
100
AcDbArc
 50
344.0769099234531
 51
90.0
  0
ARC
  5
132C2
330
747D
100
AcDbEntity
  8
細線
 48
50.0
100
AcDbCircle
 10
7012.20741876519
 20
4012.407532190143
 30
0.0
 40
10.0
100
AcDbArc
 50
270.0
 51
344.0769099234529
  0
ARC
  5
132C3
330
747D
100
AcDbEntity
  8
細線
 48
50.0
100
AcDbCircle
 10
7020.049800975155
 20
4039.89637894323
 30
0.0
 40
10.0
100
AcDbArc
 50
344.0769099234531
 51
90.0
  0
LINE
  5
132C4
330
747D
100
AcDbEntity
  8
細線
 48
50.0
100
AcDbLine
 10
7029.66610923992
 20
4037.152911181977
 30
0.0
 11
7021.823727029953
 21
4009.66406442889
 31
0.0
  0
LINE
  5
132C5
330
747D
100
AcDbEntity
  8
細線
 48
50.0
100
AcDbLine
 10
7016.937199045499
 20
4034.453727175273
 30
0.0
 11
7011.730704684605
 21
4016.204103301355
 31
0.0
  0
LINE
  5
132C6
330
747D
100
AcDbEntity
  8
部品1
 48
50.0
100
AcDbLine
 10
7061.850497263741
 20
4062.3353794823
 30
0.0
 11
7041.658651396121
 21
3991.559620043851
 31
0.0
  0
ARC
  5
132C7
330
747D
100
AcDbEntity
  8
部品1
 48
50.0
100
AcDbCircle
 10
7022.426034866594
 20
3997.046555566356
 30
0.0
 40
20.0
100
AcDbArc
 50
270.0
 51
344.0769099234519
  0
ARC
  5
132C8
330
747D
100
AcDbEntity
  8
部品1
 48
50.0
100
AcDbCircle
 10
7047.426034866593
 20
4066.450581124181
 30
0.0
 40
15.0
100
AcDbArc
 50
344.0769099234545
 51
90.0
  0
LINE
  5
132C9
330
747D
100
AcDbEntity
  8
部品1
 48
50.0
100
AcDbLine
 10
6999.426034866594
 20
4081.450581124182
 30
0.0
 11
6999.426034866594
 21
3977.046555566357
 31
0.0
  0
LWPOLYLINE
  5
132CA
330
747D
100
AcDbEntity
  8
部品1
100
AcDbPolyline
 90
        4
 70
     1
 43
0.0
 10
9675.916963248008
 20
1149.796007513017
 10
10322.94833852853
 20
1149.796007513017
 10
10322.94833852853
 20
957.2758516958773
 10
9675.916963248008
 20
957.2758516958773
  0
TEXT
  5
132CB
330
747D
100
AcDbEntity
  8
仕様書枠
 62
     7
 48
50.0
100
AcDbText
 10
9707.332040009539
 20
995.9312831628356
 30
0.0
 40
112.0
  1
側 面 図
  7
STYLE2
100
AcDbText
  0
DIMENSION
  5
132CC
330
747D
100
AcDbEntity
  8
寸法
 48
50.0
100
AcDbDimension
  2
*D9
 10
8607.525986420126
 20
3990.382911937201
 30
0.0
 11
8609.594332404681
 21
4042.091561551055
 31
0.0
 12
-210.0
 22
0.0000000000006821
 32
0.0
 70
   160
 71
     5
 42
-1.0
 51
2.290610042638495
  3
INABA_S30G
100
AcDbAlignedDimension
 13
8920.703069886604
 23
4081.438595505014
 33
0.0
 14
8940.934895691109
 24
3977.046555566363
 34
0.0
 50
87.70938995736154
100
AcDbRotatedDimension
  0
LINE
  5
132CD
330
747D
100
AcDbEntity
  8
部品1
 48
50.0
100
AcDbLine
 10
9704.141797825386
 20
3886.470298665648
 30
0.0
 11
9659.737189551659
 21
3939.262580729354
 31
0.0
  0
LINE
  5
132CE
330
747D
100
AcDbEntity
  8
部品1
 48
50.0
100
AcDbLine
 10
9573.581219163537
 20
3891.692721812121
 30
0.0
 11
9538.073154758105
 21
3933.907974338906
 31
0.0
  0
LINE
  5
132CF
330
747D
100
AcDbEntity
  8
部品1
 48
50.0
100
AcDbLine
 10
9089.572782314773
 20
3964.809746433061
 30
0.0
 11
9100.487035554801
 21
3916.048296064385
 31
0.0
  0
LINE
  5
132D0
330
747D
100
AcDbEntity
  8
細線
 48
50.0
100
AcDbLine
 10
10870.69690516999
 20
3958.552410122883
 30
0.0
 11
10861.5945107462
 21
3931.894914532929
 31
0.0
  0
LINE
  5
132D1
330
747D
100
AcDbEntity
  8
部品1
 48
50.0
100
AcDbLine
 10
10842.74142386794
 20
4004.557061345759
 30
0.0
 11
10838.60473189883
 21
3901.139762118056
 31
0.0
  0
LINE
  5
132D2
330
747D
100
AcDbEntity
  8
部品1
 48
50.0
100
AcDbLine
 10
10904.29882402891
 20
3982.803502035401
 30
0.0
 11
10880.72521271709
 21
3913.76524569033
 31
0.0
  0
LINE
  5
132D3
330
747D
100
AcDbEntity
  8
細線
 48
50.0
100
AcDbLine
 10
8952.457211377332
 20
4001.105255105179
 30
0.0
 11
10851.73131388433
 21
3925.1342910049
 31
0.0
  0
LINE
  5
132D4
330
747D
100
AcDbEntity
  8
部品1
 48
50.0
100
AcDbLine
 10
9884.619929657562
 20
3939.299154207704
 30
0.0
 11
9882.14191127993
 21
3877.348694766955
 31
0.0
  0
LINE
  5
132D5
330
747D
100
AcDbEntity
  8
部品1
 48
50.0
100
AcDbLine
 10
9925.587168965151
 20
3937.660464635404
 30
0.0
 11
9923.109150587523
 21
3875.710005194651
 31
0.0
  0
LINE
  5
132D6
330
747D
100
AcDbEntity
  8
部品1
 48
50.0
100
AcDbLine
 10
9175.587168965149
 20
3967.660464635404
 30
0.0
 11
9173.109150587519
 21
3905.710005194652
 31
0.0
  0
LINE
  5
132D7
330
747D
100
AcDbEntity
  8
部品1
 48
50.0
100
AcDbLine
 10
9134.619929657562
 20
3969.299154207705
 30
0.0
 11
9132.14191127993
 21
3907.348694766954
 31
0.0
  0
LINE
  5
132D8
330
747D
100
AcDbEntity
  8
部品1
 48
50.0
100
AcDbLine
 10
8940.934895691109
 20
3977.046555566364
 30
0.0
 11
10860.99881899337
 21
3900.243998634273
 31
0.0
  0
LINE
  5
132D9
330
747D
100
AcDbEntity
  8
細線
 48
50.0
100
AcDbLine
 10
10171.31965074532
 20
1830.562576328023
 30
0.0
 11
10218.58483785983
 21
1877.827763442537
 31
0.0
  0
LINE
  5
132DA
330
747D
100
AcDbEntity
  8
細線
 48
50.0
100
AcDbLine
 10
10144.37887074531
 20
1830.562576328023
 30
0.0
 11
10191.91079825587
 21
1878.094503838578
 31
0.0
  0
LINE
  5
132DC
330
747D
100
AcDbEntity
  8
部品1
 48
50.0
100
AcDbLine
 10
10895.10404927386
 20
1871.062571328398
 30
0.0
 11
9945.103549311333
 21
1880.562576328023
 31
0.0
  0
LINE
  5
132DD
330
747D
100
AcDbEntity
  8
部品1
 48
50.0
100
AcDbLine
 10
10666.09087772324
 20
3750.352239207044
 30
0.0
 11
10025.10354931135
 21
3517.051931123301
 31
0.0
  0
LINE
  5
132DE
330
747D
100
AcDbEntity
  8
部品1
 48
50.0
100
AcDbLine
 10
10770.10354931135
 20
3852.060422000178
 30
0.0
 11
10004.58234071181
 21
3573.433488370455
 31
0.0
  0
LINE
  5
132DF
330
747D
100
AcDbEntity
  8
部品1
 48
50.0
100
AcDbLine
 10
10093.07624793086
 20
3868.41092146079
 30
0.0
 11
10215.1374250379
 21
3863.528474376507
 31
0.0
  0
LINE
  5
132E0
330
747D
100
AcDbEntity
  8
部品1
 48
50.0
100
AcDbLine
 10
10149.79869757514
 20
3926.190004290366
 30
0.0
 11
10241.67890539389
 21
3922.514795977616
 31
0.0
  0
LINE
  5
132E1
330
747D
100
AcDbEntity
  8
部品1
 48
50.0
100
AcDbLine
 10
9950.103549311357
 20
3548.431828606207
 30
0.0
 11
10215.1374250379
 21
3863.528474376507
 31
0.0
  0
LINE
  5
132E2
330
747D
100
AcDbEntity
  8
部品1
 48
50.0
100
AcDbLine
 10
10025.10354931135
 20
3487.051931123301
 30
0.0
 11
10025.10354931135
 21
1962.099725102284
 31
0.0
  0
LINE
  5
132E3
330
747D
100
AcDbEntity
  8
部品1
 48
50.0
100
AcDbLine
 10
9965.103549311358
 20
3517.051931123301
 30
0.0
 11
9965.103549311358
 21
1962.099725102286
 31
0.0
  0
LINE
  5
132E4
330
747D
100
AcDbEntity
  8
部品1
 48
50.0
100
AcDbLine
 10
9945.103549311356
 20
3548.431828606209
 30
0.0
 11
9945.103549311356
 21
1880.562576328023
 31
0.0
  0
LINE
  5
132E5
330
747D
100
AcDbEntity
  8
部品1
 48
50.0
100
AcDbLine
 10
9865.103549311356
 20
3548.431828606207
 30
0.0
 11
9865.103549311356
 21
1880.562576328023
 31
0.0
  0
LINE
  5
132E6
330
747D
100
AcDbEntity
  8
部品1
 48
50.0
100
AcDbLine
 10
8915.103049348855
 20
1871.062571328398
 30
0.0
 11
9865.103549311378
 21
1880.562576328023
 31
0.0
  0
LINE
  5
132E7
330
747D
100
AcDbEntity
  8
細線
 48
50.0
100
AcDbLine
 10
8994.51120966987
 20
1830.562576328023
 30
0.0
 11
9036.222398158336
 21
1872.273764816491
 31
0.0
  0
LINE
  5
132E8
330
747D
100
AcDbEntity
  8
細線
 48
50.0
100
AcDbLine
 10
9048.39276966987
 20
1830.562576328023
 30
0.0
 11
9090.648216340156
 21
1872.81802299831
 31
0.0
  0
LINE
  5
132E9
330
747D
100
AcDbEntity
  8
細線
 48
50.0
100
AcDbLine
 10
9021.451989669868
 20
1830.562576328023
 30
0.0
 11
9063.435307249241
 21
1872.5458939074
 31
0.0
  0
LINE
  5
132EA
330
747D
100
AcDbEntity
  8
部品1
 48
50.0
100
AcDbLine
 10
8915.103049348855
 20
1871.062571328398
 30
0.0
 11
8905.103549311355
 21
1860.962576328023
 31
0.0
  0
LINE
  5
132EB
330
747D
100
AcDbEntity
  8
部品1
 48
50.0
100
AcDbLine
 10
8905.103549311355
 20
1860.962576328023
 30
0.0
 11
8905.103549311355
 21
1830.562576328023
 31
0.0
  0
LINE
  5
132EF
330
747D
100
AcDbEntity
  8
細線
 48
50.0
100
AcDbLine
 10
9668.030430386847
 20
1830.562576328023
 30
0.0
 11
9716.544843326996
 21
1879.076989268178
 31
0.0
  0
LINE
  5
132F0
330
747D
100
AcDbEntity
  8
細線
 48
50.0
100
AcDbLine
 10
9641.089650386845
 20
1830.562576328023
 30
0.0
 11
9689.331934236088
 21
1878.804860177268
 31
0.0
  0
LINE
  5
132F1
330
747D
100
AcDbEntity
  8
細線
 48
50.0
100
AcDbLine
 10
9694.971210386848
 20
1830.562576328023
 30
0.0
 11
9743.757752417907
 21
1879.349118359087
 31
0.0
  0
LINE
  5
132F2
330
747D
100
AcDbEntity
  8
部品1
 48
50.0
100
AcDbLine
 10
9945.103549311356
 20
1880.562576328023
 30
0.0
 11
9865.103549311378
 21
1880.562576328023
 31
0.0
  0
LINE
  5
132F3
330
747D
100
AcDbEntity
  8
部品1
 48
50.0
100
AcDbLine
 10
9945.103549311356
 20
1880.562576328023
 30
0.0
 11
9865.103549311378
 21
1880.562576328023
 31
0.0
  0
LINE
  5
132F4
330
747D
100
AcDbEntity
  8
点線
 48
18.0
100
AcDbLine
 10
9865.103549311356
 20
1880.562576328023
 30
0.0
 11
9865.103549311356
 21
1830.562576328023
 31
0.0
  0
LINE
  5
132F5
330
747D
100
AcDbEntity
  8
点線
 48
18.0
100
AcDbLine
 10
9945.103549311356
 20
1880.562576328023
 30
0.0
 11
9945.103549311356
 21
1830.562576328023
 31
0.0
  0
LINE
  5
132F6
330
747D
100
AcDbEntity
  8
部品1
 48
50.0
100
AcDbLine
 10
10026.60354931135
 20
2017.099725102286
 30
0.0
 11
10026.60354931135
 21
1997.099725102286
 31
0.0
  0
CIRCLE
  5
132F7
330
747D
100
AcDbEntity
  8
細線
 48
50.0
100
AcDbCircle
 10
9955.103549311356
 20
2007.099725102286
 30
0.0
 40
6.5
  0
LWPOLYLINE
  5
132F8
330
747D
100
AcDbEntity
  8
細線
 48
50.0
100
AcDbPolyline
 90
        6
 70
     1
 43
0.0
 10
9960.103549311355
 20
2009.986476448235
 10
9955.103549311356
 20
2012.873227794182
 10
9950.103549311357
 20
2009.986476448235
 10
9950.103549311357
 20
2004.212973756338
 10
9955.103549311356
 20
2001.32622241039
 10
9960.103549311355
 20
2004.212973756338
  0
LINE
  5
132F9
330
747D
100
AcDbEntity
  8
部品1
 48
50.0
100
AcDbLine
 10
10026.60354931135
 20
2017.099725102286
 30
0.0
 11
9945.103549311356
 21
2017.099725102286
 31
0.0
  0
LINE
  5
132FA
330
747D
100
AcDbEntity
  8
部品1
 48
50.0
100
AcDbLine
 10
10026.60354931135
 20
1997.099725102286
 30
0.0
 11
9945.103549311356
 21
1997.099725102286
 31
0.0
  0
LINE
  5
132FB
330
747D
100
AcDbEntity
  8
細線
 48
50.0
100
AcDbLine
 10
10025.10354931135
 20
1987.099725102284
 30
0.0
 11
9965.103549311359
 21
1987.099725102286
 31
0.0
  0
LINE
  5
132FC
330
747D
100
AcDbEntity
  8
部品1
 48
50.0
100
AcDbLine
 10
10046.71647958944
 20
1954.233261805801
 30
0.0
 11
10031.9197945238
 21
1898.96068170437
 31
0.0
  0
LINE
  5
132FD
330
747D
100
AcDbEntity
  8
細線
 48
50.0
100
AcDbLine
 10
10025.10354931135
 20
1962.099725102284
 30
0.0
 11
10004.58234071182
 21
1905.718167855132
 31
0.0
  0
ARC
  5
132FE
330
747D
100
AcDbEntity
  8
部品1
 48
50.0
100
AcDbCircle
 10
10025.10354931135
 20
1962.099725102286
 30
0.0
 40
60.0
100
AcDbArc
 50
180.0
 51
249.9999999999999
  0
LINE
  5
132FF
330
747D
100
AcDbEntity
  8
部品1
 48
50.0
100
AcDbLine
 10
10025.10354931135
 20
1962.099725102284
 30
0.0
 11
10046.71647958944
 21
1954.233261805801
 31
0.0
  0
LINE
  5
13300
330
747D
100
AcDbEntity
  8
部品1
 48
50.0
100
AcDbLine
 10
10005.6084011418
 20
1908.53724571749
 30
0.0
 11
10031.91979452381
 21
1898.960681704368
 31
0.0
  0
LINE
  5
13301
330
747D
100
AcDbEntity
  8
部品1
 48
50.0
100
AcDbLine
 10
9865.103549311356
 20
1880.562576328023
 30
0.0
 11
9945.103549311333
 21
1880.562576328023
 31
0.0
  0
LINE
  5
13302
330
747D
100
AcDbEntity
  8
寸法
 48
50.0
100
AcDbLine
 10
9906.789969107512
 20
3035.52061979846
 30
0.0
 11
9262.146444135895
 21
2830.485466770116
 31
0.0
  0
TEXT
  5
13303
330
747D
100
AcDbEntity
  8
部品1
 48
50.0
100
AcDbText
 10
9098.632707615092
 20
2739.156775525041
 30
0.0
 40
120.0
  1
②
  7
STYLE2
100
AcDbText
  0
LINE
  5
13304
330
747D
100
AcDbEntity
  8
寸法
 48
50.0
100
AcDbLine
 10
9735.183300263159
 20
3713.704443316507
 30
0.0
 11
9262.201354007611
 21
3336.744762581549
 31
0.0
  0
LINE
  5
13305
330
747D
100
AcDbEntity
  8
部品1
 48
50.0
100
AcDbLine
 10
9173.189086664217
 20
3907.708407112095
 30
0.0
 11
9573.581219163544
 21
3891.692721812121
 31
0.0
  0
TEXT
  5
13306
330
747D
100
AcDbEntity
  8
部品1
 48
50.0
100
AcDbText
 10
9108.167780025848
 20
3231.533399241454
 30
0.0
 40
120.0
  1
①
  7
STYLE2
100
AcDbText
  0
LINE
  5
13307
330
747D
100
AcDbEntity
  8
部品1
 48
50.0
100
AcDbLine
 10
9109.845892775648
 20
3908.240535507103
 30
0.0
 11
9132.14191127993
 21
3907.348694766934
 31
0.0
  0
ARC
  5
13308
330
747D
100
AcDbEntity
  8
部品1
 48
50.0
100
AcDbCircle
 10
9110.245573159136
 20
3918.232545094322
 30
0.0
 40
10.0
100
AcDbArc
 50
192.6165368012922
 51
267.7093899573706
  0
LINE
  5
13309
330
747D
100
AcDbEntity
  8
部品1
 48
50.0
100
AcDbLine
 10
9132.14191127993
 20
3907.348694766954
 30
0.0
 11
9173.109150587519
 21
3905.71000519465
 31
0.0
  0
LINE
  5
1330A
330
747D
100
AcDbEntity
  8
部品1
 48
50.0
100
AcDbLine
 10
9704.141797825386
 20
3886.470298665648
 30
0.0
 11
9882.221847356628
 21
3879.347096684397
 31
0.0
  0
LINE
  5
1330B
330
747D
100
AcDbEntity
  8
部品1
 48
50.0
100
AcDbLine
 10
9860.103549311356
 20
3548.431828606207
 30
0.0
 11
9950.103549311357
 21
3548.431828606209
 31
0.0
  0
LINE
  5
1330C
330
747D
100
AcDbEntity
  8
部品1
 48
50.0
100
AcDbLine
 10
9860.103549311356
 20
3698.431828606209
 30
0.0
 11
9950.103549311357
 21
3698.431828606209
 31
0.0
  0
CIRCLE
  5
1330D
330
747D
100
AcDbEntity
  8
細線
 48
50.0
100
AcDbCircle
 10
9592.603549311355
 20
3920.955819013882
 30
0.0
 40
9.0
  0
LWPOLYLINE
  5
1330E
330
747D
100
AcDbEntity
  8
細線
 48
50.0
100
AcDbPolyline
 90
        6
 70
     1
 43
0.0
 10
9586.103549311356
 20
3917.203042264152
 10
9592.603549311355
 20
3913.45026551442
 10
9599.103549311356
 20
3917.203042264152
 10
9599.103549311356
 20
3924.708595763617
 10
9592.603549311355
 20
3928.461372513349
 10
9586.103549311356
 20
3924.708595763617
  0
LWPOLYLINE
  5
1330F
330
747D
100
AcDbEntity
  8
細線
 48
50.0
100
AcDbPolyline
 90
        6
 70
     1
 43
0.0
 10
9646.103549311355
 20
3914.803042264153
 10
9652.603549311358
 20
3911.05026551442
 10
9659.103549311357
 20
3914.803042264153
 10
9659.103549311357
 20
3922.308595763617
 10
9652.603549311358
 20
3926.061372513349
 10
9646.103549311355
 20
3922.308595763617
  0
CIRCLE
  5
13310
330
747D
100
AcDbEntity
  8
細線
 48
50.0
100
AcDbCircle
 10
9652.603549311358
 20
3918.555819013885
 30
0.0
 40
9.0
  0
ARC
  5
13311
330
747D
100
AcDbEntity
  8
細線
 48
50.0
100
AcDbCircle
 10
9837.103549311358
 20
3617.255669154366
 30
0.0
 40
3.0
100
AcDbArc
 50
220.0678395028068
 51
359.9999999999987
  0
ARC
  5
13312
330
747D
100
AcDbEntity
  8
細線
 48
50.0
100
AcDbCircle
 10
9837.103549311358
 20
3626.576865853849
 30
0.0
 40
3.0
100
AcDbArc
 50
359.9999999999987
 51
40.0678395028069
  0
ARC
  5
13313
330
747D
100
AcDbEntity
  8
細線
 48
50.0
100
AcDbCircle
 10
9837.103549311358
 20
3674.975821829479
 30
0.0
 40
3.0
100
AcDbArc
 50
220.0678395028065
 51
0.0
  0
ARC
  5
13314
330
747D
100
AcDbEntity
  8
細線
 48
50.0
100
AcDbCircle
 10
9837.103549311358
 20
3684.297018528962
 30
0.0
 40
3.0
100
AcDbArc
 50
359.9999999999985
 51
40.06783950280634
  0
LINE
  5
13315
330
747D
100
AcDbEntity
  8
細線
 48
50.0
100
AcDbLine
 10
9840.103549311358
 20
3626.576865853849
 30
0.0
 11
9840.103549311358
 21
3617.255669154366
 31
0.0
  0
LINE
  5
13316
330
747D
100
AcDbEntity
  8
細線
 48
50.0
100
AcDbLine
 10
9840.103549311358
 20
3684.297018528962
 30
0.0
 11
9840.103549311358
 21
3674.975821829479
 31
0.0
  0
ARC
  5
13317
330
747D
100
AcDbEntity
  8
細線
 48
50.0
100
AcDbCircle
 10
9687.973410718736
 20
3861.596642303393
 30
0.0
 40
3.0
100
AcDbArc
 50
40.06783950280669
 51
87.70938995736109
  0
ARC
  5
13318
330
747D
100
AcDbEntity
  8
細線
 48
50.0
100
AcDbCircle
 10
9679.860205152699
 20
3861.921170526033
 30
0.0
 40
3.0
100
AcDbArc
 50
87.70938995736125
 51
220.0678395028065
  0
ARC
  5
13319
330
747D
100
AcDbEntity
  8
細線
 48
50.0
100
AcDbCircle
 10
9637.733567160649
 20
3863.606236045715
 30
0.0
 40
3.0
100
AcDbArc
 50
40.06783950280684
 51
87.70938995735884
  0
ARC
  5
1331A
330
747D
100
AcDbEntity
  8
細線
 48
50.0
100
AcDbCircle
 10
9629.620361594611
 20
3863.930764268357
 30
0.0
 40
3.0
100
AcDbArc
 50
87.70938995736102
 51
220.0678395028068
  0
LINE
  5
1331B
330
747D
100
AcDbEntity
  8
細線
 48
50.0
100
AcDbLine
 10
9679.980109267745
 20
3864.9187734022
 30
0.0
 11
9688.093314833784
 21
3864.594245179557
 31
0.0
  0
LINE
  5
1331C
330
747D
100
AcDbEntity
  8
細線
 48
50.0
100
AcDbLine
 10
9834.807700817691
 20
3673.04473931075
 30
0.0
 11
9677.564356659033
 21
3859.990088007304
 31
0.0
  0
LINE
  5
1331D
330
747D
100
AcDbEntity
  8
細線
 48
50.0
100
AcDbLine
 10
9839.399397805021
 20
3628.507948372576
 30
0.0
 11
9640.029415654314
 21
3865.537318564443
 31
0.0
  0
LINE
  5
1331E
330
747D
100
AcDbEntity
  8
細線
 48
50.0
100
AcDbLine
 10
9839.399397805021
 20
3686.228101047692
 30
0.0
 11
9690.269259212398
 21
3863.527724822122
 31
0.0
  0
LINE
  5
1331F
330
747D
100
AcDbEntity
  8
細線
 48
50.0
100
AcDbLine
 10
9834.807700817689
 20
3615.324586635639
 30
0.0
 11
9627.324513100951
 21
3861.99968174963
 31
0.0
  0
LINE
  5
13320
330
747D
100
AcDbEntity
  8
細線
 48
50.0
100
AcDbLine
 10
9629.740265709656
 20
3866.928367144524
 30
0.0
 11
9637.853471275697
 21
3866.603838921882
 31
0.0
  0
LINE
  5
13321
330
747D
100
AcDbEntity
  8
部品1
 48
50.0
100
AcDbLine
 10
9704.041877729514
 20
3883.972296268844
 30
0.0
 11
9704.141797825386
 21
3886.470298665648
 31
0.0
  0
LINE
  5
13322
330
747D
100
AcDbEntity
  8
部品1
 48
50.0
100
AcDbLine
 10
9573.481299067669
 20
3889.194719415318
 30
0.0
 11
9573.581219163544
 21
3891.692721812121
 31
0.0
  0
LINE
  5
13323
330
747D
100
AcDbEntity
  8
部品1
 48
50.0
100
AcDbLine
 10
9573.481299067678
 20
3889.194719415318
 30
0.0
 11
9704.041877729515
 21
3883.972296268844
 31
0.0
  0
LINE
  5
13324
330
747D
100
AcDbEntity
  8
部品1
 48
50.0
100
AcDbLine
 10
9860.103549311356
 20
3698.431828606209
 30
0.0
 11
9704.041877729515
 21
3883.972296268844
 31
0.0
  0
LINE
  5
13325
330
747D
100
AcDbEntity
  8
部品1
 48
50.0
100
AcDbLine
 10
9860.103549311356
 20
3548.431828606207
 30
0.0
 11
9573.481299067669
 21
3889.194719415316
 31
0.0
  0
LINE
  5
13326
330
747D
100
AcDbEntity
  8
部品1
 48
50.0
100
AcDbLine
 10
9860.103549311356
 20
3698.431828606209
 30
0.0
 11
9860.103549311356
 21
3548.431828606207
 31
0.0
  0
CIRCLE
  5
13327
330
747D
100
AcDbEntity
  8
細線
 48
50.0
100
AcDbCircle
 10
9955.103549311356
 20
3497.051931123301
 30
0.0
 40
6.5
  0
LWPOLYLINE
  5
13328
330
747D
100
AcDbEntity
  8
細線
 48
50.0
100
AcDbPolyline
 90
        6
 70
     1
 43
0.0
 10
9960.103549311355
 20
3499.93868246925
 10
9955.103549311356
 20
3502.825433815198
 10
9950.103549311357
 20
3499.93868246925
 10
9950.103549311357
 20
3494.165179777354
 10
9955.103549311356
 20
3491.278428431406
 10
9960.103549311355
 20
3494.165179777354
  0
LINE
  5
13329
330
747D
100
AcDbEntity
  8
部品1
 48
50.0
100
AcDbLine
 10
10026.60354931135
 20
3507.051931123302
 30
0.0
 11
10026.60354931135
 21
3487.051931123301
 31
0.0
  0
LINE
  5
1332A
330
747D
100
AcDbEntity
  8
部品1
 48
50.0
100
AcDbLine
 10
10026.60354931135
 20
3487.051931123301
 30
0.0
 11
9945.103549311356
 21
3487.051931123301
 31
0.0
  0
LINE
  5
1332B
330
747D
100
AcDbEntity
  8
部品1
 48
50.0
100
AcDbLine
 10
10026.60354931135
 20
3507.051931123302
 30
0.0
 11
9945.103549311356
 21
3507.051931123302
 31
0.0
  0
LINE
  5
1332C
330
747D
100
AcDbEntity
  8
細線
 48
50.0
100
AcDbLine
 10
10048.595864831
 20
3525.602434706442
 30
0.0
 11
10028.07465623146
 21
3581.983991953597
 31
0.0
  0
LINE
  5
1332D
330
747D
100
AcDbEntity
  8
細線
 48
50.0
100
AcDbLine
 10
10025.10354931135
 20
3517.051931123301
 30
0.0
 11
9965.103549311358
 21
3517.051931123301
 31
0.0
  0
ARC
  5
1332E
330
747D
100
AcDbEntity
  8
部品1
 48
50.0
100
AcDbCircle
 10
10025.10354931135
 20
3517.051931123301
 30
0.0
 40
60.0
100
AcDbArc
 50
110.0
 51
180.0
  0
LINE
  5
1332F
330
747D
100
AcDbEntity
  8
部品1
 48
50.0
100
AcDbLine
 10
10025.10354931135
 20
3517.051931123301
 30
0.0
 11
10025.10354931135
 21
3507.051931123302
 31
0.0
  0
CIRCLE
  5
13330
330
747D
100
AcDbEntity
  8
細線
 48
50.0
100
AcDbCircle
 10
10157.60354931135
 20
3898.355819013884
 30
0.0
 40
9.0
  0
LWPOLYLINE
  5
13331
330
747D
100
AcDbEntity
  8
細線
 48
50.0
100
AcDbPolyline
 90
        6
 70
     1
 43
0.0
 10
10151.10354931135
 20
3894.603042264153
 10
10157.60354931135
 20
3890.850265514421
 10
10164.10354931135
 20
3894.603042264153
 10
10164.10354931135
 20
3902.108595763618
 10
10157.60354931135
 20
3905.861372513351
 10
10151.10354931135
 20
3902.108595763618
  0
LWPOLYLINE
  5
13332
330
747D
100
AcDbEntity
  8
細線
 48
50.0
100
AcDbPolyline
 90
        6
 70
     1
 43
0.0
 10
9898.603549311356
 20
3562.679051856476
 10
9905.103549311355
 20
3558.926275106744
 10
9911.603549311356
 20
3562.679051856476
 10
9911.603549311356
 20
3570.18460535594
 10
9905.103549311355
 20
3573.937382105672
 10
9898.603549311356
 20
3570.18460535594
  0
CIRCLE
  5
13333
330
747D
100
AcDbEntity
  8
細線
 48
50.0
100
AcDbCircle
 10
9905.103549311355
 20
3566.431828606207
 30
0.0
 40
9.0
  0
CIRCLE
  5
13334
330
747D
100
AcDbEntity
  8
細線
 48
50.0
100
AcDbCircle
 10
9905.103549311355
 20
3623.431828606209
 30
0.0
 40
9.0
  0
LWPOLYLINE
  5
13335
330
747D
100
AcDbEntity
  8
細線
 48
50.0
100
AcDbPolyline
 90
        6
 70
     1
 43
0.0
 10
9898.603549311356
 20
3619.679051856477
 10
9905.103549311355
 20
3615.926275106744
 10
9911.603549311356
 20
3619.679051856477
 10
9911.603549311356
 20
3627.184605355942
 10
9905.103549311355
 20
3630.937382105673
 10
9898.603549311356
 20
3627.184605355942
  0
LWPOLYLINE
  5
13336
330
747D
100
AcDbEntity
  8
細線
 48
50.0
100
AcDbPolyline
 90
        6
 70
     1
 43
0.0
 10
9898.603549311356
 20
3676.679051856477
 10
9905.103549311355
 20
3672.926275106745
 10
9911.603549311356
 20
3676.679051856477
 10
9911.603549311356
 20
3684.184605355941
 10
9905.103549311355
 20
3687.937382105673
 10
9898.603549311356
 20
3684.184605355941
  0
CIRCLE
  5
13337
330
747D
100
AcDbEntity
  8
細線
 48
50.0
100
AcDbCircle
 10
9905.103549311355
 20
3680.431828606209
 30
0.0
 40
9.0
  0
ARC
  5
13338
330
747D
100
AcDbEntity
  8
細線
 48
50.0
100
AcDbCircle
 10
10162.65297587295
 20
3842.609459697223
 30
0.0
 40
3.0
100
AcDbArc
 50
319.932160497193
 51
87.7093899573591
  0
ARC
  5
13339
330
747D
100
AcDbEntity
  8
細線
 48
50.0
100
AcDbCircle
 10
10155.06793426504
 20
3842.91286136154
 30
0.0
 40
3.0
100
AcDbArc
 50
87.70938995736093
 51
139.9321604971935
  0
ARC
  5
1333A
330
747D
100
AcDbEntity
  8
細線
 48
50.0
100
AcDbCircle
 10
10115.68371068413
 20
3844.488230304776
 30
0.0
 40
3.0
100
AcDbArc
 50
319.9321604971932
 51
87.70938995736116
  0
ARC
  5
1333B
330
747D
100
AcDbEntity
  8
細線
 48
50.0
100
AcDbCircle
 10
10108.09866907622
 20
3844.791631969091
 30
0.0
 40
3.0
100
AcDbArc
 50
87.7093899573609
 51
139.9321604971936
  0
LINE
  5
1333C
330
747D
100
AcDbEntity
  8
細線
 48
50.0
100
AcDbLine
 10
10155.18783838009
 20
3845.910464237705
 30
0.0
 11
10162.77287998799
 21
3845.607062573387
 31
0.0
  0
ARC
  5
1333D
330
747D
100
AcDbEntity
  8
細線
 48
50.0
100
AcDbCircle
 10
9973.103549311357
 20
3684.297018528962
 30
0.0
 40
3.0
100
AcDbArc
 50
139.9321604971936
 51
180.0000000000015
  0
LINE
  5
1333E
330
747D
100
AcDbEntity
  8
細線
 48
50.0
100
AcDbLine
 10
9970.103549311357
 20
3684.297018528962
 30
0.0
 11
9970.103549311357
 21
3674.975821829479
 31
0.0
  0
ARC
  5
1333F
330
747D
100
AcDbEntity
  8
細線
 48
50.0
100
AcDbCircle
 10
9973.103549311357
 20
3674.975821829479
 30
0.0
 40
3.0
100
AcDbArc
 50
180.0
 51
319.9321604971935
  0
ARC
  5
13340
330
747D
100
AcDbEntity
  8
細線
 48
50.0
100
AcDbCircle
 10
9973.103549311357
 20
3626.576865853849
 30
0.0
 40
3.0
100
AcDbArc
 50
139.9321604971931
 51
180.0000000000013
  0
LINE
  5
13341
330
747D
100
AcDbEntity
  8
細線
 48
50.0
100
AcDbLine
 10
9970.103549311357
 20
3626.576865853849
 30
0.0
 11
9970.103549311357
 21
3617.255669154366
 31
0.0
  0
ARC
  5
13342
330
747D
100
AcDbEntity
  8
細線
 48
50.0
100
AcDbCircle
 10
9973.103549311357
 20
3617.255669154366
 30
0.0
 40
3.0
100
AcDbArc
 50
180.0000000000013
 51
319.9321604971931
  0
LINE
  5
13343
330
747D
100
AcDbEntity
  8
細線
 48
50.0
100
AcDbLine
 10
9970.807700817692
 20
3686.228101047692
 30
0.0
 11
10105.80282058256
 21
3846.722714487821
 31
0.0
  0
LINE
  5
13344
330
747D
100
AcDbEntity
  8
細線
 48
50.0
100
AcDbLine
 10
9975.39939780502
 20
3673.04473931075
 30
0.0
 11
10117.97955917779
 21
3842.557147786048
 31
0.0
  0
LINE
  5
13345
330
747D
100
AcDbEntity
  8
細線
 48
50.0
100
AcDbLine
 10
9970.807700817692
 20
3628.507948372576
 30
0.0
 11
10152.77208577138
 21
3844.843943880268
 31
0.0
  0
LINE
  5
13346
330
747D
100
AcDbEntity
  8
細線
 48
50.0
100
AcDbLine
 10
9975.399397805025
 20
3615.324586635639
 30
0.0
 11
10164.94882436661
 21
3840.678377178493
 31
0.0
  0
LINE
  5
13347
330
747D
100
AcDbEntity
  8
細線
 48
50.0
100
AcDbLine
 10
10108.21857319127
 20
3847.789234845257
 30
0.0
 11
10115.80361479917
 21
3847.485833180942
 31
0.0
  0
LINE
  5
13348
330
747D
100
AcDbEntity
  8
部品1
 48
50.0
100
AcDbLine
 10
10093.17616802673
 20
3870.908923857599
 30
0.0
 11
10133.69368018373
 21
3919.079868574119
 31
0.0
  0
LINE
  5
13349
330
747D
100
AcDbEntity
  8
部品1
 48
50.0
100
AcDbLine
 10
10093.07624793086
 20
3868.41092146079
 30
0.0
 11
10093.17616802673
 21
3870.908923857596
 31
0.0
  0
ARC
  5
1334A
330
747D
100
AcDbEntity
  8
部品1
 48
50.0
100
AcDbCircle
 10
10148.99933680816
 20
3906.205985115929
 30
0.0
 40
20.0
100
AcDbArc
 50
87.70938995736152
 51
139.9321604971932
  0
LINE
  5
1334B
330
747D
100
AcDbEntity
  8
部品1
 48
50.0
100
AcDbLine
 10
9950.103549311357
 20
3698.431828606209
 30
0.0
 11
10093.07624793086
 21
3868.41092146079
 31
0.0
  0
LINE
  5
1334C
330
747D
100
AcDbEntity
  8
部品1
 48
50.0
100
AcDbLine
 10
9950.103549311357
 20
3698.431828606209
 30
0.0
 11
9950.103549311357
 21
3548.431828606209
 31
0.0
  0
LINE
  5
1334D
330
747D
100
AcDbEntity
  8
部品1
 48
50.0
100
AcDbLine
 10
9923.189086664224
 20
3877.708407112095
 30
0.0
 11
10093.17616802673
 21
3870.908923857596
 31
0.0
  0
LINE
  5
1334E
330
747D
100
AcDbEntity
  8
部品1
 48
50.0
100
AcDbLine
 10
9882.14191127993
 20
3877.348694766953
 30
0.0
 11
9923.109150587528
 21
3875.71000519465
 31
0.0
  0
LINE
  5
1334F
330
747D
100
AcDbEntity
  8
細線
 48
50.0
100
AcDbLine
 10
10844.83887146229
 20
1830.562576328023
 30
0.0
 11
10885.435551441
 21
1871.159256306726
 31
0.0
  0
LINE
  5
13350
330
747D
100
AcDbEntity
  8
細線
 48
50.0
100
AcDbLine
 10
10817.89809146229
 20
1830.562576328023
 30
0.0
 11
10858.76151183704
 21
1871.425996702765
 31
0.0
  0
LINE
  5
13353
330
747D
100
AcDbEntity
  8
細線
 48
50.0
100
AcDbLine
 10
10198.26043074532
 20
1830.562576328023
 30
0.0
 11
10245.25887746379
 21
1877.561023046498
 31
0.0
  0
LINE
  5
13354
330
747D
100
AcDbEntity
  8
細線
 48
50.0
100
AcDbLine
 10
10790.95731146229
 20
1830.562576328023
 30
0.0
 11
10832.08747223308
 21
1871.692737098805
 31
0.0
  0
LINE
  5
13356
330
747D
100
AcDbEntity
  8
部品1
 48
50.0
100
AcDbLine
 10
10905.10354931135
 20
1860.962576328023
 30
0.0
 11
10905.10354931135
 21
1830.562576328023
 31
0.0
  0
LINE
  5
13357
330
747D
100
AcDbEntity
  8
部品1
 48
50.0
100
AcDbLine
 10
10895.10404927386
 20
1871.062571328398
 30
0.0
 11
10905.10354931135
 21
1860.962576328023
 31
0.0
  0
LINE
  5
13358
330
747D
100
AcDbEntity
  8
部品1
 48
50.0
100
AcDbLine
 10
10215.23734513377
 20
3866.026476773315
 30
0.0
 11
10632.22184735663
 21
3849.347096684397
 31
0.0
  0
CIRCLE
  5
13359
330
747D
100
AcDbEntity
  8
細線
 48
50.0
100
AcDbCircle
 10
10217.60354931135
 20
3895.955819013884
 30
0.0
 40
9.0
  0
LWPOLYLINE
  5
1335A
330
747D
100
AcDbEntity
  8
細線
 48
50.0
100
AcDbPolyline
 90
        6
 70
     1
 43
0.0
 10
10211.10354931135
 20
3892.203042264153
 10
10217.60354931135
 20
3888.450265514421
 10
10224.10354931135
 20
3892.203042264153
 10
10224.10354931135
 20
3899.708595763618
 10
10217.60354931135
 20
3903.46137251335
 10
10211.10354931135
 20
3899.708595763618
  0
LINE
  5
1335B
330
747D
100
AcDbEntity
  8
部品1
 48
50.0
100
AcDbLine
 10
10215.23734513378
 20
3866.026476773315
 30
0.0
 11
10248.93205332261
 21
3906.085844661305
 31
0.0
  0
LINE
  5
1335C
330
747D
100
AcDbEntity
  8
部品1
 48
50.0
100
AcDbLine
 10
10215.1374250379
 20
3863.528474376509
 30
0.0
 11
10215.23734513378
 21
3866.026476773313
 31
0.0
  0
ARC
  5
1335D
330
747D
100
AcDbEntity
  8
部品1
 48
50.0
100
AcDbCircle
 10
10241.2792250104
 20
3912.522786390397
 30
0.0
 40
10.0
100
AcDbArc
 50
319.932160497193
 51
87.70938995736143
  0
LINE
  5
1335E
330
747D
100
AcDbEntity
  8
細線
 48
50.0
100
AcDbLine
 10
10770.10354931135
 20
3877.060422000172
 30
0.0
 11
10830.10354931135
 21
3877.060422000171
 31
0.0
  0
LINE
  5
1335F
330
747D
100
AcDbEntity
  8
細線
 48
50.0
100
AcDbLine
 10
10770.10354931135
 20
3852.060422000178
 30
0.0
 11
10790.62475791089
 21
3795.67886475302
 31
0.0
  0
LINE
  5
13360
330
747D
100
AcDbEntity
  8
部品1
 48
50.0
100
AcDbLine
 10
10685.39776035395
 20
3755.783103142379
 30
0.0
 11
10666.60390793823
 21
3748.942700275865
 31
0.0
  0
LWPOLYLINE
  5
13361
330
747D
100
AcDbEntity
  8
細線
 48
50.0
100
AcDbPolyline
 90
        6
 70
     1
 43
0.0
 10
10656.54639389831
 20
3822.437675441265
 10
10651.54639389831
 20
3825.324426787214
 10
10646.54639389831
 20
3822.437675441265
 10
10646.54639389831
 20
3816.664172749369
 10
10651.54639389831
 20
3813.777421403421
 10
10656.54639389831
 20
3816.664172749369
  0
CIRCLE
  5
13362
330
747D
100
AcDbEntity
  8
細線
 48
50.0
100
AcDbCircle
 10
10651.54639389831
 20
3819.550924095315
 30
0.0
 40
6.5
  0
ARC
  5
13363
330
747D
100
AcDbEntity
  8
部品1
 48
50.0
100
AcDbCircle
 10
10641.89036426287
 20
3825.614016679109
 30
0.0
 40
3.0
100
AcDbArc
 50
110.0000000000029
 51
200.0000000000011
  0
LINE
  5
13364
330
747D
100
AcDbEntity
  8
部品1
 48
50.0
100
AcDbLine
 10
10641.90889187172
 20
3828.813293494669
 30
0.0
 11
10640.8643038329
 21
3828.433094541466
 31
0.0
  0
LINE
  5
13365
330
747D
100
AcDbEntity
  8
部品1
 48
50.0
100
AcDbLine
 10
10651.54639389831
 20
3819.550924095315
 30
0.0
 11
10651.54639389831
 21
3819.550924095315
 31
0.0
  0
LINE
  5
13366
330
747D
100
AcDbEntity
  8
部品1
 48
50.0
100
AcDbLine
 10
10661.61714591087
 20
3821.119804345509
 30
0.0
 11
10685.39776035395
 21
3755.783103142379
 31
0.0
  0
LINE
  5
13367
330
747D
100
AcDbEntity
  8
部品1
 48
50.0
100
AcDbLine
 10
10639.07128640052
 20
3824.587956249132
 30
0.0
 11
10666.60390793823
 21
3748.942700275865
 31
0.0
  0
ARC
  5
13368
330
747D
100
AcDbEntity
  8
部品1
 48
50.0
100
AcDbCircle
 10
10651.58636193665
 20
3820.550125054037
 30
0.0
 40
10.0
100
AcDbArc
 50
177.7093899573658
 51
357.7093899573658
  0
LINE
  5
13369
330
747D
100
AcDbEntity
  8
部品1
 48
50.0
100
AcDbLine
 10
10662.61754052094
 20
3846.129669597316
 30
0.0
 11
10661.53840348552
 21
3819.151243711829
 31
0.0
  0
LINE
  5
1336A
330
747D
100
AcDbEntity
  8
部品1
 48
50.0
100
AcDbLine
 10
10642.63352134651
 20
3846.929030364293
 30
0.0
 11
10641.55438431109
 21
3819.950604478805
 31
0.0
  0
ARC
  5
1336B
330
747D
100
AcDbEntity
  8
部品1
 48
50.0
100
AcDbCircle
 10
10770.10354931135
 20
3852.060422000175
 30
0.0
 40
60.0
100
AcDbArc
 50
290.0
 51
359.9999999999994
  0
LINE
  5
1336C
330
747D
100
AcDbEntity
  8
部品1
 48
50.0
100
AcDbLine
 10
10790.62475791089
 20
3795.67886475302
 30
0.0
 11
10684.88473013896
 21
3757.192642073556
 31
0.0
  0
LINE
  5
1336D
330
747D
100
AcDbEntity
  8
部品1
 48
50.0
100
AcDbLine
 10
10830.10354931135
 20
3901.479809421552
 30
0.0
 11
10830.10354931135
 21
3852.060422000175
 31
0.0
  0
LINE
  5
1336E
330
747D
100
AcDbEntity
  8
部品1
 48
50.0
100
AcDbLine
 10
10770.10354931135
 20
3903.879809421554
 30
0.0
 11
10770.10354931135
 21
3852.060422000178
 31
0.0
  0
ARC
  5
1336F
330
747D
100
AcDbEntity
  8
部品1
 48
50.0
100
AcDbCircle
 10
10695.80484947529
 20
3854.810174041698
 30
0.0
 40
10.0
100
AcDbArc
 50
267.7093899573567
 51
342.8022431134351
  0
LINE
  5
13370
330
747D
100
AcDbEntity
  8
部品1
 48
50.0
100
AcDbLine
 10
10695.4051690918
 20
3844.81816445448
 30
0.0
 11
10673.10915058752
 21
3845.710005194652
 31
0.0
  0
LINE
  5
13371
330
747D
100
AcDbEntity
  8
部品1
 48
50.0
100
AcDbLine
 10
10720.13181681366
 20
3899.587385053131
 30
0.0
 11
10705.35774885805
 21
3851.853467532278
 31
0.0
  0
ARC
  5
13372
330
747D
100
AcDbEntity
  8
部品1
 48
50.0
100
AcDbCircle
 10
10715.35536712228
 20
3901.065738307841
 30
0.0
 40
5.0
100
AcDbArc
 50
342.8022431134356
 51
87.70938995736022
  0
LINE
  5
13373
330
747D
100
AcDbEntity
  8
部品1
 48
50.0
100
AcDbLine
 10
10632.14191127993
 20
3847.348694766957
 30
0.0
 11
10673.10915058752
 21
3845.710005194652
 31
0.0
  0
LINE
  5
13374
330
747D
100
AcDbEntity
  8
部品1
 48
50.0
100
AcDbLine
 10
10675.58716896515
 20
3907.660464635404
 30
0.0
 11
10673.10915058752
 21
3845.710005194652
 31
0.0
  0
LINE
  5
13375
330
747D
100
AcDbEntity
  8
部品1
 48
50.0
100
AcDbLine
 10
10634.61992965756
 20
3909.299154207708
 30
0.0
 11
10632.14191127993
 21
3847.348694766954
 31
0.0
  0
ARC
  5
13376
330
747D
100
AcDbEntity
  8
細線
 48
50.0
100
AcDbCircle
 10
10852.13099426782
 20
3935.126300592119
 30
0.0
 40
10.0
100
AcDbArc
 50
267.7093899573615
 51
341.1471589320593
  0
ARC
  5
13377
330
747D
100
AcDbEntity
  8
部品1
 48
50.0
100
AcDbCircle
 10
10861.79817976034
 20
3920.22801780871
 30
0.0
 40
20.0
100
AcDbArc
 50
267.7093899573605
 51
341.1471589320572
  0
DIMENSION
  5
13378
330
747D
100
AcDbEntity
  8
寸法
 48
50.0
100
AcDbDimension
  2
*D10
 10
10905.10354931135
 20
4906.270106075115
 30
0.0
 11
9905.103549311355
 21
4981.278964342831
 31
0.0
 12
-1294.06275056105
 22
-1260.916917799578
 32
0.0
 70
    32
 71
     5
 42
-1.0
  3
INABA_S30G
100
AcDbAlignedDimension
 13
8905.103549311355
 23
4066.450581124188
 33
0.0
 14
10905.10354931135
 24
3987.650581124187
 34
0.0
100
AcDbRotatedDimension
  0
LINE
  5
13379
330
747D
100
AcDbEntity
  8
細線
 48
50.0
100
AcDbLine
 10
8946.775684863002
 20
4048.370101137772
 30
0.0
 11
10861.63306907511
 21
3971.775805769289
 31
0.0
  0
LINE
  5
1337A
330
747D
100
AcDbEntity
  8
細線
 48
50.0
100
AcDbLine
 10
8951.803028986407
 20
4036.659811049896
 30
0.0
 11
10855.64257692503
 21
3960.506229132353
 31
0.0
  0
LINE
  5
1337B
330
747D
100
AcDbEntity
  8
細線
 48
50.0
100
AcDbLine
 10
8955.883812277189
 20
4012.477387392128
 30
0.0
 11
10849.33450574573
 21
3936.739359653383
 31
0.0
  0
LINE
  5
1337C
330
747D
100
AcDbEntity
  8
部品1
 48
50.0
100
AcDbLine
 10
8920.70306988659
 20
4081.438595505015
 30
0.0
 11
10890.70306988659
 21
4002.638595505014
 31
0.0
  0
LINE
  5
1337D
330
747D
100
AcDbEntity
  8
寸法
 48
50.0
100
AcDbLine
 10
9129.773694128173
 20
4053.222195217859
 30
0.0
 11
8643.62887302969
 21
4546.895830082075
 31
0.0
  0
TEXT
  5
1337E
330
747D
100
AcDbEntity
  8
部品1
 48
50.0
100
AcDbText
 10
8497.054610094288
 20
4538.278146323938
 30
0.0
 40
120.0
  1
⑤
  7
STYLE2
100
AcDbText
  0
ARC
  5
1337F
330
747D
100
AcDbEntity
  8
部品1
 48
50.0
100
AcDbCircle
 10
9094.452051116943
 20
3965.901870948031
 30
0.0
 40
5.0
100
AcDbArc
 50
87.70938995736711
 51
192.6165368012917
  0
ARC
  5
13380
330
747D
100
AcDbEntity
  8
細線
 48
50.0
100
AcDbCircle
 10
8952.856891760822
 20
4011.097264692399
 30
0.0
 40
10.0
100
AcDbArc
 50
193.36358004956
 51
267.7093899573615
  0
ARC
  5
13381
330
747D
100
AcDbEntity
  8
細線
 48
50.0
100
AcDbCircle
 10
8946.376004479512
 20
4038.378091550557
 30
0.0
 40
10.0
100
AcDbArc
 50
87.7093899573615
 51
193.3635800495596
  0
ARC
  5
13382
330
747D
100
AcDbEntity
  8
細線
 48
50.0
100
AcDbCircle
 10
8956.003716392237
 20
4015.474990268294
 30
0.0
 40
3.0
100
AcDbArc
 50
193.363580049562
 51
267.7093899573615
  0
ARC
  5
13383
330
747D
100
AcDbEntity
  8
細線
 48
50.0
100
AcDbCircle
 10
8951.683124871362
 20
4033.66220817373
 30
0.0
 40
3.0
100
AcDbArc
 50
87.70938995736145
 51
193.3635800495541
  0
LINE
  5
13384
330
747D
100
AcDbEntity
  8
細線
 48
50.0
100
AcDbLine
 10
8948.764355896022
 20
4032.968819632847
 30
0.0
 11
8953.084947416902
 21
4014.781601727408
 31
0.0
  0
LINE
  5
13385
330
747D
100
AcDbEntity
  8
細線
 48
50.0
100
AcDbLine
 10
8936.646774561735
 20
4036.066796414271
 30
0.0
 11
8943.127661843041
 21
4008.785969556114
 31
0.0
  0
LINE
  5
13386
330
747D
100
AcDbEntity
  8
部品1
 48
50.0
100
AcDbLine
 10
8968.66471590523
 20
4079.52012966427
 30
0.0
 11
8964.52802393612
 21
3976.102830436565
 31
0.0
  0
LINE
  5
13387
330
747D
100
AcDbEntity
  8
部品1
 48
50.0
100
AcDbLine
 10
8905.509704434688
 20
4062.983638419761
 30
0.0
 11
8922.275796622534
 21
3992.407984468232
 31
0.0
  0
ARC
  5
13388
330
747D
100
AcDbEntity
  8
部品1
 48
50.0
100
AcDbCircle
 10
8920.103549311356
 20
4066.450581124188
 30
0.0
 40
15.0
100
AcDbArc
 50
87.70938995736079
 51
193.3635800495583
  0
ARC
  5
13389
330
747D
100
AcDbEntity
  8
部品1
 48
50.0
100
AcDbCircle
 10
8941.734256458087
 20
3997.030574740799
 30
0.0
 40
20.0
100
AcDbArc
 50
193.3635800495578
 51
267.7093899573604
  0
ARC
  5
1338A
330
747D
100
AcDbEntity
  8
部品1
 48
50.0
100
AcDbCircle
 10
9644.431532927233
 20
3926.388697271168
 30
0.0
 40
20.0
100
AcDbArc
 50
40.06783950280725
 51
87.70938995736152
  0
ARC
  5
1338B
330
747D
100
AcDbEntity
  8
部品1
 48
50.0
100
AcDbCircle
 10
9545.725983070319
 20
3940.344916068001
 30
0.0
 40
10.0
100
AcDbArc
 50
87.70938995736148
 51
220.067839502807
  0
LINE
  5
1338C
330
747D
100
AcDbEntity
  8
部品1
 48
50.0
100
AcDbLine
 10
9546.125663453807
 20
3950.336925655217
 30
0.0
 11
9645.230893694211
 21
3946.372716445603
 31
0.0
  0
ARC
  5
1338D
330
747D
100
AcDbEntity
  8
細線
 48
50.0
100
AcDbCircle
 10
10849.45440986078
 20
3939.736962529547
 30
0.0
 40
3.0
100
AcDbArc
 50
267.7093899573614
 51
341.1471589320563
  0
ARC
  5
1338E
330
747D
100
AcDbEntity
  8
細線
 48
50.0
100
AcDbCircle
 10
10855.52267280998
 20
3957.508626256188
 30
0.0
 40
3.0
100
AcDbArc
 50
341.1471589320588
 51
87.70938995736148
  0
ARC
  5
1338F
330
747D
100
AcDbEntity
  8
細線
 48
50.0
100
AcDbCircle
 10
10861.23338869162
 20
3961.783796182073
 30
0.0
 40
10.0
100
AcDbArc
 50
341.1471589320582
 51
87.7093899573615
  0
LINE
  5
13390
330
747D
100
AcDbEntity
  8
細線
 48
50.0
100
AcDbLine
 10
10858.36172775349
 20
3956.539210438431
 30
0.0
 11
10852.29346480429
 21
3938.767546711792
 31
0.0
  0
ARC
  5
13391
330
747D
100
AcDbEntity
  8
部品1
 48
50.0
100
AcDbCircle
 10
10890.10354931135
 20
3987.650581124187
 30
0.0
 40
15.0
100
AcDbArc
 50
341.1471589320592
 51
87.70938995736051
  0
LINE
  5
13667
330
747D
100
AcDbEntity
  8
細線
 48
50.0
100
AcDbLine
 10
3950.077177189363
 20
1830.562576328023
 30
0.0
 11
4000.077177189363
 21
1880.562576328023
 31
0.0
  0
LINE
  5
13668
330
747D
100
AcDbEntity
  8
細線
 48
50.0
100
AcDbLine
 10
3977.017957189361
 20
1830.562576328023
 30
0.0
 11
4027.01795718936
 21
1880.562576328023
 31
0.0
  0
LINE
  5
13669
330
747D
100
AcDbEntity
  8
細線
 48
50.0
100
AcDbLine
 10
4003.958737189361
 20
1830.562576328023
 30
0.0
 11
4053.95873718936
 21
1880.562576328023
 31
0.0
  0
LINE
  5
13676
330
747D
100
AcDbEntity
  8
細線
 48
50.0
100
AcDbLine
 10
2656.920295755406
 20
1830.562576328023
 30
0.0
 11
2706.920295755406
 21
1880.562576328023
 31
0.0
  0
LINE
  5
13677
330
747D
100
AcDbEntity
  8
細線
 48
50.0
100
AcDbLine
 10
2683.861075755404
 20
1830.562576328023
 30
0.0
 11
2733.861075755403
 21
1880.562576328023
 31
0.0
  0
LINE
  5
13678
330
747D
100
AcDbEntity
  8
細線
 48
50.0
100
AcDbLine
 10
2710.801855755404
 20
1830.562576328023
 30
0.0
 11
2760.801855755405
 21
1880.562576328023
 31
0.0
  0
LINE
  5
13A2F
330
747D
100
AcDbEntity
  8
部品1
 48
50.0
100
AcDbLine
 10
7047.426034866591
 20
7921.447238448381
 30
0.0
 11
917.4260348665907
 21
7921.447238448383
 31
0.0
  0
LINE
  5
13A36
330
747D
100
AcDbEntity
  8
点線
 48
50.0
100
AcDbLine
 10
3660.356247824746
 20
7713.947238448382
 30
0.0
 11
7023.42603486659
 21
7713.947238448387
 31
0.0
  0
LINE
  5
13A37
330
747D
100
AcDbEntity
  8
点線
 48
50.0
100
AcDbLine
 10
3677.772945332769
 20
7648.947238448382
 30
0.0
 11
7023.42603486659
 21
7648.947238448387
 31
0.0
  0
LINE
  5
13A38
330
747D
100
AcDbEntity
  8
点線
 48
50.0
100
AcDbLine
 10
3887.135249661099
 20
6898.947238448385
 30
0.0
 11
7023.42603486659
 21
6898.947238448386
 31
0.0
  0
LINE
  5
13A39
330
747D
100
AcDbEntity
  8
点線
 48
50.0
100
AcDbLine
 10
3843.450304905155
 20
6963.947238448382
 30
0.0
 11
7023.426034866592
 21
6963.947238448388
 31
0.0
  0
LINE
  5
13A3A
330
747D
100
AcDbEntity
  8
点線
 48
50.0
100
AcDbLine
 10
4062.28003647143
 20
6213.947238448389
 30
0.0
 11
7023.42603486659
 21
6213.947238448388
 31
0.0
  0
LINE
  5
13A3B
330
747D
100
AcDbEntity
  8
点線
 48
50.0
100
AcDbLine
 10
4079.696733979452
 20
6148.947238448386
 30
0.0
 11
7023.42603486659
 21
6148.947238448386
 31
0.0
  0
TEXT
  5
13A3E
330
747D
100
AcDbEntity
  8
部品1
 48
50.0
100
AcDbText
 10
5091.929543883139
 20
5420.423537286387
 30
0.0
 40
120.0
  1
⑦
  7
STYLE2
100
AcDbText
  0
LINE
  5
13A3F
330
747D
100
AcDbEntity
  8
部品1
 48
50.0
100
AcDbLine
 10
3879.860281194574
 20
6894.747033445888
 30
0.0
 11
4180.847554122201
 21
5771.447238448382
 31
0.0
  0
LINE
  5
13A54
330
747D
100
AcDbEntity
  8
部品1
 48
50.0
100
AcDbLine
 10
1122.426034866591
 20
6898.947238448385
 30
0.0
 11
1122.426034866591
 21
6213.947238448385
 31
0.0
  0
LINE
  5
13A55
330
747D
100
AcDbEntity
  8
部品1
 48
50.0
100
AcDbLine
 10
1182.42603486659
 20
6898.947238448385
 30
0.0
 11
1182.42603486659
 21
6213.947238448385
 31
0.0
  0
LINE
  5
13A56
330
747D
100
AcDbEntity
  8
部品1
 48
50.0
100
AcDbLine
 10
987.4260348665906
 20
7817.947238448382
 30
0.0
 11
987.4260348665906
 21
6014.947238448382
 31
0.0
  0
LINE
  5
13A5D
330
747D
100
AcDbEntity
  8
部品1
 48
50.0
100
AcDbLine
 10
965.4260348665905
 20
7921.447238448381
 30
0.0
 11
965.4260348665905
 21
5921.447238448386
 31
0.0
  0
LINE
  5
13A5E
330
747D
100
AcDbEntity
  8
部品1
 48
50.0
100
AcDbLine
 10
902.4260348665906
 20
7906.447238448382
 30
0.0
 11
902.4260348665906
 21
5936.447238448382
 31
0.0
  0
ARC
  5
13A62
330
747D
100
AcDbEntity
  8
部品1
 48
50.0
100
AcDbCircle
 10
917.4260348665907
 20
5936.447238448382
 30
0.0
 40
15.0
100
AcDbArc
 50
180.0
 51
270.0
  0
LINE
  5
13A63
330
747D
100
AcDbEntity
  8
点線
 48
18.0
100
AcDbLine
 10
941.4260348665903
 20
6148.947238448386
 30
0.0
 11
987.4260348665906
 21
6148.947238448386
 31
0.0
  0
LINE
  5
13A64
330
747D
100
AcDbEntity
  8
点線
 48
18.0
100
AcDbLine
 10
941.4260348665903
 20
6213.947238448384
 30
0.0
 11
987.4260348665906
 21
6213.947238448385
 31
0.0
  0
LINE
  5
13A65
330
747D
100
AcDbEntity
  8
部品1
 48
50.0
100
AcDbLine
 10
902.4260348665906
 20
5984.447238448385
 30
0.0
 11
965.4260348665905
 21
5984.447238448385
 31
0.0
  0
ARC
  5
13A66
330
747D
100
AcDbEntity
  8
部品1
 48
50.0
100
AcDbCircle
 10
1174.42603486659
 20
6113.947238448382
 30
0.0
 40
10.0
100
AcDbArc
 50
270.0
 51
0.0
  0
ARC
  5
13A67
330
747D
100
AcDbEntity
  8
部品1
 48
50.0
100
AcDbCircle
 10
1130.426034866591
 20
6113.947238448385
 30
0.0
 40
10.0
100
AcDbArc
 50
180.0
 51
270.0
  0
LINE
  5
13A68
330
747D
100
AcDbEntity
  8
部品1
 48
50.0
100
AcDbLine
 10
1130.426034866591
 20
6103.947238448385
 30
0.0
 11
1174.42603486659
 21
6103.947238448381
 31
0.0
  0
LINE
  5
13A69
330
747D
100
AcDbEntity
  8
部品1
 48
50.0
100
AcDbLine
 10
1184.42603486659
 20
6148.947238448386
 30
0.0
 11
1184.42603486659
 21
6113.947238448382
 31
0.0
  0
LINE
  5
13A6A
330
747D
100
AcDbEntity
  8
部品1
 48
50.0
100
AcDbLine
 10
1120.426034866591
 20
6148.947238448386
 30
0.0
 11
1120.426034866591
 21
6113.947238448385
 31
0.0
  0
LINE
  5
13A6B
330
747D
100
AcDbEntity
  8
寸法
 48
50.0
100
AcDbLine
 10
1583.604743657596
 20
5509.815332044447
 30
0.0
 11
1759.888265684791
 21
5972.52945711185
 31
0.0
  0
TEXT
  5
13A6C
330
747D
100
AcDbEntity
  8
部品1
 48
50.0
100
AcDbText
 10
1451.86694380109
 20
5381.645491115686
 30
0.0
 40
120.0
  1
⑧
  7
STYLE2
100
AcDbText
  0
LINE
  5
13A6D
330
747D
100
AcDbEntity
  8
部品1
 48
50.0
100
AcDbLine
 10
3972.426034866595
 20
6014.947238448385
 30
0.0
 11
3972.426034866591
 21
5921.447238448382
 31
0.0
  0
LINE
  5
13A73
330
747D
100
AcDbEntity
  8
寸法
 48
50.0
100
AcDbLine
 10
5150.044404798033
 20
5557.550825791266
 30
0.0
 11
4888.268115321136
 21
6344.247697710416
 31
0.0
  0
TEXT
  5
13A92
330
747D
100
AcDbEntity
  8
部品1
 48
50.0
100
AcDbText
 10
291.4207259877361
 20
7518.398786710578
 30
0.0
 40
120.0
  1
③
  7
STYLE2
100
AcDbText
  0
LINE
  5
13A93
330
747D
100
AcDbEntity
  8
寸法
 48
50.0
100
AcDbLine
 10
442.2685374274355
 20
7531.123166211597
 30
0.0
 11
1153.076011341493
 21
7140.723527947158
 31
0.0
  0
LINE
  5
13A94
330
747D
100
AcDbEntity
  8
部品1
 48
50.0
100
AcDbLine
 10
1182.42603486659
 20
7648.947238448385
 30
0.0
 11
1182.42603486659
 21
6963.947238448382
 31
0.0
  0
LINE
  5
13A95
330
747D
100
AcDbEntity
  8
部品1
 48
50.0
100
AcDbLine
 10
1122.426034866591
 20
7648.947238448385
 30
0.0
 11
1122.426034866591
 21
6963.947238448382
 31
0.0
  0
LINE
  5
13A96
330
747D
100
AcDbEntity
  8
点線
 48
18.0
100
AcDbLine
 10
941.4260348665905
 20
6963.947238448382
 30
0.0
 11
987.4260348665906
 21
6963.947238448382
 31
0.0
  0
LINE
  5
13A97
330
747D
100
AcDbEntity
  8
点線
 48
18.0
100
AcDbLine
 10
941.4260348665905
 20
6898.947238448385
 30
0.0
 11
987.4260348665906
 21
6898.947238448385
 31
0.0
  0
LINE
  5
13A98
330
747D
100
AcDbEntity
  8
点線
 48
18.0
100
AcDbLine
 10
941.4260348665905
 20
7648.947238448385
 30
0.0
 11
987.4260348665906
 21
7648.947238448385
 31
0.0
  0
LINE
  5
13A99
330
747D
100
AcDbEntity
  8
点線
 48
18.0
100
AcDbLine
 10
941.4260348665905
 20
7713.947238448383
 30
0.0
 11
987.4260348665906
 21
7713.947238448385
 31
0.0
  0
ARC
  5
13A9A
330
747D
100
AcDbEntity
  8
部品1
 48
50.0
100
AcDbCircle
 10
1174.42603486659
 20
7728.947238448386
 30
0.0
 40
10.0
100
AcDbArc
 50
0.0
 51
90.0
  0
ARC
  5
13A9B
330
747D
100
AcDbEntity
  8
部品1
 48
50.0
100
AcDbCircle
 10
1130.426034866591
 20
7728.947238448386
 30
0.0
 40
10.0
100
AcDbArc
 50
90.0
 51
180.0000000000005
  0
LINE
  5
13A9C
330
747D
100
AcDbEntity
  8
部品1
 48
50.0
100
AcDbLine
 10
1130.426034866591
 20
7738.947238448385
 30
0.0
 11
1174.42603486659
 21
7738.947238448385
 31
0.0
  0
LINE
  5
13A9D
330
747D
100
AcDbEntity
  8
部品1
 48
50.0
100
AcDbLine
 10
1184.42603486659
 20
7728.947238448386
 30
0.0
 11
1184.42603486659
 21
7713.947238448385
 31
0.0
  0
LINE
  5
13A9E
330
747D
100
AcDbEntity
  8
部品1
 48
50.0
100
AcDbLine
 10
1120.426034866591
 20
7728.947238448386
 30
0.0
 11
1120.426034866591
 21
7713.947238448385
 31
0.0
  0
ARC
  5
13AA1
330
747D
100
AcDbEntity
  8
部品1
 48
50.0
100
AcDbCircle
 10
917.4260348665907
 20
7906.447238448382
 30
0.0
 40
15.0
100
AcDbArc
 50
90.00000000000003
 51
180.0
  0
LINE
  5
13AA2
330
747D
100
AcDbEntity
  8
部品1
 48
50.0
100
AcDbLine
 10
902.4260348665906
 20
7858.447238448381
 30
0.0
 11
965.4260348665905
 21
7858.447238448381
 31
0.0
  0
TEXT
  5
13AA8
330
747D
100
AcDbEntity
  8
部品1
 48
50.0
100
AcDbText
 10
290.8241870668729
 20
6713.851766187023
 30
0.0
 40
120.0
  1
④
  7
STYLE2
100
AcDbText
  0
LINE
  5
13AA9
330
747D
100
AcDbEntity
  8
寸法
 48
50.0
100
AcDbLine
 10
456.6548000981323
 20
6792.78585764819
 30
0.0
 11
1047.677817495581
 21
6916.435141097878
 31
0.0
  0
LINE
  5
13AD9
330
747D
100
AcDbEntity
  8
部品1
 48
50.0
100
AcDbLine
 10
3564.564411530619
 20
8071.447238448381
 30
0.0
 11
3858.924305868221
 21
6972.881157069853
 31
0.0
  0
LINE
  5
13ADA
330
747D
100
AcDbEntity
  8
部品1
 48
50.0
100
AcDbLine
 10
3815.926034866591
 20
7817.947238448386
 30
0.0
 11
3815.926034866591
 21
7133.352889085545
 31
0.0
  0
LINE
  5
13ADB
330
747D
100
AcDbEntity
  8
部品1
 48
50.0
100
AcDbLine
 10
3838.926034866591
 20
7817.947238448386
 30
0.0
 11
3838.926034866591
 21
7047.51572051146
 31
0.0
  0
LINE
  5
13ADC
330
747D
100
AcDbEntity
  8
部品1
 48
50.0
100
AcDbLine
 10
3838.926034866591
 20
6961.335149923733
 30
0.0
 11
3838.926034866591
 21
6918.990476159925
 31
0.0
  0
LINE
  5
13ADD
330
747D
100
AcDbEntity
  8
部品1
 48
50.0
100
AcDbLine
 10
3815.926034866591
 20
6948.056093732368
 30
0.0
 11
3815.926034866591
 21
6918.990476159925
 31
0.0
  0
LINE
  5
13ADE
330
747D
100
AcDbEntity
  8
部品1
 48
50.0
100
AcDbLine
 10
3921.851155725659
 20
6918.990476159921
 30
0.0
 11
3879.860281194574
 21
6894.747033445892
 31
0.0
  0
LINE
  5
13ADF
330
747D
100
AcDbEntity
  8
部品1
 48
50.0
100
AcDbLine
 10
3765.582908477746
 20
6918.990476159921
 30
0.0
 11
3921.851155725659
 21
6918.990476159921
 31
0.0
  0
LINE
  5
13AE0
330
747D
100
AcDbEntity
  8
部品1
 48
50.0
100
AcDbLine
 10
3765.582908477743
 20
6918.990476159925
 30
0.0
 11
3858.924305868221
 21
6972.881157069853
 31
0.0
  0
LINE
  5
13AEC
330
747D
100
AcDbEntity
  8
部品1
 48
50.0
100
AcDbLine
 10
3992.426034866595
 20
7817.947238448386
 30
0.0
 11
3992.426034866591
 21
7921.447238448388
 31
0.0
  0
TEXT
  5
13B3D
330
747D
100
AcDbEntity
  8
部品1
 48
50.0
100
AcDbText
 10
4436.253703670021
 20
5423.345443396549
 30
0.0
 40
120.0
  1
⑥
  7
STYLE2
100
AcDbText
  0
LINE
  5
13B3E
330
747D
100
AcDbEntity
  8
寸法
 48
50.0
100
AcDbLine
 10
4087.190818075947
 20
6321.110940589606
 30
0.0
 11
4486.416302384151
 21
5555.187647854364
 31
0.0
  0
LWPOLYLINE
  5
13C02
330
747D
100
AcDbEntity
  8
部品1
100
AcDbPolyline
 90
        4
 70
     1
 43
0.0
 10
3621.23467963241
 20
5569.236416622199
 10
4268.266054912934
 20
5569.236416622199
 10
4268.266054912934
 20
5376.716260805061
 10
3621.23467963241
 20
5376.716260805061
  0
TEXT
  5
13C03
330
747D
100
AcDbEntity
  8
仕様書枠
 62
     7
 48
50.0
100
AcDbText
 10
3652.649756393939
 20
5415.371692272017
 30
0.0
 40
112.0
  1
平 面 図
  7
STYLE2
100
AcDbText
  0
LINE
  5
13CB1
330
747D
100
AcDbEntity
  8
部品1
 48
50.0
100
AcDbLine
 10
4125.92603486659
 20
7817.947238448386
 30
0.0
 11
4125.92603486659
 21
6014.947238448385
 31
0.0
  0
LINE
  5
13CB4
330
747D
100
AcDbEntity
  8
部品1
 48
50.0
100
AcDbLine
 10
4012.42603486659
 20
7817.947238448386
 30
0.0
 11
4012.42603486659
 21
6213.947238448385
 31
0.0
  0
LINE
  5
13CB5
330
747D
100
AcDbEntity
  8
部品1
 48
50.0
100
AcDbLine
 10
3952.42603486659
 20
7817.947238448386
 30
0.0
 11
3952.42603486659
 21
6213.947238448385
 31
0.0
  0
LINE
  5
13CB7
330
747D
100
AcDbEntity
  8
部品1
 48
50.0
100
AcDbLine
 10
4148.926034866589
 20
7817.947238448386
 30
0.0
 11
4148.926034866589
 21
6014.947238448385
 31
0.0
  0
LINE
  5
13CE3
330
747D
100
AcDbEntity
  8
部品1
 48
50.0
100
AcDbLine
 10
4415.42603486659
 20
7817.947238448386
 30
0.0
 11
4415.42603486659
 21
6014.947238448385
 31
0.0
  0
LINE
  5
13CE4
330
747D
100
AcDbEntity
  8
部品1
 48
50.0
100
AcDbLine
 10
4370.42603486659
 20
7817.947238448386
 30
0.0
 11
4370.42603486659
 21
6014.947238448385
 31
0.0
  0
LINE
  5
13CE5
330
747D
100
AcDbEntity
  8
部品1
 48
50.0
100
AcDbLine
 10
4297.42603486659
 20
7817.947238448386
 30
0.0
 11
4297.42603486659
 21
6014.947238448385
 31
0.0
  0
LINE
  5
13CE6
330
747D
100
AcDbEntity
  8
部品1
 48
50.0
100
AcDbLine
 10
4342.42603486659
 20
7817.947238448386
 30
0.0
 11
4342.42603486659
 21
6014.947238448385
 31
0.0
  0
LINE
  5
13CE7
330
747D
100
AcDbEntity
  8
部品1
 48
50.0
100
AcDbLine
 10
4545.92603486659
 20
7817.947238448386
 30
0.0
 11
4545.92603486659
 21
6014.947238448385
 31
0.0
  0
ARC
  5
13CEF
330
747D
100
AcDbEntity
  8
部品1
 48
50.0
100
AcDbCircle
 10
4004.42603486659
 20
6113.947238448385
 30
0.0
 40
10.0
100
AcDbArc
 50
270.0
 51
0.0000000000000254
  0
ARC
  5
13CF0
330
747D
100
AcDbEntity
  8
部品1
 48
50.0
100
AcDbCircle
 10
3960.426034866591
 20
6113.947238448385
 30
0.0
 40
10.0
100
AcDbArc
 50
180.0
 51
270.0
  0
LINE
  5
13CF1
330
747D
100
AcDbEntity
  8
部品1
 48
50.0
100
AcDbLine
 10
4014.42603486659
 20
6148.947238448386
 30
0.0
 11
4014.42603486659
 21
6113.947238448385
 31
0.0
  0
LINE
  5
13CF2
330
747D
100
AcDbEntity
  8
部品1
 48
50.0
100
AcDbLine
 10
3950.426034866591
 20
6148.947238448386
 30
0.0
 11
3950.426034866591
 21
6113.947238448385
 31
0.0
  0
LINE
  5
13CF3
330
747D
100
AcDbEntity
  8
部品1
 48
50.0
100
AcDbLine
 10
3960.426034866591
 20
6103.947238448385
 30
0.0
 11
4004.42603486659
 21
6103.947238448385
 31
0.0
  0
ARC
  5
13D4A
330
747D
100
AcDbEntity
  8
点線
 48
50.0
100
AcDbCircle
 10
4004.42603486659
 20
7728.947238448386
 30
0.0
 40
10.0
100
AcDbArc
 50
0.0
 51
90.0
  0
ARC
  5
13D4B
330
747D
100
AcDbEntity
  8
点線
 48
50.0
100
AcDbCircle
 10
3960.426034866591
 20
7728.947238448386
 30
0.0
 40
10.0
100
AcDbArc
 50
90.0
 51
180.0
  0
LINE
  5
13D4C
330
747D
100
AcDbEntity
  8
点線
 48
50.0
100
AcDbLine
 10
4014.42603486659
 20
7728.947238448386
 30
0.0
 11
4014.42603486659
 21
7713.947238448385
 31
0.0
  0
LINE
  5
13D4D
330
747D
100
AcDbEntity
  8
点線
 48
50.0
100
AcDbLine
 10
3950.426034866591
 20
7728.947238448386
 30
0.0
 11
3950.426034866591
 21
7713.947238448385
 31
0.0
  0
LINE
  5
13D4E
330
747D
100
AcDbEntity
  8
点線
 48
50.0
100
AcDbLine
 10
3960.426034866591
 20
7738.947238448385
 30
0.0
 11
4004.42603486659
 21
7738.947238448385
 31
0.0
  0
DIMENSION
  5
13D64
330
747D
100
AcDbEntity
  8
寸法
 48
50.0
100
AcDbDimension
  2
*D11
 10
7685.915569391472
 20
5921.447238448383
 30
0.0
 11
7685.915569391472
 21
6921.447238448384
 31
0.0
 70
   160
 71
     5
 42
2000.000000000005
  3
INABA_S30G
100
AcDbAlignedDimension
 13
7047.426034866591
 23
7921.447238448386
 33
0.0
 14
7047.426034866591
 24
5921.447238448383
 34
0.0
 50
90.0
100
AcDbRotatedDimension
  0
LINE
  5
13D65
330
747D
100
AcDbEntity
  8
点線
 48
50.0
100
AcDbLine
 10
6782.42603486659
 20
6898.947238448387
 30
0.0
 11
6782.42603486659
 21
6213.94723844839
 31
0.0
  0
LINE
  5
13D66
330
747D
100
AcDbEntity
  8
点線
 48
50.0
100
AcDbLine
 10
6842.426034866591
 20
6898.947238448387
 30
0.0
 11
6842.426034866591
 21
6213.94723844839
 31
0.0
  0
LINE
  5
13D6B
330
747D
100
AcDbEntity
  8
部品1
 48
50.0
100
AcDbLine
 10
4762.42603486659
 20
7817.947238448386
 30
0.0
 11
4762.42603486659
 21
6014.947238448385
 31
0.0
  0
LINE
  5
13D6C
330
747D
100
AcDbEntity
  8
部品1
 48
50.0
100
AcDbLine
 10
4717.42603486659
 20
7817.947238448386
 30
0.0
 11
4717.42603486659
 21
6014.947238448385
 31
0.0
  0
LINE
  5
13D6D
330
747D
100
AcDbEntity
  8
部品1
 48
50.0
100
AcDbLine
 10
4790.42603486659
 20
7817.947238448386
 30
0.0
 11
4790.42603486659
 21
6014.947238448385
 31
0.0
  0
LINE
  5
13D6E
330
747D
100
AcDbEntity
  8
部品1
 48
50.0
100
AcDbLine
 10
4835.42603486659
 20
7817.947238448386
 30
0.0
 11
4835.42603486659
 21
6014.947238448385
 31
0.0
  0
LINE
  5
13D6F
330
747D
100
AcDbEntity
  8
部品1
 48
50.0
100
AcDbLine
 10
6755.426034866591
 20
7817.947238448387
 30
0.0
 11
6755.426034866591
 21
6014.947238448387
 31
0.0
  0
LINE
  5
13D70
330
747D
100
AcDbEntity
  8
部品1
 48
50.0
100
AcDbLine
 10
6682.42603486659
 20
7817.947238448387
 30
0.0
 11
6682.42603486659
 21
6014.947238448387
 31
0.0
  0
LINE
  5
13D71
330
747D
100
AcDbEntity
  8
部品1
 48
50.0
100
AcDbLine
 10
6102.42603486659
 20
7817.947238448387
 30
0.0
 11
6102.42603486659
 21
6014.947238448387
 31
0.0
  0
LINE
  5
13D72
330
747D
100
AcDbEntity
  8
部品1
 48
50.0
100
AcDbLine
 10
6175.42603486659
 20
7817.947238448387
 30
0.0
 11
6175.42603486659
 21
6014.947238448387
 31
0.0
  0
LINE
  5
13D73
330
747D
100
AcDbEntity
  8
部品1
 48
50.0
100
AcDbLine
 10
6637.42603486659
 20
7817.947238448387
 30
0.0
 11
6637.42603486659
 21
6014.947238448387
 31
0.0
  0
LINE
  5
13D74
330
747D
100
AcDbEntity
  8
部品1
 48
50.0
100
AcDbLine
 10
6057.42603486659
 20
7817.947238448387
 30
0.0
 11
6057.42603486659
 21
6014.947238448387
 31
0.0
  0
LINE
  5
13D75
330
747D
100
AcDbEntity
  8
部品1
 48
50.0
100
AcDbLine
 10
6710.42603486659
 20
7817.947238448387
 30
0.0
 11
6710.42603486659
 21
6014.947238448387
 31
0.0
  0
LINE
  5
13D76
330
747D
100
AcDbEntity
  8
部品1
 48
50.0
100
AcDbLine
 10
6130.426034866591
 20
7817.947238448387
 30
0.0
 11
6130.426034866591
 21
6014.947238448387
 31
0.0
  0
LINE
  5
13D77
330
747D
100
AcDbEntity
  8
部品1
 48
50.0
100
AcDbLine
 10
6965.926034866591
 20
7817.947238448387
 30
0.0
 11
6965.926034866591
 21
6014.947238448387
 31
0.0
  0
LINE
  5
13D78
330
747D
100
AcDbEntity
  8
部品1
 48
50.0
100
AcDbLine
 10
6385.92603486659
 20
7817.947238448387
 30
0.0
 11
6385.92603486659
 21
6014.947238448387
 31
0.0
  0
LINE
  5
13D79
330
747D
100
AcDbEntity
  8
部品1
 48
50.0
100
AcDbLine
 10
5805.92603486659
 20
7817.947238448387
 30
0.0
 11
5805.92603486659
 21
6014.947238448387
 31
0.0
  0
LINE
  5
13D7B
330
747D
100
AcDbEntity
  8
部品1
 48
50.0
100
AcDbLine
 10
6988.92603486659
 20
7817.947238448387
 30
0.0
 11
6988.92603486659
 21
6014.947238448387
 31
0.0
  0
LINE
  5
13D7C
330
747D
100
AcDbEntity
  8
部品1
 48
50.0
100
AcDbLine
 10
6408.92603486659
 20
7817.947238448387
 30
0.0
 11
6408.92603486659
 21
6014.947238448387
 31
0.0
  0
LINE
  5
13D7D
330
747D
100
AcDbEntity
  8
部品1
 48
50.0
100
AcDbLine
 10
5828.92603486659
 20
7817.947238448387
 30
0.0
 11
5828.92603486659
 21
6014.947238448387
 31
0.0
  0
LINE
  5
13D7F
330
747D
100
AcDbEntity
  8
部品1
 48
50.0
100
AcDbLine
 10
4568.92603486659
 20
7817.947238448386
 30
0.0
 11
4568.92603486659
 21
6014.947238448385
 31
0.0
  0
LINE
  5
13D80
330
747D
100
AcDbEntity
  8
部品1
 48
50.0
100
AcDbLine
 10
6999.426034866591
 20
7921.447238448384
 30
0.0
 11
6999.426034866591
 21
5921.447238448386
 31
0.0
  0
LINE
  5
13D81
330
747D
100
AcDbEntity
  8
部品1
 48
50.0
100
AcDbLine
 10
7062.426034866589
 20
7906.447238448388
 30
0.0
 11
7062.426034866589
 21
5936.447238448383
 31
0.0
  0
ARC
  5
13D82
330
747D
100
AcDbEntity
  8
点線
 48
50.0
100
AcDbCircle
 10
6834.42603486659
 20
6113.947238448391
 30
0.0
 40
10.0
100
AcDbArc
 50
270.0000000000009
 51
0.0
  0
ARC
  5
13D83
330
747D
100
AcDbEntity
  8
点線
 48
50.0
100
AcDbCircle
 10
6790.42603486659
 20
6113.947238448387
 30
0.0
 40
10.0
100
AcDbArc
 50
180.0
 51
270.0000000000008
  0
LINE
  5
13D84
330
747D
100
AcDbEntity
  8
点線
 48
50.0
100
AcDbLine
 10
6790.42603486659
 20
6103.947238448387
 30
0.0
 11
6834.42603486659
 21
6103.947238448391
 31
0.0
  0
LINE
  5
13D85
330
747D
100
AcDbEntity
  8
点線
 48
50.0
100
AcDbLine
 10
6780.42603486659
 20
6148.947238448391
 30
0.0
 11
6780.42603486659
 21
6113.947238448387
 31
0.0
  0
LINE
  5
13D86
330
747D
100
AcDbEntity
  8
点線
 48
50.0
100
AcDbLine
 10
6844.42603486659
 20
6148.947238448391
 30
0.0
 11
6844.42603486659
 21
6113.947238448391
 31
0.0
  0
ARC
  5
13D87
330
747D
100
AcDbEntity
  8
部品1
 48
50.0
100
AcDbCircle
 10
7047.426034866591
 20
5936.447238448383
 30
0.0
 40
15.0
100
AcDbArc
 50
270.0
 51
0.0
  0
LINE
  5
13D88
330
747D
100
AcDbEntity
  8
部品1
 48
50.0
100
AcDbLine
 10
6999.426034866591
 20
5984.447238448387
 30
0.0
 11
7062.426034866589
 21
5984.447238448387
 31
0.0
  0
LINE
  5
13D8F
330
747D
100
AcDbEntity
  8
点線
 48
50.0
100
AcDbLine
 10
6782.42603486659
 20
7648.947238448387
 30
0.0
 11
6782.42603486659
 21
6963.947238448387
 31
0.0
  0
LINE
  5
13D90
330
747D
100
AcDbEntity
  8
点線
 48
50.0
100
AcDbLine
 10
6842.426034866591
 20
7648.947238448387
 30
0.0
 11
6842.426034866591
 21
6963.947238448387
 31
0.0
  0
ARC
  5
13D91
330
747D
100
AcDbEntity
  8
点線
 48
50.0
100
AcDbCircle
 10
6834.42603486659
 20
7728.947238448387
 30
0.0
 40
10.0
100
AcDbArc
 50
0.0
 51
90.0
  0
ARC
  5
13D92
330
747D
100
AcDbEntity
  8
点線
 48
50.0
100
AcDbCircle
 10
6790.42603486659
 20
7728.947238448387
 30
0.0
 40
10.0
100
AcDbArc
 50
90.0
 51
180.0
  0
LINE
  5
13D93
330
747D
100
AcDbEntity
  8
点線
 48
50.0
100
AcDbLine
 10
6790.42603486659
 20
7738.947238448386
 30
0.0
 11
6834.42603486659
 21
7738.947238448386
 31
0.0
  0
LINE
  5
13D94
330
747D
100
AcDbEntity
  8
点線
 48
50.0
100
AcDbLine
 10
6844.42603486659
 20
7728.947238448387
 30
0.0
 11
6844.42603486659
 21
7713.947238448387
 31
0.0
  0
LINE
  5
13D95
330
747D
100
AcDbEntity
  8
点線
 48
50.0
100
AcDbLine
 10
6780.42603486659
 20
7728.947238448387
 30
0.0
 11
6780.42603486659
 21
7713.947238448387
 31
0.0
  0
ARC
  5
13D9F
330
747D
100
AcDbEntity
  8
部品1
 48
50.0
100
AcDbCircle
 10
7047.426034866591
 20
7906.447238448388
 30
0.0
 40
15.0
100
AcDbArc
 50
0.0
 51
90.0
  0
LINE
  5
13DA0
330
747D
100
AcDbEntity
  8
部品1
 48
50.0
100
AcDbLine
 10
6999.426034866591
 20
7858.447238448388
 30
0.0
 11
7062.426034866589
 21
7858.447238448388
 31
0.0
  0
DIMENSION
  5
13E7E
330
747D
100
AcDbEntity
  8
寸法
 48
50.0
100
AcDbDimension
  2
*D12
 10
8297.228440851002
 20
1880.562576328023
 30
0.0
 11
8297.228440851002
 21
2981.312576328024
 31
0.0
 12
-210.0
 22
0.0000000000006821
 32
0.0
 70
   160
 71
     5
 42
-1.0
  3
INABA_S30G
100
AcDbAlignedDimension
 13
8905.103549311355
 23
4082.062576328024
 33
0.0
 14
8905.103549311355
 24
1880.562576328023
 34
0.0
 50
90.0
100
AcDbRotatedDimension
  0
DIMENSION
  5
13E98
330
747D
100
AcDbEntity
  8
寸法
 48
50.0
100
AcDbDimension
  2
*D13
 10
11280.74100178595
 20
4002.650581124186
 30
0.0
 11
11280.74100178595
 21
2991.672581441368
 31
0.0
 12
-210.0
 22
0.0000000000006821
 32
0.0
 70
   160
  1
2121.5
 71
     5
 42
-1.0
  3
INABA_S30G
100
AcDbAlignedDimension
 13
11189.64429244082
 23
1880.562576328023
 33
0.0
 14
10905.10354931135
 24
4002.650581124187
 34
0.0
 50
90.0
100
AcDbRotatedDimension
  0
DIMENSION
  5
13EE7
330
747D
100
AcDbEntity
  8
寸法
 48
50.0
100
AcDbDimension
  2
*D14
 10
8297.228440851002
 20
1880.562576328023
 30
0.0
 11
8297.228440851002
 21
1601.027143257157
 31
0.0
 70
   160
 71
     5
 42
-1.0
  3
INABA_S30G
100
AcDbAlignedDimension
 13
8905.103549311355
 23
1830.562576328023
 33
0.0
 14
9865.103549311378
 24
1880.562576328023
 34
0.0
 50
90.0
100
AcDbRotatedDimension
  0
DIMENSION
  5
13F13
330
747D
100
AcDbEntity
  8
寸法
 48
50.0
100
AcDbDimension
  2
*D15
 10
11280.74100178595
 20
1830.562576328023
 30
0.0
 11
11280.74100178595
 21
1601.027143257157
 31
0.0
 12
-210.0
 22
0.0000000000006821
 32
0.0
 70
   160
 71
     5
 42
-1.0
  3
INABA_S30G
100
AcDbAlignedDimension
 13
9945.103549311333
 23
1880.562576328023
 33
0.0
 14
10905.10354931135
 24
1830.562576328023
 34
0.0
 50
90.0
100
AcDbRotatedDimension
  0
LINE
  5
143B2
330
747D
100
AcDbEntity
  8
部品1
 48
50.0
100
AcDbLine
 10
3950.737050907319
 20
3969.96901214066
 30
0.0
 11
1184.115018825869
 21
3969.969012140658
 31
0.0
  0
LINE
  5
143B4
330
747D
100
AcDbEntity
  8
部品1
 48
50.0
100
AcDbLine
 10
3950.426034866594
 20
3909.969012140661
 30
0.0
 11
1184.42603486659
 21
3909.969012140662
 31
0.0
  0
LINE
  5
143B6
330
747D
100
AcDbEntity
  8
部品1
 48
50.0
100
AcDbLine
 10
3950.426034866594
 20
3939.307144620489
 30
0.0
 11
1184.42603486659
 21
3939.307144620489
 31
0.0
  0
LINE
  5
143BA
330
747D
100
AcDbEntity
  8
部品1
 48
50.0
100
AcDbLine
 10
3950.426034866594
 20
3900.228017808711
 30
0.0
 11
1184.42603486659
 21
3900.228017808709
 31
0.0
  0
LINE
  5
145A1
330
747D
100
AcDbEntity
  8
細線
 48
50.0
100
AcDbLine
 10
1417.644974321441
 20
1830.562576328024
 30
0.0
 11
1467.644974321441
 21
1880.562576328024
 31
0.0
  0
LINE
  5
145A2
330
747D
100
AcDbEntity
  8
細線
 48
50.0
100
AcDbLine
 10
1363.76341432144
 20
1830.562576328024
 30
0.0
 11
1413.76341432144
 21
1880.562576328024
 31
0.0
  0
LINE
  5
145A3
330
747D
100
AcDbEntity
  8
細線
 48
50.0
100
AcDbLine
 10
1390.704194321441
 20
1830.562576328024
 30
0.0
 11
1440.704194321441
 21
1880.562576328024
 31
0.0
  0
LINE
  5
145A7
330
747D
100
AcDbEntity
  8
細線
 48
50.0
100
AcDbLine
 10
6563.331720057288
 20
1830.562576328018
 30
0.0
 11
6613.331720057288
 21
1880.562576328018
 31
0.0
  0
LINE
  5
145A8
330
747D
100
AcDbEntity
  8
細線
 48
50.0
100
AcDbLine
 10
6536.390940057291
 20
1830.562576328018
 30
0.0
 11
6586.390940057291
 21
1880.562576328018
 31
0.0
  0
LINE
  5
145A9
330
747D
100
AcDbEntity
  8
細線
 48
50.0
100
AcDbLine
 10
6590.272500057288
 20
1830.562576328018
 30
0.0
 11
6640.272500057289
 21
1880.562576328018
 31
0.0
  0
LINE
  5
145AA
330
747D
100
AcDbEntity
  8
部品1
 48
50.0
100
AcDbLine
 10
4988.92603486659
 20
7817.947238448387
 30
0.0
 11
4988.92603486659
 21
6014.947238448387
 31
0.0
  0
LINE
  5
145AB
330
747D
100
AcDbEntity
  8
部品1
 48
50.0
100
AcDbLine
 10
4965.926034866591
 20
7817.947238448387
 30
0.0
 11
4965.926034866591
 21
6014.947238448387
 31
0.0
  0
LINE
  5
145AC
330
747D
100
AcDbEntity
  8
部品1
 48
50.0
100
AcDbLine
 10
5255.426034866591
 20
7817.947238448387
 30
0.0
 11
5255.426034866591
 21
6014.947238448387
 31
0.0
  0
LINE
  5
145AD
330
747D
100
AcDbEntity
  8
部品1
 48
50.0
100
AcDbLine
 10
5210.42603486659
 20
7817.947238448387
 30
0.0
 11
5210.42603486659
 21
6014.947238448387
 31
0.0
  0
LINE
  5
145AE
330
747D
100
AcDbEntity
  8
部品1
 48
50.0
100
AcDbLine
 10
5137.42603486659
 20
7817.947238448387
 30
0.0
 11
5137.42603486659
 21
6014.947238448387
 31
0.0
  0
LINE
  5
145AF
330
747D
100
AcDbEntity
  8
部品1
 48
50.0
100
AcDbLine
 10
5182.42603486659
 20
7817.947238448387
 30
0.0
 11
5182.42603486659
 21
6014.947238448387
 31
0.0
  0
LINE
  5
145DE
330
747D
100
AcDbEntity
  8
仕様書枠
 48
50.0
100
AcDbLine
 10
105.0000000000018
 20
0.0
 30
0.0
 11
12230.4
 21
0.0
 31
0.0
  0
LINE
  5
145F5
330
747D
100
AcDbEntity
  8
補助
  6
PHANTOM
 62
   230
 48
50.0
100
AcDbLine
 10
11930.4
 20
8182.200000000003
 30
0.0
 11
11930.4
 21
6457.2
 31
0.0
  0
LINE
  5
145F6
330
747D
100
AcDbEntity
  8
補助
  6
PHANTOM
 62
   230
 48
50.0
100
AcDbLine
 10
9380.400000000003
 20
8182.199999999999
 30
0.0
 11
9380.400000000003
 21
6457.2
 31
0.0
  0
LINE
  5
145F7
330
747D
100
AcDbEntity
  8
補助
  6
PHANTOM
 62
   230
 48
50.0
100
AcDbLine
 10
9380.400000000003
 20
6457.2
 30
0.0
 11
11930.4
 21
6457.2
 31
0.0
  0
LINE
  5
145F9
330
747D
100
AcDbEntity
  8
補助
  6
PHANTOM
 62
   230
 48
50.0
100
AcDbLine
 10
9380.400000000003
 20
8182.199999999999
 30
0.0
 11
11930.4
 21
8182.200000000003
 31
0.0
  0
LINE
  5
1468B
330
747D
100
AcDbEntity
  8
寸法
 48
50.0
100
AcDbLine
 10
1152.42603486659
 20
1378.658501641217
 30
0.0
 11
2352.426034866599
 21
1378.658501641217
 31
0.0
  0
INSERT
  5
1468C
330
747D
100
AcDbEntity
  8
寸法
 48
50.0
100
AcDbBlockReference
  2
_DOTSMALL
 10
1152.42603486659
 20
1378.658501641217
 30
0.0
 41
75.0
 42
75.0
 43
75.0
 50
180.0
  0
LINE
  5
1468D
330
747D
100
AcDbEntity
  8
寸法
 48
50.0
100
AcDbLine
 10
1152.42603486659
 20
1695.562576328018
 30
0.0
 11
1152.42603486659
 21
1333.658501641217
 31
0.0
  0
MTEXT
  5
1468E
330
747D
100
AcDbEntity
  8
部品1
 48
50.0
100
AcDbMText
 10
2167.16756006525
 20
1453.667359908933
 30
0.0
 40
90.0
 41
0.0
 71
     5
 72
     1
  1
\A1;2830
  7
STYLE1
 73
     1
 44
1.0
1001
ACAD
1000
MTEXTBEGIN
1070
    73
1070
     1
1070
    44
1040
1.0
1070
    74
1070
     0
1000
MTEXTEND
  0
MTEXT
  5
1468F
330
747D
100
AcDbEntity
  8
部品1
 48
50.0
100
AcDbMText
 10
2998.742231759475
 20
1453.66735990893
 30
0.0
 40
90.0
 41
0.0
 71
     5
 72
     1
  1
\A1;2830
  7
STYLE1
 73
     1
 44
1.0
1001
ACAD
1000
MTEXTBEGIN
1070
    73
1070
     1
1070
    44
1040
1.0
1070
    74
1070
     0
1000
MTEXTEND
  0
LINE
  5
14690
330
747D
100
AcDbEntity
  8
寸法
 48
50.0
100
AcDbLine
 10
2782.426034866601
 20
1378.658501641214
 30
0.0
 11
3982.426034866593
 21
1378.658501641214
 31
0.0
  0
LINE
  5
146A2
330
747D
100
AcDbEntity
  8
Ｇ．Ｌ
 48
50.0
100
AcDbLine
 10
222.8460599607132
 20
1830.562576328021
 30
0.0
 11
11697.30132236497
 21
1830.562576328023
 31
0.0
  0
LINE
  5
146B5
330
747D
100
AcDbEntity
  8
部品1
 48
50.0
100
AcDbLine
 10
987.4260348665906
 20
6963.947238448383
 30
0.0
 11
3843.450304905155
 21
6963.947238448385
 31
0.0
  0
LINE
  5
146B6
330
747D
100
AcDbEntity
  8
部品1
 48
50.0
100
AcDbLine
 10
987.4260348665906
 20
6943.947238448375
 30
0.0
 11
3808.809288753778
 21
6943.947238448385
 31
0.0
  0
LINE
  5
146B7
330
747D
100
AcDbEntity
  8
部品1
 48
50.0
100
AcDbLine
 10
987.4260348665906
 20
6898.947238448387
 30
0.0
 11
3887.135249661099
 21
6898.947238448385
 31
0.0
  0
LINE
  5
146BA
330
747D
100
AcDbEntity
  8
部品1
 48
50.0
100
AcDbLine
 10
2492.858295389262
 20
7921.447238448381
 30
0.0
 11
6627.426034866591
 21
7921.447238448386
 31
0.0
  0
LINE
  5
146BC
330
747D
100
AcDbEntity
  8
部品1
 48
50.0
100
AcDbLine
 10
965.4260348665907
 20
7817.947238448387
 30
0.0
 11
6999.426034866591
 21
7817.947238448387
 31
0.0
  0
LINE
  5
146BD
330
747D
100
AcDbEntity
  8
部品1
 48
50.0
100
AcDbLine
 10
987.4260348665906
 20
7713.947238448383
 30
0.0
 11
3660.356247824746
 21
7713.947238448385
 31
0.0
  0
LINE
  5
146BE
330
747D
100
AcDbEntity
  8
部品1
 48
50.0
100
AcDbLine
 10
987.4260348665904
 20
7693.947238448385
 30
0.0
 11
3665.715231673365
 21
7693.947238448385
 31
0.0
  0
LINE
  5
146BF
330
747D
100
AcDbEntity
  8
部品1
 48
50.0
100
AcDbLine
 10
987.4260348665904
 20
7648.947238448387
 30
0.0
 11
3677.772945332769
 21
7648.947238448389
 31
0.0
  0
LINE
  5
146C0
330
747D
100
AcDbEntity
  8
部品1
 48
50.0
100
AcDbLine
 10
987.4260348665906
 20
6213.947238448382
 30
0.0
 11
4062.280036471427
 21
6213.947238448385
 31
0.0
  0
LINE
  5
146C1
330
747D
100
AcDbEntity
  8
部品1
 48
50.0
100
AcDbLine
 10
987.4260348665904
 20
6193.947238448384
 30
0.0
 11
4067.639020320048
 21
6193.947238448386
 31
0.0
  0
LINE
  5
146C2
330
747D
100
AcDbEntity
  8
部品1
 48
50.0
100
AcDbLine
 10
987.4260348665906
 20
6148.947238448388
 30
0.0
 11
4079.696733979452
 21
6148.947238448386
 31
0.0
  0
LINE
  5
146C3
330
747D
100
AcDbEntity
  8
部品1
 48
50.0
100
AcDbLine
 10
965.4260348665907
 20
6014.947238448386
 30
0.0
 11
6999.426034866591
 21
6014.947238448387
 31
0.0
  0
LINE
  5
146C4
330
747D
100
AcDbEntity
  8
部品1
 48
50.0
100
AcDbLine
 10
917.4260348665907
 20
5921.44723844839
 30
0.0
 11
7047.426034866591
 21
5921.447238448383
 31
0.0
  0
LINE
  5
14753
330
747D
100
AcDbEntity
  8
部品1
 48
50.0
100
AcDbLine
 10
5602.42603486659
 20
7817.947238448386
 30
0.0
 11
5602.42603486659
 21
6014.947238448386
 31
0.0
  0
LINE
  5
14754
330
747D
100
AcDbEntity
  8
部品1
 48
50.0
100
AcDbLine
 10
5557.42603486659
 20
7817.947238448386
 30
0.0
 11
5557.42603486659
 21
6014.947238448386
 31
0.0
  0
LINE
  5
14755
330
747D
100
AcDbEntity
  8
部品1
 48
50.0
100
AcDbLine
 10
5630.426034866591
 20
7817.947238448386
 30
0.0
 11
5630.426034866591
 21
6014.947238448386
 31
0.0
  0
LINE
  5
14756
330
747D
100
AcDbEntity
  8
部品1
 48
50.0
100
AcDbLine
 10
5675.42603486659
 20
7817.947238448386
 30
0.0
 11
5675.42603486659
 21
6014.947238448386
 31
0.0
  0
LINE
  5
14757
330
747D
100
AcDbEntity
  8
部品1
 48
50.0
100
AcDbLine
 10
5385.92603486659
 20
7817.947238448386
 30
0.0
 11
5385.92603486659
 21
6014.947238448386
 31
0.0
  0
LINE
  5
14758
330
747D
100
AcDbEntity
  8
部品1
 48
50.0
100
AcDbLine
 10
5408.92603486659
 20
7817.947238448386
 30
0.0
 11
5408.92603486659
 21
6014.947238448386
 31
0.0
  0
DIMENSION
  5
14776
330
747D
100
AcDbEntity
  8
寸法
 48
50.0
100
AcDbDimension
  2
*D16
 10
7062.426034866589
 20
8256.091035740652
 30
0.0
 11
3982.42603486659
 21
8331.099894008367
 31
0.0
 70
    32
  1
N X 2830 + 500
 71
     5
 42
6160.0
  3
INABA_S30G
100
AcDbAlignedDimension
 13
902.4260348665906
 23
7906.447238448382
 33
0.0
 14
7062.426034866589
 24
7905.978717162716
 34
0.0
100
AcDbRotatedDimension
  0
LINE
  5
147A6
330
747D
100
AcDbEntity
  8
補助
  6
PHANTOM
 62
   230
 48
50.0
100
AcDbLine
 10
9380.400000000003
 20
6767.200000000001
 30
0.0
 11
11930.4
 21
6767.200000000002
 31
0.0
  0
TEXT
  5
14852
330
747D
100
AcDbEntity
  8
文字
 62
     7
 48
50.0
100
AcDbText
 10
9907.054008162901
 20
171.4076431926769
 30
0.0
 40
75.0
  1
○間口奥行寸法は柱芯寸法です。    N : 連続数
  7
STYLE2
100
AcDbText
  0
TEXT
  5
14853
330
747D
100
AcDbEntity
  8
仕様書枠
 62
     7
 48
50.0
100
AcDbText
 10
11158.94957995053
 20
628.6895453046891
 30
0.0
 40
75.0
  1
～一般型～
  7
STYLE2
100
AcDbText
  0
TEXT
  5
14854
330
747D
100
AcDbEntity
  8
仕様書枠
 62
     7
 48
50.0
100
AcDbText
 10
10984.92759423544
 20
362.9225347433557
 30
0.0
 40
120.0
  1
BY-２８L
  7
STYLE3
100
AcDbText
  0
TEXT
  5
14855
330
747D
100
AcDbEntity
  8
文字
 62
     7
 48
50.0
100
AcDbText
 10
10893.0988779165
 20
773.6682797184214
 30
0.0
 40
75.0
  1
NO.07     <縮尺> S=1/30
  7
STYLE2
100
AcDbText
  0
TEXT
  5
14856
330
747D
100
AcDbEntity
  8
仕様書枠
 62
     7
 48
50.0
100
AcDbText
 10
9901.077524988314
 20
357.9555495773438
 30
0.0
 40
120.0
  1
機種名
  7
STYLE2
100
AcDbText
  0
LINE
  5
14857
330
747D
100
AcDbEntity
  8
仕様書枠
 48
50.0
100
AcDbLine
 10
9830.400000000002
 20
600.0
 30
0.0
 11
10688.4
 21
600.0
 31
0.0
  0
TEXT
  5
14858
330
747D
100
AcDbEntity
  8
仕様書枠
 62
     7
 48
50.0
100
AcDbText
 10
9872.234292432679
 20
671.3179555724555
 30
0.0
 40
150.0
  1
外 形 図
  7
STYLE2
100
AcDbText
  0
LINE
  5
14859
330
747D
100
AcDbEntity
  8
仕様書枠
  6
Continuous
 48
50.0
100
AcDbLine
 10
10688.4
 20
900.0
 30
0.0
 11
10688.4
 21
600.0
 31
0.0
  0
LINE
  5
1485A
330
747D
100
AcDbEntity
  8
仕様書枠
  6
Continuous
 48
50.0
100
AcDbLine
 10
10688.4
 20
900.0
 30
0.0
 11
10688.4
 21
600.0
 31
0.0
  0
LINE
  5
1485B
330
747D
100
AcDbEntity
  8
仕様書枠
 48
50.0
100
AcDbLine
 10
9830.400000000002
 20
900.0
 30
0.0
 11
12230.4
 21
900.0
 31
0.0
  0
LINE
  5
1485C
330
747D
100
AcDbEntity
  8
仕様書枠
 62
     7
 48
50.0
100
AcDbLine
 10
9890.400000000001
 20
300.0
 30
0.0
 11
12170.4
 21
300.0
 31
0.0
  0
LINE
  5
1485D
330
747D
100
AcDbEntity
  8
仕様書枠
  6
Continuous
 48
50.0
100
AcDbLine
 10
9830.400000000002
 20
900.0
 30
0.0
 11
9830.400000000002
 21
0.0
 31
0.0
  0
LINE
  5
1485E
330
747D
100
AcDbEntity
  8
仕様書枠
 48
50.0
100
AcDbLine
 10
12230.4
 20
900.0
 30
0.0
 11
12230.4
 21
0.0
 31
0.0
  0
LINE
  5
1485F
330
747D
100
AcDbEntity
  8
仕様書枠
 48
50.0
100
AcDbLine
 10
9830.400000000002
 20
900.0
 30
0.0
 11
12230.4
 21
900.0
 31
0.0
  0
LINE
  5
14860
330
747D
100
AcDbEntity
  8
仕様書枠
 48
50.0
100
AcDbLine
 10
9830.400000000002
 20
900.0
 30
0.0
 11
12230.4
 21
900.0
 31
0.0
  0
TEXT
  5
14861
330
747D
100
AcDbEntity
  8
文字
 62
     7
 48
50.0
100
AcDbText
 10
10877.60711170164
 20
7921.44956597415
 30
0.0
 40
81.11400000000001
  1
F12            2.3
  7
STYLE1
100
AcDbText
  0
TEXT
  5
14862
330
747D
100
AcDbEntity
  8
文字
 62
     7
 48
50.0
100
AcDbText
 10
10861.52220711125
 20
6956.192965974155
 30
0.0
 40
81.11400000000001
  1
Y10            0.7
  7
STYLE1
100
AcDbText
  0
TEXT
  5
14863
330
747D
100
AcDbEntity
  8
文字
 62
     7
 48
50.0
100
AcDbText
 10
10861.52220711125
 20
7369.874365974152
 30
0.0
 40
81.11400000000001
  1
Y10            0.7
  7
STYLE1
100
AcDbText
  0
TEXT
  5
14864
330
747D
100
AcDbEntity
  8
文字
 62
     7
 48
50.0
100
AcDbText
 10
10861.52220711126
 20
7094.086765974155
 30
0.0
 40
81.11400000000001
  1
Y10            0.5
  7
STYLE1
100
AcDbText
  0
TEXT
  5
14865
330
747D
100
AcDbEntity
  8
文字
 62
     7
 48
50.0
100
AcDbText
 10
10877.60711170163
 20
7645.661965974155
 30
0.0
 40
81.11400000000001
  1
PZ            2.3
  7
STYLE1
100
AcDbText
  0
TEXT
  5
14866
330
747D
100
AcDbEntity
  8
文字
 62
     7
 48
50.0
100
AcDbText
 10
9737.676281202817
 20
7507.768165974153
 30
0.0
 40
81.11400000000001
  1
母屋
  7
STYLE1
100
AcDbText
  0
TEXT
  5
14867
330
747D
100
AcDbEntity
  8
文字
 62
     7
 48
50.0
100
AcDbText
 10
10877.60711170164
 20
7507.768165974153
 30
0.0
 40
81.11400000000001
  1
F12            1.6
  7
STYLE1
100
AcDbText
  0
LINE
  5
14868
330
747D
100
AcDbEntity
  8
部品1
100
AcDbLine
 10
9369.565390151638
 20
8172.567360138026
 30
0.0
 11
9369.56539015164
 21
6379.947960138027
 31
0.0
  0
TEXT
  5
14869
330
747D
100
AcDbEntity
  8
文字
 62
     7
 48
50.0
100
AcDbText
 10
10877.60711170164
 20
6818.299165974152
 30
0.0
 40
81.11400000000001
  1
硬質塩化ビニール
  7
STYLE1
100
AcDbText
  0
TEXT
  5
1486A
330
747D
100
AcDbEntity
  8
文字
 62
     7
 48
50.0
100
AcDbText
 10
10877.60711170164
 20
7783.555765974153
 30
0.0
 40
81.11400000000001
  1
PZ            3.2
  7
STYLE1
100
AcDbText
  0
LINE
  5
1486B
330
747D
100
AcDbEntity
  8
部品1
100
AcDbLine
 10
11919.56539015164
 20
6655.735560138026
 30
0.0
 11
9369.565390151638
 21
6655.735560138028
 31
0.0
  0
LINE
  5
1486C
330
747D
100
AcDbEntity
  8
部品1
100
AcDbLine
 10
11919.56539015164
 20
7069.416960138027
 30
0.0
 11
9369.565390151636
 21
7069.416960138027
 31
0.0
  0
LINE
  5
1486D
330
747D
100
AcDbEntity
  8
部品1
100
AcDbLine
 10
11919.56539015164
 20
6379.947960138026
 30
0.0
 11
9369.565390151638
 21
6379.947960138026
 31
0.0
  0
LINE
  5
1486E
330
747D
100
AcDbEntity
  8
部品1
100
AcDbLine
 10
11919.56539015164
 20
6517.841760138025
 30
0.0
 11
9369.565390151636
 21
6517.841760138025
 31
0.0
  0
TEXT
  5
1486F
330
747D
100
AcDbEntity
  8
文字
 62
     7
 48
50.0
100
AcDbText
 10
9484.659110582219
 20
7231.980565974152
 30
0.0
 40
81.11400000000001
  1
6
  7
STYLE1
100
AcDbText
  0
TEXT
  5
14870
330
747D
100
AcDbEntity
  8
文字
 62
     7
 48
50.0
100
AcDbText
 10
9484.659110582214
 20
7094.086765974153
 30
0.0
 40
81.11400000000001
  1
7
  7
STYLE1
100
AcDbText
  0
TEXT
  5
14871
330
747D
100
AcDbEntity
  8
文字
 62
     7
 48
50.0
100
AcDbText
 10
9484.659110582214
 20
6956.192965974152
 30
0.0
 40
81.11400000000001
  1
8
  7
STYLE1
100
AcDbText
  0
TEXT
  5
14872
330
747D
100
AcDbEntity
  8
文字
 62
     7
 48
50.0
100
AcDbText
 10
9484.659110582219
 20
7369.874365974151
 30
0.0
 40
81.11400000000001
  1
5
  7
STYLE1
100
AcDbText
  0
TEXT
  5
14873
330
747D
100
AcDbEntity
  8
文字
 62
     7
 48
50.0
100
AcDbText
 10
9737.676281202816
 20
6956.192965974155
 30
0.0
 40
81.11400000000001
  1
鼻隠シ
  7
STYLE1
100
AcDbText
  0
TEXT
  5
14874
330
747D
100
AcDbEntity
  8
文字
 62
     7
 48
50.0
100
AcDbText
 10
9737.676281202817
 20
7645.661965974155
 30
0.0
 40
81.11400000000001
  1
梁
  7
STYLE1
100
AcDbText
  0
TEXT
  5
14875
330
747D
100
AcDbEntity
  8
文字
 62
     7
 48
50.0
100
AcDbText
 10
9737.676281202812
 20
7783.555765974153
 30
0.0
 40
81.11400000000001
  1
柱
  7
STYLE1
100
AcDbText
  0
TEXT
  5
14876
330
747D
100
AcDbEntity
  8
文字
 62
     7
 48
50.0
100
AcDbText
 10
10745.51952595955
 20
8059.343365974152
 30
0.0
 40
81.11400000000001
  1
材料（材質）　　単位mm
  7
STYLE1
100
AcDbText
  0
TEXT
  5
14877
330
747D
100
AcDbEntity
  8
文字
 62
     7
 48
50.0
100
AcDbText
 10
9877.801245649365
 20
8059.343365974152
 30
0.0
 40
81.11400000000001
  1
部　　品　　名
  7
STYLE1
100
AcDbText
  0
TEXT
  5
14878
330
747D
100
AcDbEntity
  8
文字
 62
     7
 48
50.0
100
AcDbText
 10
9484.659110582219
 20
7645.661965974152
 30
0.0
 40
81.11400000000001
  1
3
  7
STYLE1
100
AcDbText
  0
TEXT
  5
14879
330
747D
100
AcDbEntity
  8
文字
 62
     7
 48
50.0
100
AcDbText
 10
9484.659110582219
 20
7507.768165974152
 30
0.0
 40
81.11400000000001
  1
4
  7
STYLE1
100
AcDbText
  0
TEXT
  5
1487A
330
747D
100
AcDbEntity
  8
文字
 62
     7
 48
50.0
100
AcDbText
 10
9484.659110582219
 20
7783.555765974154
 30
0.0
 40
81.11400000000001
  1
2
  7
STYLE1
100
AcDbText
  0
TEXT
  5
1487B
330
747D
100
AcDbEntity
  8
文字
 62
     7
 48
50.0
100
AcDbText
 10
9484.659110582219
 20
7921.449565974151
 30
0.0
 40
81.11400000000001
  1
1
  7
STYLE1
100
AcDbText
  0
TEXT
  5
1487C
330
747D
100
AcDbEntity
  8
文字
 62
     7
 48
50.0
100
AcDbText
 10
9424.825257482696
 20
8059.343365974152
 30
0.0
 40
81.11400000000001
  1
品番
  7
STYLE1
100
AcDbText
  0
LINE
  5
1487D
330
747D
100
AcDbEntity
  8
部品1
100
AcDbLine
 10
11919.56539015164
 20
7620.992160138027
 30
0.0
 11
9369.565390151638
 21
7620.992160138027
 31
0.0
  0
LINE
  5
1487E
330
747D
100
AcDbEntity
  8
部品1
100
AcDbLine
 10
11919.56539015164
 20
7345.204560138028
 30
0.0
 11
9369.565390151638
 21
7345.204560138028
 31
0.0
  0
LINE
  5
1487F
330
747D
100
AcDbEntity
  8
部品1
100
AcDbLine
 10
11919.56539015164
 20
7483.098360138026
 30
0.0
 11
9369.565390151638
 21
7483.098360138026
 31
0.0
  0
LINE
  5
14880
330
747D
100
AcDbEntity
  8
部品1
100
AcDbLine
 10
11919.56539015164
 20
7896.779760138027
 30
0.0
 11
9369.565390151636
 21
7896.779760138027
 31
0.0
  0
LINE
  5
14881
330
747D
100
AcDbEntity
  8
部品1
100
AcDbLine
 10
11919.56539015164
 20
7758.885960138028
 30
0.0
 11
9369.565390151636
 21
7758.885960138027
 31
0.0
  0
LINE
  5
14882
330
747D
100
AcDbEntity
  8
部品1
100
AcDbLine
 10
11919.56539015164
 20
8034.673560138024
 30
0.0
 11
9369.565390151636
 21
8034.673560138026
 31
0.0
  0
LINE
  5
14883
330
747D
100
AcDbEntity
  8
部品1
100
AcDbLine
 10
9662.306620431811
 20
8172.567360138026
 30
0.0
 11
9662.306620431822
 21
6793.629360138028
 31
0.0
  0
LINE
  5
14884
330
747D
100
AcDbEntity
  8
部品1
100
AcDbLine
 10
10685.01031015164
 20
8172.567360138023
 30
0.0
 11
10685.01031015164
 21
6793.629360138027
 31
0.0
  0
LINE
  5
14885
330
747D
100
AcDbEntity
  8
部品1
100
AcDbLine
 10
11919.56539015164
 20
6379.947960138026
 30
0.0
 11
11919.56539015164
 21
8172.567360138026
 31
0.0
  0
LINE
  5
14886
330
747D
100
AcDbEntity
  8
部品1
100
AcDbLine
 10
11919.56539015164
 20
8172.567360138026
 30
0.0
 11
9369.565390151636
 21
8172.567360138026
 31
0.0
  0
LINE
  5
14887
330
747D
100
AcDbEntity
  8
部品1
100
AcDbLine
 10
11919.56539015164
 20
6793.629360138027
 30
0.0
 11
9369.565390151638
 21
6793.62936013803
 31
0.0
  0
TEXT
  5
14888
330
747D
100
AcDbEntity
  8
文字
 62
     7
 48
50.0
100
AcDbText
 10
9737.676281202816
 20
7094.086765974155
 30
0.0
 40
81.11400000000001
  1
屋根パネル
  7
STYLE1
100
AcDbText
  0
TEXT
  5
14889
330
747D
100
AcDbEntity
  8
文字
 62
     7
 48
50.0
100
AcDbText
 10
9737.676281202814
 20
7921.44956597415
 30
0.0
 40
81.11400000000001
  1
プレート
  7
STYLE1
100
AcDbText
  0
TEXT
  5
1488A
330
747D
100
AcDbEntity
  8
文字
 62
     7
 48
50.0
100
AcDbText
 10
9737.676281202816
 20
6818.299165974156
 30
0.0
 40
81.11400000000001
  1
雨とい(別売)
  7
STYLE1
100
AcDbText
  0
TEXT
  5
1488B
330
747D
100
AcDbEntity
  8
文字
 62
     7
 48
50.0
100
AcDbText
 10
9451.110760980769
 20
6542.511565974155
 30
0.0
 40
81.11400000000001
  1
F12→溶融亜鉛めっき鋼板(JIS G 3302)
  7
STYLE1
100
AcDbText
  0
TEXT
  5
1488C
330
747D
100
AcDbEntity
  8
文字
 62
     7
 48
50.0
100
AcDbText
 10
9451.11076098076
 20
6404.617765974153
 30
0.0
 40
81.11400000000001
  1
Y10→溶融亜鉛-5％アルミニウム合金めっき鋼板(JIS G 3317)
 41
0.9
  7
STYLE1
100
AcDbText
  0
TEXT
  5
1488D
330
747D
100
AcDbEntity
  8
文字
 62
     7
 48
50.0
100
AcDbText
 10
9451.110760980926
 20
6680.405365974156
 30
0.0
 40
81.11400000000001
  1
PZ→一般構造用角形鋼管(JIS G 3466)
 41
0.9
  7
STYLE1
100
AcDbText
  0
LINE
  5
1488E
330
747D
100
AcDbEntity
  8
部品1
100
AcDbLine
 10
11919.56539015164
 20
6931.523160138027
 30
0.0
 11
9369.565390151636
 21
6931.523160138027
 31
0.0
  0
TEXT
  5
1488F
330
747D
100
AcDbEntity
  8
文字
 62
     7
 48
50.0
100
AcDbText
 10
9737.676281202816
 20
7369.874365974152
 30
0.0
 40
81.11400000000001
  1
妻板
  7
STYLE1
100
AcDbText
  0
LINE
  5
14890
330
747D
100
AcDbEntity
  8
部品1
100
AcDbLine
 10
11919.56539015164
 20
7207.310760138027
 30
0.0
 11
9369.565390151636
 21
7207.310760138027
 31
0.0
  0
TEXT
  5
14891
330
747D
100
AcDbEntity
  8
文字
 62
     7
 48
50.0
100
AcDbText
 10
10861.52220711126
 20
7231.980565974156
 30
0.0
 40
81.11400000000001
  1
Y10            1.0
  7
STYLE1
100
AcDbText
  0
TEXT
  5
14892
330
747D
100
AcDbEntity
  8
文字
 62
     7
 48
50.0
100
AcDbText
 10
9737.676281202816
 20
7231.980565974156
 30
0.0
 40
81.11400000000001
  1
梁中屋根板
  7
STYLE1
100
AcDbText
  0
TEXT
  5
14893
330
747D
100
AcDbEntity
  8
文字
 62
     7
 48
50.0
100
AcDbText
 10
9484.659110582216
 20
6818.299165974153
 30
0.0
 40
81.11400000000001
  1
9
  7
STYLE1
100
AcDbText
  0
TEXT
  5
148AE
330
747D
100
AcDbEntity
  8
部品1
 48
50.0
100
AcDbText
 10
10459.8125330582
 20
2722.946583362421
 30
0.0
 40
80.0
  1
(別売)
  7
STYLE2
100
AcDbText
  0
LINE
  5
148AF
330
747D
100
AcDbEntity
  8
寸法
 48
50.0
100
AcDbLine
 10
10001.03217757512
 20
2869.446433548755
 30
0.0
 11
10275.09235034399
 21
2816.194779334889
 31
0.0
  0
TEXT
  5
148B0
330
747D
100
AcDbEntity
  8
部品1
 48
50.0
100
AcDbText
 10
10266.15167760061
 20
2739.156775525041
 30
0.0
 40
120.0
  1
⑨
  7
STYLE2
100
AcDbText
  0
LINE
  5
148BD
330
747D
100
AcDbEntity
  8
点線
 48
18.0
100
AcDbLine
 10
987.4260348665906
 20
7693.947238448385
 30
0.0
 11
941.4260348665905
 21
7693.947238448385
 31
0.0
  0
LINE
  5
148BE
330
747D
100
AcDbEntity
  8
点線
 48
18.0
100
AcDbLine
 10
987.4260348665906
 20
6943.947238448382
 30
0.0
 11
941.4260348665905
 21
6943.94723844838
 31
0.0
  0
LINE
  5
148BF
330
747D
100
AcDbEntity
  8
点線
 48
18.0
100
AcDbLine
 10
987.4260348665906
 20
6193.947238448386
 30
0.0
 11
941.4260348665903
 21
6193.947238448386
 31
0.0
  0
LINE
  5
148C0
330
747D
100
AcDbEntity
  8
点線
 48
18.0
100
AcDbLine
 10
1122.426034866591
 20
6213.947238448385
 30
0.0
 11
1122.426034866591
 21
6148.947238448386
 31
0.0
  0
LINE
  5
148C1
330
747D
100
AcDbEntity
  8
点線
 48
18.0
100
AcDbLine
 10
1182.42603486659
 20
6213.947238448385
 30
0.0
 11
1182.42603486659
 21
6148.947238448386
 31
0.0
  0
LINE
  5
148C2
330
747D
100
AcDbEntity
  8
点線
 48
18.0
100
AcDbLine
 10
1122.426034866591
 20
6963.947238448382
 30
0.0
 11
1122.426034866591
 21
6898.947238448385
 31
0.0
  0
LINE
  5
148C4
330
747D
100
AcDbEntity
  8
点線
 48
18.0
100
AcDbLine
 10
1182.42603486659
 20
6963.947238448382
 30
0.0
 11
1182.42603486659
 21
6898.947238448385
 31
0.0
  0
LINE
  5
148C5
330
747D
100
AcDbEntity
  8
点線
 48
18.0
100
AcDbLine
 10
1120.426034866591
 20
7713.947238448385
 30
0.0
 11
1120.426034866591
 21
7693.947238448385
 31
0.0
  0
LINE
  5
148C6
330
747D
100
AcDbEntity
  8
点線
 48
18.0
100
AcDbLine
 10
1184.42603486659
 20
7713.947238448385
 30
0.0
 11
1184.42603486659
 21
7693.947238448385
 31
0.0
  0
LINE
  5
148C7
330
747D
100
AcDbEntity
  8
点線
 48
18.0
100
AcDbLine
 10
1122.426034866591
 20
7648.947238448385
 30
0.0
 11
1122.426034866591
 21
7693.947238448385
 31
0.0
  0
LINE
  5
148C8
330
747D
100
AcDbEntity
  8
点線
 48
18.0
100
AcDbLine
 10
1182.42603486659
 20
7648.947238448386
 30
0.0
 11
1182.42603486659
 21
7693.947238448385
 31
0.0
  0
LINE
  5
148C9
330
747D
100
AcDbEntity
  8
点線
 48
50.0
100
AcDbLine
 10
3665.715231673368
 20
7693.947238448385
 30
0.0
 11
7023.42603486659
 21
7693.947238448385
 31
0.0
  0
LINE
  5
148CA
330
747D
100
AcDbEntity
  8
点線
 48
50.0
100
AcDbLine
 10
3808.809288753776
 20
6943.947238448385
 30
0.0
 11
7023.426034866592
 21
6943.947238448386
 31
0.0
  0
LINE
  5
148CB
330
747D
100
AcDbEntity
  8
点線
 48
50.0
100
AcDbLine
 10
4067.639020320048
 20
6193.947238448386
 30
0.0
 11
7023.42603486659
 21
6193.947238448386
 31
0.0
  0
LINE
  5
148CC
330
747D
100
AcDbEntity
  8
部品1
 48
50.0
100
AcDbLine
 10
3982.426034866591
 20
6148.947238448386
 30
0.0
 11
3982.426034866591
 21
6213.947238448384
 31
0.0
  0
LINE
  5
148CD
330
747D
100
AcDbEntity
  8
点線
 48
18.0
100
AcDbLine
 10
3982.42603486659
 20
7648.947238448383
 30
0.0
 11
3982.426034866591
 21
7713.947238448382
 31
0.0
  0
LINE
  5
148CE
330
747D
100
AcDbEntity
  8
点線
 48
18.0
100
AcDbLine
 10
3982.426034866591
 20
6898.947238448386
 30
0.0
 11
3982.426034866591
 21
6963.947238448382
 31
0.0
  0
LINE
  5
148CF
330
747D
100
AcDbEntity
  8
点線
 48
18.0
100
AcDbLine
 10
3952.42603486659
 20
6213.947238448385
 30
0.0
 11
3952.42603486659
 21
6148.947238448386
 31
0.0
  0
LINE
  5
148D0
330
747D
100
AcDbEntity
  8
点線
 48
18.0
100
AcDbLine
 10
4012.42603486659
 20
6213.947238448385
 30
0.0
 11
4012.42603486659
 21
6148.947238448386
 31
0.0
  0
LINE
  5
148D1
330
747D
100
AcDbEntity
  8
センター
 48
50.0
100
AcDbLine
 10
1152.42603486659
 20
2100.562576328026
 30
0.0
 11
1152.42603486659
 21
1710.562576328026
 31
0.0
  0
LINE
  5
148D3
330
747D
100
AcDbEntity
  8
センター
 48
50.0
100
AcDbLine
 10
3982.426034866594
 20
2100.562576328023
 30
0.0
 11
3982.426034866594
 21
1710.562576328023
 31
0.0
  0
LINE
  5
148D4
330
747D
100
AcDbEntity
  8
センター
 48
50.0
100
AcDbLine
 10
6812.426034866594
 20
2100.562576328018
 30
0.0
 11
6812.426034866594
 21
1710.562576328018
 31
0.0
  0
SPLINE
  5
14906
330
747D
100
AcDbEntity
  8
部品1
 48
50.0
100
AcDbSpline
210
0.0
220
0.0
230
1.0
 70
     8
 71
     3
 72
    10
 73
     6
 74
     4
 42
0.0000000001
 43
0.0000000001
 44
0.0000000001
 40
0.0
 40
0.0
 40
0.0
 40
0.0
 40
147.8767566010009
 40
301.8091093202477
 40
466.5049223087734
 40
466.5049223087734
 40
466.5049223087734
 40
466.5049223087734
 10
2512.424018270198
 20
6994.207200363063
 30
0.0
 10
2589.305700765033
 20
6985.302766705224
 30
0.0
 10
2746.21739297516
 20
6967.129260245894
 30
0.0
 10
2423.403983030818
 20
6864.608675606551
 30
0.0
 10
2593.246602700191
 20
6845.973586894347
 30
0.0
 10
2681.036607907084
 20
6836.341290017037
 30
0.0
 11
2512.424018270198
 21
6994.207200363063
 31
0.0
 11
2655.261996578967
 21
6955.933879426734
 31
0.0
 11
2521.952668659793
 21
6878.96770306711
 31
0.0
 11
2681.036607907084
 21
6836.341290017037
 31
0.0
  0
LINE
  5
14907
330
747D
100
AcDbEntity
  8
部品1
 48
50.0
100
AcDbLine
 10
2282.977706153911
 20
8021.447238448384
 30
0.0
 11
2872.465929502379
 21
5821.447238448385
 31
0.0
  0
SPLINE
  5
14916
330
747D
100
AcDbEntity
  8
部品1
 48
50.0
100
AcDbSpline
210
0.0
220
0.0
230
1.0
 70
     8
 71
     3
 72
    10
 73
     6
 74
     4
 42
0.0000000001
 43
0.0000000001
 44
0.0000000001
 40
0.0
 40
0.0
 40
0.0
 40
0.0
 40
147.8767566010009
 40
301.8091093202477
 40
466.5049223087734
 40
466.5049223087734
 40
466.5049223087734
 40
466.5049223087734
 10
2512.4240182702
 20
2926.694166519136
 30
0.0
 10
2589.305700765035
 20
2917.789732861297
 30
0.0
 10
2746.217392975162
 20
2899.616226401965
 30
0.0
 10
2423.40398303082
 20
2797.095641762622
 30
0.0
 10
2593.246602700193
 20
2778.460553050419
 30
0.0
 10
2681.036607907087
 20
2768.82825617311
 30
0.0
 11
2512.4240182702
 21
2926.694166519136
 31
0.0
 11
2655.261996578969
 21
2888.420845582807
 31
0.0
 11
2521.952668659795
 21
2811.454669223183
 31
0.0
 11
2681.036607907087
 21
2768.82825617311
 31
0.0
  0
LINE
  5
14917
330
747D
100
AcDbEntity
  8
部品1
 48
50.0
100
AcDbLine
 10
2222.014876800598
 20
4181.450581124191
 30
0.0
 11
2878.728338424852
 21
1730.562576328025
 31
0.0
  0
LINE
  5
14921
330
747D
100
AcDbEntity
  8
部品1
 48
50.0
100
AcDbLine
 10
3982.426034866589
 20
3977.04655556636
 30
0.0
 11
3982.42603486659
 21
3970.897875741638
 31
0.0
  0
LINE
  5
1492E
330
747D
100
AcDbEntity
  8
点線
 48
18.0
100
AcDbLine
 10
941.4260348665907
 20
7713.947238448383
 30
0.0
 11
941.4260348665909
 21
7648.947238448385
 31
0.0
  0
LINE
  5
1492F
330
747D
100
AcDbEntity
  8
点線
 48
18.0
100
AcDbLine
 10
7023.42603486659
 20
7713.947238448388
 30
0.0
 11
7023.42603486659
 21
7648.947238448387
 31
0.0
  0
LINE
  5
14930
330
747D
100
AcDbEntity
  8
点線
 48
18.0
100
AcDbLine
 10
941.4260348665907
 20
6963.947238448381
 30
0.0
 11
941.4260348665905
 21
6898.947238448385
 31
0.0
  0
LINE
  5
14931
330
747D
100
AcDbEntity
  8
点線
 48
18.0
100
AcDbLine
 10
941.4260348665903
 20
6213.947238448384
 30
0.0
 11
941.4260348665902
 21
6148.947238448385
 31
0.0
  0
LINE
  5
14934
330
747D
100
AcDbEntity
  8
点線
 48
18.0
100
AcDbLine
 10
7023.42603486659
 20
6963.947238448387
 30
0.0
 11
7023.42603486659
 21
6898.947238448386
 31
0.0
  0
LINE
  5
14935
330
747D
100
AcDbEntity
  8
点線
 48
18.0
100
AcDbLine
 10
7023.42603486659
 20
6213.947238448388
 30
0.0
 11
7023.426034866588
 21
6148.947238448386
 31
0.0
  0
ENDSEC
  0
SECTION
  2
OBJECTS
  0
DICTIONARY
  5
7471
330
0
100
AcDbDictionary
281
     1
  3
ACAD_COLOR
350
147FE
  3
ACAD_GROUP
350
7472
  3
ACAD_LAYOUT
350
147FF
  3
ACAD_MATERIAL
350
147FD
  3
ACAD_MLINESTYLE
350
7473
  3
ACAD_PLOTSETTINGS
350
14800
  3
ACAD_PLOTSTYLENAME
350
147FB
  3
ACDBHEADERROUNDTRIPXREC
350
1494D
  3
AcDbVariableDictionary
350
14949
  3
CONTENTDICTIONARY
350
E71C
  3
DRAWINGVARIABLESDICT
350
F3B9
  0
DICTIONARY
  5
1480A
330
7467
100
AcDbDictionary
280
     1
281
     1
  3
ACAD_LAYERFILTERS
360
148BC
  3
ACAD_LAYERSTATES
360
1480B
  0
DICTIONARY
  5
147FE
102
{ACAD_REACTORS
330
7471
102
}
330
7471
100
AcDbDictionary
281
     1
  0
DICTIONARY
  5
7472
102
{ACAD_REACTORS
330
7471
102
}
330
7471
100
AcDbDictionary
281
     1
  0
DICTIONARY
  5
147FF
102
{ACAD_REACTORS
330
7471
102
}
330
7471
100
AcDbDictionary
281
     1
  3
Model
350
14801
  3
レイアウト1
350
14802
  0
DICTIONARY
  5
147FD
102
{ACAD_REACTORS
330
7471
102
}
330
7471
100
AcDbDictionary
281
     1
  0
DICTIONARY
  5
7473
102
{ACAD_REACTORS
330
7471
102
}
330
7471
100
AcDbDictionary
281
     1
  3
STANDARD
350
7480
  0
DICTIONARY
  5
14800
102
{ACAD_REACTORS
330
7471
102
}
330
7471
100
AcDbDictionary
281
     1
  0
ACDBDICTIONARYWDFLT
  5
147FB
102
{ACAD_REACTORS
330
7471
102
}
330
7471
100
AcDbDictionary
281
     1
  3
Normal
350
147FC
100
AcDbDictionaryWithDefault
340
147FC
  0
DICTIONARY
  5
1494D
102
{ACAD_REACTORS
330
7471
102
}
330
7471
100
AcDbDictionary
281
     1
  3
COLORDICT
350
1494F
  3
MATERIALDICT
350
1494E
  0
DICTIONARY
  5
14949
102
{ACAD_REACTORS
330
7471
102
}
330
7471
100
AcDbDictionary
281
     1
  3
DIMASSOC
350
1494A
  3
PROJECTNAME
350
1494B
  0
DICTIONARY
  5
E71C
102
{ACAD_REACTORS
330
7471
102
}
330
7471
100
AcDbDictionary
281
     1
  0
DICTIONARY
  5
F3B9
102
{ACAD_REACTORS
330
7471
102
}
330
7471
100
AcDbDictionary
281
     1
1001
DRAWINGVARIABLESXDATA
1000
POLARMODE
1000
1
  0
DICTIONARY
  5
148BC
102
{ACAD_REACTORS
330
1480A
102
}
330
1480A
100
AcDbDictionary
281
     1
  0
DICTIONARY
  5
1480B
102
{ACAD_REACTORS
330
1480A
102
}
330
1480A
100
AcDbDictionary
281
     1
  0
LAYOUT
  5
14801
102
{ACAD_XDICTIONARY
360
14950
102
}
102
{ACAD_REACTORS
330
147FF
102
}
330
147FF
100
AcDbPlotSettings
  1

  2
Microsoft XPS Document Writer
  4

  6

 40
0.0
 41
0.0
 42
0.0
 43
0.0
 44
0.0
 45
0.0
 46
0.0
 47
0.0
 48
0.0
 49
0.0
140
0.0
141
0.0
142
1.0
143
1.0
 70
  1712
 72
     0
 73
     0
 74
     0
  7

 75
     0
147
1.0
148
0.0
149
0.0
100
AcDbLayout
  1
Model
 70
     1
 71
     0
 10
0.0
 20
0.0
 11
12.0
 21
9.0
 12
0.0
 22
0.0
 32
0.0
 14
0.0
 24
0.0
 34
0.0
 15
0.0
 25
0.0
 35
0.0
146
0.0
 13
0.0
 23
0.0
 33
0.0
 16
1.0
 26
0.0
 36
0.0
 17
0.0
 27
1.0
 37
0.0
 76
     0
330
747D
  0
LAYOUT
  5
14802
102
{ACAD_XDICTIONARY
360
14952
102
}
102
{ACAD_REACTORS
330
147FF
102
}
330
147FF
100
AcDbPlotSettings
  1

  2
Microsoft XPS Document Writer
  4

  6

 40
0.0
 41
0.0
 42
0.0
 43
0.0
 44
0.0
 45
0.0
 46
0.0
 47
0.0
 48
0.0
 49
0.0
140
0.0
141
0.0
142
1.0
143
1.0
 70
   688
 72
     0
 73
     0
 74
     5
  7

 75
    16
147
1.0
148
0.0
149
0.0
100
AcDbLayout
  1
レイアウト1
 70
     0
 71
     1
 10
0.0
 20
0.0
 11
420.0
 21
297.0
 12
0.0
 22
0.0
 32
0.0
 14
1.000000000000000E+20
 24
1.000000000000000E+20
 34
1.000000000000000E+20
 15
-1.000000000000000E+20
 25
-1.000000000000000E+20
 35
-1.000000000000000E+20
146
0.0
 13
0.0
 23
0.0
 33
0.0
 16
1.0
 26
0.0
 36
0.0
 17
0.0
 27
1.0
 37
0.0
 76
     0
330
747A
  0
MLINESTYLE
  5
7480
102
{ACAD_REACTORS
330
7473
102
}
330
7473
100
AcDbMlineStyle
  2
STANDARD
 70
     0
  3

 62
     0
 51
90.0
 52
90.0
 71
     2
 49
0.5
 62
   256
  6
BYLAYER
 49
-0.5
 62
   256
  6
BYLAYER
  0
ACDBPLACEHOLDER
  5
147FC
102
{ACAD_REACTORS
330
147FB
102
}
330
147FB
  0
XRECORD
  5
1494F
102
{ACAD_REACTORS
330
1494D
102
}
330
1494D
100
AcDbXrecord
280
     1
340
147FE
  0
XRECORD
  5
1494E
102
{ACAD_REACTORS
330
1494D
102
}
330
1494D
100
AcDbXrecord
280
     1
340
147FD
  0
DICTIONARYVAR
  5
1494A
102
{ACAD_REACTORS
330
14949
102
}
330
14949
100
DictionaryVariables
280
     0
  1
1
  0
DICTIONARYVAR
  5
1494B
102
{ACAD_REACTORS
330
14949
102
}
330
14949
100
DictionaryVariables
280
     0
  1

  0
DICTIONARY
  5
14950
330
14801
100
AcDbDictionary
280
     1
281
     1
  3
ACAD_XREC_ROUNDTRIP
360
14951
  0
DICTIONARY
  5
14952
330
14802
100
AcDbDictionary
280
     1
281
     1
  3
ACAD_XREC_ROUNDTRIP
360
14953
  0
XRECORD
  5
14951
102
{ACAD_REACTORS
330
14950
102
}
330
14950
100
AcDbXrecord
280
     1
102
SHADEPLOT
 70
     0
102
SHADEPLOTRESLEVEL
 70
     2
102
SHADEPLOTCUSTOMDPI
 70
   300
  0
XRECORD
  5
14953
102
{ACAD_REACTORS
330
14952
102
}
330
14952
100
AcDbXrecord
280
     1
102
SHADEPLOT
 70
     0
102
SHADEPLOTRESLEVEL
 70
     2
102
SHADEPLOTCUSTOMDPI
 70
   300
  0
ENDSEC
  0
EOF
