  0
SECTION
  2
HEADER
  9
$ACADVER
  1
AC1015
  9
$ACADMAINTVER
 70
    20
  9
$DWGCODEPAGE
  3
ANSI_932
  9
$INSBASE
 10
0.0
 20
0.0
 30
0.0
  9
$EXTMIN
 10
104.9999999999996
 20
0.0
 30
0.0
  9
$EXTMAX
 10
12230.4
 20
8557.199999999999
 30
0.0
  9
$LIMMIN
 10
0.0
 20
0.0
  9
$LIMMAX
 10
12600.0
 20
8910.0
  9
$ORTHOMODE
 70
     0
  9
$REGENMODE
 70
     1
  9
$FILLMODE
 70
     1
  9
$QTEXTMODE
 70
     0
  9
$MIRRTEXT
 70
     1
  9
$LTSCALE
 40
3.0
  9
$ATTMODE
 70
     1
  9
$TEXTSIZE
 40
100.0
  9
$TRACEWID
 40
1.0
  9
$TEXTSTYLE
  7
STYLE3
  9
$CLAYER
  8
部品1
  9
$CELTYPE
  6
BYLAYER
  9
$CECOLOR
 62
   256
  9
$CELTSCALE
 40
50.0
  9
$DISPSILH
 70
     0
  9
$DIMSCALE
 40
30.0
  9
$DIMASZ
 40
2.5
  9
$DIMEXO
 40
0.5
  9
$DIMDLI
 40
7.0
  9
$DIMRND
 40
0.0
  9
$DIMDLE
 40
0.0
  9
$DIMEXE
 40
1.5
  9
$DIMTP
 40
0.0
  9
$DIMTM
 40
0.0
  9
$DIMTXT
 40
3.0
  9
$DIMCEN
 40
0.0
  9
$DIMTSZ
 40
0.0
  9
$DIMTOL
 70
     0
  9
$DIMLIM
 70
     0
  9
$DIMTIH
 70
     0
  9
$DIMTOH
 70
     0
  9
$DIMSE1
 70
     0
  9
$DIMSE2
 70
     0
  9
$DIMTAD
 70
     3
  9
$DIMZIN
 70
     8
  9
$DIMBLK
  1

  9
$DIMASO
 70
     1
  9
$DIMSHO
 70
     1
  9
$DIMPOST
  1

  9
$DIMAPOST
  1

  9
$DIMALT
 70
     0
  9
$DIMALTD
 70
     2
  9
$DIMALTF
 40
0.0394
  9
$DIMLFAC
 40
1.0
  9
$DIMTOFL
 70
     1
  9
$DIMTVP
 40
0.0
  9
$DIMTIX
 70
     1
  9
$DIMSOXD
 70
     1
  9
$DIMSAH
 70
     1
  9
$DIMBLK1
  1
DOTSMALL
  9
$DIMBLK2
  1
DOTSMALL
  9
$DIMSTYLE
  2
INABA_S30G
  9
$DIMCLRD
 70
     0
  9
$DIMCLRE
 70
     0
  9
$DIMCLRT
 70
     7
  9
$DIMTFAC
 40
1.0
  9
$DIMGAP
 40
1.0
  9
$DIMJUST
 70
     0
  9
$DIMSD1
 70
     0
  9
$DIMSD2
 70
     0
  9
$DIMTOLJ
 70
     1
  9
$DIMTZIN
 70
     0
  9
$DIMALTZ
 70
     0
  9
$DIMALTTZ
 70
     0
  9
$DIMUPT
 70
     0
  9
$DIMDEC
 70
     1
  9
$DIMTDEC
 70
     4
  9
$DIMALTU
 70
     2
  9
$DIMALTTD
 70
     2
  9
$DIMTXSTY
  7
STYLE1
  9
$DIMAUNIT
 70
     0
  9
$DIMADEC
 70
     0
  9
$DIMALTRND
 40
0.0
  9
$DIMAZIN
 70
     0
  9
$DIMDSEP
 70
    46
  9
$DIMATFIT
 70
     3
  9
$DIMFRAC
 70
     0
  9
$DIMLDRBLK
  1

  9
$DIMLUNIT
 70
     2
  9
$DIMLWD
 70
    -2
  9
$DIMLWE
 70
    -2
  9
$DIMTMOVE
 70
     0
  9
$LUNITS
 70
     2
  9
$LUPREC
 70
     1
  9
$SKETCHINC
 40
1.0
  9
$FILLETRAD
 40
10.0
  9
$AUNITS
 70
     0
  9
$AUPREC
 70
     0
  9
$MENU
  1
acad
  9
$ELEVATION
 40
0.0
  9
$PELEVATION
 40
0.0
  9
$THICKNESS
 40
0.0
  9
$LIMCHECK
 70
     0
  9
$CHAMFERA
 40
5.0
  9
$CHAMFERB
 40
5.0
  9
$CHAMFERC
 40
0.0
  9
$CHAMFERD
 40
0.0
  9
$SKPOLY
 70
     0
  9
$TDCREATE
 40
2451225.538602894
  9
$TDUCREATE
 40
2451225.163602894
  9
$TDUPDATE
 40
2455579.571942268
  9
$TDUUPDATE
 40
2455579.196942268
  9
$TDINDWG
 40
0.2380022338
  9
$TDUSRTIMER
 40
0.2380022338
  9
$USRTIMER
 70
     1
  9
$ANGBASE
 50
0.0
  9
$ANGDIR
 70
     0
  9
$PDMODE
 70
     3
  9
$PDSIZE
 40
2.0
  9
$PLINEWID
 40
0.0
  9
$SPLFRAME
 70
     0
  9
$SPLINETYPE
 70
     6
  9
$SPLINESEGS
 70
     8
  9
$HANDSEED
  5
148A1
  9
$SURFTAB1
 70
     6
  9
$SURFTAB2
 70
     6
  9
$SURFTYPE
 70
     6
  9
$SURFU
 70
     6
  9
$SURFV
 70
     6
  9
$UCSBASE
  2

  9
$UCSNAME
  2

  9
$UCSORG
 10
0.0
 20
0.0
 30
0.0
  9
$UCSXDIR
 10
1.0
 20
0.0
 30
0.0
  9
$UCSYDIR
 10
0.0
 20
1.0
 30
0.0
  9
$UCSORTHOREF
  2

  9
$UCSORTHOVIEW
 70
     0
  9
$UCSORGTOP
 10
0.0
 20
0.0
 30
0.0
  9
$UCSORGBOTTOM
 10
0.0
 20
0.0
 30
0.0
  9
$UCSORGLEFT
 10
0.0
 20
0.0
 30
0.0
  9
$UCSORGRIGHT
 10
0.0
 20
0.0
 30
0.0
  9
$UCSORGFRONT
 10
0.0
 20
0.0
 30
0.0
  9
$UCSORGBACK
 10
0.0
 20
0.0
 30
0.0
  9
$PUCSBASE
  2

  9
$PUCSNAME
  2

  9
$PUCSORG
 10
0.0
 20
0.0
 30
0.0
  9
$PUCSXDIR
 10
1.0
 20
0.0
 30
0.0
  9
$PUCSYDIR
 10
0.0
 20
1.0
 30
0.0
  9
$PUCSORTHOREF
  2

  9
$PUCSORTHOVIEW
 70
     0
  9
$PUCSORGTOP
 10
0.0
 20
0.0
 30
0.0
  9
$PUCSORGBOTTOM
 10
0.0
 20
0.0
 30
0.0
  9
$PUCSORGLEFT
 10
0.0
 20
0.0
 30
0.0
  9
$PUCSORGRIGHT
 10
0.0
 20
0.0
 30
0.0
  9
$PUCSORGFRONT
 10
0.0
 20
0.0
 30
0.0
  9
$PUCSORGBACK
 10
0.0
 20
0.0
 30
0.0
  9
$USERI1
 70
     0
  9
$USERI2
 70
     0
  9
$USERI3
 70
     0
  9
$USERI4
 70
     0
  9
$USERI5
 70
     0
  9
$USERR1
 40
0.0
  9
$USERR2
 40
0.0
  9
$USERR3
 40
0.0
  9
$USERR4
 40
0.0
  9
$USERR5
 40
0.0
  9
$WORLDVIEW
 70
     1
  9
$SHADEDGE
 70
     3
  9
$SHADEDIF
 70
    70
  9
$TILEMODE
 70
     1
  9
$MAXACTVP
 70
    16
  9
$PINSBASE
 10
0.0
 20
0.0
 30
0.0
  9
$PLIMCHECK
 70
     0
  9
$PEXTMIN
 10
1.000000000000000E+20
 20
1.000000000000000E+20
 30
1.000000000000000E+20
  9
$PEXTMAX
 10
-1.000000000000000E+20
 20
-1.000000000000000E+20
 30
-1.000000000000000E+20
  9
$PLIMMIN
 10
0.0
 20
0.0
  9
$PLIMMAX
 10
420.0
 20
297.0
  9
$UNITMODE
 70
     0
  9
$VISRETAIN
 70
     0
  9
$PLINEGEN
 70
     0
  9
$PSLTSCALE
 70
     0
  9
$TREEDEPTH
 70
  3020
  9
$CMLSTYLE
  2
STANDARD
  9
$CMLJUST
 70
     0
  9
$CMLSCALE
 40
1.0
  9
$PROXYGRAPHICS
 70
     1
  9
$MEASUREMENT
 70
     1
  9
$CELWEIGHT
370
    -1
  9
$ENDCAPS
280
     0
  9
$JOINSTYLE
280
     0
  9
$LWDISPLAY
290
     0
  9
$INSUNITS
 70
     0
  9
$HYPERLINKBASE
  1

  9
$STYLESHEET
  1

  9
$XEDIT
290
     1
  9
$CEPSNTYPE
380
     0
  9
$PSTYLEMODE
290
     1
  9
$FINGERPRINTGUID
  2
{A7576492-1D99-4B6A-91DE-169F3370D564}
  9
$VERSIONGUID
  2
{7367BBCD-323F-40D9-8850-1B8838C02A24}
  9
$EXTNAMES
290
     1
  9
$PSVPSCALE
 40
0.0
  9
$OLESTARTUP
290
     0
  0
ENDSEC
  0
SECTION
  2
CLASSES
  0
CLASS
  1
ACDBDICTIONARYWDFLT
  2
AcDbDictionaryWithDefault
  3
ObjectDBX Classes
 90
        0
280
     0
281
     0
  0
CLASS
  1
DICTIONARYVAR
  2
AcDbDictionaryVar
  3
ObjectDBX Classes
 90
        0
280
     0
281
     0
  0
CLASS
  1
ACDBPLACEHOLDER
  2
AcDbPlaceHolder
  3
ObjectDBX Classes
 90
        0
280
     0
281
     0
  0
CLASS
  1
LAYOUT
  2
AcDbLayout
  3
ObjectDBX Classes
 90
        0
280
     0
281
     0
  0
ENDSEC
  0
SECTION
  2
TABLES
  0
TABLE
  2
VPORT
  5
746D
330
0
100
AcDbSymbolTable
 70
     2
  0
VPORT
  5
14899
330
746D
100
AcDbSymbolTableRecord
100
AcDbViewportTableRecord
  2
*Active
 70
     0
 10
0.0
 20
0.0
 11
1.0
 21
1.0
 12
7559.363582101116
 22
4278.526797829206
 13
0.0
 23
0.0
 14
10.0
 24
10.0
 15
10.0
 25
10.0
 16
0.0
 26
0.0
 36
1.0
 17
0.0
 27
0.0
 37
0.0
 40
9939.591522658806
 41
1.5075
 42
50.0
 43
0.0
 44
0.0
 50
0.0
 51
0.0
 71
     0
 72
     0
 73
     1
 74
     0
 75
     0
 76
     0
 77
     0
 78
     0
281
     0
 65
     1
110
0.0
120
0.0
130
0.0
111
1.0
121
0.0
131
0.0
112
0.0
122
1.0
132
0.0
 79
     0
146
0.0
  0
ENDTAB
  0
TABLE
  2
LTYPE
  5
746A
330
0
100
AcDbSymbolTable
 70
     4
  0
LTYPE
  5
7477
330
746A
100
AcDbSymbolTableRecord
100
AcDbLinetypeTableRecord
  2
BYBLOCK
 70
     0
  3

 72
    65
 73
     0
 40
0.0
  0
LTYPE
  5
7478
330
746A
100
AcDbSymbolTableRecord
100
AcDbLinetypeTableRecord
  2
BYLAYER
 70
     0
  3

 72
    65
 73
     0
 40
0.0
  0
LTYPE
  5
7479
330
746A
100
AcDbSymbolTableRecord
100
AcDbLinetypeTableRecord
  2
CONTINUOUS
 70
     0
  3
Solid line
 72
    65
 73
     0
 40
0.0
  0
LTYPE
  5
7816
330
746A
100
AcDbSymbolTableRecord
100
AcDbLinetypeTableRecord
  2
CENTER
 70
     0
  3
____ _ ____ _ ____ _ ____ _ ____ _ ____ _ ____ 
 72
    65
 73
     4
 40
2.0
 49
1.25
 74
     0
 49
-0.25
 74
     0
 49
0.25
 74
     0
 49
-0.25
 74
     0
  0
LTYPE
  5
781A
330
746A
100
AcDbSymbolTableRecord
100
AcDbLinetypeTableRecord
  2
HIDDEN
 70
     0
  3
__ __ __ __ __ __ __ __ __ __ __ __ __ __ __ __
 72
    65
 73
     2
 40
0.375
 49
0.25
 74
     0
 49
-0.125
 74
     0
  0
LTYPE
  5
781B
330
746A
100
AcDbSymbolTableRecord
100
AcDbLinetypeTableRecord
  2
PHANTOM
 70
     0
  3
______  __  __  ______  __  __  ______  __  __ 
 72
    65
 73
     6
 40
2.5
 49
1.25
 74
     0
 49
-0.25
 74
     0
 49
0.25
 74
     0
 49
-0.25
 74
     0
 49
0.25
 74
     0
 49
-0.25
 74
     0
  0
ENDTAB
  0
TABLE
  2
LAYER
  5
7467
102
{ACAD_XDICTIONARY
360
146C7
102
}
330
0
100
AcDbSymbolTable
 70
    11
  0
LAYER
  5
7474
330
7467
100
AcDbSymbolTableRecord
100
AcDbLayerTableRecord
  2
0
 70
     0
 62
     7
  6
CONTINUOUS
370
    -3
390
146B9
  0
LAYER
  5
DEB2
330
7467
100
AcDbSymbolTableRecord
100
AcDbLayerTableRecord
  2
センター
 70
     0
 62
     3
  6
CENTER
370
    -3
390
146B9
  0
LAYER
  5
DEB3
330
7467
100
AcDbSymbolTableRecord
100
AcDbLayerTableRecord
  2
寸法
 70
     0
 62
     4
  6
CONTINUOUS
370
    -3
390
146B9
  0
LAYER
  5
DEB4
330
7467
100
AcDbSymbolTableRecord
100
AcDbLayerTableRecord
  2
部品1
 70
     0
 62
     7
  6
CONTINUOUS
370
    -3
390
146B9
  0
LAYER
  5
DEB5
330
7467
100
AcDbSymbolTableRecord
100
AcDbLayerTableRecord
  2
補助
 70
     0
 62
    -1
  6
CONTINUOUS
370
    -3
390
146B9
  0
LAYER
  5
DEB6
330
7467
100
AcDbSymbolTableRecord
100
AcDbLayerTableRecord
  2
文字
 70
     0
 62
     7
  6
CONTINUOUS
370
    -3
390
146B9
  0
LAYER
  5
F255
330
7467
100
AcDbSymbolTableRecord
100
AcDbLayerTableRecord
  2
DEFPOINTS
 70
     0
 62
     7
  6
CONTINUOUS
290
     0
370
    -3
390
146B9
  0
LAYER
  5
10B54
330
7467
100
AcDbSymbolTableRecord
100
AcDbLayerTableRecord
  2
仕様書枠
 70
     0
 62
   230
  6
CONTINUOUS
370
    -3
390
146B9
  0
LAYER
  5
11729
330
7467
100
AcDbSymbolTableRecord
100
AcDbLayerTableRecord
  2
Ｇ．Ｌ
 70
     0
 62
    30
  6
CONTINUOUS
370
    -3
390
146B9
  0
LAYER
  5
1173F
330
7467
100
AcDbSymbolTableRecord
100
AcDbLayerTableRecord
  2
細線
 70
     0
 62
     5
  6
CONTINUOUS
370
    -3
390
146B9
  0
LAYER
  5
11740
330
7467
100
AcDbSymbolTableRecord
100
AcDbLayerTableRecord
  2
点線
 70
     0
 62
     2
  6
HIDDEN
370
    -3
390
146B9
  0
ENDTAB
  0
TABLE
  2
STYLE
  5
7468
330
0
100
AcDbSymbolTable
 70
     5
  0
STYLE
  5
7475
330
7468
100
AcDbSymbolTableRecord
100
AcDbTextStyleTableRecord
  2
STANDARD
 70
     0
 40
0.0
 41
1.0
 50
0.0
 71
     0
 42
4.0
  3
txt
  4
C:\AutoCAD LT\bigfont.shx
  0
STYLE
  5
763C
330
7468
100
AcDbSymbolTableRecord
100
AcDbTextStyleTableRecord
  2
MSMINCHO
 70
     0
 40
0.0
 41
1.0
 50
0.0
 71
     0
 42
1.199999999999999
  3
C:\AutoCAD LT\msminch2.TTF
  4

  0
STYLE
  5
F706
330
7468
100
AcDbSymbolTableRecord
100
AcDbTextStyleTableRecord
  2
STYLE1
 70
     0
 40
0.0
 41
1.0
 50
0.0
 71
     0
 42
4.0
  3
isocp.shx
  4
bigfont.shx
  0
STYLE
  5
103BF
330
7468
100
AcDbSymbolTableRecord
100
AcDbTextStyleTableRecord
  2
STYLE2
 70
     0
 40
0.0
 41
1.0
 50
0.0
 71
     0
 42
100.0
  3
MS PGothic.ttf
  4

1001
ACAD
1000
MS PGothic
1071
    32818
  0
STYLE
  5
10BAA
330
7468
100
AcDbSymbolTableRecord
100
AcDbTextStyleTableRecord
  2
STYLE3
 70
     0
 40
0.0
 41
1.0
 50
0.0
 71
     0
 42
100.0
  3
MS PGothic.ttf
  4

1001
ACAD
1000
MS PGothic
1071
    32818
  0
ENDTAB
  0
TABLE
  2
VIEW
  5
746B
330
0
100
AcDbSymbolTable
 70
     0
  0
ENDTAB
  0
TABLE
  2
UCS
  5
746C
330
0
100
AcDbSymbolTable
 70
     0
  0
ENDTAB
  0
TABLE
  2
APPID
  5
746E
330
0
100
AcDbSymbolTable
 70
     6
  0
APPID
  5
7476
330
746E
100
AcDbSymbolTableRecord
100
AcDbRegAppTableRecord
  2
ACAD
 70
     0
  0
APPID
  5
DEA9
330
746E
100
AcDbSymbolTableRecord
100
AcDbRegAppTableRecord
  2
CONTENTBLOCKICON
 70
     0
  0
APPID
  5
DEAA
330
746E
100
AcDbSymbolTableRecord
100
AcDbRegAppTableRecord
  2
CONTENTBLOCKDESCRIPTION
 70
     0
  0
APPID
  5
E71D
330
746E
100
AcDbSymbolTableRecord
100
AcDbRegAppTableRecord
  2
CONTENTTABDATA
 70
     0
  0
APPID
  5
E71E
330
746E
100
AcDbSymbolTableRecord
100
AcDbRegAppTableRecord
  2
CONTENTCURRENTTAB
 70
     0
  0
APPID
  5
F3BA
330
746E
100
AcDbSymbolTableRecord
100
AcDbRegAppTableRecord
  2
DRAWINGVARIABLESXDATA
 70
     0
  0
ENDTAB
  0
TABLE
  2
DIMSTYLE
  5
746F
330
0
100
AcDbSymbolTable
 70
     4
100
AcDbDimStyleTable
 71
     1
340
F71F
  0
DIMSTYLE
105
7484
330
746F
100
AcDbSymbolTableRecord
100
AcDbDimStyleTableRecord
  2
JIS
 70
     0
 41
2.5
 42
1.0
 43
7.0
 44
1.0
 73
     0
 74
     0
 77
     1
 78
     8
140
2.5
141
0.0
143
0.0394
147
0.0
172
     1
174
     1
175
     1
340
7475
  0
DIMSTYLE
105
F236
330
746F
100
AcDbSymbolTableRecord
100
AcDbDimStyleTableRecord
  2
INABA_S30
 70
     0
 40
30.0
 41
2.5
 42
0.5
 43
7.0
 44
1.5
 73
     0
 74
     0
 77
     3
 78
     8
140
3.0
141
0.0
143
0.0394
147
1.0
172
     1
173
     1
174
     1
175
     1
178
     7
289
     0
340
7475
341
DEAC
343
DEAC
344
DEAC
  0
DIMSTYLE
105
F71F
102
{ACAD_REACTORS
330
13378
330
1324C
330
131EF
330
12FB4
330
12F50
330
132B6
330
12F4F
330
132CC
330
13D64
330
13E7E
330
13E98
330
13EE7
330
13F13
330
14648
102
}
330
746F
100
AcDbSymbolTableRecord
100
AcDbDimStyleTableRecord
  2
INABA_S30G
 70
     0
 40
30.0
 41
2.5
 42
0.5
 43
7.0
 44
1.5
 73
     0
 74
     0
 77
     3
 78
     8
140
3.0
141
0.0
143
0.0394
147
1.0
172
     1
173
     1
174
     1
175
     1
178
     7
271
     1
340
F706
341
F770
343
F770
344
F770
  0
DIMSTYLE
105
118AC
330
746F
100
AcDbSymbolTableRecord
100
AcDbDimStyleTableRecord
  2
INABA_S80
 70
     0
 40
80.0
 41
0.5
 42
0.2
 43
6.0
 44
0.5
 73
     0
 74
     0
 77
     3
 78
     8
140
2.5
141
0.0
143
0.0394
147
0.8
172
     1
173
     1
174
     1
175
     1
178
     5
271
     2
272
     2
289
     2
340
7475
341
F744
343
F744
344
F744
  0
ENDTAB
  0
TABLE
  2
BLOCK_RECORD
  5
7466
330
0
100
AcDbSymbolTable
 70
    19
  0
BLOCK_RECORD
  5
747D
330
7466
100
AcDbSymbolTableRecord
100
AcDbBlockTableRecord
  2
*MODEL_SPACE
340
146BE
  0
BLOCK_RECORD
  5
747A
330
7466
100
AcDbSymbolTableRecord
100
AcDbBlockTableRecord
  2
*PAPER_SPACE
340
146BF
  0
BLOCK_RECORD
  5
DEAC
330
7466
100
AcDbSymbolTableRecord
100
AcDbBlockTableRecord
  2
_OPEN
340
0
  0
BLOCK_RECORD
  5
ECB3
330
7466
100
AcDbSymbolTableRecord
100
AcDbBlockTableRecord
  2
作図枠S50
340
0
310
2800000020000000200000000100040000000000000200000000000000000000000000000000000000000000000080000080000000808000800000008000800080800000C0C0C000808080000000FF0000FF000000FFFF00FF000000FF00FF00FFFF0000FFFFFF00FFFFFFFFFFFFFFFFFFFFFFFFFFFFFFFFFFFFFFFFFFFFFF
310
FFFFFFFFFFFFFFFFFFFFFFFFFFFFFFFFFFFFFFFFFFFFFFFFFFFFFFFFFFFFFFFFFFFFFFFFFFFFFFFFFFFFFFFFFFFFFFFFFFFFFFFFFFFFFFFFFFFFFFFFFFFFFFFFFFFFFFFFFFFFFFFFFF999999999999999999999999999999999FFFFFFFFFFFFFFFFFFFFFFFFFFFFFF99FFFFFFFFFFFFFFFFFFFFFFFFFFFFFF99FFFFFFFFFFF
310
FFFFFFFFFFFFFFFFFFF99FFFFFFFFFFFFFFFFFFFFFFFFFFFFFF99FFFFFFFFFFFFFFFFFFFFFFFFFFFFFF99FFFFFFFFFFFFFFFFFFFFFFFFFFFFFF99FFFFFFFFFFFFFFFFFFFFFFFFFFFFFF99FFFFFFFFFFFFFFFFFFFFFFFFFFFFFF99FFFFFFFFFFFFFFFFFFFFFFFFFFFFFF99FFFFFFFFFFFFFFFFFFFFFFFFFFFFFF99FFFFFFFFF
310
FFFFFFFFFFFFFFFFFFFFF99FFFFFFFFFFFFFFFFFFFFFFFFFFFFFF99FFFFFFFFFFFFFFFFFFFFFFFFFFFFFF99FFFFFFFFFFFFFFFFFFFFFFFFFFFFFF99FFFFFFFFFFFFFFFFFFFFFFFFFFFFFF99FFFFFFFFFFFFFFFFFFFFFFFFFFFFFF99FFFFFFFFFFFFFFFFFFFFFFFFFFFFFF99FFFFFFFFFFFFFFFFFFFFF99999999999FFFFFFF
310
FFFFFFFFFFFFFF9FFFFFFFFF99999999999999999999999FFFFFFFFFFFFFFFFFFFFFFFFFFFFFFFFFFFFFFFFFFFFFFFFFFFFFFFFFFFFFFFFFFFFFFFFFFFFFFFFFFFFFFFFFFFFFFFFFFFFFFFFFFFFFFFFFFFFFFFFFFFFFFFFFFFFFFFFFFFFFFFFFFFFFFFFFFFFFFFFFFFFFFFFF
102
{BLKREFS
331
F235
102
}
  0
BLOCK_RECORD
  5
F744
330
7466
100
AcDbSymbolTableRecord
100
AcDbBlockTableRecord
  2
_DOT
340
0
  0
BLOCK_RECORD
  5
F770
330
7466
100
AcDbSymbolTableRecord
100
AcDbBlockTableRecord
  2
_DOTSMALL
340
0
102
{BLKREFS
331
1459A
331
1459B
331
1458F
331
14590
331
13E0F
331
13E10
331
145E3
331
145E4
331
14563
331
14564
331
13E3C
331
13E3D
331
13E9D
331
13E9E
331
13E47
331
13E48
331
13EBF
331
13EC0
331
14553
331
14554
331
1467C
331
1467D
331
14548
331
14549
331
14855
331
14856
331
1485E
331
1485F
102
}
  0
BLOCK_RECORD
  5
1344A
330
7466
100
AcDbSymbolTableRecord
100
AcDbBlockTableRecord
  2
*D4
340
0
  0
BLOCK_RECORD
  5
13456
330
7466
100
AcDbSymbolTableRecord
100
AcDbBlockTableRecord
  2
*D5
340
0
  0
BLOCK_RECORD
  5
1346D
330
7466
100
AcDbSymbolTableRecord
100
AcDbBlockTableRecord
  2
*D6
340
0
  0
BLOCK_RECORD
  5
1349B
330
7466
100
AcDbSymbolTableRecord
100
AcDbBlockTableRecord
  2
*D7
340
0
  0
BLOCK_RECORD
  5
134A6
330
7466
100
AcDbSymbolTableRecord
100
AcDbBlockTableRecord
  2
*D8
340
0
  0
BLOCK_RECORD
  5
134B1
330
7466
100
AcDbSymbolTableRecord
100
AcDbBlockTableRecord
  2
*D9
340
0
  0
BLOCK_RECORD
  5
134BC
330
7466
100
AcDbSymbolTableRecord
100
AcDbBlockTableRecord
  2
*D10
340
0
  0
BLOCK_RECORD
  5
134D8
330
7466
100
AcDbSymbolTableRecord
100
AcDbBlockTableRecord
  2
*D11
340
0
  0
BLOCK_RECORD
  5
13DBA
330
7466
100
AcDbSymbolTableRecord
100
AcDbBlockTableRecord
  2
*D12
340
0
  0
BLOCK_RECORD
  5
13E72
330
7466
100
AcDbSymbolTableRecord
100
AcDbBlockTableRecord
  2
*D13
340
0
  0
BLOCK_RECORD
  5
13E8C
330
7466
100
AcDbSymbolTableRecord
100
AcDbBlockTableRecord
  2
*D14
340
0
  0
BLOCK_RECORD
  5
13EDE
330
7466
100
AcDbSymbolTableRecord
100
AcDbBlockTableRecord
  2
*D15
340
0
  0
BLOCK_RECORD
  5
13F0A
330
7466
100
AcDbSymbolTableRecord
100
AcDbBlockTableRecord
  2
*D16
340
0
  0
BLOCK_RECORD
  5
14649
330
7466
100
AcDbSymbolTableRecord
100
AcDbBlockTableRecord
  2
*D17
340
0
  0
BLOCK_RECORD
  5
146C9
330
7466
100
AcDbSymbolTableRecord
100
AcDbBlockTableRecord
  2
A$C21B663D0
340
0
  0
ENDTAB
  0
ENDSEC
  0
SECTION
  2
BLOCKS
  0
BLOCK
  5
7489
330
747D
100
AcDbEntity
  8
0
100
AcDbBlockBegin
  2
*MODEL_SPACE
 70
     0
 10
0.0
 20
0.0
 30
0.0
  3
*MODEL_SPACE
  1

  0
ENDBLK
  5
748A
330
747D
100
AcDbEntity
  8
0
100
AcDbBlockEnd
  0
BLOCK
  5
7487
330
747A
100
AcDbEntity
 67
     1
  8
0
100
AcDbBlockBegin
  2
*PAPER_SPACE
 70
     0
 10
0.0
 20
0.0
 30
0.0
  3
*PAPER_SPACE
  1

  0
ENDBLK
  5
7488
330
747A
100
AcDbEntity
 67
     1
  8
0
100
AcDbBlockEnd
  0
BLOCK
  5
DEAD
330
DEAC
100
AcDbEntity
  8
0
100
AcDbBlockBegin
  2
_OPEN
 70
     0
 10
0.0
 20
0.0
 30
0.0
  3
_OPEN
  1

  0
LINE
  5
DEAE
330
DEAC
100
AcDbEntity
  8
0
  6
ByBlock
 62
     0
100
AcDbLine
 10
-1.0
 20
0.1666666666666666
 30
0.0
 11
0.0
 21
0.0
 31
0.0
  0
LINE
  5
DEAF
330
DEAC
100
AcDbEntity
  8
0
  6
ByBlock
 62
     0
100
AcDbLine
 10
0.0
 20
0.0
 30
0.0
 11
-1.0
 21
-0.1666666666666666
 31
0.0
  0
LINE
  5
DEB0
330
DEAC
100
AcDbEntity
  8
0
  6
ByBlock
 62
     0
100
AcDbLine
 10
0.0
 20
0.0
 30
0.0
 11
-1.0
 21
0.0
 31
0.0
  0
ENDBLK
  5
DEB1
330
DEAC
100
AcDbEntity
  8
0
100
AcDbBlockEnd
  0
BLOCK
  5
ECB4
330
ECB3
100
AcDbEntity
  8
0
100
AcDbBlockBegin
  2
作図枠S50
 70
     0
 10
0.0
 20
0.0
 30
0.0
  3
作図枠S50
  1

  4
作図領域枠 縮尺 1/50
  0
LINE
  5
ECB5
330
ECB3
100
AcDbEntity
  8
補助
100
AcDbLine
 10
14364.0
 20
14262.0
 30
0.0
 11
174.9999999999993
 21
14262.0
 31
0.0
  0
LINE
  5
ECB6
330
ECB3
100
AcDbEntity
  8
補助
100
AcDbLine
 10
174.9999999999993
 20
14262.0
 30
0.0
 11
174.9999999999993
 21
1520.0
 31
0.0
  0
LINE
  5
ECB7
330
ECB3
100
AcDbEntity
  8
補助
100
AcDbLine
 10
174.9999999999993
 20
1520.0
 30
0.0
 11
20384.0
 21
1520.0
 31
0.0
  0
LINE
  5
ECB8
330
ECB3
100
AcDbEntity
  8
補助
100
AcDbLine
 10
20384.0
 20
1520.0
 30
0.0
 11
20384.0
 21
13042.0
 31
0.0
  0
LINE
  5
ECB9
330
ECB3
100
AcDbEntity
  8
補助
100
AcDbLine
 10
20384.0
 20
13042.0
 30
0.0
 11
14364.0
 21
13042.0
 31
0.0
  0
LINE
  5
ECBA
330
ECB3
100
AcDbEntity
  8
補助
100
AcDbLine
 10
14364.0
 20
13042.0
 30
0.0
 11
14364.0
 21
14262.0
 31
0.0
  0
ENDBLK
  5
ECBB
330
ECB3
100
AcDbEntity
  8
0
100
AcDbBlockEnd
  0
BLOCK
  5
F745
330
F744
100
AcDbEntity
  8
0
 48
50.0
100
AcDbBlockBegin
  2
_DOT
 70
     0
 10
0.0
 20
0.0
 30
0.0
  3
_DOT
  1

  0
LWPOLYLINE
  5
F746
330
F744
100
AcDbEntity
  8
0
  6
ByBlock
 62
     0
 48
50.0
100
AcDbPolyline
 90
        2
 70
     1
 43
0.5
 10
-0.25
 20
0.0
 42
1.0
 10
0.25
 20
0.0
 42
1.0
  0
LINE
  5
F74A
330
F744
100
AcDbEntity
  8
0
  6
ByBlock
 62
     0
 48
50.0
100
AcDbLine
 10
-0.5
 20
0.0
 30
0.0
 11
-1.0
 21
0.0
 31
0.0
  0
ENDBLK
  5
F74B
330
F744
100
AcDbEntity
  8
0
 48
50.0
100
AcDbBlockEnd
  0
BLOCK
  5
F771
330
F770
100
AcDbEntity
  8
0
 48
50.0
100
AcDbBlockBegin
  2
_DOTSMALL
 70
     0
 10
0.0
 20
0.0
 30
0.0
  3
_DOTSMALL
  1

  0
LWPOLYLINE
  5
F772
330
F770
100
AcDbEntity
  8
0
  6
ByBlock
 62
     0
 48
50.0
100
AcDbPolyline
 90
        2
 70
     1
 43
0.5
 10
-0.0625
 20
0.0
 42
1.0
 10
0.0625
 20
0.0
 42
1.0
  0
ENDBLK
  5
F776
330
F770
100
AcDbEntity
  8
0
 48
50.0
100
AcDbBlockEnd
  0
BLOCK
  5
14596
330
1344A
100
AcDbEntity
  8
0
 48
50.0
100
AcDbBlockBegin
  2
*D4
 70
     1
 10
0.0
 20
0.0
 30
0.0
  3
*D4
  1

  0
LINE
  5
14597
330
1344A
100
AcDbEntity
  8
0
  6
ByBlock
 62
     0
 48
50.0
100
AcDbLine
 10
1112.42603486659
 20
4081.450581124186
 30
0.0
 11
1112.42603486659
 21
4955.957606075116
 31
0.0
  0
LINE
  5
14598
330
1344A
100
AcDbEntity
  8
0
  6
ByBlock
 62
     0
 48
50.0
100
AcDbLine
 10
7272.426034866594
 20
4081.450581124185
 30
0.0
 11
7272.426034866594
 21
4955.957606075116
 31
0.0
  0
LINE
  5
14599
330
1344A
100
AcDbEntity
  8
0
  6
ByBlock
 62
     0
 48
50.0
100
AcDbLine
 10
1112.42603486659
 20
4910.957606075115
 30
0.0
 11
7272.426034866594
 21
4910.957606075115
 31
0.0
  0
INSERT
  5
1459A
330
1344A
100
AcDbEntity
  8
0
  6
ByBlock
 62
     0
 48
50.0
100
AcDbBlockReference
  2
_DOTSMALL
 10
1112.42603486659
 20
4910.957606075115
 30
0.0
 41
75.0
 42
75.0
 43
75.0
 50
180.0
  0
INSERT
  5
1459B
330
1344A
100
AcDbEntity
  8
0
  6
ByBlock
 62
     0
 48
50.0
100
AcDbBlockReference
  2
_DOTSMALL
 10
7272.426034866594
 20
4910.957606075115
 30
0.0
 41
75.0
 42
75.0
 43
75.0
  0
MTEXT
  5
1459C
330
1344A
100
AcDbEntity
  8
0
  6
ByBlock
 62
     7
 48
50.0
100
AcDbMText
 10
4192.426034866592
 20
4985.957606075115
 30
0.0
 40
90.0
 41
0.0
 71
     5
 72
     1
  1
\A1;6160
  7
STYLE1
 73
     1
 44
1.0
1001
ACAD
1000
MTEXTBEGIN
1070
    73
1070
     1
1070
    44
1040
1.0
1070
    74
1070
     0
1000
MTEXTEND
  0
POINT
  5
1459D
330
1344A
100
AcDbEntity
  8
DEFPOINTS
  6
ByBlock
 62
     0
 48
50.0
100
AcDbPoint
 10
1112.42603486659
 20
4066.450581124186
 30
0.0
  0
POINT
  5
1459E
330
1344A
100
AcDbEntity
  8
DEFPOINTS
  6
ByBlock
 62
     0
 48
50.0
100
AcDbPoint
 10
7272.426034866594
 20
4066.450581124185
 30
0.0
  0
POINT
  5
1459F
330
1344A
100
AcDbEntity
  8
DEFPOINTS
  6
ByBlock
 62
     0
 48
50.0
100
AcDbPoint
 10
7272.426034866594
 20
4910.957606075115
 30
0.0
  0
ENDBLK
  5
145A0
330
1344A
100
AcDbEntity
  8
0
 48
50.0
100
AcDbBlockEnd
  0
BLOCK
  5
1458B
330
13456
100
AcDbEntity
  8
0
 48
50.0
100
AcDbBlockBegin
  2
*D5
 70
     1
 10
0.0
 20
0.0
 30
0.0
  3
*D5
  1

  0
LINE
  5
1458C
330
13456
100
AcDbEntity
  8
0
  6
ByBlock
 62
     0
 48
50.0
100
AcDbLine
 10
1362.42603486659
 20
3985.897875741639
 30
0.0
 11
1362.42603486659
 21
4646.702425425583
 31
0.0
  0
LINE
  5
1458D
330
13456
100
AcDbEntity
  8
0
  6
ByBlock
 62
     0
 48
50.0
100
AcDbLine
 10
7022.426034866594
 20
3985.897875741637
 30
0.0
 11
7022.426034866594
 21
4646.702425425583
 31
0.0
  0
LINE
  5
1458E
330
13456
100
AcDbEntity
  8
0
  6
ByBlock
 62
     0
 48
50.0
100
AcDbLine
 10
1362.42603486659
 20
4601.702425425583
 30
0.0
 11
7022.426034866594
 21
4601.702425425583
 31
0.0
  0
INSERT
  5
1458F
330
13456
100
AcDbEntity
  8
0
  6
ByBlock
 62
     0
 48
50.0
100
AcDbBlockReference
  2
_DOTSMALL
 10
1362.42603486659
 20
4601.702425425583
 30
0.0
 41
75.0
 42
75.0
 43
75.0
 50
180.0
  0
INSERT
  5
14590
330
13456
100
AcDbEntity
  8
0
  6
ByBlock
 62
     0
 48
50.0
100
AcDbBlockReference
  2
_DOTSMALL
 10
7022.426034866594
 20
4601.702425425583
 30
0.0
 41
75.0
 42
75.0
 43
75.0
  0
MTEXT
  5
14591
330
13456
100
AcDbEntity
  8
0
  6
ByBlock
 62
     7
 48
50.0
100
AcDbMText
 10
4192.426034866592
 20
4676.702425425583
 30
0.0
 40
90.0
 41
0.0
 71
     5
 72
     1
  1
\A1;5660
  7
STYLE1
 73
     1
 44
1.0
1001
ACAD
1000
MTEXTBEGIN
1070
    73
1070
     1
1070
    44
1040
1.0
1070
    74
1070
     0
1000
MTEXTEND
  0
POINT
  5
14592
330
13456
100
AcDbEntity
  8
DEFPOINTS
  6
ByBlock
 62
     0
 48
50.0
100
AcDbPoint
 10
1362.42603486659
 20
3970.897875741638
 30
0.0
  0
POINT
  5
14593
330
13456
100
AcDbEntity
  8
DEFPOINTS
  6
ByBlock
 62
     0
 48
50.0
100
AcDbPoint
 10
7022.426034866594
 20
3970.897875741638
 30
0.0
  0
POINT
  5
14594
330
13456
100
AcDbEntity
  8
DEFPOINTS
  6
ByBlock
 62
     0
 48
50.0
100
AcDbPoint
 10
7022.426034866594
 20
4601.702425425583
 30
0.0
  0
ENDBLK
  5
14595
330
13456
100
AcDbEntity
  8
0
 48
50.0
100
AcDbBlockEnd
  0
BLOCK
  5
13E0A
330
1346D
100
AcDbEntity
  8
0
 48
50.0
100
AcDbBlockBegin
  2
*D6
 70
     1
 10
0.0
 20
0.0
 30
0.0
  3
*D6
  1

  0
LINE
  5
13E0B
330
1346D
100
AcDbEntity
  8
0
  6
ByBlock
 62
     0
 48
50.0
100
AcDbLine
 10
2411.862185614296
 20
5342.367498923764
 30
0.0
 11
2411.862185614296
 21
5907.61934322516
 31
0.0
  0
LINE
  5
13E0C
330
1346D
100
AcDbEntity
  8
0
  6
ByBlock
 62
     0
 48
50.0
100
AcDbLine
 10
2661.862185614296
 20
5246.814793541216
 30
0.0
 11
2661.862185614296
 21
5907.61934322516
 31
0.0
  0
LINE
  5
13E0D
330
1346D
100
AcDbEntity
  8
0
  6
ByBlock
 62
     0
 48
50.0
100
AcDbLine
 10
2661.862185614296
 20
5862.61934322516
 30
0.0
 11
2411.862185614296
 21
5862.61934322516
 31
0.0
  0
LINE
  5
13E0E
330
1346D
100
AcDbEntity
  8
0
  6
ByBlock
 62
     0
 48
50.0
100
AcDbLine
 10
2411.862185614296
 20
5862.61934322516
 30
0.0
 11
2112.505886401698
 21
5862.61934322516
 31
0.0
  0
INSERT
  5
13E0F
330
1346D
100
AcDbEntity
  8
0
  6
ByBlock
 62
     0
 48
50.0
100
AcDbBlockReference
  2
_DOTSMALL
 10
2661.862185614296
 20
5862.61934322516
 30
0.0
 41
75.0
 42
75.0
 43
75.0
  0
INSERT
  5
13E10
330
1346D
100
AcDbEntity
  8
0
  6
ByBlock
 62
     0
 48
50.0
100
AcDbBlockReference
  2
_DOTSMALL
 10
2411.862185614296
 20
5862.61934322516
 30
0.0
 41
75.0
 42
75.0
 43
75.0
 50
180.0
  0
MTEXT
  5
13E11
330
1346D
100
AcDbEntity
  8
0
  6
ByBlock
 62
     7
 48
50.0
100
AcDbMText
 10
2224.684036007997
 20
5937.628201492877
 30
0.0
 40
90.0
 41
0.0
 71
     5
 72
     1
  1
\A1;250
  7
STYLE1
 73
     1
 44
1.0
1001
ACAD
1000
MTEXTBEGIN
1070
    73
1070
     1
1070
    44
1040
1.0
1070
    74
1070
     0
1000
MTEXTEND
  0
POINT
  5
13E12
330
1346D
100
AcDbEntity
  8
DEFPOINTS
  6
ByBlock
 62
     0
 48
50.0
100
AcDbPoint
 10
2411.862185614296
 20
5327.367498923764
 30
0.0
  0
POINT
  5
13E13
330
1346D
100
AcDbEntity
  8
DEFPOINTS
  6
ByBlock
 62
     0
 48
50.0
100
AcDbPoint
 10
2661.862185614296
 20
5231.814793541216
 30
0.0
  0
POINT
  5
13E14
330
1346D
100
AcDbEntity
  8
DEFPOINTS
  6
ByBlock
 62
     0
 48
50.0
100
AcDbPoint
 10
2661.862185614296
 20
5862.61934322516
 30
0.0
  0
ENDBLK
  5
13E15
330
1346D
100
AcDbEntity
  8
0
 48
50.0
100
AcDbBlockEnd
  0
BLOCK
  5
145DF
330
1349B
100
AcDbEntity
  8
0
 48
50.0
100
AcDbBlockBegin
  2
*D7
 70
     1
 10
0.0
 20
0.0
 30
0.0
  3
*D7
  1

  0
LINE
  5
145E0
330
1349B
100
AcDbEntity
  8
0
  6
ByBlock
 62
     0
 48
50.0
100
AcDbLine
 10
1362.42603486659
 20
1695.562576328023
 30
0.0
 11
1362.42603486659
 21
1333.658501641213
 31
0.0
  0
LINE
  5
145E1
330
1349B
100
AcDbEntity
  8
0
  6
ByBlock
 62
     0
 48
50.0
100
AcDbLine
 10
4192.426034866593
 20
1695.562576328022
 30
0.0
 11
4192.426034866593
 21
1333.658501641213
 31
0.0
  0
LINE
  5
145E2
330
1349B
100
AcDbEntity
  8
0
  6
ByBlock
 62
     0
 48
50.0
100
AcDbLine
 10
1362.42603486659
 20
1378.658501641213
 30
0.0
 11
4192.426034866593
 21
1378.658501641213
 31
0.0
  0
INSERT
  5
145E3
330
1349B
100
AcDbEntity
  8
0
  6
ByBlock
 62
     0
 48
50.0
100
AcDbBlockReference
  2
_DOTSMALL
 10
1362.42603486659
 20
1378.658501641213
 30
0.0
 41
75.0
 42
75.0
 43
75.0
 50
180.0
  0
INSERT
  5
145E4
330
1349B
100
AcDbEntity
  8
0
  6
ByBlock
 62
     0
 48
50.0
100
AcDbBlockReference
  2
_DOTSMALL
 10
4192.426034866593
 20
1378.658501641213
 30
0.0
 41
75.0
 42
75.0
 43
75.0
  0
MTEXT
  5
145E5
330
1349B
100
AcDbEntity
  8
0
  6
ByBlock
 62
     7
 48
50.0
100
AcDbMText
 10
2777.426034866592
 20
1453.66735990893
 30
0.0
 40
90.0
 41
0.0
 71
     5
 72
     1
  1
\A1;2830
  7
STYLE1
 73
     1
 44
1.0
1001
ACAD
1000
MTEXTBEGIN
1070
    73
1070
     1
1070
    44
1040
1.0
1070
    74
1070
     0
1000
MTEXTEND
  0
POINT
  5
145E6
330
1349B
100
AcDbEntity
  8
DEFPOINTS
  6
ByBlock
 62
     0
 48
50.0
100
AcDbPoint
 10
1362.42603486659
 20
1710.562576328024
 30
0.0
  0
POINT
  5
145E7
330
1349B
100
AcDbEntity
  8
DEFPOINTS
  6
ByBlock
 62
     0
 48
50.0
100
AcDbPoint
 10
4192.426034866593
 20
1710.562576328022
 30
0.0
  0
POINT
  5
145E8
330
1349B
100
AcDbEntity
  8
DEFPOINTS
  6
ByBlock
 62
     0
 48
50.0
100
AcDbPoint
 10
4192.426034866593
 20
1378.658501641213
 30
0.0
  0
ENDBLK
  5
145E9
330
1349B
100
AcDbEntity
  8
0
 48
50.0
100
AcDbBlockEnd
  0
BLOCK
  5
1455F
330
134A6
100
AcDbEntity
  8
0
 48
50.0
100
AcDbBlockBegin
  2
*D8
 70
     1
 10
0.0
 20
0.0
 30
0.0
  3
*D8
  1

  0
LINE
  5
14560
330
134A6
100
AcDbEntity
  8
0
  6
ByBlock
 62
     0
 48
50.0
100
AcDbLine
 10
4192.426034866593
 20
1695.562576328022
 30
0.0
 11
4192.426034866593
 21
1333.658501641213
 31
0.0
  0
LINE
  5
14561
330
134A6
100
AcDbEntity
  8
0
  6
ByBlock
 62
     0
 48
50.0
100
AcDbLine
 10
7022.426034866594
 20
1695.562576328022
 30
0.0
 11
7022.426034866594
 21
1333.658501641213
 31
0.0
  0
LINE
  5
14562
330
134A6
100
AcDbEntity
  8
0
  6
ByBlock
 62
     0
 48
50.0
100
AcDbLine
 10
4192.426034866593
 20
1378.658501641213
 30
0.0
 11
7022.426034866594
 21
1378.658501641213
 31
0.0
  0
INSERT
  5
14563
330
134A6
100
AcDbEntity
  8
0
  6
ByBlock
 62
     0
 48
50.0
100
AcDbBlockReference
  2
_DOTSMALL
 10
4192.426034866593
 20
1378.658501641213
 30
0.0
 41
75.0
 42
75.0
 43
75.0
 50
180.0
  0
INSERT
  5
14564
330
134A6
100
AcDbEntity
  8
0
  6
ByBlock
 62
     0
 48
50.0
100
AcDbBlockReference
  2
_DOTSMALL
 10
7022.426034866594
 20
1378.658501641213
 30
0.0
 41
75.0
 42
75.0
 43
75.0
  0
MTEXT
  5
14565
330
134A6
100
AcDbEntity
  8
0
  6
ByBlock
 62
     7
 48
50.0
100
AcDbMText
 10
5607.426034866594
 20
1453.66735990893
 30
0.0
 40
90.0
 41
0.0
 71
     5
 72
     1
  1
\A1;2830
  7
STYLE1
 73
     1
 44
1.0
1001
ACAD
1000
MTEXTBEGIN
1070
    73
1070
     1
1070
    44
1040
1.0
1070
    74
1070
     0
1000
MTEXTEND
  0
POINT
  5
14566
330
134A6
100
AcDbEntity
  8
DEFPOINTS
  6
ByBlock
 62
     0
 48
50.0
100
AcDbPoint
 10
4192.426034866593
 20
1710.562576328022
 30
0.0
  0
POINT
  5
14567
330
134A6
100
AcDbEntity
  8
DEFPOINTS
  6
ByBlock
 62
     0
 48
50.0
100
AcDbPoint
 10
7022.426034866594
 20
1710.562576328022
 30
0.0
  0
POINT
  5
14568
330
134A6
100
AcDbEntity
  8
DEFPOINTS
  6
ByBlock
 62
     0
 48
50.0
100
AcDbPoint
 10
7022.426034866594
 20
1378.658501641213
 30
0.0
  0
ENDBLK
  5
14569
330
134A6
100
AcDbEntity
  8
0
 48
50.0
100
AcDbBlockEnd
  0
BLOCK
  5
13E37
330
134B1
100
AcDbEntity
  8
0
 48
50.0
100
AcDbBlockBegin
  2
*D9
 70
     1
 10
0.0
 20
0.0
 30
0.0
  3
*D9
  1

  0
LINE
  5
13E38
330
134B1
100
AcDbEntity
  8
0
  6
ByBlock
 62
     0
 48
50.0
100
AcDbLine
 10
7481.8621856143
 20
5246.814793541216
 30
0.0
 11
7481.8621856143
 21
5907.61934322516
 31
0.0
  0
LINE
  5
13E39
330
134B1
100
AcDbEntity
  8
0
  6
ByBlock
 62
     0
 48
50.0
100
AcDbLine
 10
7731.8621856143
 20
5342.367498923764
 30
0.0
 11
7731.8621856143
 21
5907.61934322516
 31
0.0
  0
LINE
  5
13E3A
330
134B1
100
AcDbEntity
  8
0
  6
ByBlock
 62
     0
 48
50.0
100
AcDbLine
 10
7481.8621856143
 20
5862.61934322516
 30
0.0
 11
7731.8621856143
 21
5862.61934322516
 31
0.0
  0
LINE
  5
13E3B
330
134B1
100
AcDbEntity
  8
0
  6
ByBlock
 62
     0
 48
50.0
100
AcDbLine
 10
7731.8621856143
 20
5862.61934322516
 30
0.0
 11
8135.76628310064
 21
5862.61934322516
 31
0.0
  0
INSERT
  5
13E3C
330
134B1
100
AcDbEntity
  8
0
  6
ByBlock
 62
     0
 48
50.0
100
AcDbBlockReference
  2
_DOTSMALL
 10
7481.8621856143
 20
5862.61934322516
 30
0.0
 41
75.0
 42
75.0
 43
75.0
 50
180.0
  0
INSERT
  5
13E3D
330
134B1
100
AcDbEntity
  8
0
  6
ByBlock
 62
     0
 48
50.0
100
AcDbBlockReference
  2
_DOTSMALL
 10
7731.8621856143
 20
5862.61934322516
 30
0.0
 41
75.0
 42
75.0
 43
75.0
  0
MTEXT
  5
13E3E
330
134B1
100
AcDbEntity
  8
0
  6
ByBlock
 62
     7
 48
50.0
100
AcDbMText
 10
8023.588133494341
 20
5937.628201492877
 30
0.0
 40
90.0
 41
0.0
 71
     5
 72
     1
  1
\A1;250
  7
STYLE1
 73
     1
 44
1.0
1001
ACAD
1000
MTEXTBEGIN
1070
    73
1070
     1
1070
    44
1040
1.0
1070
    74
1070
     0
1000
MTEXTEND
  0
POINT
  5
13E3F
330
134B1
100
AcDbEntity
  8
DEFPOINTS
  6
ByBlock
 62
     0
 48
50.0
100
AcDbPoint
 10
7481.8621856143
 20
5231.814793541216
 30
0.0
  0
POINT
  5
13E40
330
134B1
100
AcDbEntity
  8
DEFPOINTS
  6
ByBlock
 62
     0
 48
50.0
100
AcDbPoint
 10
7731.8621856143
 20
5327.367498923764
 30
0.0
  0
POINT
  5
13E41
330
134B1
100
AcDbEntity
  8
DEFPOINTS
  6
ByBlock
 62
     0
 48
50.0
100
AcDbPoint
 10
7731.8621856143
 20
5862.61934322516
 30
0.0
  0
ENDBLK
  5
13E42
330
134B1
100
AcDbEntity
  8
0
 48
50.0
100
AcDbBlockEnd
  0
BLOCK
  5
13E99
330
134BC
100
AcDbEntity
  8
0
 48
50.0
100
AcDbBlockBegin
  2
*D10
 70
     1
 10
0.0
 20
0.0
 30
0.0
  3
*D10
  1

  0
LINE
  5
13E9A
330
134BC
100
AcDbEntity
  8
0
  6
ByBlock
 62
     0
 48
50.0
100
AcDbLine
 10
9115.715055505779
 20
4082.038116080246
 30
0.0
 11
8776.698635246754
 21
4095.598772890606
 31
0.0
  0
LINE
  5
13E9B
330
134BC
100
AcDbEntity
  8
0
  6
ByBlock
 62
     0
 48
50.0
100
AcDbLine
 10
9135.946881310283
 20
3977.646076141594
 30
0.0
 11
8772.561943277645
 21
3992.181473662899
 31
0.0
  0
LINE
  5
13E9C
330
134BC
100
AcDbEntity
  8
0
  6
ByBlock
 62
     0
 48
50.0
100
AcDbLine
 10
8821.662678389234
 20
4093.800211164907
 30
0.0
 11
8817.525986420125
 21
3990.382911937201
 31
0.0
  0
INSERT
  5
13E9D
330
134BC
100
AcDbEntity
  8
0
  6
ByBlock
 62
     0
 48
50.0
100
AcDbBlockReference
  2
_DOTSMALL
 10
8821.662678389234
 20
4093.800211164907
 30
0.0
 41
75.0
 42
75.0
 43
75.0
 50
87.7093899573615
  0
INSERT
  5
13E9E
330
134BC
100
AcDbEntity
  8
0
  6
ByBlock
 62
     0
 48
50.0
100
AcDbBlockReference
  2
_DOTSMALL
 10
8817.525986420125
 20
3990.382911937201
 30
0.0
 41
75.0
 42
75.0
 43
75.0
 50
267.7093899573615
  0
MTEXT
  5
13E9F
330
134BC
100
AcDbEntity
  8
0
  6
ByBlock
 62
     7
 48
50.0
100
AcDbMText
 10
8744.654260500544
 20
4045.089164427219
 30
0.0
 40
90.0
 41
0.0
 71
     5
 72
     1
  1
\A1;103.5
  7
STYLE1
 11
0.0399680383488711
 21
0.9992009587217895
 31
0.0
 73
     1
 44
1.0
1001
ACAD
1000
MTEXTBEGIN
1070
    73
1070
     1
1070
    44
1040
1.0
1070
    74
1070
     0
1000
MTEXTEND
  0
POINT
  5
13EA0
330
134BC
100
AcDbEntity
  8
DEFPOINTS
  6
ByBlock
 62
     0
 48
50.0
100
AcDbPoint
 10
9130.703069886605
 20
4081.438595505012
 30
0.0
 50
2.290610042638495
  0
POINT
  5
13EA1
330
134BC
100
AcDbEntity
  8
DEFPOINTS
  6
ByBlock
 62
     0
 48
50.0
100
AcDbPoint
 10
9150.93489569111
 20
3977.046555566361
 30
0.0
 50
2.290610042638495
  0
POINT
  5
13EA2
330
134BC
100
AcDbEntity
  8
DEFPOINTS
  6
ByBlock
 62
     0
 48
50.0
100
AcDbPoint
 10
8817.525986420125
 20
3990.382911937201
 30
0.0
 50
2.290610042638495
  0
ENDBLK
  5
13EA3
330
134BC
100
AcDbEntity
  8
0
 48
50.0
100
AcDbBlockEnd
  0
BLOCK
  5
13E43
330
134D8
100
AcDbEntity
  8
0
 48
50.0
100
AcDbBlockBegin
  2
*D11
 70
     1
 10
0.0
 20
0.0
 30
0.0
  3
*D11
  1

  0
LINE
  5
13E44
330
134D8
100
AcDbEntity
  8
0
  6
ByBlock
 62
     0
 48
50.0
100
AcDbLine
 10
10199.1662998724
 20
5342.367498923766
 30
0.0
 11
10199.1662998724
 21
6212.187023874692
 31
0.0
  0
LINE
  5
13E45
330
134D8
100
AcDbEntity
  8
0
  6
ByBlock
 62
     0
 48
50.0
100
AcDbLine
 10
12199.1662998724
 20
5263.567498923765
 30
0.0
 11
12199.1662998724
 21
6212.187023874692
 31
0.0
  0
LINE
  5
13E46
330
134D8
100
AcDbEntity
  8
0
  6
ByBlock
 62
     0
 48
50.0
100
AcDbLine
 10
10199.1662998724
 20
6167.187023874692
 30
0.0
 11
12199.1662998724
 21
6167.187023874692
 31
0.0
  0
INSERT
  5
13E47
330
134D8
100
AcDbEntity
  8
0
  6
ByBlock
 62
     0
 48
50.0
100
AcDbBlockReference
  2
_DOTSMALL
 10
10199.1662998724
 20
6167.187023874692
 30
0.0
 41
75.0
 42
75.0
 43
75.0
 50
180.0
  0
INSERT
  5
13E48
330
134D8
100
AcDbEntity
  8
0
  6
ByBlock
 62
     0
 48
50.0
100
AcDbBlockReference
  2
_DOTSMALL
 10
12199.1662998724
 20
6167.187023874692
 30
0.0
 41
75.0
 42
75.0
 43
75.0
  0
MTEXT
  5
13E49
330
134D8
100
AcDbEntity
  8
0
  6
ByBlock
 62
     7
 48
50.0
100
AcDbMText
 10
11199.1662998724
 20
6242.195882142409
 30
0.0
 40
90.0
 41
0.0
 71
     5
 72
     1
  1
\A1;2000
  7
STYLE1
 73
     1
 44
1.0
1001
ACAD
1000
MTEXTBEGIN
1070
    73
1070
     1
1070
    44
1040
1.0
1070
    74
1070
     0
1000
MTEXTEND
  0
POINT
  5
13E4A
330
134D8
100
AcDbEntity
  8
DEFPOINTS
  6
ByBlock
 62
     0
 48
50.0
100
AcDbPoint
 10
10199.1662998724
 20
5327.367498923766
 30
0.0
  0
POINT
  5
13E4B
330
134D8
100
AcDbEntity
  8
DEFPOINTS
  6
ByBlock
 62
     0
 48
50.0
100
AcDbPoint
 10
12199.1662998724
 20
5248.567498923765
 30
0.0
  0
POINT
  5
13E4C
330
134D8
100
AcDbEntity
  8
DEFPOINTS
  6
ByBlock
 62
     0
 48
50.0
100
AcDbPoint
 10
12199.1662998724
 20
6167.187023874692
 30
0.0
  0
ENDBLK
  5
13E4D
330
134D8
100
AcDbEntity
  8
0
 48
50.0
100
AcDbBlockEnd
  0
BLOCK
  5
13DFF
330
13DBA
100
AcDbEntity
  8
0
 48
50.0
100
AcDbBlockBegin
  2
*D12
 70
     1
 10
0.0
 20
0.0
 30
0.0
  3
*D12
  1

  0
LINE
  5
1485B
330
13DBA
100
AcDbEntity
  8
寸法
 62
     0
 48
50.0
370
    -2
100
AcDbLine
 10
7272.426034866595
 20
7921.447238448386
 30
0.0
 11
7940.915569391477
 21
7921.447238448386
 31
0.0
  0
LINE
  5
1485C
330
13DBA
100
AcDbEntity
  8
寸法
 62
     0
 48
50.0
370
    -2
100
AcDbLine
 10
7272.426034866595
 20
5921.447238448382
 30
0.0
 11
7940.915569391477
 21
5921.447238448382
 31
0.0
  0
LINE
  5
1485D
330
13DBA
100
AcDbEntity
  8
寸法
 62
     0
 48
50.0
370
    -2
100
AcDbLine
 10
7895.915569391478
 20
7921.447238448386
 30
0.0
 11
7895.915569391476
 21
5921.447238448382
 31
0.0
  0
INSERT
  5
1485E
330
13DBA
100
AcDbEntity
  8
寸法
 62
     0
 48
50.0
370
    -2
100
AcDbBlockReference
  2
_DOTSMALL
 10
7895.915569391478
 20
7921.447238448386
 30
0.0
 41
75.0
 42
75.0
 43
75.0
 50
90.0
  0
INSERT
  5
1485F
330
13DBA
100
AcDbEntity
  8
寸法
 62
     0
 48
50.0
370
    -2
100
AcDbBlockReference
  2
_DOTSMALL
 10
7895.915569391476
 20
5921.447238448382
 30
0.0
 41
75.0
 42
75.0
 43
75.0
 50
270.0
  0
MTEXT
  5
14860
330
13DBA
100
AcDbEntity
  8
寸法
 62
     7
 48
50.0
100
AcDbMText
 10
7820.906711123758
 20
6921.447238448381
 30
0.0
 40
90.0
 41
0.0
 71
     5
 72
     1
  1
\A1;2000
  7
STYLE1
 11
0.0000000000000001
 21
1.0
 31
0.0
 73
     1
 44
1.0
1001
ACAD
1000
MTEXTBEGIN
1070
    73
1070
     1
1070
    44
1040
1.0
1070
    74
1070
     0
1000
MTEXTEND
  0
POINT
  5
14861
330
13DBA
100
AcDbEntity
  8
DEFPOINTS
 62
     0
 48
50.0
100
AcDbPoint
 10
7257.426034866594
 20
7921.447238448386
 30
0.0
  0
POINT
  5
14862
330
13DBA
100
AcDbEntity
  8
DEFPOINTS
 62
     0
 48
50.0
100
AcDbPoint
 10
7257.426034866594
 20
5921.447238448382
 30
0.0
  0
POINT
  5
14863
330
13DBA
100
AcDbEntity
  8
DEFPOINTS
 62
     0
 48
50.0
100
AcDbPoint
 10
7895.915569391476
 20
5921.447238448382
 30
0.0
  0
ENDBLK
  5
13E09
330
13DBA
100
AcDbEntity
  8
0
 48
50.0
100
AcDbBlockEnd
  0
BLOCK
  5
13EBB
330
13E72
100
AcDbEntity
  8
0
 48
50.0
100
AcDbBlockBegin
  2
*D13
 70
     1
 10
0.0
 20
0.0
 30
0.0
  3
*D13
  1

  0
LINE
  5
13EBC
330
13E72
100
AcDbEntity
  8
0
  6
ByBlock
 62
     0
 48
50.0
100
AcDbLine
 10
9100.103549311356
 20
4082.062576328023
 30
0.0
 11
8462.228440851003
 21
4082.062576328023
 31
0.0
  0
LINE
  5
13EBD
330
13E72
100
AcDbEntity
  8
0
  6
ByBlock
 62
     0
 48
50.0
100
AcDbLine
 10
9100.103549311356
 20
1880.562576328022
 30
0.0
 11
8462.228440851003
 21
1880.562576328022
 31
0.0
  0
LINE
  5
13EBE
330
13E72
100
AcDbEntity
  8
0
  6
ByBlock
 62
     0
 48
50.0
100
AcDbLine
 10
8507.228440851003
 20
4082.062576328023
 30
0.0
 11
8507.228440851003
 21
1880.562576328022
 31
0.0
  0
INSERT
  5
13EBF
330
13E72
100
AcDbEntity
  8
0
  6
ByBlock
 62
     0
 48
50.0
100
AcDbBlockReference
  2
_DOTSMALL
 10
8507.228440851003
 20
4082.062576328023
 30
0.0
 41
75.0
 42
75.0
 43
75.0
 50
90.0
  0
INSERT
  5
13EC0
330
13E72
100
AcDbEntity
  8
0
  6
ByBlock
 62
     0
 48
50.0
100
AcDbBlockReference
  2
_DOTSMALL
 10
8507.228440851003
 20
1880.562576328022
 30
0.0
 41
75.0
 42
75.0
 43
75.0
 50
270.0
  0
MTEXT
  5
13EC1
330
13E72
100
AcDbEntity
  8
0
  6
ByBlock
 62
     7
 48
50.0
100
AcDbMText
 10
8432.219582583286
 20
2981.312576328022
 30
0.0
 40
90.0
 41
0.0
 71
     5
 72
     1
  1
\A1;2201.5
  7
STYLE1
 11
0.0000000000000001
 21
1.0
 31
0.0
 73
     1
 44
1.0
1001
ACAD
1000
MTEXTBEGIN
1070
    73
1070
     1
1070
    44
1040
1.0
1070
    74
1070
     0
1000
MTEXTEND
  0
POINT
  5
13EC2
330
13E72
100
AcDbEntity
  8
DEFPOINTS
  6
ByBlock
 62
     0
 48
50.0
100
AcDbPoint
 10
9115.103549311355
 20
4082.062576328023
 30
0.0
  0
POINT
  5
13EC3
330
13E72
100
AcDbEntity
  8
DEFPOINTS
  6
ByBlock
 62
     0
 48
50.0
100
AcDbPoint
 10
9115.103549311355
 20
1880.562576328022
 30
0.0
  0
POINT
  5
13EC4
330
13E72
100
AcDbEntity
  8
DEFPOINTS
  6
ByBlock
 62
     0
 48
50.0
100
AcDbPoint
 10
8507.228440851003
 20
1880.562576328022
 30
0.0
  0
ENDBLK
  5
13EC5
330
13E72
100
AcDbEntity
  8
0
 48
50.0
100
AcDbBlockEnd
  0
BLOCK
  5
1454F
330
13E8C
100
AcDbEntity
  8
0
 48
50.0
100
AcDbBlockBegin
  2
*D14
 70
     1
 10
0.0
 20
0.0
 30
0.0
  3
*D14
  1

  0
LINE
  5
14550
330
13E8C
100
AcDbEntity
  8
0
  6
ByBlock
 62
     0
 48
50.0
100
AcDbLine
 10
11414.64429244082
 20
1880.562576328022
 30
0.0
 11
11535.74100178595
 21
1880.562576328022
 31
0.0
  0
LINE
  5
14551
330
13E8C
100
AcDbEntity
  8
0
  6
ByBlock
 62
     0
 48
50.0
100
AcDbLine
 10
11130.10354931135
 20
4002.650581124186
 30
0.0
 11
11535.74100178595
 21
4002.650581124185
 31
0.0
  0
LINE
  5
14552
330
13E8C
100
AcDbEntity
  8
0
  6
ByBlock
 62
     0
 48
50.0
100
AcDbLine
 10
11490.74100178595
 20
1880.562576328022
 30
0.0
 11
11490.74100178595
 21
4002.650581124185
 31
0.0
  0
INSERT
  5
14553
330
13E8C
100
AcDbEntity
  8
0
  6
ByBlock
 62
     0
 48
50.0
100
AcDbBlockReference
  2
_DOTSMALL
 10
11490.74100178595
 20
1880.562576328022
 30
0.0
 41
75.0
 42
75.0
 43
75.0
 50
270.0
  0
INSERT
  5
14554
330
13E8C
100
AcDbEntity
  8
0
  6
ByBlock
 62
     0
 48
50.0
100
AcDbBlockReference
  2
_DOTSMALL
 10
11490.74100178595
 20
4002.650581124185
 30
0.0
 41
75.0
 42
75.0
 43
75.0
 50
90.0
  0
MTEXT
  5
14555
330
13E8C
100
AcDbEntity
  8
0
  6
ByBlock
 62
     7
 48
50.0
100
AcDbMText
 10
11415.73214351823
 20
2991.672581441367
 30
0.0
 40
90.0
 41
0.0
 71
     5
 72
     1
  1
\A1;2121.5
  7
STYLE1
 11
0.0000000000000001
 21
1.0
 31
0.0
 73
     1
 44
1.0
1001
ACAD
1000
MTEXTBEGIN
1070
    73
1070
     1
1070
    44
1040
1.0
1070
    74
1070
     0
1000
MTEXTEND
  0
POINT
  5
14556
330
13E8C
100
AcDbEntity
  8
DEFPOINTS
  6
ByBlock
 62
     0
 48
50.0
100
AcDbPoint
 10
11399.64429244082
 20
1880.562576328022
 30
0.0
  0
POINT
  5
14557
330
13E8C
100
AcDbEntity
  8
DEFPOINTS
  6
ByBlock
 62
     0
 48
50.0
100
AcDbPoint
 10
11115.10354931135
 20
4002.650581124186
 30
0.0
  0
POINT
  5
14558
330
13E8C
100
AcDbEntity
  8
DEFPOINTS
  6
ByBlock
 62
     0
 48
50.0
100
AcDbPoint
 10
11490.74100178595
 20
4002.650581124185
 30
0.0
  0
ENDBLK
  5
14559
330
13E8C
100
AcDbEntity
  8
0
 48
50.0
100
AcDbBlockEnd
  0
BLOCK
  5
14676
330
13EDE
100
AcDbEntity
  8
0
 48
50.0
100
AcDbBlockBegin
  2
*D15
 70
     1
 10
0.0
 20
0.0
 30
0.0
  3
*D15
  1

  0
LINE
  5
14677
330
13EDE
100
AcDbEntity
  8
0
  6
ByBlock
 62
     0
 48
50.0
100
AcDbLine
 10
9100.103549311356
 20
1830.562576328022
 30
0.0
 11
8462.228440851003
 21
1830.562576328022
 31
0.0
  0
LINE
  5
14678
330
13EDE
100
AcDbEntity
  8
0
  6
ByBlock
 62
     0
 48
50.0
100
AcDbLine
 10
10060.10354931135
 20
1880.562576328022
 30
0.0
 11
8462.228440851003
 21
1880.562576328022
 31
0.0
  0
LINE
  5
14679
330
13EDE
100
AcDbEntity
  8
0
  6
ByBlock
 62
     0
 48
50.0
100
AcDbLine
 10
8507.228440851003
 20
1880.562576328022
 30
0.0
 11
8507.228440851003
 21
1955.562576328022
 31
0.0
  0
LINE
  5
1467A
330
13EDE
100
AcDbEntity
  8
0
  6
ByBlock
 62
     0
 48
50.0
100
AcDbLine
 10
8507.228440851003
 20
1830.562576328022
 30
0.0
 11
8507.228440851003
 21
1521.49171018629
 31
0.0
  0
LINE
  5
1467B
330
13EDE
100
AcDbEntity
  8
0
  6
ByBlock
 62
     0
 48
50.0
100
AcDbLine
 10
8507.228440851003
 20
1880.562576328022
 30
0.0
 11
8507.228440851003
 21
1830.562576328022
 31
0.0
  0
INSERT
  5
1467C
330
13EDE
100
AcDbEntity
  8
0
  6
ByBlock
 62
     0
 48
50.0
100
AcDbBlockReference
  2
_DOTSMALL
 10
8507.228440851003
 20
1880.562576328022
 30
0.0
 41
75.0
 42
75.0
 43
75.0
 50
270.0
  0
INSERT
  5
1467D
330
13EDE
100
AcDbEntity
  8
0
  6
ByBlock
 62
     0
 48
50.0
100
AcDbBlockReference
  2
_DOTSMALL
 10
8507.228440851003
 20
1830.562576328022
 30
0.0
 41
75.0
 42
75.0
 43
75.0
 50
90.0
  0
MTEXT
  5
1467E
330
13EDE
100
AcDbEntity
  8
0
  6
ByBlock
 62
     7
 48
50.0
100
AcDbMText
 10
8432.228440851003
 20
1601.027143257156
 30
0.0
 40
90.0
 41
0.0
 71
     5
 72
     1
  1
\A1;50
  7
STYLE1
 11
0.0000000000000001
 21
1.0
 31
0.0
 73
     1
 44
1.0
1001
ACAD
1000
MTEXTBEGIN
1070
    73
1070
     1
1070
    44
1040
1.0
1070
    74
1070
     0
1000
MTEXTEND
  0
POINT
  5
1467F
330
13EDE
100
AcDbEntity
  8
DEFPOINTS
  6
ByBlock
 62
     0
 48
50.0
100
AcDbPoint
 10
9115.103549311355
 20
1830.562576328022
 30
0.0
  0
POINT
  5
14680
330
13EDE
100
AcDbEntity
  8
DEFPOINTS
  6
ByBlock
 62
     0
 48
50.0
100
AcDbPoint
 10
10075.10354931135
 20
1880.562576328022
 30
0.0
  0
POINT
  5
14681
330
13EDE
100
AcDbEntity
  8
DEFPOINTS
  6
ByBlock
 62
     0
 48
50.0
100
AcDbPoint
 10
8507.228440851003
 20
1880.562576328022
 30
0.0
  0
ENDBLK
  5
14682
330
13EDE
100
AcDbEntity
  8
0
 48
50.0
100
AcDbBlockEnd
  0
BLOCK
  5
14542
330
13F0A
100
AcDbEntity
  8
0
 48
50.0
100
AcDbBlockBegin
  2
*D16
 70
     1
 10
0.0
 20
0.0
 30
0.0
  3
*D16
  1

  0
LINE
  5
14543
330
13F0A
100
AcDbEntity
  8
0
  6
ByBlock
 62
     0
 48
50.0
100
AcDbLine
 10
10170.10354931133
 20
1880.562576328022
 30
0.0
 11
11535.74100178595
 21
1880.562576328022
 31
0.0
  0
LINE
  5
14544
330
13F0A
100
AcDbEntity
  8
0
  6
ByBlock
 62
     0
 48
50.0
100
AcDbLine
 10
11130.10354931135
 20
1830.562576328022
 30
0.0
 11
11535.74100178595
 21
1830.562576328022
 31
0.0
  0
LINE
  5
14545
330
13F0A
100
AcDbEntity
  8
0
  6
ByBlock
 62
     0
 48
50.0
100
AcDbLine
 10
11490.74100178595
 20
1880.562576328022
 30
0.0
 11
11490.74100178595
 21
1955.562576328022
 31
0.0
  0
LINE
  5
14546
330
13F0A
100
AcDbEntity
  8
0
  6
ByBlock
 62
     0
 48
50.0
100
AcDbLine
 10
11490.74100178595
 20
1830.562576328022
 30
0.0
 11
11490.74100178595
 21
1521.49171018629
 31
0.0
  0
LINE
  5
14547
330
13F0A
100
AcDbEntity
  8
0
  6
ByBlock
 62
     0
 48
50.0
100
AcDbLine
 10
11490.74100178595
 20
1880.562576328022
 30
0.0
 11
11490.74100178595
 21
1830.562576328022
 31
0.0
  0
INSERT
  5
14548
330
13F0A
100
AcDbEntity
  8
0
  6
ByBlock
 62
     0
 48
50.0
100
AcDbBlockReference
  2
_DOTSMALL
 10
11490.74100178595
 20
1880.562576328022
 30
0.0
 41
75.0
 42
75.0
 43
75.0
 50
270.0
  0
INSERT
  5
14549
330
13F0A
100
AcDbEntity
  8
0
  6
ByBlock
 62
     0
 48
50.0
100
AcDbBlockReference
  2
_DOTSMALL
 10
11490.74100178595
 20
1830.562576328022
 30
0.0
 41
75.0
 42
75.0
 43
75.0
 50
90.0
  0
MTEXT
  5
1454A
330
13F0A
100
AcDbEntity
  8
0
  6
ByBlock
 62
     7
 48
50.0
100
AcDbMText
 10
11415.74100178595
 20
1601.027143257156
 30
0.0
 40
90.0
 41
0.0
 71
     5
 72
     1
  1
\A1;50
  7
STYLE1
 11
0.0000000000000001
 21
1.0
 31
0.0
 73
     1
 44
1.0
1001
ACAD
1000
MTEXTBEGIN
1070
    73
1070
     1
1070
    44
1040
1.0
1070
    74
1070
     0
1000
MTEXTEND
  0
POINT
  5
1454B
330
13F0A
100
AcDbEntity
  8
DEFPOINTS
  6
ByBlock
 62
     0
 48
50.0
100
AcDbPoint
 10
10155.10354931133
 20
1880.562576328022
 30
0.0
  0
POINT
  5
1454C
330
13F0A
100
AcDbEntity
  8
DEFPOINTS
  6
ByBlock
 62
     0
 48
50.0
100
AcDbPoint
 10
11115.10354931135
 20
1830.562576328022
 30
0.0
  0
POINT
  5
1454D
330
13F0A
100
AcDbEntity
  8
DEFPOINTS
  6
ByBlock
 62
     0
 48
50.0
100
AcDbPoint
 10
11490.74100178595
 20
1830.562576328022
 30
0.0
  0
ENDBLK
  5
1454E
330
13F0A
100
AcDbEntity
  8
0
 48
50.0
100
AcDbBlockEnd
  0
BLOCK
  5
14660
330
14649
100
AcDbEntity
  8
0
 48
50.0
100
AcDbBlockBegin
  2
*D17
 70
     1
 10
0.0
 20
0.0
 30
0.0
  3
*D17
  1

  0
LINE
  5
14852
330
14649
100
AcDbEntity
  8
寸法
 62
     0
 48
50.0
370
    -2
100
AcDbLine
 10
1112.426034866594
 20
7921.447238448381
 30
0.0
 11
1112.426034866594
 21
8301.09103574065
 31
0.0
  0
LINE
  5
14853
330
14649
100
AcDbEntity
  8
寸法
 62
     0
 48
50.0
370
    -2
100
AcDbLine
 10
7272.426034866595
 20
7920.978717162715
 30
0.0
 11
7272.426034866595
 21
8301.09103574065
 31
0.0
  0
LINE
  5
14854
330
14649
100
AcDbEntity
  8
寸法
 62
     0
 48
50.0
370
    -2
100
AcDbLine
 10
1112.426034866594
 20
8256.09103574065
 30
0.0
 11
7272.426034866595
 21
8256.09103574065
 31
0.0
  0
INSERT
  5
14855
330
14649
100
AcDbEntity
  8
寸法
 62
     0
 48
50.0
370
    -2
100
AcDbBlockReference
  2
_DOTSMALL
 10
1112.426034866594
 20
8256.09103574065
 30
0.0
 41
75.0
 42
75.0
 43
75.0
 50
180.0
  0
INSERT
  5
14856
330
14649
100
AcDbEntity
  8
寸法
 62
     0
 48
50.0
370
    -2
100
AcDbBlockReference
  2
_DOTSMALL
 10
7272.426034866595
 20
8256.09103574065
 30
0.0
 41
75.0
 42
75.0
 43
75.0
  0
MTEXT
  5
14857
330
14649
100
AcDbEntity
  8
寸法
 62
     7
 48
50.0
100
AcDbMText
 10
4192.426034866595
 20
8331.09103574065
 30
0.0
 40
90.0
 41
0.0
 71
     5
 72
     1
  1
\A1;6160
  7
STYLE1
 73
     1
 44
1.0
1001
ACAD
1000
MTEXTBEGIN
1070
    73
1070
     1
1070
    44
1040
1.0
1070
    74
1070
     0
1000
MTEXTEND
  0
POINT
  5
14858
330
14649
100
AcDbEntity
  8
DEFPOINTS
 62
     0
 48
50.0
100
AcDbPoint
 10
1112.426034866594
 20
7906.447238448381
 30
0.0
  0
POINT
  5
14859
330
14649
100
AcDbEntity
  8
DEFPOINTS
 62
     0
 48
50.0
100
AcDbPoint
 10
7272.426034866595
 20
7905.978717162715
 30
0.0
  0
POINT
  5
1485A
330
14649
100
AcDbEntity
  8
DEFPOINTS
 62
     0
 48
50.0
100
AcDbPoint
 10
7272.426034866595
 20
8256.09103574065
 30
0.0
  0
ENDBLK
  5
1466A
330
14649
100
AcDbEntity
  8
0
 48
50.0
100
AcDbBlockEnd
  0
BLOCK
  5
1470C
330
146C9
100
AcDbEntity
  8
0
 48
50.0
100
AcDbBlockBegin
  2
A$C21B663D0
 70
     0
 10
0.0
 20
0.0
 30
0.0
  3
A$C21B663D0
  1

  0
TEXT
  5
146CA
330
146C9
100
AcDbEntity
  8
文字
 62
     7
 48
50.0
100
AcDbText
 10
537.4886258593378
 20
171.4076378492173
 30
0.0
 40
75.0
  1
○間口奥行寸法は柱芯寸法です。
  7
STYLE2
100
AcDbText
  0
TEXT
  5
146CB
330
146C9
100
AcDbEntity
  8
仕様書枠
 62
     7
 48
50.0
100
AcDbText
 10
1789.38419764697
 20
628.6895399612294
 30
0.0
 40
75.0
  1
～一般型～
  7
STYLE2
100
AcDbText
  0
TEXT
  5
146CC
330
146C9
100
AcDbEntity
  8
仕様書枠
 62
     7
 48
50.0
100
AcDbText
 10
1615.362211931875
 20
362.9225293998961
 30
0.0
 40
120.0
  1
BY-２８L-２
  7
STYLE3
100
AcDbText
  0
TEXT
  5
146CD
330
146C9
100
AcDbEntity
  8
文字
 62
     7
 48
50.0
100
AcDbText
 10
1523.533495612933
 20
773.6682743749618
 30
0.0
 40
75.0
  1
NO.04     <縮尺> S=1/30
  7
STYLE2
100
AcDbText
  0
TEXT
  5
146CE
330
146C9
100
AcDbEntity
  8
仕様書枠
 62
     7
 48
50.0
100
AcDbText
 10
531.512142684749
 20
357.9555442338842
 30
0.0
 40
120.0
  1
機種名
  7
STYLE2
100
AcDbText
  0
LINE
  5
146CF
330
146C9
100
AcDbEntity
  8
仕様書枠
 48
50.0
100
AcDbLine
 10
460.8346176964369
 20
599.9999946565403
 30
0.0
 11
1318.834617696437
 21
599.9999946565403
 31
0.0
  0
TEXT
  5
146D0
330
146C9
100
AcDbEntity
  8
仕様書枠
 62
     7
 48
50.0
100
AcDbText
 10
502.668910129114
 20
671.3179502289959
 30
0.0
 40
150.0
  1
外 形 図
  7
STYLE2
100
AcDbText
  0
LINE
  5
146D1
330
146C9
100
AcDbEntity
  8
仕様書枠
  6
Continuous
 48
50.0
100
AcDbLine
 10
1318.834617696437
 20
899.9999946565404
 30
0.0
 11
1318.834617696437
 21
599.9999946565403
 31
0.0
  0
LINE
  5
146D2
330
146C9
100
AcDbEntity
  8
仕様書枠
  6
Continuous
 48
50.0
100
AcDbLine
 10
1318.834617696437
 20
899.9999946565404
 30
0.0
 11
1318.834617696437
 21
599.9999946565403
 31
0.0
  0
LINE
  5
146D3
330
146C9
100
AcDbEntity
  8
仕様書枠
 48
50.0
100
AcDbLine
 10
460.8346176964369
 20
899.9999946565404
 30
0.0
 11
2860.834617696437
 21
899.9999946565404
 31
0.0
  0
LINE
  5
146D4
330
146C9
100
AcDbEntity
  8
仕様書枠
 62
     7
 48
50.0
100
AcDbLine
 10
520.8346176964369
 20
299.9999946565404
 30
0.0
 11
2800.834617696437
 21
299.9999946565404
 31
0.0
  0
LINE
  5
146D5
330
146C9
100
AcDbEntity
  8
仕様書枠
  6
Continuous
 48
50.0
100
AcDbLine
 10
460.8346176964369
 20
899.9999946565404
 30
0.0
 11
460.8346176964369
 21
-0.0000053434596339
 31
0.0
  0
LINE
  5
146D6
330
146C9
100
AcDbEntity
  8
仕様書枠
 48
50.0
100
AcDbLine
 10
2860.834617696437
 20
899.9999946565404
 30
0.0
 11
2860.834617696437
 21
-0.0000053434596339
 31
0.0
  0
LINE
  5
146D7
330
146C9
100
AcDbEntity
  8
仕様書枠
 48
50.0
100
AcDbLine
 10
460.8346176964369
 20
899.9999946565404
 30
0.0
 11
2860.834617696437
 21
899.9999946565404
 31
0.0
  0
LINE
  5
146D8
330
146C9
100
AcDbEntity
  8
仕様書枠
 48
50.0
100
AcDbLine
 10
460.8346176964369
 20
899.9999946565404
 30
0.0
 11
2860.834617696437
 21
899.9999946565404
 31
0.0
  0
TEXT
  5
146D9
330
146C9
100
AcDbEntity
  8
文字
 62
     7
 48
50.0
100
AcDbText
 10
1508.041729398075
 20
7921.449560630691
 30
0.0
 40
81.11400000000001
  1
F12            2.3
  7
STYLE1
100
AcDbText
  0
TEXT
  5
146DA
330
146C9
100
AcDbEntity
  8
文字
 62
     7
 48
50.0
100
AcDbText
 10
1491.95682480769
 20
6956.192960630694
 30
0.0
 40
81.11400000000001
  1
Y10            0.7
  7
STYLE1
100
AcDbText
  0
TEXT
  5
146DB
330
146C9
100
AcDbEntity
  8
文字
 62
     7
 48
50.0
100
AcDbText
 10
1491.95682480769
 20
7369.874360630693
 30
0.0
 40
81.11400000000001
  1
Y10            0.7
  7
STYLE1
100
AcDbText
  0
TEXT
  5
146DC
330
146C9
100
AcDbEntity
  8
文字
 62
     7
 48
50.0
100
AcDbText
 10
1491.956824807694
 20
7094.086760630696
 30
0.0
 40
81.11400000000001
  1
Y10            0.5
  7
STYLE1
100
AcDbText
  0
TEXT
  5
146DD
330
146C9
100
AcDbEntity
  8
文字
 62
     7
 48
50.0
100
AcDbText
 10
1508.041729398068
 20
7645.661960630694
 30
0.0
 40
81.11400000000001
  1
PZ            2.3
  7
STYLE1
100
AcDbText
  0
TEXT
  5
146DE
330
146C9
100
AcDbEntity
  8
文字
 62
     7
 48
50.0
100
AcDbText
 10
368.1108988992528
 20
7507.768160630694
 30
0.0
 40
81.11400000000001
  1
母屋
  7
STYLE1
100
AcDbText
  0
TEXT
  5
146DF
330
146C9
100
AcDbEntity
  8
文字
 62
     7
 48
50.0
100
AcDbText
 10
1508.041729398079
 20
7507.768160630694
 30
0.0
 40
81.11400000000001
  1
F12            1.6
  7
STYLE1
100
AcDbText
  0
LINE
  5
146E0
330
146C9
100
AcDbEntity
  8
部品1
100
AcDbLine
 10
0.0000078480734373
 20
8172.567354794566
 30
0.0
 11
0.0000078480752563
 21
6379.947954794568
 31
0.0
  0
TEXT
  5
146E1
330
146C9
100
AcDbEntity
  8
文字
 62
     7
 48
50.0
100
AcDbText
 10
1508.041729398079
 20
6818.299160630693
 30
0.0
 40
81.11400000000001
  1
硬質塩化ビニール
  7
STYLE1
100
AcDbText
  0
TEXT
  5
146E2
330
146C9
100
AcDbEntity
  8
文字
 62
     7
 48
50.0
100
AcDbText
 10
1508.041729398073
 20
7783.555760630694
 30
0.0
 40
81.11400000000001
  1
PZ            3.2
  7
STYLE1
100
AcDbText
  0
LINE
  5
146E3
330
146C9
100
AcDbEntity
  8
部品1
100
AcDbLine
 10
2550.000007848075
 20
6655.735554794566
 30
0.0
 11
0.0000078480734373
 21
6655.735554794567
 31
0.0
  0
LINE
  5
146E4
330
146C9
100
AcDbEntity
  8
部品1
100
AcDbLine
 10
2550.000007848074
 20
7069.416954794568
 30
0.0
 11
0.0000078480716184
 21
7069.416954794568
 31
0.0
  0
LINE
  5
146E5
330
146C9
100
AcDbEntity
  8
部品1
100
AcDbLine
 10
2550.000007848075
 20
6379.947954794566
 30
0.0
 11
0.0000078480734373
 21
6379.947954794566
 31
0.0
  0
LINE
  5
146E6
330
146C9
100
AcDbEntity
  8
部品1
100
AcDbLine
 10
2550.000007848074
 20
6517.841754794564
 30
0.0
 11
0.0000078480716184
 21
6517.841754794564
 31
0.0
  0
TEXT
  5
146E7
330
146C9
100
AcDbEntity
  8
文字
 62
     7
 48
50.0
100
AcDbText
 10
115.0937282786544
 20
7231.980560630693
 30
0.0
 40
81.11400000000001
  1
6
  7
STYLE1
100
AcDbText
  0
TEXT
  5
146E8
330
146C9
100
AcDbEntity
  8
文字
 62
     7
 48
50.0
100
AcDbText
 10
115.093728278649
 20
7094.086760630692
 30
0.0
 40
81.11400000000001
  1
7
  7
STYLE1
100
AcDbText
  0
TEXT
  5
146E9
330
146C9
100
AcDbEntity
  8
文字
 62
     7
 48
50.0
100
AcDbText
 10
115.093728278649
 20
6956.192960630693
 30
0.0
 40
81.11400000000001
  1
8
  7
STYLE1
100
AcDbText
  0
TEXT
  5
146EA
330
146C9
100
AcDbEntity
  8
文字
 62
     7
 48
50.0
100
AcDbText
 10
115.0937282786544
 20
7369.87436063069
 30
0.0
 40
81.11400000000001
  1
5
  7
STYLE1
100
AcDbText
  0
TEXT
  5
146EB
330
146C9
100
AcDbEntity
  8
文字
 62
     7
 48
50.0
100
AcDbText
 10
368.110898899251
 20
6956.192960630694
 30
0.0
 40
81.11400000000001
  1
鼻隠シ
  7
STYLE1
100
AcDbText
  0
TEXT
  5
146EC
330
146C9
100
AcDbEntity
  8
文字
 62
     7
 48
50.0
100
AcDbText
 10
368.1108988992528
 20
7645.661960630694
 30
0.0
 40
81.11400000000001
  1
梁
  7
STYLE1
100
AcDbText
  0
TEXT
  5
146ED
330
146C9
100
AcDbEntity
  8
文字
 62
     7
 48
50.0
100
AcDbText
 10
368.1108988992473
 20
7783.555760630694
 30
0.0
 40
81.11400000000001
  1
柱
  7
STYLE1
100
AcDbText
  0
TEXT
  5
146EE
330
146C9
100
AcDbEntity
  8
文字
 62
     7
 48
50.0
100
AcDbText
 10
1375.954143655987
 20
8059.343360630691
 30
0.0
 40
81.11400000000001
  1
材料（材質）　　単位mm
  7
STYLE1
100
AcDbText
  0
TEXT
  5
146EF
330
146C9
100
AcDbEntity
  8
文字
 62
     7
 48
50.0
100
AcDbText
 10
508.2358633458007
 20
8059.343360630691
 30
0.0
 40
81.11400000000001
  1
部　　品　　名
  7
STYLE1
100
AcDbText
  0
TEXT
  5
146F0
330
146C9
100
AcDbEntity
  8
文字
 62
     7
 48
50.0
100
AcDbText
 10
115.0937282786544
 20
7645.661960630693
 30
0.0
 40
81.11400000000001
  1
3
  7
STYLE1
100
AcDbText
  0
TEXT
  5
146F1
330
146C9
100
AcDbEntity
  8
文字
 62
     7
 48
50.0
100
AcDbText
 10
115.0937282786544
 20
7507.768160630693
 30
0.0
 40
81.11400000000001
  1
4
  7
STYLE1
100
AcDbText
  0
TEXT
  5
146F2
330
146C9
100
AcDbEntity
  8
文字
 62
     7
 48
50.0
100
AcDbText
 10
115.0937282786544
 20
7783.555760630694
 30
0.0
 40
81.11400000000001
  1
2
  7
STYLE1
100
AcDbText
  0
TEXT
  5
146F3
330
146C9
100
AcDbEntity
  8
文字
 62
     7
 48
50.0
100
AcDbText
 10
115.0937282786544
 20
7921.449560630692
 30
0.0
 40
81.11400000000001
  1
1
  7
STYLE1
100
AcDbText
  0
TEXT
  5
146F4
330
146C9
100
AcDbEntity
  8
文字
 62
     7
 48
50.0
100
AcDbText
 10
55.259875179132
 20
8059.343360630691
 30
0.0
 40
81.11400000000001
  1
品番
  7
STYLE1
100
AcDbText
  0
LINE
  5
146F5
330
146C9
100
AcDbEntity
  8
部品1
100
AcDbLine
 10
2550.000007848075
 20
7620.992154794567
 30
0.0
 11
0.0000078480734373
 21
7620.992154794567
 31
0.0
  0
LINE
  5
146F6
330
146C9
100
AcDbEntity
  8
部品1
100
AcDbLine
 10
2550.000007848075
 20
7345.204554794567
 30
0.0
 11
0.0000078480734373
 21
7345.204554794567
 31
0.0
  0
LINE
  5
146F7
330
146C9
100
AcDbEntity
  8
部品1
100
AcDbLine
 10
2550.000007848075
 20
7483.098354794565
 30
0.0
 11
0.0000078480734373
 21
7483.098354794565
 31
0.0
  0
LINE
  5
146F8
330
146C9
100
AcDbEntity
  8
部品1
100
AcDbLine
 10
2550.000007848074
 20
7896.779754794566
 30
0.0
 11
0.0000078480716184
 21
7896.779754794566
 31
0.0
  0
LINE
  5
146F9
330
146C9
100
AcDbEntity
  8
部品1
100
AcDbLine
 10
2550.000007848074
 20
7758.885954794568
 30
0.0
 11
0.0000078480716184
 21
7758.885954794568
 31
0.0
  0
LINE
  5
146FA
330
146C9
100
AcDbEntity
  8
部品1
100
AcDbLine
 10
2550.000007848074
 20
8034.673554794563
 30
0.0
 11
0.0000078480716184
 21
8034.673554794567
 31
0.0
  0
LINE
  5
146FB
330
146C9
100
AcDbEntity
  8
部品1
100
AcDbLine
 10
292.7412381282465
 20
8172.567354794566
 30
0.0
 11
292.7412381282575
 21
6793.629354794569
 31
0.0
  0
LINE
  5
146FC
330
146C9
100
AcDbEntity
  8
部品1
100
AcDbLine
 10
1315.444927848077
 20
8172.567354794564
 30
0.0
 11
1315.444927848079
 21
6793.629354794567
 31
0.0
  0
LINE
  5
146FD
330
146C9
100
AcDbEntity
  8
部品1
100
AcDbLine
 10
2550.000007848075
 20
6379.947954794566
 30
0.0
 11
2550.000007848074
 21
8172.567354794566
 31
0.0
  0
LINE
  5
146FE
330
146C9
100
AcDbEntity
  8
部品1
100
AcDbLine
 10
2550.000007848074
 20
8172.567354794566
 30
0.0
 11
0.0000078480716184
 21
8172.567354794566
 31
0.0
  0
LINE
  5
146FF
330
146C9
100
AcDbEntity
  8
部品1
100
AcDbLine
 10
2550.000007848075
 20
6793.629354794568
 30
0.0
 11
0.0000078480734373
 21
6793.629354794569
 31
0.0
  0
TEXT
  5
14700
330
146C9
100
AcDbEntity
  8
文字
 62
     7
 48
50.0
100
AcDbText
 10
368.110898899251
 20
7094.086760630696
 30
0.0
 40
81.11400000000001
  1
屋根パネル
  7
STYLE1
100
AcDbText
  0
TEXT
  5
14701
330
146C9
100
AcDbEntity
  8
文字
 62
     7
 48
50.0
100
AcDbText
 10
368.1108988992491
 20
7921.449560630691
 30
0.0
 40
81.11400000000001
  1
プレート
  7
STYLE1
100
AcDbText
  0
TEXT
  5
14702
330
146C9
100
AcDbEntity
  8
文字
 62
     7
 48
50.0
100
AcDbText
 10
368.110898899251
 20
6818.299160630695
 30
0.0
 40
81.11400000000001
  1
雨とい(別売)
  7
STYLE1
100
AcDbText
  0
TEXT
  5
14703
330
146C9
100
AcDbEntity
  8
文字
 62
     7
 48
50.0
100
AcDbText
 10
81.54537867720501
 20
6542.511560630696
 30
0.0
 40
81.11400000000001
  1
F12→溶融亜鉛めっき鋼板(JIS G 3302)
  7
STYLE1
100
AcDbText
  0
TEXT
  5
14704
330
146C9
100
AcDbEntity
  8
文字
 62
     7
 48
50.0
100
AcDbText
 10
81.54537867719591
 20
6404.617760630694
 30
0.0
 40
81.11400000000001
  1
Y10→溶融亜鉛-5％アルミニウム合金めっき鋼板(JIS G 3317)
 41
0.9
  7
STYLE1
100
AcDbText
  0
TEXT
  5
14705
330
146C9
100
AcDbEntity
  8
文字
 62
     7
 48
50.0
100
AcDbText
 10
81.54537867736143
 20
6680.405360630695
 30
0.0
 40
81.11400000000001
  1
PZ→一般構造用角形鋼管(JIS G 3466)
 41
0.9
  7
STYLE1
100
AcDbText
  0
LINE
  5
14706
330
146C9
100
AcDbEntity
  8
部品1
100
AcDbLine
 10
2550.000007848074
 20
6931.523154794568
 30
0.0
 11
0.0000078480716184
 21
6931.523154794568
 31
0.0
  0
TEXT
  5
14707
330
146C9
100
AcDbEntity
  8
文字
 62
     7
 48
50.0
100
AcDbText
 10
368.110898899251
 20
7369.874360630693
 30
0.0
 40
81.11400000000001
  1
妻板
  7
STYLE1
100
AcDbText
  0
LINE
  5
14708
330
146C9
100
AcDbEntity
  8
部品1
100
AcDbLine
 10
2550.000007848074
 20
7207.310754794568
 30
0.0
 11
0.0000078480716184
 21
7207.310754794568
 31
0.0
  0
TEXT
  5
14709
330
146C9
100
AcDbEntity
  8
文字
 62
     7
 48
50.0
100
AcDbText
 10
1491.956824807694
 20
7231.980560630697
 30
0.0
 40
81.11400000000001
  1
Y10            1.0
  7
STYLE1
100
AcDbText
  0
TEXT
  5
1470A
330
146C9
100
AcDbEntity
  8
文字
 62
     7
 48
50.0
100
AcDbText
 10
368.110898899251
 20
7231.980560630697
 30
0.0
 40
81.11400000000001
  1
梁中屋根板
  7
STYLE1
100
AcDbText
  0
TEXT
  5
1470B
330
146C9
100
AcDbEntity
  8
文字
 62
     7
 48
50.0
100
AcDbText
 10
115.0937282786508
 20
6818.299160630694
 30
0.0
 40
81.11400000000001
  1
9
  7
STYLE1
100
AcDbText
  0
ENDBLK
  5
1470D
330
146C9
100
AcDbEntity
  8
0
 48
50.0
100
AcDbBlockEnd
  0
ENDSEC
  0
SECTION
  2
ENTITIES
  0
MTEXT
  5
763F
330
747D
100
AcDbEntity
  8
0
100
AcDbMText
 10
302.846345836809
 20
280.1983726409901
 30
0.0
 40
3.5
 41
5.323721266742722
 71
     1
 72
     5
  1

  7
MSMINCHO
 73
     1
 44
1.0
1001
ACAD
1000
MTEXTBEGIN
1070
    73
1070
     1
1070
    44
1040
1.0
1070
    74
1070
     0
1000
MTEXTEND
  0
INSERT
  5
F235
330
747D
100
AcDbEntity
  8
0
100
AcDbBlockReference
  2
作図枠S50
 10
0.0
 20
0.0
 30
0.0
 41
0.6000000000000001
 42
0.6000000000000001
 43
0.6000000000000001
  0
LINE
  5
10B56
330
747D
100
AcDbEntity
  8
補助
  6
PHANTOM
 62
   230
 48
50.0
100
AcDbLine
 10
105.0
 20
0.0
 30
0.0
 11
104.9999999999996
 21
8557.199999999999
 31
0.0
  0
LINE
  5
10B57
330
747D
100
AcDbEntity
  8
補助
  6
PHANTOM
 62
   230
 48
50.0
100
AcDbLine
 10
104.9999999999996
 20
8557.199999999999
 30
0.0
 11
12230.4
 21
8557.199999999999
 31
0.0
  0
LINE
  5
10B5E
330
747D
100
AcDbEntity
  8
補助
  6
PHANTOM
 62
   230
 48
50.0
100
AcDbLine
 10
12230.4
 20
8557.199999999999
 30
0.0
 11
12230.4
 21
900.0
 31
0.0
  0
LINE
  5
10B6D
330
747D
100
AcDbEntity
  8
補助
  6
PHANTOM
 62
   230
 48
50.0
100
AcDbLine
 10
9830.400000000002
 20
8557.199999999999
 30
0.0
 11
9830.400000000002
 21
3600.0
 31
0.0
  0
DIMENSION
  5
12F4F
330
747D
100
AcDbEntity
  8
寸法
 48
50.0
100
AcDbDimension
  2
*D4
 10
7272.426034866594
 20
4910.957606075115
 30
0.0
 11
4192.426034866592
 21
4985.957606075115
 31
0.0
 70
    32
 71
     5
 42
-1.0
  3
INABA_S30G
100
AcDbAlignedDimension
 13
1112.42603486659
 23
4066.450581124186
 33
0.0
 14
7272.426034866594
 24
4066.450581124185
 34
0.0
100
AcDbRotatedDimension
  0
DIMENSION
  5
12F50
330
747D
100
AcDbEntity
  8
寸法
 48
50.0
100
AcDbDimension
  2
*D5
 10
7022.426034866594
 20
4601.702425425583
 30
0.0
 11
4192.426034866592
 21
4676.702425425583
 31
0.0
 70
    32
 71
     5
 42
-1.0
  3
INABA_S30G
100
AcDbAlignedDimension
 13
1362.42603486659
 23
3970.897875741638
 33
0.0
 14
7022.426034866594
 24
3970.897875741638
 34
0.0
100
AcDbRotatedDimension
  0
LINE
  5
12F56
330
747D
100
AcDbEntity
  8
部品1
 48
50.0
100
AcDbLine
 10
7272.426034866594
 20
1880.562576328022
 30
0.0
 11
1402.42603486659
 21
1880.562576328023
 31
0.0
  0
LINE
  5
12F57
330
747D
100
AcDbEntity
  8
Ｇ．Ｌ
 48
50.0
100
AcDbLine
 10
432.8460599607059
 20
1830.562576328022
 30
0.0
 11
11907.30132236497
 21
1830.562576328022
 31
0.0
  0
LINE
  5
12F58
330
747D
100
AcDbEntity
  8
細線
 48
50.0
100
AcDbLine
 10
7222.207418765191
 20
4002.407532190146
 30
0.0
 11
1162.644650967993
 21
4002.407532190148
 31
0.0
  0
LINE
  5
12F59
330
747D
100
AcDbEntity
  8
細線
 48
50.0
100
AcDbLine
 10
7218.845812205175
 20
4014.027143629733
 30
0.0
 11
1166.006257528011
 21
4014.027143629737
 31
0.0
  0
LINE
  5
12F5A
330
747D
100
AcDbEntity
  8
細線
 48
50.0
100
AcDbLine
 10
7224.052306566069
 20
4038.276767503652
 30
0.0
 11
1160.799763167122
 21
4038.276767503653
 31
0.0
  0
LINE
  5
12F5B
330
747D
100
AcDbEntity
  8
細線
 48
50.0
100
AcDbLine
 10
7230.049800975155
 20
4049.896378943234
 30
0.0
 11
1154.802268758029
 21
4049.896378943238
 31
0.0
  0
LINE
  5
12F5C
330
747D
100
AcDbEntity
  8
部品1
 48
50.0
100
AcDbLine
 10
7232.426034866595
 20
3977.046555566361
 30
0.0
 11
1152.42603486659
 21
3977.046555566363
 31
0.0
  0
LINE
  5
12F5D
330
747D
100
AcDbEntity
  8
部品1
 48
50.0
100
AcDbLine
 10
7257.426034866594
 20
4081.450581124187
 30
0.0
 11
1127.42603486659
 21
4081.450581124189
 31
0.0
  0
LINE
  5
12F6B
330
747D
100
AcDbEntity
  8
部品1
 48
50.0
100
AcDbLine
 10
6990.426034866594
 20
3909.96901214066
 30
0.0
 11
4224.426034866594
 21
3909.96901214066
 31
0.0
  0
LINE
  5
12F6C
330
747D
100
AcDbEntity
  8
部品1
 48
50.0
100
AcDbLine
 10
6990.737050907317
 20
3969.969012140659
 30
0.0
 11
4224.11501882587
 21
3969.969012140659
 31
0.0
  0
LINE
  5
12F6D
330
747D
100
AcDbEntity
  8
部品1
 48
50.0
100
AcDbLine
 10
6990.426034866594
 20
3939.307144620489
 30
0.0
 11
4224.426034866594
 21
3939.307144620489
 31
0.0
  0
LINE
  5
12F6E
330
747D
100
AcDbEntity
  8
部品1
 48
50.0
100
AcDbLine
 10
6990.426034866594
 20
3900.228017808706
 30
0.0
 11
4224.426034866594
 21
3900.228017808711
 31
0.0
  0
LINE
  5
12F70
330
747D
100
AcDbEntity
  8
部品1
 48
50.0
100
AcDbLine
 10
1175.42603486659
 20
3977.046555566363
 30
0.0
 11
1175.42603486659
 21
3900.228017808711
 31
0.0
  0
LINE
  5
12F71
330
747D
100
AcDbEntity
  8
部品1
 48
50.0
100
AcDbLine
 10
1330.42603486659
 20
3968.897875741639
 30
0.0
 11
1330.42603486659
 21
3909.348694766935
 31
0.0
  0
LINE
  5
12F72
330
747D
100
AcDbEntity
  8
部品1
 48
50.0
100
AcDbLine
 10
1394.42603486659
 20
3968.897875741639
 30
0.0
 11
1394.42603486659
 21
3909.348694766935
 31
0.0
  0
LINE
  5
12F73
330
747D
100
AcDbEntity
  8
部品1
 48
50.0
100
AcDbLine
 10
1113.001572469444
 20
3985.516841724655
 30
0.0
 11
1133.193418337067
 21
3914.741082286204
 31
0.0
  0
TEXT
  5
12F75
330
747D
100
AcDbEntity
  8
部品1
 48
50.0
100
AcDbText
 10
438.7050358507203
 20
1869.953876758351
 30
0.0
 40
100.0
  1
▽G.L
  7
STYLE2
100
AcDbText
  0
LINE
  5
12F77
330
747D
100
AcDbEntity
  8
部品1
 48
50.0
100
AcDbLine
 10
1402.42603486659
 20
3548.431828606206
 30
0.0
 11
1402.42603486659
 21
1880.562576328023
 31
0.0
  0
LINE
  5
12F78
330
747D
100
AcDbEntity
  8
部品1
 48
50.0
100
AcDbLine
 10
1322.426034866594
 20
3548.431828606206
 30
0.0
 11
1322.42603486659
 21
1880.562576328023
 31
0.0
  0
LINE
  5
12F79
330
747D
100
AcDbEntity
  8
部品1
 48
50.0
100
AcDbLine
 10
1322.42603486659
 20
1880.562576328023
 30
0.0
 11
1112.42603486659
 21
1880.562576328023
 31
0.0
  0
LINE
  5
12F7C
330
747D
100
AcDbEntity
  8
部品1
 48
50.0
100
AcDbLine
 10
1112.42603486659
 20
1880.562576328023
 30
0.0
 11
1112.42603486659
 21
1830.562576328023
 31
0.0
  0
LINE
  5
12F80
330
747D
100
AcDbEntity
  8
部品1
 48
50.0
100
AcDbLine
 10
1402.42603486659
 20
1880.562576328023
 30
0.0
 11
1322.42603486659
 21
1880.562576328023
 31
0.0
  0
LINE
  5
12F82
330
747D
100
AcDbEntity
  8
点線
 48
18.0
100
AcDbLine
 10
1402.42603486659
 20
1880.562576328023
 30
0.0
 11
1402.42603486659
 21
1830.562576328023
 31
0.0
  0
LINE
  5
12F83
330
747D
100
AcDbEntity
  8
点線
 48
18.0
100
AcDbLine
 10
1322.42603486659
 20
1880.562576328023
 30
0.0
 11
1322.42603486659
 21
1830.562576328023
 31
0.0
  0
LINE
  5
12F86
330
747D
100
AcDbEntity
  8
部品1
 48
50.0
100
AcDbLine
 10
1330.42603486659
 20
3909.969012140662
 30
0.0
 11
1175.42603486659
 21
3909.969012140662
 31
0.0
  0
LINE
  5
12F87
330
747D
100
AcDbEntity
  8
部品1
 48
50.0
100
AcDbLine
 10
1330.42603486659
 20
3900.228017808711
 30
0.0
 11
1152.42603486659
 21
3900.228017808711
 31
0.0
  0
ARC
  5
12F88
330
747D
100
AcDbEntity
  8
部品1
 48
50.0
100
AcDbCircle
 10
1152.42603486659
 20
3920.228017808711
 30
0.0
 40
20.0
100
AcDbArc
 50
195.9230900765477
 51
270.0
  0
ARC
  5
12F89
330
747D
100
AcDbEntity
  8
部品1
 48
50.0
100
AcDbCircle
 10
1332.42603486659
 20
3909.348694766935
 30
0.0
 40
2.0
100
AcDbArc
 50
180.0000000000017
 51
270.0
  0
ARC
  5
12F8A
330
747D
100
AcDbEntity
  8
部品1
 48
50.0
100
AcDbCircle
 10
1392.42603486659
 20
3909.348694766935
 30
0.0
 40
2.0
100
AcDbArc
 50
270.0
 51
0.000000000000007
  0
LINE
  5
12F8B
330
747D
100
AcDbEntity
  8
部品1
 48
50.0
100
AcDbLine
 10
1332.42603486659
 20
3907.348694766935
 30
0.0
 11
1392.42603486659
 21
3907.348694766935
 31
0.0
  0
LINE
  5
12F8C
330
747D
100
AcDbEntity
  8
細線
 48
50.0
100
AcDbLine
 10
1330.42603486659
 20
3932.89787574164
 30
0.0
 11
1394.42603486659
 21
3932.897875741639
 31
0.0
  0
LINE
  5
12F8D
330
747D
100
AcDbEntity
  8
細線
 48
50.0
100
AcDbLine
 10
1330.42603486659
 20
3922.897875741641
 30
0.0
 11
1394.42603486659
 21
3922.897875741639
 31
0.0
  0
LINE
  5
12F8E
330
747D
100
AcDbEntity
  8
部品1
 48
50.0
100
AcDbLine
 10
1317.42603486659
 20
3698.431828606209
 30
0.0
 11
1342.426034866594
 21
3698.431828606209
 31
0.0
  0
LINE
  5
12F8F
330
747D
100
AcDbEntity
  8
部品1
 48
50.0
100
AcDbLine
 10
1332.42603486659
 20
3844.81816445448
 30
0.0
 11
1342.42603486659
 21
3844.81816445448
 31
0.0
  0
ARC
  5
12F90
330
747D
100
AcDbEntity
  8
部品1
 48
50.0
100
AcDbCircle
 10
1332.42603486659
 20
3846.81816445448
 30
0.0
 40
2.0
100
AcDbArc
 50
180.0
 51
270.0
  0
LINE
  5
12F91
330
747D
100
AcDbEntity
  8
部品1
 48
50.0
100
AcDbLine
 10
1317.426034866594
 20
3548.431828606208
 30
0.0
 11
1317.426034866594
 21
3698.431828606209
 31
0.0
  0
ARC
  5
12F92
330
747D
100
AcDbEntity
  8
部品1
 48
50.0
100
AcDbCircle
 10
1392.42603486659
 20
3846.81816445448
 30
0.0
 40
2.0
100
AcDbArc
 50
270.0
 51
0.000000000000007
  0
LINE
  5
12F93
330
747D
100
AcDbEntity
  8
部品1
 48
50.0
100
AcDbLine
 10
1407.42603486659
 20
3548.431828606208
 30
0.0
 11
1407.42603486659
 21
3698.431828606209
 31
0.0
  0
LINE
  5
12F94
330
747D
100
AcDbEntity
  8
部品1
 48
50.0
100
AcDbLine
 10
1317.42603486659
 20
3548.431828606208
 30
0.0
 11
1407.42603486659
 21
3548.431828606206
 31
0.0
  0
LINE
  5
12F95
330
747D
100
AcDbEntity
  8
部品1
 48
50.0
100
AcDbLine
 10
1382.426034866594
 20
3698.431828606209
 30
0.0
 11
1407.42603486659
 21
3698.431828606209
 31
0.0
  0
LINE
  5
12F96
330
747D
100
AcDbEntity
  8
部品1
 48
50.0
100
AcDbLine
 10
1382.42603486659
 20
3844.81816445448
 30
0.0
 11
1392.42603486659
 21
3844.81816445448
 31
0.0
  0
LINE
  5
12F97
330
747D
100
AcDbEntity
  8
部品1
 48
50.0
100
AcDbLine
 10
1342.42603486659
 20
3907.348694766937
 30
0.0
 11
1342.42603486659
 21
3548.431828606208
 31
0.0
  0
LINE
  5
12F98
330
747D
100
AcDbEntity
  8
部品1
 48
50.0
100
AcDbLine
 10
1382.42603486659
 20
3907.348694766937
 30
0.0
 11
1382.42603486659
 21
3548.431828606208
 31
0.0
  0
LINE
  5
12F99
330
747D
100
AcDbEntity
  8
部品1
 48
50.0
100
AcDbLine
 10
1362.42603486659
 20
3907.348694766937
 30
0.0
 11
1362.42603486659
 21
3548.431828606208
 31
0.0
  0
LINE
  5
12F9A
330
747D
100
AcDbEntity
  8
部品1
 48
50.0
100
AcDbLine
 10
1394.42603486659
 20
3909.348694766935
 30
0.0
 11
1394.42603486659
 21
3846.81816445448
 31
0.0
  0
LINE
  5
12F9B
330
747D
100
AcDbEntity
  8
部品1
 48
50.0
100
AcDbLine
 10
1330.42603486659
 20
3909.348694766935
 30
0.0
 11
1330.42603486659
 21
3846.81816445448
 31
0.0
  0
DIMENSION
  5
12FB4
330
747D
100
AcDbEntity
  8
寸法
 48
50.0
100
AcDbDimension
  2
*D6
 10
1362.42603486659
 20
4601.702425425583
 30
0.0
 11
925.2478852602907
 21
4601.702425425583
 31
0.0
 12
-1299.436150747706
 22
-1260.916917799578
 32
0.0
 70
   160
 71
     5
 42
-1.0
  3
INABA_S30G
100
AcDbAlignedDimension
 13
1112.42603486659
 23
4066.450581124186
 33
0.0
 14
1362.42603486659
 24
3970.897875741638
 34
0.0
100
AcDbRotatedDimension
  0
LINE
  5
12FB5
330
747D
100
AcDbEntity
  8
部品1
 48
50.0
100
AcDbLine
 10
1330.42603486659
 20
3969.969012140659
 30
0.0
 11
1175.42603486659
 21
3969.969012140659
 31
0.0
  0
LINE
  5
12FB6
330
747D
100
AcDbEntity
  8
部品1
 48
50.0
100
AcDbLine
 10
1330.42603486659
 20
3939.30714462049
 30
0.0
 11
1175.42603486659
 21
3939.30714462049
 31
0.0
  0
LINE
  5
12FB7
330
747D
100
AcDbEntity
  8
部品1
 48
50.0
100
AcDbLine
 10
1112.42603486659
 20
4066.450581124186
 30
0.0
 11
1112.42603486659
 21
3989.632043366533
 31
0.0
  0
ARC
  5
12FB8
330
747D
100
AcDbEntity
  8
部品1
 48
50.0
100
AcDbCircle
 10
1127.42603486659
 20
3989.632043366533
 30
0.0
 40
15.0
100
AcDbArc
 50
180.0
 51
195.9230900765452
  0
ARC
  5
12FB9
330
747D
100
AcDbEntity
  8
細線
 48
50.0
100
AcDbCircle
 10
1166.006257528011
 20
4017.027143629735
 30
0.0
 40
3.0
100
AcDbArc
 50
195.9230900765464
 51
270.0
  0
ARC
  5
12FBA
330
747D
100
AcDbEntity
  8
細線
 48
50.0
100
AcDbCircle
 10
1160.799763167122
 20
4035.276767503654
 30
0.0
 40
3.0
100
AcDbArc
 50
90.0
 51
195.9230900765469
  0
ARC
  5
12FBB
330
747D
100
AcDbEntity
  8
細線
 48
50.0
100
AcDbCircle
 10
1162.644650967993
 20
4012.407532190148
 30
0.0
 40
10.0
100
AcDbArc
 50
195.9230900765468
 51
270.0
  0
ARC
  5
12FBC
330
747D
100
AcDbEntity
  8
細線
 48
50.0
100
AcDbCircle
 10
1154.802268758029
 20
4039.896378943238
 30
0.0
 40
10.0
100
AcDbArc
 50
90.0
 51
195.9230900765469
  0
LINE
  5
12FBD
330
747D
100
AcDbEntity
  8
細線
 48
50.0
100
AcDbLine
 10
1157.914870687693
 20
4034.453727175279
 30
0.0
 11
1163.121365048582
 21
4016.204103301361
 31
0.0
  0
LINE
  5
12FBE
330
747D
100
AcDbEntity
  8
細線
 48
50.0
100
AcDbLine
 10
1145.185960493267
 20
4037.152911181985
 30
0.0
 11
1153.028342703231
 21
4009.664064428895
 31
0.0
  0
ARC
  5
12FBF
330
747D
100
AcDbEntity
  8
部品1
 48
50.0
100
AcDbCircle
 10
1152.42603486659
 20
3997.046555566363
 30
0.0
 40
20.0
100
AcDbArc
 50
195.9230900765477
 51
270.0
  0
LINE
  5
12FC0
330
747D
100
AcDbEntity
  8
部品1
 48
50.0
100
AcDbLine
 10
1113.001572469444
 20
4062.335379482306
 30
0.0
 11
1133.193418337067
 21
3991.559620043857
 31
0.0
  0
ARC
  5
12FC1
330
747D
100
AcDbEntity
  8
部品1
 48
50.0
100
AcDbCircle
 10
1127.42603486659
 20
4066.450581124186
 30
0.0
 40
15.0
100
AcDbArc
 50
90.0
 51
195.9230900765452
  0
LINE
  5
12FC2
330
747D
100
AcDbEntity
  8
部品1
 48
50.0
100
AcDbLine
 10
1175.42603486659
 20
4081.450581124189
 30
0.0
 11
1175.42603486659
 21
3977.046555566363
 31
0.0
  0
ARC
  5
12FC3
330
747D
100
AcDbEntity
  8
部品1
 48
50.0
100
AcDbCircle
 10
1332.42603486659
 20
3968.897875741639
 30
0.0
 40
2.0
100
AcDbArc
 50
90.0
 51
180.0
  0
ARC
  5
12FC4
330
747D
100
AcDbEntity
  8
部品1
 48
50.0
100
AcDbCircle
 10
1392.42603486659
 20
3968.897875741639
 30
0.0
 40
2.0
100
AcDbArc
 50
0.000000000000007
 51
90.0
  0
LINE
  5
12FC5
330
747D
100
AcDbEntity
  8
部品1
 48
50.0
100
AcDbLine
 10
1332.42603486659
 20
3970.897875741638
 30
0.0
 11
1392.42603486659
 21
3970.897875741638
 31
0.0
  0
LINE
  5
12FC6
330
747D
100
AcDbEntity
  8
細線
 48
50.0
100
AcDbLine
 10
1330.42603486659
 20
3954.897875741639
 30
0.0
 11
1394.42603486659
 21
3954.897875741639
 31
0.0
  0
LINE
  5
12FC7
330
747D
100
AcDbEntity
  8
細線
 48
50.0
100
AcDbLine
 10
1330.42603486659
 20
3944.897875741641
 30
0.0
 11
1394.42603486659
 21
3944.897875741638
 31
0.0
  0
LWPOLYLINE
  5
12FC8
330
747D
100
AcDbEntity
  8
部品1
100
AcDbPolyline
 90
        4
 70
     1
 43
0.0
 10
3895.960832715332
 20
1149.796007513017
 10
4542.992207995857
 20
1149.796007513017
 10
4542.992207995857
 20
957.2758516958765
 10
3895.960832715332
 20
957.2758516958765
  0
TEXT
  5
12FC9
330
747D
100
AcDbEntity
  8
仕様書枠
 62
     7
 48
50.0
100
AcDbText
 10
3927.375909476861
 20
995.9312831628357
 30
0.0
 40
112.0
  1
正 面 図
  7
STYLE2
100
AcDbText
  0
DIMENSION
  5
131EF
330
747D
100
AcDbEntity
  8
寸法
 48
50.0
100
AcDbDimension
  2
*D7
 10
4192.426034866593
 20
1378.658501641213
 30
0.0
 11
2777.426034866592
 21
1378.658501641213
 31
0.0
 70
   160
 71
     5
 42
-1.0
  3
INABA_S30G
100
AcDbAlignedDimension
 13
1362.42603486659
 23
1710.562576328024
 33
0.0
 14
4192.426034866593
 24
1710.562576328022
 34
0.0
100
AcDbRotatedDimension
  0
LINE
  5
13246
330
747D
100
AcDbEntity
  8
部品1
 48
50.0
100
AcDbLine
 10
4160.426034866594
 20
3968.897875741637
 30
0.0
 11
4160.426034866594
 21
3909.348694766933
 31
0.0
  0
LINE
  5
13247
330
747D
100
AcDbEntity
  8
部品1
 48
50.0
100
AcDbLine
 10
4224.426034866594
 20
3968.897875741637
 30
0.0
 11
4224.426034866594
 21
3909.348694766933
 31
0.0
  0
LINE
  5
13248
330
747D
100
AcDbEntity
  8
部品1
 48
50.0
100
AcDbLine
 10
7209.426034866594
 20
3977.046555566361
 30
0.0
 11
7209.426034866594
 21
3900.22801780871
 31
0.0
  0
LINE
  5
13249
330
747D
100
AcDbEntity
  8
部品1
 48
50.0
100
AcDbLine
 10
7271.85049726374
 20
3985.516841724653
 30
0.0
 11
7251.658651396121
 21
3914.741082286202
 31
0.0
  0
LINE
  5
1324A
330
747D
100
AcDbEntity
  8
部品1
 48
50.0
100
AcDbLine
 10
7054.426034866594
 20
3968.897875741637
 30
0.0
 11
7054.426034866594
 21
3909.348694766933
 31
0.0
  0
LINE
  5
1324B
330
747D
100
AcDbEntity
  8
部品1
 48
50.0
100
AcDbLine
 10
6990.426034866594
 20
3968.897875741637
 30
0.0
 11
6990.426034866594
 21
3909.348694766933
 31
0.0
  0
DIMENSION
  5
1324C
330
747D
100
AcDbEntity
  8
寸法
 48
50.0
100
AcDbDimension
  2
*D8
 10
7022.426034866594
 20
1378.658501641213
 30
0.0
 11
5607.426034866594
 21
1453.66735990893
 31
0.0
 70
    32
 71
     5
 42
-1.0
  3
INABA_S30G
100
AcDbAlignedDimension
 13
4192.426034866593
 23
1710.562576328022
 33
0.0
 14
7022.426034866594
 24
1710.562576328022
 34
0.0
100
AcDbRotatedDimension
  0
LINE
  5
13250
330
747D
100
AcDbEntity
  8
部品1
 48
50.0
100
AcDbLine
 10
4232.426034866594
 20
3548.431828606204
 30
0.0
 11
4232.426034866594
 21
1880.562576328022
 31
0.0
  0
LINE
  5
13251
330
747D
100
AcDbEntity
  8
部品1
 48
50.0
100
AcDbLine
 10
4152.426034866594
 20
3548.431828606204
 30
0.0
 11
4152.426034866594
 21
1880.562576328022
 31
0.0
  0
LINE
  5
1325A
330
747D
100
AcDbEntity
  8
点線
 48
18.0
100
AcDbLine
 10
4152.426034866594
 20
1880.562576328022
 30
0.0
 11
4152.426034866594
 21
1830.562576328022
 31
0.0
  0
LINE
  5
1325E
330
747D
100
AcDbEntity
  8
点線
 48
18.0
100
AcDbLine
 10
4232.426034866594
 20
1880.562576328022
 30
0.0
 11
4232.426034866594
 21
1830.562576328022
 31
0.0
  0
LINE
  5
1326E
330
747D
100
AcDbEntity
  8
部品1
 48
50.0
100
AcDbLine
 10
4237.426034866594
 20
3698.431828606209
 30
0.0
 11
4212.426034866594
 21
3698.431828606209
 31
0.0
  0
ARC
  5
1326F
330
747D
100
AcDbEntity
  8
部品1
 48
50.0
100
AcDbCircle
 10
4222.426034866594
 20
3909.348694766933
 30
0.0
 40
2.0
100
AcDbArc
 50
270.0
 51
359.9999999999983
  0
ARC
  5
13270
330
747D
100
AcDbEntity
  8
部品1
 48
50.0
100
AcDbCircle
 10
4222.426034866594
 20
3846.818164454479
 30
0.0
 40
2.0
100
AcDbArc
 50
270.0
 51
0.0
  0
LINE
  5
13271
330
747D
100
AcDbEntity
  8
部品1
 48
50.0
100
AcDbLine
 10
4237.426034866594
 20
3548.431828606207
 30
0.0
 11
4147.426034866594
 21
3548.431828606204
 31
0.0
  0
LINE
  5
13272
330
747D
100
AcDbEntity
  8
細線
 48
50.0
100
AcDbLine
 10
4224.426034866594
 20
3922.897875741639
 30
0.0
 11
4160.426034866594
 21
3922.897875741637
 31
0.0
  0
LINE
  5
13273
330
747D
100
AcDbEntity
  8
細線
 48
50.0
100
AcDbLine
 10
4224.426034866594
 20
3932.897875741639
 30
0.0
 11
4160.426034866594
 21
3932.897875741637
 31
0.0
  0
LINE
  5
13274
330
747D
100
AcDbEntity
  8
部品1
 48
50.0
100
AcDbLine
 10
4172.426034866594
 20
3698.431828606209
 30
0.0
 11
4147.426034866594
 21
3698.431828606209
 31
0.0
  0
LINE
  5
13275
330
747D
100
AcDbEntity
  8
部品1
 48
50.0
100
AcDbLine
 10
4222.426034866594
 20
3907.348694766934
 30
0.0
 11
4162.426034866594
 21
3907.348694766934
 31
0.0
  0
ARC
  5
13276
330
747D
100
AcDbEntity
  8
部品1
 48
50.0
100
AcDbCircle
 10
4162.426034866594
 20
3909.348694766933
 30
0.0
 40
2.0
100
AcDbArc
 50
180.0
 51
270.0
  0
LINE
  5
13277
330
747D
100
AcDbEntity
  8
部品1
 48
50.0
100
AcDbLine
 10
4160.426034866594
 20
3909.348694766933
 30
0.0
 11
4160.426034866594
 21
3846.818164454479
 31
0.0
  0
LINE
  5
13278
330
747D
100
AcDbEntity
  8
部品1
 48
50.0
100
AcDbLine
 10
4172.426034866594
 20
3844.818164454478
 30
0.0
 11
4162.426034866594
 21
3844.818164454478
 31
0.0
  0
ARC
  5
13279
330
747D
100
AcDbEntity
  8
部品1
 48
50.0
100
AcDbCircle
 10
4162.426034866594
 20
3846.818164454479
 30
0.0
 40
2.0
100
AcDbArc
 50
180.0
 51
270.0
  0
LINE
  5
1327A
330
747D
100
AcDbEntity
  8
部品1
 48
50.0
100
AcDbLine
 10
4224.426034866594
 20
3909.348694766933
 30
0.0
 11
4224.426034866594
 21
3846.818164454479
 31
0.0
  0
LINE
  5
1327B
330
747D
100
AcDbEntity
  8
部品1
 48
50.0
100
AcDbLine
 10
4222.426034866594
 20
3844.818164454478
 30
0.0
 11
4212.426034866594
 21
3844.818164454478
 31
0.0
  0
LINE
  5
1327C
330
747D
100
AcDbEntity
  8
部品1
 48
50.0
100
AcDbLine
 10
4192.426034866594
 20
3907.348694766935
 30
0.0
 11
4192.426034866594
 21
3548.431828606207
 31
0.0
  0
LINE
  5
1327D
330
747D
100
AcDbEntity
  8
部品1
 48
50.0
100
AcDbLine
 10
4172.426034866594
 20
3907.348694766935
 30
0.0
 11
4172.426034866594
 21
3548.431828606207
 31
0.0
  0
LINE
  5
1327E
330
747D
100
AcDbEntity
  8
部品1
 48
50.0
100
AcDbLine
 10
4212.426034866594
 20
3907.348694766935
 30
0.0
 11
4212.426034866594
 21
3548.431828606207
 31
0.0
  0
LINE
  5
1327F
330
747D
100
AcDbEntity
  8
部品1
 48
50.0
100
AcDbLine
 10
4147.426034866594
 20
3548.431828606207
 30
0.0
 11
4147.426034866594
 21
3698.431828606209
 31
0.0
  0
LINE
  5
13280
330
747D
100
AcDbEntity
  8
部品1
 48
50.0
100
AcDbLine
 10
4237.426034866594
 20
3548.431828606207
 30
0.0
 11
4237.426034866594
 21
3698.431828606209
 31
0.0
  0
LINE
  5
13282
330
747D
100
AcDbEntity
  8
部品1
 48
50.0
100
AcDbLine
 10
7062.426034866594
 20
3548.431828606204
 30
0.0
 11
7062.426034866594
 21
1880.562576328022
 31
0.0
  0
LINE
  5
13283
330
747D
100
AcDbEntity
  8
部品1
 48
50.0
100
AcDbLine
 10
6982.426034866595
 20
3548.431828606204
 30
0.0
 11
6982.426034866595
 21
1880.562576328022
 31
0.0
  0
LINE
  5
13284
330
747D
100
AcDbEntity
  8
細線
 48
50.0
100
AcDbLine
 10
5480.174838623318
 20
1830.562576328022
 30
0.0
 11
5530.174838623318
 21
1880.562576328022
 31
0.0
  0
LINE
  5
13285
330
747D
100
AcDbEntity
  8
細線
 48
50.0
100
AcDbLine
 10
5453.23405862332
 20
1830.562576328022
 30
0.0
 11
5503.23405862332
 21
1880.562576328022
 31
0.0
  0
LINE
  5
13286
330
747D
100
AcDbEntity
  8
細線
 48
50.0
100
AcDbLine
 10
5507.115618623318
 20
1830.562576328022
 30
0.0
 11
5557.115618623318
 21
1880.562576328022
 31
0.0
  0
LINE
  5
13292
330
747D
100
AcDbEntity
  8
点線
 48
18.0
100
AcDbLine
 10
7062.426034866594
 20
1880.562576328022
 30
0.0
 11
7062.426034866594
 21
1830.562576328022
 31
0.0
  0
LINE
  5
13293
330
747D
100
AcDbEntity
  8
点線
 48
18.0
100
AcDbLine
 10
6982.426034866595
 20
1880.562576328022
 30
0.0
 11
6982.426034866595
 21
1830.562576328022
 31
0.0
  0
LINE
  5
13297
330
747D
100
AcDbEntity
  8
部品1
 48
50.0
100
AcDbLine
 10
7272.426034866594
 20
1880.562576328022
 30
0.0
 11
7272.426034866594
 21
1830.562576328022
 31
0.0
  0
LINE
  5
13298
330
747D
100
AcDbEntity
  8
部品1
 48
50.0
100
AcDbLine
 10
7209.426034866594
 20
3909.96901214066
 30
0.0
 11
7054.426034866594
 21
3909.969012140658
 31
0.0
  0
LINE
  5
13299
330
747D
100
AcDbEntity
  8
部品1
 48
50.0
100
AcDbLine
 10
7232.426034866595
 20
3900.22801780871
 30
0.0
 11
7054.426034866594
 21
3900.228017808708
 31
0.0
  0
ARC
  5
1329A
330
747D
100
AcDbEntity
  8
部品1
 48
50.0
100
AcDbCircle
 10
7052.426034866595
 20
3846.818164454479
 30
0.0
 40
2.0
100
AcDbArc
 50
270.0
 51
0.0
  0
ARC
  5
1329B
330
747D
100
AcDbEntity
  8
部品1
 48
50.0
100
AcDbCircle
 10
6992.426034866594
 20
3846.818164454479
 30
0.0
 40
2.0
100
AcDbArc
 50
180.0
 51
270.0
  0
LINE
  5
1329C
330
747D
100
AcDbEntity
  8
部品1
 48
50.0
100
AcDbLine
 10
7002.426034866594
 20
3844.818164454478
 30
0.0
 11
6992.426034866594
 21
3844.818164454478
 31
0.0
  0
LINE
  5
1329D
330
747D
100
AcDbEntity
  8
部品1
 48
50.0
100
AcDbLine
 10
7054.426034866594
 20
3909.348694766933
 30
0.0
 11
7054.426034866594
 21
3846.818164454479
 31
0.0
  0
LINE
  5
1329E
330
747D
100
AcDbEntity
  8
部品1
 48
50.0
100
AcDbLine
 10
6990.426034866594
 20
3909.348694766933
 30
0.0
 11
6990.426034866594
 21
3846.818164454479
 31
0.0
  0
LINE
  5
1329F
330
747D
100
AcDbEntity
  8
部品1
 48
50.0
100
AcDbLine
 10
7052.426034866595
 20
3844.818164454478
 30
0.0
 11
7042.426034866593
 21
3844.818164454478
 31
0.0
  0
LINE
  5
132A0
330
747D
100
AcDbEntity
  8
細線
 48
50.0
100
AcDbLine
 10
7054.426034866594
 20
3922.897875741639
 30
0.0
 11
6990.426034866594
 21
3922.897875741637
 31
0.0
  0
LINE
  5
132A1
330
747D
100
AcDbEntity
  8
細線
 48
50.0
100
AcDbLine
 10
7054.426034866594
 20
3932.897875741639
 30
0.0
 11
6990.426034866594
 21
3932.897875741637
 31
0.0
  0
ARC
  5
132A2
330
747D
100
AcDbEntity
  8
部品1
 48
50.0
100
AcDbCircle
 10
6992.426034866594
 20
3909.348694766933
 30
0.0
 40
2.0
100
AcDbArc
 50
180.0
 51
270.0
  0
ARC
  5
132A3
330
747D
100
AcDbEntity
  8
部品1
 48
50.0
100
AcDbCircle
 10
7052.426034866595
 20
3909.348694766933
 30
0.0
 40
2.0
100
AcDbArc
 50
270.0
 51
359.9999999999983
  0
LINE
  5
132A4
330
747D
100
AcDbEntity
  8
部品1
 48
50.0
100
AcDbLine
 10
7052.426034866595
 20
3907.348694766934
 30
0.0
 11
6992.426034866594
 21
3907.348694766934
 31
0.0
  0
LINE
  5
132A5
330
747D
100
AcDbEntity
  8
部品1
 48
50.0
100
AcDbLine
 10
7002.426034866594
 20
3698.431828606209
 30
0.0
 11
6977.426034866595
 21
3698.431828606209
 31
0.0
  0
LINE
  5
132A6
330
747D
100
AcDbEntity
  8
部品1
 48
50.0
100
AcDbLine
 10
7042.426034866593
 20
3907.348694766935
 30
0.0
 11
7042.426034866593
 21
3548.431828606207
 31
0.0
  0
LINE
  5
132A7
330
747D
100
AcDbEntity
  8
部品1
 48
50.0
100
AcDbLine
 10
7002.426034866594
 20
3907.348694766935
 30
0.0
 11
7002.426034866594
 21
3548.431828606207
 31
0.0
  0
LINE
  5
132A8
330
747D
100
AcDbEntity
  8
部品1
 48
50.0
100
AcDbLine
 10
7067.426034866594
 20
3548.431828606207
 30
0.0
 11
7067.426034866594
 21
3698.431828606209
 31
0.0
  0
LINE
  5
132A9
330
747D
100
AcDbEntity
  8
部品1
 48
50.0
100
AcDbLine
 10
6977.426034866595
 20
3548.431828606207
 30
0.0
 11
6977.426034866595
 21
3698.431828606209
 31
0.0
  0
LINE
  5
132AA
330
747D
100
AcDbEntity
  8
部品1
 48
50.0
100
AcDbLine
 10
7022.426034866594
 20
3907.348694766935
 30
0.0
 11
7022.426034866594
 21
3548.431828606207
 31
0.0
  0
LINE
  5
132AB
330
747D
100
AcDbEntity
  8
部品1
 48
50.0
100
AcDbLine
 10
7067.426034866594
 20
3548.431828606207
 30
0.0
 11
6977.426034866595
 21
3548.431828606204
 31
0.0
  0
LINE
  5
132AC
330
747D
100
AcDbEntity
  8
部品1
 48
50.0
100
AcDbLine
 10
7067.426034866594
 20
3698.431828606209
 30
0.0
 11
7042.426034866593
 21
3698.431828606209
 31
0.0
  0
ARC
  5
132AD
330
747D
100
AcDbEntity
  8
部品1
 48
50.0
100
AcDbCircle
 10
7232.426034866595
 20
3920.228017808709
 30
0.0
 40
20.0
100
AcDbArc
 50
270.0
 51
344.0769099234519
  0
ARC
  5
132B0
330
747D
100
AcDbEntity
  8
部品1
 48
50.0
100
AcDbCircle
 10
4222.426034866594
 20
3968.897875741637
 30
0.0
 40
2.0
100
AcDbArc
 50
0.0
 51
90.0
  0
LINE
  5
132B1
330
747D
100
AcDbEntity
  8
細線
 48
50.0
100
AcDbLine
 10
4182.426034866593
 20
3977.046555566361
 30
0.0
 11
4182.426034866593
 21
4081.450581124187
 31
0.0
  0
LINE
  5
132B2
330
747D
100
AcDbEntity
  8
細線
 48
50.0
100
AcDbLine
 10
4224.426034866594
 20
3944.897875741639
 30
0.0
 11
4160.426034866594
 21
3944.897875741637
 31
0.0
  0
LINE
  5
132B3
330
747D
100
AcDbEntity
  8
細線
 48
50.0
100
AcDbLine
 10
4224.426034866594
 20
3954.897875741637
 30
0.0
 11
4160.426034866594
 21
3954.897875741637
 31
0.0
  0
LINE
  5
132B4
330
747D
100
AcDbEntity
  8
部品1
 48
50.0
100
AcDbLine
 10
4222.426034866594
 20
3970.897875741638
 30
0.0
 11
4162.426034866594
 21
3970.897875741638
 31
0.0
  0
ARC
  5
132B5
330
747D
100
AcDbEntity
  8
部品1
 48
50.0
100
AcDbCircle
 10
4162.426034866594
 20
3968.897875741637
 30
0.0
 40
2.0
100
AcDbArc
 50
90.0
 51
180.0
  0
DIMENSION
  5
132B6
330
747D
100
AcDbEntity
  8
寸法
 48
50.0
100
AcDbDimension
  2
*D9
 10
7272.426034866594
 20
4601.702425425581
 30
0.0
 11
7564.151982746635
 21
4601.702425425581
 31
0.0
 12
-459.436150747706
 22
-1260.916917799579
 32
0.0
 70
   160
 71
     5
 42
-1.0
  3
INABA_S30G
100
AcDbAlignedDimension
 13
7022.426034866594
 23
3970.897875741638
 33
0.0
 14
7272.426034866594
 24
4066.450581124185
 34
0.0
100
AcDbRotatedDimension
  0
LINE
  5
132B7
330
747D
100
AcDbEntity
  8
部品1
 48
50.0
100
AcDbLine
 10
7209.426034866594
 20
3969.969012140657
 30
0.0
 11
7054.426034866594
 21
3969.969012140657
 31
0.0
  0
LINE
  5
132B8
330
747D
100
AcDbEntity
  8
部品1
 48
50.0
100
AcDbLine
 10
7209.426034866594
 20
3939.307144620489
 30
0.0
 11
7054.426034866594
 21
3939.307144620489
 31
0.0
  0
LINE
  5
132B9
330
747D
100
AcDbEntity
  8
細線
 48
50.0
100
AcDbLine
 10
7054.426034866594
 20
3944.897875741639
 30
0.0
 11
6990.426034866594
 21
3944.897875741637
 31
0.0
  0
LINE
  5
132BA
330
747D
100
AcDbEntity
  8
細線
 48
50.0
100
AcDbLine
 10
7054.426034866594
 20
3954.897875741637
 30
0.0
 11
6990.426034866594
 21
3954.897875741637
 31
0.0
  0
ARC
  5
132BB
330
747D
100
AcDbEntity
  8
部品1
 48
50.0
100
AcDbCircle
 10
7052.426034866595
 20
3968.897875741637
 30
0.0
 40
2.0
100
AcDbArc
 50
0.0
 51
90.0
  0
ARC
  5
132BC
330
747D
100
AcDbEntity
  8
部品1
 48
50.0
100
AcDbCircle
 10
6992.426034866594
 20
3968.897875741637
 30
0.0
 40
2.0
100
AcDbArc
 50
90.0
 51
180.0
  0
LINE
  5
132BD
330
747D
100
AcDbEntity
  8
部品1
 48
50.0
100
AcDbLine
 10
7052.426034866595
 20
3970.897875741638
 30
0.0
 11
6992.426034866594
 21
3970.897875741638
 31
0.0
  0
ARC
  5
132BE
330
747D
100
AcDbEntity
  8
部品1
 48
50.0
100
AcDbCircle
 10
7257.426034866594
 20
3989.632043366532
 30
0.0
 40
15.0
100
AcDbArc
 50
344.0769099234545
 51
0.0
  0
LINE
  5
132BF
330
747D
100
AcDbEntity
  8
部品1
 48
50.0
100
AcDbLine
 10
7272.426034866594
 20
4066.450581124185
 30
0.0
 11
7272.426034866594
 21
3989.632043366532
 31
0.0
  0
ARC
  5
132C0
330
747D
100
AcDbEntity
  8
細線
 48
50.0
100
AcDbCircle
 10
7218.845812205175
 20
4017.027143629733
 30
0.0
 40
3.0
100
AcDbArc
 50
270.0
 51
344.0769099234517
  0
ARC
  5
132C1
330
747D
100
AcDbEntity
  8
細線
 48
50.0
100
AcDbCircle
 10
7224.052306566069
 20
4035.276767503652
 30
0.0
 40
3.0
100
AcDbArc
 50
344.0769099234531
 51
90.0
  0
ARC
  5
132C2
330
747D
100
AcDbEntity
  8
細線
 48
50.0
100
AcDbCircle
 10
7222.207418765191
 20
4012.407532190147
 30
0.0
 40
10.0
100
AcDbArc
 50
270.0
 51
344.0769099234529
  0
ARC
  5
132C3
330
747D
100
AcDbEntity
  8
細線
 48
50.0
100
AcDbCircle
 10
7230.049800975155
 20
4039.896378943234
 30
0.0
 40
10.0
100
AcDbArc
 50
344.0769099234531
 51
90.0
  0
LINE
  5
132C4
330
747D
100
AcDbEntity
  8
細線
 48
50.0
100
AcDbLine
 10
7239.666109239921
 20
4037.152911181982
 30
0.0
 11
7231.823727029952
 21
4009.664064428895
 31
0.0
  0
LINE
  5
132C5
330
747D
100
AcDbEntity
  8
細線
 48
50.0
100
AcDbLine
 10
7226.937199045498
 20
4034.453727175278
 30
0.0
 11
7221.730704684606
 21
4016.204103301359
 31
0.0
  0
LINE
  5
132C6
330
747D
100
AcDbEntity
  8
部品1
 48
50.0
100
AcDbLine
 10
7271.85049726374
 20
4062.335379482305
 30
0.0
 11
7251.658651396121
 21
3991.559620043856
 31
0.0
  0
ARC
  5
132C7
330
747D
100
AcDbEntity
  8
部品1
 48
50.0
100
AcDbCircle
 10
7232.426034866595
 20
3997.046555566362
 30
0.0
 40
20.0
100
AcDbArc
 50
270.0
 51
344.0769099234519
  0
ARC
  5
132C8
330
747D
100
AcDbEntity
  8
部品1
 48
50.0
100
AcDbCircle
 10
7257.426034866594
 20
4066.450581124185
 30
0.0
 40
15.0
100
AcDbArc
 50
344.0769099234545
 51
90.0
  0
LINE
  5
132C9
330
747D
100
AcDbEntity
  8
部品1
 48
50.0
100
AcDbLine
 10
7209.426034866594
 20
4081.450581124187
 30
0.0
 11
7209.426034866594
 21
3977.046555566361
 31
0.0
  0
LWPOLYLINE
  5
132CA
330
747D
100
AcDbEntity
  8
部品1
100
AcDbPolyline
 90
        4
 70
     1
 43
0.0
 10
9885.916963248007
 20
1149.796007513017
 10
10532.94833852853
 20
1149.796007513017
 10
10532.94833852853
 20
957.2758516958765
 10
9885.916963248007
 20
957.2758516958765
  0
TEXT
  5
132CB
330
747D
100
AcDbEntity
  8
仕様書枠
 62
     7
 48
50.0
100
AcDbText
 10
9917.33204000954
 20
995.9312831628349
 30
0.0
 40
112.0
  1
側 面 図
  7
STYLE2
100
AcDbText
  0
DIMENSION
  5
132CC
330
747D
100
AcDbEntity
  8
寸法
 48
50.0
100
AcDbDimension
  2
*D10
 10
8817.525986420125
 20
3990.382911937201
 30
0.0
 11
8819.594332404681
 21
4042.091561551053
 31
0.0
 70
   160
 71
     5
 42
-1.0
 51
2.290610042638495
  3
INABA_S30G
100
AcDbAlignedDimension
 13
9130.703069886605
 23
4081.438595505012
 33
0.0
 14
9150.93489569111
 24
3977.046555566361
 34
0.0
 50
87.70938995736154
100
AcDbRotatedDimension
  0
LINE
  5
132CD
330
747D
100
AcDbEntity
  8
部品1
 48
50.0
100
AcDbLine
 10
9914.141797825386
 20
3886.470298665647
 30
0.0
 11
9869.73718955166
 21
3939.262580729354
 31
0.0
  0
LINE
  5
132CE
330
747D
100
AcDbEntity
  8
部品1
 48
50.0
100
AcDbLine
 10
9783.581219163538
 20
3891.69272181212
 30
0.0
 11
9748.073154758106
 21
3933.907974338905
 31
0.0
  0
LINE
  5
132CF
330
747D
100
AcDbEntity
  8
部品1
 48
50.0
100
AcDbLine
 10
9299.572782314772
 20
3964.80974643306
 30
0.0
 11
9310.487035554801
 21
3916.048296064384
 31
0.0
  0
LINE
  5
132D0
330
747D
100
AcDbEntity
  8
細線
 48
50.0
100
AcDbLine
 10
11080.69690516999
 20
3958.552410122882
 30
0.0
 11
11071.5945107462
 21
3931.894914532928
 31
0.0
  0
LINE
  5
132D1
330
747D
100
AcDbEntity
  8
部品1
 48
50.0
100
AcDbLine
 10
11052.74142386794
 20
4004.557061345758
 30
0.0
 11
11048.60473189883
 21
3901.139762118055
 31
0.0
  0
LINE
  5
132D2
330
747D
100
AcDbEntity
  8
部品1
 48
50.0
100
AcDbLine
 10
11114.29882402891
 20
3982.8035020354
 30
0.0
 11
11090.7252127171
 21
3913.765245690329
 31
0.0
  0
LINE
  5
132D3
330
747D
100
AcDbEntity
  8
細線
 48
50.0
100
AcDbLine
 10
9162.457211377333
 20
4001.105255105178
 30
0.0
 11
11061.73131388433
 21
3925.134291004899
 31
0.0
  0
LINE
  5
132D4
330
747D
100
AcDbEntity
  8
部品1
 48
50.0
100
AcDbLine
 10
10094.61992965756
 20
3939.299154207704
 30
0.0
 11
10092.14191127993
 21
3877.348694766953
 31
0.0
  0
LINE
  5
132D5
330
747D
100
AcDbEntity
  8
部品1
 48
50.0
100
AcDbLine
 10
10135.58716896515
 20
3937.660464635403
 30
0.0
 11
10133.10915058752
 21
3875.710005194651
 31
0.0
  0
LINE
  5
132D6
330
747D
100
AcDbEntity
  8
部品1
 48
50.0
100
AcDbLine
 10
9385.58716896515
 20
3967.660464635403
 30
0.0
 11
9383.10915058752
 21
3905.710005194651
 31
0.0
  0
LINE
  5
132D7
330
747D
100
AcDbEntity
  8
部品1
 48
50.0
100
AcDbLine
 10
9344.619929657561
 20
3969.299154207703
 30
0.0
 11
9342.141911279929
 21
3907.348694766954
 31
0.0
  0
LINE
  5
132D8
330
747D
100
AcDbEntity
  8
部品1
 48
50.0
100
AcDbLine
 10
9150.93489569111
 20
3977.046555566364
 30
0.0
 11
11070.99881899337
 21
3900.243998634272
 31
0.0
  0
LINE
  5
132D9
330
747D
100
AcDbEntity
  8
細線
 48
50.0
100
AcDbLine
 10
10381.31965074531
 20
1830.562576328022
 30
0.0
 11
10428.58483785983
 21
1877.827763442537
 31
0.0
  0
LINE
  5
132DA
330
747D
100
AcDbEntity
  8
細線
 48
50.0
100
AcDbLine
 10
10354.37887074531
 20
1830.562576328022
 30
0.0
 11
10401.91079825587
 21
1878.094503838577
 31
0.0
  0
LINE
  5
132DC
330
747D
100
AcDbEntity
  8
部品1
 48
50.0
100
AcDbLine
 10
11105.10404927385
 20
1871.062571328397
 30
0.0
 11
10155.10354931133
 21
1880.562576328022
 31
0.0
  0
LINE
  5
132DD
330
747D
100
AcDbEntity
  8
部品1
 48
50.0
100
AcDbLine
 10
10876.09087772325
 20
3750.352239207043
 30
0.0
 11
10235.10354931135
 21
3517.0519311233
 31
0.0
  0
LINE
  5
132DE
330
747D
100
AcDbEntity
  8
部品1
 48
50.0
100
AcDbLine
 10
10980.10354931135
 20
3852.060422000177
 30
0.0
 11
10214.58234071181
 21
3573.433488370454
 31
0.0
  0
LINE
  5
132DF
330
747D
100
AcDbEntity
  8
部品1
 48
50.0
100
AcDbLine
 10
10303.07624793086
 20
3868.410921460789
 30
0.0
 11
10425.1374250379
 21
3863.528474376506
 31
0.0
  0
LINE
  5
132E0
330
747D
100
AcDbEntity
  8
部品1
 48
50.0
100
AcDbLine
 10
10359.79869757514
 20
3926.190004290365
 30
0.0
 11
10451.67890539389
 21
3922.514795977615
 31
0.0
  0
LINE
  5
132E1
330
747D
100
AcDbEntity
  8
部品1
 48
50.0
100
AcDbLine
 10
10160.10354931135
 20
3548.431828606207
 30
0.0
 11
10425.1374250379
 21
3863.528474376506
 31
0.0
  0
LINE
  5
132E2
330
747D
100
AcDbEntity
  8
部品1
 48
50.0
100
AcDbLine
 10
10235.10354931135
 20
3487.0519311233
 30
0.0
 11
10235.10354931135
 21
1962.099725102283
 31
0.0
  0
LINE
  5
132E3
330
747D
100
AcDbEntity
  8
部品1
 48
50.0
100
AcDbLine
 10
10175.10354931135
 20
3517.0519311233
 30
0.0
 11
10175.10354931135
 21
1962.099725102285
 31
0.0
  0
LINE
  5
132E4
330
747D
100
AcDbEntity
  8
部品1
 48
50.0
100
AcDbLine
 10
10155.10354931135
 20
3548.431828606208
 30
0.0
 11
10155.10354931135
 21
1880.562576328022
 31
0.0
  0
LINE
  5
132E5
330
747D
100
AcDbEntity
  8
部品1
 48
50.0
100
AcDbLine
 10
10075.10354931135
 20
3548.431828606207
 30
0.0
 11
10075.10354931135
 21
1880.562576328022
 31
0.0
  0
LINE
  5
132E6
330
747D
100
AcDbEntity
  8
部品1
 48
50.0
100
AcDbLine
 10
9125.103049348854
 20
1871.062571328397
 30
0.0
 11
10075.10354931137
 21
1880.562576328022
 31
0.0
  0
LINE
  5
132E7
330
747D
100
AcDbEntity
  8
細線
 48
50.0
100
AcDbLine
 10
9204.511209669869
 20
1830.562576328022
 30
0.0
 11
9246.222398158337
 21
1872.27376481649
 31
0.0
  0
LINE
  5
132E8
330
747D
100
AcDbEntity
  8
細線
 48
50.0
100
AcDbLine
 10
9258.392769669871
 20
1830.562576328022
 30
0.0
 11
9300.648216340155
 21
1872.818022998309
 31
0.0
  0
LINE
  5
132E9
330
747D
100
AcDbEntity
  8
細線
 48
50.0
100
AcDbLine
 10
9231.451989669869
 20
1830.562576328022
 30
0.0
 11
9273.435307249242
 21
1872.5458939074
 31
0.0
  0
LINE
  5
132EA
330
747D
100
AcDbEntity
  8
部品1
 48
50.0
100
AcDbLine
 10
9125.103049348854
 20
1871.062571328397
 30
0.0
 11
9115.103549311355
 21
1860.962576328022
 31
0.0
  0
LINE
  5
132EB
330
747D
100
AcDbEntity
  8
部品1
 48
50.0
100
AcDbLine
 10
9115.103549311355
 20
1860.962576328022
 30
0.0
 11
9115.103549311355
 21
1830.562576328022
 31
0.0
  0
LINE
  5
132EF
330
747D
100
AcDbEntity
  8
細線
 48
50.0
100
AcDbLine
 10
9878.030430386848
 20
1830.562576328022
 30
0.0
 11
9926.544843326997
 21
1879.076989268177
 31
0.0
  0
LINE
  5
132F0
330
747D
100
AcDbEntity
  8
細線
 48
50.0
100
AcDbLine
 10
9851.089650386846
 20
1830.562576328022
 30
0.0
 11
9899.331934236089
 21
1878.804860177268
 31
0.0
  0
LINE
  5
132F1
330
747D
100
AcDbEntity
  8
細線
 48
50.0
100
AcDbLine
 10
9904.971210386849
 20
1830.562576328022
 30
0.0
 11
9953.757752417907
 21
1879.349118359087
 31
0.0
  0
LINE
  5
132F2
330
747D
100
AcDbEntity
  8
部品1
 48
50.0
100
AcDbLine
 10
10155.10354931135
 20
1880.562576328022
 30
0.0
 11
10075.10354931137
 21
1880.562576328022
 31
0.0
  0
LINE
  5
132F3
330
747D
100
AcDbEntity
  8
部品1
 48
50.0
100
AcDbLine
 10
10155.10354931135
 20
1880.562576328022
 30
0.0
 11
10075.10354931137
 21
1880.562576328022
 31
0.0
  0
LINE
  5
132F4
330
747D
100
AcDbEntity
  8
点線
 48
18.0
100
AcDbLine
 10
10075.10354931135
 20
1880.562576328022
 30
0.0
 11
10075.10354931135
 21
1830.562576328022
 31
0.0
  0
LINE
  5
132F5
330
747D
100
AcDbEntity
  8
点線
 48
18.0
100
AcDbLine
 10
10155.10354931135
 20
1880.562576328022
 30
0.0
 11
10155.10354931135
 21
1830.562576328022
 31
0.0
  0
LINE
  5
132F6
330
747D
100
AcDbEntity
  8
部品1
 48
50.0
100
AcDbLine
 10
10236.60354931135
 20
2017.099725102285
 30
0.0
 11
10236.60354931135
 21
1997.099725102285
 31
0.0
  0
CIRCLE
  5
132F7
330
747D
100
AcDbEntity
  8
細線
 48
50.0
100
AcDbCircle
 10
10165.10354931135
 20
2007.099725102285
 30
0.0
 40
6.5
  0
LWPOLYLINE
  5
132F8
330
747D
100
AcDbEntity
  8
細線
 48
50.0
100
AcDbPolyline
 90
        6
 70
     1
 43
0.0
 10
10170.10354931135
 20
2009.986476448234
 10
10165.10354931135
 20
2012.873227794182
 10
10160.10354931135
 20
2009.986476448234
 10
10160.10354931135
 20
2004.212973756338
 10
10165.10354931135
 20
2001.326222410389
 10
10170.10354931135
 20
2004.212973756338
  0
LINE
  5
132F9
330
747D
100
AcDbEntity
  8
部品1
 48
50.0
100
AcDbLine
 10
10236.60354931135
 20
2017.099725102285
 30
0.0
 11
10155.10354931135
 21
2017.099725102285
 31
0.0
  0
LINE
  5
132FA
330
747D
100
AcDbEntity
  8
部品1
 48
50.0
100
AcDbLine
 10
10236.60354931135
 20
1997.099725102285
 30
0.0
 11
10155.10354931135
 21
1997.099725102285
 31
0.0
  0
LINE
  5
132FB
330
747D
100
AcDbEntity
  8
細線
 48
50.0
100
AcDbLine
 10
10235.10354931135
 20
1987.099725102283
 30
0.0
 11
10175.10354931136
 21
1987.099725102285
 31
0.0
  0
LINE
  5
132FC
330
747D
100
AcDbEntity
  8
部品1
 48
50.0
100
AcDbLine
 10
10256.71647958944
 20
1954.233261805801
 30
0.0
 11
10241.9197945238
 21
1898.96068170437
 31
0.0
  0
LINE
  5
132FD
330
747D
100
AcDbEntity
  8
細線
 48
50.0
100
AcDbLine
 10
10235.10354931135
 20
1962.099725102283
 30
0.0
 11
10214.58234071182
 21
1905.718167855131
 31
0.0
  0
ARC
  5
132FE
330
747D
100
AcDbEntity
  8
部品1
 48
50.0
100
AcDbCircle
 10
10235.10354931135
 20
1962.099725102285
 30
0.0
 40
60.0
100
AcDbArc
 50
180.0
 51
249.9999999999999
  0
LINE
  5
132FF
330
747D
100
AcDbEntity
  8
部品1
 48
50.0
100
AcDbLine
 10
10235.10354931135
 20
1962.099725102283
 30
0.0
 11
10256.71647958944
 21
1954.233261805801
 31
0.0
  0
LINE
  5
13300
330
747D
100
AcDbEntity
  8
部品1
 48
50.0
100
AcDbLine
 10
10215.6084011418
 20
1908.537245717489
 30
0.0
 11
10241.91979452381
 21
1898.960681704368
 31
0.0
  0
LINE
  5
13301
330
747D
100
AcDbEntity
  8
部品1
 48
50.0
100
AcDbLine
 10
10075.10354931135
 20
1880.562576328022
 30
0.0
 11
10155.10354931133
 21
1880.562576328022
 31
0.0
  0
LINE
  5
13302
330
747D
100
AcDbEntity
  8
寸法
 48
50.0
100
AcDbLine
 10
10116.78996910751
 20
3035.520619798459
 30
0.0
 11
9472.146444135894
 21
2830.485466770115
 31
0.0
  0
TEXT
  5
13303
330
747D
100
AcDbEntity
  8
部品1
 48
50.0
100
AcDbText
 10
9308.632707615092
 20
2739.15677552504
 30
0.0
 40
120.0
  1
②
  7
STYLE2
100
AcDbText
  0
LINE
  5
13304
330
747D
100
AcDbEntity
  8
寸法
 48
50.0
100
AcDbLine
 10
9945.183300263158
 20
3713.704443316507
 30
0.0
 11
9472.201354007612
 21
3336.744762581548
 31
0.0
  0
LINE
  5
13305
330
747D
100
AcDbEntity
  8
部品1
 48
50.0
100
AcDbLine
 10
9383.189086664216
 20
3907.708407112094
 30
0.0
 11
9783.581219163545
 21
3891.69272181212
 31
0.0
  0
TEXT
  5
13306
330
747D
100
AcDbEntity
  8
部品1
 48
50.0
100
AcDbText
 10
9318.167780025849
 20
3231.533399241452
 30
0.0
 40
120.0
  1
①
  7
STYLE2
100
AcDbText
  0
LINE
  5
13307
330
747D
100
AcDbEntity
  8
部品1
 48
50.0
100
AcDbLine
 10
9319.845892775648
 20
3908.240535507103
 30
0.0
 11
9342.141911279929
 21
3907.348694766934
 31
0.0
  0
ARC
  5
13308
330
747D
100
AcDbEntity
  8
部品1
 48
50.0
100
AcDbCircle
 10
9320.245573159137
 20
3918.232545094321
 30
0.0
 40
10.0
100
AcDbArc
 50
192.6165368012922
 51
267.7093899573706
  0
LINE
  5
13309
330
747D
100
AcDbEntity
  8
部品1
 48
50.0
100
AcDbLine
 10
9342.141911279929
 20
3907.348694766954
 30
0.0
 11
9383.10915058752
 21
3905.710005194649
 31
0.0
  0
LINE
  5
1330A
330
747D
100
AcDbEntity
  8
部品1
 48
50.0
100
AcDbLine
 10
9914.141797825386
 20
3886.470298665647
 30
0.0
 11
10092.22184735663
 21
3879.347096684396
 31
0.0
  0
LINE
  5
1330B
330
747D
100
AcDbEntity
  8
部品1
 48
50.0
100
AcDbLine
 10
10070.10354931135
 20
3548.431828606207
 30
0.0
 11
10160.10354931135
 21
3548.431828606208
 31
0.0
  0
LINE
  5
1330C
330
747D
100
AcDbEntity
  8
部品1
 48
50.0
100
AcDbLine
 10
10070.10354931135
 20
3698.431828606209
 30
0.0
 11
10160.10354931135
 21
3698.431828606209
 31
0.0
  0
CIRCLE
  5
1330D
330
747D
100
AcDbEntity
  8
細線
 48
50.0
100
AcDbCircle
 10
9802.603549311356
 20
3920.955819013882
 30
0.0
 40
9.0
  0
LWPOLYLINE
  5
1330E
330
747D
100
AcDbEntity
  8
細線
 48
50.0
100
AcDbPolyline
 90
        6
 70
     1
 43
0.0
 10
9796.103549311355
 20
3917.203042264151
 10
9802.603549311356
 20
3913.450265514419
 10
9809.103549311357
 20
3917.203042264151
 10
9809.103549311357
 20
3924.708595763615
 10
9802.603549311356
 20
3928.461372513348
 10
9796.103549311355
 20
3924.708595763615
  0
LWPOLYLINE
  5
1330F
330
747D
100
AcDbEntity
  8
細線
 48
50.0
100
AcDbPolyline
 90
        6
 70
     1
 43
0.0
 10
9856.103549311356
 20
3914.803042264151
 10
9862.603549311357
 20
3911.05026551442
 10
9869.103549311356
 20
3914.803042264151
 10
9869.103549311356
 20
3922.308595763616
 10
9862.603549311357
 20
3926.061372513348
 10
9856.103549311356
 20
3922.308595763616
  0
CIRCLE
  5
13310
330
747D
100
AcDbEntity
  8
細線
 48
50.0
100
AcDbCircle
 10
9862.603549311357
 20
3918.555819013884
 30
0.0
 40
9.0
  0
ARC
  5
13311
330
747D
100
AcDbEntity
  8
細線
 48
50.0
100
AcDbCircle
 10
10047.10354931135
 20
3617.255669154366
 30
0.0
 40
3.0
100
AcDbArc
 50
220.0678395028068
 51
359.9999999999987
  0
ARC
  5
13312
330
747D
100
AcDbEntity
  8
細線
 48
50.0
100
AcDbCircle
 10
10047.10354931135
 20
3626.576865853848
 30
0.0
 40
3.0
100
AcDbArc
 50
359.9999999999987
 51
40.0678395028069
  0
ARC
  5
13313
330
747D
100
AcDbEntity
  8
細線
 48
50.0
100
AcDbCircle
 10
10047.10354931135
 20
3674.975821829477
 30
0.0
 40
3.0
100
AcDbArc
 50
220.0678395028065
 51
0.0
  0
ARC
  5
13314
330
747D
100
AcDbEntity
  8
細線
 48
50.0
100
AcDbCircle
 10
10047.10354931135
 20
3684.297018528962
 30
0.0
 40
3.0
100
AcDbArc
 50
359.9999999999985
 51
40.06783950280634
  0
LINE
  5
13315
330
747D
100
AcDbEntity
  8
細線
 48
50.0
100
AcDbLine
 10
10050.10354931135
 20
3626.576865853848
 30
0.0
 11
10050.10354931135
 21
3617.255669154366
 31
0.0
  0
LINE
  5
13316
330
747D
100
AcDbEntity
  8
細線
 48
50.0
100
AcDbLine
 10
10050.10354931135
 20
3684.297018528962
 30
0.0
 11
10050.10354931135
 21
3674.975821829477
 31
0.0
  0
ARC
  5
13317
330
747D
100
AcDbEntity
  8
細線
 48
50.0
100
AcDbCircle
 10
9897.973410718737
 20
3861.596642303392
 30
0.0
 40
3.0
100
AcDbArc
 50
40.06783950280669
 51
87.70938995736109
  0
ARC
  5
13318
330
747D
100
AcDbEntity
  8
細線
 48
50.0
100
AcDbCircle
 10
9889.860205152698
 20
3861.921170526031
 30
0.0
 40
3.0
100
AcDbArc
 50
87.70938995736125
 51
220.0678395028065
  0
ARC
  5
13319
330
747D
100
AcDbEntity
  8
細線
 48
50.0
100
AcDbCircle
 10
9847.73356716065
 20
3863.606236045715
 30
0.0
 40
3.0
100
AcDbArc
 50
40.06783950280684
 51
87.70938995735884
  0
ARC
  5
1331A
330
747D
100
AcDbEntity
  8
細線
 48
50.0
100
AcDbCircle
 10
9839.620361594612
 20
3863.930764268356
 30
0.0
 40
3.0
100
AcDbArc
 50
87.70938995736102
 51
220.0678395028068
  0
LINE
  5
1331B
330
747D
100
AcDbEntity
  8
細線
 48
50.0
100
AcDbLine
 10
9889.980109267746
 20
3864.918773402198
 30
0.0
 11
9898.093314833783
 21
3864.594245179556
 31
0.0
  0
LINE
  5
1331C
330
747D
100
AcDbEntity
  8
細線
 48
50.0
100
AcDbLine
 10
10044.80770081769
 20
3673.04473931075
 30
0.0
 11
9887.564356659034
 21
3859.990088007304
 31
0.0
  0
LINE
  5
1331D
330
747D
100
AcDbEntity
  8
細線
 48
50.0
100
AcDbLine
 10
10049.39939780502
 20
3628.507948372575
 30
0.0
 11
9850.029415654313
 21
3865.537318564442
 31
0.0
  0
LINE
  5
1331E
330
747D
100
AcDbEntity
  8
細線
 48
50.0
100
AcDbLine
 10
10049.39939780502
 20
3686.228101047691
 30
0.0
 11
9900.269259212397
 21
3863.527724822121
 31
0.0
  0
LINE
  5
1331F
330
747D
100
AcDbEntity
  8
細線
 48
50.0
100
AcDbLine
 10
10044.80770081769
 20
3615.324586635637
 30
0.0
 11
9837.32451310095
 21
3861.999681749629
 31
0.0
  0
LINE
  5
13320
330
747D
100
AcDbEntity
  8
細線
 48
50.0
100
AcDbLine
 10
9839.740265709657
 20
3866.928367144523
 30
0.0
 11
9847.853471275696
 21
3866.603838921881
 31
0.0
  0
LINE
  5
13321
330
747D
100
AcDbEntity
  8
部品1
 48
50.0
100
AcDbLine
 10
9914.041877729513
 20
3883.972296268843
 30
0.0
 11
9914.141797825386
 21
3886.470298665647
 31
0.0
  0
LINE
  5
13322
330
747D
100
AcDbEntity
  8
部品1
 48
50.0
100
AcDbLine
 10
9783.48129906767
 20
3889.194719415316
 30
0.0
 11
9783.581219163545
 21
3891.69272181212
 31
0.0
  0
LINE
  5
13323
330
747D
100
AcDbEntity
  8
部品1
 48
50.0
100
AcDbLine
 10
9783.481299067677
 20
3889.194719415316
 30
0.0
 11
9914.041877729516
 21
3883.972296268843
 31
0.0
  0
LINE
  5
13324
330
747D
100
AcDbEntity
  8
部品1
 48
50.0
100
AcDbLine
 10
10070.10354931135
 20
3698.431828606209
 30
0.0
 11
9914.041877729516
 21
3883.972296268843
 31
0.0
  0
LINE
  5
13325
330
747D
100
AcDbEntity
  8
部品1
 48
50.0
100
AcDbLine
 10
10070.10354931135
 20
3548.431828606207
 30
0.0
 11
9783.48129906767
 21
3889.194719415315
 31
0.0
  0
LINE
  5
13326
330
747D
100
AcDbEntity
  8
部品1
 48
50.0
100
AcDbLine
 10
10070.10354931135
 20
3698.431828606209
 30
0.0
 11
10070.10354931135
 21
3548.431828606207
 31
0.0
  0
CIRCLE
  5
13327
330
747D
100
AcDbEntity
  8
細線
 48
50.0
100
AcDbCircle
 10
10165.10354931135
 20
3497.051931123301
 30
0.0
 40
6.5
  0
LWPOLYLINE
  5
13328
330
747D
100
AcDbEntity
  8
細線
 48
50.0
100
AcDbPolyline
 90
        6
 70
     1
 43
0.0
 10
10170.10354931135
 20
3499.938682469249
 10
10165.10354931135
 20
3502.825433815198
 10
10160.10354931135
 20
3499.938682469249
 10
10160.10354931135
 20
3494.165179777353
 10
10165.10354931135
 20
3491.278428431405
 10
10170.10354931135
 20
3494.165179777353
  0
LINE
  5
13329
330
747D
100
AcDbEntity
  8
部品1
 48
50.0
100
AcDbLine
 10
10236.60354931135
 20
3507.0519311233
 30
0.0
 11
10236.60354931135
 21
3487.0519311233
 31
0.0
  0
LINE
  5
1332A
330
747D
100
AcDbEntity
  8
部品1
 48
50.0
100
AcDbLine
 10
10236.60354931135
 20
3487.0519311233
 30
0.0
 11
10155.10354931135
 21
3487.0519311233
 31
0.0
  0
LINE
  5
1332B
330
747D
100
AcDbEntity
  8
部品1
 48
50.0
100
AcDbLine
 10
10236.60354931135
 20
3507.0519311233
 30
0.0
 11
10155.10354931135
 21
3507.0519311233
 31
0.0
  0
LINE
  5
1332C
330
747D
100
AcDbEntity
  8
細線
 48
50.0
100
AcDbLine
 10
10258.595864831
 20
3525.602434706441
 30
0.0
 11
10238.07465623146
 21
3581.983991953595
 31
0.0
  0
LINE
  5
1332D
330
747D
100
AcDbEntity
  8
細線
 48
50.0
100
AcDbLine
 10
10235.10354931135
 20
3517.0519311233
 30
0.0
 11
10175.10354931135
 21
3517.0519311233
 31
0.0
  0
ARC
  5
1332E
330
747D
100
AcDbEntity
  8
部品1
 48
50.0
100
AcDbCircle
 10
10235.10354931135
 20
3517.0519311233
 30
0.0
 40
60.0
100
AcDbArc
 50
110.0
 51
180.0
  0
LINE
  5
1332F
330
747D
100
AcDbEntity
  8
部品1
 48
50.0
100
AcDbLine
 10
10235.10354931135
 20
3517.0519311233
 30
0.0
 11
10235.10354931135
 21
3507.0519311233
 31
0.0
  0
CIRCLE
  5
13330
330
747D
100
AcDbEntity
  8
細線
 48
50.0
100
AcDbCircle
 10
10367.60354931135
 20
3898.355819013883
 30
0.0
 40
9.0
  0
LWPOLYLINE
  5
13331
330
747D
100
AcDbEntity
  8
細線
 48
50.0
100
AcDbPolyline
 90
        6
 70
     1
 43
0.0
 10
10361.10354931135
 20
3894.603042264153
 10
10367.60354931135
 20
3890.850265514421
 10
10374.10354931135
 20
3894.603042264153
 10
10374.10354931135
 20
3902.108595763617
 10
10367.60354931135
 20
3905.861372513349
 10
10361.10354931135
 20
3902.108595763617
  0
LWPOLYLINE
  5
13332
330
747D
100
AcDbEntity
  8
細線
 48
50.0
100
AcDbPolyline
 90
        6
 70
     1
 43
0.0
 10
10108.60354931135
 20
3562.679051856475
 10
10115.10354931135
 20
3558.926275106743
 10
10121.60354931135
 20
3562.679051856475
 10
10121.60354931135
 20
3570.184605355939
 10
10115.10354931135
 20
3573.937382105672
 10
10108.60354931135
 20
3570.184605355939
  0
CIRCLE
  5
13333
330
747D
100
AcDbEntity
  8
細線
 48
50.0
100
AcDbCircle
 10
10115.10354931135
 20
3566.431828606206
 30
0.0
 40
9.0
  0
CIRCLE
  5
13334
330
747D
100
AcDbEntity
  8
細線
 48
50.0
100
AcDbCircle
 10
10115.10354931135
 20
3623.431828606209
 30
0.0
 40
9.0
  0
LWPOLYLINE
  5
13335
330
747D
100
AcDbEntity
  8
細線
 48
50.0
100
AcDbPolyline
 90
        6
 70
     1
 43
0.0
 10
10108.60354931135
 20
3619.679051856476
 10
10115.10354931135
 20
3615.926275106744
 10
10121.60354931135
 20
3619.679051856476
 10
10121.60354931135
 20
3627.18460535594
 10
10115.10354931135
 20
3630.937382105673
 10
10108.60354931135
 20
3627.18460535594
  0
LWPOLYLINE
  5
13336
330
747D
100
AcDbEntity
  8
細線
 48
50.0
100
AcDbPolyline
 90
        6
 70
     1
 43
0.0
 10
10108.60354931135
 20
3676.679051856476
 10
10115.10354931135
 20
3672.926275106744
 10
10121.60354931135
 20
3676.679051856476
 10
10121.60354931135
 20
3684.18460535594
 10
10115.10354931135
 20
3687.937382105673
 10
10108.60354931135
 20
3684.18460535594
  0
CIRCLE
  5
13337
330
747D
100
AcDbEntity
  8
細線
 48
50.0
100
AcDbCircle
 10
10115.10354931135
 20
3680.431828606208
 30
0.0
 40
9.0
  0
ARC
  5
13338
330
747D
100
AcDbEntity
  8
細線
 48
50.0
100
AcDbCircle
 10
10372.65297587295
 20
3842.609459697222
 30
0.0
 40
3.0
100
AcDbArc
 50
319.932160497193
 51
87.7093899573591
  0
ARC
  5
13339
330
747D
100
AcDbEntity
  8
細線
 48
50.0
100
AcDbCircle
 10
10365.06793426505
 20
3842.91286136154
 30
0.0
 40
3.0
100
AcDbArc
 50
87.70938995736093
 51
139.9321604971935
  0
ARC
  5
1333A
330
747D
100
AcDbEntity
  8
細線
 48
50.0
100
AcDbCircle
 10
10325.68371068413
 20
3844.488230304774
 30
0.0
 40
3.0
100
AcDbArc
 50
319.9321604971932
 51
87.70938995736116
  0
ARC
  5
1333B
330
747D
100
AcDbEntity
  8
細線
 48
50.0
100
AcDbCircle
 10
10318.09866907622
 20
3844.791631969091
 30
0.0
 40
3.0
100
AcDbArc
 50
87.7093899573609
 51
139.9321604971936
  0
LINE
  5
1333C
330
747D
100
AcDbEntity
  8
細線
 48
50.0
100
AcDbLine
 10
10365.18783838009
 20
3845.910464237704
 30
0.0
 11
10372.77287998799
 21
3845.607062573387
 31
0.0
  0
ARC
  5
1333D
330
747D
100
AcDbEntity
  8
細線
 48
50.0
100
AcDbCircle
 10
10183.10354931135
 20
3684.297018528962
 30
0.0
 40
3.0
100
AcDbArc
 50
139.9321604971936
 51
180.0000000000015
  0
LINE
  5
1333E
330
747D
100
AcDbEntity
  8
細線
 48
50.0
100
AcDbLine
 10
10180.10354931135
 20
3684.297018528962
 30
0.0
 11
10180.10354931135
 21
3674.975821829477
 31
0.0
  0
ARC
  5
1333F
330
747D
100
AcDbEntity
  8
細線
 48
50.0
100
AcDbCircle
 10
10183.10354931135
 20
3674.975821829477
 30
0.0
 40
3.0
100
AcDbArc
 50
180.0
 51
319.9321604971935
  0
ARC
  5
13340
330
747D
100
AcDbEntity
  8
細線
 48
50.0
100
AcDbCircle
 10
10183.10354931135
 20
3626.576865853848
 30
0.0
 40
3.0
100
AcDbArc
 50
139.9321604971931
 51
180.0000000000013
  0
LINE
  5
13341
330
747D
100
AcDbEntity
  8
細線
 48
50.0
100
AcDbLine
 10
10180.10354931135
 20
3626.576865853848
 30
0.0
 11
10180.10354931135
 21
3617.255669154366
 31
0.0
  0
ARC
  5
13342
330
747D
100
AcDbEntity
  8
細線
 48
50.0
100
AcDbCircle
 10
10183.10354931135
 20
3617.255669154366
 30
0.0
 40
3.0
100
AcDbArc
 50
180.0000000000013
 51
319.9321604971931
  0
LINE
  5
13343
330
747D
100
AcDbEntity
  8
細線
 48
50.0
100
AcDbLine
 10
10180.80770081769
 20
3686.228101047691
 30
0.0
 11
10315.80282058256
 21
3846.72271448782
 31
0.0
  0
LINE
  5
13344
330
747D
100
AcDbEntity
  8
細線
 48
50.0
100
AcDbLine
 10
10185.39939780502
 20
3673.04473931075
 30
0.0
 11
10327.97955917779
 21
3842.557147786047
 31
0.0
  0
LINE
  5
13345
330
747D
100
AcDbEntity
  8
細線
 48
50.0
100
AcDbLine
 10
10180.80770081769
 20
3628.507948372575
 30
0.0
 11
10362.77208577138
 21
3844.843943880267
 31
0.0
  0
LINE
  5
13346
330
747D
100
AcDbEntity
  8
細線
 48
50.0
100
AcDbLine
 10
10185.39939780502
 20
3615.324586635637
 30
0.0
 11
10374.94882436661
 21
3840.678377178493
 31
0.0
  0
LINE
  5
13347
330
747D
100
AcDbEntity
  8
細線
 48
50.0
100
AcDbLine
 10
10318.21857319127
 20
3847.789234845255
 30
0.0
 11
10325.80361479918
 21
3847.485833180941
 31
0.0
  0
LINE
  5
13348
330
747D
100
AcDbEntity
  8
部品1
 48
50.0
100
AcDbLine
 10
10303.17616802673
 20
3870.908923857598
 30
0.0
 11
10343.69368018373
 21
3919.079868574118
 31
0.0
  0
LINE
  5
13349
330
747D
100
AcDbEntity
  8
部品1
 48
50.0
100
AcDbLine
 10
10303.07624793086
 20
3868.410921460789
 30
0.0
 11
10303.17616802673
 21
3870.908923857594
 31
0.0
  0
ARC
  5
1334A
330
747D
100
AcDbEntity
  8
部品1
 48
50.0
100
AcDbCircle
 10
10358.99933680817
 20
3906.205985115928
 30
0.0
 40
20.0
100
AcDbArc
 50
87.70938995736152
 51
139.9321604971932
  0
LINE
  5
1334B
330
747D
100
AcDbEntity
  8
部品1
 48
50.0
100
AcDbLine
 10
10160.10354931135
 20
3698.431828606209
 30
0.0
 11
10303.07624793086
 21
3868.410921460789
 31
0.0
  0
LINE
  5
1334C
330
747D
100
AcDbEntity
  8
部品1
 48
50.0
100
AcDbLine
 10
10160.10354931135
 20
3698.431828606209
 30
0.0
 11
10160.10354931135
 21
3548.431828606208
 31
0.0
  0
LINE
  5
1334D
330
747D
100
AcDbEntity
  8
部品1
 48
50.0
100
AcDbLine
 10
10133.18908666422
 20
3877.708407112094
 30
0.0
 11
10303.17616802673
 21
3870.908923857594
 31
0.0
  0
LINE
  5
1334E
330
747D
100
AcDbEntity
  8
部品1
 48
50.0
100
AcDbLine
 10
10092.14191127993
 20
3877.348694766952
 30
0.0
 11
10133.10915058752
 21
3875.71000519465
 31
0.0
  0
LINE
  5
1334F
330
747D
100
AcDbEntity
  8
細線
 48
50.0
100
AcDbLine
 10
11054.83887146229
 20
1830.562576328022
 30
0.0
 11
11095.435551441
 21
1871.159256306725
 31
0.0
  0
LINE
  5
13350
330
747D
100
AcDbEntity
  8
細線
 48
50.0
100
AcDbLine
 10
11027.89809146229
 20
1830.562576328022
 30
0.0
 11
11068.76151183703
 21
1871.425996702765
 31
0.0
  0
LINE
  5
13353
330
747D
100
AcDbEntity
  8
細線
 48
50.0
100
AcDbLine
 10
10408.26043074532
 20
1830.562576328022
 30
0.0
 11
10455.25887746379
 21
1877.561023046497
 31
0.0
  0
LINE
  5
13354
330
747D
100
AcDbEntity
  8
細線
 48
50.0
100
AcDbLine
 10
11000.95731146229
 20
1830.562576328022
 30
0.0
 11
11042.08747223307
 21
1871.692737098804
 31
0.0
  0
LINE
  5
13356
330
747D
100
AcDbEntity
  8
部品1
 48
50.0
100
AcDbLine
 10
11115.10354931135
 20
1860.962576328022
 30
0.0
 11
11115.10354931135
 21
1830.562576328022
 31
0.0
  0
LINE
  5
13357
330
747D
100
AcDbEntity
  8
部品1
 48
50.0
100
AcDbLine
 10
11105.10404927385
 20
1871.062571328397
 30
0.0
 11
11115.10354931135
 21
1860.962576328022
 31
0.0
  0
LINE
  5
13358
330
747D
100
AcDbEntity
  8
部品1
 48
50.0
100
AcDbLine
 10
10425.23734513377
 20
3866.026476773313
 30
0.0
 11
10842.22184735662
 21
3849.347096684397
 31
0.0
  0
CIRCLE
  5
13359
330
747D
100
AcDbEntity
  8
細線
 48
50.0
100
AcDbCircle
 10
10427.60354931135
 20
3895.955819013884
 30
0.0
 40
9.0
  0
LWPOLYLINE
  5
1335A
330
747D
100
AcDbEntity
  8
細線
 48
50.0
100
AcDbPolyline
 90
        6
 70
     1
 43
0.0
 10
10421.10354931135
 20
3892.203042264152
 10
10427.60354931135
 20
3888.45026551442
 10
10434.10354931135
 20
3892.203042264152
 10
10434.10354931135
 20
3899.708595763616
 10
10427.60354931135
 20
3903.461372513349
 10
10421.10354931135
 20
3899.708595763616
  0
LINE
  5
1335B
330
747D
100
AcDbEntity
  8
部品1
 48
50.0
100
AcDbLine
 10
10425.23734513378
 20
3866.026476773313
 30
0.0
 11
10458.93205332261
 21
3906.085844661304
 31
0.0
  0
LINE
  5
1335C
330
747D
100
AcDbEntity
  8
部品1
 48
50.0
100
AcDbLine
 10
10425.1374250379
 20
3863.528474376508
 30
0.0
 11
10425.23734513377
 21
3866.026476773312
 31
0.0
  0
ARC
  5
1335D
330
747D
100
AcDbEntity
  8
部品1
 48
50.0
100
AcDbCircle
 10
10451.2792250104
 20
3912.522786390397
 30
0.0
 40
10.0
100
AcDbArc
 50
319.932160497193
 51
87.70938995736143
  0
LINE
  5
1335E
330
747D
100
AcDbEntity
  8
細線
 48
50.0
100
AcDbLine
 10
10980.10354931135
 20
3877.060422000172
 30
0.0
 11
11040.10354931135
 21
3877.06042200017
 31
0.0
  0
LINE
  5
1335F
330
747D
100
AcDbEntity
  8
細線
 48
50.0
100
AcDbLine
 10
10980.10354931135
 20
3852.060422000177
 30
0.0
 11
11000.62475791089
 21
3795.67886475302
 31
0.0
  0
LINE
  5
13360
330
747D
100
AcDbEntity
  8
部品1
 48
50.0
100
AcDbLine
 10
10895.39776035395
 20
3755.783103142377
 30
0.0
 11
10876.60390793823
 21
3748.942700275864
 31
0.0
  0
LWPOLYLINE
  5
13361
330
747D
100
AcDbEntity
  8
細線
 48
50.0
100
AcDbPolyline
 90
        6
 70
     1
 43
0.0
 10
10866.54639389831
 20
3822.437675441264
 10
10861.54639389831
 20
3825.324426787213
 10
10856.54639389831
 20
3822.437675441264
 10
10856.54639389831
 20
3816.664172749368
 10
10861.54639389831
 20
3813.77742140342
 10
10866.54639389831
 20
3816.664172749368
  0
CIRCLE
  5
13362
330
747D
100
AcDbEntity
  8
細線
 48
50.0
100
AcDbCircle
 10
10861.54639389831
 20
3819.550924095315
 30
0.0
 40
6.5
  0
ARC
  5
13363
330
747D
100
AcDbEntity
  8
部品1
 48
50.0
100
AcDbCircle
 10
10851.89036426287
 20
3825.614016679109
 30
0.0
 40
3.0
100
AcDbArc
 50
110.0000000000029
 51
200.0000000000011
  0
LINE
  5
13364
330
747D
100
AcDbEntity
  8
部品1
 48
50.0
100
AcDbLine
 10
10851.90889187172
 20
3828.813293494668
 30
0.0
 11
10850.8643038329
 21
3828.433094541466
 31
0.0
  0
LINE
  5
13365
330
747D
100
AcDbEntity
  8
部品1
 48
50.0
100
AcDbLine
 10
10861.54639389831
 20
3819.550924095315
 30
0.0
 11
10861.54639389831
 21
3819.550924095315
 31
0.0
  0
LINE
  5
13366
330
747D
100
AcDbEntity
  8
部品1
 48
50.0
100
AcDbLine
 10
10871.61714591087
 20
3821.119804345508
 30
0.0
 11
10895.39776035395
 21
3755.783103142377
 31
0.0
  0
LINE
  5
13367
330
747D
100
AcDbEntity
  8
部品1
 48
50.0
100
AcDbLine
 10
10849.07128640052
 20
3824.587956249132
 30
0.0
 11
10876.60390793823
 21
3748.942700275864
 31
0.0
  0
ARC
  5
13368
330
747D
100
AcDbEntity
  8
部品1
 48
50.0
100
AcDbCircle
 10
10861.58636193665
 20
3820.550125054037
 30
0.0
 40
10.0
100
AcDbArc
 50
177.7093899573658
 51
357.7093899573658
  0
LINE
  5
13369
330
747D
100
AcDbEntity
  8
部品1
 48
50.0
100
AcDbLine
 10
10872.61754052094
 20
3846.129669597314
 30
0.0
 11
10871.53840348553
 21
3819.151243711827
 31
0.0
  0
LINE
  5
1336A
330
747D
100
AcDbEntity
  8
部品1
 48
50.0
100
AcDbLine
 10
10852.63352134651
 20
3846.929030364292
 30
0.0
 11
10851.55438431109
 21
3819.950604478803
 31
0.0
  0
ARC
  5
1336B
330
747D
100
AcDbEntity
  8
部品1
 48
50.0
100
AcDbCircle
 10
10980.10354931135
 20
3852.060422000174
 30
0.0
 40
60.0
100
AcDbArc
 50
290.0
 51
359.9999999999994
  0
LINE
  5
1336C
330
747D
100
AcDbEntity
  8
部品1
 48
50.0
100
AcDbLine
 10
11000.62475791089
 20
3795.67886475302
 30
0.0
 11
10894.88473013896
 21
3757.192642073555
 31
0.0
  0
LINE
  5
1336D
330
747D
100
AcDbEntity
  8
部品1
 48
50.0
100
AcDbLine
 10
11040.10354931135
 20
3901.479809421552
 30
0.0
 11
11040.10354931135
 21
3852.060422000174
 31
0.0
  0
LINE
  5
1336E
330
747D
100
AcDbEntity
  8
部品1
 48
50.0
100
AcDbLine
 10
10980.10354931135
 20
3903.879809421553
 30
0.0
 11
10980.10354931135
 21
3852.060422000177
 31
0.0
  0
ARC
  5
1336F
330
747D
100
AcDbEntity
  8
部品1
 48
50.0
100
AcDbCircle
 10
10905.80484947529
 20
3854.810174041697
 30
0.0
 40
10.0
100
AcDbArc
 50
267.7093899573567
 51
342.8022431134351
  0
LINE
  5
13370
330
747D
100
AcDbEntity
  8
部品1
 48
50.0
100
AcDbLine
 10
10905.4051690918
 20
3844.818164454478
 30
0.0
 11
10883.10915058752
 21
3845.710005194651
 31
0.0
  0
LINE
  5
13371
330
747D
100
AcDbEntity
  8
部品1
 48
50.0
100
AcDbLine
 10
10930.13181681366
 20
3899.58738505313
 30
0.0
 11
10915.35774885805
 21
3851.853467532277
 31
0.0
  0
ARC
  5
13372
330
747D
100
AcDbEntity
  8
部品1
 48
50.0
100
AcDbCircle
 10
10925.35536712228
 20
3901.06573830784
 30
0.0
 40
5.0
100
AcDbArc
 50
342.8022431134356
 51
87.70938995736022
  0
LINE
  5
13373
330
747D
100
AcDbEntity
  8
部品1
 48
50.0
100
AcDbLine
 10
10842.14191127993
 20
3847.348694766956
 30
0.0
 11
10883.10915058752
 21
3845.710005194651
 31
0.0
  0
LINE
  5
13374
330
747D
100
AcDbEntity
  8
部品1
 48
50.0
100
AcDbLine
 10
10885.58716896515
 20
3907.660464635403
 30
0.0
 11
10883.10915058752
 21
3845.710005194651
 31
0.0
  0
LINE
  5
13375
330
747D
100
AcDbEntity
  8
部品1
 48
50.0
100
AcDbLine
 10
10844.61992965756
 20
3909.299154207707
 30
0.0
 11
10842.14191127993
 21
3847.348694766953
 31
0.0
  0
ARC
  5
13376
330
747D
100
AcDbEntity
  8
細線
 48
50.0
100
AcDbCircle
 10
11062.13099426782
 20
3935.126300592118
 30
0.0
 40
10.0
100
AcDbArc
 50
267.7093899573615
 51
341.1471589320593
  0
ARC
  5
13377
330
747D
100
AcDbEntity
  8
部品1
 48
50.0
100
AcDbCircle
 10
11071.79817976034
 20
3920.228017808709
 30
0.0
 40
20.0
100
AcDbArc
 50
267.7093899573605
 51
341.1471589320572
  0
DIMENSION
  5
13378
330
747D
100
AcDbEntity
  8
寸法
 48
50.0
100
AcDbDimension
  2
*D11
 10
11115.10354931135
 20
4906.270106075113
 30
0.0
 11
10115.10354931135
 21
4981.27896434283
 31
0.0
 12
-1084.06275056105
 22
-1260.916917799579
 32
0.0
 70
    32
 71
     5
 42
-1.0
  3
INABA_S30G
100
AcDbAlignedDimension
 13
9115.103549311355
 23
4066.450581124187
 33
0.0
 14
11115.10354931135
 24
3987.650581124186
 34
0.0
100
AcDbRotatedDimension
  0
LINE
  5
13379
330
747D
100
AcDbEntity
  8
細線
 48
50.0
100
AcDbLine
 10
9156.775684863001
 20
4048.370101137771
 30
0.0
 11
11071.63306907511
 21
3971.775805769289
 31
0.0
  0
LINE
  5
1337A
330
747D
100
AcDbEntity
  8
細線
 48
50.0
100
AcDbLine
 10
9161.803028986408
 20
4036.659811049896
 30
0.0
 11
11065.64257692503
 21
3960.506229132352
 31
0.0
  0
LINE
  5
1337B
330
747D
100
AcDbEntity
  8
細線
 48
50.0
100
AcDbLine
 10
9165.883812277188
 20
4012.477387392127
 30
0.0
 11
11059.33450574573
 21
3936.739359653382
 31
0.0
  0
LINE
  5
1337C
330
747D
100
AcDbEntity
  8
部品1
 48
50.0
100
AcDbLine
 10
9130.703069886589
 20
4081.438595505015
 30
0.0
 11
11100.70306988659
 21
4002.638595505014
 31
0.0
  0
LINE
  5
1337D
330
747D
100
AcDbEntity
  8
寸法
 48
50.0
100
AcDbLine
 10
9339.773694128174
 20
4053.222195217858
 30
0.0
 11
8853.628873029691
 21
4546.895830082074
 31
0.0
  0
TEXT
  5
1337E
330
747D
100
AcDbEntity
  8
部品1
 48
50.0
100
AcDbText
 10
8707.054610094289
 20
4538.278146323937
 30
0.0
 40
120.0
  1
⑤
  7
STYLE2
100
AcDbText
  0
ARC
  5
1337F
330
747D
100
AcDbEntity
  8
部品1
 48
50.0
100
AcDbCircle
 10
9304.452051116944
 20
3965.90187094803
 30
0.0
 40
5.0
100
AcDbArc
 50
87.70938995736711
 51
192.6165368012917
  0
ARC
  5
13380
330
747D
100
AcDbEntity
  8
細線
 48
50.0
100
AcDbCircle
 10
9162.856891760821
 20
4011.097264692398
 30
0.0
 40
10.0
100
AcDbArc
 50
193.36358004956
 51
267.7093899573615
  0
ARC
  5
13381
330
747D
100
AcDbEntity
  8
細線
 48
50.0
100
AcDbCircle
 10
9156.376004479513
 20
4038.378091550556
 30
0.0
 40
10.0
100
AcDbArc
 50
87.7093899573615
 51
193.3635800495596
  0
ARC
  5
13382
330
747D
100
AcDbEntity
  8
細線
 48
50.0
100
AcDbCircle
 10
9166.003716392236
 20
4015.474990268292
 30
0.0
 40
3.0
100
AcDbArc
 50
193.363580049562
 51
267.7093899573615
  0
ARC
  5
13383
330
747D
100
AcDbEntity
  8
細線
 48
50.0
100
AcDbCircle
 10
9161.683124871361
 20
4033.662208173729
 30
0.0
 40
3.0
100
AcDbArc
 50
87.70938995736145
 51
193.3635800495541
  0
LINE
  5
13384
330
747D
100
AcDbEntity
  8
細線
 48
50.0
100
AcDbLine
 10
9158.764355896023
 20
4032.968819632846
 30
0.0
 11
9163.084947416901
 21
4014.781601727407
 31
0.0
  0
LINE
  5
13385
330
747D
100
AcDbEntity
  8
細線
 48
50.0
100
AcDbLine
 10
9146.646774561734
 20
4036.06679641427
 30
0.0
 11
9153.127661843042
 21
4008.785969556113
 31
0.0
  0
LINE
  5
13386
330
747D
100
AcDbEntity
  8
部品1
 48
50.0
100
AcDbLine
 10
9178.664715905231
 20
4079.52012966427
 30
0.0
 11
9174.528023936121
 21
3976.102830436565
 31
0.0
  0
LINE
  5
13387
330
747D
100
AcDbEntity
  8
部品1
 48
50.0
100
AcDbLine
 10
9115.509704434687
 20
4062.983638419761
 30
0.0
 11
9132.275796622533
 21
3992.407984468231
 31
0.0
  0
ARC
  5
13388
330
747D
100
AcDbEntity
  8
部品1
 48
50.0
100
AcDbCircle
 10
9130.103549311355
 20
4066.450581124187
 30
0.0
 40
15.0
100
AcDbArc
 50
87.70938995736079
 51
193.3635800495583
  0
ARC
  5
13389
330
747D
100
AcDbEntity
  8
部品1
 48
50.0
100
AcDbCircle
 10
9151.734256458087
 20
3997.030574740799
 30
0.0
 40
20.0
100
AcDbArc
 50
193.3635800495578
 51
267.7093899573604
  0
ARC
  5
1338A
330
747D
100
AcDbEntity
  8
部品1
 48
50.0
100
AcDbCircle
 10
9854.431532927232
 20
3926.388697271166
 30
0.0
 40
20.0
100
AcDbArc
 50
40.06783950280725
 51
87.70938995736152
  0
ARC
  5
1338B
330
747D
100
AcDbEntity
  8
部品1
 48
50.0
100
AcDbCircle
 10
9755.72598307032
 20
3940.344916067999
 30
0.0
 40
10.0
100
AcDbArc
 50
87.70938995736148
 51
220.067839502807
  0
LINE
  5
1338C
330
747D
100
AcDbEntity
  8
部品1
 48
50.0
100
AcDbLine
 10
9756.125663453808
 20
3950.336925655216
 30
0.0
 11
9855.23089369421
 21
3946.372716445602
 31
0.0
  0
ARC
  5
1338D
330
747D
100
AcDbEntity
  8
細線
 48
50.0
100
AcDbCircle
 10
11059.45440986078
 20
3939.736962529547
 30
0.0
 40
3.0
100
AcDbArc
 50
267.7093899573614
 51
341.1471589320563
  0
ARC
  5
1338E
330
747D
100
AcDbEntity
  8
細線
 48
50.0
100
AcDbCircle
 10
11065.52267280998
 20
3957.508626256188
 30
0.0
 40
3.0
100
AcDbArc
 50
341.1471589320588
 51
87.70938995736148
  0
ARC
  5
1338F
330
747D
100
AcDbEntity
  8
細線
 48
50.0
100
AcDbCircle
 10
11071.23338869162
 20
3961.783796182072
 30
0.0
 40
10.0
100
AcDbArc
 50
341.1471589320582
 51
87.7093899573615
  0
LINE
  5
13390
330
747D
100
AcDbEntity
  8
細線
 48
50.0
100
AcDbLine
 10
11068.36172775349
 20
3956.53921043843
 30
0.0
 11
11062.29346480429
 21
3938.767546711792
 31
0.0
  0
ARC
  5
13391
330
747D
100
AcDbEntity
  8
部品1
 48
50.0
100
AcDbCircle
 10
11100.10354931135
 20
3987.650581124186
 30
0.0
 40
15.0
100
AcDbArc
 50
341.1471589320592
 51
87.70938995736051
  0
LINE
  5
13667
330
747D
100
AcDbEntity
  8
細線
 48
50.0
100
AcDbLine
 10
4160.077177189363
 20
1830.562576328022
 30
0.0
 11
4210.077177189363
 21
1880.562576328022
 31
0.0
  0
LINE
  5
13668
330
747D
100
AcDbEntity
  8
細線
 48
50.0
100
AcDbLine
 10
4187.01795718936
 20
1830.562576328022
 30
0.0
 11
4237.017957189361
 21
1880.562576328022
 31
0.0
  0
LINE
  5
13669
330
747D
100
AcDbEntity
  8
細線
 48
50.0
100
AcDbLine
 10
4213.95873718936
 20
1830.562576328022
 30
0.0
 11
4263.958737189361
 21
1880.562576328022
 31
0.0
  0
LINE
  5
13676
330
747D
100
AcDbEntity
  8
細線
 48
50.0
100
AcDbLine
 10
2866.920295755406
 20
1830.562576328022
 30
0.0
 11
2916.920295755407
 21
1880.562576328022
 31
0.0
  0
LINE
  5
13677
330
747D
100
AcDbEntity
  8
細線
 48
50.0
100
AcDbLine
 10
2893.861075755403
 20
1830.562576328022
 30
0.0
 11
2943.861075755404
 21
1880.562576328022
 31
0.0
  0
LINE
  5
13678
330
747D
100
AcDbEntity
  8
細線
 48
50.0
100
AcDbLine
 10
2920.801855755404
 20
1830.562576328022
 30
0.0
 11
2970.801855755404
 21
1880.562576328022
 31
0.0
  0
LINE
  5
13A2F
330
747D
100
AcDbEntity
  8
部品1
 48
50.0
100
AcDbLine
 10
7257.426034866594
 20
7921.447238448381
 30
0.0
 11
1127.426034866594
 21
7921.447238448378
 31
0.0
  0
LINE
  5
13A35
330
747D
100
AcDbEntity
  8
部品1
 48
50.0
100
AcDbLine
 10
1175.426034866594
 20
7817.947238448384
 30
0.0
 11
7209.426034866595
 21
7817.947238448386
 31
0.0
  0
LINE
  5
13A36
330
747D
100
AcDbEntity
  8
点線
 48
50.0
100
AcDbLine
 10
3870.35624782475
 20
7713.947238448381
 30
0.0
 11
7233.426034866595
 21
7713.947238448387
 31
0.0
  0
LINE
  5
13A37
330
747D
100
AcDbEntity
  8
点線
 48
50.0
100
AcDbLine
 10
3887.772945332772
 20
7648.94723844838
 30
0.0
 11
7233.426034866595
 21
7648.947238448385
 31
0.0
  0
LINE
  5
13A38
330
747D
100
AcDbEntity
  8
点線
 48
50.0
100
AcDbLine
 10
4097.135249661103
 20
6898.947238448385
 30
0.0
 11
7233.426034866596
 21
6898.947238448386
 31
0.0
  0
LINE
  5
13A39
330
747D
100
AcDbEntity
  8
点線
 48
50.0
100
AcDbLine
 10
4053.450304905158
 20
6963.947238448381
 30
0.0
 11
7233.426034866593
 21
6963.947238448385
 31
0.0
  0
LINE
  5
13A3A
330
747D
100
AcDbEntity
  8
点線
 48
50.0
100
AcDbLine
 10
4272.280036471434
 20
6213.947238448388
 30
0.0
 11
7233.426034866593
 21
6213.947238448385
 31
0.0
  0
LINE
  5
13A3B
330
747D
100
AcDbEntity
  8
点線
 48
50.0
100
AcDbLine
 10
4289.696733979456
 20
6148.947238448385
 30
0.0
 11
7233.426034866593
 21
6148.947238448386
 31
0.0
  0
LINE
  5
13A3C
330
747D
100
AcDbEntity
  8
部品1
 48
50.0
100
AcDbLine
 10
1175.426034866594
 20
6014.947238448384
 30
0.0
 11
7209.426034866595
 21
6014.947238448385
 31
0.0
  0
LINE
  5
13A3D
330
747D
100
AcDbEntity
  8
部品1
 48
50.0
100
AcDbLine
 10
1127.426034866594
 20
5921.447238448384
 30
0.0
 11
7257.426034866594
 21
5921.447238448382
 31
0.0
  0
TEXT
  5
13A3E
330
747D
100
AcDbEntity
  8
部品1
 48
50.0
100
AcDbText
 10
5721.929543883143
 20
5420.423537286386
 30
0.0
 40
120.0
  1
⑦
  7
STYLE2
100
AcDbText
  0
LINE
  5
13A3F
330
747D
100
AcDbEntity
  8
部品1
 48
50.0
100
AcDbLine
 10
4089.860281194577
 20
6894.747033445888
 30
0.0
 11
4390.847554122205
 21
5771.447238448381
 31
0.0
  0
LINE
  5
13A54
330
747D
100
AcDbEntity
  8
部品1
 48
50.0
100
AcDbLine
 10
1332.426034866594
 20
6898.947238448385
 30
0.0
 11
1332.426034866594
 21
6213.947238448384
 31
0.0
  0
LINE
  5
13A55
330
747D
100
AcDbEntity
  8
部品1
 48
50.0
100
AcDbLine
 10
1392.426034866594
 20
6898.947238448385
 30
0.0
 11
1392.426034866594
 21
6213.947238448384
 31
0.0
  0
LINE
  5
13A56
330
747D
100
AcDbEntity
  8
部品1
 48
50.0
100
AcDbLine
 10
1197.426034866594
 20
7817.94723844838
 30
0.0
 11
1197.426034866594
 21
6014.947238448381
 31
0.0
  0
LINE
  5
13A5D
330
747D
100
AcDbEntity
  8
部品1
 48
50.0
100
AcDbLine
 10
1175.426034866594
 20
7921.447238448381
 30
0.0
 11
1175.426034866594
 21
5921.447238448384
 31
0.0
  0
LINE
  5
13A5E
330
747D
100
AcDbEntity
  8
部品1
 48
50.0
100
AcDbLine
 10
1112.426034866594
 20
7906.447238448381
 30
0.0
 11
1112.426034866594
 21
5936.44723844838
 31
0.0
  0
LINE
  5
13A5F
330
747D
100
AcDbEntity
  8
部品1
 48
50.0
100
AcDbLine
 10
1197.426034866594
 20
6148.947238448385
 30
0.0
 11
4289.696733979456
 21
6148.947238448385
 31
0.0
  0
LINE
  5
13A60
330
747D
100
AcDbEntity
  8
部品1
 48
50.0
100
AcDbLine
 10
1197.426034866594
 20
6213.947238448384
 30
0.0
 11
4272.28003647143
 21
6213.947238448384
 31
0.0
  0
LINE
  5
13A61
330
747D
100
AcDbEntity
  8
部品1
 48
50.0
100
AcDbLine
 10
1197.426034866594
 20
6193.947238448384
 30
0.0
 11
4277.639020320052
 21
6193.947238448384
 31
0.0
  0
ARC
  5
13A62
330
747D
100
AcDbEntity
  8
部品1
 48
50.0
100
AcDbCircle
 10
1127.426034866594
 20
5936.44723844838
 30
0.0
 40
15.0
100
AcDbArc
 50
180.0
 51
270.0
  0
LINE
  5
13A63
330
747D
100
AcDbEntity
  8
点線
 48
18.0
100
AcDbLine
 10
1151.426034866593
 20
6148.947238448385
 30
0.0
 11
1197.426034866594
 21
6148.947238448385
 31
0.0
  0
LINE
  5
13A64
330
747D
100
AcDbEntity
  8
点線
 48
18.0
100
AcDbLine
 10
1151.426034866593
 20
6213.947238448384
 30
0.0
 11
1197.426034866594
 21
6213.947238448384
 31
0.0
  0
LINE
  5
13A65
330
747D
100
AcDbEntity
  8
部品1
 48
50.0
100
AcDbLine
 10
1112.426034866594
 20
5984.447238448384
 30
0.0
 11
1175.426034866594
 21
5984.447238448384
 31
0.0
  0
ARC
  5
13A66
330
747D
100
AcDbEntity
  8
部品1
 48
50.0
100
AcDbCircle
 10
1384.426034866594
 20
6113.947238448381
 30
0.0
 40
10.0
100
AcDbArc
 50
270.0
 51
0.0
  0
ARC
  5
13A67
330
747D
100
AcDbEntity
  8
部品1
 48
50.0
100
AcDbCircle
 10
1340.426034866594
 20
6113.947238448385
 30
0.0
 40
10.0
100
AcDbArc
 50
180.0
 51
270.0
  0
LINE
  5
13A68
330
747D
100
AcDbEntity
  8
部品1
 48
50.0
100
AcDbLine
 10
1340.426034866594
 20
6103.947238448384
 30
0.0
 11
1384.426034866594
 21
6103.94723844838
 31
0.0
  0
LINE
  5
13A69
330
747D
100
AcDbEntity
  8
部品1
 48
50.0
100
AcDbLine
 10
1394.426034866594
 20
6148.947238448385
 30
0.0
 11
1394.426034866594
 21
6113.947238448381
 31
0.0
  0
LINE
  5
13A6A
330
747D
100
AcDbEntity
  8
部品1
 48
50.0
100
AcDbLine
 10
1330.426034866594
 20
6148.947238448385
 30
0.0
 11
1330.426034866594
 21
6113.947238448385
 31
0.0
  0
LINE
  5
13A6B
330
747D
100
AcDbEntity
  8
寸法
 48
50.0
100
AcDbLine
 10
1793.604743657599
 20
5509.815332044446
 30
0.0
 11
1969.888265684794
 21
5972.52945711185
 31
0.0
  0
TEXT
  5
13A6C
330
747D
100
AcDbEntity
  8
部品1
 48
50.0
100
AcDbText
 10
1661.866943801095
 20
5381.645491115685
 30
0.0
 40
120.0
  1
⑧
  7
STYLE2
100
AcDbText
  0
LINE
  5
13A6D
330
747D
100
AcDbEntity
  8
部品1
 48
50.0
100
AcDbLine
 10
4182.426034866598
 20
6014.947238448384
 30
0.0
 11
4182.426034866595
 21
5921.44723844838
 31
0.0
  0
LINE
  5
13A73
330
747D
100
AcDbEntity
  8
寸法
 48
50.0
100
AcDbLine
 10
5780.044404798037
 20
5557.550825791265
 30
0.0
 11
5518.268115321141
 21
6344.247697710415
 31
0.0
  0
LINE
  5
13A74
330
747D
100
AcDbEntity
  8
部品1
 48
50.0
100
AcDbLine
 10
1197.426034866594
 20
6898.947238448385
 30
0.0
 11
4097.135249661103
 21
6898.947238448385
 31
0.0
  0
LINE
  5
13A75
330
747D
100
AcDbEntity
  8
部品1
 48
50.0
100
AcDbLine
 10
1197.426034866594
 20
6963.947238448381
 30
0.0
 11
4053.450304905158
 21
6963.947238448383
 31
0.0
  0
LINE
  5
13A76
330
747D
100
AcDbEntity
  8
部品1
 48
50.0
100
AcDbLine
 10
1197.426034866594
 20
7648.947238448385
 30
0.0
 11
3887.772945332772
 21
7648.947238448387
 31
0.0
  0
LINE
  5
13A77
330
747D
100
AcDbEntity
  8
部品1
 48
50.0
100
AcDbLine
 10
1197.426034866594
 20
7713.947238448383
 30
0.0
 11
3870.35624782475
 21
7713.947238448383
 31
0.0
  0
LINE
  5
13A78
330
747D
100
AcDbEntity
  8
部品1
 48
50.0
100
AcDbLine
 10
1197.426034866594
 20
7693.947238448385
 30
0.0
 11
3875.715231673369
 21
7693.947238448385
 31
0.0
  0
LINE
  5
13A79
330
747D
100
AcDbEntity
  8
部品1
 48
50.0
100
AcDbLine
 10
1197.426034866594
 20
6943.94723844838
 30
0.0
 11
4018.809288753781
 21
6943.947238448385
 31
0.0
  0
TEXT
  5
13A92
330
747D
100
AcDbEntity
  8
部品1
 48
50.0
100
AcDbText
 10
501.4207259877403
 20
7518.398786710577
 30
0.0
 40
120.0
  1
③
  7
STYLE2
100
AcDbText
  0
LINE
  5
13A93
330
747D
100
AcDbEntity
  8
寸法
 48
50.0
100
AcDbLine
 10
652.2685374274397
 20
7531.123166211596
 30
0.0
 11
1363.076011341496
 21
7140.723527947156
 31
0.0
  0
LINE
  5
13A94
330
747D
100
AcDbEntity
  8
部品1
 48
50.0
100
AcDbLine
 10
1392.426034866594
 20
7648.947238448385
 30
0.0
 11
1392.426034866594
 21
6963.947238448381
 31
0.0
  0
LINE
  5
13A95
330
747D
100
AcDbEntity
  8
部品1
 48
50.0
100
AcDbLine
 10
1332.426034866594
 20
7648.947238448385
 30
0.0
 11
1332.426034866594
 21
6963.947238448381
 31
0.0
  0
LINE
  5
13A96
330
747D
100
AcDbEntity
  8
点線
 48
18.0
100
AcDbLine
 10
1151.426034866593
 20
6963.947238448381
 30
0.0
 11
1197.426034866594
 21
6963.947238448381
 31
0.0
  0
LINE
  5
13A97
330
747D
100
AcDbEntity
  8
点線
 48
18.0
100
AcDbLine
 10
1151.426034866593
 20
6898.947238448385
 30
0.0
 11
1197.426034866594
 21
6898.947238448385
 31
0.0
  0
LINE
  5
13A98
330
747D
100
AcDbEntity
  8
点線
 48
18.0
100
AcDbLine
 10
1151.426034866594
 20
7648.947238448383
 30
0.0
 11
1197.426034866594
 21
7648.947238448385
 31
0.0
  0
LINE
  5
13A99
330
747D
100
AcDbEntity
  8
点線
 48
18.0
100
AcDbLine
 10
1151.426034866594
 20
7713.947238448383
 30
0.0
 11
1197.426034866594
 21
7713.947238448383
 31
0.0
  0
ARC
  5
13A9A
330
747D
100
AcDbEntity
  8
部品1
 48
50.0
100
AcDbCircle
 10
1384.426034866594
 20
7728.947238448384
 30
0.0
 40
10.0
100
AcDbArc
 50
0.0
 51
90.0
  0
ARC
  5
13A9B
330
747D
100
AcDbEntity
  8
部品1
 48
50.0
100
AcDbCircle
 10
1340.426034866594
 20
7728.947238448384
 30
0.0
 40
10.0
100
AcDbArc
 50
90.0
 51
180.0000000000005
  0
LINE
  5
13A9C
330
747D
100
AcDbEntity
  8
部品1
 48
50.0
100
AcDbLine
 10
1340.426034866594
 20
7738.947238448384
 30
0.0
 11
1384.426034866594
 21
7738.947238448384
 31
0.0
  0
LINE
  5
13A9D
330
747D
100
AcDbEntity
  8
部品1
 48
50.0
100
AcDbLine
 10
1394.426034866594
 20
7728.947238448384
 30
0.0
 11
1394.426034866594
 21
7713.947238448383
 31
0.0
  0
LINE
  5
13A9E
330
747D
100
AcDbEntity
  8
部品1
 48
50.0
100
AcDbLine
 10
1330.426034866594
 20
7728.947238448384
 30
0.0
 11
1330.426034866594
 21
7713.947238448383
 31
0.0
  0
ARC
  5
13AA1
330
747D
100
AcDbEntity
  8
部品1
 48
50.0
100
AcDbCircle
 10
1127.426034866594
 20
7906.447238448381
 30
0.0
 40
15.0
100
AcDbArc
 50
90.00000000000003
 51
180.0
  0
LINE
  5
13AA2
330
747D
100
AcDbEntity
  8
部品1
 48
50.0
100
AcDbLine
 10
1112.426034866594
 20
7858.447238448381
 30
0.0
 11
1175.426034866594
 21
7858.447238448381
 31
0.0
  0
TEXT
  5
13AA8
330
747D
100
AcDbEntity
  8
部品1
 48
50.0
100
AcDbText
 10
500.8241870668761
 20
6713.851766187021
 30
0.0
 40
120.0
  1
④
  7
STYLE2
100
AcDbText
  0
LINE
  5
13AA9
330
747D
100
AcDbEntity
  8
寸法
 48
50.0
100
AcDbLine
 10
666.6548000981365
 20
6792.785857648188
 30
0.0
 11
1257.677817495585
 21
6916.435141097877
 31
0.0
  0
LINE
  5
13AD9
330
747D
100
AcDbEntity
  8
部品1
 48
50.0
100
AcDbLine
 10
3774.564411530623
 20
8071.447238448381
 30
0.0
 11
4068.924305868224
 21
6972.881157069853
 31
0.0
  0
LINE
  5
13ADA
330
747D
100
AcDbEntity
  8
部品1
 48
50.0
100
AcDbLine
 10
4025.926034866595
 20
7817.947238448384
 30
0.0
 11
4025.926034866595
 21
7133.352889085545
 31
0.0
  0
LINE
  5
13ADB
330
747D
100
AcDbEntity
  8
部品1
 48
50.0
100
AcDbLine
 10
4048.926034866594
 20
7817.947238448384
 30
0.0
 11
4048.926034866594
 21
7047.515720511459
 31
0.0
  0
LINE
  5
13ADC
330
747D
100
AcDbEntity
  8
部品1
 48
50.0
100
AcDbLine
 10
4048.926034866594
 20
6961.335149923731
 30
0.0
 11
4048.926034866594
 21
6918.990476159923
 31
0.0
  0
LINE
  5
13ADD
330
747D
100
AcDbEntity
  8
部品1
 48
50.0
100
AcDbLine
 10
4025.926034866595
 20
6948.056093732367
 30
0.0
 11
4025.926034866595
 21
6918.990476159923
 31
0.0
  0
LINE
  5
13ADE
330
747D
100
AcDbEntity
  8
部品1
 48
50.0
100
AcDbLine
 10
4131.851155725663
 20
6918.990476159921
 30
0.0
 11
4089.860281194577
 21
6894.747033445892
 31
0.0
  0
LINE
  5
13ADF
330
747D
100
AcDbEntity
  8
部品1
 48
50.0
100
AcDbLine
 10
3975.58290847775
 20
6918.990476159921
 30
0.0
 11
4131.851155725663
 21
6918.990476159921
 31
0.0
  0
LINE
  5
13AE0
330
747D
100
AcDbEntity
  8
部品1
 48
50.0
100
AcDbLine
 10
3975.582908477746
 20
6918.990476159923
 30
0.0
 11
4068.924305868224
 21
6972.881157069853
 31
0.0
  0
LINE
  5
13AEC
330
747D
100
AcDbEntity
  8
部品1
 48
50.0
100
AcDbLine
 10
4202.426034866598
 20
7817.947238448384
 30
0.0
 11
4202.426034866594
 21
7921.447238448388
 31
0.0
  0
TEXT
  5
13B3D
330
747D
100
AcDbEntity
  8
部品1
 48
50.0
100
AcDbText
 10
4646.253703670025
 20
5423.345443396547
 30
0.0
 40
120.0
  1
⑥
  7
STYLE2
100
AcDbText
  0
LINE
  5
13B3E
330
747D
100
AcDbEntity
  8
寸法
 48
50.0
100
AcDbLine
 10
4297.190818075951
 20
6321.110940589605
 30
0.0
 11
4696.416302384156
 21
5555.187647854363
 31
0.0
  0
LWPOLYLINE
  5
13C02
330
747D
100
AcDbEntity
  8
部品1
100
AcDbPolyline
 90
        4
 70
     1
 43
0.0
 10
3831.234679632414
 20
5569.236416622199
 10
4478.266054912938
 20
5569.236416622199
 10
4478.266054912938
 20
5376.71626080506
 10
3831.234679632414
 20
5376.71626080506
  0
TEXT
  5
13C03
330
747D
100
AcDbEntity
  8
仕様書枠
 62
     7
 48
50.0
100
AcDbText
 10
3862.649756393942
 20
5415.371692272017
 30
0.0
 40
112.0
  1
平 面 図
  7
STYLE2
100
AcDbText
  0
LINE
  5
13CB1
330
747D
100
AcDbEntity
  8
部品1
 48
50.0
100
AcDbLine
 10
4335.926034866594
 20
7817.947238448384
 30
0.0
 11
4335.926034866594
 21
6014.947238448384
 31
0.0
  0
LINE
  5
13CB4
330
747D
100
AcDbEntity
  8
部品1
 48
50.0
100
AcDbLine
 10
4222.426034866595
 20
7817.947238448384
 30
0.0
 11
4222.426034866595
 21
6213.947238448384
 31
0.0
  0
LINE
  5
13CB5
330
747D
100
AcDbEntity
  8
部品1
 48
50.0
100
AcDbLine
 10
4162.426034866594
 20
7817.947238448384
 30
0.0
 11
4162.426034866594
 21
6213.947238448384
 31
0.0
  0
LINE
  5
13CB7
330
747D
100
AcDbEntity
  8
部品1
 48
50.0
100
AcDbLine
 10
4358.926034866595
 20
7817.947238448384
 30
0.0
 11
4358.926034866595
 21
6014.947238448384
 31
0.0
  0
LINE
  5
13CE3
330
747D
100
AcDbEntity
  8
部品1
 48
50.0
100
AcDbLine
 10
4625.426034866594
 20
7817.947238448384
 30
0.0
 11
4625.426034866594
 21
6014.947238448384
 31
0.0
  0
LINE
  5
13CE4
330
747D
100
AcDbEntity
  8
部品1
 48
50.0
100
AcDbLine
 10
4580.426034866595
 20
7817.947238448384
 30
0.0
 11
4580.426034866595
 21
6014.947238448384
 31
0.0
  0
LINE
  5
13CE5
330
747D
100
AcDbEntity
  8
部品1
 48
50.0
100
AcDbLine
 10
4507.426034866595
 20
7817.947238448384
 30
0.0
 11
4507.426034866595
 21
6014.947238448384
 31
0.0
  0
LINE
  5
13CE6
330
747D
100
AcDbEntity
  8
部品1
 48
50.0
100
AcDbLine
 10
4552.426034866594
 20
7817.947238448384
 30
0.0
 11
4552.426034866594
 21
6014.947238448384
 31
0.0
  0
LINE
  5
13CE7
330
747D
100
AcDbEntity
  8
部品1
 48
50.0
100
AcDbLine
 10
4755.926034866595
 20
7817.947238448384
 30
0.0
 11
4755.926034866595
 21
6014.947238448384
 31
0.0
  0
ARC
  5
13CEF
330
747D
100
AcDbEntity
  8
部品1
 48
50.0
100
AcDbCircle
 10
4214.426034866595
 20
6113.947238448385
 30
0.0
 40
10.0
100
AcDbArc
 50
270.0
 51
0.0000000000000254
  0
ARC
  5
13CF0
330
747D
100
AcDbEntity
  8
部品1
 48
50.0
100
AcDbCircle
 10
4170.426034866594
 20
6113.947238448385
 30
0.0
 40
10.0
100
AcDbArc
 50
180.0
 51
270.0
  0
LINE
  5
13CF1
330
747D
100
AcDbEntity
  8
部品1
 48
50.0
100
AcDbLine
 10
4224.426034866595
 20
6148.947238448385
 30
0.0
 11
4224.426034866595
 21
6113.947238448385
 31
0.0
  0
LINE
  5
13CF2
330
747D
100
AcDbEntity
  8
部品1
 48
50.0
100
AcDbLine
 10
4160.426034866595
 20
6148.947238448385
 30
0.0
 11
4160.426034866595
 21
6113.947238448385
 31
0.0
  0
LINE
  5
13CF3
330
747D
100
AcDbEntity
  8
部品1
 48
50.0
100
AcDbLine
 10
4170.426034866594
 20
6103.947238448384
 30
0.0
 11
4214.426034866595
 21
6103.947238448384
 31
0.0
  0
ARC
  5
13D4A
330
747D
100
AcDbEntity
  8
点線
 48
50.0
100
AcDbCircle
 10
4214.426034866595
 20
7728.947238448384
 30
0.0
 40
10.0
100
AcDbArc
 50
0.0
 51
90.0
  0
ARC
  5
13D4B
330
747D
100
AcDbEntity
  8
点線
 48
50.0
100
AcDbCircle
 10
4170.426034866594
 20
7728.947238448384
 30
0.0
 40
10.0
100
AcDbArc
 50
90.0
 51
180.0
  0
LINE
  5
13D4C
330
747D
100
AcDbEntity
  8
点線
 48
50.0
100
AcDbLine
 10
4224.426034866595
 20
7728.947238448384
 30
0.0
 11
4224.426034866595
 21
7713.947238448383
 31
0.0
  0
LINE
  5
13D4D
330
747D
100
AcDbEntity
  8
点線
 48
50.0
100
AcDbLine
 10
4160.426034866595
 20
7728.947238448384
 30
0.0
 11
4160.426034866595
 21
7713.947238448383
 31
0.0
  0
LINE
  5
13D4E
330
747D
100
AcDbEntity
  8
点線
 48
50.0
100
AcDbLine
 10
4170.426034866594
 20
7738.947238448384
 30
0.0
 11
4214.426034866595
 21
7738.947238448384
 31
0.0
  0
DIMENSION
  5
13D64
330
747D
100
AcDbEntity
  8
寸法
 48
50.0
100
AcDbDimension
  2
*D12
 10
7895.915569391476
 20
5921.447238448382
 30
0.0
 11
7895.915569391475
 21
6921.447238448381
 31
0.0
 70
   160
 71
     5
 42
2000.000000000003
  3
INABA_S30G
100
AcDbAlignedDimension
 13
7257.426034866594
 23
7921.447238448386
 33
0.0
 14
7257.426034866594
 24
5921.447238448382
 34
0.0
 50
90.0
100
AcDbRotatedDimension
  0
LINE
  5
13D65
330
747D
100
AcDbEntity
  8
点線
 48
50.0
100
AcDbLine
 10
6992.426034866595
 20
6898.947238448385
 30
0.0
 11
6992.426034866595
 21
6213.947238448389
 31
0.0
  0
LINE
  5
13D66
330
747D
100
AcDbEntity
  8
点線
 48
50.0
100
AcDbLine
 10
7052.426034866595
 20
6898.947238448385
 30
0.0
 11
7052.426034866595
 21
6213.947238448389
 31
0.0
  0
LINE
  5
13D67
330
747D
100
AcDbEntity
  8
部品1
 48
50.0
100
AcDbLine
 10
4972.426034866595
 20
7817.947238448384
 30
0.0
 11
4972.426034866595
 21
6014.947238448384
 31
0.0
  0
LINE
  5
13D68
330
747D
100
AcDbEntity
  8
部品1
 48
50.0
100
AcDbLine
 10
4927.426034866595
 20
7817.947238448384
 30
0.0
 11
4927.426034866595
 21
6014.947238448384
 31
0.0
  0
LINE
  5
13D69
330
747D
100
AcDbEntity
  8
部品1
 48
50.0
100
AcDbLine
 10
5000.426034866595
 20
7817.947238448384
 30
0.0
 11
5000.426034866595
 21
6014.947238448384
 31
0.0
  0
LINE
  5
13D6A
330
747D
100
AcDbEntity
  8
部品1
 48
50.0
100
AcDbLine
 10
5045.426034866594
 20
7817.947238448384
 30
0.0
 11
5045.426034866594
 21
6014.947238448384
 31
0.0
  0
LINE
  5
13D6B
330
747D
100
AcDbEntity
  8
部品1
 48
50.0
100
AcDbLine
 10
5392.426034866595
 20
7817.947238448384
 30
0.0
 11
5392.426034866595
 21
6014.947238448384
 31
0.0
  0
LINE
  5
13D6C
330
747D
100
AcDbEntity
  8
部品1
 48
50.0
100
AcDbLine
 10
5347.426034866595
 20
7817.947238448384
 30
0.0
 11
5347.426034866595
 21
6014.947238448384
 31
0.0
  0
LINE
  5
13D6D
330
747D
100
AcDbEntity
  8
部品1
 48
50.0
100
AcDbLine
 10
5420.426034866594
 20
7817.947238448384
 30
0.0
 11
5420.426034866594
 21
6014.947238448384
 31
0.0
  0
LINE
  5
13D6E
330
747D
100
AcDbEntity
  8
部品1
 48
50.0
100
AcDbLine
 10
5465.426034866595
 20
7817.947238448384
 30
0.0
 11
5465.426034866595
 21
6014.947238448384
 31
0.0
  0
LINE
  5
13D6F
330
747D
100
AcDbEntity
  8
部品1
 48
50.0
100
AcDbLine
 10
6965.426034866594
 20
7817.947238448386
 30
0.0
 11
6965.426034866594
 21
6014.947238448385
 31
0.0
  0
LINE
  5
13D70
330
747D
100
AcDbEntity
  8
部品1
 48
50.0
100
AcDbLine
 10
6892.426034866595
 20
7817.947238448386
 30
0.0
 11
6892.426034866595
 21
6014.947238448385
 31
0.0
  0
LINE
  5
13D71
330
747D
100
AcDbEntity
  8
部品1
 48
50.0
100
AcDbLine
 10
6312.426034866595
 20
7817.947238448386
 30
0.0
 11
6312.426034866595
 21
6014.947238448385
 31
0.0
  0
LINE
  5
13D72
330
747D
100
AcDbEntity
  8
部品1
 48
50.0
100
AcDbLine
 10
6385.426034866595
 20
7817.947238448386
 30
0.0
 11
6385.426034866595
 21
6014.947238448385
 31
0.0
  0
LINE
  5
13D73
330
747D
100
AcDbEntity
  8
部品1
 48
50.0
100
AcDbLine
 10
6847.426034866595
 20
7817.947238448386
 30
0.0
 11
6847.426034866595
 21
6014.947238448385
 31
0.0
  0
LINE
  5
13D74
330
747D
100
AcDbEntity
  8
部品1
 48
50.0
100
AcDbLine
 10
6267.426034866595
 20
7817.947238448386
 30
0.0
 11
6267.426034866595
 21
6014.947238448385
 31
0.0
  0
LINE
  5
13D75
330
747D
100
AcDbEntity
  8
部品1
 48
50.0
100
AcDbLine
 10
6920.426034866595
 20
7817.947238448386
 30
0.0
 11
6920.426034866595
 21
6014.947238448385
 31
0.0
  0
LINE
  5
13D76
330
747D
100
AcDbEntity
  8
部品1
 48
50.0
100
AcDbLine
 10
6340.426034866595
 20
7817.947238448386
 30
0.0
 11
6340.426034866595
 21
6014.947238448385
 31
0.0
  0
LINE
  5
13D77
330
747D
100
AcDbEntity
  8
部品1
 48
50.0
100
AcDbLine
 10
7175.926034866595
 20
7817.947238448386
 30
0.0
 11
7175.926034866595
 21
6014.947238448385
 31
0.0
  0
LINE
  5
13D78
330
747D
100
AcDbEntity
  8
部品1
 48
50.0
100
AcDbLine
 10
6595.926034866595
 20
7817.947238448386
 30
0.0
 11
6595.926034866595
 21
6014.947238448385
 31
0.0
  0
LINE
  5
13D79
330
747D
100
AcDbEntity
  8
部品1
 48
50.0
100
AcDbLine
 10
6015.926034866595
 20
7817.947238448386
 30
0.0
 11
6015.926034866595
 21
6014.947238448385
 31
0.0
  0
LINE
  5
13D7A
330
747D
100
AcDbEntity
  8
部品1
 48
50.0
100
AcDbLine
 10
5175.926034866595
 20
7817.947238448384
 30
0.0
 11
5175.926034866595
 21
6014.947238448384
 31
0.0
  0
LINE
  5
13D7B
330
747D
100
AcDbEntity
  8
部品1
 48
50.0
100
AcDbLine
 10
7198.926034866595
 20
7817.947238448386
 30
0.0
 11
7198.926034866595
 21
6014.947238448385
 31
0.0
  0
LINE
  5
13D7C
330
747D
100
AcDbEntity
  8
部品1
 48
50.0
100
AcDbLine
 10
6618.926034866595
 20
7817.947238448386
 30
0.0
 11
6618.926034866595
 21
6014.947238448385
 31
0.0
  0
LINE
  5
13D7D
330
747D
100
AcDbEntity
  8
部品1
 48
50.0
100
AcDbLine
 10
6038.926034866594
 20
7817.947238448386
 30
0.0
 11
6038.926034866594
 21
6014.947238448385
 31
0.0
  0
LINE
  5
13D7E
330
747D
100
AcDbEntity
  8
部品1
 48
50.0
100
AcDbLine
 10
5198.926034866595
 20
7817.947238448384
 30
0.0
 11
5198.926034866595
 21
6014.947238448384
 31
0.0
  0
LINE
  5
13D7F
330
747D
100
AcDbEntity
  8
部品1
 48
50.0
100
AcDbLine
 10
4778.926034866595
 20
7817.947238448384
 30
0.0
 11
4778.926034866595
 21
6014.947238448384
 31
0.0
  0
LINE
  5
13D80
330
747D
100
AcDbEntity
  8
部品1
 48
50.0
100
AcDbLine
 10
7209.426034866595
 20
7921.447238448381
 30
0.0
 11
7209.426034866595
 21
5921.447238448386
 31
0.0
  0
LINE
  5
13D81
330
747D
100
AcDbEntity
  8
部品1
 48
50.0
100
AcDbLine
 10
7272.426034866595
 20
7906.447238448385
 30
0.0
 11
7272.426034866595
 21
5936.447238448382
 31
0.0
  0
ARC
  5
13D82
330
747D
100
AcDbEntity
  8
点線
 48
50.0
100
AcDbCircle
 10
7044.426034866595
 20
6113.947238448389
 30
0.0
 40
10.0
100
AcDbArc
 50
270.0000000000009
 51
0.0
  0
ARC
  5
13D83
330
747D
100
AcDbEntity
  8
点線
 48
50.0
100
AcDbCircle
 10
7000.426034866595
 20
6113.947238448385
 30
0.0
 40
10.0
100
AcDbArc
 50
180.0
 51
270.0000000000008
  0
LINE
  5
13D84
330
747D
100
AcDbEntity
  8
点線
 48
50.0
100
AcDbLine
 10
7000.426034866595
 20
6103.947238448385
 30
0.0
 11
7044.426034866595
 21
6103.947238448388
 31
0.0
  0
LINE
  5
13D85
330
747D
100
AcDbEntity
  8
点線
 48
50.0
100
AcDbLine
 10
6990.426034866594
 20
6148.947238448389
 30
0.0
 11
6990.426034866594
 21
6113.947238448385
 31
0.0
  0
LINE
  5
13D86
330
747D
100
AcDbEntity
  8
点線
 48
50.0
100
AcDbLine
 10
7054.426034866594
 20
6148.947238448389
 30
0.0
 11
7054.426034866594
 21
6113.947238448389
 31
0.0
  0
ARC
  5
13D87
330
747D
100
AcDbEntity
  8
部品1
 48
50.0
100
AcDbCircle
 10
7257.426034866594
 20
5936.447238448382
 30
0.0
 40
15.0
100
AcDbArc
 50
270.0
 51
0.0
  0
LINE
  5
13D88
330
747D
100
AcDbEntity
  8
部品1
 48
50.0
100
AcDbLine
 10
7209.426034866595
 20
5984.447238448385
 30
0.0
 11
7272.426034866595
 21
5984.447238448385
 31
0.0
  0
LINE
  5
13D8F
330
747D
100
AcDbEntity
  8
点線
 48
50.0
100
AcDbLine
 10
6992.426034866595
 20
7648.947238448385
 30
0.0
 11
6992.426034866595
 21
6963.947238448385
 31
0.0
  0
LINE
  5
13D90
330
747D
100
AcDbEntity
  8
点線
 48
50.0
100
AcDbLine
 10
7052.426034866595
 20
7648.947238448385
 30
0.0
 11
7052.426034866595
 21
6963.947238448385
 31
0.0
  0
ARC
  5
13D91
330
747D
100
AcDbEntity
  8
点線
 48
50.0
100
AcDbCircle
 10
7044.426034866595
 20
7728.947238448386
 30
0.0
 40
10.0
100
AcDbArc
 50
0.0
 51
90.0
  0
ARC
  5
13D92
330
747D
100
AcDbEntity
  8
点線
 48
50.0
100
AcDbCircle
 10
7000.426034866595
 20
7728.947238448386
 30
0.0
 40
10.0
100
AcDbArc
 50
90.0
 51
180.0
  0
LINE
  5
13D93
330
747D
100
AcDbEntity
  8
点線
 48
50.0
100
AcDbLine
 10
7000.426034866595
 20
7738.947238448385
 30
0.0
 11
7044.426034866595
 21
7738.947238448385
 31
0.0
  0
LINE
  5
13D94
330
747D
100
AcDbEntity
  8
点線
 48
50.0
100
AcDbLine
 10
7054.426034866594
 20
7728.947238448386
 30
0.0
 11
7054.426034866594
 21
7713.947238448385
 31
0.0
  0
LINE
  5
13D95
330
747D
100
AcDbEntity
  8
点線
 48
50.0
100
AcDbLine
 10
6990.426034866594
 20
7728.947238448386
 30
0.0
 11
6990.426034866594
 21
7713.947238448385
 31
0.0
  0
ARC
  5
13D9F
330
747D
100
AcDbEntity
  8
部品1
 48
50.0
100
AcDbCircle
 10
7257.426034866594
 20
7906.447238448385
 30
0.0
 40
15.0
100
AcDbArc
 50
0.0
 51
90.0
  0
LINE
  5
13DA0
330
747D
100
AcDbEntity
  8
部品1
 48
50.0
100
AcDbLine
 10
7209.426034866595
 20
7858.447238448386
 30
0.0
 11
7272.426034866595
 21
7858.447238448386
 31
0.0
  0
DIMENSION
  5
13E7E
330
747D
100
AcDbEntity
  8
寸法
 48
50.0
100
AcDbDimension
  2
*D13
 10
8507.228440851003
 20
1880.562576328022
 30
0.0
 11
8507.228440851003
 21
2981.312576328022
 31
0.0
 70
   160
 71
     5
 42
-1.0
  3
INABA_S30G
100
AcDbAlignedDimension
 13
9115.103549311355
 23
4082.062576328023
 33
0.0
 14
9115.103549311355
 24
1880.562576328022
 34
0.0
 50
90.0
100
AcDbRotatedDimension
  0
DIMENSION
  5
13E98
330
747D
100
AcDbEntity
  8
寸法
 48
50.0
100
AcDbDimension
  2
*D14
 10
11490.74100178595
 20
4002.650581124185
 30
0.0
 11
11490.74100178595
 21
2991.672581441367
 31
0.0
 70
   160
  1
2121.5
 71
     5
 42
-1.0
  3
INABA_S30G
100
AcDbAlignedDimension
 13
11399.64429244082
 23
1880.562576328022
 33
0.0
 14
11115.10354931135
 24
4002.650581124186
 34
0.0
 50
90.0
100
AcDbRotatedDimension
  0
DIMENSION
  5
13EE7
330
747D
100
AcDbEntity
  8
寸法
 48
50.0
100
AcDbDimension
  2
*D15
 10
8507.228440851003
 20
1880.562576328022
 30
0.0
 11
8507.228440851003
 21
1601.027143257156
 31
0.0
 70
   160
 71
     5
 42
-1.0
  3
INABA_S30G
100
AcDbAlignedDimension
 13
9115.103549311355
 23
1830.562576328022
 33
0.0
 14
10075.10354931135
 24
1880.562576328022
 34
0.0
 50
90.0
100
AcDbRotatedDimension
  0
DIMENSION
  5
13F13
330
747D
100
AcDbEntity
  8
寸法
 48
50.0
100
AcDbDimension
  2
*D16
 10
11490.74100178595
 20
1830.562576328022
 30
0.0
 11
11490.74100178595
 21
1601.027143257156
 31
0.0
 70
   160
 71
     5
 42
-1.0
  3
INABA_S30G
100
AcDbAlignedDimension
 13
10155.10354931133
 23
1880.562576328022
 33
0.0
 14
11115.10354931135
 24
1830.562576328022
 34
0.0
 50
90.0
100
AcDbRotatedDimension
  0
LINE
  5
143B1
330
747D
100
AcDbEntity
  8
部品1
 48
50.0
100
AcDbLine
 10
4160.737050907317
 20
3969.969012140659
 30
0.0
 11
1394.115018825868
 21
3969.969012140657
 31
0.0
  0
LINE
  5
143B3
330
747D
100
AcDbEntity
  8
部品1
 48
50.0
100
AcDbLine
 10
4160.426034866594
 20
3909.96901214066
 30
0.0
 11
1394.42603486659
 21
3909.96901214066
 31
0.0
  0
LINE
  5
143B5
330
747D
100
AcDbEntity
  8
部品1
 48
50.0
100
AcDbLine
 10
4160.426034866594
 20
3939.307144620489
 30
0.0
 11
1394.42603486659
 21
3939.307144620489
 31
0.0
  0
LINE
  5
143B9
330
747D
100
AcDbEntity
  8
部品1
 48
50.0
100
AcDbLine
 10
4160.426034866594
 20
3900.228017808709
 30
0.0
 11
1394.42603486659
 21
3900.228017808711
 31
0.0
  0
LINE
  5
143BB
330
747D
100
AcDbEntity
  8
部品1
 48
50.0
100
AcDbLine
 10
1330.42603486659
 20
3900.228017808711
 30
0.0
 11
1152.42603486659
 21
3900.228017808711
 31
0.0
  0
LINE
  5
145A1
330
747D
100
AcDbEntity
  8
細線
 48
50.0
100
AcDbLine
 10
1627.644974321442
 20
1830.562576328022
 30
0.0
 11
1677.644974321442
 21
1880.562576328022
 31
0.0
  0
LINE
  5
145A2
330
747D
100
AcDbEntity
  8
細線
 48
50.0
100
AcDbLine
 10
1573.76341432144
 20
1830.562576328022
 30
0.0
 11
1623.76341432144
 21
1880.562576328022
 31
0.0
  0
LINE
  5
145A3
330
747D
100
AcDbEntity
  8
細線
 48
50.0
100
AcDbLine
 10
1600.704194321441
 20
1830.562576328022
 30
0.0
 11
1650.704194321441
 21
1880.562576328022
 31
0.0
  0
LINE
  5
145A7
330
747D
100
AcDbEntity
  8
細線
 48
50.0
100
AcDbLine
 10
6773.331720057287
 20
1830.562576328022
 30
0.0
 11
6823.331720057287
 21
1880.562576328022
 31
0.0
  0
LINE
  5
145A8
330
747D
100
AcDbEntity
  8
細線
 48
50.0
100
AcDbLine
 10
6746.39094005729
 20
1830.562576328022
 30
0.0
 11
6796.39094005729
 21
1880.562576328022
 31
0.0
  0
LINE
  5
145A9
330
747D
100
AcDbEntity
  8
細線
 48
50.0
100
AcDbLine
 10
6800.272500057288
 20
1830.562576328022
 30
0.0
 11
6850.272500057288
 21
1880.562576328022
 31
0.0
  0
LINE
  5
145AA
330
747D
100
AcDbEntity
  8
部品1
 48
50.0
100
AcDbLine
 10
5618.926034866595
 20
7817.947238448386
 30
0.0
 11
5618.926034866595
 21
6014.947238448385
 31
0.0
  0
LINE
  5
145AB
330
747D
100
AcDbEntity
  8
部品1
 48
50.0
100
AcDbLine
 10
5595.926034866595
 20
7817.947238448386
 30
0.0
 11
5595.926034866595
 21
6014.947238448385
 31
0.0
  0
LINE
  5
145AC
330
747D
100
AcDbEntity
  8
部品1
 48
50.0
100
AcDbLine
 10
5885.426034866594
 20
7817.947238448386
 30
0.0
 11
5885.426034866594
 21
6014.947238448385
 31
0.0
  0
LINE
  5
145AD
330
747D
100
AcDbEntity
  8
部品1
 48
50.0
100
AcDbLine
 10
5840.426034866595
 20
7817.947238448386
 30
0.0
 11
5840.426034866595
 21
6014.947238448385
 31
0.0
  0
LINE
  5
145AE
330
747D
100
AcDbEntity
  8
部品1
 48
50.0
100
AcDbLine
 10
5767.426034866595
 20
7817.947238448386
 30
0.0
 11
5767.426034866595
 21
6014.947238448385
 31
0.0
  0
LINE
  5
145AF
330
747D
100
AcDbEntity
  8
部品1
 48
50.0
100
AcDbLine
 10
5812.426034866595
 20
7817.947238448386
 30
0.0
 11
5812.426034866595
 21
6014.947238448385
 31
0.0
  0
LINE
  5
145DE
330
747D
100
AcDbEntity
  8
仕様書枠
 48
50.0
100
AcDbLine
 10
105.0000000000018
 20
0.0
 30
0.0
 11
12230.4
 21
0.0
 31
0.0
  0
LINE
  5
145F5
330
747D
100
AcDbEntity
  8
補助
  6
PHANTOM
 62
   230
 48
50.0
100
AcDbLine
 10
11930.4
 20
8182.200000000003
 30
0.0
 11
11930.4
 21
6457.2
 31
0.0
  0
LINE
  5
145F6
330
747D
100
AcDbEntity
  8
補助
  6
PHANTOM
 62
   230
 48
50.0
100
AcDbLine
 10
9380.400000000003
 20
8182.199999999999
 30
0.0
 11
9380.400000000003
 21
6457.2
 31
0.0
  0
LINE
  5
145F7
330
747D
100
AcDbEntity
  8
補助
  6
PHANTOM
 62
   230
 48
50.0
100
AcDbLine
 10
9380.400000000003
 20
6457.2
 30
0.0
 11
11930.4
 21
6457.2
 31
0.0
  0
LINE
  5
145F9
330
747D
100
AcDbEntity
  8
補助
  6
PHANTOM
 62
   230
 48
50.0
100
AcDbLine
 10
9380.400000000003
 20
8182.199999999999
 30
0.0
 11
11930.4
 21
8182.200000000003
 31
0.0
  0
LINE
  5
14636
330
747D
100
AcDbEntity
  8
補助
  6
PHANTOM
 62
   230
 48
50.0
100
AcDbLine
 10
9380.400000000003
 20
6767.200000000001
 30
0.0
 11
11930.4
 21
6767.200000000002
 31
0.0
  0
DIMENSION
  5
14648
330
747D
100
AcDbEntity
  8
寸法
 48
50.0
100
AcDbDimension
  2
*D17
 10
7272.426034866595
 20
8256.09103574065
 30
0.0
 11
4192.426034866595
 21
8331.09103574065
 31
0.0
 70
    32
 71
     5
 42
6160.0
  3
INABA_S30G
100
AcDbAlignedDimension
 13
1112.426034866594
 23
7906.447238448381
 33
0.0
 14
7272.426034866595
 24
7905.978717162715
 34
0.0
100
AcDbRotatedDimension
  0
TEXT
  5
14754
330
747D
100
AcDbEntity
  8
文字
 62
     7
 48
50.0
100
AcDbText
 10
9907.054008162901
 20
171.4076431926769
 30
0.0
 40
75.0
  1
○間口奥行寸法は柱芯寸法です。
  7
STYLE2
100
AcDbText
  0
TEXT
  5
14755
330
747D
100
AcDbEntity
  8
仕様書枠
 62
     7
 48
50.0
100
AcDbText
 10
11158.94957995053
 20
628.6895453046891
 30
0.0
 40
75.0
  1
～一般型～
  7
STYLE2
100
AcDbText
  0
TEXT
  5
14756
330
747D
100
AcDbEntity
  8
仕様書枠
 62
     7
 48
50.0
100
AcDbText
 10
10984.92759423544
 20
362.9225347433557
 30
0.0
 40
120.0
  1
BY-２８L-２
  7
STYLE3
100
AcDbText
  0
TEXT
  5
14757
330
747D
100
AcDbEntity
  8
文字
 62
     7
 48
50.0
100
AcDbText
 10
10893.0988779165
 20
773.6682797184214
 30
0.0
 40
75.0
  1
NO.04     <縮尺> S=1/30
  7
STYLE2
100
AcDbText
  0
TEXT
  5
14758
330
747D
100
AcDbEntity
  8
仕様書枠
 62
     7
 48
50.0
100
AcDbText
 10
9901.077524988314
 20
357.9555495773438
 30
0.0
 40
120.0
  1
機種名
  7
STYLE2
100
AcDbText
  0
LINE
  5
14759
330
747D
100
AcDbEntity
  8
仕様書枠
 48
50.0
100
AcDbLine
 10
9830.400000000002
 20
600.0
 30
0.0
 11
10688.4
 21
600.0
 31
0.0
  0
TEXT
  5
1475A
330
747D
100
AcDbEntity
  8
仕様書枠
 62
     7
 48
50.0
100
AcDbText
 10
9872.234292432679
 20
671.3179555724555
 30
0.0
 40
150.0
  1
外 形 図
  7
STYLE2
100
AcDbText
  0
LINE
  5
1475B
330
747D
100
AcDbEntity
  8
仕様書枠
  6
Continuous
 48
50.0
100
AcDbLine
 10
10688.4
 20
900.0
 30
0.0
 11
10688.4
 21
600.0
 31
0.0
  0
LINE
  5
1475C
330
747D
100
AcDbEntity
  8
仕様書枠
  6
Continuous
 48
50.0
100
AcDbLine
 10
10688.4
 20
900.0
 30
0.0
 11
10688.4
 21
600.0
 31
0.0
  0
LINE
  5
1475D
330
747D
100
AcDbEntity
  8
仕様書枠
 48
50.0
100
AcDbLine
 10
9830.400000000002
 20
900.0
 30
0.0
 11
12230.4
 21
900.0
 31
0.0
  0
LINE
  5
1475E
330
747D
100
AcDbEntity
  8
仕様書枠
 62
     7
 48
50.0
100
AcDbLine
 10
9890.400000000001
 20
300.0
 30
0.0
 11
12170.4
 21
300.0
 31
0.0
  0
LINE
  5
1475F
330
747D
100
AcDbEntity
  8
仕様書枠
  6
Continuous
 48
50.0
100
AcDbLine
 10
9830.400000000002
 20
900.0
 30
0.0
 11
9830.400000000002
 21
0.0
 31
0.0
  0
LINE
  5
14760
330
747D
100
AcDbEntity
  8
仕様書枠
 48
50.0
100
AcDbLine
 10
12230.4
 20
900.0
 30
0.0
 11
12230.4
 21
0.0
 31
0.0
  0
LINE
  5
14761
330
747D
100
AcDbEntity
  8
仕様書枠
 48
50.0
100
AcDbLine
 10
9830.400000000002
 20
900.0
 30
0.0
 11
12230.4
 21
900.0
 31
0.0
  0
LINE
  5
14762
330
747D
100
AcDbEntity
  8
仕様書枠
 48
50.0
100
AcDbLine
 10
9830.400000000002
 20
900.0
 30
0.0
 11
12230.4
 21
900.0
 31
0.0
  0
TEXT
  5
14763
330
747D
100
AcDbEntity
  8
文字
 62
     7
 48
50.0
100
AcDbText
 10
10877.60711170164
 20
7921.44956597415
 30
0.0
 40
81.11400000000001
  1
F12            2.3
  7
STYLE1
100
AcDbText
  0
TEXT
  5
14764
330
747D
100
AcDbEntity
  8
文字
 62
     7
 48
50.0
100
AcDbText
 10
10861.52220711125
 20
6956.192965974155
 30
0.0
 40
81.11400000000001
  1
Y10            0.7
  7
STYLE1
100
AcDbText
  0
TEXT
  5
14765
330
747D
100
AcDbEntity
  8
文字
 62
     7
 48
50.0
100
AcDbText
 10
10861.52220711125
 20
7369.874365974152
 30
0.0
 40
81.11400000000001
  1
Y10            0.7
  7
STYLE1
100
AcDbText
  0
TEXT
  5
14766
330
747D
100
AcDbEntity
  8
文字
 62
     7
 48
50.0
100
AcDbText
 10
10861.52220711126
 20
7094.086765974155
 30
0.0
 40
81.11400000000001
  1
Y10            0.5
  7
STYLE1
100
AcDbText
  0
TEXT
  5
14767
330
747D
100
AcDbEntity
  8
文字
 62
     7
 48
50.0
100
AcDbText
 10
10877.60711170163
 20
7645.661965974155
 30
0.0
 40
81.11400000000001
  1
PZ            2.3
  7
STYLE1
100
AcDbText
  0
TEXT
  5
14768
330
747D
100
AcDbEntity
  8
文字
 62
     7
 48
50.0
100
AcDbText
 10
9737.676281202817
 20
7507.768165974153
 30
0.0
 40
81.11400000000001
  1
母屋
  7
STYLE1
100
AcDbText
  0
TEXT
  5
14769
330
747D
100
AcDbEntity
  8
文字
 62
     7
 48
50.0
100
AcDbText
 10
10877.60711170164
 20
7507.768165974153
 30
0.0
 40
81.11400000000001
  1
F12            1.6
  7
STYLE1
100
AcDbText
  0
LINE
  5
1476A
330
747D
100
AcDbEntity
  8
部品1
100
AcDbLine
 10
9369.565390151638
 20
8172.567360138026
 30
0.0
 11
9369.56539015164
 21
6379.947960138027
 31
0.0
  0
TEXT
  5
1476B
330
747D
100
AcDbEntity
  8
文字
 62
     7
 48
50.0
100
AcDbText
 10
10877.60711170164
 20
6818.299165974152
 30
0.0
 40
81.11400000000001
  1
硬質塩化ビニール
  7
STYLE1
100
AcDbText
  0
TEXT
  5
1476C
330
747D
100
AcDbEntity
  8
文字
 62
     7
 48
50.0
100
AcDbText
 10
10877.60711170164
 20
7783.555765974153
 30
0.0
 40
81.11400000000001
  1
PZ            3.2
  7
STYLE1
100
AcDbText
  0
LINE
  5
1476D
330
747D
100
AcDbEntity
  8
部品1
100
AcDbLine
 10
11919.56539015164
 20
6655.735560138026
 30
0.0
 11
9369.565390151638
 21
6655.735560138028
 31
0.0
  0
LINE
  5
1476E
330
747D
100
AcDbEntity
  8
部品1
100
AcDbLine
 10
11919.56539015164
 20
7069.416960138027
 30
0.0
 11
9369.565390151636
 21
7069.416960138027
 31
0.0
  0
LINE
  5
1476F
330
747D
100
AcDbEntity
  8
部品1
100
AcDbLine
 10
11919.56539015164
 20
6379.947960138026
 30
0.0
 11
9369.565390151638
 21
6379.947960138026
 31
0.0
  0
LINE
  5
14770
330
747D
100
AcDbEntity
  8
部品1
100
AcDbLine
 10
11919.56539015164
 20
6517.841760138025
 30
0.0
 11
9369.565390151636
 21
6517.841760138025
 31
0.0
  0
TEXT
  5
14771
330
747D
100
AcDbEntity
  8
文字
 62
     7
 48
50.0
100
AcDbText
 10
9484.659110582219
 20
7231.980565974152
 30
0.0
 40
81.11400000000001
  1
6
  7
STYLE1
100
AcDbText
  0
TEXT
  5
14772
330
747D
100
AcDbEntity
  8
文字
 62
     7
 48
50.0
100
AcDbText
 10
9484.659110582214
 20
7094.086765974153
 30
0.0
 40
81.11400000000001
  1
7
  7
STYLE1
100
AcDbText
  0
TEXT
  5
14773
330
747D
100
AcDbEntity
  8
文字
 62
     7
 48
50.0
100
AcDbText
 10
9484.659110582214
 20
6956.192965974152
 30
0.0
 40
81.11400000000001
  1
8
  7
STYLE1
100
AcDbText
  0
TEXT
  5
14774
330
747D
100
AcDbEntity
  8
文字
 62
     7
 48
50.0
100
AcDbText
 10
9484.659110582219
 20
7369.874365974151
 30
0.0
 40
81.11400000000001
  1
5
  7
STYLE1
100
AcDbText
  0
TEXT
  5
14775
330
747D
100
AcDbEntity
  8
文字
 62
     7
 48
50.0
100
AcDbText
 10
9737.676281202816
 20
6956.192965974155
 30
0.0
 40
81.11400000000001
  1
鼻隠シ
  7
STYLE1
100
AcDbText
  0
TEXT
  5
14776
330
747D
100
AcDbEntity
  8
文字
 62
     7
 48
50.0
100
AcDbText
 10
9737.676281202817
 20
7645.661965974155
 30
0.0
 40
81.11400000000001
  1
梁
  7
STYLE1
100
AcDbText
  0
TEXT
  5
14777
330
747D
100
AcDbEntity
  8
文字
 62
     7
 48
50.0
100
AcDbText
 10
9737.676281202812
 20
7783.555765974153
 30
0.0
 40
81.11400000000001
  1
柱
  7
STYLE1
100
AcDbText
  0
TEXT
  5
14778
330
747D
100
AcDbEntity
  8
文字
 62
     7
 48
50.0
100
AcDbText
 10
10745.51952595955
 20
8059.343365974152
 30
0.0
 40
81.11400000000001
  1
材料（材質）　　単位mm
  7
STYLE1
100
AcDbText
  0
TEXT
  5
14779
330
747D
100
AcDbEntity
  8
文字
 62
     7
 48
50.0
100
AcDbText
 10
9877.801245649365
 20
8059.343365974152
 30
0.0
 40
81.11400000000001
  1
部　　品　　名
  7
STYLE1
100
AcDbText
  0
TEXT
  5
1477A
330
747D
100
AcDbEntity
  8
文字
 62
     7
 48
50.0
100
AcDbText
 10
9484.659110582219
 20
7645.661965974152
 30
0.0
 40
81.11400000000001
  1
3
  7
STYLE1
100
AcDbText
  0
TEXT
  5
1477B
330
747D
100
AcDbEntity
  8
文字
 62
     7
 48
50.0
100
AcDbText
 10
9484.659110582219
 20
7507.768165974152
 30
0.0
 40
81.11400000000001
  1
4
  7
STYLE1
100
AcDbText
  0
TEXT
  5
1477C
330
747D
100
AcDbEntity
  8
文字
 62
     7
 48
50.0
100
AcDbText
 10
9484.659110582219
 20
7783.555765974154
 30
0.0
 40
81.11400000000001
  1
2
  7
STYLE1
100
AcDbText
  0
TEXT
  5
1477D
330
747D
100
AcDbEntity
  8
文字
 62
     7
 48
50.0
100
AcDbText
 10
9484.659110582219
 20
7921.449565974151
 30
0.0
 40
81.11400000000001
  1
1
  7
STYLE1
100
AcDbText
  0
TEXT
  5
1477E
330
747D
100
AcDbEntity
  8
文字
 62
     7
 48
50.0
100
AcDbText
 10
9424.825257482696
 20
8059.343365974152
 30
0.0
 40
81.11400000000001
  1
品番
  7
STYLE1
100
AcDbText
  0
LINE
  5
1477F
330
747D
100
AcDbEntity
  8
部品1
100
AcDbLine
 10
11919.56539015164
 20
7620.992160138027
 30
0.0
 11
9369.565390151638
 21
7620.992160138027
 31
0.0
  0
LINE
  5
14780
330
747D
100
AcDbEntity
  8
部品1
100
AcDbLine
 10
11919.56539015164
 20
7345.204560138028
 30
0.0
 11
9369.565390151638
 21
7345.204560138028
 31
0.0
  0
LINE
  5
14781
330
747D
100
AcDbEntity
  8
部品1
100
AcDbLine
 10
11919.56539015164
 20
7483.098360138026
 30
0.0
 11
9369.565390151638
 21
7483.098360138026
 31
0.0
  0
LINE
  5
14782
330
747D
100
AcDbEntity
  8
部品1
100
AcDbLine
 10
11919.56539015164
 20
7896.779760138027
 30
0.0
 11
9369.565390151636
 21
7896.779760138027
 31
0.0
  0
LINE
  5
14783
330
747D
100
AcDbEntity
  8
部品1
100
AcDbLine
 10
11919.56539015164
 20
7758.885960138028
 30
0.0
 11
9369.565390151636
 21
7758.885960138027
 31
0.0
  0
LINE
  5
14784
330
747D
100
AcDbEntity
  8
部品1
100
AcDbLine
 10
11919.56539015164
 20
8034.673560138024
 30
0.0
 11
9369.565390151636
 21
8034.673560138026
 31
0.0
  0
LINE
  5
14785
330
747D
100
AcDbEntity
  8
部品1
100
AcDbLine
 10
9662.306620431811
 20
8172.567360138026
 30
0.0
 11
9662.306620431822
 21
6793.629360138028
 31
0.0
  0
LINE
  5
14786
330
747D
100
AcDbEntity
  8
部品1
100
AcDbLine
 10
10685.01031015164
 20
8172.567360138023
 30
0.0
 11
10685.01031015164
 21
6793.629360138027
 31
0.0
  0
LINE
  5
14787
330
747D
100
AcDbEntity
  8
部品1
100
AcDbLine
 10
11919.56539015164
 20
6379.947960138026
 30
0.0
 11
11919.56539015164
 21
8172.567360138026
 31
0.0
  0
LINE
  5
14788
330
747D
100
AcDbEntity
  8
部品1
100
AcDbLine
 10
11919.56539015164
 20
8172.567360138026
 30
0.0
 11
9369.565390151636
 21
8172.567360138026
 31
0.0
  0
LINE
  5
14789
330
747D
100
AcDbEntity
  8
部品1
100
AcDbLine
 10
11919.56539015164
 20
6793.629360138027
 30
0.0
 11
9369.565390151638
 21
6793.62936013803
 31
0.0
  0
TEXT
  5
1478A
330
747D
100
AcDbEntity
  8
文字
 62
     7
 48
50.0
100
AcDbText
 10
9737.676281202816
 20
7094.086765974155
 30
0.0
 40
81.11400000000001
  1
屋根パネル
  7
STYLE1
100
AcDbText
  0
TEXT
  5
1478B
330
747D
100
AcDbEntity
  8
文字
 62
     7
 48
50.0
100
AcDbText
 10
9737.676281202814
 20
7921.44956597415
 30
0.0
 40
81.11400000000001
  1
プレート
  7
STYLE1
100
AcDbText
  0
TEXT
  5
1478C
330
747D
100
AcDbEntity
  8
文字
 62
     7
 48
50.0
100
AcDbText
 10
9737.676281202816
 20
6818.299165974156
 30
0.0
 40
81.11400000000001
  1
雨とい(別売)
  7
STYLE1
100
AcDbText
  0
TEXT
  5
1478D
330
747D
100
AcDbEntity
  8
文字
 62
     7
 48
50.0
100
AcDbText
 10
9451.110760980769
 20
6542.511565974155
 30
0.0
 40
81.11400000000001
  1
F12→溶融亜鉛めっき鋼板(JIS G 3302)
  7
STYLE1
100
AcDbText
  0
TEXT
  5
1478E
330
747D
100
AcDbEntity
  8
文字
 62
     7
 48
50.0
100
AcDbText
 10
9451.11076098076
 20
6404.617765974153
 30
0.0
 40
81.11400000000001
  1
Y10→溶融亜鉛-5％アルミニウム合金めっき鋼板(JIS G 3317)
 41
0.9
  7
STYLE1
100
AcDbText
  0
TEXT
  5
1478F
330
747D
100
AcDbEntity
  8
文字
 62
     7
 48
50.0
100
AcDbText
 10
9451.110760980926
 20
6680.405365974156
 30
0.0
 40
81.11400000000001
  1
PZ→一般構造用角形鋼管(JIS G 3466)
 41
0.9
  7
STYLE1
100
AcDbText
  0
LINE
  5
14790
330
747D
100
AcDbEntity
  8
部品1
100
AcDbLine
 10
11919.56539015164
 20
6931.523160138027
 30
0.0
 11
9369.565390151636
 21
6931.523160138027
 31
0.0
  0
TEXT
  5
14791
330
747D
100
AcDbEntity
  8
文字
 62
     7
 48
50.0
100
AcDbText
 10
9737.676281202816
 20
7369.874365974152
 30
0.0
 40
81.11400000000001
  1
妻板
  7
STYLE1
100
AcDbText
  0
LINE
  5
14792
330
747D
100
AcDbEntity
  8
部品1
100
AcDbLine
 10
11919.56539015164
 20
7207.310760138027
 30
0.0
 11
9369.565390151636
 21
7207.310760138027
 31
0.0
  0
TEXT
  5
14793
330
747D
100
AcDbEntity
  8
文字
 62
     7
 48
50.0
100
AcDbText
 10
10861.52220711126
 20
7231.980565974156
 30
0.0
 40
81.11400000000001
  1
Y10            1.0
  7
STYLE1
100
AcDbText
  0
TEXT
  5
14794
330
747D
100
AcDbEntity
  8
文字
 62
     7
 48
50.0
100
AcDbText
 10
9737.676281202816
 20
7231.980565974156
 30
0.0
 40
81.11400000000001
  1
梁中屋根板
  7
STYLE1
100
AcDbText
  0
TEXT
  5
14795
330
747D
100
AcDbEntity
  8
文字
 62
     7
 48
50.0
100
AcDbText
 10
9484.659110582216
 20
6818.299165974153
 30
0.0
 40
81.11400000000001
  1
9
  7
STYLE1
100
AcDbText
  0
TEXT
  5
147A7
330
747D
100
AcDbEntity
  8
部品1
 48
50.0
100
AcDbText
 10
10669.8125330582
 20
2722.94658336242
 30
0.0
 40
80.0
  1
(別売)
  7
STYLE2
100
AcDbText
  0
LINE
  5
147A8
330
747D
100
AcDbEntity
  8
寸法
 48
50.0
100
AcDbLine
 10
10211.03217757512
 20
2869.446433548754
 30
0.0
 11
10485.09235034399
 21
2816.194779334889
 31
0.0
  0
TEXT
  5
147A9
330
747D
100
AcDbEntity
  8
部品1
 48
50.0
100
AcDbText
 10
10476.15167760061
 20
2739.15677552504
 30
0.0
 40
120.0
  1
⑨
  7
STYLE2
100
AcDbText
  0
LINE
  5
147B6
330
747D
100
AcDbEntity
  8
点線
 48
18.0
100
AcDbLine
 10
1197.426034866594
 20
7693.947238448385
 30
0.0
 11
1151.426034866594
 21
7693.947238448385
 31
0.0
  0
LINE
  5
147B7
330
747D
100
AcDbEntity
  8
点線
 48
18.0
100
AcDbLine
 10
1197.426034866594
 20
6943.94723844838
 30
0.0
 11
1151.426034866593
 21
6943.947238448379
 31
0.0
  0
LINE
  5
147B8
330
747D
100
AcDbEntity
  8
点線
 48
18.0
100
AcDbLine
 10
1197.426034866594
 20
6193.947238448384
 30
0.0
 11
1151.426034866593
 21
6193.947238448384
 31
0.0
  0
LINE
  5
147B9
330
747D
100
AcDbEntity
  8
点線
 48
18.0
100
AcDbLine
 10
1332.426034866594
 20
6213.947238448384
 30
0.0
 11
1332.426034866594
 21
6148.947238448385
 31
0.0
  0
LINE
  5
147BA
330
747D
100
AcDbEntity
  8
点線
 48
18.0
100
AcDbLine
 10
1392.426034866594
 20
6213.947238448384
 30
0.0
 11
1392.426034866594
 21
6148.947238448385
 31
0.0
  0
LINE
  5
147BB
330
747D
100
AcDbEntity
  8
点線
 48
18.0
100
AcDbLine
 10
1332.426034866594
 20
6963.947238448381
 30
0.0
 11
1332.426034866594
 21
6898.947238448385
 31
0.0
  0
LINE
  5
147BC
330
747D
100
AcDbEntity
  8
点線
 48
18.0
100
AcDbLine
 10
1392.426034866594
 20
6963.947238448381
 30
0.0
 11
1392.426034866594
 21
6898.947238448385
 31
0.0
  0
LINE
  5
147BD
330
747D
100
AcDbEntity
  8
点線
 48
18.0
100
AcDbLine
 10
1330.426034866594
 20
7713.947238448383
 30
0.0
 11
1330.426034866594
 21
7693.947238448385
 31
0.0
  0
LINE
  5
147BE
330
747D
100
AcDbEntity
  8
点線
 48
18.0
100
AcDbLine
 10
1394.426034866594
 20
7713.947238448383
 30
0.0
 11
1394.426034866594
 21
7693.947238448385
 31
0.0
  0
LINE
  5
147BF
330
747D
100
AcDbEntity
  8
点線
 48
18.0
100
AcDbLine
 10
1332.426034866594
 20
7648.947238448385
 30
0.0
 11
1332.426034866594
 21
7693.947238448385
 31
0.0
  0
LINE
  5
147C0
330
747D
100
AcDbEntity
  8
点線
 48
18.0
100
AcDbLine
 10
1392.426034866594
 20
7648.947238448385
 30
0.0
 11
1392.426034866594
 21
7693.947238448385
 31
0.0
  0
LINE
  5
147C1
330
747D
100
AcDbEntity
  8
点線
 48
50.0
100
AcDbLine
 10
3875.715231673371
 20
7693.947238448385
 30
0.0
 11
7233.426034866596
 21
7693.947238448385
 31
0.0
  0
LINE
  5
147C2
330
747D
100
AcDbEntity
  8
点線
 48
50.0
100
AcDbLine
 10
4018.809288753779
 20
6943.947238448385
 30
0.0
 11
7233.426034866595
 21
6943.947238448385
 31
0.0
  0
LINE
  5
147C3
330
747D
100
AcDbEntity
  8
点線
 48
50.0
100
AcDbLine
 10
4277.639020320055
 20
6193.947238448384
 30
0.0
 11
7233.426034866593
 21
6193.947238448384
 31
0.0
  0
LINE
  5
147C4
330
747D
100
AcDbEntity
  8
点線
 48
18.0
100
AcDbLine
 10
4162.426034866594
 20
6213.947238448384
 30
0.0
 11
4162.426034866594
 21
6148.947238448385
 31
0.0
  0
LINE
  5
147C6
330
747D
100
AcDbEntity
  8
点線
 48
18.0
100
AcDbLine
 10
4222.426034866595
 20
6213.947238448384
 30
0.0
 11
4222.426034866595
 21
6148.947238448385
 31
0.0
  0
LINE
  5
147C7
330
747D
100
AcDbEntity
  8
部品1
 48
50.0
100
AcDbLine
 10
4192.426034866594
 20
6148.947238448386
 30
0.0
 11
4192.426034866594
 21
6213.947238448383
 31
0.0
  0
LINE
  5
147C8
330
747D
100
AcDbEntity
  8
点線
 48
18.0
100
AcDbLine
 10
4192.426034866594
 20
7648.94723844838
 30
0.0
 11
4192.426034866595
 21
7713.947238448381
 31
0.0
  0
LINE
  5
147C9
330
747D
100
AcDbEntity
  8
点線
 48
18.0
100
AcDbLine
 10
4192.426034866595
 20
6898.947238448385
 30
0.0
 11
4192.426034866595
 21
6963.947238448382
 31
0.0
  0
LINE
  5
14840
330
747D
100
AcDbEntity
  8
センター
 48
50.0
100
AcDbLine
 10
1362.42603486659
 20
2100.562576328024
 30
0.0
 11
1362.42603486659
 21
1710.562576328024
 31
0.0
  0
LINE
  5
14841
330
747D
100
AcDbEntity
  8
センター
 48
50.0
100
AcDbLine
 10
4192.426034866594
 20
2100.562576328022
 30
0.0
 11
4192.426034866594
 21
1710.562576328022
 31
0.0
  0
LINE
  5
14842
330
747D
100
AcDbEntity
  8
センター
 48
50.0
100
AcDbLine
 10
7022.426034866594
 20
2100.562576328022
 30
0.0
 11
7022.426034866594
 21
1710.562576328022
 31
0.0
  0
LINE
  5
1486F
330
747D
100
AcDbEntity
  8
部品1
 48
50.0
100
AcDbLine
 10
4192.426034866593
 20
3977.046555566362
 30
0.0
 11
4192.426034866593
 21
3970.897875741638
 31
0.0
  0
LINE
  5
1487C
330
747D
100
AcDbEntity
  8
点線
 48
18.0
100
AcDbLine
 10
7233.426034866593
 20
7713.947238448387
 30
0.0
 11
7233.426034866595
 21
7648.947238448385
 31
0.0
  0
LINE
  5
1487D
330
747D
100
AcDbEntity
  8
点線
 48
18.0
100
AcDbLine
 10
1151.426034866594
 20
7713.947238448382
 30
0.0
 11
1151.426034866593
 21
7648.947238448383
 31
0.0
  0
LINE
  5
1487E
330
747D
100
AcDbEntity
  8
点線
 48
18.0
100
AcDbLine
 10
1151.426034866594
 20
6963.947238448381
 30
0.0
 11
1151.426034866594
 21
6898.947238448385
 31
0.0
  0
LINE
  5
1487F
330
747D
100
AcDbEntity
  8
点線
 48
18.0
100
AcDbLine
 10
1151.426034866593
 20
6213.947238448385
 30
0.0
 11
1151.426034866593
 21
6148.947238448386
 31
0.0
  0
LINE
  5
14881
330
747D
100
AcDbEntity
  8
点線
 48
18.0
100
AcDbLine
 10
7233.426034866595
 20
6963.947238448387
 30
0.0
 11
7233.426034866595
 21
6898.947238448386
 31
0.0
  0
LINE
  5
14882
330
747D
100
AcDbEntity
  8
点線
 48
18.0
100
AcDbLine
 10
7233.426034866593
 20
6213.947238448384
 30
0.0
 11
7233.426034866593
 21
6148.947238448386
 31
0.0
  0
ENDSEC
  0
SECTION
  2
OBJECTS
  0
DICTIONARY
  5
7471
330
0
100
AcDbDictionary
281
     1
  3
ACAD_COLOR
350
146BB
  3
ACAD_GROUP
350
7472
  3
ACAD_LAYOUT
350
146BC
  3
ACAD_MATERIAL
350
146BA
  3
ACAD_MLINESTYLE
350
7473
  3
ACAD_PLOTSETTINGS
350
146BD
  3
ACAD_PLOTSTYLENAME
350
146B8
  3
ACDBHEADERROUNDTRIPXREC
350
1489A
  3
AcDbVariableDictionary
350
14896
  3
CONTENTDICTIONARY
350
E71C
  3
DRAWINGVARIABLESDICT
350
F3B9
  0
DICTIONARY
  5
146C7
330
7467
100
AcDbDictionary
280
     1
281
     1
  3
ACAD_LAYERFILTERS
360
147B5
  3
ACAD_LAYERSTATES
360
146C8
  0
DICTIONARY
  5
146BB
102
{ACAD_REACTORS
330
7471
102
}
330
7471
100
AcDbDictionary
281
     1
  0
DICTIONARY
  5
7472
102
{ACAD_REACTORS
330
7471
102
}
330
7471
100
AcDbDictionary
281
     1
  0
DICTIONARY
  5
146BC
102
{ACAD_REACTORS
330
7471
102
}
330
7471
100
AcDbDictionary
281
     1
  3
Model
350
146BE
  3
レイアウト1
350
146BF
  0
DICTIONARY
  5
146BA
102
{ACAD_REACTORS
330
7471
102
}
330
7471
100
AcDbDictionary
281
     1
  0
DICTIONARY
  5
7473
102
{ACAD_REACTORS
330
7471
102
}
330
7471
100
AcDbDictionary
281
     1
  3
STANDARD
350
7480
  0
DICTIONARY
  5
146BD
102
{ACAD_REACTORS
330
7471
102
}
330
7471
100
AcDbDictionary
281
     1
  0
ACDBDICTIONARYWDFLT
  5
146B8
102
{ACAD_REACTORS
330
7471
102
}
330
7471
100
AcDbDictionary
281
     1
  3
Normal
350
146B9
100
AcDbDictionaryWithDefault
340
146B9
  0
DICTIONARY
  5
1489A
102
{ACAD_REACTORS
330
7471
102
}
330
7471
100
AcDbDictionary
281
     1
  3
COLORDICT
350
1489C
  3
MATERIALDICT
350
1489B
  0
DICTIONARY
  5
14896
102
{ACAD_REACTORS
330
7471
102
}
330
7471
100
AcDbDictionary
281
     1
  3
DIMASSOC
350
14897
  3
PROJECTNAME
350
14898
  0
DICTIONARY
  5
E71C
102
{ACAD_REACTORS
330
7471
102
}
330
7471
100
AcDbDictionary
281
     1
  0
DICTIONARY
  5
F3B9
102
{ACAD_REACTORS
330
7471
102
}
330
7471
100
AcDbDictionary
281
     1
1001
DRAWINGVARIABLESXDATA
1000
POLARMODE
1000
1
  0
DICTIONARY
  5
147B5
102
{ACAD_REACTORS
330
146C7
102
}
330
146C7
100
AcDbDictionary
281
     1
  0
DICTIONARY
  5
146C8
102
{ACAD_REACTORS
330
146C7
102
}
330
146C7
100
AcDbDictionary
281
     1
  0
LAYOUT
  5
146BE
102
{ACAD_XDICTIONARY
360
1489D
102
}
102
{ACAD_REACTORS
330
146BC
102
}
330
146BC
100
AcDbPlotSettings
  1

  2
Microsoft XPS Document Writer
  4

  6

 40
0.0
 41
0.0
 42
0.0
 43
0.0
 44
0.0
 45
0.0
 46
0.0
 47
0.0
 48
0.0
 49
0.0
140
0.0
141
0.0
142
1.0
143
1.0
 70
  1712
 72
     0
 73
     0
 74
     0
  7

 75
     0
147
1.0
148
0.0
149
0.0
100
AcDbLayout
  1
Model
 70
     1
 71
     0
 10
0.0
 20
0.0
 11
12.0
 21
9.0
 12
0.0
 22
0.0
 32
0.0
 14
0.0
 24
0.0
 34
0.0
 15
0.0
 25
0.0
 35
0.0
146
0.0
 13
0.0
 23
0.0
 33
0.0
 16
1.0
 26
0.0
 36
0.0
 17
0.0
 27
1.0
 37
0.0
 76
     0
330
747D
  0
LAYOUT
  5
146BF
102
{ACAD_XDICTIONARY
360
1489F
102
}
102
{ACAD_REACTORS
330
146BC
102
}
330
146BC
100
AcDbPlotSettings
  1

  2
Microsoft XPS Document Writer
  4

  6

 40
0.0
 41
0.0
 42
0.0
 43
0.0
 44
0.0
 45
0.0
 46
0.0
 47
0.0
 48
0.0
 49
0.0
140
0.0
141
0.0
142
1.0
143
1.0
 70
   688
 72
     0
 73
     0
 74
     5
  7

 75
    16
147
1.0
148
0.0
149
0.0
100
AcDbLayout
  1
レイアウト1
 70
     0
 71
     1
 10
0.0
 20
0.0
 11
420.0
 21
297.0
 12
0.0
 22
0.0
 32
0.0
 14
1.000000000000000E+20
 24
1.000000000000000E+20
 34
1.000000000000000E+20
 15
-1.000000000000000E+20
 25
-1.000000000000000E+20
 35
-1.000000000000000E+20
146
0.0
 13
0.0
 23
0.0
 33
0.0
 16
1.0
 26
0.0
 36
0.0
 17
0.0
 27
1.0
 37
0.0
 76
     0
330
747A
  0
MLINESTYLE
  5
7480
102
{ACAD_REACTORS
330
7473
102
}
330
7473
100
AcDbMlineStyle
  2
STANDARD
 70
     0
  3

 62
     0
 51
90.0
 52
90.0
 71
     2
 49
0.5
 62
   256
  6
BYLAYER
 49
-0.5
 62
   256
  6
BYLAYER
  0
ACDBPLACEHOLDER
  5
146B9
102
{ACAD_REACTORS
330
146B8
102
}
330
146B8
  0
XRECORD
  5
1489C
102
{ACAD_REACTORS
330
1489A
102
}
330
1489A
100
AcDbXrecord
280
     1
340
146BB
  0
XRECORD
  5
1489B
102
{ACAD_REACTORS
330
1489A
102
}
330
1489A
100
AcDbXrecord
280
     1
340
146BA
  0
DICTIONARYVAR
  5
14897
102
{ACAD_REACTORS
330
14896
102
}
330
14896
100
DictionaryVariables
280
     0
  1
1
  0
DICTIONARYVAR
  5
14898
102
{ACAD_REACTORS
330
14896
102
}
330
14896
100
DictionaryVariables
280
     0
  1

  0
DICTIONARY
  5
1489D
330
146BE
100
AcDbDictionary
280
     1
281
     1
  3
ACAD_XREC_ROUNDTRIP
360
1489E
  0
DICTIONARY
  5
1489F
330
146BF
100
AcDbDictionary
280
     1
281
     1
  3
ACAD_XREC_ROUNDTRIP
360
148A0
  0
XRECORD
  5
1489E
102
{ACAD_REACTORS
330
1489D
102
}
330
1489D
100
AcDbXrecord
280
     1
102
SHADEPLOT
 70
     0
102
SHADEPLOTRESLEVEL
 70
     2
102
SHADEPLOTCUSTOMDPI
 70
   300
  0
XRECORD
  5
148A0
102
{ACAD_REACTORS
330
1489F
102
}
330
1489F
100
AcDbXrecord
280
     1
102
SHADEPLOT
 70
     0
102
SHADEPLOTRESLEVEL
 70
     2
102
SHADEPLOTCUSTOMDPI
 70
   300
  0
ENDSEC
  0
EOF
