  0
SECTION
  2
HEADER
  9
$ACADVER
  1
AC1015
  9
$ACADMAINTVER
 70
    20
  9
$DWGCODEPAGE
  3
ANSI_932
  9
$INSBASE
 10
0.0
 20
0.0
 30
0.0
  9
$EXTMIN
 10
104.9999999999996
 20
0.0
 30
0.0
  9
$EXTMAX
 10
12230.4
 20
8557.199999999999
 30
0.0
  9
$LIMMIN
 10
0.0
 20
0.0
  9
$LIMMAX
 10
12600.0
 20
8910.0
  9
$ORTHOMODE
 70
     0
  9
$REGENMODE
 70
     1
  9
$FILLMODE
 70
     1
  9
$QTEXTMODE
 70
     0
  9
$MIRRTEXT
 70
     1
  9
$LTSCALE
 40
3.0
  9
$ATTMODE
 70
     1
  9
$TEXTSIZE
 40
100.0
  9
$TRACEWID
 40
1.0
  9
$TEXTSTYLE
  7
STYLE3
  9
$CLAYER
  8
点線
  9
$CELTYPE
  6
BYLAYER
  9
$CECOLOR
 62
   256
  9
$CELTSCALE
 40
50.0
  9
$DISPSILH
 70
     0
  9
$DIMSCALE
 40
30.0
  9
$DIMASZ
 40
2.5
  9
$DIMEXO
 40
0.5
  9
$DIMDLI
 40
7.0
  9
$DIMRND
 40
0.0
  9
$DIMDLE
 40
0.0
  9
$DIMEXE
 40
1.5
  9
$DIMTP
 40
0.0
  9
$DIMTM
 40
0.0
  9
$DIMTXT
 40
3.0
  9
$DIMCEN
 40
0.0
  9
$DIMTSZ
 40
0.0
  9
$DIMTOL
 70
     0
  9
$DIMLIM
 70
     0
  9
$DIMTIH
 70
     0
  9
$DIMTOH
 70
     0
  9
$DIMSE1
 70
     0
  9
$DIMSE2
 70
     0
  9
$DIMTAD
 70
     3
  9
$DIMZIN
 70
     8
  9
$DIMBLK
  1

  9
$DIMASO
 70
     1
  9
$DIMSHO
 70
     1
  9
$DIMPOST
  1

  9
$DIMAPOST
  1

  9
$DIMALT
 70
     0
  9
$DIMALTD
 70
     2
  9
$DIMALTF
 40
0.0394
  9
$DIMLFAC
 40
1.0
  9
$DIMTOFL
 70
     1
  9
$DIMTVP
 40
0.0
  9
$DIMTIX
 70
     1
  9
$DIMSOXD
 70
     1
  9
$DIMSAH
 70
     1
  9
$DIMBLK1
  1
DOTSMALL
  9
$DIMBLK2
  1
DOTSMALL
  9
$DIMSTYLE
  2
INABA_S30G
  9
$DIMCLRD
 70
     0
  9
$DIMCLRE
 70
     0
  9
$DIMCLRT
 70
     7
  9
$DIMTFAC
 40
1.0
  9
$DIMGAP
 40
1.0
  9
$DIMJUST
 70
     0
  9
$DIMSD1
 70
     0
  9
$DIMSD2
 70
     0
  9
$DIMTOLJ
 70
     1
  9
$DIMTZIN
 70
     0
  9
$DIMALTZ
 70
     0
  9
$DIMALTTZ
 70
     0
  9
$DIMUPT
 70
     0
  9
$DIMDEC
 70
     1
  9
$DIMTDEC
 70
     4
  9
$DIMALTU
 70
     2
  9
$DIMALTTD
 70
     2
  9
$DIMTXSTY
  7
STYLE1
  9
$DIMAUNIT
 70
     0
  9
$DIMADEC
 70
     0
  9
$DIMALTRND
 40
0.0
  9
$DIMAZIN
 70
     0
  9
$DIMDSEP
 70
    46
  9
$DIMATFIT
 70
     3
  9
$DIMFRAC
 70
     0
  9
$DIMLDRBLK
  1

  9
$DIMLUNIT
 70
     2
  9
$DIMLWD
 70
    -2
  9
$DIMLWE
 70
    -2
  9
$DIMTMOVE
 70
     0
  9
$LUNITS
 70
     2
  9
$LUPREC
 70
     1
  9
$SKETCHINC
 40
1.0
  9
$FILLETRAD
 40
10.0
  9
$AUNITS
 70
     0
  9
$AUPREC
 70
     0
  9
$MENU
  1
acad
  9
$ELEVATION
 40
0.0
  9
$PELEVATION
 40
0.0
  9
$THICKNESS
 40
0.0
  9
$LIMCHECK
 70
     0
  9
$CHAMFERA
 40
5.0
  9
$CHAMFERB
 40
5.0
  9
$CHAMFERC
 40
0.0
  9
$CHAMFERD
 40
0.0
  9
$SKPOLY
 70
     0
  9
$TDCREATE
 40
2451225.538602894
  9
$TDUCREATE
 40
2451225.163602894
  9
$TDUPDATE
 40
2455579.571853831
  9
$TDUUPDATE
 40
2455579.196853831
  9
$TDINDWG
 40
0.4582849306
  9
$TDUSRTIMER
 40
0.4582849306
  9
$USRTIMER
 70
     1
  9
$ANGBASE
 50
0.0
  9
$ANGDIR
 70
     0
  9
$PDMODE
 70
     3
  9
$PDSIZE
 40
2.0
  9
$PLINEWID
 40
0.0
  9
$SPLFRAME
 70
     0
  9
$SPLINETYPE
 70
     6
  9
$SPLINESEGS
 70
     8
  9
$HANDSEED
  5
1495C
  9
$SURFTAB1
 70
     6
  9
$SURFTAB2
 70
     6
  9
$SURFTYPE
 70
     6
  9
$SURFU
 70
     6
  9
$SURFV
 70
     6
  9
$UCSBASE
  2

  9
$UCSNAME
  2

  9
$UCSORG
 10
0.0
 20
0.0
 30
0.0
  9
$UCSXDIR
 10
1.0
 20
0.0
 30
0.0
  9
$UCSYDIR
 10
0.0
 20
1.0
 30
0.0
  9
$UCSORTHOREF
  2

  9
$UCSORTHOVIEW
 70
     0
  9
$UCSORGTOP
 10
0.0
 20
0.0
 30
0.0
  9
$UCSORGBOTTOM
 10
0.0
 20
0.0
 30
0.0
  9
$UCSORGLEFT
 10
0.0
 20
0.0
 30
0.0
  9
$UCSORGRIGHT
 10
0.0
 20
0.0
 30
0.0
  9
$UCSORGFRONT
 10
0.0
 20
0.0
 30
0.0
  9
$UCSORGBACK
 10
0.0
 20
0.0
 30
0.0
  9
$PUCSBASE
  2

  9
$PUCSNAME
  2

  9
$PUCSORG
 10
0.0
 20
0.0
 30
0.0
  9
$PUCSXDIR
 10
1.0
 20
0.0
 30
0.0
  9
$PUCSYDIR
 10
0.0
 20
1.0
 30
0.0
  9
$PUCSORTHOREF
  2

  9
$PUCSORTHOVIEW
 70
     0
  9
$PUCSORGTOP
 10
0.0
 20
0.0
 30
0.0
  9
$PUCSORGBOTTOM
 10
0.0
 20
0.0
 30
0.0
  9
$PUCSORGLEFT
 10
0.0
 20
0.0
 30
0.0
  9
$PUCSORGRIGHT
 10
0.0
 20
0.0
 30
0.0
  9
$PUCSORGFRONT
 10
0.0
 20
0.0
 30
0.0
  9
$PUCSORGBACK
 10
0.0
 20
0.0
 30
0.0
  9
$USERI1
 70
     0
  9
$USERI2
 70
     0
  9
$USERI3
 70
     0
  9
$USERI4
 70
     0
  9
$USERI5
 70
     0
  9
$USERR1
 40
0.0
  9
$USERR2
 40
0.0
  9
$USERR3
 40
0.0
  9
$USERR4
 40
0.0
  9
$USERR5
 40
0.0
  9
$WORLDVIEW
 70
     1
  9
$SHADEDGE
 70
     3
  9
$SHADEDIF
 70
    70
  9
$TILEMODE
 70
     1
  9
$MAXACTVP
 70
    16
  9
$PINSBASE
 10
0.0
 20
0.0
 30
0.0
  9
$PLIMCHECK
 70
     0
  9
$PEXTMIN
 10
1.000000000000000E+20
 20
1.000000000000000E+20
 30
1.000000000000000E+20
  9
$PEXTMAX
 10
-1.000000000000000E+20
 20
-1.000000000000000E+20
 30
-1.000000000000000E+20
  9
$PLIMMIN
 10
0.0
 20
0.0
  9
$PLIMMAX
 10
420.0
 20
297.0
  9
$UNITMODE
 70
     0
  9
$VISRETAIN
 70
     0
  9
$PLINEGEN
 70
     0
  9
$PSLTSCALE
 70
     0
  9
$TREEDEPTH
 70
  3020
  9
$CMLSTYLE
  2
STANDARD
  9
$CMLJUST
 70
     0
  9
$CMLSCALE
 40
1.0
  9
$PROXYGRAPHICS
 70
     1
  9
$MEASUREMENT
 70
     1
  9
$CELWEIGHT
370
    -1
  9
$ENDCAPS
280
     0
  9
$JOINSTYLE
280
     0
  9
$LWDISPLAY
290
     0
  9
$INSUNITS
 70
     0
  9
$HYPERLINKBASE
  1

  9
$STYLESHEET
  1

  9
$XEDIT
290
     1
  9
$CEPSNTYPE
380
     0
  9
$PSTYLEMODE
290
     1
  9
$FINGERPRINTGUID
  2
{7F9F24F8-EFAE-4F98-8D6C-163DD23B5B88}
  9
$VERSIONGUID
  2
{A401A130-6F53-41C8-97A9-BC487347A5E5}
  9
$EXTNAMES
290
     1
  9
$PSVPSCALE
 40
0.0
  9
$OLESTARTUP
290
     0
  0
ENDSEC
  0
SECTION
  2
CLASSES
  0
CLASS
  1
ACDBDICTIONARYWDFLT
  2
AcDbDictionaryWithDefault
  3
ObjectDBX Classes
 90
        0
280
     0
281
     0
  0
CLASS
  1
DICTIONARYVAR
  2
AcDbDictionaryVar
  3
ObjectDBX Classes
 90
        0
280
     0
281
     0
  0
CLASS
  1
ACDBPLACEHOLDER
  2
AcDbPlaceHolder
  3
ObjectDBX Classes
 90
        0
280
     0
281
     0
  0
CLASS
  1
LAYOUT
  2
AcDbLayout
  3
ObjectDBX Classes
 90
        0
280
     0
281
     0
  0
ENDSEC
  0
SECTION
  2
TABLES
  0
TABLE
  2
VPORT
  5
746D
330
0
100
AcDbSymbolTable
 70
     2
  0
VPORT
  5
14954
330
746D
100
AcDbSymbolTableRecord
100
AcDbViewportTableRecord
  2
*Active
 70
     0
 10
0.0
 20
0.0
 11
1.0
 21
1.0
 12
7559.363582101116
 22
4278.456098040356
 13
0.0
 23
0.0
 14
10.0
 24
10.0
 15
10.0
 25
10.0
 16
0.0
 26
0.0
 36
1.0
 17
0.0
 27
0.0
 37
0.0
 40
9939.591522658806
 41
1.5075
 42
50.0
 43
0.0
 44
0.0
 50
0.0
 51
0.0
 71
     0
 72
     0
 73
     1
 74
     0
 75
     0
 76
     0
 77
     0
 78
     0
281
     0
 65
     1
110
0.0
120
0.0
130
0.0
111
1.0
121
0.0
131
0.0
112
0.0
122
1.0
132
0.0
 79
     0
146
0.0
  0
ENDTAB
  0
TABLE
  2
LTYPE
  5
746A
330
0
100
AcDbSymbolTable
 70
     4
  0
LTYPE
  5
7477
330
746A
100
AcDbSymbolTableRecord
100
AcDbLinetypeTableRecord
  2
BYBLOCK
 70
     0
  3

 72
    65
 73
     0
 40
0.0
  0
LTYPE
  5
7478
330
746A
100
AcDbSymbolTableRecord
100
AcDbLinetypeTableRecord
  2
BYLAYER
 70
     0
  3

 72
    65
 73
     0
 40
0.0
  0
LTYPE
  5
7479
330
746A
100
AcDbSymbolTableRecord
100
AcDbLinetypeTableRecord
  2
CONTINUOUS
 70
     0
  3
Solid line
 72
    65
 73
     0
 40
0.0
  0
LTYPE
  5
7816
330
746A
100
AcDbSymbolTableRecord
100
AcDbLinetypeTableRecord
  2
CENTER
 70
     0
  3
____ _ ____ _ ____ _ ____ _ ____ _ ____ _ ____ 
 72
    65
 73
     4
 40
2.0
 49
1.25
 74
     0
 49
-0.25
 74
     0
 49
0.25
 74
     0
 49
-0.25
 74
     0
  0
LTYPE
  5
781A
330
746A
100
AcDbSymbolTableRecord
100
AcDbLinetypeTableRecord
  2
HIDDEN
 70
     0
  3
__ __ __ __ __ __ __ __ __ __ __ __ __ __ __ __
 72
    65
 73
     2
 40
0.375
 49
0.25
 74
     0
 49
-0.125
 74
     0
  0
LTYPE
  5
781B
330
746A
100
AcDbSymbolTableRecord
100
AcDbLinetypeTableRecord
  2
PHANTOM
 70
     0
  3
______  __  __  ______  __  __  ______  __  __ 
 72
    65
 73
     6
 40
2.5
 49
1.25
 74
     0
 49
-0.25
 74
     0
 49
0.25
 74
     0
 49
-0.25
 74
     0
 49
0.25
 74
     0
 49
-0.25
 74
     0
  0
ENDTAB
  0
TABLE
  2
LAYER
  5
7467
102
{ACAD_XDICTIONARY
360
1478D
102
}
330
0
100
AcDbSymbolTable
 70
    11
  0
LAYER
  5
7474
330
7467
100
AcDbSymbolTableRecord
100
AcDbLayerTableRecord
  2
0
 70
     0
 62
     7
  6
CONTINUOUS
370
    -3
390
1477E
  0
LAYER
  5
DEB2
330
7467
100
AcDbSymbolTableRecord
100
AcDbLayerTableRecord
  2
センター
 70
     0
 62
     3
  6
CENTER
370
    -3
390
1477E
  0
LAYER
  5
DEB3
330
7467
100
AcDbSymbolTableRecord
100
AcDbLayerTableRecord
  2
寸法
 70
     0
 62
     4
  6
CONTINUOUS
370
    -3
390
1477E
  0
LAYER
  5
DEB4
330
7467
100
AcDbSymbolTableRecord
100
AcDbLayerTableRecord
  2
部品1
 70
     0
 62
     7
  6
CONTINUOUS
370
    -3
390
1477E
  0
LAYER
  5
DEB5
330
7467
100
AcDbSymbolTableRecord
100
AcDbLayerTableRecord
  2
補助
 70
     0
 62
    -1
  6
CONTINUOUS
370
    -3
390
1477E
  0
LAYER
  5
DEB6
330
7467
100
AcDbSymbolTableRecord
100
AcDbLayerTableRecord
  2
文字
 70
     0
 62
     7
  6
CONTINUOUS
370
    -3
390
1477E
  0
LAYER
  5
F255
330
7467
100
AcDbSymbolTableRecord
100
AcDbLayerTableRecord
  2
DEFPOINTS
 70
     0
 62
     7
  6
CONTINUOUS
290
     0
370
    -3
390
1477E
  0
LAYER
  5
10B54
330
7467
100
AcDbSymbolTableRecord
100
AcDbLayerTableRecord
  2
仕様書枠
 70
     0
 62
   230
  6
CONTINUOUS
370
    -3
390
1477E
  0
LAYER
  5
11729
330
7467
100
AcDbSymbolTableRecord
100
AcDbLayerTableRecord
  2
Ｇ．Ｌ
 70
     0
 62
    30
  6
CONTINUOUS
370
    -3
390
1477E
  0
LAYER
  5
1173F
330
7467
100
AcDbSymbolTableRecord
100
AcDbLayerTableRecord
  2
細線
 70
     0
 62
     5
  6
CONTINUOUS
370
    -3
390
1477E
  0
LAYER
  5
11740
330
7467
100
AcDbSymbolTableRecord
100
AcDbLayerTableRecord
  2
点線
 70
     0
 62
     2
  6
HIDDEN
370
    -3
390
1477E
  0
ENDTAB
  0
TABLE
  2
STYLE
  5
7468
330
0
100
AcDbSymbolTable
 70
     6
  0
STYLE
  5
7475
330
7468
100
AcDbSymbolTableRecord
100
AcDbTextStyleTableRecord
  2
STANDARD
 70
     0
 40
0.0
 41
1.0
 50
0.0
 71
     0
 42
4.0
  3
txt
  4
C:\AutoCAD LT\bigfont.shx
  0
STYLE
  5
763C
330
7468
100
AcDbSymbolTableRecord
100
AcDbTextStyleTableRecord
  2
MSMINCHO
 70
     0
 40
0.0
 41
1.0
 50
0.0
 71
     0
 42
1.199999999999999
  3
C:\AutoCAD LT\msminch2.TTF
  4

  0
STYLE
  5
F706
330
7468
100
AcDbSymbolTableRecord
100
AcDbTextStyleTableRecord
  2
STYLE1
 70
     0
 40
0.0
 41
1.0
 50
0.0
 71
     0
 42
4.0
  3
isocp.shx
  4
bigfont.shx
  0
STYLE
  5
103BF
330
7468
100
AcDbSymbolTableRecord
100
AcDbTextStyleTableRecord
  2
STYLE2
 70
     0
 40
0.0
 41
1.0
 50
0.0
 71
     0
 42
100.0
  3
MS PGothic.ttf
  4

1001
ACAD
1000
MS PGothic
1071
    32818
  0
STYLE
  5
10BAA
330
7468
100
AcDbSymbolTableRecord
100
AcDbTextStyleTableRecord
  2
STYLE3
 70
     0
 40
0.0
 41
1.0
 50
0.0
 71
     0
 42
100.0
  3
DFPGothic-EB.ttf
  4

1001
ACAD
1000
DFPGothic-EB
1071
    32818
  0
STYLE
  5
1478C
330
7468
100
AcDbSymbolTableRecord
100
AcDbTextStyleTableRecord
  2
MSGOTHIC
 70
     0
 40
0.0
 41
1.0
 50
0.0
 71
     0
 42
3.5
  3
MS PGothic.ttf
  4

1001
ACAD
1000
MS PGothic
1071
    32818
  0
ENDTAB
  0
TABLE
  2
VIEW
  5
746B
330
0
100
AcDbSymbolTable
 70
     0
  0
ENDTAB
  0
TABLE
  2
UCS
  5
746C
330
0
100
AcDbSymbolTable
 70
     0
  0
ENDTAB
  0
TABLE
  2
APPID
  5
746E
330
0
100
AcDbSymbolTable
 70
     6
  0
APPID
  5
7476
330
746E
100
AcDbSymbolTableRecord
100
AcDbRegAppTableRecord
  2
ACAD
 70
     0
  0
APPID
  5
DEA9
330
746E
100
AcDbSymbolTableRecord
100
AcDbRegAppTableRecord
  2
CONTENTBLOCKICON
 70
     0
  0
APPID
  5
DEAA
330
746E
100
AcDbSymbolTableRecord
100
AcDbRegAppTableRecord
  2
CONTENTBLOCKDESCRIPTION
 70
     0
  0
APPID
  5
E71D
330
746E
100
AcDbSymbolTableRecord
100
AcDbRegAppTableRecord
  2
CONTENTTABDATA
 70
     0
  0
APPID
  5
E71E
330
746E
100
AcDbSymbolTableRecord
100
AcDbRegAppTableRecord
  2
CONTENTCURRENTTAB
 70
     0
  0
APPID
  5
F3BA
330
746E
100
AcDbSymbolTableRecord
100
AcDbRegAppTableRecord
  2
DRAWINGVARIABLESXDATA
 70
     0
  0
ENDTAB
  0
TABLE
  2
DIMSTYLE
  5
746F
330
0
100
AcDbSymbolTable
 70
     4
100
AcDbDimStyleTable
 71
     1
340
F71F
  0
DIMSTYLE
105
7484
330
746F
100
AcDbSymbolTableRecord
100
AcDbDimStyleTableRecord
  2
JIS
 70
     0
 41
2.5
 42
1.0
 43
7.0
 44
1.0
 73
     0
 74
     0
 77
     1
 78
     8
140
2.5
141
0.0
143
0.0394
147
0.0
172
     1
174
     1
175
     1
340
7475
  0
DIMSTYLE
105
F236
330
746F
100
AcDbSymbolTableRecord
100
AcDbDimStyleTableRecord
  2
INABA_S30
 70
     0
 40
30.0
 41
2.5
 42
0.5
 43
7.0
 44
1.5
 73
     0
 74
     0
 77
     3
 78
     8
140
3.0
141
0.0
143
0.0394
147
1.0
172
     1
173
     1
174
     1
175
     1
178
     7
289
     0
340
7475
341
DEAC
343
DEAC
344
DEAC
  0
DIMSTYLE
105
F71F
102
{ACAD_REACTORS
330
13378
330
131EF
330
12FB4
330
12F50
330
132B6
330
12F4F
330
132CC
330
13D64
330
13E7E
330
13E98
330
13EE7
330
13F13
330
14711
102
}
330
746F
100
AcDbSymbolTableRecord
100
AcDbDimStyleTableRecord
  2
INABA_S30G
 70
     0
 40
30.0
 41
2.5
 42
0.5
 43
7.0
 44
1.5
 73
     0
 74
     0
 77
     3
 78
     8
140
3.0
141
0.0
143
0.0394
147
1.0
172
     1
173
     1
174
     1
175
     1
178
     7
271
     1
340
F706
341
F770
343
F770
344
F770
  0
DIMSTYLE
105
118AC
330
746F
100
AcDbSymbolTableRecord
100
AcDbDimStyleTableRecord
  2
INABA_S80
 70
     0
 40
80.0
 41
0.5
 42
0.2
 43
6.0
 44
0.5
 73
     0
 74
     0
 77
     3
 78
     8
140
2.5
141
0.0
143
0.0394
147
0.8
172
     1
173
     1
174
     1
175
     1
178
     5
271
     2
272
     2
289
     2
340
7475
341
F744
343
F744
344
F744
  0
ENDTAB
  0
TABLE
  2
BLOCK_RECORD
  5
7466
330
0
100
AcDbSymbolTable
 70
    18
  0
BLOCK_RECORD
  5
747D
330
7466
100
AcDbSymbolTableRecord
100
AcDbBlockTableRecord
  2
*MODEL_SPACE
340
14783
  0
BLOCK_RECORD
  5
747A
330
7466
100
AcDbSymbolTableRecord
100
AcDbBlockTableRecord
  2
*PAPER_SPACE
340
14784
  0
BLOCK_RECORD
  5
DEAC
330
7466
100
AcDbSymbolTableRecord
100
AcDbBlockTableRecord
  2
_OPEN
340
0
  0
BLOCK_RECORD
  5
ECB3
330
7466
100
AcDbSymbolTableRecord
100
AcDbBlockTableRecord
  2
作図枠S50
340
0
310
2800000020000000200000000100040000000000000200000000000000000000000000000000000000000000000080000080000000808000800000008000800080800000C0C0C000808080000000FF0000FF000000FFFF00FF000000FF00FF00FFFF0000FFFFFF00FFFFFFFFFFFFFFFFFFFFFFFFFFFFFFFFFFFFFFFFFFFFFF
310
FFFFFFFFFFFFFFFFFFFFFFFFFFFFFFFFFFFFFFFFFFFFFFFFFFFFFFFFFFFFFFFFFFFFFFFFFFFFFFFFFFFFFFFFFFFFFFFFFFFFFFFFFFFFFFFFFFFFFFFFFFFFFFFFFFFFFFFFFFFFFFFFFF999999999999999999999999999999999FFFFFFFFFFFFFFFFFFFFFFFFFFFFFF99FFFFFFFFFFFFFFFFFFFFFFFFFFFFFF99FFFFFFFFFFF
310
FFFFFFFFFFFFFFFFFFF99FFFFFFFFFFFFFFFFFFFFFFFFFFFFFF99FFFFFFFFFFFFFFFFFFFFFFFFFFFFFF99FFFFFFFFFFFFFFFFFFFFFFFFFFFFFF99FFFFFFFFFFFFFFFFFFFFFFFFFFFFFF99FFFFFFFFFFFFFFFFFFFFFFFFFFFFFF99FFFFFFFFFFFFFFFFFFFFFFFFFFFFFF99FFFFFFFFFFFFFFFFFFFFFFFFFFFFFF99FFFFFFFFF
310
FFFFFFFFFFFFFFFFFFFFF99FFFFFFFFFFFFFFFFFFFFFFFFFFFFFF99FFFFFFFFFFFFFFFFFFFFFFFFFFFFFF99FFFFFFFFFFFFFFFFFFFFFFFFFFFFFF99FFFFFFFFFFFFFFFFFFFFFFFFFFFFFF99FFFFFFFFFFFFFFFFFFFFFFFFFFFFFF99FFFFFFFFFFFFFFFFFFFFFFFFFFFFFF99FFFFFFFFFFFFFFFFFFFFF99999999999FFFFFFF
310
FFFFFFFFFFFFFF9FFFFFFFFF99999999999999999999999FFFFFFFFFFFFFFFFFFFFFFFFFFFFFFFFFFFFFFFFFFFFFFFFFFFFFFFFFFFFFFFFFFFFFFFFFFFFFFFFFFFFFFFFFFFFFFFFFFFFFFFFFFFFFFFFFFFFFFFFFFFFFFFFFFFFFFFFFFFFFFFFFFFFFFFFFFFFFFFFFFFFFFFFF
102
{BLKREFS
331
F235
102
}
  0
BLOCK_RECORD
  5
F744
330
7466
100
AcDbSymbolTableRecord
100
AcDbBlockTableRecord
  2
_DOT
340
0
  0
BLOCK_RECORD
  5
F770
330
7466
100
AcDbSymbolTableRecord
100
AcDbBlockTableRecord
  2
_DOTSMALL
340
0
102
{BLKREFS
331
1465A
331
1465B
331
1464F
331
14650
331
13E0F
331
13E10
331
14680
331
14681
331
13E3C
331
13E3D
331
13E9D
331
13E9E
331
13E47
331
13E48
331
13EBF
331
13EC0
331
14553
331
14554
331
14730
331
14731
331
146E4
331
146E5
331
1491C
331
1491D
331
14925
331
14926
102
}
  0
BLOCK_RECORD
  5
1344A
330
7466
100
AcDbSymbolTableRecord
100
AcDbBlockTableRecord
  2
*D4
340
0
  0
BLOCK_RECORD
  5
13456
330
7466
100
AcDbSymbolTableRecord
100
AcDbBlockTableRecord
  2
*D5
340
0
  0
BLOCK_RECORD
  5
1346D
330
7466
100
AcDbSymbolTableRecord
100
AcDbBlockTableRecord
  2
*D6
340
0
  0
BLOCK_RECORD
  5
1349B
330
7466
100
AcDbSymbolTableRecord
100
AcDbBlockTableRecord
  2
*D7
340
0
  0
BLOCK_RECORD
  5
134B1
330
7466
100
AcDbSymbolTableRecord
100
AcDbBlockTableRecord
  2
*D8
340
0
  0
BLOCK_RECORD
  5
134BC
330
7466
100
AcDbSymbolTableRecord
100
AcDbBlockTableRecord
  2
*D9
340
0
  0
BLOCK_RECORD
  5
134D8
330
7466
100
AcDbSymbolTableRecord
100
AcDbBlockTableRecord
  2
*D10
340
0
  0
BLOCK_RECORD
  5
13DBA
330
7466
100
AcDbSymbolTableRecord
100
AcDbBlockTableRecord
  2
*D11
340
0
  0
BLOCK_RECORD
  5
13E72
330
7466
100
AcDbSymbolTableRecord
100
AcDbBlockTableRecord
  2
*D12
340
0
  0
BLOCK_RECORD
  5
13E8C
330
7466
100
AcDbSymbolTableRecord
100
AcDbBlockTableRecord
  2
*D13
340
0
  0
BLOCK_RECORD
  5
13EDE
330
7466
100
AcDbSymbolTableRecord
100
AcDbBlockTableRecord
  2
*D14
340
0
  0
BLOCK_RECORD
  5
13F0A
330
7466
100
AcDbSymbolTableRecord
100
AcDbBlockTableRecord
  2
*D15
340
0
  0
BLOCK_RECORD
  5
14705
330
7466
100
AcDbSymbolTableRecord
100
AcDbBlockTableRecord
  2
*D16
340
0
  0
BLOCK_RECORD
  5
14874
330
7466
100
AcDbSymbolTableRecord
100
AcDbBlockTableRecord
  2
A$C644A28E3
340
0
  0
ENDTAB
  0
ENDSEC
  0
SECTION
  2
BLOCKS
  0
BLOCK
  5
7489
330
747D
100
AcDbEntity
  8
0
100
AcDbBlockBegin
  2
*MODEL_SPACE
 70
     0
 10
0.0
 20
0.0
 30
0.0
  3
*MODEL_SPACE
  1

  0
ENDBLK
  5
748A
330
747D
100
AcDbEntity
  8
0
100
AcDbBlockEnd
  0
BLOCK
  5
7487
330
747A
100
AcDbEntity
 67
     1
  8
0
100
AcDbBlockBegin
  2
*PAPER_SPACE
 70
     0
 10
0.0
 20
0.0
 30
0.0
  3
*PAPER_SPACE
  1

  0
ENDBLK
  5
7488
330
747A
100
AcDbEntity
 67
     1
  8
0
100
AcDbBlockEnd
  0
BLOCK
  5
DEAD
330
DEAC
100
AcDbEntity
  8
0
100
AcDbBlockBegin
  2
_OPEN
 70
     0
 10
0.0
 20
0.0
 30
0.0
  3
_OPEN
  1

  0
LINE
  5
DEAE
330
DEAC
100
AcDbEntity
  8
0
  6
ByBlock
 62
     0
100
AcDbLine
 10
-1.0
 20
0.1666666666666666
 30
0.0
 11
0.0
 21
0.0
 31
0.0
  0
LINE
  5
DEAF
330
DEAC
100
AcDbEntity
  8
0
  6
ByBlock
 62
     0
100
AcDbLine
 10
0.0
 20
0.0
 30
0.0
 11
-1.0
 21
-0.1666666666666666
 31
0.0
  0
LINE
  5
DEB0
330
DEAC
100
AcDbEntity
  8
0
  6
ByBlock
 62
     0
100
AcDbLine
 10
0.0
 20
0.0
 30
0.0
 11
-1.0
 21
0.0
 31
0.0
  0
ENDBLK
  5
DEB1
330
DEAC
100
AcDbEntity
  8
0
100
AcDbBlockEnd
  0
BLOCK
  5
ECB4
330
ECB3
100
AcDbEntity
  8
0
100
AcDbBlockBegin
  2
作図枠S50
 70
     0
 10
0.0
 20
0.0
 30
0.0
  3
作図枠S50
  1

  4
作図領域枠 縮尺 1/50
  0
LINE
  5
ECB5
330
ECB3
100
AcDbEntity
  8
補助
100
AcDbLine
 10
14364.0
 20
14262.0
 30
0.0
 11
174.9999999999993
 21
14262.0
 31
0.0
  0
LINE
  5
ECB6
330
ECB3
100
AcDbEntity
  8
補助
100
AcDbLine
 10
174.9999999999993
 20
14262.0
 30
0.0
 11
174.9999999999993
 21
1520.0
 31
0.0
  0
LINE
  5
ECB7
330
ECB3
100
AcDbEntity
  8
補助
100
AcDbLine
 10
174.9999999999993
 20
1520.0
 30
0.0
 11
20384.0
 21
1520.0
 31
0.0
  0
LINE
  5
ECB8
330
ECB3
100
AcDbEntity
  8
補助
100
AcDbLine
 10
20384.0
 20
1520.0
 30
0.0
 11
20384.0
 21
13042.0
 31
0.0
  0
LINE
  5
ECB9
330
ECB3
100
AcDbEntity
  8
補助
100
AcDbLine
 10
20384.0
 20
13042.0
 30
0.0
 11
14364.0
 21
13042.0
 31
0.0
  0
LINE
  5
ECBA
330
ECB3
100
AcDbEntity
  8
補助
100
AcDbLine
 10
14364.0
 20
13042.0
 30
0.0
 11
14364.0
 21
14262.0
 31
0.0
  0
ENDBLK
  5
ECBB
330
ECB3
100
AcDbEntity
  8
0
100
AcDbBlockEnd
  0
BLOCK
  5
F745
330
F744
100
AcDbEntity
  8
0
 48
50.0
100
AcDbBlockBegin
  2
_DOT
 70
     0
 10
0.0
 20
0.0
 30
0.0
  3
_DOT
  1

  0
LWPOLYLINE
  5
F746
330
F744
100
AcDbEntity
  8
0
  6
ByBlock
 62
     0
 48
50.0
100
AcDbPolyline
 90
        2
 70
     1
 43
0.5
 10
-0.25
 20
0.0
 42
1.0
 10
0.25
 20
0.0
 42
1.0
  0
LINE
  5
F74A
330
F744
100
AcDbEntity
  8
0
  6
ByBlock
 62
     0
 48
50.0
100
AcDbLine
 10
-0.5
 20
0.0
 30
0.0
 11
-1.0
 21
0.0
 31
0.0
  0
ENDBLK
  5
F74B
330
F744
100
AcDbEntity
  8
0
 48
50.0
100
AcDbBlockEnd
  0
BLOCK
  5
F771
330
F770
100
AcDbEntity
  8
0
 48
50.0
100
AcDbBlockBegin
  2
_DOTSMALL
 70
     0
 10
0.0
 20
0.0
 30
0.0
  3
_DOTSMALL
  1

  0
LWPOLYLINE
  5
F772
330
F770
100
AcDbEntity
  8
0
  6
ByBlock
 62
     0
 48
50.0
100
AcDbPolyline
 90
        2
 70
     1
 43
0.5
 10
-0.0625
 20
0.0
 42
1.0
 10
0.0625
 20
0.0
 42
1.0
  0
ENDBLK
  5
F776
330
F770
100
AcDbEntity
  8
0
 48
50.0
100
AcDbBlockEnd
  0
BLOCK
  5
14656
330
1344A
100
AcDbEntity
  8
0
 48
50.0
100
AcDbBlockBegin
  2
*D4
 70
     1
 10
0.0
 20
0.0
 30
0.0
  3
*D4
  1

  0
LINE
  5
14657
330
1344A
100
AcDbEntity
  8
0
  6
ByBlock
 62
     0
 48
50.0
100
AcDbLine
 10
2847.862646115603
 20
4081.450581124186
 30
0.0
 11
2847.862646115603
 21
4955.957606075116
 31
0.0
  0
LINE
  5
14658
330
1344A
100
AcDbEntity
  8
0
  6
ByBlock
 62
     0
 48
50.0
100
AcDbLine
 10
5757.862646115606
 20
4081.450581124185
 30
0.0
 11
5757.862646115606
 21
4955.957606075116
 31
0.0
  0
LINE
  5
14659
330
1344A
100
AcDbEntity
  8
0
  6
ByBlock
 62
     0
 48
50.0
100
AcDbLine
 10
2847.862646115603
 20
4910.957606075115
 30
0.0
 11
5757.862646115606
 21
4910.957606075115
 31
0.0
  0
INSERT
  5
1465A
330
1344A
100
AcDbEntity
  8
0
  6
ByBlock
 62
     0
 48
50.0
100
AcDbBlockReference
  2
_DOTSMALL
 10
2847.862646115603
 20
4910.957606075115
 30
0.0
 41
75.0
 42
75.0
 43
75.0
 50
180.0
  0
INSERT
  5
1465B
330
1344A
100
AcDbEntity
  8
0
  6
ByBlock
 62
     0
 48
50.0
100
AcDbBlockReference
  2
_DOTSMALL
 10
5757.862646115606
 20
4910.957606075115
 30
0.0
 41
75.0
 42
75.0
 43
75.0
  0
MTEXT
  5
1465C
330
1344A
100
AcDbEntity
  8
0
  6
ByBlock
 62
     7
 48
50.0
100
AcDbMText
 10
4302.862646115604
 20
4985.966464342832
 30
0.0
 40
90.0
 41
0.0
 71
     5
 72
     1
  1
\A1;2910
  7
STYLE1
 73
     1
 44
1.0
1001
ACAD
1000
MTEXTBEGIN
1070
    73
1070
     1
1070
    44
1040
1.0
1070
    74
1070
     0
1000
MTEXTEND
  0
POINT
  5
1465D
330
1344A
100
AcDbEntity
  8
DEFPOINTS
  6
ByBlock
 62
     0
 48
50.0
100
AcDbPoint
 10
2847.862646115603
 20
4066.450581124186
 30
0.0
  0
POINT
  5
1465E
330
1344A
100
AcDbEntity
  8
DEFPOINTS
  6
ByBlock
 62
     0
 48
50.0
100
AcDbPoint
 10
5757.862646115606
 20
4066.450581124185
 30
0.0
  0
POINT
  5
1465F
330
1344A
100
AcDbEntity
  8
DEFPOINTS
  6
ByBlock
 62
     0
 48
50.0
100
AcDbPoint
 10
5757.862646115606
 20
4910.957606075115
 30
0.0
  0
ENDBLK
  5
14660
330
1344A
100
AcDbEntity
  8
0
 48
50.0
100
AcDbBlockEnd
  0
BLOCK
  5
1464B
330
13456
100
AcDbEntity
  8
0
 48
50.0
100
AcDbBlockBegin
  2
*D5
 70
     1
 10
0.0
 20
0.0
 30
0.0
  3
*D5
  1

  0
LINE
  5
1464C
330
13456
100
AcDbEntity
  8
0
  6
ByBlock
 62
     0
 48
50.0
100
AcDbLine
 10
3097.862646115603
 20
3985.897875741639
 30
0.0
 11
3097.862646115603
 21
4646.702425425583
 31
0.0
  0
LINE
  5
1464D
330
13456
100
AcDbEntity
  8
0
  6
ByBlock
 62
     0
 48
50.0
100
AcDbLine
 10
5507.862646115606
 20
3985.897875741637
 30
0.0
 11
5507.862646115606
 21
4646.702425425583
 31
0.0
  0
LINE
  5
1464E
330
13456
100
AcDbEntity
  8
0
  6
ByBlock
 62
     0
 48
50.0
100
AcDbLine
 10
3097.862646115603
 20
4601.702425425583
 30
0.0
 11
5507.862646115606
 21
4601.702425425583
 31
0.0
  0
INSERT
  5
1464F
330
13456
100
AcDbEntity
  8
0
  6
ByBlock
 62
     0
 48
50.0
100
AcDbBlockReference
  2
_DOTSMALL
 10
3097.862646115603
 20
4601.702425425583
 30
0.0
 41
75.0
 42
75.0
 43
75.0
 50
180.0
  0
INSERT
  5
14650
330
13456
100
AcDbEntity
  8
0
  6
ByBlock
 62
     0
 48
50.0
100
AcDbBlockReference
  2
_DOTSMALL
 10
5507.862646115606
 20
4601.702425425583
 30
0.0
 41
75.0
 42
75.0
 43
75.0
  0
MTEXT
  5
14651
330
13456
100
AcDbEntity
  8
0
  6
ByBlock
 62
     7
 48
50.0
100
AcDbMText
 10
4302.862646115604
 20
4676.7112836933
 30
0.0
 40
90.0
 41
0.0
 71
     5
 72
     1
  1
\A1;2410
  7
STYLE1
 73
     1
 44
1.0
1001
ACAD
1000
MTEXTBEGIN
1070
    73
1070
     1
1070
    44
1040
1.0
1070
    74
1070
     0
1000
MTEXTEND
  0
POINT
  5
14652
330
13456
100
AcDbEntity
  8
DEFPOINTS
  6
ByBlock
 62
     0
 48
50.0
100
AcDbPoint
 10
3097.862646115603
 20
3970.897875741638
 30
0.0
  0
POINT
  5
14653
330
13456
100
AcDbEntity
  8
DEFPOINTS
  6
ByBlock
 62
     0
 48
50.0
100
AcDbPoint
 10
5507.862646115606
 20
3970.897875741638
 30
0.0
  0
POINT
  5
14654
330
13456
100
AcDbEntity
  8
DEFPOINTS
  6
ByBlock
 62
     0
 48
50.0
100
AcDbPoint
 10
5507.862646115606
 20
4601.702425425583
 30
0.0
  0
ENDBLK
  5
14655
330
13456
100
AcDbEntity
  8
0
 48
50.0
100
AcDbBlockEnd
  0
BLOCK
  5
13E0A
330
1346D
100
AcDbEntity
  8
0
 48
50.0
100
AcDbBlockBegin
  2
*D6
 70
     1
 10
0.0
 20
0.0
 30
0.0
  3
*D6
  1

  0
LINE
  5
13E0B
330
1346D
100
AcDbEntity
  8
0
  6
ByBlock
 62
     0
 48
50.0
100
AcDbLine
 10
2411.862185614296
 20
5342.367498923764
 30
0.0
 11
2411.862185614296
 21
5907.61934322516
 31
0.0
  0
LINE
  5
13E0C
330
1346D
100
AcDbEntity
  8
0
  6
ByBlock
 62
     0
 48
50.0
100
AcDbLine
 10
2661.862185614296
 20
5246.814793541216
 30
0.0
 11
2661.862185614296
 21
5907.61934322516
 31
0.0
  0
LINE
  5
13E0D
330
1346D
100
AcDbEntity
  8
0
  6
ByBlock
 62
     0
 48
50.0
100
AcDbLine
 10
2661.862185614296
 20
5862.61934322516
 30
0.0
 11
2411.862185614296
 21
5862.61934322516
 31
0.0
  0
LINE
  5
13E0E
330
1346D
100
AcDbEntity
  8
0
  6
ByBlock
 62
     0
 48
50.0
100
AcDbLine
 10
2411.862185614296
 20
5862.61934322516
 30
0.0
 11
2112.505886401698
 21
5862.61934322516
 31
0.0
  0
INSERT
  5
13E0F
330
1346D
100
AcDbEntity
  8
0
  6
ByBlock
 62
     0
 48
50.0
100
AcDbBlockReference
  2
_DOTSMALL
 10
2661.862185614296
 20
5862.61934322516
 30
0.0
 41
75.0
 42
75.0
 43
75.0
  0
INSERT
  5
13E10
330
1346D
100
AcDbEntity
  8
0
  6
ByBlock
 62
     0
 48
50.0
100
AcDbBlockReference
  2
_DOTSMALL
 10
2411.862185614296
 20
5862.61934322516
 30
0.0
 41
75.0
 42
75.0
 43
75.0
 50
180.0
  0
MTEXT
  5
13E11
330
1346D
100
AcDbEntity
  8
0
  6
ByBlock
 62
     7
 48
50.0
100
AcDbMText
 10
2224.684036007997
 20
5937.628201492877
 30
0.0
 40
90.0
 41
0.0
 71
     5
 72
     1
  1
\A1;250
  7
STYLE1
 73
     1
 44
1.0
1001
ACAD
1000
MTEXTBEGIN
1070
    73
1070
     1
1070
    44
1040
1.0
1070
    74
1070
     0
1000
MTEXTEND
  0
POINT
  5
13E12
330
1346D
100
AcDbEntity
  8
DEFPOINTS
  6
ByBlock
 62
     0
 48
50.0
100
AcDbPoint
 10
2411.862185614296
 20
5327.367498923764
 30
0.0
  0
POINT
  5
13E13
330
1346D
100
AcDbEntity
  8
DEFPOINTS
  6
ByBlock
 62
     0
 48
50.0
100
AcDbPoint
 10
2661.862185614296
 20
5231.814793541216
 30
0.0
  0
POINT
  5
13E14
330
1346D
100
AcDbEntity
  8
DEFPOINTS
  6
ByBlock
 62
     0
 48
50.0
100
AcDbPoint
 10
2661.862185614296
 20
5862.61934322516
 30
0.0
  0
ENDBLK
  5
13E15
330
1346D
100
AcDbEntity
  8
0
 48
50.0
100
AcDbBlockEnd
  0
BLOCK
  5
1467C
330
1349B
100
AcDbEntity
  8
0
 48
50.0
100
AcDbBlockBegin
  2
*D7
 70
     1
 10
0.0
 20
0.0
 30
0.0
  3
*D7
  1

  0
LINE
  5
1467D
330
1349B
100
AcDbEntity
  8
0
  6
ByBlock
 62
     0
 48
50.0
100
AcDbLine
 10
3097.862646115603
 20
1695.562576328023
 30
0.0
 11
3097.862646115603
 21
1333.658501641213
 31
0.0
  0
LINE
  5
1467E
330
1349B
100
AcDbEntity
  8
0
  6
ByBlock
 62
     0
 48
50.0
100
AcDbLine
 10
5507.862646115605
 20
1695.562576328022
 30
0.0
 11
5507.862646115605
 21
1333.658501641213
 31
0.0
  0
LINE
  5
1467F
330
1349B
100
AcDbEntity
  8
0
  6
ByBlock
 62
     0
 48
50.0
100
AcDbLine
 10
3097.862646115603
 20
1378.658501641213
 30
0.0
 11
5507.862646115605
 21
1378.658501641213
 31
0.0
  0
INSERT
  5
14680
330
1349B
100
AcDbEntity
  8
0
  6
ByBlock
 62
     0
 48
50.0
100
AcDbBlockReference
  2
_DOTSMALL
 10
3097.862646115603
 20
1378.658501641213
 30
0.0
 41
75.0
 42
75.0
 43
75.0
 50
180.0
  0
INSERT
  5
14681
330
1349B
100
AcDbEntity
  8
0
  6
ByBlock
 62
     0
 48
50.0
100
AcDbBlockReference
  2
_DOTSMALL
 10
5507.862646115605
 20
1378.658501641213
 30
0.0
 41
75.0
 42
75.0
 43
75.0
  0
MTEXT
  5
14682
330
1349B
100
AcDbEntity
  8
0
  6
ByBlock
 62
     7
 48
50.0
100
AcDbMText
 10
4302.862646115603
 20
1453.66735990893
 30
0.0
 40
90.0
 41
0.0
 71
     5
 72
     1
  1
\A1;2410
  7
STYLE1
 73
     1
 44
1.0
1001
ACAD
1000
MTEXTBEGIN
1070
    73
1070
     1
1070
    44
1040
1.0
1070
    74
1070
     0
1000
MTEXTEND
  0
POINT
  5
14683
330
1349B
100
AcDbEntity
  8
DEFPOINTS
  6
ByBlock
 62
     0
 48
50.0
100
AcDbPoint
 10
3097.862646115603
 20
1710.562576328024
 30
0.0
  0
POINT
  5
14684
330
1349B
100
AcDbEntity
  8
DEFPOINTS
  6
ByBlock
 62
     0
 48
50.0
100
AcDbPoint
 10
5507.862646115605
 20
1710.562576328022
 30
0.0
  0
POINT
  5
14685
330
1349B
100
AcDbEntity
  8
DEFPOINTS
  6
ByBlock
 62
     0
 48
50.0
100
AcDbPoint
 10
5507.862646115605
 20
1378.658501641213
 30
0.0
  0
ENDBLK
  5
14686
330
1349B
100
AcDbEntity
  8
0
 48
50.0
100
AcDbBlockEnd
  0
BLOCK
  5
13E37
330
134B1
100
AcDbEntity
  8
0
 48
50.0
100
AcDbBlockBegin
  2
*D8
 70
     1
 10
0.0
 20
0.0
 30
0.0
  3
*D8
  1

  0
LINE
  5
13E38
330
134B1
100
AcDbEntity
  8
0
  6
ByBlock
 62
     0
 48
50.0
100
AcDbLine
 10
7481.8621856143
 20
5246.814793541216
 30
0.0
 11
7481.8621856143
 21
5907.61934322516
 31
0.0
  0
LINE
  5
13E39
330
134B1
100
AcDbEntity
  8
0
  6
ByBlock
 62
     0
 48
50.0
100
AcDbLine
 10
7731.8621856143
 20
5342.367498923764
 30
0.0
 11
7731.8621856143
 21
5907.61934322516
 31
0.0
  0
LINE
  5
13E3A
330
134B1
100
AcDbEntity
  8
0
  6
ByBlock
 62
     0
 48
50.0
100
AcDbLine
 10
7481.8621856143
 20
5862.61934322516
 30
0.0
 11
7731.8621856143
 21
5862.61934322516
 31
0.0
  0
LINE
  5
13E3B
330
134B1
100
AcDbEntity
  8
0
  6
ByBlock
 62
     0
 48
50.0
100
AcDbLine
 10
7731.8621856143
 20
5862.61934322516
 30
0.0
 11
8135.76628310064
 21
5862.61934322516
 31
0.0
  0
INSERT
  5
13E3C
330
134B1
100
AcDbEntity
  8
0
  6
ByBlock
 62
     0
 48
50.0
100
AcDbBlockReference
  2
_DOTSMALL
 10
7481.8621856143
 20
5862.61934322516
 30
0.0
 41
75.0
 42
75.0
 43
75.0
 50
180.0
  0
INSERT
  5
13E3D
330
134B1
100
AcDbEntity
  8
0
  6
ByBlock
 62
     0
 48
50.0
100
AcDbBlockReference
  2
_DOTSMALL
 10
7731.8621856143
 20
5862.61934322516
 30
0.0
 41
75.0
 42
75.0
 43
75.0
  0
MTEXT
  5
13E3E
330
134B1
100
AcDbEntity
  8
0
  6
ByBlock
 62
     7
 48
50.0
100
AcDbMText
 10
8023.588133494341
 20
5937.628201492877
 30
0.0
 40
90.0
 41
0.0
 71
     5
 72
     1
  1
\A1;250
  7
STYLE1
 73
     1
 44
1.0
1001
ACAD
1000
MTEXTBEGIN
1070
    73
1070
     1
1070
    44
1040
1.0
1070
    74
1070
     0
1000
MTEXTEND
  0
POINT
  5
13E3F
330
134B1
100
AcDbEntity
  8
DEFPOINTS
  6
ByBlock
 62
     0
 48
50.0
100
AcDbPoint
 10
7481.8621856143
 20
5231.814793541216
 30
0.0
  0
POINT
  5
13E40
330
134B1
100
AcDbEntity
  8
DEFPOINTS
  6
ByBlock
 62
     0
 48
50.0
100
AcDbPoint
 10
7731.8621856143
 20
5327.367498923764
 30
0.0
  0
POINT
  5
13E41
330
134B1
100
AcDbEntity
  8
DEFPOINTS
  6
ByBlock
 62
     0
 48
50.0
100
AcDbPoint
 10
7731.8621856143
 20
5862.61934322516
 30
0.0
  0
ENDBLK
  5
13E42
330
134B1
100
AcDbEntity
  8
0
 48
50.0
100
AcDbBlockEnd
  0
BLOCK
  5
13E99
330
134BC
100
AcDbEntity
  8
0
 48
50.0
100
AcDbBlockBegin
  2
*D9
 70
     1
 10
0.0
 20
0.0
 30
0.0
  3
*D9
  1

  0
LINE
  5
13E9A
330
134BC
100
AcDbEntity
  8
0
  6
ByBlock
 62
     0
 48
50.0
100
AcDbLine
 10
9115.715055505779
 20
4082.038116080246
 30
0.0
 11
8776.698635246754
 21
4095.598772890606
 31
0.0
  0
LINE
  5
13E9B
330
134BC
100
AcDbEntity
  8
0
  6
ByBlock
 62
     0
 48
50.0
100
AcDbLine
 10
9135.946881310283
 20
3977.646076141594
 30
0.0
 11
8772.561943277645
 21
3992.181473662899
 31
0.0
  0
LINE
  5
13E9C
330
134BC
100
AcDbEntity
  8
0
  6
ByBlock
 62
     0
 48
50.0
100
AcDbLine
 10
8821.662678389234
 20
4093.800211164907
 30
0.0
 11
8817.525986420125
 21
3990.382911937201
 31
0.0
  0
INSERT
  5
13E9D
330
134BC
100
AcDbEntity
  8
0
  6
ByBlock
 62
     0
 48
50.0
100
AcDbBlockReference
  2
_DOTSMALL
 10
8821.662678389234
 20
4093.800211164907
 30
0.0
 41
75.0
 42
75.0
 43
75.0
 50
87.7093899573615
  0
INSERT
  5
13E9E
330
134BC
100
AcDbEntity
  8
0
  6
ByBlock
 62
     0
 48
50.0
100
AcDbBlockReference
  2
_DOTSMALL
 10
8817.525986420125
 20
3990.382911937201
 30
0.0
 41
75.0
 42
75.0
 43
75.0
 50
267.7093899573615
  0
MTEXT
  5
13E9F
330
134BC
100
AcDbEntity
  8
0
  6
ByBlock
 62
     7
 48
50.0
100
AcDbMText
 10
8744.654260500544
 20
4045.089164427219
 30
0.0
 40
90.0
 41
0.0
 71
     5
 72
     1
  1
\A1;103.5
  7
STYLE1
 11
0.0399680383488711
 21
0.9992009587217895
 31
0.0
 73
     1
 44
1.0
1001
ACAD
1000
MTEXTBEGIN
1070
    73
1070
     1
1070
    44
1040
1.0
1070
    74
1070
     0
1000
MTEXTEND
  0
POINT
  5
13EA0
330
134BC
100
AcDbEntity
  8
DEFPOINTS
  6
ByBlock
 62
     0
 48
50.0
100
AcDbPoint
 10
9130.703069886605
 20
4081.438595505012
 30
0.0
 50
2.290610042638495
  0
POINT
  5
13EA1
330
134BC
100
AcDbEntity
  8
DEFPOINTS
  6
ByBlock
 62
     0
 48
50.0
100
AcDbPoint
 10
9150.93489569111
 20
3977.046555566361
 30
0.0
 50
2.290610042638495
  0
POINT
  5
13EA2
330
134BC
100
AcDbEntity
  8
DEFPOINTS
  6
ByBlock
 62
     0
 48
50.0
100
AcDbPoint
 10
8817.525986420125
 20
3990.382911937201
 30
0.0
 50
2.290610042638495
  0
ENDBLK
  5
13EA3
330
134BC
100
AcDbEntity
  8
0
 48
50.0
100
AcDbBlockEnd
  0
BLOCK
  5
13E43
330
134D8
100
AcDbEntity
  8
0
 48
50.0
100
AcDbBlockBegin
  2
*D10
 70
     1
 10
0.0
 20
0.0
 30
0.0
  3
*D10
  1

  0
LINE
  5
13E44
330
134D8
100
AcDbEntity
  8
0
  6
ByBlock
 62
     0
 48
50.0
100
AcDbLine
 10
10199.1662998724
 20
5342.367498923766
 30
0.0
 11
10199.1662998724
 21
6212.187023874692
 31
0.0
  0
LINE
  5
13E45
330
134D8
100
AcDbEntity
  8
0
  6
ByBlock
 62
     0
 48
50.0
100
AcDbLine
 10
12199.1662998724
 20
5263.567498923765
 30
0.0
 11
12199.1662998724
 21
6212.187023874692
 31
0.0
  0
LINE
  5
13E46
330
134D8
100
AcDbEntity
  8
0
  6
ByBlock
 62
     0
 48
50.0
100
AcDbLine
 10
10199.1662998724
 20
6167.187023874692
 30
0.0
 11
12199.1662998724
 21
6167.187023874692
 31
0.0
  0
INSERT
  5
13E47
330
134D8
100
AcDbEntity
  8
0
  6
ByBlock
 62
     0
 48
50.0
100
AcDbBlockReference
  2
_DOTSMALL
 10
10199.1662998724
 20
6167.187023874692
 30
0.0
 41
75.0
 42
75.0
 43
75.0
 50
180.0
  0
INSERT
  5
13E48
330
134D8
100
AcDbEntity
  8
0
  6
ByBlock
 62
     0
 48
50.0
100
AcDbBlockReference
  2
_DOTSMALL
 10
12199.1662998724
 20
6167.187023874692
 30
0.0
 41
75.0
 42
75.0
 43
75.0
  0
MTEXT
  5
13E49
330
134D8
100
AcDbEntity
  8
0
  6
ByBlock
 62
     7
 48
50.0
100
AcDbMText
 10
11199.1662998724
 20
6242.195882142409
 30
0.0
 40
90.0
 41
0.0
 71
     5
 72
     1
  1
\A1;2000
  7
STYLE1
 73
     1
 44
1.0
1001
ACAD
1000
MTEXTBEGIN
1070
    73
1070
     1
1070
    44
1040
1.0
1070
    74
1070
     0
1000
MTEXTEND
  0
POINT
  5
13E4A
330
134D8
100
AcDbEntity
  8
DEFPOINTS
  6
ByBlock
 62
     0
 48
50.0
100
AcDbPoint
 10
10199.1662998724
 20
5327.367498923766
 30
0.0
  0
POINT
  5
13E4B
330
134D8
100
AcDbEntity
  8
DEFPOINTS
  6
ByBlock
 62
     0
 48
50.0
100
AcDbPoint
 10
12199.1662998724
 20
5248.567498923765
 30
0.0
  0
POINT
  5
13E4C
330
134D8
100
AcDbEntity
  8
DEFPOINTS
  6
ByBlock
 62
     0
 48
50.0
100
AcDbPoint
 10
12199.1662998724
 20
6167.187023874692
 30
0.0
  0
ENDBLK
  5
13E4D
330
134D8
100
AcDbEntity
  8
0
 48
50.0
100
AcDbBlockEnd
  0
BLOCK
  5
13DFF
330
13DBA
100
AcDbEntity
  8
0
 48
50.0
100
AcDbBlockBegin
  2
*D11
 70
     1
 10
0.0
 20
0.0
 30
0.0
  3
*D11
  1

  0
LINE
  5
14922
330
13DBA
100
AcDbEntity
  8
寸法
 62
     0
 48
50.0
370
    -2
100
AcDbLine
 10
5757.862646115602
 20
7921.447238448386
 30
0.0
 11
6426.352180640484
 21
7921.447238448384
 31
0.0
  0
LINE
  5
14923
330
13DBA
100
AcDbEntity
  8
寸法
 62
     0
 48
50.0
370
    -2
100
AcDbLine
 10
5757.862646115602
 20
5921.447238448382
 30
0.0
 11
6426.352180640484
 21
5921.44723844838
 31
0.0
  0
LINE
  5
14924
330
13DBA
100
AcDbEntity
  8
寸法
 62
     0
 48
50.0
370
    -2
100
AcDbLine
 10
6381.352180640484
 20
7921.447238448384
 30
0.0
 11
6381.352180640483
 21
5921.44723844838
 31
0.0
  0
INSERT
  5
14925
330
13DBA
100
AcDbEntity
  8
寸法
 62
     0
 48
50.0
370
    -2
100
AcDbBlockReference
  2
_DOTSMALL
 10
6381.352180640484
 20
7921.447238448384
 30
0.0
 41
75.0
 42
75.0
 43
75.0
 50
90.0
  0
INSERT
  5
14926
330
13DBA
100
AcDbEntity
  8
寸法
 62
     0
 48
50.0
370
    -2
100
AcDbBlockReference
  2
_DOTSMALL
 10
6381.352180640483
 20
5921.44723844838
 30
0.0
 41
75.0
 42
75.0
 43
75.0
 50
270.0
  0
MTEXT
  5
14927
330
13DBA
100
AcDbEntity
  8
寸法
 62
     7
 48
50.0
100
AcDbMText
 10
6306.343322372766
 20
6921.447238448381
 30
0.0
 40
90.0
 41
0.0
 71
     5
 72
     1
  1
\A1;2000
  7
STYLE1
 11
0.0000000000000001
 21
1.0
 31
0.0
 73
     1
 44
1.0
1001
ACAD
1000
MTEXTBEGIN
1070
    73
1070
     1
1070
    44
1040
1.0
1070
    74
1070
     0
1000
MTEXTEND
  0
POINT
  5
14928
330
13DBA
100
AcDbEntity
  8
DEFPOINTS
 62
     0
 48
50.0
100
AcDbPoint
 10
5742.862646115602
 20
7921.447238448386
 30
0.0
  0
POINT
  5
14929
330
13DBA
100
AcDbEntity
  8
DEFPOINTS
 62
     0
 48
50.0
100
AcDbPoint
 10
5742.862646115602
 20
5921.447238448382
 30
0.0
  0
POINT
  5
1492A
330
13DBA
100
AcDbEntity
  8
DEFPOINTS
 62
     0
 48
50.0
100
AcDbPoint
 10
6381.352180640483
 20
5921.44723844838
 30
0.0
  0
ENDBLK
  5
13E09
330
13DBA
100
AcDbEntity
  8
0
 48
50.0
100
AcDbBlockEnd
  0
BLOCK
  5
13EBB
330
13E72
100
AcDbEntity
  8
0
 48
50.0
100
AcDbBlockBegin
  2
*D12
 70
     1
 10
0.0
 20
0.0
 30
0.0
  3
*D12
  1

  0
LINE
  5
13EBC
330
13E72
100
AcDbEntity
  8
0
  6
ByBlock
 62
     0
 48
50.0
100
AcDbLine
 10
9100.103549311356
 20
4082.062576328023
 30
0.0
 11
8462.228440851003
 21
4082.062576328023
 31
0.0
  0
LINE
  5
13EBD
330
13E72
100
AcDbEntity
  8
0
  6
ByBlock
 62
     0
 48
50.0
100
AcDbLine
 10
9100.103549311356
 20
1880.562576328022
 30
0.0
 11
8462.228440851003
 21
1880.562576328022
 31
0.0
  0
LINE
  5
13EBE
330
13E72
100
AcDbEntity
  8
0
  6
ByBlock
 62
     0
 48
50.0
100
AcDbLine
 10
8507.228440851003
 20
4082.062576328023
 30
0.0
 11
8507.228440851003
 21
1880.562576328022
 31
0.0
  0
INSERT
  5
13EBF
330
13E72
100
AcDbEntity
  8
0
  6
ByBlock
 62
     0
 48
50.0
100
AcDbBlockReference
  2
_DOTSMALL
 10
8507.228440851003
 20
4082.062576328023
 30
0.0
 41
75.0
 42
75.0
 43
75.0
 50
90.0
  0
INSERT
  5
13EC0
330
13E72
100
AcDbEntity
  8
0
  6
ByBlock
 62
     0
 48
50.0
100
AcDbBlockReference
  2
_DOTSMALL
 10
8507.228440851003
 20
1880.562576328022
 30
0.0
 41
75.0
 42
75.0
 43
75.0
 50
270.0
  0
MTEXT
  5
13EC1
330
13E72
100
AcDbEntity
  8
0
  6
ByBlock
 62
     7
 48
50.0
100
AcDbMText
 10
8432.219582583286
 20
2981.312576328022
 30
0.0
 40
90.0
 41
0.0
 71
     5
 72
     1
  1
\A1;2201.5
  7
STYLE1
 11
0.0000000000000001
 21
1.0
 31
0.0
 73
     1
 44
1.0
1001
ACAD
1000
MTEXTBEGIN
1070
    73
1070
     1
1070
    44
1040
1.0
1070
    74
1070
     0
1000
MTEXTEND
  0
POINT
  5
13EC2
330
13E72
100
AcDbEntity
  8
DEFPOINTS
  6
ByBlock
 62
     0
 48
50.0
100
AcDbPoint
 10
9115.103549311355
 20
4082.062576328023
 30
0.0
  0
POINT
  5
13EC3
330
13E72
100
AcDbEntity
  8
DEFPOINTS
  6
ByBlock
 62
     0
 48
50.0
100
AcDbPoint
 10
9115.103549311355
 20
1880.562576328022
 30
0.0
  0
POINT
  5
13EC4
330
13E72
100
AcDbEntity
  8
DEFPOINTS
  6
ByBlock
 62
     0
 48
50.0
100
AcDbPoint
 10
8507.228440851003
 20
1880.562576328022
 30
0.0
  0
ENDBLK
  5
13EC5
330
13E72
100
AcDbEntity
  8
0
 48
50.0
100
AcDbBlockEnd
  0
BLOCK
  5
1454F
330
13E8C
100
AcDbEntity
  8
0
 48
50.0
100
AcDbBlockBegin
  2
*D13
 70
     1
 10
0.0
 20
0.0
 30
0.0
  3
*D13
  1

  0
LINE
  5
14550
330
13E8C
100
AcDbEntity
  8
0
  6
ByBlock
 62
     0
 48
50.0
100
AcDbLine
 10
11414.64429244082
 20
1880.562576328022
 30
0.0
 11
11535.74100178595
 21
1880.562576328022
 31
0.0
  0
LINE
  5
14551
330
13E8C
100
AcDbEntity
  8
0
  6
ByBlock
 62
     0
 48
50.0
100
AcDbLine
 10
11130.10354931135
 20
4002.650581124186
 30
0.0
 11
11535.74100178595
 21
4002.650581124185
 31
0.0
  0
LINE
  5
14552
330
13E8C
100
AcDbEntity
  8
0
  6
ByBlock
 62
     0
 48
50.0
100
AcDbLine
 10
11490.74100178595
 20
1880.562576328022
 30
0.0
 11
11490.74100178595
 21
4002.650581124185
 31
0.0
  0
INSERT
  5
14553
330
13E8C
100
AcDbEntity
  8
0
  6
ByBlock
 62
     0
 48
50.0
100
AcDbBlockReference
  2
_DOTSMALL
 10
11490.74100178595
 20
1880.562576328022
 30
0.0
 41
75.0
 42
75.0
 43
75.0
 50
270.0
  0
INSERT
  5
14554
330
13E8C
100
AcDbEntity
  8
0
  6
ByBlock
 62
     0
 48
50.0
100
AcDbBlockReference
  2
_DOTSMALL
 10
11490.74100178595
 20
4002.650581124185
 30
0.0
 41
75.0
 42
75.0
 43
75.0
 50
90.0
  0
MTEXT
  5
14555
330
13E8C
100
AcDbEntity
  8
0
  6
ByBlock
 62
     7
 48
50.0
100
AcDbMText
 10
11415.73214351823
 20
2991.672581441367
 30
0.0
 40
90.0
 41
0.0
 71
     5
 72
     1
  1
\A1;2121.5
  7
STYLE1
 11
0.0000000000000001
 21
1.0
 31
0.0
 73
     1
 44
1.0
1001
ACAD
1000
MTEXTBEGIN
1070
    73
1070
     1
1070
    44
1040
1.0
1070
    74
1070
     0
1000
MTEXTEND
  0
POINT
  5
14556
330
13E8C
100
AcDbEntity
  8
DEFPOINTS
  6
ByBlock
 62
     0
 48
50.0
100
AcDbPoint
 10
11399.64429244082
 20
1880.562576328022
 30
0.0
  0
POINT
  5
14557
330
13E8C
100
AcDbEntity
  8
DEFPOINTS
  6
ByBlock
 62
     0
 48
50.0
100
AcDbPoint
 10
11115.10354931135
 20
4002.650581124186
 30
0.0
  0
POINT
  5
14558
330
13E8C
100
AcDbEntity
  8
DEFPOINTS
  6
ByBlock
 62
     0
 48
50.0
100
AcDbPoint
 10
11490.74100178595
 20
4002.650581124185
 30
0.0
  0
ENDBLK
  5
14559
330
13E8C
100
AcDbEntity
  8
0
 48
50.0
100
AcDbBlockEnd
  0
BLOCK
  5
1472A
330
13EDE
100
AcDbEntity
  8
0
 48
50.0
100
AcDbBlockBegin
  2
*D14
 70
     1
 10
0.0
 20
0.0
 30
0.0
  3
*D14
  1

  0
LINE
  5
1472B
330
13EDE
100
AcDbEntity
  8
0
  6
ByBlock
 62
     0
 48
50.0
100
AcDbLine
 10
7585.540160560369
 20
1830.562576328022
 30
0.0
 11
6947.665052100015
 21
1830.562576328022
 31
0.0
  0
LINE
  5
1472C
330
13EDE
100
AcDbEntity
  8
0
  6
ByBlock
 62
     0
 48
50.0
100
AcDbLine
 10
8545.540160560369
 20
1880.562576328022
 30
0.0
 11
6947.665052100015
 21
1880.562576328022
 31
0.0
  0
LINE
  5
1472D
330
13EDE
100
AcDbEntity
  8
0
  6
ByBlock
 62
     0
 48
50.0
100
AcDbLine
 10
6992.665052100015
 20
1880.562576328022
 30
0.0
 11
6992.665052100015
 21
1955.562576328022
 31
0.0
  0
LINE
  5
1472E
330
13EDE
100
AcDbEntity
  8
0
  6
ByBlock
 62
     0
 48
50.0
100
AcDbLine
 10
6992.665052100015
 20
1830.562576328022
 30
0.0
 11
6992.665052100015
 21
1521.49171018629
 31
0.0
  0
LINE
  5
1472F
330
13EDE
100
AcDbEntity
  8
0
  6
ByBlock
 62
     0
 48
50.0
100
AcDbLine
 10
6992.665052100015
 20
1880.562576328022
 30
0.0
 11
6992.665052100015
 21
1830.562576328022
 31
0.0
  0
INSERT
  5
14730
330
13EDE
100
AcDbEntity
  8
0
  6
ByBlock
 62
     0
 48
50.0
100
AcDbBlockReference
  2
_DOTSMALL
 10
6992.665052100015
 20
1880.562576328022
 30
0.0
 41
75.0
 42
75.0
 43
75.0
 50
270.0
  0
INSERT
  5
14731
330
13EDE
100
AcDbEntity
  8
0
  6
ByBlock
 62
     0
 48
50.0
100
AcDbBlockReference
  2
_DOTSMALL
 10
6992.665052100015
 20
1830.562576328022
 30
0.0
 41
75.0
 42
75.0
 43
75.0
 50
90.0
  0
MTEXT
  5
14732
330
13EDE
100
AcDbEntity
  8
0
  6
ByBlock
 62
     7
 48
50.0
100
AcDbMText
 10
6917.665052100016
 20
1601.027143257156
 30
0.0
 40
90.0
 41
0.0
 71
     5
 72
     1
  1
\A1;50
  7
STYLE1
 11
0.0000000000000001
 21
1.0
 31
0.0
 73
     1
 44
1.0
1001
ACAD
1000
MTEXTBEGIN
1070
    73
1070
     1
1070
    44
1040
1.0
1070
    74
1070
     0
1000
MTEXTEND
  0
POINT
  5
14733
330
13EDE
100
AcDbEntity
  8
DEFPOINTS
  6
ByBlock
 62
     0
 48
50.0
100
AcDbPoint
 10
7600.540160560369
 20
1830.562576328022
 30
0.0
  0
POINT
  5
14734
330
13EDE
100
AcDbEntity
  8
DEFPOINTS
  6
ByBlock
 62
     0
 48
50.0
100
AcDbPoint
 10
8560.540160560369
 20
1880.562576328022
 30
0.0
  0
POINT
  5
14735
330
13EDE
100
AcDbEntity
  8
DEFPOINTS
  6
ByBlock
 62
     0
 48
50.0
100
AcDbPoint
 10
6992.665052100015
 20
1880.562576328022
 30
0.0
  0
ENDBLK
  5
14736
330
13EDE
100
AcDbEntity
  8
0
 48
50.0
100
AcDbBlockEnd
  0
BLOCK
  5
146DE
330
13F0A
100
AcDbEntity
  8
0
 48
50.0
100
AcDbBlockBegin
  2
*D15
 70
     1
 10
0.0
 20
0.0
 30
0.0
  3
*D15
  1

  0
LINE
  5
146DF
330
13F0A
100
AcDbEntity
  8
0
  6
ByBlock
 62
     0
 48
50.0
100
AcDbLine
 10
8655.540160560347
 20
1880.562576328022
 30
0.0
 11
10021.17761303496
 21
1880.562576328022
 31
0.0
  0
LINE
  5
146E0
330
13F0A
100
AcDbEntity
  8
0
  6
ByBlock
 62
     0
 48
50.0
100
AcDbLine
 10
9615.540160560371
 20
1830.562576328022
 30
0.0
 11
10021.17761303496
 21
1830.562576328022
 31
0.0
  0
LINE
  5
146E1
330
13F0A
100
AcDbEntity
  8
0
  6
ByBlock
 62
     0
 48
50.0
100
AcDbLine
 10
9976.177613034964
 20
1880.562576328022
 30
0.0
 11
9976.177613034964
 21
1955.562576328022
 31
0.0
  0
LINE
  5
146E2
330
13F0A
100
AcDbEntity
  8
0
  6
ByBlock
 62
     0
 48
50.0
100
AcDbLine
 10
9976.177613034964
 20
1830.562576328022
 30
0.0
 11
9976.177613034964
 21
1521.49171018629
 31
0.0
  0
LINE
  5
146E3
330
13F0A
100
AcDbEntity
  8
0
  6
ByBlock
 62
     0
 48
50.0
100
AcDbLine
 10
9976.177613034964
 20
1880.562576328022
 30
0.0
 11
9976.177613034964
 21
1830.562576328022
 31
0.0
  0
INSERT
  5
146E4
330
13F0A
100
AcDbEntity
  8
0
  6
ByBlock
 62
     0
 48
50.0
100
AcDbBlockReference
  2
_DOTSMALL
 10
9976.177613034964
 20
1880.562576328022
 30
0.0
 41
75.0
 42
75.0
 43
75.0
 50
270.0
  0
INSERT
  5
146E5
330
13F0A
100
AcDbEntity
  8
0
  6
ByBlock
 62
     0
 48
50.0
100
AcDbBlockReference
  2
_DOTSMALL
 10
9976.177613034964
 20
1830.562576328022
 30
0.0
 41
75.0
 42
75.0
 43
75.0
 50
90.0
  0
MTEXT
  5
146E6
330
13F0A
100
AcDbEntity
  8
0
  6
ByBlock
 62
     7
 48
50.0
100
AcDbMText
 10
9901.177613034965
 20
1601.027143257156
 30
0.0
 40
90.0
 41
0.0
 71
     5
 72
     1
  1
\A1;50
  7
STYLE1
 11
0.0000000000000001
 21
1.0
 31
0.0
 73
     1
 44
1.0
1001
ACAD
1000
MTEXTBEGIN
1070
    73
1070
     1
1070
    44
1040
1.0
1070
    74
1070
     0
1000
MTEXTEND
  0
POINT
  5
146E7
330
13F0A
100
AcDbEntity
  8
DEFPOINTS
  6
ByBlock
 62
     0
 48
50.0
100
AcDbPoint
 10
8640.540160560346
 20
1880.562576328022
 30
0.0
  0
POINT
  5
146E8
330
13F0A
100
AcDbEntity
  8
DEFPOINTS
  6
ByBlock
 62
     0
 48
50.0
100
AcDbPoint
 10
9600.54016056037
 20
1830.562576328022
 30
0.0
  0
POINT
  5
146E9
330
13F0A
100
AcDbEntity
  8
DEFPOINTS
  6
ByBlock
 62
     0
 48
50.0
100
AcDbPoint
 10
9976.177613034964
 20
1830.562576328022
 30
0.0
  0
ENDBLK
  5
146EA
330
13F0A
100
AcDbEntity
  8
0
 48
50.0
100
AcDbBlockEnd
  0
BLOCK
  5
14712
330
14705
100
AcDbEntity
  8
0
 48
50.0
100
AcDbBlockBegin
  2
*D16
 70
     1
 10
0.0
 20
0.0
 30
0.0
  3
*D16
  1

  0
LINE
  5
14919
330
14705
100
AcDbEntity
  8
寸法
 62
     0
 48
50.0
370
    -2
100
AcDbLine
 10
2847.869964974296
 20
7921.915759734051
 30
0.0
 11
2847.869964974296
 21
8301.559557026321
 31
0.0
  0
LINE
  5
1491A
330
14705
100
AcDbEntity
  8
寸法
 62
     0
 48
50.0
370
    -2
100
AcDbLine
 10
5757.862646115602
 20
7921.447238448386
 30
0.0
 11
5757.862646115602
 21
8301.559557026321
 31
0.0
  0
LINE
  5
1491B
330
14705
100
AcDbEntity
  8
寸法
 62
     0
 48
50.0
370
    -2
100
AcDbLine
 10
2847.869964974296
 20
8256.559557026321
 30
0.0
 11
5757.862646115602
 21
8256.559557026321
 31
0.0
  0
INSERT
  5
1491C
330
14705
100
AcDbEntity
  8
寸法
 62
     0
 48
50.0
370
    -2
100
AcDbBlockReference
  2
_DOTSMALL
 10
2847.869964974296
 20
8256.559557026321
 30
0.0
 41
75.0
 42
75.0
 43
75.0
 50
180.0
  0
INSERT
  5
1491D
330
14705
100
AcDbEntity
  8
寸法
 62
     0
 48
50.0
370
    -2
100
AcDbBlockReference
  2
_DOTSMALL
 10
5757.862646115602
 20
8256.559557026321
 30
0.0
 41
75.0
 42
75.0
 43
75.0
  0
MTEXT
  5
1491E
330
14705
100
AcDbEntity
  8
寸法
 62
     7
 48
50.0
100
AcDbMText
 10
4302.866305544949
 20
8331.568415294038
 30
0.0
 40
90.0
 41
0.0
 71
     5
 72
     1
  1
\A1;2910
  7
STYLE1
 73
     1
 44
1.0
1001
ACAD
1000
MTEXTBEGIN
1070
    73
1070
     1
1070
    44
1040
1.0
1070
    74
1070
     0
1000
MTEXTEND
  0
POINT
  5
1491F
330
14705
100
AcDbEntity
  8
DEFPOINTS
 62
     0
 48
50.0
100
AcDbPoint
 10
2847.869964974296
 20
7906.915759734051
 30
0.0
  0
POINT
  5
14920
330
14705
100
AcDbEntity
  8
DEFPOINTS
 62
     0
 48
50.0
100
AcDbPoint
 10
5757.862646115602
 20
7906.447238448385
 30
0.0
  0
POINT
  5
14921
330
14705
100
AcDbEntity
  8
DEFPOINTS
 62
     0
 48
50.0
100
AcDbPoint
 10
5757.862646115602
 20
8256.559557026321
 30
0.0
  0
ENDBLK
  5
1471C
330
14705
100
AcDbEntity
  8
0
 48
50.0
100
AcDbBlockEnd
  0
BLOCK
  5
14875
330
14874
100
AcDbEntity
  8
0
 48
50.0
100
AcDbBlockBegin
  2
A$C644A28E3
 70
     0
 10
0.0
 20
0.0
 30
0.0
  3
A$C644A28E3
  1

  0
ARC
  5
14876
330
14874
100
AcDbEntity
  8
部品1
 48
50.0
100
AcDbCircle
 10
53.99999260842742
 20
10.0000017156417
 30
0.0
 40
10.0
100
AcDbArc
 50
270.0000000000021
 51
0.0
  0
ARC
  5
14877
330
14874
100
AcDbEntity
  8
部品1
 48
50.0
100
AcDbCircle
 10
9.999992608427419
 20
10.00000171563806
 30
0.0
 40
10.0
100
AcDbArc
 50
180.0
 51
270.0000000000009
  0
LINE
  5
14878
330
14874
100
AcDbEntity
  8
部品1
 48
50.0
100
AcDbLine
 10
9.999992608427419
 20
0.0000017156380636
 30
0.0
 11
53.99999260842742
 21
0.0000017156417016
 31
0.0
  0
LINE
  5
14879
330
14874
100
AcDbEntity
  8
部品1
 48
50.0
100
AcDbLine
 10
63.99999260842742
 20
45.00000171563806
 30
0.0
 11
63.99999260842742
 21
10.0000017156417
 31
0.0
  0
LINE
  5
1487A
330
14874
100
AcDbEntity
  8
部品1
 48
50.0
100
AcDbLine
 10
-0.0000073915725807
 20
45.00000171563806
 30
0.0
 11
-0.0000073915725807
 21
10.00000171563806
 31
0.0
  0
ENDBLK
  5
1487B
330
14874
100
AcDbEntity
  8
0
 48
50.0
100
AcDbBlockEnd
  0
ENDSEC
  0
SECTION
  2
ENTITIES
  0
MTEXT
  5
763F
330
747D
100
AcDbEntity
  8
0
100
AcDbMText
 10
302.846345836809
 20
280.1983726409901
 30
0.0
 40
3.5
 41
5.323721266742722
 71
     1
 72
     5
  1

  7
MSMINCHO
 73
     1
 44
1.0
1001
ACAD
1000
MTEXTBEGIN
1070
    73
1070
     1
1070
    44
1040
1.0
1070
    74
1070
     0
1000
MTEXTEND
  0
INSERT
  5
F235
330
747D
100
AcDbEntity
  8
0
100
AcDbBlockReference
  2
作図枠S50
 10
0.0
 20
0.0
 30
0.0
 41
0.6000000000000001
 42
0.6000000000000001
 43
0.6000000000000001
  0
LINE
  5
10B56
330
747D
100
AcDbEntity
  8
補助
  6
PHANTOM
 62
   230
 48
50.0
100
AcDbLine
 10
105.0
 20
0.0
 30
0.0
 11
104.9999999999996
 21
8557.199999999999
 31
0.0
  0
LINE
  5
10B57
330
747D
100
AcDbEntity
  8
補助
  6
PHANTOM
 62
   230
 48
50.0
100
AcDbLine
 10
104.9999999999996
 20
8557.199999999999
 30
0.0
 11
12230.4
 21
8557.199999999999
 31
0.0
  0
LINE
  5
10B5E
330
747D
100
AcDbEntity
  8
補助
  6
PHANTOM
 62
   230
 48
50.0
100
AcDbLine
 10
12230.4
 20
8557.199999999999
 30
0.0
 11
12230.4
 21
900.0
 31
0.0
  0
LINE
  5
12F4D
330
747D
100
AcDbEntity
  8
仕様書枠
 48
50.0
100
AcDbLine
 10
105.0000000000018
 20
0.0
 30
0.0
 11
12230.4
 21
0.0
 31
0.0
  0
DIMENSION
  5
12F4F
330
747D
100
AcDbEntity
  8
寸法
 48
50.0
100
AcDbDimension
  2
*D4
 10
5757.862646115606
 20
4910.957606075115
 30
0.0
 11
4302.862646115604
 21
4985.966464342832
 31
0.0
 70
    32
 71
     5
 42
-1.0
  3
INABA_S30G
100
AcDbAlignedDimension
 13
2847.862646115603
 23
4066.450581124186
 33
0.0
 14
5757.862646115606
 24
4066.450581124185
 34
0.0
100
AcDbRotatedDimension
  0
DIMENSION
  5
12F50
330
747D
100
AcDbEntity
  8
寸法
 48
50.0
100
AcDbDimension
  2
*D5
 10
5507.862646115606
 20
4601.702425425583
 30
0.0
 11
4302.862646115604
 21
4676.7112836933
 31
0.0
 70
    32
 71
     5
 42
-1.0
  3
INABA_S30G
100
AcDbAlignedDimension
 13
3097.862646115603
 23
3970.897875741638
 33
0.0
 14
5507.862646115606
 24
3970.897875741638
 34
0.0
100
AcDbRotatedDimension
  0
LINE
  5
12F56
330
747D
100
AcDbEntity
  8
部品1
 48
50.0
100
AcDbLine
 10
5757.862646115606
 20
1880.562576328022
 30
0.0
 11
2847.862646115603
 21
1880.562576328023
 31
0.0
  0
LINE
  5
12F57
330
747D
100
AcDbEntity
  8
Ｇ．Ｌ
 48
50.0
100
AcDbLine
 10
2168.282671209718
 20
1830.562576328022
 30
0.0
 11
10392.73793361398
 21
1830.562576328022
 31
0.0
  0
LINE
  5
12F58
330
747D
100
AcDbEntity
  8
細線
 48
50.0
100
AcDbLine
 10
5707.644030014203
 20
4002.407532190146
 30
0.0
 11
2898.081262217006
 21
4002.407532190148
 31
0.0
  0
LINE
  5
12F59
330
747D
100
AcDbEntity
  8
細線
 48
50.0
100
AcDbLine
 10
5704.282423454189
 20
4014.027143629733
 30
0.0
 11
2901.442868777024
 21
4014.027143629737
 31
0.0
  0
LINE
  5
12F5A
330
747D
100
AcDbEntity
  8
細線
 48
50.0
100
AcDbLine
 10
5709.488917815082
 20
4038.276767503652
 30
0.0
 11
2896.236374416135
 21
4038.276767503653
 31
0.0
  0
LINE
  5
12F5B
330
747D
100
AcDbEntity
  8
細線
 48
50.0
100
AcDbLine
 10
5715.486412224168
 20
4049.896378943234
 30
0.0
 11
2890.238880007041
 21
4049.896378943238
 31
0.0
  0
LINE
  5
12F5C
330
747D
100
AcDbEntity
  8
部品1
 48
50.0
100
AcDbLine
 10
5717.862646115606
 20
3977.046555566361
 30
0.0
 11
2887.862646115603
 21
3977.046555566363
 31
0.0
  0
LINE
  5
12F5D
330
747D
100
AcDbEntity
  8
部品1
 48
50.0
100
AcDbLine
 10
5742.862646115606
 20
4081.450581124187
 30
0.0
 11
2862.862646115603
 21
4081.450581124189
 31
0.0
  0
LINE
  5
12F70
330
747D
100
AcDbEntity
  8
部品1
 48
50.0
100
AcDbLine
 10
2910.862646115603
 20
3977.046555566363
 30
0.0
 11
2910.862646115603
 21
3900.228017808711
 31
0.0
  0
LINE
  5
12F71
330
747D
100
AcDbEntity
  8
部品1
 48
50.0
100
AcDbLine
 10
3065.862646115603
 20
3968.897875741639
 30
0.0
 11
3065.862646115603
 21
3909.348694766935
 31
0.0
  0
LINE
  5
12F72
330
747D
100
AcDbEntity
  8
部品1
 48
50.0
100
AcDbLine
 10
3129.862646115603
 20
3968.897875741639
 30
0.0
 11
3129.862646115603
 21
3909.348694766935
 31
0.0
  0
LINE
  5
12F73
330
747D
100
AcDbEntity
  8
部品1
 48
50.0
100
AcDbLine
 10
2848.438183718457
 20
3985.516841724655
 30
0.0
 11
2868.630029586079
 21
3914.741082286204
 31
0.0
  0
TEXT
  5
12F75
330
747D
100
AcDbEntity
  8
部品1
 48
50.0
100
AcDbText
 10
2174.141647099733
 20
1869.953876758351
 30
0.0
 40
100.0
  1
▽G.L
  7
STYLE2
100
AcDbText
  0
LINE
  5
12F77
330
747D
100
AcDbEntity
  8
部品1
 48
50.0
100
AcDbLine
 10
3137.862646115603
 20
3548.431828606206
 30
0.0
 11
3137.862646115603
 21
1880.562576328023
 31
0.0
  0
LINE
  5
12F78
330
747D
100
AcDbEntity
  8
部品1
 48
50.0
100
AcDbLine
 10
3057.862646115606
 20
3548.431828606206
 30
0.0
 11
3057.862646115603
 21
1880.562576328023
 31
0.0
  0
LINE
  5
12F7C
330
747D
100
AcDbEntity
  8
部品1
 48
50.0
100
AcDbLine
 10
2847.862646115603
 20
1880.562576328023
 30
0.0
 11
2847.862646115603
 21
1830.562576328023
 31
0.0
  0
LINE
  5
12F82
330
747D
100
AcDbEntity
  8
点線
 48
18.0
100
AcDbLine
 10
3137.862646115603
 20
1880.562576328023
 30
0.0
 11
3137.862646115603
 21
1830.562576328023
 31
0.0
  0
LINE
  5
12F83
330
747D
100
AcDbEntity
  8
点線
 48
18.0
100
AcDbLine
 10
3057.862646115603
 20
1880.562576328023
 30
0.0
 11
3057.862646115603
 21
1830.562576328023
 31
0.0
  0
LINE
  5
12F86
330
747D
100
AcDbEntity
  8
部品1
 48
50.0
100
AcDbLine
 10
3065.862646115603
 20
3909.969012140662
 30
0.0
 11
2910.862646115603
 21
3909.969012140662
 31
0.0
  0
LINE
  5
12F87
330
747D
100
AcDbEntity
  8
部品1
 48
50.0
100
AcDbLine
 10
3065.862646115603
 20
3900.228017808711
 30
0.0
 11
2887.862646115603
 21
3900.228017808711
 31
0.0
  0
ARC
  5
12F88
330
747D
100
AcDbEntity
  8
部品1
 48
50.0
100
AcDbCircle
 10
2887.862646115603
 20
3920.228017808711
 30
0.0
 40
20.0
100
AcDbArc
 50
195.9230900765477
 51
270.0
  0
ARC
  5
12F89
330
747D
100
AcDbEntity
  8
部品1
 48
50.0
100
AcDbCircle
 10
3067.862646115603
 20
3909.348694766935
 30
0.0
 40
2.0
100
AcDbArc
 50
180.0000000000017
 51
270.0
  0
ARC
  5
12F8A
330
747D
100
AcDbEntity
  8
部品1
 48
50.0
100
AcDbCircle
 10
3127.862646115603
 20
3909.348694766935
 30
0.0
 40
2.0
100
AcDbArc
 50
270.0
 51
0.000000000000007
  0
LINE
  5
12F8B
330
747D
100
AcDbEntity
  8
部品1
 48
50.0
100
AcDbLine
 10
3067.862646115603
 20
3907.348694766935
 30
0.0
 11
3127.862646115603
 21
3907.348694766935
 31
0.0
  0
LINE
  5
12F8C
330
747D
100
AcDbEntity
  8
細線
 48
50.0
100
AcDbLine
 10
3065.862646115603
 20
3932.89787574164
 30
0.0
 11
3129.862646115603
 21
3932.897875741639
 31
0.0
  0
LINE
  5
12F8D
330
747D
100
AcDbEntity
  8
細線
 48
50.0
100
AcDbLine
 10
3065.862646115603
 20
3922.897875741641
 30
0.0
 11
3129.862646115603
 21
3922.897875741639
 31
0.0
  0
LINE
  5
12F8E
330
747D
100
AcDbEntity
  8
部品1
 48
50.0
100
AcDbLine
 10
3052.862646115603
 20
3698.431828606209
 30
0.0
 11
3077.862646115607
 21
3698.431828606209
 31
0.0
  0
LINE
  5
12F8F
330
747D
100
AcDbEntity
  8
部品1
 48
50.0
100
AcDbLine
 10
3067.862646115603
 20
3844.81816445448
 30
0.0
 11
3077.862646115603
 21
3844.81816445448
 31
0.0
  0
ARC
  5
12F90
330
747D
100
AcDbEntity
  8
部品1
 48
50.0
100
AcDbCircle
 10
3067.862646115603
 20
3846.81816445448
 30
0.0
 40
2.0
100
AcDbArc
 50
180.0
 51
270.0
  0
LINE
  5
12F91
330
747D
100
AcDbEntity
  8
部品1
 48
50.0
100
AcDbLine
 10
3052.862646115606
 20
3548.431828606208
 30
0.0
 11
3052.862646115606
 21
3698.431828606209
 31
0.0
  0
ARC
  5
12F92
330
747D
100
AcDbEntity
  8
部品1
 48
50.0
100
AcDbCircle
 10
3127.862646115603
 20
3846.81816445448
 30
0.0
 40
2.0
100
AcDbArc
 50
270.0
 51
0.000000000000007
  0
LINE
  5
12F93
330
747D
100
AcDbEntity
  8
部品1
 48
50.0
100
AcDbLine
 10
3142.862646115603
 20
3548.431828606208
 30
0.0
 11
3142.862646115603
 21
3698.431828606209
 31
0.0
  0
LINE
  5
12F94
330
747D
100
AcDbEntity
  8
部品1
 48
50.0
100
AcDbLine
 10
3052.862646115603
 20
3548.431828606208
 30
0.0
 11
3142.862646115603
 21
3548.431828606206
 31
0.0
  0
LINE
  5
12F95
330
747D
100
AcDbEntity
  8
部品1
 48
50.0
100
AcDbLine
 10
3117.862646115606
 20
3698.431828606209
 30
0.0
 11
3142.862646115603
 21
3698.431828606209
 31
0.0
  0
LINE
  5
12F96
330
747D
100
AcDbEntity
  8
部品1
 48
50.0
100
AcDbLine
 10
3117.862646115603
 20
3844.81816445448
 30
0.0
 11
3127.862646115603
 21
3844.81816445448
 31
0.0
  0
LINE
  5
12F97
330
747D
100
AcDbEntity
  8
部品1
 48
50.0
100
AcDbLine
 10
3077.862646115603
 20
3907.348694766937
 30
0.0
 11
3077.862646115603
 21
3548.431828606208
 31
0.0
  0
LINE
  5
12F98
330
747D
100
AcDbEntity
  8
部品1
 48
50.0
100
AcDbLine
 10
3117.862646115603
 20
3907.348694766937
 30
0.0
 11
3117.862646115603
 21
3548.431828606208
 31
0.0
  0
LINE
  5
12F99
330
747D
100
AcDbEntity
  8
部品1
 48
50.0
100
AcDbLine
 10
3097.862646115603
 20
3907.348694766937
 30
0.0
 11
3097.862646115603
 21
3548.431828606208
 31
0.0
  0
LINE
  5
12F9A
330
747D
100
AcDbEntity
  8
部品1
 48
50.0
100
AcDbLine
 10
3129.862646115603
 20
3909.348694766935
 30
0.0
 11
3129.862646115603
 21
3846.81816445448
 31
0.0
  0
LINE
  5
12F9B
330
747D
100
AcDbEntity
  8
部品1
 48
50.0
100
AcDbLine
 10
3065.862646115603
 20
3909.348694766935
 30
0.0
 11
3065.862646115603
 21
3846.81816445448
 31
0.0
  0
DIMENSION
  5
12FB4
330
747D
100
AcDbEntity
  8
寸法
 48
50.0
100
AcDbDimension
  2
*D6
 10
3097.862646115603
 20
4601.702425425583
 30
0.0
 11
2660.684496509303
 21
4601.702425425583
 31
0.0
 12
436.0004605013054
 22
-1260.916917799578
 32
0.0
 70
   160
 71
     5
 42
-1.0
  3
INABA_S30G
100
AcDbAlignedDimension
 13
2847.862646115603
 23
4066.450581124186
 33
0.0
 14
3097.862646115603
 24
3970.897875741638
 34
0.0
100
AcDbRotatedDimension
  0
LINE
  5
12FB5
330
747D
100
AcDbEntity
  8
部品1
 48
50.0
100
AcDbLine
 10
3065.862646115603
 20
3969.969012140659
 30
0.0
 11
2910.862646115603
 21
3969.969012140659
 31
0.0
  0
LINE
  5
12FB6
330
747D
100
AcDbEntity
  8
部品1
 48
50.0
100
AcDbLine
 10
3065.862646115603
 20
3939.30714462049
 30
0.0
 11
2910.862646115603
 21
3939.30714462049
 31
0.0
  0
LINE
  5
12FB7
330
747D
100
AcDbEntity
  8
部品1
 48
50.0
100
AcDbLine
 10
2847.862646115603
 20
4066.450581124186
 30
0.0
 11
2847.862646115603
 21
3989.632043366533
 31
0.0
  0
ARC
  5
12FB8
330
747D
100
AcDbEntity
  8
部品1
 48
50.0
100
AcDbCircle
 10
2862.862646115603
 20
3989.632043366533
 30
0.0
 40
15.0
100
AcDbArc
 50
180.0
 51
195.9230900765452
  0
ARC
  5
12FB9
330
747D
100
AcDbEntity
  8
細線
 48
50.0
100
AcDbCircle
 10
2901.442868777024
 20
4017.027143629735
 30
0.0
 40
3.0
100
AcDbArc
 50
195.9230900765464
 51
270.0
  0
ARC
  5
12FBA
330
747D
100
AcDbEntity
  8
細線
 48
50.0
100
AcDbCircle
 10
2896.236374416135
 20
4035.276767503654
 30
0.0
 40
3.0
100
AcDbArc
 50
90.0
 51
195.9230900765469
  0
ARC
  5
12FBB
330
747D
100
AcDbEntity
  8
細線
 48
50.0
100
AcDbCircle
 10
2898.081262217006
 20
4012.407532190148
 30
0.0
 40
10.0
100
AcDbArc
 50
195.9230900765468
 51
270.0
  0
ARC
  5
12FBC
330
747D
100
AcDbEntity
  8
細線
 48
50.0
100
AcDbCircle
 10
2890.238880007041
 20
4039.896378943238
 30
0.0
 40
10.0
100
AcDbArc
 50
90.0
 51
195.9230900765469
  0
LINE
  5
12FBD
330
747D
100
AcDbEntity
  8
細線
 48
50.0
100
AcDbLine
 10
2893.351481936706
 20
4034.453727175279
 30
0.0
 11
2898.557976297595
 21
4016.204103301361
 31
0.0
  0
LINE
  5
12FBE
330
747D
100
AcDbEntity
  8
細線
 48
50.0
100
AcDbLine
 10
2880.622571742279
 20
4037.152911181985
 30
0.0
 11
2888.464953952244
 21
4009.664064428895
 31
0.0
  0
ARC
  5
12FBF
330
747D
100
AcDbEntity
  8
部品1
 48
50.0
100
AcDbCircle
 10
2887.862646115603
 20
3997.046555566363
 30
0.0
 40
20.0
100
AcDbArc
 50
195.9230900765477
 51
270.0
  0
LINE
  5
12FC0
330
747D
100
AcDbEntity
  8
部品1
 48
50.0
100
AcDbLine
 10
2848.438183718457
 20
4062.335379482306
 30
0.0
 11
2868.630029586079
 21
3991.559620043857
 31
0.0
  0
ARC
  5
12FC1
330
747D
100
AcDbEntity
  8
部品1
 48
50.0
100
AcDbCircle
 10
2862.862646115603
 20
4066.450581124186
 30
0.0
 40
15.0
100
AcDbArc
 50
90.0
 51
195.9230900765452
  0
LINE
  5
12FC2
330
747D
100
AcDbEntity
  8
部品1
 48
50.0
100
AcDbLine
 10
2910.862646115603
 20
4081.450581124189
 30
0.0
 11
2910.862646115603
 21
3977.046555566363
 31
0.0
  0
ARC
  5
12FC3
330
747D
100
AcDbEntity
  8
部品1
 48
50.0
100
AcDbCircle
 10
3067.862646115603
 20
3968.897875741639
 30
0.0
 40
2.0
100
AcDbArc
 50
90.0
 51
180.0
  0
ARC
  5
12FC4
330
747D
100
AcDbEntity
  8
部品1
 48
50.0
100
AcDbCircle
 10
3127.862646115603
 20
3968.897875741639
 30
0.0
 40
2.0
100
AcDbArc
 50
0.000000000000007
 51
90.0
  0
LINE
  5
12FC5
330
747D
100
AcDbEntity
  8
部品1
 48
50.0
100
AcDbLine
 10
3067.862646115603
 20
3970.897875741638
 30
0.0
 11
3127.862646115603
 21
3970.897875741638
 31
0.0
  0
LINE
  5
12FC6
330
747D
100
AcDbEntity
  8
細線
 48
50.0
100
AcDbLine
 10
3065.862646115603
 20
3954.897875741639
 30
0.0
 11
3129.862646115603
 21
3954.897875741639
 31
0.0
  0
LINE
  5
12FC7
330
747D
100
AcDbEntity
  8
細線
 48
50.0
100
AcDbLine
 10
3065.862646115603
 20
3944.897875741641
 30
0.0
 11
3129.862646115603
 21
3944.897875741638
 31
0.0
  0
LWPOLYLINE
  5
12FC8
330
747D
100
AcDbEntity
  8
部品1
100
AcDbPolyline
 90
        4
 70
     1
 43
0.0
 10
3999.241867485049
 20
1204.148006984546
 10
4646.273242765573
 20
1204.148006984546
 10
4646.273242765573
 20
1011.627851167406
 10
3999.241867485049
 20
1011.627851167406
  0
TEXT
  5
12FC9
330
747D
100
AcDbEntity
  8
仕様書枠
 62
     7
 48
50.0
100
AcDbText
 10
4030.656944246578
 20
1050.283282634365
 30
0.0
 40
112.0
  1
正 面 図
  7
STYLE2
100
AcDbText
  0
DIMENSION
  5
131EF
330
747D
100
AcDbEntity
  8
寸法
 48
50.0
100
AcDbDimension
  2
*D7
 10
5507.862646115605
 20
1378.658501641213
 30
0.0
 11
4302.862646115603
 21
1378.658501641213
 31
0.0
 70
   160
 71
     5
 42
-1.0
  3
INABA_S30G
100
AcDbAlignedDimension
 13
3097.862646115603
 23
1710.562576328024
 33
0.0
 14
5507.862646115605
 24
1710.562576328022
 34
0.0
100
AcDbRotatedDimension
  0
LINE
  5
131F0
330
747D
100
AcDbEntity
  8
部品1
 48
50.0
100
AcDbLine
 10
5475.862646115605
 20
3900.22801780871
 30
0.0
 11
3129.862646115603
 21
3900.228017808709
 31
0.0
  0
LINE
  5
13248
330
747D
100
AcDbEntity
  8
部品1
 48
50.0
100
AcDbLine
 10
5694.862646115606
 20
3977.046555566361
 30
0.0
 11
5694.862646115606
 21
3900.22801780871
 31
0.0
  0
LINE
  5
13249
330
747D
100
AcDbEntity
  8
部品1
 48
50.0
100
AcDbLine
 10
5757.287108512753
 20
3985.516841724653
 30
0.0
 11
5737.095262645134
 21
3914.741082286202
 31
0.0
  0
LINE
  5
1324A
330
747D
100
AcDbEntity
  8
部品1
 48
50.0
100
AcDbLine
 10
5539.862646115606
 20
3968.897875741637
 30
0.0
 11
5539.862646115606
 21
3909.348694766933
 31
0.0
  0
LINE
  5
1324B
330
747D
100
AcDbEntity
  8
部品1
 48
50.0
100
AcDbLine
 10
5475.862646115606
 20
3968.897875741637
 30
0.0
 11
5475.862646115606
 21
3909.348694766933
 31
0.0
  0
LINE
  5
13282
330
747D
100
AcDbEntity
  8
部品1
 48
50.0
100
AcDbLine
 10
5547.862646115607
 20
3548.431828606204
 30
0.0
 11
5547.862646115607
 21
1880.562576328022
 31
0.0
  0
LINE
  5
13283
330
747D
100
AcDbEntity
  8
部品1
 48
50.0
100
AcDbLine
 10
5467.862646115606
 20
3548.431828606204
 30
0.0
 11
5467.862646115606
 21
1880.562576328022
 31
0.0
  0
LINE
  5
13284
330
747D
100
AcDbEntity
  8
細線
 48
50.0
100
AcDbLine
 10
4252.862646115603
 20
1830.562576328023
 30
0.0
 11
4302.862646115602
 21
1880.562576328023
 31
0.0
  0
LINE
  5
13285
330
747D
100
AcDbEntity
  8
細線
 48
50.0
100
AcDbLine
 10
4225.921866115605
 20
1830.562576328023
 30
0.0
 11
4275.921866115605
 21
1880.562576328023
 31
0.0
  0
LINE
  5
13286
330
747D
100
AcDbEntity
  8
細線
 48
50.0
100
AcDbLine
 10
4279.803426115603
 20
1830.562576328023
 30
0.0
 11
4329.803426115603
 21
1880.562576328023
 31
0.0
  0
LINE
  5
13292
330
747D
100
AcDbEntity
  8
点線
 48
18.0
100
AcDbLine
 10
5547.862646115607
 20
1880.562576328022
 30
0.0
 11
5547.862646115607
 21
1830.562576328022
 31
0.0
  0
LINE
  5
13293
330
747D
100
AcDbEntity
  8
点線
 48
18.0
100
AcDbLine
 10
5467.862646115606
 20
1880.562576328022
 30
0.0
 11
5467.862646115606
 21
1830.562576328022
 31
0.0
  0
LINE
  5
13297
330
747D
100
AcDbEntity
  8
部品1
 48
50.0
100
AcDbLine
 10
5757.862646115606
 20
1880.562576328022
 30
0.0
 11
5757.862646115606
 21
1830.562576328022
 31
0.0
  0
LINE
  5
13298
330
747D
100
AcDbEntity
  8
部品1
 48
50.0
100
AcDbLine
 10
5694.862646115606
 20
3909.96901214066
 30
0.0
 11
5539.862646115606
 21
3909.969012140658
 31
0.0
  0
LINE
  5
13299
330
747D
100
AcDbEntity
  8
部品1
 48
50.0
100
AcDbLine
 10
5717.862646115606
 20
3900.22801780871
 30
0.0
 11
5539.862646115606
 21
3900.228017808708
 31
0.0
  0
ARC
  5
1329A
330
747D
100
AcDbEntity
  8
部品1
 48
50.0
100
AcDbCircle
 10
5537.862646115606
 20
3846.818164454479
 30
0.0
 40
2.0
100
AcDbArc
 50
270.0
 51
0.0
  0
ARC
  5
1329B
330
747D
100
AcDbEntity
  8
部品1
 48
50.0
100
AcDbCircle
 10
5477.862646115607
 20
3846.818164454479
 30
0.0
 40
2.0
100
AcDbArc
 50
180.0
 51
270.0
  0
LINE
  5
1329C
330
747D
100
AcDbEntity
  8
部品1
 48
50.0
100
AcDbLine
 10
5487.862646115607
 20
3844.818164454478
 30
0.0
 11
5477.862646115607
 21
3844.818164454478
 31
0.0
  0
LINE
  5
1329D
330
747D
100
AcDbEntity
  8
部品1
 48
50.0
100
AcDbLine
 10
5539.862646115606
 20
3909.348694766933
 30
0.0
 11
5539.862646115606
 21
3846.818164454479
 31
0.0
  0
LINE
  5
1329E
330
747D
100
AcDbEntity
  8
部品1
 48
50.0
100
AcDbLine
 10
5475.862646115606
 20
3909.348694766933
 30
0.0
 11
5475.862646115606
 21
3846.818164454479
 31
0.0
  0
LINE
  5
1329F
330
747D
100
AcDbEntity
  8
部品1
 48
50.0
100
AcDbLine
 10
5537.862646115606
 20
3844.818164454478
 30
0.0
 11
5527.862646115607
 21
3844.818164454478
 31
0.0
  0
LINE
  5
132A0
330
747D
100
AcDbEntity
  8
細線
 48
50.0
100
AcDbLine
 10
5539.862646115606
 20
3922.897875741639
 30
0.0
 11
5475.862646115606
 21
3922.897875741637
 31
0.0
  0
LINE
  5
132A1
330
747D
100
AcDbEntity
  8
細線
 48
50.0
100
AcDbLine
 10
5539.862646115606
 20
3932.897875741639
 30
0.0
 11
5475.862646115606
 21
3932.897875741637
 31
0.0
  0
ARC
  5
132A2
330
747D
100
AcDbEntity
  8
部品1
 48
50.0
100
AcDbCircle
 10
5477.862646115607
 20
3909.348694766933
 30
0.0
 40
2.0
100
AcDbArc
 50
180.0
 51
270.0
  0
ARC
  5
132A3
330
747D
100
AcDbEntity
  8
部品1
 48
50.0
100
AcDbCircle
 10
5537.862646115606
 20
3909.348694766933
 30
0.0
 40
2.0
100
AcDbArc
 50
270.0
 51
359.9999999999983
  0
LINE
  5
132A4
330
747D
100
AcDbEntity
  8
部品1
 48
50.0
100
AcDbLine
 10
5537.862646115606
 20
3907.348694766934
 30
0.0
 11
5477.862646115607
 21
3907.348694766934
 31
0.0
  0
LINE
  5
132A5
330
747D
100
AcDbEntity
  8
部品1
 48
50.0
100
AcDbLine
 10
5487.862646115607
 20
3698.431828606209
 30
0.0
 11
5462.862646115606
 21
3698.431828606209
 31
0.0
  0
LINE
  5
132A6
330
747D
100
AcDbEntity
  8
部品1
 48
50.0
100
AcDbLine
 10
5527.862646115607
 20
3907.348694766935
 30
0.0
 11
5527.862646115607
 21
3548.431828606207
 31
0.0
  0
LINE
  5
132A7
330
747D
100
AcDbEntity
  8
部品1
 48
50.0
100
AcDbLine
 10
5487.862646115607
 20
3907.348694766935
 30
0.0
 11
5487.862646115607
 21
3548.431828606207
 31
0.0
  0
LINE
  5
132A8
330
747D
100
AcDbEntity
  8
部品1
 48
50.0
100
AcDbLine
 10
5552.862646115606
 20
3548.431828606207
 30
0.0
 11
5552.862646115606
 21
3698.431828606209
 31
0.0
  0
LINE
  5
132A9
330
747D
100
AcDbEntity
  8
部品1
 48
50.0
100
AcDbLine
 10
5462.862646115606
 20
3548.431828606207
 30
0.0
 11
5462.862646115606
 21
3698.431828606209
 31
0.0
  0
LINE
  5
132AA
330
747D
100
AcDbEntity
  8
部品1
 48
50.0
100
AcDbLine
 10
5507.862646115606
 20
3907.348694766935
 30
0.0
 11
5507.862646115606
 21
3548.431828606207
 31
0.0
  0
LINE
  5
132AB
330
747D
100
AcDbEntity
  8
部品1
 48
50.0
100
AcDbLine
 10
5552.862646115606
 20
3548.431828606207
 30
0.0
 11
5462.862646115606
 21
3548.431828606204
 31
0.0
  0
LINE
  5
132AC
330
747D
100
AcDbEntity
  8
部品1
 48
50.0
100
AcDbLine
 10
5552.862646115606
 20
3698.431828606209
 30
0.0
 11
5527.862646115607
 21
3698.431828606209
 31
0.0
  0
ARC
  5
132AD
330
747D
100
AcDbEntity
  8
部品1
 48
50.0
100
AcDbCircle
 10
5717.862646115606
 20
3920.228017808709
 30
0.0
 40
20.0
100
AcDbArc
 50
270.0
 51
344.0769099234519
  0
DIMENSION
  5
132B6
330
747D
100
AcDbEntity
  8
寸法
 48
50.0
100
AcDbDimension
  2
*D8
 10
5757.862646115606
 20
4601.702425425581
 30
0.0
 11
6049.588593995647
 21
4601.702425425581
 31
0.0
 12
-1973.999539498694
 22
-1260.916917799579
 32
0.0
 70
   160
 71
     5
 42
-1.0
  3
INABA_S30G
100
AcDbAlignedDimension
 13
5507.862646115606
 23
3970.897875741638
 33
0.0
 14
5757.862646115606
 24
4066.450581124185
 34
0.0
100
AcDbRotatedDimension
  0
LINE
  5
132B7
330
747D
100
AcDbEntity
  8
部品1
 48
50.0
100
AcDbLine
 10
5694.862646115606
 20
3969.969012140657
 30
0.0
 11
5539.862646115606
 21
3969.969012140657
 31
0.0
  0
LINE
  5
132B8
330
747D
100
AcDbEntity
  8
部品1
 48
50.0
100
AcDbLine
 10
5694.862646115606
 20
3939.307144620489
 30
0.0
 11
5539.862646115606
 21
3939.307144620489
 31
0.0
  0
LINE
  5
132B9
330
747D
100
AcDbEntity
  8
細線
 48
50.0
100
AcDbLine
 10
5539.862646115606
 20
3944.897875741639
 30
0.0
 11
5475.862646115606
 21
3944.897875741637
 31
0.0
  0
LINE
  5
132BA
330
747D
100
AcDbEntity
  8
細線
 48
50.0
100
AcDbLine
 10
5539.862646115606
 20
3954.897875741637
 30
0.0
 11
5475.862646115606
 21
3954.897875741637
 31
0.0
  0
ARC
  5
132BB
330
747D
100
AcDbEntity
  8
部品1
 48
50.0
100
AcDbCircle
 10
5537.862646115606
 20
3968.897875741637
 30
0.0
 40
2.0
100
AcDbArc
 50
0.0
 51
90.0
  0
ARC
  5
132BC
330
747D
100
AcDbEntity
  8
部品1
 48
50.0
100
AcDbCircle
 10
5477.862646115607
 20
3968.897875741637
 30
0.0
 40
2.0
100
AcDbArc
 50
90.0
 51
180.0
  0
LINE
  5
132BD
330
747D
100
AcDbEntity
  8
部品1
 48
50.0
100
AcDbLine
 10
5537.862646115606
 20
3970.897875741638
 30
0.0
 11
5477.862646115607
 21
3970.897875741638
 31
0.0
  0
ARC
  5
132BE
330
747D
100
AcDbEntity
  8
部品1
 48
50.0
100
AcDbCircle
 10
5742.862646115606
 20
3989.632043366532
 30
0.0
 40
15.0
100
AcDbArc
 50
344.0769099234545
 51
0.0
  0
LINE
  5
132BF
330
747D
100
AcDbEntity
  8
部品1
 48
50.0
100
AcDbLine
 10
5757.862646115606
 20
4066.450581124185
 30
0.0
 11
5757.862646115606
 21
3989.632043366532
 31
0.0
  0
ARC
  5
132C0
330
747D
100
AcDbEntity
  8
細線
 48
50.0
100
AcDbCircle
 10
5704.282423454189
 20
4017.027143629733
 30
0.0
 40
3.0
100
AcDbArc
 50
270.0
 51
344.0769099234517
  0
ARC
  5
132C1
330
747D
100
AcDbEntity
  8
細線
 48
50.0
100
AcDbCircle
 10
5709.488917815082
 20
4035.276767503652
 30
0.0
 40
3.0
100
AcDbArc
 50
344.0769099234531
 51
90.0
  0
ARC
  5
132C2
330
747D
100
AcDbEntity
  8
細線
 48
50.0
100
AcDbCircle
 10
5707.644030014203
 20
4012.407532190147
 30
0.0
 40
10.0
100
AcDbArc
 50
270.0
 51
344.0769099234529
  0
ARC
  5
132C3
330
747D
100
AcDbEntity
  8
細線
 48
50.0
100
AcDbCircle
 10
5715.486412224168
 20
4039.896378943234
 30
0.0
 40
10.0
100
AcDbArc
 50
344.0769099234531
 51
90.0
  0
LINE
  5
132C4
330
747D
100
AcDbEntity
  8
細線
 48
50.0
100
AcDbLine
 10
5725.102720488933
 20
4037.152911181982
 30
0.0
 11
5717.260338278965
 21
4009.664064428895
 31
0.0
  0
LINE
  5
132C5
330
747D
100
AcDbEntity
  8
細線
 48
50.0
100
AcDbLine
 10
5712.373810294511
 20
4034.453727175278
 30
0.0
 11
5707.167315933618
 21
4016.204103301359
 31
0.0
  0
LINE
  5
132C6
330
747D
100
AcDbEntity
  8
部品1
 48
50.0
100
AcDbLine
 10
5757.287108512753
 20
4062.335379482305
 30
0.0
 11
5737.095262645134
 21
3991.559620043856
 31
0.0
  0
ARC
  5
132C7
330
747D
100
AcDbEntity
  8
部品1
 48
50.0
100
AcDbCircle
 10
5717.862646115606
 20
3997.046555566362
 30
0.0
 40
20.0
100
AcDbArc
 50
270.0
 51
344.0769099234519
  0
ARC
  5
132C8
330
747D
100
AcDbEntity
  8
部品1
 48
50.0
100
AcDbCircle
 10
5742.862646115606
 20
4066.450581124185
 30
0.0
 40
15.0
100
AcDbArc
 50
344.0769099234545
 51
90.0
  0
LINE
  5
132C9
330
747D
100
AcDbEntity
  8
部品1
 48
50.0
100
AcDbLine
 10
5694.862646115606
 20
4081.450581124187
 30
0.0
 11
5694.862646115606
 21
3977.046555566361
 31
0.0
  0
LWPOLYLINE
  5
132CA
330
747D
100
AcDbEntity
  8
部品1
100
AcDbPolyline
 90
        4
 70
     1
 43
0.0
 10
8371.353574497021
 20
1149.796007513017
 10
9018.384949777548
 20
1149.796007513017
 10
9018.384949777548
 20
957.2758516958765
 10
8371.353574497021
 20
957.2758516958765
  0
TEXT
  5
132CB
330
747D
100
AcDbEntity
  8
仕様書枠
 62
     7
 48
50.0
100
AcDbText
 10
8402.768651258552
 20
995.9312831628349
 30
0.0
 40
112.0
  1
側 面 図
  7
STYLE2
100
AcDbText
  0
DIMENSION
  5
132CC
330
747D
100
AcDbEntity
  8
寸法
 48
50.0
100
AcDbDimension
  2
*D9
 10
7302.962597669138
 20
3990.382911937201
 30
0.0
 11
7305.030943653694
 21
4042.091561551053
 31
0.0
 12
-1514.563388750987
 22
0.0
 32
0.0
 70
   160
 71
     5
 42
-1.0
 51
2.290610042638495
  3
INABA_S30G
100
AcDbAlignedDimension
 13
7616.139681135617
 23
4081.438595505012
 33
0.0
 14
7636.371506940122
 24
3977.046555566361
 34
0.0
 50
87.70938995736154
100
AcDbRotatedDimension
  0
LINE
  5
132CD
330
747D
100
AcDbEntity
  8
部品1
 48
50.0
100
AcDbLine
 10
8399.578409074399
 20
3886.470298665647
 30
0.0
 11
8355.173800800672
 21
3939.262580729354
 31
0.0
  0
LINE
  5
132CE
330
747D
100
AcDbEntity
  8
部品1
 48
50.0
100
AcDbLine
 10
8269.017830412551
 20
3891.69272181212
 30
0.0
 11
8233.509766007118
 21
3933.907974338905
 31
0.0
  0
LINE
  5
132CF
330
747D
100
AcDbEntity
  8
部品1
 48
50.0
100
AcDbLine
 10
7785.009393563786
 20
3964.80974643306
 30
0.0
 11
7795.923646803814
 21
3916.048296064384
 31
0.0
  0
LINE
  5
132D0
330
747D
100
AcDbEntity
  8
細線
 48
50.0
100
AcDbLine
 10
9566.133516419009
 20
3958.552410122882
 30
0.0
 11
9557.031121995214
 21
3931.894914532928
 31
0.0
  0
LINE
  5
132D1
330
747D
100
AcDbEntity
  8
部品1
 48
50.0
100
AcDbLine
 10
9538.178035116954
 20
4004.557061345758
 30
0.0
 11
9534.041343147846
 21
3901.139762118055
 31
0.0
  0
LINE
  5
132D2
330
747D
100
AcDbEntity
  8
部品1
 48
50.0
100
AcDbLine
 10
9599.73543527793
 20
3982.8035020354
 30
0.0
 11
9576.161823966112
 21
3913.765245690329
 31
0.0
  0
LINE
  5
132D3
330
747D
100
AcDbEntity
  8
細線
 48
50.0
100
AcDbLine
 10
7647.893822626345
 20
4001.105255105178
 30
0.0
 11
9547.167925133349
 21
3925.134291004899
 31
0.0
  0
LINE
  5
132D4
330
747D
100
AcDbEntity
  8
部品1
 48
50.0
100
AcDbLine
 10
8580.056540906575
 20
3939.299154207704
 30
0.0
 11
8577.578522528943
 21
3877.348694766953
 31
0.0
  0
LINE
  5
132D5
330
747D
100
AcDbEntity
  8
部品1
 48
50.0
100
AcDbLine
 10
8621.023780214164
 20
3937.660464635403
 30
0.0
 11
8618.545761836536
 21
3875.710005194651
 31
0.0
  0
LINE
  5
132D6
330
747D
100
AcDbEntity
  8
部品1
 48
50.0
100
AcDbLine
 10
7871.023780214163
 20
3967.660464635403
 30
0.0
 11
7868.545761836533
 21
3905.710005194651
 31
0.0
  0
LINE
  5
132D7
330
747D
100
AcDbEntity
  8
部品1
 48
50.0
100
AcDbLine
 10
7830.056540906575
 20
3969.299154207703
 30
0.0
 11
7827.578522528944
 21
3907.348694766954
 31
0.0
  0
LINE
  5
132D8
330
747D
100
AcDbEntity
  8
部品1
 48
50.0
100
AcDbLine
 10
7636.371506940122
 20
3977.046555566364
 30
0.0
 11
9556.435430242382
 21
3900.243998634272
 31
0.0
  0
LINE
  5
132D9
330
747D
100
AcDbEntity
  8
細線
 48
50.0
100
AcDbLine
 10
8866.75626199433
 20
1830.562576328022
 30
0.0
 11
8914.021449108849
 21
1877.827763442537
 31
0.0
  0
LINE
  5
132DA
330
747D
100
AcDbEntity
  8
細線
 48
50.0
100
AcDbLine
 10
8839.81548199433
 20
1830.562576328022
 30
0.0
 11
8887.347409504885
 21
1878.094503838577
 31
0.0
  0
LINE
  5
132DC
330
747D
100
AcDbEntity
  8
部品1
 48
50.0
100
AcDbLine
 10
9590.54066052287
 20
1871.062571328397
 30
0.0
 11
8640.540160560346
 21
1880.562576328022
 31
0.0
  0
LINE
  5
132DD
330
747D
100
AcDbEntity
  8
部品1
 48
50.0
100
AcDbLine
 10
9361.527488972262
 20
3750.352239207043
 30
0.0
 11
8720.54016056037
 21
3517.0519311233
 31
0.0
  0
LINE
  5
132DE
330
747D
100
AcDbEntity
  8
部品1
 48
50.0
100
AcDbLine
 10
9465.540160560371
 20
3852.060422000177
 30
0.0
 11
8700.018951960828
 21
3573.433488370454
 31
0.0
  0
LINE
  5
132DF
330
747D
100
AcDbEntity
  8
部品1
 48
50.0
100
AcDbLine
 10
8788.512859179872
 20
3868.410921460789
 30
0.0
 11
8910.574036286911
 21
3863.528474376506
 31
0.0
  0
LINE
  5
132E0
330
747D
100
AcDbEntity
  8
部品1
 48
50.0
100
AcDbLine
 10
8845.235308824157
 20
3926.190004290365
 30
0.0
 11
8937.115516642903
 21
3922.514795977615
 31
0.0
  0
LINE
  5
132E1
330
747D
100
AcDbEntity
  8
部品1
 48
50.0
100
AcDbLine
 10
8645.54016056037
 20
3548.431828606207
 30
0.0
 11
8910.574036286918
 21
3863.528474376506
 31
0.0
  0
LINE
  5
132E2
330
747D
100
AcDbEntity
  8
部品1
 48
50.0
100
AcDbLine
 10
8720.54016056037
 20
3487.0519311233
 30
0.0
 11
8720.54016056037
 21
1962.099725102283
 31
0.0
  0
LINE
  5
132E3
330
747D
100
AcDbEntity
  8
部品1
 48
50.0
100
AcDbLine
 10
8660.540160560369
 20
3517.0519311233
 30
0.0
 11
8660.540160560369
 21
1962.099725102285
 31
0.0
  0
LINE
  5
132E4
330
747D
100
AcDbEntity
  8
部品1
 48
50.0
100
AcDbLine
 10
8640.540160560369
 20
3548.431828606208
 30
0.0
 11
8640.540160560369
 21
1880.562576328022
 31
0.0
  0
LINE
  5
132E5
330
747D
100
AcDbEntity
  8
部品1
 48
50.0
100
AcDbLine
 10
8560.540160560369
 20
3548.431828606207
 30
0.0
 11
8560.540160560369
 21
1880.562576328022
 31
0.0
  0
LINE
  5
132E6
330
747D
100
AcDbEntity
  8
部品1
 48
50.0
100
AcDbLine
 10
7610.539660597869
 20
1871.062571328397
 30
0.0
 11
8560.540160560391
 21
1880.562576328022
 31
0.0
  0
LINE
  5
132E7
330
747D
100
AcDbEntity
  8
細線
 48
50.0
100
AcDbLine
 10
7689.947820918881
 20
1830.562576328022
 30
0.0
 11
7731.65900940735
 21
1872.27376481649
 31
0.0
  0
LINE
  5
132E8
330
747D
100
AcDbEntity
  8
細線
 48
50.0
100
AcDbLine
 10
7743.829380918883
 20
1830.562576328022
 30
0.0
 11
7786.08482758917
 21
1872.818022998309
 31
0.0
  0
LINE
  5
132E9
330
747D
100
AcDbEntity
  8
細線
 48
50.0
100
AcDbLine
 10
7716.888600918882
 20
1830.562576328022
 30
0.0
 11
7758.871918498255
 21
1872.5458939074
 31
0.0
  0
LINE
  5
132EA
330
747D
100
AcDbEntity
  8
部品1
 48
50.0
100
AcDbLine
 10
7610.539660597869
 20
1871.062571328397
 30
0.0
 11
7600.540160560369
 21
1860.962576328022
 31
0.0
  0
LINE
  5
132EB
330
747D
100
AcDbEntity
  8
部品1
 48
50.0
100
AcDbLine
 10
7600.540160560369
 20
1860.962576328022
 30
0.0
 11
7600.540160560369
 21
1830.562576328022
 31
0.0
  0
LINE
  5
132EF
330
747D
100
AcDbEntity
  8
細線
 48
50.0
100
AcDbLine
 10
8363.46704163586
 20
1830.562576328022
 30
0.0
 11
8411.981454576009
 21
1879.076989268177
 31
0.0
  0
LINE
  5
132F0
330
747D
100
AcDbEntity
  8
細線
 48
50.0
100
AcDbLine
 10
8336.526261635858
 20
1830.562576328022
 30
0.0
 11
8384.768545485101
 21
1878.804860177268
 31
0.0
  0
LINE
  5
132F1
330
747D
100
AcDbEntity
  8
細線
 48
50.0
100
AcDbLine
 10
8390.407821635861
 20
1830.562576328022
 30
0.0
 11
8439.194363666921
 21
1879.349118359087
 31
0.0
  0
LINE
  5
132F2
330
747D
100
AcDbEntity
  8
部品1
 48
50.0
100
AcDbLine
 10
8640.540160560369
 20
1880.562576328022
 30
0.0
 11
8560.540160560391
 21
1880.562576328022
 31
0.0
  0
LINE
  5
132F3
330
747D
100
AcDbEntity
  8
部品1
 48
50.0
100
AcDbLine
 10
8640.540160560369
 20
1880.562576328022
 30
0.0
 11
8560.540160560391
 21
1880.562576328022
 31
0.0
  0
LINE
  5
132F4
330
747D
100
AcDbEntity
  8
点線
 48
18.0
100
AcDbLine
 10
8560.540160560369
 20
1880.562576328022
 30
0.0
 11
8560.540160560369
 21
1830.562576328022
 31
0.0
  0
LINE
  5
132F5
330
747D
100
AcDbEntity
  8
点線
 48
18.0
100
AcDbLine
 10
8640.540160560369
 20
1880.562576328022
 30
0.0
 11
8640.540160560369
 21
1830.562576328022
 31
0.0
  0
LINE
  5
132F6
330
747D
100
AcDbEntity
  8
部品1
 48
50.0
100
AcDbLine
 10
8722.04016056037
 20
2017.099725102285
 30
0.0
 11
8722.04016056037
 21
1997.099725102285
 31
0.0
  0
CIRCLE
  5
132F7
330
747D
100
AcDbEntity
  8
細線
 48
50.0
100
AcDbCircle
 10
8650.540160560369
 20
2007.099725102285
 30
0.0
 40
6.5
  0
LWPOLYLINE
  5
132F8
330
747D
100
AcDbEntity
  8
細線
 48
50.0
100
AcDbPolyline
 90
        6
 70
     1
 43
0.0
 10
8655.540160560368
 20
2009.986476448234
 10
8650.540160560369
 20
2012.873227794182
 10
8645.54016056037
 20
2009.986476448234
 10
8645.54016056037
 20
2004.212973756338
 10
8650.540160560369
 20
2001.326222410389
 10
8655.540160560368
 20
2004.212973756338
  0
LINE
  5
132F9
330
747D
100
AcDbEntity
  8
部品1
 48
50.0
100
AcDbLine
 10
8722.04016056037
 20
2017.099725102285
 30
0.0
 11
8640.540160560369
 21
2017.099725102285
 31
0.0
  0
LINE
  5
132FA
330
747D
100
AcDbEntity
  8
部品1
 48
50.0
100
AcDbLine
 10
8722.04016056037
 20
1997.099725102285
 30
0.0
 11
8640.540160560369
 21
1997.099725102285
 31
0.0
  0
LINE
  5
132FB
330
747D
100
AcDbEntity
  8
細線
 48
50.0
100
AcDbLine
 10
8720.54016056037
 20
1987.099725102283
 30
0.0
 11
8660.540160560373
 21
1987.099725102285
 31
0.0
  0
LINE
  5
132FC
330
747D
100
AcDbEntity
  8
部品1
 48
50.0
100
AcDbLine
 10
8742.153090838455
 20
1954.233261805801
 30
0.0
 11
8727.356405772814
 21
1898.96068170437
 31
0.0
  0
LINE
  5
132FD
330
747D
100
AcDbEntity
  8
細線
 48
50.0
100
AcDbLine
 10
8720.54016056037
 20
1962.099725102283
 30
0.0
 11
8700.018951960833
 21
1905.718167855131
 31
0.0
  0
ARC
  5
132FE
330
747D
100
AcDbEntity
  8
部品1
 48
50.0
100
AcDbCircle
 10
8720.54016056037
 20
1962.099725102285
 30
0.0
 40
60.0
100
AcDbArc
 50
180.0
 51
249.9999999999999
  0
LINE
  5
132FF
330
747D
100
AcDbEntity
  8
部品1
 48
50.0
100
AcDbLine
 10
8720.54016056037
 20
1962.099725102283
 30
0.0
 11
8742.153090838455
 21
1954.233261805801
 31
0.0
  0
LINE
  5
13300
330
747D
100
AcDbEntity
  8
部品1
 48
50.0
100
AcDbLine
 10
8701.045012390816
 20
1908.537245717489
 30
0.0
 11
8727.356405772821
 21
1898.960681704368
 31
0.0
  0
LINE
  5
13301
330
747D
100
AcDbEntity
  8
部品1
 48
50.0
100
AcDbLine
 10
8560.540160560369
 20
1880.562576328022
 30
0.0
 11
8640.540160560346
 21
1880.562576328022
 31
0.0
  0
LINE
  5
13302
330
747D
100
AcDbEntity
  8
寸法
 48
50.0
100
AcDbLine
 10
8602.226580356525
 20
3035.520619798459
 30
0.0
 11
7957.583055384908
 21
2830.485466770115
 31
0.0
  0
TEXT
  5
13303
330
747D
100
AcDbEntity
  8
部品1
 48
50.0
100
AcDbText
 10
7794.069318864105
 20
2739.15677552504
 30
0.0
 40
120.0
  1
②
  7
STYLE2
100
AcDbText
  0
LINE
  5
13304
330
747D
100
AcDbEntity
  8
寸法
 48
50.0
100
AcDbLine
 10
8430.619911512172
 20
3713.704443316507
 30
0.0
 11
7957.637965256624
 21
3336.744762581548
 31
0.0
  0
LINE
  5
13305
330
747D
100
AcDbEntity
  8
部品1
 48
50.0
100
AcDbLine
 10
7868.62569791323
 20
3907.708407112094
 30
0.0
 11
8269.017830412558
 21
3891.69272181212
 31
0.0
  0
TEXT
  5
13306
330
747D
100
AcDbEntity
  8
部品1
 48
50.0
100
AcDbText
 10
7803.604391274861
 20
3231.533399241452
 30
0.0
 40
120.0
  1
①
  7
STYLE2
100
AcDbText
  0
LINE
  5
13307
330
747D
100
AcDbEntity
  8
部品1
 48
50.0
100
AcDbLine
 10
7805.28250402466
 20
3908.240535507103
 30
0.0
 11
7827.578522528944
 21
3907.348694766934
 31
0.0
  0
ARC
  5
13308
330
747D
100
AcDbEntity
  8
部品1
 48
50.0
100
AcDbCircle
 10
7805.68218440815
 20
3918.232545094321
 30
0.0
 40
10.0
100
AcDbArc
 50
192.6165368012922
 51
267.7093899573706
  0
LINE
  5
13309
330
747D
100
AcDbEntity
  8
部品1
 48
50.0
100
AcDbLine
 10
7827.578522528944
 20
3907.348694766954
 30
0.0
 11
7868.545761836533
 21
3905.710005194649
 31
0.0
  0
LINE
  5
1330A
330
747D
100
AcDbEntity
  8
部品1
 48
50.0
100
AcDbLine
 10
8399.578409074399
 20
3886.470298665647
 30
0.0
 11
8577.658458605641
 21
3879.347096684396
 31
0.0
  0
LINE
  5
1330B
330
747D
100
AcDbEntity
  8
部品1
 48
50.0
100
AcDbLine
 10
8555.540160560369
 20
3548.431828606207
 30
0.0
 11
8645.54016056037
 21
3548.431828606208
 31
0.0
  0
LINE
  5
1330C
330
747D
100
AcDbEntity
  8
部品1
 48
50.0
100
AcDbLine
 10
8555.540160560369
 20
3698.431828606209
 30
0.0
 11
8645.54016056037
 21
3698.431828606209
 31
0.0
  0
CIRCLE
  5
1330D
330
747D
100
AcDbEntity
  8
細線
 48
50.0
100
AcDbCircle
 10
8288.040160560369
 20
3920.955819013882
 30
0.0
 40
9.0
  0
LWPOLYLINE
  5
1330E
330
747D
100
AcDbEntity
  8
細線
 48
50.0
100
AcDbPolyline
 90
        6
 70
     1
 43
0.0
 10
8281.54016056037
 20
3917.203042264151
 10
8288.040160560369
 20
3913.450265514419
 10
8294.540160560369
 20
3917.203042264151
 10
8294.540160560369
 20
3924.708595763615
 10
8288.040160560369
 20
3928.461372513348
 10
8281.54016056037
 20
3924.708595763615
  0
LWPOLYLINE
  5
1330F
330
747D
100
AcDbEntity
  8
細線
 48
50.0
100
AcDbPolyline
 90
        6
 70
     1
 43
0.0
 10
8341.540160560368
 20
3914.803042264151
 10
8348.040160560369
 20
3911.05026551442
 10
8354.54016056037
 20
3914.803042264151
 10
8354.54016056037
 20
3922.308595763616
 10
8348.040160560369
 20
3926.061372513348
 10
8341.540160560368
 20
3922.308595763616
  0
CIRCLE
  5
13310
330
747D
100
AcDbEntity
  8
細線
 48
50.0
100
AcDbCircle
 10
8348.040160560369
 20
3918.555819013884
 30
0.0
 40
9.0
  0
ARC
  5
13311
330
747D
100
AcDbEntity
  8
細線
 48
50.0
100
AcDbCircle
 10
8532.540160560369
 20
3617.255669154366
 30
0.0
 40
3.0
100
AcDbArc
 50
220.0678395028068
 51
359.9999999999987
  0
ARC
  5
13312
330
747D
100
AcDbEntity
  8
細線
 48
50.0
100
AcDbCircle
 10
8532.540160560369
 20
3626.576865853848
 30
0.0
 40
3.0
100
AcDbArc
 50
359.9999999999987
 51
40.0678395028069
  0
ARC
  5
13313
330
747D
100
AcDbEntity
  8
細線
 48
50.0
100
AcDbCircle
 10
8532.540160560369
 20
3674.975821829477
 30
0.0
 40
3.0
100
AcDbArc
 50
220.0678395028065
 51
0.0
  0
ARC
  5
13314
330
747D
100
AcDbEntity
  8
細線
 48
50.0
100
AcDbCircle
 10
8532.540160560369
 20
3684.297018528962
 30
0.0
 40
3.0
100
AcDbArc
 50
359.9999999999985
 51
40.06783950280634
  0
LINE
  5
13315
330
747D
100
AcDbEntity
  8
細線
 48
50.0
100
AcDbLine
 10
8535.540160560369
 20
3626.576865853848
 30
0.0
 11
8535.540160560369
 21
3617.255669154366
 31
0.0
  0
LINE
  5
13316
330
747D
100
AcDbEntity
  8
細線
 48
50.0
100
AcDbLine
 10
8535.540160560369
 20
3684.297018528962
 30
0.0
 11
8535.540160560369
 21
3674.975821829477
 31
0.0
  0
ARC
  5
13317
330
747D
100
AcDbEntity
  8
細線
 48
50.0
100
AcDbCircle
 10
8383.410021967749
 20
3861.596642303392
 30
0.0
 40
3.0
100
AcDbArc
 50
40.06783950280669
 51
87.70938995736109
  0
ARC
  5
13318
330
747D
100
AcDbEntity
  8
細線
 48
50.0
100
AcDbCircle
 10
8375.296816401712
 20
3861.921170526031
 30
0.0
 40
3.0
100
AcDbArc
 50
87.70938995736125
 51
220.0678395028065
  0
ARC
  5
13319
330
747D
100
AcDbEntity
  8
細線
 48
50.0
100
AcDbCircle
 10
8333.170178409663
 20
3863.606236045715
 30
0.0
 40
3.0
100
AcDbArc
 50
40.06783950280684
 51
87.70938995735884
  0
ARC
  5
1331A
330
747D
100
AcDbEntity
  8
細線
 48
50.0
100
AcDbCircle
 10
8325.056972843624
 20
3863.930764268356
 30
0.0
 40
3.0
100
AcDbArc
 50
87.70938995736102
 51
220.0678395028068
  0
LINE
  5
1331B
330
747D
100
AcDbEntity
  8
細線
 48
50.0
100
AcDbLine
 10
8375.416720516758
 20
3864.918773402198
 30
0.0
 11
8383.529926082797
 21
3864.594245179556
 31
0.0
  0
LINE
  5
1331C
330
747D
100
AcDbEntity
  8
細線
 48
50.0
100
AcDbLine
 10
8530.244312066704
 20
3673.04473931075
 30
0.0
 11
8373.000967908046
 21
3859.990088007304
 31
0.0
  0
LINE
  5
1331D
330
747D
100
AcDbEntity
  8
細線
 48
50.0
100
AcDbLine
 10
8534.836009054034
 20
3628.507948372575
 30
0.0
 11
8335.466026903326
 21
3865.537318564442
 31
0.0
  0
LINE
  5
1331E
330
747D
100
AcDbEntity
  8
細線
 48
50.0
100
AcDbLine
 10
8534.836009054034
 20
3686.228101047691
 30
0.0
 11
8385.705870461411
 21
3863.527724822121
 31
0.0
  0
LINE
  5
1331F
330
747D
100
AcDbEntity
  8
細線
 48
50.0
100
AcDbLine
 10
8530.244312066701
 20
3615.324586635637
 30
0.0
 11
8322.761124349964
 21
3861.999681749629
 31
0.0
  0
LINE
  5
13320
330
747D
100
AcDbEntity
  8
細線
 48
50.0
100
AcDbLine
 10
8325.17687695867
 20
3866.928367144523
 30
0.0
 11
8333.29008252471
 21
3866.603838921881
 31
0.0
  0
LINE
  5
13321
330
747D
100
AcDbEntity
  8
部品1
 48
50.0
100
AcDbLine
 10
8399.478488978527
 20
3883.972296268843
 30
0.0
 11
8399.578409074399
 21
3886.470298665647
 31
0.0
  0
LINE
  5
13322
330
747D
100
AcDbEntity
  8
部品1
 48
50.0
100
AcDbLine
 10
8268.917910316682
 20
3889.194719415316
 30
0.0
 11
8269.017830412558
 21
3891.69272181212
 31
0.0
  0
LINE
  5
13323
330
747D
100
AcDbEntity
  8
部品1
 48
50.0
100
AcDbLine
 10
8268.917910316689
 20
3889.194719415316
 30
0.0
 11
8399.478488978529
 21
3883.972296268843
 31
0.0
  0
LINE
  5
13324
330
747D
100
AcDbEntity
  8
部品1
 48
50.0
100
AcDbLine
 10
8555.540160560369
 20
3698.431828606209
 30
0.0
 11
8399.478488978529
 21
3883.972296268843
 31
0.0
  0
LINE
  5
13325
330
747D
100
AcDbEntity
  8
部品1
 48
50.0
100
AcDbLine
 10
8555.540160560369
 20
3548.431828606207
 30
0.0
 11
8268.917910316682
 21
3889.194719415315
 31
0.0
  0
LINE
  5
13326
330
747D
100
AcDbEntity
  8
部品1
 48
50.0
100
AcDbLine
 10
8555.540160560369
 20
3698.431828606209
 30
0.0
 11
8555.540160560369
 21
3548.431828606207
 31
0.0
  0
CIRCLE
  5
13327
330
747D
100
AcDbEntity
  8
細線
 48
50.0
100
AcDbCircle
 10
8650.540160560369
 20
3497.051931123301
 30
0.0
 40
6.5
  0
LWPOLYLINE
  5
13328
330
747D
100
AcDbEntity
  8
細線
 48
50.0
100
AcDbPolyline
 90
        6
 70
     1
 43
0.0
 10
8655.540160560368
 20
3499.938682469249
 10
8650.540160560369
 20
3502.825433815198
 10
8645.54016056037
 20
3499.938682469249
 10
8645.54016056037
 20
3494.165179777353
 10
8650.540160560369
 20
3491.278428431405
 10
8655.540160560368
 20
3494.165179777353
  0
LINE
  5
13329
330
747D
100
AcDbEntity
  8
部品1
 48
50.0
100
AcDbLine
 10
8722.04016056037
 20
3507.0519311233
 30
0.0
 11
8722.04016056037
 21
3487.0519311233
 31
0.0
  0
LINE
  5
1332A
330
747D
100
AcDbEntity
  8
部品1
 48
50.0
100
AcDbLine
 10
8722.04016056037
 20
3487.0519311233
 30
0.0
 11
8640.540160560369
 21
3487.0519311233
 31
0.0
  0
LINE
  5
1332B
330
747D
100
AcDbEntity
  8
部品1
 48
50.0
100
AcDbLine
 10
8722.04016056037
 20
3507.0519311233
 30
0.0
 11
8640.540160560369
 21
3507.0519311233
 31
0.0
  0
LINE
  5
1332C
330
747D
100
AcDbEntity
  8
細線
 48
50.0
100
AcDbLine
 10
8744.032476080018
 20
3525.602434706441
 30
0.0
 11
8723.511267480477
 21
3581.983991953595
 31
0.0
  0
LINE
  5
1332D
330
747D
100
AcDbEntity
  8
細線
 48
50.0
100
AcDbLine
 10
8720.54016056037
 20
3517.0519311233
 30
0.0
 11
8660.540160560369
 21
3517.0519311233
 31
0.0
  0
ARC
  5
1332E
330
747D
100
AcDbEntity
  8
部品1
 48
50.0
100
AcDbCircle
 10
8720.54016056037
 20
3517.0519311233
 30
0.0
 40
60.0
100
AcDbArc
 50
110.0
 51
180.0
  0
LINE
  5
1332F
330
747D
100
AcDbEntity
  8
部品1
 48
50.0
100
AcDbLine
 10
8720.54016056037
 20
3517.0519311233
 30
0.0
 11
8720.54016056037
 21
3507.0519311233
 31
0.0
  0
CIRCLE
  5
13330
330
747D
100
AcDbEntity
  8
細線
 48
50.0
100
AcDbCircle
 10
8853.04016056037
 20
3898.355819013883
 30
0.0
 40
9.0
  0
LWPOLYLINE
  5
13331
330
747D
100
AcDbEntity
  8
細線
 48
50.0
100
AcDbPolyline
 90
        6
 70
     1
 43
0.0
 10
8846.540160560369
 20
3894.603042264153
 10
8853.04016056037
 20
3890.850265514421
 10
8859.540160560369
 20
3894.603042264153
 10
8859.540160560369
 20
3902.108595763617
 10
8853.04016056037
 20
3905.861372513349
 10
8846.540160560369
 20
3902.108595763617
  0
LWPOLYLINE
  5
13332
330
747D
100
AcDbEntity
  8
細線
 48
50.0
100
AcDbPolyline
 90
        6
 70
     1
 43
0.0
 10
8594.04016056037
 20
3562.679051856475
 10
8600.540160560369
 20
3558.926275106743
 10
8607.040160560369
 20
3562.679051856475
 10
8607.040160560369
 20
3570.184605355939
 10
8600.540160560369
 20
3573.937382105672
 10
8594.04016056037
 20
3570.184605355939
  0
CIRCLE
  5
13333
330
747D
100
AcDbEntity
  8
細線
 48
50.0
100
AcDbCircle
 10
8600.540160560369
 20
3566.431828606206
 30
0.0
 40
9.0
  0
CIRCLE
  5
13334
330
747D
100
AcDbEntity
  8
細線
 48
50.0
100
AcDbCircle
 10
8600.540160560369
 20
3623.431828606209
 30
0.0
 40
9.0
  0
LWPOLYLINE
  5
13335
330
747D
100
AcDbEntity
  8
細線
 48
50.0
100
AcDbPolyline
 90
        6
 70
     1
 43
0.0
 10
8594.04016056037
 20
3619.679051856476
 10
8600.540160560369
 20
3615.926275106744
 10
8607.040160560369
 20
3619.679051856476
 10
8607.040160560369
 20
3627.18460535594
 10
8600.540160560369
 20
3630.937382105673
 10
8594.04016056037
 20
3627.18460535594
  0
LWPOLYLINE
  5
13336
330
747D
100
AcDbEntity
  8
細線
 48
50.0
100
AcDbPolyline
 90
        6
 70
     1
 43
0.0
 10
8594.04016056037
 20
3676.679051856476
 10
8600.540160560369
 20
3672.926275106744
 10
8607.040160560369
 20
3676.679051856476
 10
8607.040160560369
 20
3684.18460535594
 10
8600.540160560369
 20
3687.937382105673
 10
8594.04016056037
 20
3684.18460535594
  0
CIRCLE
  5
13337
330
747D
100
AcDbEntity
  8
細線
 48
50.0
100
AcDbCircle
 10
8600.540160560369
 20
3680.431828606208
 30
0.0
 40
9.0
  0
ARC
  5
13338
330
747D
100
AcDbEntity
  8
細線
 48
50.0
100
AcDbCircle
 10
8858.089587121963
 20
3842.609459697222
 30
0.0
 40
3.0
100
AcDbArc
 50
319.932160497193
 51
87.7093899573591
  0
ARC
  5
13339
330
747D
100
AcDbEntity
  8
細線
 48
50.0
100
AcDbCircle
 10
8850.504545514061
 20
3842.91286136154
 30
0.0
 40
3.0
100
AcDbArc
 50
87.70938995736093
 51
139.9321604971935
  0
ARC
  5
1333A
330
747D
100
AcDbEntity
  8
細線
 48
50.0
100
AcDbCircle
 10
8811.120321933143
 20
3844.488230304774
 30
0.0
 40
3.0
100
AcDbArc
 50
319.9321604971932
 51
87.70938995736116
  0
ARC
  5
1333B
330
747D
100
AcDbEntity
  8
細線
 48
50.0
100
AcDbCircle
 10
8803.53528032524
 20
3844.791631969091
 30
0.0
 40
3.0
100
AcDbArc
 50
87.7093899573609
 51
139.9321604971936
  0
LINE
  5
1333C
330
747D
100
AcDbEntity
  8
細線
 48
50.0
100
AcDbLine
 10
8850.624449629107
 20
3845.910464237704
 30
0.0
 11
8858.209491237008
 21
3845.607062573387
 31
0.0
  0
ARC
  5
1333D
330
747D
100
AcDbEntity
  8
細線
 48
50.0
100
AcDbCircle
 10
8668.54016056037
 20
3684.297018528962
 30
0.0
 40
3.0
100
AcDbArc
 50
139.9321604971936
 51
180.0000000000015
  0
LINE
  5
1333E
330
747D
100
AcDbEntity
  8
細線
 48
50.0
100
AcDbLine
 10
8665.54016056037
 20
3684.297018528962
 30
0.0
 11
8665.54016056037
 21
3674.975821829477
 31
0.0
  0
ARC
  5
1333F
330
747D
100
AcDbEntity
  8
細線
 48
50.0
100
AcDbCircle
 10
8668.54016056037
 20
3674.975821829477
 30
0.0
 40
3.0
100
AcDbArc
 50
180.0
 51
319.9321604971935
  0
ARC
  5
13340
330
747D
100
AcDbEntity
  8
細線
 48
50.0
100
AcDbCircle
 10
8668.54016056037
 20
3626.576865853848
 30
0.0
 40
3.0
100
AcDbArc
 50
139.9321604971931
 51
180.0000000000013
  0
LINE
  5
13341
330
747D
100
AcDbEntity
  8
細線
 48
50.0
100
AcDbLine
 10
8665.54016056037
 20
3626.576865853848
 30
0.0
 11
8665.54016056037
 21
3617.255669154366
 31
0.0
  0
ARC
  5
13342
330
747D
100
AcDbEntity
  8
細線
 48
50.0
100
AcDbCircle
 10
8668.54016056037
 20
3617.255669154366
 30
0.0
 40
3.0
100
AcDbArc
 50
180.0000000000013
 51
319.9321604971931
  0
LINE
  5
13343
330
747D
100
AcDbEntity
  8
細線
 48
50.0
100
AcDbLine
 10
8666.244312066705
 20
3686.228101047691
 30
0.0
 11
8801.239431831573
 21
3846.72271448782
 31
0.0
  0
LINE
  5
13344
330
747D
100
AcDbEntity
  8
細線
 48
50.0
100
AcDbLine
 10
8670.836009054033
 20
3673.04473931075
 30
0.0
 11
8813.416170426805
 21
3842.557147786047
 31
0.0
  0
LINE
  5
13345
330
747D
100
AcDbEntity
  8
細線
 48
50.0
100
AcDbLine
 10
8666.244312066705
 20
3628.507948372575
 30
0.0
 11
8848.208697020396
 21
3844.843943880267
 31
0.0
  0
LINE
  5
13346
330
747D
100
AcDbEntity
  8
細線
 48
50.0
100
AcDbLine
 10
8670.836009054038
 20
3615.324586635637
 30
0.0
 11
8860.385435615626
 21
3840.678377178493
 31
0.0
  0
LINE
  5
13347
330
747D
100
AcDbEntity
  8
細線
 48
50.0
100
AcDbLine
 10
8803.655184440286
 20
3847.789234845255
 30
0.0
 11
8811.240226048189
 21
3847.485833180941
 31
0.0
  0
LINE
  5
13348
330
747D
100
AcDbEntity
  8
部品1
 48
50.0
100
AcDbLine
 10
8788.612779275748
 20
3870.908923857598
 30
0.0
 11
8829.13029143275
 21
3919.079868574118
 31
0.0
  0
LINE
  5
13349
330
747D
100
AcDbEntity
  8
部品1
 48
50.0
100
AcDbLine
 10
8788.512859179872
 20
3868.410921460789
 30
0.0
 11
8788.612779275748
 21
3870.908923857594
 31
0.0
  0
ARC
  5
1334A
330
747D
100
AcDbEntity
  8
部品1
 48
50.0
100
AcDbCircle
 10
8844.43594805718
 20
3906.205985115928
 30
0.0
 40
20.0
100
AcDbArc
 50
87.70938995736152
 51
139.9321604971932
  0
LINE
  5
1334B
330
747D
100
AcDbEntity
  8
部品1
 48
50.0
100
AcDbLine
 10
8645.54016056037
 20
3698.431828606209
 30
0.0
 11
8788.512859179872
 21
3868.410921460789
 31
0.0
  0
LINE
  5
1334C
330
747D
100
AcDbEntity
  8
部品1
 48
50.0
100
AcDbLine
 10
8645.54016056037
 20
3698.431828606209
 30
0.0
 11
8645.54016056037
 21
3548.431828606208
 31
0.0
  0
LINE
  5
1334D
330
747D
100
AcDbEntity
  8
部品1
 48
50.0
100
AcDbLine
 10
8618.625697913238
 20
3877.708407112094
 30
0.0
 11
8788.612779275748
 21
3870.908923857594
 31
0.0
  0
LINE
  5
1334E
330
747D
100
AcDbEntity
  8
部品1
 48
50.0
100
AcDbLine
 10
8577.578522528943
 20
3877.348694766952
 30
0.0
 11
8618.545761836541
 21
3875.71000519465
 31
0.0
  0
LINE
  5
1334F
330
747D
100
AcDbEntity
  8
細線
 48
50.0
100
AcDbLine
 10
9540.27548271131
 20
1830.562576328022
 30
0.0
 11
9580.872162690011
 21
1871.159256306725
 31
0.0
  0
LINE
  5
13350
330
747D
100
AcDbEntity
  8
細線
 48
50.0
100
AcDbLine
 10
9513.334702711309
 20
1830.562576328022
 30
0.0
 11
9554.198123086051
 21
1871.425996702765
 31
0.0
  0
LINE
  5
13353
330
747D
100
AcDbEntity
  8
細線
 48
50.0
100
AcDbLine
 10
8893.697041994332
 20
1830.562576328022
 30
0.0
 11
8940.695488712805
 21
1877.561023046497
 31
0.0
  0
LINE
  5
13354
330
747D
100
AcDbEntity
  8
細線
 48
50.0
100
AcDbLine
 10
9486.393922711307
 20
1830.562576328022
 30
0.0
 11
9527.52408348209
 21
1871.692737098804
 31
0.0
  0
LINE
  5
13356
330
747D
100
AcDbEntity
  8
部品1
 48
50.0
100
AcDbLine
 10
9600.54016056037
 20
1860.962576328022
 30
0.0
 11
9600.54016056037
 21
1830.562576328022
 31
0.0
  0
LINE
  5
13357
330
747D
100
AcDbEntity
  8
部品1
 48
50.0
100
AcDbLine
 10
9590.54066052287
 20
1871.062571328397
 30
0.0
 11
9600.54016056037
 21
1860.962576328022
 31
0.0
  0
LINE
  5
13358
330
747D
100
AcDbEntity
  8
部品1
 48
50.0
100
AcDbLine
 10
8910.673956382787
 20
3866.026476773313
 30
0.0
 11
9327.658458605641
 21
3849.347096684397
 31
0.0
  0
CIRCLE
  5
13359
330
747D
100
AcDbEntity
  8
細線
 48
50.0
100
AcDbCircle
 10
8913.040160560369
 20
3895.955819013884
 30
0.0
 40
9.0
  0
LWPOLYLINE
  5
1335A
330
747D
100
AcDbEntity
  8
細線
 48
50.0
100
AcDbPolyline
 90
        6
 70
     1
 43
0.0
 10
8906.54016056037
 20
3892.203042264152
 10
8913.040160560369
 20
3888.45026551442
 10
8919.540160560369
 20
3892.203042264152
 10
8919.540160560369
 20
3899.708595763616
 10
8913.040160560369
 20
3903.461372513349
 10
8906.54016056037
 20
3899.708595763616
  0
LINE
  5
1335B
330
747D
100
AcDbEntity
  8
部品1
 48
50.0
100
AcDbLine
 10
8910.673956382794
 20
3866.026476773313
 30
0.0
 11
8944.368664571626
 21
3906.085844661304
 31
0.0
  0
LINE
  5
1335C
330
747D
100
AcDbEntity
  8
部品1
 48
50.0
100
AcDbLine
 10
8910.574036286918
 20
3863.528474376508
 30
0.0
 11
8910.67395638279
 21
3866.026476773312
 31
0.0
  0
ARC
  5
1335D
330
747D
100
AcDbEntity
  8
部品1
 48
50.0
100
AcDbCircle
 10
8936.715836259413
 20
3912.522786390397
 30
0.0
 40
10.0
100
AcDbArc
 50
319.932160497193
 51
87.70938995736143
  0
LINE
  5
1335E
330
747D
100
AcDbEntity
  8
細線
 48
50.0
100
AcDbLine
 10
9465.540160560371
 20
3877.060422000172
 30
0.0
 11
9525.540160560366
 21
3877.06042200017
 31
0.0
  0
LINE
  5
1335F
330
747D
100
AcDbEntity
  8
細線
 48
50.0
100
AcDbLine
 10
9465.540160560371
 20
3852.060422000177
 30
0.0
 11
9486.061369159907
 21
3795.67886475302
 31
0.0
  0
LINE
  5
13360
330
747D
100
AcDbEntity
  8
部品1
 48
50.0
100
AcDbLine
 10
9380.834371602963
 20
3755.783103142377
 30
0.0
 11
9362.040519187249
 21
3748.942700275864
 31
0.0
  0
LWPOLYLINE
  5
13361
330
747D
100
AcDbEntity
  8
細線
 48
50.0
100
AcDbPolyline
 90
        6
 70
     1
 43
0.0
 10
9351.983005147324
 20
3822.437675441264
 10
9346.983005147325
 20
3825.324426787213
 10
9341.983005147325
 20
3822.437675441264
 10
9341.983005147325
 20
3816.664172749368
 10
9346.983005147325
 20
3813.77742140342
 10
9351.983005147324
 20
3816.664172749368
  0
CIRCLE
  5
13362
330
747D
100
AcDbEntity
  8
細線
 48
50.0
100
AcDbCircle
 10
9346.983005147325
 20
3819.550924095315
 30
0.0
 40
6.5
  0
ARC
  5
13363
330
747D
100
AcDbEntity
  8
部品1
 48
50.0
100
AcDbCircle
 10
9337.32697551189
 20
3825.614016679109
 30
0.0
 40
3.0
100
AcDbArc
 50
110.0000000000029
 51
200.0000000000011
  0
LINE
  5
13364
330
747D
100
AcDbEntity
  8
部品1
 48
50.0
100
AcDbLine
 10
9337.345503120735
 20
3828.813293494668
 30
0.0
 11
9336.300915081912
 21
3828.433094541466
 31
0.0
  0
LINE
  5
13365
330
747D
100
AcDbEntity
  8
部品1
 48
50.0
100
AcDbLine
 10
9346.983005147325
 20
3819.550924095315
 30
0.0
 11
9346.983005147325
 21
3819.550924095315
 31
0.0
  0
LINE
  5
13366
330
747D
100
AcDbEntity
  8
部品1
 48
50.0
100
AcDbLine
 10
9357.053757159883
 20
3821.119804345508
 30
0.0
 11
9380.834371602963
 21
3755.783103142377
 31
0.0
  0
LINE
  5
13367
330
747D
100
AcDbEntity
  8
部品1
 48
50.0
100
AcDbLine
 10
9334.507897649531
 20
3824.587956249132
 30
0.0
 11
9362.040519187249
 21
3748.942700275864
 31
0.0
  0
ARC
  5
13368
330
747D
100
AcDbEntity
  8
部品1
 48
50.0
100
AcDbCircle
 10
9347.022973185667
 20
3820.550125054037
 30
0.0
 40
10.0
100
AcDbArc
 50
177.7093899573658
 51
357.7093899573658
  0
LINE
  5
13369
330
747D
100
AcDbEntity
  8
部品1
 48
50.0
100
AcDbLine
 10
9358.054151769957
 20
3846.129669597314
 30
0.0
 11
9356.97501473454
 21
3819.151243711827
 31
0.0
  0
LINE
  5
1336A
330
747D
100
AcDbEntity
  8
部品1
 48
50.0
100
AcDbLine
 10
9338.070132595523
 20
3846.929030364292
 30
0.0
 11
9336.990995560103
 21
3819.950604478803
 31
0.0
  0
ARC
  5
1336B
330
747D
100
AcDbEntity
  8
部品1
 48
50.0
100
AcDbCircle
 10
9465.540160560365
 20
3852.060422000174
 30
0.0
 40
60.0
100
AcDbArc
 50
290.0
 51
359.9999999999994
  0
LINE
  5
1336C
330
747D
100
AcDbEntity
  8
部品1
 48
50.0
100
AcDbLine
 10
9486.061369159907
 20
3795.67886475302
 30
0.0
 11
9380.321341387979
 21
3757.192642073555
 31
0.0
  0
LINE
  5
1336D
330
747D
100
AcDbEntity
  8
部品1
 48
50.0
100
AcDbLine
 10
9525.540160560369
 20
3901.479809421552
 30
0.0
 11
9525.540160560366
 21
3852.060422000174
 31
0.0
  0
LINE
  5
1336E
330
747D
100
AcDbEntity
  8
部品1
 48
50.0
100
AcDbLine
 10
9465.540160560371
 20
3903.879809421553
 30
0.0
 11
9465.540160560371
 21
3852.060422000177
 31
0.0
  0
ARC
  5
1336F
330
747D
100
AcDbEntity
  8
部品1
 48
50.0
100
AcDbCircle
 10
9391.241460724307
 20
3854.810174041697
 30
0.0
 40
10.0
100
AcDbArc
 50
267.7093899573567
 51
342.8022431134351
  0
LINE
  5
13370
330
747D
100
AcDbEntity
  8
部品1
 48
50.0
100
AcDbLine
 10
9390.841780340819
 20
3844.818164454478
 30
0.0
 11
9368.545761836541
 21
3845.710005194651
 31
0.0
  0
LINE
  5
13371
330
747D
100
AcDbEntity
  8
部品1
 48
50.0
100
AcDbLine
 10
9415.568428062675
 20
3899.58738505313
 30
0.0
 11
9400.794360107068
 21
3851.853467532277
 31
0.0
  0
ARC
  5
13372
330
747D
100
AcDbEntity
  8
部品1
 48
50.0
100
AcDbCircle
 10
9410.791978371292
 20
3901.06573830784
 30
0.0
 40
5.0
100
AcDbArc
 50
342.8022431134356
 51
87.70938995736022
  0
LINE
  5
13373
330
747D
100
AcDbEntity
  8
部品1
 48
50.0
100
AcDbLine
 10
9327.578522528943
 20
3847.348694766956
 30
0.0
 11
9368.545761836541
 21
3845.710005194651
 31
0.0
  0
LINE
  5
13374
330
747D
100
AcDbEntity
  8
部品1
 48
50.0
100
AcDbLine
 10
9371.023780214164
 20
3907.660464635403
 30
0.0
 11
9368.545761836536
 21
3845.710005194651
 31
0.0
  0
LINE
  5
13375
330
747D
100
AcDbEntity
  8
部品1
 48
50.0
100
AcDbLine
 10
9330.056540906575
 20
3909.299154207707
 30
0.0
 11
9327.578522528943
 21
3847.348694766953
 31
0.0
  0
ARC
  5
13376
330
747D
100
AcDbEntity
  8
細線
 48
50.0
100
AcDbCircle
 10
9547.567605516837
 20
3935.126300592118
 30
0.0
 40
10.0
100
AcDbArc
 50
267.7093899573615
 51
341.1471589320593
  0
ARC
  5
13377
330
747D
100
AcDbEntity
  8
部品1
 48
50.0
100
AcDbCircle
 10
9557.23479100936
 20
3920.228017808709
 30
0.0
 40
20.0
100
AcDbArc
 50
267.7093899573605
 51
341.1471589320572
  0
DIMENSION
  5
13378
330
747D
100
AcDbEntity
  8
寸法
 48
50.0
100
AcDbDimension
  2
*D10
 10
9600.54016056037
 20
4906.270106075113
 30
0.0
 11
8600.540160560369
 21
4981.27896434283
 31
0.0
 12
-2598.626139312037
 22
-1260.916917799579
 32
0.0
 70
    32
 71
     5
 42
-1.0
  3
INABA_S30G
100
AcDbAlignedDimension
 13
7600.540160560369
 23
4066.450581124187
 33
0.0
 14
9600.54016056037
 24
3987.650581124186
 34
0.0
100
AcDbRotatedDimension
  0
LINE
  5
13379
330
747D
100
AcDbEntity
  8
細線
 48
50.0
100
AcDbLine
 10
7642.212296112015
 20
4048.370101137771
 30
0.0
 11
9557.069680324124
 21
3971.775805769289
 31
0.0
  0
LINE
  5
1337A
330
747D
100
AcDbEntity
  8
細線
 48
50.0
100
AcDbLine
 10
7647.239640235421
 20
4036.659811049896
 30
0.0
 11
9551.079188174044
 21
3960.506229132352
 31
0.0
  0
LINE
  5
1337B
330
747D
100
AcDbEntity
  8
細線
 48
50.0
100
AcDbLine
 10
7651.320423526202
 20
4012.477387392127
 30
0.0
 11
9544.771116994747
 21
3936.739359653382
 31
0.0
  0
LINE
  5
1337C
330
747D
100
AcDbEntity
  8
部品1
 48
50.0
100
AcDbLine
 10
7616.139681135603
 20
4081.438595505015
 30
0.0
 11
9586.139681135604
 21
4002.638595505014
 31
0.0
  0
LINE
  5
1337D
330
747D
100
AcDbEntity
  8
寸法
 48
50.0
100
AcDbLine
 10
7825.210305377186
 20
4053.222195217858
 30
0.0
 11
7339.065484278704
 21
4546.895830082074
 31
0.0
  0
TEXT
  5
1337E
330
747D
100
AcDbEntity
  8
部品1
 48
50.0
100
AcDbText
 10
7192.4912213433
 20
4538.278146323937
 30
0.0
 40
120.0
  1
⑤
  7
STYLE2
100
AcDbText
  0
ARC
  5
1337F
330
747D
100
AcDbEntity
  8
部品1
 48
50.0
100
AcDbCircle
 10
7789.888662365957
 20
3965.90187094803
 30
0.0
 40
5.0
100
AcDbArc
 50
87.70938995736711
 51
192.6165368012917
  0
ARC
  5
13380
330
747D
100
AcDbEntity
  8
細線
 48
50.0
100
AcDbCircle
 10
7648.293503009835
 20
4011.097264692398
 30
0.0
 40
10.0
100
AcDbArc
 50
193.36358004956
 51
267.7093899573615
  0
ARC
  5
13381
330
747D
100
AcDbEntity
  8
細線
 48
50.0
100
AcDbCircle
 10
7641.812615728525
 20
4038.378091550556
 30
0.0
 40
10.0
100
AcDbArc
 50
87.7093899573615
 51
193.3635800495596
  0
ARC
  5
13382
330
747D
100
AcDbEntity
  8
細線
 48
50.0
100
AcDbCircle
 10
7651.44032764125
 20
4015.474990268292
 30
0.0
 40
3.0
100
AcDbArc
 50
193.363580049562
 51
267.7093899573615
  0
ARC
  5
13383
330
747D
100
AcDbEntity
  8
細線
 48
50.0
100
AcDbCircle
 10
7647.119736120373
 20
4033.662208173729
 30
0.0
 40
3.0
100
AcDbArc
 50
87.70938995736145
 51
193.3635800495541
  0
LINE
  5
13384
330
747D
100
AcDbEntity
  8
細線
 48
50.0
100
AcDbLine
 10
7644.200967145036
 20
4032.968819632846
 30
0.0
 11
7648.521558665914
 21
4014.781601727407
 31
0.0
  0
LINE
  5
13385
330
747D
100
AcDbEntity
  8
細線
 48
50.0
100
AcDbLine
 10
7632.083385810748
 20
4036.06679641427
 30
0.0
 11
7638.564273092055
 21
4008.785969556113
 31
0.0
  0
LINE
  5
13386
330
747D
100
AcDbEntity
  8
部品1
 48
50.0
100
AcDbLine
 10
7664.101327154243
 20
4079.52012966427
 30
0.0
 11
7659.964635185133
 21
3976.102830436565
 31
0.0
  0
LINE
  5
13387
330
747D
100
AcDbEntity
  8
部品1
 48
50.0
100
AcDbLine
 10
7600.946315683701
 20
4062.983638419761
 30
0.0
 11
7617.712407871547
 21
3992.407984468231
 31
0.0
  0
ARC
  5
13388
330
747D
100
AcDbEntity
  8
部品1
 48
50.0
100
AcDbCircle
 10
7615.54016056037
 20
4066.450581124187
 30
0.0
 40
15.0
100
AcDbArc
 50
87.70938995736079
 51
193.3635800495583
  0
ARC
  5
13389
330
747D
100
AcDbEntity
  8
部品1
 48
50.0
100
AcDbCircle
 10
7637.1708677071
 20
3997.030574740799
 30
0.0
 40
20.0
100
AcDbArc
 50
193.3635800495578
 51
267.7093899573604
  0
ARC
  5
1338A
330
747D
100
AcDbEntity
  8
部品1
 48
50.0
100
AcDbCircle
 10
8339.868144176247
 20
3926.388697271166
 30
0.0
 40
20.0
100
AcDbArc
 50
40.06783950280725
 51
87.70938995736152
  0
ARC
  5
1338B
330
747D
100
AcDbEntity
  8
部品1
 48
50.0
100
AcDbCircle
 10
8241.162594319332
 20
3940.344916067999
 30
0.0
 40
10.0
100
AcDbArc
 50
87.70938995736148
 51
220.067839502807
  0
LINE
  5
1338C
330
747D
100
AcDbEntity
  8
部品1
 48
50.0
100
AcDbLine
 10
8241.56227470282
 20
3950.336925655216
 30
0.0
 11
8340.667504943224
 21
3946.372716445602
 31
0.0
  0
ARC
  5
1338D
330
747D
100
AcDbEntity
  8
細線
 48
50.0
100
AcDbCircle
 10
9544.891021109794
 20
3939.736962529547
 30
0.0
 40
3.0
100
AcDbArc
 50
267.7093899573614
 51
341.1471589320563
  0
ARC
  5
1338E
330
747D
100
AcDbEntity
  8
細線
 48
50.0
100
AcDbCircle
 10
9550.959284058997
 20
3957.508626256188
 30
0.0
 40
3.0
100
AcDbArc
 50
341.1471589320588
 51
87.70938995736148
  0
ARC
  5
1338F
330
747D
100
AcDbEntity
  8
細線
 48
50.0
100
AcDbCircle
 10
9556.669999940634
 20
3961.783796182072
 30
0.0
 40
10.0
100
AcDbArc
 50
341.1471589320582
 51
87.7093899573615
  0
LINE
  5
13390
330
747D
100
AcDbEntity
  8
細線
 48
50.0
100
AcDbLine
 10
9553.798339002508
 20
3956.53921043843
 30
0.0
 11
9547.730076053303
 21
3938.767546711792
 31
0.0
  0
ARC
  5
13391
330
747D
100
AcDbEntity
  8
部品1
 48
50.0
100
AcDbCircle
 10
9585.540160560368
 20
3987.650581124186
 30
0.0
 40
15.0
100
AcDbArc
 50
341.1471589320592
 51
87.70938995736051
  0
LINE
  5
13A2F
330
747D
100
AcDbEntity
  8
部品1
 48
50.0
100
AcDbLine
 10
5322.862646115602
 20
7921.447238448381
 30
0.0
 11
2862.862646115602
 21
7921.447238448381
 31
0.0
  0
LINE
  5
13A34
330
747D
100
AcDbEntity
  8
部品1
 48
50.0
100
AcDbLine
 10
2862.862646115602
 20
7921.447238448386
 30
0.0
 11
5742.862646115602
 21
7921.447238448386
 31
0.0
  0
LINE
  5
13A35
330
747D
100
AcDbEntity
  8
部品1
 48
50.0
100
AcDbLine
 10
2910.862646115602
 20
7817.947238448389
 30
0.0
 11
5694.862646115602
 21
7817.947238448386
 31
0.0
  0
LINE
  5
13A36
330
747D
100
AcDbEntity
  8
点線
 48
100.0
100
AcDbLine
 10
3980.792859073757
 20
7713.947238448382
 30
0.0
 11
5718.862646115602
 21
7713.947238448383
 31
0.0
  0
LINE
  5
13A37
330
747D
100
AcDbEntity
  8
点線
 48
100.0
100
AcDbLine
 10
3998.209556581779
 20
7648.947238448383
 30
0.0
 11
5718.862646115603
 21
7648.947238448385
 31
0.0
  0
LINE
  5
13A38
330
747D
100
AcDbEntity
  8
点線
 48
100.0
100
AcDbLine
 10
4207.571860910108
 20
6898.947238448385
 30
0.0
 11
5718.862646115601
 21
6898.947238448385
 31
0.0
  0
LINE
  5
13A39
330
747D
100
AcDbEntity
  8
点線
 48
100.0
100
AcDbLine
 10
4163.886916154162
 20
6963.947238448383
 30
0.0
 11
5718.862646115602
 21
6963.947238448385
 31
0.0
  0
LINE
  5
13A3A
330
747D
100
AcDbEntity
  8
点線
 48
100.0
100
AcDbLine
 10
4382.716647720437
 20
6213.947238448387
 30
0.0
 11
5718.862646115602
 21
6213.947238448384
 31
0.0
  0
LINE
  5
13A3B
330
747D
100
AcDbEntity
  8
点線
 48
100.0
100
AcDbLine
 10
4400.133345228463
 20
6148.947238448385
 30
0.0
 11
5718.862646115603
 21
6148.947238448386
 31
0.0
  0
LINE
  5
13A3C
330
747D
100
AcDbEntity
  8
部品1
 48
50.0
100
AcDbLine
 10
2910.862646115602
 20
6014.947238448389
 30
0.0
 11
5694.862646115602
 21
6014.947238448385
 31
0.0
  0
LINE
  5
13A3D
330
747D
100
AcDbEntity
  8
部品1
 48
50.0
100
AcDbLine
 10
2862.862646115602
 20
5921.447238448389
 30
0.0
 11
5742.862646115602
 21
5921.447238448382
 31
0.0
  0
TEXT
  5
13A3E
330
747D
100
AcDbEntity
  8
部品1
 48
50.0
100
AcDbText
 10
4956.524074677603
 20
5420.423537286386
 30
0.0
 40
120.0
  1
⑥
  7
STYLE2
100
AcDbText
  0
LINE
  5
13A3F
330
747D
100
AcDbEntity
  8
部品1
 48
50.0
100
AcDbLine
 10
4200.296892443584
 20
6894.747033445888
 30
0.0
 11
4501.284165371212
 21
5771.447238448381
 31
0.0
  0
LINE
  5
13A54
330
747D
100
AcDbEntity
  8
部品1
 48
50.0
100
AcDbLine
 10
3067.862646115602
 20
6898.947238448389
 30
0.0
 11
3067.862646115602
 21
6213.947238448389
 31
0.0
  0
LINE
  5
13A55
330
747D
100
AcDbEntity
  8
部品1
 48
50.0
100
AcDbLine
 10
3127.862646115602
 20
6898.947238448389
 30
0.0
 11
3127.862646115602
 21
6213.947238448389
 31
0.0
  0
LINE
  5
13A56
330
747D
100
AcDbEntity
  8
部品1
 48
50.0
100
AcDbLine
 10
2932.862646115602
 20
7817.947238448386
 30
0.0
 11
2932.862646115602
 21
6014.947238448385
 31
0.0
  0
LINE
  5
13A5D
330
747D
100
AcDbEntity
  8
部品1
 48
50.0
100
AcDbLine
 10
2910.862646115602
 20
7921.447238448386
 30
0.0
 11
2910.862646115602
 21
5921.447238448389
 31
0.0
  0
LINE
  5
13A5E
330
747D
100
AcDbEntity
  8
部品1
 48
50.0
100
AcDbLine
 10
2847.862646115602
 20
7906.447238448385
 30
0.0
 11
2847.862646115602
 21
5936.447238448385
 31
0.0
  0
LINE
  5
13A5F
330
747D
100
AcDbEntity
  8
部品1
 48
50.0
100
AcDbLine
 10
2932.862646115602
 20
6148.947238448389
 30
0.0
 11
4400.133345228462
 21
6148.947238448386
 31
0.0
  0
LINE
  5
13A60
330
747D
100
AcDbEntity
  8
部品1
 48
50.0
100
AcDbLine
 10
2932.862646115602
 20
6213.947238448389
 30
0.0
 11
4382.716647720437
 21
6213.947238448388
 31
0.0
  0
LINE
  5
13A61
330
747D
100
AcDbEntity
  8
部品1
 48
50.0
100
AcDbLine
 10
2932.862646115602
 20
6193.947238448389
 30
0.0
 11
4388.075631569059
 21
6193.94723844839
 31
0.0
  0
ARC
  5
13A62
330
747D
100
AcDbEntity
  8
部品1
 48
50.0
100
AcDbCircle
 10
2862.862646115602
 20
5936.447238448385
 30
0.0
 40
15.0
100
AcDbArc
 50
180.0
 51
270.0
  0
LINE
  5
13A63
330
747D
100
AcDbEntity
  8
点線
 48
18.0
100
AcDbLine
 10
2886.862646115601
 20
6148.947238448388
 30
0.0
 11
2932.862646115602
 21
6148.947238448389
 31
0.0
  0
LINE
  5
13A64
330
747D
100
AcDbEntity
  8
点線
 48
18.0
100
AcDbLine
 10
2886.862646115601
 20
6213.947238448388
 30
0.0
 11
2932.862646115602
 21
6213.947238448389
 31
0.0
  0
LINE
  5
13A65
330
747D
100
AcDbEntity
  8
部品1
 48
50.0
100
AcDbLine
 10
2847.862646115602
 20
5984.447238448389
 30
0.0
 11
2910.862646115602
 21
5984.447238448389
 31
0.0
  0
ARC
  5
13A66
330
747D
100
AcDbEntity
  8
部品1
 48
50.0
100
AcDbCircle
 10
3119.862646115602
 20
6113.947238448385
 30
0.0
 40
10.0
100
AcDbArc
 50
270.0
 51
0.0
  0
ARC
  5
13A67
330
747D
100
AcDbEntity
  8
部品1
 48
50.0
100
AcDbCircle
 10
3075.862646115602
 20
6113.947238448389
 30
0.0
 40
10.0
100
AcDbArc
 50
180.0
 51
270.0
  0
LINE
  5
13A68
330
747D
100
AcDbEntity
  8
部品1
 48
50.0
100
AcDbLine
 10
3075.862646115602
 20
6103.947238448388
 30
0.0
 11
3119.862646115602
 21
6103.947238448385
 31
0.0
  0
LINE
  5
13A69
330
747D
100
AcDbEntity
  8
部品1
 48
50.0
100
AcDbLine
 10
3129.862646115602
 20
6148.947238448389
 30
0.0
 11
3129.862646115602
 21
6113.947238448385
 31
0.0
  0
LINE
  5
13A6A
330
747D
100
AcDbEntity
  8
部品1
 48
50.0
100
AcDbLine
 10
3065.862646115602
 20
6148.947238448389
 30
0.0
 11
3065.862646115602
 21
6113.947238448389
 31
0.0
  0
LINE
  5
13A6B
330
747D
100
AcDbEntity
  8
寸法
 48
50.0
100
AcDbLine
 10
3529.041354906607
 20
5509.815332044451
 30
0.0
 11
3705.324876933803
 21
5972.529457111853
 31
0.0
  0
TEXT
  5
13A6C
330
747D
100
AcDbEntity
  8
部品1
 48
50.0
100
AcDbText
 10
3397.303555050102
 20
5381.64549111569
 30
0.0
 40
120.0
  1
⑦
  7
STYLE2
100
AcDbText
  0
LINE
  5
13A73
330
747D
100
AcDbEntity
  8
寸法
 48
50.0
100
AcDbLine
 10
5014.638935592499
 20
5557.550825791265
 30
0.0
 11
4752.862646115601
 21
6344.247697710415
 31
0.0
  0
LINE
  5
13A74
330
747D
100
AcDbEntity
  8
部品1
 48
50.0
100
AcDbLine
 10
2932.862646115602
 20
6898.947238448389
 30
0.0
 11
4207.571860910117
 21
6898.947238448387
 31
0.0
  0
LINE
  5
13A75
330
747D
100
AcDbEntity
  8
部品1
 48
50.0
100
AcDbLine
 10
2932.862646115602
 20
6963.947238448385
 30
0.0
 11
4163.886916154166
 21
6963.947238448387
 31
0.0
  0
LINE
  5
13A76
330
747D
100
AcDbEntity
  8
部品1
 48
50.0
100
AcDbLine
 10
2932.862646115602
 20
7648.947238448389
 30
0.0
 11
3998.209556581777
 21
7648.947238448394
 31
0.0
  0
LINE
  5
13A77
330
747D
100
AcDbEntity
  8
部品1
 48
50.0
100
AcDbLine
 10
2932.862646115602
 20
7713.94723844839
 30
0.0
 11
3980.792859073755
 21
7713.94723844839
 31
0.0
  0
LINE
  5
13A78
330
747D
100
AcDbEntity
  8
部品1
 48
50.0
100
AcDbLine
 10
2932.862646115602
 20
7693.947238448389
 30
0.0
 11
3986.151842922377
 21
7693.947238448389
 31
0.0
  0
LINE
  5
13A79
330
747D
100
AcDbEntity
  8
部品1
 48
50.0
100
AcDbLine
 10
2932.862646115602
 20
6943.947238448385
 30
0.0
 11
4129.245900002788
 21
6943.947238448387
 31
0.0
  0
TEXT
  5
13A92
330
747D
100
AcDbEntity
  8
部品1
 48
50.0
100
AcDbText
 10
2236.857337236747
 20
7518.398786710581
 30
0.0
 40
120.0
  1
③
  7
STYLE2
100
AcDbText
  0
LINE
  5
13A93
330
747D
100
AcDbEntity
  8
寸法
 48
50.0
100
AcDbLine
 10
2387.705148676447
 20
7531.123166211601
 30
0.0
 11
3098.512622590504
 21
7140.723527947161
 31
0.0
  0
LINE
  5
13A94
330
747D
100
AcDbEntity
  8
部品1
 48
50.0
100
AcDbLine
 10
3127.862646115602
 20
7648.947238448389
 30
0.0
 11
3127.862646115602
 21
6963.947238448385
 31
0.0
  0
LINE
  5
13A95
330
747D
100
AcDbEntity
  8
部品1
 48
50.0
100
AcDbLine
 10
3067.862646115602
 20
7648.947238448389
 30
0.0
 11
3067.862646115602
 21
6963.947238448385
 31
0.0
  0
LINE
  5
13A96
330
747D
100
AcDbEntity
  8
点線
 48
18.0
100
AcDbLine
 10
2886.862646115602
 20
6963.947238448385
 30
0.0
 11
2932.862646115602
 21
6963.947238448385
 31
0.0
  0
LINE
  5
13A97
330
747D
100
AcDbEntity
  8
点線
 48
18.0
100
AcDbLine
 10
2886.862646115602
 20
6898.94723844839
 30
0.0
 11
2932.862646115602
 21
6898.947238448389
 31
0.0
  0
LINE
  5
13A98
330
747D
100
AcDbEntity
  8
点線
 48
18.0
100
AcDbLine
 10
2886.862646115602
 20
7648.947238448387
 30
0.0
 11
2932.862646115602
 21
7648.947238448389
 31
0.0
  0
LINE
  5
13A99
330
747D
100
AcDbEntity
  8
点線
 48
18.0
100
AcDbLine
 10
2886.862646115602
 20
7713.947238448388
 30
0.0
 11
2932.862646115602
 21
7713.94723844839
 31
0.0
  0
ARC
  5
13A9A
330
747D
100
AcDbEntity
  8
部品1
 48
50.0
100
AcDbCircle
 10
3119.862646115602
 20
7728.947238448388
 30
0.0
 40
10.0
100
AcDbArc
 50
0.0
 51
90.0
  0
ARC
  5
13A9B
330
747D
100
AcDbEntity
  8
部品1
 48
50.0
100
AcDbCircle
 10
3075.862646115602
 20
7728.947238448388
 30
0.0
 40
10.0
100
AcDbArc
 50
90.0
 51
180.0000000000005
  0
LINE
  5
13A9C
330
747D
100
AcDbEntity
  8
部品1
 48
50.0
100
AcDbLine
 10
3075.862646115602
 20
7738.947238448389
 30
0.0
 11
3119.862646115602
 21
7738.947238448389
 31
0.0
  0
LINE
  5
13A9D
330
747D
100
AcDbEntity
  8
部品1
 48
50.0
100
AcDbLine
 10
3129.862646115602
 20
7728.947238448388
 30
0.0
 11
3129.862646115602
 21
7713.94723844839
 31
0.0
  0
LINE
  5
13A9E
330
747D
100
AcDbEntity
  8
部品1
 48
50.0
100
AcDbLine
 10
3065.862646115602
 20
7728.947238448388
 30
0.0
 11
3065.862646115602
 21
7713.94723844839
 31
0.0
  0
ARC
  5
13AA1
330
747D
100
AcDbEntity
  8
部品1
 48
50.0
100
AcDbCircle
 10
2862.862646115602
 20
7906.447238448385
 30
0.0
 40
15.0
100
AcDbArc
 50
90.00000000000003
 51
180.0
  0
LINE
  5
13AA2
330
747D
100
AcDbEntity
  8
部品1
 48
50.0
100
AcDbLine
 10
2847.862646115602
 20
7858.447238448386
 30
0.0
 11
2910.862646115602
 21
7858.447238448386
 31
0.0
  0
TEXT
  5
13AA8
330
747D
100
AcDbEntity
  8
部品1
 48
50.0
100
AcDbText
 10
2236.260798315884
 20
6713.851766187025
 30
0.0
 40
120.0
  1
④
  7
STYLE2
100
AcDbText
  0
LINE
  5
13AA9
330
747D
100
AcDbEntity
  8
寸法
 48
50.0
100
AcDbLine
 10
2402.091411347143
 20
6792.785857648194
 30
0.0
 11
2993.114428744592
 21
6916.435141097882
 31
0.0
  0
LINE
  5
13AD9
330
747D
100
AcDbEntity
  8
部品1
 48
50.0
100
AcDbLine
 10
3885.001022779631
 20
8071.447238448381
 30
0.0
 11
4179.360917117231
 21
6972.881157069853
 31
0.0
  0
LINE
  5
13ADE
330
747D
100
AcDbEntity
  8
部品1
 48
50.0
100
AcDbLine
 10
4242.28776697467
 20
6918.990476159921
 30
0.0
 11
4200.296892443584
 21
6894.747033445892
 31
0.0
  0
LINE
  5
13ADF
330
747D
100
AcDbEntity
  8
部品1
 48
50.0
100
AcDbLine
 10
4086.019519726757
 20
6918.990476159921
 30
0.0
 11
4242.28776697467
 21
6918.990476159921
 31
0.0
  0
LINE
  5
13AE0
330
747D
100
AcDbEntity
  8
部品1
 48
50.0
100
AcDbLine
 10
4086.019519726753
 20
6918.990476159923
 30
0.0
 11
4179.360917117231
 21
6972.881157069853
 31
0.0
  0
LWPOLYLINE
  5
13C02
330
747D
100
AcDbEntity
  8
部品1
100
AcDbPolyline
 90
        4
 70
     1
 43
0.0
 10
3941.671290881421
 20
5569.236416622199
 10
4588.702666161945
 20
5569.236416622199
 10
4588.702666161945
 20
5376.71626080506
 10
3941.671290881421
 20
5376.71626080506
  0
TEXT
  5
13C03
330
747D
100
AcDbEntity
  8
仕様書枠
 62
     7
 48
50.0
100
AcDbText
 10
3973.08636764295
 20
5415.371692272017
 30
0.0
 40
112.0
  1
平 面 図
  7
STYLE2
100
AcDbText
  0
DIMENSION
  5
13D64
330
747D
100
AcDbEntity
  8
寸法
 48
50.0
100
AcDbDimension
  2
*D11
 10
6381.352180640483
 20
5921.44723844838
 30
0.0
 11
6381.352180640483
 21
6921.447238448381
 31
0.0
 70
   160
 71
     5
 42
2000.000000000003
  3
INABA_S30G
100
AcDbAlignedDimension
 13
5742.862646115602
 23
7921.447238448386
 33
0.0
 14
5742.862646115602
 24
5921.447238448382
 34
0.0
 50
90.0
100
AcDbRotatedDimension
  0
LINE
  5
13D65
330
747D
100
AcDbEntity
  8
点線
 48
100.0
100
AcDbLine
 10
5477.862646115602
 20
6898.947238448385
 30
0.0
 11
5477.862646115602
 21
6213.947238448389
 31
0.0
  0
LINE
  5
13D66
330
747D
100
AcDbEntity
  8
点線
 48
100.0
100
AcDbLine
 10
5537.862646115602
 20
6898.947238448385
 30
0.0
 11
5537.862646115602
 21
6213.947238448389
 31
0.0
  0
LINE
  5
13D6F
330
747D
100
AcDbEntity
  8
部品1
 48
50.0
100
AcDbLine
 10
5450.862646115602
 20
7817.947238448386
 30
0.0
 11
5450.862646115602
 21
6014.947238448385
 31
0.0
  0
LINE
  5
13D70
330
747D
100
AcDbEntity
  8
部品1
 48
50.0
100
AcDbLine
 10
5377.862646115602
 20
7817.947238448386
 30
0.0
 11
5377.862646115602
 21
6014.947238448385
 31
0.0
  0
LINE
  5
13D71
330
747D
100
AcDbEntity
  8
部品1
 48
50.0
100
AcDbLine
 10
4797.862646115602
 20
7817.947238448386
 30
0.0
 11
4797.862646115602
 21
6014.947238448385
 31
0.0
  0
LINE
  5
13D72
330
747D
100
AcDbEntity
  8
部品1
 48
50.0
100
AcDbLine
 10
4870.862646115602
 20
7817.947238448386
 30
0.0
 11
4870.862646115602
 21
6014.947238448385
 31
0.0
  0
LINE
  5
13D73
330
747D
100
AcDbEntity
  8
部品1
 48
50.0
100
AcDbLine
 10
5332.862646115602
 20
7817.947238448386
 30
0.0
 11
5332.862646115602
 21
6014.947238448385
 31
0.0
  0
LINE
  5
13D74
330
747D
100
AcDbEntity
  8
部品1
 48
50.0
100
AcDbLine
 10
4752.862646115601
 20
7817.947238448386
 30
0.0
 11
4752.862646115601
 21
6014.947238448385
 31
0.0
  0
LINE
  5
13D75
330
747D
100
AcDbEntity
  8
部品1
 48
50.0
100
AcDbLine
 10
5405.862646115601
 20
7817.947238448386
 30
0.0
 11
5405.862646115601
 21
6014.947238448385
 31
0.0
  0
LINE
  5
13D76
330
747D
100
AcDbEntity
  8
部品1
 48
50.0
100
AcDbLine
 10
4825.862646115602
 20
7817.947238448386
 30
0.0
 11
4825.862646115602
 21
6014.947238448385
 31
0.0
  0
LINE
  5
13D77
330
747D
100
AcDbEntity
  8
部品1
 48
50.0
100
AcDbLine
 10
5661.362646115602
 20
7817.947238448386
 30
0.0
 11
5661.362646115602
 21
6014.947238448385
 31
0.0
  0
LINE
  5
13D78
330
747D
100
AcDbEntity
  8
部品1
 48
50.0
100
AcDbLine
 10
5081.362646115602
 20
7817.947238448386
 30
0.0
 11
5081.362646115602
 21
6014.947238448385
 31
0.0
  0
LINE
  5
13D79
330
747D
100
AcDbEntity
  8
部品1
 48
50.0
100
AcDbLine
 10
4501.362646115602
 20
7817.947238448386
 30
0.0
 11
4501.362646115602
 21
6014.947238448385
 31
0.0
  0
LINE
  5
13D7B
330
747D
100
AcDbEntity
  8
部品1
 48
50.0
100
AcDbLine
 10
5684.362646115602
 20
7817.947238448386
 30
0.0
 11
5684.362646115602
 21
6014.947238448385
 31
0.0
  0
LINE
  5
13D7C
330
747D
100
AcDbEntity
  8
部品1
 48
50.0
100
AcDbLine
 10
5104.362646115601
 20
7817.947238448386
 30
0.0
 11
5104.362646115601
 21
6014.947238448385
 31
0.0
  0
LINE
  5
13D7D
330
747D
100
AcDbEntity
  8
部品1
 48
50.0
100
AcDbLine
 10
4524.362646115601
 20
7817.947238448386
 30
0.0
 11
4524.362646115601
 21
6014.947238448385
 31
0.0
  0
LINE
  5
13D80
330
747D
100
AcDbEntity
  8
部品1
 48
50.0
100
AcDbLine
 10
5694.862646115602
 20
7921.447238448381
 30
0.0
 11
5694.862646115602
 21
5921.447238448386
 31
0.0
  0
LINE
  5
13D81
330
747D
100
AcDbEntity
  8
部品1
 48
50.0
100
AcDbLine
 10
5757.862646115602
 20
7906.447238448385
 30
0.0
 11
5757.862646115602
 21
5936.447238448382
 31
0.0
  0
ARC
  5
13D82
330
747D
100
AcDbEntity
  8
点線
 48
100.0
100
AcDbCircle
 10
5529.862646115602
 20
6113.947238448389
 30
0.0
 40
10.0
100
AcDbArc
 50
270.0000000000009
 51
0.0
  0
ARC
  5
13D83
330
747D
100
AcDbEntity
  8
点線
 48
100.0
100
AcDbCircle
 10
5485.862646115602
 20
6113.947238448385
 30
0.0
 40
10.0
100
AcDbArc
 50
180.0
 51
270.0000000000008
  0
LINE
  5
13D84
330
747D
100
AcDbEntity
  8
点線
 48
100.0
100
AcDbLine
 10
5485.862646115602
 20
6103.947238448385
 30
0.0
 11
5529.862646115602
 21
6103.947238448388
 31
0.0
  0
LINE
  5
13D85
330
747D
100
AcDbEntity
  8
点線
 48
100.0
100
AcDbLine
 10
5475.862646115602
 20
6148.947238448389
 30
0.0
 11
5475.862646115602
 21
6113.947238448385
 31
0.0
  0
LINE
  5
13D86
330
747D
100
AcDbEntity
  8
点線
 48
100.0
100
AcDbLine
 10
5539.862646115602
 20
6148.947238448389
 30
0.0
 11
5539.862646115602
 21
6113.947238448389
 31
0.0
  0
ARC
  5
13D87
330
747D
100
AcDbEntity
  8
部品1
 48
50.0
100
AcDbCircle
 10
5742.862646115602
 20
5936.447238448382
 30
0.0
 40
15.0
100
AcDbArc
 50
270.0
 51
0.0
  0
LINE
  5
13D88
330
747D
100
AcDbEntity
  8
部品1
 48
50.0
100
AcDbLine
 10
5694.862646115602
 20
5984.447238448385
 30
0.0
 11
5757.862646115602
 21
5984.447238448385
 31
0.0
  0
LINE
  5
13D8F
330
747D
100
AcDbEntity
  8
点線
 48
100.0
100
AcDbLine
 10
5477.862646115602
 20
7648.947238448385
 30
0.0
 11
5477.862646115602
 21
6963.947238448385
 31
0.0
  0
LINE
  5
13D90
330
747D
100
AcDbEntity
  8
点線
 48
100.0
100
AcDbLine
 10
5537.862646115602
 20
7648.947238448385
 30
0.0
 11
5537.862646115602
 21
6963.947238448385
 31
0.0
  0
ARC
  5
13D91
330
747D
100
AcDbEntity
  8
点線
 48
100.0
100
AcDbCircle
 10
5529.862646115602
 20
7728.947238448386
 30
0.0
 40
10.0
100
AcDbArc
 50
0.0
 51
90.0
  0
ARC
  5
13D92
330
747D
100
AcDbEntity
  8
点線
 48
100.0
100
AcDbCircle
 10
5485.862646115602
 20
7728.947238448386
 30
0.0
 40
10.0
100
AcDbArc
 50
90.0
 51
180.0
  0
LINE
  5
13D93
330
747D
100
AcDbEntity
  8
点線
 48
100.0
100
AcDbLine
 10
5485.862646115602
 20
7738.947238448385
 30
0.0
 11
5529.862646115602
 21
7738.947238448385
 31
0.0
  0
LINE
  5
13D94
330
747D
100
AcDbEntity
  8
点線
 48
100.0
100
AcDbLine
 10
5539.862646115602
 20
7728.947238448386
 30
0.0
 11
5539.862646115602
 21
7713.947238448385
 31
0.0
  0
LINE
  5
13D95
330
747D
100
AcDbEntity
  8
点線
 48
100.0
100
AcDbLine
 10
5475.862646115602
 20
7728.947238448386
 30
0.0
 11
5475.862646115602
 21
7713.947238448385
 31
0.0
  0
ARC
  5
13D9F
330
747D
100
AcDbEntity
  8
部品1
 48
50.0
100
AcDbCircle
 10
5742.862646115602
 20
7906.447238448385
 30
0.0
 40
15.0
100
AcDbArc
 50
0.0
 51
90.0
  0
LINE
  5
13DA0
330
747D
100
AcDbEntity
  8
部品1
 48
50.0
100
AcDbLine
 10
5694.862646115602
 20
7858.447238448386
 30
0.0
 11
5757.862646115602
 21
7858.447238448386
 31
0.0
  0
DIMENSION
  5
13E7E
330
747D
100
AcDbEntity
  8
寸法
 48
50.0
100
AcDbDimension
  2
*D12
 10
6992.665052100015
 20
1880.562576328022
 30
0.0
 11
6992.665052100015
 21
2981.312576328022
 31
0.0
 12
-1514.563388750987
 22
0.0
 32
0.0
 70
   160
 71
     5
 42
-1.0
  3
INABA_S30G
100
AcDbAlignedDimension
 13
7600.540160560369
 23
4082.062576328023
 33
0.0
 14
7600.540160560369
 24
1880.562576328022
 34
0.0
 50
90.0
100
AcDbRotatedDimension
  0
DIMENSION
  5
13E98
330
747D
100
AcDbEntity
  8
寸法
 48
50.0
100
AcDbDimension
  2
*D13
 10
9976.177613034964
 20
4002.650581124185
 30
0.0
 11
9976.177613034964
 21
2991.672581441367
 31
0.0
 12
-1514.563388750987
 22
0.0
 32
0.0
 70
   160
  1
2121.5
 71
     5
 42
-1.0
  3
INABA_S30G
100
AcDbAlignedDimension
 13
9885.080903689832
 23
1880.562576328022
 33
0.0
 14
9600.54016056037
 24
4002.650581124186
 34
0.0
 50
90.0
100
AcDbRotatedDimension
  0
DIMENSION
  5
13EE7
330
747D
100
AcDbEntity
  8
寸法
 48
50.0
100
AcDbDimension
  2
*D14
 10
6992.665052100015
 20
1880.562576328022
 30
0.0
 11
6992.665052100015
 21
1601.027143257156
 31
0.0
 70
   160
 71
     5
 42
-1.0
  3
INABA_S30G
100
AcDbAlignedDimension
 13
7600.540160560369
 23
1830.562576328022
 33
0.0
 14
8560.540160560369
 24
1880.562576328022
 34
0.0
 50
90.0
100
AcDbRotatedDimension
  0
DIMENSION
  5
13F13
330
747D
100
AcDbEntity
  8
寸法
 48
50.0
100
AcDbDimension
  2
*D15
 10
9976.177613034964
 20
1830.562576328022
 30
0.0
 11
9976.177613034964
 21
1601.027143257156
 31
0.0
 70
   160
 71
     5
 42
-1.0
  3
INABA_S30G
100
AcDbAlignedDimension
 13
8640.540160560346
 23
1880.562576328022
 33
0.0
 14
9600.54016056037
 24
1830.562576328022
 34
0.0
 50
90.0
100
AcDbRotatedDimension
  0
LINE
  5
143B2
330
747D
100
AcDbEntity
  8
部品1
 48
50.0
100
AcDbLine
 10
5476.17366215633
 20
3969.969012140659
 30
0.0
 11
3129.862646115603
 21
3969.96901214066
 31
0.0
  0
LINE
  5
143B4
330
747D
100
AcDbEntity
  8
部品1
 48
50.0
100
AcDbLine
 10
5475.862646115606
 20
3909.96901214066
 30
0.0
 11
3129.862646115603
 21
3909.969012140662
 31
0.0
  0
LINE
  5
143B6
330
747D
100
AcDbEntity
  8
部品1
 48
50.0
100
AcDbLine
 10
5475.862646115606
 20
3939.307144620489
 30
0.0
 11
3129.862646115603
 21
3939.30714462049
 31
0.0
  0
LINE
  5
145A7
330
747D
100
AcDbEntity
  8
細線
 48
50.0
100
AcDbLine
 10
5258.768331306299
 20
1830.562576328022
 30
0.0
 11
5308.7683313063
 21
1880.562576328022
 31
0.0
  0
LINE
  5
145A8
330
747D
100
AcDbEntity
  8
細線
 48
50.0
100
AcDbLine
 10
5231.827551306302
 20
1830.562576328022
 30
0.0
 11
5281.827551306303
 21
1880.562576328022
 31
0.0
  0
LINE
  5
145A9
330
747D
100
AcDbEntity
  8
細線
 48
50.0
100
AcDbLine
 10
5285.7091113063
 20
1830.562576328022
 30
0.0
 11
5335.7091113063
 21
1880.562576328022
 31
0.0
  0
LINE
  5
145AA
330
747D
100
AcDbEntity
  8
部品1
 48
50.0
100
AcDbLine
 10
4104.362646115601
 20
7817.947238448386
 30
0.0
 11
4104.362646115603
 21
7252.778514927745
 31
0.0
  0
LINE
  5
145AB
330
747D
100
AcDbEntity
  8
部品1
 48
50.0
100
AcDbLine
 10
4081.362646115602
 20
7817.947238448386
 30
0.0
 11
4081.362646115602
 21
7338.615683501835
 31
0.0
  0
LINE
  5
145AC
330
747D
100
AcDbEntity
  8
部品1
 48
50.0
100
AcDbLine
 10
4370.862646115602
 20
7817.947238448386
 30
0.0
 11
4370.862646115603
 21
6258.186974710637
 31
0.0
  0
LINE
  5
145AD
330
747D
100
AcDbEntity
  8
部品1
 48
50.0
100
AcDbLine
 10
4325.862646115601
 20
7817.947238448386
 30
0.0
 11
4325.862646115601
 21
6426.129261051237
 31
0.0
  0
LINE
  5
145AE
330
747D
100
AcDbEntity
  8
部品1
 48
50.0
100
AcDbLine
 10
4252.862646115601
 20
7817.947238448386
 30
0.0
 11
4252.862646115601
 21
6698.568970003768
 31
0.0
  0
LINE
  5
145AF
330
747D
100
AcDbEntity
  8
部品1
 48
50.0
100
AcDbLine
 10
4297.862646115602
 20
7817.947238448386
 30
0.0
 11
4297.862646115602
 21
6530.626683663166
 31
0.0
  0
LINE
  5
14616
330
747D
100
AcDbEntity
  8
細線
 48
50.0
100
AcDbLine
 10
3273.897740924912
 20
1830.562576328022
 30
0.0
 11
3323.897740924912
 21
1880.562576328022
 31
0.0
  0
LINE
  5
14617
330
747D
100
AcDbEntity
  8
細線
 48
50.0
100
AcDbLine
 10
3220.016180924914
 20
1830.562576328022
 30
0.0
 11
3270.016180924914
 21
1880.562576328022
 31
0.0
  0
LINE
  5
14618
330
747D
100
AcDbEntity
  8
細線
 48
50.0
100
AcDbLine
 10
3246.956960924912
 20
1830.562576328022
 30
0.0
 11
3296.956960924911
 21
1880.562576328022
 31
0.0
  0
LINE
  5
14625
330
747D
100
AcDbEntity
  8
補助
  6
PHANTOM
 62
   230
 48
50.0
100
AcDbLine
 10
9380.400000000003
 20
8182.199999999999
 30
0.0
 11
11930.4
 21
8182.200000000003
 31
0.0
  0
LINE
  5
14626
330
747D
100
AcDbEntity
  8
補助
  6
PHANTOM
 62
   230
 48
50.0
100
AcDbLine
 10
9380.400000000003
 20
6457.2
 30
0.0
 11
11930.4
 21
6457.2
 31
0.0
  0
LINE
  5
14627
330
747D
100
AcDbEntity
  8
補助
  6
PHANTOM
 62
   230
 48
50.0
100
AcDbLine
 10
9380.400000000003
 20
8182.199999999999
 30
0.0
 11
9380.400000000003
 21
6457.2
 31
0.0
  0
LINE
  5
14628
330
747D
100
AcDbEntity
  8
補助
  6
PHANTOM
 62
   230
 48
50.0
100
AcDbLine
 10
11930.4
 20
8182.200000000003
 30
0.0
 11
11930.4
 21
6457.2
 31
0.0
  0
LINE
  5
14703
330
747D
100
AcDbEntity
  8
補助
  6
PHANTOM
 62
   230
 48
50.0
100
AcDbLine
 10
9380.400000000003
 20
6924.2
 30
0.0
 11
11930.4
 21
6924.200000000003
 31
0.0
  0
DIMENSION
  5
14711
330
747D
100
AcDbEntity
  8
寸法
 48
50.0
100
AcDbDimension
  2
*D16
 10
5757.862646115602
 20
8256.559557026321
 30
0.0
 11
4302.866305544949
 21
8331.568415294038
 31
0.0
 70
    32
 71
     5
 42
2909.992681141306
  3
INABA_S30G
100
AcDbAlignedDimension
 13
2847.869964974296
 23
7906.915759734051
 33
0.0
 14
5757.862646115602
 24
7906.447238448385
 34
0.0
100
AcDbRotatedDimension
  0
TEXT
  5
147D0
330
747D
100
AcDbEntity
  8
文字
 62
     7
 48
50.0
100
AcDbText
 10
9907.054008162901
 20
171.4076431926769
 30
0.0
 40
75.0
  1
○間口奥行寸法は柱芯寸法です。 
  7
STYLE2
100
AcDbText
  0
LINE
  5
147D1
330
747D
100
AcDbEntity
  8
仕様書枠
  6
Continuous
 48
50.0
100
AcDbLine
 10
10688.4
 20
900.0
 30
0.0
 11
10688.4
 21
600.0
 31
0.0
  0
TEXT
  5
147D2
330
747D
100
AcDbEntity
  8
文字
 62
     7
 48
50.0
100
AcDbText
 10
10893.0988779165
 20
773.6682797184214
 30
0.0
 40
75.0
  1
NO.01     <縮尺> S=1/30
  7
STYLE2
100
AcDbText
  0
LINE
  5
147D3
330
747D
100
AcDbEntity
  8
仕様書枠
 48
50.0
100
AcDbLine
 10
12230.4
 20
900.0
 30
0.0
 11
12230.4
 21
0.0
 31
0.0
  0
LINE
  5
147D4
330
747D
100
AcDbEntity
  8
仕様書枠
  6
Continuous
 48
50.0
100
AcDbLine
 10
10688.4
 20
900.0
 30
0.0
 11
10688.4
 21
600.0
 31
0.0
  0
TEXT
  5
147D5
330
747D
100
AcDbEntity
  8
仕様書枠
 62
     7
 48
50.0
100
AcDbText
 10
11158.94957995053
 20
628.6895453046891
 30
0.0
 40
75.0
  1
～一般型～
  7
STYLE2
100
AcDbText
  0
TEXT
  5
147D6
330
747D
100
AcDbEntity
  8
仕様書枠
 62
     7
 48
50.0
100
AcDbText
 10
10984.92759423544
 20
362.922534743356
 30
0.0
 40
120.0
  1
BY-２４
  7
MSGOTHIC
100
AcDbText
  0
LINE
  5
147D7
330
747D
100
AcDbEntity
  8
仕様書枠
  6
Continuous
 48
50.0
100
AcDbLine
 10
9830.400000000002
 20
900.0
 30
0.0
 11
9830.400000000002
 21
0.0
 31
0.0
  0
LINE
  5
147D8
330
747D
100
AcDbEntity
  8
仕様書枠
 48
50.0
100
AcDbLine
 10
9830.400000000002
 20
600.0
 30
0.0
 11
10688.4
 21
600.0
 31
0.0
  0
TEXT
  5
147D9
330
747D
100
AcDbEntity
  8
仕様書枠
 62
     7
 48
50.0
100
AcDbText
 10
9901.077524988314
 20
357.9555495773441
 30
0.0
 40
120.0
  1
機種名
  7
STYLE2
100
AcDbText
  0
TEXT
  5
147DA
330
747D
100
AcDbEntity
  8
仕様書枠
 62
     7
 48
50.0
100
AcDbText
 10
9872.234292432679
 20
671.3179555724553
 30
0.0
 40
150.0
  1
外 形 図
  7
STYLE2
100
AcDbText
  0
LINE
  5
147DB
330
747D
100
AcDbEntity
  8
仕様書枠
 62
     7
 48
50.0
100
AcDbLine
 10
9890.400000000001
 20
300.0
 30
0.0
 11
12170.4
 21
300.0
 31
0.0
  0
LINE
  5
147DC
330
747D
100
AcDbEntity
  8
仕様書枠
 48
50.0
100
AcDbLine
 10
9830.400000000002
 20
900.0
 30
0.0
 11
12230.4
 21
900.0
 31
0.0
  0
LINE
  5
147DD
330
747D
100
AcDbEntity
  8
仕様書枠
 48
50.0
100
AcDbLine
 10
9830.400000000002
 20
900.0
 30
0.0
 11
12230.4
 21
900.0
 31
0.0
  0
TEXT
  5
147DE
330
747D
100
AcDbEntity
  8
文字
 62
     7
 48
50.0
100
AcDbText
 10
9743.785364340261
 20
7377.453731331458
 30
0.0
 40
81.11400000000001
  1
妻板
  7
STYLE1
100
AcDbText
  0
LINE
  5
147DF
330
747D
100
AcDbEntity
  8
部品1
100
AcDbLine
 10
11925.67447328908
 20
7076.996325495333
 30
0.0
 11
9375.674473289082
 21
7076.996325495333
 31
0.0
  0
TEXT
  5
147E0
330
747D
100
AcDbEntity
  8
文字
 62
     7
 48
50.0
100
AcDbText
 10
9457.219844118371
 20
6825.87853133146
 30
0.0
 40
81.11400000000001
  1
PZ→一般構造用角形鋼管(JIS G 3466)
 41
0.9
  7
STYLE1
100
AcDbText
  0
TEXT
  5
147E1
330
747D
100
AcDbEntity
  8
文字
 62
     7
 48
50.0
100
AcDbText
 10
9457.219844118206
 20
6550.090931331459
 30
0.0
 40
81.11400000000001
  1
Y10→溶融亜鉛-5％アルミニウム合金めっき鋼板(JIS G 3317)
 41
0.9
  7
STYLE1
100
AcDbText
  0
TEXT
  5
147E2
330
747D
100
AcDbEntity
  8
文字
 62
     7
 48
50.0
100
AcDbText
 10
9457.219844118215
 20
6687.98473133146
 30
0.0
 40
81.11400000000001
  1
F12→溶融亜鉛めっき鋼板(JIS G 3302)
  7
STYLE1
100
AcDbText
  0
TEXT
  5
147E3
330
747D
100
AcDbEntity
  8
文字
 62
     7
 48
50.0
100
AcDbText
 10
9743.785364340261
 20
6963.772331331461
 30
0.0
 40
81.11400000000001
  1
雨とい(別売)
  7
STYLE1
100
AcDbText
  0
TEXT
  5
147E4
330
747D
100
AcDbEntity
  8
文字
 62
     7
 48
50.0
100
AcDbText
 10
9743.785364340261
 20
7929.028931331456
 30
0.0
 40
81.11400000000001
  1
プレート
  7
STYLE1
100
AcDbText
  0
TEXT
  5
147E5
330
747D
100
AcDbEntity
  8
文字
 62
     7
 48
50.0
100
AcDbText
 10
9743.785364340261
 20
7239.559931331462
 30
0.0
 40
81.11400000000001
  1
屋根パネル
  7
STYLE1
100
AcDbText
  0
LINE
  5
147E6
330
747D
100
AcDbEntity
  8
部品1
100
AcDbLine
 10
11925.67447328908
 20
6939.102525495333
 30
0.0
 11
9375.674473289084
 21
6939.102525495335
 31
0.0
  0
LINE
  5
147E7
330
747D
100
AcDbEntity
  8
部品1
100
AcDbLine
 10
11925.67447328908
 20
8180.146725495331
 30
0.0
 11
9375.674473289082
 21
8180.146725495331
 31
0.0
  0
LINE
  5
147E8
330
747D
100
AcDbEntity
  8
部品1
100
AcDbLine
 10
11925.67447328908
 20
6525.421125495333
 30
0.0
 11
11925.67447328908
 21
8180.146725495331
 31
0.0
  0
LINE
  5
147E9
330
747D
100
AcDbEntity
  8
部品1
100
AcDbLine
 10
10691.11939328909
 20
8180.14672549533
 30
0.0
 11
10691.11939328909
 21
6939.102525495333
 31
0.0
  0
LINE
  5
147EA
330
747D
100
AcDbEntity
  8
部品1
100
AcDbLine
 10
9668.415703569259
 20
8180.146725495331
 30
0.0
 11
9668.415703569268
 21
6939.102525495333
 31
0.0
  0
LINE
  5
147EB
330
747D
100
AcDbEntity
  8
部品1
100
AcDbLine
 10
11925.67447328908
 20
8042.252925495331
 30
0.0
 11
9375.674473289082
 21
8042.252925495331
 31
0.0
  0
LINE
  5
147EC
330
747D
100
AcDbEntity
  8
部品1
100
AcDbLine
 10
11925.67447328908
 20
7766.465325495333
 30
0.0
 11
9375.674473289082
 21
7766.465325495332
 31
0.0
  0
LINE
  5
147ED
330
747D
100
AcDbEntity
  8
部品1
100
AcDbLine
 10
11925.67447328908
 20
7904.359125495331
 30
0.0
 11
9375.674473289082
 21
7904.359125495331
 31
0.0
  0
LINE
  5
147EE
330
747D
100
AcDbEntity
  8
部品1
100
AcDbLine
 10
11925.67447328908
 20
7490.677725495331
 30
0.0
 11
9375.674473289084
 21
7490.677725495331
 31
0.0
  0
LINE
  5
147EF
330
747D
100
AcDbEntity
  8
部品1
100
AcDbLine
 10
11925.67447328908
 20
7352.783925495332
 30
0.0
 11
9375.674473289084
 21
7352.783925495332
 31
0.0
  0
LINE
  5
147F0
330
747D
100
AcDbEntity
  8
部品1
100
AcDbLine
 10
11925.67447328908
 20
7628.571525495331
 30
0.0
 11
9375.674473289084
 21
7628.571525495331
 31
0.0
  0
TEXT
  5
147F1
330
747D
100
AcDbEntity
  8
文字
 62
     7
 48
50.0
100
AcDbText
 10
9430.934340620142
 20
8066.922731331457
 30
0.0
 40
81.11400000000001
  1
品番
  7
STYLE1
100
AcDbText
  0
TEXT
  5
147F2
330
747D
100
AcDbEntity
  8
文字
 62
     7
 48
50.0
100
AcDbText
 10
9490.768193719665
 20
7929.028931331457
 30
0.0
 40
81.11400000000001
  1
1
  7
STYLE1
100
AcDbText
  0
TEXT
  5
147F3
330
747D
100
AcDbEntity
  8
文字
 62
     7
 48
50.0
100
AcDbText
 10
9490.768193719665
 20
7791.13513133146
 30
0.0
 40
81.11400000000001
  1
2
  7
STYLE1
100
AcDbText
  0
TEXT
  5
147F4
330
747D
100
AcDbEntity
  8
文字
 62
     7
 48
50.0
100
AcDbText
 10
9490.768193719665
 20
7515.347531331457
 30
0.0
 40
81.11400000000001
  1
4
  7
STYLE1
100
AcDbText
  0
TEXT
  5
147F5
330
747D
100
AcDbEntity
  8
文字
 62
     7
 48
50.0
100
AcDbText
 10
9490.768193719665
 20
7653.241331331457
 30
0.0
 40
81.11400000000001
  1
3
  7
STYLE1
100
AcDbText
  0
TEXT
  5
147F6
330
747D
100
AcDbEntity
  8
文字
 62
     7
 48
50.0
100
AcDbText
 10
9883.910328786811
 20
8066.922731331457
 30
0.0
 40
81.11400000000001
  1
部　　品　　名
  7
STYLE1
100
AcDbText
  0
TEXT
  5
147F7
330
747D
100
AcDbEntity
  8
文字
 62
     7
 48
50.0
100
AcDbText
 10
10751.62860909699
 20
8066.922731331457
 30
0.0
 40
81.11400000000001
  1
材料（材質）　　単位mm
  7
STYLE1
100
AcDbText
  0
TEXT
  5
147F8
330
747D
100
AcDbEntity
  8
文字
 62
     7
 48
50.0
100
AcDbText
 10
9743.785364340258
 20
7791.135131331458
 30
0.0
 40
81.11400000000001
  1
柱
  7
STYLE1
100
AcDbText
  0
TEXT
  5
147F9
330
747D
100
AcDbEntity
  8
文字
 62
     7
 48
50.0
100
AcDbText
 10
9743.785364340263
 20
7653.241331331461
 30
0.0
 40
81.11400000000001
  1
梁
  7
STYLE1
100
AcDbText
  0
TEXT
  5
147FA
330
747D
100
AcDbEntity
  8
文字
 62
     7
 48
50.0
100
AcDbText
 10
9743.785364340261
 20
7101.66613133146
 30
0.0
 40
81.11400000000001
  1
鼻隠シ
  7
STYLE1
100
AcDbText
  0
TEXT
  5
147FB
330
747D
100
AcDbEntity
  8
文字
 62
     7
 48
50.0
100
AcDbText
 10
9490.768193719665
 20
7377.453731331455
 30
0.0
 40
81.11400000000001
  1
5
  7
STYLE1
100
AcDbText
  0
TEXT
  5
147FC
330
747D
100
AcDbEntity
  8
文字
 62
     7
 48
50.0
100
AcDbText
 10
9490.768193719659
 20
6963.772331331458
 30
0.0
 40
81.11400000000001
  1
8
  7
STYLE1
100
AcDbText
  0
TEXT
  5
147FD
330
747D
100
AcDbEntity
  8
文字
 62
     7
 48
50.0
100
AcDbText
 10
9490.768193719659
 20
7101.666131331459
 30
0.0
 40
81.11400000000001
  1
7
  7
STYLE1
100
AcDbText
  0
TEXT
  5
147FE
330
747D
100
AcDbEntity
  8
文字
 62
     7
 48
50.0
100
AcDbText
 10
9490.768193719665
 20
7239.559931331458
 30
0.0
 40
81.11400000000001
  1
6
  7
STYLE1
100
AcDbText
  0
LINE
  5
147FF
330
747D
100
AcDbEntity
  8
部品1
100
AcDbLine
 10
11925.67447328908
 20
6663.314925495329
 30
0.0
 11
9375.674473289082
 21
6663.314925495329
 31
0.0
  0
LINE
  5
14800
330
747D
100
AcDbEntity
  8
部品1
100
AcDbLine
 10
11925.67447328908
 20
6525.421125495332
 30
0.0
 11
9375.674473289084
 21
6525.421125495332
 31
0.0
  0
LINE
  5
14801
330
747D
100
AcDbEntity
  8
部品1
100
AcDbLine
 10
11925.67447328908
 20
7214.890125495333
 30
0.0
 11
9375.674473289082
 21
7214.890125495333
 31
0.0
  0
LINE
  5
14802
330
747D
100
AcDbEntity
  8
部品1
100
AcDbLine
 10
11925.67447328908
 20
6801.208725495332
 30
0.0
 11
9375.674473289084
 21
6801.208725495333
 31
0.0
  0
TEXT
  5
14803
330
747D
100
AcDbEntity
  8
文字
 62
     7
 48
50.0
100
AcDbText
 10
10883.71619483908
 20
7791.135131331458
 30
0.0
 40
81.11400000000001
  1
PZ            3.2
  7
STYLE1
100
AcDbText
  0
TEXT
  5
14804
330
747D
100
AcDbEntity
  8
文字
 62
     7
 48
50.0
100
AcDbText
 10
10883.71619483909
 20
6963.772331331458
 30
0.0
 40
81.11400000000001
  1
硬質塩化ビニール
  7
STYLE1
100
AcDbText
  0
LINE
  5
14805
330
747D
100
AcDbEntity
  8
部品1
100
AcDbLine
 10
9375.674473289084
 20
8180.146725495331
 30
0.0
 11
9375.674473289084
 21
6525.421125495332
 31
0.0
  0
TEXT
  5
14806
330
747D
100
AcDbEntity
  8
文字
 62
     7
 48
50.0
100
AcDbText
 10
10883.71619483909
 20
7515.347531331459
 30
0.0
 40
81.11400000000001
  1
F12            1.6
  7
STYLE1
100
AcDbText
  0
TEXT
  5
14807
330
747D
100
AcDbEntity
  8
文字
 62
     7
 48
50.0
100
AcDbText
 10
9743.785364340263
 20
7515.347531331459
 30
0.0
 40
81.11400000000001
  1
母屋
  7
STYLE1
100
AcDbText
  0
TEXT
  5
14808
330
747D
100
AcDbEntity
  8
文字
 62
     7
 48
50.0
100
AcDbText
 10
10883.71619483908
 20
7653.241331331461
 30
0.0
 40
81.11400000000001
  1
PZ            2.3
  7
STYLE1
100
AcDbText
  0
TEXT
  5
14809
330
747D
100
AcDbEntity
  8
文字
 62
     7
 48
50.0
100
AcDbText
 10
10867.6312902487
 20
7239.559931331462
 30
0.0
 40
81.11400000000001
  1
Y10            0.5
  7
STYLE1
100
AcDbText
  0
TEXT
  5
1480A
330
747D
100
AcDbEntity
  8
文字
 62
     7
 48
50.0
100
AcDbText
 10
10867.6312902487
 20
7377.453731331458
 30
0.0
 40
81.11400000000001
  1
Y10            0.7
  7
STYLE1
100
AcDbText
  0
TEXT
  5
1480B
330
747D
100
AcDbEntity
  8
文字
 62
     7
 48
50.0
100
AcDbText
 10
10867.6312902487
 20
7101.66613133146
 30
0.0
 40
81.11400000000001
  1
Y10            0.7
  7
STYLE1
100
AcDbText
  0
TEXT
  5
1480C
330
747D
100
AcDbEntity
  8
文字
 62
     7
 48
50.0
100
AcDbText
 10
10883.71619483908
 20
7929.028931331456
 30
0.0
 40
81.11400000000001
  1
F12            2.3
  7
STYLE1
100
AcDbText
  0
TEXT
  5
1482B
330
747D
100
AcDbEntity
  8
部品1
 48
50.0
100
AcDbText
 10
8961.588288849624
 20
2739.15677552504
 30
0.0
 40
120.0
  1
⑧
  7
STYLE2
100
AcDbText
  0
LINE
  5
1482C
330
747D
100
AcDbEntity
  8
寸法
 48
50.0
100
AcDbLine
 10
8696.468788824136
 20
2869.446433548754
 30
0.0
 11
8970.528961593005
 21
2816.194779334889
 31
0.0
  0
TEXT
  5
1482D
330
747D
100
AcDbEntity
  8
部品1
 48
50.0
100
AcDbText
 10
9155.249144307214
 20
2722.94658336242
 30
0.0
 40
80.0
  1
(別売)
  7
STYLE2
100
AcDbText
  0
LINE
  5
14845
330
747D
100
AcDbEntity
  8
点線
 48
18.0
100
AcDbLine
 10
3065.862646115602
 20
7713.94723844839
 30
0.0
 11
3065.862646115602
 21
7693.947238448389
 31
0.0
  0
LINE
  5
14846
330
747D
100
AcDbEntity
  8
点線
 48
18.0
100
AcDbLine
 10
3129.862646115602
 20
7713.94723844839
 30
0.0
 11
3129.862646115602
 21
7693.947238448389
 31
0.0
  0
LINE
  5
14847
330
747D
100
AcDbEntity
  8
点線
 48
18.0
100
AcDbLine
 10
3067.862646115602
 20
7648.94723844839
 30
0.0
 11
3067.862646115602
 21
7693.947238448389
 31
0.0
  0
LINE
  5
14848
330
747D
100
AcDbEntity
  8
点線
 48
18.0
100
AcDbLine
 10
3127.862646115602
 20
7648.947238448389
 30
0.0
 11
3127.862646115602
 21
7693.947238448389
 31
0.0
  0
LINE
  5
1486A
330
747D
100
AcDbEntity
  8
点線
 48
18.0
100
AcDbLine
 10
2886.862646115602
 20
7693.947238448387
 30
0.0
 11
2932.862646115602
 21
7693.947238448389
 31
0.0
  0
LINE
  5
1486B
330
747D
100
AcDbEntity
  8
点線
 48
18.0
100
AcDbLine
 10
2886.862646115602
 20
6943.947238448385
 30
0.0
 11
2932.862646115602
 21
6943.947238448385
 31
0.0
  0
LINE
  5
1486C
330
747D
100
AcDbEntity
  8
点線
 48
18.0
100
AcDbLine
 10
2886.862646115601
 20
6193.947238448387
 30
0.0
 11
2932.862646115602
 21
6193.947238448389
 31
0.0
  0
LINE
  5
1486D
330
747D
100
AcDbEntity
  8
点線
 48
18.0
100
AcDbLine
 10
3067.862646115602
 20
6963.947238448385
 30
0.0
 11
3067.862646115602
 21
6898.947238448389
 31
0.0
  0
LINE
  5
1486E
330
747D
100
AcDbEntity
  8
点線
 48
18.0
100
AcDbLine
 10
3127.862646115602
 20
6963.947238448385
 30
0.0
 11
3127.862646115602
 21
6898.947238448389
 31
0.0
  0
LINE
  5
1486F
330
747D
100
AcDbEntity
  8
点線
 48
18.0
100
AcDbLine
 10
3067.862646115602
 20
6213.947238448389
 30
0.0
 11
3067.862646115603
 21
6148.947238448389
 31
0.0
  0
LINE
  5
14870
330
747D
100
AcDbEntity
  8
点線
 48
18.0
100
AcDbLine
 10
3127.862646115602
 20
6213.947238448389
 30
0.0
 11
3127.862646115602
 21
6148.947238448389
 31
0.0
  0
LINE
  5
14891
330
747D
100
AcDbEntity
  8
点線
 48
100.0
100
AcDbLine
 10
3986.151842922378
 20
7693.947238448389
 30
0.0
 11
5718.862646115602
 21
7693.947238448389
 31
0.0
  0
LINE
  5
14892
330
747D
100
AcDbEntity
  8
点線
 48
100.0
100
AcDbLine
 10
4129.245900002788
 20
6943.947238448387
 30
0.0
 11
5718.862646115602
 21
6943.947238448387
 31
0.0
  0
LINE
  5
14893
330
747D
100
AcDbEntity
  8
点線
 48
100.0
100
AcDbLine
 10
4388.075631569059
 20
6193.94723844839
 30
0.0
 11
5718.862646115602
 21
6193.947238448391
 31
0.0
  0
LINE
  5
148C6
330
747D
100
AcDbEntity
  8
センター
 48
50.0
100
AcDbLine
 10
3097.862646115603
 20
1710.562576328024
 30
0.0
 11
3097.862646115603
 21
2100.562576328024
 31
0.0
  0
LINE
  5
148CC
330
747D
100
AcDbEntity
  8
センター
 48
50.0
100
AcDbLine
 10
5507.862646115605
 20
1710.562576328022
 30
0.0
 11
5507.862646115605
 21
2100.562576328022
 31
0.0
  0
LINE
  5
14937
330
747D
100
AcDbEntity
  8
点線
 48
18.0
100
AcDbLine
 10
2886.862646115602
 20
7713.947238448388
 30
0.0
 11
2886.862646115602
 21
7648.947238448387
 31
0.0
  0
LINE
  5
14938
330
747D
100
AcDbEntity
  8
点線
 48
18.0
100
AcDbLine
 10
2886.862646115602
 20
6963.947238448385
 30
0.0
 11
2886.862646115602
 21
6898.94723844839
 31
0.0
  0
LINE
  5
14939
330
747D
100
AcDbEntity
  8
点線
 48
18.0
100
AcDbLine
 10
2886.862646115601
 20
6213.947238448388
 30
0.0
 11
2886.862646115601
 21
6148.947238448388
 31
0.0
  0
LINE
  5
1493A
330
747D
100
AcDbEntity
  8
点線
 48
18.0
100
AcDbLine
 10
5718.862646115602
 20
7713.947238448383
 30
0.0
 11
5718.862646115603
 21
7648.947238448385
 31
0.0
  0
LINE
  5
1493B
330
747D
100
AcDbEntity
  8
点線
 48
18.0
100
AcDbLine
 10
5718.862646115602
 20
6963.947238448385
 30
0.0
 11
5718.862646115602
 21
6898.947238448385
 31
0.0
  0
LINE
  5
1493C
330
747D
100
AcDbEntity
  8
点線
 48
18.0
100
AcDbLine
 10
5718.862646115602
 20
6213.947238448384
 30
0.0
 11
5718.862646115603
 21
6148.947238448386
 31
0.0
  0
ENDSEC
  0
SECTION
  2
OBJECTS
  0
DICTIONARY
  5
7471
330
0
100
AcDbDictionary
281
     1
  3
ACAD_COLOR
350
14780
  3
ACAD_GROUP
350
7472
  3
ACAD_LAYOUT
350
14781
  3
ACAD_MATERIAL
350
1477F
  3
ACAD_MLINESTYLE
350
7473
  3
ACAD_PLOTSETTINGS
350
14782
  3
ACAD_PLOTSTYLENAME
350
1477D
  3
ACDBHEADERROUNDTRIPXREC
350
14955
  3
AcDbVariableDictionary
350
14951
  3
CONTENTDICTIONARY
350
E71C
  3
DRAWINGVARIABLESDICT
350
F3B9
  0
DICTIONARY
  5
1478D
330
7467
100
AcDbDictionary
280
     1
281
     1
  3
ACAD_LAYERFILTERS
360
14844
  3
ACAD_LAYERSTATES
360
1478E
  0
DICTIONARY
  5
14780
102
{ACAD_REACTORS
330
7471
102
}
330
7471
100
AcDbDictionary
281
     1
  0
DICTIONARY
  5
7472
102
{ACAD_REACTORS
330
7471
102
}
330
7471
100
AcDbDictionary
281
     1
  3
*A1
350
14869
  3
*A2
350
14890
  0
DICTIONARY
  5
14781
102
{ACAD_REACTORS
330
7471
102
}
330
7471
100
AcDbDictionary
281
     1
  3
Model
350
14783
  3
レイアウト1
350
14784
  0
DICTIONARY
  5
1477F
102
{ACAD_REACTORS
330
7471
102
}
330
7471
100
AcDbDictionary
281
     1
  0
DICTIONARY
  5
7473
102
{ACAD_REACTORS
330
7471
102
}
330
7471
100
AcDbDictionary
281
     1
  3
STANDARD
350
7480
  0
DICTIONARY
  5
14782
102
{ACAD_REACTORS
330
7471
102
}
330
7471
100
AcDbDictionary
281
     1
  0
ACDBDICTIONARYWDFLT
  5
1477D
102
{ACAD_REACTORS
330
7471
102
}
330
7471
100
AcDbDictionary
281
     1
  3
Normal
350
1477E
100
AcDbDictionaryWithDefault
340
1477E
  0
DICTIONARY
  5
14955
102
{ACAD_REACTORS
330
7471
102
}
330
7471
100
AcDbDictionary
281
     1
  3
COLORDICT
350
14957
  3
MATERIALDICT
350
14956
  0
DICTIONARY
  5
14951
102
{ACAD_REACTORS
330
7471
102
}
330
7471
100
AcDbDictionary
281
     1
  3
DIMASSOC
350
14952
  3
PROJECTNAME
350
14953
  0
DICTIONARY
  5
E71C
102
{ACAD_REACTORS
330
7471
102
}
330
7471
100
AcDbDictionary
281
     1
  0
DICTIONARY
  5
F3B9
102
{ACAD_REACTORS
330
7471
102
}
330
7471
100
AcDbDictionary
281
     1
1001
DRAWINGVARIABLESXDATA
1000
POLARMODE
1000
1
  0
DICTIONARY
  5
14844
102
{ACAD_REACTORS
330
1478D
102
}
330
1478D
100
AcDbDictionary
281
     1
  0
DICTIONARY
  5
1478E
102
{ACAD_REACTORS
330
1478D
102
}
330
1478D
100
AcDbDictionary
281
     1
  0
GROUP
  5
14869
102
{ACAD_REACTORS
330
7472
102
}
330
7472
100
AcDbGroup
300

 70
     1
 71
     1
  0
GROUP
  5
14890
102
{ACAD_REACTORS
330
7472
102
}
330
7472
100
AcDbGroup
300

 70
     1
 71
     1
  0
LAYOUT
  5
14783
102
{ACAD_XDICTIONARY
360
14958
102
}
102
{ACAD_REACTORS
330
14781
102
}
330
14781
100
AcDbPlotSettings
  1

  2
Microsoft XPS Document Writer
  4

  6

 40
0.0
 41
0.0
 42
0.0
 43
0.0
 44
0.0
 45
0.0
 46
0.0
 47
0.0
 48
0.0
 49
0.0
140
0.0
141
0.0
142
1.0
143
1.0
 70
  1712
 72
     0
 73
     0
 74
     0
  7

 75
     0
147
1.0
148
0.0
149
0.0
100
AcDbLayout
  1
Model
 70
     1
 71
     0
 10
0.0
 20
0.0
 11
12.0
 21
9.0
 12
0.0
 22
0.0
 32
0.0
 14
0.0
 24
0.0
 34
0.0
 15
0.0
 25
0.0
 35
0.0
146
0.0
 13
0.0
 23
0.0
 33
0.0
 16
1.0
 26
0.0
 36
0.0
 17
0.0
 27
1.0
 37
0.0
 76
     0
330
747D
  0
LAYOUT
  5
14784
102
{ACAD_XDICTIONARY
360
1495A
102
}
102
{ACAD_REACTORS
330
14781
102
}
330
14781
100
AcDbPlotSettings
  1

  2
Microsoft XPS Document Writer
  4

  6

 40
0.0
 41
0.0
 42
0.0
 43
0.0
 44
0.0
 45
0.0
 46
0.0
 47
0.0
 48
0.0
 49
0.0
140
0.0
141
0.0
142
1.0
143
1.0
 70
   688
 72
     0
 73
     0
 74
     5
  7

 75
    16
147
1.0
148
0.0
149
0.0
100
AcDbLayout
  1
レイアウト1
 70
     0
 71
     1
 10
0.0
 20
0.0
 11
420.0
 21
297.0
 12
0.0
 22
0.0
 32
0.0
 14
1.000000000000000E+20
 24
1.000000000000000E+20
 34
1.000000000000000E+20
 15
-1.000000000000000E+20
 25
-1.000000000000000E+20
 35
-1.000000000000000E+20
146
0.0
 13
0.0
 23
0.0
 33
0.0
 16
1.0
 26
0.0
 36
0.0
 17
0.0
 27
1.0
 37
0.0
 76
     0
330
747A
  0
MLINESTYLE
  5
7480
102
{ACAD_REACTORS
330
7473
102
}
330
7473
100
AcDbMlineStyle
  2
STANDARD
 70
     0
  3

 62
     0
 51
90.0
 52
90.0
 71
     2
 49
0.5
 62
   256
  6
BYLAYER
 49
-0.5
 62
   256
  6
BYLAYER
  0
ACDBPLACEHOLDER
  5
1477E
102
{ACAD_REACTORS
330
1477D
102
}
330
1477D
  0
XRECORD
  5
14957
102
{ACAD_REACTORS
330
14955
102
}
330
14955
100
AcDbXrecord
280
     1
340
14780
  0
XRECORD
  5
14956
102
{ACAD_REACTORS
330
14955
102
}
330
14955
100
AcDbXrecord
280
     1
340
1477F
  0
DICTIONARYVAR
  5
14952
102
{ACAD_REACTORS
330
14951
102
}
330
14951
100
DictionaryVariables
280
     0
  1
1
  0
DICTIONARYVAR
  5
14953
102
{ACAD_REACTORS
330
14951
102
}
330
14951
100
DictionaryVariables
280
     0
  1

  0
DICTIONARY
  5
14958
330
14783
100
AcDbDictionary
280
     1
281
     1
  3
ACAD_XREC_ROUNDTRIP
360
14959
  0
DICTIONARY
  5
1495A
330
14784
100
AcDbDictionary
280
     1
281
     1
  3
ACAD_XREC_ROUNDTRIP
360
1495B
  0
XRECORD
  5
14959
102
{ACAD_REACTORS
330
14958
102
}
330
14958
100
AcDbXrecord
280
     1
102
SHADEPLOT
 70
     0
102
SHADEPLOTRESLEVEL
 70
     2
102
SHADEPLOTCUSTOMDPI
 70
   300
  0
XRECORD
  5
1495B
102
{ACAD_REACTORS
330
1495A
102
}
330
1495A
100
AcDbXrecord
280
     1
102
SHADEPLOT
 70
     0
102
SHADEPLOTRESLEVEL
 70
     2
102
SHADEPLOTCUSTOMDPI
 70
   300
  0
ENDSEC
  0
EOF
