  0
SECTION
  2
HEADER
  9
$ACADVER
  1
AC1015
  9
$ACADMAINTVER
 70
    20
  9
$DWGCODEPAGE
  3
ANSI_932
  9
$INSBASE
 10
0.0
 20
0.0
 30
0.0
  9
$EXTMIN
 10
104.3976124660112
 20
-0.4077720004097501
 30
-0.0000000000000058
  9
$EXTMAX
 10
12311.03213349245
 20
8557.461227473122
 30
0.0000000000000104
  9
$LIMMIN
 10
0.0
 20
0.0
  9
$LIMMAX
 10
12600.0
 20
8910.0
  9
$ORTHOMODE
 70
     1
  9
$REGENMODE
 70
     1
  9
$FILLMODE
 70
     1
  9
$QTEXTMODE
 70
     0
  9
$MIRRTEXT
 70
     1
  9
$LTSCALE
 40
20.0
  9
$ATTMODE
 70
     1
  9
$TEXTSIZE
 40
90.0
  9
$TRACEWID
 40
1.0
  9
$TEXTSTYLE
  7
MSPゴシック
  9
$CLAYER
  8
0
  9
$CELTYPE
  6
BYLAYER
  9
$CECOLOR
 62
   256
  9
$CELTSCALE
 40
50.0
  9
$DISPSILH
 70
     0
  9
$DIMSCALE
 40
30.0
  9
$DIMASZ
 40
2.5
  9
$DIMEXO
 40
0.5
  9
$DIMDLI
 40
7.0
  9
$DIMRND
 40
0.0
  9
$DIMDLE
 40
0.0
  9
$DIMEXE
 40
1.5
  9
$DIMTP
 40
0.0
  9
$DIMTM
 40
0.0
  9
$DIMTXT
 40
3.0
  9
$DIMCEN
 40
-0.1
  9
$DIMTSZ
 40
0.0
  9
$DIMTOL
 70
     0
  9
$DIMLIM
 70
     0
  9
$DIMTIH
 70
     0
  9
$DIMTOH
 70
     0
  9
$DIMSE1
 70
     0
  9
$DIMSE2
 70
     0
  9
$DIMTAD
 70
     3
  9
$DIMZIN
 70
     8
  9
$DIMBLK
  1

  9
$DIMASO
 70
     1
  9
$DIMSHO
 70
     1
  9
$DIMPOST
  1

  9
$DIMAPOST
  1

  9
$DIMALT
 70
     0
  9
$DIMALTD
 70
     2
  9
$DIMALTF
 40
0.0394
  9
$DIMLFAC
 40
1.0
  9
$DIMTOFL
 70
     1
  9
$DIMTVP
 40
0.0
  9
$DIMTIX
 70
     1
  9
$DIMSOXD
 70
     0
  9
$DIMSAH
 70
     1
  9
$DIMBLK1
  1
DOTSMALL
  9
$DIMBLK2
  1
DOTSMALL
  9
$DIMSTYLE
  2
INABA_S30G
  9
$DIMCLRD
 70
     0
  9
$DIMCLRE
 70
     0
  9
$DIMCLRT
 70
     7
  9
$DIMTFAC
 40
1.0
  9
$DIMGAP
 40
1.0
  9
$DIMJUST
 70
     0
  9
$DIMSD1
 70
     0
  9
$DIMSD2
 70
     0
  9
$DIMTOLJ
 70
     1
  9
$DIMTZIN
 70
     0
  9
$DIMALTZ
 70
     0
  9
$DIMALTTZ
 70
     0
  9
$DIMUPT
 70
     1
  9
$DIMDEC
 70
     1
  9
$DIMTDEC
 70
     4
  9
$DIMALTU
 70
     2
  9
$DIMALTTD
 70
     2
  9
$DIMTXSTY
  7
STYLE1
  9
$DIMAUNIT
 70
     0
  9
$DIMADEC
 70
     0
  9
$DIMALTRND
 40
0.0
  9
$DIMAZIN
 70
     0
  9
$DIMDSEP
 70
    46
  9
$DIMATFIT
 70
     3
  9
$DIMFRAC
 70
     0
  9
$DIMLDRBLK
  1

  9
$DIMLUNIT
 70
     2
  9
$DIMLWD
 70
    -2
  9
$DIMLWE
 70
    -2
  9
$DIMTMOVE
 70
     2
  9
$LUNITS
 70
     2
  9
$LUPREC
 70
     1
  9
$SKETCHINC
 40
1.0
  9
$FILLETRAD
 40
10.0
  9
$AUNITS
 70
     0
  9
$AUPREC
 70
     0
  9
$MENU
  1
acad
  9
$ELEVATION
 40
0.0
  9
$PELEVATION
 40
0.0
  9
$THICKNESS
 40
0.0
  9
$LIMCHECK
 70
     0
  9
$CHAMFERA
 40
0.0
  9
$CHAMFERB
 40
0.0
  9
$CHAMFERC
 40
0.0
  9
$CHAMFERD
 40
0.0
  9
$SKPOLY
 70
     0
  9
$TDCREATE
 40
2451605.424024074
  9
$TDUCREATE
 40
2451605.049024074
  9
$TDUPDATE
 40
2455091.751502812
  9
$TDUUPDATE
 40
2455091.376502812
  9
$TDINDWG
 40
0.5101720255
  9
$TDUSRTIMER
 40
0.5101720255
  9
$USRTIMER
 70
     1
  9
$ANGBASE
 50
0.0
  9
$ANGDIR
 70
     0
  9
$PDMODE
 70
     3
  9
$PDSIZE
 40
2.0
  9
$PLINEWID
 40
0.0
  9
$SPLFRAME
 70
     0
  9
$SPLINETYPE
 70
     6
  9
$SPLINESEGS
 70
     8
  9
$HANDSEED
  5
1451B
  9
$SURFTAB1
 70
     6
  9
$SURFTAB2
 70
     6
  9
$SURFTYPE
 70
     6
  9
$SURFU
 70
     6
  9
$SURFV
 70
     6
  9
$UCSBASE
  2

  9
$UCSNAME
  2

  9
$UCSORG
 10
0.0
 20
0.0
 30
0.0
  9
$UCSXDIR
 10
1.0
 20
0.0
 30
0.0
  9
$UCSYDIR
 10
0.0
 20
1.0
 30
0.0
  9
$UCSORTHOREF
  2

  9
$UCSORTHOVIEW
 70
     0
  9
$UCSORGTOP
 10
0.0
 20
0.0
 30
0.0
  9
$UCSORGBOTTOM
 10
0.0
 20
0.0
 30
0.0
  9
$UCSORGLEFT
 10
0.0
 20
0.0
 30
0.0
  9
$UCSORGRIGHT
 10
0.0
 20
0.0
 30
0.0
  9
$UCSORGFRONT
 10
0.0
 20
0.0
 30
0.0
  9
$UCSORGBACK
 10
0.0
 20
0.0
 30
0.0
  9
$PUCSBASE
  2

  9
$PUCSNAME
  2

  9
$PUCSORG
 10
0.0
 20
0.0
 30
0.0
  9
$PUCSXDIR
 10
1.0
 20
0.0
 30
0.0
  9
$PUCSYDIR
 10
0.0
 20
1.0
 30
0.0
  9
$PUCSORTHOREF
  2

  9
$PUCSORTHOVIEW
 70
     0
  9
$PUCSORGTOP
 10
0.0
 20
0.0
 30
0.0
  9
$PUCSORGBOTTOM
 10
0.0
 20
0.0
 30
0.0
  9
$PUCSORGLEFT
 10
0.0
 20
0.0
 30
0.0
  9
$PUCSORGRIGHT
 10
0.0
 20
0.0
 30
0.0
  9
$PUCSORGFRONT
 10
0.0
 20
0.0
 30
0.0
  9
$PUCSORGBACK
 10
0.0
 20
0.0
 30
0.0
  9
$USERI1
 70
     0
  9
$USERI2
 70
     0
  9
$USERI3
 70
     0
  9
$USERI4
 70
     0
  9
$USERI5
 70
     0
  9
$USERR1
 40
0.0
  9
$USERR2
 40
0.0
  9
$USERR3
 40
0.0
  9
$USERR4
 40
0.0
  9
$USERR5
 40
0.0
  9
$WORLDVIEW
 70
     1
  9
$SHADEDGE
 70
     3
  9
$SHADEDIF
 70
    70
  9
$TILEMODE
 70
     1
  9
$MAXACTVP
 70
    16
  9
$PINSBASE
 10
0.0
 20
0.0
 30
0.0
  9
$PLIMCHECK
 70
     0
  9
$PEXTMIN
 10
1.000000000000000E+20
 20
1.000000000000000E+20
 30
1.000000000000000E+20
  9
$PEXTMAX
 10
-1.000000000000000E+20
 20
-1.000000000000000E+20
 30
-1.000000000000000E+20
  9
$PLIMMIN
 10
0.0
 20
0.0
  9
$PLIMMAX
 10
420.0
 20
297.0
  9
$UNITMODE
 70
     0
  9
$VISRETAIN
 70
     0
  9
$PLINEGEN
 70
     0
  9
$PSLTSCALE
 70
     0
  9
$TREEDEPTH
 70
  3020
  9
$CMLSTYLE
  2
STANDARD
  9
$CMLJUST
 70
     0
  9
$CMLSCALE
 40
1.0
  9
$PROXYGRAPHICS
 70
     1
  9
$MEASUREMENT
 70
     1
  9
$CELWEIGHT
370
    -1
  9
$ENDCAPS
280
     0
  9
$JOINSTYLE
280
     0
  9
$LWDISPLAY
290
     0
  9
$INSUNITS
 70
     0
  9
$HYPERLINKBASE
  1

  9
$STYLESHEET
  1

  9
$XEDIT
290
     1
  9
$CEPSNTYPE
380
     0
  9
$PSTYLEMODE
290
     1
  9
$FINGERPRINTGUID
  2
{97814916-0AE2-4CC1-BDD3-D90419286126}
  9
$VERSIONGUID
  2
{169C6800-739D-4E56-AF83-4EA1620449A3}
  9
$EXTNAMES
290
     1
  9
$PSVPSCALE
 40
0.0
  9
$OLESTARTUP
290
     0
  0
ENDSEC
  0
SECTION
  2
CLASSES
  0
CLASS
  1
ACDBDICTIONARYWDFLT
  2
AcDbDictionaryWithDefault
  3
ObjectDBX Classes
 90
        0
280
     0
281
     0
  0
CLASS
  1
DICTIONARYVAR
  2
AcDbDictionaryVar
  3
ObjectDBX Classes
 90
        0
280
     0
281
     0
  0
CLASS
  1
ACDBPLACEHOLDER
  2
AcDbPlaceHolder
  3
ObjectDBX Classes
 90
        0
280
     0
281
     0
  0
CLASS
  1
LAYOUT
  2
AcDbLayout
  3
ObjectDBX Classes
 90
        0
280
     0
281
     0
  0
ENDSEC
  0
SECTION
  2
TABLES
  0
TABLE
  2
VPORT
  5
746D
330
0
100
AcDbSymbolTable
 70
     3
  0
VPORT
  5
14513
330
746D
100
AcDbSymbolTableRecord
100
AcDbViewportTableRecord
  2
*Active
 70
     0
 10
0.0
 20
0.0
 11
1.0
 21
1.0
 12
6207.714872979231
 22
4278.526727736356
 13
0.0
 23
0.0
 14
10.0
 24
10.0
 15
10.0
 25
10.0
 16
0.0
 26
0.0
 36
1.0
 17
0.0
 27
0.0
 37
0.0
 40
8619.807737708566
 41
1.492753623188405
 42
50.0
 43
0.0
 44
0.0
 50
0.0
 51
0.0
 71
     0
 72
     0
 73
     1
 74
     0
 75
     0
 76
     0
 77
     0
 78
     0
281
     0
 65
     1
110
0.0
120
0.0
130
0.0
111
1.0
121
0.0
131
0.0
112
0.0
122
1.0
132
0.0
 79
     0
146
0.0
  0
ENDTAB
  0
TABLE
  2
LTYPE
  5
746A
330
0
100
AcDbSymbolTable
 70
     4
  0
LTYPE
  5
7477
330
746A
100
AcDbSymbolTableRecord
100
AcDbLinetypeTableRecord
  2
BYBLOCK
 70
     0
  3

 72
    65
 73
     0
 40
0.0
  0
LTYPE
  5
7478
330
746A
100
AcDbSymbolTableRecord
100
AcDbLinetypeTableRecord
  2
BYLAYER
 70
     0
  3

 72
    65
 73
     0
 40
0.0
  0
LTYPE
  5
7479
330
746A
100
AcDbSymbolTableRecord
100
AcDbLinetypeTableRecord
  2
CONTINUOUS
 70
     0
  3
Solid line
 72
    65
 73
     0
 40
0.0
  0
LTYPE
  5
7816
330
746A
100
AcDbSymbolTableRecord
100
AcDbLinetypeTableRecord
  2
CENTER
 70
     0
  3
____ _ ____ _ ____ _ ____ _ ____ _ ____ _ ____ 
 72
    65
 73
     4
 40
2.0
 49
1.25
 74
     0
 49
-0.25
 74
     0
 49
0.25
 74
     0
 49
-0.25
 74
     0
  0
LTYPE
  5
781A
330
746A
100
AcDbSymbolTableRecord
100
AcDbLinetypeTableRecord
  2
HIDDEN
 70
     0
  3
__ __ __ __ __ __ __ __ __ __ __ __ __ __ __ __
 72
    65
 73
     2
 40
0.375
 49
0.25
 74
     0
 49
-0.125
 74
     0
  0
LTYPE
  5
781B
330
746A
100
AcDbSymbolTableRecord
100
AcDbLinetypeTableRecord
  2
PHANTOM
 70
     0
  3
______  __  __  ______  __  __  ______  __  __ 
 72
    65
 73
     6
 40
2.5
 49
1.25
 74
     0
 49
-0.25
 74
     0
 49
0.25
 74
     0
 49
-0.25
 74
     0
 49
0.25
 74
     0
 49
-0.25
 74
     0
  0
ENDTAB
  0
TABLE
  2
LAYER
  5
7467
330
0
100
AcDbSymbolTable
 70
    11
  0
LAYER
  5
7474
330
7467
100
AcDbSymbolTableRecord
100
AcDbLayerTableRecord
  2
0
 70
     0
 62
     7
  6
CONTINUOUS
370
    -3
390
13CBF
  0
LAYER
  5
DEB2
330
7467
100
AcDbSymbolTableRecord
100
AcDbLayerTableRecord
  2
センター
 70
     0
 62
     3
  6
CENTER
370
    -3
390
13CBF
  0
LAYER
  5
DEB3
330
7467
100
AcDbSymbolTableRecord
100
AcDbLayerTableRecord
  2
寸法
 70
     0
 62
     4
  6
CONTINUOUS
370
    -3
390
13CBF
  0
LAYER
  5
DEB4
330
7467
100
AcDbSymbolTableRecord
100
AcDbLayerTableRecord
  2
部品1
 70
     0
 62
     7
  6
CONTINUOUS
370
    -3
390
13CBF
  0
LAYER
  5
DEB5
330
7467
100
AcDbSymbolTableRecord
100
AcDbLayerTableRecord
  2
補助
 70
     0
 62
    -1
  6
CONTINUOUS
370
    -3
390
13CBF
  0
LAYER
  5
DEB6
330
7467
100
AcDbSymbolTableRecord
100
AcDbLayerTableRecord
  2
文字
 70
     0
 62
     7
  6
CONTINUOUS
370
    -3
390
13CBF
  0
LAYER
  5
F255
330
7467
100
AcDbSymbolTableRecord
100
AcDbLayerTableRecord
  2
DEFPOINTS
 70
     0
 62
     7
  6
CONTINUOUS
290
     0
370
    -3
390
13CBF
  0
LAYER
  5
10B54
330
7467
100
AcDbSymbolTableRecord
100
AcDbLayerTableRecord
  2
仕様書枠
 70
     0
 62
   230
  6
CONTINUOUS
370
    -3
390
13CBF
  0
LAYER
  5
11729
330
7467
100
AcDbSymbolTableRecord
100
AcDbLayerTableRecord
  2
Ｇ．Ｌ
 70
     0
 62
    30
  6
CONTINUOUS
370
    -3
390
13CBF
  0
LAYER
  5
1173F
330
7467
100
AcDbSymbolTableRecord
100
AcDbLayerTableRecord
  2
細線
 70
     0
 62
     5
  6
CONTINUOUS
370
    -3
390
13CBF
  0
LAYER
  5
11740
330
7467
100
AcDbSymbolTableRecord
100
AcDbLayerTableRecord
  2
点線
 70
     0
 62
     2
  6
HIDDEN
370
    -3
390
13CBF
  0
ENDTAB
  0
TABLE
  2
STYLE
  5
7468
330
0
100
AcDbSymbolTable
 70
     5
  0
STYLE
  5
7475
330
7468
100
AcDbSymbolTableRecord
100
AcDbTextStyleTableRecord
  2
STANDARD
 70
     0
 40
0.0
 41
1.0
 50
0.0
 71
     0
 42
4.0
  3
txt
  4
C:\AutoCAD LT\bigfont.shx
  0
STYLE
  5
F706
330
7468
100
AcDbSymbolTableRecord
100
AcDbTextStyleTableRecord
  2
STYLE1
 70
     0
 40
0.0
 41
1.0
 50
0.0
 71
     0
 42
4.0
  3
isocp.shx
  4
bigfont.shx
  0
STYLE
  5
103BF
330
7468
100
AcDbSymbolTableRecord
100
AcDbTextStyleTableRecord
  2
STYLE2
 70
     0
 40
0.0
 41
1.0
 50
0.0
 71
     0
 42
100.0
  3
MS PGothic.ttf
  4

1001
ACAD
1000
MS PGothic
1071
    32818
  0
STYLE
  5
10BAA
330
7468
100
AcDbSymbolTableRecord
100
AcDbTextStyleTableRecord
  2
MSPゴシック
 70
     0
 40
0.0
 41
1.0
 50
0.0
 71
     0
 42
90.0
  3
MS PGothic.ttf
  4

1001
ACAD
1000
MS PGothic
1071
    32818
  0
STYLE
  5
144CD
330
7468
100
AcDbSymbolTableRecord
100
AcDbTextStyleTableRecord
  2
STYLE3
 70
     0
 40
0.0
 41
1.0
 50
0.0
 71
     0
 42
100.0
  3
MS PGothic.ttf
  4

1001
ACAD
1000
MS PGothic
1071
    32818
  0
ENDTAB
  0
TABLE
  2
VIEW
  5
746B
330
0
100
AcDbSymbolTable
 70
     0
  0
ENDTAB
  0
TABLE
  2
UCS
  5
746C
330
0
100
AcDbSymbolTable
 70
     0
  0
ENDTAB
  0
TABLE
  2
APPID
  5
746E
330
0
100
AcDbSymbolTable
 70
     6
  0
APPID
  5
7476
330
746E
100
AcDbSymbolTableRecord
100
AcDbRegAppTableRecord
  2
ACAD
 70
     0
  0
APPID
  5
DEA9
330
746E
100
AcDbSymbolTableRecord
100
AcDbRegAppTableRecord
  2
CONTENTBLOCKICON
 70
     0
  0
APPID
  5
DEAA
330
746E
100
AcDbSymbolTableRecord
100
AcDbRegAppTableRecord
  2
CONTENTBLOCKDESCRIPTION
 70
     0
  0
APPID
  5
E71D
330
746E
100
AcDbSymbolTableRecord
100
AcDbRegAppTableRecord
  2
CONTENTTABDATA
 70
     0
  0
APPID
  5
E71E
330
746E
100
AcDbSymbolTableRecord
100
AcDbRegAppTableRecord
  2
CONTENTCURRENTTAB
 70
     0
  0
APPID
  5
F3BA
330
746E
100
AcDbSymbolTableRecord
100
AcDbRegAppTableRecord
  2
DRAWINGVARIABLESXDATA
 70
     0
  0
ENDTAB
  0
TABLE
  2
DIMSTYLE
  5
746F
330
0
100
AcDbSymbolTable
 70
     4
100
AcDbDimStyleTable
 71
     0
  0
DIMSTYLE
105
7484
330
746F
100
AcDbSymbolTableRecord
100
AcDbDimStyleTableRecord
  2
JIS
 70
     0
 41
2.5
 42
1.0
 43
7.0
 44
1.0
 73
     0
 74
     0
 77
     1
 78
     8
140
2.5
141
0.0
143
0.0394
147
0.0
172
     1
174
     1
175
     1
340
7475
  0
DIMSTYLE
105
F71F
102
{ACAD_REACTORS
330
1359A
330
1359D
330
1359E
330
135A0
330
135A3
330
135A4
330
135A6
330
135AC
330
135AD
330
135AE
330
135AF
330
135D4
330
135D9
330
135DA
330
135DC
330
135E1
330
1362E
330
13631
330
1363D
330
1363F
330
13708
330
13709
330
1370B
330
1370F
330
1371D
330
13722
102
}
330
746F
100
AcDbSymbolTableRecord
100
AcDbDimStyleTableRecord
  2
INABA_S30G
 70
     0
 40
30.0
 41
2.5
 42
0.5
 43
7.0
 44
1.5
 73
     0
 74
     0
 77
     3
 78
     8
140
3.0
141
0.0
143
0.0394
147
1.0
172
     1
173
     1
174
     1
178
     7
271
     1
340
F706
341
F770
343
F770
344
F770
  0
DIMSTYLE
105
1332A
330
746F
100
AcDbSymbolTableRecord
100
AcDbDimStyleTableRecord
  2
INABA_S50G
 70
     0
 40
0.0
 41
125.0
 42
25.0
 43
7.0
 44
75.0
 73
     0
 74
     0
 77
     3
 78
     8
140
150.0
141
0.0
143
0.0394
147
25.0
172
     1
173
     1
174
     1
178
     7
271
     1
340
F706
341
F770
343
F770
344
F770
  0
DIMSTYLE
105
13DBF
102
{ACAD_REACTORS
330
13FE2
330
13FE3
330
14042
330
1404E
330
14060
330
14062
330
1406E
330
140CD
330
140D9
330
140DB
330
140ED
330
140F7
330
14151
330
14152
330
14170
330
14171
330
141A3
330
141A4
330
141A5
102
}
330
746F
100
AcDbSymbolTableRecord
100
AcDbDimStyleTableRecord
  2
INABA_S30G詳細用20
 70
     0
 40
30.0
 41
2.5
 42
0.5
 43
7.0
 44
1.5
 73
     0
 74
     0
 77
     3
 78
     8
140
3.0
141
0.0
143
0.0394
144
0.6666666667
147
1.0
172
     1
173
     1
174
     1
178
     7
271
     0
272
     0
340
F706
341
F770
343
F770
344
F770
  0
ENDTAB
  0
TABLE
  2
BLOCK_RECORD
  5
7466
330
0
100
AcDbSymbolTable
 70
    87
  0
BLOCK_RECORD
  5
747D
330
7466
100
AcDbSymbolTableRecord
100
AcDbBlockTableRecord
  2
*MODEL_SPACE
340
13CC4
  0
BLOCK_RECORD
  5
747A
330
7466
100
AcDbSymbolTableRecord
100
AcDbBlockTableRecord
  2
*PAPER_SPACE
340
13CC5
  0
BLOCK_RECORD
  5
F770
330
7466
100
AcDbSymbolTableRecord
100
AcDbBlockTableRecord
  2
_DOTSMALL
340
0
102
{BLKREFS
331
13C7A
331
13C7B
331
13C85
331
13C86
331
13CA6
331
13CA7
331
13C90
331
13C91
331
13C9B
331
13C9C
331
13CB1
331
13CB2
331
13C43
331
13C44
331
13A83
331
13A84
331
13A8E
331
13A8F
331
13A99
331
13A9A
331
13AA4
331
13AA5
331
13C38
331
13C39
331
13ABA
331
13ABB
331
13AC5
331
13AC6
331
13AD0
331
13AD1
331
13ADB
331
13ADC
331
13AE6
331
13AE7
331
13AF1
331
13AF2
331
13AFC
331
13AFD
331
13B07
331
13B08
331
13B12
331
13B13
331
13B1E
331
13B1F
331
13B2A
331
13B2B
331
13B37
331
13B38
331
13B42
331
13B43
331
13B4D
331
13B4E
331
13B59
331
13B5A
331
13B64
331
13B65
331
13B6F
331
13B70
331
13B7A
331
13B7B
331
13B85
331
13B86
331
13B90
331
13B91
331
13B9D
331
13B9E
331
13BA8
331
13BA9
331
13BB5
331
13BB6
331
13BC0
331
13BC1
331
13BCD
331
13BCE
331
13BD9
331
13BDA
331
13BE5
331
13BE6
331
13BF1
331
13BF2
331
13BFC
331
13BFD
331
13C08
331
13C09
331
13C13
331
13C14
331
13C20
331
13C21
331
13C2D
331
13C2E
331
13D21
331
13D22
331
13D15
331
13D16
331
13D08
331
13D09
331
13CFA
331
13CFB
331
13CED
331
13CEE
331
13CE1
331
13CE2
331
13CD5
331
13CD6
331
13D9F
331
13DA0
331
13D93
331
13D94
331
13D86
331
13D87
331
13D79
331
13D7A
331
13D6C
331
13D6D
331
13D60
331
13D61
331
13D54
331
13D55
331
13D47
331
13D48
331
13D3A
331
13D3B
331
13D2D
331
13D2E
331
13DB8
331
13DB9
331
13DAB
331
13DAC
331
1440A
331
1440B
331
14413
331
14414
331
1441C
331
1441D
331
14431
331
14432
331
1443B
331
1443C
331
14444
331
14445
331
1444D
331
1444E
331
14457
331
14458
331
14461
331
14462
331
1446B
331
1446C
331
14474
331
14475
331
1447D
331
1447E
331
14487
331
14488
331
14491
331
14492
331
1449B
331
1449C
331
144A4
331
144A5
331
144AD
331
144AE
331
144B7
331
144B8
331
14509
331
1450A
102
}
  0
BLOCK_RECORD
  5
13803
330
7466
100
AcDbSymbolTableRecord
100
AcDbBlockTableRecord
  2
*D1
340
0
  0
BLOCK_RECORD
  5
1380F
330
7466
100
AcDbSymbolTableRecord
100
AcDbBlockTableRecord
  2
*D2
340
0
  0
BLOCK_RECORD
  5
1381B
330
7466
100
AcDbSymbolTableRecord
100
AcDbBlockTableRecord
  2
*D3
340
0
  0
BLOCK_RECORD
  5
13827
330
7466
100
AcDbSymbolTableRecord
100
AcDbBlockTableRecord
  2
*D4
340
0
  0
BLOCK_RECORD
  5
13833
330
7466
100
AcDbSymbolTableRecord
100
AcDbBlockTableRecord
  2
*D5
340
0
  0
BLOCK_RECORD
  5
1383F
330
7466
100
AcDbSymbolTableRecord
100
AcDbBlockTableRecord
  2
*D6
340
0
  0
BLOCK_RECORD
  5
1384B
330
7466
100
AcDbSymbolTableRecord
100
AcDbBlockTableRecord
  2
*D7
340
0
  0
BLOCK_RECORD
  5
13857
330
7466
100
AcDbSymbolTableRecord
100
AcDbBlockTableRecord
  2
*D8
340
0
  0
BLOCK_RECORD
  5
13863
330
7466
100
AcDbSymbolTableRecord
100
AcDbBlockTableRecord
  2
*D9
340
0
  0
BLOCK_RECORD
  5
1386F
330
7466
100
AcDbSymbolTableRecord
100
AcDbBlockTableRecord
  2
*D10
340
0
  0
BLOCK_RECORD
  5
1387B
330
7466
100
AcDbSymbolTableRecord
100
AcDbBlockTableRecord
  2
*D11
340
0
  0
BLOCK_RECORD
  5
13887
330
7466
100
AcDbSymbolTableRecord
100
AcDbBlockTableRecord
  2
*D12
340
0
  0
BLOCK_RECORD
  5
13893
330
7466
100
AcDbSymbolTableRecord
100
AcDbBlockTableRecord
  2
*D13
340
0
  0
BLOCK_RECORD
  5
1389F
330
7466
100
AcDbSymbolTableRecord
100
AcDbBlockTableRecord
  2
*D14
340
0
  0
BLOCK_RECORD
  5
138AB
330
7466
100
AcDbSymbolTableRecord
100
AcDbBlockTableRecord
  2
*D15
340
0
  0
BLOCK_RECORD
  5
138B7
330
7466
100
AcDbSymbolTableRecord
100
AcDbBlockTableRecord
  2
*D16
340
0
  0
BLOCK_RECORD
  5
138CF
330
7466
100
AcDbSymbolTableRecord
100
AcDbBlockTableRecord
  2
*D18
340
0
  0
BLOCK_RECORD
  5
138DB
330
7466
100
AcDbSymbolTableRecord
100
AcDbBlockTableRecord
  2
*D19
340
0
  0
BLOCK_RECORD
  5
138E7
330
7466
100
AcDbSymbolTableRecord
100
AcDbBlockTableRecord
  2
*D20
340
0
  0
BLOCK_RECORD
  5
138F3
330
7466
100
AcDbSymbolTableRecord
100
AcDbBlockTableRecord
  2
*D21
340
0
  0
BLOCK_RECORD
  5
13970
330
7466
100
AcDbSymbolTableRecord
100
AcDbBlockTableRecord
  2
*D31
340
0
  0
BLOCK_RECORD
  5
1397C
330
7466
100
AcDbSymbolTableRecord
100
AcDbBlockTableRecord
  2
*D32
340
0
  0
BLOCK_RECORD
  5
13988
330
7466
100
AcDbSymbolTableRecord
100
AcDbBlockTableRecord
  2
*D33
340
0
  0
BLOCK_RECORD
  5
13996
330
7466
100
AcDbSymbolTableRecord
100
AcDbBlockTableRecord
  2
*D34
340
0
  0
BLOCK_RECORD
  5
139A2
330
7466
100
AcDbSymbolTableRecord
100
AcDbBlockTableRecord
  2
*D35
340
0
  0
BLOCK_RECORD
  5
139B0
330
7466
100
AcDbSymbolTableRecord
100
AcDbBlockTableRecord
  2
*D36
340
0
  0
BLOCK_RECORD
  5
13CCD
330
7466
100
AcDbSymbolTableRecord
100
AcDbBlockTableRecord
  2
_None
340
0
  0
BLOCK_RECORD
  5
141A6
330
7466
100
AcDbSymbolTableRecord
100
AcDbBlockTableRecord
  2
*D66
340
0
  0
BLOCK_RECORD
  5
141B3
330
7466
100
AcDbSymbolTableRecord
100
AcDbBlockTableRecord
  2
*D67
340
0
  0
BLOCK_RECORD
  5
141BF
330
7466
100
AcDbSymbolTableRecord
100
AcDbBlockTableRecord
  2
*D68
340
0
  0
BLOCK_RECORD
  5
141CB
330
7466
100
AcDbSymbolTableRecord
100
AcDbBlockTableRecord
  2
*D69
340
0
  0
BLOCK_RECORD
  5
141D8
330
7466
100
AcDbSymbolTableRecord
100
AcDbBlockTableRecord
  2
*D70
340
0
  0
BLOCK_RECORD
  5
141E5
330
7466
100
AcDbSymbolTableRecord
100
AcDbBlockTableRecord
  2
*D71
340
0
  0
BLOCK_RECORD
  5
141F2
330
7466
100
AcDbSymbolTableRecord
100
AcDbBlockTableRecord
  2
*D72
340
0
  0
BLOCK_RECORD
  5
141FE
330
7466
100
AcDbSymbolTableRecord
100
AcDbBlockTableRecord
  2
*D73
340
0
  0
BLOCK_RECORD
  5
1420A
330
7466
100
AcDbSymbolTableRecord
100
AcDbBlockTableRecord
  2
*D74
340
0
  0
BLOCK_RECORD
  5
14217
330
7466
100
AcDbSymbolTableRecord
100
AcDbBlockTableRecord
  2
*D75
340
0
  0
BLOCK_RECORD
  5
14224
330
7466
100
AcDbSymbolTableRecord
100
AcDbBlockTableRecord
  2
*D76
340
0
  0
BLOCK_RECORD
  5
14231
330
7466
100
AcDbSymbolTableRecord
100
AcDbBlockTableRecord
  2
*D77
340
0
  0
BLOCK_RECORD
  5
1423D
330
7466
100
AcDbSymbolTableRecord
100
AcDbBlockTableRecord
  2
*D78
340
0
  0
BLOCK_RECORD
  5
14249
330
7466
100
AcDbSymbolTableRecord
100
AcDbBlockTableRecord
  2
*D79
340
0
  0
BLOCK_RECORD
  5
14256
330
7466
100
AcDbSymbolTableRecord
100
AcDbBlockTableRecord
  2
*D80
340
0
  0
BLOCK_RECORD
  5
14264
330
7466
100
AcDbSymbolTableRecord
100
AcDbBlockTableRecord
  2
*D81
340
0
  0
BLOCK_RECORD
  5
14271
330
7466
100
AcDbSymbolTableRecord
100
AcDbBlockTableRecord
  2
*D82
340
0
  0
BLOCK_RECORD
  5
1427D
330
7466
100
AcDbSymbolTableRecord
100
AcDbBlockTableRecord
  2
*D83
340
0
  0
BLOCK_RECORD
  5
14289
330
7466
100
AcDbSymbolTableRecord
100
AcDbBlockTableRecord
  2
*D84
340
0
  0
BLOCK_RECORD
  5
144CE
330
7466
100
AcDbSymbolTableRecord
100
AcDbBlockTableRecord
  2
A$C77D843C5
340
0
  0
ENDTAB
  0
ENDSEC
  0
SECTION
  2
BLOCKS
  0
BLOCK
  5
7489
330
747D
100
AcDbEntity
  8
0
100
AcDbBlockBegin
  2
*MODEL_SPACE
 70
     0
 10
0.0
 20
0.0
 30
0.0
  3
*MODEL_SPACE
  1

  0
ENDBLK
  5
748A
330
747D
100
AcDbEntity
  8
0
100
AcDbBlockEnd
  0
BLOCK
  5
7487
330
747A
100
AcDbEntity
 67
     1
  8
0
100
AcDbBlockBegin
  2
*PAPER_SPACE
 70
     0
 10
0.0
 20
0.0
 30
0.0
  3
*PAPER_SPACE
  1

  0
ENDBLK
  5
7488
330
747A
100
AcDbEntity
 67
     1
  8
0
100
AcDbBlockEnd
  0
BLOCK
  5
F771
330
F770
100
AcDbEntity
  8
0
 48
50.0
100
AcDbBlockBegin
  2
_DOTSMALL
 70
     0
 10
0.0
 20
0.0
 30
0.0
  3
_DOTSMALL
  1

  0
LWPOLYLINE
  5
F772
330
F770
100
AcDbEntity
  8
0
  6
ByBlock
 62
     0
 48
50.0
100
AcDbPolyline
 90
        2
 70
     1
 43
0.5
 10
-0.0625
 20
0.0
 42
1.0
 10
0.0625
 20
0.0
 42
1.0
  0
ENDBLK
  5
F776
330
F770
100
AcDbEntity
  8
0
 48
50.0
100
AcDbBlockEnd
  0
BLOCK
  5
13C76
330
13803
100
AcDbEntity
  8
0
 48
50.0
100
AcDbBlockBegin
  2
*D1
 70
     1
 10
0.0
 20
0.0
 30
0.0
  3
*D1
  1

  0
LINE
  5
13C77
330
13803
100
AcDbEntity
  8
0
  6
ByBlock
 62
     0
 48
50.0
100
AcDbLine
 10
3754.266204458987
 20
12598.10732382064
 30
0.0
 11
3754.266204458987
 21
13274.59665692606
 31
0.0
  0
LINE
  5
13C78
330
13803
100
AcDbEntity
  8
0
  6
ByBlock
 62
     0
 48
50.0
100
AcDbLine
 10
10754.26620445898
 20
12598.10732382064
 30
0.0
 11
10754.26620445898
 21
13274.59665692606
 31
0.0
  0
LINE
  5
13C79
330
13803
100
AcDbEntity
  8
0
  6
ByBlock
 62
     0
 48
50.0
100
AcDbLine
 10
3754.266204458987
 20
13229.59665692606
 30
0.0
 11
10754.26620445898
 21
13229.59665692606
 31
0.0
  0
INSERT
  5
13C7A
330
13803
100
AcDbEntity
  8
0
  6
ByBlock
 62
     0
 48
50.0
100
AcDbBlockReference
  2
_DOTSMALL
 10
3754.266204458987
 20
13229.59665692606
 30
0.0
 41
75.0
 42
75.0
 43
75.0
 50
180.0
  0
INSERT
  5
13C7B
330
13803
100
AcDbEntity
  8
0
  6
ByBlock
 62
     0
 48
50.0
100
AcDbBlockReference
  2
_DOTSMALL
 10
10754.26620445898
 20
13229.59665692606
 30
0.0
 41
75.0
 42
75.0
 43
75.0
  0
MTEXT
  5
13C7C
330
13803
100
AcDbEntity
  8
0
  6
ByBlock
 62
     7
 48
50.0
100
AcDbMText
 10
7254.266204458987
 20
13304.59665692606
 30
0.0
 40
90.0
 41
0.0
 71
     5
 72
     1
  1
\A1;基礎寸法 7000
  7
STYLE1
 73
     1
 44
1.0
1001
ACAD
1000
MTEXTBEGIN
1070
    73
1070
     1
1070
    44
1040
1.0
1070
    74
1070
     0
1000
MTEXTEND
  0
POINT
  5
13C7D
330
13803
100
AcDbEntity
  8
DEFPOINTS
  6
ByBlock
 62
     0
 48
50.0
100
AcDbPoint
 10
3754.266204458987
 20
12583.10732382064
 30
0.0
  0
POINT
  5
13C7E
330
13803
100
AcDbEntity
  8
DEFPOINTS
  6
ByBlock
 62
     0
 48
50.0
100
AcDbPoint
 10
10754.26620445898
 20
12583.10732382064
 30
0.0
  0
POINT
  5
13C7F
330
13803
100
AcDbEntity
  8
DEFPOINTS
  6
ByBlock
 62
     0
 48
50.0
100
AcDbPoint
 10
10754.26620445898
 20
13229.59665692606
 30
0.0
  0
ENDBLK
  5
13C80
330
13803
100
AcDbEntity
  8
0
 48
50.0
100
AcDbBlockEnd
  0
BLOCK
  5
13C81
330
1380F
100
AcDbEntity
  8
0
 48
50.0
100
AcDbBlockBegin
  2
*D2
 70
     1
 10
0.0
 20
0.0
 30
0.0
  3
*D2
  1

  0
LINE
  5
13C82
330
1380F
100
AcDbEntity
  8
0
  6
ByBlock
 62
     0
 48
50.0
100
AcDbLine
 10
3754.266204458987
 20
10568.10732382064
 30
0.0
 11
3754.266204458987
 21
10148.33561922393
 31
0.0
  0
LINE
  5
13C83
330
1380F
100
AcDbEntity
  8
0
  6
ByBlock
 62
     0
 48
50.0
100
AcDbLine
 10
10754.26620445898
 20
10568.10732382064
 30
0.0
 11
10754.26620445898
 21
10148.33561922393
 31
0.0
  0
LINE
  5
13C84
330
1380F
100
AcDbEntity
  8
0
  6
ByBlock
 62
     0
 48
50.0
100
AcDbLine
 10
3754.266204458987
 20
10193.33561922393
 30
0.0
 11
10754.26620445898
 21
10193.33561922393
 31
0.0
  0
INSERT
  5
13C85
330
1380F
100
AcDbEntity
  8
0
  6
ByBlock
 62
     0
 48
50.0
100
AcDbBlockReference
  2
_DOTSMALL
 10
3754.266204458987
 20
10193.33561922393
 30
0.0
 41
75.0
 42
75.0
 43
75.0
 50
180.0
  0
INSERT
  5
13C86
330
1380F
100
AcDbEntity
  8
0
  6
ByBlock
 62
     0
 48
50.0
100
AcDbBlockReference
  2
_DOTSMALL
 10
10754.26620445898
 20
10193.33561922393
 30
0.0
 41
75.0
 42
75.0
 43
75.0
  0
MTEXT
  5
13C87
330
1380F
100
AcDbEntity
  8
0
  6
ByBlock
 62
     7
 48
50.0
100
AcDbMText
 10
7254.266204458987
 20
10268.33561922393
 30
0.0
 40
90.0
 41
0.0
 71
     5
 72
     1
  1
\A1;屋根寸法 7000
  7
STYLE1
 73
     1
 44
1.0
1001
ACAD
1000
MTEXTBEGIN
1070
    73
1070
     1
1070
    44
1040
1.0
1070
    74
1070
     0
1000
MTEXTEND
  0
POINT
  5
13C88
330
1380F
100
AcDbEntity
  8
DEFPOINTS
  6
ByBlock
 62
     0
 48
50.0
100
AcDbPoint
 10
3754.266204458987
 20
10583.10732382064
 30
0.0
  0
POINT
  5
13C89
330
1380F
100
AcDbEntity
  8
DEFPOINTS
  6
ByBlock
 62
     0
 48
50.0
100
AcDbPoint
 10
10754.26620445898
 20
10583.10732382064
 30
0.0
  0
POINT
  5
13C8A
330
1380F
100
AcDbEntity
  8
DEFPOINTS
  6
ByBlock
 62
     0
 48
50.0
100
AcDbPoint
 10
10754.26620445898
 20
10193.33561922393
 30
0.0
  0
ENDBLK
  5
13C8B
330
1380F
100
AcDbEntity
  8
0
 48
50.0
100
AcDbBlockEnd
  0
BLOCK
  5
13CA2
330
1381B
100
AcDbEntity
  8
0
 48
50.0
100
AcDbBlockBegin
  2
*D3
 70
     1
 10
0.0
 20
0.0
 30
0.0
  3
*D3
  1

  0
LINE
  5
13CA3
330
1381B
100
AcDbEntity
  8
0
  6
ByBlock
 62
     0
 48
50.0
100
AcDbLine
 10
7254.266204458987
 20
11848.10732382064
 30
0.0
 11
7254.266204458987
 21
13080.55961795174
 31
0.0
  0
LINE
  5
13CA4
330
1381B
100
AcDbEntity
  8
0
  6
ByBlock
 62
     0
 48
50.0
100
AcDbLine
 10
10504.26620445898
 20
12265.89668512063
 30
0.0
 11
10504.26620445898
 21
13080.55961795174
 31
0.0
  0
LINE
  5
13CA5
330
1381B
100
AcDbEntity
  8
0
  6
ByBlock
 62
     0
 48
50.0
100
AcDbLine
 10
7254.266204458987
 20
13035.55961795174
 30
0.0
 11
10504.26620445898
 21
13035.55961795174
 31
0.0
  0
INSERT
  5
13CA6
330
1381B
100
AcDbEntity
  8
0
  6
ByBlock
 62
     0
 48
50.0
100
AcDbBlockReference
  2
_DOTSMALL
 10
7254.266204458987
 20
13035.55961795174
 30
0.0
 41
75.0
 42
75.0
 43
75.0
 50
180.0
  0
INSERT
  5
13CA7
330
1381B
100
AcDbEntity
  8
0
  6
ByBlock
 62
     0
 48
50.0
100
AcDbBlockReference
  2
_DOTSMALL
 10
10504.26620445898
 20
13035.55961795174
 30
0.0
 41
75.0
 42
75.0
 43
75.0
  0
MTEXT
  5
13CA8
330
1381B
100
AcDbEntity
  8
0
  6
ByBlock
 62
     7
 48
50.0
100
AcDbMText
 10
8879.266204458987
 20
13110.56847621946
 30
0.0
 40
90.0
 41
0.0
 71
     5
 72
     1
  1
\A1;3250
  7
STYLE1
 73
     1
 44
1.0
1001
ACAD
1000
MTEXTBEGIN
1070
    73
1070
     1
1070
    44
1040
1.0
1070
    74
1070
     0
1000
MTEXTEND
  0
POINT
  5
13CA9
330
1381B
100
AcDbEntity
  8
DEFPOINTS
  6
ByBlock
 62
     0
 48
50.0
100
AcDbPoint
 10
7254.266204458987
 20
11833.10732382064
 30
0.0
  0
POINT
  5
13CAA
330
1381B
100
AcDbEntity
  8
DEFPOINTS
  6
ByBlock
 62
     0
 48
50.0
100
AcDbPoint
 10
10504.26620445898
 20
12250.89668512063
 30
0.0
  0
POINT
  5
13CAB
330
1381B
100
AcDbEntity
  8
DEFPOINTS
  6
ByBlock
 62
     0
 48
50.0
100
AcDbPoint
 10
10504.26620445898
 20
13035.55961795174
 30
0.0
  0
ENDBLK
  5
13CAC
330
1381B
100
AcDbEntity
  8
0
 48
50.0
100
AcDbBlockEnd
  0
BLOCK
  5
13C8C
330
13827
100
AcDbEntity
  8
0
 48
50.0
100
AcDbBlockBegin
  2
*D4
 70
     1
 10
0.0
 20
0.0
 30
0.0
  3
*D4
  1

  0
LINE
  5
13C8D
330
13827
100
AcDbEntity
  8
0
  6
ByBlock
 62
     0
 48
50.0
100
AcDbLine
 10
3754.266204458987
 20
16543.5063041175
 30
0.0
 11
3754.266204458987
 21
17219.99563722293
 31
0.0
  0
LINE
  5
13C8E
330
13827
100
AcDbEntity
  8
0
  6
ByBlock
 62
     0
 48
50.0
100
AcDbLine
 10
10754.26620445898
 20
16543.5063041175
 30
0.0
 11
10754.26620445898
 21
17219.99563722293
 31
0.0
  0
LINE
  5
13C8F
330
13827
100
AcDbEntity
  8
0
  6
ByBlock
 62
     0
 48
50.0
100
AcDbLine
 10
3754.266204458987
 20
17174.99563722293
 30
0.0
 11
10754.26620445898
 21
17174.99563722293
 31
0.0
  0
INSERT
  5
13C90
330
13827
100
AcDbEntity
  8
0
  6
ByBlock
 62
     0
 48
50.0
100
AcDbBlockReference
  2
_DOTSMALL
 10
3754.266204458987
 20
17174.99563722293
 30
0.0
 41
75.0
 42
75.0
 43
75.0
 50
180.0
  0
INSERT
  5
13C91
330
13827
100
AcDbEntity
  8
0
  6
ByBlock
 62
     0
 48
50.0
100
AcDbBlockReference
  2
_DOTSMALL
 10
10754.26620445898
 20
17174.99563722293
 30
0.0
 41
75.0
 42
75.0
 43
75.0
  0
MTEXT
  5
13C92
330
13827
100
AcDbEntity
  8
0
  6
ByBlock
 62
     7
 48
50.0
100
AcDbMText
 10
7254.266204458987
 20
17249.99563722293
 30
0.0
 40
90.0
 41
0.0
 71
     5
 72
     1
  1
\A1;基礎寸法 7000
  7
STYLE1
 73
     1
 44
1.0
1001
ACAD
1000
MTEXTBEGIN
1070
    73
1070
     1
1070
    44
1040
1.0
1070
    74
1070
     0
1000
MTEXTEND
  0
POINT
  5
13C93
330
13827
100
AcDbEntity
  8
DEFPOINTS
  6
ByBlock
 62
     0
 48
50.0
100
AcDbPoint
 10
3754.266204458987
 20
16528.5063041175
 30
0.0
  0
POINT
  5
13C94
330
13827
100
AcDbEntity
  8
DEFPOINTS
  6
ByBlock
 62
     0
 48
50.0
100
AcDbPoint
 10
10754.26620445898
 20
16528.5063041175
 30
0.0
  0
POINT
  5
13C95
330
13827
100
AcDbEntity
  8
DEFPOINTS
  6
ByBlock
 62
     0
 48
50.0
100
AcDbPoint
 10
10754.26620445898
 20
17174.99563722293
 30
0.0
  0
ENDBLK
  5
13C96
330
13827
100
AcDbEntity
  8
0
 48
50.0
100
AcDbBlockEnd
  0
BLOCK
  5
13C97
330
13833
100
AcDbEntity
  8
0
 48
50.0
100
AcDbBlockBegin
  2
*D5
 70
     1
 10
0.0
 20
0.0
 30
0.0
  3
*D5
  1

  0
LINE
  5
13C98
330
13833
100
AcDbEntity
  8
0
  6
ByBlock
 62
     0
 48
50.0
100
AcDbLine
 10
3754.266204458987
 20
14513.5063041175
 30
0.0
 11
3754.266204458987
 21
14093.73459952079
 31
0.0
  0
LINE
  5
13C99
330
13833
100
AcDbEntity
  8
0
  6
ByBlock
 62
     0
 48
50.0
100
AcDbLine
 10
10754.26620445898
 20
14513.5063041175
 30
0.0
 11
10754.26620445898
 21
14093.73459952079
 31
0.0
  0
LINE
  5
13C9A
330
13833
100
AcDbEntity
  8
0
  6
ByBlock
 62
     0
 48
50.0
100
AcDbLine
 10
3754.266204458987
 20
14138.73459952079
 30
0.0
 11
10754.26620445898
 21
14138.73459952079
 31
0.0
  0
INSERT
  5
13C9B
330
13833
100
AcDbEntity
  8
0
  6
ByBlock
 62
     0
 48
50.0
100
AcDbBlockReference
  2
_DOTSMALL
 10
3754.266204458987
 20
14138.73459952079
 30
0.0
 41
75.0
 42
75.0
 43
75.0
 50
180.0
  0
INSERT
  5
13C9C
330
13833
100
AcDbEntity
  8
0
  6
ByBlock
 62
     0
 48
50.0
100
AcDbBlockReference
  2
_DOTSMALL
 10
10754.26620445898
 20
14138.73459952079
 30
0.0
 41
75.0
 42
75.0
 43
75.0
  0
MTEXT
  5
13C9D
330
13833
100
AcDbEntity
  8
0
  6
ByBlock
 62
     7
 48
50.0
100
AcDbMText
 10
7254.266204458987
 20
14213.73459952079
 30
0.0
 40
90.0
 41
0.0
 71
     5
 72
     1
  1
\A1;屋根寸法 7000
  7
STYLE1
 73
     1
 44
1.0
1001
ACAD
1000
MTEXTBEGIN
1070
    73
1070
     1
1070
    44
1040
1.0
1070
    74
1070
     0
1000
MTEXTEND
  0
POINT
  5
13C9E
330
13833
100
AcDbEntity
  8
DEFPOINTS
  6
ByBlock
 62
     0
 48
50.0
100
AcDbPoint
 10
3754.266204458987
 20
14528.5063041175
 30
0.0
  0
POINT
  5
13C9F
330
13833
100
AcDbEntity
  8
DEFPOINTS
  6
ByBlock
 62
     0
 48
50.0
100
AcDbPoint
 10
10754.26620445898
 20
14528.5063041175
 30
0.0
  0
POINT
  5
13CA0
330
13833
100
AcDbEntity
  8
DEFPOINTS
  6
ByBlock
 62
     0
 48
50.0
100
AcDbPoint
 10
10754.26620445898
 20
14138.73459952079
 30
0.0
  0
ENDBLK
  5
13CA1
330
13833
100
AcDbEntity
  8
0
 48
50.0
100
AcDbBlockEnd
  0
BLOCK
  5
13CAD
330
1383F
100
AcDbEntity
  8
0
 48
50.0
100
AcDbBlockBegin
  2
*D6
 70
     1
 10
0.0
 20
0.0
 30
0.0
  3
*D6
  1

  0
LINE
  5
13CAE
330
1383F
100
AcDbEntity
  8
0
  6
ByBlock
 62
     0
 48
50.0
100
AcDbLine
 10
7254.266204458987
 20
15793.5063041175
 30
0.0
 11
7254.266204458987
 21
17025.95859824861
 31
0.0
  0
LINE
  5
13CAF
330
1383F
100
AcDbEntity
  8
0
  6
ByBlock
 62
     0
 48
50.0
100
AcDbLine
 10
10504.26620445898
 20
16211.2956654175
 30
0.0
 11
10504.26620445898
 21
17025.95859824861
 31
0.0
  0
LINE
  5
13CB0
330
1383F
100
AcDbEntity
  8
0
  6
ByBlock
 62
     0
 48
50.0
100
AcDbLine
 10
7254.266204458987
 20
16980.95859824861
 30
0.0
 11
10504.26620445898
 21
16980.95859824861
 31
0.0
  0
INSERT
  5
13CB1
330
1383F
100
AcDbEntity
  8
0
  6
ByBlock
 62
     0
 48
50.0
100
AcDbBlockReference
  2
_DOTSMALL
 10
7254.266204458987
 20
16980.95859824861
 30
0.0
 41
75.0
 42
75.0
 43
75.0
 50
180.0
  0
INSERT
  5
13CB2
330
1383F
100
AcDbEntity
  8
0
  6
ByBlock
 62
     0
 48
50.0
100
AcDbBlockReference
  2
_DOTSMALL
 10
10504.26620445898
 20
16980.95859824861
 30
0.0
 41
75.0
 42
75.0
 43
75.0
  0
MTEXT
  5
13CB3
330
1383F
100
AcDbEntity
  8
0
  6
ByBlock
 62
     7
 48
50.0
100
AcDbMText
 10
8879.266204458987
 20
17055.96745651632
 30
0.0
 40
90.0
 41
0.0
 71
     5
 72
     1
  1
\A1;3250
  7
STYLE1
 73
     1
 44
1.0
1001
ACAD
1000
MTEXTBEGIN
1070
    73
1070
     1
1070
    44
1040
1.0
1070
    74
1070
     0
1000
MTEXTEND
  0
POINT
  5
13CB4
330
1383F
100
AcDbEntity
  8
DEFPOINTS
  6
ByBlock
 62
     0
 48
50.0
100
AcDbPoint
 10
7254.266204458987
 20
15778.5063041175
 30
0.0
  0
POINT
  5
13CB5
330
1383F
100
AcDbEntity
  8
DEFPOINTS
  6
ByBlock
 62
     0
 48
50.0
100
AcDbPoint
 10
10504.26620445898
 20
16196.2956654175
 30
0.0
  0
POINT
  5
13CB6
330
1383F
100
AcDbEntity
  8
DEFPOINTS
  6
ByBlock
 62
     0
 48
50.0
100
AcDbPoint
 10
10504.26620445898
 20
16980.95859824861
 30
0.0
  0
ENDBLK
  5
13CB7
330
1383F
100
AcDbEntity
  8
0
 48
50.0
100
AcDbBlockEnd
  0
BLOCK
  5
13C3F
330
1384B
100
AcDbEntity
  8
0
 48
50.0
100
AcDbBlockBegin
  2
*D7
 70
     1
 10
0.0
 20
0.0
 30
0.0
  3
*D7
  1

  0
LINE
  5
13C40
330
1384B
100
AcDbEntity
  8
0
  6
ByBlock
 62
     0
 48
50.0
100
AcDbLine
 10
4004.266204458986
 20
11848.10732382064
 30
0.0
 11
4004.266204458986
 21
13080.55961795174
 31
0.0
  0
LINE
  5
13C41
330
1384B
100
AcDbEntity
  8
0
  6
ByBlock
 62
     0
 48
50.0
100
AcDbLine
 10
7254.266204458987
 20
12136.65234119156
 30
0.0
 11
7254.266204458987
 21
13080.55961795174
 31
0.0
  0
LINE
  5
13C42
330
1384B
100
AcDbEntity
  8
0
  6
ByBlock
 62
     0
 48
50.0
100
AcDbLine
 10
4004.266204458986
 20
13035.55961795174
 30
0.0
 11
7254.266204458987
 21
13035.55961795174
 31
0.0
  0
INSERT
  5
13C43
330
1384B
100
AcDbEntity
  8
0
  6
ByBlock
 62
     0
 48
50.0
100
AcDbBlockReference
  2
_DOTSMALL
 10
4004.266204458986
 20
13035.55961795174
 30
0.0
 41
75.0
 42
75.0
 43
75.0
 50
180.0
  0
INSERT
  5
13C44
330
1384B
100
AcDbEntity
  8
0
  6
ByBlock
 62
     0
 48
50.0
100
AcDbBlockReference
  2
_DOTSMALL
 10
7254.266204458987
 20
13035.55961795174
 30
0.0
 41
75.0
 42
75.0
 43
75.0
  0
MTEXT
  5
13C45
330
1384B
100
AcDbEntity
  8
0
  6
ByBlock
 62
     7
 48
50.0
100
AcDbMText
 10
5629.266204458986
 20
13110.56847621946
 30
0.0
 40
90.0
 41
0.0
 71
     5
 72
     1
  1
\A1;3250
  7
STYLE1
 73
     1
 44
1.0
1001
ACAD
1000
MTEXTBEGIN
1070
    73
1070
     1
1070
    44
1040
1.0
1070
    74
1070
     0
1000
MTEXTEND
  0
POINT
  5
13C46
330
1384B
100
AcDbEntity
  8
DEFPOINTS
  6
ByBlock
 62
     0
 48
50.0
100
AcDbPoint
 10
4004.266204458986
 20
11833.10732382064
 30
0.0
  0
POINT
  5
13C47
330
1384B
100
AcDbEntity
  8
DEFPOINTS
  6
ByBlock
 62
     0
 48
50.0
100
AcDbPoint
 10
7254.266204458987
 20
12121.65234119156
 30
0.0
  0
POINT
  5
13C48
330
1384B
100
AcDbEntity
  8
DEFPOINTS
  6
ByBlock
 62
     0
 48
50.0
100
AcDbPoint
 10
7254.266204458987
 20
13035.55961795174
 30
0.0
  0
ENDBLK
  5
13C49
330
1384B
100
AcDbEntity
  8
0
 48
50.0
100
AcDbBlockEnd
  0
BLOCK
  5
13A7F
330
13857
100
AcDbEntity
  8
0
 48
50.0
100
AcDbBlockBegin
  2
*D8
 70
     1
 10
0.0
 20
0.0
 30
0.0
  3
*D8
  1

  0
LINE
  5
13A80
330
13857
100
AcDbEntity
  8
0
  6
ByBlock
 62
     0
 48
50.0
100
AcDbLine
 10
4159.266204458987
 20
12583.10732382064
 30
0.0
 11
3465.645005731297
 21
12583.10732382064
 31
0.0
  0
LINE
  5
13A81
330
13857
100
AcDbEntity
  8
0
  6
ByBlock
 62
     0
 48
50.0
100
AcDbLine
 10
4159.266204458987
 20
10583.10732382064
 30
0.0
 11
3465.645005731296
 21
10583.10732382064
 31
0.0
  0
LINE
  5
13A82
330
13857
100
AcDbEntity
  8
0
  6
ByBlock
 62
     0
 48
50.0
100
AcDbLine
 10
3510.645005731297
 20
12583.10732382064
 30
0.0
 11
3510.645005731297
 21
10583.10732382064
 31
0.0
  0
INSERT
  5
13A83
330
13857
100
AcDbEntity
  8
0
  6
ByBlock
 62
     0
 48
50.0
100
AcDbBlockReference
  2
_DOTSMALL
 10
3510.645005731297
 20
12583.10732382064
 30
0.0
 41
75.0
 42
75.0
 43
75.0
 50
90.0
  0
INSERT
  5
13A84
330
13857
100
AcDbEntity
  8
0
  6
ByBlock
 62
     0
 48
50.0
100
AcDbBlockReference
  2
_DOTSMALL
 10
3510.645005731297
 20
10583.10732382064
 30
0.0
 41
75.0
 42
75.0
 43
75.0
 50
270.0
  0
MTEXT
  5
13A85
330
13857
100
AcDbEntity
  8
0
  6
ByBlock
 62
     7
 48
50.0
100
AcDbMText
 10
3435.63614746358
 20
11583.10732382064
 30
0.0
 40
90.0
 41
0.0
 71
     5
 72
     1
  1
\A1;基礎寸法 2000
  7
STYLE1
 11
0.0000000000000001
 21
1.0
 31
0.0
 73
     1
 44
1.0
1001
ACAD
1000
MTEXTBEGIN
1070
    73
1070
     1
1070
    44
1040
1.0
1070
    74
1070
     0
1000
MTEXTEND
  0
POINT
  5
13A86
330
13857
100
AcDbEntity
  8
DEFPOINTS
  6
ByBlock
 62
     0
 48
50.0
100
AcDbPoint
 10
4174.266204458986
 20
12583.10732382064
 30
0.0
  0
POINT
  5
13A87
330
13857
100
AcDbEntity
  8
DEFPOINTS
  6
ByBlock
 62
     0
 48
50.0
100
AcDbPoint
 10
4174.266204458986
 20
10583.10732382064
 30
0.0
  0
POINT
  5
13A88
330
13857
100
AcDbEntity
  8
DEFPOINTS
  6
ByBlock
 62
     0
 48
50.0
100
AcDbPoint
 10
3510.645005731297
 20
10583.10732382064
 30
0.0
  0
ENDBLK
  5
13A89
330
13857
100
AcDbEntity
  8
0
 48
50.0
100
AcDbBlockEnd
  0
BLOCK
  5
13A8A
330
13863
100
AcDbEntity
  8
0
 48
50.0
100
AcDbBlockBegin
  2
*D9
 70
     1
 10
0.0
 20
0.0
 30
0.0
  3
*D9
  1

  0
LINE
  5
13A8B
330
13863
100
AcDbEntity
  8
0
  6
ByBlock
 62
     0
 48
50.0
100
AcDbLine
 10
4159.266204458987
 20
11583.10732382064
 30
0.0
 11
3688.23283813142
 21
11583.10732382064
 31
0.0
  0
LINE
  5
13A8C
330
13863
100
AcDbEntity
  8
0
  6
ByBlock
 62
     0
 48
50.0
100
AcDbLine
 10
4159.266204458987
 20
10583.10732382064
 30
0.0
 11
3688.23283813142
 21
10583.10732382064
 31
0.0
  0
LINE
  5
13A8D
330
13863
100
AcDbEntity
  8
0
  6
ByBlock
 62
     0
 48
50.0
100
AcDbLine
 10
3733.232838131421
 20
11583.10732382064
 30
0.0
 11
3733.23283813142
 21
10583.10732382064
 31
0.0
  0
INSERT
  5
13A8E
330
13863
100
AcDbEntity
  8
0
  6
ByBlock
 62
     0
 48
50.0
100
AcDbBlockReference
  2
_DOTSMALL
 10
3733.232838131421
 20
11583.10732382064
 30
0.0
 41
75.0
 42
75.0
 43
75.0
 50
90.0
  0
INSERT
  5
13A8F
330
13863
100
AcDbEntity
  8
0
  6
ByBlock
 62
     0
 48
50.0
100
AcDbBlockReference
  2
_DOTSMALL
 10
3733.23283813142
 20
10583.10732382064
 30
0.0
 41
75.0
 42
75.0
 43
75.0
 50
270.0
  0
MTEXT
  5
13A90
330
13863
100
AcDbEntity
  8
0
  6
ByBlock
 62
     7
 48
50.0
100
AcDbMText
 10
3658.23283813142
 20
11083.10732382064
 30
0.0
 40
90.0
 41
0.0
 71
     5
 72
     1
  1
\A1;1000
  7
STYLE1
 11
0.0000000000000001
 21
1.0
 31
0.0
 73
     1
 44
1.0
1001
ACAD
1000
MTEXTBEGIN
1070
    73
1070
     1
1070
    44
1040
1.0
1070
    74
1070
     0
1000
MTEXTEND
  0
POINT
  5
13A91
330
13863
100
AcDbEntity
  8
DEFPOINTS
  6
ByBlock
 62
     0
 48
50.0
100
AcDbPoint
 10
4174.266204458986
 20
11583.10732382064
 30
0.0
  0
POINT
  5
13A92
330
13863
100
AcDbEntity
  8
DEFPOINTS
  6
ByBlock
 62
     0
 48
50.0
100
AcDbPoint
 10
4174.266204458986
 20
10583.10732382064
 30
0.0
  0
POINT
  5
13A93
330
13863
100
AcDbEntity
  8
DEFPOINTS
  6
ByBlock
 62
     0
 48
50.0
100
AcDbPoint
 10
3733.23283813142
 20
10583.10732382064
 30
0.0
  0
ENDBLK
  5
13A94
330
13863
100
AcDbEntity
  8
0
 48
50.0
100
AcDbBlockEnd
  0
BLOCK
  5
13A95
330
1386F
100
AcDbEntity
  8
0
 48
50.0
100
AcDbBlockBegin
  2
*D10
 70
     1
 10
0.0
 20
0.0
 30
0.0
  3
*D10
  1

  0
LINE
  5
13A96
330
1386F
100
AcDbEntity
  8
0
  6
ByBlock
 62
     0
 48
50.0
100
AcDbLine
 10
4174.266204458986
 20
12598.10732382064
 30
0.0
 11
4174.266204458986
 21
13080.55961795174
 31
0.0
  0
LINE
  5
13A97
330
1386F
100
AcDbEntity
  8
0
  6
ByBlock
 62
     0
 48
50.0
100
AcDbLine
 10
4424.266204458986
 20
11848.10732382064
 30
0.0
 11
4424.266204458986
 21
13080.55961795174
 31
0.0
  0
LINE
  5
13A98
330
1386F
100
AcDbEntity
  8
0
  6
ByBlock
 62
     0
 48
50.0
100
AcDbLine
 10
4174.266204458986
 20
13035.55961795174
 30
0.0
 11
4424.266204458986
 21
13035.55961795174
 31
0.0
  0
INSERT
  5
13A99
330
1386F
100
AcDbEntity
  8
0
  6
ByBlock
 62
     0
 48
50.0
100
AcDbBlockReference
  2
_DOTSMALL
 10
4174.266204458986
 20
13035.55961795174
 30
0.0
 41
75.0
 42
75.0
 43
75.0
 50
180.0
  0
INSERT
  5
13A9A
330
1386F
100
AcDbEntity
  8
0
  6
ByBlock
 62
     0
 48
50.0
100
AcDbBlockReference
  2
_DOTSMALL
 10
4424.266204458986
 20
13035.55961795174
 30
0.0
 41
75.0
 42
75.0
 43
75.0
  0
MTEXT
  5
13A9B
330
1386F
100
AcDbEntity
  8
0
  6
ByBlock
 62
     7
 48
50.0
100
AcDbMText
 10
4299.266204458986
 20
13110.56847621946
 30
0.0
 40
90.0
 41
0.0
 71
     5
 72
     1
  1
\A1;250
  7
STYLE1
 73
     1
 44
1.0
1001
ACAD
1000
MTEXTBEGIN
1070
    73
1070
     1
1070
    44
1040
1.0
1070
    74
1070
     0
1000
MTEXTEND
  0
POINT
  5
13A9C
330
1386F
100
AcDbEntity
  8
DEFPOINTS
  6
ByBlock
 62
     0
 48
50.0
100
AcDbPoint
 10
4174.266204458986
 20
12583.10732382064
 30
0.0
  0
POINT
  5
13A9D
330
1386F
100
AcDbEntity
  8
DEFPOINTS
  6
ByBlock
 62
     0
 48
50.0
100
AcDbPoint
 10
4424.266204458986
 20
11833.10732382064
 30
0.0
  0
POINT
  5
13A9E
330
1386F
100
AcDbEntity
  8
DEFPOINTS
  6
ByBlock
 62
     0
 48
50.0
100
AcDbPoint
 10
4424.266204458986
 20
13035.55961795174
 30
0.0
  0
ENDBLK
  5
13A9F
330
1386F
100
AcDbEntity
  8
0
 48
50.0
100
AcDbBlockEnd
  0
BLOCK
  5
13AA0
330
1387B
100
AcDbEntity
  8
0
 48
50.0
100
AcDbBlockBegin
  2
*D11
 70
     1
 10
0.0
 20
0.0
 30
0.0
  3
*D11
  1

  0
LINE
  5
13AA1
330
1387B
100
AcDbEntity
  8
0
  6
ByBlock
 62
     0
 48
50.0
100
AcDbLine
 10
4159.266204458987
 20
12583.10732382064
 30
0.0
 11
3688.394367747757
 21
12583.10732382064
 31
0.0
  0
LINE
  5
13AA2
330
1387B
100
AcDbEntity
  8
0
  6
ByBlock
 62
     0
 48
50.0
100
AcDbLine
 10
4159.266204458987
 20
11583.10732382064
 30
0.0
 11
3688.394367747757
 21
11583.10732382064
 31
0.0
  0
LINE
  5
13AA3
330
1387B
100
AcDbEntity
  8
0
  6
ByBlock
 62
     0
 48
50.0
100
AcDbLine
 10
3733.394367747756
 20
12583.10732382064
 30
0.0
 11
3733.394367747756
 21
11583.10732382064
 31
0.0
  0
INSERT
  5
13AA4
330
1387B
100
AcDbEntity
  8
0
  6
ByBlock
 62
     0
 48
50.0
100
AcDbBlockReference
  2
_DOTSMALL
 10
3733.394367747756
 20
12583.10732382064
 30
0.0
 41
75.0
 42
75.0
 43
75.0
 50
90.0
  0
INSERT
  5
13AA5
330
1387B
100
AcDbEntity
  8
0
  6
ByBlock
 62
     0
 48
50.0
100
AcDbBlockReference
  2
_DOTSMALL
 10
3733.394367747756
 20
11583.10732382064
 30
0.0
 41
75.0
 42
75.0
 43
75.0
 50
270.0
  0
MTEXT
  5
13AA6
330
1387B
100
AcDbEntity
  8
0
  6
ByBlock
 62
     7
 48
50.0
100
AcDbMText
 10
3658.394367747757
 20
12083.10732382064
 30
0.0
 40
90.0
 41
0.0
 71
     5
 72
     1
  1
\A1;1000
  7
STYLE1
 11
0.0000000000000001
 21
1.0
 31
0.0
 73
     1
 44
1.0
1001
ACAD
1000
MTEXTBEGIN
1070
    73
1070
     1
1070
    44
1040
1.0
1070
    74
1070
     0
1000
MTEXTEND
  0
POINT
  5
13AA7
330
1387B
100
AcDbEntity
  8
DEFPOINTS
  6
ByBlock
 62
     0
 48
50.0
100
AcDbPoint
 10
4174.266204458986
 20
12583.10732382064
 30
0.0
  0
POINT
  5
13AA8
330
1387B
100
AcDbEntity
  8
DEFPOINTS
  6
ByBlock
 62
     0
 48
50.0
100
AcDbPoint
 10
4174.266204458986
 20
11583.10732382064
 30
0.0
  0
POINT
  5
13AA9
330
1387B
100
AcDbEntity
  8
DEFPOINTS
  6
ByBlock
 62
     0
 48
50.0
100
AcDbPoint
 10
3733.394367747756
 20
11583.10732382064
 30
0.0
  0
ENDBLK
  5
13AAA
330
1387B
100
AcDbEntity
  8
0
 48
50.0
100
AcDbBlockEnd
  0
BLOCK
  5
13C34
330
13887
100
AcDbEntity
  8
0
 48
50.0
100
AcDbBlockBegin
  2
*D12
 70
     1
 10
0.0
 20
0.0
 30
0.0
  3
*D12
  1

  0
LINE
  5
13C35
330
13887
100
AcDbEntity
  8
0
  6
ByBlock
 62
     0
 48
50.0
100
AcDbLine
 10
4004.266204458986
 20
15793.5063041175
 30
0.0
 11
4004.266204458986
 21
17025.95859824861
 31
0.0
  0
LINE
  5
13C36
330
13887
100
AcDbEntity
  8
0
  6
ByBlock
 62
     0
 48
50.0
100
AcDbLine
 10
7254.266204458987
 20
16082.05132148842
 30
0.0
 11
7254.266204458987
 21
17025.95859824861
 31
0.0
  0
LINE
  5
13C37
330
13887
100
AcDbEntity
  8
0
  6
ByBlock
 62
     0
 48
50.0
100
AcDbLine
 10
4004.266204458986
 20
16980.95859824861
 30
0.0
 11
7254.266204458987
 21
16980.95859824861
 31
0.0
  0
INSERT
  5
13C38
330
13887
100
AcDbEntity
  8
0
  6
ByBlock
 62
     0
 48
50.0
100
AcDbBlockReference
  2
_DOTSMALL
 10
4004.266204458986
 20
16980.95859824861
 30
0.0
 41
75.0
 42
75.0
 43
75.0
 50
180.0
  0
INSERT
  5
13C39
330
13887
100
AcDbEntity
  8
0
  6
ByBlock
 62
     0
 48
50.0
100
AcDbBlockReference
  2
_DOTSMALL
 10
7254.266204458987
 20
16980.95859824861
 30
0.0
 41
75.0
 42
75.0
 43
75.0
  0
MTEXT
  5
13C3A
330
13887
100
AcDbEntity
  8
0
  6
ByBlock
 62
     7
 48
50.0
100
AcDbMText
 10
5629.266204458986
 20
17055.96745651632
 30
0.0
 40
90.0
 41
0.0
 71
     5
 72
     1
  1
\A1;3250
  7
STYLE1
 73
     1
 44
1.0
1001
ACAD
1000
MTEXTBEGIN
1070
    73
1070
     1
1070
    44
1040
1.0
1070
    74
1070
     0
1000
MTEXTEND
  0
POINT
  5
13C3B
330
13887
100
AcDbEntity
  8
DEFPOINTS
  6
ByBlock
 62
     0
 48
50.0
100
AcDbPoint
 10
4004.266204458986
 20
15778.5063041175
 30
0.0
  0
POINT
  5
13C3C
330
13887
100
AcDbEntity
  8
DEFPOINTS
  6
ByBlock
 62
     0
 48
50.0
100
AcDbPoint
 10
7254.266204458987
 20
16067.05132148842
 30
0.0
  0
POINT
  5
13C3D
330
13887
100
AcDbEntity
  8
DEFPOINTS
  6
ByBlock
 62
     0
 48
50.0
100
AcDbPoint
 10
7254.266204458987
 20
16980.95859824861
 30
0.0
  0
ENDBLK
  5
13C3E
330
13887
100
AcDbEntity
  8
0
 48
50.0
100
AcDbBlockEnd
  0
BLOCK
  5
13AB6
330
13893
100
AcDbEntity
  8
0
 48
50.0
100
AcDbBlockBegin
  2
*D13
 70
     1
 10
0.0
 20
0.0
 30
0.0
  3
*D13
  1

  0
LINE
  5
13AB7
330
13893
100
AcDbEntity
  8
0
  6
ByBlock
 62
     0
 48
50.0
100
AcDbLine
 10
4174.266204458986
 20
16543.5063041175
 30
0.0
 11
4174.266204458986
 21
17025.95859824861
 31
0.0
  0
LINE
  5
13AB8
330
13893
100
AcDbEntity
  8
0
  6
ByBlock
 62
     0
 48
50.0
100
AcDbLine
 10
4424.266204458986
 20
15793.5063041175
 30
0.0
 11
4424.266204458986
 21
17025.95859824861
 31
0.0
  0
LINE
  5
13AB9
330
13893
100
AcDbEntity
  8
0
  6
ByBlock
 62
     0
 48
50.0
100
AcDbLine
 10
4174.266204458986
 20
16980.95859824861
 30
0.0
 11
4424.266204458986
 21
16980.95859824861
 31
0.0
  0
INSERT
  5
13ABA
330
13893
100
AcDbEntity
  8
0
  6
ByBlock
 62
     0
 48
50.0
100
AcDbBlockReference
  2
_DOTSMALL
 10
4174.266204458986
 20
16980.95859824861
 30
0.0
 41
75.0
 42
75.0
 43
75.0
 50
180.0
  0
INSERT
  5
13ABB
330
13893
100
AcDbEntity
  8
0
  6
ByBlock
 62
     0
 48
50.0
100
AcDbBlockReference
  2
_DOTSMALL
 10
4424.266204458986
 20
16980.95859824861
 30
0.0
 41
75.0
 42
75.0
 43
75.0
  0
MTEXT
  5
13ABC
330
13893
100
AcDbEntity
  8
0
  6
ByBlock
 62
     7
 48
50.0
100
AcDbMText
 10
4299.266204458986
 20
17055.96745651632
 30
0.0
 40
90.0
 41
0.0
 71
     5
 72
     1
  1
\A1;250
  7
STYLE1
 73
     1
 44
1.0
1001
ACAD
1000
MTEXTBEGIN
1070
    73
1070
     1
1070
    44
1040
1.0
1070
    74
1070
     0
1000
MTEXTEND
  0
POINT
  5
13ABD
330
13893
100
AcDbEntity
  8
DEFPOINTS
  6
ByBlock
 62
     0
 48
50.0
100
AcDbPoint
 10
4174.266204458986
 20
16528.5063041175
 30
0.0
  0
POINT
  5
13ABE
330
13893
100
AcDbEntity
  8
DEFPOINTS
  6
ByBlock
 62
     0
 48
50.0
100
AcDbPoint
 10
4424.266204458986
 20
15778.5063041175
 30
0.0
  0
POINT
  5
13ABF
330
13893
100
AcDbEntity
  8
DEFPOINTS
  6
ByBlock
 62
     0
 48
50.0
100
AcDbPoint
 10
4424.266204458986
 20
16980.95859824861
 30
0.0
  0
ENDBLK
  5
13AC0
330
13893
100
AcDbEntity
  8
0
 48
50.0
100
AcDbBlockEnd
  0
BLOCK
  5
13AC1
330
1389F
100
AcDbEntity
  8
0
 48
50.0
100
AcDbBlockBegin
  2
*D14
 70
     1
 10
0.0
 20
0.0
 30
0.0
  3
*D14
  1

  0
LINE
  5
13AC2
330
1389F
100
AcDbEntity
  8
0
  6
ByBlock
 62
     0
 48
50.0
100
AcDbLine
 10
4159.266204458987
 20
16528.5063041175
 30
0.0
 11
3465.645005731296
 21
16528.5063041175
 31
0.0
  0
LINE
  5
13AC3
330
1389F
100
AcDbEntity
  8
0
  6
ByBlock
 62
     0
 48
50.0
100
AcDbLine
 10
4159.266204458987
 20
14528.5063041175
 30
0.0
 11
3465.645005731296
 21
14528.5063041175
 31
0.0
  0
LINE
  5
13AC4
330
1389F
100
AcDbEntity
  8
0
  6
ByBlock
 62
     0
 48
50.0
100
AcDbLine
 10
3510.645005731297
 20
16528.5063041175
 30
0.0
 11
3510.645005731297
 21
14528.5063041175
 31
0.0
  0
INSERT
  5
13AC5
330
1389F
100
AcDbEntity
  8
0
  6
ByBlock
 62
     0
 48
50.0
100
AcDbBlockReference
  2
_DOTSMALL
 10
3510.645005731297
 20
16528.5063041175
 30
0.0
 41
75.0
 42
75.0
 43
75.0
 50
90.0
  0
INSERT
  5
13AC6
330
1389F
100
AcDbEntity
  8
0
  6
ByBlock
 62
     0
 48
50.0
100
AcDbBlockReference
  2
_DOTSMALL
 10
3510.645005731297
 20
14528.5063041175
 30
0.0
 41
75.0
 42
75.0
 43
75.0
 50
270.0
  0
MTEXT
  5
13AC7
330
1389F
100
AcDbEntity
  8
0
  6
ByBlock
 62
     7
 48
50.0
100
AcDbMText
 10
3435.636147463579
 20
15528.5063041175
 30
0.0
 40
90.0
 41
0.0
 71
     5
 72
     1
  1
\A1;基礎寸法 2000
  7
STYLE1
 11
0.0000000000000001
 21
1.0
 31
0.0
 73
     1
 44
1.0
1001
ACAD
1000
MTEXTBEGIN
1070
    73
1070
     1
1070
    44
1040
1.0
1070
    74
1070
     0
1000
MTEXTEND
  0
POINT
  5
13AC8
330
1389F
100
AcDbEntity
  8
DEFPOINTS
  6
ByBlock
 62
     0
 48
50.0
100
AcDbPoint
 10
4174.266204458986
 20
16528.5063041175
 30
0.0
  0
POINT
  5
13AC9
330
1389F
100
AcDbEntity
  8
DEFPOINTS
  6
ByBlock
 62
     0
 48
50.0
100
AcDbPoint
 10
4174.266204458986
 20
14528.5063041175
 30
0.0
  0
POINT
  5
13ACA
330
1389F
100
AcDbEntity
  8
DEFPOINTS
  6
ByBlock
 62
     0
 48
50.0
100
AcDbPoint
 10
3510.645005731297
 20
14528.5063041175
 30
0.0
  0
ENDBLK
  5
13ACB
330
1389F
100
AcDbEntity
  8
0
 48
50.0
100
AcDbBlockEnd
  0
BLOCK
  5
13ACC
330
138AB
100
AcDbEntity
  8
0
 48
50.0
100
AcDbBlockBegin
  2
*D15
 70
     1
 10
0.0
 20
0.0
 30
0.0
  3
*D15
  1

  0
LINE
  5
13ACD
330
138AB
100
AcDbEntity
  8
0
  6
ByBlock
 62
     0
 48
50.0
100
AcDbLine
 10
4159.266204458987
 20
15528.5063041175
 30
0.0
 11
3688.23283813142
 21
15528.5063041175
 31
0.0
  0
LINE
  5
13ACE
330
138AB
100
AcDbEntity
  8
0
  6
ByBlock
 62
     0
 48
50.0
100
AcDbLine
 10
4159.266204458987
 20
14528.5063041175
 30
0.0
 11
3688.23283813142
 21
14528.5063041175
 31
0.0
  0
LINE
  5
13ACF
330
138AB
100
AcDbEntity
  8
0
  6
ByBlock
 62
     0
 48
50.0
100
AcDbLine
 10
3733.23283813142
 20
15528.5063041175
 30
0.0
 11
3733.23283813142
 21
14528.5063041175
 31
0.0
  0
INSERT
  5
13AD0
330
138AB
100
AcDbEntity
  8
0
  6
ByBlock
 62
     0
 48
50.0
100
AcDbBlockReference
  2
_DOTSMALL
 10
3733.23283813142
 20
15528.5063041175
 30
0.0
 41
75.0
 42
75.0
 43
75.0
 50
90.0
  0
INSERT
  5
13AD1
330
138AB
100
AcDbEntity
  8
0
  6
ByBlock
 62
     0
 48
50.0
100
AcDbBlockReference
  2
_DOTSMALL
 10
3733.23283813142
 20
14528.5063041175
 30
0.0
 41
75.0
 42
75.0
 43
75.0
 50
270.0
  0
MTEXT
  5
13AD2
330
138AB
100
AcDbEntity
  8
0
  6
ByBlock
 62
     7
 48
50.0
100
AcDbMText
 10
3658.23283813142
 20
15028.5063041175
 30
0.0
 40
90.0
 41
0.0
 71
     5
 72
     1
  1
\A1;1000
  7
STYLE1
 11
0.0000000000000001
 21
1.0
 31
0.0
 73
     1
 44
1.0
1001
ACAD
1000
MTEXTBEGIN
1070
    73
1070
     1
1070
    44
1040
1.0
1070
    74
1070
     0
1000
MTEXTEND
  0
POINT
  5
13AD3
330
138AB
100
AcDbEntity
  8
DEFPOINTS
  6
ByBlock
 62
     0
 48
50.0
100
AcDbPoint
 10
4174.266204458986
 20
15528.5063041175
 30
0.0
  0
POINT
  5
13AD4
330
138AB
100
AcDbEntity
  8
DEFPOINTS
  6
ByBlock
 62
     0
 48
50.0
100
AcDbPoint
 10
4174.266204458986
 20
14528.5063041175
 30
0.0
  0
POINT
  5
13AD5
330
138AB
100
AcDbEntity
  8
DEFPOINTS
  6
ByBlock
 62
     0
 48
50.0
100
AcDbPoint
 10
3733.23283813142
 20
14528.5063041175
 30
0.0
  0
ENDBLK
  5
13AD6
330
138AB
100
AcDbEntity
  8
0
 48
50.0
100
AcDbBlockEnd
  0
BLOCK
  5
13AD7
330
138B7
100
AcDbEntity
  8
0
 48
50.0
100
AcDbBlockBegin
  2
*D16
 70
     1
 10
0.0
 20
0.0
 30
0.0
  3
*D16
  1

  0
LINE
  5
13AD8
330
138B7
100
AcDbEntity
  8
0
  6
ByBlock
 62
     0
 48
50.0
100
AcDbLine
 10
4159.266204458987
 20
16528.5063041175
 30
0.0
 11
3688.394367747757
 21
16528.5063041175
 31
0.0
  0
LINE
  5
13AD9
330
138B7
100
AcDbEntity
  8
0
  6
ByBlock
 62
     0
 48
50.0
100
AcDbLine
 10
4159.266204458987
 20
15528.5063041175
 30
0.0
 11
3688.394367747757
 21
15528.5063041175
 31
0.0
  0
LINE
  5
13ADA
330
138B7
100
AcDbEntity
  8
0
  6
ByBlock
 62
     0
 48
50.0
100
AcDbLine
 10
3733.394367747756
 20
16528.5063041175
 30
0.0
 11
3733.394367747756
 21
15528.5063041175
 31
0.0
  0
INSERT
  5
13ADB
330
138B7
100
AcDbEntity
  8
0
  6
ByBlock
 62
     0
 48
50.0
100
AcDbBlockReference
  2
_DOTSMALL
 10
3733.394367747756
 20
16528.5063041175
 30
0.0
 41
75.0
 42
75.0
 43
75.0
 50
90.0
  0
INSERT
  5
13ADC
330
138B7
100
AcDbEntity
  8
0
  6
ByBlock
 62
     0
 48
50.0
100
AcDbBlockReference
  2
_DOTSMALL
 10
3733.394367747756
 20
15528.5063041175
 30
0.0
 41
75.0
 42
75.0
 43
75.0
 50
270.0
  0
MTEXT
  5
13ADD
330
138B7
100
AcDbEntity
  8
0
  6
ByBlock
 62
     7
 48
50.0
100
AcDbMText
 10
3658.394367747757
 20
16028.5063041175
 30
0.0
 40
90.0
 41
0.0
 71
     5
 72
     1
  1
\A1;1000
  7
STYLE1
 11
0.0000000000000001
 21
1.0
 31
0.0
 73
     1
 44
1.0
1001
ACAD
1000
MTEXTBEGIN
1070
    73
1070
     1
1070
    44
1040
1.0
1070
    74
1070
     0
1000
MTEXTEND
  0
POINT
  5
13ADE
330
138B7
100
AcDbEntity
  8
DEFPOINTS
  6
ByBlock
 62
     0
 48
50.0
100
AcDbPoint
 10
4174.266204458986
 20
16528.5063041175
 30
0.0
  0
POINT
  5
13ADF
330
138B7
100
AcDbEntity
  8
DEFPOINTS
  6
ByBlock
 62
     0
 48
50.0
100
AcDbPoint
 10
4174.266204458986
 20
15528.5063041175
 30
0.0
  0
POINT
  5
13AE0
330
138B7
100
AcDbEntity
  8
DEFPOINTS
  6
ByBlock
 62
     0
 48
50.0
100
AcDbPoint
 10
3733.394367747756
 20
15528.5063041175
 30
0.0
  0
ENDBLK
  5
13AE1
330
138B7
100
AcDbEntity
  8
0
 48
50.0
100
AcDbBlockEnd
  0
BLOCK
  5
13AED
330
138CF
100
AcDbEntity
  8
0
 48
50.0
100
AcDbBlockBegin
  2
*D18
 70
     1
 10
0.0
 20
0.0
 30
0.0
  3
*D18
  1

  0
LINE
  5
13AEE
330
138CF
100
AcDbEntity
  8
0
  6
ByBlock
 62
     0
 48
50.0
100
AcDbLine
 10
10349.26620445898
 20
12583.10732382064
 30
0.0
 11
10861.5404268226
 21
12583.10732382064
 31
0.0
  0
LINE
  5
13AEF
330
138CF
100
AcDbEntity
  8
0
  6
ByBlock
 62
     0
 48
50.0
100
AcDbLine
 10
10349.26620445898
 20
10583.10732382064
 30
0.0
 11
10861.5404268226
 21
10583.10732382064
 31
0.0
  0
LINE
  5
13AF0
330
138CF
100
AcDbEntity
  8
0
  6
ByBlock
 62
     0
 48
50.0
100
AcDbLine
 10
10816.5404268226
 20
12583.10732382064
 30
0.0
 11
10816.5404268226
 21
10583.10732382064
 31
0.0
  0
INSERT
  5
13AF1
330
138CF
100
AcDbEntity
  8
0
  6
ByBlock
 62
     0
 48
50.0
100
AcDbBlockReference
  2
_DOTSMALL
 10
10816.5404268226
 20
12583.10732382064
 30
0.0
 41
75.0
 42
75.0
 43
75.0
 50
90.0
  0
INSERT
  5
13AF2
330
138CF
100
AcDbEntity
  8
0
  6
ByBlock
 62
     0
 48
50.0
100
AcDbBlockReference
  2
_DOTSMALL
 10
10816.5404268226
 20
10583.10732382064
 30
0.0
 41
75.0
 42
75.0
 43
75.0
 50
270.0
  0
MTEXT
  5
13AF3
330
138CF
100
AcDbEntity
  8
0
  6
ByBlock
 62
     7
 48
50.0
100
AcDbMText
 10
10741.53156855488
 20
11583.10732382064
 30
0.0
 40
90.0
 41
0.0
 71
     5
 72
     1
  1
\A1;屋根寸法 2000
  7
STYLE1
 11
0.0000000000000001
 21
1.0
 31
0.0
 73
     1
 44
1.0
1001
ACAD
1000
MTEXTBEGIN
1070
    73
1070
     1
1070
    44
1040
1.0
1070
    74
1070
     0
1000
MTEXTEND
  0
POINT
  5
13AF4
330
138CF
100
AcDbEntity
  8
DEFPOINTS
  6
ByBlock
 62
     0
 48
50.0
100
AcDbPoint
 10
10334.26620445899
 20
12583.10732382064
 30
0.0
  0
POINT
  5
13AF5
330
138CF
100
AcDbEntity
  8
DEFPOINTS
  6
ByBlock
 62
     0
 48
50.0
100
AcDbPoint
 10
10334.26620445899
 20
10583.10732382064
 30
0.0
  0
POINT
  5
13AF6
330
138CF
100
AcDbEntity
  8
DEFPOINTS
  6
ByBlock
 62
     0
 48
50.0
100
AcDbPoint
 10
10816.5404268226
 20
10583.10732382064
 30
0.0
  0
ENDBLK
  5
13AF7
330
138CF
100
AcDbEntity
  8
0
 48
50.0
100
AcDbBlockEnd
  0
BLOCK
  5
13AF8
330
138DB
100
AcDbEntity
  8
0
 48
50.0
100
AcDbBlockBegin
  2
*D19
 70
     1
 10
0.0
 20
0.0
 30
0.0
  3
*D19
  1

  0
LINE
  5
13AF9
330
138DB
100
AcDbEntity
  8
0
  6
ByBlock
 62
     0
 48
50.0
100
AcDbLine
 10
9719.266204458987
 20
11933.10732382063
 30
0.0
 11
9511.951701174806
 21
11933.10732382063
 31
0.0
  0
LINE
  5
13AFA
330
138DB
100
AcDbEntity
  8
0
  6
ByBlock
 62
     0
 48
50.0
100
AcDbLine
 10
9719.266204458987
 20
11233.10732382063
 30
0.0
 11
9511.951701174806
 21
11233.10732382063
 31
0.0
  0
LINE
  5
13AFB
330
138DB
100
AcDbEntity
  8
0
  6
ByBlock
 62
     0
 48
50.0
100
AcDbLine
 10
9556.951701174806
 20
11933.10732382063
 30
0.0
 11
9556.951701174806
 21
11233.10732382063
 31
0.0
  0
INSERT
  5
13AFC
330
138DB
100
AcDbEntity
  8
0
  6
ByBlock
 62
     0
 48
50.0
100
AcDbBlockReference
  2
_DOTSMALL
 10
9556.951701174806
 20
11933.10732382063
 30
0.0
 41
75.0
 42
75.0
 43
75.0
 50
90.0
  0
INSERT
  5
13AFD
330
138DB
100
AcDbEntity
  8
0
  6
ByBlock
 62
     0
 48
50.0
100
AcDbBlockReference
  2
_DOTSMALL
 10
9556.951701174806
 20
11233.10732382063
 30
0.0
 41
75.0
 42
75.0
 43
75.0
 50
270.0
  0
MTEXT
  5
13AFE
330
138DB
100
AcDbEntity
  8
0
  6
ByBlock
 62
     7
 48
50.0
100
AcDbMText
 10
9481.951701174805
 20
11583.10732382064
 30
0.0
 40
90.0
 41
0.0
 71
     5
 72
     1
  1
\A1;700
  7
STYLE1
 11
0.0000000000000001
 21
1.0
 31
0.0
 73
     1
 44
1.0
1001
ACAD
1000
MTEXTBEGIN
1070
    73
1070
     1
1070
    44
1040
1.0
1070
    74
1070
     0
1000
MTEXTEND
  0
POINT
  5
13AFF
330
138DB
100
AcDbEntity
  8
DEFPOINTS
  6
ByBlock
 62
     0
 48
50.0
100
AcDbPoint
 10
9734.266204458988
 20
11933.10732382063
 30
0.0
  0
POINT
  5
13B00
330
138DB
100
AcDbEntity
  8
DEFPOINTS
  6
ByBlock
 62
     0
 48
50.0
100
AcDbPoint
 10
9734.266204458988
 20
11233.10732382063
 30
0.0
  0
POINT
  5
13B01
330
138DB
100
AcDbEntity
  8
DEFPOINTS
  6
ByBlock
 62
     0
 48
50.0
100
AcDbPoint
 10
9556.951701174806
 20
11233.10732382063
 30
0.0
  0
ENDBLK
  5
13B02
330
138DB
100
AcDbEntity
  8
0
 48
50.0
100
AcDbBlockEnd
  0
BLOCK
  5
13B03
330
138E7
100
AcDbEntity
  8
0
 48
50.0
100
AcDbBlockBegin
  2
*D20
 70
     1
 10
0.0
 20
0.0
 30
0.0
  3
*D20
  1

  0
LINE
  5
13B04
330
138E7
100
AcDbEntity
  8
0
  6
ByBlock
 62
     0
 48
50.0
100
AcDbLine
 10
9734.266204458988
 20
11948.10732382064
 30
0.0
 11
9734.266204458988
 21
12175.89668512063
 31
0.0
  0
LINE
  5
13B05
330
138E7
100
AcDbEntity
  8
0
  6
ByBlock
 62
     0
 48
50.0
100
AcDbLine
 10
10434.26620445899
 20
11948.10732382064
 30
0.0
 11
10434.26620445899
 21
12175.89668512063
 31
0.0
  0
LINE
  5
13B06
330
138E7
100
AcDbEntity
  8
0
  6
ByBlock
 62
     0
 48
50.0
100
AcDbLine
 10
9734.266204458988
 20
12130.89668512063
 30
0.0
 11
10434.26620445899
 21
12130.89668512063
 31
0.0
  0
INSERT
  5
13B07
330
138E7
100
AcDbEntity
  8
0
  6
ByBlock
 62
     0
 48
50.0
100
AcDbBlockReference
  2
_DOTSMALL
 10
9734.266204458988
 20
12130.89668512063
 30
0.0
 41
75.0
 42
75.0
 43
75.0
 50
180.0
  0
INSERT
  5
13B08
330
138E7
100
AcDbEntity
  8
0
  6
ByBlock
 62
     0
 48
50.0
100
AcDbBlockReference
  2
_DOTSMALL
 10
10434.26620445899
 20
12130.89668512063
 30
0.0
 41
75.0
 42
75.0
 43
75.0
  0
MTEXT
  5
13B09
330
138E7
100
AcDbEntity
  8
0
  6
ByBlock
 62
     7
 48
50.0
100
AcDbMText
 10
10084.26620445898
 20
12205.89668512063
 30
0.0
 40
90.0
 41
0.0
 71
     5
 72
     1
  1
\A1;700
  7
STYLE1
 73
     1
 44
1.0
1001
ACAD
1000
MTEXTBEGIN
1070
    73
1070
     1
1070
    44
1040
1.0
1070
    74
1070
     0
1000
MTEXTEND
  0
POINT
  5
13B0A
330
138E7
100
AcDbEntity
  8
DEFPOINTS
  6
ByBlock
 62
     0
 48
50.0
100
AcDbPoint
 10
9734.266204458988
 20
11933.10732382063
 30
0.0
  0
POINT
  5
13B0B
330
138E7
100
AcDbEntity
  8
DEFPOINTS
  6
ByBlock
 62
     0
 48
50.0
100
AcDbPoint
 10
10434.26620445899
 20
11933.10732382063
 30
0.0
  0
POINT
  5
13B0C
330
138E7
100
AcDbEntity
  8
DEFPOINTS
  6
ByBlock
 62
     0
 48
50.0
100
AcDbPoint
 10
10434.26620445899
 20
12130.89668512063
 30
0.0
  0
ENDBLK
  5
13B0D
330
138E7
100
AcDbEntity
  8
0
 48
50.0
100
AcDbBlockEnd
  0
BLOCK
  5
13B0E
330
138F3
100
AcDbEntity
  8
0
 48
50.0
100
AcDbBlockBegin
  2
*D21
 70
     1
 10
0.0
 20
0.0
 30
0.0
  3
*D21
  1

  0
LINE
  5
13B0F
330
138F3
100
AcDbEntity
  8
0
  6
ByBlock
 62
     0
 48
50.0
100
AcDbLine
 10
10084.26620445898
 20
12668.10732382064
 30
0.0
 11
10084.26620445898
 21
13081.15685329665
 31
0.0
  0
LINE
  5
13B10
330
138F3
100
AcDbEntity
  8
0
  6
ByBlock
 62
     0
 48
50.0
100
AcDbLine
 10
10334.26620445899
 20
12598.10732382064
 30
0.0
 11
10334.26620445899
 21
13081.15685329665
 31
0.0
  0
LINE
  5
13B11
330
138F3
100
AcDbEntity
  8
0
  6
ByBlock
 62
     0
 48
50.0
100
AcDbLine
 10
10084.26620445898
 20
13036.15685329665
 30
0.0
 11
10334.26620445899
 21
13036.15685329665
 31
0.0
  0
INSERT
  5
13B12
330
138F3
100
AcDbEntity
  8
0
  6
ByBlock
 62
     0
 48
50.0
100
AcDbBlockReference
  2
_DOTSMALL
 10
10084.26620445898
 20
13036.15685329665
 30
0.0
 41
75.0
 42
75.0
 43
75.0
 50
180.0
  0
INSERT
  5
13B13
330
138F3
100
AcDbEntity
  8
0
  6
ByBlock
 62
     0
 48
50.0
100
AcDbBlockReference
  2
_DOTSMALL
 10
10334.26620445899
 20
13036.15685329665
 30
0.0
 41
75.0
 42
75.0
 43
75.0
  0
MTEXT
  5
13B14
330
138F3
100
AcDbEntity
  8
0
  6
ByBlock
 62
     7
 48
50.0
100
AcDbMText
 10
10209.26620445898
 20
13111.16571156437
 30
0.0
 40
90.0
 41
0.0
 71
     5
 72
     1
  1
\A1;250
  7
STYLE1
 73
     1
 44
1.0
1001
ACAD
1000
MTEXTBEGIN
1070
    73
1070
     1
1070
    44
1040
1.0
1070
    74
1070
     0
1000
MTEXTEND
  0
POINT
  5
13B15
330
138F3
100
AcDbEntity
  8
DEFPOINTS
  6
ByBlock
 62
     0
 48
50.0
100
AcDbPoint
 10
10084.26620445898
 20
12653.10732382064
 30
0.0
  0
POINT
  5
13B16
330
138F3
100
AcDbEntity
  8
DEFPOINTS
  6
ByBlock
 62
     0
 48
50.0
100
AcDbPoint
 10
10334.26620445899
 20
12583.10732382064
 30
0.0
  0
POINT
  5
13B17
330
138F3
100
AcDbEntity
  8
DEFPOINTS
  6
ByBlock
 62
     0
 48
50.0
100
AcDbPoint
 10
10334.26620445899
 20
13036.15685329665
 30
0.0
  0
ENDBLK
  5
13B18
330
138F3
100
AcDbEntity
  8
0
 48
50.0
100
AcDbBlockEnd
  0
BLOCK
  5
13B81
330
13970
100
AcDbEntity
  8
0
 48
50.0
100
AcDbBlockBegin
  2
*D31
 70
     1
 10
0.0
 20
0.0
 30
0.0
  3
*D31
  1

  0
LINE
  5
13B82
330
13970
100
AcDbEntity
  8
0
  6
ByBlock
 62
     0
 48
50.0
100
AcDbLine
 10
10084.26620445898
 20
16613.5063041175
 30
0.0
 11
10084.26620445898
 21
17026.55583359351
 31
0.0
  0
LINE
  5
13B83
330
13970
100
AcDbEntity
  8
0
  6
ByBlock
 62
     0
 48
50.0
100
AcDbLine
 10
10334.26620445899
 20
16543.5063041175
 30
0.0
 11
10334.26620445899
 21
17026.55583359351
 31
0.0
  0
LINE
  5
13B84
330
13970
100
AcDbEntity
  8
0
  6
ByBlock
 62
     0
 48
50.0
100
AcDbLine
 10
10084.26620445898
 20
16981.55583359351
 30
0.0
 11
10334.26620445899
 21
16981.55583359351
 31
0.0
  0
INSERT
  5
13B85
330
13970
100
AcDbEntity
  8
0
  6
ByBlock
 62
     0
 48
50.0
100
AcDbBlockReference
  2
_DOTSMALL
 10
10084.26620445898
 20
16981.55583359351
 30
0.0
 41
75.0
 42
75.0
 43
75.0
 50
180.0
  0
INSERT
  5
13B86
330
13970
100
AcDbEntity
  8
0
  6
ByBlock
 62
     0
 48
50.0
100
AcDbBlockReference
  2
_DOTSMALL
 10
10334.26620445899
 20
16981.55583359351
 30
0.0
 41
75.0
 42
75.0
 43
75.0
  0
MTEXT
  5
13B87
330
13970
100
AcDbEntity
  8
0
  6
ByBlock
 62
     7
 48
50.0
100
AcDbMText
 10
10209.26620445898
 20
17056.56469186123
 30
0.0
 40
90.0
 41
0.0
 71
     5
 72
     1
  1
\A1;250
  7
STYLE1
 73
     1
 44
1.0
1001
ACAD
1000
MTEXTBEGIN
1070
    73
1070
     1
1070
    44
1040
1.0
1070
    74
1070
     0
1000
MTEXTEND
  0
POINT
  5
13B88
330
13970
100
AcDbEntity
  8
DEFPOINTS
  6
ByBlock
 62
     0
 48
50.0
100
AcDbPoint
 10
10084.26620445898
 20
16598.5063041175
 30
0.0
  0
POINT
  5
13B89
330
13970
100
AcDbEntity
  8
DEFPOINTS
  6
ByBlock
 62
     0
 48
50.0
100
AcDbPoint
 10
10334.26620445899
 20
16528.5063041175
 30
0.0
  0
POINT
  5
13B8A
330
13970
100
AcDbEntity
  8
DEFPOINTS
  6
ByBlock
 62
     0
 48
50.0
100
AcDbPoint
 10
10334.26620445899
 20
16981.55583359351
 30
0.0
  0
ENDBLK
  5
13B8B
330
13970
100
AcDbEntity
  8
0
 48
50.0
100
AcDbBlockEnd
  0
BLOCK
  5
13B8C
330
1397C
100
AcDbEntity
  8
0
 48
50.0
100
AcDbBlockBegin
  2
*D32
 70
     1
 10
0.0
 20
0.0
 30
0.0
  3
*D32
  1

  0
LINE
  5
13B8D
330
1397C
100
AcDbEntity
  8
0
  6
ByBlock
 62
     0
 48
50.0
100
AcDbLine
 10
10349.26620445898
 20
16528.5063041175
 30
0.0
 11
10861.5404268226
 21
16528.5063041175
 31
0.0
  0
LINE
  5
13B8E
330
1397C
100
AcDbEntity
  8
0
  6
ByBlock
 62
     0
 48
50.0
100
AcDbLine
 10
10349.26620445898
 20
14528.5063041175
 30
0.0
 11
10861.5404268226
 21
14528.5063041175
 31
0.0
  0
LINE
  5
13B8F
330
1397C
100
AcDbEntity
  8
0
  6
ByBlock
 62
     0
 48
50.0
100
AcDbLine
 10
10816.5404268226
 20
16528.5063041175
 30
0.0
 11
10816.5404268226
 21
14528.5063041175
 31
0.0
  0
INSERT
  5
13B90
330
1397C
100
AcDbEntity
  8
0
  6
ByBlock
 62
     0
 48
50.0
100
AcDbBlockReference
  2
_DOTSMALL
 10
10816.5404268226
 20
16528.5063041175
 30
0.0
 41
75.0
 42
75.0
 43
75.0
 50
90.0
  0
INSERT
  5
13B91
330
1397C
100
AcDbEntity
  8
0
  6
ByBlock
 62
     0
 48
50.0
100
AcDbBlockReference
  2
_DOTSMALL
 10
10816.5404268226
 20
14528.5063041175
 30
0.0
 41
75.0
 42
75.0
 43
75.0
 50
270.0
  0
MTEXT
  5
13B92
330
1397C
100
AcDbEntity
  8
0
  6
ByBlock
 62
     7
 48
50.0
100
AcDbMText
 10
10741.53156855488
 20
15528.5063041175
 30
0.0
 40
90.0
 41
0.0
 71
     5
 72
     1
  1
\A1;屋根寸法 2000
  7
STYLE1
 11
0.0000000000000001
 21
1.0
 31
0.0
 73
     1
 44
1.0
1001
ACAD
1000
MTEXTBEGIN
1070
    73
1070
     1
1070
    44
1040
1.0
1070
    74
1070
     0
1000
MTEXTEND
  0
POINT
  5
13B93
330
1397C
100
AcDbEntity
  8
DEFPOINTS
  6
ByBlock
 62
     0
 48
50.0
100
AcDbPoint
 10
10334.26620445899
 20
16528.5063041175
 30
0.0
  0
POINT
  5
13B94
330
1397C
100
AcDbEntity
  8
DEFPOINTS
  6
ByBlock
 62
     0
 48
50.0
100
AcDbPoint
 10
10334.26620445899
 20
14528.5063041175
 30
0.0
  0
POINT
  5
13B95
330
1397C
100
AcDbEntity
  8
DEFPOINTS
  6
ByBlock
 62
     0
 48
50.0
100
AcDbPoint
 10
10816.5404268226
 20
14528.5063041175
 30
0.0
  0
ENDBLK
  5
13B96
330
1397C
100
AcDbEntity
  8
0
 48
50.0
100
AcDbBlockEnd
  0
BLOCK
  5
13B97
330
13988
100
AcDbEntity
  8
0
 48
50.0
100
AcDbBlockBegin
  2
*D33
 70
     1
 10
0.0
 20
0.0
 30
0.0
  3
*D33
  1

  0
LINE
  5
13B98
330
13988
100
AcDbEntity
  8
0
  6
ByBlock
 62
     0
 48
50.0
100
AcDbLine
 10
10184.26620445898
 20
15338.5063041175
 30
0.0
 11
10184.26620445898
 21
14913.9850208047
 31
0.0
  0
LINE
  5
13B99
330
13988
100
AcDbEntity
  8
0
  6
ByBlock
 62
     0
 48
50.0
100
AcDbLine
 10
9984.266204458988
 20
15338.5063041175
 30
0.0
 11
9984.266204458988
 21
14913.9850208047
 31
0.0
  0
LINE
  5
13B9A
330
13988
100
AcDbEntity
  8
0
  6
ByBlock
 62
     0
 48
50.0
100
AcDbLine
 10
10184.26620445898
 20
14958.9850208047
 30
0.0
 11
10259.26620445898
 21
14958.9850208047
 31
0.0
  0
LINE
  5
13B9B
330
13988
100
AcDbEntity
  8
0
  6
ByBlock
 62
     0
 48
50.0
100
AcDbLine
 10
9984.266204458988
 20
14958.9850208047
 30
0.0
 11
9909.266204458987
 21
14958.9850208047
 31
0.0
  0
LINE
  5
13B9C
330
13988
100
AcDbEntity
  8
0
  6
ByBlock
 62
     0
 48
50.0
100
AcDbLine
 10
10184.26620445898
 20
14958.9850208047
 30
0.0
 11
9984.266204458988
 21
14958.9850208047
 31
0.0
  0
INSERT
  5
13B9D
330
13988
100
AcDbEntity
  8
0
  6
ByBlock
 62
     0
 48
50.0
100
AcDbBlockReference
  2
_DOTSMALL
 10
10184.26620445898
 20
14958.9850208047
 30
0.0
 41
75.0
 42
75.0
 43
75.0
 50
180.0
  0
INSERT
  5
13B9E
330
13988
100
AcDbEntity
  8
0
  6
ByBlock
 62
     0
 48
50.0
100
AcDbBlockReference
  2
_DOTSMALL
 10
9984.266204458988
 20
14958.9850208047
 30
0.0
 41
75.0
 42
75.0
 43
75.0
  0
MTEXT
  5
13B9F
330
13988
100
AcDbEntity
  8
0
  6
ByBlock
 62
     7
 48
50.0
100
AcDbMText
 10
10084.26620445898
 20
15033.99387907241
 30
0.0
 40
90.0
 41
0.0
 71
     5
 72
     1
  1
\A1;200
  7
STYLE1
 73
     1
 44
1.0
1001
ACAD
1000
MTEXTBEGIN
1070
    73
1070
     1
1070
    44
1040
1.0
1070
    74
1070
     0
1000
MTEXTEND
  0
POINT
  5
13BA0
330
13988
100
AcDbEntity
  8
DEFPOINTS
  6
ByBlock
 62
     0
 48
50.0
100
AcDbPoint
 10
10184.26620445898
 20
15353.5063041175
 30
0.0
  0
POINT
  5
13BA1
330
13988
100
AcDbEntity
  8
DEFPOINTS
  6
ByBlock
 62
     0
 48
50.0
100
AcDbPoint
 10
9984.266204458988
 20
15353.5063041175
 30
0.0
  0
POINT
  5
13BA2
330
13988
100
AcDbEntity
  8
DEFPOINTS
  6
ByBlock
 62
     0
 48
50.0
100
AcDbPoint
 10
9984.266204458988
 20
14958.9850208047
 30
0.0
  0
ENDBLK
  5
13BA3
330
13988
100
AcDbEntity
  8
0
 48
50.0
100
AcDbBlockEnd
  0
BLOCK
  5
13BA4
330
13996
100
AcDbEntity
  8
0
 48
50.0
100
AcDbBlockBegin
  2
*D34
 70
     1
 10
0.0
 20
0.0
 30
0.0
  3
*D34
  1

  0
LINE
  5
13BA5
330
13996
100
AcDbEntity
  8
0
  6
ByBlock
 62
     0
 48
50.0
100
AcDbLine
 10
9719.266204458987
 20
15878.5063041175
 30
0.0
 11
9511.951701174806
 21
15878.5063041175
 31
0.0
  0
LINE
  5
13BA6
330
13996
100
AcDbEntity
  8
0
  6
ByBlock
 62
     0
 48
50.0
100
AcDbLine
 10
9719.266204458987
 20
15178.5063041175
 30
0.0
 11
9511.951701174806
 21
15178.5063041175
 31
0.0
  0
LINE
  5
13BA7
330
13996
100
AcDbEntity
  8
0
  6
ByBlock
 62
     0
 48
50.0
100
AcDbLine
 10
9556.951701174806
 20
15878.5063041175
 30
0.0
 11
9556.951701174806
 21
15178.5063041175
 31
0.0
  0
INSERT
  5
13BA8
330
13996
100
AcDbEntity
  8
0
  6
ByBlock
 62
     0
 48
50.0
100
AcDbBlockReference
  2
_DOTSMALL
 10
9556.951701174806
 20
15878.5063041175
 30
0.0
 41
75.0
 42
75.0
 43
75.0
 50
90.0
  0
INSERT
  5
13BA9
330
13996
100
AcDbEntity
  8
0
  6
ByBlock
 62
     0
 48
50.0
100
AcDbBlockReference
  2
_DOTSMALL
 10
9556.951701174806
 20
15178.5063041175
 30
0.0
 41
75.0
 42
75.0
 43
75.0
 50
270.0
  0
MTEXT
  5
13BAA
330
13996
100
AcDbEntity
  8
0
  6
ByBlock
 62
     7
 48
50.0
100
AcDbMText
 10
9481.951701174805
 20
15528.5063041175
 30
0.0
 40
90.0
 41
0.0
 71
     5
 72
     1
  1
\A1;700
  7
STYLE1
 11
0.0000000000000001
 21
1.0
 31
0.0
 73
     1
 44
1.0
1001
ACAD
1000
MTEXTBEGIN
1070
    73
1070
     1
1070
    44
1040
1.0
1070
    74
1070
     0
1000
MTEXTEND
  0
POINT
  5
13BAB
330
13996
100
AcDbEntity
  8
DEFPOINTS
  6
ByBlock
 62
     0
 48
50.0
100
AcDbPoint
 10
9734.266204458988
 20
15878.5063041175
 30
0.0
  0
POINT
  5
13BAC
330
13996
100
AcDbEntity
  8
DEFPOINTS
  6
ByBlock
 62
     0
 48
50.0
100
AcDbPoint
 10
9734.266204458988
 20
15178.5063041175
 30
0.0
  0
POINT
  5
13BAD
330
13996
100
AcDbEntity
  8
DEFPOINTS
  6
ByBlock
 62
     0
 48
50.0
100
AcDbPoint
 10
9556.951701174806
 20
15178.5063041175
 30
0.0
  0
ENDBLK
  5
13BAE
330
13996
100
AcDbEntity
  8
0
 48
50.0
100
AcDbBlockEnd
  0
BLOCK
  5
13BAF
330
139A2
100
AcDbEntity
  8
0
 48
50.0
100
AcDbBlockBegin
  2
*D35
 70
     1
 10
0.0
 20
0.0
 30
0.0
  3
*D35
  1

  0
LINE
  5
13BB0
330
139A2
100
AcDbEntity
  8
0
  6
ByBlock
 62
     0
 48
50.0
100
AcDbLine
 10
10274.26620445899
 20
15428.5063041175
 30
0.0
 11
10640.85363159656
 21
15428.5063041175
 31
0.0
  0
LINE
  5
13BB1
330
139A2
100
AcDbEntity
  8
0
  6
ByBlock
 62
     0
 48
50.0
100
AcDbLine
 10
10274.26620445899
 20
15628.5063041175
 30
0.0
 11
10640.85363159656
 21
15628.5063041175
 31
0.0
  0
LINE
  5
13BB2
330
139A2
100
AcDbEntity
  8
0
  6
ByBlock
 62
     0
 48
50.0
100
AcDbLine
 10
10595.85363159656
 20
15428.5063041175
 30
0.0
 11
10595.85363159656
 21
15353.5063041175
 31
0.0
  0
LINE
  5
13BB3
330
139A2
100
AcDbEntity
  8
0
  6
ByBlock
 62
     0
 48
50.0
100
AcDbLine
 10
10595.85363159656
 20
15628.5063041175
 30
0.0
 11
10595.85363159656
 21
15703.5063041175
 31
0.0
  0
LINE
  5
13BB4
330
139A2
100
AcDbEntity
  8
0
  6
ByBlock
 62
     0
 48
50.0
100
AcDbLine
 10
10595.85363159656
 20
15428.5063041175
 30
0.0
 11
10595.85363159656
 21
15628.5063041175
 31
0.0
  0
INSERT
  5
13BB5
330
139A2
100
AcDbEntity
  8
0
  6
ByBlock
 62
     0
 48
50.0
100
AcDbBlockReference
  2
_DOTSMALL
 10
10595.85363159656
 20
15428.5063041175
 30
0.0
 41
75.0
 42
75.0
 43
75.0
 50
90.0
  0
INSERT
  5
13BB6
330
139A2
100
AcDbEntity
  8
0
  6
ByBlock
 62
     0
 48
50.0
100
AcDbBlockReference
  2
_DOTSMALL
 10
10595.85363159656
 20
15628.5063041175
 30
0.0
 41
75.0
 42
75.0
 43
75.0
 50
270.0
  0
MTEXT
  5
13BB7
330
139A2
100
AcDbEntity
  8
0
  6
ByBlock
 62
     7
 48
50.0
100
AcDbMText
 10
10520.84477332884
 20
15528.5063041175
 30
0.0
 40
90.0
 41
0.0
 71
     5
 72
     1
  1
\A1;200
  7
STYLE1
 11
0.0000000000000001
 21
1.0
 31
0.0
 73
     1
 44
1.0
1001
ACAD
1000
MTEXTBEGIN
1070
    73
1070
     1
1070
    44
1040
1.0
1070
    74
1070
     0
1000
MTEXTEND
  0
POINT
  5
13BB8
330
139A2
100
AcDbEntity
  8
DEFPOINTS
  6
ByBlock
 62
     0
 48
50.0
100
AcDbPoint
 10
10259.26620445898
 20
15428.5063041175
 30
0.0
  0
POINT
  5
13BB9
330
139A2
100
AcDbEntity
  8
DEFPOINTS
  6
ByBlock
 62
     0
 48
50.0
100
AcDbPoint
 10
10259.26620445898
 20
15628.5063041175
 30
0.0
  0
POINT
  5
13BBA
330
139A2
100
AcDbEntity
  8
DEFPOINTS
  6
ByBlock
 62
     0
 48
50.0
100
AcDbPoint
 10
10595.85363159656
 20
15628.5063041175
 30
0.0
  0
ENDBLK
  5
13BBB
330
139A2
100
AcDbEntity
  8
0
 48
50.0
100
AcDbBlockEnd
  0
BLOCK
  5
13BBC
330
139B0
100
AcDbEntity
  8
0
 48
50.0
100
AcDbBlockBegin
  2
*D36
 70
     1
 10
0.0
 20
0.0
 30
0.0
  3
*D36
  1

  0
LINE
  5
13BBD
330
139B0
100
AcDbEntity
  8
0
  6
ByBlock
 62
     0
 48
50.0
100
AcDbLine
 10
9734.266204458988
 20
15893.5063041175
 30
0.0
 11
9734.266204458988
 21
16121.2956654175
 31
0.0
  0
LINE
  5
13BBE
330
139B0
100
AcDbEntity
  8
0
  6
ByBlock
 62
     0
 48
50.0
100
AcDbLine
 10
10434.26620445899
 20
15893.5063041175
 30
0.0
 11
10434.26620445899
 21
16121.2956654175
 31
0.0
  0
LINE
  5
13BBF
330
139B0
100
AcDbEntity
  8
0
  6
ByBlock
 62
     0
 48
50.0
100
AcDbLine
 10
9734.266204458988
 20
16076.2956654175
 30
0.0
 11
10434.26620445899
 21
16076.2956654175
 31
0.0
  0
INSERT
  5
13BC0
330
139B0
100
AcDbEntity
  8
0
  6
ByBlock
 62
     0
 48
50.0
100
AcDbBlockReference
  2
_DOTSMALL
 10
9734.266204458988
 20
16076.2956654175
 30
0.0
 41
75.0
 42
75.0
 43
75.0
 50
180.0
  0
INSERT
  5
13BC1
330
139B0
100
AcDbEntity
  8
0
  6
ByBlock
 62
     0
 48
50.0
100
AcDbBlockReference
  2
_DOTSMALL
 10
10434.26620445899
 20
16076.2956654175
 30
0.0
 41
75.0
 42
75.0
 43
75.0
  0
MTEXT
  5
13BC2
330
139B0
100
AcDbEntity
  8
0
  6
ByBlock
 62
     7
 48
50.0
100
AcDbMText
 10
10084.26620445898
 20
16151.2956654175
 30
0.0
 40
90.0
 41
0.0
 71
     5
 72
     1
  1
\A1;700
  7
STYLE1
 73
     1
 44
1.0
1001
ACAD
1000
MTEXTBEGIN
1070
    73
1070
     1
1070
    44
1040
1.0
1070
    74
1070
     0
1000
MTEXTEND
  0
POINT
  5
13BC3
330
139B0
100
AcDbEntity
  8
DEFPOINTS
  6
ByBlock
 62
     0
 48
50.0
100
AcDbPoint
 10
9734.266204458988
 20
15878.5063041175
 30
0.0
  0
POINT
  5
13BC4
330
139B0
100
AcDbEntity
  8
DEFPOINTS
  6
ByBlock
 62
     0
 48
50.0
100
AcDbPoint
 10
10434.26620445899
 20
15878.5063041175
 30
0.0
  0
POINT
  5
13BC5
330
139B0
100
AcDbEntity
  8
DEFPOINTS
  6
ByBlock
 62
     0
 48
50.0
100
AcDbPoint
 10
10434.26620445899
 20
16076.2956654175
 30
0.0
  0
ENDBLK
  5
13BC6
330
139B0
100
AcDbEntity
  8
0
 48
50.0
100
AcDbBlockEnd
  0
BLOCK
  5
13CCE
330
13CCD
100
AcDbEntity
  8
0
 48
50.0
100
AcDbBlockBegin
  2
_None
 70
     0
 10
0.0
 20
0.0
 30
0.0
  3
_None
  1

  0
ENDBLK
  5
13CCF
330
13CCD
100
AcDbEntity
  8
0
 48
50.0
100
AcDbBlockEnd
  0
BLOCK
  5
141B1
330
141A6
100
AcDbEntity
  8
0
 48
50.0
100
AcDbBlockBegin
  2
*D66
 70
     1
 10
0.0
 20
0.0
 30
0.0
  3
*D66
  1

  0
LINE
  5
144B3
330
141A6
100
AcDbEntity
  8
寸法
 62
     0
 48
50.0
370
    -2
100
AcDbLine
 10
11308.26201330531
 20
2206.155748320803
 30
0.0
 11
11877.97061363648
 21
2206.155748320803
 31
0.0
  0
LINE
  5
144B4
330
141A6
100
AcDbEntity
  8
寸法
 62
     0
 48
50.0
370
    -2
100
AcDbLine
 10
11308.26201330531
 20
2131.155748320804
 30
0.0
 11
11877.97061363648
 21
2131.155748320804
 31
0.0
  0
LINE
  5
144B5
330
141A6
100
AcDbEntity
  8
寸法
 62
     0
 48
50.0
370
    -2
100
AcDbLine
 10
11832.97061363648
 20
2206.155748320803
 30
0.0
 11
11832.97061363648
 21
2131.155748320804
 31
0.0
  0
LINE
  5
144B6
330
141A6
100
AcDbEntity
  8
寸法
 62
     0
 48
50.0
370
    -2
100
AcDbLine
 10
11832.97061363648
 20
2131.155748320804
 30
0.0
 11
11832.97061363648
 21
1871.917657769623
 31
0.0
  0
INSERT
  5
144B7
330
141A6
100
AcDbEntity
  8
寸法
 62
     0
 48
50.0
370
    -2
100
AcDbBlockReference
  2
_DOTSMALL
 10
11832.97061363648
 20
2206.155748320803
 30
0.0
 41
75.0
 42
75.0
 43
75.0
 50
90.0
  0
INSERT
  5
144B8
330
141A6
100
AcDbEntity
  8
寸法
 62
     0
 48
50.0
370
    -2
100
AcDbBlockReference
  2
_DOTSMALL
 10
11832.97061363648
 20
2131.155748320804
 30
0.0
 41
75.0
 42
75.0
 43
75.0
 50
270.0
  0
MTEXT
  5
144B9
330
141A6
100
AcDbEntity
  8
寸法
 62
     7
 48
50.0
100
AcDbMText
 10
11757.97061363648
 20
1951.453090840491
 30
0.0
 40
90.0
 41
0.0
 71
     5
 72
     1
  1
\A1;50
  7
STYLE1
 11
0.0000000000000001
 21
1.0
 31
0.0
 73
     1
 44
1.0
1001
ACAD
1000
MTEXTBEGIN
1070
    73
1070
     1
1070
    44
1040
1.0
1070
    74
1070
     0
1000
MTEXTEND
  0
POINT
  5
144BA
330
141A6
100
AcDbEntity
  8
DEFPOINTS
 62
     0
 48
50.0
100
AcDbPoint
 10
11293.26201330531
 20
2206.155748320803
 30
0.0
  0
POINT
  5
144BB
330
141A6
100
AcDbEntity
  8
DEFPOINTS
 62
     0
 48
50.0
100
AcDbPoint
 10
11293.26201330531
 20
2131.155748320804
 30
0.0
  0
POINT
  5
144BC
330
141A6
100
AcDbEntity
  8
DEFPOINTS
 62
     0
 48
50.0
100
AcDbPoint
 10
11832.97061363648
 20
2131.155748320804
 30
0.0
  0
ENDBLK
  5
141B2
330
141A6
100
AcDbEntity
  8
0
 48
50.0
100
AcDbBlockEnd
  0
BLOCK
  5
141BD
330
141B3
100
AcDbEntity
  8
0
 48
50.0
100
AcDbBlockBegin
  2
*D67
 70
     1
 10
0.0
 20
0.0
 30
0.0
  3
*D67
  1

  0
LINE
  5
144AA
330
141B3
100
AcDbEntity
  8
寸法
 62
     0
 48
50.0
370
    -2
100
AcDbLine
 10
11542.45023208723
 20
3030.602601503322
 30
0.0
 11
11877.97061363648
 21
3030.602601503322
 31
0.0
  0
LINE
  5
144AB
330
141B3
100
AcDbEntity
  8
寸法
 62
     0
 48
50.0
370
    -2
100
AcDbLine
 10
11308.26201330531
 20
2206.155748320803
 30
0.0
 11
11877.97061363648
 21
2206.155748320803
 31
0.0
  0
LINE
  5
144AC
330
141B3
100
AcDbEntity
  8
寸法
 62
     0
 48
50.0
370
    -2
100
AcDbLine
 10
11832.97061363648
 20
3030.602601503322
 30
0.0
 11
11832.97061363648
 21
2206.155748320803
 31
0.0
  0
INSERT
  5
144AD
330
141B3
100
AcDbEntity
  8
寸法
 62
     0
 48
50.0
370
    -2
100
AcDbBlockReference
  2
_DOTSMALL
 10
11832.97061363648
 20
3030.602601503322
 30
0.0
 41
75.0
 42
75.0
 43
75.0
 50
90.0
  0
INSERT
  5
144AE
330
141B3
100
AcDbEntity
  8
寸法
 62
     0
 48
50.0
370
    -2
100
AcDbBlockReference
  2
_DOTSMALL
 10
11832.97061363648
 20
2206.155748320803
 30
0.0
 41
75.0
 42
75.0
 43
75.0
 50
270.0
  0
MTEXT
  5
144AF
330
141B3
100
AcDbEntity
  8
寸法
 62
     7
 48
50.0
100
AcDbMText
 10
11757.97061363648
 20
2618.379174912065
 30
0.0
 40
90.0
 41
0.0
 71
     5
 72
     1
  1
\A1;550
  7
STYLE1
 11
0.0000000000000001
 21
1.0
 31
0.0
 73
     1
 44
1.0
1001
ACAD
1000
MTEXTBEGIN
1070
    73
1070
     1
1070
    44
1040
1.0
1070
    74
1070
     0
1000
MTEXTEND
  0
POINT
  5
144B0
330
141B3
100
AcDbEntity
  8
DEFPOINTS
 62
     0
 48
50.0
100
AcDbPoint
 10
11527.45023208723
 20
3030.602601503322
 30
0.0
  0
POINT
  5
144B1
330
141B3
100
AcDbEntity
  8
DEFPOINTS
 62
     0
 48
50.0
100
AcDbPoint
 10
11293.26201330531
 20
2206.155748320803
 30
0.0
  0
POINT
  5
144B2
330
141B3
100
AcDbEntity
  8
DEFPOINTS
 62
     0
 48
50.0
100
AcDbPoint
 10
11832.97061363648
 20
2206.155748320803
 30
0.0
  0
ENDBLK
  5
141BE
330
141B3
100
AcDbEntity
  8
0
 48
50.0
100
AcDbBlockEnd
  0
BLOCK
  5
141C9
330
141BF
100
AcDbEntity
  8
0
 48
50.0
100
AcDbBlockBegin
  2
*D68
 70
     1
 10
0.0
 20
0.0
 30
0.0
  3
*D68
  1

  0
LINE
  5
144A1
330
141BF
100
AcDbEntity
  8
寸法
 62
     0
 48
50.0
370
    -2
100
AcDbLine
 10
11542.45023208723
 20
3030.602601503322
 30
0.0
 11
11720.65418477726
 21
3030.602601503322
 31
0.0
  0
LINE
  5
144A2
330
141BF
100
AcDbEntity
  8
寸法
 62
     0
 48
50.0
370
    -2
100
AcDbLine
 10
10703.26201330531
 20
2355.655748320804
 30
0.0
 11
11720.65418477726
 21
2355.655748320803
 31
0.0
  0
LINE
  5
144A3
330
141BF
100
AcDbEntity
  8
寸法
 62
     0
 48
50.0
370
    -2
100
AcDbLine
 10
11675.65418477726
 20
3030.602601503322
 30
0.0
 11
11675.65418477726
 21
2355.655748320803
 31
0.0
  0
INSERT
  5
144A4
330
141BF
100
AcDbEntity
  8
寸法
 62
     0
 48
50.0
370
    -2
100
AcDbBlockReference
  2
_DOTSMALL
 10
11675.65418477726
 20
3030.602601503322
 30
0.0
 41
75.0
 42
75.0
 43
75.0
 50
90.0
  0
INSERT
  5
144A5
330
141BF
100
AcDbEntity
  8
寸法
 62
     0
 48
50.0
370
    -2
100
AcDbBlockReference
  2
_DOTSMALL
 10
11675.65418477726
 20
2355.655748320803
 30
0.0
 41
75.0
 42
75.0
 43
75.0
 50
270.0
  0
MTEXT
  5
144A6
330
141BF
100
AcDbEntity
  8
寸法
 62
     7
 48
50.0
100
AcDbMText
 10
11600.65418477726
 20
2693.129174912063
 30
0.0
 40
90.0
 41
0.0
 71
     5
 72
     1
  1
\A1;450
  7
STYLE1
 11
0.0000000000000001
 21
1.0
 31
0.0
 73
     1
 44
1.0
1001
ACAD
1000
MTEXTBEGIN
1070
    73
1070
     1
1070
    44
1040
1.0
1070
    74
1070
     0
1000
MTEXTEND
  0
POINT
  5
144A7
330
141BF
100
AcDbEntity
  8
DEFPOINTS
 62
     0
 48
50.0
100
AcDbPoint
 10
11527.45023208723
 20
3030.602601503322
 30
0.0
  0
POINT
  5
144A8
330
141BF
100
AcDbEntity
  8
DEFPOINTS
 62
     0
 48
50.0
100
AcDbPoint
 10
10688.26201330531
 20
2355.655748320804
 30
0.0
  0
POINT
  5
144A9
330
141BF
100
AcDbEntity
  8
DEFPOINTS
 62
     0
 48
50.0
100
AcDbPoint
 10
11675.65418477726
 20
2355.655748320803
 30
0.0
  0
ENDBLK
  5
141CA
330
141BF
100
AcDbEntity
  8
0
 48
50.0
100
AcDbBlockEnd
  0
BLOCK
  5
141D6
330
141CB
100
AcDbEntity
  8
0
 48
50.0
100
AcDbBlockBegin
  2
*D69
 70
     1
 10
0.0
 20
0.0
 30
0.0
  3
*D69
  1

  0
LINE
  5
14497
330
141CB
100
AcDbEntity
  8
寸法
 62
     0
 48
50.0
370
    -2
100
AcDbLine
 10
11400.46480119495
 20
3105.602601503321
 30
0.0
 11
11877.97061363648
 21
3105.602601503321
 31
0.0
  0
LINE
  5
14498
330
141CB
100
AcDbEntity
  8
寸法
 62
     0
 48
50.0
370
    -2
100
AcDbLine
 10
11542.45023208723
 20
3030.602601503322
 30
0.0
 11
11877.97061363648
 21
3030.602601503322
 31
0.0
  0
LINE
  5
14499
330
141CB
100
AcDbEntity
  8
寸法
 62
     0
 48
50.0
370
    -2
100
AcDbLine
 10
11832.97061363648
 20
3030.602601503322
 30
0.0
 11
11832.97061363648
 21
3105.602601503321
 31
0.0
  0
LINE
  5
1449A
330
141CB
100
AcDbEntity
  8
寸法
 62
     0
 48
50.0
370
    -2
100
AcDbLine
 10
11832.97061363648
 20
3105.602601503321
 30
0.0
 11
11832.97061363648
 21
3394.001995604866
 31
0.0
  0
INSERT
  5
1449B
330
141CB
100
AcDbEntity
  8
寸法
 62
     0
 48
50.0
370
    -2
100
AcDbBlockReference
  2
_DOTSMALL
 10
11832.97061363648
 20
3030.602601503322
 30
0.0
 41
75.0
 42
75.0
 43
75.0
 50
270.0
  0
INSERT
  5
1449C
330
141CB
100
AcDbEntity
  8
寸法
 62
     0
 48
50.0
370
    -2
100
AcDbBlockReference
  2
_DOTSMALL
 10
11832.97061363648
 20
3105.602601503321
 30
0.0
 41
75.0
 42
75.0
 43
75.0
 50
90.0
  0
MTEXT
  5
1449D
330
141CB
100
AcDbEntity
  8
寸法
 62
     7
 48
50.0
100
AcDbMText
 10
11757.97061363648
 20
3314.466562534001
 30
0.0
 40
90.0
 41
0.0
 71
     5
 72
     1
  1
\A1;50
  7
STYLE1
 11
0.0000000000000001
 21
1.0
 31
0.0
 73
     1
 44
1.0
1001
ACAD
1000
MTEXTBEGIN
1070
    73
1070
     1
1070
    44
1040
1.0
1070
    74
1070
     0
1000
MTEXTEND
  0
POINT
  5
1449E
330
141CB
100
AcDbEntity
  8
DEFPOINTS
 62
     0
 48
50.0
100
AcDbPoint
 10
11385.46480119495
 20
3105.602601503321
 30
0.0
  0
POINT
  5
1449F
330
141CB
100
AcDbEntity
  8
DEFPOINTS
 62
     0
 48
50.0
100
AcDbPoint
 10
11527.45023208723
 20
3030.602601503322
 30
0.0
  0
POINT
  5
144A0
330
141CB
100
AcDbEntity
  8
DEFPOINTS
 62
     0
 48
50.0
100
AcDbPoint
 10
11832.97061363648
 20
3030.602601503322
 30
0.0
  0
ENDBLK
  5
141D7
330
141CB
100
AcDbEntity
  8
0
 48
50.0
100
AcDbBlockEnd
  0
BLOCK
  5
141E3
330
141D8
100
AcDbEntity
  8
0
 48
50.0
100
AcDbBlockBegin
  2
*D70
 70
     1
 10
0.0
 20
0.0
 30
0.0
  3
*D70
  1

  0
LINE
  5
1448D
330
141D8
100
AcDbEntity
  8
寸法
 62
     0
 48
50.0
370
    -2
100
AcDbLine
 10
9835.119722934351
 20
2955.602601503322
 30
0.0
 11
9614.989387724103
 21
2955.602601503322
 31
0.0
  0
LINE
  5
1448E
330
141D8
100
AcDbEntity
  8
寸法
 62
     0
 48
50.0
370
    -2
100
AcDbLine
 10
9835.119722934351
 20
2805.602601503322
 30
0.0
 11
9614.989387724103
 21
2805.602601503322
 31
0.0
  0
LINE
  5
1448F
330
141D8
100
AcDbEntity
  8
寸法
 62
     0
 48
50.0
370
    -2
100
AcDbLine
 10
9659.989387724102
 20
2955.602601503322
 30
0.0
 11
9659.989387724102
 21
2805.602601503322
 31
0.0
  0
LINE
  5
14490
330
141D8
100
AcDbEntity
  8
寸法
 62
     0
 48
50.0
370
    -2
100
AcDbLine
 10
9659.989387724102
 20
2805.602601503322
 30
0.0
 11
9659.989387724102
 21
2526.531735361587
 31
0.0
  0
INSERT
  5
14491
330
141D8
100
AcDbEntity
  8
寸法
 62
     0
 48
50.0
370
    -2
100
AcDbBlockReference
  2
_DOTSMALL
 10
9659.989387724102
 20
2955.602601503322
 30
0.0
 41
75.0
 42
75.0
 43
75.0
 50
90.0
  0
INSERT
  5
14492
330
141D8
100
AcDbEntity
  8
寸法
 62
     0
 48
50.0
370
    -2
100
AcDbBlockReference
  2
_DOTSMALL
 10
9659.989387724102
 20
2805.602601503322
 30
0.0
 41
75.0
 42
75.0
 43
75.0
 50
270.0
  0
MTEXT
  5
14493
330
141D8
100
AcDbEntity
  8
寸法
 62
     7
 48
50.0
100
AcDbMText
 10
9584.989387724103
 20
2628.567168432456
 30
0.0
 40
90.0
 41
0.0
 71
     5
 72
     1
  1
\A1;100
  7
STYLE1
 11
0.0000000000000001
 21
1.0
 31
0.0
 73
     1
 44
1.0
1001
ACAD
1000
MTEXTBEGIN
1070
    73
1070
     1
1070
    44
1040
1.0
1070
    74
1070
     0
1000
MTEXTEND
  0
POINT
  5
14494
330
141D8
100
AcDbEntity
  8
DEFPOINTS
 62
     0
 48
50.0
100
AcDbPoint
 10
9850.119722934351
 20
2955.602601503322
 30
0.0
  0
POINT
  5
14495
330
141D8
100
AcDbEntity
  8
DEFPOINTS
 62
     0
 48
50.0
100
AcDbPoint
 10
9850.119722934351
 20
2805.602601503322
 30
0.0
  0
POINT
  5
14496
330
141D8
100
AcDbEntity
  8
DEFPOINTS
 62
     0
 48
50.0
100
AcDbPoint
 10
9659.989387724102
 20
2805.602601503322
 30
0.0
  0
ENDBLK
  5
141E4
330
141D8
100
AcDbEntity
  8
0
 48
50.0
100
AcDbBlockEnd
  0
BLOCK
  5
141F0
330
141E5
100
AcDbEntity
  8
0
 48
50.0
100
AcDbBlockBegin
  2
*D71
 70
     1
 10
0.0
 20
0.0
 30
0.0
  3
*D71
  1

  0
LINE
  5
14483
330
141E5
100
AcDbEntity
  8
寸法
 62
     0
 48
50.0
370
    -2
100
AcDbLine
 10
9835.119722934352
 20
3105.602601503321
 30
0.0
 11
9614.989387724103
 21
3105.602601503321
 31
0.0
  0
LINE
  5
14484
330
141E5
100
AcDbEntity
  8
寸法
 62
     0
 48
50.0
370
    -2
100
AcDbLine
 10
9824.877715762568
 20
2955.602601503321
 30
0.0
 11
9614.989387724103
 21
2955.602601503321
 31
0.0
  0
LINE
  5
14485
330
141E5
100
AcDbEntity
  8
寸法
 62
     0
 48
50.0
370
    -2
100
AcDbLine
 10
9659.989387724102
 20
2955.602601503321
 30
0.0
 11
9659.989387724102
 21
3105.602601503321
 31
0.0
  0
LINE
  5
14486
330
141E5
100
AcDbEntity
  8
寸法
 62
     0
 48
50.0
370
    -2
100
AcDbLine
 10
9659.989387724102
 20
3105.602601503321
 30
0.0
 11
9659.989387724102
 21
3384.673467645053
 31
0.0
  0
INSERT
  5
14487
330
141E5
100
AcDbEntity
  8
寸法
 62
     0
 48
50.0
370
    -2
100
AcDbBlockReference
  2
_DOTSMALL
 10
9659.989387724102
 20
2955.602601503321
 30
0.0
 41
75.0
 42
75.0
 43
75.0
 50
270.0
  0
INSERT
  5
14488
330
141E5
100
AcDbEntity
  8
寸法
 62
     0
 48
50.0
370
    -2
100
AcDbBlockReference
  2
_DOTSMALL
 10
9659.989387724102
 20
3105.602601503321
 30
0.0
 41
75.0
 42
75.0
 43
75.0
 50
90.0
  0
MTEXT
  5
14489
330
141E5
100
AcDbEntity
  8
寸法
 62
     7
 48
50.0
100
AcDbMText
 10
9584.989387724103
 20
3282.638034574188
 30
0.0
 40
90.0
 41
0.0
 71
     5
 72
     1
  1
\A1;100
  7
STYLE1
 11
0.0000000000000001
 21
1.0
 31
0.0
 73
     1
 44
1.0
1001
ACAD
1000
MTEXTBEGIN
1070
    73
1070
     1
1070
    44
1040
1.0
1070
    74
1070
     0
1000
MTEXTEND
  0
POINT
  5
1448A
330
141E5
100
AcDbEntity
  8
DEFPOINTS
 62
     0
 48
50.0
100
AcDbPoint
 10
9850.119722934353
 20
3105.602601503321
 30
0.0
  0
POINT
  5
1448B
330
141E5
100
AcDbEntity
  8
DEFPOINTS
 62
     0
 48
50.0
100
AcDbPoint
 10
9839.877715762568
 20
2955.602601503321
 30
0.0
  0
POINT
  5
1448C
330
141E5
100
AcDbEntity
  8
DEFPOINTS
 62
     0
 48
50.0
100
AcDbPoint
 10
9659.989387724102
 20
2955.602601503321
 30
0.0
  0
ENDBLK
  5
141F1
330
141E5
100
AcDbEntity
  8
0
 48
50.0
100
AcDbBlockEnd
  0
BLOCK
  5
141FC
330
141F2
100
AcDbEntity
  8
0
 48
50.0
100
AcDbBlockBegin
  2
*D72
 70
     1
 10
0.0
 20
0.0
 30
0.0
  3
*D72
  1

  0
LINE
  5
1447A
330
141F2
100
AcDbEntity
  8
寸法
 62
     0
 48
50.0
370
    -2
100
AcDbLine
 10
10123.26201330531
 20
1990.155748320804
 30
0.0
 11
10123.26201330531
 21
1708.10567576239
 31
0.0
  0
LINE
  5
1447B
330
141F2
100
AcDbEntity
  8
寸法
 62
     0
 48
50.0
370
    -2
100
AcDbLine
 10
11173.26201330531
 20
1990.155748320804
 30
0.0
 11
11173.26201330531
 21
1708.10567576239
 31
0.0
  0
LINE
  5
1447C
330
141F2
100
AcDbEntity
  8
寸法
 62
     0
 48
50.0
370
    -2
100
AcDbLine
 10
10123.26201330531
 20
1753.10567576239
 30
0.0
 11
11173.26201330531
 21
1753.10567576239
 31
0.0
  0
INSERT
  5
1447D
330
141F2
100
AcDbEntity
  8
寸法
 62
     0
 48
50.0
370
    -2
100
AcDbBlockReference
  2
_DOTSMALL
 10
10123.26201330531
 20
1753.10567576239
 30
0.0
 41
75.0
 42
75.0
 43
75.0
 50
180.0
  0
INSERT
  5
1447E
330
141F2
100
AcDbEntity
  8
寸法
 62
     0
 48
50.0
370
    -2
100
AcDbBlockReference
  2
_DOTSMALL
 10
11173.26201330531
 20
1753.10567576239
 30
0.0
 41
75.0
 42
75.0
 43
75.0
  0
MTEXT
  5
1447F
330
141F2
100
AcDbEntity
  8
寸法
 62
     7
 48
50.0
100
AcDbMText
 10
10648.26201330531
 20
1828.10567576239
 30
0.0
 40
90.0
 41
0.0
 71
     5
 72
     1
  1
\A1;700
  7
STYLE1
 73
     1
 44
1.0
1001
ACAD
1000
MTEXTBEGIN
1070
    73
1070
     1
1070
    44
1040
1.0
1070
    74
1070
     0
1000
MTEXTEND
  0
POINT
  5
14480
330
141F2
100
AcDbEntity
  8
DEFPOINTS
 62
     0
 48
50.0
100
AcDbPoint
 10
10123.26201330531
 20
2005.155748320804
 30
0.0
  0
POINT
  5
14481
330
141F2
100
AcDbEntity
  8
DEFPOINTS
 62
     0
 48
50.0
100
AcDbPoint
 10
11173.26201330531
 20
2005.155748320804
 30
0.0
  0
POINT
  5
14482
330
141F2
100
AcDbEntity
  8
DEFPOINTS
 62
     0
 48
50.0
100
AcDbPoint
 10
11173.26201330531
 20
1753.10567576239
 30
0.0
  0
ENDBLK
  5
141FD
330
141F2
100
AcDbEntity
  8
0
 48
50.0
100
AcDbBlockEnd
  0
BLOCK
  5
14208
330
141FE
100
AcDbEntity
  8
0
 48
50.0
100
AcDbBlockBegin
  2
*D73
 70
     1
 10
0.0
 20
0.0
 30
0.0
  3
*D73
  1

  0
LINE
  5
14471
330
141FE
100
AcDbEntity
  8
寸法
 62
     0
 48
50.0
370
    -2
100
AcDbLine
 10
10123.26201330532
 20
5271.136281726281
 30
0.0
 11
10123.26201330532
 21
4821.188069236652
 31
0.0
  0
LINE
  5
14472
330
141FE
100
AcDbEntity
  8
寸法
 62
     0
 48
50.0
370
    -2
100
AcDbLine
 10
11173.26201330532
 20
5271.136281726281
 30
0.0
 11
11173.26201330532
 21
4821.188069236652
 31
0.0
  0
LINE
  5
14473
330
141FE
100
AcDbEntity
  8
寸法
 62
     0
 48
50.0
370
    -2
100
AcDbLine
 10
10123.26201330532
 20
4866.188069236653
 30
0.0
 11
11173.26201330532
 21
4866.188069236653
 31
0.0
  0
INSERT
  5
14474
330
141FE
100
AcDbEntity
  8
寸法
 62
     0
 48
50.0
370
    -2
100
AcDbBlockReference
  2
_DOTSMALL
 10
10123.26201330532
 20
4866.188069236653
 30
0.0
 41
75.0
 42
75.0
 43
75.0
 50
180.0
  0
INSERT
  5
14475
330
141FE
100
AcDbEntity
  8
寸法
 62
     0
 48
50.0
370
    -2
100
AcDbBlockReference
  2
_DOTSMALL
 10
11173.26201330532
 20
4866.188069236653
 30
0.0
 41
75.0
 42
75.0
 43
75.0
  0
MTEXT
  5
14476
330
141FE
100
AcDbEntity
  8
寸法
 62
     7
 48
50.0
100
AcDbMText
 10
10648.26201330532
 20
4941.188069236652
 30
0.0
 40
90.0
 41
0.0
 71
     5
 72
     1
  1
\A1;700
  7
STYLE1
 73
     1
 44
1.0
1001
ACAD
1000
MTEXTBEGIN
1070
    73
1070
     1
1070
    44
1040
1.0
1070
    74
1070
     0
1000
MTEXTEND
  0
POINT
  5
14477
330
141FE
100
AcDbEntity
  8
DEFPOINTS
 62
     0
 48
50.0
100
AcDbPoint
 10
10123.26201330532
 20
5286.136281726282
 30
0.0
  0
POINT
  5
14478
330
141FE
100
AcDbEntity
  8
DEFPOINTS
 62
     0
 48
50.0
100
AcDbPoint
 10
11173.26201330532
 20
5286.136281726282
 30
0.0
  0
POINT
  5
14479
330
141FE
100
AcDbEntity
  8
DEFPOINTS
 62
     0
 48
50.0
100
AcDbPoint
 10
11173.26201330532
 20
4866.188069236653
 30
0.0
  0
ENDBLK
  5
14209
330
141FE
100
AcDbEntity
  8
0
 48
50.0
100
AcDbBlockEnd
  0
BLOCK
  5
14215
330
1420A
100
AcDbEntity
  8
0
 48
50.0
100
AcDbBlockBegin
  2
*D74
 70
     1
 10
0.0
 20
0.0
 30
0.0
  3
*D74
  1

  0
LINE
  5
14467
330
1420A
100
AcDbEntity
  8
寸法
 62
     0
 48
50.0
370
    -2
100
AcDbLine
 10
9835.119722934358
 20
6386.583134908798
 30
0.0
 11
9326.751177226885
 21
6386.583134908798
 31
0.0
  0
LINE
  5
14468
330
1420A
100
AcDbEntity
  8
寸法
 62
     0
 48
50.0
370
    -2
100
AcDbLine
 10
9824.877715762575
 20
6236.583134908798
 30
0.0
 11
9326.751177226885
 21
6236.583134908798
 31
0.0
  0
LINE
  5
14469
330
1420A
100
AcDbEntity
  8
寸法
 62
     0
 48
50.0
370
    -2
100
AcDbLine
 10
9371.751177226885
 20
6236.583134908798
 30
0.0
 11
9371.751177226885
 21
6386.583134908798
 31
0.0
  0
LINE
  5
1446A
330
1420A
100
AcDbEntity
  8
寸法
 62
     0
 48
50.0
370
    -2
100
AcDbLine
 10
9371.751177226885
 20
6386.583134908798
 30
0.0
 11
9371.751177226885
 21
6691.919595481988
 31
0.0
  0
INSERT
  5
1446B
330
1420A
100
AcDbEntity
  8
寸法
 62
     0
 48
50.0
370
    -2
100
AcDbBlockReference
  2
_DOTSMALL
 10
9371.751177226885
 20
6236.583134908798
 30
0.0
 41
75.0
 42
75.0
 43
75.0
 50
270.0
  0
INSERT
  5
1446C
330
1420A
100
AcDbEntity
  8
寸法
 62
     0
 48
50.0
370
    -2
100
AcDbBlockReference
  2
_DOTSMALL
 10
9371.751177226885
 20
6386.583134908798
 30
0.0
 41
75.0
 42
75.0
 43
75.0
 50
90.0
  0
MTEXT
  5
1446D
330
1420A
100
AcDbEntity
  8
寸法
 62
     7
 48
50.0
100
AcDbMText
 10
9296.751177226882
 20
6589.884162411124
 30
0.0
 40
90.0
 41
0.0
 71
     5
 72
     1
  1
\A1;100
  7
STYLE1
 11
0.0000000000000001
 21
1.0
 31
0.0
 73
     1
 44
1.0
1001
ACAD
1000
MTEXTBEGIN
1070
    73
1070
     1
1070
    44
1040
1.0
1070
    74
1070
     0
1000
MTEXTEND
  0
POINT
  5
1446E
330
1420A
100
AcDbEntity
  8
DEFPOINTS
 62
     0
 48
50.0
100
AcDbPoint
 10
9850.119722934358
 20
6386.583134908798
 30
0.0
  0
POINT
  5
1446F
330
1420A
100
AcDbEntity
  8
DEFPOINTS
 62
     0
 48
50.0
100
AcDbPoint
 10
9839.877715762575
 20
6236.583134908798
 30
0.0
  0
POINT
  5
14470
330
1420A
100
AcDbEntity
  8
DEFPOINTS
 62
     0
 48
50.0
100
AcDbPoint
 10
9371.751177226885
 20
6236.583134908798
 30
0.0
  0
ENDBLK
  5
14216
330
1420A
100
AcDbEntity
  8
0
 48
50.0
100
AcDbBlockEnd
  0
BLOCK
  5
14222
330
14217
100
AcDbEntity
  8
0
 48
50.0
100
AcDbBlockBegin
  2
*D75
 70
     1
 10
0.0
 20
0.0
 30
0.0
  3
*D75
  1

  0
LINE
  5
1445D
330
14217
100
AcDbEntity
  8
寸法
 62
     0
 48
50.0
370
    -2
100
AcDbLine
 10
9835.119722934358
 20
6236.583134908801
 30
0.0
 11
9326.751177226885
 21
6236.583134908801
 31
0.0
  0
LINE
  5
1445E
330
14217
100
AcDbEntity
  8
寸法
 62
     0
 48
50.0
370
    -2
100
AcDbLine
 10
9835.119722934358
 20
6086.5831349088
 30
0.0
 11
9326.751177226885
 21
6086.5831349088
 31
0.0
  0
LINE
  5
1445F
330
14217
100
AcDbEntity
  8
寸法
 62
     0
 48
50.0
370
    -2
100
AcDbLine
 10
9371.751177226885
 20
6236.583134908801
 30
0.0
 11
9371.751177226885
 21
6086.5831349088
 31
0.0
  0
LINE
  5
14460
330
14217
100
AcDbEntity
  8
寸法
 62
     0
 48
50.0
370
    -2
100
AcDbLine
 10
9371.751177226885
 20
6086.5831349088
 30
0.0
 11
9371.751177226885
 21
5807.512268767066
 31
0.0
  0
INSERT
  5
14461
330
14217
100
AcDbEntity
  8
寸法
 62
     0
 48
50.0
370
    -2
100
AcDbBlockReference
  2
_DOTSMALL
 10
9371.751177226885
 20
6236.583134908801
 30
0.0
 41
75.0
 42
75.0
 43
75.0
 50
90.0
  0
INSERT
  5
14462
330
14217
100
AcDbEntity
  8
寸法
 62
     0
 48
50.0
370
    -2
100
AcDbBlockReference
  2
_DOTSMALL
 10
9371.751177226885
 20
6086.5831349088
 30
0.0
 41
75.0
 42
75.0
 43
75.0
 50
270.0
  0
MTEXT
  5
14463
330
14217
100
AcDbEntity
  8
寸法
 62
     7
 48
50.0
100
AcDbMText
 10
9296.751177226882
 20
5909.547701837933
 30
0.0
 40
90.0
 41
0.0
 71
     5
 72
     1
  1
\A1;100
  7
STYLE1
 11
0.0000000000000001
 21
1.0
 31
0.0
 73
     1
 44
1.0
1001
ACAD
1000
MTEXTBEGIN
1070
    73
1070
     1
1070
    44
1040
1.0
1070
    74
1070
     0
1000
MTEXTEND
  0
POINT
  5
14464
330
14217
100
AcDbEntity
  8
DEFPOINTS
 62
     0
 48
50.0
100
AcDbPoint
 10
9850.119722934357
 20
6236.583134908801
 30
0.0
  0
POINT
  5
14465
330
14217
100
AcDbEntity
  8
DEFPOINTS
 62
     0
 48
50.0
100
AcDbPoint
 10
9850.119722934357
 20
6086.5831349088
 30
0.0
  0
POINT
  5
14466
330
14217
100
AcDbEntity
  8
DEFPOINTS
 62
     0
 48
50.0
100
AcDbPoint
 10
9371.751177226885
 20
6086.5831349088
 30
0.0
  0
ENDBLK
  5
14223
330
14217
100
AcDbEntity
  8
0
 48
50.0
100
AcDbBlockEnd
  0
BLOCK
  5
1422F
330
14224
100
AcDbEntity
  8
0
 48
50.0
100
AcDbBlockBegin
  2
*D76
 70
     1
 10
0.0
 20
0.0
 30
0.0
  3
*D76
  1

  0
LINE
  5
14453
330
14224
100
AcDbEntity
  8
寸法
 62
     0
 48
50.0
370
    -2
100
AcDbLine
 10
11400.46480119496
 20
6386.583134908798
 30
0.0
 11
11877.97061363648
 21
6386.583134908798
 31
0.0
  0
LINE
  5
14454
330
14224
100
AcDbEntity
  8
寸法
 62
     0
 48
50.0
370
    -2
100
AcDbLine
 10
11542.45023208724
 20
6311.583134908801
 30
0.0
 11
11877.97061363648
 21
6311.583134908801
 31
0.0
  0
LINE
  5
14455
330
14224
100
AcDbEntity
  8
寸法
 62
     0
 48
50.0
370
    -2
100
AcDbLine
 10
11832.97061363648
 20
6311.583134908801
 30
0.0
 11
11832.97061363648
 21
6386.583134908798
 31
0.0
  0
LINE
  5
14456
330
14224
100
AcDbEntity
  8
寸法
 62
     0
 48
50.0
370
    -2
100
AcDbLine
 10
11832.97061363648
 20
6386.583134908798
 30
0.0
 11
11832.97061363648
 21
6674.982529010343
 31
0.0
  0
INSERT
  5
14457
330
14224
100
AcDbEntity
  8
寸法
 62
     0
 48
50.0
370
    -2
100
AcDbBlockReference
  2
_DOTSMALL
 10
11832.97061363648
 20
6311.583134908801
 30
0.0
 41
75.0
 42
75.0
 43
75.0
 50
270.0
  0
INSERT
  5
14458
330
14224
100
AcDbEntity
  8
寸法
 62
     0
 48
50.0
370
    -2
100
AcDbBlockReference
  2
_DOTSMALL
 10
11832.97061363648
 20
6386.583134908798
 30
0.0
 41
75.0
 42
75.0
 43
75.0
 50
90.0
  0
MTEXT
  5
14459
330
14224
100
AcDbEntity
  8
寸法
 62
     7
 48
50.0
100
AcDbMText
 10
11757.97061363648
 20
6595.44709593948
 30
0.0
 40
90.0
 41
0.0
 71
     5
 72
     1
  1
\A1;50
  7
STYLE1
 11
0.0000000000000001
 21
1.0
 31
0.0
 73
     1
 44
1.0
1001
ACAD
1000
MTEXTBEGIN
1070
    73
1070
     1
1070
    44
1040
1.0
1070
    74
1070
     0
1000
MTEXTEND
  0
POINT
  5
1445A
330
14224
100
AcDbEntity
  8
DEFPOINTS
 62
     0
 48
50.0
100
AcDbPoint
 10
11385.46480119496
 20
6386.583134908798
 30
0.0
  0
POINT
  5
1445B
330
14224
100
AcDbEntity
  8
DEFPOINTS
 62
     0
 48
50.0
100
AcDbPoint
 10
11527.45023208724
 20
6311.583134908801
 30
0.0
  0
POINT
  5
1445C
330
14224
100
AcDbEntity
  8
DEFPOINTS
 62
     0
 48
50.0
100
AcDbPoint
 10
11832.97061363648
 20
6311.583134908801
 30
0.0
  0
ENDBLK
  5
14230
330
14224
100
AcDbEntity
  8
0
 48
50.0
100
AcDbBlockEnd
  0
BLOCK
  5
1423B
330
14231
100
AcDbEntity
  8
0
 48
50.0
100
AcDbBlockBegin
  2
*D77
 70
     1
 10
0.0
 20
0.0
 30
0.0
  3
*D77
  1

  0
LINE
  5
1444A
330
14231
100
AcDbEntity
  8
寸法
 62
     0
 48
50.0
370
    -2
100
AcDbLine
 10
11542.45023208724
 20
6311.583134908801
 30
0.0
 11
11877.97061363649
 21
6311.583134908801
 31
0.0
  0
LINE
  5
1444B
330
14231
100
AcDbEntity
  8
寸法
 62
     0
 48
50.0
370
    -2
100
AcDbLine
 10
11582.95857172978
 20
6086.5831349088
 30
0.0
 11
11877.97061363649
 21
6086.5831349088
 31
0.0
  0
LINE
  5
1444C
330
14231
100
AcDbEntity
  8
寸法
 62
     0
 48
50.0
370
    -2
100
AcDbLine
 10
11832.97061363649
 20
6311.583134908801
 30
0.0
 11
11832.97061363649
 21
6086.5831349088
 31
0.0
  0
INSERT
  5
1444D
330
14231
100
AcDbEntity
  8
寸法
 62
     0
 48
50.0
370
    -2
100
AcDbBlockReference
  2
_DOTSMALL
 10
11832.97061363649
 20
6311.583134908801
 30
0.0
 41
75.0
 42
75.0
 43
75.0
 50
90.0
  0
INSERT
  5
1444E
330
14231
100
AcDbEntity
  8
寸法
 62
     0
 48
50.0
370
    -2
100
AcDbBlockReference
  2
_DOTSMALL
 10
11832.97061363649
 20
6086.5831349088
 30
0.0
 41
75.0
 42
75.0
 43
75.0
 50
270.0
  0
MTEXT
  5
1444F
330
14231
100
AcDbEntity
  8
寸法
 62
     7
 48
50.0
100
AcDbMText
 10
11757.97061363648
 20
6199.0831349088
 30
0.0
 40
90.0
 41
0.0
 71
     5
 72
     1
  1
\A1;150
  7
STYLE1
 11
0.0000000000000001
 21
1.0
 31
0.0
 73
     1
 44
1.0
1001
ACAD
1000
MTEXTBEGIN
1070
    73
1070
     1
1070
    44
1040
1.0
1070
    74
1070
     0
1000
MTEXTEND
  0
POINT
  5
14450
330
14231
100
AcDbEntity
  8
DEFPOINTS
 62
     0
 48
50.0
100
AcDbPoint
 10
11527.45023208724
 20
6311.583134908801
 30
0.0
  0
POINT
  5
14451
330
14231
100
AcDbEntity
  8
DEFPOINTS
 62
     0
 48
50.0
100
AcDbPoint
 10
11567.95857172978
 20
6086.5831349088
 30
0.0
  0
POINT
  5
14452
330
14231
100
AcDbEntity
  8
DEFPOINTS
 62
     0
 48
50.0
100
AcDbPoint
 10
11832.97061363649
 20
6086.5831349088
 30
0.0
  0
ENDBLK
  5
1423C
330
14231
100
AcDbEntity
  8
0
 48
50.0
100
AcDbBlockEnd
  0
BLOCK
  5
14247
330
1423D
100
AcDbEntity
  8
0
 48
50.0
100
AcDbBlockBegin
  2
*D78
 70
     1
 10
0.0
 20
0.0
 30
0.0
  3
*D78
  1

  0
LINE
  5
14441
330
1423D
100
AcDbEntity
  8
寸法
 62
     0
 48
50.0
370
    -2
100
AcDbLine
 10
11582.95857172978
 20
6086.5831349088
 30
0.0
 11
11877.97061363648
 21
6086.5831349088
 31
0.0
  0
LINE
  5
14442
330
1423D
100
AcDbEntity
  8
寸法
 62
     0
 48
50.0
370
    -2
100
AcDbLine
 10
11308.26201330532
 20
5487.136281726282
 30
0.0
 11
11877.97061363648
 21
5487.136281726282
 31
0.0
  0
LINE
  5
14443
330
1423D
100
AcDbEntity
  8
寸法
 62
     0
 48
50.0
370
    -2
100
AcDbLine
 10
11832.97061363648
 20
6086.5831349088
 30
0.0
 11
11832.97061363648
 21
5487.136281726282
 31
0.0
  0
INSERT
  5
14444
330
1423D
100
AcDbEntity
  8
寸法
 62
     0
 48
50.0
370
    -2
100
AcDbBlockReference
  2
_DOTSMALL
 10
11832.97061363648
 20
6086.5831349088
 30
0.0
 41
75.0
 42
75.0
 43
75.0
 50
90.0
  0
INSERT
  5
14445
330
1423D
100
AcDbEntity
  8
寸法
 62
     0
 48
50.0
370
    -2
100
AcDbBlockReference
  2
_DOTSMALL
 10
11832.97061363648
 20
5487.136281726282
 30
0.0
 41
75.0
 42
75.0
 43
75.0
 50
270.0
  0
MTEXT
  5
14446
330
1423D
100
AcDbEntity
  8
寸法
 62
     7
 48
50.0
100
AcDbMText
 10
11757.97061363648
 20
5786.859708317543
 30
0.0
 40
90.0
 41
0.0
 71
     5
 72
     1
  1
\A1;400
  7
STYLE1
 11
0.0000000000000001
 21
1.0
 31
0.0
 73
     1
 44
1.0
1001
ACAD
1000
MTEXTBEGIN
1070
    73
1070
     1
1070
    44
1040
1.0
1070
    74
1070
     0
1000
MTEXTEND
  0
POINT
  5
14447
330
1423D
100
AcDbEntity
  8
DEFPOINTS
 62
     0
 48
50.0
100
AcDbPoint
 10
11567.95857172978
 20
6086.5831349088
 30
0.0
  0
POINT
  5
14448
330
1423D
100
AcDbEntity
  8
DEFPOINTS
 62
     0
 48
50.0
100
AcDbPoint
 10
11293.26201330532
 20
5487.136281726282
 30
0.0
  0
POINT
  5
14449
330
1423D
100
AcDbEntity
  8
DEFPOINTS
 62
     0
 48
50.0
100
AcDbPoint
 10
11832.97061363648
 20
5487.136281726282
 30
0.0
  0
ENDBLK
  5
14248
330
1423D
100
AcDbEntity
  8
0
 48
50.0
100
AcDbBlockEnd
  0
BLOCK
  5
14254
330
14249
100
AcDbEntity
  8
0
 48
50.0
100
AcDbBlockBegin
  2
*D79
 70
     1
 10
0.0
 20
0.0
 30
0.0
  3
*D79
  1

  0
LINE
  5
14437
330
14249
100
AcDbEntity
  8
寸法
 62
     0
 48
50.0
370
    -2
100
AcDbLine
 10
11308.26201330532
 20
5487.136281726282
 30
0.0
 11
11877.97061363648
 21
5487.136281726282
 31
0.0
  0
LINE
  5
14438
330
14249
100
AcDbEntity
  8
寸法
 62
     0
 48
50.0
370
    -2
100
AcDbLine
 10
11308.26201330532
 20
5412.136281726282
 30
0.0
 11
11877.97061363648
 21
5412.136281726282
 31
0.0
  0
LINE
  5
14439
330
14249
100
AcDbEntity
  8
寸法
 62
     0
 48
50.0
370
    -2
100
AcDbLine
 10
11832.97061363648
 20
5487.136281726282
 30
0.0
 11
11832.97061363648
 21
5412.136281726282
 31
0.0
  0
LINE
  5
1443A
330
14249
100
AcDbEntity
  8
寸法
 62
     0
 48
50.0
370
    -2
100
AcDbLine
 10
11832.97061363648
 20
5412.136281726282
 30
0.0
 11
11832.97061363648
 21
5152.898191175101
 31
0.0
  0
INSERT
  5
1443B
330
14249
100
AcDbEntity
  8
寸法
 62
     0
 48
50.0
370
    -2
100
AcDbBlockReference
  2
_DOTSMALL
 10
11832.97061363648
 20
5487.136281726282
 30
0.0
 41
75.0
 42
75.0
 43
75.0
 50
90.0
  0
INSERT
  5
1443C
330
14249
100
AcDbEntity
  8
寸法
 62
     0
 48
50.0
370
    -2
100
AcDbBlockReference
  2
_DOTSMALL
 10
11832.97061363648
 20
5412.136281726282
 30
0.0
 41
75.0
 42
75.0
 43
75.0
 50
270.0
  0
MTEXT
  5
1443D
330
14249
100
AcDbEntity
  8
寸法
 62
     7
 48
50.0
100
AcDbMText
 10
11757.97061363648
 20
5232.433624245969
 30
0.0
 40
90.0
 41
0.0
 71
     5
 72
     1
  1
\A1;50
  7
STYLE1
 11
0.0000000000000001
 21
1.0
 31
0.0
 73
     1
 44
1.0
1001
ACAD
1000
MTEXTBEGIN
1070
    73
1070
     1
1070
    44
1040
1.0
1070
    74
1070
     0
1000
MTEXTEND
  0
POINT
  5
1443E
330
14249
100
AcDbEntity
  8
DEFPOINTS
 62
     0
 48
50.0
100
AcDbPoint
 10
11293.26201330532
 20
5487.136281726282
 30
0.0
  0
POINT
  5
1443F
330
14249
100
AcDbEntity
  8
DEFPOINTS
 62
     0
 48
50.0
100
AcDbPoint
 10
11293.26201330532
 20
5412.136281726282
 30
0.0
  0
POINT
  5
14440
330
14249
100
AcDbEntity
  8
DEFPOINTS
 62
     0
 48
50.0
100
AcDbPoint
 10
11832.97061363648
 20
5412.136281726282
 30
0.0
  0
ENDBLK
  5
14255
330
14249
100
AcDbEntity
  8
0
 48
50.0
100
AcDbBlockEnd
  0
BLOCK
  5
14262
330
14256
100
AcDbEntity
  8
0
 48
50.0
100
AcDbBlockBegin
  2
*D80
 70
     1
 10
0.0
 20
0.0
 30
0.0
  3
*D80
  1

  0
LINE
  5
1442C
330
14256
100
AcDbEntity
  8
寸法
 62
     0
 48
50.0
370
    -2
100
AcDbLine
 10
9835.119722934358
 20
6086.583134908799
 30
0.0
 11
9692.80052164788
 21
6086.583134908799
 31
0.0
  0
LINE
  5
1442D
330
14256
100
AcDbEntity
  8
寸法
 62
     0
 48
50.0
370
    -2
100
AcDbLine
 10
10445.76201330532
 20
6131.583134908797
 30
0.0
 11
9692.80052164788
 21
6131.583134908798
 31
0.0
  0
LINE
  5
1442E
330
14256
100
AcDbEntity
  8
寸法
 62
     0
 48
50.0
370
    -2
100
AcDbLine
 10
9737.80052164788
 20
6131.583134908798
 30
0.0
 11
9737.80052164788
 21
6206.583134908798
 31
0.0
  0
LINE
  5
1442F
330
14256
100
AcDbEntity
  8
寸法
 62
     0
 48
50.0
370
    -2
100
AcDbLine
 10
9737.80052164788
 20
6086.583134908799
 30
0.0
 11
9737.80052164788
 21
5777.512268767066
 31
0.0
  0
LINE
  5
14430
330
14256
100
AcDbEntity
  8
寸法
 62
     0
 48
50.0
370
    -2
100
AcDbLine
 10
9737.80052164788
 20
6131.583134908798
 30
0.0
 11
9737.80052164788
 21
6086.583134908799
 31
0.0
  0
INSERT
  5
14431
330
14256
100
AcDbEntity
  8
寸法
 62
     0
 48
50.0
370
    -2
100
AcDbBlockReference
  2
_DOTSMALL
 10
9737.80052164788
 20
6131.583134908798
 30
0.0
 41
75.0
 42
75.0
 43
75.0
 50
270.0
  0
INSERT
  5
14432
330
14256
100
AcDbEntity
  8
寸法
 62
     0
 48
50.0
370
    -2
100
AcDbBlockReference
  2
_DOTSMALL
 10
9737.80052164788
 20
6086.583134908799
 30
0.0
 41
75.0
 42
75.0
 43
75.0
 50
90.0
  0
MTEXT
  5
14433
330
14256
100
AcDbEntity
  8
寸法
 62
     7
 48
50.0
100
AcDbMText
 10
9662.800521647879
 20
5857.047701837933
 30
0.0
 40
90.0
 41
0.0
 71
     5
 72
     1
  1
\A1;30
  7
STYLE1
 11
0.0000000000000001
 21
1.0
 31
0.0
 73
     1
 44
1.0
1001
ACAD
1000
MTEXTBEGIN
1070
    73
1070
     1
1070
    44
1040
1.0
1070
    74
1070
     0
1000
MTEXTEND
  0
POINT
  5
14434
330
14256
100
AcDbEntity
  8
DEFPOINTS
 62
     0
 48
50.0
100
AcDbPoint
 10
9850.119722934357
 20
6086.583134908799
 30
0.0
  0
POINT
  5
14435
330
14256
100
AcDbEntity
  8
DEFPOINTS
 62
     0
 48
50.0
100
AcDbPoint
 10
10460.76201330532
 20
6131.583134908797
 30
0.0
  0
POINT
  5
14436
330
14256
100
AcDbEntity
  8
DEFPOINTS
 62
     0
 48
50.0
100
AcDbPoint
 10
9737.80052164788
 20
6131.583134908798
 30
0.0
  0
ENDBLK
  5
14263
330
14256
100
AcDbEntity
  8
0
 48
50.0
100
AcDbBlockEnd
  0
BLOCK
  5
1426F
330
14264
100
AcDbEntity
  8
0
 48
50.0
100
AcDbBlockBegin
  2
*D81
 70
     1
 10
0.0
 20
0.0
 30
0.0
  3
*D81
  1

  0
LINE
  5
14505
330
14264
100
AcDbEntity
  8
寸法
 62
     0
 48
50.0
370
    -2
100
AcDbLine
 10
9835.119722934358
 20
6086.5831349088
 30
0.0
 11
9506.999618254633
 21
6086.5831349088
 31
0.0
  0
LINE
  5
14506
330
14264
100
AcDbEntity
  8
寸法
 62
     0
 48
50.0
370
    -2
100
AcDbLine
 10
10474.26201330531
 20
6176.083134908798
 30
0.0
 11
9506.999618254633
 21
6176.083134908799
 31
0.0
  0
LINE
  5
14507
330
14264
100
AcDbEntity
  8
寸法
 62
     0
 48
50.0
370
    -2
100
AcDbLine
 10
9551.999618254633
 20
6176.083134908799
 30
0.0
 11
9551.999618254633
 21
6086.5831349088
 31
0.0
  0
LINE
  5
14508
330
14264
100
AcDbEntity
  8
寸法
 62
     0
 48
50.0
370
    -2
100
AcDbLine
 10
9551.999618254633
 20
6086.5831349088
 30
0.0
 11
9551.999618254633
 21
5847.126441995412
 31
0.0
  0
INSERT
  5
14509
330
14264
100
AcDbEntity
  8
寸法
 62
     0
 48
50.0
370
    -2
100
AcDbBlockReference
  2
_DOTSMALL
 10
9551.999618254633
 20
6176.083134908799
 30
0.0
 41
75.0
 42
75.0
 43
75.0
 50
90.0
  0
INSERT
  5
1450A
330
14264
100
AcDbEntity
  8
寸法
 62
     0
 48
50.0
370
    -2
100
AcDbBlockReference
  2
_DOTSMALL
 10
9551.999618254633
 20
6086.5831349088
 30
0.0
 41
75.0
 42
75.0
 43
75.0
 50
270.0
  0
MTEXT
  5
1450B
330
14264
100
AcDbEntity
  8
寸法
 62
     7
 48
50.0
100
AcDbMText
 10
9476.99961825463
 20
5929.354788452107
 30
0.0
 40
90.0
 41
0.0
 71
     5
 72
     1
  1
\A1;60
  7
STYLE1
 11
0.0000000000000001
 21
1.0
 31
0.0
 73
     1
 44
1.0
1001
ACAD
1000
MTEXTBEGIN
1070
    73
1070
     1
1070
    44
1040
1.0
1070
    74
1070
     0
1000
MTEXTEND
  0
POINT
  5
1450C
330
14264
100
AcDbEntity
  8
DEFPOINTS
 62
     0
 48
50.0
100
AcDbPoint
 10
9850.119722934357
 20
6086.5831349088
 30
0.0
  0
POINT
  5
1450D
330
14264
100
AcDbEntity
  8
DEFPOINTS
 62
     0
 48
50.0
100
AcDbPoint
 10
10489.26201330532
 20
6176.083134908798
 30
0.0
  0
POINT
  5
1450E
330
14264
100
AcDbEntity
  8
DEFPOINTS
 62
     0
 48
50.0
100
AcDbPoint
 10
9551.999618254633
 20
6176.083134908799
 30
0.0
  0
ENDBLK
  5
14270
330
14264
100
AcDbEntity
  8
0
 48
50.0
100
AcDbBlockEnd
  0
BLOCK
  5
1427B
330
14271
100
AcDbEntity
  8
0
 48
50.0
100
AcDbBlockBegin
  2
*D82
 70
     1
 10
0.0
 20
0.0
 30
0.0
  3
*D82
  1

  0
LINE
  5
14419
330
14271
100
AcDbEntity
  8
寸法
 62
     0
 48
50.0
370
    -2
100
AcDbLine
 10
11173.26201330532
 20
5271.136281726281
 30
0.0
 11
11173.26201330532
 21
4986.598783490083
 31
0.0
  0
LINE
  5
1441A
330
14271
100
AcDbEntity
  8
寸法
 62
     0
 48
50.0
370
    -2
100
AcDbLine
 10
10798.26201330531
 20
5271.136281726281
 30
0.0
 11
10798.26201330531
 21
4986.598783490083
 31
0.0
  0
LINE
  5
1441B
330
14271
100
AcDbEntity
  8
寸法
 62
     0
 48
50.0
370
    -2
100
AcDbLine
 10
11173.26201330532
 20
5031.598783490082
 30
0.0
 11
10798.26201330531
 21
5031.598783490082
 31
0.0
  0
INSERT
  5
1441C
330
14271
100
AcDbEntity
  8
寸法
 62
     0
 48
50.0
370
    -2
100
AcDbBlockReference
  2
_DOTSMALL
 10
11173.26201330532
 20
5031.598783490082
 30
0.0
 41
75.0
 42
75.0
 43
75.0
  0
INSERT
  5
1441D
330
14271
100
AcDbEntity
  8
寸法
 62
     0
 48
50.0
370
    -2
100
AcDbBlockReference
  2
_DOTSMALL
 10
10798.26201330531
 20
5031.598783490082
 30
0.0
 41
75.0
 42
75.0
 43
75.0
 50
180.0
  0
MTEXT
  5
1441E
330
14271
100
AcDbEntity
  8
寸法
 62
     7
 48
50.0
100
AcDbMText
 10
10985.76201330532
 20
5106.607641757799
 30
0.0
 40
90.0
 41
0.0
 71
     5
 72
     1
  1
\A1;250
  7
STYLE1
 73
     1
 44
1.0
1001
ACAD
1000
MTEXTBEGIN
1070
    73
1070
     1
1070
    44
1040
1.0
1070
    74
1070
     0
1000
MTEXTEND
  0
POINT
  5
1441F
330
14271
100
AcDbEntity
  8
DEFPOINTS
 62
     0
 48
50.0
100
AcDbPoint
 10
11173.26201330532
 20
5286.136281726282
 30
0.0
  0
POINT
  5
14420
330
14271
100
AcDbEntity
  8
DEFPOINTS
 62
     0
 48
50.0
100
AcDbPoint
 10
10798.26201330531
 20
5286.136281726282
 30
0.0
  0
POINT
  5
14421
330
14271
100
AcDbEntity
  8
DEFPOINTS
 62
     0
 48
50.0
100
AcDbPoint
 10
10798.26201330531
 20
5031.598783490082
 30
0.0
  0
ENDBLK
  5
1427C
330
14271
100
AcDbEntity
  8
0
 48
50.0
100
AcDbBlockEnd
  0
BLOCK
  5
14287
330
1427D
100
AcDbEntity
  8
0
 48
50.0
100
AcDbBlockBegin
  2
*D83
 70
     1
 10
0.0
 20
0.0
 30
0.0
  3
*D83
  1

  0
LINE
  5
14410
330
1427D
100
AcDbEntity
  8
寸法
 62
     0
 48
50.0
370
    -2
100
AcDbLine
 10
10798.26201330531
 20
5271.136281726281
 30
0.0
 11
10798.26201330531
 21
4986.598783490083
 31
0.0
  0
LINE
  5
14411
330
1427D
100
AcDbEntity
  8
寸法
 62
     0
 48
50.0
370
    -2
100
AcDbLine
 10
10498.26201330531
 20
5271.136281726281
 30
0.0
 11
10498.26201330531
 21
4986.598783490083
 31
0.0
  0
LINE
  5
14412
330
1427D
100
AcDbEntity
  8
寸法
 62
     0
 48
50.0
370
    -2
100
AcDbLine
 10
10798.26201330531
 20
5031.598783490082
 30
0.0
 11
10498.26201330531
 21
5031.598783490082
 31
0.0
  0
INSERT
  5
14413
330
1427D
100
AcDbEntity
  8
寸法
 62
     0
 48
50.0
370
    -2
100
AcDbBlockReference
  2
_DOTSMALL
 10
10798.26201330531
 20
5031.598783490082
 30
0.0
 41
75.0
 42
75.0
 43
75.0
  0
INSERT
  5
14414
330
1427D
100
AcDbEntity
  8
寸法
 62
     0
 48
50.0
370
    -2
100
AcDbBlockReference
  2
_DOTSMALL
 10
10498.26201330531
 20
5031.598783490082
 30
0.0
 41
75.0
 42
75.0
 43
75.0
 50
180.0
  0
MTEXT
  5
14415
330
1427D
100
AcDbEntity
  8
寸法
 62
     7
 48
50.0
100
AcDbMText
 10
10648.26201330532
 20
5106.607641757799
 30
0.0
 40
90.0
 41
0.0
 71
     5
 72
     1
  1
\A1;200
  7
STYLE1
 73
     1
 44
1.0
1001
ACAD
1000
MTEXTBEGIN
1070
    73
1070
     1
1070
    44
1040
1.0
1070
    74
1070
     0
1000
MTEXTEND
  0
POINT
  5
14416
330
1427D
100
AcDbEntity
  8
DEFPOINTS
 62
     0
 48
50.0
100
AcDbPoint
 10
10798.26201330531
 20
5286.136281726282
 30
0.0
  0
POINT
  5
14417
330
1427D
100
AcDbEntity
  8
DEFPOINTS
 62
     0
 48
50.0
100
AcDbPoint
 10
10498.26201330531
 20
5286.136281726282
 30
0.0
  0
POINT
  5
14418
330
1427D
100
AcDbEntity
  8
DEFPOINTS
 62
     0
 48
50.0
100
AcDbPoint
 10
10498.26201330531
 20
5031.598783490082
 30
0.0
  0
ENDBLK
  5
14288
330
1427D
100
AcDbEntity
  8
0
 48
50.0
100
AcDbBlockEnd
  0
BLOCK
  5
14293
330
14289
100
AcDbEntity
  8
0
 48
50.0
100
AcDbBlockBegin
  2
*D84
 70
     1
 10
0.0
 20
0.0
 30
0.0
  3
*D84
  1

  0
LINE
  5
14407
330
14289
100
AcDbEntity
  8
寸法
 62
     0
 48
50.0
370
    -2
100
AcDbLine
 10
10498.26201330531
 20
5271.136281726281
 30
0.0
 11
10498.26201330531
 21
4986.598783490083
 31
0.0
  0
LINE
  5
14408
330
14289
100
AcDbEntity
  8
寸法
 62
     0
 48
50.0
370
    -2
100
AcDbLine
 10
10123.26201330532
 20
5271.136281726281
 30
0.0
 11
10123.26201330532
 21
4986.598783490083
 31
0.0
  0
LINE
  5
14409
330
14289
100
AcDbEntity
  8
寸法
 62
     0
 48
50.0
370
    -2
100
AcDbLine
 10
10498.26201330531
 20
5031.598783490082
 30
0.0
 11
10123.26201330532
 21
5031.598783490082
 31
0.0
  0
INSERT
  5
1440A
330
14289
100
AcDbEntity
  8
寸法
 62
     0
 48
50.0
370
    -2
100
AcDbBlockReference
  2
_DOTSMALL
 10
10498.26201330531
 20
5031.598783490082
 30
0.0
 41
75.0
 42
75.0
 43
75.0
  0
INSERT
  5
1440B
330
14289
100
AcDbEntity
  8
寸法
 62
     0
 48
50.0
370
    -2
100
AcDbBlockReference
  2
_DOTSMALL
 10
10123.26201330532
 20
5031.598783490082
 30
0.0
 41
75.0
 42
75.0
 43
75.0
 50
180.0
  0
MTEXT
  5
1440C
330
14289
100
AcDbEntity
  8
寸法
 62
     7
 48
50.0
100
AcDbMText
 10
10310.76201330532
 20
5106.607641757799
 30
0.0
 40
90.0
 41
0.0
 71
     5
 72
     1
  1
\A1;250
  7
STYLE1
 73
     1
 44
1.0
1001
ACAD
1000
MTEXTBEGIN
1070
    73
1070
     1
1070
    44
1040
1.0
1070
    74
1070
     0
1000
MTEXTEND
  0
POINT
  5
1440D
330
14289
100
AcDbEntity
  8
DEFPOINTS
 62
     0
 48
50.0
100
AcDbPoint
 10
10498.26201330531
 20
5286.136281726282
 30
0.0
  0
POINT
  5
1440E
330
14289
100
AcDbEntity
  8
DEFPOINTS
 62
     0
 48
50.0
100
AcDbPoint
 10
10123.26201330532
 20
5286.136281726282
 30
0.0
  0
POINT
  5
1440F
330
14289
100
AcDbEntity
  8
DEFPOINTS
 62
     0
 48
50.0
100
AcDbPoint
 10
10123.26201330532
 20
5031.598783490082
 30
0.0
  0
ENDBLK
  5
14294
330
14289
100
AcDbEntity
  8
0
 48
50.0
100
AcDbBlockEnd
  0
BLOCK
  5
144DF
330
144CE
100
AcDbEntity
  8
0
 48
50.0
100
AcDbBlockBegin
  2
A$C77D843C5
 70
     0
 10
0.0
 20
0.0
 30
0.0
  3
A$C77D843C5
  1

  0
LINE
  5
144CF
330
144CE
100
AcDbEntity
  8
部品1
 48
50.0
100
AcDbLine
 10
-328.5000000000018
 20
44.49999999999727
 30
0.0
 11
-346.5000000000018
 21
44.49999999999909
 31
0.0
  0
LINE
  5
144D0
330
144CE
100
AcDbEntity
  8
部品1
 48
50.0
100
AcDbLine
 10
-361.5000000000018
 20
31.99999999999818
 30
0.0
 11
-313.5000000000018
 21
31.99999999999818
 31
0.0
  0
LINE
  5
144D1
330
144CE
100
AcDbEntity
  8
部品1
 48
50.0
100
AcDbLine
 10
-313.5000000000037
 20
17.99999999999818
 30
0.0
 11
-313.5000000000037
 21
31.99999999999818
 31
0.0
  0
LINE
  5
144D2
330
144CE
100
AcDbEntity
  8
部品1
 48
50.0
100
AcDbLine
 10
-361.5000000000018
 20
17.99999999999818
 30
0.0
 11
-361.5000000000018
 21
31.99999999999818
 31
0.0
  0
LINE
  5
144D3
330
144CE
100
AcDbEntity
  8
部品1
 48
50.0
100
AcDbLine
 10
-325.5000000000036
 20
18.0
 30
0.0
 11
-325.5000000000036
 21
31.99999999999818
 31
0.0
  0
LINE
  5
144D4
330
144CE
100
AcDbEntity
  8
部品1
 48
50.0
100
AcDbLine
 10
-349.5000000000018
 20
18.0
 30
0.0
 11
-349.5000000000018
 21
31.99999999999818
 31
0.0
  0
LINE
  5
144D5
330
144CE
100
AcDbEntity
  8
部品1
 48
50.0
100
AcDbLine
 10
-346.5000000000018
 20
31.99999999999818
 30
0.0
 11
-346.5000000000018
 21
44.5
 31
0.0
  0
LINE
  5
144D6
330
144CE
100
AcDbEntity
  8
部品1
 48
50.0
100
AcDbLine
 10
-328.5000000000037
 20
31.99999999999818
 30
0.0
 11
-328.5000000000037
 21
44.5
 31
0.0
  0
LINE
  5
144D7
330
144CE
100
AcDbEntity
  8
部品1
 48
50.0
100
AcDbLine
 10
-28.50000000000182
 20
31.99999999999545
 30
0.0
 11
-28.50000000000182
 21
44.49999999999727
 31
0.0
  0
LINE
  5
144D8
330
144CE
100
AcDbEntity
  8
部品1
 48
50.0
100
AcDbLine
 10
-46.5
 20
31.99999999999545
 30
0.0
 11
-46.5
 21
44.49999999999727
 31
0.0
  0
LINE
  5
144D9
330
144CE
100
AcDbEntity
  8
部品1
 48
50.0
100
AcDbLine
 10
-49.50000000000182
 20
18.0
 30
0.0
 11
-49.50000000000364
 21
31.99999999999818
 31
0.0
  0
LINE
  5
144DA
330
144CE
100
AcDbEntity
  8
部品1
 48
50.0
100
AcDbLine
 10
-25.50000000000364
 20
18.0
 30
0.0
 11
-25.50000000000182
 21
31.99999999999818
 31
0.0
  0
LINE
  5
144DB
330
144CE
100
AcDbEntity
  8
部品1
 48
50.0
100
AcDbLine
 10
-61.50000000000182
 20
17.99999999999818
 30
0.0
 11
-61.50000000000182
 21
31.99999999999818
 31
0.0
  0
LINE
  5
144DC
330
144CE
100
AcDbEntity
  8
部品1
 48
50.0
100
AcDbLine
 10
-13.50000000000364
 20
17.99999999999818
 30
0.0
 11
-13.50000000000364
 21
31.99999999999818
 31
0.0
  0
LINE
  5
144DD
330
144CE
100
AcDbEntity
  8
部品1
 48
50.0
100
AcDbLine
 10
-61.50000000000182
 20
31.99999999999818
 30
0.0
 11
-13.50000000000182
 21
31.99999999999818
 31
0.0
  0
LINE
  5
144DE
330
144CE
100
AcDbEntity
  8
部品1
 48
50.0
100
AcDbLine
 10
-28.50000000000182
 20
44.49999999999727
 30
0.0
 11
-46.50000000000182
 21
44.49999999999909
 31
0.0
  0
ENDBLK
  5
144E0
330
144CE
100
AcDbEntity
  8
0
 48
50.0
100
AcDbBlockEnd
  0
ENDSEC
  0
SECTION
  2
ENTITIES
  0
LINE
  5
10B56
330
747D
100
AcDbEntity
  8
補助
  6
PHANTOM
 62
   230
 48
50.0
100
AcDbLine
 10
105.0
 20
0.0
 30
0.0
 11
104.9999999999996
 21
8557.199999999999
 31
0.0
  0
LINE
  5
10B57
330
747D
100
AcDbEntity
  8
補助
  6
PHANTOM
 62
   230
 48
50.0
100
AcDbLine
 10
104.9999999999996
 20
8557.199999999999
 30
0.0
 11
12230.4
 21
8557.199999999999
 31
0.0
  0
LINE
  5
10B5D
330
747D
100
AcDbEntity
  8
仕様書枠
 48
50.0
100
AcDbLine
 10
105.0
 20
0.0
 30
0.0
 11
12230.4
 21
-0.0000000000000682
 31
0.0
  0
LINE
  5
10B5E
330
747D
100
AcDbEntity
  8
補助
  6
PHANTOM
 62
   230
 48
50.0
100
AcDbLine
 10
12230.4
 20
8557.199999999999
 30
0.0
 11
12230.4
 21
900.0
 31
0.0
  0
LINE
  5
10B6D
330
747D
100
AcDbEntity
  8
補助
  6
PHANTOM
 62
   230
 48
50.0
100
AcDbLine
 10
9830.400000000002
 20
8557.199999999999
 30
0.0
 11
9830.400000000002
 21
3600.0
 31
0.0
  0
LINE
  5
10B6F
330
747D
100
AcDbEntity
  8
補助
  6
PHANTOM
 62
   230
 48
50.0
100
AcDbLine
 10
9830.400000000002
 20
3600.0
 30
0.0
 11
12230.4
 21
3600.0
 31
0.0
  0
LINE
  5
13599
330
747D
100
AcDbEntity
  8
センター
 48
10.0
100
AcDbLine
 10
5623.986781278443
 20
2269.768007716479
 30
0.0
 11
7229.26482661441
 21
2269.768007716479
 31
0.0
  0
DIMENSION
  5
1359A
330
747D
100
AcDbEntity
  8
寸法
 48
50.0
100
AcDbDimension
  2
*D1
 10
8154.87128455665
 20
3916.257340821903
 30
0.0
 11
4654.87128455665
 21
3991.257340821903
 31
0.0
 12
-2599.394919902338
 22
-9313.33931610416
 32
0.0
 70
    32
  1
基礎寸法 <>
 71
     5
 42
-1.0
  3
INABA_S30G
100
AcDbAlignedDimension
 13
1154.87128455665
 23
3269.768007716479
 33
0.0
 14
8154.87128455665
 24
3269.768007716479
 34
0.0
100
AcDbRotatedDimension
  0
LINE
  5
1359B
330
747D
100
AcDbEntity
  8
点線
 48
30.0
100
AcDbLine
 10
8154.87128455665
 20
3269.768007716479
 30
0.0
 11
1154.87128455665
 21
3269.768007716479
 31
0.0
  0
LINE
  5
1359C
330
747D
100
AcDbEntity
  8
点線
 48
30.0
100
AcDbLine
 10
1154.87128455665
 20
1269.768007716479
 30
0.0
 11
8154.87128455665
 21
1269.768007716479
 31
0.0
  0
DIMENSION
  5
1359D
330
747D
100
AcDbEntity
  8
寸法
 48
50.0
100
AcDbDimension
  2
*D2
 10
8154.87128455665
 20
879.9963031197695
 30
0.0
 11
4654.87128455665
 21
954.9963031197695
 31
0.0
 12
-2599.394919902338
 22
-9313.33931610416
 32
0.0
 70
    32
  1
屋根寸法 <>
 71
     5
 42
-1.0
  3
INABA_S30G
100
AcDbAlignedDimension
 13
1154.87128455665
 23
1269.768007716479
 33
0.0
 14
8154.87128455665
 24
1269.768007716479
 34
0.0
100
AcDbRotatedDimension
  0
DIMENSION
  5
1359E
330
747D
100
AcDbEntity
  8
寸法
 48
50.0
100
AcDbDimension
  2
*D3
 10
7904.87128455665
 20
3722.220301847585
 30
0.0
 11
6279.87128455665
 21
3797.229160115301
 31
0.0
 12
-2599.394919902338
 22
-9313.33931610416
 32
0.0
 70
    32
 71
     5
 42
-1.0
  3
INABA_S30G
100
AcDbAlignedDimension
 13
4654.87128455665
 23
2519.768007716479
 33
0.0
 14
7904.87128455665
 24
2937.557369016473
 34
0.0
100
AcDbRotatedDimension
1001
ACAD
1000
DSTYLE
1002
{
1002
}
  0
LINE
  5
1359F
330
747D
100
AcDbEntity
  8
センター
 48
10.0
100
AcDbLine
 10
5657.787335392004
 20
6215.166988013341
 30
0.0
 11
7210.471954918221
 21
6215.166988013341
 31
0.0
  0
DIMENSION
  5
135A0
330
747D
100
AcDbEntity
  8
寸法
 48
50.0
100
AcDbDimension
  2
*D4
 10
8154.87128455665
 20
7861.656321118768
 30
0.0
 11
4654.87128455665
 21
7936.656321118768
 31
0.0
 12
-2599.394919902338
 22
-9313.33931610416
 32
0.0
 70
    32
  1
基礎寸法 <>
 71
     5
 42
-1.0
  3
INABA_S30G
100
AcDbAlignedDimension
 13
1154.87128455665
 23
7215.166988013341
 33
0.0
 14
8154.87128455665
 24
7215.166988013341
 34
0.0
100
AcDbRotatedDimension
  0
LINE
  5
135A1
330
747D
100
AcDbEntity
  8
点線
 48
30.0
100
AcDbLine
 10
8154.87128455665
 20
7215.166988013341
 30
0.0
 11
1154.87128455665
 21
7215.166988013341
 31
0.0
  0
LINE
  5
135A2
330
747D
100
AcDbEntity
  8
点線
 48
30.0
100
AcDbLine
 10
1154.87128455665
 20
5215.166988013343
 30
0.0
 11
8154.87128455665
 21
5215.166988013343
 31
0.0
  0
DIMENSION
  5
135A3
330
747D
100
AcDbEntity
  8
寸法
 48
50.0
100
AcDbDimension
  2
*D5
 10
8154.87128455665
 20
4825.395283416634
 30
0.0
 11
4654.87128455665
 21
4900.395283416634
 31
0.0
 12
-2599.394919902338
 22
-9313.33931610416
 32
0.0
 70
    32
  1
屋根寸法 <>
 71
     5
 42
-1.0
  3
INABA_S30G
100
AcDbAlignedDimension
 13
1154.87128455665
 23
5215.166988013343
 33
0.0
 14
8154.87128455665
 24
5215.166988013343
 34
0.0
100
AcDbRotatedDimension
  0
DIMENSION
  5
135A4
330
747D
100
AcDbEntity
  8
寸法
 48
50.0
100
AcDbDimension
  2
*D6
 10
7904.87128455665
 20
7667.619282144449
 30
0.0
 11
6279.87128455665
 21
7742.628140412165
 31
0.0
 12
-2599.394919902338
 22
-9313.33931610416
 32
0.0
 70
    32
 71
     5
 42
-1.0
  3
INABA_S30G
100
AcDbAlignedDimension
 13
4654.87128455665
 23
6465.166988013341
 33
0.0
 14
7904.87128455665
 24
6882.956349313339
 34
0.0
100
AcDbRotatedDimension
1001
ACAD
1000
DSTYLE
1002
{
1002
}
  0
LINE
  5
135A5
330
747D
100
AcDbEntity
  8
センター
 48
10.0
100
AcDbLine
 10
1654.87128455665
 20
2269.768007716479
 30
0.0
 11
4404.87128455665
 21
2269.768007716479
 31
0.0
  0
DIMENSION
  5
135A6
330
747D
100
AcDbEntity
  8
寸法
 48
50.0
100
AcDbDimension
  2
*D7
 10
4654.87128455665
 20
3722.220301847585
 30
0.0
 11
3029.87128455665
 21
3797.229160115301
 31
0.0
 12
-2599.394919902338
 22
-9313.33931610416
 32
0.0
 70
    32
 71
     5
 42
-1.0
  3
INABA_S30G
100
AcDbAlignedDimension
 13
1404.87128455665
 23
2519.768007716479
 33
0.0
 14
4654.87128455665
 24
2808.313025087398
 34
0.0
100
AcDbRotatedDimension
1001
ACAD
1000
DSTYLE
1002
{
1002
}
  0
LINE
  5
135A7
330
747D
100
AcDbEntity
  8
文字
 48
50.0
100
AcDbLine
 10
1054.871284556649
 20
2619.768007716479
 30
0.0
 11
1754.87128455665
 21
2619.768007716479
 31
0.0
  0
MTEXT
  5
135A8
330
747D
100
AcDbEntity
  8
寸法
 62
     7
 48
50.0
100
AcDbMText
 10
1704.73580439418
 20
2745.601497394833
 30
0.0
 40
90.0
 41
0.0
 71
     4
 72
     1
  1
B
  7
STYLE1
 73
     1
 44
1.0
1001
ACAD
1000
MTEXTBEGIN
1070
    73
1070
     1
1070
    44
1040
1.0
1070
    74
1070
     0
1000
MTEXTEND
  0
LINE
  5
135A9
330
747D
100
AcDbEntity
  8
文字
 48
50.0
100
AcDbLine
 10
1054.871284556649
 20
1919.768007716479
 30
0.0
 11
1754.87128455665
 21
1919.768007716479
 31
0.0
  0
MTEXT
  5
135AA
330
747D
100
AcDbEntity
  8
寸法
 62
     7
 48
50.0
100
AcDbMText
 10
1703.477175535496
 20
1813.641842228428
 30
0.0
 40
90.0
 41
0.0
 71
     4
 72
     1
  1
B'
  7
STYLE1
 73
     1
 44
1.0
1001
ACAD
1000
MTEXTBEGIN
1070
    73
1070
     1
1070
    44
1040
1.0
1070
    74
1070
     0
1000
MTEXTEND
  0
LINE
  5
135AB
330
747D
100
AcDbEntity
  8
点線
 48
30.0
100
AcDbLine
 10
1154.87128455665
 20
3269.768007716479
 30
0.0
 11
1154.87128455665
 21
1269.768007716479
 31
0.0
  0
DIMENSION
  5
135AC
330
747D
100
AcDbEntity
  8
寸法
 48
50.0
100
AcDbDimension
  2
*D8
 10
491.2500858289586
 20
1269.768007716479
 30
0.0
 11
836.2412275612424
 21
2269.768007716479
 31
0.0
 12
-3019.394919902337
 22
-9313.33931610416
 32
0.0
 70
    32
  1
基礎寸法 <>
 71
     5
 42
-1.0
  3
INABA_S30G
100
AcDbAlignedDimension
 13
1154.87128455665
 23
3269.768007716479
 33
0.0
 14
1154.87128455665
 24
1269.768007716479
 34
0.0
 50
90.0
100
AcDbRotatedDimension
  0
DIMENSION
  5
135AD
330
747D
100
AcDbEntity
  8
寸法
 48
50.0
100
AcDbDimension
  2
*D9
 10
713.8379182290828
 20
1269.768007716479
 30
0.0
 11
1058.837918229083
 21
1769.76800771648
 31
0.0
 12
-3019.394919902337
 22
-9313.33931610416
 32
0.0
 70
    32
 71
     5
 42
-1.0
  3
INABA_S30G
100
AcDbAlignedDimension
 13
1154.87128455665
 23
2269.76800771648
 33
0.0
 14
1154.87128455665
 24
1269.768007716479
 34
0.0
 50
90.0
100
AcDbRotatedDimension
1001
ACAD
1000
DSTYLE
1002
{
1002
}
  0
DIMENSION
  5
135AE
330
747D
100
AcDbEntity
  8
寸法
 48
50.0
100
AcDbDimension
  2
*D10
 10
1404.87128455665
 20
3722.220301847585
 30
0.0
 11
1699.87128455665
 21
3797.229160115301
 31
0.0
 12
-3019.394919902337
 22
-9313.33931610416
 32
0.0
 70
    32
 71
     5
 42
-1.0
  3
INABA_S30G
100
AcDbAlignedDimension
 13
1154.87128455665
 23
3269.768007716479
 33
0.0
 14
1404.87128455665
 24
2519.768007716479
 34
0.0
100
AcDbRotatedDimension
  0
DIMENSION
  5
135AF
330
747D
100
AcDbEntity
  8
寸法
 48
50.0
100
AcDbDimension
  2
*D11
 10
713.9994478454191
 20
2269.76800771648
 30
0.0
 11
1058.999447845419
 21
2769.768007716481
 31
0.0
 12
-3019.394919902337
 22
-9313.33931610416
 32
0.0
 70
    32
 71
     5
 42
-1.0
  3
INABA_S30G
100
AcDbAlignedDimension
 13
1154.87128455665
 23
3269.768007716479
 33
0.0
 14
1154.87128455665
 24
2269.76800771648
 34
0.0
 50
90.0
100
AcDbRotatedDimension
  0
LINE
  5
135B0
330
747D
100
AcDbEntity
  8
センター
 48
10.0
100
AcDbLine
 10
1404.87128455665
 20
2519.768007716479
 30
0.0
 11
1404.87128455665
 21
2019.768007716479
 31
0.0
  0
LINE
  5
135B1
330
747D
100
AcDbEntity
  8
文字
 48
50.0
100
AcDbLine
 10
1054.871284556649
 20
2619.768007716479
 30
0.0
 11
1054.871284556649
 21
1919.768007716479
 31
0.0
  0
LINE
  5
135B2
330
747D
100
AcDbEntity
  8
センター
 48
10.0
100
AcDbLine
 10
1154.87128455665
 20
2269.76800771648
 30
0.0
 11
1654.87128455665
 21
2269.768007716479
 31
0.0
  0
LINE
  5
135B3
330
747D
100
AcDbEntity
  8
寸法
 48
50.0
100
AcDbLine
 10
1404.87128455665
 20
1960.869045236348
 30
0.0
 11
1404.87128455665
 21
2019.768007716479
 31
0.0
  0
LINE
  5
135B4
330
747D
100
AcDbEntity
  8
寸法
 48
50.0
100
AcDbLine
 10
1404.87128455665
 20
1810.869045236348
 30
0.0
 11
1404.87128455665
 21
2019.768007716479
 31
0.0
  0
LINE
  5
135B5
330
747D
100
AcDbEntity
  8
寸法
 48
50.0
100
AcDbLine
 10
1404.87128455665
 20
1810.869045236348
 30
0.0
 11
1659.00511530557
 21
1810.869045236348
 31
0.0
  0
LINE
  5
135B6
330
747D
100
AcDbEntity
  8
寸法
 48
50.0
100
AcDbLine
 10
1551.271744722591
 20
1782.001975590756
 30
0.0
 11
1551.271744722591
 21
1847.936594512308
 31
0.0
  0
LINE
  5
135B7
330
747D
100
AcDbEntity
  8
寸法
 48
50.0
100
AcDbLine
 10
1659.00511530557
 20
1810.869045236348
 30
0.0
 11
1551.271744722591
 21
1782.001975590756
 31
0.0
  0
LINE
  5
135B8
330
747D
100
AcDbEntity
  8
文字
 48
50.0
100
AcDbLine
 10
1364.871284556649
 20
2309.768007716479
 30
0.0
 11
1364.871284556649
 21
2229.768007716477
 31
0.0
  0
LINE
  5
135B9
330
747D
100
AcDbEntity
  8
文字
 48
50.0
100
AcDbLine
 10
1444.87128455665
 20
2309.768007716479
 30
0.0
 11
1444.87128455665
 21
2229.768007716477
 31
0.0
  0
LINE
  5
135BA
330
747D
100
AcDbEntity
  8
文字
 48
50.0
100
AcDbLine
 10
1444.87128455665
 20
2229.768007716477
 30
0.0
 11
1364.871284556649
 21
2229.768007716477
 31
0.0
  0
LINE
  5
135BB
330
747D
100
AcDbEntity
  8
文字
 48
50.0
100
AcDbLine
 10
1444.87128455665
 20
2309.768007716477
 30
0.0
 11
1364.871284556649
 21
2309.768007716477
 31
0.0
  0
LINE
  5
135BC
330
747D
100
AcDbEntity
  8
寸法
 48
50.0
100
AcDbLine
 10
1551.271744722591
 20
2757.534039842202
 30
0.0
 11
1551.271744722591
 21
2691.599420920651
 31
0.0
  0
LINE
  5
135BD
330
747D
100
AcDbEntity
  8
寸法
 48
50.0
100
AcDbLine
 10
1404.87128455665
 20
2728.66697019661
 30
0.0
 11
1659.00511530557
 21
2728.66697019661
 31
0.0
  0
LINE
  5
135BE
330
747D
100
AcDbEntity
  8
寸法
 48
50.0
100
AcDbLine
 10
1659.00511530557
 20
2728.66697019661
 30
0.0
 11
1551.271744722591
 21
2757.534039842202
 31
0.0
  0
LINE
  5
135BF
330
747D
100
AcDbEntity
  8
文字
 48
50.0
100
AcDbLine
 10
5571.493321226125
 20
2159.591169781601
 30
0.0
 11
5571.493321226125
 21
1523.078770319662
 31
0.0
  0
LINE
  5
135C0
330
747D
100
AcDbEntity
  8
文字
 48
50.0
100
AcDbLine
 10
5571.493321226125
 20
1523.078770319662
 30
0.0
 11
5604.34160405894
 21
1645.670230793115
 31
0.0
  0
LINE
  5
135C1
330
747D
100
AcDbEntity
  8
文字
 48
50.0
100
AcDbLine
 10
5571.493321226125
 20
1523.078770319662
 30
0.0
 11
5538.645038393312
 21
1645.670230793115
 31
0.0
  0
LINE
  5
135C2
330
747D
100
AcDbEntity
  8
部品1
 48
50.0
100
AcDbLine
 10
3738.235224210706
 20
4444.950660195085
 30
0.0
 11
5571.507344902593
 21
4444.950660195085
 31
0.0
  0
LINE
  5
135C3
330
747D
100
AcDbEntity
  8
文字
 48
50.0
100
AcDbLine
 10
1754.87128455665
 20
2619.768007716479
 30
0.0
 11
1754.87128455665
 21
1919.768007716479
 31
0.0
  0
LINE
  5
135C4
330
747D
100
AcDbEntity
  8
センター
 48
10.0
100
AcDbLine
 10
4904.87128455665
 20
2269.768007716479
 30
0.0
 11
5373.013743348543
 21
2269.768007716479
 31
0.0
  0
LINE
  5
135C5
330
747D
100
AcDbEntity
  8
センター
 48
10.0
100
AcDbLine
 10
4654.87128455665
 20
2519.768007716479
 30
0.0
 11
4654.87128455665
 21
2019.768007716479
 31
0.0
  0
LINE
  5
135C6
330
747D
100
AcDbEntity
  8
文字
 48
50.0
100
AcDbLine
 10
5004.871284556649
 20
2619.768007716479
 30
0.0
 11
5004.871284556649
 21
1919.768007716479
 31
0.0
  0
LINE
  5
135C7
330
747D
100
AcDbEntity
  8
文字
 48
50.0
100
AcDbLine
 10
4304.871284556649
 20
2619.768007716479
 30
0.0
 11
4304.871284556649
 21
1919.768007716479
 31
0.0
  0
LINE
  5
135C8
330
747D
100
AcDbEntity
  8
センター
 48
10.0
100
AcDbLine
 10
4404.87128455665
 20
2269.76800771648
 30
0.0
 11
4904.87128455665
 21
2269.768007716479
 31
0.0
  0
LINE
  5
135C9
330
747D
100
AcDbEntity
  8
文字
 48
50.0
100
AcDbLine
 10
4304.871284556649
 20
1919.768007716479
 30
0.0
 11
5004.871284556649
 21
1919.768007716479
 31
0.0
  0
LINE
  5
135CA
330
747D
100
AcDbEntity
  8
文字
 48
50.0
100
AcDbLine
 10
4694.87128455665
 20
2309.768007716479
 30
0.0
 11
4694.87128455665
 21
2229.768007716477
 31
0.0
  0
LINE
  5
135CB
330
747D
100
AcDbEntity
  8
文字
 48
50.0
100
AcDbLine
 10
4614.87128455665
 20
2309.768007716479
 30
0.0
 11
4614.87128455665
 21
2229.768007716477
 31
0.0
  0
LINE
  5
135CC
330
747D
100
AcDbEntity
  8
文字
 48
50.0
100
AcDbLine
 10
4694.87128455665
 20
2229.768007716477
 30
0.0
 11
4614.87128455665
 21
2229.768007716477
 31
0.0
  0
LINE
  5
135CD
330
747D
100
AcDbEntity
  8
文字
 48
50.0
100
AcDbLine
 10
4694.87128455665
 20
2309.768007716477
 30
0.0
 11
4614.87128455665
 21
2309.768007716477
 31
0.0
  0
LINE
  5
135CE
330
747D
100
AcDbEntity
  8
文字
 48
50.0
100
AcDbLine
 10
4304.871284556649
 20
2619.768007716479
 30
0.0
 11
5004.871284556649
 21
2619.768007716479
 31
0.0
  0
MTEXT
  5
135CF
330
747D
100
AcDbEntity
  8
寸法
 62
     7
 48
50.0
100
AcDbMText
 10
5477.05538516032
 20
1924.05518581127
 30
0.0
 40
90.0
 41
0.0
 71
     4
 72
     1
  1
\A1;水勾配 1/100 
  7
STYLE1
 11
0.0000000000000001
 21
1.0
 31
0.0
 73
     1
 44
1.0
1001
ACAD
1000
MTEXTBEGIN
1070
    73
1070
     1
1070
    44
1040
1.0
1070
    74
1070
     0
1000
MTEXTEND
  0
LINE
  5
135D0
330
747D
100
AcDbEntity
  8
文字
 48
50.0
100
AcDbLine
 10
5571.493321226125
 20
3016.457245113296
 30
0.0
 11
5604.34160405894
 21
2893.865784639842
 31
0.0
  0
LINE
  5
135D1
330
747D
100
AcDbEntity
  8
文字
 48
50.0
100
AcDbLine
 10
5571.493321226125
 20
2379.944845651356
 30
0.0
 11
5571.493321226125
 21
3016.457245113296
 31
0.0
  0
LINE
  5
135D2
330
747D
100
AcDbEntity
  8
文字
 48
50.0
100
AcDbLine
 10
5571.493321226125
 20
3016.457245113296
 30
0.0
 11
5538.645038393312
 21
2893.865784639842
 31
0.0
  0
LINE
  5
135D3
330
747D
100
AcDbEntity
  8
センター
 48
10.0
100
AcDbLine
 10
1654.87128455665
 20
6215.166988013341
 30
0.0
 11
4404.87128455665
 21
6215.166988013341
 31
0.0
  0
DIMENSION
  5
135D4
330
747D
100
AcDbEntity
  8
寸法
 48
50.0
100
AcDbDimension
  2
*D12
 10
4654.87128455665
 20
7667.619282144449
 30
0.0
 11
3029.87128455665
 21
7742.628140412165
 31
0.0
 12
-2599.394919902338
 22
-9313.33931610416
 32
0.0
 70
    32
 71
     5
 42
-1.0
  3
INABA_S30G
100
AcDbAlignedDimension
 13
1404.87128455665
 23
6465.166988013341
 33
0.0
 14
4654.87128455665
 24
6753.712005384262
 34
0.0
100
AcDbRotatedDimension
1001
ACAD
1000
DSTYLE
1002
{
1002
}
  0
LINE
  5
135D5
330
747D
100
AcDbEntity
  8
文字
 48
50.0
100
AcDbLine
 10
1754.87128455665
 20
6565.166988013341
 30
0.0
 11
1054.871284556649
 21
6565.166988013341
 31
0.0
  0
MTEXT
  5
135D6
330
747D
100
AcDbEntity
  8
寸法
 62
     7
 48
50.0
100
AcDbMText
 10
1704.73580439418
 20
6661.000477691698
 30
0.0
 40
90.0
 41
0.0
 71
     4
 72
     1
  1
A
  7
STYLE1
 73
     1
 44
1.0
1001
ACAD
1000
MTEXTBEGIN
1070
    73
1070
     1
1070
    44
1040
1.0
1070
    74
1070
     0
1000
MTEXTEND
  0
LINE
  5
135D7
330
747D
100
AcDbEntity
  8
文字
 48
50.0
100
AcDbLine
 10
1754.87128455665
 20
5865.166988013341
 30
0.0
 11
1054.871284556649
 21
5865.166988013341
 31
0.0
  0
MTEXT
  5
135D8
330
747D
100
AcDbEntity
  8
寸法
 62
     7
 48
50.0
100
AcDbMText
 10
1703.477175535496
 20
5789.04082252529
 30
0.0
 40
90.0
 41
0.0
 71
     4
 72
     1
  1
A'
  7
STYLE1
 73
     1
 44
1.0
1001
ACAD
1000
MTEXTBEGIN
1070
    73
1070
     1
1070
    44
1040
1.0
1070
    74
1070
     0
1000
MTEXTEND
  0
DIMENSION
  5
135D9
330
747D
100
AcDbEntity
  8
寸法
 48
50.0
100
AcDbDimension
  2
*D13
 10
1404.87128455665
 20
7667.619282144449
 30
0.0
 11
1699.87128455665
 21
7742.628140412165
 31
0.0
 12
-3019.394919902337
 22
-9313.33931610416
 32
0.0
 70
    32
 71
     5
 42
-1.0
  3
INABA_S30G
100
AcDbAlignedDimension
 13
1154.87128455665
 23
7215.166988013341
 33
0.0
 14
1404.87128455665
 24
6465.166988013341
 34
0.0
100
AcDbRotatedDimension
  0
DIMENSION
  5
135DA
330
747D
100
AcDbEntity
  8
寸法
 48
50.0
100
AcDbDimension
  2
*D14
 10
491.2500858289586
 20
5215.166988013343
 30
0.0
 11
836.2412275612419
 21
6215.166988013341
 31
0.0
 12
-3019.394919902337
 22
-9313.33931610416
 32
0.0
 70
    32
  1
基礎寸法 <>
 71
     5
 42
-1.0
  3
INABA_S30G
100
AcDbAlignedDimension
 13
1154.87128455665
 23
7215.166988013341
 33
0.0
 14
1154.87128455665
 24
5215.166988013343
 34
0.0
 50
90.0
100
AcDbRotatedDimension
  0
LINE
  5
135DB
330
747D
100
AcDbEntity
  8
点線
 48
30.0
100
AcDbLine
 10
1154.87128455665
 20
7215.166988013341
 30
0.0
 11
1154.87128455665
 21
5215.166988013343
 31
0.0
  0
DIMENSION
  5
135DC
330
747D
100
AcDbEntity
  8
寸法
 48
50.0
100
AcDbDimension
  2
*D15
 10
713.8379182290828
 20
5215.166988013343
 30
0.0
 11
1058.837918229083
 21
5715.166988013345
 31
0.0
 12
-3019.394919902337
 22
-9313.33931610416
 32
0.0
 70
    32
 71
     5
 42
-1.0
  3
INABA_S30G
100
AcDbAlignedDimension
 13
1154.87128455665
 23
6215.166988013345
 33
0.0
 14
1154.87128455665
 24
5215.166988013343
 34
0.0
 50
90.0
100
AcDbRotatedDimension
1001
ACAD
1000
DSTYLE
1002
{
1002
}
  0
LINE
  5
135DD
330
747D
100
AcDbEntity
  8
寸法
 48
50.0
100
AcDbLine
 10
1404.87128455665
 20
5786.268025533212
 30
0.0
 11
1404.87128455665
 21
5965.166988013341
 31
0.0
  0
LINE
  5
135DE
330
747D
100
AcDbEntity
  8
寸法
 48
50.0
100
AcDbLine
 10
1404.87128455665
 20
5786.268025533212
 30
0.0
 11
1659.00511530557
 21
5786.268025533212
 31
0.0
  0
LINE
  5
135DF
330
747D
100
AcDbEntity
  8
寸法
 48
50.0
100
AcDbLine
 10
1659.00511530557
 20
5786.268025533212
 30
0.0
 11
1551.271744722591
 21
5757.400955887621
 31
0.0
  0
LINE
  5
135E0
330
747D
100
AcDbEntity
  8
寸法
 48
50.0
100
AcDbLine
 10
1551.271744722591
 20
5757.400955887621
 30
0.0
 11
1551.271744722591
 21
5823.335574809171
 31
0.0
  0
DIMENSION
  5
135E1
330
747D
100
AcDbEntity
  8
寸法
 48
50.0
100
AcDbDimension
  2
*D16
 10
713.9994478454191
 20
6215.166988013345
 30
0.0
 11
1058.999447845419
 21
6715.166988013343
 31
0.0
 12
-3019.394919902337
 22
-9313.33931610416
 32
0.0
 70
    32
 71
     5
 42
-1.0
  3
INABA_S30G
100
AcDbAlignedDimension
 13
1154.87128455665
 23
7215.166988013341
 33
0.0
 14
1154.87128455665
 24
6215.166988013345
 34
0.0
 50
90.0
100
AcDbRotatedDimension
  0
LINE
  5
135E2
330
747D
100
AcDbEntity
  8
文字
 48
50.0
100
AcDbLine
 10
1054.871284556649
 20
6565.166988013341
 30
0.0
 11
1054.871284556649
 21
5865.166988013341
 31
0.0
  0
LINE
  5
135E3
330
747D
100
AcDbEntity
  8
センター
 48
10.0
100
AcDbLine
 10
1154.87128455665
 20
6215.166988013345
 30
0.0
 11
1654.87128455665
 21
6215.166988013341
 31
0.0
  0
LINE
  5
135E4
330
747D
100
AcDbEntity
  8
センター
 48
3.0
100
AcDbLine
 10
1229.871284556649
 20
6315.166988013345
 30
0.0
 11
1379.87128455665
 21
6315.166988013345
 31
0.0
  0
LINE
  5
135E5
330
747D
100
AcDbEntity
  8
センター
 48
3.0
100
AcDbLine
 10
1229.871284556649
 20
6115.166988013346
 30
0.0
 11
1379.87128455665
 21
6115.166988013346
 31
0.0
  0
LINE
  5
135E6
330
747D
100
AcDbEntity
  8
センター
 48
10.0
100
AcDbLine
 10
1404.87128455665
 20
6465.166988013341
 30
0.0
 11
1404.87128455665
 21
5965.166988013341
 31
0.0
  0
LINE
  5
135E7
330
747D
100
AcDbEntity
  8
センター
 48
3.0
100
AcDbLine
 10
1429.871284556649
 20
6115.166988013341
 30
0.0
 11
1579.87128455665
 21
6115.166988013341
 31
0.0
  0
LINE
  5
135E8
330
747D
100
AcDbEntity
  8
センター
 48
3.0
100
AcDbLine
 10
1304.871284556649
 20
6190.166988013341
 30
0.0
 11
1304.871284556649
 21
6040.166988013341
 31
0.0
  0
CIRCLE
  5
135E9
330
747D
100
AcDbEntity
  8
部品1
 48
50.0
100
AcDbCircle
 10
1304.871284556649
 20
6115.166988013341
 30
0.0
 40
15.0
  0
LINE
  5
135EA
330
747D
100
AcDbEntity
  8
センター
 48
3.0
100
AcDbLine
 10
1504.87128455665
 20
6190.166988013341
 30
0.0
 11
1504.87128455665
 21
6040.166988013341
 31
0.0
  0
CIRCLE
  5
135EB
330
747D
100
AcDbEntity
  8
部品1
 48
50.0
100
AcDbCircle
 10
1504.87128455665
 20
6115.166988013341
 30
0.0
 40
15.0
  0
LINE
  5
135EC
330
747D
100
AcDbEntity
  8
センター
 48
3.0
100
AcDbLine
 10
1429.871284556649
 20
6315.166988013341
 30
0.0
 11
1579.87128455665
 21
6315.166988013341
 31
0.0
  0
LINE
  5
135ED
330
747D
100
AcDbEntity
  8
センター
 48
3.0
100
AcDbLine
 10
1304.871284556649
 20
6390.166988013345
 30
0.0
 11
1304.871284556649
 21
6240.166988013346
 31
0.0
  0
CIRCLE
  5
135EE
330
747D
100
AcDbEntity
  8
部品1
 48
50.0
100
AcDbCircle
 10
1304.871284556649
 20
6315.166988013341
 30
0.0
 40
15.0
  0
LINE
  5
135EF
330
747D
100
AcDbEntity
  8
センター
 48
3.0
100
AcDbLine
 10
1504.87128455665
 20
6390.166988013341
 30
0.0
 11
1504.87128455665
 21
6240.166988013341
 31
0.0
  0
CIRCLE
  5
135F0
330
747D
100
AcDbEntity
  8
部品1
 48
50.0
100
AcDbCircle
 10
1504.87128455665
 20
6315.166988013341
 30
0.0
 40
15.0
  0
LINE
  5
135F1
330
747D
100
AcDbEntity
  8
寸法
 48
50.0
100
AcDbLine
 10
1404.87128455665
 20
6644.065950493474
 30
0.0
 11
1659.00511530557
 21
6644.065950493474
 31
0.0
  0
LINE
  5
135F2
330
747D
100
AcDbEntity
  8
寸法
 48
50.0
100
AcDbLine
 10
1659.00511530557
 20
6644.065950493474
 30
0.0
 11
1551.271744722591
 21
6672.933020139065
 31
0.0
  0
LINE
  5
135F3
330
747D
100
AcDbEntity
  8
寸法
 48
50.0
100
AcDbLine
 10
1551.271744722591
 20
6672.933020139065
 30
0.0
 11
1551.271744722591
 21
6606.998401217516
 31
0.0
  0
TEXT
  5
135F4
330
747D
100
AcDbEntity
  8
文字
 62
     7
 48
50.0
100
AcDbText
 10
3761.794465818718
 20
4508.982766907391
 30
0.0
 40
120.0
  1
A:プレート方式基礎伏図
  7
STYLE2
100
AcDbText
  0
LINE
  5
135F5
330
747D
100
AcDbEntity
  8
文字
 48
50.0
100
AcDbLine
 10
1754.87128455665
 20
6565.166988013341
 30
0.0
 11
1754.87128455665
 21
5865.166988013341
 31
0.0
  0
LINE
  5
135F6
330
747D
100
AcDbEntity
  8
文字
 48
50.0
100
AcDbLine
 10
5571.493321226125
 20
6104.990150078466
 30
0.0
 11
5571.493321226125
 21
5468.477750616527
 31
0.0
  0
LINE
  5
135F7
330
747D
100
AcDbEntity
  8
文字
 48
50.0
100
AcDbLine
 10
5571.493321226125
 20
5468.477750616527
 30
0.0
 11
5604.34160405894
 21
5591.06921108998
 31
0.0
  0
LINE
  5
135F8
330
747D
100
AcDbEntity
  8
文字
 48
50.0
100
AcDbLine
 10
5571.493321226125
 20
5468.477750616527
 30
0.0
 11
5538.645038393312
 21
5591.06921108998
 31
0.0
  0
LINE
  5
135F9
330
747D
100
AcDbEntity
  8
センター
 48
10.0
100
AcDbLine
 10
4904.87128455665
 20
6215.166988013341
 30
0.0
 11
5373.013743348543
 21
6215.166988013341
 31
0.0
  0
LINE
  5
135FA
330
747D
100
AcDbEntity
  8
文字
 48
50.0
100
AcDbLine
 10
5004.871284556649
 20
6565.166988013341
 30
0.0
 11
5004.871284556649
 21
5865.166988013341
 31
0.0
  0
LINE
  5
135FB
330
747D
100
AcDbEntity
  8
文字
 48
50.0
100
AcDbLine
 10
4304.871284556649
 20
6565.166988013341
 30
0.0
 11
4304.871284556649
 21
5865.166988013341
 31
0.0
  0
LINE
  5
135FC
330
747D
100
AcDbEntity
  8
センター
 48
10.0
100
AcDbLine
 10
4404.87128455665
 20
6215.166988013345
 30
0.0
 11
4904.87128455665
 21
6215.166988013341
 31
0.0
  0
LINE
  5
135FD
330
747D
100
AcDbEntity
  8
センター
 48
3.0
100
AcDbLine
 10
4479.87128455665
 20
6115.166988013346
 30
0.0
 11
4629.871284556649
 21
6115.166988013346
 31
0.0
  0
LINE
  5
135FE
330
747D
100
AcDbEntity
  8
センター
 48
3.0
100
AcDbLine
 10
4479.87128455665
 20
6315.166988013345
 30
0.0
 11
4629.871284556649
 21
6315.166988013345
 31
0.0
  0
LINE
  5
135FF
330
747D
100
AcDbEntity
  8
センター
 48
10.0
100
AcDbLine
 10
4404.87128455665
 20
6215.166988013345
 30
0.0
 11
4904.87128455665
 21
6215.166988013341
 31
0.0
  0
LINE
  5
13600
330
747D
100
AcDbEntity
  8
文字
 48
50.0
100
AcDbLine
 10
5004.871284556649
 20
5865.166988013341
 30
0.0
 11
4304.871284556649
 21
5865.166988013341
 31
0.0
  0
LINE
  5
13601
330
747D
100
AcDbEntity
  8
センター
 48
3.0
100
AcDbLine
 10
4554.871284556649
 20
6190.166988013341
 30
0.0
 11
4554.871284556649
 21
6040.166988013341
 31
0.0
  0
CIRCLE
  5
13602
330
747D
100
AcDbEntity
  8
部品1
 48
50.0
100
AcDbCircle
 10
4554.871284556649
 20
6115.166988013341
 30
0.0
 40
15.0
  0
LINE
  5
13603
330
747D
100
AcDbEntity
  8
センター
 48
3.0
100
AcDbLine
 10
4554.871284556649
 20
6390.166988013345
 30
0.0
 11
4554.871284556649
 21
6240.166988013346
 31
0.0
  0
CIRCLE
  5
13604
330
747D
100
AcDbEntity
  8
部品1
 48
50.0
100
AcDbCircle
 10
4554.871284556649
 20
6315.166988013341
 30
0.0
 40
15.0
  0
LINE
  5
13605
330
747D
100
AcDbEntity
  8
センター
 48
10.0
100
AcDbLine
 10
4654.87128455665
 20
6465.166988013341
 30
0.0
 11
4654.87128455665
 21
5965.166988013341
 31
0.0
  0
LINE
  5
13606
330
747D
100
AcDbEntity
  8
センター
 48
3.0
100
AcDbLine
 10
4679.871284556649
 20
6115.166988013341
 30
0.0
 11
4829.87128455665
 21
6115.166988013341
 31
0.0
  0
CIRCLE
  5
13607
330
747D
100
AcDbEntity
  8
部品1
 48
50.0
100
AcDbCircle
 10
4754.871284556649
 20
6115.166988013341
 30
0.0
 40
15.0
  0
LINE
  5
13608
330
747D
100
AcDbEntity
  8
センター
 48
3.0
100
AcDbLine
 10
4754.871284556649
 20
6190.166988013341
 30
0.0
 11
4754.871284556649
 21
6040.166988013341
 31
0.0
  0
LINE
  5
13609
330
747D
100
AcDbEntity
  8
センター
 48
3.0
100
AcDbLine
 10
4754.871284556649
 20
6390.166988013341
 30
0.0
 11
4754.871284556649
 21
6240.166988013341
 31
0.0
  0
LINE
  5
1360A
330
747D
100
AcDbEntity
  8
センター
 48
3.0
100
AcDbLine
 10
4679.871284556649
 20
6315.166988013341
 30
0.0
 11
4829.87128455665
 21
6315.166988013341
 31
0.0
  0
CIRCLE
  5
1360B
330
747D
100
AcDbEntity
  8
部品1
 48
50.0
100
AcDbCircle
 10
4754.871284556649
 20
6315.166988013341
 30
0.0
 40
15.0
  0
LINE
  5
1360C
330
747D
100
AcDbEntity
  8
文字
 48
50.0
100
AcDbLine
 10
5004.871284556649
 20
6565.166988013341
 30
0.0
 11
4304.871284556649
 21
6565.166988013341
 31
0.0
  0
LINE
  5
1360D
330
747D
100
AcDbEntity
  8
文字
 48
50.0
100
AcDbLine
 10
5571.493321226125
 20
6325.343825948221
 30
0.0
 11
5571.493321226125
 21
6961.85622541016
 31
0.0
  0
MTEXT
  5
1360E
330
747D
100
AcDbEntity
  8
寸法
 62
     7
 48
50.0
100
AcDbMText
 10
5477.05538516032
 20
5869.454166108135
 30
0.0
 40
90.0
 41
0.0
 71
     4
 72
     1
  1
\A1;水勾配 1/100 
  7
STYLE1
 11
0.0000000000000001
 21
1.0
 31
0.0
 73
     1
 44
1.0
1001
ACAD
1000
MTEXTBEGIN
1070
    73
1070
     1
1070
    44
1040
1.0
1070
    74
1070
     0
1000
MTEXTEND
  0
LINE
  5
1360F
330
747D
100
AcDbEntity
  8
文字
 48
50.0
100
AcDbLine
 10
5571.493321226125
 20
6961.85622541016
 30
0.0
 11
5604.34160405894
 21
6839.264764936706
 31
0.0
  0
LINE
  5
13610
330
747D
100
AcDbEntity
  8
文字
 48
50.0
100
AcDbLine
 10
5571.493321226125
 20
6961.85622541016
 30
0.0
 11
5538.645038393312
 21
6839.264764936706
 31
0.0
  0
LINE
  5
1362D
330
747D
100
AcDbEntity
  8
点線
 48
30.0
100
AcDbLine
 10
8154.87128455665
 20
1269.768007716479
 30
0.0
 11
8154.87128455665
 21
3269.768007716479
 31
0.0
  0
DIMENSION
  5
1362E
330
747D
100
AcDbEntity
  8
寸法
 48
50.0
100
AcDbDimension
  2
*D18
 10
8637.145506920264
 20
1269.768007716479
 30
0.0
 11
8142.136648652547
 21
2269.768007716479
 31
0.0
 12
-2179.394919902337
 22
-9313.33931610416
 32
0.0
 70
    32
  1
屋根寸法 <>
 71
     5
 42
-1.0
  3
INABA_S30G
100
AcDbAlignedDimension
 13
8154.87128455665
 23
3269.768007716479
 33
0.0
 14
8154.87128455665
 24
1269.768007716479
 34
0.0
 50
90.0
100
AcDbRotatedDimension
1001
ACAD
1000
DSTYLE
1002
{
1070
   141
1040
-0.1
1070
   279
1070
     2
1070
   288
1070
     1
1002
}
  0
MTEXT
  5
1362F
330
747D
100
AcDbEntity
  8
寸法
 62
     7
 48
50.0
100
AcDbMText
 10
6789.654257512276
 20
1387.048053583978
 30
0.0
 40
90.0
 41
0.0
 71
     4
 72
     1
  1
\A1;床コンクリート打コテ押エ
  7
STYLE1
 73
     1
 44
1.0
1001
ACAD
1000
MTEXTBEGIN
1070
    73
1070
     1
1070
    44
1040
1.0
1070
    74
1070
     0
1000
MTEXTEND
  0
DIMENSION
  5
13631
330
747D
100
AcDbEntity
  8
寸法
 48
50.0
100
AcDbDimension
  2
*D19
 10
7377.55678127247
 20
1919.768007716477
 30
0.0
 11
6882.556781272469
 21
2269.768007716477
 31
0.0
 12
-2179.394919902337
 22
-9313.33931610416
 32
0.0
 70
    32
 71
     5
 42
-1.0
  3
INABA_S30G
100
AcDbAlignedDimension
 13
7554.87128455665
 23
2619.768007716477
 33
0.0
 14
7554.87128455665
 24
1919.768007716477
 34
0.0
 50
90.0
100
AcDbRotatedDimension
  0
LINE
  5
13632
330
747D
100
AcDbEntity
  8
センター
 48
10.0
100
AcDbLine
 10
7904.87128455665
 20
2019.76800771648
 30
0.0
 11
7904.87128455665
 21
2519.768007716481
 31
0.0
  0
LINE
  5
13633
330
747D
100
AcDbEntity
  8
文字
 48
50.0
100
AcDbLine
 10
8254.871284556649
 20
2619.768007716477
 30
0.0
 11
8254.871284556649
 21
1919.768007716477
 31
0.0
  0
LINE
  5
13634
330
747D
100
AcDbEntity
  8
文字
 48
50.0
100
AcDbLine
 10
7554.87128455665
 20
2619.768007716477
 30
0.0
 11
7554.87128455665
 21
1919.768007716477
 31
0.0
  0
LINE
  5
13635
330
747D
100
AcDbEntity
  8
センター
 48
10.0
100
AcDbLine
 10
7654.87128455665
 20
2269.76800771648
 30
0.0
 11
8154.87128455665
 21
2269.768007716479
 31
0.0
  0
LINE
  5
13636
330
747D
100
AcDbEntity
  8
文字
 48
50.0
100
AcDbLine
 10
7554.87128455665
 20
1919.768007716477
 30
0.0
 11
8254.871284556649
 21
1919.768007716477
 31
0.0
  0
MTEXT
  5
13637
102
{ACAD_REACTORS
330
13638
102
}
330
747D
100
AcDbEntity
  8
寸法
 62
     7
 48
50.0
100
AcDbMText
 10
7672.995226267413
 20
1787.546270780802
 30
0.0
 40
90.0
 41
0.0
 71
     6
 72
     1
  1
\A1;柱
  7
STYLE1
 73
     1
 44
1.0
1001
ACAD
1000
MTEXTBEGIN
1070
    73
1070
     1
1070
    44
1040
1.0
1070
    74
1070
     0
1000
MTEXTEND
  0
LEADER
  5
13638
330
747D
100
AcDbEntity
  8
寸法
 48
50.0
100
AcDbLeader
  3
INABA_S30G
 73
     0
 75
     1
 40
90.0
 41
108.0
 76
     3
 10
7883.980118446157
 20
2229.768007716475
 30
0.0
 10
7777.995226267413
 20
1712.546270780802
 30
0.0
 10
7702.995226267413
 20
1712.546270780802
 30
0.0
340
13637
1001
ACAD
1000
DSTYLE
1002
{
1070
   341
1005
0
1070
   343
1005
0
1070
   344
1005
0
1002
}
  0
LINE
  5
13639
330
747D
100
AcDbEntity
  8
文字
 48
50.0
100
AcDbLine
 10
7864.871284556649
 20
2309.768007716479
 30
0.0
 11
7864.871284556649
 21
2229.768007716477
 31
0.0
  0
LINE
  5
1363A
330
747D
100
AcDbEntity
  8
文字
 48
50.0
100
AcDbLine
 10
7944.871284556651
 20
2309.768007716479
 30
0.0
 11
7944.871284556651
 21
2229.768007716477
 31
0.0
  0
LINE
  5
1363B
330
747D
100
AcDbEntity
  8
文字
 48
50.0
100
AcDbLine
 10
7944.871284556651
 20
2229.768007716477
 30
0.0
 11
7864.871284556649
 21
2229.768007716477
 31
0.0
  0
LINE
  5
1363C
330
747D
100
AcDbEntity
  8
文字
 48
50.0
100
AcDbLine
 10
7944.871284556651
 20
2309.768007716477
 30
0.0
 11
7864.871284556649
 21
2309.768007716477
 31
0.0
  0
DIMENSION
  5
1363D
330
747D
100
AcDbEntity
  8
寸法
 48
50.0
100
AcDbDimension
  2
*D20
 10
8254.871284556649
 20
2817.557369016473
 30
0.0
 11
7904.87128455665
 21
2817.557369016473
 31
0.0
 12
-2179.394919902337
 22
-9313.33931610416
 32
0.0
 70
   160
 71
     5
 42
-1.0
  3
INABA_S30G
100
AcDbAlignedDimension
 13
7554.87128455665
 23
2619.768007716477
 33
0.0
 14
8254.871284556649
 24
2619.768007716477
 34
0.0
100
AcDbRotatedDimension
  0
LINE
  5
1363E
330
747D
100
AcDbEntity
  8
文字
 48
50.0
100
AcDbLine
 10
7554.87128455665
 20
2619.768007716477
 30
0.0
 11
8254.871284556649
 21
2619.768007716477
 31
0.0
  0
DIMENSION
  5
1363F
330
747D
100
AcDbEntity
  8
寸法
 48
50.0
100
AcDbDimension
  2
*D21
 10
8154.87128455665
 20
3722.817537192492
 30
0.0
 11
7609.87128455665
 21
3797.826395460208
 31
0.0
 12
-2179.394919902337
 22
-9313.33931610416
 32
0.0
 70
    32
 71
     5
 42
-1.0
  3
INABA_S30G
100
AcDbAlignedDimension
 13
7904.87128455665
 23
3339.768007716481
 33
0.0
 14
8154.87128455665
 24
3269.768007716479
 34
0.0
100
AcDbRotatedDimension
  0
DIMENSION
  5
13708
330
747D
100
AcDbEntity
  8
寸法
 48
50.0
100
AcDbDimension
  2
*D31
 10
8154.87128455665
 20
7668.216517489357
 30
0.0
 11
7609.87128455665
 21
7743.225375757072
 31
0.0
 12
-2179.394919902337
 22
-9313.33931610416
 32
0.0
 70
    32
 71
     5
 42
-1.0
  3
INABA_S30G
100
AcDbAlignedDimension
 13
7904.87128455665
 23
7285.166988013346
 33
0.0
 14
8154.87128455665
 24
7215.166988013341
 34
0.0
100
AcDbRotatedDimension
  0
DIMENSION
  5
13709
330
747D
100
AcDbEntity
  8
寸法
 48
50.0
100
AcDbDimension
  2
*D32
 10
8637.145506920264
 20
5215.166988013343
 30
0.0
 11
8142.136648652551
 21
6215.166988013341
 31
0.0
 12
-2179.394919902337
 22
-9313.33931610416
 32
0.0
 70
    32
  1
屋根寸法 <>
 71
     5
 42
-1.0
  3
INABA_S30G
100
AcDbAlignedDimension
 13
8154.87128455665
 23
7215.166988013341
 33
0.0
 14
8154.87128455665
 24
5215.166988013343
 34
0.0
 50
90.0
100
AcDbRotatedDimension
1001
ACAD
1000
DSTYLE
1002
{
1070
   141
1040
-0.1
1070
   279
1070
     2
1070
   288
1070
     1
1002
}
  0
LINE
  5
1370A
330
747D
100
AcDbEntity
  8
点線
 48
30.0
100
AcDbLine
 10
8154.87128455665
 20
5215.166988013343
 30
0.0
 11
8154.87128455665
 21
7215.166988013341
 31
0.0
  0
DIMENSION
  5
1370B
330
747D
100
AcDbEntity
  8
寸法
 48
50.0
100
AcDbDimension
  2
*D33
 10
7804.87128455665
 20
5645.645704700538
 30
0.0
 11
7484.87128455665
 21
5720.654562968255
 31
0.0
 12
-2179.394919902337
 22
-9313.33931610416
 32
0.0
 70
    32
 71
     5
 42
-1.0
  3
INABA_S30G
100
AcDbAlignedDimension
 13
8004.871284556649
 23
6040.166988013341
 33
0.0
 14
7804.87128455665
 24
6040.166988013341
 34
0.0
100
AcDbRotatedDimension
  0
MTEXT
  5
1370C
102
{ACAD_REACTORS
330
1370D
102
}
330
747D
100
AcDbEntity
  8
寸法
 62
     7
 48
50.0
100
AcDbMText
 10
7514.062382127507
 20
5694.023225716192
 30
0.0
 40
90.0
 41
0.0
 71
     6
 72
     1
  1
\A1;ｱﾝｶｰﾎﾞﾙﾄ\PM12x315(市販品)
  7
STYLE1
 73
     1
 44
1.0
1001
ACAD
1000
MTEXTBEGIN
1070
    73
1070
     1
1070
    44
1040
1.0
1070
    74
1070
     0
1000
MTEXTEND
  0
LEADER
  5
1370D
330
747D
100
AcDbEntity
  8
寸法
 48
50.0
100
AcDbLeader
  3
INABA_S30G
 73
     0
 75
     1
 40
249.0
 41
791.9645669291342
 76
     3
 10
7804.87128455665
 20
6115.166988013341
 30
0.0
 10
7619.062382127508
 20
5539.523225716191
 30
0.0
 10
7544.062382127508
 20
5539.523225716191
 30
0.0
340
1370C
1001
ACAD
1000
DSTYLE
1002
{
1070
   341
1005
0
1070
   343
1005
0
1070
   344
1005
0
1002
}
  0
MTEXT
  5
1370E
330
747D
100
AcDbEntity
  8
寸法
 62
     7
 48
50.0
100
AcDbMText
 10
6789.654257512276
 20
5332.447033880843
 30
0.0
 40
90.0
 41
0.0
 71
     4
 72
     1
  1
\A1;床コンクリート打コテ押エ
  7
STYLE1
 73
     1
 44
1.0
1001
ACAD
1000
MTEXTBEGIN
1070
    73
1070
     1
1070
    44
1040
1.0
1070
    74
1070
     0
1000
MTEXTEND
  0
DIMENSION
  5
1370F
330
747D
100
AcDbEntity
  8
寸法
 48
50.0
100
AcDbDimension
  2
*D34
 10
7377.55678127247
 20
5865.166988013341
 30
0.0
 11
6882.556781272469
 21
6215.166988013341
 31
0.0
 12
-2179.394919902337
 22
-9313.33931610416
 32
0.0
 70
    32
 71
     5
 42
-1.0
  3
INABA_S30G
100
AcDbAlignedDimension
 13
7554.87128455665
 23
6565.166988013341
 33
0.0
 14
7554.87128455665
 24
5865.166988013341
 34
0.0
 50
90.0
100
AcDbRotatedDimension
  0
LINE
  5
13710
330
747D
100
AcDbEntity
  8
文字
 48
50.0
100
AcDbLine
 10
8254.871284556649
 20
6565.166988013341
 30
0.0
 11
8254.871284556649
 21
5865.166988013341
 31
0.0
  0
LINE
  5
13711
330
747D
100
AcDbEntity
  8
文字
 48
50.0
100
AcDbLine
 10
7554.87128455665
 20
6565.166988013341
 30
0.0
 11
7554.87128455665
 21
5865.166988013341
 31
0.0
  0
LINE
  5
13712
330
747D
100
AcDbEntity
  8
センター
 48
3.0
100
AcDbLine
 10
7929.87128455665
 20
6315.166988013341
 30
0.0
 11
8079.87128455665
 21
6315.166988013341
 31
0.0
  0
LINE
  5
13713
330
747D
100
AcDbEntity
  8
センター
 48
3.0
100
AcDbLine
 10
7929.87128455665
 20
6115.166988013341
 30
0.0
 11
8079.87128455665
 21
6115.166988013341
 31
0.0
  0
LINE
  5
13714
330
747D
100
AcDbEntity
  8
センター
 48
10.0
100
AcDbLine
 10
7654.87128455665
 20
6215.166988013345
 30
0.0
 11
8154.87128455665
 21
6215.166988013341
 31
0.0
  0
LINE
  5
13715
330
747D
100
AcDbEntity
  8
文字
 48
50.0
100
AcDbLine
 10
7554.87128455665
 20
5865.166988013341
 30
0.0
 11
8254.871284556649
 21
5865.166988013341
 31
0.0
  0
LINE
  5
13716
330
747D
100
AcDbEntity
  8
センター
 48
10.0
100
AcDbLine
 10
7904.87128455665
 20
5965.166988013345
 30
0.0
 11
7904.87128455665
 21
6465.166988013345
 31
0.0
  0
LINE
  5
13717
330
747D
100
AcDbEntity
  8
センター
 48
3.0
100
AcDbLine
 10
7729.87128455665
 20
6115.166988013346
 30
0.0
 11
7879.871284556649
 21
6115.166988013346
 31
0.0
  0
LINE
  5
13718
330
747D
100
AcDbEntity
  8
センター
 48
3.0
100
AcDbLine
 10
7804.87128455665
 20
6190.166988013341
 30
0.0
 11
7804.87128455665
 21
6040.166988013341
 31
0.0
  0
CIRCLE
  5
13719
330
747D
100
AcDbEntity
  8
部品1
 48
50.0
100
AcDbCircle
 10
7804.87128455665
 20
6115.166988013341
 30
0.0
 40
15.0
  0
LINE
  5
1371A
330
747D
100
AcDbEntity
  8
センター
 48
3.0
100
AcDbLine
 10
7729.87128455665
 20
6315.166988013345
 30
0.0
 11
7879.871284556649
 21
6315.166988013345
 31
0.0
  0
LINE
  5
1371B
330
747D
100
AcDbEntity
  8
センター
 48
3.0
100
AcDbLine
 10
7804.87128455665
 20
6390.166988013345
 30
0.0
 11
7804.87128455665
 21
6240.166988013346
 31
0.0
  0
CIRCLE
  5
1371C
330
747D
100
AcDbEntity
  8
部品1
 48
50.0
100
AcDbCircle
 10
7804.87128455665
 20
6315.166988013341
 30
0.0
 40
15.0
  0
DIMENSION
  5
1371D
330
747D
100
AcDbEntity
  8
寸法
 48
50.0
100
AcDbDimension
  2
*D35
 10
8416.45871169422
 20
6315.166988013341
 30
0.0
 11
7921.449853426505
 21
6215.166988013341
 31
0.0
 12
-2179.394919902337
 22
-9313.33931610416
 32
0.0
 70
    32
 71
     5
 42
-1.0
  3
INABA_S30G
100
AcDbAlignedDimension
 13
8079.87128455665
 23
6115.166988013341
 33
0.0
 14
8079.87128455665
 24
6315.166988013341
 34
0.0
 50
90.0
100
AcDbRotatedDimension
  0
LINE
  5
1371E
330
747D
100
AcDbEntity
  8
センター
 48
3.0
100
AcDbLine
 10
8004.871284556649
 20
6190.166988013341
 30
0.0
 11
8004.871284556649
 21
6040.166988013341
 31
0.0
  0
CIRCLE
  5
1371F
330
747D
100
AcDbEntity
  8
部品1
 48
50.0
100
AcDbCircle
 10
8004.871284556649
 20
6115.166988013341
 30
0.0
 40
15.0
  0
LINE
  5
13720
330
747D
100
AcDbEntity
  8
センター
 48
3.0
100
AcDbLine
 10
8004.871284556649
 20
6390.166988013341
 30
0.0
 11
8004.871284556649
 21
6240.166988013341
 31
0.0
  0
CIRCLE
  5
13721
330
747D
100
AcDbEntity
  8
部品1
 48
50.0
100
AcDbCircle
 10
8004.871284556649
 20
6315.166988013341
 30
0.0
 40
15.0
  0
DIMENSION
  5
13722
330
747D
100
AcDbEntity
  8
寸法
 48
50.0
100
AcDbDimension
  2
*D36
 10
8254.871284556649
 20
6762.956349313339
 30
0.0
 11
7904.87128455665
 21
6762.956349313339
 31
0.0
 12
-2179.394919902337
 22
-9313.33931610416
 32
0.0
 70
   160
 71
     5
 42
-1.0
  3
INABA_S30G
100
AcDbAlignedDimension
 13
7554.87128455665
 23
6565.166988013341
 33
0.0
 14
8254.871284556649
 24
6565.166988013341
 34
0.0
100
AcDbRotatedDimension
  0
LINE
  5
13723
330
747D
100
AcDbEntity
  8
文字
 48
50.0
100
AcDbLine
 10
7554.87128455665
 20
6565.166988013341
 30
0.0
 11
8254.871284556649
 21
6565.166988013341
 31
0.0
  0
TEXT
  5
13801
330
747D
100
AcDbEntity
  8
文字
 62
     7
 48
50.0
100
AcDbText
 10
3761.794465818718
 20
563.5837866105267
 30
0.0
 40
120.0
  1
B:埋め込み方式基礎伏図
  7
STYLE2
100
AcDbText
  0
LINE
  5
13802
330
747D
100
AcDbEntity
  8
部品1
 48
50.0
100
AcDbLine
 10
3738.235224210706
 20
499.5516798982207
 30
0.0
 11
5679.491533844715
 21
499.5516798982207
 31
0.0
  0
LINE
  5
13FB5
330
747D
100
AcDbEntity
  8
仕様書枠
  6
Continuous
 48
50.0
100
AcDbLine
 10
9830.400000000002
 20
899.9999999999998
 30
0.0
 11
9830.400000000002
 21
-0.0000000000000547
 31
0.0
  0
LINE
  5
13FB6
330
747D
100
AcDbEntity
  8
仕様書枠
 48
50.0
100
AcDbLine
 10
12230.4
 20
899.9999999999998
 30
0.0
 11
12230.4
 21
-0.0000000000000682
 31
0.0
  0
LINE
  5
13FB7
330
747D
100
AcDbEntity
  8
仕様書枠
 48
50.0
100
AcDbLine
 10
9830.400000000002
 20
899.9999999999998
 30
0.0
 11
12230.4
 21
899.9999999999998
 31
0.0
  0
LINE
  5
13FB8
330
747D
100
AcDbEntity
  8
文字
 62
     7
 48
50.0
100
AcDbLine
 10
9890.400000000001
 20
300.0
 30
0.0
 11
12170.4
 21
300.0
 31
0.0
  0
TEXT
  5
13FB9
330
747D
100
AcDbEntity
  8
文字
 62
     7
 48
50.0
100
AcDbText
 10
9872.234292432677
 20
671.3179555724552
 30
0.0
 40
150.0
  1
基 礎 図
  7
STYLE2
100
AcDbText
  0
TEXT
  5
13FBA
330
747D
100
AcDbEntity
  8
文字
 62
     7
 48
50.0
100
AcDbText
 10
9901.077524988313
 20
357.9555495773442
 30
0.0
 40
120.0
  1
機種名
  7
STYLE2
100
AcDbText
  0
TEXT
  5
13FBB
330
747D
100
AcDbEntity
  8
文字
 62
     7
 48
50.0
100
AcDbText
 10
9907.054008162901
 20
171.4076431926762
 30
0.0
 40
60.0
  1
○間口寸法は柱芯寸法です。
  7
STYLE2
100
AcDbText
  0
TEXT
  5
13FBC
330
747D
100
AcDbEntity
  8
文字
 62
     7
 48
50.0
100
AcDbText
 10
9907.054008162901
 20
57.07076030737007
 30
0.0
 40
60.0
  1
○寒冷地等は、地域の実情に合わせた基礎にしてください。
  7
STYLE2
100
AcDbText
  0
TEXT
  5
13FBD
330
747D
100
AcDbEntity
  8
文字
 62
     7
 48
50.0
100
AcDbText
 10
10893.0988779165
 20
773.6682797184213
 30
0.0
 40
75.0
  1
NO.5     <縮尺> S=1/30
  7
STYLE2
100
AcDbText
  0
LINE
  5
13FBE
330
747D
100
AcDbEntity
  8
仕様書枠
 48
50.0
100
AcDbLine
 10
9830.400000000002
 20
599.9999999999999
 30
0.0
 11
10688.4
 21
599.9999999999999
 31
0.0
  0
LINE
  5
13FBF
330
747D
100
AcDbEntity
  8
仕様書枠
  6
Continuous
 48
50.0
100
AcDbLine
 10
10688.4
 20
899.9999999999998
 30
0.0
 11
10688.4
 21
599.9999999999999
 31
0.0
  0
TEXT
  5
13FC0
330
747D
100
AcDbEntity
  8
文字
 62
     7
 48
50.0
100
AcDbText
 10
10951.9835159712
 20
362.922534743356
 30
0.0
 40
120.0
  1
BＹ-３３L-２
  7
MSPゴシック
100
AcDbText
  0
TEXT
  5
13FC1
330
747D
100
AcDbEntity
  8
文字
 62
     7
 48
50.0
100
AcDbText
 10
11138.71739229687
 20
628.689545304689
 30
0.0
 40
75.0
  1
～一般型～
  7
STYLE2
100
AcDbText
  0
LINE
  5
13FC2
330
747D
100
AcDbEntity
  8
文字
 48
50.0
100
AcDbLine
 10
11175.77416162901
 20
1359.84602608085
 30
0.0
 11
11175.77416162901
 21
1181.34602608085
 31
0.0
  0
LINE
  5
13FC3
330
747D
100
AcDbEntity
  8
文字
 48
50.0
100
AcDbLine
 10
10142.39039099548
 20
1359.84602608085
 30
0.0
 11
10142.39039099548
 21
1181.34602608085
 31
0.0
  0
TEXT
  5
13FC4
330
747D
100
AcDbEntity
  8
文字
 62
     7
 48
50.0
100
AcDbText
 10
10195.65823692566
 20
1227.332858859549
 30
0.0
 40
90.0
  1
Ｂ-Ｂ' 断面　1/20
  7
STYLE2
100
AcDbText
  0
LINE
  5
13FC5
330
747D
100
AcDbEntity
  8
文字
 48
50.0
100
AcDbLine
 10
10142.39039099548
 20
1181.34602608085
 30
0.0
 11
11175.77416162901
 21
1181.34602608085
 31
0.0
  0
LINE
  5
13FC6
330
747D
100
AcDbEntity
  8
文字
 48
50.0
100
AcDbLine
 10
10142.39039099548
 20
1359.84602608085
 30
0.0
 11
11175.77416162901
 21
1359.84602608085
 31
0.0
  0
LINE
  5
13FC7
330
747D
100
AcDbEntity
  8
文字
 48
50.0
100
AcDbLine
 10
10142.39039099548
 20
4518.489493800728
 30
0.0
 11
11175.77416162901
 21
4518.489493800728
 31
0.0
  0
LINE
  5
13FC8
330
747D
100
AcDbEntity
  8
文字
 48
50.0
100
AcDbLine
 10
10142.39039099548
 20
4339.989493800727
 30
0.0
 11
11175.77416162901
 21
4339.989493800727
 31
0.0
  0
TEXT
  5
13FC9
330
747D
100
AcDbEntity
  8
文字
 62
     7
 48
50.0
100
AcDbText
 10
10195.65823692566
 20
4385.976326579426
 30
0.0
 40
90.0
  1
Ａ-Ａ' 断面 1/20
  7
STYLE2
100
AcDbText
  0
LINE
  5
13FCA
330
747D
100
AcDbEntity
  8
文字
 48
50.0
100
AcDbLine
 10
10142.39039099548
 20
4518.489493800728
 30
0.0
 11
10142.39039099548
 21
4339.989493800727
 31
0.0
  0
LINE
  5
13FCB
330
747D
100
AcDbEntity
  8
文字
 48
50.0
100
AcDbLine
 10
11175.77416162901
 20
4518.489493800728
 30
0.0
 11
11175.77416162901
 21
4339.989493800727
 31
0.0
  0
TEXT
  5
13FCC
330
747D
100
AcDbEntity
  8
文字
 48
50.0
100
AcDbText
 10
10777.89166847764
 20
3329.106969457704
 30
0.0
 40
72.0
  1
水勾配
 41
0.8
  7
STYLE1
100
AcDbText
  0
TEXT
  5
13FCD
330
747D
100
AcDbEntity
  8
文字
 48
50.0
100
AcDbText
 10
10207.91297295563
 20
3329.106969457704
 30
0.0
 40
72.0
  1
水勾配
 41
0.8
  7
STYLE1
100
AcDbText
  0
LINE
  5
13FCE
330
747D
100
AcDbEntity
  8
部品1
 48
50.0
100
AcDbLine
 10
11527.45023208723
 20
3070.402601503318
 30
0.0
 11
11527.45023208723
 21
2955.602601503321
 31
0.0
  0
LINE
  5
13FCF
330
747D
100
AcDbEntity
  8
細線
 48
50.0
100
AcDbLine
 10
11538.32226282285
 20
2955.602601503321
 30
0.0
 11
11547.47888790327
 21
2934.60260150332
 31
0.0
  0
LINE
  5
13FD0
330
747D
100
AcDbEntity
  8
文字
 48
50.0
100
AcDbLine
 10
11305.34294138862
 20
3170.943682177906
 30
0.0
 11
11236.69172352348
 21
3152.548643791531
 31
0.0
  0
LINE
  5
13FD1
330
747D
100
AcDbEntity
  8
文字
 48
50.0
100
AcDbLine
 10
11305.34294138862
 20
3170.943682177906
 30
0.0
 11
11236.69172352348
 21
3189.338720564283
 31
0.0
  0
LINE
  5
13FD2
330
747D
100
AcDbEntity
  8
細線
 48
50.0
100
AcDbLine
 10
11432.7241335512
 20
2955.602601503322
 30
0.0
 11
11527.45023208723
 21
3050.328700039354
 31
0.0
  0
LINE
  5
13FD3
330
747D
100
AcDbEntity
  8
細線
 48
50.0
100
AcDbLine
 10
11414.9050426653
 20
2955.602601503321
 30
0.0
 11
11527.45023208723
 21
3068.147790925258
 31
0.0
  0
LINE
  5
13FD4
330
747D
100
AcDbEntity
  8
細線
 48
50.0
100
AcDbLine
 10
11454.32226282285
 20
2955.602601503321
 30
0.0
 11
11463.47888790327
 21
2934.602601503322
 31
0.0
  0
LINE
  5
13FD5
330
747D
100
AcDbEntity
  8
細線
 48
50.0
100
AcDbLine
 10
11385.46480119495
 20
2951.048763107045
 30
0.0
 11
11387.12226282286
 21
2955.602601503321
 31
0.0
  0
LINE
  5
13FD6
330
747D
100
AcDbEntity
  8
細線
 48
50.0
100
AcDbLine
 10
11286.32226282285
 20
2955.602601503321
 30
0.0
 11
11295.47888790327
 21
2934.60260150332
 31
0.0
  0
LINE
  5
13FD7
330
747D
100
AcDbEntity
  8
部品1
 48
50.0
100
AcDbLine
 10
11385.46480119495
 20
3098.602601503321
 30
0.0
 11
11502.25023208724
 21
3095.60260150332
 31
0.0
  0
LINE
  5
13FD8
330
747D
100
AcDbEntity
  8
部品1
 48
50.0
100
AcDbLine
 10
11385.46480119495
 20
2955.602601503321
 30
0.0
 11
11567.95857172978
 21
2955.602601503321
 31
0.0
  0
LINE
  5
13FD9
330
747D
100
AcDbEntity
  8
部品1
 48
50.0
100
AcDbLine
 10
11527.45023208723
 20
3070.40260150332
 30
0.0
 11
11502.25023208724
 21
3095.60260150332
 31
0.0
  0
LINE
  5
13FDA
330
747D
100
AcDbEntity
  8
細線
 48
50.0
100
AcDbLine
 10
11450.5432244371
 20
2955.602601503321
 30
0.0
 11
11527.45023208723
 21
3032.50960915346
 31
0.0
  0
LINE
  5
13FDB
330
747D
100
AcDbEntity
  8
細線
 48
50.0
100
AcDbLine
 10
11332.52672768293
 20
2805.602601503322
 30
0.0
 11
11361.46480119495
 21
2885.109305040131
 31
0.0
  0
LINE
  5
13FDC
330
747D
100
AcDbEntity
  8
部品1
 48
50.0
100
AcDbLine
 10
11385.46480119495
 20
2805.602601503322
 30
0.0
 11
11567.95857172978
 21
2805.602601503322
 31
0.0
  0
LINE
  5
13FDD
330
747D
100
AcDbEntity
  8
部品1
 48
50.0
100
AcDbLine
 10
11361.46480119495
 20
3126.817089598731
 30
0.0
 11
11361.46480119495
 21
2764.721447307096
 31
0.0
  0
LINE
  5
13FDE
330
747D
100
AcDbEntity
  8
部品1
 48
50.0
100
AcDbLine
 10
11385.46480119495
 20
3126.817089598731
 30
0.0
 11
11385.46480119495
 21
2764.721447307096
 31
0.0
  0
LINE
  5
13FDF
330
747D
100
AcDbEntity
  8
細線
 48
50.0
100
AcDbLine
 10
11500.52672768293
 20
2805.602601503322
 30
0.0
 11
11555.12226282286
 21
2955.602601503321
 31
0.0
  0
LINE
  5
13FE0
330
747D
100
AcDbEntity
  8
細線
 48
50.0
100
AcDbLine
 10
11416.52672768293
 20
2805.602601503322
 30
0.0
 11
11471.12226282286
 21
2955.602601503321
 31
0.0
  0
LINE
  5
13FE1
330
747D
100
AcDbEntity
  8
部品1
 48
50.0
100
AcDbLine
 10
11293.26201330531
 20
2005.155748320804
 30
0.0
 11
11293.26201330531
 21
2206.155748320803
 31
0.0
  0
DIMENSION
  5
13FE2
330
747D
100
AcDbEntity
  8
寸法
 48
50.0
100
AcDbDimension
  2
*D66
 10
11832.97061363648
 20
2131.155748320804
 30
0.0
 11
11832.97061363648
 21
1951.453090840491
 31
0.0
 70
   160
 71
     5
 42
50.0000000025
  3
INABA_S30G詳細用20
100
AcDbAlignedDimension
 13
11293.26201330531
 23
2206.155748320803
 33
0.0
 14
11293.26201330531
 24
2131.155748320804
 34
0.0
 50
90.0
100
AcDbRotatedDimension
  0
DIMENSION
  5
13FE3
330
747D
100
AcDbEntity
  8
寸法
 48
50.0
100
AcDbDimension
  2
*D67
 10
11832.97061363648
 20
2206.155748320803
 30
0.0
 11
11757.97061363648
 21
2618.379174912065
 31
0.0
 70
    32
 71
     5
 42
549.6312354824939
  3
INABA_S30G詳細用20
100
AcDbAlignedDimension
 13
11527.45023208723
 23
3030.602601503322
 33
0.0
 14
11293.26201330531
 24
2206.155748320803
 34
0.0
 50
90.0
100
AcDbRotatedDimension
  0
LINE
  5
13FE4
330
747D
100
AcDbEntity
  8
細線
 48
50.0
100
AcDbLine
 10
11202.32226282285
 20
2955.602601503321
 30
0.0
 11
11211.47888790327
 21
2934.60260150332
 31
0.0
  0
LINE
  5
13FE5
330
747D
100
AcDbEntity
  8
細線
 48
50.0
100
AcDbLine
 10
10929.45534595841
 20
2955.602601503321
 30
0.0
 11
11079.45534595841
 21
3105.602601503321
 31
0.0
  0
LINE
  5
13FE6
330
747D
100
AcDbEntity
  8
部品1
 48
50.0
100
AcDbLine
 10
10729.26201330532
 20
3126.602601503321
 30
0.0
 11
10750.26201330531
 21
3105.602601503321
 31
0.0
  0
LINE
  5
13FE7
330
747D
100
AcDbEntity
  8
部品1
 48
50.0
100
AcDbLine
 10
10708.26201330531
 20
3126.602601503321
 30
0.0
 11
10729.26201330531
 21
3126.602601503321
 31
0.0
  0
LINE
  5
13FE8
330
747D
100
AcDbEntity
  8
細線
 48
50.0
100
AcDbLine
 10
10708.26201330531
 20
2971.997147328908
 30
0.0
 11
10841.86746747972
 21
3105.602601503321
 31
0.0
  0
LINE
  5
13FE9
330
747D
100
AcDbEntity
  8
細線
 48
50.0
100
AcDbLine
 10
10708.26201330531
 20
2989.816238214809
 30
0.0
 11
10824.04837659382
 21
3105.602601503321
 31
0.0
  0
LINE
  5
13FEA
330
747D
100
AcDbEntity
  8
細線
 48
50.0
100
AcDbLine
 10
10708.26201330531
 20
3007.635329100709
 30
0.0
 11
10806.22928570792
 21
3105.602601503321
 31
0.0
  0
LINE
  5
13FEB
330
747D
100
AcDbEntity
  8
細線
 48
50.0
100
AcDbLine
 10
10911.63625507251
 20
2955.602601503322
 30
0.0
 11
11061.63625507251
 21
3105.602601503321
 31
0.0
  0
LINE
  5
13FEC
330
747D
100
AcDbEntity
  8
細線
 48
50.0
100
AcDbLine
 10
10893.81716418661
 20
2955.602601503321
 30
0.0
 11
11043.81716418661
 21
3105.602601503321
 31
0.0
  0
LINE
  5
13FED
330
747D
100
AcDbEntity
  8
細線
 48
50.0
100
AcDbLine
 10
11173.26201330532
 20
2571.783510617404
 30
0.0
 11
10789.44292241942
 21
2955.602601503321
 31
0.0
  0
LINE
  5
13FEE
330
747D
100
AcDbEntity
  8
細線
 48
50.0
100
AcDbLine
 10
11173.26201330532
 20
2589.602601503327
 30
0.0
 11
10807.26201330531
 21
2955.602601503321
 31
0.0
  0
LINE
  5
13FEF
330
747D
100
AcDbEntity
  8
細線
 48
50.0
100
AcDbLine
 10
11173.26201330532
 20
2607.421692389225
 30
0.0
 11
10825.08110419122
 21
2955.602601503321
 31
0.0
  0
LINE
  5
13FF0
330
747D
100
AcDbEntity
  8
細線
 48
50.0
100
AcDbLine
 10
11173.26201330532
 20
2829.602601503336
 30
0.0
 11
11219.12226282286
 21
2955.602601503321
 31
0.0
  0
LINE
  5
13FF1
330
747D
100
AcDbEntity
  8
部品1
 48
50.0
100
AcDbLine
 10
10567.26201330531
 20
3126.602601503321
 30
0.0
 11
10546.26201330531
 21
3105.602601503321
 31
0.0
  0
LINE
  5
13FF2
330
747D
100
AcDbEntity
  8
部品1
 48
50.0
100
AcDbLine
 10
10567.26201330532
 20
3126.602601503321
 30
0.0
 11
10588.26201330531
 21
3126.602601503321
 31
0.0
  0
LINE
  5
13FF3
330
747D
100
AcDbEntity
  8
細線
 48
50.0
100
AcDbLine
 10
10588.26201330531
 20
2954.83381391054
 30
0.0
 11
10587.49322571253
 21
2955.602601503321
 31
0.0
  0
LINE
  5
13FF4
330
747D
100
AcDbEntity
  8
細線
 48
50.0
100
AcDbLine
 10
10588.26201330531
 20
2937.014723024644
 30
0.0
 11
10569.67413482663
 21
2955.602601503321
 31
0.0
  0
LINE
  5
13FF5
330
747D
100
AcDbEntity
  8
細線
 48
50.0
100
AcDbLine
 10
10413.96049811515
 20
2955.602601503321
 30
0.0
 11
10584.96049811514
 21
3126.602601503321
 31
0.0
  0
LINE
  5
13FF6
330
747D
100
AcDbEntity
  8
細線
 48
50.0
100
AcDbLine
 10
10431.77958900105
 20
2955.602601503321
 30
0.0
 11
10588.26201330531
 21
3112.085025807582
 31
0.0
  0
LINE
  5
13FF7
330
747D
100
AcDbEntity
  8
細線
 48
50.0
100
AcDbLine
 10
10194.19171052237
 20
2955.602601503321
 30
0.0
 11
10344.19171052237
 21
3105.602601503321
 31
0.0
  0
LINE
  5
13FF8
330
747D
100
AcDbEntity
  8
細線
 48
50.0
100
AcDbLine
 10
10176.37261963647
 20
2955.602601503321
 30
0.0
 11
10326.37261963647
 21
3105.602601503321
 31
0.0
  0
LINE
  5
13FF9
330
747D
100
AcDbEntity
  8
細線
 48
50.0
100
AcDbLine
 10
10396.14140722925
 20
2955.602601503321
 30
0.0
 11
10546.14140722925
 21
3105.602601503321
 31
0.0
  0
LINE
  5
13FFA
330
747D
100
AcDbEntity
  8
細線
 48
50.0
100
AcDbLine
 10
10094.32393979328
 20
2805.602601503322
 30
0.0
 11
10123.26201330531
 21
2885.109305040131
 31
0.0
  0
LINE
  5
13FFB
330
747D
100
AcDbEntity
  8
細線
 48
50.0
100
AcDbLine
 10
10101.86736593142
 20
2826.327994483169
 30
0.0
 11
10110.90425417715
 21
2805.602601503322
 31
0.0
  0
LINE
  5
13FFC
330
747D
100
AcDbEntity
  8
細線
 48
50.0
100
AcDbLine
 10
10588.26201330531
 20
2919.195632138741
 30
0.0
 11
10551.85504394073
 21
2955.602601503321
 31
0.0
  0
LINE
  5
13FFD
330
747D
100
AcDbEntity
  8
細線
 48
50.0
100
AcDbLine
 10
10588.26201330531
 20
2717.245935431859
 30
0.0
 11
10349.90534723385
 21
2955.602601503321
 31
0.0
  0
LINE
  5
13FFE
330
747D
100
AcDbEntity
  8
細線
 48
50.0
100
AcDbLine
 10
10588.26201330531
 20
2699.426844545961
 30
0.0
 11
10332.08625634795
 21
2955.602601503321
 31
0.0
  0
LINE
  5
13FFF
330
747D
100
AcDbEntity
  8
細線
 48
50.0
100
AcDbLine
 10
10588.26201330531
 20
2681.607753660062
 30
0.0
 11
10314.26716546205
 21
2955.602601503321
 31
0.0
  0
CIRCLE
  5
14000
330
747D
100
AcDbEntity
  8
部品1
 48
5.0
100
AcDbCircle
 10
10972.26201330532
 20
2324.855748320806
 30
0.0
 40
8.4
  0
LINE
  5
14001
330
747D
100
AcDbEntity
  8
部品1
 48
50.0
100
AcDbLine
 10
10995.88701330531
 20
2299.655748320803
 30
0.0
 11
10995.88701330531
 21
2316.455748320807
 31
0.0
  0
LINE
  5
14002
330
747D
100
AcDbEntity
  8
細線
 48
50.0
100
AcDbLine
 10
10939.82226282285
 20
2131.155748320804
 30
0.0
 11
10948.97888790326
 21
2110.155748320804
 31
0.0
  0
LINE
  5
14003
330
747D
100
AcDbEntity
  8
細線
 48
50.0
100
AcDbLine
 10
11023.82226282285
 20
2131.155748320804
 30
0.0
 11
11032.97888790326
 21
2110.155748320804
 31
0.0
  0
LINE
  5
14004
330
747D
100
AcDbEntity
  8
細線
 48
50.0
100
AcDbLine
 10
11070.83231608825
 20
2206.155748320803
 30
0.0
 11
10995.83231608825
 21
2131.155748320804
 31
0.0
  0
LINE
  5
14005
330
747D
100
AcDbEntity
  8
細線
 48
50.0
100
AcDbLine
 10
11088.65140697415
 20
2206.155748320803
 30
0.0
 11
11013.65140697415
 21
2131.155748320804
 31
0.0
  0
LINE
  5
14006
330
747D
100
AcDbEntity
  8
細線
 48
50.0
100
AcDbLine
 10
11106.47049786005
 20
2206.155748320803
 30
0.0
 11
11031.47049786005
 21
2131.155748320804
 31
0.0
  0
CIRCLE
  5
14007
330
747D
100
AcDbEntity
  8
部品1
 48
5.0
100
AcDbCircle
 10
10756.26201330532
 20
2324.855748320806
 30
0.0
 40
8.4
  0
LINE
  5
14008
330
747D
100
AcDbEntity
  8
細線
 48
50.0
100
AcDbLine
 10
10855.82226282285
 20
2131.155748320804
 30
0.0
 11
10864.97888790326
 21
2110.155748320804
 31
0.0
  0
LINE
  5
14009
330
747D
100
AcDbEntity
  8
細線
 48
50.0
100
AcDbLine
 10
10687.82226282285
 20
2131.155748320804
 30
0.0
 11
10696.97888790326
 21
2110.155748320804
 31
0.0
  0
LINE
  5
1400A
330
747D
100
AcDbEntity
  8
細線
 48
50.0
100
AcDbLine
 10
10771.82226282285
 20
2131.155748320804
 30
0.0
 11
10780.97888790326
 21
2110.155748320804
 31
0.0
  0
LINE
  5
1400B
330
747D
100
AcDbEntity
  8
細線
 48
50.0
100
AcDbLine
 10
10833.24443760957
 20
2206.155748320803
 30
0.0
 11
10758.24443760957
 21
2131.155748320804
 31
0.0
  0
LINE
  5
1400C
330
747D
100
AcDbEntity
  8
細線
 48
50.0
100
AcDbLine
 10
10851.06352849547
 20
2206.155748320803
 30
0.0
 11
10776.06352849547
 21
2131.155748320804
 31
0.0
  0
LINE
  5
1400D
330
747D
100
AcDbEntity
  8
細線
 48
50.0
100
AcDbLine
 10
10868.88261938138
 20
2206.155748320803
 30
0.0
 11
10793.88261938137
 21
2131.155748320804
 31
0.0
  0
LINE
  5
1400E
330
747D
100
AcDbEntity
  8
細線
 48
50.0
100
AcDbLine
 10
11002.4053882249
 20
2026.155748320804
 30
0.0
 11
11011.56201330531
 21
2005.155748320804
 31
0.0
  0
LINE
  5
1400F
330
747D
100
AcDbEntity
  8
細線
 48
50.0
100
AcDbLine
 10
10834.4053882249
 20
2026.155748320804
 30
0.0
 11
10843.56201330531
 21
2005.155748320804
 31
0.0
  0
LINE
  5
14010
330
747D
100
AcDbEntity
  8
細線
 48
50.0
100
AcDbLine
 10
10750.4053882249
 20
2026.155748320804
 30
0.0
 11
10759.56201330531
 21
2005.155748320804
 31
0.0
  0
LINE
  5
14011
330
747D
100
AcDbEntity
  8
細線
 48
50.0
100
AcDbLine
 10
10918.4053882249
 20
2026.155748320804
 30
0.0
 11
10927.56201330531
 21
2005.155748320804
 31
0.0
  0
LINE
  5
14012
330
747D
100
AcDbEntity
  8
細線
 48
50.0
100
AcDbLine
 10
10742.76201330532
 20
2005.155748320804
 30
0.0
 11
10788.62226282286
 21
2131.155748320804
 31
0.0
  0
LINE
  5
14013
330
747D
100
AcDbEntity
  8
細線
 48
50.0
100
AcDbLine
 10
10826.76201330531
 20
2005.155748320804
 30
0.0
 11
10872.62226282285
 21
2131.155748320804
 31
0.0
  0
LINE
  5
14014
330
747D
100
AcDbEntity
  8
細線
 48
50.0
100
AcDbLine
 10
10910.76201330531
 20
2005.155748320804
 30
0.0
 11
10956.62226282285
 21
2131.155748320804
 31
0.0
  0
LINE
  5
14015
330
747D
100
AcDbEntity
  8
細線
 48
50.0
100
AcDbLine
 10
10994.76201330531
 20
2005.155748320804
 30
0.0
 11
11040.62226282285
 21
2131.155748320804
 31
0.0
  0
CIRCLE
  5
14016
330
747D
100
AcDbEntity
  8
部品1
 48
50.0
100
AcDbCircle
 10
10648.26201330531
 20
2468.155748320804
 30
0.0
 40
8.4
  0
CIRCLE
  5
14017
330
747D
100
AcDbEntity
  8
部品1
 48
5.0
100
AcDbCircle
 10
10540.26201330532
 20
2324.855748320806
 30
0.0
 40
8.4
  0
LINE
  5
14018
330
747D
100
AcDbEntity
  8
細線
 48
50.0
100
AcDbLine
 10
10603.82226282285
 20
2131.155748320804
 30
0.0
 11
10612.97888790326
 21
2110.155748320804
 31
0.0
  0
LINE
  5
14019
330
747D
100
AcDbEntity
  8
細線
 48
50.0
100
AcDbLine
 10
10435.82226282285
 20
2131.155748320804
 30
0.0
 11
10444.97888790326
 21
2110.155748320804
 31
0.0
  0
LINE
  5
1401A
330
747D
100
AcDbEntity
  8
細線
 48
50.0
100
AcDbLine
 10
10519.82226282285
 20
2131.155748320804
 30
0.0
 11
10528.97888790326
 21
2110.155748320804
 31
0.0
  0
LINE
  5
1401B
330
747D
100
AcDbEntity
  8
細線
 48
50.0
100
AcDbLine
 10
10613.4756500168
 20
2206.155748320803
 30
0.0
 11
10538.4756500168
 21
2131.155748320804
 31
0.0
  0
LINE
  5
1401C
330
747D
100
AcDbEntity
  8
細線
 48
50.0
100
AcDbLine
 10
10595.6565591309
 20
2206.155748320803
 30
0.0
 11
10520.6565591309
 21
2131.155748320804
 31
0.0
  0
LINE
  5
1401D
330
747D
100
AcDbEntity
  8
細線
 48
50.0
100
AcDbLine
 10
10631.2947409027
 20
2206.155748320803
 30
0.0
 11
10556.2947409027
 21
2131.155748320804
 31
0.0
  0
CIRCLE
  5
1401E
330
747D
100
AcDbEntity
  8
部品1
 48
5.0
100
AcDbCircle
 10
10324.26201330532
 20
2324.855748320806
 30
0.0
 40
8.4
  0
LINE
  5
1401F
330
747D
100
AcDbEntity
  8
部品1
 48
50.0
100
AcDbLine
 10
10300.63701330531
 20
2299.655748320805
 30
0.0
 11
10300.63701330531
 21
2316.455748320805
 31
0.0
  0
LINE
  5
14020
330
747D
100
AcDbEntity
  8
細線
 48
50.0
100
AcDbLine
 10
10351.82226282285
 20
2131.155748320804
 30
0.0
 11
10360.97888790326
 21
2110.155748320804
 31
0.0
  0
LINE
  5
14021
330
747D
100
AcDbEntity
  8
細線
 48
50.0
100
AcDbLine
 10
10393.70686242402
 20
2206.155748320803
 30
0.0
 11
10318.70686242402
 21
2131.155748320804
 31
0.0
  0
LINE
  5
14022
330
747D
100
AcDbEntity
  8
細線
 48
50.0
100
AcDbLine
 10
10267.82226282285
 20
2131.155748320804
 30
0.0
 11
10276.97888790326
 21
2110.155748320804
 31
0.0
  0
LINE
  5
14023
330
747D
100
AcDbEntity
  8
細線
 48
50.0
100
AcDbLine
 10
10358.06868065222
 20
2206.155748320803
 30
0.0
 11
10283.06868065222
 21
2131.155748320804
 31
0.0
  0
LINE
  5
14024
330
747D
100
AcDbEntity
  8
細線
 48
50.0
100
AcDbLine
 10
10375.88777153812
 20
2206.155748320803
 30
0.0
 11
10300.88777153812
 21
2131.155748320804
 31
0.0
  0
LINE
  5
14025
330
747D
100
AcDbEntity
  8
細線
 48
50.0
100
AcDbLine
 10
10582.4053882249
 20
2026.155748320804
 30
0.0
 11
10591.56201330531
 21
2005.155748320804
 31
0.0
  0
LINE
  5
14026
330
747D
100
AcDbEntity
  8
細線
 48
50.0
100
AcDbLine
 10
10666.4053882249
 20
2026.155748320804
 30
0.0
 11
10675.56201330531
 21
2005.155748320804
 31
0.0
  0
LINE
  5
14027
330
747D
100
AcDbEntity
  8
細線
 48
50.0
100
AcDbLine
 10
10498.4053882249
 20
2026.155748320804
 30
0.0
 11
10507.56201330531
 21
2005.155748320804
 31
0.0
  0
LINE
  5
14028
330
747D
100
AcDbEntity
  8
細線
 48
50.0
100
AcDbLine
 10
10330.4053882249
 20
2026.155748320804
 30
0.0
 11
10339.56201330531
 21
2005.155748320804
 31
0.0
  0
LINE
  5
14029
330
747D
100
AcDbEntity
  8
細線
 48
50.0
100
AcDbLine
 10
10414.4053882249
 20
2026.155748320804
 30
0.0
 11
10423.56201330531
 21
2005.155748320804
 31
0.0
  0
LINE
  5
1402A
330
747D
100
AcDbEntity
  8
細線
 48
50.0
100
AcDbLine
 10
10246.4053882249
 20
2026.155748320804
 30
0.0
 11
10255.56201330531
 21
2005.155748320804
 31
0.0
  0
LINE
  5
1402B
330
747D
100
AcDbEntity
  8
細線
 48
50.0
100
AcDbLine
 10
10490.76201330531
 20
2005.155748320804
 30
0.0
 11
10536.62226282285
 21
2131.155748320804
 31
0.0
  0
LINE
  5
1402C
330
747D
100
AcDbEntity
  8
細線
 48
50.0
100
AcDbLine
 10
10322.76201330531
 20
2005.155748320804
 30
0.0
 11
10368.62226282285
 21
2131.155748320804
 31
0.0
  0
LINE
  5
1402D
330
747D
100
AcDbEntity
  8
細線
 48
50.0
100
AcDbLine
 10
10406.76201330531
 20
2005.155748320804
 30
0.0
 11
10452.62226282285
 21
2131.155748320804
 31
0.0
  0
LINE
  5
1402E
330
747D
100
AcDbEntity
  8
細線
 48
50.0
100
AcDbLine
 10
10574.76201330531
 20
2005.155748320804
 30
0.0
 11
10620.62226282286
 21
2131.155748320804
 31
0.0
  0
LINE
  5
1402F
330
747D
100
AcDbEntity
  8
細線
 48
50.0
100
AcDbLine
 10
10238.76201330532
 20
2005.155748320804
 30
0.0
 11
10284.62226282286
 21
2131.155748320804
 31
0.0
  0
LINE
  5
14030
330
747D
100
AcDbEntity
  8
細線
 48
50.0
100
AcDbLine
 10
10658.76201330532
 20
2005.155748320804
 30
0.0
 11
10704.62226282286
 21
2131.155748320804
 31
0.0
  0
LINE
  5
14031
330
747D
100
AcDbEntity
  8
部品1
 48
50.0
100
AcDbLine
 10
10588.26201330531
 20
2355.655748320804
 30
0.0
 11
10708.26201330531
 21
2355.655748320804
 31
0.0
  0
LINE
  5
14032
330
747D
100
AcDbEntity
  8
部品1
 48
50.0
100
AcDbLine
 10
10300.63701330531
 20
2316.455748320805
 30
0.0
 11
10995.88701330531
 21
2316.455748320807
 31
0.0
  0
LINE
  5
14033
330
747D
100
AcDbEntity
  8
部品1
 48
50.0
100
AcDbLine
 10
10300.63701330531
 20
2299.655748320803
 30
0.0
 11
10995.88701330531
 21
2299.655748320805
 31
0.0
  0
LINE
  5
14034
330
747D
100
AcDbEntity
  8
部品1
 48
50.0
100
AcDbLine
 10
11173.26201330531
 20
2206.155748320803
 30
0.0
 11
11173.26201330532
 21
2955.602601503321
 31
0.0
  0
LINE
  5
14035
330
747D
100
AcDbEntity
  8
部品1
 48
50.0
100
AcDbLine
 10
10123.26201330531
 20
2955.602601503321
 30
0.0
 11
10123.26201330531
 21
2206.155748320803
 31
0.0
  0
LINE
  5
14036
330
747D
100
AcDbEntity
  8
細線
 48
50.0
100
AcDbLine
 10
11173.26201330531
 20
2334.195632138746
 30
0.0
 11
10708.26201330531
 21
2799.195632138737
 31
0.0
  0
LINE
  5
14037
330
747D
100
AcDbEntity
  8
細線
 48
50.0
100
AcDbLine
 10
11173.26201330531
 20
2352.014723024637
 30
0.0
 11
10708.26201330531
 21
2817.014723024639
 31
0.0
  0
LINE
  5
14038
330
747D
100
AcDbEntity
  8
細線
 48
50.0
100
AcDbLine
 10
11173.26201330531
 20
2369.833813910525
 30
0.0
 11
10708.26201330531
 21
2834.833813910544
 31
0.0
  0
LINE
  5
14039
330
747D
100
AcDbEntity
  8
細線
 48
50.0
100
AcDbLine
 10
10861.76432193767
 20
2206.155748320803
 30
0.0
 11
10768.26432193767
 21
2299.655748320804
 31
0.0
  0
LINE
  5
1403A
330
747D
100
AcDbEntity
  8
細線
 48
50.0
100
AcDbLine
 10
11099.35220041637
 20
2206.155748320803
 30
0.0
 11
10995.88701330531
 21
2309.620935431861
 31
0.0
  0
LINE
  5
1403B
330
747D
100
AcDbEntity
  8
細線
 48
50.0
100
AcDbLine
 10
11081.53310953047
 20
2206.155748320803
 30
0.0
 11
10988.03310953047
 21
2299.655748320805
 31
0.0
  0
LINE
  5
1403C
330
747D
100
AcDbEntity
  8
細線
 48
50.0
100
AcDbLine
 10
11063.71401864457
 20
2206.155748320803
 30
0.0
 11
10970.21401864456
 21
2299.655748320805
 31
0.0
  0
LINE
  5
1403D
330
747D
100
AcDbEntity
  8
細線
 48
50.0
100
AcDbLine
 10
10843.94523105178
 20
2206.155748320803
 30
0.0
 11
10750.44523105178
 21
2299.655748320804
 31
0.0
  0
LINE
  5
1403E
330
747D
100
AcDbEntity
  8
細線
 48
50.0
100
AcDbLine
 10
10826.12614016588
 20
2206.155748320803
 30
0.0
 11
10732.62614016588
 21
2299.655748320804
 31
0.0
  0
LINE
  5
1403F
330
747D
100
AcDbEntity
  8
細線
 48
50.0
100
AcDbLine
 10
10624.17644345898
 20
2206.155748320803
 30
0.0
 11
10530.67644345899
 21
2299.655748320803
 31
0.0
  0
LINE
  5
14040
330
747D
100
AcDbEntity
  8
細線
 48
50.0
100
AcDbLine
 10
10606.35735257311
 20
2206.155748320803
 30
0.0
 11
10512.85735257311
 21
2299.655748320804
 31
0.0
  0
LINE
  5
14041
330
747D
100
AcDbEntity
  8
細線
 48
50.0
100
AcDbLine
 10
10588.5382616872
 20
2206.155748320803
 30
0.0
 11
10495.0382616872
 21
2299.655748320803
 31
0.0
  0
DIMENSION
  5
14042
330
747D
100
AcDbEntity
  8
寸法
 48
50.0
100
AcDbDimension
  2
*D68
 10
11675.65418477726
 20
2355.655748320803
 30
0.0
 11
11675.65418477726
 21
2693.129174912063
 31
0.0
 70
   160
 71
     5
 42
449.9645688108443
  3
INABA_S30G詳細用20
100
AcDbAlignedDimension
 13
11527.45023208723
 23
3030.602601503322
 33
0.0
 14
10688.26201330531
 24
2355.655748320804
 34
0.0
 50
90.0
100
AcDbRotatedDimension
  0
LINE
  5
14043
330
747D
100
AcDbEntity
  8
細線
 48
50.0
100
AcDbLine
 10
11248.52672768293
 20
2805.602601503322
 30
0.0
 11
11303.12226282286
 21
2955.602601503321
 31
0.0
  0
LINE
  5
14044
330
747D
100
AcDbEntity
  8
部品1
 48
50.0
100
AcDbLine
 10
11173.26201330532
 20
2805.602601503322
 30
0.0
 11
11361.46480119495
 21
2805.602601503322
 31
0.0
  0
LINE
  5
14045
330
747D
100
AcDbEntity
  8
部品1
 48
50.0
100
AcDbLine
 10
10708.26201330531
 20
2955.602601503321
 30
0.0
 11
11361.46480119495
 21
2955.602601503321
 31
0.0
  0
LINE
  5
14046
330
747D
100
AcDbEntity
  8
部品1
 48
50.0
100
AcDbLine
 10
10750.26201330531
 20
3105.602601503321
 30
0.0
 11
11361.46480119495
 21
3105.602601503321
 31
0.0
  0
LEADER
  5
14047
330
747D
100
AcDbEntity
  8
寸法
 48
50.0
100
AcDbLeader
  3
INABA_S30G詳細用20
 73
     0
 74
     0
 40
90.0
 41
234.0000000000001
 76
     2
 10
10648.26201330531
 20
2468.155748320804
 30
0.0
 10
11206.37956998727
 20
2610.919032717891
 30
0.0
1001
ACAD
1000
DSTYLE
1002
{
1070
   341
1005
13CCD
1002
}
  0
MTEXT
  5
14048
102
{ACAD_REACTORS
330
14047
102
}
330
747D
100
AcDbEntity
  8
寸法
 62
     7
 48
50.0
100
AcDbMText
 10
11231.40094757734
 20
2670.200827322038
 30
0.0
 40
90.0
 41
0.0
 71
     4
 72
     1
  1
\A1;ｶﾝｻﾞｼ
  7
STYLE1
 73
     1
 44
1.0
1001
ACAD
1000
MTEXTBEGIN
1070
    73
1070
     1
1070
    44
1040
1.0
1070
    74
1070
     0
1000
MTEXTEND
  0
LINE
  5
14049
330
747D
100
AcDbEntity
  8
文字
 48
50.0
100
AcDbLine
 10
11305.34294138862
 20
3170.943682177906
 30
0.0
 11
10726.84584348465
 21
3170.943682177906
 31
0.0
  0
LINE
  5
1404A
330
747D
100
AcDbEntity
  8
細線
 48
50.0
100
AcDbLine
 10
11234.9050426653
 20
2955.602601503321
 30
0.0
 11
11361.46480119495
 21
3082.162360032977
 31
0.0
  0
LINE
  5
1404B
330
747D
100
AcDbEntity
  8
細線
 48
50.0
100
AcDbLine
 10
11252.7241335512
 20
2955.602601503322
 30
0.0
 11
11361.46480119495
 21
3064.343269147074
 31
0.0
  0
LINE
  5
1404C
330
747D
100
AcDbEntity
  8
細線
 48
50.0
100
AcDbLine
 10
11270.5432244371
 20
2955.602601503321
 30
0.0
 11
11361.46480119495
 21
3046.524178261178
 31
0.0
  0
LINE
  5
1404D
330
747D
100
AcDbEntity
  8
センター
 48
10.0
100
AcDbLine
 10
10648.26201330531
 20
3371.977919866031
 30
0.0
 11
10648.26201330531
 21
2355.655748320804
 31
0.0
  0
DIMENSION
  5
1404E
330
747D
100
AcDbEntity
  8
寸法
 48
50.0
100
AcDbDimension
  2
*D69
 10
11832.97061363648
 20
3030.602601503322
 30
0.0
 11
11832.97061363648
 21
3314.466562534001
 31
0.0
 70
   160
 71
     5
 42
50.00000000249879
  3
INABA_S30G詳細用20
100
AcDbAlignedDimension
 13
11385.46480119495
 23
3105.602601503321
 33
0.0
 14
11527.45023208723
 24
3030.602601503322
 34
0.0
 50
90.0
100
AcDbRotatedDimension
  0
TEXT
  5
1404F
330
747D
100
AcDbEntity
  8
文字
 48
50.0
100
AcDbText
 10
10207.91297295563
 20
3226.516467457734
 30
0.0
 40
72.0
  1
１／１００
 41
0.8
  7
STYLE1
100
AcDbText
  0
TEXT
  5
14050
330
747D
100
AcDbEntity
  8
文字
 48
50.0
100
AcDbText
 10
10777.89166847764
 20
3226.516467457734
 30
0.0
 40
72.0
  1
１／１００
 41
0.8
  7
STYLE1
100
AcDbText
  0
LINE
  5
14051
330
747D
100
AcDbEntity
  8
部品1
 48
10.0
100
AcDbLine
 10
10708.26201330531
 20
3314.6535532658
 30
0.0
 11
10708.26201330531
 21
2355.655748320804
 31
0.0
  0
LINE
  5
14052
330
747D
100
AcDbEntity
  8
部品1
 48
10.0
100
AcDbLine
 10
10588.26201330531
 20
3314.6535532658
 30
0.0
 11
10588.26201330531
 21
2355.655748320804
 31
0.0
  0
LINE
  5
14053
330
747D
100
AcDbEntity
  8
文字
 48
50.0
100
AcDbLine
 10
9991.181085222009
 20
3170.943682177906
 30
0.0
 11
10059.83230308714
 21
3152.548643791531
 31
0.0
  0
LINE
  5
14054
330
747D
100
AcDbEntity
  8
文字
 48
50.0
100
AcDbLine
 10
9991.181085222009
 20
3170.943682177906
 30
0.0
 11
10059.83230308714
 21
3189.338720564283
 31
0.0
  0
LINE
  5
14055
330
747D
100
AcDbEntity
  8
細線
 48
50.0
100
AcDbLine
 10
9964.119474933212
 20
2955.602601503321
 30
0.0
 11
9973.276100013622
 21
2934.602601503322
 31
0.0
  0
LINE
  5
14056
330
747D
100
AcDbEntity
  8
細線
 48
50.0
100
AcDbLine
 10
10048.11947493321
 20
2955.602601503321
 30
0.0
 11
10057.27610001362
 21
2934.602601503322
 31
0.0
  0
LINE
  5
14057
330
747D
100
AcDbEntity
  8
細線
 48
50.0
100
AcDbLine
 10
9880.119474933213
 20
2955.602601503321
 30
0.0
 11
9889.276100013622
 21
2934.60260150332
 31
0.0
  0
LINE
  5
14058
330
747D
100
AcDbEntity
  8
細線
 48
50.0
100
AcDbLine
 10
9850.119722934351
 20
2965.75667416579
 30
0.0
 11
9989.965650271884
 21
3105.602601503322
 31
0.0
  0
LINE
  5
14059
330
747D
100
AcDbEntity
  8
細線
 48
50.0
100
AcDbLine
 10
9857.784741157781
 20
2955.602601503322
 30
0.0
 11
10007.78474115778
 21
3105.602601503321
 31
0.0
  0
LINE
  5
1405A
330
747D
100
AcDbEntity
  8
細線
 48
50.0
100
AcDbLine
 10
9875.603832043685
 20
2955.602601503322
 30
0.0
 11
10025.60383204368
 21
3105.602601503321
 31
0.0
  0
LINE
  5
1405B
330
747D
100
AcDbEntity
  8
細線
 48
50.0
100
AcDbLine
 10
10017.86736593142
 20
2826.327994483169
 30
0.0
 11
10026.90425417716
 21
2805.602601503322
 31
0.0
  0
LINE
  5
1405C
330
747D
100
AcDbEntity
  8
細線
 48
50.0
100
AcDbLine
 10
9933.867365931419
 20
2826.327994483169
 30
0.0
 11
9942.904254177165
 21
2805.602601503322
 31
0.0
  0
LINE
  5
1405D
330
747D
100
AcDbEntity
  8
細線
 48
50.0
100
AcDbLine
 10
9850.11972293435
 20
2827.021339650365
 30
0.0
 11
9896.919474933214
 21
2955.602601503321
 31
0.0
  0
LINE
  5
1405E
330
747D
100
AcDbEntity
  8
細線
 48
50.0
100
AcDbLine
 10
10010.32393979328
 20
2805.602601503322
 30
0.0
 11
10064.91947493321
 21
2955.602601503321
 31
0.0
  0
LINE
  5
1405F
330
747D
100
AcDbEntity
  8
細線
 48
50.0
100
AcDbLine
 10
9926.323939793284
 20
2805.602601503322
 30
0.0
 11
9980.919474933216
 21
2955.602601503321
 31
0.0
  0
DIMENSION
  5
14060
330
747D
100
AcDbEntity
  8
寸法
 48
50.0
100
AcDbDimension
  2
*D70
 10
9659.989387724102
 20
2805.602601503322
 30
0.0
 11
9659.989387724102
 21
2628.567168432456
 31
0.0
 70
   160
 71
     5
 42
100.000000005
  3
INABA_S30G詳細用20
100
AcDbAlignedDimension
 13
9850.119722934351
 23
2955.602601503322
 33
0.0
 14
9850.119722934351
 24
2805.602601503322
 34
0.0
 50
90.0
100
AcDbRotatedDimension
  0
LINE
  5
14061
330
747D
100
AcDbEntity
  8
部品1
 48
50.0
100
AcDbLine
 10
10003.26201330531
 20
2206.155748320803
 30
0.0
 11
10003.26201330531
 21
2005.155748320804
 31
0.0
  0
DIMENSION
  5
14062
330
747D
100
AcDbEntity
  8
寸法
 48
50.0
100
AcDbDimension
  2
*D71
 10
9659.989387724102
 20
2955.602601503321
 30
0.0
 11
9659.989387724102
 21
3282.638034574188
 31
0.0
 70
   160
 71
     5
 42
100.000000005
  3
INABA_S30G詳細用20
100
AcDbAlignedDimension
 13
9850.119722934353
 23
3105.602601503321
 33
0.0
 14
9839.877715762568
 24
2955.602601503321
 34
0.0
 50
90.0
100
AcDbRotatedDimension
  0
LINE
  5
14063
330
747D
100
AcDbEntity
  8
部品1
 48
50.0
100
AcDbLine
 10
10123.26201330531
 20
2805.602601503322
 30
0.0
 11
9850.119722934351
 21
2805.602601503322
 31
0.0
  0
LINE
  5
14064
330
747D
100
AcDbEntity
  8
部品1
 48
50.0
100
AcDbLine
 10
10003.26201330531
 20
2005.155748320804
 30
0.0
 11
11293.26201330531
 21
2005.155748320804
 31
0.0
  0
LINE
  5
14065
330
747D
100
AcDbEntity
  8
部品1
 48
50.0
100
AcDbLine
 10
10003.26201330531
 20
2131.155748320804
 30
0.0
 11
11293.26201330531
 21
2131.155748320804
 31
0.0
  0
LINE
  5
14066
330
747D
100
AcDbEntity
  8
部品1
 48
50.0
100
AcDbLine
 10
10003.26201330531
 20
2206.155748320803
 30
0.0
 11
11293.26201330531
 21
2206.155748320803
 31
0.0
  0
LINE
  5
14067
330
747D
100
AcDbEntity
  8
文字
 48
50.0
100
AcDbLine
 10
9991.181085222009
 20
3170.943682177906
 30
0.0
 11
10569.67818312597
 21
3170.943682177906
 31
0.0
  0
LINE
  5
14068
330
747D
100
AcDbEntity
  8
細線
 48
50.0
100
AcDbLine
 10
10158.55352875056
 20
2955.602601503321
 30
0.0
 11
10308.55352875057
 21
3105.602601503321
 31
0.0
  0
LINE
  5
14069
330
747D
100
AcDbEntity
  8
部品1
 48
50.0
100
AcDbLine
 10
9850.119722934353
 20
3105.602601503321
 30
0.0
 11
10546.26201330531
 21
3105.602601503321
 31
0.0
  0
LINE
  5
1406A
330
747D
100
AcDbEntity
  8
部品1
 48
50.0
100
AcDbLine
 10
9850.119722934351
 20
2955.602601503322
 30
0.0
 11
10588.26201330531
 21
2955.602601503321
 31
0.0
  0
MTEXT
  5
1406B
330
747D
100
AcDbEntity
  8
部品1
 62
     7
 48
5.0
100
AcDbMText
 10
9908.527897439951
 20
2226.370211073026
 30
0.0
 40
90.0
 41
0.0
 71
     6
 72
     1
  1
\A1;4-D10両方向共
  7
STYLE1
 73
     1
 44
1.0
1001
ACAD
1000
MTEXTBEGIN
1070
    73
1070
     1
1070
    44
1040
1.0
1070
    74
1070
     0
1000
MTEXTEND
  0
LINE
  5
1406C
330
747D
100
AcDbEntity
  8
Ｇ．Ｌ
 48
50.0
100
AcDbLine
 10
11527.45023208723
 20
3030.602601503322
 30
0.0
 11
12310.63513861257
 21
3030.60260150332
 31
0.0
  0
MTEXT
  5
1406D
330
747D
100
AcDbEntity
  8
寸法
 62
     7
 48
50.0
100
AcDbMText
 10
11973.52832179045
 20
3096.767886241894
 30
0.0
 40
90.0
 41
1.0
 71
     4
 72
     1
  1
▽G.L
  7
STYLE2
 73
     1
 44
1.0
1001
ACAD
1000
MTEXTBEGIN
1070
    73
1070
     1
1070
    44
1040
1.0
1070
    74
1070
     0
1000
MTEXTEND
  0
DIMENSION
  5
1406E
330
747D
100
AcDbEntity
  8
寸法
 48
50.0
100
AcDbDimension
  2
*D72
 10
11173.26201330531
 20
1753.10567576239
 30
0.0
 11
10648.26201330531
 21
1828.10567576239
 31
0.0
 70
    32
 71
     5
 42
700.000000035
  3
INABA_S30G詳細用20
100
AcDbAlignedDimension
 13
10123.26201330531
 23
2005.155748320804
 33
0.0
 14
11173.26201330531
 24
2005.155748320804
 34
0.0
100
AcDbRotatedDimension
  0
LINE
  5
1406F
330
747D
100
AcDbEntity
  8
細線
 48
50.0
100
AcDbLine
 10
11246.76201330532
 20
2005.155748320804
 30
0.0
 11
11292.62226282286
 21
2131.155748320804
 31
0.0
  0
LINE
  5
14070
330
747D
100
AcDbEntity
  8
細線
 48
50.0
100
AcDbLine
 10
11162.76201330532
 20
2005.155748320804
 30
0.0
 11
11208.62226282286
 21
2131.155748320804
 31
0.0
  0
LINE
  5
14071
330
747D
100
AcDbEntity
  8
細線
 48
50.0
100
AcDbLine
 10
11170.4053882249
 20
2026.155748320804
 30
0.0
 11
11179.56201330531
 21
2005.155748320804
 31
0.0
  0
LINE
  5
14072
330
747D
100
AcDbEntity
  8
細線
 48
50.0
100
AcDbLine
 10
11086.4053882249
 20
2026.155748320804
 30
0.0
 11
11095.56201330531
 21
2005.155748320804
 31
0.0
  0
LINE
  5
14073
330
747D
100
AcDbEntity
  8
細線
 48
50.0
100
AcDbLine
 10
11254.4053882249
 20
2026.155748320804
 30
0.0
 11
11263.56201330531
 21
2005.155748320804
 31
0.0
  0
LINE
  5
14074
330
747D
100
AcDbEntity
  8
細線
 48
50.0
100
AcDbLine
 10
11107.82226282285
 20
2131.155748320804
 30
0.0
 11
11116.97888790326
 21
2110.155748320804
 31
0.0
  0
LINE
  5
14075
330
747D
100
AcDbEntity
  8
細線
 48
50.0
100
AcDbLine
 10
11275.82226282285
 20
2131.155748320804
 30
0.0
 11
11284.97888790326
 21
2110.155748320804
 31
0.0
  0
LINE
  5
14076
330
747D
100
AcDbEntity
  8
細線
 48
50.0
100
AcDbLine
 10
11191.82226282285
 20
2131.155748320804
 30
0.0
 11
11200.97888790326
 21
2110.155748320804
 31
0.0
  0
LINE
  5
14077
330
747D
100
AcDbEntity
  8
細線
 48
50.0
100
AcDbLine
 10
11078.76201330531
 20
2005.155748320804
 30
0.0
 11
11124.62226282286
 21
2131.155748320804
 31
0.0
  0
LINE
  5
14078
330
747D
100
AcDbEntity
  8
細線
 48
50.0
100
AcDbLine
 10
10070.76201330531
 20
2005.155748320804
 30
0.0
 11
10116.62226282286
 21
2131.155748320804
 31
0.0
  0
LINE
  5
14079
330
747D
100
AcDbEntity
  8
細線
 48
50.0
100
AcDbLine
 10
10154.76201330532
 20
2005.155748320804
 30
0.0
 11
10200.62226282286
 21
2131.155748320804
 31
0.0
  0
LINE
  5
1407A
330
747D
100
AcDbEntity
  8
細線
 48
50.0
100
AcDbLine
 10
10078.4053882249
 20
2026.155748320804
 30
0.0
 11
10087.56201330531
 21
2005.155748320804
 31
0.0
  0
LINE
  5
1407B
330
747D
100
AcDbEntity
  8
細線
 48
50.0
100
AcDbLine
 10
10162.4053882249
 20
2026.155748320804
 30
0.0
 11
10171.56201330531
 21
2005.155748320804
 31
0.0
  0
LINE
  5
1407C
330
747D
100
AcDbEntity
  8
細線
 48
50.0
100
AcDbLine
 10
10015.82226282285
 20
2131.155748320804
 30
0.0
 11
10024.97888790326
 21
2110.155748320804
 31
0.0
  0
LINE
  5
1407D
330
747D
100
AcDbEntity
  8
細線
 48
50.0
100
AcDbLine
 10
10183.82226282285
 20
2131.155748320804
 30
0.0
 11
10192.97888790326
 21
2110.155748320804
 31
0.0
  0
LINE
  5
1407E
330
747D
100
AcDbEntity
  8
細線
 48
50.0
100
AcDbLine
 10
10099.82226282285
 20
2131.155748320804
 30
0.0
 11
10108.97888790326
 21
2110.155748320804
 31
0.0
  0
LINE
  5
1407F
330
747D
100
AcDbEntity
  8
細線
 48
50.0
100
AcDbLine
 10
10003.26201330531
 20
2005.843774743713
 30
0.0
 11
10003.56201330531
 21
2005.155748320804
 31
0.0
  0
LINE
  5
14080
330
747D
100
AcDbEntity
  8
細線
 48
50.0
100
AcDbLine
 10
10003.26201330531
 20
2050.489125741798
 30
0.0
 11
10032.62226282285
 21
2131.155748320804
 31
0.0
  0
LINE
  5
14081
330
747D
100
AcDbEntity
  8
細線
 48
50.0
100
AcDbLine
 10
11293.26201330531
 20
2155.359385287392
 30
0.0
 11
11269.05837633872
 21
2131.155748320804
 31
0.0
  0
LINE
  5
14082
330
747D
100
AcDbEntity
  8
細線
 48
50.0
100
AcDbLine
 10
11293.26201330531
 20
2173.178476173287
 30
0.0
 11
11251.23928545282
 21
2131.155748320804
 31
0.0
  0
LINE
  5
14083
330
747D
100
AcDbEntity
  8
細線
 48
50.0
100
AcDbLine
 10
11293.26201330531
 20
2190.99756705919
 30
0.0
 11
11233.42019456692
 21
2131.155748320804
 31
0.0
  0
LINE
  5
14084
330
747D
100
AcDbEntity
  8
細線
 48
50.0
100
AcDbLine
 10
10138.29989305945
 20
2206.155748320803
 30
0.0
 11
10063.29989305944
 21
2131.155748320804
 31
0.0
  0
LINE
  5
14085
330
747D
100
AcDbEntity
  8
細線
 48
50.0
100
AcDbLine
 10
10120.48080217354
 20
2206.155748320803
 30
0.0
 11
10045.48080217354
 21
2131.155748320804
 31
0.0
  0
LINE
  5
14086
330
747D
100
AcDbEntity
  8
細線
 48
50.0
100
AcDbLine
 10
10156.11898394534
 20
2206.155748320803
 30
0.0
 11
10081.11898394534
 21
2131.155748320804
 31
0.0
  0
LINE
  5
14087
330
747D
100
AcDbEntity
  8
細線
 48
50.0
100
AcDbLine
 10
9850.119722934351
 20
2825.749233529757
 30
0.0
 11
9858.904254177163
 21
2805.602601503322
 31
0.0
  0
LINE
  5
14088
330
747D
100
AcDbEntity
  8
細線
 48
50.0
100
AcDbLine
 10
11173.26201330532
 20
2823.594558424633
 30
0.0
 11
11181.10704206681
 21
2805.602601503323
 31
0.0
  0
LINE
  5
14089
330
747D
100
AcDbEntity
  8
細線
 48
50.0
100
AcDbLine
 10
11256.07015382107
 20
2826.327994483169
 30
0.0
 11
11265.10704206681
 21
2805.602601503323
 31
0.0
  0
LINE
  5
1408A
330
747D
100
AcDbEntity
  8
細線
 48
50.0
100
AcDbLine
 10
11340.07015382107
 20
2826.327994483169
 30
0.0
 11
11349.10704206681
 21
2805.602601503323
 31
0.0
  0
LINE
  5
1408B
330
747D
100
AcDbEntity
  8
細線
 48
50.0
100
AcDbLine
 10
11424.07015382107
 20
2826.327994483169
 30
0.0
 11
11433.1070420668
 21
2805.602601503322
 31
0.0
  0
LINE
  5
1408C
330
747D
100
AcDbEntity
  8
細線
 48
50.0
100
AcDbLine
 10
11508.07015382106
 20
2826.327994483169
 30
0.0
 11
11517.1070420668
 21
2805.602601503322
 31
0.0
  0
LINE
  5
1408D
330
747D
100
AcDbEntity
  8
細線
 48
50.0
100
AcDbLine
 10
11173.26201330532
 20
2845.009570867926
 30
0.0
 11
11062.66898266993
 21
2955.602601503321
 31
0.0
  0
LINE
  5
1408E
330
747D
100
AcDbEntity
  8
細線
 48
50.0
100
AcDbLine
 10
11173.26201330532
 20
2827.190479982029
 30
0.0
 11
11044.84989178402
 21
2955.602601503321
 31
0.0
  0
LINE
  5
1408F
330
747D
100
AcDbEntity
  8
細線
 48
50.0
100
AcDbLine
 10
11173.26201330532
 20
2809.371389096106
 30
0.0
 11
11027.03080089811
 21
2955.602601503321
 31
0.0
  0
LINE
  5
14090
330
747D
100
AcDbEntity
  8
細線
 48
50.0
100
AcDbLine
 10
10350.95038320852
 20
2206.155748320803
 30
0.0
 11
10123.26201330531
 21
2433.844118224011
 31
0.0
  0
LINE
  5
14091
330
747D
100
AcDbEntity
  8
細線
 48
50.0
100
AcDbLine
 10
10368.76947409443
 20
2206.155748320803
 30
0.0
 11
10123.26201330531
 21
2451.663209109913
 31
0.0
  0
LINE
  5
14092
330
747D
100
AcDbEntity
  8
細線
 48
50.0
100
AcDbLine
 10
10386.5885649803
 20
2206.155748320803
 30
0.0
 11
10123.26201330531
 21
2469.482299995805
 31
0.0
  0
LINE
  5
14093
330
747D
100
AcDbEntity
  8
細線
 48
50.0
100
AcDbLine
 10
10588.26201330531
 20
2479.658056953166
 30
0.0
 11
10123.26201330531
 21
2944.658056953184
 31
0.0
  0
LINE
  5
14094
330
747D
100
AcDbEntity
  8
細線
 48
50.0
100
AcDbLine
 10
10588.26201330531
 20
2461.838966067276
 30
0.0
 11
10123.26201330531
 21
2926.838966067274
 31
0.0
  0
LINE
  5
14095
330
747D
100
AcDbEntity
  8
細線
 48
50.0
100
AcDbLine
 10
10588.26201330531
 20
2444.019875181377
 30
0.0
 11
10123.26201330531
 21
2909.019875181384
 31
0.0
  0
LINE
  5
14096
330
747D
100
AcDbEntity
  8
細線
 48
50.0
100
AcDbLine
 10
10972.2522061414
 20
2333.255742595777
 30
0.0
 11
10708.26201330531
 21
2597.245935431855
 31
0.0
  0
LINE
  5
14097
330
747D
100
AcDbEntity
  8
細線
 48
50.0
100
AcDbLine
 10
10963.93453728275
 20
2323.75432056853
 30
0.0
 11
10708.26201330531
 21
2579.426844545956
 31
0.0
  0
LINE
  5
14098
330
747D
100
AcDbEntity
  8
細線
 48
50.0
100
AcDbLine
 10
10971.23310953047
 20
2316.455748320807
 30
0.0
 11
10971.16058555304
 21
2316.528272298234
 31
0.0
  0
LINE
  5
14099
330
747D
100
AcDbEntity
  8
細線
 48
50.0
100
AcDbLine
 10
10989.05220041636
 20
2316.455748320807
 30
0.0
 11
10980.66200758029
 21
2324.845941156885
 31
0.0
  0
LINE
  5
1409A
330
747D
100
AcDbEntity
  8
細線
 48
50.0
100
AcDbLine
 10
10953.41401864456
 20
2316.455748320807
 30
0.0
 11
10708.26201330531
 21
2561.607753660054
 31
0.0
  0
LINE
  5
1409B
330
747D
100
AcDbEntity
  8
細線
 48
50.0
100
AcDbLine
 10
10715.82614016588
 20
2316.455748320805
 30
0.0
 11
10676.62614016588
 21
2355.655748320804
 31
0.0
  0
LINE
  5
1409C
330
747D
100
AcDbEntity
  8
細線
 48
50.0
100
AcDbLine
 10
10751.46432193767
 20
2316.455748320807
 30
0.0
 11
10708.26201330531
 21
2359.658056953162
 31
0.0
  0
LINE
  5
1409D
330
747D
100
AcDbEntity
  8
細線
 48
50.0
100
AcDbLine
 10
10733.64523105178
 20
2316.455748320805
 30
0.0
 11
10694.44523105178
 21
2355.655748320804
 31
0.0
  0
LINE
  5
1409E
330
747D
100
AcDbEntity
  8
細線
 48
50.0
100
AcDbLine
 10
10513.87644345899
 20
2316.455748320805
 30
0.0
 11
10123.26201330531
 21
2707.070178474503
 31
0.0
  0
LINE
  5
1409F
330
747D
100
AcDbEntity
  8
細線
 48
50.0
100
AcDbLine
 10
10478.2382616872
 20
2316.455748320805
 30
0.0
 11
10123.26201330531
 21
2671.4319967027
 31
0.0
  0
LINE
  5
140A0
330
747D
100
AcDbEntity
  8
細線
 48
50.0
100
AcDbLine
 10
10496.05735257311
 20
2316.455748320805
 30
0.0
 11
10123.26201330531
 21
2689.251087588595
 31
0.0
  0
LINE
  5
140A1
330
747D
100
AcDbEntity
  8
細線
 48
50.0
100
AcDbLine
 10
10496.05735257312
 20
5597.436281726284
 30
0.0
 11
10434.41049939064
 21
5659.083134908754
 31
0.0
  0
LINE
  5
140A2
330
747D
100
AcDbEntity
  8
細線
 48
50.0
100
AcDbLine
 10
10478.23826168721
 20
5597.436281726283
 30
0.0
 11
10123.26201330532
 21
5952.412530108177
 31
0.0
  0
LINE
  5
140A3
330
747D
100
AcDbEntity
  8
細線
 48
50.0
100
AcDbLine
 10
10513.876443459
 20
5597.436281726284
 30
0.0
 11
10452.22959027652
 21
5659.083134908758
 31
0.0
  0
LINE
  5
140A4
330
747D
100
AcDbEntity
  8
細線
 48
50.0
100
AcDbLine
 10
10953.41401864457
 20
5597.436281726285
 30
0.0
 11
10807.26201330532
 21
5743.588287065534
 31
0.0
  0
LINE
  5
140A5
330
747D
100
AcDbEntity
  8
細線
 48
50.0
100
AcDbLine
 10
10989.05220041637
 20
5597.436281726285
 30
0.0
 11
10980.66200758029
 21
5605.826474562363
 31
0.0
  0
LINE
  5
140A6
330
747D
100
AcDbEntity
  8
細線
 48
50.0
100
AcDbLine
 10
10971.23310953047
 20
5597.436281726285
 30
0.0
 11
10971.16058555305
 21
5597.508805703712
 31
0.0
  0
LINE
  5
140A7
330
747D
100
AcDbEntity
  8
細線
 48
50.0
100
AcDbLine
 10
10963.93453728275
 20
5604.734853974007
 30
0.0
 11
10807.26201330532
 21
5761.407377951439
 31
0.0
  0
LINE
  5
140A8
330
747D
100
AcDbEntity
  8
細線
 48
50.0
100
AcDbLine
 10
10972.2522061414
 20
5614.236276001254
 30
0.0
 11
10807.26201330532
 21
5779.226468837333
 31
0.0
  0
LINE
  5
140A9
330
747D
100
AcDbEntity
  8
細線
 48
50.0
100
AcDbLine
 10
10715.82614016588
 20
5597.436281726285
 30
0.0
 11
10507.26201330532
 21
5806.000408586857
 31
0.0
  0
LINE
  5
140AA
330
747D
100
AcDbEntity
  8
細線
 48
50.0
100
AcDbLine
 10
10733.64523105178
 20
5597.436281726284
 30
0.0
 11
10507.26201330532
 21
5823.81949947275
 31
0.0
  0
LINE
  5
140AB
330
747D
100
AcDbEntity
  8
細線
 48
50.0
100
AcDbLine
 10
10751.46432193767
 20
5597.436281726285
 30
0.0
 11
10507.26201330531
 21
5841.638590358644
 31
0.0
  0
LINE
  5
140AC
330
747D
100
AcDbEntity
  8
細線
 48
50.0
100
AcDbLine
 10
10386.5885649803
 20
5487.136281726282
 30
0.0
 11
10123.26201330532
 21
5750.462833401283
 31
0.0
  0
LINE
  5
140AD
330
747D
100
AcDbEntity
  8
細線
 48
50.0
100
AcDbLine
 10
10368.76947409443
 20
5487.136281726282
 30
0.0
 11
10123.26201330532
 21
5732.643742515391
 31
0.0
  0
LINE
  5
140AE
330
747D
100
AcDbEntity
  8
細線
 48
50.0
100
AcDbLine
 10
10350.95038320852
 20
5487.136281726282
 30
0.0
 11
10123.26201330532
 21
5714.824651629488
 31
0.0
  0
LINE
  5
140AF
330
747D
100
AcDbEntity
  8
細線
 48
50.0
100
AcDbLine
 10
11508.07015382107
 20
6107.308527888647
 30
0.0
 11
11517.1070420668
 21
6086.5831349088
 31
0.0
  0
LINE
  5
140B0
330
747D
100
AcDbEntity
  8
細線
 48
50.0
100
AcDbLine
 10
11424.07015382107
 20
6107.308527888647
 30
0.0
 11
11433.10704206681
 21
6086.5831349088
 31
0.0
  0
LINE
  5
140B1
330
747D
100
AcDbEntity
  8
細線
 48
50.0
100
AcDbLine
 10
11340.07015382107
 20
6107.308527888647
 30
0.0
 11
11349.10704206682
 21
6086.5831349088
 31
0.0
  0
LINE
  5
140B2
330
747D
100
AcDbEntity
  8
細線
 48
50.0
100
AcDbLine
 10
11256.07015382107
 20
6107.308527888647
 30
0.0
 11
11265.10704206682
 21
6086.5831349088
 31
0.0
  0
LINE
  5
140B3
330
747D
100
AcDbEntity
  8
細線
 48
50.0
100
AcDbLine
 10
11173.26201330533
 20
6104.575091830111
 30
0.0
 11
11181.10704206682
 21
6086.5831349088
 31
0.0
  0
LINE
  5
140B4
330
747D
100
AcDbEntity
  8
細線
 48
50.0
100
AcDbLine
 10
9850.119722934357
 20
6106.729766935234
 30
0.0
 11
9858.904254177168
 21
6086.5831349088
 31
0.0
  0
LINE
  5
140B5
330
747D
100
AcDbEntity
  8
細線
 48
50.0
100
AcDbLine
 10
10156.11898394535
 20
5487.136281726282
 30
0.0
 11
10081.11898394535
 21
5412.136281726282
 31
0.0
  0
LINE
  5
140B6
330
747D
100
AcDbEntity
  8
細線
 48
50.0
100
AcDbLine
 10
10120.48080217355
 20
5487.136281726282
 30
0.0
 11
10045.48080217354
 21
5412.136281726282
 31
0.0
  0
LINE
  5
140B7
330
747D
100
AcDbEntity
  8
細線
 48
50.0
100
AcDbLine
 10
10138.29989305945
 20
5487.136281726282
 30
0.0
 11
10063.29989305945
 21
5412.136281726282
 31
0.0
  0
LINE
  5
140B8
330
747D
100
AcDbEntity
  8
細線
 48
50.0
100
AcDbLine
 10
11293.26201330532
 20
5471.978100464668
 30
0.0
 11
11233.42019456693
 21
5412.136281726282
 31
0.0
  0
LINE
  5
140B9
330
747D
100
AcDbEntity
  8
細線
 48
50.0
100
AcDbLine
 10
11293.26201330532
 20
5454.159009578765
 30
0.0
 11
11251.23928545283
 21
5412.136281726282
 31
0.0
  0
LINE
  5
140BA
330
747D
100
AcDbEntity
  8
細線
 48
50.0
100
AcDbLine
 10
11293.26201330532
 20
5436.339918692869
 30
0.0
 11
11269.05837633873
 21
5412.136281726282
 31
0.0
  0
LINE
  5
140BB
330
747D
100
AcDbEntity
  8
細線
 48
50.0
100
AcDbLine
 10
10003.26201330532
 20
5331.469659147276
 30
0.0
 11
10032.62226282286
 21
5412.136281726282
 31
0.0
  0
LINE
  5
140BC
330
747D
100
AcDbEntity
  8
細線
 48
50.0
100
AcDbLine
 10
10003.26201330532
 20
5286.824308149191
 30
0.0
 11
10003.56201330532
 21
5286.136281726282
 31
0.0
  0
LINE
  5
140BD
330
747D
100
AcDbEntity
  8
細線
 48
50.0
100
AcDbLine
 10
10099.82226282286
 20
5412.136281726282
 30
0.0
 11
10108.97888790327
 21
5391.136281726282
 31
0.0
  0
LINE
  5
140BE
330
747D
100
AcDbEntity
  8
細線
 48
50.0
100
AcDbLine
 10
10183.82226282286
 20
5412.136281726282
 30
0.0
 11
10192.97888790327
 21
5391.136281726282
 31
0.0
  0
LINE
  5
140BF
330
747D
100
AcDbEntity
  8
細線
 48
50.0
100
AcDbLine
 10
10015.82226282286
 20
5412.136281726282
 30
0.0
 11
10024.97888790327
 21
5391.136281726282
 31
0.0
  0
LINE
  5
140C0
330
747D
100
AcDbEntity
  8
細線
 48
50.0
100
AcDbLine
 10
10162.40538822491
 20
5307.136281726282
 30
0.0
 11
10171.56201330532
 21
5286.136281726282
 31
0.0
  0
LINE
  5
140C1
330
747D
100
AcDbEntity
  8
細線
 48
50.0
100
AcDbLine
 10
10078.40538822491
 20
5307.136281726282
 30
0.0
 11
10087.56201330532
 21
5286.136281726282
 31
0.0
  0
LINE
  5
140C2
330
747D
100
AcDbEntity
  8
細線
 48
50.0
100
AcDbLine
 10
10154.76201330532
 20
5286.136281726282
 30
0.0
 11
10200.62226282286
 21
5412.136281726282
 31
0.0
  0
LINE
  5
140C3
330
747D
100
AcDbEntity
  8
細線
 48
50.0
100
AcDbLine
 10
10070.76201330532
 20
5286.136281726282
 30
0.0
 11
10116.62226282286
 21
5412.136281726282
 31
0.0
  0
LINE
  5
140C4
330
747D
100
AcDbEntity
  8
細線
 48
50.0
100
AcDbLine
 10
11078.76201330532
 20
5286.136281726282
 30
0.0
 11
11124.62226282286
 21
5412.136281726282
 31
0.0
  0
LINE
  5
140C5
330
747D
100
AcDbEntity
  8
細線
 48
50.0
100
AcDbLine
 10
11191.82226282286
 20
5412.136281726282
 30
0.0
 11
11200.97888790327
 21
5391.136281726282
 31
0.0
  0
LINE
  5
140C6
330
747D
100
AcDbEntity
  8
細線
 48
50.0
100
AcDbLine
 10
11275.82226282286
 20
5412.136281726282
 30
0.0
 11
11284.97888790327
 21
5391.136281726282
 31
0.0
  0
LINE
  5
140C7
330
747D
100
AcDbEntity
  8
細線
 48
50.0
100
AcDbLine
 10
11107.82226282286
 20
5412.136281726282
 30
0.0
 11
11116.97888790327
 21
5391.136281726282
 31
0.0
  0
LINE
  5
140C8
330
747D
100
AcDbEntity
  8
細線
 48
50.0
100
AcDbLine
 10
11254.40538822491
 20
5307.136281726282
 30
0.0
 11
11263.56201330532
 21
5286.136281726282
 31
0.0
  0
LINE
  5
140C9
330
747D
100
AcDbEntity
  8
細線
 48
50.0
100
AcDbLine
 10
11086.40538822491
 20
5307.136281726282
 30
0.0
 11
11095.56201330532
 21
5286.136281726282
 31
0.0
  0
LINE
  5
140CA
330
747D
100
AcDbEntity
  8
細線
 48
50.0
100
AcDbLine
 10
11170.40538822491
 20
5307.136281726282
 30
0.0
 11
11179.56201330532
 21
5286.136281726282
 31
0.0
  0
LINE
  5
140CB
330
747D
100
AcDbEntity
  8
細線
 48
50.0
100
AcDbLine
 10
11162.76201330532
 20
5286.136281726282
 30
0.0
 11
11208.62226282286
 21
5412.136281726282
 31
0.0
  0
LINE
  5
140CC
330
747D
100
AcDbEntity
  8
細線
 48
50.0
100
AcDbLine
 10
11246.76201330532
 20
5286.136281726282
 30
0.0
 11
11292.62226282286
 21
5412.136281726282
 31
0.0
  0
DIMENSION
  5
140CD
330
747D
100
AcDbEntity
  8
寸法
 48
50.0
100
AcDbDimension
  2
*D73
 10
11173.26201330532
 20
4866.188069236653
 30
0.0
 11
10648.26201330532
 21
4941.188069236652
 31
0.0
 70
    32
 71
     5
 42
700.000000035
  3
INABA_S30G詳細用20
100
AcDbAlignedDimension
 13
10123.26201330532
 23
5286.136281726282
 33
0.0
 14
11173.26201330532
 24
5286.136281726282
 34
0.0
100
AcDbRotatedDimension
  0
MTEXT
  5
140CE
330
747D
100
AcDbEntity
  8
寸法
 62
     7
 48
50.0
100
AcDbMText
 10
11973.52832179046
 20
6377.748419647373
 30
0.0
 40
90.0
 41
1.0
 71
     4
 72
     1
  1
▽G.L
  7
STYLE2
 73
     1
 44
1.0
1001
ACAD
1000
MTEXTBEGIN
1070
    73
1070
     1
1070
    44
1040
1.0
1070
    74
1070
     0
1000
MTEXTEND
  0
LINE
  5
140CF
330
747D
100
AcDbEntity
  8
Ｇ．Ｌ
 48
50.0
100
AcDbLine
 10
11527.45023208724
 20
6311.583134908801
 30
0.0
 11
12310.63513861257
 21
6311.583134908798
 31
0.0
  0
MTEXT
  5
140D0
330
747D
100
AcDbEntity
  8
部品1
 62
     7
 48
5.0
100
AcDbMText
 10
9908.527897439956
 20
5507.350744478504
 30
0.0
 40
90.0
 41
0.0
 71
     6
 72
     1
  1
\A1;4-D10両方向共
  7
STYLE1
 73
     1
 44
1.0
1001
ACAD
1000
MTEXTBEGIN
1070
    73
1070
     1
1070
    44
1040
1.0
1070
    74
1070
     0
1000
MTEXTEND
  0
LINE
  5
140D1
330
747D
100
AcDbEntity
  8
部品1
 48
50.0
100
AcDbLine
 10
9850.119722934357
 20
6236.583134908801
 30
0.0
 11
10123.26201330532
 21
6236.5831349088
 31
0.0
  0
LINE
  5
140D2
330
747D
100
AcDbEntity
  8
部品1
 48
50.0
100
AcDbLine
 10
9850.119722934358
 20
6386.583134908798
 30
0.0
 11
10546.26201330532
 21
6386.583134908798
 31
0.0
  0
LINE
  5
140D3
330
747D
100
AcDbEntity
  8
細線
 48
50.0
100
AcDbLine
 10
10123.26201330532
 20
6201.291619463556
 30
0.0
 11
10308.55352875057
 21
6386.583134908798
 31
0.0
  0
LINE
  5
140D4
330
747D
100
AcDbEntity
  8
文字
 48
50.0
100
AcDbLine
 10
9991.181085222013
 20
6451.924215583384
 30
0.0
 11
10569.67818312598
 21
6451.924215583384
 31
0.0
  0
LINE
  5
140D5
330
747D
100
AcDbEntity
  8
部品1
 48
50.0
100
AcDbLine
 10
10003.26201330532
 20
5487.136281726282
 30
0.0
 11
11293.26201330532
 21
5487.136281726282
 31
0.0
  0
LINE
  5
140D6
330
747D
100
AcDbEntity
  8
部品1
 48
50.0
100
AcDbLine
 10
10003.26201330532
 20
5412.136281726282
 30
0.0
 11
11293.26201330532
 21
5412.136281726282
 31
0.0
  0
LINE
  5
140D7
330
747D
100
AcDbEntity
  8
部品1
 48
50.0
100
AcDbLine
 10
10003.26201330532
 20
5286.136281726282
 30
0.0
 11
11293.26201330532
 21
5286.136281726282
 31
0.0
  0
LINE
  5
140D8
330
747D
100
AcDbEntity
  8
部品1
 48
50.0
100
AcDbLine
 10
10123.26201330532
 20
6086.583134908799
 30
0.0
 11
9850.119722934357
 21
6086.5831349088
 31
0.0
  0
DIMENSION
  5
140D9
330
747D
100
AcDbEntity
  8
寸法
 48
50.0
100
AcDbDimension
  2
*D74
 10
9371.751177226885
 20
6236.583134908798
 30
0.0
 11
9371.751177226881
 21
6589.884162411124
 31
0.0
 70
   160
 71
     5
 42
100.000000005
  3
INABA_S30G詳細用20
100
AcDbAlignedDimension
 13
9850.119722934358
 23
6386.583134908798
 33
0.0
 14
9839.877715762575
 24
6236.583134908798
 34
0.0
 50
90.0
100
AcDbRotatedDimension
  0
LINE
  5
140DA
330
747D
100
AcDbEntity
  8
部品1
 48
50.0
100
AcDbLine
 10
10003.26201330532
 20
5487.136281726282
 30
0.0
 11
10003.26201330532
 21
5286.136281726282
 31
0.0
  0
DIMENSION
  5
140DB
330
747D
100
AcDbEntity
  8
寸法
 48
50.0
100
AcDbDimension
  2
*D75
 10
9371.751177226885
 20
6086.5831349088
 30
0.0
 11
9371.751177226881
 21
5909.547701837933
 31
0.0
 70
   160
 71
     5
 42
100.000000005
  3
INABA_S30G詳細用20
100
AcDbAlignedDimension
 13
9850.119722934357
 23
6236.583134908801
 33
0.0
 14
9850.119722934357
 24
6086.5831349088
 34
0.0
 50
90.0
100
AcDbRotatedDimension
  0
LINE
  5
140DC
330
747D
100
AcDbEntity
  8
細線
 48
50.0
100
AcDbLine
 10
9926.323939793292
 20
6086.5831349088
 30
0.0
 11
9980.919474933221
 21
6236.583134908798
 31
0.0
  0
LINE
  5
140DD
330
747D
100
AcDbEntity
  8
細線
 48
50.0
100
AcDbLine
 10
10010.32393979329
 20
6086.5831349088
 30
0.0
 11
10064.91947493322
 21
6236.583134908798
 31
0.0
  0
LINE
  5
140DE
330
747D
100
AcDbEntity
  8
細線
 48
50.0
100
AcDbLine
 10
9850.119722934355
 20
6108.001873055842
 30
0.0
 11
9896.91947493322
 21
6236.583134908798
 31
0.0
  0
LINE
  5
140DF
330
747D
100
AcDbEntity
  8
細線
 48
50.0
100
AcDbLine
 10
9933.867365931426
 20
6107.308527888647
 30
0.0
 11
9942.90425417717
 21
6086.5831349088
 31
0.0
  0
LINE
  5
140E0
330
747D
100
AcDbEntity
  8
細線
 48
50.0
100
AcDbLine
 10
10017.86736593142
 20
6107.308527888647
 30
0.0
 11
10026.90425417716
 21
6086.5831349088
 31
0.0
  0
LINE
  5
140E1
330
747D
100
AcDbEntity
  8
細線
 48
50.0
100
AcDbLine
 10
9875.60383204369
 20
6236.583134908801
 30
0.0
 11
10025.60383204369
 21
6386.583134908798
 31
0.0
  0
LINE
  5
140E2
330
747D
100
AcDbEntity
  8
細線
 48
50.0
100
AcDbLine
 10
9857.784741157786
 20
6236.583134908801
 30
0.0
 11
10007.78474115778
 21
6386.583134908798
 31
0.0
  0
LINE
  5
140E3
330
747D
100
AcDbEntity
  8
細線
 48
50.0
100
AcDbLine
 10
9850.119722934357
 20
6246.737207571268
 30
0.0
 11
9989.965650271891
 21
6386.583134908798
 31
0.0
  0
LINE
  5
140E4
330
747D
100
AcDbEntity
  8
細線
 48
50.0
100
AcDbLine
 10
9880.119474933216
 20
6236.583134908798
 30
0.0
 11
9889.276100013628
 21
6215.583134908798
 31
0.0
  0
LINE
  5
140E5
330
747D
100
AcDbEntity
  8
細線
 48
50.0
100
AcDbLine
 10
10048.11947493321
 20
6236.583134908798
 30
0.0
 11
10057.27610001363
 21
6215.583134908801
 31
0.0
  0
LINE
  5
140E6
330
747D
100
AcDbEntity
  8
細線
 48
50.0
100
AcDbLine
 10
9964.119474933218
 20
6236.583134908798
 30
0.0
 11
9973.276100013627
 21
6215.583134908801
 31
0.0
  0
LINE
  5
140E7
330
747D
100
AcDbEntity
  8
文字
 48
50.0
100
AcDbLine
 10
9991.181085222013
 20
6451.924215583384
 30
0.0
 11
10059.83230308715
 21
6470.319253969761
 31
0.0
  0
LINE
  5
140E8
330
747D
100
AcDbEntity
  8
文字
 48
50.0
100
AcDbLine
 10
9991.181085222013
 20
6451.924215583384
 30
0.0
 11
10059.83230308715
 21
6433.529177197009
 31
0.0
  0
LINE
  5
140E9
330
747D
100
AcDbEntity
  8
部品1
 48
10.0
100
AcDbLine
 10
10588.26201330532
 20
6595.634086671278
 30
0.0
 11
10588.26201330532
 21
6149.583134908798
 31
0.0
  0
LINE
  5
140EA
330
747D
100
AcDbEntity
  8
部品1
 48
10.0
100
AcDbLine
 10
10708.26201330532
 20
6595.634086671278
 30
0.0
 11
10708.26201330532
 21
6149.583134908798
 31
0.0
  0
TEXT
  5
140EB
330
747D
100
AcDbEntity
  8
文字
 48
50.0
100
AcDbText
 10
10777.89166847765
 20
6507.497000863212
 30
0.0
 40
72.0
  1
１／１００
 41
0.8
  7
STYLE1
100
AcDbText
  0
TEXT
  5
140EC
330
747D
100
AcDbEntity
  8
文字
 48
50.0
100
AcDbText
 10
10207.91297295563
 20
6507.497000863212
 30
0.0
 40
72.0
  1
１／１００
 41
0.8
  7
STYLE1
100
AcDbText
  0
DIMENSION
  5
140ED
330
747D
100
AcDbEntity
  8
寸法
 48
50.0
100
AcDbDimension
  2
*D76
 10
11832.97061363648
 20
6311.583134908801
 30
0.0
 11
11832.97061363648
 21
6595.44709593948
 31
0.0
 70
   160
 71
     5
 42
50.00000000249879
  3
INABA_S30G詳細用20
100
AcDbAlignedDimension
 13
11385.46480119496
 23
6386.583134908798
 33
0.0
 14
11527.45023208724
 24
6311.583134908801
 34
0.0
 50
90.0
100
AcDbRotatedDimension
  0
LINE
  5
140EE
330
747D
100
AcDbEntity
  8
センター
 48
10.0
100
AcDbLine
 10
10648.26201330532
 20
6652.958453271509
 30
0.0
 11
10648.26201330532
 21
6042.281503553829
 31
0.0
  0
LINE
  5
140EF
330
747D
100
AcDbEntity
  8
細線
 48
50.0
100
AcDbLine
 10
11120.5432244371
 20
6086.5831349088
 30
0.0
 11
11173.26201330532
 21
6139.30192377702
 31
0.0
  0
LINE
  5
140F0
330
747D
100
AcDbEntity
  8
細線
 48
50.0
100
AcDbLine
 10
11102.7241335512
 20
6086.583134908801
 30
0.0
 11
11173.26201330532
 21
6157.12101466292
 31
0.0
  0
LINE
  5
140F1
330
747D
100
AcDbEntity
  8
細線
 48
50.0
100
AcDbLine
 10
11084.90504266531
 20
6086.583134908801
 30
0.0
 11
11173.26201330532
 21
6174.94010554882
 31
0.0
  0
LINE
  5
140F2
330
747D
100
AcDbEntity
  8
文字
 48
50.0
100
AcDbLine
 10
11305.34294138862
 20
6451.924215583384
 30
0.0
 11
10726.84584348466
 21
6451.924215583384
 31
0.0
  0
LINE
  5
140F3
330
747D
100
AcDbEntity
  8
部品1
 48
50.0
100
AcDbLine
 10
10750.26201330532
 20
6386.583134908798
 30
0.0
 11
11361.46480119496
 21
6386.583134908798
 31
0.0
  0
LINE
  5
140F4
330
747D
100
AcDbEntity
  8
部品1
 48
50.0
100
AcDbLine
 10
11173.26201330533
 20
6236.583134908798
 30
0.0
 11
11361.46480119496
 21
6236.583134908798
 31
0.0
  0
LINE
  5
140F5
330
747D
100
AcDbEntity
  8
部品1
 48
50.0
100
AcDbLine
 10
10123.26201330532
 20
6086.583134908798
 30
0.0
 11
10489.26201330532
 21
6086.583134908799
 31
0.0
  0
LINE
  5
140F6
330
747D
100
AcDbEntity
  8
細線
 48
50.0
100
AcDbLine
 10
11248.52672768293
 20
6086.5831349088
 30
0.0
 11
11303.12226282286
 21
6236.583134908798
 31
0.0
  0
DIMENSION
  5
140F7
330
747D
100
AcDbEntity
  8
寸法
 48
50.0
100
AcDbDimension
  2
*D77
 10
11832.97061363649
 20
6086.5831349088
 30
0.0
 11
11832.97061363648
 21
6199.0831349088
 31
0.0
 70
   160
 71
     5
 42
150.0000000075
  3
INABA_S30G詳細用20
100
AcDbAlignedDimension
 13
11527.45023208724
 23
6311.583134908801
 33
0.0
 14
11567.95857172978
 24
6086.5831349088
 34
0.0
 50
90.0
100
AcDbRotatedDimension
  0
LINE
  5
140F8
330
747D
100
AcDbEntity
  8
細線
 48
50.0
100
AcDbLine
 10
10588.53826168721
 20
5487.136281726282
 30
0.0
 11
10495.03826168721
 21
5580.636281726281
 31
0.0
  0
LINE
  5
140F9
330
747D
100
AcDbEntity
  8
細線
 48
50.0
100
AcDbLine
 10
10606.35735257312
 20
5487.136281726282
 30
0.0
 11
10512.85735257312
 21
5580.636281726281
 31
0.0
  0
LINE
  5
140FA
330
747D
100
AcDbEntity
  8
細線
 48
50.0
100
AcDbLine
 10
10624.17644345899
 20
5487.136281726282
 30
0.0
 11
10530.67644345899
 21
5580.636281726281
 31
0.0
  0
LINE
  5
140FB
330
747D
100
AcDbEntity
  8
細線
 48
50.0
100
AcDbLine
 10
10826.12614016588
 20
5487.136281726282
 30
0.0
 11
10732.62614016588
 21
5580.636281726282
 31
0.0
  0
LINE
  5
140FC
330
747D
100
AcDbEntity
  8
細線
 48
50.0
100
AcDbLine
 10
10843.94523105179
 20
5487.136281726282
 30
0.0
 11
10750.44523105179
 21
5580.636281726282
 31
0.0
  0
LINE
  5
140FD
330
747D
100
AcDbEntity
  8
細線
 48
50.0
100
AcDbLine
 10
11063.71401864457
 20
5487.136281726282
 30
0.0
 11
10970.21401864457
 21
5580.636281726284
 31
0.0
  0
LINE
  5
140FE
330
747D
100
AcDbEntity
  8
細線
 48
50.0
100
AcDbLine
 10
11081.53310953048
 20
5487.136281726282
 30
0.0
 11
10988.03310953047
 21
5580.636281726284
 31
0.0
  0
LINE
  5
140FF
330
747D
100
AcDbEntity
  8
細線
 48
50.0
100
AcDbLine
 10
11099.35220041638
 20
5487.136281726282
 30
0.0
 11
10995.88701330532
 21
5590.601468837339
 31
0.0
  0
LINE
  5
14100
330
747D
100
AcDbEntity
  8
細線
 48
50.0
100
AcDbLine
 10
10861.76432193767
 20
5487.136281726282
 30
0.0
 11
10768.26432193767
 21
5580.636281726282
 31
0.0
  0
LINE
  5
14101
330
747D
100
AcDbEntity
  8
細線
 48
50.0
100
AcDbLine
 10
11173.26201330532
 20
5650.814347316003
 30
0.0
 11
10807.26201330532
 21
6016.814347316019
 31
0.0
  0
LINE
  5
14102
330
747D
100
AcDbEntity
  8
細線
 48
50.0
100
AcDbLine
 10
11173.26201330532
 20
5632.995256430115
 30
0.0
 11
10807.26201330532
 21
5998.995256430116
 31
0.0
  0
LINE
  5
14103
330
747D
100
AcDbEntity
  8
細線
 48
50.0
100
AcDbLine
 10
11173.26201330532
 20
5615.176165544224
 30
0.0
 11
10807.26201330532
 21
5981.176165544218
 31
0.0
  0
LINE
  5
14104
330
747D
100
AcDbEntity
  8
部品1
 48
50.0
100
AcDbLine
 10
10123.26201330532
 20
6236.5831349088
 30
0.0
 11
10123.26201330532
 21
5487.136281726282
 31
0.0
  0
LINE
  5
14105
330
747D
100
AcDbEntity
  8
部品1
 48
50.0
100
AcDbLine
 10
11173.26201330532
 20
5487.136281726282
 30
0.0
 11
11173.26201330532
 21
6236.583134908798
 31
0.0
  0
LINE
  5
14106
330
747D
100
AcDbEntity
  8
部品1
 48
50.0
100
AcDbLine
 10
10300.63701330532
 20
5580.636281726281
 30
0.0
 11
10995.88701330532
 21
5580.636281726284
 31
0.0
  0
LINE
  5
14107
330
747D
100
AcDbEntity
  8
部品1
 48
50.0
100
AcDbLine
 10
10300.63701330532
 20
5597.436281726283
 30
0.0
 11
10995.88701330532
 21
5597.436281726285
 31
0.0
  0
LINE
  5
14108
330
747D
100
AcDbEntity
  8
細線
 48
50.0
100
AcDbLine
 10
10658.76201330532
 20
5286.136281726282
 30
0.0
 11
10704.62226282286
 21
5412.136281726282
 31
0.0
  0
LINE
  5
14109
330
747D
100
AcDbEntity
  8
細線
 48
50.0
100
AcDbLine
 10
10238.76201330532
 20
5286.136281726282
 30
0.0
 11
10284.62226282286
 21
5412.136281726282
 31
0.0
  0
LINE
  5
1410A
330
747D
100
AcDbEntity
  8
細線
 48
50.0
100
AcDbLine
 10
10574.76201330532
 20
5286.136281726282
 30
0.0
 11
10620.62226282286
 21
5412.136281726282
 31
0.0
  0
LINE
  5
1410B
330
747D
100
AcDbEntity
  8
細線
 48
50.0
100
AcDbLine
 10
10406.76201330532
 20
5286.136281726282
 30
0.0
 11
10452.62226282286
 21
5412.136281726282
 31
0.0
  0
LINE
  5
1410C
330
747D
100
AcDbEntity
  8
細線
 48
50.0
100
AcDbLine
 10
10322.76201330532
 20
5286.136281726282
 30
0.0
 11
10368.62226282286
 21
5412.136281726282
 31
0.0
  0
LINE
  5
1410D
330
747D
100
AcDbEntity
  8
細線
 48
50.0
100
AcDbLine
 10
10490.76201330532
 20
5286.136281726282
 30
0.0
 11
10536.62226282286
 21
5412.136281726282
 31
0.0
  0
LINE
  5
1410E
330
747D
100
AcDbEntity
  8
細線
 48
50.0
100
AcDbLine
 10
10246.40538822491
 20
5307.136281726282
 30
0.0
 11
10255.56201330532
 21
5286.136281726282
 31
0.0
  0
LINE
  5
1410F
330
747D
100
AcDbEntity
  8
細線
 48
50.0
100
AcDbLine
 10
10414.40538822491
 20
5307.136281726282
 30
0.0
 11
10423.56201330532
 21
5286.136281726282
 31
0.0
  0
LINE
  5
14110
330
747D
100
AcDbEntity
  8
細線
 48
50.0
100
AcDbLine
 10
10330.40538822491
 20
5307.136281726282
 30
0.0
 11
10339.56201330532
 21
5286.136281726282
 31
0.0
  0
LINE
  5
14111
330
747D
100
AcDbEntity
  8
細線
 48
50.0
100
AcDbLine
 10
10498.40538822491
 20
5307.136281726282
 30
0.0
 11
10507.56201330532
 21
5286.136281726282
 31
0.0
  0
LINE
  5
14112
330
747D
100
AcDbEntity
  8
細線
 48
50.0
100
AcDbLine
 10
10666.40538822491
 20
5307.136281726282
 30
0.0
 11
10675.56201330532
 21
5286.136281726282
 31
0.0
  0
LINE
  5
14113
330
747D
100
AcDbEntity
  8
細線
 48
50.0
100
AcDbLine
 10
10582.40538822491
 20
5307.136281726282
 30
0.0
 11
10591.56201330532
 21
5286.136281726282
 31
0.0
  0
LINE
  5
14114
330
747D
100
AcDbEntity
  8
細線
 48
50.0
100
AcDbLine
 10
10375.88777153813
 20
5487.136281726282
 30
0.0
 11
10300.88777153813
 21
5412.136281726282
 31
0.0
  0
LINE
  5
14115
330
747D
100
AcDbEntity
  8
細線
 48
50.0
100
AcDbLine
 10
10358.06868065222
 20
5487.136281726282
 30
0.0
 11
10283.06868065222
 21
5412.136281726282
 31
0.0
  0
LINE
  5
14116
330
747D
100
AcDbEntity
  8
細線
 48
50.0
100
AcDbLine
 10
10267.82226282286
 20
5412.136281726282
 30
0.0
 11
10276.97888790327
 21
5391.136281726282
 31
0.0
  0
LINE
  5
14117
330
747D
100
AcDbEntity
  8
細線
 48
50.0
100
AcDbLine
 10
10393.70686242402
 20
5487.136281726282
 30
0.0
 11
10318.70686242403
 21
5412.136281726282
 31
0.0
  0
LINE
  5
14118
330
747D
100
AcDbEntity
  8
細線
 48
50.0
100
AcDbLine
 10
10351.82226282286
 20
5412.136281726282
 30
0.0
 11
10360.97888790327
 21
5391.136281726282
 31
0.0
  0
LINE
  5
14119
330
747D
100
AcDbEntity
  8
部品1
 48
50.0
100
AcDbLine
 10
10300.63701330532
 20
5580.636281726284
 30
0.0
 11
10300.63701330532
 21
5597.436281726283
 31
0.0
  0
CIRCLE
  5
1411A
330
747D
100
AcDbEntity
  8
部品1
 48
5.0
100
AcDbCircle
 10
10324.26201330532
 20
5605.836281726284
 30
0.0
 40
8.4
  0
LINE
  5
1411B
330
747D
100
AcDbEntity
  8
細線
 48
50.0
100
AcDbLine
 10
10631.2947409027
 20
5487.136281726282
 30
0.0
 11
10556.2947409027
 21
5412.136281726282
 31
0.0
  0
LINE
  5
1411C
330
747D
100
AcDbEntity
  8
細線
 48
50.0
100
AcDbLine
 10
10595.6565591309
 20
5487.136281726282
 30
0.0
 11
10520.6565591309
 21
5412.136281726282
 31
0.0
  0
LINE
  5
1411D
330
747D
100
AcDbEntity
  8
細線
 48
50.0
100
AcDbLine
 10
10613.47565001681
 20
5487.136281726282
 30
0.0
 11
10538.4756500168
 21
5412.136281726282
 31
0.0
  0
LINE
  5
1411E
330
747D
100
AcDbEntity
  8
細線
 48
50.0
100
AcDbLine
 10
10519.82226282286
 20
5412.136281726282
 30
0.0
 11
10528.97888790327
 21
5391.136281726282
 31
0.0
  0
LINE
  5
1411F
330
747D
100
AcDbEntity
  8
細線
 48
50.0
100
AcDbLine
 10
10435.82226282286
 20
5412.136281726282
 30
0.0
 11
10444.97888790327
 21
5391.136281726282
 31
0.0
  0
LINE
  5
14120
330
747D
100
AcDbEntity
  8
細線
 48
50.0
100
AcDbLine
 10
10603.82226282286
 20
5412.136281726282
 30
0.0
 11
10612.97888790327
 21
5391.136281726282
 31
0.0
  0
CIRCLE
  5
14121
330
747D
100
AcDbEntity
  8
部品1
 48
5.0
100
AcDbCircle
 10
10540.26201330532
 20
5605.836281726284
 30
0.0
 40
8.4
  0
LINE
  5
14122
330
747D
100
AcDbEntity
  8
細線
 48
50.0
100
AcDbLine
 10
10994.76201330532
 20
5286.136281726282
 30
0.0
 11
11040.62226282286
 21
5412.136281726282
 31
0.0
  0
LINE
  5
14123
330
747D
100
AcDbEntity
  8
細線
 48
50.0
100
AcDbLine
 10
10910.76201330532
 20
5286.136281726282
 30
0.0
 11
10956.62226282286
 21
5412.136281726282
 31
0.0
  0
LINE
  5
14124
330
747D
100
AcDbEntity
  8
細線
 48
50.0
100
AcDbLine
 10
10826.76201330532
 20
5286.136281726282
 30
0.0
 11
10872.62226282286
 21
5412.136281726282
 31
0.0
  0
LINE
  5
14125
330
747D
100
AcDbEntity
  8
細線
 48
50.0
100
AcDbLine
 10
10742.76201330532
 20
5286.136281726282
 30
0.0
 11
10788.62226282286
 21
5412.136281726282
 31
0.0
  0
LINE
  5
14126
330
747D
100
AcDbEntity
  8
細線
 48
50.0
100
AcDbLine
 10
10918.40538822491
 20
5307.136281726282
 30
0.0
 11
10927.56201330532
 21
5286.136281726282
 31
0.0
  0
LINE
  5
14127
330
747D
100
AcDbEntity
  8
細線
 48
50.0
100
AcDbLine
 10
10750.40538822491
 20
5307.136281726282
 30
0.0
 11
10759.56201330532
 21
5286.136281726282
 31
0.0
  0
LINE
  5
14128
330
747D
100
AcDbEntity
  8
細線
 48
50.0
100
AcDbLine
 10
10834.40538822491
 20
5307.136281726282
 30
0.0
 11
10843.56201330532
 21
5286.136281726282
 31
0.0
  0
LINE
  5
14129
330
747D
100
AcDbEntity
  8
細線
 48
50.0
100
AcDbLine
 10
11002.40538822491
 20
5307.136281726282
 30
0.0
 11
11011.56201330532
 21
5286.136281726282
 31
0.0
  0
LINE
  5
1412A
330
747D
100
AcDbEntity
  8
細線
 48
50.0
100
AcDbLine
 10
10868.88261938138
 20
5487.136281726282
 30
0.0
 11
10793.88261938138
 21
5412.136281726282
 31
0.0
  0
LINE
  5
1412B
330
747D
100
AcDbEntity
  8
細線
 48
50.0
100
AcDbLine
 10
10851.06352849548
 20
5487.136281726282
 30
0.0
 11
10776.06352849548
 21
5412.136281726282
 31
0.0
  0
LINE
  5
1412C
330
747D
100
AcDbEntity
  8
細線
 48
50.0
100
AcDbLine
 10
10833.24443760958
 20
5487.136281726282
 30
0.0
 11
10758.24443760958
 21
5412.136281726282
 31
0.0
  0
LINE
  5
1412D
330
747D
100
AcDbEntity
  8
細線
 48
50.0
100
AcDbLine
 10
10771.82226282286
 20
5412.136281726282
 30
0.0
 11
10780.97888790327
 21
5391.136281726282
 31
0.0
  0
LINE
  5
1412E
330
747D
100
AcDbEntity
  8
細線
 48
50.0
100
AcDbLine
 10
10687.82226282286
 20
5412.136281726282
 30
0.0
 11
10696.97888790327
 21
5391.136281726282
 31
0.0
  0
LINE
  5
1412F
330
747D
100
AcDbEntity
  8
細線
 48
50.0
100
AcDbLine
 10
10855.82226282286
 20
5412.136281726282
 30
0.0
 11
10864.97888790327
 21
5391.136281726282
 31
0.0
  0
CIRCLE
  5
14130
330
747D
100
AcDbEntity
  8
部品1
 48
5.0
100
AcDbCircle
 10
10756.26201330532
 20
5605.836281726284
 30
0.0
 40
8.4
  0
LINE
  5
14131
330
747D
100
AcDbEntity
  8
細線
 48
50.0
100
AcDbLine
 10
11106.47049786006
 20
5487.136281726282
 30
0.0
 11
11031.47049786006
 21
5412.136281726282
 31
0.0
  0
LINE
  5
14132
330
747D
100
AcDbEntity
  8
細線
 48
50.0
100
AcDbLine
 10
11088.65140697416
 20
5487.136281726282
 30
0.0
 11
11013.65140697416
 21
5412.136281726282
 31
0.0
  0
LINE
  5
14133
330
747D
100
AcDbEntity
  8
細線
 48
50.0
100
AcDbLine
 10
11070.83231608825
 20
5487.136281726282
 30
0.0
 11
10995.83231608825
 21
5412.136281726282
 31
0.0
  0
LINE
  5
14134
330
747D
100
AcDbEntity
  8
細線
 48
50.0
100
AcDbLine
 10
11023.82226282286
 20
5412.136281726282
 30
0.0
 11
11032.97888790327
 21
5391.136281726282
 31
0.0
  0
LINE
  5
14135
330
747D
100
AcDbEntity
  8
細線
 48
50.0
100
AcDbLine
 10
10939.82226282286
 20
5412.136281726282
 30
0.0
 11
10948.97888790327
 21
5391.136281726282
 31
0.0
  0
LINE
  5
14136
330
747D
100
AcDbEntity
  8
部品1
 48
50.0
100
AcDbLine
 10
10995.88701330532
 20
5580.636281726281
 30
0.0
 11
10995.88701330532
 21
5597.436281726285
 31
0.0
  0
CIRCLE
  5
14137
330
747D
100
AcDbEntity
  8
部品1
 48
5.0
100
AcDbCircle
 10
10972.26201330532
 20
5605.836281726284
 30
0.0
 40
8.4
  0
LINE
  5
14138
330
747D
100
AcDbEntity
  8
細線
 48
50.0
100
AcDbLine
 10
10789.26201330532
 20
5761.588287065536
 30
0.0
 11
10507.26201330532
 21
6043.588287065542
 31
0.0
  0
LINE
  5
14139
330
747D
100
AcDbEntity
  8
細線
 48
50.0
100
AcDbLine
 10
10789.26201330532
 20
5779.407377951436
 30
0.0
 11
10507.26201330532
 21
6061.407377951441
 31
0.0
  0
LINE
  5
1413A
330
747D
100
AcDbEntity
  8
細線
 48
50.0
100
AcDbLine
 10
10789.26201330532
 20
5797.226468837329
 30
0.0
 11
10507.26201330532
 21
6079.226468837343
 31
0.0
  0
LINE
  5
1413B
330
747D
100
AcDbEntity
  8
細線
 48
50.0
100
AcDbLine
 10
10101.86736593142
 20
6107.308527888647
 30
0.0
 11
10110.90425417716
 21
6086.5831349088
 31
0.0
  0
LINE
  5
1413C
330
747D
100
AcDbEntity
  8
細線
 48
50.0
100
AcDbLine
 10
10094.32393979329
 20
6086.5831349088
 30
0.0
 11
10123.26201330531
 21
6166.089838445609
 31
0.0
  0
LINE
  5
1413D
330
747D
100
AcDbEntity
  8
細線
 48
50.0
100
AcDbLine
 10
10246.14140722925
 20
6086.583134908798
 30
0.0
 11
10546.14140722926
 21
6386.583134908798
 31
0.0
  0
LINE
  5
1413E
330
747D
100
AcDbEntity
  8
細線
 48
50.0
100
AcDbLine
 10
10123.26201330532
 20
6183.472528577645
 30
0.0
 11
10326.37261963647
 21
6386.583134908798
 31
0.0
  0
LINE
  5
1413F
330
747D
100
AcDbEntity
  8
細線
 48
50.0
100
AcDbLine
 10
10123.26201330532
 20
6165.653437691742
 30
0.0
 11
10344.19171052237
 21
6386.583134908798
 31
0.0
  0
LINE
  5
14140
330
747D
100
AcDbEntity
  8
細線
 48
50.0
100
AcDbLine
 10
10281.77958900105
 20
6086.583134908798
 30
0.0
 11
10588.26201330532
 21
6393.065559213059
 31
0.0
  0
LINE
  5
14141
330
747D
100
AcDbEntity
  8
細線
 48
50.0
100
AcDbLine
 10
10263.96049811516
 20
6086.583134908798
 30
0.0
 11
10584.96049811515
 21
6407.583134908799
 31
0.0
  0
LINE
  5
14142
330
747D
100
AcDbEntity
  8
部品1
 48
50.0
100
AcDbLine
 10
10567.26201330532
 20
6407.583134908799
 30
0.0
 11
10588.26201330532
 21
6407.583134908799
 31
0.0
  0
LINE
  5
14143
330
747D
100
AcDbEntity
  8
部品1
 48
50.0
100
AcDbLine
 10
10567.26201330532
 20
6407.583134908799
 30
0.0
 11
10546.26201330532
 21
6386.583134908798
 31
0.0
  0
LINE
  5
14144
330
747D
100
AcDbEntity
  8
細線
 48
50.0
100
AcDbLine
 10
11173.26201330532
 20
6110.583134908813
 30
0.0
 11
11219.12226282286
 21
6236.583134908798
 31
0.0
  0
LINE
  5
14145
330
747D
100
AcDbEntity
  8
細線
 48
50.0
100
AcDbLine
 10
11173.26201330532
 20
5888.402225794703
 30
0.0
 11
10975.08110419123
 21
6086.583134908798
 31
0.0
  0
LINE
  5
14146
330
747D
100
AcDbEntity
  8
細線
 48
50.0
100
AcDbLine
 10
11173.26201330532
 20
5870.583134908805
 30
0.0
 11
10957.26201330532
 21
6086.5831349088
 31
0.0
  0
LINE
  5
14147
330
747D
100
AcDbEntity
  8
細線
 48
50.0
100
AcDbLine
 10
11173.26201330532
 20
5852.764044022881
 30
0.0
 11
10939.44292241942
 21
6086.583134908799
 31
0.0
  0
LINE
  5
14148
330
747D
100
AcDbEntity
  8
細線
 48
50.0
100
AcDbLine
 10
10743.81716418662
 20
6086.583134908799
 30
0.0
 11
10788.81716418662
 21
6131.583134908798
 31
0.0
  0
LINE
  5
14149
330
747D
100
AcDbEntity
  8
細線
 48
50.0
100
AcDbLine
 10
10761.63625507251
 20
6086.5831349088
 30
0.0
 11
10789.26201330532
 21
6114.208893141602
 31
0.0
  0
LINE
  5
1414A
330
747D
100
AcDbEntity
  8
細線
 48
50.0
100
AcDbLine
 10
10708.26201330532
 20
6288.615862506187
 30
0.0
 11
10806.22928570793
 21
6386.583134908798
 31
0.0
  0
LINE
  5
1414B
330
747D
100
AcDbEntity
  8
細線
 48
50.0
100
AcDbLine
 10
10708.26201330532
 20
6270.796771620286
 30
0.0
 11
10824.04837659383
 21
6386.583134908798
 31
0.0
  0
LINE
  5
1414C
330
747D
100
AcDbEntity
  8
細線
 48
50.0
100
AcDbLine
 10
10708.26201330532
 20
6252.977680734386
 30
0.0
 11
10841.86746747973
 21
6386.583134908798
 31
0.0
  0
LINE
  5
1414D
330
747D
100
AcDbEntity
  8
部品1
 48
50.0
100
AcDbLine
 10
10708.26201330532
 20
6407.583134908799
 30
0.0
 11
10729.26201330532
 21
6407.583134908799
 31
0.0
  0
LINE
  5
1414E
330
747D
100
AcDbEntity
  8
部品1
 48
50.0
100
AcDbLine
 10
10729.26201330532
 20
6407.583134908799
 30
0.0
 11
10750.26201330532
 21
6386.583134908798
 31
0.0
  0
LINE
  5
1414F
330
747D
100
AcDbEntity
  8
細線
 48
50.0
100
AcDbLine
 10
10779.45534595841
 20
6086.583134908798
 30
0.0
 11
10789.26201330532
 21
6096.389802255703
 31
0.0
  0
LINE
  5
14150
330
747D
100
AcDbEntity
  8
細線
 48
50.0
100
AcDbLine
 10
11202.32226282286
 20
6236.583134908798
 30
0.0
 11
11211.47888790327
 21
6215.583134908798
 31
0.0
  0
DIMENSION
  5
14151
330
747D
100
AcDbEntity
  8
寸法
 48
50.0
100
AcDbDimension
  2
*D78
 10
11832.97061363648
 20
5487.136281726282
 30
0.0
 11
11757.97061363648
 21
5786.859708317543
 31
0.0
 70
    32
 71
     5
 42
399.631235474994
  3
INABA_S30G詳細用20
100
AcDbAlignedDimension
 13
11567.95857172978
 23
6086.5831349088
 33
0.0
 14
11293.26201330532
 24
5487.136281726282
 34
0.0
 50
90.0
100
AcDbRotatedDimension
  0
DIMENSION
  5
14152
330
747D
100
AcDbEntity
  8
寸法
 48
50.0
100
AcDbDimension
  2
*D79
 10
11832.97061363648
 20
5412.136281726282
 30
0.0
 11
11832.97061363648
 21
5232.433624245969
 31
0.0
 70
   160
 71
     5
 42
50.0000000025
  3
INABA_S30G詳細用20
100
AcDbAlignedDimension
 13
11293.26201330532
 23
5487.136281726282
 33
0.0
 14
11293.26201330532
 24
5412.136281726282
 34
0.0
 50
90.0
100
AcDbRotatedDimension
  0
LINE
  5
14153
330
747D
100
AcDbEntity
  8
部品1
 48
50.0
100
AcDbLine
 10
11293.26201330532
 20
5286.136281726282
 30
0.0
 11
11293.26201330532
 21
5487.136281726282
 31
0.0
  0
LINE
  5
14154
330
747D
100
AcDbEntity
  8
細線
 48
50.0
100
AcDbLine
 10
11416.52672768294
 20
6086.5831349088
 30
0.0
 11
11471.12226282286
 21
6236.583134908798
 31
0.0
  0
LINE
  5
14155
330
747D
100
AcDbEntity
  8
細線
 48
50.0
100
AcDbLine
 10
11500.52672768293
 20
6086.5831349088
 30
0.0
 11
11555.12226282286
 21
6236.583134908798
 31
0.0
  0
LINE
  5
14156
330
747D
100
AcDbEntity
  8
部品1
 48
50.0
100
AcDbLine
 10
11385.46480119496
 20
6407.79762300421
 30
0.0
 11
11385.46480119496
 21
6045.701980712575
 31
0.0
  0
LINE
  5
14157
330
747D
100
AcDbEntity
  8
部品1
 48
50.0
100
AcDbLine
 10
11361.46480119496
 20
6407.79762300421
 30
0.0
 11
11361.46480119496
 21
6045.701980712575
 31
0.0
  0
LINE
  5
14158
330
747D
100
AcDbEntity
  8
部品1
 48
50.0
100
AcDbLine
 10
11385.46480119496
 20
6086.5831349088
 30
0.0
 11
11567.95857172978
 21
6086.5831349088
 31
0.0
  0
LINE
  5
14159
330
747D
100
AcDbEntity
  8
細線
 48
50.0
100
AcDbLine
 10
11332.52672768294
 20
6086.5831349088
 30
0.0
 11
11361.46480119496
 21
6166.089838445609
 31
0.0
  0
LINE
  5
1415A
330
747D
100
AcDbEntity
  8
細線
 48
50.0
100
AcDbLine
 10
11450.5432244371
 20
6236.583134908798
 30
0.0
 11
11527.45023208724
 21
6313.490142558937
 31
0.0
  0
LINE
  5
1415B
330
747D
100
AcDbEntity
  8
部品1
 48
50.0
100
AcDbLine
 10
11527.45023208724
 20
6351.383134908798
 30
0.0
 11
11502.25023208724
 21
6376.583134908798
 31
0.0
  0
LINE
  5
1415C
330
747D
100
AcDbEntity
  8
部品1
 48
50.0
100
AcDbLine
 10
11385.46480119496
 20
6236.583134908798
 30
0.0
 11
11567.95857172979
 21
6236.583134908798
 31
0.0
  0
LINE
  5
1415D
330
747D
100
AcDbEntity
  8
部品1
 48
50.0
100
AcDbLine
 10
11385.46480119496
 20
6379.583134908799
 30
0.0
 11
11502.25023208724
 21
6376.583134908798
 31
0.0
  0
LINE
  5
1415E
330
747D
100
AcDbEntity
  8
細線
 48
50.0
100
AcDbLine
 10
11286.32226282286
 20
6236.583134908798
 30
0.0
 11
11295.47888790327
 21
6215.583134908798
 31
0.0
  0
LINE
  5
1415F
330
747D
100
AcDbEntity
  8
細線
 48
50.0
100
AcDbLine
 10
11385.46480119496
 20
6232.029296512522
 30
0.0
 11
11387.12226282286
 21
6236.583134908798
 31
0.0
  0
LINE
  5
14160
330
747D
100
AcDbEntity
  8
細線
 48
50.0
100
AcDbLine
 10
11454.32226282286
 20
6236.583134908798
 30
0.0
 11
11463.47888790327
 21
6215.583134908801
 31
0.0
  0
LINE
  5
14161
330
747D
100
AcDbEntity
  8
細線
 48
50.0
100
AcDbLine
 10
11414.9050426653
 20
6236.583134908798
 30
0.0
 11
11527.45023208724
 21
6349.128324330735
 31
0.0
  0
LINE
  5
14162
330
747D
100
AcDbEntity
  8
細線
 48
50.0
100
AcDbLine
 10
11432.72413355121
 20
6236.583134908801
 30
0.0
 11
11527.45023208724
 21
6331.309233444832
 31
0.0
  0
LINE
  5
14163
330
747D
100
AcDbEntity
  8
文字
 48
50.0
100
AcDbLine
 10
11305.34294138862
 20
6451.924215583384
 30
0.0
 11
11236.69172352349
 21
6470.319253969761
 31
0.0
  0
LINE
  5
14164
330
747D
100
AcDbEntity
  8
文字
 48
50.0
100
AcDbLine
 10
11305.34294138862
 20
6451.924215583384
 30
0.0
 11
11236.69172352349
 21
6433.529177197009
 31
0.0
  0
LINE
  5
14165
330
747D
100
AcDbEntity
  8
細線
 48
50.0
100
AcDbLine
 10
11538.32226282286
 20
6236.583134908798
 30
0.0
 11
11547.47888790327
 21
6215.583134908798
 31
0.0
  0
LINE
  5
14166
330
747D
100
AcDbEntity
  8
部品1
 48
50.0
100
AcDbLine
 10
11527.45023208724
 20
6351.383134908796
 30
0.0
 11
11527.45023208724
 21
6236.583134908798
 31
0.0
  0
TEXT
  5
14167
330
747D
100
AcDbEntity
  8
文字
 48
50.0
100
AcDbText
 10
10207.91297295563
 20
6610.087502863182
 30
0.0
 40
72.0
  1
水勾配
 41
0.8
  7
STYLE1
100
AcDbText
  0
TEXT
  5
14168
330
747D
100
AcDbEntity
  8
文字
 48
50.0
100
AcDbText
 10
10777.89166847765
 20
6610.087502863182
 30
0.0
 40
72.0
  1
水勾配
 41
0.8
  7
STYLE1
100
AcDbText
  0
LINE
  5
14169
330
747D
100
AcDbEntity
  8
部品1
 48
50.0
100
AcDbLine
 10
10460.76201330532
 20
6131.583134908797
 30
0.0
 11
10835.76201330532
 21
6131.583134908797
 31
0.0
  0
LINE
  5
1416A
330
747D
100
AcDbEntity
  8
部品1
 48
50.0
100
AcDbLine
 10
10460.76201330532
 20
6149.583134908798
 30
0.0
 11
10835.76201330532
 21
6149.583134908798
 31
0.0
  0
LINE
  5
1416B
330
747D
100
AcDbEntity
  8
部品1
 48
50.0
100
AcDbLine
 10
10460.76201330532
 20
6149.583134908798
 30
0.0
 11
10460.76201330532
 21
6131.583134908797
 31
0.0
  0
LINE
  5
1416C
330
747D
100
AcDbEntity
  8
部品1
 48
50.0
100
AcDbLine
 10
10835.76201330532
 20
6149.583134908798
 30
0.0
 11
10835.76201330532
 21
6131.583134908797
 31
0.0
  0
ARC
  5
1416D
330
747D
100
AcDbEntity
  8
部品1
 48
50.0
100
AcDbCircle
 10
10648.26201330532
 20
6059.253133002802
 30
0.0
 40
72.33000190599523
100
AcDbArc
 50
22.20066484123042
 51
157.7993351587695
  0
LINE
  5
1416E
330
747D
100
AcDbEntity
  8
部品1
 48
50.0
100
AcDbLine
 10
10588.26201330532
 20
6247.083134908798
 30
0.0
 11
10708.26201330532
 21
6247.083134908798
 31
0.0
  0
LINE
  5
1416F
330
747D
100
AcDbEntity
  8
部品1
 48
50.0
100
AcDbLine
 10
10588.26201330532
 20
6247.083134908798
 30
0.0
 11
10507.26201330531
 21
6171.868849194511
 31
0.0
  0
DIMENSION
  5
14170
330
747D
100
AcDbEntity
  8
寸法
 48
50.0
100
AcDbDimension
  2
*D80
 10
9737.80052164788
 20
6131.583134908798
 30
0.0
 11
9737.800521647878
 21
5857.047701837933
 31
0.0
 70
   160
 71
     5
 42
30.00000000149939
  3
INABA_S30G詳細用20
100
AcDbAlignedDimension
 13
9850.119722934357
 23
6086.583134908799
 33
0.0
 14
10460.76201330532
 24
6131.583134908797
 34
0.0
 50
90.0
100
AcDbRotatedDimension
  0
DIMENSION
  5
14171
330
747D
100
AcDbEntity
  8
寸法
 48
50.0
100
AcDbDimension
  2
*D81
 10
9551.999618254633
 20
6176.083134908799
 30
0.0
 11
9551.999618254631
 21
5929.354788452107
 31
0.0
 70
   160
 71
     5
 42
59.66666666964878
  3
INABA_S30G詳細用20
100
AcDbAlignedDimension
 13
9850.119722934357
 23
6086.5831349088
 33
0.0
 14
10489.26201330532
 24
6176.083134908798
 34
0.0
 50
90.0
100
AcDbRotatedDimension
  0
LINE
  5
14172
330
747D
100
AcDbEntity
  8
部品1
 48
50.0
100
AcDbLine
 10
10789.26201330532
 20
6131.583134908797
 30
0.0
 11
10789.26201330532
 21
5677.083134908798
 31
0.0
  0
LINE
  5
14173
330
747D
100
AcDbEntity
  8
部品1
 48
50.0
100
AcDbLine
 10
10807.26201330532
 20
6131.583134908797
 30
0.0
 11
10807.26201330532
 21
5677.083134908798
 31
0.0
  0
LINE
  5
14174
330
747D
100
AcDbEntity
  8
部品1
 48
50.0
100
AcDbLine
 10
10507.26201330532
 20
6131.583134908797
 30
0.0
 11
10507.26201330532
 21
5677.083134908766
 31
0.0
  0
LINE
  5
14175
330
747D
100
AcDbEntity
  8
部品1
 48
50.0
100
AcDbLine
 10
10489.26201330532
 20
6131.583134908797
 30
0.0
 11
10489.26201330532
 21
5677.083134908766
 31
0.0
  0
LINE
  5
14186
330
747D
100
AcDbEntity
  8
部品1
 48
50.0
100
AcDbLine
 10
10864.26201330532
 20
5677.083134908798
 30
0.0
 11
10864.26201330532
 21
5659.083134908797
 31
0.0
  0
LINE
  5
14187
330
747D
100
AcDbEntity
  8
部品1
 48
50.0
100
AcDbLine
 10
10807.26201330532
 20
5659.083134908797
 30
0.0
 11
10864.26201330532
 21
5659.083134908797
 31
0.0
  0
LINE
  5
14188
330
747D
100
AcDbEntity
  8
部品1
 48
50.0
100
AcDbLine
 10
10807.26201330532
 20
5677.083134908798
 30
0.0
 11
10864.26201330532
 21
5677.083134908798
 31
0.0
  0
ARC
  5
14189
330
747D
100
AcDbEntity
  8
部品1
 48
50.0
100
AcDbCircle
 10
10807.26201330532
 20
5677.083134908798
 30
0.0
 40
18.0
100
AcDbArc
 50
180.0
 51
270.0
  0
ARC
  5
1418A
330
747D
100
AcDbEntity
  8
部品1
 48
50.0
100
AcDbCircle
 10
10489.26201330534
 20
5677.083134908766
 30
0.0
 40
18.0
100
AcDbArc
 50
270.0
 51
0.0000000000115087
  0
LINE
  5
1418B
330
747D
100
AcDbEntity
  8
部品1
 48
50.0
100
AcDbLine
 10
10489.26201330534
 20
5677.083134908766
 30
0.0
 11
10432.26201330534
 21
5677.083134908754
 31
0.0
  0
LINE
  5
1418C
330
747D
100
AcDbEntity
  8
部品1
 48
50.0
100
AcDbLine
 10
10489.26201330535
 20
5659.083134908765
 30
0.0
 11
10432.26201330535
 21
5659.083134908754
 31
0.0
  0
LINE
  5
1418D
330
747D
100
AcDbEntity
  8
部品1
 48
50.0
100
AcDbLine
 10
10432.26201330534
 20
5677.083134908754
 30
0.0
 11
10432.26201330535
 21
5659.083134908754
 31
0.0
  0
LINE
  5
1418E
330
747D
100
AcDbEntity
  8
細線
 48
50.0
100
AcDbLine
 10
10434.22959027653
 20
5677.083134908755
 30
0.0
 11
10123.26201330532
 21
5988.050711879981
 31
0.0
  0
LINE
  5
1418F
330
747D
100
AcDbEntity
  8
細線
 48
50.0
100
AcDbLine
 10
10432.26201330535
 20
5661.231620994051
 30
0.0
 11
10123.26201330532
 21
5970.231620994073
 31
0.0
  0
LINE
  5
14190
330
747D
100
AcDbEntity
  8
細線
 48
50.0
100
AcDbLine
 10
10489.26201330532
 20
6079.407377951439
 30
0.0
 11
10482.08625634796
 21
6086.5831349088
 31
0.0
  0
LINE
  5
14191
330
747D
100
AcDbEntity
  8
細線
 48
50.0
100
AcDbLine
 10
10489.26201330532
 20
6061.58828706554
 30
0.0
 11
10464.26716546206
 21
6086.583134908799
 31
0.0
  0
LINE
  5
14192
330
747D
100
AcDbEntity
  8
部品1
 48
50.0
100
AcDbLine
 10
10507.26201330532
 20
6086.583134908799
 30
0.0
 11
10789.26201330532
 21
6086.583134908799
 31
0.0
  0
LINE
  5
14193
330
747D
100
AcDbEntity
  8
部品1
 48
50.0
100
AcDbLine
 10
10807.26201330532
 20
6086.583134908799
 30
0.0
 11
11361.46480119496
 21
6086.5831349088
 31
0.0
  0
LINE
  5
14194
330
747D
100
AcDbEntity
  8
細線
 48
50.0
100
AcDbLine
 10
10489.26201330532
 20
5859.638590358644
 30
0.0
 11
10262.31746875517
 21
6086.5831349088
 31
0.0
  0
LINE
  5
14195
330
747D
100
AcDbEntity
  8
細線
 48
50.0
100
AcDbLine
 10
10489.26201330532
 20
5841.819499472749
 30
0.0
 11
10244.49837786927
 21
6086.5831349088
 31
0.0
  0
LINE
  5
14196
330
747D
100
AcDbEntity
  8
細線
 48
50.0
100
AcDbLine
 10
10489.26201330532
 20
5824.000408586856
 30
0.0
 11
10226.67928698338
 21
6086.5831349088
 31
0.0
  0
LINE
  5
14197
330
747D
100
AcDbEntity
  8
部品1
 48
50.0
100
AcDbLine
 10
10708.26201330531
 20
6247.083134908798
 30
0.0
 11
10789.26201330532
 21
6171.868849194511
 31
0.0
  0
LINE
  5
14198
330
747D
100
AcDbEntity
  8
細線
 48
50.0
100
AcDbLine
 10
10835.76201330531
 20
6142.889802255702
 30
0.0
 11
11079.45534595842
 21
6386.583134908798
 31
0.0
  0
LINE
  5
14199
330
747D
100
AcDbEntity
  8
細線
 48
50.0
100
AcDbLine
 10
10824.63625507251
 20
6149.583134908798
 30
0.0
 11
11061.63625507252
 21
6386.583134908798
 31
0.0
  0
LINE
  5
1419A
330
747D
100
AcDbEntity
  8
細線
 48
50.0
100
AcDbLine
 10
10820.81716418662
 20
6163.583134908795
 30
0.0
 11
11043.81716418662
 21
6386.583134908798
 31
0.0
  0
LINE
  5
1419B
330
747D
100
AcDbEntity
  8
細線
 48
50.0
100
AcDbLine
 10
10789.26201330532
 20
6034.814347316018
 30
0.0
 11
10737.49322571254
 21
6086.583134908799
 31
0.0
  0
LINE
  5
1419C
330
747D
100
AcDbEntity
  8
細線
 48
50.0
100
AcDbLine
 10
10789.26201330532
 20
6016.995256430117
 30
0.0
 11
10719.67413482663
 21
6086.5831349088
 31
0.0
  0
LINE
  5
1419D
330
747D
100
AcDbEntity
  8
細線
 48
50.0
100
AcDbLine
 10
10789.26201330532
 20
5999.176165544218
 30
0.0
 11
10701.85504394074
 21
6086.583134908799
 31
0.0
  0
LINE
  5
1419E
330
747D
100
AcDbEntity
  8
細線
 48
50.0
100
AcDbLine
 10
11270.5432244371
 20
6236.583134908798
 30
0.0
 11
11361.46480119496
 21
6327.504711666655
 31
0.0
  0
LINE
  5
1419F
330
747D
100
AcDbEntity
  8
細線
 48
50.0
100
AcDbLine
 10
11252.7241335512
 20
6236.583134908798
 30
0.0
 11
11361.46480119496
 21
6345.323802552552
 31
0.0
  0
LINE
  5
141A0
330
747D
100
AcDbEntity
  8
細線
 48
50.0
100
AcDbLine
 10
11234.9050426653
 20
6236.583134908798
 30
0.0
 11
11361.46480119496
 21
6363.142893438455
 31
0.0
  0
LEADER
  5
141A1
330
747D
100
AcDbEntity
  8
寸法
 48
50.0
100
AcDbLeader
  3
INABA_S30G
 73
     0
 74
     0
 75
     1
 40
240.0177165354331
 41
399.7279220613578
 76
     3
 10
10807.26201330531
 20
5815.347719418351
 30
0.0
 10
11126.63029112504
 20
5709.010965142614
 30
0.0
 10
11201.63029112504
 20
5709.010965142614
 30
0.0
340
141A2
  0
MTEXT
  5
141A2
102
{ACAD_REACTORS
330
141A1
102
}
330
747D
100
AcDbEntity
  8
寸法
 62
     7
 48
50.0
100
AcDbMText
 10
11231.63029112504
 20
5859.019823410331
 30
0.0
 40
90.0
 41
0.0
 71
     4
 72
     1
  1
\A1;ｱﾝｶｰﾎﾞﾙﾄ\PM12x315
  7
STYLE1
 73
     1
 44
1.0
1001
ACAD
1000
MTEXTBEGIN
1070
    73
1070
     1
1070
    44
1040
1.0
1070
    74
1070
     0
1000
MTEXTEND
  0
DIMENSION
  5
141A3
330
747D
100
AcDbEntity
  8
寸法
 48
50.0
100
AcDbDimension
  2
*D82
 10
10798.26201330531
 20
5031.598783490082
 30
0.0
 11
10985.76201330532
 21
5106.607641757799
 31
0.0
 70
    32
 71
     5
 42
250.0000000125024
  3
INABA_S30G詳細用20
100
AcDbAlignedDimension
 13
11173.26201330532
 23
5286.136281726282
 33
0.0
 14
10798.26201330531
 24
5286.136281726282
 34
0.0
100
AcDbRotatedDimension
  0
DIMENSION
  5
141A4
330
747D
100
AcDbEntity
  8
寸法
 48
50.0
100
AcDbDimension
  2
*D83
 10
10498.26201330531
 20
5031.598783490082
 30
0.0
 11
10648.26201330532
 21
5106.607641757799
 31
0.0
 70
    32
 71
     5
 42
200.00000001
  3
INABA_S30G詳細用20
100
AcDbAlignedDimension
 13
10798.26201330531
 23
5286.136281726282
 33
0.0
 14
10498.26201330531
 24
5286.136281726282
 34
0.0
100
AcDbRotatedDimension
  0
DIMENSION
  5
141A5
330
747D
100
AcDbEntity
  8
寸法
 48
50.0
100
AcDbDimension
  2
*D84
 10
10123.26201330532
 20
5031.598783490082
 30
0.0
 11
10310.76201330532
 21
5106.607641757799
 31
0.0
 70
    32
 71
     5
 42
250.0000000124976
  3
INABA_S30G詳細用20
100
AcDbAlignedDimension
 13
10498.26201330531
 23
5286.136281726282
 33
0.0
 14
10123.26201330532
 24
5286.136281726282
 34
0.0
100
AcDbRotatedDimension
  0
LEADER
  5
14406
330
747D
100
AcDbEntity
  8
寸法
 48
5.0
100
AcDbLeader
  3
INABA_S30G詳細用20
 71
     0
 73
     0
 75
     1
 40
91.25178566873406
 41
703.4999999999999
 76
     3
 10
10324.26201330532
 20
2324.855748320806
 30
0.0
 10
9983.52789743995
 20
2155.500298526586
 30
0.0
 10
9908.527897439951
 20
2155.500298526586
 30
0.0
  0
LEADER
  5
144C2
330
747D
100
AcDbEntity
  8
寸法
 48
5.0
100
AcDbLeader
  3
INABA_S30G詳細用20
 71
     0
 73
     0
 75
     1
 40
91.25178566873406
 41
703.4999999999999
 76
     3
 10
10324.26201330532
 20
5605.836281726284
 30
0.0
 10
9983.527897439955
 20
5436.480831932064
 30
0.0
 10
9908.527897439956
 20
5436.480831932064
 30
0.0
  0
LINE
  5
144F5
330
747D
100
AcDbEntity
  8
部品1
 48
50.0
100
AcDbLine
 10
10507.26201330532
 20
6176.083134908795
 30
0.0
 11
10489.26201330532
 21
6176.083134908797
 31
0.0
  0
LINE
  5
144F6
330
747D
100
AcDbEntity
  8
部品1
 48
50.0
100
AcDbLine
 10
10474.26201330531
 20
6163.583134908796
 30
0.0
 11
10522.26201330531
 21
6163.583134908796
 31
0.0
  0
LINE
  5
144F7
330
747D
100
AcDbEntity
  8
部品1
 48
50.0
100
AcDbLine
 10
10522.26201330531
 20
6149.583134908795
 30
0.0
 11
10522.26201330531
 21
6163.583134908796
 31
0.0
  0
LINE
  5
144F8
330
747D
100
AcDbEntity
  8
部品1
 48
50.0
100
AcDbLine
 10
10474.26201330531
 20
6149.583134908795
 30
0.0
 11
10474.26201330531
 21
6163.583134908796
 31
0.0
  0
LINE
  5
144F9
330
747D
100
AcDbEntity
  8
部品1
 48
50.0
100
AcDbLine
 10
10510.26201330531
 20
6149.583134908798
 30
0.0
 11
10510.26201330531
 21
6163.583134908796
 31
0.0
  0
LINE
  5
144FA
330
747D
100
AcDbEntity
  8
部品1
 48
50.0
100
AcDbLine
 10
10486.26201330531
 20
6149.583134908798
 30
0.0
 11
10486.26201330531
 21
6163.583134908796
 31
0.0
  0
LINE
  5
144FB
330
747D
100
AcDbEntity
  8
部品1
 48
50.0
100
AcDbLine
 10
10489.26201330532
 20
6163.583134908796
 30
0.0
 11
10489.26201330532
 21
6176.083134908798
 31
0.0
  0
LINE
  5
144FC
330
747D
100
AcDbEntity
  8
部品1
 48
50.0
100
AcDbLine
 10
10507.26201330531
 20
6163.583134908796
 30
0.0
 11
10507.26201330531
 21
6176.083134908798
 31
0.0
  0
LINE
  5
144FD
330
747D
100
AcDbEntity
  8
部品1
 48
50.0
100
AcDbLine
 10
10807.26201330531
 20
6163.583134908793
 30
0.0
 11
10807.26201330531
 21
6176.083134908795
 31
0.0
  0
LINE
  5
144FE
330
747D
100
AcDbEntity
  8
部品1
 48
50.0
100
AcDbLine
 10
10789.26201330532
 20
6163.583134908793
 30
0.0
 11
10789.26201330532
 21
6176.083134908795
 31
0.0
  0
LINE
  5
144FF
330
747D
100
AcDbEntity
  8
部品1
 48
50.0
100
AcDbLine
 10
10786.26201330531
 20
6149.583134908798
 30
0.0
 11
10786.26201330531
 21
6163.583134908796
 31
0.0
  0
LINE
  5
14500
330
747D
100
AcDbEntity
  8
部品1
 48
50.0
100
AcDbLine
 10
10810.26201330531
 20
6149.583134908798
 30
0.0
 11
10810.26201330532
 21
6163.583134908796
 31
0.0
  0
LINE
  5
14501
330
747D
100
AcDbEntity
  8
部品1
 48
50.0
100
AcDbLine
 10
10774.26201330532
 20
6149.583134908795
 30
0.0
 11
10774.26201330532
 21
6163.583134908796
 31
0.0
  0
LINE
  5
14502
330
747D
100
AcDbEntity
  8
部品1
 48
50.0
100
AcDbLine
 10
10822.26201330531
 20
6149.583134908795
 30
0.0
 11
10822.26201330531
 21
6163.583134908796
 31
0.0
  0
LINE
  5
14503
330
747D
100
AcDbEntity
  8
部品1
 48
50.0
100
AcDbLine
 10
10774.26201330532
 20
6163.583134908796
 30
0.0
 11
10822.26201330531
 21
6163.583134908796
 31
0.0
  0
LINE
  5
14504
330
747D
100
AcDbEntity
  8
部品1
 48
50.0
100
AcDbLine
 10
10807.26201330531
 20
6176.083134908795
 30
0.0
 11
10789.26201330532
 21
6176.083134908797
 31
0.0
  0
ENDSEC
  0
SECTION
  2
OBJECTS
  0
DICTIONARY
  5
7471
330
0
100
AcDbDictionary
281
     1
  3
ACAD_COLOR
350
13CC1
  3
ACAD_GROUP
350
7472
  3
ACAD_LAYOUT
350
13CC2
  3
ACAD_MATERIAL
350
13CC0
  3
ACAD_MLINESTYLE
350
7473
  3
ACAD_PLOTSETTINGS
350
13CC3
  3
ACAD_PLOTSTYLENAME
350
13CBE
  3
ACDBHEADERROUNDTRIPXREC
350
14514
  3
AcDbVariableDictionary
350
14510
  3
CONTENTDICTIONARY
350
E71C
  3
DRAWINGVARIABLESDICT
350
F3B9
  0
DICTIONARY
  5
13CC1
102
{ACAD_REACTORS
330
7471
102
}
330
7471
100
AcDbDictionary
281
     1
  0
DICTIONARY
  5
7472
102
{ACAD_REACTORS
330
7471
102
}
330
7471
100
AcDbDictionary
281
     1
  0
DICTIONARY
  5
13CC2
102
{ACAD_REACTORS
330
7471
102
}
330
7471
100
AcDbDictionary
281
     1
  3
Model
350
13CC4
  3
レイアウト1
350
13CC5
  0
DICTIONARY
  5
13CC0
102
{ACAD_REACTORS
330
7471
102
}
330
7471
100
AcDbDictionary
281
     1
  0
DICTIONARY
  5
7473
102
{ACAD_REACTORS
330
7471
102
}
330
7471
100
AcDbDictionary
281
     1
  3
STANDARD
350
7480
  0
DICTIONARY
  5
13CC3
102
{ACAD_REACTORS
330
7471
102
}
330
7471
100
AcDbDictionary
281
     1
  0
ACDBDICTIONARYWDFLT
  5
13CBE
102
{ACAD_REACTORS
330
7471
102
}
330
7471
100
AcDbDictionary
281
     1
  3
Normal
350
13CBF
100
AcDbDictionaryWithDefault
340
13CBF
  0
DICTIONARY
  5
14514
102
{ACAD_REACTORS
330
7471
102
}
330
7471
100
AcDbDictionary
281
     1
  3
COLORDICT
350
14516
  3
MATERIALDICT
350
14515
  0
DICTIONARY
  5
14510
102
{ACAD_REACTORS
330
7471
102
}
330
7471
100
AcDbDictionary
281
     1
  3
DIMASSOC
350
14511
  3
PROJECTNAME
350
14512
  0
DICTIONARY
  5
E71C
102
{ACAD_REACTORS
330
7471
102
}
330
7471
100
AcDbDictionary
281
     1
  0
DICTIONARY
  5
F3B9
102
{ACAD_REACTORS
330
7471
102
}
330
7471
100
AcDbDictionary
281
     1
1001
DRAWINGVARIABLESXDATA
1000
POLARMODE
1000
1
  0
LAYOUT
  5
13CC4
102
{ACAD_XDICTIONARY
360
14517
102
}
102
{ACAD_REACTORS
330
13CC2
102
}
330
13CC2
100
AcDbPlotSettings
  1

  2
Microsoft XPS Document Writer
  4

  6

 40
0.0
 41
0.0
 42
0.0
 43
0.0
 44
0.0
 45
0.0
 46
0.0
 47
0.0
 48
0.0
 49
0.0
140
0.0
141
0.0
142
1.0
143
1.0
 70
  1712
 72
     0
 73
     0
 74
     0
  7

 75
     0
147
1.0
148
0.0
149
0.0
100
AcDbLayout
  1
Model
 70
     1
 71
     0
 10
0.0
 20
0.0
 11
12.0
 21
9.0
 12
0.0
 22
0.0
 32
0.0
 14
0.0
 24
0.0
 34
0.0
 15
0.0
 25
0.0
 35
0.0
146
0.0
 13
0.0
 23
0.0
 33
0.0
 16
1.0
 26
0.0
 36
0.0
 17
0.0
 27
1.0
 37
0.0
 76
     0
330
747D
  0
LAYOUT
  5
13CC5
102
{ACAD_XDICTIONARY
360
14519
102
}
102
{ACAD_REACTORS
330
13CC2
102
}
330
13CC2
100
AcDbPlotSettings
  1

  2
Microsoft XPS Document Writer
  4

  6

 40
0.0
 41
0.0
 42
0.0
 43
0.0
 44
0.0
 45
0.0
 46
0.0
 47
0.0
 48
0.0
 49
0.0
140
0.0
141
0.0
142
1.0
143
1.0
 70
   688
 72
     0
 73
     0
 74
     5
  7

 75
    16
147
1.0
148
0.0
149
0.0
100
AcDbLayout
  1
レイアウト1
 70
     0
 71
     1
 10
0.0
 20
0.0
 11
420.0
 21
297.0
 12
0.0
 22
0.0
 32
0.0
 14
1.000000000000000E+20
 24
1.000000000000000E+20
 34
1.000000000000000E+20
 15
-1.000000000000000E+20
 25
-1.000000000000000E+20
 35
-1.000000000000000E+20
146
0.0
 13
0.0
 23
0.0
 33
0.0
 16
1.0
 26
0.0
 36
0.0
 17
0.0
 27
1.0
 37
0.0
 76
     0
330
747A
  0
MLINESTYLE
  5
7480
102
{ACAD_REACTORS
330
7473
102
}
330
7473
100
AcDbMlineStyle
  2
STANDARD
 70
     0
  3

 62
     0
 51
90.0
 52
90.0
 71
     2
 49
0.5
 62
   256
  6
BYLAYER
 49
-0.5
 62
   256
  6
BYLAYER
  0
ACDBPLACEHOLDER
  5
13CBF
102
{ACAD_REACTORS
330
13CBE
102
}
330
13CBE
  0
XRECORD
  5
14516
102
{ACAD_REACTORS
330
14514
102
}
330
14514
100
AcDbXrecord
280
     1
340
13CC1
  0
XRECORD
  5
14515
102
{ACAD_REACTORS
330
14514
102
}
330
14514
100
AcDbXrecord
280
     1
340
13CC0
  0
DICTIONARYVAR
  5
14511
102
{ACAD_REACTORS
330
14510
102
}
330
14510
100
DictionaryVariables
280
     0
  1
1
  0
DICTIONARYVAR
  5
14512
102
{ACAD_REACTORS
330
14510
102
}
330
14510
100
DictionaryVariables
280
     0
  1

  0
DICTIONARY
  5
14517
330
13CC4
100
AcDbDictionary
280
     1
281
     1
  3
ACAD_XREC_ROUNDTRIP
360
14518
  0
DICTIONARY
  5
14519
330
13CC5
100
AcDbDictionary
280
     1
281
     1
  3
ACAD_XREC_ROUNDTRIP
360
1451A
  0
XRECORD
  5
14518
102
{ACAD_REACTORS
330
14517
102
}
330
14517
100
AcDbXrecord
280
     1
102
SHADEPLOT
 70
     0
102
SHADEPLOTRESLEVEL
 70
     2
102
SHADEPLOTCUSTOMDPI
 70
   300
  0
XRECORD
  5
1451A
102
{ACAD_REACTORS
330
14519
102
}
330
14519
100
AcDbXrecord
280
     1
102
SHADEPLOT
 70
     0
102
SHADEPLOTRESLEVEL
 70
     2
102
SHADEPLOTCUSTOMDPI
 70
   300
  0
ENDSEC
  0
EOF
