  0
SECTION
  2
HEADER
  9
$ACADVER
  1
AC1015
  9
$ACADMAINTVER
 70
    20
  9
$DWGCODEPAGE
  3
ANSI_932
  9
$INSBASE
 10
0.0
 20
0.0
 30
0.0
  9
$EXTMIN
 10
104.3976124660112
 20
-0.6796753198723309
 30
-0.0000000000000064
  9
$EXTMAX
 10
12231.24392539175
 20
8557.4504696644
 30
0.0000000000000089
  9
$LIMMIN
 10
0.0
 20
0.0
  9
$LIMMAX
 10
12600.0
 20
8910.0
  9
$ORTHOMODE
 70
     1
  9
$REGENMODE
 70
     1
  9
$FILLMODE
 70
     1
  9
$QTEXTMODE
 70
     0
  9
$MIRRTEXT
 70
     1
  9
$LTSCALE
 40
20.0
  9
$ATTMODE
 70
     1
  9
$TEXTSIZE
 40
90.0
  9
$TRACEWID
 40
1.0
  9
$TEXTSTYLE
  7
STYLE3
  9
$CLAYER
  8
0
  9
$CELTYPE
  6
BYLAYER
  9
$CECOLOR
 62
   256
  9
$CELTSCALE
 40
50.0
  9
$DISPSILH
 70
     0
  9
$DIMSCALE
 40
30.0
  9
$DIMASZ
 40
2.5
  9
$DIMEXO
 40
0.5
  9
$DIMDLI
 40
7.0
  9
$DIMRND
 40
0.0
  9
$DIMDLE
 40
0.0
  9
$DIMEXE
 40
1.5
  9
$DIMTP
 40
0.0
  9
$DIMTM
 40
0.0
  9
$DIMTXT
 40
3.0
  9
$DIMCEN
 40
-0.1
  9
$DIMTSZ
 40
0.0
  9
$DIMTOL
 70
     0
  9
$DIMLIM
 70
     0
  9
$DIMTIH
 70
     0
  9
$DIMTOH
 70
     0
  9
$DIMSE1
 70
     0
  9
$DIMSE2
 70
     0
  9
$DIMTAD
 70
     3
  9
$DIMZIN
 70
     8
  9
$DIMBLK
  1

  9
$DIMASO
 70
     1
  9
$DIMSHO
 70
     1
  9
$DIMPOST
  1

  9
$DIMAPOST
  1

  9
$DIMALT
 70
     0
  9
$DIMALTD
 70
     2
  9
$DIMALTF
 40
0.0394
  9
$DIMLFAC
 40
1.0
  9
$DIMTOFL
 70
     1
  9
$DIMTVP
 40
0.0
  9
$DIMTIX
 70
     1
  9
$DIMSOXD
 70
     0
  9
$DIMSAH
 70
     1
  9
$DIMBLK1
  1
DOTSMALL
  9
$DIMBLK2
  1
DOTSMALL
  9
$DIMSTYLE
  2
INABA_S30G
  9
$DIMCLRD
 70
     0
  9
$DIMCLRE
 70
     0
  9
$DIMCLRT
 70
     7
  9
$DIMTFAC
 40
1.0
  9
$DIMGAP
 40
1.0
  9
$DIMJUST
 70
     0
  9
$DIMSD1
 70
     0
  9
$DIMSD2
 70
     0
  9
$DIMTOLJ
 70
     1
  9
$DIMTZIN
 70
     0
  9
$DIMALTZ
 70
     0
  9
$DIMALTTZ
 70
     0
  9
$DIMUPT
 70
     1
  9
$DIMDEC
 70
     1
  9
$DIMTDEC
 70
     4
  9
$DIMALTU
 70
     2
  9
$DIMALTTD
 70
     2
  9
$DIMTXSTY
  7
STYLE1
  9
$DIMAUNIT
 70
     0
  9
$DIMADEC
 70
     0
  9
$DIMALTRND
 40
0.0
  9
$DIMAZIN
 70
     0
  9
$DIMDSEP
 70
    46
  9
$DIMATFIT
 70
     3
  9
$DIMFRAC
 70
     0
  9
$DIMLDRBLK
  1

  9
$DIMLUNIT
 70
     2
  9
$DIMLWD
 70
    -2
  9
$DIMLWE
 70
    -2
  9
$DIMTMOVE
 70
     2
  9
$LUNITS
 70
     2
  9
$LUPREC
 70
     1
  9
$SKETCHINC
 40
1.0
  9
$FILLETRAD
 40
10.0
  9
$AUNITS
 70
     0
  9
$AUPREC
 70
     0
  9
$MENU
  1
acad
  9
$ELEVATION
 40
0.0
  9
$PELEVATION
 40
0.0
  9
$THICKNESS
 40
0.0
  9
$LIMCHECK
 70
     0
  9
$CHAMFERA
 40
0.0
  9
$CHAMFERB
 40
0.0
  9
$CHAMFERC
 40
0.0
  9
$CHAMFERD
 40
0.0
  9
$SKPOLY
 70
     0
  9
$TDCREATE
 40
2451605.424024074
  9
$TDUCREATE
 40
2451605.049024074
  9
$TDUPDATE
 40
2455091.751149259
  9
$TDUUPDATE
 40
2455091.376149259
  9
$TDINDWG
 40
0.4957180787
  9
$TDUSRTIMER
 40
0.4957180787
  9
$USRTIMER
 70
     1
  9
$ANGBASE
 50
0.0
  9
$ANGDIR
 70
     0
  9
$PDMODE
 70
     3
  9
$PDSIZE
 40
2.0
  9
$PLINEWID
 40
0.0
  9
$SPLFRAME
 70
     0
  9
$SPLINETYPE
 70
     6
  9
$SPLINESEGS
 70
     8
  9
$HANDSEED
  5
143B5
  9
$SURFTAB1
 70
     6
  9
$SURFTAB2
 70
     6
  9
$SURFTYPE
 70
     6
  9
$SURFU
 70
     6
  9
$SURFV
 70
     6
  9
$UCSBASE
  2

  9
$UCSNAME
  2

  9
$UCSORG
 10
0.0
 20
0.0
 30
0.0
  9
$UCSXDIR
 10
1.0
 20
0.0
 30
0.0
  9
$UCSYDIR
 10
0.0
 20
1.0
 30
0.0
  9
$UCSORTHOREF
  2

  9
$UCSORTHOVIEW
 70
     0
  9
$UCSORGTOP
 10
0.0
 20
0.0
 30
0.0
  9
$UCSORGBOTTOM
 10
0.0
 20
0.0
 30
0.0
  9
$UCSORGLEFT
 10
0.0
 20
0.0
 30
0.0
  9
$UCSORGRIGHT
 10
0.0
 20
0.0
 30
0.0
  9
$UCSORGFRONT
 10
0.0
 20
0.0
 30
0.0
  9
$UCSORGBACK
 10
0.0
 20
0.0
 30
0.0
  9
$PUCSBASE
  2

  9
$PUCSNAME
  2

  9
$PUCSORG
 10
0.0
 20
0.0
 30
0.0
  9
$PUCSXDIR
 10
1.0
 20
0.0
 30
0.0
  9
$PUCSYDIR
 10
0.0
 20
1.0
 30
0.0
  9
$PUCSORTHOREF
  2

  9
$PUCSORTHOVIEW
 70
     0
  9
$PUCSORGTOP
 10
0.0
 20
0.0
 30
0.0
  9
$PUCSORGBOTTOM
 10
0.0
 20
0.0
 30
0.0
  9
$PUCSORGLEFT
 10
0.0
 20
0.0
 30
0.0
  9
$PUCSORGRIGHT
 10
0.0
 20
0.0
 30
0.0
  9
$PUCSORGFRONT
 10
0.0
 20
0.0
 30
0.0
  9
$PUCSORGBACK
 10
0.0
 20
0.0
 30
0.0
  9
$USERI1
 70
     0
  9
$USERI2
 70
     0
  9
$USERI3
 70
     0
  9
$USERI4
 70
     0
  9
$USERI5
 70
     0
  9
$USERR1
 40
0.0
  9
$USERR2
 40
0.0
  9
$USERR3
 40
0.0
  9
$USERR4
 40
0.0
  9
$USERR5
 40
0.0
  9
$WORLDVIEW
 70
     1
  9
$SHADEDGE
 70
     3
  9
$SHADEDIF
 70
    70
  9
$TILEMODE
 70
     1
  9
$MAXACTVP
 70
    16
  9
$PINSBASE
 10
0.0
 20
0.0
 30
0.0
  9
$PLIMCHECK
 70
     0
  9
$PEXTMIN
 10
1.000000000000000E+20
 20
1.000000000000000E+20
 30
1.000000000000000E+20
  9
$PEXTMAX
 10
-1.000000000000000E+20
 20
-1.000000000000000E+20
 30
-1.000000000000000E+20
  9
$PLIMMIN
 10
0.0
 20
0.0
  9
$PLIMMAX
 10
420.0
 20
297.0
  9
$UNITMODE
 70
     0
  9
$VISRETAIN
 70
     0
  9
$PLINEGEN
 70
     0
  9
$PSLTSCALE
 70
     0
  9
$TREEDEPTH
 70
  3020
  9
$CMLSTYLE
  2
STANDARD
  9
$CMLJUST
 70
     0
  9
$CMLSCALE
 40
1.0
  9
$PROXYGRAPHICS
 70
     1
  9
$MEASUREMENT
 70
     1
  9
$CELWEIGHT
370
    -1
  9
$ENDCAPS
280
     0
  9
$JOINSTYLE
280
     0
  9
$LWDISPLAY
290
     0
  9
$INSUNITS
 70
     0
  9
$HYPERLINKBASE
  1

  9
$STYLESHEET
  1

  9
$XEDIT
290
     1
  9
$CEPSNTYPE
380
     0
  9
$PSTYLEMODE
290
     1
  9
$FINGERPRINTGUID
  2
{3866C060-5700-4B80-85CA-38ED4C38D23C}
  9
$VERSIONGUID
  2
{03D138D3-45C5-46B7-AC04-75A697A14DC3}
  9
$EXTNAMES
290
     1
  9
$PSVPSCALE
 40
0.0
  9
$OLESTARTUP
290
     0
  0
ENDSEC
  0
SECTION
  2
CLASSES
  0
CLASS
  1
ACDBDICTIONARYWDFLT
  2
AcDbDictionaryWithDefault
  3
ObjectDBX Classes
 90
        0
280
     0
281
     0
  0
CLASS
  1
DICTIONARYVAR
  2
AcDbDictionaryVar
  3
ObjectDBX Classes
 90
        0
280
     0
281
     0
  0
CLASS
  1
ACDBPLACEHOLDER
  2
AcDbPlaceHolder
  3
ObjectDBX Classes
 90
        0
280
     0
281
     0
  0
CLASS
  1
LAYOUT
  2
AcDbLayout
  3
ObjectDBX Classes
 90
        0
280
     0
281
     0
  0
ENDSEC
  0
SECTION
  2
TABLES
  0
TABLE
  2
VPORT
  5
746D
330
0
100
AcDbSymbolTable
 70
     3
  0
VPORT
  5
143AD
330
746D
100
AcDbSymbolTableRecord
100
AcDbViewportTableRecord
  2
*Active
 70
     0
 10
0.0
 20
0.0
 11
1.0
 21
1.0
 12
6167.820768928883
 22
4278.385397172264
 13
0.0
 23
0.0
 14
10.0
 24
10.0
 15
10.0
 25
10.0
 16
0.0
 26
0.0
 36
1.0
 17
0.0
 27
0.0
 37
0.0
 40
8620.070773295378
 41
1.492753623188405
 42
50.0
 43
0.0
 44
0.0
 50
0.0
 51
0.0
 71
     0
 72
     0
 73
     1
 74
     0
 75
     0
 76
     0
 77
     0
 78
     0
281
     0
 65
     1
110
0.0
120
0.0
130
0.0
111
1.0
121
0.0
131
0.0
112
0.0
122
1.0
132
0.0
 79
     0
146
0.0
  0
ENDTAB
  0
TABLE
  2
LTYPE
  5
746A
330
0
100
AcDbSymbolTable
 70
     4
  0
LTYPE
  5
7477
330
746A
100
AcDbSymbolTableRecord
100
AcDbLinetypeTableRecord
  2
BYBLOCK
 70
     0
  3

 72
    65
 73
     0
 40
0.0
  0
LTYPE
  5
7478
330
746A
100
AcDbSymbolTableRecord
100
AcDbLinetypeTableRecord
  2
BYLAYER
 70
     0
  3

 72
    65
 73
     0
 40
0.0
  0
LTYPE
  5
7479
330
746A
100
AcDbSymbolTableRecord
100
AcDbLinetypeTableRecord
  2
CONTINUOUS
 70
     0
  3
Solid line
 72
    65
 73
     0
 40
0.0
  0
LTYPE
  5
7816
330
746A
100
AcDbSymbolTableRecord
100
AcDbLinetypeTableRecord
  2
CENTER
 70
     0
  3
____ _ ____ _ ____ _ ____ _ ____ _ ____ _ ____ 
 72
    65
 73
     4
 40
2.0
 49
1.25
 74
     0
 49
-0.25
 74
     0
 49
0.25
 74
     0
 49
-0.25
 74
     0
  0
LTYPE
  5
781A
330
746A
100
AcDbSymbolTableRecord
100
AcDbLinetypeTableRecord
  2
HIDDEN
 70
     0
  3
__ __ __ __ __ __ __ __ __ __ __ __ __ __ __ __
 72
    65
 73
     2
 40
0.375
 49
0.25
 74
     0
 49
-0.125
 74
     0
  0
LTYPE
  5
781B
330
746A
100
AcDbSymbolTableRecord
100
AcDbLinetypeTableRecord
  2
PHANTOM
 70
     0
  3
______  __  __  ______  __  __  ______  __  __ 
 72
    65
 73
     6
 40
2.5
 49
1.25
 74
     0
 49
-0.25
 74
     0
 49
0.25
 74
     0
 49
-0.25
 74
     0
 49
0.25
 74
     0
 49
-0.25
 74
     0
  0
ENDTAB
  0
TABLE
  2
LAYER
  5
7467
330
0
100
AcDbSymbolTable
 70
    11
  0
LAYER
  5
7474
330
7467
100
AcDbSymbolTableRecord
100
AcDbLayerTableRecord
  2
0
 70
     0
 62
     7
  6
CONTINUOUS
370
    -3
390
13C2A
  0
LAYER
  5
DEB2
330
7467
100
AcDbSymbolTableRecord
100
AcDbLayerTableRecord
  2
センター
 70
     0
 62
     3
  6
CENTER
370
    -3
390
13C2A
  0
LAYER
  5
DEB3
330
7467
100
AcDbSymbolTableRecord
100
AcDbLayerTableRecord
  2
寸法
 70
     0
 62
     4
  6
CONTINUOUS
370
    -3
390
13C2A
  0
LAYER
  5
DEB4
330
7467
100
AcDbSymbolTableRecord
100
AcDbLayerTableRecord
  2
部品1
 70
     0
 62
     7
  6
CONTINUOUS
370
    -3
390
13C2A
  0
LAYER
  5
DEB5
330
7467
100
AcDbSymbolTableRecord
100
AcDbLayerTableRecord
  2
補助
 70
     0
 62
    -1
  6
CONTINUOUS
370
    -3
390
13C2A
  0
LAYER
  5
DEB6
330
7467
100
AcDbSymbolTableRecord
100
AcDbLayerTableRecord
  2
文字
 70
     0
 62
     7
  6
CONTINUOUS
370
    -3
390
13C2A
  0
LAYER
  5
F255
330
7467
100
AcDbSymbolTableRecord
100
AcDbLayerTableRecord
  2
DEFPOINTS
 70
     0
 62
     7
  6
CONTINUOUS
290
     0
370
    -3
390
13C2A
  0
LAYER
  5
10B54
330
7467
100
AcDbSymbolTableRecord
100
AcDbLayerTableRecord
  2
仕様書枠
 70
     0
 62
   230
  6
CONTINUOUS
370
    -3
390
13C2A
  0
LAYER
  5
11729
330
7467
100
AcDbSymbolTableRecord
100
AcDbLayerTableRecord
  2
Ｇ．Ｌ
 70
     0
 62
    30
  6
CONTINUOUS
370
    -3
390
13C2A
  0
LAYER
  5
1173F
330
7467
100
AcDbSymbolTableRecord
100
AcDbLayerTableRecord
  2
細線
 70
     0
 62
     5
  6
CONTINUOUS
370
    -3
390
13C2A
  0
LAYER
  5
11740
330
7467
100
AcDbSymbolTableRecord
100
AcDbLayerTableRecord
  2
点線
 70
     0
 62
     2
  6
HIDDEN
370
    -3
390
13C2A
  0
ENDTAB
  0
TABLE
  2
STYLE
  5
7468
330
0
100
AcDbSymbolTable
 70
     4
  0
STYLE
  5
7475
330
7468
100
AcDbSymbolTableRecord
100
AcDbTextStyleTableRecord
  2
STANDARD
 70
     0
 40
0.0
 41
1.0
 50
0.0
 71
     0
 42
4.0
  3
txt
  4
C:\AutoCAD LT\bigfont.shx
  0
STYLE
  5
F706
330
7468
100
AcDbSymbolTableRecord
100
AcDbTextStyleTableRecord
  2
STYLE1
 70
     0
 40
0.0
 41
1.0
 50
0.0
 71
     0
 42
4.0
  3
isocp.shx
  4
bigfont.shx
  0
STYLE
  5
103BF
330
7468
100
AcDbSymbolTableRecord
100
AcDbTextStyleTableRecord
  2
STYLE2
 70
     0
 40
0.0
 41
1.0
 50
0.0
 71
     0
 42
100.0
  3
MS PGothic.ttf
  4

1001
ACAD
1000
MS PGothic
1071
    32818
  0
STYLE
  5
10BAA
330
7468
100
AcDbSymbolTableRecord
100
AcDbTextStyleTableRecord
  2
STYLE3
 70
     0
 40
0.0
 41
1.0
 50
0.0
 71
     0
 42
90.0
  3
MS PGothic.ttf
  4

1001
ACAD
1000
MS PGothic
1071
    32818
  0
ENDTAB
  0
TABLE
  2
VIEW
  5
746B
330
0
100
AcDbSymbolTable
 70
     0
  0
ENDTAB
  0
TABLE
  2
UCS
  5
746C
330
0
100
AcDbSymbolTable
 70
     0
  0
ENDTAB
  0
TABLE
  2
APPID
  5
746E
330
0
100
AcDbSymbolTable
 70
     6
  0
APPID
  5
7476
330
746E
100
AcDbSymbolTableRecord
100
AcDbRegAppTableRecord
  2
ACAD
 70
     0
  0
APPID
  5
DEA9
330
746E
100
AcDbSymbolTableRecord
100
AcDbRegAppTableRecord
  2
CONTENTBLOCKICON
 70
     0
  0
APPID
  5
DEAA
330
746E
100
AcDbSymbolTableRecord
100
AcDbRegAppTableRecord
  2
CONTENTBLOCKDESCRIPTION
 70
     0
  0
APPID
  5
E71D
330
746E
100
AcDbSymbolTableRecord
100
AcDbRegAppTableRecord
  2
CONTENTTABDATA
 70
     0
  0
APPID
  5
E71E
330
746E
100
AcDbSymbolTableRecord
100
AcDbRegAppTableRecord
  2
CONTENTCURRENTTAB
 70
     0
  0
APPID
  5
F3BA
330
746E
100
AcDbSymbolTableRecord
100
AcDbRegAppTableRecord
  2
DRAWINGVARIABLESXDATA
 70
     0
  0
ENDTAB
  0
TABLE
  2
DIMSTYLE
  5
746F
330
0
100
AcDbSymbolTable
 70
     4
100
AcDbDimStyleTable
 71
     0
  0
DIMSTYLE
105
7484
330
746F
100
AcDbSymbolTableRecord
100
AcDbDimStyleTableRecord
  2
JIS
 70
     0
 41
2.5
 42
1.0
 43
7.0
 44
1.0
 73
     0
 74
     0
 77
     1
 78
     8
140
2.5
141
0.0
143
0.0394
147
0.0
172
     1
174
     1
175
     1
340
7475
  0
DIMSTYLE
105
F71F
102
{ACAD_REACTORS
330
134FC
330
134FF
330
13500
330
13503
330
1350A
330
1350C
330
1350E
330
13510
330
13514
330
13555
330
1355A
330
1355B
330
1355D
330
13570
330
13655
330
13656
330
13657
330
1365B
330
13660
330
13662
330
13663
330
13665
330
13666
330
13698
330
136AD
330
136AE
102
}
330
746F
100
AcDbSymbolTableRecord
100
AcDbDimStyleTableRecord
  2
INABA_S30G
 70
     0
 40
30.0
 41
2.5
 42
0.5
 43
7.0
 44
1.5
 73
     0
 74
     0
 77
     3
 78
     8
140
3.0
141
0.0
143
0.0394
147
1.0
172
     1
173
     1
174
     1
178
     7
271
     1
340
F706
341
F770
343
F770
344
F770
  0
DIMSTYLE
105
1328D
330
746F
100
AcDbSymbolTableRecord
100
AcDbDimStyleTableRecord
  2
INABA_S50G
 70
     0
 40
0.0
 41
125.0
 42
25.0
 43
7.0
 44
75.0
 73
     0
 74
     0
 77
     3
 78
     8
140
150.0
141
0.0
143
0.0394
147
25.0
172
     1
173
     1
174
     1
178
     7
271
     1
340
F706
341
F770
343
F770
344
F770
  0
DIMSTYLE
105
13D2A
102
{ACAD_REACTORS
330
13F22
330
13F23
330
13F24
330
13F56
330
13F57
330
13F75
330
13F76
330
13FD0
330
13FDA
330
13FEC
330
13FEE
330
13FFB
330
1405A
330
14067
330
14069
330
1407B
330
14087
330
140E6
330
140E7
102
}
330
746F
100
AcDbSymbolTableRecord
100
AcDbDimStyleTableRecord
  2
INABA_S30G詳細用20
 70
     0
 40
30.0
 41
2.5
 42
0.5
 43
7.0
 44
1.5
 73
     0
 74
     0
 77
     3
 78
     8
140
3.0
141
0.0
143
0.0394
144
0.6666666667
147
1.0
172
     1
173
     1
174
     1
178
     7
271
     0
272
     0
340
F706
341
F770
343
F770
344
F770
  0
ENDTAB
  0
TABLE
  2
BLOCK_RECORD
  5
7466
330
0
100
AcDbSymbolTable
 70
    86
  0
BLOCK_RECORD
  5
747D
330
7466
100
AcDbSymbolTableRecord
100
AcDbBlockTableRecord
  2
*MODEL_SPACE
340
13C2F
  0
BLOCK_RECORD
  5
747A
330
7466
100
AcDbSymbolTableRecord
100
AcDbBlockTableRecord
  2
*PAPER_SPACE
340
13C30
  0
BLOCK_RECORD
  5
F770
330
7466
100
AcDbSymbolTableRecord
100
AcDbBlockTableRecord
  2
_DOTSMALL
340
0
102
{BLKREFS
331
13C14
331
13C15
331
139A4
331
139A5
331
13BDD
331
13BDE
331
13BE8
331
13BE9
331
13BBC
331
13BBD
331
139D0
331
139D1
331
139DB
331
139DC
331
139E6
331
139E7
331
139F1
331
139F2
331
139FE
331
139FF
331
13A0A
331
13A0B
331
13A15
331
13A16
331
13A20
331
13A21
331
13A2C
331
13A2D
331
13A38
331
13A39
331
13A45
331
13A46
331
13A50
331
13A51
331
13A5D
331
13A5E
331
13A68
331
13A69
331
13A74
331
13A75
331
13A81
331
13A82
331
13A8C
331
13A8D
331
13A97
331
13A98
331
13AA2
331
13AA3
331
13AAD
331
13AAE
331
13ABA
331
13ABB
331
13C09
331
13C0A
331
13AD0
331
13AD1
331
13BF3
331
13BF4
331
13BFE
331
13BFF
331
13B9B
331
13B9C
331
13AFC
331
13AFD
331
13B07
331
13B08
331
13B12
331
13B13
331
13B1D
331
13B1E
331
13B2A
331
13B2B
331
13B36
331
13B37
331
13B41
331
13B42
331
13B4C
331
13B4D
331
13B57
331
13B58
331
13B62
331
13B63
331
13B6D
331
13B6E
331
13B78
331
13B79
331
13B84
331
13B85
331
13B90
331
13B91
331
13CFF
331
13D00
331
13CF2
331
13CF3
331
13CE4
331
13CE5
331
13CD7
331
13CD8
331
13CCB
331
13CCC
331
13CBF
331
13CC0
331
13CB2
331
13CB3
331
13CA5
331
13CA6
331
13C98
331
13C99
331
13C8C
331
13C8D
331
13C80
331
13C81
331
13C73
331
13C74
331
13C66
331
13C67
331
13C59
331
13C5A
331
13C4D
331
13C4E
331
13C41
331
13C42
331
13D23
331
13D24
331
13D17
331
13D18
331
13D0B
331
13D0C
331
142BE
331
142BF
331
142C7
331
142C8
331
142D0
331
142D1
331
142DA
331
142DB
331
142E4
331
142E5
331
142EE
331
142EF
331
142F7
331
142F8
331
14300
331
14301
331
1430A
331
1430B
331
14314
331
14315
331
1431E
331
1431F
331
14327
331
14328
331
14330
331
14331
331
1433A
331
1433B
331
14345
331
14346
331
14358
331
14359
331
14361
331
14362
331
1436A
331
1436B
331
143A3
331
143A4
102
}
  0
BLOCK_RECORD
  5
13766
330
7466
100
AcDbSymbolTableRecord
100
AcDbBlockTableRecord
  2
*D1
340
0
  0
BLOCK_RECORD
  5
13772
330
7466
100
AcDbSymbolTableRecord
100
AcDbBlockTableRecord
  2
*D2
340
0
  0
BLOCK_RECORD
  5
1377E
330
7466
100
AcDbSymbolTableRecord
100
AcDbBlockTableRecord
  2
*D3
340
0
  0
BLOCK_RECORD
  5
1378A
330
7466
100
AcDbSymbolTableRecord
100
AcDbBlockTableRecord
  2
*D4
340
0
  0
BLOCK_RECORD
  5
13796
330
7466
100
AcDbSymbolTableRecord
100
AcDbBlockTableRecord
  2
*D5
340
0
  0
BLOCK_RECORD
  5
137A2
330
7466
100
AcDbSymbolTableRecord
100
AcDbBlockTableRecord
  2
*D6
340
0
  0
BLOCK_RECORD
  5
137AE
330
7466
100
AcDbSymbolTableRecord
100
AcDbBlockTableRecord
  2
*D7
340
0
  0
BLOCK_RECORD
  5
137BA
330
7466
100
AcDbSymbolTableRecord
100
AcDbBlockTableRecord
  2
*D8
340
0
  0
BLOCK_RECORD
  5
137C6
330
7466
100
AcDbSymbolTableRecord
100
AcDbBlockTableRecord
  2
*D9
340
0
  0
BLOCK_RECORD
  5
137F9
330
7466
100
AcDbSymbolTableRecord
100
AcDbBlockTableRecord
  2
*D13
340
0
  0
BLOCK_RECORD
  5
1381F
330
7466
100
AcDbSymbolTableRecord
100
AcDbBlockTableRecord
  2
*D16
340
0
  0
BLOCK_RECORD
  5
1382D
330
7466
100
AcDbSymbolTableRecord
100
AcDbBlockTableRecord
  2
*D17
340
0
  0
BLOCK_RECORD
  5
13839
330
7466
100
AcDbSymbolTableRecord
100
AcDbBlockTableRecord
  2
*D18
340
0
  0
BLOCK_RECORD
  5
13847
330
7466
100
AcDbSymbolTableRecord
100
AcDbBlockTableRecord
  2
*D19
340
0
  0
BLOCK_RECORD
  5
138AC
330
7466
100
AcDbSymbolTableRecord
100
AcDbBlockTableRecord
  2
*D27
340
0
  0
BLOCK_RECORD
  5
138B8
330
7466
100
AcDbSymbolTableRecord
100
AcDbBlockTableRecord
  2
*D28
340
0
  0
BLOCK_RECORD
  5
138C4
330
7466
100
AcDbSymbolTableRecord
100
AcDbBlockTableRecord
  2
*D29
340
0
  0
BLOCK_RECORD
  5
138D0
330
7466
100
AcDbSymbolTableRecord
100
AcDbBlockTableRecord
  2
*D30
340
0
  0
BLOCK_RECORD
  5
138DC
330
7466
100
AcDbSymbolTableRecord
100
AcDbBlockTableRecord
  2
*D31
340
0
  0
BLOCK_RECORD
  5
138E8
330
7466
100
AcDbSymbolTableRecord
100
AcDbBlockTableRecord
  2
*D32
340
0
  0
BLOCK_RECORD
  5
138F4
330
7466
100
AcDbSymbolTableRecord
100
AcDbBlockTableRecord
  2
*D33
340
0
  0
BLOCK_RECORD
  5
13900
330
7466
100
AcDbSymbolTableRecord
100
AcDbBlockTableRecord
  2
*D34
340
0
  0
BLOCK_RECORD
  5
1390C
330
7466
100
AcDbSymbolTableRecord
100
AcDbBlockTableRecord
  2
*D35
340
0
  0
BLOCK_RECORD
  5
13957
330
7466
100
AcDbSymbolTableRecord
100
AcDbBlockTableRecord
  2
*D41
340
0
  0
BLOCK_RECORD
  5
13963
330
7466
100
AcDbSymbolTableRecord
100
AcDbBlockTableRecord
  2
*D42
340
0
  0
BLOCK_RECORD
  5
1396F
330
7466
100
AcDbSymbolTableRecord
100
AcDbBlockTableRecord
  2
*D43
340
0
  0
BLOCK_RECORD
  5
13C38
330
7466
100
AcDbSymbolTableRecord
100
AcDbBlockTableRecord
  2
_None
340
0
  0
BLOCK_RECORD
  5
14115
330
7466
100
AcDbSymbolTableRecord
100
AcDbBlockTableRecord
  2
*D66
340
0
  0
BLOCK_RECORD
  5
14121
330
7466
100
AcDbSymbolTableRecord
100
AcDbBlockTableRecord
  2
*D67
340
0
  0
BLOCK_RECORD
  5
1412D
330
7466
100
AcDbSymbolTableRecord
100
AcDbBlockTableRecord
  2
*D68
340
0
  0
BLOCK_RECORD
  5
14139
330
7466
100
AcDbSymbolTableRecord
100
AcDbBlockTableRecord
  2
*D69
340
0
  0
BLOCK_RECORD
  5
14146
330
7466
100
AcDbSymbolTableRecord
100
AcDbBlockTableRecord
  2
*D70
340
0
  0
BLOCK_RECORD
  5
14154
330
7466
100
AcDbSymbolTableRecord
100
AcDbBlockTableRecord
  2
*D71
340
0
  0
BLOCK_RECORD
  5
14161
330
7466
100
AcDbSymbolTableRecord
100
AcDbBlockTableRecord
  2
*D72
340
0
  0
BLOCK_RECORD
  5
1416D
330
7466
100
AcDbSymbolTableRecord
100
AcDbBlockTableRecord
  2
*D73
340
0
  0
BLOCK_RECORD
  5
14179
330
7466
100
AcDbSymbolTableRecord
100
AcDbBlockTableRecord
  2
*D74
340
0
  0
BLOCK_RECORD
  5
14186
330
7466
100
AcDbSymbolTableRecord
100
AcDbBlockTableRecord
  2
*D75
340
0
  0
BLOCK_RECORD
  5
14193
330
7466
100
AcDbSymbolTableRecord
100
AcDbBlockTableRecord
  2
*D76
340
0
  0
BLOCK_RECORD
  5
141A0
330
7466
100
AcDbSymbolTableRecord
100
AcDbBlockTableRecord
  2
*D77
340
0
  0
BLOCK_RECORD
  5
141AC
330
7466
100
AcDbSymbolTableRecord
100
AcDbBlockTableRecord
  2
*D78
340
0
  0
BLOCK_RECORD
  5
141B8
330
7466
100
AcDbSymbolTableRecord
100
AcDbBlockTableRecord
  2
*D79
340
0
  0
BLOCK_RECORD
  5
141C5
330
7466
100
AcDbSymbolTableRecord
100
AcDbBlockTableRecord
  2
*D80
340
0
  0
BLOCK_RECORD
  5
141D2
330
7466
100
AcDbSymbolTableRecord
100
AcDbBlockTableRecord
  2
*D81
340
0
  0
BLOCK_RECORD
  5
141DF
330
7466
100
AcDbSymbolTableRecord
100
AcDbBlockTableRecord
  2
*D82
340
0
  0
BLOCK_RECORD
  5
141EB
330
7466
100
AcDbSymbolTableRecord
100
AcDbBlockTableRecord
  2
*D83
340
0
  0
BLOCK_RECORD
  5
141F7
330
7466
100
AcDbSymbolTableRecord
100
AcDbBlockTableRecord
  2
*D84
340
0
  0
ENDTAB
  0
ENDSEC
  0
SECTION
  2
BLOCKS
  0
BLOCK
  5
7489
330
747D
100
AcDbEntity
  8
0
100
AcDbBlockBegin
  2
*MODEL_SPACE
 70
     0
 10
0.0
 20
0.0
 30
0.0
  3
*MODEL_SPACE
  1

  0
ENDBLK
  5
748A
330
747D
100
AcDbEntity
  8
0
100
AcDbBlockEnd
  0
BLOCK
  5
7487
330
747A
100
AcDbEntity
 67
     1
  8
0
100
AcDbBlockBegin
  2
*PAPER_SPACE
 70
     0
 10
0.0
 20
0.0
 30
0.0
  3
*PAPER_SPACE
  1

  0
ENDBLK
  5
7488
330
747A
100
AcDbEntity
 67
     1
  8
0
100
AcDbBlockEnd
  0
BLOCK
  5
F771
330
F770
100
AcDbEntity
  8
0
 48
50.0
100
AcDbBlockBegin
  2
_DOTSMALL
 70
     0
 10
0.0
 20
0.0
 30
0.0
  3
_DOTSMALL
  1

  0
LWPOLYLINE
  5
F772
330
F770
100
AcDbEntity
  8
0
  6
ByBlock
 62
     0
 48
50.0
100
AcDbPolyline
 90
        2
 70
     1
 43
0.5
 10
-0.0625
 20
0.0
 42
1.0
 10
0.0625
 20
0.0
 42
1.0
  0
ENDBLK
  5
F776
330
F770
100
AcDbEntity
  8
0
 48
50.0
100
AcDbBlockEnd
  0
BLOCK
  5
13C10
330
13766
100
AcDbEntity
  8
0
 48
50.0
100
AcDbBlockBegin
  2
*D1
 70
     1
 10
0.0
 20
0.0
 30
0.0
  3
*D1
  1

  0
LINE
  5
13C11
330
13766
100
AcDbEntity
  8
0
  6
ByBlock
 62
     0
 48
50.0
100
AcDbLine
 10
8110.140621386539
 20
17374.36303900098
 30
0.0
 11
8110.140621386539
 21
18606.81533313209
 31
0.0
  0
LINE
  5
13C12
330
13766
100
AcDbEntity
  8
0
  6
ByBlock
 62
     0
 48
50.0
100
AcDbLine
 10
10940.14062138654
 20
17792.15240030098
 30
0.0
 11
10940.14062138654
 21
18606.81533313209
 31
0.0
  0
LINE
  5
13C13
330
13766
100
AcDbEntity
  8
0
  6
ByBlock
 62
     0
 48
50.0
100
AcDbLine
 10
8110.140621386539
 20
18561.81533313209
 30
0.0
 11
10940.14062138654
 21
18561.81533313209
 31
0.0
  0
INSERT
  5
13C14
330
13766
100
AcDbEntity
  8
0
  6
ByBlock
 62
     0
 48
50.0
100
AcDbBlockReference
  2
_DOTSMALL
 10
8110.140621386539
 20
18561.81533313209
 30
0.0
 41
75.0
 42
75.0
 43
75.0
 50
180.0
  0
INSERT
  5
13C15
330
13766
100
AcDbEntity
  8
0
  6
ByBlock
 62
     0
 48
50.0
100
AcDbBlockReference
  2
_DOTSMALL
 10
10940.14062138654
 20
18561.81533313209
 30
0.0
 41
75.0
 42
75.0
 43
75.0
  0
MTEXT
  5
13C16
330
13766
100
AcDbEntity
  8
0
  6
ByBlock
 62
     7
 48
50.0
100
AcDbMText
 10
9525.140621386539
 20
18636.82419139981
 30
0.0
 40
90.0
 41
0.0
 71
     5
 72
     1
  1
\A1;2830
  7
STYLE1
 73
     1
 44
1.0
1001
ACAD
1000
MTEXTBEGIN
1070
    73
1070
     1
1070
    44
1040
1.0
1070
    74
1070
     0
1000
MTEXTEND
  0
POINT
  5
13C17
330
13766
100
AcDbEntity
  8
DEFPOINTS
  6
ByBlock
 62
     0
 48
50.0
100
AcDbPoint
 10
8110.140621386539
 20
17359.36303900098
 30
0.0
  0
POINT
  5
13C18
330
13766
100
AcDbEntity
  8
DEFPOINTS
  6
ByBlock
 62
     0
 48
50.0
100
AcDbPoint
 10
10940.14062138654
 20
17777.15240030098
 30
0.0
  0
POINT
  5
13C19
330
13766
100
AcDbEntity
  8
DEFPOINTS
  6
ByBlock
 62
     0
 48
50.0
100
AcDbPoint
 10
10940.14062138654
 20
18561.81533313209
 30
0.0
  0
ENDBLK
  5
13C1A
330
13766
100
AcDbEntity
  8
0
 48
50.0
100
AcDbBlockEnd
  0
BLOCK
  5
139A0
330
13772
100
AcDbEntity
  8
0
 48
50.0
100
AcDbBlockBegin
  2
*D2
 70
     1
 10
0.0
 20
0.0
 30
0.0
  3
*D2
  1

  0
LINE
  5
139A1
330
13772
100
AcDbEntity
  8
0
  6
ByBlock
 62
     0
 48
50.0
100
AcDbLine
 10
10155.14062138654
 20
17459.36303900098
 30
0.0
 11
9947.82611810236
 21
17459.36303900098
 31
0.0
  0
LINE
  5
139A2
330
13772
100
AcDbEntity
  8
0
  6
ByBlock
 62
     0
 48
50.0
100
AcDbLine
 10
10155.14062138654
 20
16759.36303900098
 30
0.0
 11
9947.82611810236
 21
16759.36303900098
 31
0.0
  0
LINE
  5
139A3
330
13772
100
AcDbEntity
  8
0
  6
ByBlock
 62
     0
 48
50.0
100
AcDbLine
 10
9992.826118102358
 20
17459.36303900098
 30
0.0
 11
9992.826118102358
 21
16759.36303900098
 31
0.0
  0
INSERT
  5
139A4
330
13772
100
AcDbEntity
  8
0
  6
ByBlock
 62
     0
 48
50.0
100
AcDbBlockReference
  2
_DOTSMALL
 10
9992.826118102358
 20
17459.36303900098
 30
0.0
 41
75.0
 42
75.0
 43
75.0
 50
90.0
  0
INSERT
  5
139A5
330
13772
100
AcDbEntity
  8
0
  6
ByBlock
 62
     0
 48
50.0
100
AcDbBlockReference
  2
_DOTSMALL
 10
9992.826118102358
 20
16759.36303900098
 30
0.0
 41
75.0
 42
75.0
 43
75.0
 50
270.0
  0
MTEXT
  5
139A6
330
13772
100
AcDbEntity
  8
0
  6
ByBlock
 62
     7
 48
50.0
100
AcDbMText
 10
9917.826118102359
 20
17109.36303900098
 30
0.0
 40
90.0
 41
0.0
 71
     5
 72
     1
  1
\A1;700
  7
STYLE1
 11
0.0000000000000001
 21
1.0
 31
0.0
 73
     1
 44
1.0
1001
ACAD
1000
MTEXTBEGIN
1070
    73
1070
     1
1070
    44
1040
1.0
1070
    74
1070
     0
1000
MTEXTEND
  0
POINT
  5
139A7
330
13772
100
AcDbEntity
  8
DEFPOINTS
  6
ByBlock
 62
     0
 48
50.0
100
AcDbPoint
 10
10170.14062138654
 20
17459.36303900098
 30
0.0
  0
POINT
  5
139A8
330
13772
100
AcDbEntity
  8
DEFPOINTS
  6
ByBlock
 62
     0
 48
50.0
100
AcDbPoint
 10
10170.14062138654
 20
16759.36303900098
 30
0.0
  0
POINT
  5
139A9
330
13772
100
AcDbEntity
  8
DEFPOINTS
  6
ByBlock
 62
     0
 48
50.0
100
AcDbPoint
 10
9992.826118102358
 20
16759.36303900098
 30
0.0
  0
ENDBLK
  5
139AA
330
13772
100
AcDbEntity
  8
0
 48
50.0
100
AcDbBlockEnd
  0
BLOCK
  5
13BD9
330
1377E
100
AcDbEntity
  8
0
 48
50.0
100
AcDbBlockBegin
  2
*D3
 70
     1
 10
0.0
 20
0.0
 30
0.0
  3
*D3
  1

  0
LINE
  5
13BDA
330
1377E
100
AcDbEntity
  8
0
  6
ByBlock
 62
     0
 48
50.0
100
AcDbLine
 10
5030.140621386539
 20
16094.36303900098
 30
0.0
 11
5030.140621386539
 21
15674.59133440428
 31
0.0
  0
LINE
  5
13BDB
330
1377E
100
AcDbEntity
  8
0
  6
ByBlock
 62
     0
 48
50.0
100
AcDbLine
 10
11190.14062138654
 20
16094.36303900098
 30
0.0
 11
11190.14062138654
 21
15674.59133440428
 31
0.0
  0
LINE
  5
13BDC
330
1377E
100
AcDbEntity
  8
0
  6
ByBlock
 62
     0
 48
50.0
100
AcDbLine
 10
5030.140621386539
 20
15719.59133440428
 30
0.0
 11
11190.14062138654
 21
15719.59133440428
 31
0.0
  0
INSERT
  5
13BDD
330
1377E
100
AcDbEntity
  8
0
  6
ByBlock
 62
     0
 48
50.0
100
AcDbBlockReference
  2
_DOTSMALL
 10
5030.140621386539
 20
15719.59133440428
 30
0.0
 41
75.0
 42
75.0
 43
75.0
 50
180.0
  0
INSERT
  5
13BDE
330
1377E
100
AcDbEntity
  8
0
  6
ByBlock
 62
     0
 48
50.0
100
AcDbBlockReference
  2
_DOTSMALL
 10
11190.14062138654
 20
15719.59133440428
 30
0.0
 41
75.0
 42
75.0
 43
75.0
  0
MTEXT
  5
13BDF
330
1377E
100
AcDbEntity
  8
0
  6
ByBlock
 62
     7
 48
50.0
100
AcDbMText
 10
8110.140621386539
 20
15794.59133440428
 30
0.0
 40
90.0
 41
0.0
 71
     5
 72
     1
  1
\A1;屋根寸法 6160
  7
STYLE1
 73
     1
 44
1.0
1001
ACAD
1000
MTEXTBEGIN
1070
    73
1070
     1
1070
    44
1040
1.0
1070
    74
1070
     0
1000
MTEXTEND
  0
POINT
  5
13BE0
330
1377E
100
AcDbEntity
  8
DEFPOINTS
  6
ByBlock
 62
     0
 48
50.0
100
AcDbPoint
 10
5030.140621386539
 20
16109.36303900099
 30
0.0
  0
POINT
  5
13BE1
330
1377E
100
AcDbEntity
  8
DEFPOINTS
  6
ByBlock
 62
     0
 48
50.0
100
AcDbPoint
 10
11190.14062138654
 20
16109.36303900099
 30
0.0
  0
POINT
  5
13BE2
330
1377E
100
AcDbEntity
  8
DEFPOINTS
  6
ByBlock
 62
     0
 48
50.0
100
AcDbPoint
 10
11190.14062138654
 20
15719.59133440428
 30
0.0
  0
ENDBLK
  5
13BE3
330
1377E
100
AcDbEntity
  8
0
 48
50.0
100
AcDbBlockEnd
  0
BLOCK
  5
13BE4
330
1378A
100
AcDbEntity
  8
0
 48
50.0
100
AcDbBlockBegin
  2
*D4
 70
     1
 10
0.0
 20
0.0
 30
0.0
  3
*D4
  1

  0
LINE
  5
13BE5
330
1378A
100
AcDbEntity
  8
0
  6
ByBlock
 62
     0
 48
50.0
100
AcDbLine
 10
5030.140621386539
 20
18124.36303900098
 30
0.0
 11
5030.140621386539
 21
18800.85237210641
 31
0.0
  0
LINE
  5
13BE6
330
1378A
100
AcDbEntity
  8
0
  6
ByBlock
 62
     0
 48
50.0
100
AcDbLine
 10
11190.14062138654
 20
18124.36303900098
 30
0.0
 11
11190.14062138654
 21
18800.85237210641
 31
0.0
  0
LINE
  5
13BE7
330
1378A
100
AcDbEntity
  8
0
  6
ByBlock
 62
     0
 48
50.0
100
AcDbLine
 10
5030.140621386539
 20
18755.85237210641
 30
0.0
 11
11190.14062138654
 21
18755.85237210641
 31
0.0
  0
INSERT
  5
13BE8
330
1378A
100
AcDbEntity
  8
0
  6
ByBlock
 62
     0
 48
50.0
100
AcDbBlockReference
  2
_DOTSMALL
 10
5030.140621386539
 20
18755.85237210641
 30
0.0
 41
75.0
 42
75.0
 43
75.0
 50
180.0
  0
INSERT
  5
13BE9
330
1378A
100
AcDbEntity
  8
0
  6
ByBlock
 62
     0
 48
50.0
100
AcDbBlockReference
  2
_DOTSMALL
 10
11190.14062138654
 20
18755.85237210641
 30
0.0
 41
75.0
 42
75.0
 43
75.0
  0
MTEXT
  5
13BEA
330
1378A
100
AcDbEntity
  8
0
  6
ByBlock
 62
     7
 48
50.0
100
AcDbMText
 10
8110.140621386539
 20
18830.85237210641
 30
0.0
 40
90.0
 41
0.0
 71
     5
 72
     1
  1
\A1;基礎寸法 6160
  7
STYLE1
 73
     1
 44
1.0
1001
ACAD
1000
MTEXTBEGIN
1070
    73
1070
     1
1070
    44
1040
1.0
1070
    74
1070
     0
1000
MTEXTEND
  0
POINT
  5
13BEB
330
1378A
100
AcDbEntity
  8
DEFPOINTS
  6
ByBlock
 62
     0
 48
50.0
100
AcDbPoint
 10
5030.140621386539
 20
18109.36303900098
 30
0.0
  0
POINT
  5
13BEC
330
1378A
100
AcDbEntity
  8
DEFPOINTS
  6
ByBlock
 62
     0
 48
50.0
100
AcDbPoint
 10
11190.14062138654
 20
18109.36303900098
 30
0.0
  0
POINT
  5
13BED
330
1378A
100
AcDbEntity
  8
DEFPOINTS
  6
ByBlock
 62
     0
 48
50.0
100
AcDbPoint
 10
11190.14062138654
 20
18755.85237210641
 30
0.0
  0
ENDBLK
  5
13BEE
330
1378A
100
AcDbEntity
  8
0
 48
50.0
100
AcDbBlockEnd
  0
BLOCK
  5
13BB8
330
13796
100
AcDbEntity
  8
0
 48
50.0
100
AcDbBlockBegin
  2
*D5
 70
     1
 10
0.0
 20
0.0
 30
0.0
  3
*D5
  1

  0
LINE
  5
13BB9
330
13796
100
AcDbEntity
  8
0
  6
ByBlock
 62
     0
 48
50.0
100
AcDbLine
 10
5280.140621386539
 20
17374.36303900098
 30
0.0
 11
5280.140621386539
 21
18606.81533313209
 31
0.0
  0
LINE
  5
13BBA
330
13796
100
AcDbEntity
  8
0
  6
ByBlock
 62
     0
 48
50.0
100
AcDbLine
 10
8110.140621386539
 20
17662.90805637191
 30
0.0
 11
8110.140621386539
 21
18606.81533313209
 31
0.0
  0
LINE
  5
13BBB
330
13796
100
AcDbEntity
  8
0
  6
ByBlock
 62
     0
 48
50.0
100
AcDbLine
 10
5280.140621386539
 20
18561.81533313209
 30
0.0
 11
8110.140621386539
 21
18561.81533313209
 31
0.0
  0
INSERT
  5
13BBC
330
13796
100
AcDbEntity
  8
0
  6
ByBlock
 62
     0
 48
50.0
100
AcDbBlockReference
  2
_DOTSMALL
 10
5280.140621386539
 20
18561.81533313209
 30
0.0
 41
75.0
 42
75.0
 43
75.0
 50
180.0
  0
INSERT
  5
13BBD
330
13796
100
AcDbEntity
  8
0
  6
ByBlock
 62
     0
 48
50.0
100
AcDbBlockReference
  2
_DOTSMALL
 10
8110.140621386539
 20
18561.81533313209
 30
0.0
 41
75.0
 42
75.0
 43
75.0
  0
MTEXT
  5
13BBE
330
13796
100
AcDbEntity
  8
0
  6
ByBlock
 62
     7
 48
50.0
100
AcDbMText
 10
6695.140621386539
 20
18636.82419139981
 30
0.0
 40
90.0
 41
0.0
 71
     5
 72
     1
  1
\A1;2830
  7
STYLE1
 73
     1
 44
1.0
1001
ACAD
1000
MTEXTBEGIN
1070
    73
1070
     1
1070
    44
1040
1.0
1070
    74
1070
     0
1000
MTEXTEND
  0
POINT
  5
13BBF
330
13796
100
AcDbEntity
  8
DEFPOINTS
  6
ByBlock
 62
     0
 48
50.0
100
AcDbPoint
 10
5280.140621386539
 20
17359.36303900098
 30
0.0
  0
POINT
  5
13BC0
330
13796
100
AcDbEntity
  8
DEFPOINTS
  6
ByBlock
 62
     0
 48
50.0
100
AcDbPoint
 10
8110.140621386539
 20
17647.90805637191
 30
0.0
  0
POINT
  5
13BC1
330
13796
100
AcDbEntity
  8
DEFPOINTS
  6
ByBlock
 62
     0
 48
50.0
100
AcDbPoint
 10
8110.140621386539
 20
18561.81533313209
 30
0.0
  0
ENDBLK
  5
13BC2
330
13796
100
AcDbEntity
  8
0
 48
50.0
100
AcDbBlockEnd
  0
BLOCK
  5
139CC
330
137A2
100
AcDbEntity
  8
0
 48
50.0
100
AcDbBlockBegin
  2
*D6
 70
     1
 10
0.0
 20
0.0
 30
0.0
  3
*D6
  1

  0
LINE
  5
139CD
330
137A2
100
AcDbEntity
  8
0
  6
ByBlock
 62
     0
 48
50.0
100
AcDbLine
 10
5450.140621386539
 20
18124.36303900098
 30
0.0
 11
5450.140621386539
 21
18606.81533313209
 31
0.0
  0
LINE
  5
139CE
330
137A2
100
AcDbEntity
  8
0
  6
ByBlock
 62
     0
 48
50.0
100
AcDbLine
 10
5700.140621386539
 20
17374.36303900098
 30
0.0
 11
5700.140621386539
 21
18606.81533313209
 31
0.0
  0
LINE
  5
139CF
330
137A2
100
AcDbEntity
  8
0
  6
ByBlock
 62
     0
 48
50.0
100
AcDbLine
 10
5450.140621386539
 20
18561.81533313209
 30
0.0
 11
5700.140621386539
 21
18561.81533313209
 31
0.0
  0
INSERT
  5
139D0
330
137A2
100
AcDbEntity
  8
0
  6
ByBlock
 62
     0
 48
50.0
100
AcDbBlockReference
  2
_DOTSMALL
 10
5450.140621386539
 20
18561.81533313209
 30
0.0
 41
75.0
 42
75.0
 43
75.0
 50
180.0
  0
INSERT
  5
139D1
330
137A2
100
AcDbEntity
  8
0
  6
ByBlock
 62
     0
 48
50.0
100
AcDbBlockReference
  2
_DOTSMALL
 10
5700.140621386539
 20
18561.81533313209
 30
0.0
 41
75.0
 42
75.0
 43
75.0
  0
MTEXT
  5
139D2
330
137A2
100
AcDbEntity
  8
0
  6
ByBlock
 62
     7
 48
50.0
100
AcDbMText
 10
5575.140621386539
 20
18636.82419139981
 30
0.0
 40
90.0
 41
0.0
 71
     5
 72
     1
  1
\A1;250
  7
STYLE1
 73
     1
 44
1.0
1001
ACAD
1000
MTEXTBEGIN
1070
    73
1070
     1
1070
    44
1040
1.0
1070
    74
1070
     0
1000
MTEXTEND
  0
POINT
  5
139D3
330
137A2
100
AcDbEntity
  8
DEFPOINTS
  6
ByBlock
 62
     0
 48
50.0
100
AcDbPoint
 10
5450.140621386539
 20
18109.36303900098
 30
0.0
  0
POINT
  5
139D4
330
137A2
100
AcDbEntity
  8
DEFPOINTS
  6
ByBlock
 62
     0
 48
50.0
100
AcDbPoint
 10
5700.140621386539
 20
17359.36303900098
 30
0.0
  0
POINT
  5
139D5
330
137A2
100
AcDbEntity
  8
DEFPOINTS
  6
ByBlock
 62
     0
 48
50.0
100
AcDbPoint
 10
5700.140621386539
 20
18561.81533313209
 30
0.0
  0
ENDBLK
  5
139D6
330
137A2
100
AcDbEntity
  8
0
 48
50.0
100
AcDbBlockEnd
  0
BLOCK
  5
139D7
330
137AE
100
AcDbEntity
  8
0
 48
50.0
100
AcDbBlockBegin
  2
*D7
 70
     1
 10
0.0
 20
0.0
 30
0.0
  3
*D7
  1

  0
LINE
  5
139D8
330
137AE
100
AcDbEntity
  8
0
  6
ByBlock
 62
     0
 48
50.0
100
AcDbLine
 10
5435.14062138654
 20
17109.36303900099
 30
0.0
 11
4964.107255058973
 21
17109.36303900099
 31
0.0
  0
LINE
  5
139D9
330
137AE
100
AcDbEntity
  8
0
  6
ByBlock
 62
     0
 48
50.0
100
AcDbLine
 10
5435.14062138654
 20
16109.36303900099
 30
0.0
 11
4964.107255058973
 21
16109.36303900099
 31
0.0
  0
LINE
  5
139DA
330
137AE
100
AcDbEntity
  8
0
  6
ByBlock
 62
     0
 48
50.0
100
AcDbLine
 10
5009.107255058973
 20
17109.36303900099
 30
0.0
 11
5009.107255058973
 21
16109.36303900099
 31
0.0
  0
INSERT
  5
139DB
330
137AE
100
AcDbEntity
  8
0
  6
ByBlock
 62
     0
 48
50.0
100
AcDbBlockReference
  2
_DOTSMALL
 10
5009.107255058973
 20
17109.36303900099
 30
0.0
 41
75.0
 42
75.0
 43
75.0
 50
90.0
  0
INSERT
  5
139DC
330
137AE
100
AcDbEntity
  8
0
  6
ByBlock
 62
     0
 48
50.0
100
AcDbBlockReference
  2
_DOTSMALL
 10
5009.107255058973
 20
16109.36303900099
 30
0.0
 41
75.0
 42
75.0
 43
75.0
 50
270.0
  0
MTEXT
  5
139DD
330
137AE
100
AcDbEntity
  8
0
  6
ByBlock
 62
     7
 48
50.0
100
AcDbMText
 10
4934.107255058973
 20
16609.36303900099
 30
0.0
 40
90.0
 41
0.0
 71
     5
 72
     1
  1
\A1;1000
  7
STYLE1
 11
0.0000000000000001
 21
1.0
 31
0.0
 73
     1
 44
1.0
1001
ACAD
1000
MTEXTBEGIN
1070
    73
1070
     1
1070
    44
1040
1.0
1070
    74
1070
     0
1000
MTEXTEND
  0
POINT
  5
139DE
330
137AE
100
AcDbEntity
  8
DEFPOINTS
  6
ByBlock
 62
     0
 48
50.0
100
AcDbPoint
 10
5450.140621386539
 20
17109.36303900099
 30
0.0
  0
POINT
  5
139DF
330
137AE
100
AcDbEntity
  8
DEFPOINTS
  6
ByBlock
 62
     0
 48
50.0
100
AcDbPoint
 10
5450.140621386539
 20
16109.36303900099
 30
0.0
  0
POINT
  5
139E0
330
137AE
100
AcDbEntity
  8
DEFPOINTS
  6
ByBlock
 62
     0
 48
50.0
100
AcDbPoint
 10
5009.107255058973
 20
16109.36303900099
 30
0.0
  0
ENDBLK
  5
139E1
330
137AE
100
AcDbEntity
  8
0
 48
50.0
100
AcDbBlockEnd
  0
BLOCK
  5
139E2
330
137BA
100
AcDbEntity
  8
0
 48
50.0
100
AcDbBlockBegin
  2
*D8
 70
     1
 10
0.0
 20
0.0
 30
0.0
  3
*D8
  1

  0
LINE
  5
139E3
330
137BA
100
AcDbEntity
  8
0
  6
ByBlock
 62
     0
 48
50.0
100
AcDbLine
 10
5435.14062138654
 20
18109.36303900098
 30
0.0
 11
4741.519422658848
 21
18109.36303900098
 31
0.0
  0
LINE
  5
139E4
330
137BA
100
AcDbEntity
  8
0
  6
ByBlock
 62
     0
 48
50.0
100
AcDbLine
 10
5435.14062138654
 20
16109.36303900099
 30
0.0
 11
4741.519422658848
 21
16109.36303900099
 31
0.0
  0
LINE
  5
139E5
330
137BA
100
AcDbEntity
  8
0
  6
ByBlock
 62
     0
 48
50.0
100
AcDbLine
 10
4786.519422658848
 20
18109.36303900098
 30
0.0
 11
4786.519422658848
 21
16109.36303900099
 31
0.0
  0
INSERT
  5
139E6
330
137BA
100
AcDbEntity
  8
0
  6
ByBlock
 62
     0
 48
50.0
100
AcDbBlockReference
  2
_DOTSMALL
 10
4786.519422658848
 20
18109.36303900098
 30
0.0
 41
75.0
 42
75.0
 43
75.0
 50
90.0
  0
INSERT
  5
139E7
330
137BA
100
AcDbEntity
  8
0
  6
ByBlock
 62
     0
 48
50.0
100
AcDbBlockReference
  2
_DOTSMALL
 10
4786.519422658848
 20
16109.36303900099
 30
0.0
 41
75.0
 42
75.0
 43
75.0
 50
270.0
  0
MTEXT
  5
139E8
330
137BA
100
AcDbEntity
  8
0
  6
ByBlock
 62
     7
 48
50.0
100
AcDbMText
 10
4711.510564391132
 20
17109.36303900098
 30
0.0
 40
90.0
 41
0.0
 71
     5
 72
     1
  1
\A1;基礎寸法 2000
  7
STYLE1
 11
0.0000000000000001
 21
1.0
 31
0.0
 73
     1
 44
1.0
1001
ACAD
1000
MTEXTBEGIN
1070
    73
1070
     1
1070
    44
1040
1.0
1070
    74
1070
     0
1000
MTEXTEND
  0
POINT
  5
139E9
330
137BA
100
AcDbEntity
  8
DEFPOINTS
  6
ByBlock
 62
     0
 48
50.0
100
AcDbPoint
 10
5450.140621386539
 20
18109.36303900098
 30
0.0
  0
POINT
  5
139EA
330
137BA
100
AcDbEntity
  8
DEFPOINTS
  6
ByBlock
 62
     0
 48
50.0
100
AcDbPoint
 10
5450.140621386539
 20
16109.36303900099
 30
0.0
  0
POINT
  5
139EB
330
137BA
100
AcDbEntity
  8
DEFPOINTS
  6
ByBlock
 62
     0
 48
50.0
100
AcDbPoint
 10
4786.519422658848
 20
16109.36303900099
 30
0.0
  0
ENDBLK
  5
139EC
330
137BA
100
AcDbEntity
  8
0
 48
50.0
100
AcDbBlockEnd
  0
BLOCK
  5
139ED
330
137C6
100
AcDbEntity
  8
0
 48
50.0
100
AcDbBlockBegin
  2
*D9
 70
     1
 10
0.0
 20
0.0
 30
0.0
  3
*D9
  1

  0
LINE
  5
139EE
330
137C6
100
AcDbEntity
  8
0
  6
ByBlock
 62
     0
 48
50.0
100
AcDbLine
 10
5435.14062138654
 20
18109.36303900098
 30
0.0
 11
4964.268784675309
 21
18109.36303900098
 31
0.0
  0
LINE
  5
139EF
330
137C6
100
AcDbEntity
  8
0
  6
ByBlock
 62
     0
 48
50.0
100
AcDbLine
 10
5435.14062138654
 20
17109.36303900099
 30
0.0
 11
4964.268784675309
 21
17109.36303900099
 31
0.0
  0
LINE
  5
139F0
330
137C6
100
AcDbEntity
  8
0
  6
ByBlock
 62
     0
 48
50.0
100
AcDbLine
 10
5009.268784675309
 20
18109.36303900098
 30
0.0
 11
5009.268784675309
 21
17109.36303900099
 31
0.0
  0
INSERT
  5
139F1
330
137C6
100
AcDbEntity
  8
0
  6
ByBlock
 62
     0
 48
50.0
100
AcDbBlockReference
  2
_DOTSMALL
 10
5009.268784675309
 20
18109.36303900098
 30
0.0
 41
75.0
 42
75.0
 43
75.0
 50
90.0
  0
INSERT
  5
139F2
330
137C6
100
AcDbEntity
  8
0
  6
ByBlock
 62
     0
 48
50.0
100
AcDbBlockReference
  2
_DOTSMALL
 10
5009.268784675309
 20
17109.36303900099
 30
0.0
 41
75.0
 42
75.0
 43
75.0
 50
270.0
  0
MTEXT
  5
139F3
330
137C6
100
AcDbEntity
  8
0
  6
ByBlock
 62
     7
 48
50.0
100
AcDbMText
 10
4934.268784675309
 20
17609.36303900098
 30
0.0
 40
90.0
 41
0.0
 71
     5
 72
     1
  1
\A1;1000
  7
STYLE1
 11
0.0000000000000001
 21
1.0
 31
0.0
 73
     1
 44
1.0
1001
ACAD
1000
MTEXTBEGIN
1070
    73
1070
     1
1070
    44
1040
1.0
1070
    74
1070
     0
1000
MTEXTEND
  0
POINT
  5
139F4
330
137C6
100
AcDbEntity
  8
DEFPOINTS
  6
ByBlock
 62
     0
 48
50.0
100
AcDbPoint
 10
5450.140621386539
 20
18109.36303900098
 30
0.0
  0
POINT
  5
139F5
330
137C6
100
AcDbEntity
  8
DEFPOINTS
  6
ByBlock
 62
     0
 48
50.0
100
AcDbPoint
 10
5450.140621386539
 20
17109.36303900099
 30
0.0
  0
POINT
  5
139F6
330
137C6
100
AcDbEntity
  8
DEFPOINTS
  6
ByBlock
 62
     0
 48
50.0
100
AcDbPoint
 10
5009.268784675309
 20
17109.36303900099
 30
0.0
  0
ENDBLK
  5
139F7
330
137C6
100
AcDbEntity
  8
0
 48
50.0
100
AcDbBlockEnd
  0
BLOCK
  5
13A1C
330
137F9
100
AcDbEntity
  8
0
 48
50.0
100
AcDbBlockBegin
  2
*D13
 70
     1
 10
0.0
 20
0.0
 30
0.0
  3
*D13
  1

  0
LINE
  5
13A1D
330
137F9
100
AcDbEntity
  8
0
  6
ByBlock
 62
     0
 48
50.0
100
AcDbLine
 10
10520.14062138654
 20
18194.36303900099
 30
0.0
 11
10520.14062138654
 21
18607.412568477
 31
0.0
  0
LINE
  5
13A1E
330
137F9
100
AcDbEntity
  8
0
  6
ByBlock
 62
     0
 48
50.0
100
AcDbLine
 10
10770.14062138654
 20
18124.36303900098
 30
0.0
 11
10770.14062138654
 21
18607.412568477
 31
0.0
  0
LINE
  5
13A1F
330
137F9
100
AcDbEntity
  8
0
  6
ByBlock
 62
     0
 48
50.0
100
AcDbLine
 10
10520.14062138654
 20
18562.412568477
 30
0.0
 11
10770.14062138654
 21
18562.412568477
 31
0.0
  0
INSERT
  5
13A20
330
137F9
100
AcDbEntity
  8
0
  6
ByBlock
 62
     0
 48
50.0
100
AcDbBlockReference
  2
_DOTSMALL
 10
10520.14062138654
 20
18562.412568477
 30
0.0
 41
75.0
 42
75.0
 43
75.0
 50
180.0
  0
INSERT
  5
13A21
330
137F9
100
AcDbEntity
  8
0
  6
ByBlock
 62
     0
 48
50.0
100
AcDbBlockReference
  2
_DOTSMALL
 10
10770.14062138654
 20
18562.412568477
 30
0.0
 41
75.0
 42
75.0
 43
75.0
  0
MTEXT
  5
13A22
330
137F9
100
AcDbEntity
  8
0
  6
ByBlock
 62
     7
 48
50.0
100
AcDbMText
 10
10645.14062138654
 20
18637.42142674471
 30
0.0
 40
90.0
 41
0.0
 71
     5
 72
     1
  1
\A1;250
  7
STYLE1
 73
     1
 44
1.0
1001
ACAD
1000
MTEXTBEGIN
1070
    73
1070
     1
1070
    44
1040
1.0
1070
    74
1070
     0
1000
MTEXTEND
  0
POINT
  5
13A23
330
137F9
100
AcDbEntity
  8
DEFPOINTS
  6
ByBlock
 62
     0
 48
50.0
100
AcDbPoint
 10
10520.14062138654
 20
18179.36303900099
 30
0.0
  0
POINT
  5
13A24
330
137F9
100
AcDbEntity
  8
DEFPOINTS
  6
ByBlock
 62
     0
 48
50.0
100
AcDbPoint
 10
10770.14062138654
 20
18109.36303900098
 30
0.0
  0
POINT
  5
13A25
330
137F9
100
AcDbEntity
  8
DEFPOINTS
  6
ByBlock
 62
     0
 48
50.0
100
AcDbPoint
 10
10770.14062138654
 20
18562.412568477
 30
0.0
  0
ENDBLK
  5
13A26
330
137F9
100
AcDbEntity
  8
0
 48
50.0
100
AcDbBlockEnd
  0
BLOCK
  5
13A3F
330
1381F
100
AcDbEntity
  8
0
 48
50.0
100
AcDbBlockBegin
  2
*D16
 70
     1
 10
0.0
 20
0.0
 30
0.0
  3
*D16
  1

  0
LINE
  5
13A40
330
1381F
100
AcDbEntity
  8
0
  6
ByBlock
 62
     0
 48
50.0
100
AcDbLine
 10
10620.14062138654
 20
16919.36303900098
 30
0.0
 11
10620.14062138654
 21
16494.84175568818
 31
0.0
  0
LINE
  5
13A41
330
1381F
100
AcDbEntity
  8
0
  6
ByBlock
 62
     0
 48
50.0
100
AcDbLine
 10
10420.14062138654
 20
16919.36303900098
 30
0.0
 11
10420.14062138654
 21
16494.84175568818
 31
0.0
  0
LINE
  5
13A42
330
1381F
100
AcDbEntity
  8
0
  6
ByBlock
 62
     0
 48
50.0
100
AcDbLine
 10
10620.14062138654
 20
16539.84175568818
 30
0.0
 11
10695.14062138654
 21
16539.84175568818
 31
0.0
  0
LINE
  5
13A43
330
1381F
100
AcDbEntity
  8
0
  6
ByBlock
 62
     0
 48
50.0
100
AcDbLine
 10
10420.14062138654
 20
16539.84175568818
 30
0.0
 11
10345.14062138654
 21
16539.84175568818
 31
0.0
  0
LINE
  5
13A44
330
1381F
100
AcDbEntity
  8
0
  6
ByBlock
 62
     0
 48
50.0
100
AcDbLine
 10
10620.14062138654
 20
16539.84175568818
 30
0.0
 11
10420.14062138654
 21
16539.84175568818
 31
0.0
  0
INSERT
  5
13A45
330
1381F
100
AcDbEntity
  8
0
  6
ByBlock
 62
     0
 48
50.0
100
AcDbBlockReference
  2
_DOTSMALL
 10
10620.14062138654
 20
16539.84175568818
 30
0.0
 41
75.0
 42
75.0
 43
75.0
 50
180.0
  0
INSERT
  5
13A46
330
1381F
100
AcDbEntity
  8
0
  6
ByBlock
 62
     0
 48
50.0
100
AcDbBlockReference
  2
_DOTSMALL
 10
10420.14062138654
 20
16539.84175568818
 30
0.0
 41
75.0
 42
75.0
 43
75.0
  0
MTEXT
  5
13A47
330
1381F
100
AcDbEntity
  8
0
  6
ByBlock
 62
     7
 48
50.0
100
AcDbMText
 10
10520.14062138654
 20
16614.8506139559
 30
0.0
 40
90.0
 41
0.0
 71
     5
 72
     1
  1
\A1;200
  7
STYLE1
 73
     1
 44
1.0
1001
ACAD
1000
MTEXTBEGIN
1070
    73
1070
     1
1070
    44
1040
1.0
1070
    74
1070
     0
1000
MTEXTEND
  0
POINT
  5
13A48
330
1381F
100
AcDbEntity
  8
DEFPOINTS
  6
ByBlock
 62
     0
 48
50.0
100
AcDbPoint
 10
10620.14062138654
 20
16934.36303900098
 30
0.0
  0
POINT
  5
13A49
330
1381F
100
AcDbEntity
  8
DEFPOINTS
  6
ByBlock
 62
     0
 48
50.0
100
AcDbPoint
 10
10420.14062138654
 20
16934.36303900098
 30
0.0
  0
POINT
  5
13A4A
330
1381F
100
AcDbEntity
  8
DEFPOINTS
  6
ByBlock
 62
     0
 48
50.0
100
AcDbPoint
 10
10420.14062138654
 20
16539.84175568818
 30
0.0
  0
ENDBLK
  5
13A4B
330
1381F
100
AcDbEntity
  8
0
 48
50.0
100
AcDbBlockEnd
  0
BLOCK
  5
13A4C
330
1382D
100
AcDbEntity
  8
0
 48
50.0
100
AcDbBlockBegin
  2
*D17
 70
     1
 10
0.0
 20
0.0
 30
0.0
  3
*D17
  1

  0
LINE
  5
13A4D
330
1382D
100
AcDbEntity
  8
0
  6
ByBlock
 62
     0
 48
50.0
100
AcDbLine
 10
10785.14062138654
 20
18109.36303900098
 30
0.0
 11
11297.41484375015
 21
18109.36303900098
 31
0.0
  0
LINE
  5
13A4E
330
1382D
100
AcDbEntity
  8
0
  6
ByBlock
 62
     0
 48
50.0
100
AcDbLine
 10
10785.14062138654
 20
16109.36303900099
 30
0.0
 11
11297.41484375015
 21
16109.36303900099
 31
0.0
  0
LINE
  5
13A4F
330
1382D
100
AcDbEntity
  8
0
  6
ByBlock
 62
     0
 48
50.0
100
AcDbLine
 10
11252.41484375015
 20
18109.36303900098
 30
0.0
 11
11252.41484375015
 21
16109.36303900099
 31
0.0
  0
INSERT
  5
13A50
330
1382D
100
AcDbEntity
  8
0
  6
ByBlock
 62
     0
 48
50.0
100
AcDbBlockReference
  2
_DOTSMALL
 10
11252.41484375015
 20
18109.36303900098
 30
0.0
 41
75.0
 42
75.0
 43
75.0
 50
90.0
  0
INSERT
  5
13A51
330
1382D
100
AcDbEntity
  8
0
  6
ByBlock
 62
     0
 48
50.0
100
AcDbBlockReference
  2
_DOTSMALL
 10
11252.41484375015
 20
16109.36303900099
 30
0.0
 41
75.0
 42
75.0
 43
75.0
 50
270.0
  0
MTEXT
  5
13A52
330
1382D
100
AcDbEntity
  8
0
  6
ByBlock
 62
     7
 48
50.0
100
AcDbMText
 10
11177.40598548244
 20
17109.36303900098
 30
0.0
 40
90.0
 41
0.0
 71
     5
 72
     1
  1
\A1;屋根寸法 2000
  7
STYLE1
 11
0.0000000000000001
 21
1.0
 31
0.0
 73
     1
 44
1.0
1001
ACAD
1000
MTEXTBEGIN
1070
    73
1070
     1
1070
    44
1040
1.0
1070
    74
1070
     0
1000
MTEXTEND
  0
POINT
  5
13A53
330
1382D
100
AcDbEntity
  8
DEFPOINTS
  6
ByBlock
 62
     0
 48
50.0
100
AcDbPoint
 10
10770.14062138654
 20
18109.36303900098
 30
0.0
  0
POINT
  5
13A54
330
1382D
100
AcDbEntity
  8
DEFPOINTS
  6
ByBlock
 62
     0
 48
50.0
100
AcDbPoint
 10
10770.14062138654
 20
16109.36303900099
 30
0.0
  0
POINT
  5
13A55
330
1382D
100
AcDbEntity
  8
DEFPOINTS
  6
ByBlock
 62
     0
 48
50.0
100
AcDbPoint
 10
11252.41484375015
 20
16109.36303900099
 30
0.0
  0
ENDBLK
  5
13A56
330
1382D
100
AcDbEntity
  8
0
 48
50.0
100
AcDbBlockEnd
  0
BLOCK
  5
13A57
330
13839
100
AcDbEntity
  8
0
 48
50.0
100
AcDbBlockBegin
  2
*D18
 70
     1
 10
0.0
 20
0.0
 30
0.0
  3
*D18
  1

  0
LINE
  5
13A58
330
13839
100
AcDbEntity
  8
0
  6
ByBlock
 62
     0
 48
50.0
100
AcDbLine
 10
10710.14062138654
 20
17009.36303900098
 30
0.0
 11
11076.72804852411
 21
17009.36303900098
 31
0.0
  0
LINE
  5
13A59
330
13839
100
AcDbEntity
  8
0
  6
ByBlock
 62
     0
 48
50.0
100
AcDbLine
 10
10710.14062138654
 20
17209.36303900098
 30
0.0
 11
11076.72804852411
 21
17209.36303900098
 31
0.0
  0
LINE
  5
13A5A
330
13839
100
AcDbEntity
  8
0
  6
ByBlock
 62
     0
 48
50.0
100
AcDbLine
 10
11031.72804852411
 20
17009.36303900098
 30
0.0
 11
11031.72804852411
 21
16934.36303900098
 31
0.0
  0
LINE
  5
13A5B
330
13839
100
AcDbEntity
  8
0
  6
ByBlock
 62
     0
 48
50.0
100
AcDbLine
 10
11031.72804852411
 20
17209.36303900098
 30
0.0
 11
11031.72804852411
 21
17284.36303900098
 31
0.0
  0
LINE
  5
13A5C
330
13839
100
AcDbEntity
  8
0
  6
ByBlock
 62
     0
 48
50.0
100
AcDbLine
 10
11031.72804852411
 20
17009.36303900098
 30
0.0
 11
11031.72804852411
 21
17209.36303900098
 31
0.0
  0
INSERT
  5
13A5D
330
13839
100
AcDbEntity
  8
0
  6
ByBlock
 62
     0
 48
50.0
100
AcDbBlockReference
  2
_DOTSMALL
 10
11031.72804852411
 20
17009.36303900098
 30
0.0
 41
75.0
 42
75.0
 43
75.0
 50
90.0
  0
INSERT
  5
13A5E
330
13839
100
AcDbEntity
  8
0
  6
ByBlock
 62
     0
 48
50.0
100
AcDbBlockReference
  2
_DOTSMALL
 10
11031.72804852411
 20
17209.36303900098
 30
0.0
 41
75.0
 42
75.0
 43
75.0
 50
270.0
  0
MTEXT
  5
13A5F
330
13839
100
AcDbEntity
  8
0
  6
ByBlock
 62
     7
 48
50.0
100
AcDbMText
 10
10956.71919025639
 20
17109.36303900098
 30
0.0
 40
90.0
 41
0.0
 71
     5
 72
     1
  1
\A1;200
  7
STYLE1
 11
0.0000000000000001
 21
1.0
 31
0.0
 73
     1
 44
1.0
1001
ACAD
1000
MTEXTBEGIN
1070
    73
1070
     1
1070
    44
1040
1.0
1070
    74
1070
     0
1000
MTEXTEND
  0
POINT
  5
13A60
330
13839
100
AcDbEntity
  8
DEFPOINTS
  6
ByBlock
 62
     0
 48
50.0
100
AcDbPoint
 10
10695.14062138654
 20
17009.36303900098
 30
0.0
  0
POINT
  5
13A61
330
13839
100
AcDbEntity
  8
DEFPOINTS
  6
ByBlock
 62
     0
 48
50.0
100
AcDbPoint
 10
10695.14062138654
 20
17209.36303900098
 30
0.0
  0
POINT
  5
13A62
330
13839
100
AcDbEntity
  8
DEFPOINTS
  6
ByBlock
 62
     0
 48
50.0
100
AcDbPoint
 10
11031.72804852411
 20
17209.36303900098
 30
0.0
  0
ENDBLK
  5
13A63
330
13839
100
AcDbEntity
  8
0
 48
50.0
100
AcDbBlockEnd
  0
BLOCK
  5
13A64
330
13847
100
AcDbEntity
  8
0
 48
50.0
100
AcDbBlockBegin
  2
*D19
 70
     1
 10
0.0
 20
0.0
 30
0.0
  3
*D19
  1

  0
LINE
  5
13A65
330
13847
100
AcDbEntity
  8
0
  6
ByBlock
 62
     0
 48
50.0
100
AcDbLine
 10
10170.14062138654
 20
17474.36303900098
 30
0.0
 11
10170.14062138654
 21
17702.15240030098
 31
0.0
  0
LINE
  5
13A66
330
13847
100
AcDbEntity
  8
0
  6
ByBlock
 62
     0
 48
50.0
100
AcDbLine
 10
10870.14062138654
 20
17474.36303900098
 30
0.0
 11
10870.14062138654
 21
17702.15240030098
 31
0.0
  0
LINE
  5
13A67
330
13847
100
AcDbEntity
  8
0
  6
ByBlock
 62
     0
 48
50.0
100
AcDbLine
 10
10170.14062138654
 20
17657.15240030098
 30
0.0
 11
10870.14062138654
 21
17657.15240030098
 31
0.0
  0
INSERT
  5
13A68
330
13847
100
AcDbEntity
  8
0
  6
ByBlock
 62
     0
 48
50.0
100
AcDbBlockReference
  2
_DOTSMALL
 10
10170.14062138654
 20
17657.15240030098
 30
0.0
 41
75.0
 42
75.0
 43
75.0
 50
180.0
  0
INSERT
  5
13A69
330
13847
100
AcDbEntity
  8
0
  6
ByBlock
 62
     0
 48
50.0
100
AcDbBlockReference
  2
_DOTSMALL
 10
10870.14062138654
 20
17657.15240030098
 30
0.0
 41
75.0
 42
75.0
 43
75.0
  0
MTEXT
  5
13A6A
330
13847
100
AcDbEntity
  8
0
  6
ByBlock
 62
     7
 48
50.0
100
AcDbMText
 10
10520.14062138654
 20
17732.15240030098
 30
0.0
 40
90.0
 41
0.0
 71
     5
 72
     1
  1
\A1;700
  7
STYLE1
 73
     1
 44
1.0
1001
ACAD
1000
MTEXTBEGIN
1070
    73
1070
     1
1070
    44
1040
1.0
1070
    74
1070
     0
1000
MTEXTEND
  0
POINT
  5
13A6B
330
13847
100
AcDbEntity
  8
DEFPOINTS
  6
ByBlock
 62
     0
 48
50.0
100
AcDbPoint
 10
10170.14062138654
 20
17459.36303900098
 30
0.0
  0
POINT
  5
13A6C
330
13847
100
AcDbEntity
  8
DEFPOINTS
  6
ByBlock
 62
     0
 48
50.0
100
AcDbPoint
 10
10870.14062138654
 20
17459.36303900098
 30
0.0
  0
POINT
  5
13A6D
330
13847
100
AcDbEntity
  8
DEFPOINTS
  6
ByBlock
 62
     0
 48
50.0
100
AcDbPoint
 10
10870.14062138654
 20
17657.15240030098
 30
0.0
  0
ENDBLK
  5
13A6E
330
13847
100
AcDbEntity
  8
0
 48
50.0
100
AcDbBlockEnd
  0
BLOCK
  5
13C05
330
138AC
100
AcDbEntity
  8
0
 48
50.0
100
AcDbBlockBegin
  2
*D27
 70
     1
 10
0.0
 20
0.0
 30
0.0
  3
*D27
  1

  0
LINE
  5
13C06
330
138AC
100
AcDbEntity
  8
0
  6
ByBlock
 62
     0
 48
50.0
100
AcDbLine
 10
8110.140621386539
 20
13428.96405870412
 30
0.0
 11
8110.140621386539
 21
14661.41635283523
 31
0.0
  0
LINE
  5
13C07
330
138AC
100
AcDbEntity
  8
0
  6
ByBlock
 62
     0
 48
50.0
100
AcDbLine
 10
10940.14062138654
 20
13846.75342000412
 30
0.0
 11
10940.14062138654
 21
14661.41635283523
 31
0.0
  0
LINE
  5
13C08
330
138AC
100
AcDbEntity
  8
0
  6
ByBlock
 62
     0
 48
50.0
100
AcDbLine
 10
8110.140621386539
 20
14616.41635283523
 30
0.0
 11
10940.14062138654
 21
14616.41635283523
 31
0.0
  0
INSERT
  5
13C09
330
138AC
100
AcDbEntity
  8
0
  6
ByBlock
 62
     0
 48
50.0
100
AcDbBlockReference
  2
_DOTSMALL
 10
8110.140621386539
 20
14616.41635283523
 30
0.0
 41
75.0
 42
75.0
 43
75.0
 50
180.0
  0
INSERT
  5
13C0A
330
138AC
100
AcDbEntity
  8
0
  6
ByBlock
 62
     0
 48
50.0
100
AcDbBlockReference
  2
_DOTSMALL
 10
10940.14062138654
 20
14616.41635283523
 30
0.0
 41
75.0
 42
75.0
 43
75.0
  0
MTEXT
  5
13C0B
330
138AC
100
AcDbEntity
  8
0
  6
ByBlock
 62
     7
 48
50.0
100
AcDbMText
 10
9525.140621386539
 20
14691.42521110294
 30
0.0
 40
90.0
 41
0.0
 71
     5
 72
     1
  1
\A1;2830
  7
STYLE1
 73
     1
 44
1.0
1001
ACAD
1000
MTEXTBEGIN
1070
    73
1070
     1
1070
    44
1040
1.0
1070
    74
1070
     0
1000
MTEXTEND
  0
POINT
  5
13C0C
330
138AC
100
AcDbEntity
  8
DEFPOINTS
  6
ByBlock
 62
     0
 48
50.0
100
AcDbPoint
 10
8110.140621386539
 20
13413.96405870412
 30
0.0
  0
POINT
  5
13C0D
330
138AC
100
AcDbEntity
  8
DEFPOINTS
  6
ByBlock
 62
     0
 48
50.0
100
AcDbPoint
 10
10940.14062138654
 20
13831.75342000412
 30
0.0
  0
POINT
  5
13C0E
330
138AC
100
AcDbEntity
  8
DEFPOINTS
  6
ByBlock
 62
     0
 48
50.0
100
AcDbPoint
 10
10940.14062138654
 20
14616.41635283523
 30
0.0
  0
ENDBLK
  5
13C0F
330
138AC
100
AcDbEntity
  8
0
 48
50.0
100
AcDbBlockEnd
  0
BLOCK
  5
13ACC
330
138B8
100
AcDbEntity
  8
0
 48
50.0
100
AcDbBlockBegin
  2
*D28
 70
     1
 10
0.0
 20
0.0
 30
0.0
  3
*D28
  1

  0
LINE
  5
13ACD
330
138B8
100
AcDbEntity
  8
0
  6
ByBlock
 62
     0
 48
50.0
100
AcDbLine
 10
10155.14062138654
 20
13513.96405870412
 30
0.0
 11
9947.82611810236
 21
13513.96405870412
 31
0.0
  0
LINE
  5
13ACE
330
138B8
100
AcDbEntity
  8
0
  6
ByBlock
 62
     0
 48
50.0
100
AcDbLine
 10
10155.14062138654
 20
12813.96405870412
 30
0.0
 11
9947.82611810236
 21
12813.96405870412
 31
0.0
  0
LINE
  5
13ACF
330
138B8
100
AcDbEntity
  8
0
  6
ByBlock
 62
     0
 48
50.0
100
AcDbLine
 10
9992.826118102358
 20
13513.96405870412
 30
0.0
 11
9992.826118102358
 21
12813.96405870412
 31
0.0
  0
INSERT
  5
13AD0
330
138B8
100
AcDbEntity
  8
0
  6
ByBlock
 62
     0
 48
50.0
100
AcDbBlockReference
  2
_DOTSMALL
 10
9992.826118102358
 20
13513.96405870412
 30
0.0
 41
75.0
 42
75.0
 43
75.0
 50
90.0
  0
INSERT
  5
13AD1
330
138B8
100
AcDbEntity
  8
0
  6
ByBlock
 62
     0
 48
50.0
100
AcDbBlockReference
  2
_DOTSMALL
 10
9992.826118102358
 20
12813.96405870412
 30
0.0
 41
75.0
 42
75.0
 43
75.0
 50
270.0
  0
MTEXT
  5
13AD2
330
138B8
100
AcDbEntity
  8
0
  6
ByBlock
 62
     7
 48
50.0
100
AcDbMText
 10
9917.826118102359
 20
13163.96405870412
 30
0.0
 40
90.0
 41
0.0
 71
     5
 72
     1
  1
\A1;700
  7
STYLE1
 11
0.0000000000000001
 21
1.0
 31
0.0
 73
     1
 44
1.0
1001
ACAD
1000
MTEXTBEGIN
1070
    73
1070
     1
1070
    44
1040
1.0
1070
    74
1070
     0
1000
MTEXTEND
  0
POINT
  5
13AD3
330
138B8
100
AcDbEntity
  8
DEFPOINTS
  6
ByBlock
 62
     0
 48
50.0
100
AcDbPoint
 10
10170.14062138654
 20
13513.96405870412
 30
0.0
  0
POINT
  5
13AD4
330
138B8
100
AcDbEntity
  8
DEFPOINTS
  6
ByBlock
 62
     0
 48
50.0
100
AcDbPoint
 10
10170.14062138654
 20
12813.96405870412
 30
0.0
  0
POINT
  5
13AD5
330
138B8
100
AcDbEntity
  8
DEFPOINTS
  6
ByBlock
 62
     0
 48
50.0
100
AcDbPoint
 10
9992.826118102358
 20
12813.96405870412
 30
0.0
  0
ENDBLK
  5
13AD6
330
138B8
100
AcDbEntity
  8
0
 48
50.0
100
AcDbBlockEnd
  0
BLOCK
  5
13BEF
330
138C4
100
AcDbEntity
  8
0
 48
50.0
100
AcDbBlockBegin
  2
*D29
 70
     1
 10
0.0
 20
0.0
 30
0.0
  3
*D29
  1

  0
LINE
  5
13BF0
330
138C4
100
AcDbEntity
  8
0
  6
ByBlock
 62
     0
 48
50.0
100
AcDbLine
 10
5030.140621386539
 20
12148.96405870412
 30
0.0
 11
5030.140621386539
 21
11729.19235410741
 31
0.0
  0
LINE
  5
13BF1
330
138C4
100
AcDbEntity
  8
0
  6
ByBlock
 62
     0
 48
50.0
100
AcDbLine
 10
11190.14062138654
 20
12148.96405870412
 30
0.0
 11
11190.14062138654
 21
11729.19235410741
 31
0.0
  0
LINE
  5
13BF2
330
138C4
100
AcDbEntity
  8
0
  6
ByBlock
 62
     0
 48
50.0
100
AcDbLine
 10
5030.140621386539
 20
11774.19235410741
 30
0.0
 11
11190.14062138654
 21
11774.19235410741
 31
0.0
  0
INSERT
  5
13BF3
330
138C4
100
AcDbEntity
  8
0
  6
ByBlock
 62
     0
 48
50.0
100
AcDbBlockReference
  2
_DOTSMALL
 10
5030.140621386539
 20
11774.19235410741
 30
0.0
 41
75.0
 42
75.0
 43
75.0
 50
180.0
  0
INSERT
  5
13BF4
330
138C4
100
AcDbEntity
  8
0
  6
ByBlock
 62
     0
 48
50.0
100
AcDbBlockReference
  2
_DOTSMALL
 10
11190.14062138654
 20
11774.19235410741
 30
0.0
 41
75.0
 42
75.0
 43
75.0
  0
MTEXT
  5
13BF5
330
138C4
100
AcDbEntity
  8
0
  6
ByBlock
 62
     7
 48
50.0
100
AcDbMText
 10
8110.140621386539
 20
11849.19235410741
 30
0.0
 40
90.0
 41
0.0
 71
     5
 72
     1
  1
\A1;屋根寸法 6160
  7
STYLE1
 73
     1
 44
1.0
1001
ACAD
1000
MTEXTBEGIN
1070
    73
1070
     1
1070
    44
1040
1.0
1070
    74
1070
     0
1000
MTEXTEND
  0
POINT
  5
13BF6
330
138C4
100
AcDbEntity
  8
DEFPOINTS
  6
ByBlock
 62
     0
 48
50.0
100
AcDbPoint
 10
5030.140621386539
 20
12163.96405870412
 30
0.0
  0
POINT
  5
13BF7
330
138C4
100
AcDbEntity
  8
DEFPOINTS
  6
ByBlock
 62
     0
 48
50.0
100
AcDbPoint
 10
11190.14062138654
 20
12163.96405870412
 30
0.0
  0
POINT
  5
13BF8
330
138C4
100
AcDbEntity
  8
DEFPOINTS
  6
ByBlock
 62
     0
 48
50.0
100
AcDbPoint
 10
11190.14062138654
 20
11774.19235410741
 30
0.0
  0
ENDBLK
  5
13BF9
330
138C4
100
AcDbEntity
  8
0
 48
50.0
100
AcDbBlockEnd
  0
BLOCK
  5
13BFA
330
138D0
100
AcDbEntity
  8
0
 48
50.0
100
AcDbBlockBegin
  2
*D30
 70
     1
 10
0.0
 20
0.0
 30
0.0
  3
*D30
  1

  0
LINE
  5
13BFB
330
138D0
100
AcDbEntity
  8
0
  6
ByBlock
 62
     0
 48
50.0
100
AcDbLine
 10
5030.140621386539
 20
14178.96405870412
 30
0.0
 11
5030.140621386539
 21
14855.45339180954
 31
0.0
  0
LINE
  5
13BFC
330
138D0
100
AcDbEntity
  8
0
  6
ByBlock
 62
     0
 48
50.0
100
AcDbLine
 10
11190.14062138654
 20
14178.96405870412
 30
0.0
 11
11190.14062138654
 21
14855.45339180954
 31
0.0
  0
LINE
  5
13BFD
330
138D0
100
AcDbEntity
  8
0
  6
ByBlock
 62
     0
 48
50.0
100
AcDbLine
 10
5030.140621386539
 20
14810.45339180955
 30
0.0
 11
11190.14062138654
 21
14810.45339180955
 31
0.0
  0
INSERT
  5
13BFE
330
138D0
100
AcDbEntity
  8
0
  6
ByBlock
 62
     0
 48
50.0
100
AcDbBlockReference
  2
_DOTSMALL
 10
5030.140621386539
 20
14810.45339180955
 30
0.0
 41
75.0
 42
75.0
 43
75.0
 50
180.0
  0
INSERT
  5
13BFF
330
138D0
100
AcDbEntity
  8
0
  6
ByBlock
 62
     0
 48
50.0
100
AcDbBlockReference
  2
_DOTSMALL
 10
11190.14062138654
 20
14810.45339180955
 30
0.0
 41
75.0
 42
75.0
 43
75.0
  0
MTEXT
  5
13C00
330
138D0
100
AcDbEntity
  8
0
  6
ByBlock
 62
     7
 48
50.0
100
AcDbMText
 10
8110.140621386539
 20
14885.45339180955
 30
0.0
 40
90.0
 41
0.0
 71
     5
 72
     1
  1
\A1;基礎寸法 6160
  7
STYLE1
 73
     1
 44
1.0
1001
ACAD
1000
MTEXTBEGIN
1070
    73
1070
     1
1070
    44
1040
1.0
1070
    74
1070
     0
1000
MTEXTEND
  0
POINT
  5
13C01
330
138D0
100
AcDbEntity
  8
DEFPOINTS
  6
ByBlock
 62
     0
 48
50.0
100
AcDbPoint
 10
5030.140621386539
 20
14163.96405870412
 30
0.0
  0
POINT
  5
13C02
330
138D0
100
AcDbEntity
  8
DEFPOINTS
  6
ByBlock
 62
     0
 48
50.0
100
AcDbPoint
 10
11190.14062138654
 20
14163.96405870412
 30
0.0
  0
POINT
  5
13C03
330
138D0
100
AcDbEntity
  8
DEFPOINTS
  6
ByBlock
 62
     0
 48
50.0
100
AcDbPoint
 10
11190.14062138654
 20
14810.45339180955
 30
0.0
  0
ENDBLK
  5
13C04
330
138D0
100
AcDbEntity
  8
0
 48
50.0
100
AcDbBlockEnd
  0
BLOCK
  5
13B97
330
138DC
100
AcDbEntity
  8
0
 48
50.0
100
AcDbBlockBegin
  2
*D31
 70
     1
 10
0.0
 20
0.0
 30
0.0
  3
*D31
  1

  0
LINE
  5
13B98
330
138DC
100
AcDbEntity
  8
0
  6
ByBlock
 62
     0
 48
50.0
100
AcDbLine
 10
5280.140621386539
 20
13428.96405870412
 30
0.0
 11
5280.140621386539
 21
14661.41635283523
 31
0.0
  0
LINE
  5
13B99
330
138DC
100
AcDbEntity
  8
0
  6
ByBlock
 62
     0
 48
50.0
100
AcDbLine
 10
8110.140621386539
 20
13717.50907607504
 30
0.0
 11
8110.140621386539
 21
14661.41635283523
 31
0.0
  0
LINE
  5
13B9A
330
138DC
100
AcDbEntity
  8
0
  6
ByBlock
 62
     0
 48
50.0
100
AcDbLine
 10
5280.140621386539
 20
14616.41635283523
 30
0.0
 11
8110.140621386539
 21
14616.41635283523
 31
0.0
  0
INSERT
  5
13B9B
330
138DC
100
AcDbEntity
  8
0
  6
ByBlock
 62
     0
 48
50.0
100
AcDbBlockReference
  2
_DOTSMALL
 10
5280.140621386539
 20
14616.41635283523
 30
0.0
 41
75.0
 42
75.0
 43
75.0
 50
180.0
  0
INSERT
  5
13B9C
330
138DC
100
AcDbEntity
  8
0
  6
ByBlock
 62
     0
 48
50.0
100
AcDbBlockReference
  2
_DOTSMALL
 10
8110.140621386539
 20
14616.41635283523
 30
0.0
 41
75.0
 42
75.0
 43
75.0
  0
MTEXT
  5
13B9D
330
138DC
100
AcDbEntity
  8
0
  6
ByBlock
 62
     7
 48
50.0
100
AcDbMText
 10
6695.140621386539
 20
14691.42521110294
 30
0.0
 40
90.0
 41
0.0
 71
     5
 72
     1
  1
\A1;2830
  7
STYLE1
 73
     1
 44
1.0
1001
ACAD
1000
MTEXTBEGIN
1070
    73
1070
     1
1070
    44
1040
1.0
1070
    74
1070
     0
1000
MTEXTEND
  0
POINT
  5
13B9E
330
138DC
100
AcDbEntity
  8
DEFPOINTS
  6
ByBlock
 62
     0
 48
50.0
100
AcDbPoint
 10
5280.140621386539
 20
13413.96405870412
 30
0.0
  0
POINT
  5
13B9F
330
138DC
100
AcDbEntity
  8
DEFPOINTS
  6
ByBlock
 62
     0
 48
50.0
100
AcDbPoint
 10
8110.140621386539
 20
13702.50907607504
 30
0.0
  0
POINT
  5
13BA0
330
138DC
100
AcDbEntity
  8
DEFPOINTS
  6
ByBlock
 62
     0
 48
50.0
100
AcDbPoint
 10
8110.140621386539
 20
14616.41635283523
 30
0.0
  0
ENDBLK
  5
13BA1
330
138DC
100
AcDbEntity
  8
0
 48
50.0
100
AcDbBlockEnd
  0
BLOCK
  5
13AF8
330
138E8
100
AcDbEntity
  8
0
 48
50.0
100
AcDbBlockBegin
  2
*D32
 70
     1
 10
0.0
 20
0.0
 30
0.0
  3
*D32
  1

  0
LINE
  5
13AF9
330
138E8
100
AcDbEntity
  8
0
  6
ByBlock
 62
     0
 48
50.0
100
AcDbLine
 10
5435.14062138654
 20
13163.96405870412
 30
0.0
 11
4964.107255058973
 21
13163.96405870412
 31
0.0
  0
LINE
  5
13AFA
330
138E8
100
AcDbEntity
  8
0
  6
ByBlock
 62
     0
 48
50.0
100
AcDbLine
 10
5435.14062138654
 20
12163.96405870412
 30
0.0
 11
4964.107255058973
 21
12163.96405870412
 31
0.0
  0
LINE
  5
13AFB
330
138E8
100
AcDbEntity
  8
0
  6
ByBlock
 62
     0
 48
50.0
100
AcDbLine
 10
5009.107255058973
 20
13163.96405870412
 30
0.0
 11
5009.107255058973
 21
12163.96405870412
 31
0.0
  0
INSERT
  5
13AFC
330
138E8
100
AcDbEntity
  8
0
  6
ByBlock
 62
     0
 48
50.0
100
AcDbBlockReference
  2
_DOTSMALL
 10
5009.107255058973
 20
13163.96405870412
 30
0.0
 41
75.0
 42
75.0
 43
75.0
 50
90.0
  0
INSERT
  5
13AFD
330
138E8
100
AcDbEntity
  8
0
  6
ByBlock
 62
     0
 48
50.0
100
AcDbBlockReference
  2
_DOTSMALL
 10
5009.107255058973
 20
12163.96405870412
 30
0.0
 41
75.0
 42
75.0
 43
75.0
 50
270.0
  0
MTEXT
  5
13AFE
330
138E8
100
AcDbEntity
  8
0
  6
ByBlock
 62
     7
 48
50.0
100
AcDbMText
 10
4934.107255058973
 20
12663.96405870412
 30
0.0
 40
90.0
 41
0.0
 71
     5
 72
     1
  1
\A1;1000
  7
STYLE1
 11
0.0000000000000001
 21
1.0
 31
0.0
 73
     1
 44
1.0
1001
ACAD
1000
MTEXTBEGIN
1070
    73
1070
     1
1070
    44
1040
1.0
1070
    74
1070
     0
1000
MTEXTEND
  0
POINT
  5
13AFF
330
138E8
100
AcDbEntity
  8
DEFPOINTS
  6
ByBlock
 62
     0
 48
50.0
100
AcDbPoint
 10
5450.140621386539
 20
13163.96405870412
 30
0.0
  0
POINT
  5
13B00
330
138E8
100
AcDbEntity
  8
DEFPOINTS
  6
ByBlock
 62
     0
 48
50.0
100
AcDbPoint
 10
5450.140621386539
 20
12163.96405870412
 30
0.0
  0
POINT
  5
13B01
330
138E8
100
AcDbEntity
  8
DEFPOINTS
  6
ByBlock
 62
     0
 48
50.0
100
AcDbPoint
 10
5009.107255058973
 20
12163.96405870412
 30
0.0
  0
ENDBLK
  5
13B02
330
138E8
100
AcDbEntity
  8
0
 48
50.0
100
AcDbBlockEnd
  0
BLOCK
  5
13B03
330
138F4
100
AcDbEntity
  8
0
 48
50.0
100
AcDbBlockBegin
  2
*D33
 70
     1
 10
0.0
 20
0.0
 30
0.0
  3
*D33
  1

  0
LINE
  5
13B04
330
138F4
100
AcDbEntity
  8
0
  6
ByBlock
 62
     0
 48
50.0
100
AcDbLine
 10
5435.14062138654
 20
14163.96405870412
 30
0.0
 11
4741.519422658848
 21
14163.96405870412
 31
0.0
  0
LINE
  5
13B05
330
138F4
100
AcDbEntity
  8
0
  6
ByBlock
 62
     0
 48
50.0
100
AcDbLine
 10
5435.14062138654
 20
12163.96405870412
 30
0.0
 11
4741.519422658848
 21
12163.96405870412
 31
0.0
  0
LINE
  5
13B06
330
138F4
100
AcDbEntity
  8
0
  6
ByBlock
 62
     0
 48
50.0
100
AcDbLine
 10
4786.519422658848
 20
14163.96405870412
 30
0.0
 11
4786.519422658848
 21
12163.96405870412
 31
0.0
  0
INSERT
  5
13B07
330
138F4
100
AcDbEntity
  8
0
  6
ByBlock
 62
     0
 48
50.0
100
AcDbBlockReference
  2
_DOTSMALL
 10
4786.519422658848
 20
14163.96405870412
 30
0.0
 41
75.0
 42
75.0
 43
75.0
 50
90.0
  0
INSERT
  5
13B08
330
138F4
100
AcDbEntity
  8
0
  6
ByBlock
 62
     0
 48
50.0
100
AcDbBlockReference
  2
_DOTSMALL
 10
4786.519422658848
 20
12163.96405870412
 30
0.0
 41
75.0
 42
75.0
 43
75.0
 50
270.0
  0
MTEXT
  5
13B09
330
138F4
100
AcDbEntity
  8
0
  6
ByBlock
 62
     7
 48
50.0
100
AcDbMText
 10
4711.510564391132
 20
13163.96405870412
 30
0.0
 40
90.0
 41
0.0
 71
     5
 72
     1
  1
\A1;基礎寸法 2000
  7
STYLE1
 11
0.0000000000000001
 21
1.0
 31
0.0
 73
     1
 44
1.0
1001
ACAD
1000
MTEXTBEGIN
1070
    73
1070
     1
1070
    44
1040
1.0
1070
    74
1070
     0
1000
MTEXTEND
  0
POINT
  5
13B0A
330
138F4
100
AcDbEntity
  8
DEFPOINTS
  6
ByBlock
 62
     0
 48
50.0
100
AcDbPoint
 10
5450.140621386539
 20
14163.96405870412
 30
0.0
  0
POINT
  5
13B0B
330
138F4
100
AcDbEntity
  8
DEFPOINTS
  6
ByBlock
 62
     0
 48
50.0
100
AcDbPoint
 10
5450.140621386539
 20
12163.96405870412
 30
0.0
  0
POINT
  5
13B0C
330
138F4
100
AcDbEntity
  8
DEFPOINTS
  6
ByBlock
 62
     0
 48
50.0
100
AcDbPoint
 10
4786.519422658848
 20
12163.96405870412
 30
0.0
  0
ENDBLK
  5
13B0D
330
138F4
100
AcDbEntity
  8
0
 48
50.0
100
AcDbBlockEnd
  0
BLOCK
  5
13B0E
330
13900
100
AcDbEntity
  8
0
 48
50.0
100
AcDbBlockBegin
  2
*D34
 70
     1
 10
0.0
 20
0.0
 30
0.0
  3
*D34
  1

  0
LINE
  5
13B0F
330
13900
100
AcDbEntity
  8
0
  6
ByBlock
 62
     0
 48
50.0
100
AcDbLine
 10
5435.14062138654
 20
14163.96405870412
 30
0.0
 11
4964.268784675309
 21
14163.96405870412
 31
0.0
  0
LINE
  5
13B10
330
13900
100
AcDbEntity
  8
0
  6
ByBlock
 62
     0
 48
50.0
100
AcDbLine
 10
5435.14062138654
 20
13163.96405870412
 30
0.0
 11
4964.268784675309
 21
13163.96405870412
 31
0.0
  0
LINE
  5
13B11
330
13900
100
AcDbEntity
  8
0
  6
ByBlock
 62
     0
 48
50.0
100
AcDbLine
 10
5009.268784675309
 20
14163.96405870412
 30
0.0
 11
5009.268784675309
 21
13163.96405870412
 31
0.0
  0
INSERT
  5
13B12
330
13900
100
AcDbEntity
  8
0
  6
ByBlock
 62
     0
 48
50.0
100
AcDbBlockReference
  2
_DOTSMALL
 10
5009.268784675309
 20
14163.96405870412
 30
0.0
 41
75.0
 42
75.0
 43
75.0
 50
90.0
  0
INSERT
  5
13B13
330
13900
100
AcDbEntity
  8
0
  6
ByBlock
 62
     0
 48
50.0
100
AcDbBlockReference
  2
_DOTSMALL
 10
5009.268784675309
 20
13163.96405870412
 30
0.0
 41
75.0
 42
75.0
 43
75.0
 50
270.0
  0
MTEXT
  5
13B14
330
13900
100
AcDbEntity
  8
0
  6
ByBlock
 62
     7
 48
50.0
100
AcDbMText
 10
4934.268784675309
 20
13663.96405870412
 30
0.0
 40
90.0
 41
0.0
 71
     5
 72
     1
  1
\A1;1000
  7
STYLE1
 11
0.0000000000000001
 21
1.0
 31
0.0
 73
     1
 44
1.0
1001
ACAD
1000
MTEXTBEGIN
1070
    73
1070
     1
1070
    44
1040
1.0
1070
    74
1070
     0
1000
MTEXTEND
  0
POINT
  5
13B15
330
13900
100
AcDbEntity
  8
DEFPOINTS
  6
ByBlock
 62
     0
 48
50.0
100
AcDbPoint
 10
5450.140621386539
 20
14163.96405870412
 30
0.0
  0
POINT
  5
13B16
330
13900
100
AcDbEntity
  8
DEFPOINTS
  6
ByBlock
 62
     0
 48
50.0
100
AcDbPoint
 10
5450.140621386539
 20
13163.96405870412
 30
0.0
  0
POINT
  5
13B17
330
13900
100
AcDbEntity
  8
DEFPOINTS
  6
ByBlock
 62
     0
 48
50.0
100
AcDbPoint
 10
5009.268784675309
 20
13163.96405870412
 30
0.0
  0
ENDBLK
  5
13B18
330
13900
100
AcDbEntity
  8
0
 48
50.0
100
AcDbBlockEnd
  0
BLOCK
  5
13B19
330
1390C
100
AcDbEntity
  8
0
 48
50.0
100
AcDbBlockBegin
  2
*D35
 70
     1
 10
0.0
 20
0.0
 30
0.0
  3
*D35
  1

  0
LINE
  5
13B1A
330
1390C
100
AcDbEntity
  8
0
  6
ByBlock
 62
     0
 48
50.0
100
AcDbLine
 10
5450.140621386539
 20
14178.96405870412
 30
0.0
 11
5450.140621386539
 21
14661.41635283523
 31
0.0
  0
LINE
  5
13B1B
330
1390C
100
AcDbEntity
  8
0
  6
ByBlock
 62
     0
 48
50.0
100
AcDbLine
 10
5700.140621386539
 20
13428.96405870412
 30
0.0
 11
5700.140621386539
 21
14661.41635283523
 31
0.0
  0
LINE
  5
13B1C
330
1390C
100
AcDbEntity
  8
0
  6
ByBlock
 62
     0
 48
50.0
100
AcDbLine
 10
5450.140621386539
 20
14616.41635283523
 30
0.0
 11
5700.140621386539
 21
14616.41635283523
 31
0.0
  0
INSERT
  5
13B1D
330
1390C
100
AcDbEntity
  8
0
  6
ByBlock
 62
     0
 48
50.0
100
AcDbBlockReference
  2
_DOTSMALL
 10
5450.140621386539
 20
14616.41635283523
 30
0.0
 41
75.0
 42
75.0
 43
75.0
 50
180.0
  0
INSERT
  5
13B1E
330
1390C
100
AcDbEntity
  8
0
  6
ByBlock
 62
     0
 48
50.0
100
AcDbBlockReference
  2
_DOTSMALL
 10
5700.140621386539
 20
14616.41635283523
 30
0.0
 41
75.0
 42
75.0
 43
75.0
  0
MTEXT
  5
13B1F
330
1390C
100
AcDbEntity
  8
0
  6
ByBlock
 62
     7
 48
50.0
100
AcDbMText
 10
5575.140621386539
 20
14691.42521110294
 30
0.0
 40
90.0
 41
0.0
 71
     5
 72
     1
  1
\A1;250
  7
STYLE1
 73
     1
 44
1.0
1001
ACAD
1000
MTEXTBEGIN
1070
    73
1070
     1
1070
    44
1040
1.0
1070
    74
1070
     0
1000
MTEXTEND
  0
POINT
  5
13B20
330
1390C
100
AcDbEntity
  8
DEFPOINTS
  6
ByBlock
 62
     0
 48
50.0
100
AcDbPoint
 10
5450.140621386539
 20
14163.96405870412
 30
0.0
  0
POINT
  5
13B21
330
1390C
100
AcDbEntity
  8
DEFPOINTS
  6
ByBlock
 62
     0
 48
50.0
100
AcDbPoint
 10
5700.140621386539
 20
13413.96405870412
 30
0.0
  0
POINT
  5
13B22
330
1390C
100
AcDbEntity
  8
DEFPOINTS
  6
ByBlock
 62
     0
 48
50.0
100
AcDbPoint
 10
5700.140621386539
 20
14616.41635283523
 30
0.0
  0
ENDBLK
  5
13B23
330
1390C
100
AcDbEntity
  8
0
 48
50.0
100
AcDbBlockEnd
  0
BLOCK
  5
13B5E
330
13957
100
AcDbEntity
  8
0
 48
50.0
100
AcDbBlockBegin
  2
*D41
 70
     1
 10
0.0
 20
0.0
 30
0.0
  3
*D41
  1

  0
LINE
  5
13B5F
330
13957
100
AcDbEntity
  8
0
  6
ByBlock
 62
     0
 48
50.0
100
AcDbLine
 10
10785.14062138654
 20
14163.96405870412
 30
0.0
 11
11297.41484375015
 21
14163.96405870412
 31
0.0
  0
LINE
  5
13B60
330
13957
100
AcDbEntity
  8
0
  6
ByBlock
 62
     0
 48
50.0
100
AcDbLine
 10
10785.14062138654
 20
12163.96405870412
 30
0.0
 11
11297.41484375015
 21
12163.96405870412
 31
0.0
  0
LINE
  5
13B61
330
13957
100
AcDbEntity
  8
0
  6
ByBlock
 62
     0
 48
50.0
100
AcDbLine
 10
11252.41484375015
 20
14163.96405870412
 30
0.0
 11
11252.41484375015
 21
12163.96405870412
 31
0.0
  0
INSERT
  5
13B62
330
13957
100
AcDbEntity
  8
0
  6
ByBlock
 62
     0
 48
50.0
100
AcDbBlockReference
  2
_DOTSMALL
 10
11252.41484375015
 20
14163.96405870412
 30
0.0
 41
75.0
 42
75.0
 43
75.0
 50
90.0
  0
INSERT
  5
13B63
330
13957
100
AcDbEntity
  8
0
  6
ByBlock
 62
     0
 48
50.0
100
AcDbBlockReference
  2
_DOTSMALL
 10
11252.41484375015
 20
12163.96405870412
 30
0.0
 41
75.0
 42
75.0
 43
75.0
 50
270.0
  0
MTEXT
  5
13B64
330
13957
100
AcDbEntity
  8
0
  6
ByBlock
 62
     7
 48
50.0
100
AcDbMText
 10
11177.40598548244
 20
13163.96405870412
 30
0.0
 40
90.0
 41
0.0
 71
     5
 72
     1
  1
\A1;屋根寸法 2000
  7
STYLE1
 11
0.0000000000000001
 21
1.0
 31
0.0
 73
     1
 44
1.0
1001
ACAD
1000
MTEXTBEGIN
1070
    73
1070
     1
1070
    44
1040
1.0
1070
    74
1070
     0
1000
MTEXTEND
  0
POINT
  5
13B65
330
13957
100
AcDbEntity
  8
DEFPOINTS
  6
ByBlock
 62
     0
 48
50.0
100
AcDbPoint
 10
10770.14062138654
 20
14163.96405870412
 30
0.0
  0
POINT
  5
13B66
330
13957
100
AcDbEntity
  8
DEFPOINTS
  6
ByBlock
 62
     0
 48
50.0
100
AcDbPoint
 10
10770.14062138654
 20
12163.96405870412
 30
0.0
  0
POINT
  5
13B67
330
13957
100
AcDbEntity
  8
DEFPOINTS
  6
ByBlock
 62
     0
 48
50.0
100
AcDbPoint
 10
11252.41484375015
 20
12163.96405870412
 30
0.0
  0
ENDBLK
  5
13B68
330
13957
100
AcDbEntity
  8
0
 48
50.0
100
AcDbBlockEnd
  0
BLOCK
  5
13B69
330
13963
100
AcDbEntity
  8
0
 48
50.0
100
AcDbBlockBegin
  2
*D42
 70
     1
 10
0.0
 20
0.0
 30
0.0
  3
*D42
  1

  0
LINE
  5
13B6A
330
13963
100
AcDbEntity
  8
0
  6
ByBlock
 62
     0
 48
50.0
100
AcDbLine
 10
10170.14062138654
 20
13528.96405870412
 30
0.0
 11
10170.14062138654
 21
13756.75342000411
 31
0.0
  0
LINE
  5
13B6B
330
13963
100
AcDbEntity
  8
0
  6
ByBlock
 62
     0
 48
50.0
100
AcDbLine
 10
10870.14062138654
 20
13528.96405870412
 30
0.0
 11
10870.14062138654
 21
13756.75342000411
 31
0.0
  0
LINE
  5
13B6C
330
13963
100
AcDbEntity
  8
0
  6
ByBlock
 62
     0
 48
50.0
100
AcDbLine
 10
10170.14062138654
 20
13711.75342000412
 30
0.0
 11
10870.14062138654
 21
13711.75342000412
 31
0.0
  0
INSERT
  5
13B6D
330
13963
100
AcDbEntity
  8
0
  6
ByBlock
 62
     0
 48
50.0
100
AcDbBlockReference
  2
_DOTSMALL
 10
10170.14062138654
 20
13711.75342000412
 30
0.0
 41
75.0
 42
75.0
 43
75.0
 50
180.0
  0
INSERT
  5
13B6E
330
13963
100
AcDbEntity
  8
0
  6
ByBlock
 62
     0
 48
50.0
100
AcDbBlockReference
  2
_DOTSMALL
 10
10870.14062138654
 20
13711.75342000412
 30
0.0
 41
75.0
 42
75.0
 43
75.0
  0
MTEXT
  5
13B6F
330
13963
100
AcDbEntity
  8
0
  6
ByBlock
 62
     7
 48
50.0
100
AcDbMText
 10
10520.14062138654
 20
13786.75342000412
 30
0.0
 40
90.0
 41
0.0
 71
     5
 72
     1
  1
\A1;700
  7
STYLE1
 73
     1
 44
1.0
1001
ACAD
1000
MTEXTBEGIN
1070
    73
1070
     1
1070
    44
1040
1.0
1070
    74
1070
     0
1000
MTEXTEND
  0
POINT
  5
13B70
330
13963
100
AcDbEntity
  8
DEFPOINTS
  6
ByBlock
 62
     0
 48
50.0
100
AcDbPoint
 10
10170.14062138654
 20
13513.96405870412
 30
0.0
  0
POINT
  5
13B71
330
13963
100
AcDbEntity
  8
DEFPOINTS
  6
ByBlock
 62
     0
 48
50.0
100
AcDbPoint
 10
10870.14062138654
 20
13513.96405870412
 30
0.0
  0
POINT
  5
13B72
330
13963
100
AcDbEntity
  8
DEFPOINTS
  6
ByBlock
 62
     0
 48
50.0
100
AcDbPoint
 10
10870.14062138654
 20
13711.75342000412
 30
0.0
  0
ENDBLK
  5
13B73
330
13963
100
AcDbEntity
  8
0
 48
50.0
100
AcDbBlockEnd
  0
BLOCK
  5
13B74
330
1396F
100
AcDbEntity
  8
0
 48
50.0
100
AcDbBlockBegin
  2
*D43
 70
     1
 10
0.0
 20
0.0
 30
0.0
  3
*D43
  1

  0
LINE
  5
13B75
330
1396F
100
AcDbEntity
  8
0
  6
ByBlock
 62
     0
 48
50.0
100
AcDbLine
 10
10520.14062138654
 20
14248.96405870412
 30
0.0
 11
10520.14062138654
 21
14662.01358818013
 31
0.0
  0
LINE
  5
13B76
330
1396F
100
AcDbEntity
  8
0
  6
ByBlock
 62
     0
 48
50.0
100
AcDbLine
 10
10770.14062138654
 20
14178.96405870412
 30
0.0
 11
10770.14062138654
 21
14662.01358818013
 31
0.0
  0
LINE
  5
13B77
330
1396F
100
AcDbEntity
  8
0
  6
ByBlock
 62
     0
 48
50.0
100
AcDbLine
 10
10520.14062138654
 20
14617.01358818013
 30
0.0
 11
10770.14062138654
 21
14617.01358818013
 31
0.0
  0
INSERT
  5
13B78
330
1396F
100
AcDbEntity
  8
0
  6
ByBlock
 62
     0
 48
50.0
100
AcDbBlockReference
  2
_DOTSMALL
 10
10520.14062138654
 20
14617.01358818013
 30
0.0
 41
75.0
 42
75.0
 43
75.0
 50
180.0
  0
INSERT
  5
13B79
330
1396F
100
AcDbEntity
  8
0
  6
ByBlock
 62
     0
 48
50.0
100
AcDbBlockReference
  2
_DOTSMALL
 10
10770.14062138654
 20
14617.01358818013
 30
0.0
 41
75.0
 42
75.0
 43
75.0
  0
MTEXT
  5
13B7A
330
1396F
100
AcDbEntity
  8
0
  6
ByBlock
 62
     7
 48
50.0
100
AcDbMText
 10
10645.14062138654
 20
14692.02244644785
 30
0.0
 40
90.0
 41
0.0
 71
     5
 72
     1
  1
\A1;250
  7
STYLE1
 73
     1
 44
1.0
1001
ACAD
1000
MTEXTBEGIN
1070
    73
1070
     1
1070
    44
1040
1.0
1070
    74
1070
     0
1000
MTEXTEND
  0
POINT
  5
13B7B
330
1396F
100
AcDbEntity
  8
DEFPOINTS
  6
ByBlock
 62
     0
 48
50.0
100
AcDbPoint
 10
10520.14062138654
 20
14233.96405870412
 30
0.0
  0
POINT
  5
13B7C
330
1396F
100
AcDbEntity
  8
DEFPOINTS
  6
ByBlock
 62
     0
 48
50.0
100
AcDbPoint
 10
10770.14062138654
 20
14163.96405870412
 30
0.0
  0
POINT
  5
13B7D
330
1396F
100
AcDbEntity
  8
DEFPOINTS
  6
ByBlock
 62
     0
 48
50.0
100
AcDbPoint
 10
10770.14062138654
 20
14617.01358818013
 30
0.0
  0
ENDBLK
  5
13B7E
330
1396F
100
AcDbEntity
  8
0
 48
50.0
100
AcDbBlockEnd
  0
BLOCK
  5
13C39
330
13C38
100
AcDbEntity
  8
0
 48
50.0
100
AcDbBlockBegin
  2
_None
 70
     0
 10
0.0
 20
0.0
 30
0.0
  3
_None
  1

  0
ENDBLK
  5
13C3A
330
13C38
100
AcDbEntity
  8
0
 48
50.0
100
AcDbBlockEnd
  0
BLOCK
  5
1411F
330
14115
100
AcDbEntity
  8
0
 48
50.0
100
AcDbBlockBegin
  2
*D66
 70
     1
 10
0.0
 20
0.0
 30
0.0
  3
*D66
  1

  0
LINE
  5
14367
330
14115
100
AcDbEntity
  8
寸法
 62
     0
 48
50.0
370
    -2
100
AcDbLine
 10
9968.406413463618
 20
5271.136281726281
 30
0.0
 11
9968.406413463618
 21
4986.598783490083
 31
0.0
  0
LINE
  5
14368
330
14115
100
AcDbEntity
  8
寸法
 62
     0
 48
50.0
370
    -2
100
AcDbLine
 10
9593.406413463622
 20
5271.136281726281
 30
0.0
 11
9593.406413463622
 21
4986.598783490083
 31
0.0
  0
LINE
  5
14369
330
14115
100
AcDbEntity
  8
寸法
 62
     0
 48
50.0
370
    -2
100
AcDbLine
 10
9968.406413463618
 20
5031.598783490082
 30
0.0
 11
9593.406413463622
 21
5031.598783490082
 31
0.0
  0
INSERT
  5
1436A
330
14115
100
AcDbEntity
  8
寸法
 62
     0
 48
50.0
370
    -2
100
AcDbBlockReference
  2
_DOTSMALL
 10
9968.406413463618
 20
5031.598783490082
 30
0.0
 41
75.0
 42
75.0
 43
75.0
  0
INSERT
  5
1436B
330
14115
100
AcDbEntity
  8
寸法
 62
     0
 48
50.0
370
    -2
100
AcDbBlockReference
  2
_DOTSMALL
 10
9593.406413463622
 20
5031.598783490082
 30
0.0
 41
75.0
 42
75.0
 43
75.0
 50
180.0
  0
MTEXT
  5
1436C
330
14115
100
AcDbEntity
  8
寸法
 62
     7
 48
50.0
100
AcDbMText
 10
9780.906413463618
 20
5106.607641757799
 30
0.0
 40
90.0
 41
0.0
 71
     5
 72
     1
  1
\A1;250
  7
STYLE1
 73
     1
 44
1.0
1001
ACAD
1000
MTEXTBEGIN
1070
    73
1070
     1
1070
    44
1040
1.0
1070
    74
1070
     0
1000
MTEXTEND
  0
POINT
  5
1436D
330
14115
100
AcDbEntity
  8
DEFPOINTS
 62
     0
 48
50.0
100
AcDbPoint
 10
9968.406413463618
 20
5286.136281726282
 30
0.0
  0
POINT
  5
1436E
330
14115
100
AcDbEntity
  8
DEFPOINTS
 62
     0
 48
50.0
100
AcDbPoint
 10
9593.406413463622
 20
5286.136281726282
 30
0.0
  0
POINT
  5
1436F
330
14115
100
AcDbEntity
  8
DEFPOINTS
 62
     0
 48
50.0
100
AcDbPoint
 10
9593.406413463622
 20
5031.598783490082
 30
0.0
  0
ENDBLK
  5
14120
330
14115
100
AcDbEntity
  8
0
 48
50.0
100
AcDbBlockEnd
  0
BLOCK
  5
1412B
330
14121
100
AcDbEntity
  8
0
 48
50.0
100
AcDbBlockBegin
  2
*D67
 70
     1
 10
0.0
 20
0.0
 30
0.0
  3
*D67
  1

  0
LINE
  5
1435E
330
14121
100
AcDbEntity
  8
寸法
 62
     0
 48
50.0
370
    -2
100
AcDbLine
 10
10268.40641346361
 20
5271.136281726281
 30
0.0
 11
10268.40641346361
 21
4986.598783490083
 31
0.0
  0
LINE
  5
1435F
330
14121
100
AcDbEntity
  8
寸法
 62
     0
 48
50.0
370
    -2
100
AcDbLine
 10
9968.406413463618
 20
5271.136281726281
 30
0.0
 11
9968.406413463618
 21
4986.598783490083
 31
0.0
  0
LINE
  5
14360
330
14121
100
AcDbEntity
  8
寸法
 62
     0
 48
50.0
370
    -2
100
AcDbLine
 10
10268.40641346361
 20
5031.598783490082
 30
0.0
 11
9968.406413463618
 21
5031.598783490082
 31
0.0
  0
INSERT
  5
14361
330
14121
100
AcDbEntity
  8
寸法
 62
     0
 48
50.0
370
    -2
100
AcDbBlockReference
  2
_DOTSMALL
 10
10268.40641346361
 20
5031.598783490082
 30
0.0
 41
75.0
 42
75.0
 43
75.0
  0
INSERT
  5
14362
330
14121
100
AcDbEntity
  8
寸法
 62
     0
 48
50.0
370
    -2
100
AcDbBlockReference
  2
_DOTSMALL
 10
9968.406413463618
 20
5031.598783490082
 30
0.0
 41
75.0
 42
75.0
 43
75.0
 50
180.0
  0
MTEXT
  5
14363
330
14121
100
AcDbEntity
  8
寸法
 62
     7
 48
50.0
100
AcDbMText
 10
10118.40641346362
 20
5106.607641757799
 30
0.0
 40
90.0
 41
0.0
 71
     5
 72
     1
  1
\A1;200
  7
STYLE1
 73
     1
 44
1.0
1001
ACAD
1000
MTEXTBEGIN
1070
    73
1070
     1
1070
    44
1040
1.0
1070
    74
1070
     0
1000
MTEXTEND
  0
POINT
  5
14364
330
14121
100
AcDbEntity
  8
DEFPOINTS
 62
     0
 48
50.0
100
AcDbPoint
 10
10268.40641346361
 20
5286.136281726282
 30
0.0
  0
POINT
  5
14365
330
14121
100
AcDbEntity
  8
DEFPOINTS
 62
     0
 48
50.0
100
AcDbPoint
 10
9968.406413463618
 20
5286.136281726282
 30
0.0
  0
POINT
  5
14366
330
14121
100
AcDbEntity
  8
DEFPOINTS
 62
     0
 48
50.0
100
AcDbPoint
 10
9968.406413463618
 20
5031.598783490082
 30
0.0
  0
ENDBLK
  5
1412C
330
14121
100
AcDbEntity
  8
0
 48
50.0
100
AcDbBlockEnd
  0
BLOCK
  5
14137
330
1412D
100
AcDbEntity
  8
0
 48
50.0
100
AcDbBlockBegin
  2
*D68
 70
     1
 10
0.0
 20
0.0
 30
0.0
  3
*D68
  1

  0
LINE
  5
14355
330
1412D
100
AcDbEntity
  8
寸法
 62
     0
 48
50.0
370
    -2
100
AcDbLine
 10
10643.40641346362
 20
5271.136281726281
 30
0.0
 11
10643.40641346362
 21
4986.598783490083
 31
0.0
  0
LINE
  5
14356
330
1412D
100
AcDbEntity
  8
寸法
 62
     0
 48
50.0
370
    -2
100
AcDbLine
 10
10268.40641346361
 20
5271.136281726281
 30
0.0
 11
10268.40641346361
 21
4986.598783490083
 31
0.0
  0
LINE
  5
14357
330
1412D
100
AcDbEntity
  8
寸法
 62
     0
 48
50.0
370
    -2
100
AcDbLine
 10
10643.40641346362
 20
5031.598783490082
 30
0.0
 11
10268.40641346361
 21
5031.598783490082
 31
0.0
  0
INSERT
  5
14358
330
1412D
100
AcDbEntity
  8
寸法
 62
     0
 48
50.0
370
    -2
100
AcDbBlockReference
  2
_DOTSMALL
 10
10643.40641346362
 20
5031.598783490082
 30
0.0
 41
75.0
 42
75.0
 43
75.0
  0
INSERT
  5
14359
330
1412D
100
AcDbEntity
  8
寸法
 62
     0
 48
50.0
370
    -2
100
AcDbBlockReference
  2
_DOTSMALL
 10
10268.40641346361
 20
5031.598783490082
 30
0.0
 41
75.0
 42
75.0
 43
75.0
 50
180.0
  0
MTEXT
  5
1435A
330
1412D
100
AcDbEntity
  8
寸法
 62
     7
 48
50.0
100
AcDbMText
 10
10455.90641346362
 20
5106.607641757799
 30
0.0
 40
90.0
 41
0.0
 71
     5
 72
     1
  1
\A1;250
  7
STYLE1
 73
     1
 44
1.0
1001
ACAD
1000
MTEXTBEGIN
1070
    73
1070
     1
1070
    44
1040
1.0
1070
    74
1070
     0
1000
MTEXTEND
  0
POINT
  5
1435B
330
1412D
100
AcDbEntity
  8
DEFPOINTS
 62
     0
 48
50.0
100
AcDbPoint
 10
10643.40641346362
 20
5286.136281726282
 30
0.0
  0
POINT
  5
1435C
330
1412D
100
AcDbEntity
  8
DEFPOINTS
 62
     0
 48
50.0
100
AcDbPoint
 10
10268.40641346361
 20
5286.136281726282
 30
0.0
  0
POINT
  5
1435D
330
1412D
100
AcDbEntity
  8
DEFPOINTS
 62
     0
 48
50.0
100
AcDbPoint
 10
10268.40641346361
 20
5031.598783490082
 30
0.0
  0
ENDBLK
  5
14138
330
1412D
100
AcDbEntity
  8
0
 48
50.0
100
AcDbBlockEnd
  0
BLOCK
  5
14144
330
14139
100
AcDbEntity
  8
0
 48
50.0
100
AcDbBlockBegin
  2
*D69
 70
     1
 10
0.0
 20
0.0
 30
0.0
  3
*D69
  1

  0
LINE
  5
1439F
330
14139
100
AcDbEntity
  8
寸法
 62
     0
 48
50.0
370
    -2
100
AcDbLine
 10
9305.264123092657
 20
6086.5831349088
 30
0.0
 11
8977.144018412934
 21
6086.5831349088
 31
0.0
  0
LINE
  5
143A0
330
14139
100
AcDbEntity
  8
寸法
 62
     0
 48
50.0
370
    -2
100
AcDbLine
 10
9944.406413463617
 20
6176.083134908798
 30
0.0
 11
8977.144018412934
 21
6176.083134908798
 31
0.0
  0
LINE
  5
143A1
330
14139
100
AcDbEntity
  8
寸法
 62
     0
 48
50.0
370
    -2
100
AcDbLine
 10
9022.144018412934
 20
6176.083134908798
 30
0.0
 11
9022.144018412934
 21
6086.5831349088
 31
0.0
  0
LINE
  5
143A2
330
14139
100
AcDbEntity
  8
寸法
 62
     0
 48
50.0
370
    -2
100
AcDbLine
 10
9022.144018412934
 20
6086.5831349088
 30
0.0
 11
9022.144018412934
 21
5847.126441995412
 31
0.0
  0
INSERT
  5
143A3
330
14139
100
AcDbEntity
  8
寸法
 62
     0
 48
50.0
370
    -2
100
AcDbBlockReference
  2
_DOTSMALL
 10
9022.144018412934
 20
6176.083134908798
 30
0.0
 41
75.0
 42
75.0
 43
75.0
 50
90.0
  0
INSERT
  5
143A4
330
14139
100
AcDbEntity
  8
寸法
 62
     0
 48
50.0
370
    -2
100
AcDbBlockReference
  2
_DOTSMALL
 10
9022.144018412934
 20
6086.5831349088
 30
0.0
 41
75.0
 42
75.0
 43
75.0
 50
270.0
  0
MTEXT
  5
143A5
330
14139
100
AcDbEntity
  8
寸法
 62
     7
 48
50.0
100
AcDbMText
 10
8947.144018412933
 20
5929.354788452107
 30
0.0
 40
90.0
 41
0.0
 71
     5
 72
     1
  1
\A1;60
  7
STYLE1
 11
0.0000000000000001
 21
1.0
 31
0.0
 73
     1
 44
1.0
1001
ACAD
1000
MTEXTBEGIN
1070
    73
1070
     1
1070
    44
1040
1.0
1070
    74
1070
     0
1000
MTEXTEND
  0
POINT
  5
143A6
330
14139
100
AcDbEntity
  8
DEFPOINTS
 62
     0
 48
50.0
100
AcDbPoint
 10
9320.264123092657
 20
6086.5831349088
 30
0.0
  0
POINT
  5
143A7
330
14139
100
AcDbEntity
  8
DEFPOINTS
 62
     0
 48
50.0
100
AcDbPoint
 10
9959.406413463618
 20
6176.083134908798
 30
0.0
  0
POINT
  5
143A8
330
14139
100
AcDbEntity
  8
DEFPOINTS
 62
     0
 48
50.0
100
AcDbPoint
 10
9022.144018412934
 20
6176.083134908798
 30
0.0
  0
ENDBLK
  5
14145
330
14139
100
AcDbEntity
  8
0
 48
50.0
100
AcDbBlockEnd
  0
BLOCK
  5
14152
330
14146
100
AcDbEntity
  8
0
 48
50.0
100
AcDbBlockBegin
  2
*D70
 70
     1
 10
0.0
 20
0.0
 30
0.0
  3
*D70
  1

  0
LINE
  5
14340
330
14146
100
AcDbEntity
  8
寸法
 62
     0
 48
50.0
370
    -2
100
AcDbLine
 10
9305.264123092657
 20
6086.583134908799
 30
0.0
 11
9162.944921806181
 21
6086.583134908799
 31
0.0
  0
LINE
  5
14341
330
14146
100
AcDbEntity
  8
寸法
 62
     0
 48
50.0
370
    -2
100
AcDbLine
 10
9915.90641346362
 20
6131.583134908797
 30
0.0
 11
9162.944921806181
 21
6131.583134908797
 31
0.0
  0
LINE
  5
14342
330
14146
100
AcDbEntity
  8
寸法
 62
     0
 48
50.0
370
    -2
100
AcDbLine
 10
9207.944921806179
 20
6131.583134908797
 30
0.0
 11
9207.944921806179
 21
6206.583134908798
 31
0.0
  0
LINE
  5
14343
330
14146
100
AcDbEntity
  8
寸法
 62
     0
 48
50.0
370
    -2
100
AcDbLine
 10
9207.944921806179
 20
6086.583134908799
 30
0.0
 11
9207.944921806179
 21
5777.512268767066
 31
0.0
  0
LINE
  5
14344
330
14146
100
AcDbEntity
  8
寸法
 62
     0
 48
50.0
370
    -2
100
AcDbLine
 10
9207.944921806179
 20
6131.583134908797
 30
0.0
 11
9207.944921806179
 21
6086.583134908799
 31
0.0
  0
INSERT
  5
14345
330
14146
100
AcDbEntity
  8
寸法
 62
     0
 48
50.0
370
    -2
100
AcDbBlockReference
  2
_DOTSMALL
 10
9207.944921806179
 20
6131.583134908797
 30
0.0
 41
75.0
 42
75.0
 43
75.0
 50
270.0
  0
INSERT
  5
14346
330
14146
100
AcDbEntity
  8
寸法
 62
     0
 48
50.0
370
    -2
100
AcDbBlockReference
  2
_DOTSMALL
 10
9207.944921806179
 20
6086.583134908799
 30
0.0
 41
75.0
 42
75.0
 43
75.0
 50
90.0
  0
MTEXT
  5
14347
330
14146
100
AcDbEntity
  8
寸法
 62
     7
 48
50.0
100
AcDbMText
 10
9132.944921806178
 20
5857.047701837933
 30
0.0
 40
90.0
 41
0.0
 71
     5
 72
     1
  1
\A1;30
  7
STYLE1
 11
0.0000000000000001
 21
1.0
 31
0.0
 73
     1
 44
1.0
1001
ACAD
1000
MTEXTBEGIN
1070
    73
1070
     1
1070
    44
1040
1.0
1070
    74
1070
     0
1000
MTEXTEND
  0
POINT
  5
14348
330
14146
100
AcDbEntity
  8
DEFPOINTS
 62
     0
 48
50.0
100
AcDbPoint
 10
9320.264123092657
 20
6086.583134908799
 30
0.0
  0
POINT
  5
14349
330
14146
100
AcDbEntity
  8
DEFPOINTS
 62
     0
 48
50.0
100
AcDbPoint
 10
9930.906413463619
 20
6131.583134908797
 30
0.0
  0
POINT
  5
1434A
330
14146
100
AcDbEntity
  8
DEFPOINTS
 62
     0
 48
50.0
100
AcDbPoint
 10
9207.944921806179
 20
6131.583134908797
 30
0.0
  0
ENDBLK
  5
14153
330
14146
100
AcDbEntity
  8
0
 48
50.0
100
AcDbBlockEnd
  0
BLOCK
  5
1415F
330
14154
100
AcDbEntity
  8
0
 48
50.0
100
AcDbBlockBegin
  2
*D71
 70
     1
 10
0.0
 20
0.0
 30
0.0
  3
*D71
  1

  0
LINE
  5
14336
330
14154
100
AcDbEntity
  8
寸法
 62
     0
 48
50.0
370
    -2
100
AcDbLine
 10
10778.40641346362
 20
5487.136281726282
 30
0.0
 11
11348.11501379478
 21
5487.136281726282
 31
0.0
  0
LINE
  5
14337
330
14154
100
AcDbEntity
  8
寸法
 62
     0
 48
50.0
370
    -2
100
AcDbLine
 10
10778.40641346362
 20
5412.136281726282
 30
0.0
 11
11348.11501379478
 21
5412.136281726282
 31
0.0
  0
LINE
  5
14338
330
14154
100
AcDbEntity
  8
寸法
 62
     0
 48
50.0
370
    -2
100
AcDbLine
 10
11303.11501379478
 20
5487.136281726282
 30
0.0
 11
11303.11501379478
 21
5412.136281726282
 31
0.0
  0
LINE
  5
14339
330
14154
100
AcDbEntity
  8
寸法
 62
     0
 48
50.0
370
    -2
100
AcDbLine
 10
11303.11501379478
 20
5412.136281726282
 30
0.0
 11
11303.11501379478
 21
5152.898191175101
 31
0.0
  0
INSERT
  5
1433A
330
14154
100
AcDbEntity
  8
寸法
 62
     0
 48
50.0
370
    -2
100
AcDbBlockReference
  2
_DOTSMALL
 10
11303.11501379478
 20
5487.136281726282
 30
0.0
 41
75.0
 42
75.0
 43
75.0
 50
90.0
  0
INSERT
  5
1433B
330
14154
100
AcDbEntity
  8
寸法
 62
     0
 48
50.0
370
    -2
100
AcDbBlockReference
  2
_DOTSMALL
 10
11303.11501379478
 20
5412.136281726282
 30
0.0
 41
75.0
 42
75.0
 43
75.0
 50
270.0
  0
MTEXT
  5
1433C
330
14154
100
AcDbEntity
  8
寸法
 62
     7
 48
50.0
100
AcDbMText
 10
11228.11501379478
 20
5232.433624245969
 30
0.0
 40
90.0
 41
0.0
 71
     5
 72
     1
  1
\A1;50
  7
STYLE1
 11
0.0000000000000001
 21
1.0
 31
0.0
 73
     1
 44
1.0
1001
ACAD
1000
MTEXTBEGIN
1070
    73
1070
     1
1070
    44
1040
1.0
1070
    74
1070
     0
1000
MTEXTEND
  0
POINT
  5
1433D
330
14154
100
AcDbEntity
  8
DEFPOINTS
 62
     0
 48
50.0
100
AcDbPoint
 10
10763.40641346362
 20
5487.136281726282
 30
0.0
  0
POINT
  5
1433E
330
14154
100
AcDbEntity
  8
DEFPOINTS
 62
     0
 48
50.0
100
AcDbPoint
 10
10763.40641346362
 20
5412.136281726282
 30
0.0
  0
POINT
  5
1433F
330
14154
100
AcDbEntity
  8
DEFPOINTS
 62
     0
 48
50.0
100
AcDbPoint
 10
11303.11501379478
 20
5412.136281726282
 30
0.0
  0
ENDBLK
  5
14160
330
14154
100
AcDbEntity
  8
0
 48
50.0
100
AcDbBlockEnd
  0
BLOCK
  5
1416B
330
14161
100
AcDbEntity
  8
0
 48
50.0
100
AcDbBlockBegin
  2
*D72
 70
     1
 10
0.0
 20
0.0
 30
0.0
  3
*D72
  1

  0
LINE
  5
1432D
330
14161
100
AcDbEntity
  8
寸法
 62
     0
 48
50.0
370
    -2
100
AcDbLine
 10
11053.10297188808
 20
6086.5831349088
 30
0.0
 11
11348.11501379478
 21
6086.5831349088
 31
0.0
  0
LINE
  5
1432E
330
14161
100
AcDbEntity
  8
寸法
 62
     0
 48
50.0
370
    -2
100
AcDbLine
 10
10778.40641346362
 20
5487.136281726282
 30
0.0
 11
11348.11501379478
 21
5487.136281726282
 31
0.0
  0
LINE
  5
1432F
330
14161
100
AcDbEntity
  8
寸法
 62
     0
 48
50.0
370
    -2
100
AcDbLine
 10
11303.11501379478
 20
6086.5831349088
 30
0.0
 11
11303.11501379478
 21
5487.136281726282
 31
0.0
  0
INSERT
  5
14330
330
14161
100
AcDbEntity
  8
寸法
 62
     0
 48
50.0
370
    -2
100
AcDbBlockReference
  2
_DOTSMALL
 10
11303.11501379478
 20
6086.5831349088
 30
0.0
 41
75.0
 42
75.0
 43
75.0
 50
90.0
  0
INSERT
  5
14331
330
14161
100
AcDbEntity
  8
寸法
 62
     0
 48
50.0
370
    -2
100
AcDbBlockReference
  2
_DOTSMALL
 10
11303.11501379478
 20
5487.136281726282
 30
0.0
 41
75.0
 42
75.0
 43
75.0
 50
270.0
  0
MTEXT
  5
14332
330
14161
100
AcDbEntity
  8
寸法
 62
     7
 48
50.0
100
AcDbMText
 10
11228.11501379478
 20
5786.859708317543
 30
0.0
 40
90.0
 41
0.0
 71
     5
 72
     1
  1
\A1;400
  7
STYLE1
 11
0.0000000000000001
 21
1.0
 31
0.0
 73
     1
 44
1.0
1001
ACAD
1000
MTEXTBEGIN
1070
    73
1070
     1
1070
    44
1040
1.0
1070
    74
1070
     0
1000
MTEXTEND
  0
POINT
  5
14333
330
14161
100
AcDbEntity
  8
DEFPOINTS
 62
     0
 48
50.0
100
AcDbPoint
 10
11038.10297188808
 20
6086.5831349088
 30
0.0
  0
POINT
  5
14334
330
14161
100
AcDbEntity
  8
DEFPOINTS
 62
     0
 48
50.0
100
AcDbPoint
 10
10763.40641346362
 20
5487.136281726282
 30
0.0
  0
POINT
  5
14335
330
14161
100
AcDbEntity
  8
DEFPOINTS
 62
     0
 48
50.0
100
AcDbPoint
 10
11303.11501379478
 20
5487.136281726282
 30
0.0
  0
ENDBLK
  5
1416C
330
14161
100
AcDbEntity
  8
0
 48
50.0
100
AcDbBlockEnd
  0
BLOCK
  5
14177
330
1416D
100
AcDbEntity
  8
0
 48
50.0
100
AcDbBlockBegin
  2
*D73
 70
     1
 10
0.0
 20
0.0
 30
0.0
  3
*D73
  1

  0
LINE
  5
14324
330
1416D
100
AcDbEntity
  8
寸法
 62
     0
 48
50.0
370
    -2
100
AcDbLine
 10
11012.59463224554
 20
6311.583134908801
 30
0.0
 11
11348.11501379479
 21
6311.583134908801
 31
0.0
  0
LINE
  5
14325
330
1416D
100
AcDbEntity
  8
寸法
 62
     0
 48
50.0
370
    -2
100
AcDbLine
 10
11053.10297188808
 20
6086.5831349088
 30
0.0
 11
11348.11501379479
 21
6086.5831349088
 31
0.0
  0
LINE
  5
14326
330
1416D
100
AcDbEntity
  8
寸法
 62
     0
 48
50.0
370
    -2
100
AcDbLine
 10
11303.11501379479
 20
6311.583134908801
 30
0.0
 11
11303.11501379479
 21
6086.5831349088
 31
0.0
  0
INSERT
  5
14327
330
1416D
100
AcDbEntity
  8
寸法
 62
     0
 48
50.0
370
    -2
100
AcDbBlockReference
  2
_DOTSMALL
 10
11303.11501379479
 20
6311.583134908801
 30
0.0
 41
75.0
 42
75.0
 43
75.0
 50
90.0
  0
INSERT
  5
14328
330
1416D
100
AcDbEntity
  8
寸法
 62
     0
 48
50.0
370
    -2
100
AcDbBlockReference
  2
_DOTSMALL
 10
11303.11501379479
 20
6086.5831349088
 30
0.0
 41
75.0
 42
75.0
 43
75.0
 50
270.0
  0
MTEXT
  5
14329
330
1416D
100
AcDbEntity
  8
寸法
 62
     7
 48
50.0
100
AcDbMText
 10
11228.11501379478
 20
6199.0831349088
 30
0.0
 40
90.0
 41
0.0
 71
     5
 72
     1
  1
\A1;150
  7
STYLE1
 11
0.0000000000000001
 21
1.0
 31
0.0
 73
     1
 44
1.0
1001
ACAD
1000
MTEXTBEGIN
1070
    73
1070
     1
1070
    44
1040
1.0
1070
    74
1070
     0
1000
MTEXTEND
  0
POINT
  5
1432A
330
1416D
100
AcDbEntity
  8
DEFPOINTS
 62
     0
 48
50.0
100
AcDbPoint
 10
10997.59463224554
 20
6311.583134908801
 30
0.0
  0
POINT
  5
1432B
330
1416D
100
AcDbEntity
  8
DEFPOINTS
 62
     0
 48
50.0
100
AcDbPoint
 10
11038.10297188808
 20
6086.5831349088
 30
0.0
  0
POINT
  5
1432C
330
1416D
100
AcDbEntity
  8
DEFPOINTS
 62
     0
 48
50.0
100
AcDbPoint
 10
11303.11501379479
 20
6086.5831349088
 30
0.0
  0
ENDBLK
  5
14178
330
1416D
100
AcDbEntity
  8
0
 48
50.0
100
AcDbBlockEnd
  0
BLOCK
  5
14184
330
14179
100
AcDbEntity
  8
0
 48
50.0
100
AcDbBlockBegin
  2
*D74
 70
     1
 10
0.0
 20
0.0
 30
0.0
  3
*D74
  1

  0
LINE
  5
1431A
330
14179
100
AcDbEntity
  8
寸法
 62
     0
 48
50.0
370
    -2
100
AcDbLine
 10
10870.60920135326
 20
6386.583134908798
 30
0.0
 11
11348.11501379478
 21
6386.583134908798
 31
0.0
  0
LINE
  5
1431B
330
14179
100
AcDbEntity
  8
寸法
 62
     0
 48
50.0
370
    -2
100
AcDbLine
 10
11012.59463224554
 20
6311.583134908801
 30
0.0
 11
11348.11501379478
 21
6311.583134908801
 31
0.0
  0
LINE
  5
1431C
330
14179
100
AcDbEntity
  8
寸法
 62
     0
 48
50.0
370
    -2
100
AcDbLine
 10
11303.11501379478
 20
6311.583134908801
 30
0.0
 11
11303.11501379478
 21
6386.583134908798
 31
0.0
  0
LINE
  5
1431D
330
14179
100
AcDbEntity
  8
寸法
 62
     0
 48
50.0
370
    -2
100
AcDbLine
 10
11303.11501379478
 20
6386.583134908798
 30
0.0
 11
11303.11501379478
 21
6674.982529010343
 31
0.0
  0
INSERT
  5
1431E
330
14179
100
AcDbEntity
  8
寸法
 62
     0
 48
50.0
370
    -2
100
AcDbBlockReference
  2
_DOTSMALL
 10
11303.11501379478
 20
6311.583134908801
 30
0.0
 41
75.0
 42
75.0
 43
75.0
 50
270.0
  0
INSERT
  5
1431F
330
14179
100
AcDbEntity
  8
寸法
 62
     0
 48
50.0
370
    -2
100
AcDbBlockReference
  2
_DOTSMALL
 10
11303.11501379478
 20
6386.583134908798
 30
0.0
 41
75.0
 42
75.0
 43
75.0
 50
90.0
  0
MTEXT
  5
14320
330
14179
100
AcDbEntity
  8
寸法
 62
     7
 48
50.0
100
AcDbMText
 10
11228.11501379478
 20
6595.44709593948
 30
0.0
 40
90.0
 41
0.0
 71
     5
 72
     1
  1
\A1;50
  7
STYLE1
 11
0.0000000000000001
 21
1.0
 31
0.0
 73
     1
 44
1.0
1001
ACAD
1000
MTEXTBEGIN
1070
    73
1070
     1
1070
    44
1040
1.0
1070
    74
1070
     0
1000
MTEXTEND
  0
POINT
  5
14321
330
14179
100
AcDbEntity
  8
DEFPOINTS
 62
     0
 48
50.0
100
AcDbPoint
 10
10855.60920135326
 20
6386.583134908798
 30
0.0
  0
POINT
  5
14322
330
14179
100
AcDbEntity
  8
DEFPOINTS
 62
     0
 48
50.0
100
AcDbPoint
 10
10997.59463224554
 20
6311.583134908801
 30
0.0
  0
POINT
  5
14323
330
14179
100
AcDbEntity
  8
DEFPOINTS
 62
     0
 48
50.0
100
AcDbPoint
 10
11303.11501379478
 20
6311.583134908801
 30
0.0
  0
ENDBLK
  5
14185
330
14179
100
AcDbEntity
  8
0
 48
50.0
100
AcDbBlockEnd
  0
BLOCK
  5
14191
330
14186
100
AcDbEntity
  8
0
 48
50.0
100
AcDbBlockBegin
  2
*D75
 70
     1
 10
0.0
 20
0.0
 30
0.0
  3
*D75
  1

  0
LINE
  5
14310
330
14186
100
AcDbEntity
  8
寸法
 62
     0
 48
50.0
370
    -2
100
AcDbLine
 10
9305.264123092657
 20
6236.583134908801
 30
0.0
 11
8796.895577385184
 21
6236.583134908801
 31
0.0
  0
LINE
  5
14311
330
14186
100
AcDbEntity
  8
寸法
 62
     0
 48
50.0
370
    -2
100
AcDbLine
 10
9305.264123092657
 20
6086.5831349088
 30
0.0
 11
8796.895577385184
 21
6086.5831349088
 31
0.0
  0
LINE
  5
14312
330
14186
100
AcDbEntity
  8
寸法
 62
     0
 48
50.0
370
    -2
100
AcDbLine
 10
8841.895577385185
 20
6236.583134908801
 30
0.0
 11
8841.895577385185
 21
6086.5831349088
 31
0.0
  0
LINE
  5
14313
330
14186
100
AcDbEntity
  8
寸法
 62
     0
 48
50.0
370
    -2
100
AcDbLine
 10
8841.895577385185
 20
6086.5831349088
 30
0.0
 11
8841.895577385185
 21
5807.512268767066
 31
0.0
  0
INSERT
  5
14314
330
14186
100
AcDbEntity
  8
寸法
 62
     0
 48
50.0
370
    -2
100
AcDbBlockReference
  2
_DOTSMALL
 10
8841.895577385185
 20
6236.583134908801
 30
0.0
 41
75.0
 42
75.0
 43
75.0
 50
90.0
  0
INSERT
  5
14315
330
14186
100
AcDbEntity
  8
寸法
 62
     0
 48
50.0
370
    -2
100
AcDbBlockReference
  2
_DOTSMALL
 10
8841.895577385185
 20
6086.5831349088
 30
0.0
 41
75.0
 42
75.0
 43
75.0
 50
270.0
  0
MTEXT
  5
14316
330
14186
100
AcDbEntity
  8
寸法
 62
     7
 48
50.0
100
AcDbMText
 10
8766.895577385183
 20
5909.547701837933
 30
0.0
 40
90.0
 41
0.0
 71
     5
 72
     1
  1
\A1;100
  7
STYLE1
 11
0.0000000000000001
 21
1.0
 31
0.0
 73
     1
 44
1.0
1001
ACAD
1000
MTEXTBEGIN
1070
    73
1070
     1
1070
    44
1040
1.0
1070
    74
1070
     0
1000
MTEXTEND
  0
POINT
  5
14317
330
14186
100
AcDbEntity
  8
DEFPOINTS
 62
     0
 48
50.0
100
AcDbPoint
 10
9320.264123092657
 20
6236.583134908801
 30
0.0
  0
POINT
  5
14318
330
14186
100
AcDbEntity
  8
DEFPOINTS
 62
     0
 48
50.0
100
AcDbPoint
 10
9320.264123092657
 20
6086.5831349088
 30
0.0
  0
POINT
  5
14319
330
14186
100
AcDbEntity
  8
DEFPOINTS
 62
     0
 48
50.0
100
AcDbPoint
 10
8841.895577385185
 20
6086.5831349088
 30
0.0
  0
ENDBLK
  5
14192
330
14186
100
AcDbEntity
  8
0
 48
50.0
100
AcDbBlockEnd
  0
BLOCK
  5
1419E
330
14193
100
AcDbEntity
  8
0
 48
50.0
100
AcDbBlockBegin
  2
*D76
 70
     1
 10
0.0
 20
0.0
 30
0.0
  3
*D76
  1

  0
LINE
  5
14306
330
14193
100
AcDbEntity
  8
寸法
 62
     0
 48
50.0
370
    -2
100
AcDbLine
 10
9305.264123092658
 20
6386.583134908798
 30
0.0
 11
8796.895577385184
 21
6386.583134908798
 31
0.0
  0
LINE
  5
14307
330
14193
100
AcDbEntity
  8
寸法
 62
     0
 48
50.0
370
    -2
100
AcDbLine
 10
9295.022115920874
 20
6236.583134908798
 30
0.0
 11
8796.895577385184
 21
6236.583134908798
 31
0.0
  0
LINE
  5
14308
330
14193
100
AcDbEntity
  8
寸法
 62
     0
 48
50.0
370
    -2
100
AcDbLine
 10
8841.895577385185
 20
6236.583134908798
 30
0.0
 11
8841.895577385185
 21
6386.583134908798
 31
0.0
  0
LINE
  5
14309
330
14193
100
AcDbEntity
  8
寸法
 62
     0
 48
50.0
370
    -2
100
AcDbLine
 10
8841.895577385185
 20
6386.583134908798
 30
0.0
 11
8841.895577385185
 21
6691.919595481988
 31
0.0
  0
INSERT
  5
1430A
330
14193
100
AcDbEntity
  8
寸法
 62
     0
 48
50.0
370
    -2
100
AcDbBlockReference
  2
_DOTSMALL
 10
8841.895577385185
 20
6236.583134908798
 30
0.0
 41
75.0
 42
75.0
 43
75.0
 50
270.0
  0
INSERT
  5
1430B
330
14193
100
AcDbEntity
  8
寸法
 62
     0
 48
50.0
370
    -2
100
AcDbBlockReference
  2
_DOTSMALL
 10
8841.895577385185
 20
6386.583134908798
 30
0.0
 41
75.0
 42
75.0
 43
75.0
 50
90.0
  0
MTEXT
  5
1430C
330
14193
100
AcDbEntity
  8
寸法
 62
     7
 48
50.0
100
AcDbMText
 10
8766.895577385183
 20
6589.884162411124
 30
0.0
 40
90.0
 41
0.0
 71
     5
 72
     1
  1
\A1;100
  7
STYLE1
 11
0.0000000000000001
 21
1.0
 31
0.0
 73
     1
 44
1.0
1001
ACAD
1000
MTEXTBEGIN
1070
    73
1070
     1
1070
    44
1040
1.0
1070
    74
1070
     0
1000
MTEXTEND
  0
POINT
  5
1430D
330
14193
100
AcDbEntity
  8
DEFPOINTS
 62
     0
 48
50.0
100
AcDbPoint
 10
9320.264123092659
 20
6386.583134908798
 30
0.0
  0
POINT
  5
1430E
330
14193
100
AcDbEntity
  8
DEFPOINTS
 62
     0
 48
50.0
100
AcDbPoint
 10
9310.022115920874
 20
6236.583134908798
 30
0.0
  0
POINT
  5
1430F
330
14193
100
AcDbEntity
  8
DEFPOINTS
 62
     0
 48
50.0
100
AcDbPoint
 10
8841.895577385185
 20
6236.583134908798
 30
0.0
  0
ENDBLK
  5
1419F
330
14193
100
AcDbEntity
  8
0
 48
50.0
100
AcDbBlockEnd
  0
BLOCK
  5
141AA
330
141A0
100
AcDbEntity
  8
0
 48
50.0
100
AcDbBlockBegin
  2
*D77
 70
     1
 10
0.0
 20
0.0
 30
0.0
  3
*D77
  1

  0
LINE
  5
142FD
330
141A0
100
AcDbEntity
  8
寸法
 62
     0
 48
50.0
370
    -2
100
AcDbLine
 10
9593.406413463622
 20
5271.136281726281
 30
0.0
 11
9593.406413463622
 21
4821.188069236652
 31
0.0
  0
LINE
  5
142FE
330
141A0
100
AcDbEntity
  8
寸法
 62
     0
 48
50.0
370
    -2
100
AcDbLine
 10
10643.40641346362
 20
5271.136281726281
 30
0.0
 11
10643.40641346362
 21
4821.188069236652
 31
0.0
  0
LINE
  5
142FF
330
141A0
100
AcDbEntity
  8
寸法
 62
     0
 48
50.0
370
    -2
100
AcDbLine
 10
9593.406413463622
 20
4866.188069236653
 30
0.0
 11
10643.40641346362
 21
4866.188069236653
 31
0.0
  0
INSERT
  5
14300
330
141A0
100
AcDbEntity
  8
寸法
 62
     0
 48
50.0
370
    -2
100
AcDbBlockReference
  2
_DOTSMALL
 10
9593.406413463622
 20
4866.188069236653
 30
0.0
 41
75.0
 42
75.0
 43
75.0
 50
180.0
  0
INSERT
  5
14301
330
141A0
100
AcDbEntity
  8
寸法
 62
     0
 48
50.0
370
    -2
100
AcDbBlockReference
  2
_DOTSMALL
 10
10643.40641346362
 20
4866.188069236653
 30
0.0
 41
75.0
 42
75.0
 43
75.0
  0
MTEXT
  5
14302
330
141A0
100
AcDbEntity
  8
寸法
 62
     7
 48
50.0
100
AcDbMText
 10
10118.40641346362
 20
4941.188069236652
 30
0.0
 40
90.0
 41
0.0
 71
     5
 72
     1
  1
\A1;700
  7
STYLE1
 73
     1
 44
1.0
1001
ACAD
1000
MTEXTBEGIN
1070
    73
1070
     1
1070
    44
1040
1.0
1070
    74
1070
     0
1000
MTEXTEND
  0
POINT
  5
14303
330
141A0
100
AcDbEntity
  8
DEFPOINTS
 62
     0
 48
50.0
100
AcDbPoint
 10
9593.406413463622
 20
5286.136281726282
 30
0.0
  0
POINT
  5
14304
330
141A0
100
AcDbEntity
  8
DEFPOINTS
 62
     0
 48
50.0
100
AcDbPoint
 10
10643.40641346362
 20
5286.136281726282
 30
0.0
  0
POINT
  5
14305
330
141A0
100
AcDbEntity
  8
DEFPOINTS
 62
     0
 48
50.0
100
AcDbPoint
 10
10643.40641346362
 20
4866.188069236653
 30
0.0
  0
ENDBLK
  5
141AB
330
141A0
100
AcDbEntity
  8
0
 48
50.0
100
AcDbBlockEnd
  0
BLOCK
  5
141B6
330
141AC
100
AcDbEntity
  8
0
 48
50.0
100
AcDbBlockBegin
  2
*D78
 70
     1
 10
0.0
 20
0.0
 30
0.0
  3
*D78
  1

  0
LINE
  5
142F4
330
141AC
100
AcDbEntity
  8
寸法
 62
     0
 48
50.0
370
    -2
100
AcDbLine
 10
9593.406413463616
 20
1990.155748320804
 30
0.0
 11
9593.406413463616
 21
1708.10567576239
 31
0.0
  0
LINE
  5
142F5
330
141AC
100
AcDbEntity
  8
寸法
 62
     0
 48
50.0
370
    -2
100
AcDbLine
 10
10643.40641346361
 20
1990.155748320804
 30
0.0
 11
10643.40641346361
 21
1708.10567576239
 31
0.0
  0
LINE
  5
142F6
330
141AC
100
AcDbEntity
  8
寸法
 62
     0
 48
50.0
370
    -2
100
AcDbLine
 10
9593.406413463616
 20
1753.10567576239
 30
0.0
 11
10643.40641346361
 21
1753.10567576239
 31
0.0
  0
INSERT
  5
142F7
330
141AC
100
AcDbEntity
  8
寸法
 62
     0
 48
50.0
370
    -2
100
AcDbBlockReference
  2
_DOTSMALL
 10
9593.406413463616
 20
1753.10567576239
 30
0.0
 41
75.0
 42
75.0
 43
75.0
 50
180.0
  0
INSERT
  5
142F8
330
141AC
100
AcDbEntity
  8
寸法
 62
     0
 48
50.0
370
    -2
100
AcDbBlockReference
  2
_DOTSMALL
 10
10643.40641346361
 20
1753.10567576239
 30
0.0
 41
75.0
 42
75.0
 43
75.0
  0
MTEXT
  5
142F9
330
141AC
100
AcDbEntity
  8
寸法
 62
     7
 48
50.0
100
AcDbMText
 10
10118.40641346361
 20
1828.10567576239
 30
0.0
 40
90.0
 41
0.0
 71
     5
 72
     1
  1
\A1;700
  7
STYLE1
 73
     1
 44
1.0
1001
ACAD
1000
MTEXTBEGIN
1070
    73
1070
     1
1070
    44
1040
1.0
1070
    74
1070
     0
1000
MTEXTEND
  0
POINT
  5
142FA
330
141AC
100
AcDbEntity
  8
DEFPOINTS
 62
     0
 48
50.0
100
AcDbPoint
 10
9593.406413463616
 20
2005.155748320804
 30
0.0
  0
POINT
  5
142FB
330
141AC
100
AcDbEntity
  8
DEFPOINTS
 62
     0
 48
50.0
100
AcDbPoint
 10
10643.40641346361
 20
2005.155748320804
 30
0.0
  0
POINT
  5
142FC
330
141AC
100
AcDbEntity
  8
DEFPOINTS
 62
     0
 48
50.0
100
AcDbPoint
 10
10643.40641346361
 20
1753.10567576239
 30
0.0
  0
ENDBLK
  5
141B7
330
141AC
100
AcDbEntity
  8
0
 48
50.0
100
AcDbBlockEnd
  0
BLOCK
  5
141C3
330
141B8
100
AcDbEntity
  8
0
 48
50.0
100
AcDbBlockBegin
  2
*D79
 70
     1
 10
0.0
 20
0.0
 30
0.0
  3
*D79
  1

  0
LINE
  5
142EA
330
141B8
100
AcDbEntity
  8
寸法
 62
     0
 48
50.0
370
    -2
100
AcDbLine
 10
9305.264123092653
 20
3105.602601503321
 30
0.0
 11
9085.133787882403
 21
3105.602601503321
 31
0.0
  0
LINE
  5
142EB
330
141B8
100
AcDbEntity
  8
寸法
 62
     0
 48
50.0
370
    -2
100
AcDbLine
 10
9295.022115920868
 20
2955.602601503321
 30
0.0
 11
9085.133787882403
 21
2955.602601503321
 31
0.0
  0
LINE
  5
142EC
330
141B8
100
AcDbEntity
  8
寸法
 62
     0
 48
50.0
370
    -2
100
AcDbLine
 10
9130.133787882403
 20
2955.602601503321
 30
0.0
 11
9130.133787882403
 21
3105.602601503321
 31
0.0
  0
LINE
  5
142ED
330
141B8
100
AcDbEntity
  8
寸法
 62
     0
 48
50.0
370
    -2
100
AcDbLine
 10
9130.133787882403
 20
3105.602601503321
 30
0.0
 11
9130.133787882403
 21
3384.673467645053
 31
0.0
  0
INSERT
  5
142EE
330
141B8
100
AcDbEntity
  8
寸法
 62
     0
 48
50.0
370
    -2
100
AcDbBlockReference
  2
_DOTSMALL
 10
9130.133787882403
 20
2955.602601503321
 30
0.0
 41
75.0
 42
75.0
 43
75.0
 50
270.0
  0
INSERT
  5
142EF
330
141B8
100
AcDbEntity
  8
寸法
 62
     0
 48
50.0
370
    -2
100
AcDbBlockReference
  2
_DOTSMALL
 10
9130.133787882403
 20
3105.602601503321
 30
0.0
 41
75.0
 42
75.0
 43
75.0
 50
90.0
  0
MTEXT
  5
142F0
330
141B8
100
AcDbEntity
  8
寸法
 62
     7
 48
50.0
100
AcDbMText
 10
9055.133787882402
 20
3282.638034574188
 30
0.0
 40
90.0
 41
0.0
 71
     5
 72
     1
  1
\A1;100
  7
STYLE1
 11
0.0000000000000001
 21
1.0
 31
0.0
 73
     1
 44
1.0
1001
ACAD
1000
MTEXTBEGIN
1070
    73
1070
     1
1070
    44
1040
1.0
1070
    74
1070
     0
1000
MTEXTEND
  0
POINT
  5
142F1
330
141B8
100
AcDbEntity
  8
DEFPOINTS
 62
     0
 48
50.0
100
AcDbPoint
 10
9320.264123092654
 20
3105.602601503321
 30
0.0
  0
POINT
  5
142F2
330
141B8
100
AcDbEntity
  8
DEFPOINTS
 62
     0
 48
50.0
100
AcDbPoint
 10
9310.022115920869
 20
2955.602601503321
 30
0.0
  0
POINT
  5
142F3
330
141B8
100
AcDbEntity
  8
DEFPOINTS
 62
     0
 48
50.0
100
AcDbPoint
 10
9130.133787882403
 20
2955.602601503321
 30
0.0
  0
ENDBLK
  5
141C4
330
141B8
100
AcDbEntity
  8
0
 48
50.0
100
AcDbBlockEnd
  0
BLOCK
  5
141D0
330
141C5
100
AcDbEntity
  8
0
 48
50.0
100
AcDbBlockBegin
  2
*D80
 70
     1
 10
0.0
 20
0.0
 30
0.0
  3
*D80
  1

  0
LINE
  5
142E0
330
141C5
100
AcDbEntity
  8
寸法
 62
     0
 48
50.0
370
    -2
100
AcDbLine
 10
9305.264123092651
 20
2955.602601503322
 30
0.0
 11
9085.133787882403
 21
2955.602601503322
 31
0.0
  0
LINE
  5
142E1
330
141C5
100
AcDbEntity
  8
寸法
 62
     0
 48
50.0
370
    -2
100
AcDbLine
 10
9305.264123092651
 20
2805.602601503322
 30
0.0
 11
9085.133787882403
 21
2805.602601503323
 31
0.0
  0
LINE
  5
142E2
330
141C5
100
AcDbEntity
  8
寸法
 62
     0
 48
50.0
370
    -2
100
AcDbLine
 10
9130.133787882403
 20
2955.602601503322
 30
0.0
 11
9130.133787882403
 21
2805.602601503323
 31
0.0
  0
LINE
  5
142E3
330
141C5
100
AcDbEntity
  8
寸法
 62
     0
 48
50.0
370
    -2
100
AcDbLine
 10
9130.133787882403
 20
2805.602601503323
 30
0.0
 11
9130.133787882403
 21
2526.531735361588
 31
0.0
  0
INSERT
  5
142E4
330
141C5
100
AcDbEntity
  8
寸法
 62
     0
 48
50.0
370
    -2
100
AcDbBlockReference
  2
_DOTSMALL
 10
9130.133787882403
 20
2955.602601503322
 30
0.0
 41
75.0
 42
75.0
 43
75.0
 50
90.0
  0
INSERT
  5
142E5
330
141C5
100
AcDbEntity
  8
寸法
 62
     0
 48
50.0
370
    -2
100
AcDbBlockReference
  2
_DOTSMALL
 10
9130.133787882403
 20
2805.602601503323
 30
0.0
 41
75.0
 42
75.0
 43
75.0
 50
270.0
  0
MTEXT
  5
142E6
330
141C5
100
AcDbEntity
  8
寸法
 62
     7
 48
50.0
100
AcDbMText
 10
9055.133787882402
 20
2628.567168432456
 30
0.0
 40
90.0
 41
0.0
 71
     5
 72
     1
  1
\A1;100
  7
STYLE1
 11
0.0000000000000001
 21
1.0
 31
0.0
 73
     1
 44
1.0
1001
ACAD
1000
MTEXTBEGIN
1070
    73
1070
     1
1070
    44
1040
1.0
1070
    74
1070
     0
1000
MTEXTEND
  0
POINT
  5
142E7
330
141C5
100
AcDbEntity
  8
DEFPOINTS
 62
     0
 48
50.0
100
AcDbPoint
 10
9320.264123092652
 20
2955.602601503322
 30
0.0
  0
POINT
  5
142E8
330
141C5
100
AcDbEntity
  8
DEFPOINTS
 62
     0
 48
50.0
100
AcDbPoint
 10
9320.264123092652
 20
2805.602601503322
 30
0.0
  0
POINT
  5
142E9
330
141C5
100
AcDbEntity
  8
DEFPOINTS
 62
     0
 48
50.0
100
AcDbPoint
 10
9130.133787882403
 20
2805.602601503323
 30
0.0
  0
ENDBLK
  5
141D1
330
141C5
100
AcDbEntity
  8
0
 48
50.0
100
AcDbBlockEnd
  0
BLOCK
  5
141DD
330
141D2
100
AcDbEntity
  8
0
 48
50.0
100
AcDbBlockBegin
  2
*D81
 70
     1
 10
0.0
 20
0.0
 30
0.0
  3
*D81
  1

  0
LINE
  5
142D6
330
141D2
100
AcDbEntity
  8
寸法
 62
     0
 48
50.0
370
    -2
100
AcDbLine
 10
10870.60920135325
 20
3105.602601503321
 30
0.0
 11
11348.11501379478
 21
3105.60260150332
 31
0.0
  0
LINE
  5
142D7
330
141D2
100
AcDbEntity
  8
寸法
 62
     0
 48
50.0
370
    -2
100
AcDbLine
 10
11012.59463224554
 20
3030.602601503322
 30
0.0
 11
11348.11501379478
 21
3030.602601503322
 31
0.0
  0
LINE
  5
142D8
330
141D2
100
AcDbEntity
  8
寸法
 62
     0
 48
50.0
370
    -2
100
AcDbLine
 10
11303.11501379478
 20
3030.602601503322
 30
0.0
 11
11303.11501379478
 21
3105.60260150332
 31
0.0
  0
LINE
  5
142D9
330
141D2
100
AcDbEntity
  8
寸法
 62
     0
 48
50.0
370
    -2
100
AcDbLine
 10
11303.11501379478
 20
3105.60260150332
 30
0.0
 11
11303.11501379478
 21
3394.001995604866
 31
0.0
  0
INSERT
  5
142DA
330
141D2
100
AcDbEntity
  8
寸法
 62
     0
 48
50.0
370
    -2
100
AcDbBlockReference
  2
_DOTSMALL
 10
11303.11501379478
 20
3030.602601503322
 30
0.0
 41
75.0
 42
75.0
 43
75.0
 50
270.0
  0
INSERT
  5
142DB
330
141D2
100
AcDbEntity
  8
寸法
 62
     0
 48
50.0
370
    -2
100
AcDbBlockReference
  2
_DOTSMALL
 10
11303.11501379478
 20
3105.60260150332
 30
0.0
 41
75.0
 42
75.0
 43
75.0
 50
90.0
  0
MTEXT
  5
142DC
330
141D2
100
AcDbEntity
  8
寸法
 62
     7
 48
50.0
100
AcDbMText
 10
11228.11501379478
 20
3314.466562534001
 30
0.0
 40
90.0
 41
0.0
 71
     5
 72
     1
  1
\A1;50
  7
STYLE1
 11
0.0000000000000001
 21
1.0
 31
0.0
 73
     1
 44
1.0
1001
ACAD
1000
MTEXTBEGIN
1070
    73
1070
     1
1070
    44
1040
1.0
1070
    74
1070
     0
1000
MTEXTEND
  0
POINT
  5
142DD
330
141D2
100
AcDbEntity
  8
DEFPOINTS
 62
     0
 48
50.0
100
AcDbPoint
 10
10855.60920135325
 20
3105.602601503321
 30
0.0
  0
POINT
  5
142DE
330
141D2
100
AcDbEntity
  8
DEFPOINTS
 62
     0
 48
50.0
100
AcDbPoint
 10
10997.59463224553
 20
3030.602601503322
 30
0.0
  0
POINT
  5
142DF
330
141D2
100
AcDbEntity
  8
DEFPOINTS
 62
     0
 48
50.0
100
AcDbPoint
 10
11303.11501379478
 20
3030.602601503322
 30
0.0
  0
ENDBLK
  5
141DE
330
141D2
100
AcDbEntity
  8
0
 48
50.0
100
AcDbBlockEnd
  0
BLOCK
  5
141E9
330
141DF
100
AcDbEntity
  8
0
 48
50.0
100
AcDbBlockBegin
  2
*D82
 70
     1
 10
0.0
 20
0.0
 30
0.0
  3
*D82
  1

  0
LINE
  5
142CD
330
141DF
100
AcDbEntity
  8
寸法
 62
     0
 48
50.0
370
    -2
100
AcDbLine
 10
11012.59463224554
 20
3030.602601503322
 30
0.0
 11
11190.79858493556
 21
3030.602601503322
 31
0.0
  0
LINE
  5
142CE
330
141DF
100
AcDbEntity
  8
寸法
 62
     0
 48
50.0
370
    -2
100
AcDbLine
 10
10173.40641346361
 20
2355.655748320804
 30
0.0
 11
11190.79858493556
 21
2355.655748320804
 31
0.0
  0
LINE
  5
142CF
330
141DF
100
AcDbEntity
  8
寸法
 62
     0
 48
50.0
370
    -2
100
AcDbLine
 10
11145.79858493556
 20
3030.602601503322
 30
0.0
 11
11145.79858493556
 21
2355.655748320804
 31
0.0
  0
INSERT
  5
142D0
330
141DF
100
AcDbEntity
  8
寸法
 62
     0
 48
50.0
370
    -2
100
AcDbBlockReference
  2
_DOTSMALL
 10
11145.79858493556
 20
3030.602601503322
 30
0.0
 41
75.0
 42
75.0
 43
75.0
 50
90.0
  0
INSERT
  5
142D1
330
141DF
100
AcDbEntity
  8
寸法
 62
     0
 48
50.0
370
    -2
100
AcDbBlockReference
  2
_DOTSMALL
 10
11145.79858493556
 20
2355.655748320804
 30
0.0
 41
75.0
 42
75.0
 43
75.0
 50
270.0
  0
MTEXT
  5
142D2
330
141DF
100
AcDbEntity
  8
寸法
 62
     7
 48
50.0
100
AcDbMText
 10
11070.79858493556
 20
2693.129174912063
 30
0.0
 40
90.0
 41
0.0
 71
     5
 72
     1
  1
\A1;450
  7
STYLE1
 11
0.0000000000000001
 21
1.0
 31
0.0
 73
     1
 44
1.0
1001
ACAD
1000
MTEXTBEGIN
1070
    73
1070
     1
1070
    44
1040
1.0
1070
    74
1070
     0
1000
MTEXTEND
  0
POINT
  5
142D3
330
141DF
100
AcDbEntity
  8
DEFPOINTS
 62
     0
 48
50.0
100
AcDbPoint
 10
10997.59463224553
 20
3030.602601503322
 30
0.0
  0
POINT
  5
142D4
330
141DF
100
AcDbEntity
  8
DEFPOINTS
 62
     0
 48
50.0
100
AcDbPoint
 10
10158.40641346361
 20
2355.655748320804
 30
0.0
  0
POINT
  5
142D5
330
141DF
100
AcDbEntity
  8
DEFPOINTS
 62
     0
 48
50.0
100
AcDbPoint
 10
11145.79858493556
 20
2355.655748320804
 30
0.0
  0
ENDBLK
  5
141EA
330
141DF
100
AcDbEntity
  8
0
 48
50.0
100
AcDbBlockEnd
  0
BLOCK
  5
141F5
330
141EB
100
AcDbEntity
  8
0
 48
50.0
100
AcDbBlockBegin
  2
*D83
 70
     1
 10
0.0
 20
0.0
 30
0.0
  3
*D83
  1

  0
LINE
  5
142C4
330
141EB
100
AcDbEntity
  8
寸法
 62
     0
 48
50.0
370
    -2
100
AcDbLine
 10
11012.59463224554
 20
3030.602601503322
 30
0.0
 11
11348.11501379478
 21
3030.602601503322
 31
0.0
  0
LINE
  5
142C5
330
141EB
100
AcDbEntity
  8
寸法
 62
     0
 48
50.0
370
    -2
100
AcDbLine
 10
10778.40641346361
 20
2206.155748320803
 30
0.0
 11
11348.11501379478
 21
2206.155748320803
 31
0.0
  0
LINE
  5
142C6
330
141EB
100
AcDbEntity
  8
寸法
 62
     0
 48
50.0
370
    -2
100
AcDbLine
 10
11303.11501379478
 20
3030.602601503322
 30
0.0
 11
11303.11501379478
 21
2206.155748320803
 31
0.0
  0
INSERT
  5
142C7
330
141EB
100
AcDbEntity
  8
寸法
 62
     0
 48
50.0
370
    -2
100
AcDbBlockReference
  2
_DOTSMALL
 10
11303.11501379478
 20
3030.602601503322
 30
0.0
 41
75.0
 42
75.0
 43
75.0
 50
90.0
  0
INSERT
  5
142C8
330
141EB
100
AcDbEntity
  8
寸法
 62
     0
 48
50.0
370
    -2
100
AcDbBlockReference
  2
_DOTSMALL
 10
11303.11501379478
 20
2206.155748320803
 30
0.0
 41
75.0
 42
75.0
 43
75.0
 50
270.0
  0
MTEXT
  5
142C9
330
141EB
100
AcDbEntity
  8
寸法
 62
     7
 48
50.0
100
AcDbMText
 10
11228.11501379478
 20
2618.379174912064
 30
0.0
 40
90.0
 41
0.0
 71
     5
 72
     1
  1
\A1;550
  7
STYLE1
 11
0.0000000000000001
 21
1.0
 31
0.0
 73
     1
 44
1.0
1001
ACAD
1000
MTEXTBEGIN
1070
    73
1070
     1
1070
    44
1040
1.0
1070
    74
1070
     0
1000
MTEXTEND
  0
POINT
  5
142CA
330
141EB
100
AcDbEntity
  8
DEFPOINTS
 62
     0
 48
50.0
100
AcDbPoint
 10
10997.59463224553
 20
3030.602601503322
 30
0.0
  0
POINT
  5
142CB
330
141EB
100
AcDbEntity
  8
DEFPOINTS
 62
     0
 48
50.0
100
AcDbPoint
 10
10763.40641346361
 20
2206.155748320803
 30
0.0
  0
POINT
  5
142CC
330
141EB
100
AcDbEntity
  8
DEFPOINTS
 62
     0
 48
50.0
100
AcDbPoint
 10
11303.11501379478
 20
2206.155748320803
 30
0.0
  0
ENDBLK
  5
141F6
330
141EB
100
AcDbEntity
  8
0
 48
50.0
100
AcDbBlockEnd
  0
BLOCK
  5
14202
330
141F7
100
AcDbEntity
  8
0
 48
50.0
100
AcDbBlockBegin
  2
*D84
 70
     1
 10
0.0
 20
0.0
 30
0.0
  3
*D84
  1

  0
LINE
  5
142BA
330
141F7
100
AcDbEntity
  8
寸法
 62
     0
 48
50.0
370
    -2
100
AcDbLine
 10
10778.40641346361
 20
2206.155748320803
 30
0.0
 11
11348.11501379478
 21
2206.155748320803
 31
0.0
  0
LINE
  5
142BB
330
141F7
100
AcDbEntity
  8
寸法
 62
     0
 48
50.0
370
    -2
100
AcDbLine
 10
10778.40641346361
 20
2131.155748320804
 30
0.0
 11
11348.11501379478
 21
2131.155748320803
 31
0.0
  0
LINE
  5
142BC
330
141F7
100
AcDbEntity
  8
寸法
 62
     0
 48
50.0
370
    -2
100
AcDbLine
 10
11303.11501379478
 20
2206.155748320803
 30
0.0
 11
11303.11501379478
 21
2131.155748320803
 31
0.0
  0
LINE
  5
142BD
330
141F7
100
AcDbEntity
  8
寸法
 62
     0
 48
50.0
370
    -2
100
AcDbLine
 10
11303.11501379478
 20
2131.155748320803
 30
0.0
 11
11303.11501379478
 21
1871.917657769623
 31
0.0
  0
INSERT
  5
142BE
330
141F7
100
AcDbEntity
  8
寸法
 62
     0
 48
50.0
370
    -2
100
AcDbBlockReference
  2
_DOTSMALL
 10
11303.11501379478
 20
2206.155748320803
 30
0.0
 41
75.0
 42
75.0
 43
75.0
 50
90.0
  0
INSERT
  5
142BF
330
141F7
100
AcDbEntity
  8
寸法
 62
     0
 48
50.0
370
    -2
100
AcDbBlockReference
  2
_DOTSMALL
 10
11303.11501379478
 20
2131.155748320803
 30
0.0
 41
75.0
 42
75.0
 43
75.0
 50
270.0
  0
MTEXT
  5
142C0
330
141F7
100
AcDbEntity
  8
寸法
 62
     7
 48
50.0
100
AcDbMText
 10
11228.11501379478
 20
1951.453090840491
 30
0.0
 40
90.0
 41
0.0
 71
     5
 72
     1
  1
\A1;50
  7
STYLE1
 11
0.0000000000000001
 21
1.0
 31
0.0
 73
     1
 44
1.0
1001
ACAD
1000
MTEXTBEGIN
1070
    73
1070
     1
1070
    44
1040
1.0
1070
    74
1070
     0
1000
MTEXTEND
  0
POINT
  5
142C1
330
141F7
100
AcDbEntity
  8
DEFPOINTS
 62
     0
 48
50.0
100
AcDbPoint
 10
10763.40641346361
 20
2206.155748320803
 30
0.0
  0
POINT
  5
142C2
330
141F7
100
AcDbEntity
  8
DEFPOINTS
 62
     0
 48
50.0
100
AcDbPoint
 10
10763.40641346361
 20
2131.155748320804
 30
0.0
  0
POINT
  5
142C3
330
141F7
100
AcDbEntity
  8
DEFPOINTS
 62
     0
 48
50.0
100
AcDbPoint
 10
11303.11501379478
 20
2131.155748320803
 30
0.0
  0
ENDBLK
  5
14203
330
141F7
100
AcDbEntity
  8
0
 48
50.0
100
AcDbBlockEnd
  0
ENDSEC
  0
SECTION
  2
ENTITIES
  0
LINE
  5
10B56
330
747D
100
AcDbEntity
  8
補助
  6
PHANTOM
 62
   230
 48
50.0
100
AcDbLine
 10
105.0
 20
0.0
 30
0.0
 11
104.9999999999996
 21
8557.199999999999
 31
0.0
  0
LINE
  5
10B57
330
747D
100
AcDbEntity
  8
補助
  6
PHANTOM
 62
   230
 48
50.0
100
AcDbLine
 10
104.9999999999996
 20
8557.199999999999
 30
0.0
 11
12230.4
 21
8557.199999999999
 31
0.0
  0
LINE
  5
10B5D
330
747D
100
AcDbEntity
  8
仕様書枠
 48
50.0
100
AcDbLine
 10
105.0
 20
0.0
 30
0.0
 11
12230.4
 21
-0.0000000000000682
 31
0.0
  0
LINE
  5
10B5E
330
747D
100
AcDbEntity
  8
補助
  6
PHANTOM
 62
   230
 48
50.0
100
AcDbLine
 10
12230.4
 20
8557.199999999999
 30
0.0
 11
12230.4
 21
900.0
 31
0.0
  0
LINE
  5
10B6D
330
747D
100
AcDbEntity
  8
補助
  6
PHANTOM
 62
   230
 48
50.0
100
AcDbLine
 10
9830.400000000002
 20
8557.199999999999
 30
0.0
 11
9830.400000000002
 21
3600.0
 31
0.0
  0
LINE
  5
10B6F
330
747D
100
AcDbEntity
  8
補助
  6
PHANTOM
 62
   230
 48
50.0
100
AcDbLine
 10
9830.400000000002
 20
3600.0
 30
0.0
 11
12230.4
 21
3600.0
 31
0.0
  0
DIMENSION
  5
134FC
330
747D
100
AcDbEntity
  8
寸法
 48
50.0
100
AcDbDimension
  2
*D1
 10
7694.871284556651
 20
7667.619282144449
 30
0.0
 11
6279.87128455665
 21
7742.628140412165
 31
0.0
 12
-3245.26933682989
 22
-10894.19605098764
 32
0.0
 70
    32
 71
     5
 42
-1.0
  3
INABA_S30G
100
AcDbAlignedDimension
 13
4864.87128455665
 23
6465.166988013341
 33
0.0
 14
7694.871284556651
 24
6882.956349313339
 34
0.0
100
AcDbRotatedDimension
1001
ACAD
1000
DSTYLE
1002
{
1002
}
  0
MTEXT
  5
134FD
102
{ACAD_REACTORS
330
134FE
102
}
330
747D
100
AcDbEntity
  8
寸法
 62
     7
 48
50.0
100
AcDbMText
 10
7304.062382127508
 20
5694.023225716192
 30
0.0
 40
90.0
 41
0.0
 71
     6
 72
     1
  1
\A1;ｱﾝｶｰﾎﾞﾙﾄ\PM12x315(市販品)
  7
STYLE1
 73
     1
 44
1.0
1001
ACAD
1000
MTEXTBEGIN
1070
    73
1070
     1
1070
    44
1040
1.0
1070
    74
1070
     0
1000
MTEXTEND
  0
LEADER
  5
134FE
330
747D
100
AcDbEntity
  8
寸法
 48
50.0
100
AcDbLeader
  3
INABA_S30G
 73
     0
 75
     1
 40
249.0
 41
791.9645669291342
 76
     3
 10
7594.87128455665
 20
6115.166988013341
 30
0.0
 10
7409.062382127507
 20
5539.523225716191
 30
0.0
 10
7334.062382127507
 20
5539.523225716191
 30
0.0
340
134FD
1001
ACAD
1000
DSTYLE
1002
{
1070
   341
1005
0
1070
   343
1005
0
1070
   344
1005
0
1002
}
  0
DIMENSION
  5
134FF
330
747D
100
AcDbEntity
  8
寸法
 48
50.0
100
AcDbDimension
  2
*D2
 10
7167.55678127247
 20
5865.166988013341
 30
0.0
 11
6672.556781272469
 21
6215.166988013341
 31
0.0
 12
-2825.26933682989
 22
-10894.19605098764
 32
0.0
 70
    32
 71
     5
 42
-1.0
  3
INABA_S30G
100
AcDbAlignedDimension
 13
7344.87128455665
 23
6565.166988013341
 33
0.0
 14
7344.87128455665
 24
5865.166988013341
 34
0.0
 50
90.0
100
AcDbRotatedDimension
  0
DIMENSION
  5
13500
330
747D
100
AcDbEntity
  8
寸法
 48
50.0
100
AcDbDimension
  2
*D3
 10
7944.871284556651
 20
4825.395283416634
 30
0.0
 11
4864.87128455665
 21
4900.395283416634
 31
0.0
 12
-3245.26933682989
 22
-10894.19605098764
 32
0.0
 70
    32
  1
屋根寸法 <>
 71
     5
 42
-1.0
  3
INABA_S30G
100
AcDbAlignedDimension
 13
1784.871284556649
 23
5215.166988013343
 33
0.0
 14
7944.871284556651
 24
5215.166988013343
 34
0.0
100
AcDbRotatedDimension
  0
LINE
  5
13501
330
747D
100
AcDbEntity
  8
点線
 48
30.0
100
AcDbLine
 10
1784.871284556649
 20
5215.166988013343
 30
0.0
 11
7944.871284556651
 21
5215.166988013343
 31
0.0
  0
LINE
  5
13502
330
747D
100
AcDbEntity
  8
点線
 48
30.0
100
AcDbLine
 10
7944.871284556651
 20
7215.166988013341
 30
0.0
 11
1784.871284556649
 21
7215.166988013341
 31
0.0
  0
DIMENSION
  5
13503
330
747D
100
AcDbEntity
  8
寸法
 48
50.0
100
AcDbDimension
  2
*D4
 10
7944.871284556651
 20
7861.656321118768
 30
0.0
 11
4864.87128455665
 21
7936.656321118768
 31
0.0
 12
-3245.26933682989
 22
-10894.19605098764
 32
0.0
 70
    32
  1
基礎寸法 <>
 71
     5
 42
-1.0
  3
INABA_S30G
100
AcDbAlignedDimension
 13
1784.871284556649
 23
7215.166988013341
 33
0.0
 14
7944.871284556651
 24
7215.166988013341
 34
0.0
100
AcDbRotatedDimension
  0
MTEXT
  5
13504
330
747D
100
AcDbEntity
  8
寸法
 62
     7
 48
50.0
100
AcDbMText
 10
6579.654257512277
 20
5332.447033880843
 30
0.0
 40
90.0
 41
0.0
 71
     4
 72
     1
  1
\A1;床コンクリート打コテ押エ
  7
STYLE1
 73
     1
 44
1.0
1001
ACAD
1000
MTEXTBEGIN
1070
    73
1070
     1
1070
    44
1040
1.0
1070
    74
1070
     0
1000
MTEXTEND
  0
LINE
  5
13505
330
747D
100
AcDbEntity
  8
部品1
 48
50.0
100
AcDbLine
 10
3948.235224210706
 20
4444.950660195085
 30
0.0
 11
5781.507344902593
 21
4444.950660195085
 31
0.0
  0
MTEXT
  5
13506
330
747D
100
AcDbEntity
  8
寸法
 62
     7
 48
50.0
100
AcDbMText
 10
2333.477175535496
 20
5789.04082252529
 30
0.0
 40
90.0
 41
0.0
 71
     4
 72
     1
  1
A'
  7
STYLE1
 73
     1
 44
1.0
1001
ACAD
1000
MTEXTBEGIN
1070
    73
1070
     1
1070
    44
1040
1.0
1070
    74
1070
     0
1000
MTEXTEND
  0
LINE
  5
13507
330
747D
100
AcDbEntity
  8
文字
 48
50.0
100
AcDbLine
 10
2384.87128455665
 20
5865.166988013341
 30
0.0
 11
1684.871284556649
 21
5865.166988013341
 31
0.0
  0
MTEXT
  5
13508
330
747D
100
AcDbEntity
  8
寸法
 62
     7
 48
50.0
100
AcDbMText
 10
2334.73580439418
 20
6661.000477691698
 30
0.0
 40
90.0
 41
0.0
 71
     4
 72
     1
  1
A
  7
STYLE1
 73
     1
 44
1.0
1001
ACAD
1000
MTEXTBEGIN
1070
    73
1070
     1
1070
    44
1040
1.0
1070
    74
1070
     0
1000
MTEXTEND
  0
LINE
  5
13509
330
747D
100
AcDbEntity
  8
文字
 48
50.0
100
AcDbLine
 10
2384.87128455665
 20
6565.166988013341
 30
0.0
 11
1684.871284556649
 21
6565.166988013341
 31
0.0
  0
DIMENSION
  5
1350A
330
747D
100
AcDbEntity
  8
寸法
 48
50.0
100
AcDbDimension
  2
*D5
 10
4864.87128455665
 20
7667.619282144449
 30
0.0
 11
3449.87128455665
 21
7742.628140412165
 31
0.0
 12
-3245.26933682989
 22
-10894.19605098764
 32
0.0
 70
    32
 71
     5
 42
-1.0
  3
INABA_S30G
100
AcDbAlignedDimension
 13
2034.87128455665
 23
6465.166988013341
 33
0.0
 14
4864.87128455665
 24
6753.712005384262
 34
0.0
100
AcDbRotatedDimension
1001
ACAD
1000
DSTYLE
1002
{
1002
}
  0
LINE
  5
1350B
330
747D
100
AcDbEntity
  8
センター
 48
10.0
100
AcDbLine
 10
2284.87128455665
 20
6215.166988013341
 30
0.0
 11
4614.87128455665
 21
6215.166988013341
 31
0.0
  0
DIMENSION
  5
1350C
330
747D
100
AcDbEntity
  8
寸法
 48
50.0
100
AcDbDimension
  2
*D6
 10
2034.87128455665
 20
7667.619282144449
 30
0.0
 11
2329.87128455665
 21
7742.628140412165
 31
0.0
 12
-3665.26933682989
 22
-10894.19605098764
 32
0.0
 70
    32
 71
     5
 42
-1.0
  3
INABA_S30G
100
AcDbAlignedDimension
 13
1784.871284556649
 23
7215.166988013341
 33
0.0
 14
2034.87128455665
 24
6465.166988013341
 34
0.0
100
AcDbRotatedDimension
  0
LINE
  5
1350D
330
747D
100
AcDbEntity
  8
寸法
 48
50.0
100
AcDbLine
 10
2034.87128455665
 20
5786.268025533212
 30
0.0
 11
2034.87128455665
 21
5965.166988013341
 31
0.0
  0
DIMENSION
  5
1350E
330
747D
100
AcDbEntity
  8
寸法
 48
50.0
100
AcDbDimension
  2
*D7
 10
1343.837918229083
 20
5215.166988013343
 30
0.0
 11
1688.837918229082
 21
5715.166988013345
 31
0.0
 12
-3665.26933682989
 22
-10894.19605098764
 32
0.0
 70
    32
 71
     5
 42
-1.0
  3
INABA_S30G
100
AcDbAlignedDimension
 13
1784.871284556649
 23
6215.166988013345
 33
0.0
 14
1784.871284556649
 24
5215.166988013343
 34
0.0
 50
90.0
100
AcDbRotatedDimension
1001
ACAD
1000
DSTYLE
1002
{
1002
}
  0
LINE
  5
1350F
330
747D
100
AcDbEntity
  8
点線
 48
30.0
100
AcDbLine
 10
1784.871284556649
 20
7215.166988013341
 30
0.0
 11
1784.871284556649
 21
5215.166988013343
 31
0.0
  0
DIMENSION
  5
13510
330
747D
100
AcDbEntity
  8
寸法
 48
50.0
100
AcDbDimension
  2
*D8
 10
1121.250085828958
 20
5215.166988013343
 30
0.0
 11
1466.241227561242
 21
6215.166988013341
 31
0.0
 12
-3665.26933682989
 22
-10894.19605098764
 32
0.0
 70
    32
  1
基礎寸法 <>
 71
     5
 42
-1.0
  3
INABA_S30G
100
AcDbAlignedDimension
 13
1784.871284556649
 23
7215.166988013341
 33
0.0
 14
1784.871284556649
 24
5215.166988013343
 34
0.0
 50
90.0
100
AcDbRotatedDimension
  0
LINE
  5
13511
330
747D
100
AcDbEntity
  8
寸法
 48
50.0
100
AcDbLine
 10
2034.87128455665
 20
5786.268025533212
 30
0.0
 11
2289.00511530557
 21
5786.268025533212
 31
0.0
  0
LINE
  5
13512
330
747D
100
AcDbEntity
  8
寸法
 48
50.0
100
AcDbLine
 10
2289.00511530557
 20
5786.268025533212
 30
0.0
 11
2181.271744722591
 21
5757.400955887621
 31
0.0
  0
LINE
  5
13513
330
747D
100
AcDbEntity
  8
寸法
 48
50.0
100
AcDbLine
 10
2181.271744722591
 20
5757.400955887621
 30
0.0
 11
2181.271744722591
 21
5823.335574809171
 31
0.0
  0
DIMENSION
  5
13514
330
747D
100
AcDbEntity
  8
寸法
 48
50.0
100
AcDbDimension
  2
*D9
 10
1343.999447845419
 20
6215.166988013345
 30
0.0
 11
1688.999447845419
 21
6715.166988013341
 31
0.0
 12
-3665.26933682989
 22
-10894.19605098764
 32
0.0
 70
    32
 71
     5
 42
-1.0
  3
INABA_S30G
100
AcDbAlignedDimension
 13
1784.871284556649
 23
7215.166988013341
 33
0.0
 14
1784.871284556649
 24
6215.166988013345
 34
0.0
 50
90.0
100
AcDbRotatedDimension
  0
LINE
  5
13515
330
747D
100
AcDbEntity
  8
文字
 48
50.0
100
AcDbLine
 10
1684.871284556649
 20
6565.166988013341
 30
0.0
 11
1684.871284556649
 21
5865.166988013341
 31
0.0
  0
LINE
  5
13516
330
747D
100
AcDbEntity
  8
センター
 48
3.0
100
AcDbLine
 10
1859.871284556649
 20
6115.166988013346
 30
0.0
 11
2009.87128455665
 21
6115.166988013346
 31
0.0
  0
LINE
  5
13517
330
747D
100
AcDbEntity
  8
センター
 48
3.0
100
AcDbLine
 10
1859.871284556649
 20
6315.166988013345
 30
0.0
 11
2009.87128455665
 21
6315.166988013345
 31
0.0
  0
LINE
  5
13518
330
747D
100
AcDbEntity
  8
センター
 48
10.0
100
AcDbLine
 10
1784.871284556649
 20
6215.166988013345
 30
0.0
 11
2284.87128455665
 21
6215.166988013341
 31
0.0
  0
LINE
  5
13519
330
747D
100
AcDbEntity
  8
センター
 48
10.0
100
AcDbLine
 10
2034.87128455665
 20
6465.166988013341
 30
0.0
 11
2034.87128455665
 21
5965.166988013341
 31
0.0
  0
LINE
  5
1351A
330
747D
100
AcDbEntity
  8
センター
 48
3.0
100
AcDbLine
 10
2059.87128455665
 20
6115.166988013341
 30
0.0
 11
2209.871284556649
 21
6115.166988013341
 31
0.0
  0
CIRCLE
  5
1351B
330
747D
100
AcDbEntity
  8
部品1
 48
50.0
100
AcDbCircle
 10
1934.871284556649
 20
6115.166988013341
 30
0.0
 40
15.0
  0
LINE
  5
1351C
330
747D
100
AcDbEntity
  8
センター
 48
3.0
100
AcDbLine
 10
1934.871284556649
 20
6190.166988013341
 30
0.0
 11
1934.871284556649
 21
6040.166988013341
 31
0.0
  0
CIRCLE
  5
1351D
330
747D
100
AcDbEntity
  8
部品1
 48
50.0
100
AcDbCircle
 10
2134.87128455665
 20
6115.166988013341
 30
0.0
 40
15.0
  0
LINE
  5
1351E
330
747D
100
AcDbEntity
  8
センター
 48
3.0
100
AcDbLine
 10
2134.87128455665
 20
6190.166988013341
 30
0.0
 11
2134.87128455665
 21
6040.166988013341
 31
0.0
  0
LINE
  5
1351F
330
747D
100
AcDbEntity
  8
センター
 48
3.0
100
AcDbLine
 10
2059.87128455665
 20
6315.166988013341
 30
0.0
 11
2209.871284556649
 21
6315.166988013341
 31
0.0
  0
LINE
  5
13520
330
747D
100
AcDbEntity
  8
センター
 48
3.0
100
AcDbLine
 10
1934.871284556649
 20
6390.166988013345
 30
0.0
 11
1934.871284556649
 21
6240.166988013346
 31
0.0
  0
CIRCLE
  5
13521
330
747D
100
AcDbEntity
  8
部品1
 48
50.0
100
AcDbCircle
 10
1934.871284556649
 20
6315.166988013341
 30
0.0
 40
15.0
  0
LINE
  5
13522
330
747D
100
AcDbEntity
  8
センター
 48
3.0
100
AcDbLine
 10
2134.87128455665
 20
6390.166988013341
 30
0.0
 11
2134.87128455665
 21
6240.166988013341
 31
0.0
  0
CIRCLE
  5
13523
330
747D
100
AcDbEntity
  8
部品1
 48
50.0
100
AcDbCircle
 10
2134.87128455665
 20
6315.166988013341
 30
0.0
 40
15.0
  0
LINE
  5
13524
330
747D
100
AcDbEntity
  8
寸法
 48
50.0
100
AcDbLine
 10
2034.87128455665
 20
6644.065950493474
 30
0.0
 11
2289.00511530557
 21
6644.065950493474
 31
0.0
  0
LINE
  5
13525
330
747D
100
AcDbEntity
  8
寸法
 48
50.0
100
AcDbLine
 10
2289.00511530557
 20
6644.065950493474
 30
0.0
 11
2181.271744722591
 21
6672.933020139065
 31
0.0
  0
LINE
  5
13526
330
747D
100
AcDbEntity
  8
寸法
 48
50.0
100
AcDbLine
 10
2181.271744722591
 20
6672.933020139065
 30
0.0
 11
2181.271744722591
 21
6606.998401217516
 31
0.0
  0
LINE
  5
13527
330
747D
100
AcDbEntity
  8
文字
 48
50.0
100
AcDbLine
 10
5214.87128455665
 20
5865.166988013341
 30
0.0
 11
4514.87128455665
 21
5865.166988013341
 31
0.0
  0
LINE
  5
13528
330
747D
100
AcDbEntity
  8
文字
 48
50.0
100
AcDbLine
 10
5214.87128455665
 20
6565.166988013341
 30
0.0
 11
4514.87128455665
 21
6565.166988013341
 31
0.0
  0
LINE
  5
13529
330
747D
100
AcDbEntity
  8
センター
 48
10.0
100
AcDbLine
 10
4614.87128455665
 20
6215.166988013345
 30
0.0
 11
5114.87128455665
 21
6215.166988013341
 31
0.0
  0
CIRCLE
  5
1352A
330
747D
100
AcDbEntity
  8
部品1
 48
50.0
100
AcDbCircle
 10
4764.87128455665
 20
6315.166988013341
 30
0.0
 40
15.0
  0
LINE
  5
1352B
330
747D
100
AcDbEntity
  8
センター
 48
3.0
100
AcDbLine
 10
4689.87128455665
 20
6315.166988013345
 30
0.0
 11
4839.87128455665
 21
6315.166988013345
 31
0.0
  0
CIRCLE
  5
1352C
330
747D
100
AcDbEntity
  8
部品1
 48
50.0
100
AcDbCircle
 10
4764.87128455665
 20
6115.166988013341
 30
0.0
 40
15.0
  0
LINE
  5
1352D
330
747D
100
AcDbEntity
  8
センター
 48
3.0
100
AcDbLine
 10
4689.87128455665
 20
6115.166988013346
 30
0.0
 11
4839.87128455665
 21
6115.166988013346
 31
0.0
  0
LINE
  5
1352E
330
747D
100
AcDbEntity
  8
センター
 48
10.0
100
AcDbLine
 10
4614.87128455665
 20
6215.166988013345
 30
0.0
 11
5114.87128455665
 21
6215.166988013341
 31
0.0
  0
TEXT
  5
1352F
330
747D
100
AcDbEntity
  8
文字
 62
     7
 48
50.0
100
AcDbText
 10
3971.794465818718
 20
4508.982766907391
 30
0.0
 40
120.0
  1
A:プレート方式基礎伏図
  7
STYLE2
100
AcDbText
  0
LINE
  5
13530
330
747D
100
AcDbEntity
  8
文字
 48
50.0
100
AcDbLine
 10
2384.87128455665
 20
6565.166988013341
 30
0.0
 11
2384.87128455665
 21
5865.166988013341
 31
0.0
  0
LINE
  5
13531
330
747D
100
AcDbEntity
  8
文字
 48
50.0
100
AcDbLine
 10
4514.87128455665
 20
6565.166988013341
 30
0.0
 11
4514.87128455665
 21
5865.166988013341
 31
0.0
  0
LINE
  5
13532
330
747D
100
AcDbEntity
  8
文字
 48
50.0
100
AcDbLine
 10
5781.493321226125
 20
6104.990150078466
 30
0.0
 11
5781.493321226125
 21
5468.477750616527
 31
0.0
  0
LINE
  5
13533
330
747D
100
AcDbEntity
  8
文字
 48
50.0
100
AcDbLine
 10
5781.493321226125
 20
5468.477750616527
 30
0.0
 11
5748.645038393312
 21
5591.06921108998
 31
0.0
  0
LINE
  5
13534
330
747D
100
AcDbEntity
  8
文字
 48
50.0
100
AcDbLine
 10
5781.493321226125
 20
5468.477750616527
 30
0.0
 11
5814.34160405894
 21
5591.06921108998
 31
0.0
  0
LINE
  5
13535
330
747D
100
AcDbEntity
  8
文字
 48
50.0
100
AcDbLine
 10
5214.87128455665
 20
6565.166988013341
 30
0.0
 11
5214.87128455665
 21
5865.166988013341
 31
0.0
  0
LINE
  5
13536
330
747D
100
AcDbEntity
  8
センター
 48
10.0
100
AcDbLine
 10
5114.87128455665
 20
6215.166988013341
 30
0.0
 11
5583.013743348543
 21
6215.166988013341
 31
0.0
  0
LINE
  5
13537
330
747D
100
AcDbEntity
  8
センター
 48
10.0
100
AcDbLine
 10
4864.87128455665
 20
6465.166988013341
 30
0.0
 11
4864.87128455665
 21
5965.166988013341
 31
0.0
  0
LINE
  5
13538
330
747D
100
AcDbEntity
  8
センター
 48
3.0
100
AcDbLine
 10
4889.87128455665
 20
6115.166988013341
 30
0.0
 11
5039.87128455665
 21
6115.166988013341
 31
0.0
  0
LINE
  5
13539
330
747D
100
AcDbEntity
  8
センター
 48
3.0
100
AcDbLine
 10
4764.87128455665
 20
6190.166988013341
 30
0.0
 11
4764.87128455665
 21
6040.166988013341
 31
0.0
  0
LINE
  5
1353A
330
747D
100
AcDbEntity
  8
センター
 48
3.0
100
AcDbLine
 10
4964.87128455665
 20
6190.166988013341
 30
0.0
 11
4964.87128455665
 21
6040.166988013341
 31
0.0
  0
CIRCLE
  5
1353B
330
747D
100
AcDbEntity
  8
部品1
 48
50.0
100
AcDbCircle
 10
4964.87128455665
 20
6115.166988013341
 30
0.0
 40
15.0
  0
LINE
  5
1353C
330
747D
100
AcDbEntity
  8
センター
 48
3.0
100
AcDbLine
 10
4889.87128455665
 20
6315.166988013341
 30
0.0
 11
5039.87128455665
 21
6315.166988013341
 31
0.0
  0
LINE
  5
1353D
330
747D
100
AcDbEntity
  8
センター
 48
3.0
100
AcDbLine
 10
4964.87128455665
 20
6390.166988013341
 30
0.0
 11
4964.87128455665
 21
6240.166988013341
 31
0.0
  0
LINE
  5
1353E
330
747D
100
AcDbEntity
  8
センター
 48
3.0
100
AcDbLine
 10
4764.87128455665
 20
6390.166988013345
 30
0.0
 11
4764.87128455665
 21
6240.166988013346
 31
0.0
  0
CIRCLE
  5
1353F
330
747D
100
AcDbEntity
  8
部品1
 48
50.0
100
AcDbCircle
 10
4964.87128455665
 20
6315.166988013341
 30
0.0
 40
15.0
  0
MTEXT
  5
13540
330
747D
100
AcDbEntity
  8
寸法
 62
     7
 48
50.0
100
AcDbMText
 10
5687.05538516032
 20
5869.454166108135
 30
0.0
 40
90.0
 41
0.0
 71
     4
 72
     1
  1
\A1;水勾配 1/100 
  7
STYLE1
 11
0.0000000000000001
 21
1.0
 31
0.0
 73
     1
 44
1.0
1001
ACAD
1000
MTEXTBEGIN
1070
    73
1070
     1
1070
    44
1040
1.0
1070
    74
1070
     0
1000
MTEXTEND
  0
LINE
  5
13541
330
747D
100
AcDbEntity
  8
文字
 48
50.0
100
AcDbLine
 10
5781.493321226125
 20
6325.343825948221
 30
0.0
 11
5781.493321226125
 21
6961.85622541016
 31
0.0
  0
LINE
  5
13542
330
747D
100
AcDbEntity
  8
センター
 48
10.0
100
AcDbLine
 10
5867.787335392004
 20
6215.166988013341
 30
0.0
 11
7000.471954918221
 21
6215.166988013341
 31
0.0
  0
LINE
  5
13543
330
747D
100
AcDbEntity
  8
文字
 48
50.0
100
AcDbLine
 10
5781.493321226125
 20
6961.85622541016
 30
0.0
 11
5814.34160405894
 21
6839.264764936706
 31
0.0
  0
LINE
  5
13544
330
747D
100
AcDbEntity
  8
文字
 48
50.0
100
AcDbLine
 10
5781.493321226125
 20
6961.85622541016
 30
0.0
 11
5748.645038393312
 21
6839.264764936706
 31
0.0
  0
DIMENSION
  5
13555
330
747D
100
AcDbEntity
  8
寸法
 48
50.0
100
AcDbDimension
  2
*D13
 10
7944.871284556651
 20
7668.216517489357
 30
0.0
 11
7399.87128455665
 21
7743.225375757072
 31
0.0
 12
-2825.26933682989
 22
-10894.19605098764
 32
0.0
 70
    32
 71
     5
 42
-1.0
  3
INABA_S30G
100
AcDbAlignedDimension
 13
7694.871284556651
 23
7285.166988013346
 33
0.0
 14
7944.871284556651
 24
7215.166988013341
 34
0.0
100
AcDbRotatedDimension
  0
DIMENSION
  5
1355A
330
747D
100
AcDbEntity
  8
寸法
 48
50.0
100
AcDbDimension
  2
*D16
 10
7594.87128455665
 20
5645.645704700538
 30
0.0
 11
7274.87128455665
 21
5720.654562968255
 31
0.0
 12
-2825.26933682989
 22
-10894.19605098764
 32
0.0
 70
    32
 71
     5
 42
-1.0
  3
INABA_S30G
100
AcDbAlignedDimension
 13
7794.87128455665
 23
6040.166988013341
 33
0.0
 14
7594.87128455665
 24
6040.166988013341
 34
0.0
100
AcDbRotatedDimension
  0
DIMENSION
  5
1355B
330
747D
100
AcDbEntity
  8
寸法
 48
50.0
100
AcDbDimension
  2
*D17
 10
8427.145506920265
 20
5215.166988013343
 30
0.0
 11
7932.136648652548
 21
6215.166988013341
 31
0.0
 12
-2825.26933682989
 22
-10894.19605098764
 32
0.0
 70
    32
  1
屋根寸法 <>
 71
     5
 42
-1.0
  3
INABA_S30G
100
AcDbAlignedDimension
 13
7944.871284556651
 23
7215.166988013341
 33
0.0
 14
7944.871284556651
 24
5215.166988013343
 34
0.0
 50
90.0
100
AcDbRotatedDimension
1001
ACAD
1000
DSTYLE
1002
{
1070
   141
1040
-0.1
1070
   279
1070
     2
1070
   288
1070
     1
1002
}
  0
LINE
  5
1355C
330
747D
100
AcDbEntity
  8
点線
 48
30.0
100
AcDbLine
 10
7944.871284556651
 20
5215.166988013343
 30
0.0
 11
7944.871284556651
 21
7215.166988013341
 31
0.0
  0
DIMENSION
  5
1355D
330
747D
100
AcDbEntity
  8
寸法
 48
50.0
100
AcDbDimension
  2
*D18
 10
8206.458711694221
 20
6315.166988013341
 30
0.0
 11
7711.449853426504
 21
6215.166988013341
 31
0.0
 12
-2825.26933682989
 22
-10894.19605098764
 32
0.0
 70
    32
 71
     5
 42
-1.0
  3
INABA_S30G
100
AcDbAlignedDimension
 13
7869.87128455665
 23
6115.166988013341
 33
0.0
 14
7869.87128455665
 24
6315.166988013341
 34
0.0
 50
90.0
100
AcDbRotatedDimension
  0
LINE
  5
1355E
330
747D
100
AcDbEntity
  8
文字
 48
50.0
100
AcDbLine
 10
7344.87128455665
 20
6565.166988013341
 30
0.0
 11
7344.87128455665
 21
5865.166988013341
 31
0.0
  0
LINE
  5
1355F
330
747D
100
AcDbEntity
  8
文字
 48
50.0
100
AcDbLine
 10
8044.87128455665
 20
6565.166988013341
 30
0.0
 11
8044.87128455665
 21
5865.166988013341
 31
0.0
  0
LINE
  5
13560
330
747D
100
AcDbEntity
  8
文字
 48
50.0
100
AcDbLine
 10
7344.87128455665
 20
5865.166988013341
 30
0.0
 11
8044.87128455665
 21
5865.166988013341
 31
0.0
  0
LINE
  5
13561
330
747D
100
AcDbEntity
  8
センター
 48
3.0
100
AcDbLine
 10
7519.87128455665
 20
6115.166988013346
 30
0.0
 11
7669.87128455665
 21
6115.166988013346
 31
0.0
  0
LINE
  5
13562
330
747D
100
AcDbEntity
  8
センター
 48
3.0
100
AcDbLine
 10
7519.87128455665
 20
6315.166988013345
 30
0.0
 11
7669.87128455665
 21
6315.166988013345
 31
0.0
  0
LINE
  5
13563
330
747D
100
AcDbEntity
  8
センター
 48
10.0
100
AcDbLine
 10
7444.871284556651
 20
6215.166988013345
 30
0.0
 11
7944.871284556651
 21
6215.166988013341
 31
0.0
  0
CIRCLE
  5
13564
330
747D
100
AcDbEntity
  8
部品1
 48
50.0
100
AcDbCircle
 10
7594.87128455665
 20
6115.166988013341
 30
0.0
 40
15.0
  0
LINE
  5
13565
330
747D
100
AcDbEntity
  8
センター
 48
3.0
100
AcDbLine
 10
7594.87128455665
 20
6190.166988013341
 30
0.0
 11
7594.87128455665
 21
6040.166988013341
 31
0.0
  0
LINE
  5
13566
330
747D
100
AcDbEntity
  8
センター
 48
3.0
100
AcDbLine
 10
7594.87128455665
 20
6390.166988013345
 30
0.0
 11
7594.87128455665
 21
6240.166988013346
 31
0.0
  0
CIRCLE
  5
13567
330
747D
100
AcDbEntity
  8
部品1
 48
50.0
100
AcDbCircle
 10
7594.87128455665
 20
6315.166988013341
 30
0.0
 40
15.0
  0
LINE
  5
13568
330
747D
100
AcDbEntity
  8
センター
 48
10.0
100
AcDbLine
 10
7694.871284556651
 20
5965.166988013345
 30
0.0
 11
7694.871284556651
 21
6465.166988013345
 31
0.0
  0
LINE
  5
13569
330
747D
100
AcDbEntity
  8
センター
 48
3.0
100
AcDbLine
 10
7719.87128455665
 20
6115.166988013341
 30
0.0
 11
7869.87128455665
 21
6115.166988013341
 31
0.0
  0
CIRCLE
  5
1356A
330
747D
100
AcDbEntity
  8
部品1
 48
50.0
100
AcDbCircle
 10
7794.87128455665
 20
6115.166988013341
 30
0.0
 40
15.0
  0
LINE
  5
1356B
330
747D
100
AcDbEntity
  8
センター
 48
3.0
100
AcDbLine
 10
7794.87128455665
 20
6190.166988013341
 30
0.0
 11
7794.87128455665
 21
6040.166988013341
 31
0.0
  0
LINE
  5
1356C
330
747D
100
AcDbEntity
  8
センター
 48
3.0
100
AcDbLine
 10
7794.87128455665
 20
6390.166988013341
 30
0.0
 11
7794.87128455665
 21
6240.166988013341
 31
0.0
  0
LINE
  5
1356D
330
747D
100
AcDbEntity
  8
センター
 48
3.0
100
AcDbLine
 10
7719.87128455665
 20
6315.166988013341
 30
0.0
 11
7869.87128455665
 21
6315.166988013341
 31
0.0
  0
CIRCLE
  5
1356E
330
747D
100
AcDbEntity
  8
部品1
 48
50.0
100
AcDbCircle
 10
7794.87128455665
 20
6315.166988013341
 30
0.0
 40
15.0
  0
LINE
  5
1356F
330
747D
100
AcDbEntity
  8
文字
 48
50.0
100
AcDbLine
 10
7344.87128455665
 20
6565.166988013341
 30
0.0
 11
8044.87128455665
 21
6565.166988013341
 31
0.0
  0
DIMENSION
  5
13570
330
747D
100
AcDbEntity
  8
寸法
 48
50.0
100
AcDbDimension
  2
*D19
 10
8044.87128455665
 20
6762.956349313339
 30
0.0
 11
7694.871284556651
 21
6762.956349313339
 31
0.0
 12
-2825.26933682989
 22
-10894.19605098764
 32
0.0
 70
   160
 71
     5
 42
-1.0
  3
INABA_S30G
100
AcDbAlignedDimension
 13
7344.87128455665
 23
6565.166988013341
 33
0.0
 14
8044.87128455665
 24
6565.166988013341
 34
0.0
100
AcDbRotatedDimension
  0
DIMENSION
  5
13655
330
747D
100
AcDbEntity
  8
寸法
 48
50.0
100
AcDbDimension
  2
*D27
 10
7694.871284556651
 20
3722.220301847585
 30
0.0
 11
6279.87128455665
 21
3797.229160115301
 31
0.0
 12
-3245.26933682989
 22
-10894.19605098764
 32
0.0
 70
    32
 71
     5
 42
-1.0
  3
INABA_S30G
100
AcDbAlignedDimension
 13
4864.87128455665
 23
2519.768007716479
 33
0.0
 14
7694.871284556651
 24
2937.557369016473
 34
0.0
100
AcDbRotatedDimension
1001
ACAD
1000
DSTYLE
1002
{
1002
}
  0
DIMENSION
  5
13656
330
747D
100
AcDbEntity
  8
寸法
 48
50.0
100
AcDbDimension
  2
*D28
 10
7167.55678127247
 20
1919.768007716477
 30
0.0
 11
6672.556781272469
 21
2269.768007716477
 31
0.0
 12
-2825.26933682989
 22
-10894.19605098764
 32
0.0
 70
    32
 71
     5
 42
-1.0
  3
INABA_S30G
100
AcDbAlignedDimension
 13
7344.87128455665
 23
2619.768007716477
 33
0.0
 14
7344.87128455665
 24
1919.768007716477
 34
0.0
 50
90.0
100
AcDbRotatedDimension
  0
DIMENSION
  5
13657
330
747D
100
AcDbEntity
  8
寸法
 48
50.0
100
AcDbDimension
  2
*D29
 10
7944.871284556651
 20
879.9963031197695
 30
0.0
 11
4864.87128455665
 21
954.9963031197695
 31
0.0
 12
-3245.26933682989
 22
-10894.19605098764
 32
0.0
 70
    32
  1
屋根寸法 <>
 71
     5
 42
-1.0
  3
INABA_S30G
100
AcDbAlignedDimension
 13
1784.871284556649
 23
1269.768007716479
 33
0.0
 14
7944.871284556651
 24
1269.768007716479
 34
0.0
100
AcDbRotatedDimension
  0
LINE
  5
13658
330
747D
100
AcDbEntity
  8
点線
 48
30.0
100
AcDbLine
 10
1784.871284556649
 20
1269.768007716479
 30
0.0
 11
7944.871284556651
 21
1269.768007716479
 31
0.0
  0
MTEXT
  5
13659
330
747D
100
AcDbEntity
  8
寸法
 62
     7
 48
50.0
100
AcDbMText
 10
6579.654257512277
 20
1387.048053583978
 30
0.0
 40
90.0
 41
0.0
 71
     4
 72
     1
  1
\A1;床コンクリート打コテ押エ
  7
STYLE1
 73
     1
 44
1.0
1001
ACAD
1000
MTEXTBEGIN
1070
    73
1070
     1
1070
    44
1040
1.0
1070
    74
1070
     0
1000
MTEXTEND
  0
LINE
  5
1365A
330
747D
100
AcDbEntity
  8
点線
 48
30.0
100
AcDbLine
 10
7944.871284556651
 20
3269.768007716479
 30
0.0
 11
1784.871284556649
 21
3269.768007716479
 31
0.0
  0
DIMENSION
  5
1365B
330
747D
100
AcDbEntity
  8
寸法
 48
50.0
100
AcDbDimension
  2
*D30
 10
7944.871284556651
 20
3916.257340821903
 30
0.0
 11
4864.87128455665
 21
3991.257340821903
 31
0.0
 12
-3245.26933682989
 22
-10894.19605098764
 32
0.0
 70
    32
  1
基礎寸法 <>
 71
     5
 42
-1.0
  3
INABA_S30G
100
AcDbAlignedDimension
 13
1784.871284556649
 23
3269.768007716479
 33
0.0
 14
7944.871284556651
 24
3269.768007716479
 34
0.0
100
AcDbRotatedDimension
  0
MTEXT
  5
1365C
330
747D
100
AcDbEntity
  8
寸法
 62
     7
 48
50.0
100
AcDbMText
 10
2333.477175535496
 20
1813.641842228428
 30
0.0
 40
90.0
 41
0.0
 71
     4
 72
     1
  1
B'
  7
STYLE1
 73
     1
 44
1.0
1001
ACAD
1000
MTEXTBEGIN
1070
    73
1070
     1
1070
    44
1040
1.0
1070
    74
1070
     0
1000
MTEXTEND
  0
LINE
  5
1365D
330
747D
100
AcDbEntity
  8
文字
 48
50.0
100
AcDbLine
 10
1684.871284556649
 20
1919.768007716479
 30
0.0
 11
2384.87128455665
 21
1919.768007716479
 31
0.0
  0
MTEXT
  5
1365E
330
747D
100
AcDbEntity
  8
寸法
 62
     7
 48
50.0
100
AcDbMText
 10
2334.73580439418
 20
2745.601497394833
 30
0.0
 40
90.0
 41
0.0
 71
     4
 72
     1
  1
B
  7
STYLE1
 73
     1
 44
1.0
1001
ACAD
1000
MTEXTBEGIN
1070
    73
1070
     1
1070
    44
1040
1.0
1070
    74
1070
     0
1000
MTEXTEND
  0
LINE
  5
1365F
330
747D
100
AcDbEntity
  8
文字
 48
50.0
100
AcDbLine
 10
1684.871284556649
 20
2619.768007716479
 30
0.0
 11
2384.87128455665
 21
2619.768007716479
 31
0.0
  0
DIMENSION
  5
13660
330
747D
100
AcDbEntity
  8
寸法
 48
50.0
100
AcDbDimension
  2
*D31
 10
4864.87128455665
 20
3722.220301847585
 30
0.0
 11
3449.87128455665
 21
3797.229160115301
 31
0.0
 12
-3245.26933682989
 22
-10894.19605098764
 32
0.0
 70
    32
 71
     5
 42
-1.0
  3
INABA_S30G
100
AcDbAlignedDimension
 13
2034.87128455665
 23
2519.768007716479
 33
0.0
 14
4864.87128455665
 24
2808.313025087398
 34
0.0
100
AcDbRotatedDimension
1001
ACAD
1000
DSTYLE
1002
{
1002
}
  0
LINE
  5
13661
330
747D
100
AcDbEntity
  8
センター
 48
10.0
100
AcDbLine
 10
2284.87128455665
 20
2269.768007716479
 30
0.0
 11
4614.87128455665
 21
2269.768007716479
 31
0.0
  0
DIMENSION
  5
13662
330
747D
100
AcDbEntity
  8
寸法
 48
50.0
100
AcDbDimension
  2
*D32
 10
1343.837918229083
 20
1269.768007716479
 30
0.0
 11
1688.837918229082
 21
1769.76800771648
 31
0.0
 12
-3665.26933682989
 22
-10894.19605098764
 32
0.0
 70
    32
 71
     5
 42
-1.0
  3
INABA_S30G
100
AcDbAlignedDimension
 13
1784.871284556649
 23
2269.76800771648
 33
0.0
 14
1784.871284556649
 24
1269.768007716479
 34
0.0
 50
90.0
100
AcDbRotatedDimension
1001
ACAD
1000
DSTYLE
1002
{
1002
}
  0
DIMENSION
  5
13663
330
747D
100
AcDbEntity
  8
寸法
 48
50.0
100
AcDbDimension
  2
*D33
 10
1121.250085828958
 20
1269.768007716479
 30
0.0
 11
1466.241227561242
 21
2269.768007716479
 31
0.0
 12
-3665.26933682989
 22
-10894.19605098764
 32
0.0
 70
    32
  1
基礎寸法 <>
 71
     5
 42
-1.0
  3
INABA_S30G
100
AcDbAlignedDimension
 13
1784.871284556649
 23
3269.768007716479
 33
0.0
 14
1784.871284556649
 24
1269.768007716479
 34
0.0
 50
90.0
100
AcDbRotatedDimension
  0
LINE
  5
13664
330
747D
100
AcDbEntity
  8
点線
 48
30.0
100
AcDbLine
 10
1784.871284556649
 20
3269.768007716479
 30
0.0
 11
1784.871284556649
 21
1269.768007716479
 31
0.0
  0
DIMENSION
  5
13665
330
747D
100
AcDbEntity
  8
寸法
 48
50.0
100
AcDbDimension
  2
*D34
 10
1343.999447845419
 20
2269.76800771648
 30
0.0
 11
1688.999447845419
 21
2769.768007716481
 31
0.0
 12
-3665.26933682989
 22
-10894.19605098764
 32
0.0
 70
    32
 71
     5
 42
-1.0
  3
INABA_S30G
100
AcDbAlignedDimension
 13
1784.871284556649
 23
3269.768007716479
 33
0.0
 14
1784.871284556649
 24
2269.76800771648
 34
0.0
 50
90.0
100
AcDbRotatedDimension
  0
DIMENSION
  5
13666
330
747D
100
AcDbEntity
  8
寸法
 48
50.0
100
AcDbDimension
  2
*D35
 10
2034.87128455665
 20
3722.220301847585
 30
0.0
 11
2329.87128455665
 21
3797.229160115301
 31
0.0
 12
-3665.26933682989
 22
-10894.19605098764
 32
0.0
 70
    32
 71
     5
 42
-1.0
  3
INABA_S30G
100
AcDbAlignedDimension
 13
1784.871284556649
 23
3269.768007716479
 33
0.0
 14
2034.87128455665
 24
2519.768007716479
 34
0.0
100
AcDbRotatedDimension
  0
LINE
  5
13667
330
747D
100
AcDbEntity
  8
文字
 48
50.0
100
AcDbLine
 10
1684.871284556649
 20
2619.768007716479
 30
0.0
 11
1684.871284556649
 21
1919.768007716479
 31
0.0
  0
LINE
  5
13668
330
747D
100
AcDbEntity
  8
センター
 48
10.0
100
AcDbLine
 10
2034.87128455665
 20
2519.768007716479
 30
0.0
 11
2034.87128455665
 21
2019.768007716479
 31
0.0
  0
LINE
  5
13669
330
747D
100
AcDbEntity
  8
センター
 48
10.0
100
AcDbLine
 10
1784.871284556649
 20
2269.76800771648
 30
0.0
 11
2284.87128455665
 21
2269.768007716479
 31
0.0
  0
LINE
  5
1366A
330
747D
100
AcDbEntity
  8
寸法
 48
50.0
100
AcDbLine
 10
2034.87128455665
 20
1810.869045236348
 30
0.0
 11
2034.87128455665
 21
2019.768007716479
 31
0.0
  0
LINE
  5
1366B
330
747D
100
AcDbEntity
  8
寸法
 48
50.0
100
AcDbLine
 10
2034.87128455665
 20
1960.869045236348
 30
0.0
 11
2034.87128455665
 21
2019.768007716479
 31
0.0
  0
LINE
  5
1366C
330
747D
100
AcDbEntity
  8
寸法
 48
50.0
100
AcDbLine
 10
2034.87128455665
 20
1810.869045236348
 30
0.0
 11
2289.00511530557
 21
1810.869045236348
 31
0.0
  0
LINE
  5
1366D
330
747D
100
AcDbEntity
  8
寸法
 48
50.0
100
AcDbLine
 10
2181.271744722591
 20
1782.001975590756
 30
0.0
 11
2181.271744722591
 21
1847.936594512308
 31
0.0
  0
LINE
  5
1366E
330
747D
100
AcDbEntity
  8
寸法
 48
50.0
100
AcDbLine
 10
2289.00511530557
 20
1810.869045236348
 30
0.0
 11
2181.271744722591
 21
1782.001975590756
 31
0.0
  0
LINE
  5
1366F
330
747D
100
AcDbEntity
  8
文字
 48
50.0
100
AcDbLine
 10
2074.87128455665
 20
2309.768007716477
 30
0.0
 11
1994.87128455665
 21
2309.768007716477
 31
0.0
  0
LINE
  5
13670
330
747D
100
AcDbEntity
  8
文字
 48
50.0
100
AcDbLine
 10
2074.87128455665
 20
2229.768007716477
 30
0.0
 11
1994.87128455665
 21
2229.768007716477
 31
0.0
  0
LINE
  5
13671
330
747D
100
AcDbEntity
  8
文字
 48
50.0
100
AcDbLine
 10
2074.87128455665
 20
2309.768007716479
 30
0.0
 11
2074.87128455665
 21
2229.768007716477
 31
0.0
  0
LINE
  5
13672
330
747D
100
AcDbEntity
  8
文字
 48
50.0
100
AcDbLine
 10
1994.87128455665
 20
2309.768007716479
 30
0.0
 11
1994.87128455665
 21
2229.768007716477
 31
0.0
  0
LINE
  5
13673
330
747D
100
AcDbEntity
  8
寸法
 48
50.0
100
AcDbLine
 10
2181.271744722591
 20
2757.534039842202
 30
0.0
 11
2181.271744722591
 21
2691.599420920651
 31
0.0
  0
LINE
  5
13674
330
747D
100
AcDbEntity
  8
寸法
 48
50.0
100
AcDbLine
 10
2034.87128455665
 20
2728.66697019661
 30
0.0
 11
2289.00511530557
 21
2728.66697019661
 31
0.0
  0
LINE
  5
13675
330
747D
100
AcDbEntity
  8
寸法
 48
50.0
100
AcDbLine
 10
2289.00511530557
 20
2728.66697019661
 30
0.0
 11
2181.271744722591
 21
2757.534039842202
 31
0.0
  0
LINE
  5
13676
330
747D
100
AcDbEntity
  8
文字
 48
50.0
100
AcDbLine
 10
5781.493321226125
 20
2159.591169781601
 30
0.0
 11
5781.493321226125
 21
1523.078770319662
 31
0.0
  0
LINE
  5
13677
330
747D
100
AcDbEntity
  8
文字
 48
50.0
100
AcDbLine
 10
5781.493321226125
 20
1523.078770319662
 30
0.0
 11
5814.34160405894
 21
1645.670230793115
 31
0.0
  0
LINE
  5
13678
330
747D
100
AcDbEntity
  8
文字
 48
50.0
100
AcDbLine
 10
5781.493321226125
 20
1523.078770319662
 30
0.0
 11
5748.645038393312
 21
1645.670230793115
 31
0.0
  0
LINE
  5
13679
330
747D
100
AcDbEntity
  8
文字
 48
50.0
100
AcDbLine
 10
4514.87128455665
 20
1919.768007716479
 30
0.0
 11
5214.87128455665
 21
1919.768007716479
 31
0.0
  0
LINE
  5
1367A
330
747D
100
AcDbEntity
  8
文字
 48
50.0
100
AcDbLine
 10
4514.87128455665
 20
2619.768007716479
 30
0.0
 11
5214.87128455665
 21
2619.768007716479
 31
0.0
  0
LINE
  5
1367B
330
747D
100
AcDbEntity
  8
センター
 48
10.0
100
AcDbLine
 10
4614.87128455665
 20
2269.76800771648
 30
0.0
 11
5114.87128455665
 21
2269.768007716479
 31
0.0
  0
LINE
  5
1367C
330
747D
100
AcDbEntity
  8
文字
 48
50.0
100
AcDbLine
 10
2384.87128455665
 20
2619.768007716479
 30
0.0
 11
2384.87128455665
 21
1919.768007716479
 31
0.0
  0
LINE
  5
1367D
330
747D
100
AcDbEntity
  8
文字
 48
50.0
100
AcDbLine
 10
4514.87128455665
 20
2619.768007716479
 30
0.0
 11
4514.87128455665
 21
1919.768007716479
 31
0.0
  0
LINE
  5
1367E
330
747D
100
AcDbEntity
  8
文字
 48
50.0
100
AcDbLine
 10
5214.87128455665
 20
2619.768007716479
 30
0.0
 11
5214.87128455665
 21
1919.768007716479
 31
0.0
  0
LINE
  5
1367F
330
747D
100
AcDbEntity
  8
センター
 48
10.0
100
AcDbLine
 10
4864.87128455665
 20
2519.768007716479
 30
0.0
 11
4864.87128455665
 21
2019.768007716479
 31
0.0
  0
MTEXT
  5
13680
330
747D
100
AcDbEntity
  8
寸法
 62
     7
 48
50.0
100
AcDbMText
 10
5687.05538516032
 20
1924.05518581127
 30
0.0
 40
90.0
 41
0.0
 71
     4
 72
     1
  1
\A1;水勾配 1/100 
  7
STYLE1
 11
0.0000000000000001
 21
1.0
 31
0.0
 73
     1
 44
1.0
1001
ACAD
1000
MTEXTBEGIN
1070
    73
1070
     1
1070
    44
1040
1.0
1070
    74
1070
     0
1000
MTEXTEND
  0
LINE
  5
13681
330
747D
100
AcDbEntity
  8
センター
 48
10.0
100
AcDbLine
 10
5114.87128455665
 20
2269.768007716479
 30
0.0
 11
5583.013743348543
 21
2269.768007716479
 31
0.0
  0
LINE
  5
13682
330
747D
100
AcDbEntity
  8
文字
 48
50.0
100
AcDbLine
 10
4904.87128455665
 20
2309.768007716477
 30
0.0
 11
4824.87128455665
 21
2309.768007716477
 31
0.0
  0
LINE
  5
13683
330
747D
100
AcDbEntity
  8
文字
 48
50.0
100
AcDbLine
 10
4904.87128455665
 20
2229.768007716477
 30
0.0
 11
4824.87128455665
 21
2229.768007716477
 31
0.0
  0
LINE
  5
13684
330
747D
100
AcDbEntity
  8
文字
 48
50.0
100
AcDbLine
 10
4824.87128455665
 20
2309.768007716479
 30
0.0
 11
4824.87128455665
 21
2229.768007716477
 31
0.0
  0
LINE
  5
13685
330
747D
100
AcDbEntity
  8
文字
 48
50.0
100
AcDbLine
 10
4904.87128455665
 20
2309.768007716479
 30
0.0
 11
4904.87128455665
 21
2229.768007716477
 31
0.0
  0
LINE
  5
13686
330
747D
100
AcDbEntity
  8
センター
 48
10.0
100
AcDbLine
 10
5833.986781278444
 20
2269.768007716479
 30
0.0
 11
7019.26482661441
 21
2269.768007716479
 31
0.0
  0
LINE
  5
13687
330
747D
100
AcDbEntity
  8
文字
 48
50.0
100
AcDbLine
 10
5781.493321226125
 20
2379.944845651356
 30
0.0
 11
5781.493321226125
 21
3016.457245113296
 31
0.0
  0
LINE
  5
13688
330
747D
100
AcDbEntity
  8
文字
 48
50.0
100
AcDbLine
 10
5781.493321226125
 20
3016.457245113296
 30
0.0
 11
5814.34160405894
 21
2893.865784639842
 31
0.0
  0
LINE
  5
13689
330
747D
100
AcDbEntity
  8
文字
 48
50.0
100
AcDbLine
 10
5781.493321226125
 20
3016.457245113296
 30
0.0
 11
5748.645038393312
 21
2893.865784639842
 31
0.0
  0
DIMENSION
  5
13698
330
747D
100
AcDbEntity
  8
寸法
 48
50.0
100
AcDbDimension
  2
*D41
 10
8427.145506920265
 20
1269.768007716479
 30
0.0
 11
7932.136648652548
 21
2269.768007716479
 31
0.0
 12
-2825.26933682989
 22
-10894.19605098764
 32
0.0
 70
    32
  1
屋根寸法 <>
 71
     5
 42
-1.0
  3
INABA_S30G
100
AcDbAlignedDimension
 13
7944.871284556651
 23
3269.768007716479
 33
0.0
 14
7944.871284556651
 24
1269.768007716479
 34
0.0
 50
90.0
100
AcDbRotatedDimension
1001
ACAD
1000
DSTYLE
1002
{
1070
   141
1040
-0.1
1070
   279
1070
     2
1070
   288
1070
     1
1002
}
  0
LINE
  5
13699
330
747D
100
AcDbEntity
  8
点線
 48
30.0
100
AcDbLine
 10
7944.871284556651
 20
1269.768007716479
 30
0.0
 11
7944.871284556651
 21
3269.768007716479
 31
0.0
  0
LINE
  5
136A1
330
747D
100
AcDbEntity
  8
文字
 48
50.0
100
AcDbLine
 10
7344.87128455665
 20
2619.768007716477
 30
0.0
 11
7344.87128455665
 21
1919.768007716477
 31
0.0
  0
LINE
  5
136A2
330
747D
100
AcDbEntity
  8
文字
 48
50.0
100
AcDbLine
 10
8044.87128455665
 20
2619.768007716477
 30
0.0
 11
8044.87128455665
 21
1919.768007716477
 31
0.0
  0
LINE
  5
136A3
330
747D
100
AcDbEntity
  8
センター
 48
10.0
100
AcDbLine
 10
7694.871284556651
 20
2019.76800771648
 30
0.0
 11
7694.871284556651
 21
2519.768007716481
 31
0.0
  0
MTEXT
  5
136A4
102
{ACAD_REACTORS
330
136A5
102
}
330
747D
100
AcDbEntity
  8
寸法
 62
     7
 48
50.0
100
AcDbMText
 10
7462.995226267413
 20
1787.546270780802
 30
0.0
 40
90.0
 41
0.0
 71
     6
 72
     1
  1
\A1;柱
  7
STYLE1
 73
     1
 44
1.0
1001
ACAD
1000
MTEXTBEGIN
1070
    73
1070
     1
1070
    44
1040
1.0
1070
    74
1070
     0
1000
MTEXTEND
  0
LEADER
  5
136A5
330
747D
100
AcDbEntity
  8
寸法
 48
50.0
100
AcDbLeader
  3
INABA_S30G
 73
     0
 75
     1
 40
90.0
 41
108.0
 76
     3
 10
7673.980118446156
 20
2229.768007716475
 30
0.0
 10
7567.995226267412
 20
1712.546270780802
 30
0.0
 10
7492.995226267412
 20
1712.546270780802
 30
0.0
340
136A4
1001
ACAD
1000
DSTYLE
1002
{
1070
   341
1005
0
1070
   343
1005
0
1070
   344
1005
0
1002
}
  0
LINE
  5
136A6
330
747D
100
AcDbEntity
  8
文字
 48
50.0
100
AcDbLine
 10
7344.87128455665
 20
1919.768007716477
 30
0.0
 11
8044.87128455665
 21
1919.768007716477
 31
0.0
  0
LINE
  5
136A7
330
747D
100
AcDbEntity
  8
センター
 48
10.0
100
AcDbLine
 10
7444.871284556651
 20
2269.76800771648
 30
0.0
 11
7944.871284556651
 21
2269.768007716479
 31
0.0
  0
LINE
  5
136A8
330
747D
100
AcDbEntity
  8
文字
 48
50.0
100
AcDbLine
 10
7734.87128455665
 20
2309.768007716477
 30
0.0
 11
7654.87128455665
 21
2309.768007716477
 31
0.0
  0
LINE
  5
136A9
330
747D
100
AcDbEntity
  8
文字
 48
50.0
100
AcDbLine
 10
7734.87128455665
 20
2229.768007716477
 30
0.0
 11
7654.87128455665
 21
2229.768007716477
 31
0.0
  0
LINE
  5
136AA
330
747D
100
AcDbEntity
  8
文字
 48
50.0
100
AcDbLine
 10
7734.87128455665
 20
2309.768007716479
 30
0.0
 11
7734.87128455665
 21
2229.768007716477
 31
0.0
  0
LINE
  5
136AB
330
747D
100
AcDbEntity
  8
文字
 48
50.0
100
AcDbLine
 10
7654.87128455665
 20
2309.768007716479
 30
0.0
 11
7654.87128455665
 21
2229.768007716477
 31
0.0
  0
LINE
  5
136AC
330
747D
100
AcDbEntity
  8
文字
 48
50.0
100
AcDbLine
 10
7344.87128455665
 20
2619.768007716477
 30
0.0
 11
8044.87128455665
 21
2619.768007716477
 31
0.0
  0
DIMENSION
  5
136AD
330
747D
100
AcDbEntity
  8
寸法
 48
50.0
100
AcDbDimension
  2
*D42
 10
8044.87128455665
 20
2817.557369016473
 30
0.0
 11
7694.871284556651
 21
2817.557369016473
 31
0.0
 12
-2825.26933682989
 22
-10894.19605098764
 32
0.0
 70
   160
 71
     5
 42
-1.0
  3
INABA_S30G
100
AcDbAlignedDimension
 13
7344.87128455665
 23
2619.768007716477
 33
0.0
 14
8044.87128455665
 24
2619.768007716477
 34
0.0
100
AcDbRotatedDimension
  0
DIMENSION
  5
136AE
330
747D
100
AcDbEntity
  8
寸法
 48
50.0
100
AcDbDimension
  2
*D43
 10
7944.871284556651
 20
3722.817537192492
 30
0.0
 11
7399.87128455665
 21
3797.826395460208
 31
0.0
 12
-2825.26933682989
 22
-10894.19605098764
 32
0.0
 70
    32
 71
     5
 42
-1.0
  3
INABA_S30G
100
AcDbAlignedDimension
 13
7694.871284556651
 23
3339.768007716481
 33
0.0
 14
7944.871284556651
 24
3269.768007716479
 34
0.0
100
AcDbRotatedDimension
  0
LINE
  5
13764
330
747D
100
AcDbEntity
  8
部品1
 48
50.0
100
AcDbLine
 10
3948.235224210706
 20
499.5516798982207
 30
0.0
 11
5889.491533844715
 21
499.5516798982207
 31
0.0
  0
TEXT
  5
13765
330
747D
100
AcDbEntity
  8
文字
 62
     7
 48
50.0
100
AcDbText
 10
3971.794465818718
 20
563.5837866105267
 30
0.0
 40
120.0
  1
B:埋め込み方式基礎伏図
  7
STYLE2
100
AcDbText
  0
DIMENSION
  5
13F22
330
747D
100
AcDbEntity
  8
寸法
 48
50.0
100
AcDbDimension
  2
*D66
 10
9593.406413463622
 20
5031.598783490082
 30
0.0
 11
9780.906413463618
 21
5106.607641757799
 31
0.0
 70
    32
 71
     5
 42
250.0000000124976
  3
INABA_S30G詳細用20
100
AcDbAlignedDimension
 13
9968.406413463618
 23
5286.136281726282
 33
0.0
 14
9593.406413463622
 24
5286.136281726282
 34
0.0
100
AcDbRotatedDimension
  0
DIMENSION
  5
13F23
330
747D
100
AcDbEntity
  8
寸法
 48
50.0
100
AcDbDimension
  2
*D67
 10
9968.406413463618
 20
5031.598783490082
 30
0.0
 11
10118.40641346362
 21
5106.607641757799
 31
0.0
 70
    32
 71
     5
 42
200.00000001
  3
INABA_S30G詳細用20
100
AcDbAlignedDimension
 13
10268.40641346361
 23
5286.136281726282
 33
0.0
 14
9968.406413463618
 24
5286.136281726282
 34
0.0
100
AcDbRotatedDimension
  0
DIMENSION
  5
13F24
330
747D
100
AcDbEntity
  8
寸法
 48
50.0
100
AcDbDimension
  2
*D68
 10
10268.40641346361
 20
5031.598783490082
 30
0.0
 11
10455.90641346362
 21
5106.607641757799
 31
0.0
 70
    32
 71
     5
 42
250.0000000125024
  3
INABA_S30G詳細用20
100
AcDbAlignedDimension
 13
10643.40641346362
 23
5286.136281726282
 33
0.0
 14
10268.40641346361
 24
5286.136281726282
 34
0.0
100
AcDbRotatedDimension
  0
MTEXT
  5
13F25
102
{ACAD_REACTORS
330
13F26
102
}
330
747D
100
AcDbEntity
  8
寸法
 62
     7
 48
50.0
100
AcDbMText
 10
10701.77469128335
 20
5859.019823410331
 30
0.0
 40
90.0
 41
0.0
 71
     4
 72
     1
  1
\A1;ｱﾝｶｰﾎﾞﾙﾄ\PM12x315
  7
STYLE1
 73
     1
 44
1.0
1001
ACAD
1000
MTEXTBEGIN
1070
    73
1070
     1
1070
    44
1040
1.0
1070
    74
1070
     0
1000
MTEXTEND
  0
LEADER
  5
13F26
330
747D
100
AcDbEntity
  8
寸法
 48
50.0
100
AcDbLeader
  3
INABA_S30G
 73
     0
 74
     0
 75
     1
 40
240.0177165354331
 41
399.7279220613578
 76
     3
 10
10277.40641346361
 20
5815.347719418351
 30
0.0
 10
10596.77469128334
 20
5709.010965142614
 30
0.0
 10
10671.77469128334
 20
5709.010965142614
 30
0.0
340
13F25
  0
LINE
  5
13F27
330
747D
100
AcDbEntity
  8
細線
 48
50.0
100
AcDbLine
 10
10705.0494428236
 20
6236.583134908798
 30
0.0
 11
10831.60920135326
 21
6363.142893438455
 31
0.0
  0
LINE
  5
13F28
330
747D
100
AcDbEntity
  8
細線
 48
50.0
100
AcDbLine
 10
10722.8685337095
 20
6236.583134908798
 30
0.0
 11
10831.60920135326
 21
6345.323802552552
 31
0.0
  0
LINE
  5
13F29
330
747D
100
AcDbEntity
  8
細線
 48
50.0
100
AcDbLine
 10
10740.6876245954
 20
6236.583134908798
 30
0.0
 11
10831.60920135326
 21
6327.504711666655
 31
0.0
  0
LINE
  5
13F2A
330
747D
100
AcDbEntity
  8
細線
 48
50.0
100
AcDbLine
 10
10259.40641346362
 20
5999.176165544218
 30
0.0
 11
10171.99944409904
 21
6086.583134908799
 31
0.0
  0
LINE
  5
13F2B
330
747D
100
AcDbEntity
  8
細線
 48
50.0
100
AcDbLine
 10
10259.40641346362
 20
6016.995256430117
 30
0.0
 11
10189.81853498494
 21
6086.5831349088
 31
0.0
  0
LINE
  5
13F2C
330
747D
100
AcDbEntity
  8
細線
 48
50.0
100
AcDbLine
 10
10259.40641346362
 20
6034.814347316018
 30
0.0
 11
10207.63762587084
 21
6086.583134908799
 31
0.0
  0
LINE
  5
13F2D
330
747D
100
AcDbEntity
  8
細線
 48
50.0
100
AcDbLine
 10
10290.96156434492
 20
6163.583134908795
 30
0.0
 11
10513.96156434492
 21
6386.583134908798
 31
0.0
  0
LINE
  5
13F2E
330
747D
100
AcDbEntity
  8
細線
 48
50.0
100
AcDbLine
 10
10294.78065523081
 20
6149.583134908798
 30
0.0
 11
10531.78065523082
 21
6386.583134908798
 31
0.0
  0
LINE
  5
13F2F
330
747D
100
AcDbEntity
  8
細線
 48
50.0
100
AcDbLine
 10
10305.90641346361
 20
6142.889802255702
 30
0.0
 11
10549.59974611672
 21
6386.583134908798
 31
0.0
  0
LINE
  5
13F30
330
747D
100
AcDbEntity
  8
部品1
 48
50.0
100
AcDbLine
 10
10178.40641346362
 20
6247.083134908798
 30
0.0
 11
10259.40641346362
 21
6171.868849194511
 31
0.0
  0
LINE
  5
13F31
330
747D
100
AcDbEntity
  8
細線
 48
50.0
100
AcDbLine
 10
9959.40641346362
 20
5824.000408586856
 30
0.0
 11
9696.82368714168
 21
6086.5831349088
 31
0.0
  0
LINE
  5
13F32
330
747D
100
AcDbEntity
  8
細線
 48
50.0
100
AcDbLine
 10
9959.40641346362
 20
5841.819499472749
 30
0.0
 11
9714.642778027572
 21
6086.5831349088
 31
0.0
  0
LINE
  5
13F33
330
747D
100
AcDbEntity
  8
細線
 48
50.0
100
AcDbLine
 10
9959.40641346362
 20
5859.638590358644
 30
0.0
 11
9732.461868913475
 21
6086.5831349088
 31
0.0
  0
LINE
  5
13F34
330
747D
100
AcDbEntity
  8
部品1
 48
50.0
100
AcDbLine
 10
10277.40641346362
 20
6086.583134908799
 30
0.0
 11
10831.60920135326
 21
6086.5831349088
 31
0.0
  0
LINE
  5
13F35
330
747D
100
AcDbEntity
  8
部品1
 48
50.0
100
AcDbLine
 10
9977.406413463619
 20
6086.583134908799
 30
0.0
 11
10259.40641346362
 21
6086.583134908799
 31
0.0
  0
LINE
  5
13F36
330
747D
100
AcDbEntity
  8
細線
 48
50.0
100
AcDbLine
 10
9959.40641346362
 20
6061.58828706554
 30
0.0
 11
9934.41156562036
 21
6086.583134908799
 31
0.0
  0
LINE
  5
13F37
330
747D
100
AcDbEntity
  8
細線
 48
50.0
100
AcDbLine
 10
9959.40641346362
 20
6079.407377951439
 30
0.0
 11
9952.230656506259
 21
6086.5831349088
 31
0.0
  0
LINE
  5
13F38
330
747D
100
AcDbEntity
  8
細線
 48
50.0
100
AcDbLine
 10
9902.40641346365
 20
5661.231620994051
 30
0.0
 11
9593.406413463618
 21
5970.231620994073
 31
0.0
  0
LINE
  5
13F39
330
747D
100
AcDbEntity
  8
細線
 48
50.0
100
AcDbLine
 10
9904.373990434834
 20
5677.083134908755
 30
0.0
 11
9593.406413463618
 21
5988.050711879981
 31
0.0
  0
LINE
  5
13F3A
330
747D
100
AcDbEntity
  8
部品1
 48
50.0
100
AcDbLine
 10
9902.406413463644
 20
5677.083134908754
 30
0.0
 11
9902.40641346365
 21
5659.083134908754
 31
0.0
  0
LINE
  5
13F3B
330
747D
100
AcDbEntity
  8
部品1
 48
50.0
100
AcDbLine
 10
9959.406413463648
 20
5659.083134908765
 30
0.0
 11
9902.40641346365
 21
5659.083134908754
 31
0.0
  0
LINE
  5
13F3C
330
747D
100
AcDbEntity
  8
部品1
 48
50.0
100
AcDbLine
 10
9959.406413463643
 20
5677.083134908766
 30
0.0
 11
9902.406413463644
 21
5677.083134908754
 31
0.0
  0
ARC
  5
13F3D
330
747D
100
AcDbEntity
  8
部品1
 48
50.0
100
AcDbCircle
 10
9959.406413463646
 20
5677.083134908766
 30
0.0
 40
18.0
100
AcDbArc
 50
270.0
 51
0.0000000000115087
  0
ARC
  5
13F3E
330
747D
100
AcDbEntity
  8
部品1
 48
50.0
100
AcDbCircle
 10
10277.40641346362
 20
5677.083134908798
 30
0.0
 40
18.0
100
AcDbArc
 50
180.0
 51
270.0
  0
LINE
  5
13F3F
330
747D
100
AcDbEntity
  8
部品1
 48
50.0
100
AcDbLine
 10
10277.40641346362
 20
5677.083134908798
 30
0.0
 11
10334.40641346362
 21
5677.083134908798
 31
0.0
  0
LINE
  5
13F40
330
747D
100
AcDbEntity
  8
部品1
 48
50.0
100
AcDbLine
 10
10277.40641346362
 20
5659.083134908797
 30
0.0
 11
10334.40641346362
 21
5659.083134908797
 31
0.0
  0
LINE
  5
13F41
330
747D
100
AcDbEntity
  8
部品1
 48
50.0
100
AcDbLine
 10
10334.40641346362
 20
5677.083134908798
 30
0.0
 11
10334.40641346362
 21
5659.083134908797
 31
0.0
  0
LINE
  5
13F52
330
747D
100
AcDbEntity
  8
部品1
 48
50.0
100
AcDbLine
 10
9959.40641346362
 20
6131.583134908797
 30
0.0
 11
9959.40641346362
 21
5677.083134908766
 31
0.0
  0
LINE
  5
13F53
330
747D
100
AcDbEntity
  8
部品1
 48
50.0
100
AcDbLine
 10
9977.406413463619
 20
6131.583134908797
 30
0.0
 11
9977.406413463619
 21
5677.083134908766
 31
0.0
  0
LINE
  5
13F54
330
747D
100
AcDbEntity
  8
部品1
 48
50.0
100
AcDbLine
 10
10277.40641346362
 20
6131.583134908797
 30
0.0
 11
10277.40641346362
 21
5677.083134908798
 31
0.0
  0
LINE
  5
13F55
330
747D
100
AcDbEntity
  8
部品1
 48
50.0
100
AcDbLine
 10
10259.40641346362
 20
6131.583134908797
 30
0.0
 11
10259.40641346362
 21
5677.083134908798
 31
0.0
  0
DIMENSION
  5
13F56
330
747D
100
AcDbEntity
  8
寸法
 48
50.0
100
AcDbDimension
  2
*D69
 10
9022.144018412934
 20
6176.083134908798
 30
0.0
 11
9022.144018412932
 21
5929.354788452107
 31
0.0
 70
   160
 71
     5
 42
59.66666666964818
  3
INABA_S30G詳細用20
100
AcDbAlignedDimension
 13
9320.264123092657
 23
6086.5831349088
 33
0.0
 14
9959.406413463618
 24
6176.083134908798
 34
0.0
 50
90.0
100
AcDbRotatedDimension
  0
DIMENSION
  5
13F57
330
747D
100
AcDbEntity
  8
寸法
 48
50.0
100
AcDbDimension
  2
*D70
 10
9207.944921806179
 20
6131.583134908797
 30
0.0
 11
9207.944921806179
 21
5857.047701837933
 31
0.0
 70
   160
 71
     5
 42
30.00000000149879
  3
INABA_S30G詳細用20
100
AcDbAlignedDimension
 13
9320.264123092657
 23
6086.583134908799
 33
0.0
 14
9930.906413463619
 24
6131.583134908797
 34
0.0
 50
90.0
100
AcDbRotatedDimension
  0
LINE
  5
13F58
330
747D
100
AcDbEntity
  8
部品1
 48
50.0
100
AcDbLine
 10
10058.40641346362
 20
6247.083134908798
 30
0.0
 11
9977.406413463617
 21
6171.868849194511
 31
0.0
  0
LINE
  5
13F59
330
747D
100
AcDbEntity
  8
部品1
 48
50.0
100
AcDbLine
 10
10058.40641346362
 20
6247.083134908798
 30
0.0
 11
10178.40641346362
 21
6247.083134908798
 31
0.0
  0
ARC
  5
13F5A
330
747D
100
AcDbEntity
  8
部品1
 48
50.0
100
AcDbCircle
 10
10118.40641346362
 20
6059.253133002802
 30
0.0
 40
72.33000190599523
100
AcDbArc
 50
22.20066484123736
 51
157.7993351587626
  0
LINE
  5
13F5B
330
747D
100
AcDbEntity
  8
部品1
 48
50.0
100
AcDbLine
 10
10305.90641346362
 20
6149.583134908798
 30
0.0
 11
10305.90641346362
 21
6131.583134908797
 31
0.0
  0
LINE
  5
13F5C
330
747D
100
AcDbEntity
  8
部品1
 48
50.0
100
AcDbLine
 10
9930.906413463619
 20
6149.583134908798
 30
0.0
 11
9930.906413463619
 21
6131.583134908797
 31
0.0
  0
LINE
  5
13F5D
330
747D
100
AcDbEntity
  8
部品1
 48
50.0
100
AcDbLine
 10
9930.906413463619
 20
6149.583134908798
 30
0.0
 11
10305.90641346362
 21
6149.583134908798
 31
0.0
  0
LINE
  5
13F5E
330
747D
100
AcDbEntity
  8
部品1
 48
50.0
100
AcDbLine
 10
9930.906413463619
 20
6131.583134908797
 30
0.0
 11
10305.90641346362
 21
6131.583134908797
 31
0.0
  0
TEXT
  5
13F5F
330
747D
100
AcDbEntity
  8
文字
 48
50.0
100
AcDbText
 10
10248.03606863595
 20
6610.087502863182
 30
0.0
 40
72.0
  1
水勾配
 41
0.8
  7
STYLE1
100
AcDbText
  0
TEXT
  5
13F60
330
747D
100
AcDbEntity
  8
文字
 48
50.0
100
AcDbText
 10
9678.057373113936
 20
6610.087502863182
 30
0.0
 40
72.0
  1
水勾配
 41
0.8
  7
STYLE1
100
AcDbText
  0
LINE
  5
13F61
330
747D
100
AcDbEntity
  8
部品1
 48
50.0
100
AcDbLine
 10
10997.59463224554
 20
6351.383134908796
 30
0.0
 11
10997.59463224554
 21
6236.583134908798
 31
0.0
  0
LINE
  5
13F62
330
747D
100
AcDbEntity
  8
細線
 48
50.0
100
AcDbLine
 10
11008.46666298116
 20
6236.583134908798
 30
0.0
 11
11017.62328806157
 21
6215.583134908798
 31
0.0
  0
LINE
  5
13F63
330
747D
100
AcDbEntity
  8
文字
 48
50.0
100
AcDbLine
 10
10775.48734154692
 20
6451.924215583384
 30
0.0
 11
10706.83612368179
 21
6433.529177197009
 31
0.0
  0
LINE
  5
13F64
330
747D
100
AcDbEntity
  8
文字
 48
50.0
100
AcDbLine
 10
10775.48734154692
 20
6451.924215583384
 30
0.0
 11
10706.83612368179
 21
6470.319253969761
 31
0.0
  0
LINE
  5
13F65
330
747D
100
AcDbEntity
  8
細線
 48
50.0
100
AcDbLine
 10
10902.86853370951
 20
6236.583134908801
 30
0.0
 11
10997.59463224554
 21
6331.309233444832
 31
0.0
  0
LINE
  5
13F66
330
747D
100
AcDbEntity
  8
細線
 48
50.0
100
AcDbLine
 10
10885.0494428236
 20
6236.583134908798
 30
0.0
 11
10997.59463224554
 21
6349.128324330735
 31
0.0
  0
LINE
  5
13F67
330
747D
100
AcDbEntity
  8
細線
 48
50.0
100
AcDbLine
 10
10924.46666298116
 20
6236.583134908798
 30
0.0
 11
10933.62328806157
 21
6215.583134908801
 31
0.0
  0
LINE
  5
13F68
330
747D
100
AcDbEntity
  8
細線
 48
50.0
100
AcDbLine
 10
10855.60920135326
 20
6232.029296512522
 30
0.0
 11
10857.26666298116
 21
6236.583134908798
 31
0.0
  0
LINE
  5
13F69
330
747D
100
AcDbEntity
  8
細線
 48
50.0
100
AcDbLine
 10
10756.46666298116
 20
6236.583134908798
 30
0.0
 11
10765.62328806157
 21
6215.583134908798
 31
0.0
  0
LINE
  5
13F6A
330
747D
100
AcDbEntity
  8
部品1
 48
50.0
100
AcDbLine
 10
10855.60920135326
 20
6379.583134908799
 30
0.0
 11
10972.39463224554
 21
6376.583134908798
 31
0.0
  0
LINE
  5
13F6B
330
747D
100
AcDbEntity
  8
部品1
 48
50.0
100
AcDbLine
 10
10855.60920135326
 20
6236.583134908798
 30
0.0
 11
11038.10297188809
 21
6236.583134908798
 31
0.0
  0
LINE
  5
13F6C
330
747D
100
AcDbEntity
  8
部品1
 48
50.0
100
AcDbLine
 10
10997.59463224554
 20
6351.383134908798
 30
0.0
 11
10972.39463224554
 21
6376.583134908798
 31
0.0
  0
LINE
  5
13F6D
330
747D
100
AcDbEntity
  8
細線
 48
50.0
100
AcDbLine
 10
10920.6876245954
 20
6236.583134908798
 30
0.0
 11
10997.59463224554
 21
6313.490142558937
 31
0.0
  0
LINE
  5
13F6E
330
747D
100
AcDbEntity
  8
細線
 48
50.0
100
AcDbLine
 10
10802.67112784124
 20
6086.5831349088
 30
0.0
 11
10831.60920135326
 21
6166.089838445609
 31
0.0
  0
LINE
  5
13F6F
330
747D
100
AcDbEntity
  8
部品1
 48
50.0
100
AcDbLine
 10
10855.60920135326
 20
6086.5831349088
 30
0.0
 11
11038.10297188808
 21
6086.5831349088
 31
0.0
  0
LINE
  5
13F70
330
747D
100
AcDbEntity
  8
部品1
 48
50.0
100
AcDbLine
 10
10831.60920135326
 20
6407.79762300421
 30
0.0
 11
10831.60920135326
 21
6045.701980712575
 31
0.0
  0
LINE
  5
13F71
330
747D
100
AcDbEntity
  8
部品1
 48
50.0
100
AcDbLine
 10
10855.60920135326
 20
6407.79762300421
 30
0.0
 11
10855.60920135326
 21
6045.701980712575
 31
0.0
  0
LINE
  5
13F72
330
747D
100
AcDbEntity
  8
細線
 48
50.0
100
AcDbLine
 10
10970.67112784123
 20
6086.5831349088
 30
0.0
 11
11025.26666298116
 21
6236.583134908798
 31
0.0
  0
LINE
  5
13F73
330
747D
100
AcDbEntity
  8
細線
 48
50.0
100
AcDbLine
 10
10886.67112784124
 20
6086.5831349088
 30
0.0
 11
10941.26666298116
 21
6236.583134908798
 31
0.0
  0
LINE
  5
13F74
330
747D
100
AcDbEntity
  8
部品1
 48
50.0
100
AcDbLine
 10
10763.40641346362
 20
5286.136281726282
 30
0.0
 11
10763.40641346362
 21
5487.136281726282
 31
0.0
  0
DIMENSION
  5
13F75
330
747D
100
AcDbEntity
  8
寸法
 48
50.0
100
AcDbDimension
  2
*D71
 10
11303.11501379478
 20
5412.136281726282
 30
0.0
 11
11303.11501379478
 21
5232.433624245969
 31
0.0
 70
   160
 71
     5
 42
50.0000000025
  3
INABA_S30G詳細用20
100
AcDbAlignedDimension
 13
10763.40641346362
 23
5487.136281726282
 33
0.0
 14
10763.40641346362
 24
5412.136281726282
 34
0.0
 50
90.0
100
AcDbRotatedDimension
  0
DIMENSION
  5
13F76
330
747D
100
AcDbEntity
  8
寸法
 48
50.0
100
AcDbDimension
  2
*D72
 10
11303.11501379478
 20
5487.136281726282
 30
0.0
 11
11228.11501379478
 21
5786.859708317543
 31
0.0
 70
    32
 71
     5
 42
399.631235474994
  3
INABA_S30G詳細用20
100
AcDbAlignedDimension
 13
11038.10297188808
 23
6086.5831349088
 33
0.0
 14
10763.40641346362
 24
5487.136281726282
 34
0.0
 50
90.0
100
AcDbRotatedDimension
  0
LINE
  5
13F77
330
747D
100
AcDbEntity
  8
細線
 48
50.0
100
AcDbLine
 10
10672.46666298116
 20
6236.583134908798
 30
0.0
 11
10681.62328806157
 21
6215.583134908798
 31
0.0
  0
LINE
  5
13F78
330
747D
100
AcDbEntity
  8
細線
 48
50.0
100
AcDbLine
 10
10249.59974611671
 20
6086.583134908798
 30
0.0
 11
10259.40641346362
 21
6096.389802255703
 31
0.0
  0
LINE
  5
13F79
330
747D
100
AcDbEntity
  8
部品1
 48
50.0
100
AcDbLine
 10
10199.40641346362
 20
6407.583134908799
 30
0.0
 11
10220.40641346362
 21
6386.583134908798
 31
0.0
  0
LINE
  5
13F7A
330
747D
100
AcDbEntity
  8
部品1
 48
50.0
100
AcDbLine
 10
10178.40641346362
 20
6407.583134908799
 30
0.0
 11
10199.40641346362
 21
6407.583134908799
 31
0.0
  0
LINE
  5
13F7B
330
747D
100
AcDbEntity
  8
細線
 48
50.0
100
AcDbLine
 10
10178.40641346362
 20
6252.977680734386
 30
0.0
 11
10312.01186763803
 21
6386.583134908798
 31
0.0
  0
LINE
  5
13F7C
330
747D
100
AcDbEntity
  8
細線
 48
50.0
100
AcDbLine
 10
10178.40641346362
 20
6270.796771620286
 30
0.0
 11
10294.19277675213
 21
6386.583134908798
 31
0.0
  0
LINE
  5
13F7D
330
747D
100
AcDbEntity
  8
細線
 48
50.0
100
AcDbLine
 10
10178.40641346362
 20
6288.615862506187
 30
0.0
 11
10276.37368586623
 21
6386.583134908798
 31
0.0
  0
LINE
  5
13F7E
330
747D
100
AcDbEntity
  8
細線
 48
50.0
100
AcDbLine
 10
10231.78065523081
 20
6086.5831349088
 30
0.0
 11
10259.40641346362
 21
6114.208893141602
 31
0.0
  0
LINE
  5
13F7F
330
747D
100
AcDbEntity
  8
細線
 48
50.0
100
AcDbLine
 10
10213.96156434492
 20
6086.583134908799
 30
0.0
 11
10258.96156434492
 21
6131.583134908798
 31
0.0
  0
LINE
  5
13F80
330
747D
100
AcDbEntity
  8
細線
 48
50.0
100
AcDbLine
 10
10643.40641346362
 20
5852.764044022881
 30
0.0
 11
10409.58732257772
 21
6086.583134908799
 31
0.0
  0
LINE
  5
13F81
330
747D
100
AcDbEntity
  8
細線
 48
50.0
100
AcDbLine
 10
10643.40641346362
 20
5870.583134908805
 30
0.0
 11
10427.40641346362
 21
6086.5831349088
 31
0.0
  0
LINE
  5
13F82
330
747D
100
AcDbEntity
  8
細線
 48
50.0
100
AcDbLine
 10
10643.40641346362
 20
5888.402225794703
 30
0.0
 11
10445.22550434953
 21
6086.583134908798
 31
0.0
  0
LINE
  5
13F83
330
747D
100
AcDbEntity
  8
細線
 48
50.0
100
AcDbLine
 10
10643.40641346362
 20
6110.583134908813
 30
0.0
 11
10689.26666298116
 21
6236.583134908798
 31
0.0
  0
LINE
  5
13F84
330
747D
100
AcDbEntity
  8
部品1
 48
50.0
100
AcDbLine
 10
10037.40641346362
 20
6407.583134908799
 30
0.0
 11
10016.40641346362
 21
6386.583134908798
 31
0.0
  0
LINE
  5
13F85
330
747D
100
AcDbEntity
  8
部品1
 48
50.0
100
AcDbLine
 10
10037.40641346362
 20
6407.583134908799
 30
0.0
 11
10058.40641346362
 21
6407.583134908799
 31
0.0
  0
LINE
  5
13F86
330
747D
100
AcDbEntity
  8
細線
 48
50.0
100
AcDbLine
 10
9734.104898273461
 20
6086.583134908798
 30
0.0
 11
10055.10489827345
 21
6407.583134908799
 31
0.0
  0
LINE
  5
13F87
330
747D
100
AcDbEntity
  8
細線
 48
50.0
100
AcDbLine
 10
9751.923989159358
 20
6086.583134908798
 30
0.0
 11
10058.40641346362
 21
6393.065559213059
 31
0.0
  0
LINE
  5
13F88
330
747D
100
AcDbEntity
  8
細線
 48
50.0
100
AcDbLine
 10
9593.406413463624
 20
6165.653437691742
 30
0.0
 11
9814.336110680676
 21
6386.583134908798
 31
0.0
  0
LINE
  5
13F89
330
747D
100
AcDbEntity
  8
細線
 48
50.0
100
AcDbLine
 10
9593.406413463622
 20
6183.472528577645
 30
0.0
 11
9796.517019794775
 21
6386.583134908798
 31
0.0
  0
LINE
  5
13F8A
330
747D
100
AcDbEntity
  8
細線
 48
50.0
100
AcDbLine
 10
9716.285807387555
 20
6086.583134908798
 30
0.0
 11
10016.28580738756
 21
6386.583134908798
 31
0.0
  0
LINE
  5
13F8B
330
747D
100
AcDbEntity
  8
細線
 48
50.0
100
AcDbLine
 10
9564.468339951591
 20
6086.5831349088
 30
0.0
 11
9593.406413463616
 21
6166.089838445609
 31
0.0
  0
LINE
  5
13F8C
330
747D
100
AcDbEntity
  8
細線
 48
50.0
100
AcDbLine
 10
9572.011766089724
 20
6107.308527888647
 30
0.0
 11
9581.048654335459
 21
6086.5831349088
 31
0.0
  0
LINE
  5
13F8D
330
747D
100
AcDbEntity
  8
細線
 48
50.0
100
AcDbLine
 10
10259.40641346362
 20
5797.226468837329
 30
0.0
 11
9977.406413463619
 21
6079.226468837343
 31
0.0
  0
LINE
  5
13F8E
330
747D
100
AcDbEntity
  8
細線
 48
50.0
100
AcDbLine
 10
10259.40641346362
 20
5779.407377951436
 30
0.0
 11
9977.406413463619
 21
6061.407377951441
 31
0.0
  0
LINE
  5
13F8F
330
747D
100
AcDbEntity
  8
細線
 48
50.0
100
AcDbLine
 10
10259.40641346362
 20
5761.588287065536
 30
0.0
 11
9977.406413463619
 21
6043.588287065542
 31
0.0
  0
CIRCLE
  5
13F90
330
747D
100
AcDbEntity
  8
部品1
 48
5.0
100
AcDbCircle
 10
10442.40641346362
 20
5605.836281726284
 30
0.0
 40
8.4
  0
LINE
  5
13F91
330
747D
100
AcDbEntity
  8
部品1
 48
50.0
100
AcDbLine
 10
10466.03141346362
 20
5580.636281726281
 30
0.0
 11
10466.03141346362
 21
5597.436281726285
 31
0.0
  0
LINE
  5
13F92
330
747D
100
AcDbEntity
  8
細線
 48
50.0
100
AcDbLine
 10
10409.96666298116
 20
5412.136281726282
 30
0.0
 11
10419.12328806157
 21
5391.136281726282
 31
0.0
  0
LINE
  5
13F93
330
747D
100
AcDbEntity
  8
細線
 48
50.0
100
AcDbLine
 10
10493.96666298116
 20
5412.136281726282
 30
0.0
 11
10503.12328806157
 21
5391.136281726282
 31
0.0
  0
LINE
  5
13F94
330
747D
100
AcDbEntity
  8
細線
 48
50.0
100
AcDbLine
 10
10540.97671624655
 20
5487.136281726282
 30
0.0
 11
10465.97671624655
 21
5412.136281726282
 31
0.0
  0
LINE
  5
13F95
330
747D
100
AcDbEntity
  8
細線
 48
50.0
100
AcDbLine
 10
10558.79580713246
 20
5487.136281726282
 30
0.0
 11
10483.79580713246
 21
5412.136281726282
 31
0.0
  0
LINE
  5
13F96
330
747D
100
AcDbEntity
  8
細線
 48
50.0
100
AcDbLine
 10
10576.61489801836
 20
5487.136281726282
 30
0.0
 11
10501.61489801836
 21
5412.136281726282
 31
0.0
  0
CIRCLE
  5
13F97
330
747D
100
AcDbEntity
  8
部品1
 48
5.0
100
AcDbCircle
 10
10226.40641346362
 20
5605.836281726284
 30
0.0
 40
8.4
  0
LINE
  5
13F98
330
747D
100
AcDbEntity
  8
細線
 48
50.0
100
AcDbLine
 10
10325.96666298116
 20
5412.136281726282
 30
0.0
 11
10335.12328806157
 21
5391.136281726282
 31
0.0
  0
LINE
  5
13F99
330
747D
100
AcDbEntity
  8
細線
 48
50.0
100
AcDbLine
 10
10157.96666298116
 20
5412.136281726282
 30
0.0
 11
10167.12328806157
 21
5391.136281726282
 31
0.0
  0
LINE
  5
13F9A
330
747D
100
AcDbEntity
  8
細線
 48
50.0
100
AcDbLine
 10
10241.96666298116
 20
5412.136281726282
 30
0.0
 11
10251.12328806157
 21
5391.136281726282
 31
0.0
  0
LINE
  5
13F9B
330
747D
100
AcDbEntity
  8
細線
 48
50.0
100
AcDbLine
 10
10303.38883776788
 20
5487.136281726282
 30
0.0
 11
10228.38883776788
 21
5412.136281726282
 31
0.0
  0
LINE
  5
13F9C
330
747D
100
AcDbEntity
  8
細線
 48
50.0
100
AcDbLine
 10
10321.20792865378
 20
5487.136281726282
 30
0.0
 11
10246.20792865378
 21
5412.136281726282
 31
0.0
  0
LINE
  5
13F9D
330
747D
100
AcDbEntity
  8
細線
 48
50.0
100
AcDbLine
 10
10339.02701953968
 20
5487.136281726282
 30
0.0
 11
10264.02701953968
 21
5412.136281726282
 31
0.0
  0
LINE
  5
13F9E
330
747D
100
AcDbEntity
  8
細線
 48
50.0
100
AcDbLine
 10
10472.54978838321
 20
5307.136281726282
 30
0.0
 11
10481.70641346362
 21
5286.136281726282
 31
0.0
  0
LINE
  5
13F9F
330
747D
100
AcDbEntity
  8
細線
 48
50.0
100
AcDbLine
 10
10304.54978838321
 20
5307.136281726282
 30
0.0
 11
10313.70641346362
 21
5286.136281726282
 31
0.0
  0
LINE
  5
13FA0
330
747D
100
AcDbEntity
  8
細線
 48
50.0
100
AcDbLine
 10
10220.54978838321
 20
5307.136281726282
 30
0.0
 11
10229.70641346362
 21
5286.136281726282
 31
0.0
  0
LINE
  5
13FA1
330
747D
100
AcDbEntity
  8
細線
 48
50.0
100
AcDbLine
 10
10388.54978838321
 20
5307.136281726282
 30
0.0
 11
10397.70641346362
 21
5286.136281726282
 31
0.0
  0
LINE
  5
13FA2
330
747D
100
AcDbEntity
  8
細線
 48
50.0
100
AcDbLine
 10
10212.90641346362
 20
5286.136281726282
 30
0.0
 11
10258.76666298116
 21
5412.136281726282
 31
0.0
  0
LINE
  5
13FA3
330
747D
100
AcDbEntity
  8
細線
 48
50.0
100
AcDbLine
 10
10296.90641346362
 20
5286.136281726282
 30
0.0
 11
10342.76666298116
 21
5412.136281726282
 31
0.0
  0
LINE
  5
13FA4
330
747D
100
AcDbEntity
  8
細線
 48
50.0
100
AcDbLine
 10
10380.90641346362
 20
5286.136281726282
 30
0.0
 11
10426.76666298116
 21
5412.136281726282
 31
0.0
  0
LINE
  5
13FA5
330
747D
100
AcDbEntity
  8
細線
 48
50.0
100
AcDbLine
 10
10464.90641346362
 20
5286.136281726282
 30
0.0
 11
10510.76666298116
 21
5412.136281726282
 31
0.0
  0
CIRCLE
  5
13FA6
330
747D
100
AcDbEntity
  8
部品1
 48
5.0
100
AcDbCircle
 10
10010.40641346362
 20
5605.836281726284
 30
0.0
 40
8.4
  0
LINE
  5
13FA7
330
747D
100
AcDbEntity
  8
細線
 48
50.0
100
AcDbLine
 10
10073.96666298116
 20
5412.136281726282
 30
0.0
 11
10083.12328806157
 21
5391.136281726282
 31
0.0
  0
LINE
  5
13FA8
330
747D
100
AcDbEntity
  8
細線
 48
50.0
100
AcDbLine
 10
9905.96666298116
 20
5412.136281726282
 30
0.0
 11
9915.12328806157
 21
5391.136281726282
 31
0.0
  0
LINE
  5
13FA9
330
747D
100
AcDbEntity
  8
細線
 48
50.0
100
AcDbLine
 10
9989.96666298116
 20
5412.136281726282
 30
0.0
 11
9999.12328806157
 21
5391.136281726282
 31
0.0
  0
LINE
  5
13FAA
330
747D
100
AcDbEntity
  8
細線
 48
50.0
100
AcDbLine
 10
10083.62005017511
 20
5487.136281726282
 30
0.0
 11
10008.6200501751
 21
5412.136281726282
 31
0.0
  0
LINE
  5
13FAB
330
747D
100
AcDbEntity
  8
細線
 48
50.0
100
AcDbLine
 10
10065.8009592892
 20
5487.136281726282
 30
0.0
 11
9990.800959289202
 21
5412.136281726282
 31
0.0
  0
LINE
  5
13FAC
330
747D
100
AcDbEntity
  8
細線
 48
50.0
100
AcDbLine
 10
10101.439141061
 20
5487.136281726282
 30
0.0
 11
10026.439141061
 21
5412.136281726282
 31
0.0
  0
CIRCLE
  5
13FAD
330
747D
100
AcDbEntity
  8
部品1
 48
5.0
100
AcDbCircle
 10
9794.406413463626
 20
5605.836281726284
 30
0.0
 40
8.4
  0
LINE
  5
13FAE
330
747D
100
AcDbEntity
  8
部品1
 48
50.0
100
AcDbLine
 10
9770.78141346362
 20
5580.636281726284
 30
0.0
 11
9770.78141346362
 21
5597.436281726283
 31
0.0
  0
LINE
  5
13FAF
330
747D
100
AcDbEntity
  8
細線
 48
50.0
100
AcDbLine
 10
9821.966662981161
 20
5412.136281726282
 30
0.0
 11
9831.12328806157
 21
5391.136281726282
 31
0.0
  0
LINE
  5
13FB0
330
747D
100
AcDbEntity
  8
細線
 48
50.0
100
AcDbLine
 10
9863.851262582327
 20
5487.136281726282
 30
0.0
 11
9788.85126258233
 21
5412.136281726282
 31
0.0
  0
LINE
  5
13FB1
330
747D
100
AcDbEntity
  8
細線
 48
50.0
100
AcDbLine
 10
9737.966662981159
 20
5412.136281726282
 30
0.0
 11
9747.123288061571
 21
5391.136281726282
 31
0.0
  0
LINE
  5
13FB2
330
747D
100
AcDbEntity
  8
細線
 48
50.0
100
AcDbLine
 10
9828.213080810527
 20
5487.136281726282
 30
0.0
 11
9753.213080810526
 21
5412.136281726282
 31
0.0
  0
LINE
  5
13FB3
330
747D
100
AcDbEntity
  8
細線
 48
50.0
100
AcDbLine
 10
9846.032171696432
 20
5487.136281726282
 30
0.0
 11
9771.032171696431
 21
5412.136281726282
 31
0.0
  0
LINE
  5
13FB4
330
747D
100
AcDbEntity
  8
細線
 48
50.0
100
AcDbLine
 10
10052.54978838321
 20
5307.136281726282
 30
0.0
 11
10061.70641346362
 21
5286.136281726282
 31
0.0
  0
LINE
  5
13FB5
330
747D
100
AcDbEntity
  8
細線
 48
50.0
100
AcDbLine
 10
10136.54978838321
 20
5307.136281726282
 30
0.0
 11
10145.70641346362
 21
5286.136281726282
 31
0.0
  0
LINE
  5
13FB6
330
747D
100
AcDbEntity
  8
細線
 48
50.0
100
AcDbLine
 10
9968.549788383214
 20
5307.136281726282
 30
0.0
 11
9977.706413463621
 21
5286.136281726282
 31
0.0
  0
LINE
  5
13FB7
330
747D
100
AcDbEntity
  8
細線
 48
50.0
100
AcDbLine
 10
9800.549788383213
 20
5307.136281726282
 30
0.0
 11
9809.706413463622
 21
5286.136281726282
 31
0.0
  0
LINE
  5
13FB8
330
747D
100
AcDbEntity
  8
細線
 48
50.0
100
AcDbLine
 10
9884.549788383212
 20
5307.136281726282
 30
0.0
 11
9893.706413463622
 21
5286.136281726282
 31
0.0
  0
LINE
  5
13FB9
330
747D
100
AcDbEntity
  8
細線
 48
50.0
100
AcDbLine
 10
9716.549788383213
 20
5307.136281726282
 30
0.0
 11
9725.706413463623
 21
5286.136281726282
 31
0.0
  0
LINE
  5
13FBA
330
747D
100
AcDbEntity
  8
細線
 48
50.0
100
AcDbLine
 10
9960.906413463623
 20
5286.136281726282
 30
0.0
 11
10006.76666298116
 21
5412.136281726282
 31
0.0
  0
LINE
  5
13FBB
330
747D
100
AcDbEntity
  8
細線
 48
50.0
100
AcDbLine
 10
9792.906413463624
 20
5286.136281726282
 30
0.0
 11
9838.766662981164
 21
5412.136281726282
 31
0.0
  0
LINE
  5
13FBC
330
747D
100
AcDbEntity
  8
細線
 48
50.0
100
AcDbLine
 10
9876.906413463622
 20
5286.136281726282
 30
0.0
 11
9922.766662981164
 21
5412.136281726282
 31
0.0
  0
LINE
  5
13FBD
330
747D
100
AcDbEntity
  8
細線
 48
50.0
100
AcDbLine
 10
10044.90641346362
 20
5286.136281726282
 30
0.0
 11
10090.76666298116
 21
5412.136281726282
 31
0.0
  0
LINE
  5
13FBE
330
747D
100
AcDbEntity
  8
細線
 48
50.0
100
AcDbLine
 10
9708.906413463623
 20
5286.136281726282
 30
0.0
 11
9754.766662981163
 21
5412.136281726282
 31
0.0
  0
LINE
  5
13FBF
330
747D
100
AcDbEntity
  8
細線
 48
50.0
100
AcDbLine
 10
10128.90641346362
 20
5286.136281726282
 30
0.0
 11
10174.76666298116
 21
5412.136281726282
 31
0.0
  0
LINE
  5
13FC0
330
747D
100
AcDbEntity
  8
部品1
 48
50.0
100
AcDbLine
 10
9770.78141346362
 20
5597.436281726283
 30
0.0
 11
10466.03141346362
 21
5597.436281726285
 31
0.0
  0
LINE
  5
13FC1
330
747D
100
AcDbEntity
  8
部品1
 48
50.0
100
AcDbLine
 10
9770.78141346362
 20
5580.636281726281
 30
0.0
 11
10466.03141346362
 21
5580.636281726284
 31
0.0
  0
LINE
  5
13FC2
330
747D
100
AcDbEntity
  8
部品1
 48
50.0
100
AcDbLine
 10
10643.40641346362
 20
5487.136281726282
 30
0.0
 11
10643.40641346363
 21
6236.583134908798
 31
0.0
  0
LINE
  5
13FC3
330
747D
100
AcDbEntity
  8
部品1
 48
50.0
100
AcDbLine
 10
9593.406413463622
 20
6236.5831349088
 30
0.0
 11
9593.406413463622
 21
5487.136281726282
 31
0.0
  0
LINE
  5
13FC4
330
747D
100
AcDbEntity
  8
細線
 48
50.0
100
AcDbLine
 10
10643.40641346362
 20
5615.176165544224
 30
0.0
 11
10277.40641346362
 21
5981.176165544218
 31
0.0
  0
LINE
  5
13FC5
330
747D
100
AcDbEntity
  8
細線
 48
50.0
100
AcDbLine
 10
10643.40641346362
 20
5632.995256430115
 30
0.0
 11
10277.40641346362
 21
5998.995256430116
 31
0.0
  0
LINE
  5
13FC6
330
747D
100
AcDbEntity
  8
細線
 48
50.0
100
AcDbLine
 10
10643.40641346362
 20
5650.814347316003
 30
0.0
 11
10277.40641346362
 21
6016.814347316019
 31
0.0
  0
LINE
  5
13FC7
330
747D
100
AcDbEntity
  8
細線
 48
50.0
100
AcDbLine
 10
10331.90872209597
 20
5487.136281726282
 30
0.0
 11
10238.40872209597
 21
5580.636281726282
 31
0.0
  0
LINE
  5
13FC8
330
747D
100
AcDbEntity
  8
細線
 48
50.0
100
AcDbLine
 10
10569.49660057468
 20
5487.136281726282
 30
0.0
 11
10466.03141346362
 21
5590.601468837339
 31
0.0
  0
LINE
  5
13FC9
330
747D
100
AcDbEntity
  8
細線
 48
50.0
100
AcDbLine
 10
10551.67750968878
 20
5487.136281726282
 30
0.0
 11
10458.17750968877
 21
5580.636281726284
 31
0.0
  0
LINE
  5
13FCA
330
747D
100
AcDbEntity
  8
細線
 48
50.0
100
AcDbLine
 10
10533.85841880287
 20
5487.136281726282
 30
0.0
 11
10440.35841880287
 21
5580.636281726284
 31
0.0
  0
LINE
  5
13FCB
330
747D
100
AcDbEntity
  8
細線
 48
50.0
100
AcDbLine
 10
10314.08963121009
 20
5487.136281726282
 30
0.0
 11
10220.58963121009
 21
5580.636281726282
 31
0.0
  0
LINE
  5
13FCC
330
747D
100
AcDbEntity
  8
細線
 48
50.0
100
AcDbLine
 10
10296.27054032418
 20
5487.136281726282
 30
0.0
 11
10202.77054032419
 21
5580.636281726282
 31
0.0
  0
LINE
  5
13FCD
330
747D
100
AcDbEntity
  8
細線
 48
50.0
100
AcDbLine
 10
10094.32084361729
 20
5487.136281726282
 30
0.0
 11
10000.82084361729
 21
5580.636281726281
 31
0.0
  0
LINE
  5
13FCE
330
747D
100
AcDbEntity
  8
細線
 48
50.0
100
AcDbLine
 10
10076.50175273142
 20
5487.136281726282
 30
0.0
 11
9983.001752731421
 21
5580.636281726281
 31
0.0
  0
LINE
  5
13FCF
330
747D
100
AcDbEntity
  8
細線
 48
50.0
100
AcDbLine
 10
10058.68266184551
 20
5487.136281726282
 30
0.0
 11
9965.182661845513
 21
5580.636281726281
 31
0.0
  0
DIMENSION
  5
13FD0
330
747D
100
AcDbEntity
  8
寸法
 48
50.0
100
AcDbDimension
  2
*D73
 10
11303.11501379479
 20
6086.5831349088
 30
0.0
 11
11303.11501379478
 21
6199.0831349088
 31
0.0
 70
   160
 71
     5
 42
150.0000000075
  3
INABA_S30G詳細用20
100
AcDbAlignedDimension
 13
10997.59463224554
 23
6311.583134908801
 33
0.0
 14
11038.10297188808
 24
6086.5831349088
 34
0.0
 50
90.0
100
AcDbRotatedDimension
  0
LINE
  5
13FD1
330
747D
100
AcDbEntity
  8
細線
 48
50.0
100
AcDbLine
 10
10718.67112784123
 20
6086.5831349088
 30
0.0
 11
10773.26666298116
 21
6236.583134908798
 31
0.0
  0
LINE
  5
13FD2
330
747D
100
AcDbEntity
  8
部品1
 48
50.0
100
AcDbLine
 10
9593.406413463622
 20
6086.583134908798
 30
0.0
 11
9959.40641346362
 21
6086.583134908799
 31
0.0
  0
LINE
  5
13FD3
330
747D
100
AcDbEntity
  8
部品1
 48
50.0
100
AcDbLine
 10
10643.40641346363
 20
6236.583134908798
 30
0.0
 11
10831.60920135326
 21
6236.583134908798
 31
0.0
  0
LINE
  5
13FD4
330
747D
100
AcDbEntity
  8
部品1
 48
50.0
100
AcDbLine
 10
10220.40641346362
 20
6386.583134908798
 30
0.0
 11
10831.60920135326
 21
6386.583134908798
 31
0.0
  0
LINE
  5
13FD5
330
747D
100
AcDbEntity
  8
文字
 48
50.0
100
AcDbLine
 10
10775.48734154692
 20
6451.924215583384
 30
0.0
 11
10196.99024364296
 21
6451.924215583384
 31
0.0
  0
LINE
  5
13FD6
330
747D
100
AcDbEntity
  8
細線
 48
50.0
100
AcDbLine
 10
10555.04944282361
 20
6086.583134908801
 30
0.0
 11
10643.40641346363
 21
6174.94010554882
 31
0.0
  0
LINE
  5
13FD7
330
747D
100
AcDbEntity
  8
細線
 48
50.0
100
AcDbLine
 10
10572.8685337095
 20
6086.583134908801
 30
0.0
 11
10643.40641346362
 21
6157.12101466292
 31
0.0
  0
LINE
  5
13FD8
330
747D
100
AcDbEntity
  8
細線
 48
50.0
100
AcDbLine
 10
10590.6876245954
 20
6086.5831349088
 30
0.0
 11
10643.40641346362
 21
6139.30192377702
 31
0.0
  0
LINE
  5
13FD9
330
747D
100
AcDbEntity
  8
センター
 48
10.0
100
AcDbLine
 10
10118.40641346362
 20
6652.958453271509
 30
0.0
 11
10118.40641346362
 21
6042.281503553829
 31
0.0
  0
DIMENSION
  5
13FDA
330
747D
100
AcDbEntity
  8
寸法
 48
50.0
100
AcDbDimension
  2
*D74
 10
11303.11501379478
 20
6311.583134908801
 30
0.0
 11
11303.11501379478
 21
6595.44709593948
 31
0.0
 70
   160
 71
     5
 42
50.00000000249879
  3
INABA_S30G詳細用20
100
AcDbAlignedDimension
 13
10855.60920135326
 23
6386.583134908798
 33
0.0
 14
10997.59463224554
 24
6311.583134908801
 34
0.0
 50
90.0
100
AcDbRotatedDimension
  0
TEXT
  5
13FDB
330
747D
100
AcDbEntity
  8
文字
 48
50.0
100
AcDbText
 10
9678.057373113936
 20
6507.497000863212
 30
0.0
 40
72.0
  1
１／１００
 41
0.8
  7
STYLE1
100
AcDbText
  0
TEXT
  5
13FDC
330
747D
100
AcDbEntity
  8
文字
 48
50.0
100
AcDbText
 10
10248.03606863595
 20
6507.497000863212
 30
0.0
 40
72.0
  1
１／１００
 41
0.8
  7
STYLE1
100
AcDbText
  0
LINE
  5
13FDD
330
747D
100
AcDbEntity
  8
部品1
 48
10.0
100
AcDbLine
 10
10178.40641346362
 20
6595.634086671278
 30
0.0
 11
10178.40641346362
 21
6149.583134908798
 31
0.0
  0
LINE
  5
13FDE
330
747D
100
AcDbEntity
  8
部品1
 48
10.0
100
AcDbLine
 10
10058.40641346362
 20
6595.634086671278
 30
0.0
 11
10058.40641346362
 21
6149.583134908798
 31
0.0
  0
LINE
  5
13FDF
330
747D
100
AcDbEntity
  8
文字
 48
50.0
100
AcDbLine
 10
9461.325485380314
 20
6451.924215583384
 30
0.0
 11
9529.97670324545
 21
6433.529177197009
 31
0.0
  0
LINE
  5
13FE0
330
747D
100
AcDbEntity
  8
文字
 48
50.0
100
AcDbLine
 10
9461.325485380314
 20
6451.924215583384
 30
0.0
 11
9529.97670324545
 21
6470.319253969761
 31
0.0
  0
LINE
  5
13FE1
330
747D
100
AcDbEntity
  8
細線
 48
50.0
100
AcDbLine
 10
9434.263875091517
 20
6236.583134908798
 30
0.0
 11
9443.420500171928
 21
6215.583134908801
 31
0.0
  0
LINE
  5
13FE2
330
747D
100
AcDbEntity
  8
細線
 48
50.0
100
AcDbLine
 10
9518.263875091518
 20
6236.583134908798
 30
0.0
 11
9527.420500171928
 21
6215.583134908801
 31
0.0
  0
LINE
  5
13FE3
330
747D
100
AcDbEntity
  8
細線
 48
50.0
100
AcDbLine
 10
9350.263875091519
 20
6236.583134908798
 30
0.0
 11
9359.420500171927
 21
6215.583134908798
 31
0.0
  0
LINE
  5
13FE4
330
747D
100
AcDbEntity
  8
細線
 48
50.0
100
AcDbLine
 10
9320.264123092657
 20
6246.737207571268
 30
0.0
 11
9460.110050430191
 21
6386.583134908798
 31
0.0
  0
LINE
  5
13FE5
330
747D
100
AcDbEntity
  8
細線
 48
50.0
100
AcDbLine
 10
9327.929141316086
 20
6236.583134908801
 30
0.0
 11
9477.929141316085
 21
6386.583134908798
 31
0.0
  0
LINE
  5
13FE6
330
747D
100
AcDbEntity
  8
細線
 48
50.0
100
AcDbLine
 10
9345.748232201989
 20
6236.583134908801
 30
0.0
 11
9495.748232201988
 21
6386.583134908798
 31
0.0
  0
LINE
  5
13FE7
330
747D
100
AcDbEntity
  8
細線
 48
50.0
100
AcDbLine
 10
9488.011766089725
 20
6107.308527888647
 30
0.0
 11
9497.048654335468
 21
6086.5831349088
 31
0.0
  0
LINE
  5
13FE8
330
747D
100
AcDbEntity
  8
細線
 48
50.0
100
AcDbLine
 10
9404.011766089725
 20
6107.308527888647
 30
0.0
 11
9413.048654335469
 21
6086.5831349088
 31
0.0
  0
LINE
  5
13FE9
330
747D
100
AcDbEntity
  8
細線
 48
50.0
100
AcDbLine
 10
9320.264123092654
 20
6108.001873055842
 30
0.0
 11
9367.06387509152
 21
6236.583134908798
 31
0.0
  0
LINE
  5
13FEA
330
747D
100
AcDbEntity
  8
細線
 48
50.0
100
AcDbLine
 10
9480.46833995159
 20
6086.5831349088
 30
0.0
 11
9535.063875091521
 21
6236.583134908798
 31
0.0
  0
LINE
  5
13FEB
330
747D
100
AcDbEntity
  8
細線
 48
50.0
100
AcDbLine
 10
9396.46833995159
 20
6086.5831349088
 30
0.0
 11
9451.06387509152
 21
6236.583134908798
 31
0.0
  0
DIMENSION
  5
13FEC
330
747D
100
AcDbEntity
  8
寸法
 48
50.0
100
AcDbDimension
  2
*D75
 10
8841.895577385185
 20
6086.5831349088
 30
0.0
 11
8841.895577385184
 21
5909.547701837933
 31
0.0
 70
   160
 71
     5
 42
100.000000005
  3
INABA_S30G詳細用20
100
AcDbAlignedDimension
 13
9320.264123092657
 23
6236.583134908801
 33
0.0
 14
9320.264123092657
 24
6086.5831349088
 34
0.0
 50
90.0
100
AcDbRotatedDimension
  0
LINE
  5
13FED
330
747D
100
AcDbEntity
  8
部品1
 48
50.0
100
AcDbLine
 10
9473.406413463619
 20
5487.136281726282
 30
0.0
 11
9473.406413463621
 21
5286.136281726282
 31
0.0
  0
DIMENSION
  5
13FEE
330
747D
100
AcDbEntity
  8
寸法
 48
50.0
100
AcDbDimension
  2
*D76
 10
8841.895577385185
 20
6236.583134908798
 30
0.0
 11
8841.895577385184
 21
6589.884162411124
 31
0.0
 70
   160
 71
     5
 42
100.000000005
  3
INABA_S30G詳細用20
100
AcDbAlignedDimension
 13
9320.264123092659
 23
6386.583134908798
 33
0.0
 14
9310.022115920874
 24
6236.583134908798
 34
0.0
 50
90.0
100
AcDbRotatedDimension
  0
LINE
  5
13FEF
330
747D
100
AcDbEntity
  8
部品1
 48
50.0
100
AcDbLine
 10
9593.406413463622
 20
6086.583134908799
 30
0.0
 11
9320.264123092657
 21
6086.5831349088
 31
0.0
  0
LINE
  5
13FF0
330
747D
100
AcDbEntity
  8
部品1
 48
50.0
100
AcDbLine
 10
9473.406413463621
 20
5286.136281726282
 30
0.0
 11
10763.40641346362
 21
5286.136281726282
 31
0.0
  0
LINE
  5
13FF1
330
747D
100
AcDbEntity
  8
部品1
 48
50.0
100
AcDbLine
 10
9473.406413463621
 20
5412.136281726282
 30
0.0
 11
10763.40641346362
 21
5412.136281726282
 31
0.0
  0
LINE
  5
13FF2
330
747D
100
AcDbEntity
  8
部品1
 48
50.0
100
AcDbLine
 10
9473.406413463619
 20
5487.136281726282
 30
0.0
 11
10763.40641346362
 21
5487.136281726282
 31
0.0
  0
LINE
  5
13FF3
330
747D
100
AcDbEntity
  8
文字
 48
50.0
100
AcDbLine
 10
9461.325485380314
 20
6451.924215583384
 30
0.0
 11
10039.82258328428
 21
6451.924215583384
 31
0.0
  0
LINE
  5
13FF4
330
747D
100
AcDbEntity
  8
細線
 48
50.0
100
AcDbLine
 10
9593.406413463624
 20
6201.291619463556
 30
0.0
 11
9778.697928908876
 21
6386.583134908798
 31
0.0
  0
LINE
  5
13FF5
330
747D
100
AcDbEntity
  8
部品1
 48
50.0
100
AcDbLine
 10
9320.264123092659
 20
6386.583134908798
 30
0.0
 11
10016.40641346362
 21
6386.583134908798
 31
0.0
  0
LINE
  5
13FF6
330
747D
100
AcDbEntity
  8
部品1
 48
50.0
100
AcDbLine
 10
9320.264123092657
 20
6236.583134908801
 30
0.0
 11
9593.406413463622
 21
6236.5831349088
 31
0.0
  0
LEADER
  5
13FF7
330
747D
100
AcDbEntity
  8
寸法
 48
5.0
100
AcDbLeader
  3
INABA_S30G詳細用20
 71
     0
 73
     0
 75
     1
 40
91.25178566873406
 41
703.4999999999999
 76
     3
 10
9794.406413463626
 20
5605.836281726284
 30
0.0
 10
9453.672297598256
 20
5436.480831932064
 30
0.0
 10
9378.672297598255
 20
5436.480831932064
 30
0.0
  0
MTEXT
  5
13FF8
102
{ACAD_REACTORS
330
13FF7
102
}
330
747D
100
AcDbEntity
  8
部品1
 62
     7
 48
5.0
100
AcDbMText
 10
9378.672297598255
 20
5507.350744478504
 30
0.0
 40
90.0
 41
0.0
 71
     6
 72
     1
  1
\A1;4-D10両方向共
  7
STYLE1
 73
     1
 44
1.0
1001
ACAD
1000
MTEXTBEGIN
1070
    73
1070
     1
1070
    44
1040
1.0
1070
    74
1070
     0
1000
MTEXTEND
  0
LINE
  5
13FF9
330
747D
100
AcDbEntity
  8
Ｇ．Ｌ
 48
50.0
100
AcDbLine
 10
10997.59463224554
 20
6311.583134908801
 30
0.0
 11
11780.77953877087
 21
6311.583134908798
 31
0.0
  0
MTEXT
  5
13FFA
330
747D
100
AcDbEntity
  8
寸法
 62
     7
 48
50.0
100
AcDbMText
 10
11443.67272194876
 20
6377.748419647373
 30
0.0
 40
90.0
 41
1.0
 71
     4
 72
     1
  1
▽G.L
  7
STYLE2
 73
     1
 44
1.0
1001
ACAD
1000
MTEXTBEGIN
1070
    73
1070
     1
1070
    44
1040
1.0
1070
    74
1070
     0
1000
MTEXTEND
  0
DIMENSION
  5
13FFB
330
747D
100
AcDbEntity
  8
寸法
 48
50.0
100
AcDbDimension
  2
*D77
 10
10643.40641346362
 20
4866.188069236653
 30
0.0
 11
10118.40641346362
 21
4941.188069236652
 31
0.0
 70
    32
 71
     5
 42
700.000000035
  3
INABA_S30G詳細用20
100
AcDbAlignedDimension
 13
9593.406413463622
 23
5286.136281726282
 33
0.0
 14
10643.40641346362
 24
5286.136281726282
 34
0.0
100
AcDbRotatedDimension
  0
LINE
  5
13FFC
330
747D
100
AcDbEntity
  8
細線
 48
50.0
100
AcDbLine
 10
10716.90641346362
 20
5286.136281726282
 30
0.0
 11
10762.76666298116
 21
5412.136281726282
 31
0.0
  0
LINE
  5
13FFD
330
747D
100
AcDbEntity
  8
細線
 48
50.0
100
AcDbLine
 10
10632.90641346362
 20
5286.136281726282
 30
0.0
 11
10678.76666298116
 21
5412.136281726282
 31
0.0
  0
LINE
  5
13FFE
330
747D
100
AcDbEntity
  8
細線
 48
50.0
100
AcDbLine
 10
10640.54978838321
 20
5307.136281726282
 30
0.0
 11
10649.70641346362
 21
5286.136281726282
 31
0.0
  0
LINE
  5
13FFF
330
747D
100
AcDbEntity
  8
細線
 48
50.0
100
AcDbLine
 10
10556.54978838321
 20
5307.136281726282
 30
0.0
 11
10565.70641346362
 21
5286.136281726282
 31
0.0
  0
LINE
  5
14000
330
747D
100
AcDbEntity
  8
細線
 48
50.0
100
AcDbLine
 10
10724.54978838321
 20
5307.136281726282
 30
0.0
 11
10733.70641346362
 21
5286.136281726282
 31
0.0
  0
LINE
  5
14001
330
747D
100
AcDbEntity
  8
細線
 48
50.0
100
AcDbLine
 10
10577.96666298116
 20
5412.136281726282
 30
0.0
 11
10587.12328806157
 21
5391.136281726282
 31
0.0
  0
LINE
  5
14002
330
747D
100
AcDbEntity
  8
細線
 48
50.0
100
AcDbLine
 10
10745.96666298116
 20
5412.136281726282
 30
0.0
 11
10755.12328806157
 21
5391.136281726282
 31
0.0
  0
LINE
  5
14003
330
747D
100
AcDbEntity
  8
細線
 48
50.0
100
AcDbLine
 10
10661.96666298116
 20
5412.136281726282
 30
0.0
 11
10671.12328806157
 21
5391.136281726282
 31
0.0
  0
LINE
  5
14004
330
747D
100
AcDbEntity
  8
細線
 48
50.0
100
AcDbLine
 10
10548.90641346362
 20
5286.136281726282
 30
0.0
 11
10594.76666298116
 21
5412.136281726282
 31
0.0
  0
LINE
  5
14005
330
747D
100
AcDbEntity
  8
細線
 48
50.0
100
AcDbLine
 10
9540.906413463622
 20
5286.136281726282
 30
0.0
 11
9586.766662981164
 21
5412.136281726282
 31
0.0
  0
LINE
  5
14006
330
747D
100
AcDbEntity
  8
細線
 48
50.0
100
AcDbLine
 10
9624.906413463623
 20
5286.136281726282
 30
0.0
 11
9670.766662981163
 21
5412.136281726282
 31
0.0
  0
LINE
  5
14007
330
747D
100
AcDbEntity
  8
細線
 48
50.0
100
AcDbLine
 10
9548.549788383212
 20
5307.136281726282
 30
0.0
 11
9557.706413463622
 21
5286.136281726282
 31
0.0
  0
LINE
  5
14008
330
747D
100
AcDbEntity
  8
細線
 48
50.0
100
AcDbLine
 10
9632.549788383213
 20
5307.136281726282
 30
0.0
 11
9641.706413463623
 21
5286.136281726282
 31
0.0
  0
LINE
  5
14009
330
747D
100
AcDbEntity
  8
細線
 48
50.0
100
AcDbLine
 10
9485.96666298116
 20
5412.136281726282
 30
0.0
 11
9495.12328806157
 21
5391.136281726282
 31
0.0
  0
LINE
  5
1400A
330
747D
100
AcDbEntity
  8
細線
 48
50.0
100
AcDbLine
 10
9653.966662981162
 20
5412.136281726282
 30
0.0
 11
9663.123288061569
 21
5391.136281726282
 31
0.0
  0
LINE
  5
1400B
330
747D
100
AcDbEntity
  8
細線
 48
50.0
100
AcDbLine
 10
9569.96666298116
 20
5412.136281726282
 30
0.0
 11
9579.12328806157
 21
5391.136281726282
 31
0.0
  0
LINE
  5
1400C
330
747D
100
AcDbEntity
  8
細線
 48
50.0
100
AcDbLine
 10
9473.406413463621
 20
5286.824308149191
 30
0.0
 11
9473.706413463622
 21
5286.136281726282
 31
0.0
  0
LINE
  5
1400D
330
747D
100
AcDbEntity
  8
細線
 48
50.0
100
AcDbLine
 10
9473.406413463619
 20
5331.469659147276
 30
0.0
 11
9502.766662981164
 21
5412.136281726282
 31
0.0
  0
LINE
  5
1400E
330
747D
100
AcDbEntity
  8
細線
 48
50.0
100
AcDbLine
 10
10763.40641346362
 20
5436.339918692869
 30
0.0
 11
10739.20277649703
 21
5412.136281726282
 31
0.0
  0
LINE
  5
1400F
330
747D
100
AcDbEntity
  8
細線
 48
50.0
100
AcDbLine
 10
10763.40641346362
 20
5454.159009578765
 30
0.0
 11
10721.38368561113
 21
5412.136281726282
 31
0.0
  0
LINE
  5
14010
330
747D
100
AcDbEntity
  8
細線
 48
50.0
100
AcDbLine
 10
10763.40641346362
 20
5471.978100464668
 30
0.0
 11
10703.56459472523
 21
5412.136281726282
 31
0.0
  0
LINE
  5
14011
330
747D
100
AcDbEntity
  8
細線
 48
50.0
100
AcDbLine
 10
9608.444293217754
 20
5487.136281726282
 30
0.0
 11
9533.444293217753
 21
5412.136281726282
 31
0.0
  0
LINE
  5
14012
330
747D
100
AcDbEntity
  8
細線
 48
50.0
100
AcDbLine
 10
9590.625202331848
 20
5487.136281726282
 30
0.0
 11
9515.625202331849
 21
5412.136281726282
 31
0.0
  0
LINE
  5
14013
330
747D
100
AcDbEntity
  8
細線
 48
50.0
100
AcDbLine
 10
9626.263384103648
 20
5487.136281726282
 30
0.0
 11
9551.263384103652
 21
5412.136281726282
 31
0.0
  0
LINE
  5
14014
330
747D
100
AcDbEntity
  8
細線
 48
50.0
100
AcDbLine
 10
9320.264123092657
 20
6106.729766935234
 30
0.0
 11
9329.048654335469
 21
6086.5831349088
 31
0.0
  0
LINE
  5
14015
330
747D
100
AcDbEntity
  8
細線
 48
50.0
100
AcDbLine
 10
10643.40641346363
 20
6104.575091830111
 30
0.0
 11
10651.25144222512
 21
6086.5831349088
 31
0.0
  0
LINE
  5
14016
330
747D
100
AcDbEntity
  8
細線
 48
50.0
100
AcDbLine
 10
10726.21455397937
 20
6107.308527888647
 30
0.0
 11
10735.25144222512
 21
6086.5831349088
 31
0.0
  0
LINE
  5
14017
330
747D
100
AcDbEntity
  8
細線
 48
50.0
100
AcDbLine
 10
10810.21455397937
 20
6107.308527888647
 30
0.0
 11
10819.25144222512
 21
6086.5831349088
 31
0.0
  0
LINE
  5
14018
330
747D
100
AcDbEntity
  8
細線
 48
50.0
100
AcDbLine
 10
10894.21455397937
 20
6107.308527888647
 30
0.0
 11
10903.25144222511
 21
6086.5831349088
 31
0.0
  0
LINE
  5
14019
330
747D
100
AcDbEntity
  8
細線
 48
50.0
100
AcDbLine
 10
10978.21455397937
 20
6107.308527888647
 30
0.0
 11
10987.2514422251
 21
6086.5831349088
 31
0.0
  0
LINE
  5
1401A
330
747D
100
AcDbEntity
  8
細線
 48
50.0
100
AcDbLine
 10
9821.094783366826
 20
5487.136281726282
 30
0.0
 11
9593.406413463622
 21
5714.824651629488
 31
0.0
  0
LINE
  5
1401B
330
747D
100
AcDbEntity
  8
細線
 48
50.0
100
AcDbLine
 10
9838.913874252737
 20
5487.136281726282
 30
0.0
 11
9593.406413463618
 21
5732.643742515391
 31
0.0
  0
LINE
  5
1401C
330
747D
100
AcDbEntity
  8
細線
 48
50.0
100
AcDbLine
 10
9856.732965138606
 20
5487.136281726282
 30
0.0
 11
9593.406413463618
 21
5750.462833401283
 31
0.0
  0
LINE
  5
1401D
330
747D
100
AcDbEntity
  8
細線
 48
50.0
100
AcDbLine
 10
10221.60872209597
 20
5597.436281726285
 30
0.0
 11
9977.406413463617
 21
5841.638590358644
 31
0.0
  0
LINE
  5
1401E
330
747D
100
AcDbEntity
  8
細線
 48
50.0
100
AcDbLine
 10
10203.78963121008
 20
5597.436281726284
 30
0.0
 11
9977.406413463619
 21
5823.81949947275
 31
0.0
  0
LINE
  5
1401F
330
747D
100
AcDbEntity
  8
細線
 48
50.0
100
AcDbLine
 10
10185.97054032418
 20
5597.436281726285
 30
0.0
 11
9977.406413463619
 21
5806.000408586857
 31
0.0
  0
LINE
  5
14020
330
747D
100
AcDbEntity
  8
細線
 48
50.0
100
AcDbLine
 10
10442.3966062997
 20
5614.236276001254
 30
0.0
 11
10277.40641346362
 21
5779.226468837333
 31
0.0
  0
LINE
  5
14021
330
747D
100
AcDbEntity
  8
細線
 48
50.0
100
AcDbLine
 10
10434.07893744105
 20
5604.734853974007
 30
0.0
 11
10277.40641346362
 21
5761.407377951439
 31
0.0
  0
LINE
  5
14022
330
747D
100
AcDbEntity
  8
細線
 48
50.0
100
AcDbLine
 10
10441.37750968877
 20
5597.436281726285
 30
0.0
 11
10441.30498571135
 21
5597.508805703712
 31
0.0
  0
LINE
  5
14023
330
747D
100
AcDbEntity
  8
細線
 48
50.0
100
AcDbLine
 10
10459.19660057467
 20
5597.436281726285
 30
0.0
 11
10450.80640773859
 21
5605.826474562363
 31
0.0
  0
LINE
  5
14024
330
747D
100
AcDbEntity
  8
細線
 48
50.0
100
AcDbLine
 10
10423.55841880287
 20
5597.436281726285
 30
0.0
 11
10277.40641346362
 21
5743.588287065534
 31
0.0
  0
LINE
  5
14025
330
747D
100
AcDbEntity
  8
細線
 48
50.0
100
AcDbLine
 10
9984.020843617299
 20
5597.436281726284
 30
0.0
 11
9922.373990434827
 21
5659.083134908758
 31
0.0
  0
LINE
  5
14026
330
747D
100
AcDbEntity
  8
細線
 48
50.0
100
AcDbLine
 10
9948.382661845512
 20
5597.436281726283
 30
0.0
 11
9593.406413463622
 21
5952.412530108177
 31
0.0
  0
LINE
  5
14027
330
747D
100
AcDbEntity
  8
細線
 48
50.0
100
AcDbLine
 10
9966.20175273142
 20
5597.436281726284
 30
0.0
 11
9904.554899548942
 21
5659.083134908754
 31
0.0
  0
LINE
  5
14028
330
747D
100
AcDbEntity
  8
細線
 48
50.0
100
AcDbLine
 10
9966.201752731414
 20
2316.455748320805
 30
0.0
 11
9593.406413463615
 21
2689.251087588595
 31
0.0
  0
LINE
  5
14029
330
747D
100
AcDbEntity
  8
細線
 48
50.0
100
AcDbLine
 10
9948.382661845506
 20
2316.455748320805
 30
0.0
 11
9593.406413463616
 21
2671.4319967027
 31
0.0
  0
LINE
  5
1402A
330
747D
100
AcDbEntity
  8
細線
 48
50.0
100
AcDbLine
 10
9984.020843617294
 20
2316.455748320805
 30
0.0
 11
9593.406413463615
 21
2707.070178474503
 31
0.0
  0
LINE
  5
1402B
330
747D
100
AcDbEntity
  8
細線
 48
50.0
100
AcDbLine
 10
10203.78963121008
 20
2316.455748320805
 30
0.0
 11
10164.58963121008
 21
2355.655748320804
 31
0.0
  0
LINE
  5
1402C
330
747D
100
AcDbEntity
  8
細線
 48
50.0
100
AcDbLine
 10
10221.60872209597
 20
2316.455748320807
 30
0.0
 11
10178.40641346361
 21
2359.658056953162
 31
0.0
  0
LINE
  5
1402D
330
747D
100
AcDbEntity
  8
細線
 48
50.0
100
AcDbLine
 10
10185.97054032418
 20
2316.455748320805
 30
0.0
 11
10146.77054032418
 21
2355.655748320804
 31
0.0
  0
LINE
  5
1402E
330
747D
100
AcDbEntity
  8
細線
 48
50.0
100
AcDbLine
 10
10423.55841880286
 20
2316.455748320807
 30
0.0
 11
10178.40641346361
 21
2561.607753660054
 31
0.0
  0
LINE
  5
1402F
330
747D
100
AcDbEntity
  8
細線
 48
50.0
100
AcDbLine
 10
10459.19660057466
 20
2316.455748320807
 30
0.0
 11
10450.80640773859
 21
2324.845941156885
 31
0.0
  0
LINE
  5
14030
330
747D
100
AcDbEntity
  8
細線
 48
50.0
100
AcDbLine
 10
10441.37750968877
 20
2316.455748320807
 30
0.0
 11
10441.30498571134
 21
2316.528272298234
 31
0.0
  0
LINE
  5
14031
330
747D
100
AcDbEntity
  8
細線
 48
50.0
100
AcDbLine
 10
10434.07893744105
 20
2323.75432056853
 30
0.0
 11
10178.40641346361
 21
2579.426844545956
 31
0.0
  0
LINE
  5
14032
330
747D
100
AcDbEntity
  8
細線
 48
50.0
100
AcDbLine
 10
10442.3966062997
 20
2333.255742595777
 30
0.0
 11
10178.40641346361
 21
2597.245935431855
 31
0.0
  0
LINE
  5
14033
330
747D
100
AcDbEntity
  8
細線
 48
50.0
100
AcDbLine
 10
10058.40641346361
 20
2444.019875181377
 30
0.0
 11
9593.406413463616
 21
2909.019875181384
 31
0.0
  0
LINE
  5
14034
330
747D
100
AcDbEntity
  8
細線
 48
50.0
100
AcDbLine
 10
10058.40641346361
 20
2461.838966067276
 30
0.0
 11
9593.406413463616
 21
2926.838966067274
 31
0.0
  0
LINE
  5
14035
330
747D
100
AcDbEntity
  8
細線
 48
50.0
100
AcDbLine
 10
10058.40641346361
 20
2479.658056953166
 30
0.0
 11
9593.406413463615
 21
2944.658056953184
 31
0.0
  0
LINE
  5
14036
330
747D
100
AcDbEntity
  8
細線
 48
50.0
100
AcDbLine
 10
9856.732965138601
 20
2206.155748320803
 30
0.0
 11
9593.406413463615
 21
2469.482299995805
 31
0.0
  0
LINE
  5
14037
330
747D
100
AcDbEntity
  8
細線
 48
50.0
100
AcDbLine
 10
9838.913874252732
 20
2206.155748320803
 30
0.0
 11
9593.406413463615
 21
2451.663209109913
 31
0.0
  0
LINE
  5
14038
330
747D
100
AcDbEntity
  8
細線
 48
50.0
100
AcDbLine
 10
9821.09478336682
 20
2206.155748320803
 30
0.0
 11
9593.406413463616
 21
2433.844118224011
 31
0.0
  0
LINE
  5
14039
330
747D
100
AcDbEntity
  8
細線
 48
50.0
100
AcDbLine
 10
10643.40641346362
 20
2809.371389096106
 30
0.0
 11
10497.17520105641
 21
2955.602601503321
 31
0.0
  0
LINE
  5
1403A
330
747D
100
AcDbEntity
  8
細線
 48
50.0
100
AcDbLine
 10
10643.40641346362
 20
2827.190479982029
 30
0.0
 11
10514.99429194232
 21
2955.602601503321
 31
0.0
  0
LINE
  5
1403B
330
747D
100
AcDbEntity
  8
細線
 48
50.0
100
AcDbLine
 10
10643.40641346362
 20
2845.009570867926
 30
0.0
 11
10532.81338282823
 21
2955.602601503321
 31
0.0
  0
LINE
  5
1403C
330
747D
100
AcDbEntity
  8
細線
 48
50.0
100
AcDbLine
 10
10978.21455397936
 20
2826.327994483169
 30
0.0
 11
10987.2514422251
 21
2805.602601503322
 31
0.0
  0
LINE
  5
1403D
330
747D
100
AcDbEntity
  8
細線
 48
50.0
100
AcDbLine
 10
10894.21455397937
 20
2826.327994483169
 30
0.0
 11
10903.2514422251
 21
2805.602601503322
 31
0.0
  0
LINE
  5
1403E
330
747D
100
AcDbEntity
  8
細線
 48
50.0
100
AcDbLine
 10
10810.21455397937
 20
2826.327994483169
 30
0.0
 11
10819.25144222511
 21
2805.602601503323
 31
0.0
  0
LINE
  5
1403F
330
747D
100
AcDbEntity
  8
細線
 48
50.0
100
AcDbLine
 10
10726.21455397937
 20
2826.327994483169
 30
0.0
 11
10735.25144222511
 21
2805.602601503323
 31
0.0
  0
LINE
  5
14040
330
747D
100
AcDbEntity
  8
細線
 48
50.0
100
AcDbLine
 10
10643.40641346362
 20
2823.594558424633
 30
0.0
 11
10651.25144222511
 21
2805.602601503323
 31
0.0
  0
LINE
  5
14041
330
747D
100
AcDbEntity
  8
細線
 48
50.0
100
AcDbLine
 10
9320.264123092652
 20
2825.749233529757
 30
0.0
 11
9329.048654335464
 21
2805.602601503322
 31
0.0
  0
LINE
  5
14042
330
747D
100
AcDbEntity
  8
細線
 48
50.0
100
AcDbLine
 10
9626.263384103642
 20
2206.155748320803
 30
0.0
 11
9551.263384103647
 21
2131.155748320804
 31
0.0
  0
LINE
  5
14043
330
747D
100
AcDbEntity
  8
細線
 48
50.0
100
AcDbLine
 10
9590.625202331843
 20
2206.155748320803
 30
0.0
 11
9515.625202331843
 21
2131.155748320804
 31
0.0
  0
LINE
  5
14044
330
747D
100
AcDbEntity
  8
細線
 48
50.0
100
AcDbLine
 10
9608.444293217749
 20
2206.155748320803
 30
0.0
 11
9533.444293217746
 21
2131.155748320804
 31
0.0
  0
LINE
  5
14045
330
747D
100
AcDbEntity
  8
細線
 48
50.0
100
AcDbLine
 10
10763.40641346361
 20
2190.99756705919
 30
0.0
 11
10703.56459472522
 21
2131.155748320804
 31
0.0
  0
LINE
  5
14046
330
747D
100
AcDbEntity
  8
細線
 48
50.0
100
AcDbLine
 10
10763.40641346361
 20
2173.178476173287
 30
0.0
 11
10721.38368561113
 21
2131.155748320804
 31
0.0
  0
LINE
  5
14047
330
747D
100
AcDbEntity
  8
細線
 48
50.0
100
AcDbLine
 10
10763.40641346361
 20
2155.359385287392
 30
0.0
 11
10739.20277649702
 21
2131.155748320804
 31
0.0
  0
LINE
  5
14048
330
747D
100
AcDbEntity
  8
細線
 48
50.0
100
AcDbLine
 10
9473.406413463614
 20
2050.489125741798
 30
0.0
 11
9502.766662981157
 21
2131.155748320804
 31
0.0
  0
LINE
  5
14049
330
747D
100
AcDbEntity
  8
細線
 48
50.0
100
AcDbLine
 10
9473.406413463616
 20
2005.843774743713
 30
0.0
 11
9473.706413463617
 21
2005.155748320804
 31
0.0
  0
LINE
  5
1404A
330
747D
100
AcDbEntity
  8
細線
 48
50.0
100
AcDbLine
 10
9569.966662981155
 20
2131.155748320804
 30
0.0
 11
9579.123288061564
 21
2110.155748320804
 31
0.0
  0
LINE
  5
1404B
330
747D
100
AcDbEntity
  8
細線
 48
50.0
100
AcDbLine
 10
9653.966662981154
 20
2131.155748320804
 30
0.0
 11
9663.123288061564
 21
2110.155748320804
 31
0.0
  0
LINE
  5
1404C
330
747D
100
AcDbEntity
  8
細線
 48
50.0
100
AcDbLine
 10
9485.966662981153
 20
2131.155748320804
 30
0.0
 11
9495.123288061565
 21
2110.155748320804
 31
0.0
  0
LINE
  5
1404D
330
747D
100
AcDbEntity
  8
細線
 48
50.0
100
AcDbLine
 10
9632.549788383208
 20
2026.155748320804
 30
0.0
 11
9641.706413463616
 21
2005.155748320804
 31
0.0
  0
LINE
  5
1404E
330
747D
100
AcDbEntity
  8
細線
 48
50.0
100
AcDbLine
 10
9548.549788383207
 20
2026.155748320804
 30
0.0
 11
9557.706413463618
 21
2005.155748320804
 31
0.0
  0
LINE
  5
1404F
330
747D
100
AcDbEntity
  8
細線
 48
50.0
100
AcDbLine
 10
9624.906413463618
 20
2005.155748320804
 30
0.0
 11
9670.766662981158
 21
2131.155748320804
 31
0.0
  0
LINE
  5
14050
330
747D
100
AcDbEntity
  8
細線
 48
50.0
100
AcDbLine
 10
9540.906413463618
 20
2005.155748320804
 30
0.0
 11
9586.766662981158
 21
2131.155748320804
 31
0.0
  0
LINE
  5
14051
330
747D
100
AcDbEntity
  8
細線
 48
50.0
100
AcDbLine
 10
10548.90641346361
 20
2005.155748320804
 30
0.0
 11
10594.76666298116
 21
2131.155748320804
 31
0.0
  0
LINE
  5
14052
330
747D
100
AcDbEntity
  8
細線
 48
50.0
100
AcDbLine
 10
10661.96666298115
 20
2131.155748320804
 30
0.0
 11
10671.12328806156
 21
2110.155748320804
 31
0.0
  0
LINE
  5
14053
330
747D
100
AcDbEntity
  8
細線
 48
50.0
100
AcDbLine
 10
10745.96666298115
 20
2131.155748320804
 30
0.0
 11
10755.12328806156
 21
2110.155748320804
 31
0.0
  0
LINE
  5
14054
330
747D
100
AcDbEntity
  8
細線
 48
50.0
100
AcDbLine
 10
10577.96666298115
 20
2131.155748320804
 30
0.0
 11
10587.12328806156
 21
2110.155748320804
 31
0.0
  0
LINE
  5
14055
330
747D
100
AcDbEntity
  8
細線
 48
50.0
100
AcDbLine
 10
10724.5497883832
 20
2026.155748320804
 30
0.0
 11
10733.70641346361
 21
2005.155748320804
 31
0.0
  0
LINE
  5
14056
330
747D
100
AcDbEntity
  8
細線
 48
50.0
100
AcDbLine
 10
10556.5497883832
 20
2026.155748320804
 30
0.0
 11
10565.70641346362
 21
2005.155748320804
 31
0.0
  0
LINE
  5
14057
330
747D
100
AcDbEntity
  8
細線
 48
50.0
100
AcDbLine
 10
10640.5497883832
 20
2026.155748320804
 30
0.0
 11
10649.70641346361
 21
2005.155748320804
 31
0.0
  0
LINE
  5
14058
330
747D
100
AcDbEntity
  8
細線
 48
50.0
100
AcDbLine
 10
10632.90641346362
 20
2005.155748320804
 30
0.0
 11
10678.76666298116
 21
2131.155748320804
 31
0.0
  0
LINE
  5
14059
330
747D
100
AcDbEntity
  8
細線
 48
50.0
100
AcDbLine
 10
10716.90641346362
 20
2005.155748320804
 30
0.0
 11
10762.76666298116
 21
2131.155748320804
 31
0.0
  0
DIMENSION
  5
1405A
330
747D
100
AcDbEntity
  8
寸法
 48
50.0
100
AcDbDimension
  2
*D78
 10
10643.40641346361
 20
1753.10567576239
 30
0.0
 11
10118.40641346361
 21
1828.10567576239
 31
0.0
 70
    32
 71
     5
 42
700.000000035
  3
INABA_S30G詳細用20
100
AcDbAlignedDimension
 13
9593.406413463616
 23
2005.155748320804
 33
0.0
 14
10643.40641346361
 24
2005.155748320804
 34
0.0
100
AcDbRotatedDimension
  0
MTEXT
  5
1405B
330
747D
100
AcDbEntity
  8
寸法
 62
     7
 48
50.0
100
AcDbMText
 10
11443.67272194875
 20
3096.767886241894
 30
0.0
 40
90.0
 41
1.0
 71
     4
 72
     1
  1
▽G.L
  7
STYLE2
 73
     1
 44
1.0
1001
ACAD
1000
MTEXTBEGIN
1070
    73
1070
     1
1070
    44
1040
1.0
1070
    74
1070
     0
1000
MTEXTEND
  0
LINE
  5
1405C
330
747D
100
AcDbEntity
  8
Ｇ．Ｌ
 48
50.0
100
AcDbLine
 10
10997.59463224553
 20
3030.602601503322
 30
0.0
 11
11780.77953877087
 21
3030.60260150332
 31
0.0
  0
MTEXT
  5
1405D
102
{ACAD_REACTORS
330
1405E
102
}
330
747D
100
AcDbEntity
  8
部品1
 62
     7
 48
5.0
100
AcDbMText
 10
9378.672297598249
 20
2226.370211073026
 30
0.0
 40
90.0
 41
0.0
 71
     6
 72
     1
  1
\A1;4-D10両方向共
  7
STYLE1
 73
     1
 44
1.0
1001
ACAD
1000
MTEXTBEGIN
1070
    73
1070
     1
1070
    44
1040
1.0
1070
    74
1070
     0
1000
MTEXTEND
  0
LEADER
  5
1405E
330
747D
100
AcDbEntity
  8
寸法
 48
5.0
100
AcDbLeader
  3
INABA_S30G詳細用20
 71
     0
 73
     0
 75
     1
 40
91.25178566873406
 41
703.4999999999999
 76
     3
 10
9794.406413463621
 20
2324.855748320806
 30
0.0
 10
9453.672297598251
 20
2155.500298526586
 30
0.0
 10
9378.672297598249
 20
2155.500298526586
 30
0.0
  0
LINE
  5
1405F
330
747D
100
AcDbEntity
  8
部品1
 48
50.0
100
AcDbLine
 10
9320.264123092652
 20
2955.602601503322
 30
0.0
 11
10058.40641346361
 21
2955.602601503321
 31
0.0
  0
LINE
  5
14060
330
747D
100
AcDbEntity
  8
部品1
 48
50.0
100
AcDbLine
 10
9320.264123092654
 20
3105.602601503321
 30
0.0
 11
10016.40641346361
 21
3105.602601503321
 31
0.0
  0
LINE
  5
14061
330
747D
100
AcDbEntity
  8
細線
 48
50.0
100
AcDbLine
 10
9628.697928908863
 20
2955.602601503321
 30
0.0
 11
9778.69792890887
 21
3105.602601503321
 31
0.0
  0
LINE
  5
14062
330
747D
100
AcDbEntity
  8
文字
 48
50.0
100
AcDbLine
 10
9461.325485380308
 20
3170.943682177906
 30
0.0
 11
10039.82258328427
 21
3170.943682177906
 31
0.0
  0
LINE
  5
14063
330
747D
100
AcDbEntity
  8
部品1
 48
50.0
100
AcDbLine
 10
9473.406413463614
 20
2206.155748320803
 30
0.0
 11
10763.40641346361
 21
2206.155748320803
 31
0.0
  0
LINE
  5
14064
330
747D
100
AcDbEntity
  8
部品1
 48
50.0
100
AcDbLine
 10
9473.406413463616
 20
2131.155748320804
 30
0.0
 11
10763.40641346361
 21
2131.155748320804
 31
0.0
  0
LINE
  5
14065
330
747D
100
AcDbEntity
  8
部品1
 48
50.0
100
AcDbLine
 10
9473.406413463616
 20
2005.155748320804
 30
0.0
 11
10763.40641346361
 21
2005.155748320804
 31
0.0
  0
LINE
  5
14066
330
747D
100
AcDbEntity
  8
部品1
 48
50.0
100
AcDbLine
 10
9593.406413463611
 20
2805.602601503322
 30
0.0
 11
9320.264123092652
 21
2805.602601503322
 31
0.0
  0
DIMENSION
  5
14067
330
747D
100
AcDbEntity
  8
寸法
 48
50.0
100
AcDbDimension
  2
*D79
 10
9130.133787882403
 20
2955.602601503321
 30
0.0
 11
9130.133787882403
 21
3282.638034574188
 31
0.0
 70
   160
 71
     5
 42
100.000000005
  3
INABA_S30G詳細用20
100
AcDbAlignedDimension
 13
9320.264123092654
 23
3105.602601503321
 33
0.0
 14
9310.022115920869
 24
2955.602601503321
 34
0.0
 50
90.0
100
AcDbRotatedDimension
  0
LINE
  5
14068
330
747D
100
AcDbEntity
  8
部品1
 48
50.0
100
AcDbLine
 10
9473.406413463614
 20
2206.155748320803
 30
0.0
 11
9473.406413463616
 21
2005.155748320804
 31
0.0
  0
DIMENSION
  5
14069
330
747D
100
AcDbEntity
  8
寸法
 48
50.0
100
AcDbDimension
  2
*D80
 10
9130.133787882403
 20
2805.602601503323
 30
0.0
 11
9130.133787882403
 21
2628.567168432456
 31
0.0
 70
   160
 71
     5
 42
100.000000005
  3
INABA_S30G詳細用20
100
AcDbAlignedDimension
 13
9320.264123092652
 23
2955.602601503322
 33
0.0
 14
9320.264123092652
 24
2805.602601503322
 34
0.0
 50
90.0
100
AcDbRotatedDimension
  0
LINE
  5
1406A
330
747D
100
AcDbEntity
  8
細線
 48
50.0
100
AcDbLine
 10
9396.468339951585
 20
2805.602601503322
 30
0.0
 11
9451.063875091515
 21
2955.602601503321
 31
0.0
  0
LINE
  5
1406B
330
747D
100
AcDbEntity
  8
細線
 48
50.0
100
AcDbLine
 10
9480.468339951585
 20
2805.602601503322
 30
0.0
 11
9535.063875091514
 21
2955.602601503321
 31
0.0
  0
LINE
  5
1406C
330
747D
100
AcDbEntity
  8
細線
 48
50.0
100
AcDbLine
 10
9320.264123092648
 20
2827.021339650365
 30
0.0
 11
9367.063875091515
 21
2955.602601503321
 31
0.0
  0
LINE
  5
1406D
330
747D
100
AcDbEntity
  8
細線
 48
50.0
100
AcDbLine
 10
9404.01176608972
 20
2826.327994483169
 30
0.0
 11
9413.048654335463
 21
2805.602601503322
 31
0.0
  0
LINE
  5
1406E
330
747D
100
AcDbEntity
  8
細線
 48
50.0
100
AcDbLine
 10
9488.011766089719
 20
2826.327994483169
 30
0.0
 11
9497.048654335463
 21
2805.602601503322
 31
0.0
  0
LINE
  5
1406F
330
747D
100
AcDbEntity
  8
細線
 48
50.0
100
AcDbLine
 10
9345.748232201984
 20
2955.602601503322
 30
0.0
 11
9495.748232201982
 21
3105.602601503321
 31
0.0
  0
LINE
  5
14070
330
747D
100
AcDbEntity
  8
細線
 48
50.0
100
AcDbLine
 10
9327.929141316081
 20
2955.602601503322
 30
0.0
 11
9477.92914131608
 21
3105.602601503321
 31
0.0
  0
LINE
  5
14071
330
747D
100
AcDbEntity
  8
細線
 48
50.0
100
AcDbLine
 10
9320.264123092652
 20
2965.75667416579
 30
0.0
 11
9460.110050430186
 21
3105.602601503322
 31
0.0
  0
LINE
  5
14072
330
747D
100
AcDbEntity
  8
細線
 48
50.0
100
AcDbLine
 10
9350.263875091512
 20
2955.602601503321
 30
0.0
 11
9359.420500171921
 21
2934.60260150332
 31
0.0
  0
LINE
  5
14073
330
747D
100
AcDbEntity
  8
細線
 48
50.0
100
AcDbLine
 10
9518.263875091511
 20
2955.602601503321
 30
0.0
 11
9527.420500171922
 21
2934.602601503322
 31
0.0
  0
LINE
  5
14074
330
747D
100
AcDbEntity
  8
細線
 48
50.0
100
AcDbLine
 10
9434.263875091513
 20
2955.602601503321
 30
0.0
 11
9443.420500171923
 21
2934.602601503322
 31
0.0
  0
LINE
  5
14075
330
747D
100
AcDbEntity
  8
文字
 48
50.0
100
AcDbLine
 10
9461.325485380308
 20
3170.943682177906
 30
0.0
 11
9529.976703245443
 21
3189.338720564283
 31
0.0
  0
LINE
  5
14076
330
747D
100
AcDbEntity
  8
文字
 48
50.0
100
AcDbLine
 10
9461.325485380308
 20
3170.943682177906
 30
0.0
 11
9529.976703245443
 21
3152.548643791531
 31
0.0
  0
LINE
  5
14077
330
747D
100
AcDbEntity
  8
部品1
 48
10.0
100
AcDbLine
 10
10058.40641346361
 20
3314.6535532658
 30
0.0
 11
10058.40641346361
 21
2355.655748320804
 31
0.0
  0
LINE
  5
14078
330
747D
100
AcDbEntity
  8
部品1
 48
10.0
100
AcDbLine
 10
10178.40641346361
 20
3314.6535532658
 30
0.0
 11
10178.40641346361
 21
2355.655748320804
 31
0.0
  0
TEXT
  5
14079
330
747D
100
AcDbEntity
  8
文字
 48
50.0
100
AcDbText
 10
10248.03606863594
 20
3226.516467457734
 30
0.0
 40
72.0
  1
１／１００
 41
0.8
  7
STYLE1
100
AcDbText
  0
TEXT
  5
1407A
330
747D
100
AcDbEntity
  8
文字
 48
50.0
100
AcDbText
 10
9678.057373113929
 20
3226.516467457734
 30
0.0
 40
72.0
  1
１／１００
 41
0.8
  7
STYLE1
100
AcDbText
  0
DIMENSION
  5
1407B
330
747D
100
AcDbEntity
  8
寸法
 48
50.0
100
AcDbDimension
  2
*D81
 10
11303.11501379478
 20
3030.602601503322
 30
0.0
 11
11303.11501379478
 21
3314.466562534001
 31
0.0
 70
   160
 71
     5
 42
50.00000000249879
  3
INABA_S30G詳細用20
100
AcDbAlignedDimension
 13
10855.60920135325
 23
3105.602601503321
 33
0.0
 14
10997.59463224553
 24
3030.602601503322
 34
0.0
 50
90.0
100
AcDbRotatedDimension
  0
LINE
  5
1407C
330
747D
100
AcDbEntity
  8
センター
 48
10.0
100
AcDbLine
 10
10118.40641346361
 20
3371.977919866031
 30
0.0
 11
10118.40641346361
 21
2355.655748320804
 31
0.0
  0
LINE
  5
1407D
330
747D
100
AcDbEntity
  8
細線
 48
50.0
100
AcDbLine
 10
10740.6876245954
 20
2955.602601503321
 30
0.0
 11
10831.60920135325
 21
3046.524178261178
 31
0.0
  0
LINE
  5
1407E
330
747D
100
AcDbEntity
  8
細線
 48
50.0
100
AcDbLine
 10
10722.8685337095
 20
2955.602601503322
 30
0.0
 11
10831.60920135325
 21
3064.343269147074
 31
0.0
  0
LINE
  5
1407F
330
747D
100
AcDbEntity
  8
細線
 48
50.0
100
AcDbLine
 10
10705.0494428236
 20
2955.602601503321
 30
0.0
 11
10831.60920135325
 21
3082.162360032977
 31
0.0
  0
LINE
  5
14080
330
747D
100
AcDbEntity
  8
文字
 48
50.0
100
AcDbLine
 10
10775.48734154692
 20
3170.943682177906
 30
0.0
 11
10196.99024364295
 21
3170.943682177906
 31
0.0
  0
MTEXT
  5
14081
102
{ACAD_REACTORS
330
14082
102
}
330
747D
100
AcDbEntity
  8
寸法
 62
     7
 48
50.0
100
AcDbMText
 10
10701.54534773564
 20
2670.200827322038
 30
0.0
 40
90.0
 41
0.0
 71
     4
 72
     1
  1
\A1;ｶﾝｻﾞｼ
  7
STYLE1
 73
     1
 44
1.0
1001
ACAD
1000
MTEXTBEGIN
1070
    73
1070
     1
1070
    44
1040
1.0
1070
    74
1070
     0
1000
MTEXTEND
  0
LEADER
  5
14082
330
747D
100
AcDbEntity
  8
寸法
 48
50.0
100
AcDbLeader
  3
INABA_S30G詳細用20
 73
     0
 74
     0
 40
90.0
 41
234.0000000000001
 76
     2
 10
10118.40641346361
 20
2468.155748320804
 30
0.0
 10
10676.52397014557
 20
2610.919032717891
 30
0.0
1001
ACAD
1000
DSTYLE
1002
{
1070
   341
1005
13C38
1002
}
  0
LINE
  5
14083
330
747D
100
AcDbEntity
  8
部品1
 48
50.0
100
AcDbLine
 10
10220.40641346361
 20
3105.602601503321
 30
0.0
 11
10831.60920135325
 21
3105.602601503321
 31
0.0
  0
LINE
  5
14084
330
747D
100
AcDbEntity
  8
部品1
 48
50.0
100
AcDbLine
 10
10178.40641346361
 20
2955.602601503321
 30
0.0
 11
10831.60920135325
 21
2955.602601503321
 31
0.0
  0
LINE
  5
14085
330
747D
100
AcDbEntity
  8
部品1
 48
50.0
100
AcDbLine
 10
10643.40641346362
 20
2805.602601503322
 30
0.0
 11
10831.60920135325
 21
2805.602601503322
 31
0.0
  0
LINE
  5
14086
330
747D
100
AcDbEntity
  8
細線
 48
50.0
100
AcDbLine
 10
10718.67112784123
 20
2805.602601503322
 30
0.0
 11
10773.26666298116
 21
2955.602601503321
 31
0.0
  0
DIMENSION
  5
14087
330
747D
100
AcDbEntity
  8
寸法
 48
50.0
100
AcDbDimension
  2
*D82
 10
11145.79858493556
 20
2355.655748320804
 30
0.0
 11
11145.79858493556
 21
2693.129174912063
 31
0.0
 70
   160
 71
     5
 42
449.964568810844
  3
INABA_S30G詳細用20
100
AcDbAlignedDimension
 13
10997.59463224553
 23
3030.602601503322
 33
0.0
 14
10158.40641346361
 24
2355.655748320804
 34
0.0
 50
90.0
100
AcDbRotatedDimension
  0
LINE
  5
14088
330
747D
100
AcDbEntity
  8
細線
 48
50.0
100
AcDbLine
 10
10058.6826618455
 20
2206.155748320803
 30
0.0
 11
9965.182661845508
 21
2299.655748320803
 31
0.0
  0
LINE
  5
14089
330
747D
100
AcDbEntity
  8
細線
 48
50.0
100
AcDbLine
 10
10076.50175273141
 20
2206.155748320803
 30
0.0
 11
9983.001752731416
 21
2299.655748320804
 31
0.0
  0
LINE
  5
1408A
330
747D
100
AcDbEntity
  8
細線
 48
50.0
100
AcDbLine
 10
10094.32084361728
 20
2206.155748320803
 30
0.0
 11
10000.82084361729
 21
2299.655748320803
 31
0.0
  0
LINE
  5
1408B
330
747D
100
AcDbEntity
  8
細線
 48
50.0
100
AcDbLine
 10
10296.27054032418
 20
2206.155748320803
 30
0.0
 11
10202.77054032418
 21
2299.655748320804
 31
0.0
  0
LINE
  5
1408C
330
747D
100
AcDbEntity
  8
細線
 48
50.0
100
AcDbLine
 10
10314.08963121008
 20
2206.155748320803
 30
0.0
 11
10220.58963121008
 21
2299.655748320804
 31
0.0
  0
LINE
  5
1408D
330
747D
100
AcDbEntity
  8
細線
 48
50.0
100
AcDbLine
 10
10533.85841880287
 20
2206.155748320803
 30
0.0
 11
10440.35841880286
 21
2299.655748320805
 31
0.0
  0
LINE
  5
1408E
330
747D
100
AcDbEntity
  8
細線
 48
50.0
100
AcDbLine
 10
10551.67750968877
 20
2206.155748320803
 30
0.0
 11
10458.17750968877
 21
2299.655748320805
 31
0.0
  0
LINE
  5
1408F
330
747D
100
AcDbEntity
  8
細線
 48
50.0
100
AcDbLine
 10
10569.49660057467
 20
2206.155748320803
 30
0.0
 11
10466.03141346361
 21
2309.620935431861
 31
0.0
  0
LINE
  5
14090
330
747D
100
AcDbEntity
  8
細線
 48
50.0
100
AcDbLine
 10
10331.90872209597
 20
2206.155748320803
 30
0.0
 11
10238.40872209597
 21
2299.655748320804
 31
0.0
  0
LINE
  5
14091
330
747D
100
AcDbEntity
  8
細線
 48
50.0
100
AcDbLine
 10
10643.40641346361
 20
2369.833813910525
 30
0.0
 11
10178.40641346361
 21
2834.833813910544
 31
0.0
  0
LINE
  5
14092
330
747D
100
AcDbEntity
  8
細線
 48
50.0
100
AcDbLine
 10
10643.40641346361
 20
2352.014723024637
 30
0.0
 11
10178.40641346361
 21
2817.014723024639
 31
0.0
  0
LINE
  5
14093
330
747D
100
AcDbEntity
  8
細線
 48
50.0
100
AcDbLine
 10
10643.40641346361
 20
2334.195632138746
 30
0.0
 11
10178.40641346361
 21
2799.195632138737
 31
0.0
  0
LINE
  5
14094
330
747D
100
AcDbEntity
  8
部品1
 48
50.0
100
AcDbLine
 10
9593.406413463616
 20
2955.602601503321
 30
0.0
 11
9593.406413463616
 21
2206.155748320803
 31
0.0
  0
LINE
  5
14095
330
747D
100
AcDbEntity
  8
部品1
 48
50.0
100
AcDbLine
 10
10643.40641346361
 20
2206.155748320803
 30
0.0
 11
10643.40641346362
 21
2955.602601503321
 31
0.0
  0
LINE
  5
14096
330
747D
100
AcDbEntity
  8
部品1
 48
50.0
100
AcDbLine
 10
9770.781413463614
 20
2299.655748320803
 30
0.0
 11
10466.03141346361
 21
2299.655748320805
 31
0.0
  0
LINE
  5
14097
330
747D
100
AcDbEntity
  8
部品1
 48
50.0
100
AcDbLine
 10
9770.781413463614
 20
2316.455748320805
 30
0.0
 11
10466.03141346361
 21
2316.455748320807
 31
0.0
  0
LINE
  5
14098
330
747D
100
AcDbEntity
  8
部品1
 48
50.0
100
AcDbLine
 10
10058.40641346361
 20
2355.655748320804
 30
0.0
 11
10178.40641346361
 21
2355.655748320804
 31
0.0
  0
LINE
  5
14099
330
747D
100
AcDbEntity
  8
細線
 48
50.0
100
AcDbLine
 10
10128.90641346362
 20
2005.155748320804
 30
0.0
 11
10174.76666298116
 21
2131.155748320804
 31
0.0
  0
LINE
  5
1409A
330
747D
100
AcDbEntity
  8
細線
 48
50.0
100
AcDbLine
 10
9708.906413463617
 20
2005.155748320804
 30
0.0
 11
9754.766662981158
 21
2131.155748320804
 31
0.0
  0
LINE
  5
1409B
330
747D
100
AcDbEntity
  8
細線
 48
50.0
100
AcDbLine
 10
10044.90641346361
 20
2005.155748320804
 30
0.0
 11
10090.76666298116
 21
2131.155748320804
 31
0.0
  0
LINE
  5
1409C
330
747D
100
AcDbEntity
  8
細線
 48
50.0
100
AcDbLine
 10
9876.906413463618
 20
2005.155748320804
 30
0.0
 11
9922.766662981159
 21
2131.155748320804
 31
0.0
  0
LINE
  5
1409D
330
747D
100
AcDbEntity
  8
細線
 48
50.0
100
AcDbLine
 10
9792.906413463619
 20
2005.155748320804
 30
0.0
 11
9838.766662981157
 21
2131.155748320804
 31
0.0
  0
LINE
  5
1409E
330
747D
100
AcDbEntity
  8
細線
 48
50.0
100
AcDbLine
 10
9960.906413463618
 20
2005.155748320804
 30
0.0
 11
10006.76666298115
 21
2131.155748320804
 31
0.0
  0
LINE
  5
1409F
330
747D
100
AcDbEntity
  8
細線
 48
50.0
100
AcDbLine
 10
9716.549788383208
 20
2026.155748320804
 30
0.0
 11
9725.706413463617
 21
2005.155748320804
 31
0.0
  0
LINE
  5
140A0
330
747D
100
AcDbEntity
  8
細線
 48
50.0
100
AcDbLine
 10
9884.549788383207
 20
2026.155748320804
 30
0.0
 11
9893.706413463618
 21
2005.155748320804
 31
0.0
  0
LINE
  5
140A1
330
747D
100
AcDbEntity
  8
細線
 48
50.0
100
AcDbLine
 10
9800.549788383207
 20
2026.155748320804
 30
0.0
 11
9809.706413463617
 21
2005.155748320804
 31
0.0
  0
LINE
  5
140A2
330
747D
100
AcDbEntity
  8
細線
 48
50.0
100
AcDbLine
 10
9968.549788383207
 20
2026.155748320804
 30
0.0
 11
9977.706413463616
 21
2005.155748320804
 31
0.0
  0
LINE
  5
140A3
330
747D
100
AcDbEntity
  8
細線
 48
50.0
100
AcDbLine
 10
10136.5497883832
 20
2026.155748320804
 30
0.0
 11
10145.70641346361
 21
2005.155748320804
 31
0.0
  0
LINE
  5
140A4
330
747D
100
AcDbEntity
  8
細線
 48
50.0
100
AcDbLine
 10
10052.5497883832
 20
2026.155748320804
 30
0.0
 11
10061.70641346362
 21
2005.155748320804
 31
0.0
  0
LINE
  5
140A5
330
747D
100
AcDbEntity
  8
細線
 48
50.0
100
AcDbLine
 10
9846.032171696426
 20
2206.155748320803
 30
0.0
 11
9771.032171696425
 21
2131.155748320804
 31
0.0
  0
LINE
  5
140A6
330
747D
100
AcDbEntity
  8
細線
 48
50.0
100
AcDbLine
 10
9828.21308081052
 20
2206.155748320803
 30
0.0
 11
9753.213080810521
 21
2131.155748320804
 31
0.0
  0
LINE
  5
140A7
330
747D
100
AcDbEntity
  8
細線
 48
50.0
100
AcDbLine
 10
9737.966662981156
 20
2131.155748320804
 30
0.0
 11
9747.123288061565
 21
2110.155748320804
 31
0.0
  0
LINE
  5
140A8
330
747D
100
AcDbEntity
  8
細線
 48
50.0
100
AcDbLine
 10
9863.851262582322
 20
2206.155748320803
 30
0.0
 11
9788.851262582324
 21
2131.155748320804
 31
0.0
  0
LINE
  5
140A9
330
747D
100
AcDbEntity
  8
細線
 48
50.0
100
AcDbLine
 10
9821.966662981154
 20
2131.155748320804
 30
0.0
 11
9831.123288061565
 21
2110.155748320804
 31
0.0
  0
LINE
  5
140AA
330
747D
100
AcDbEntity
  8
部品1
 48
50.0
100
AcDbLine
 10
9770.781413463614
 20
2299.655748320805
 30
0.0
 11
9770.781413463614
 21
2316.455748320805
 31
0.0
  0
CIRCLE
  5
140AB
330
747D
100
AcDbEntity
  8
部品1
 48
5.0
100
AcDbCircle
 10
9794.406413463621
 20
2324.855748320806
 30
0.0
 40
8.4
  0
LINE
  5
140AC
330
747D
100
AcDbEntity
  8
細線
 48
50.0
100
AcDbLine
 10
10101.439141061
 20
2206.155748320803
 30
0.0
 11
10026.439141061
 21
2131.155748320804
 31
0.0
  0
LINE
  5
140AD
330
747D
100
AcDbEntity
  8
細線
 48
50.0
100
AcDbLine
 10
10065.8009592892
 20
2206.155748320803
 30
0.0
 11
9990.800959289197
 21
2131.155748320804
 31
0.0
  0
LINE
  5
140AE
330
747D
100
AcDbEntity
  8
細線
 48
50.0
100
AcDbLine
 10
10083.6200501751
 20
2206.155748320803
 30
0.0
 11
10008.6200501751
 21
2131.155748320804
 31
0.0
  0
LINE
  5
140AF
330
747D
100
AcDbEntity
  8
細線
 48
50.0
100
AcDbLine
 10
9989.966662981155
 20
2131.155748320804
 30
0.0
 11
9999.123288061564
 21
2110.155748320804
 31
0.0
  0
LINE
  5
140B0
330
747D
100
AcDbEntity
  8
細線
 48
50.0
100
AcDbLine
 10
9905.966662981155
 20
2131.155748320804
 30
0.0
 11
9915.123288061565
 21
2110.155748320804
 31
0.0
  0
LINE
  5
140B1
330
747D
100
AcDbEntity
  8
細線
 48
50.0
100
AcDbLine
 10
10073.96666298115
 20
2131.155748320804
 30
0.0
 11
10083.12328806156
 21
2110.155748320804
 31
0.0
  0
CIRCLE
  5
140B2
330
747D
100
AcDbEntity
  8
部品1
 48
5.0
100
AcDbCircle
 10
10010.40641346362
 20
2324.855748320806
 30
0.0
 40
8.4
  0
CIRCLE
  5
140B3
330
747D
100
AcDbEntity
  8
部品1
 48
50.0
100
AcDbCircle
 10
10118.40641346361
 20
2468.155748320804
 30
0.0
 40
8.4
  0
LINE
  5
140B4
330
747D
100
AcDbEntity
  8
細線
 48
50.0
100
AcDbLine
 10
10464.90641346361
 20
2005.155748320804
 30
0.0
 11
10510.76666298115
 21
2131.155748320804
 31
0.0
  0
LINE
  5
140B5
330
747D
100
AcDbEntity
  8
細線
 48
50.0
100
AcDbLine
 10
10380.90641346361
 20
2005.155748320804
 30
0.0
 11
10426.76666298115
 21
2131.155748320804
 31
0.0
  0
LINE
  5
140B6
330
747D
100
AcDbEntity
  8
細線
 48
50.0
100
AcDbLine
 10
10296.90641346362
 20
2005.155748320804
 30
0.0
 11
10342.76666298115
 21
2131.155748320804
 31
0.0
  0
LINE
  5
140B7
330
747D
100
AcDbEntity
  8
細線
 48
50.0
100
AcDbLine
 10
10212.90641346362
 20
2005.155748320804
 30
0.0
 11
10258.76666298116
 21
2131.155748320804
 31
0.0
  0
LINE
  5
140B8
330
747D
100
AcDbEntity
  8
細線
 48
50.0
100
AcDbLine
 10
10388.54978838321
 20
2026.155748320804
 30
0.0
 11
10397.70641346361
 21
2005.155748320804
 31
0.0
  0
LINE
  5
140B9
330
747D
100
AcDbEntity
  8
細線
 48
50.0
100
AcDbLine
 10
10220.5497883832
 20
2026.155748320804
 30
0.0
 11
10229.70641346361
 21
2005.155748320804
 31
0.0
  0
LINE
  5
140BA
330
747D
100
AcDbEntity
  8
細線
 48
50.0
100
AcDbLine
 10
10304.54978838321
 20
2026.155748320804
 30
0.0
 11
10313.70641346361
 21
2005.155748320804
 31
0.0
  0
LINE
  5
140BB
330
747D
100
AcDbEntity
  8
細線
 48
50.0
100
AcDbLine
 10
10472.5497883832
 20
2026.155748320804
 30
0.0
 11
10481.70641346361
 21
2005.155748320804
 31
0.0
  0
LINE
  5
140BC
330
747D
100
AcDbEntity
  8
細線
 48
50.0
100
AcDbLine
 10
10339.02701953968
 20
2206.155748320803
 30
0.0
 11
10264.02701953967
 21
2131.155748320804
 31
0.0
  0
LINE
  5
140BD
330
747D
100
AcDbEntity
  8
細線
 48
50.0
100
AcDbLine
 10
10321.20792865377
 20
2206.155748320803
 30
0.0
 11
10246.20792865378
 21
2131.155748320804
 31
0.0
  0
LINE
  5
140BE
330
747D
100
AcDbEntity
  8
細線
 48
50.0
100
AcDbLine
 10
10303.38883776787
 20
2206.155748320803
 30
0.0
 11
10228.38883776787
 21
2131.155748320804
 31
0.0
  0
LINE
  5
140BF
330
747D
100
AcDbEntity
  8
細線
 48
50.0
100
AcDbLine
 10
10241.96666298115
 20
2131.155748320804
 30
0.0
 11
10251.12328806156
 21
2110.155748320804
 31
0.0
  0
LINE
  5
140C0
330
747D
100
AcDbEntity
  8
細線
 48
50.0
100
AcDbLine
 10
10157.96666298115
 20
2131.155748320804
 30
0.0
 11
10167.12328806156
 21
2110.155748320804
 31
0.0
  0
LINE
  5
140C1
330
747D
100
AcDbEntity
  8
細線
 48
50.0
100
AcDbLine
 10
10325.96666298115
 20
2131.155748320804
 30
0.0
 11
10335.12328806156
 21
2110.155748320804
 31
0.0
  0
CIRCLE
  5
140C2
330
747D
100
AcDbEntity
  8
部品1
 48
5.0
100
AcDbCircle
 10
10226.40641346362
 20
2324.855748320806
 30
0.0
 40
8.4
  0
LINE
  5
140C3
330
747D
100
AcDbEntity
  8
細線
 48
50.0
100
AcDbLine
 10
10576.61489801835
 20
2206.155748320803
 30
0.0
 11
10501.61489801835
 21
2131.155748320804
 31
0.0
  0
LINE
  5
140C4
330
747D
100
AcDbEntity
  8
細線
 48
50.0
100
AcDbLine
 10
10558.79580713245
 20
2206.155748320803
 30
0.0
 11
10483.79580713245
 21
2131.155748320804
 31
0.0
  0
LINE
  5
140C5
330
747D
100
AcDbEntity
  8
細線
 48
50.0
100
AcDbLine
 10
10540.97671624655
 20
2206.155748320803
 30
0.0
 11
10465.97671624655
 21
2131.155748320804
 31
0.0
  0
LINE
  5
140C6
330
747D
100
AcDbEntity
  8
細線
 48
50.0
100
AcDbLine
 10
10493.96666298115
 20
2131.155748320804
 30
0.0
 11
10503.12328806156
 21
2110.155748320804
 31
0.0
  0
LINE
  5
140C7
330
747D
100
AcDbEntity
  8
細線
 48
50.0
100
AcDbLine
 10
10409.96666298115
 20
2131.155748320804
 30
0.0
 11
10419.12328806156
 21
2110.155748320804
 31
0.0
  0
LINE
  5
140C8
330
747D
100
AcDbEntity
  8
部品1
 48
50.0
100
AcDbLine
 10
10466.03141346361
 20
2299.655748320803
 30
0.0
 11
10466.03141346361
 21
2316.455748320807
 31
0.0
  0
CIRCLE
  5
140C9
330
747D
100
AcDbEntity
  8
部品1
 48
5.0
100
AcDbCircle
 10
10442.40641346362
 20
2324.855748320806
 30
0.0
 40
8.4
  0
LINE
  5
140CA
330
747D
100
AcDbEntity
  8
細線
 48
50.0
100
AcDbLine
 10
10058.40641346361
 20
2681.607753660062
 30
0.0
 11
9784.411565620359
 21
2955.602601503321
 31
0.0
  0
LINE
  5
140CB
330
747D
100
AcDbEntity
  8
細線
 48
50.0
100
AcDbLine
 10
10058.40641346361
 20
2699.426844545961
 30
0.0
 11
9802.230656506253
 21
2955.602601503321
 31
0.0
  0
LINE
  5
140CC
330
747D
100
AcDbEntity
  8
細線
 48
50.0
100
AcDbLine
 10
10058.40641346361
 20
2717.245935431859
 30
0.0
 11
9820.049747392157
 21
2955.602601503321
 31
0.0
  0
LINE
  5
140CD
330
747D
100
AcDbEntity
  8
細線
 48
50.0
100
AcDbLine
 10
10058.40641346361
 20
2919.195632138741
 30
0.0
 11
10021.99944409903
 21
2955.602601503321
 31
0.0
  0
LINE
  5
140CE
330
747D
100
AcDbEntity
  8
細線
 48
50.0
100
AcDbLine
 10
9572.011766089721
 20
2826.327994483169
 30
0.0
 11
9581.048654335454
 21
2805.602601503322
 31
0.0
  0
LINE
  5
140CF
330
747D
100
AcDbEntity
  8
細線
 48
50.0
100
AcDbLine
 10
9564.468339951586
 20
2805.602601503322
 30
0.0
 11
9593.406413463611
 21
2885.109305040131
 31
0.0
  0
LINE
  5
140D0
330
747D
100
AcDbEntity
  8
細線
 48
50.0
100
AcDbLine
 10
9866.285807387553
 20
2955.602601503321
 30
0.0
 11
10016.28580738755
 21
3105.602601503321
 31
0.0
  0
LINE
  5
140D1
330
747D
100
AcDbEntity
  8
細線
 48
50.0
100
AcDbLine
 10
9646.517019794771
 20
2955.602601503321
 30
0.0
 11
9796.517019794769
 21
3105.602601503321
 31
0.0
  0
LINE
  5
140D2
330
747D
100
AcDbEntity
  8
細線
 48
50.0
100
AcDbLine
 10
9664.336110680673
 20
2955.602601503321
 30
0.0
 11
9814.33611068067
 21
3105.602601503321
 31
0.0
  0
LINE
  5
140D3
330
747D
100
AcDbEntity
  8
細線
 48
50.0
100
AcDbLine
 10
9901.923989159351
 20
2955.602601503321
 30
0.0
 11
10058.40641346361
 21
3112.085025807582
 31
0.0
  0
LINE
  5
140D4
330
747D
100
AcDbEntity
  8
細線
 48
50.0
100
AcDbLine
 10
9884.104898273452
 20
2955.602601503321
 30
0.0
 11
10055.10489827344
 21
3126.602601503321
 31
0.0
  0
LINE
  5
140D5
330
747D
100
AcDbEntity
  8
細線
 48
50.0
100
AcDbLine
 10
10058.40641346361
 20
2937.014723024644
 30
0.0
 11
10039.81853498493
 21
2955.602601503321
 31
0.0
  0
LINE
  5
140D6
330
747D
100
AcDbEntity
  8
細線
 48
50.0
100
AcDbLine
 10
10058.40641346361
 20
2954.83381391054
 30
0.0
 11
10057.63762587083
 21
2955.602601503321
 31
0.0
  0
LINE
  5
140D7
330
747D
100
AcDbEntity
  8
部品1
 48
50.0
100
AcDbLine
 10
10037.40641346362
 20
3126.602601503321
 30
0.0
 11
10058.40641346361
 21
3126.602601503321
 31
0.0
  0
LINE
  5
140D8
330
747D
100
AcDbEntity
  8
部品1
 48
50.0
100
AcDbLine
 10
10037.40641346361
 20
3126.602601503321
 30
0.0
 11
10016.40641346361
 21
3105.602601503321
 31
0.0
  0
LINE
  5
140D9
330
747D
100
AcDbEntity
  8
細線
 48
50.0
100
AcDbLine
 10
10643.40641346362
 20
2829.602601503336
 30
0.0
 11
10689.26666298116
 21
2955.602601503321
 31
0.0
  0
LINE
  5
140DA
330
747D
100
AcDbEntity
  8
細線
 48
50.0
100
AcDbLine
 10
10643.40641346362
 20
2607.421692389225
 30
0.0
 11
10295.22550434952
 21
2955.602601503321
 31
0.0
  0
LINE
  5
140DB
330
747D
100
AcDbEntity
  8
細線
 48
50.0
100
AcDbLine
 10
10643.40641346362
 20
2589.602601503327
 30
0.0
 11
10277.40641346361
 21
2955.602601503321
 31
0.0
  0
LINE
  5
140DC
330
747D
100
AcDbEntity
  8
細線
 48
50.0
100
AcDbLine
 10
10643.40641346362
 20
2571.783510617404
 30
0.0
 11
10259.58732257772
 21
2955.602601503321
 31
0.0
  0
LINE
  5
140DD
330
747D
100
AcDbEntity
  8
細線
 48
50.0
100
AcDbLine
 10
10363.96156434491
 20
2955.602601503321
 30
0.0
 11
10513.96156434491
 21
3105.602601503321
 31
0.0
  0
LINE
  5
140DE
330
747D
100
AcDbEntity
  8
細線
 48
50.0
100
AcDbLine
 10
10381.78065523081
 20
2955.602601503322
 30
0.0
 11
10531.78065523081
 21
3105.602601503321
 31
0.0
  0
LINE
  5
140DF
330
747D
100
AcDbEntity
  8
細線
 48
50.0
100
AcDbLine
 10
10178.40641346361
 20
3007.635329100709
 30
0.0
 11
10276.37368586622
 21
3105.602601503321
 31
0.0
  0
LINE
  5
140E0
330
747D
100
AcDbEntity
  8
細線
 48
50.0
100
AcDbLine
 10
10178.40641346361
 20
2989.816238214809
 30
0.0
 11
10294.19277675212
 21
3105.602601503321
 31
0.0
  0
LINE
  5
140E1
330
747D
100
AcDbEntity
  8
細線
 48
50.0
100
AcDbLine
 10
10178.40641346361
 20
2971.997147328908
 30
0.0
 11
10312.01186763802
 21
3105.602601503321
 31
0.0
  0
LINE
  5
140E2
330
747D
100
AcDbEntity
  8
部品1
 48
50.0
100
AcDbLine
 10
10178.40641346361
 20
3126.602601503321
 30
0.0
 11
10199.40641346361
 21
3126.602601503321
 31
0.0
  0
LINE
  5
140E3
330
747D
100
AcDbEntity
  8
部品1
 48
50.0
100
AcDbLine
 10
10199.40641346362
 20
3126.602601503321
 30
0.0
 11
10220.40641346361
 21
3105.602601503321
 31
0.0
  0
LINE
  5
140E4
330
747D
100
AcDbEntity
  8
細線
 48
50.0
100
AcDbLine
 10
10399.59974611671
 20
2955.602601503321
 30
0.0
 11
10549.59974611671
 21
3105.602601503321
 31
0.0
  0
LINE
  5
140E5
330
747D
100
AcDbEntity
  8
細線
 48
50.0
100
AcDbLine
 10
10672.46666298115
 20
2955.602601503321
 30
0.0
 11
10681.62328806157
 21
2934.60260150332
 31
0.0
  0
DIMENSION
  5
140E6
330
747D
100
AcDbEntity
  8
寸法
 48
50.0
100
AcDbDimension
  2
*D83
 10
11303.11501379478
 20
2206.155748320803
 30
0.0
 11
11228.11501379478
 21
2618.379174912064
 31
0.0
 70
    32
 71
     5
 42
549.6312354824939
  3
INABA_S30G詳細用20
100
AcDbAlignedDimension
 13
10997.59463224553
 23
3030.602601503322
 33
0.0
 14
10763.40641346361
 24
2206.155748320803
 34
0.0
 50
90.0
100
AcDbRotatedDimension
  0
DIMENSION
  5
140E7
330
747D
100
AcDbEntity
  8
寸法
 48
50.0
100
AcDbDimension
  2
*D84
 10
11303.11501379478
 20
2131.155748320803
 30
0.0
 11
11303.11501379478
 21
1951.453090840491
 31
0.0
 70
   160
 71
     5
 42
50.0000000025
  3
INABA_S30G詳細用20
100
AcDbAlignedDimension
 13
10763.40641346361
 23
2206.155748320803
 33
0.0
 14
10763.40641346361
 24
2131.155748320804
 34
0.0
 50
90.0
100
AcDbRotatedDimension
  0
LINE
  5
140E8
330
747D
100
AcDbEntity
  8
部品1
 48
50.0
100
AcDbLine
 10
10763.40641346361
 20
2005.155748320804
 30
0.0
 11
10763.40641346361
 21
2206.155748320803
 31
0.0
  0
LINE
  5
140E9
330
747D
100
AcDbEntity
  8
細線
 48
50.0
100
AcDbLine
 10
10886.67112784123
 20
2805.602601503322
 30
0.0
 11
10941.26666298116
 21
2955.602601503321
 31
0.0
  0
LINE
  5
140EA
330
747D
100
AcDbEntity
  8
細線
 48
50.0
100
AcDbLine
 10
10970.67112784123
 20
2805.602601503322
 30
0.0
 11
11025.26666298116
 21
2955.602601503321
 31
0.0
  0
LINE
  5
140EB
330
747D
100
AcDbEntity
  8
部品1
 48
50.0
100
AcDbLine
 10
10855.60920135325
 20
3126.817089598731
 30
0.0
 11
10855.60920135326
 21
2764.721447307096
 31
0.0
  0
LINE
  5
140EC
330
747D
100
AcDbEntity
  8
部品1
 48
50.0
100
AcDbLine
 10
10831.60920135325
 20
3126.817089598731
 30
0.0
 11
10831.60920135325
 21
2764.721447307096
 31
0.0
  0
LINE
  5
140ED
330
747D
100
AcDbEntity
  8
部品1
 48
50.0
100
AcDbLine
 10
10855.60920135325
 20
2805.602601503322
 30
0.0
 11
11038.10297188808
 21
2805.602601503322
 31
0.0
  0
LINE
  5
140EE
330
747D
100
AcDbEntity
  8
細線
 48
50.0
100
AcDbLine
 10
10802.67112784123
 20
2805.602601503322
 30
0.0
 11
10831.60920135325
 21
2885.109305040131
 31
0.0
  0
LINE
  5
140EF
330
747D
100
AcDbEntity
  8
細線
 48
50.0
100
AcDbLine
 10
10920.6876245954
 20
2955.602601503321
 30
0.0
 11
10997.59463224553
 21
3032.50960915346
 31
0.0
  0
LINE
  5
140F0
330
747D
100
AcDbEntity
  8
部品1
 48
50.0
100
AcDbLine
 10
10997.59463224553
 20
3070.40260150332
 30
0.0
 11
10972.39463224554
 21
3095.60260150332
 31
0.0
  0
LINE
  5
140F1
330
747D
100
AcDbEntity
  8
部品1
 48
50.0
100
AcDbLine
 10
10855.60920135325
 20
2955.602601503321
 30
0.0
 11
11038.10297188808
 21
2955.602601503321
 31
0.0
  0
LINE
  5
140F2
330
747D
100
AcDbEntity
  8
部品1
 48
50.0
100
AcDbLine
 10
10855.60920135325
 20
3098.602601503321
 30
0.0
 11
10972.39463224554
 21
3095.60260150332
 31
0.0
  0
LINE
  5
140F3
330
747D
100
AcDbEntity
  8
細線
 48
50.0
100
AcDbLine
 10
10756.46666298115
 20
2955.602601503321
 30
0.0
 11
10765.62328806157
 21
2934.60260150332
 31
0.0
  0
LINE
  5
140F4
330
747D
100
AcDbEntity
  8
細線
 48
50.0
100
AcDbLine
 10
10855.60920135325
 20
2951.048763107045
 30
0.0
 11
10857.26666298116
 21
2955.602601503321
 31
0.0
  0
LINE
  5
140F5
330
747D
100
AcDbEntity
  8
細線
 48
50.0
100
AcDbLine
 10
10924.46666298115
 20
2955.602601503321
 30
0.0
 11
10933.62328806157
 21
2934.602601503322
 31
0.0
  0
LINE
  5
140F6
330
747D
100
AcDbEntity
  8
細線
 48
50.0
100
AcDbLine
 10
10885.0494428236
 20
2955.602601503321
 30
0.0
 11
10997.59463224553
 21
3068.147790925258
 31
0.0
  0
LINE
  5
140F7
330
747D
100
AcDbEntity
  8
細線
 48
50.0
100
AcDbLine
 10
10902.8685337095
 20
2955.602601503322
 30
0.0
 11
10997.59463224553
 21
3050.328700039354
 31
0.0
  0
LINE
  5
140F8
330
747D
100
AcDbEntity
  8
文字
 48
50.0
100
AcDbLine
 10
10775.48734154692
 20
3170.943682177906
 30
0.0
 11
10706.83612368179
 21
3189.338720564283
 31
0.0
  0
LINE
  5
140F9
330
747D
100
AcDbEntity
  8
文字
 48
50.0
100
AcDbLine
 10
10775.48734154692
 20
3170.943682177906
 30
0.0
 11
10706.83612368179
 21
3152.548643791531
 31
0.0
  0
LINE
  5
140FA
330
747D
100
AcDbEntity
  8
細線
 48
50.0
100
AcDbLine
 10
11008.46666298116
 20
2955.602601503321
 30
0.0
 11
11017.62328806157
 21
2934.60260150332
 31
0.0
  0
LINE
  5
140FB
330
747D
100
AcDbEntity
  8
部品1
 48
50.0
100
AcDbLine
 10
10997.59463224553
 20
3070.402601503318
 30
0.0
 11
10997.59463224553
 21
2955.602601503321
 31
0.0
  0
TEXT
  5
140FC
330
747D
100
AcDbEntity
  8
文字
 48
50.0
100
AcDbText
 10
9678.057373113929
 20
3329.106969457704
 30
0.0
 40
72.0
  1
水勾配
 41
0.8
  7
STYLE1
100
AcDbText
  0
TEXT
  5
140FD
330
747D
100
AcDbEntity
  8
文字
 48
50.0
100
AcDbText
 10
10248.03606863594
 20
3329.106969457704
 30
0.0
 40
72.0
  1
水勾配
 41
0.8
  7
STYLE1
100
AcDbText
  0
LINE
  5
140FE
330
747D
100
AcDbEntity
  8
文字
 48
50.0
100
AcDbLine
 10
10645.91856178731
 20
4518.489493800728
 30
0.0
 11
10645.91856178731
 21
4339.989493800727
 31
0.0
  0
LINE
  5
140FF
330
747D
100
AcDbEntity
  8
文字
 48
50.0
100
AcDbLine
 10
9612.534791153787
 20
4518.489493800728
 30
0.0
 11
9612.534791153787
 21
4339.989493800727
 31
0.0
  0
TEXT
  5
14100
330
747D
100
AcDbEntity
  8
文字
 62
     7
 48
50.0
100
AcDbText
 10
9665.80263708396
 20
4385.976326579426
 30
0.0
 40
90.0
  1
Ａ-Ａ' 断面 1/20
  7
STYLE2
100
AcDbText
  0
LINE
  5
14101
330
747D
100
AcDbEntity
  8
文字
 48
50.0
100
AcDbLine
 10
9612.534791153787
 20
4339.989493800727
 30
0.0
 11
10645.91856178731
 21
4339.989493800727
 31
0.0
  0
LINE
  5
14102
330
747D
100
AcDbEntity
  8
文字
 48
50.0
100
AcDbLine
 10
9612.534791153787
 20
4518.489493800728
 30
0.0
 11
10645.91856178731
 21
4518.489493800728
 31
0.0
  0
LINE
  5
14103
330
747D
100
AcDbEntity
  8
文字
 48
50.0
100
AcDbLine
 10
9612.534791153787
 20
1359.84602608085
 30
0.0
 11
10645.91856178731
 21
1359.84602608085
 31
0.0
  0
LINE
  5
14104
330
747D
100
AcDbEntity
  8
文字
 48
50.0
100
AcDbLine
 10
9612.534791153787
 20
1181.34602608085
 30
0.0
 11
10645.91856178731
 21
1181.34602608085
 31
0.0
  0
TEXT
  5
14105
330
747D
100
AcDbEntity
  8
文字
 62
     7
 48
50.0
100
AcDbText
 10
9665.80263708396
 20
1227.332858859549
 30
0.0
 40
90.0
  1
Ｂ-Ｂ' 断面　1/20
  7
STYLE2
100
AcDbText
  0
LINE
  5
14106
330
747D
100
AcDbEntity
  8
文字
 48
50.0
100
AcDbLine
 10
9612.534791153787
 20
1359.84602608085
 30
0.0
 11
9612.534791153787
 21
1181.34602608085
 31
0.0
  0
LINE
  5
14107
330
747D
100
AcDbEntity
  8
文字
 48
50.0
100
AcDbLine
 10
10645.91856178731
 20
1359.84602608085
 30
0.0
 11
10645.91856178731
 21
1181.34602608085
 31
0.0
  0
TEXT
  5
14108
330
747D
100
AcDbEntity
  8
文字
 62
     7
 48
50.0
100
AcDbText
 10
11138.71739229687
 20
628.6895453046891
 30
0.0
 40
75.0
  1
～一般型～
  7
STYLE2
100
AcDbText
  0
TEXT
  5
14109
330
747D
100
AcDbEntity
  8
文字
 62
     7
 48
50.0
100
AcDbText
 10
10951.9835159712
 20
362.9225347433562
 30
0.0
 40
120.0
  1
BＹ-２８L-２
  7
STYLE3
100
AcDbText
  0
LINE
  5
1410A
330
747D
100
AcDbEntity
  8
仕様書枠
  6
Continuous
 48
50.0
100
AcDbLine
 10
10688.4
 20
900.0000000000001
 30
0.0
 11
10688.4
 21
600.0
 31
0.0
  0
LINE
  5
1410B
330
747D
100
AcDbEntity
  8
仕様書枠
 48
50.0
100
AcDbLine
 10
9830.400000000002
 20
600.0
 30
0.0
 11
10688.4
 21
600.0
 31
0.0
  0
TEXT
  5
1410C
330
747D
100
AcDbEntity
  8
文字
 62
     7
 48
50.0
100
AcDbText
 10
10893.0988779165
 20
773.6682797184215
 30
0.0
 40
75.0
  1
NO.4     <縮尺> S=1/30
  7
STYLE2
100
AcDbText
  0
TEXT
  5
1410D
330
747D
100
AcDbEntity
  8
文字
 62
     7
 48
50.0
100
AcDbText
 10
9907.054008162901
 20
57.07076030737027
 30
0.0
 40
60.0
  1
○寒冷地等は、地域の実情に合わせた基礎にしてください。
  7
STYLE2
100
AcDbText
  0
TEXT
  5
1410E
330
747D
100
AcDbEntity
  8
文字
 62
     7
 48
50.0
100
AcDbText
 10
9907.054008162901
 20
171.4076431926764
 30
0.0
 40
60.0
  1
○間口寸法は柱芯寸法です。
  7
STYLE2
100
AcDbText
  0
TEXT
  5
1410F
330
747D
100
AcDbEntity
  8
文字
 62
     7
 48
50.0
100
AcDbText
 10
9901.077524988313
 20
357.9555495773444
 30
0.0
 40
120.0
  1
機種名
  7
STYLE2
100
AcDbText
  0
TEXT
  5
14110
330
747D
100
AcDbEntity
  8
文字
 62
     7
 48
50.0
100
AcDbText
 10
9872.234292432677
 20
671.3179555724555
 30
0.0
 40
150.0
  1
基 礎 図
  7
STYLE2
100
AcDbText
  0
LINE
  5
14111
330
747D
100
AcDbEntity
  8
文字
 62
     7
 48
50.0
100
AcDbLine
 10
9890.400000000001
 20
300.0000000000002
 30
0.0
 11
12170.4
 21
300.0000000000002
 31
0.0
  0
LINE
  5
14112
330
747D
100
AcDbEntity
  8
仕様書枠
 48
50.0
100
AcDbLine
 10
9830.400000000002
 20
900.0000000000001
 30
0.0
 11
12230.4
 21
900.0000000000001
 31
0.0
  0
LINE
  5
14113
330
747D
100
AcDbEntity
  8
仕様書枠
 48
50.0
100
AcDbLine
 10
12230.4
 20
900.0000000000001
 30
0.0
 11
12230.4
 21
0.0000000000001364
 31
0.0
  0
LINE
  5
14114
330
747D
100
AcDbEntity
  8
仕様書枠
  6
Continuous
 48
50.0
100
AcDbLine
 10
9830.400000000002
 20
900.0000000000001
 30
0.0
 11
9830.400000000002
 21
0.0000000000001499
 31
0.0
  0
LINE
  5
1438E
330
747D
100
AcDbEntity
  8
部品1
 48
50.0
100
AcDbLine
 10
9977.406413463619
 20
6176.083134908795
 30
0.0
 11
9959.406413463618
 21
6176.083134908797
 31
0.0
  0
LINE
  5
1438F
330
747D
100
AcDbEntity
  8
部品1
 48
50.0
100
AcDbLine
 10
9944.406413463617
 20
6163.583134908796
 30
0.0
 11
9992.406413463619
 21
6163.583134908796
 31
0.0
  0
LINE
  5
14390
330
747D
100
AcDbEntity
  8
部品1
 48
50.0
100
AcDbLine
 10
9992.406413463616
 20
6149.583134908795
 30
0.0
 11
9992.406413463616
 21
6163.583134908796
 31
0.0
  0
LINE
  5
14391
330
747D
100
AcDbEntity
  8
部品1
 48
50.0
100
AcDbLine
 10
9944.406413463617
 20
6149.583134908795
 30
0.0
 11
9944.406413463617
 21
6163.583134908796
 31
0.0
  0
LINE
  5
14392
330
747D
100
AcDbEntity
  8
部品1
 48
50.0
100
AcDbLine
 10
9980.406413463617
 20
6149.583134908798
 30
0.0
 11
9980.406413463617
 21
6163.583134908796
 31
0.0
  0
LINE
  5
14393
330
747D
100
AcDbEntity
  8
部品1
 48
50.0
100
AcDbLine
 10
9956.406413463618
 20
6149.583134908798
 30
0.0
 11
9956.406413463618
 21
6163.583134908796
 31
0.0
  0
LINE
  5
14394
330
747D
100
AcDbEntity
  8
部品1
 48
50.0
100
AcDbLine
 10
9959.406413463618
 20
6163.583134908796
 30
0.0
 11
9959.406413463618
 21
6176.083134908798
 31
0.0
  0
LINE
  5
14395
330
747D
100
AcDbEntity
  8
部品1
 48
50.0
100
AcDbLine
 10
9977.406413463617
 20
6163.583134908796
 30
0.0
 11
9977.406413463617
 21
6176.083134908798
 31
0.0
  0
LINE
  5
14396
330
747D
100
AcDbEntity
  8
部品1
 48
50.0
100
AcDbLine
 10
10277.40641346362
 20
6163.583134908793
 30
0.0
 11
10277.40641346362
 21
6176.083134908795
 31
0.0
  0
LINE
  5
14397
330
747D
100
AcDbEntity
  8
部品1
 48
50.0
100
AcDbLine
 10
10259.40641346362
 20
6163.583134908793
 30
0.0
 11
10259.40641346362
 21
6176.083134908795
 31
0.0
  0
LINE
  5
14398
330
747D
100
AcDbEntity
  8
部品1
 48
50.0
100
AcDbLine
 10
10256.40641346361
 20
6149.583134908798
 30
0.0
 11
10256.40641346361
 21
6163.583134908796
 31
0.0
  0
LINE
  5
14399
330
747D
100
AcDbEntity
  8
部品1
 48
50.0
100
AcDbLine
 10
10280.40641346361
 20
6149.583134908798
 30
0.0
 11
10280.40641346362
 21
6163.583134908796
 31
0.0
  0
LINE
  5
1439A
330
747D
100
AcDbEntity
  8
部品1
 48
50.0
100
AcDbLine
 10
10244.40641346362
 20
6149.583134908795
 30
0.0
 11
10244.40641346362
 21
6163.583134908796
 31
0.0
  0
LINE
  5
1439B
330
747D
100
AcDbEntity
  8
部品1
 48
50.0
100
AcDbLine
 10
10292.40641346361
 20
6149.583134908795
 30
0.0
 11
10292.40641346361
 21
6163.583134908796
 31
0.0
  0
LINE
  5
1439C
330
747D
100
AcDbEntity
  8
部品1
 48
50.0
100
AcDbLine
 10
10244.40641346362
 20
6163.583134908796
 30
0.0
 11
10292.40641346361
 21
6163.583134908796
 31
0.0
  0
LINE
  5
1439D
330
747D
100
AcDbEntity
  8
部品1
 48
50.0
100
AcDbLine
 10
10277.40641346362
 20
6176.083134908795
 30
0.0
 11
10259.40641346362
 21
6176.083134908797
 31
0.0
  0
ENDSEC
  0
SECTION
  2
OBJECTS
  0
DICTIONARY
  5
7471
330
0
100
AcDbDictionary
281
     1
  3
ACAD_COLOR
350
13C2C
  3
ACAD_GROUP
350
7472
  3
ACAD_LAYOUT
350
13C2D
  3
ACAD_MATERIAL
350
13C2B
  3
ACAD_MLINESTYLE
350
7473
  3
ACAD_PLOTSETTINGS
350
13C2E
  3
ACAD_PLOTSTYLENAME
350
13C29
  3
ACDBHEADERROUNDTRIPXREC
350
143AE
  3
AcDbVariableDictionary
350
143AA
  3
CONTENTDICTIONARY
350
E71C
  3
DRAWINGVARIABLESDICT
350
F3B9
  0
DICTIONARY
  5
13C2C
102
{ACAD_REACTORS
330
7471
102
}
330
7471
100
AcDbDictionary
281
     1
  0
DICTIONARY
  5
7472
102
{ACAD_REACTORS
330
7471
102
}
330
7471
100
AcDbDictionary
281
     1
  0
DICTIONARY
  5
13C2D
102
{ACAD_REACTORS
330
7471
102
}
330
7471
100
AcDbDictionary
281
     1
  3
Model
350
13C2F
  3
レイアウト1
350
13C30
  0
DICTIONARY
  5
13C2B
102
{ACAD_REACTORS
330
7471
102
}
330
7471
100
AcDbDictionary
281
     1
  0
DICTIONARY
  5
7473
102
{ACAD_REACTORS
330
7471
102
}
330
7471
100
AcDbDictionary
281
     1
  3
STANDARD
350
7480
  0
DICTIONARY
  5
13C2E
102
{ACAD_REACTORS
330
7471
102
}
330
7471
100
AcDbDictionary
281
     1
  0
ACDBDICTIONARYWDFLT
  5
13C29
102
{ACAD_REACTORS
330
7471
102
}
330
7471
100
AcDbDictionary
281
     1
  3
Normal
350
13C2A
100
AcDbDictionaryWithDefault
340
13C2A
  0
DICTIONARY
  5
143AE
102
{ACAD_REACTORS
330
7471
102
}
330
7471
100
AcDbDictionary
281
     1
  3
COLORDICT
350
143B0
  3
MATERIALDICT
350
143AF
  0
DICTIONARY
  5
143AA
102
{ACAD_REACTORS
330
7471
102
}
330
7471
100
AcDbDictionary
281
     1
  3
DIMASSOC
350
143AB
  3
PROJECTNAME
350
143AC
  0
DICTIONARY
  5
E71C
102
{ACAD_REACTORS
330
7471
102
}
330
7471
100
AcDbDictionary
281
     1
  0
DICTIONARY
  5
F3B9
102
{ACAD_REACTORS
330
7471
102
}
330
7471
100
AcDbDictionary
281
     1
1001
DRAWINGVARIABLESXDATA
1000
POLARMODE
1000
1
  0
LAYOUT
  5
13C2F
102
{ACAD_XDICTIONARY
360
143B1
102
}
102
{ACAD_REACTORS
330
13C2D
102
}
330
13C2D
100
AcDbPlotSettings
  1

  2
Microsoft XPS Document Writer
  4

  6

 40
0.0
 41
0.0
 42
0.0
 43
0.0
 44
0.0
 45
0.0
 46
0.0
 47
0.0
 48
0.0
 49
0.0
140
0.0
141
0.0
142
1.0
143
1.0
 70
  1712
 72
     0
 73
     0
 74
     0
  7

 75
     0
147
1.0
148
0.0
149
0.0
100
AcDbLayout
  1
Model
 70
     1
 71
     0
 10
0.0
 20
0.0
 11
12.0
 21
9.0
 12
0.0
 22
0.0
 32
0.0
 14
0.0
 24
0.0
 34
0.0
 15
0.0
 25
0.0
 35
0.0
146
0.0
 13
0.0
 23
0.0
 33
0.0
 16
1.0
 26
0.0
 36
0.0
 17
0.0
 27
1.0
 37
0.0
 76
     0
330
747D
  0
LAYOUT
  5
13C30
102
{ACAD_XDICTIONARY
360
143B3
102
}
102
{ACAD_REACTORS
330
13C2D
102
}
330
13C2D
100
AcDbPlotSettings
  1

  2
Microsoft XPS Document Writer
  4

  6

 40
0.0
 41
0.0
 42
0.0
 43
0.0
 44
0.0
 45
0.0
 46
0.0
 47
0.0
 48
0.0
 49
0.0
140
0.0
141
0.0
142
1.0
143
1.0
 70
   688
 72
     0
 73
     0
 74
     5
  7

 75
    16
147
1.0
148
0.0
149
0.0
100
AcDbLayout
  1
レイアウト1
 70
     0
 71
     1
 10
0.0
 20
0.0
 11
420.0
 21
297.0
 12
0.0
 22
0.0
 32
0.0
 14
1.000000000000000E+20
 24
1.000000000000000E+20
 34
1.000000000000000E+20
 15
-1.000000000000000E+20
 25
-1.000000000000000E+20
 35
-1.000000000000000E+20
146
0.0
 13
0.0
 23
0.0
 33
0.0
 16
1.0
 26
0.0
 36
0.0
 17
0.0
 27
1.0
 37
0.0
 76
     0
330
747A
  0
MLINESTYLE
  5
7480
102
{ACAD_REACTORS
330
7473
102
}
330
7473
100
AcDbMlineStyle
  2
STANDARD
 70
     0
  3

 62
     0
 51
90.0
 52
90.0
 71
     2
 49
0.5
 62
   256
  6
BYLAYER
 49
-0.5
 62
   256
  6
BYLAYER
  0
ACDBPLACEHOLDER
  5
13C2A
102
{ACAD_REACTORS
330
13C29
102
}
330
13C29
  0
XRECORD
  5
143B0
102
{ACAD_REACTORS
330
143AE
102
}
330
143AE
100
AcDbXrecord
280
     1
340
13C2C
  0
XRECORD
  5
143AF
102
{ACAD_REACTORS
330
143AE
102
}
330
143AE
100
AcDbXrecord
280
     1
340
13C2B
  0
DICTIONARYVAR
  5
143AB
102
{ACAD_REACTORS
330
143AA
102
}
330
143AA
100
DictionaryVariables
280
     0
  1
1
  0
DICTIONARYVAR
  5
143AC
102
{ACAD_REACTORS
330
143AA
102
}
330
143AA
100
DictionaryVariables
280
     0
  1

  0
DICTIONARY
  5
143B1
330
13C2F
100
AcDbDictionary
280
     1
281
     1
  3
ACAD_XREC_ROUNDTRIP
360
143B2
  0
DICTIONARY
  5
143B3
330
13C30
100
AcDbDictionary
280
     1
281
     1
  3
ACAD_XREC_ROUNDTRIP
360
143B4
  0
XRECORD
  5
143B2
102
{ACAD_REACTORS
330
143B1
102
}
330
143B1
100
AcDbXrecord
280
     1
102
SHADEPLOT
 70
     0
102
SHADEPLOTRESLEVEL
 70
     2
102
SHADEPLOTCUSTOMDPI
 70
   300
  0
XRECORD
  5
143B4
102
{ACAD_REACTORS
330
143B3
102
}
330
143B3
100
AcDbXrecord
280
     1
102
SHADEPLOT
 70
     0
102
SHADEPLOTRESLEVEL
 70
     2
102
SHADEPLOTCUSTOMDPI
 70
   300
  0
ENDSEC
  0
EOF
