  0
SECTION
  2
HEADER
  9
$ACADVER
  1
AC1015
  9
$ACADMAINTVER
 70
    20
  9
$DWGCODEPAGE
  3
ANSI_932
  9
$INSBASE
 10
0.0
 20
0.0
 30
0.0
  9
$EXTMIN
 10
104.3976124660112
 20
-0.1022374761851097
 30
-0.0000000000000058
  9
$EXTMAX
 10
12231.24392539175
 20
8557.446419011871
 30
0.0000000000000104
  9
$LIMMIN
 10
0.0
 20
0.0
  9
$LIMMAX
 10
12600.0
 20
8910.0
  9
$ORTHOMODE
 70
     1
  9
$REGENMODE
 70
     1
  9
$FILLMODE
 70
     1
  9
$QTEXTMODE
 70
     0
  9
$MIRRTEXT
 70
     1
  9
$LTSCALE
 40
20.0
  9
$ATTMODE
 70
     1
  9
$TEXTSIZE
 40
100.0
  9
$TRACEWID
 40
1.0
  9
$TEXTSTYLE
  7
STYLE3
  9
$CLAYER
  8
寸法
  9
$CELTYPE
  6
BYLAYER
  9
$CECOLOR
 62
   256
  9
$CELTSCALE
 40
50.0
  9
$DISPSILH
 70
     0
  9
$DIMSCALE
 40
30.0
  9
$DIMASZ
 40
2.5
  9
$DIMEXO
 40
0.5
  9
$DIMDLI
 40
7.0
  9
$DIMRND
 40
0.0
  9
$DIMDLE
 40
0.0
  9
$DIMEXE
 40
1.5
  9
$DIMTP
 40
0.0
  9
$DIMTM
 40
0.0
  9
$DIMTXT
 40
3.0
  9
$DIMCEN
 40
-0.1
  9
$DIMTSZ
 40
0.0
  9
$DIMTOL
 70
     0
  9
$DIMLIM
 70
     0
  9
$DIMTIH
 70
     0
  9
$DIMTOH
 70
     0
  9
$DIMSE1
 70
     0
  9
$DIMSE2
 70
     0
  9
$DIMTAD
 70
     3
  9
$DIMZIN
 70
     8
  9
$DIMBLK
  1

  9
$DIMASO
 70
     1
  9
$DIMSHO
 70
     1
  9
$DIMPOST
  1

  9
$DIMAPOST
  1

  9
$DIMALT
 70
     0
  9
$DIMALTD
 70
     2
  9
$DIMALTF
 40
0.0394
  9
$DIMLFAC
 40
1.0
  9
$DIMTOFL
 70
     1
  9
$DIMTVP
 40
0.0
  9
$DIMTIX
 70
     1
  9
$DIMSOXD
 70
     0
  9
$DIMSAH
 70
     1
  9
$DIMBLK1
  1
DOTSMALL
  9
$DIMBLK2
  1
DOTSMALL
  9
$DIMSTYLE
  2
INABA_S30G
  9
$DIMCLRD
 70
     0
  9
$DIMCLRE
 70
     0
  9
$DIMCLRT
 70
     7
  9
$DIMTFAC
 40
1.0
  9
$DIMGAP
 40
1.0
  9
$DIMJUST
 70
     0
  9
$DIMSD1
 70
     0
  9
$DIMSD2
 70
     0
  9
$DIMTOLJ
 70
     1
  9
$DIMTZIN
 70
     0
  9
$DIMALTZ
 70
     0
  9
$DIMALTTZ
 70
     0
  9
$DIMUPT
 70
     1
  9
$DIMDEC
 70
     1
  9
$DIMTDEC
 70
     4
  9
$DIMALTU
 70
     2
  9
$DIMALTTD
 70
     2
  9
$DIMTXSTY
  7
STYLE1
  9
$DIMAUNIT
 70
     0
  9
$DIMADEC
 70
     0
  9
$DIMALTRND
 40
0.0
  9
$DIMAZIN
 70
     0
  9
$DIMDSEP
 70
    46
  9
$DIMATFIT
 70
     3
  9
$DIMFRAC
 70
     0
  9
$DIMLDRBLK
  1

  9
$DIMLUNIT
 70
     2
  9
$DIMLWD
 70
    -2
  9
$DIMLWE
 70
    -2
  9
$DIMTMOVE
 70
     2
  9
$LUNITS
 70
     2
  9
$LUPREC
 70
     1
  9
$SKETCHINC
 40
1.0
  9
$FILLETRAD
 40
10.0
  9
$AUNITS
 70
     0
  9
$AUPREC
 70
     0
  9
$MENU
  1
acad
  9
$ELEVATION
 40
0.0
  9
$PELEVATION
 40
0.0
  9
$THICKNESS
 40
0.0
  9
$LIMCHECK
 70
     0
  9
$CHAMFERA
 40
0.0
  9
$CHAMFERB
 40
0.0
  9
$CHAMFERC
 40
0.0
  9
$CHAMFERD
 40
0.0
  9
$SKPOLY
 70
     0
  9
$TDCREATE
 40
2451605.424024074
  9
$TDUCREATE
 40
2451605.049024074
  9
$TDUPDATE
 40
2455091.749095046
  9
$TDUUPDATE
 40
2455091.374095047
  9
$TDINDWG
 40
0.4910039931
  9
$TDUSRTIMER
 40
0.4910039931
  9
$USRTIMER
 70
     1
  9
$ANGBASE
 50
0.0
  9
$ANGDIR
 70
     0
  9
$PDMODE
 70
     3
  9
$PDSIZE
 40
2.0
  9
$PLINEWID
 40
0.0
  9
$SPLFRAME
 70
     0
  9
$SPLINETYPE
 70
     6
  9
$SPLINESEGS
 70
     8
  9
$HANDSEED
  5
14D19
  9
$SURFTAB1
 70
     6
  9
$SURFTAB2
 70
     6
  9
$SURFTYPE
 70
     6
  9
$SURFU
 70
     6
  9
$SURFV
 70
     6
  9
$UCSBASE
  2

  9
$UCSNAME
  2

  9
$UCSORG
 10
0.0
 20
0.0
 30
0.0
  9
$UCSXDIR
 10
1.0
 20
0.0
 30
0.0
  9
$UCSYDIR
 10
0.0
 20
1.0
 30
0.0
  9
$UCSORTHOREF
  2

  9
$UCSORTHOVIEW
 70
     0
  9
$UCSORGTOP
 10
0.0
 20
0.0
 30
0.0
  9
$UCSORGBOTTOM
 10
0.0
 20
0.0
 30
0.0
  9
$UCSORGLEFT
 10
0.0
 20
0.0
 30
0.0
  9
$UCSORGRIGHT
 10
0.0
 20
0.0
 30
0.0
  9
$UCSORGFRONT
 10
0.0
 20
0.0
 30
0.0
  9
$UCSORGBACK
 10
0.0
 20
0.0
 30
0.0
  9
$PUCSBASE
  2

  9
$PUCSNAME
  2

  9
$PUCSORG
 10
0.0
 20
0.0
 30
0.0
  9
$PUCSXDIR
 10
1.0
 20
0.0
 30
0.0
  9
$PUCSYDIR
 10
0.0
 20
1.0
 30
0.0
  9
$PUCSORTHOREF
  2

  9
$PUCSORTHOVIEW
 70
     0
  9
$PUCSORGTOP
 10
0.0
 20
0.0
 30
0.0
  9
$PUCSORGBOTTOM
 10
0.0
 20
0.0
 30
0.0
  9
$PUCSORGLEFT
 10
0.0
 20
0.0
 30
0.0
  9
$PUCSORGRIGHT
 10
0.0
 20
0.0
 30
0.0
  9
$PUCSORGFRONT
 10
0.0
 20
0.0
 30
0.0
  9
$PUCSORGBACK
 10
0.0
 20
0.0
 30
0.0
  9
$USERI1
 70
     0
  9
$USERI2
 70
     0
  9
$USERI3
 70
     0
  9
$USERI4
 70
     0
  9
$USERI5
 70
     0
  9
$USERR1
 40
0.0
  9
$USERR2
 40
0.0
  9
$USERR3
 40
0.0
  9
$USERR4
 40
0.0
  9
$USERR5
 40
0.0
  9
$WORLDVIEW
 70
     1
  9
$SHADEDGE
 70
     3
  9
$SHADEDIF
 70
    70
  9
$TILEMODE
 70
     1
  9
$MAXACTVP
 70
    16
  9
$PINSBASE
 10
0.0
 20
0.0
 30
0.0
  9
$PLIMCHECK
 70
     0
  9
$PEXTMIN
 10
1.000000000000000E+20
 20
1.000000000000000E+20
 30
1.000000000000000E+20
  9
$PEXTMAX
 10
-1.000000000000000E+20
 20
-1.000000000000000E+20
 30
-1.000000000000000E+20
  9
$PLIMMIN
 10
0.0
 20
0.0
  9
$PLIMMAX
 10
420.0
 20
297.0
  9
$UNITMODE
 70
     0
  9
$VISRETAIN
 70
     0
  9
$PLINEGEN
 70
     0
  9
$PSLTSCALE
 70
     0
  9
$TREEDEPTH
 70
  3020
  9
$CMLSTYLE
  2
STANDARD
  9
$CMLJUST
 70
     0
  9
$CMLSCALE
 40
1.0
  9
$PROXYGRAPHICS
 70
     1
  9
$MEASUREMENT
 70
     1
  9
$CELWEIGHT
370
    -1
  9
$ENDCAPS
280
     0
  9
$JOINSTYLE
280
     0
  9
$LWDISPLAY
290
     0
  9
$INSUNITS
 70
     0
  9
$HYPERLINKBASE
  1

  9
$STYLESHEET
  1

  9
$XEDIT
290
     1
  9
$CEPSNTYPE
380
     0
  9
$PSTYLEMODE
290
     1
  9
$FINGERPRINTGUID
  2
{CC227AE4-0C83-4D2C-8FE2-9ED76B97481D}
  9
$VERSIONGUID
  2
{9DD47EE2-D249-43B8-9BE7-4BCAB9A39665}
  9
$EXTNAMES
290
     1
  9
$PSVPSCALE
 40
0.0
  9
$OLESTARTUP
290
     0
  0
ENDSEC
  0
SECTION
  2
CLASSES
  0
CLASS
  1
ACDBDICTIONARYWDFLT
  2
AcDbDictionaryWithDefault
  3
ObjectDBX Classes
 90
        0
280
     0
281
     0
  0
CLASS
  1
DICTIONARYVAR
  2
AcDbDictionaryVar
  3
ObjectDBX Classes
 90
        0
280
     0
281
     0
  0
CLASS
  1
ACDBPLACEHOLDER
  2
AcDbPlaceHolder
  3
ObjectDBX Classes
 90
        0
280
     0
281
     0
  0
CLASS
  1
LAYOUT
  2
AcDbLayout
  3
ObjectDBX Classes
 90
        0
280
     0
281
     0
  0
ENDSEC
  0
SECTION
  2
TABLES
  0
TABLE
  2
VPORT
  5
746D
330
0
100
AcDbSymbolTable
 70
     3
  0
VPORT
  5
14D11
330
746D
100
AcDbSymbolTableRecord
100
AcDbViewportTableRecord
  2
*Active
 70
     0
 10
0.0
 20
0.0
 11
1.0
 21
1.0
 12
6167.820768928883
 22
4278.672090767844
 13
0.0
 23
0.0
 14
10.0
 24
10.0
 15
10.0
 25
10.0
 16
0.0
 26
0.0
 36
1.0
 17
0.0
 27
0.0
 37
0.0
 40
8619.485076197259
 41
1.492753623188405
 42
50.0
 43
0.0
 44
0.0
 50
0.0
 51
0.0
 71
     0
 72
     0
 73
     1
 74
     0
 75
     0
 76
     0
 77
     0
 78
     0
281
     0
 65
     1
110
0.0
120
0.0
130
0.0
111
1.0
121
0.0
131
0.0
112
0.0
122
1.0
132
0.0
 79
     0
146
0.0
  0
ENDTAB
  0
TABLE
  2
LTYPE
  5
746A
330
0
100
AcDbSymbolTable
 70
     4
  0
LTYPE
  5
7477
330
746A
100
AcDbSymbolTableRecord
100
AcDbLinetypeTableRecord
  2
BYBLOCK
 70
     0
  3

 72
    65
 73
     0
 40
0.0
  0
LTYPE
  5
7478
330
746A
100
AcDbSymbolTableRecord
100
AcDbLinetypeTableRecord
  2
BYLAYER
 70
     0
  3

 72
    65
 73
     0
 40
0.0
  0
LTYPE
  5
7479
330
746A
100
AcDbSymbolTableRecord
100
AcDbLinetypeTableRecord
  2
CONTINUOUS
 70
     0
  3
Solid line
 72
    65
 73
     0
 40
0.0
  0
LTYPE
  5
7816
330
746A
100
AcDbSymbolTableRecord
100
AcDbLinetypeTableRecord
  2
CENTER
 70
     0
  3
____ _ ____ _ ____ _ ____ _ ____ _ ____ _ ____ 
 72
    65
 73
     4
 40
2.0
 49
1.25
 74
     0
 49
-0.25
 74
     0
 49
0.25
 74
     0
 49
-0.25
 74
     0
  0
LTYPE
  5
781A
330
746A
100
AcDbSymbolTableRecord
100
AcDbLinetypeTableRecord
  2
HIDDEN
 70
     0
  3
__ __ __ __ __ __ __ __ __ __ __ __ __ __ __ __
 72
    65
 73
     2
 40
0.375
 49
0.25
 74
     0
 49
-0.125
 74
     0
  0
LTYPE
  5
781B
330
746A
100
AcDbSymbolTableRecord
100
AcDbLinetypeTableRecord
  2
PHANTOM
 70
     0
  3
______  __  __  ______  __  __  ______  __  __ 
 72
    65
 73
     6
 40
2.5
 49
1.25
 74
     0
 49
-0.25
 74
     0
 49
0.25
 74
     0
 49
-0.25
 74
     0
 49
0.25
 74
     0
 49
-0.25
 74
     0
  0
ENDTAB
  0
TABLE
  2
LAYER
  5
7467
330
0
100
AcDbSymbolTable
 70
    11
  0
LAYER
  5
7474
330
7467
100
AcDbSymbolTableRecord
100
AcDbLayerTableRecord
  2
0
 70
     0
 62
     7
  6
CONTINUOUS
370
    -3
390
1464B
  0
LAYER
  5
DEB2
330
7467
100
AcDbSymbolTableRecord
100
AcDbLayerTableRecord
  2
センター
 70
     0
 62
     3
  6
CENTER
370
    -3
390
1464B
  0
LAYER
  5
DEB3
330
7467
100
AcDbSymbolTableRecord
100
AcDbLayerTableRecord
  2
寸法
 70
     0
 62
     4
  6
CONTINUOUS
370
    -3
390
1464B
  0
LAYER
  5
DEB4
330
7467
100
AcDbSymbolTableRecord
100
AcDbLayerTableRecord
  2
部品1
 70
     0
 62
     7
  6
CONTINUOUS
370
    -3
390
1464B
  0
LAYER
  5
DEB5
330
7467
100
AcDbSymbolTableRecord
100
AcDbLayerTableRecord
  2
補助
 70
     0
 62
    -1
  6
CONTINUOUS
370
    -3
390
1464B
  0
LAYER
  5
DEB6
330
7467
100
AcDbSymbolTableRecord
100
AcDbLayerTableRecord
  2
文字
 70
     0
 62
     7
  6
CONTINUOUS
370
    -3
390
1464B
  0
LAYER
  5
F255
330
7467
100
AcDbSymbolTableRecord
100
AcDbLayerTableRecord
  2
DEFPOINTS
 70
     0
 62
     7
  6
CONTINUOUS
290
     0
370
    -3
390
1464B
  0
LAYER
  5
10B54
330
7467
100
AcDbSymbolTableRecord
100
AcDbLayerTableRecord
  2
仕様書枠
 70
     0
 62
   230
  6
CONTINUOUS
370
    -3
390
1464B
  0
LAYER
  5
11729
330
7467
100
AcDbSymbolTableRecord
100
AcDbLayerTableRecord
  2
Ｇ．Ｌ
 70
     0
 62
    30
  6
CONTINUOUS
370
    -3
390
1464B
  0
LAYER
  5
1173F
330
7467
100
AcDbSymbolTableRecord
100
AcDbLayerTableRecord
  2
細線
 70
     0
 62
     5
  6
CONTINUOUS
370
    -3
390
1464B
  0
LAYER
  5
11740
330
7467
100
AcDbSymbolTableRecord
100
AcDbLayerTableRecord
  2
点線
 70
     0
 62
     2
  6
HIDDEN
370
    -3
390
1464B
  0
ENDTAB
  0
TABLE
  2
STYLE
  5
7468
330
0
100
AcDbSymbolTable
 70
     4
  0
STYLE
  5
7475
330
7468
100
AcDbSymbolTableRecord
100
AcDbTextStyleTableRecord
  2
STANDARD
 70
     0
 40
0.0
 41
1.0
 50
0.0
 71
     0
 42
4.0
  3
txt
  4
C:\AutoCAD LT\bigfont.shx
  0
STYLE
  5
F706
330
7468
100
AcDbSymbolTableRecord
100
AcDbTextStyleTableRecord
  2
STYLE1
 70
     0
 40
0.0
 41
1.0
 50
0.0
 71
     0
 42
4.0
  3
isocp.shx
  4
bigfont.shx
  0
STYLE
  5
103BF
330
7468
100
AcDbSymbolTableRecord
100
AcDbTextStyleTableRecord
  2
STYLE2
 70
     0
 40
0.0
 41
1.0
 50
0.0
 71
     0
 42
100.0
  3
MS PGothic.ttf
  4

1001
ACAD
1000
MS PGothic
1071
    32818
  0
STYLE
  5
10BAA
330
7468
100
AcDbSymbolTableRecord
100
AcDbTextStyleTableRecord
  2
STYLE3
 70
     0
 40
0.0
 41
1.0
 50
0.0
 71
     0
 42
100.0
  3
MS PGothic.ttf
  4

1001
ACAD
1000
MS PGothic
1071
    32818
  0
ENDTAB
  0
TABLE
  2
VIEW
  5
746B
330
0
100
AcDbSymbolTable
 70
     0
  0
ENDTAB
  0
TABLE
  2
UCS
  5
746C
330
0
100
AcDbSymbolTable
 70
     0
  0
ENDTAB
  0
TABLE
  2
APPID
  5
746E
330
0
100
AcDbSymbolTable
 70
     6
  0
APPID
  5
7476
330
746E
100
AcDbSymbolTableRecord
100
AcDbRegAppTableRecord
  2
ACAD
 70
     0
  0
APPID
  5
DEA9
330
746E
100
AcDbSymbolTableRecord
100
AcDbRegAppTableRecord
  2
CONTENTBLOCKICON
 70
     0
  0
APPID
  5
DEAA
330
746E
100
AcDbSymbolTableRecord
100
AcDbRegAppTableRecord
  2
CONTENTBLOCKDESCRIPTION
 70
     0
  0
APPID
  5
E71D
330
746E
100
AcDbSymbolTableRecord
100
AcDbRegAppTableRecord
  2
CONTENTTABDATA
 70
     0
  0
APPID
  5
E71E
330
746E
100
AcDbSymbolTableRecord
100
AcDbRegAppTableRecord
  2
CONTENTCURRENTTAB
 70
     0
  0
APPID
  5
F3BA
330
746E
100
AcDbSymbolTableRecord
100
AcDbRegAppTableRecord
  2
DRAWINGVARIABLESXDATA
 70
     0
  0
ENDTAB
  0
TABLE
  2
DIMSTYLE
  5
746F
330
0
100
AcDbSymbolTable
 70
     4
100
AcDbDimStyleTable
 71
     0
  0
DIMSTYLE
105
7484
330
746F
100
AcDbSymbolTableRecord
100
AcDbDimStyleTableRecord
  2
JIS
 70
     0
 41
2.5
 42
1.0
 43
7.0
 44
1.0
 73
     0
 74
     0
 77
     1
 78
     8
140
2.5
141
0.0
143
0.0394
147
0.0
172
     1
174
     1
175
     1
340
7475
  0
DIMSTYLE
105
F71F
102
{ACAD_REACTORS
330
13E1D
330
13E1F
330
13E22
330
13E25
330
13E27
330
13E28
330
13E2A
330
13E2B
330
13E2D
330
13E4F
330
13E50
330
13E51
330
13E63
330
1402B
330
1402D
330
1402F
330
14031
330
14032
330
14033
330
14037
330
1403C
330
1403D
330
1405E
330
14060
102
}
330
746F
100
AcDbSymbolTableRecord
100
AcDbDimStyleTableRecord
  2
INABA_S30G
 70
     0
 40
30.0
 41
2.5
 42
0.5
 43
7.0
 44
1.5
 73
     0
 74
     0
 77
     3
 78
     8
140
3.0
141
0.0
143
0.0394
147
1.0
172
     1
173
     1
174
     1
178
     7
271
     1
340
F706
341
F770
343
F770
344
F770
  0
DIMSTYLE
105
13116
330
746F
100
AcDbSymbolTableRecord
100
AcDbDimStyleTableRecord
  2
INABA_S50G
 70
     0
 40
0.0
 41
125.0
 42
25.0
 43
7.0
 44
75.0
 73
     0
 74
     0
 77
     3
 78
     8
140
150.0
141
0.0
143
0.0394
147
25.0
172
     1
173
     1
174
     1
178
     7
271
     1
340
F706
341
F770
343
F770
344
F770
  0
DIMSTYLE
105
1474B
102
{ACAD_REACTORS
330
14943
330
14944
330
14945
330
14977
330
14978
330
14996
330
14997
330
149F1
330
149FB
330
14A0D
330
14A0F
330
14A1C
330
14A7B
330
14A88
330
14A8A
330
14A9C
330
14AA8
330
14B07
330
14B08
102
}
330
746F
100
AcDbSymbolTableRecord
100
AcDbDimStyleTableRecord
  2
INABA_S30G詳細用20
 70
     0
 40
30.0
 41
2.5
 42
0.5
 43
7.0
 44
1.5
 73
     0
 74
     0
 77
     3
 78
     8
140
3.0
141
0.0
143
0.0394
144
0.6666666667
147
1.0
172
     1
173
     1
174
     1
178
     7
271
     0
272
     0
340
F706
341
F770
343
F770
344
F770
  0
ENDTAB
  0
TABLE
  2
BLOCK_RECORD
  5
7466
330
0
100
AcDbSymbolTable
 70
    45
  0
BLOCK_RECORD
  5
747D
330
7466
100
AcDbSymbolTableRecord
100
AcDbBlockTableRecord
  2
*MODEL_SPACE
340
14650
  0
BLOCK_RECORD
  5
747A
330
7466
100
AcDbSymbolTableRecord
100
AcDbBlockTableRecord
  2
*PAPER_SPACE
340
14651
  0
BLOCK_RECORD
  5
F770
330
7466
100
AcDbSymbolTableRecord
100
AcDbBlockTableRecord
  2
_DOTSMALL
340
0
102
{BLKREFS
331
14614
331
14615
331
14287
331
14288
331
14609
331
1460A
331
1429D
331
1429E
331
142A8
331
142A9
331
142B3
331
142B4
331
145FE
331
145FF
331
142C9
331
142CA
331
142D4
331
142D5
331
142E1
331
142E2
331
142EC
331
142ED
331
142F9
331
142FA
331
14304
331
14305
331
14635
331
14636
331
143FA
331
143FB
331
1462A
331
1462B
331
14410
331
14411
331
1441B
331
1441C
331
14426
331
14427
331
14431
331
14432
331
1461F
331
14620
331
14447
331
14448
331
14452
331
14453
331
1445D
331
1445E
331
14C28
331
14C29
331
14C31
331
14C32
331
14C3A
331
14C3B
331
14C4F
331
14C50
331
14C59
331
14C5A
331
14C62
331
14C63
331
14C6B
331
14C6C
331
14C75
331
14C76
331
14C7F
331
14C80
331
14C89
331
14C8A
331
14C92
331
14C93
331
14C9B
331
14C9C
331
14CA5
331
14CA6
331
14CAF
331
14CB0
331
14CB9
331
14CBA
331
14CC2
331
14CC3
331
14CCB
331
14CCC
331
14CD5
331
14CD6
331
14D07
331
14D08
102
}
  0
BLOCK_RECORD
  5
14061
330
7466
100
AcDbSymbolTableRecord
100
AcDbBlockTableRecord
  2
*D1
340
0
  0
BLOCK_RECORD
  5
1406D
330
7466
100
AcDbSymbolTableRecord
100
AcDbBlockTableRecord
  2
*D2
340
0
  0
BLOCK_RECORD
  5
14079
330
7466
100
AcDbSymbolTableRecord
100
AcDbBlockTableRecord
  2
*D3
340
0
  0
BLOCK_RECORD
  5
14085
330
7466
100
AcDbSymbolTableRecord
100
AcDbBlockTableRecord
  2
*D4
340
0
  0
BLOCK_RECORD
  5
14091
330
7466
100
AcDbSymbolTableRecord
100
AcDbBlockTableRecord
  2
*D5
340
0
  0
BLOCK_RECORD
  5
1409D
330
7466
100
AcDbSymbolTableRecord
100
AcDbBlockTableRecord
  2
*D6
340
0
  0
BLOCK_RECORD
  5
140A9
330
7466
100
AcDbSymbolTableRecord
100
AcDbBlockTableRecord
  2
*D7
340
0
  0
BLOCK_RECORD
  5
140B5
330
7466
100
AcDbSymbolTableRecord
100
AcDbBlockTableRecord
  2
*D8
340
0
  0
BLOCK_RECORD
  5
140C1
330
7466
100
AcDbSymbolTableRecord
100
AcDbBlockTableRecord
  2
*D9
340
0
  0
BLOCK_RECORD
  5
140CD
330
7466
100
AcDbSymbolTableRecord
100
AcDbBlockTableRecord
  2
*D10
340
0
  0
BLOCK_RECORD
  5
140DB
330
7466
100
AcDbSymbolTableRecord
100
AcDbBlockTableRecord
  2
*D11
340
0
  0
BLOCK_RECORD
  5
140E7
330
7466
100
AcDbSymbolTableRecord
100
AcDbBlockTableRecord
  2
*D12
340
0
  0
BLOCK_RECORD
  5
140F5
330
7466
100
AcDbSymbolTableRecord
100
AcDbBlockTableRecord
  2
*D13
340
0
  0
BLOCK_RECORD
  5
141F4
330
7466
100
AcDbSymbolTableRecord
100
AcDbBlockTableRecord
  2
*D14
340
0
  0
BLOCK_RECORD
  5
14200
330
7466
100
AcDbSymbolTableRecord
100
AcDbBlockTableRecord
  2
*D15
340
0
  0
BLOCK_RECORD
  5
1420C
330
7466
100
AcDbSymbolTableRecord
100
AcDbBlockTableRecord
  2
*D16
340
0
  0
BLOCK_RECORD
  5
14218
330
7466
100
AcDbSymbolTableRecord
100
AcDbBlockTableRecord
  2
*D17
340
0
  0
BLOCK_RECORD
  5
14224
330
7466
100
AcDbSymbolTableRecord
100
AcDbBlockTableRecord
  2
*D18
340
0
  0
BLOCK_RECORD
  5
14230
330
7466
100
AcDbSymbolTableRecord
100
AcDbBlockTableRecord
  2
*D19
340
0
  0
BLOCK_RECORD
  5
1423C
330
7466
100
AcDbSymbolTableRecord
100
AcDbBlockTableRecord
  2
*D20
340
0
  0
BLOCK_RECORD
  5
14248
330
7466
100
AcDbSymbolTableRecord
100
AcDbBlockTableRecord
  2
*D21
340
0
  0
BLOCK_RECORD
  5
14254
330
7466
100
AcDbSymbolTableRecord
100
AcDbBlockTableRecord
  2
*D22
340
0
  0
BLOCK_RECORD
  5
14260
330
7466
100
AcDbSymbolTableRecord
100
AcDbBlockTableRecord
  2
*D23
340
0
  0
BLOCK_RECORD
  5
1426C
330
7466
100
AcDbSymbolTableRecord
100
AcDbBlockTableRecord
  2
*D24
340
0
  0
BLOCK_RECORD
  5
146B1
330
7466
100
AcDbSymbolTableRecord
100
AcDbBlockTableRecord
  2
_None
340
0
  0
BLOCK_RECORD
  5
14B36
330
7466
100
AcDbSymbolTableRecord
100
AcDbBlockTableRecord
  2
*D26
340
0
  0
BLOCK_RECORD
  5
14B42
330
7466
100
AcDbSymbolTableRecord
100
AcDbBlockTableRecord
  2
*D27
340
0
  0
BLOCK_RECORD
  5
14B4E
330
7466
100
AcDbSymbolTableRecord
100
AcDbBlockTableRecord
  2
*D28
340
0
  0
BLOCK_RECORD
  5
14B5A
330
7466
100
AcDbSymbolTableRecord
100
AcDbBlockTableRecord
  2
*D29
340
0
  0
BLOCK_RECORD
  5
14B67
330
7466
100
AcDbSymbolTableRecord
100
AcDbBlockTableRecord
  2
*D30
340
0
  0
BLOCK_RECORD
  5
14B75
330
7466
100
AcDbSymbolTableRecord
100
AcDbBlockTableRecord
  2
*D31
340
0
  0
BLOCK_RECORD
  5
14B82
330
7466
100
AcDbSymbolTableRecord
100
AcDbBlockTableRecord
  2
*D32
340
0
  0
BLOCK_RECORD
  5
14B8E
330
7466
100
AcDbSymbolTableRecord
100
AcDbBlockTableRecord
  2
*D33
340
0
  0
BLOCK_RECORD
  5
14B9A
330
7466
100
AcDbSymbolTableRecord
100
AcDbBlockTableRecord
  2
*D34
340
0
  0
BLOCK_RECORD
  5
14BA7
330
7466
100
AcDbSymbolTableRecord
100
AcDbBlockTableRecord
  2
*D35
340
0
  0
BLOCK_RECORD
  5
14BB4
330
7466
100
AcDbSymbolTableRecord
100
AcDbBlockTableRecord
  2
*D36
340
0
  0
BLOCK_RECORD
  5
14BC1
330
7466
100
AcDbSymbolTableRecord
100
AcDbBlockTableRecord
  2
*D37
340
0
  0
BLOCK_RECORD
  5
14BCD
330
7466
100
AcDbSymbolTableRecord
100
AcDbBlockTableRecord
  2
*D38
340
0
  0
BLOCK_RECORD
  5
14BD9
330
7466
100
AcDbSymbolTableRecord
100
AcDbBlockTableRecord
  2
*D39
340
0
  0
BLOCK_RECORD
  5
14BE6
330
7466
100
AcDbSymbolTableRecord
100
AcDbBlockTableRecord
  2
*D40
340
0
  0
BLOCK_RECORD
  5
14BF3
330
7466
100
AcDbSymbolTableRecord
100
AcDbBlockTableRecord
  2
*D41
340
0
  0
BLOCK_RECORD
  5
14C00
330
7466
100
AcDbSymbolTableRecord
100
AcDbBlockTableRecord
  2
*D42
340
0
  0
BLOCK_RECORD
  5
14C0C
330
7466
100
AcDbSymbolTableRecord
100
AcDbBlockTableRecord
  2
*D43
340
0
  0
BLOCK_RECORD
  5
14C18
330
7466
100
AcDbSymbolTableRecord
100
AcDbBlockTableRecord
  2
*D44
340
0
  0
ENDTAB
  0
ENDSEC
  0
SECTION
  2
BLOCKS
  0
BLOCK
  5
7489
330
747D
100
AcDbEntity
  8
0
100
AcDbBlockBegin
  2
*MODEL_SPACE
 70
     0
 10
0.0
 20
0.0
 30
0.0
  3
*MODEL_SPACE
  1

  0
ENDBLK
  5
748A
330
747D
100
AcDbEntity
  8
0
100
AcDbBlockEnd
  0
BLOCK
  5
7487
330
747A
100
AcDbEntity
 67
     1
  8
0
100
AcDbBlockBegin
  2
*PAPER_SPACE
 70
     0
 10
0.0
 20
0.0
 30
0.0
  3
*PAPER_SPACE
  1

  0
ENDBLK
  5
7488
330
747A
100
AcDbEntity
 67
     1
  8
0
100
AcDbBlockEnd
  0
BLOCK
  5
F771
330
F770
100
AcDbEntity
  8
0
 48
50.0
100
AcDbBlockBegin
  2
_DOTSMALL
 70
     0
 10
0.0
 20
0.0
 30
0.0
  3
_DOTSMALL
  1

  0
LWPOLYLINE
  5
F772
330
F770
100
AcDbEntity
  8
0
  6
ByBlock
 62
     0
 48
50.0
100
AcDbPolyline
 90
        2
 70
     1
 43
0.5
 10
-0.0625
 20
0.0
 42
1.0
 10
0.0625
 20
0.0
 42
1.0
  0
ENDBLK
  5
F776
330
F770
100
AcDbEntity
  8
0
 48
50.0
100
AcDbBlockEnd
  0
BLOCK
  5
14610
330
14061
100
AcDbEntity
  8
0
 48
50.0
100
AcDbBlockBegin
  2
*D1
 70
     1
 10
0.0
 20
0.0
 30
0.0
  3
*D1
  1

  0
LINE
  5
14611
330
14061
100
AcDbEntity
  8
0
  6
ByBlock
 62
     0
 48
50.0
100
AcDbLine
 10
2047.12517365955
 20
15900.22968713041
 30
0.0
 11
2047.12517365955
 21
16576.71902023584
 31
0.0
  0
LINE
  5
14612
330
14061
100
AcDbEntity
  8
0
  6
ByBlock
 62
     0
 48
50.0
100
AcDbLine
 10
5377.12517365955
 20
15900.22968713041
 30
0.0
 11
5377.12517365955
 21
16576.71902023584
 31
0.0
  0
LINE
  5
14613
330
14061
100
AcDbEntity
  8
0
  6
ByBlock
 62
     0
 48
50.0
100
AcDbLine
 10
2047.12517365955
 20
16531.71902023584
 30
0.0
 11
5377.12517365955
 21
16531.71902023584
 31
0.0
  0
INSERT
  5
14614
330
14061
100
AcDbEntity
  8
0
  6
ByBlock
 62
     0
 48
50.0
100
AcDbBlockReference
  2
_DOTSMALL
 10
2047.12517365955
 20
16531.71902023584
 30
0.0
 41
75.0
 42
75.0
 43
75.0
 50
180.0
  0
INSERT
  5
14615
330
14061
100
AcDbEntity
  8
0
  6
ByBlock
 62
     0
 48
50.0
100
AcDbBlockReference
  2
_DOTSMALL
 10
5377.12517365955
 20
16531.71902023584
 30
0.0
 41
75.0
 42
75.0
 43
75.0
  0
MTEXT
  5
14616
330
14061
100
AcDbEntity
  8
0
  6
ByBlock
 62
     7
 48
50.0
100
AcDbMText
 10
3712.12517365955
 20
16606.71902023584
 30
0.0
 40
90.0
 41
0.0
 71
     5
 72
     1
  1
\A1;基礎寸法 3330
  7
STYLE1
 73
     1
 44
1.0
1001
ACAD
1000
MTEXTBEGIN
1070
    73
1070
     1
1070
    44
1040
1.0
1070
    74
1070
     0
1000
MTEXTEND
  0
POINT
  5
14617
330
14061
100
AcDbEntity
  8
DEFPOINTS
  6
ByBlock
 62
     0
 48
50.0
100
AcDbPoint
 10
2047.12517365955
 20
15885.22968713041
 30
0.0
  0
POINT
  5
14618
330
14061
100
AcDbEntity
  8
DEFPOINTS
  6
ByBlock
 62
     0
 48
50.0
100
AcDbPoint
 10
5377.12517365955
 20
15885.22968713041
 30
0.0
  0
POINT
  5
14619
330
14061
100
AcDbEntity
  8
DEFPOINTS
  6
ByBlock
 62
     0
 48
50.0
100
AcDbPoint
 10
5377.12517365955
 20
16531.71902023584
 30
0.0
  0
ENDBLK
  5
1461A
330
14061
100
AcDbEntity
  8
0
 48
50.0
100
AcDbBlockEnd
  0
BLOCK
  5
14283
330
1406D
100
AcDbEntity
  8
0
 48
50.0
100
AcDbBlockBegin
  2
*D2
 70
     1
 10
0.0
 20
0.0
 30
0.0
  3
*D2
  1

  0
LINE
  5
14284
330
1406D
100
AcDbEntity
  8
0
  6
ByBlock
 62
     0
 48
50.0
100
AcDbLine
 10
2047.12517365955
 20
15900.22968713041
 30
0.0
 11
2047.12517365955
 21
16382.68198126152
 31
0.0
  0
LINE
  5
14285
330
1406D
100
AcDbEntity
  8
0
  6
ByBlock
 62
     0
 48
50.0
100
AcDbLine
 10
2297.12517365955
 20
16150.22968713041
 30
0.0
 11
2297.12517365955
 21
16382.68198126152
 31
0.0
  0
LINE
  5
14286
330
1406D
100
AcDbEntity
  8
0
  6
ByBlock
 62
     0
 48
50.0
100
AcDbLine
 10
2047.12517365955
 20
16337.68198126152
 30
0.0
 11
2297.12517365955
 21
16337.68198126152
 31
0.0
  0
INSERT
  5
14287
330
1406D
100
AcDbEntity
  8
0
  6
ByBlock
 62
     0
 48
50.0
100
AcDbBlockReference
  2
_DOTSMALL
 10
2047.12517365955
 20
16337.68198126152
 30
0.0
 41
75.0
 42
75.0
 43
75.0
 50
180.0
  0
INSERT
  5
14288
330
1406D
100
AcDbEntity
  8
0
  6
ByBlock
 62
     0
 48
50.0
100
AcDbBlockReference
  2
_DOTSMALL
 10
2297.12517365955
 20
16337.68198126152
 30
0.0
 41
75.0
 42
75.0
 43
75.0
  0
MTEXT
  5
14289
330
1406D
100
AcDbEntity
  8
0
  6
ByBlock
 62
     7
 48
50.0
100
AcDbMText
 10
2172.12517365955
 20
16412.69083952924
 30
0.0
 40
90.0
 41
0.0
 71
     5
 72
     1
  1
\A1;250
  7
STYLE1
 73
     1
 44
1.0
1001
ACAD
1000
MTEXTBEGIN
1070
    73
1070
     1
1070
    44
1040
1.0
1070
    74
1070
     0
1000
MTEXTEND
  0
POINT
  5
1428A
330
1406D
100
AcDbEntity
  8
DEFPOINTS
  6
ByBlock
 62
     0
 48
50.0
100
AcDbPoint
 10
2047.12517365955
 20
15885.22968713041
 30
0.0
  0
POINT
  5
1428B
330
1406D
100
AcDbEntity
  8
DEFPOINTS
  6
ByBlock
 62
     0
 48
50.0
100
AcDbPoint
 10
2297.12517365955
 20
16135.22968713041
 30
0.0
  0
POINT
  5
1428C
330
1406D
100
AcDbEntity
  8
DEFPOINTS
  6
ByBlock
 62
     0
 48
50.0
100
AcDbPoint
 10
2297.12517365955
 20
16337.68198126152
 30
0.0
  0
ENDBLK
  5
1428D
330
1406D
100
AcDbEntity
  8
0
 48
50.0
100
AcDbBlockEnd
  0
BLOCK
  5
14605
330
14079
100
AcDbEntity
  8
0
 48
50.0
100
AcDbBlockBegin
  2
*D3
 70
     1
 10
0.0
 20
0.0
 30
0.0
  3
*D3
  1

  0
LINE
  5
14606
330
14079
100
AcDbEntity
  8
0
  6
ByBlock
 62
     0
 48
50.0
100
AcDbLine
 10
2047.12517365955
 20
13870.22968713041
 30
0.0
 11
2047.12517365955
 21
13450.4579825337
 31
0.0
  0
LINE
  5
14607
330
14079
100
AcDbEntity
  8
0
  6
ByBlock
 62
     0
 48
50.0
100
AcDbLine
 10
5377.12517365955
 20
13870.22968713041
 30
0.0
 11
5377.12517365955
 21
13450.4579825337
 31
0.0
  0
LINE
  5
14608
330
14079
100
AcDbEntity
  8
0
  6
ByBlock
 62
     0
 48
50.0
100
AcDbLine
 10
2047.12517365955
 20
13495.4579825337
 30
0.0
 11
5377.12517365955
 21
13495.4579825337
 31
0.0
  0
INSERT
  5
14609
330
14079
100
AcDbEntity
  8
0
  6
ByBlock
 62
     0
 48
50.0
100
AcDbBlockReference
  2
_DOTSMALL
 10
2047.12517365955
 20
13495.4579825337
 30
0.0
 41
75.0
 42
75.0
 43
75.0
 50
180.0
  0
INSERT
  5
1460A
330
14079
100
AcDbEntity
  8
0
  6
ByBlock
 62
     0
 48
50.0
100
AcDbBlockReference
  2
_DOTSMALL
 10
5377.12517365955
 20
13495.4579825337
 30
0.0
 41
75.0
 42
75.0
 43
75.0
  0
MTEXT
  5
1460B
330
14079
100
AcDbEntity
  8
0
  6
ByBlock
 62
     7
 48
50.0
100
AcDbMText
 10
3712.12517365955
 20
13570.4579825337
 30
0.0
 40
90.0
 41
0.0
 71
     5
 72
     1
  1
\A1;屋根寸法 3330
  7
STYLE1
 73
     1
 44
1.0
1001
ACAD
1000
MTEXTBEGIN
1070
    73
1070
     1
1070
    44
1040
1.0
1070
    74
1070
     0
1000
MTEXTEND
  0
POINT
  5
1460C
330
14079
100
AcDbEntity
  8
DEFPOINTS
  6
ByBlock
 62
     0
 48
50.0
100
AcDbPoint
 10
2047.12517365955
 20
13885.22968713041
 30
0.0
  0
POINT
  5
1460D
330
14079
100
AcDbEntity
  8
DEFPOINTS
  6
ByBlock
 62
     0
 48
50.0
100
AcDbPoint
 10
5377.12517365955
 20
13885.22968713041
 30
0.0
  0
POINT
  5
1460E
330
14079
100
AcDbEntity
  8
DEFPOINTS
  6
ByBlock
 62
     0
 48
50.0
100
AcDbPoint
 10
5377.12517365955
 20
13495.4579825337
 30
0.0
  0
ENDBLK
  5
1460F
330
14079
100
AcDbEntity
  8
0
 48
50.0
100
AcDbBlockEnd
  0
BLOCK
  5
14299
330
14085
100
AcDbEntity
  8
0
 48
50.0
100
AcDbBlockBegin
  2
*D4
 70
     1
 10
0.0
 20
0.0
 30
0.0
  3
*D4
  1

  0
LINE
  5
1429A
330
14085
100
AcDbEntity
  8
0
  6
ByBlock
 62
     0
 48
50.0
100
AcDbLine
 10
2032.12517365955
 20
15885.22968713041
 30
0.0
 11
1338.503974931858
 21
15885.22968713041
 31
0.0
  0
LINE
  5
1429B
330
14085
100
AcDbEntity
  8
0
  6
ByBlock
 62
     0
 48
50.0
100
AcDbLine
 10
2032.12517365955
 20
13885.22968713041
 30
0.0
 11
1338.503974931858
 21
13885.22968713041
 31
0.0
  0
LINE
  5
1429C
330
14085
100
AcDbEntity
  8
0
  6
ByBlock
 62
     0
 48
50.0
100
AcDbLine
 10
1383.503974931858
 20
15885.22968713041
 30
0.0
 11
1383.503974931858
 21
13885.22968713041
 31
0.0
  0
INSERT
  5
1429D
330
14085
100
AcDbEntity
  8
0
  6
ByBlock
 62
     0
 48
50.0
100
AcDbBlockReference
  2
_DOTSMALL
 10
1383.503974931858
 20
15885.22968713041
 30
0.0
 41
75.0
 42
75.0
 43
75.0
 50
90.0
  0
INSERT
  5
1429E
330
14085
100
AcDbEntity
  8
0
  6
ByBlock
 62
     0
 48
50.0
100
AcDbBlockReference
  2
_DOTSMALL
 10
1383.503974931858
 20
13885.22968713041
 30
0.0
 41
75.0
 42
75.0
 43
75.0
 50
270.0
  0
MTEXT
  5
1429F
330
14085
100
AcDbEntity
  8
0
  6
ByBlock
 62
     7
 48
50.0
100
AcDbMText
 10
1308.495116664142
 20
14885.22968713041
 30
0.0
 40
90.0
 41
0.0
 71
     5
 72
     1
  1
\A1;基礎寸法 2000
  7
STYLE1
 11
0.0000000000000001
 21
1.0
 31
0.0
 73
     1
 44
1.0
1001
ACAD
1000
MTEXTBEGIN
1070
    73
1070
     1
1070
    44
1040
1.0
1070
    74
1070
     0
1000
MTEXTEND
  0
POINT
  5
142A0
330
14085
100
AcDbEntity
  8
DEFPOINTS
  6
ByBlock
 62
     0
 48
50.0
100
AcDbPoint
 10
2047.12517365955
 20
15885.22968713041
 30
0.0
  0
POINT
  5
142A1
330
14085
100
AcDbEntity
  8
DEFPOINTS
  6
ByBlock
 62
     0
 48
50.0
100
AcDbPoint
 10
2047.12517365955
 20
13885.22968713041
 30
0.0
  0
POINT
  5
142A2
330
14085
100
AcDbEntity
  8
DEFPOINTS
  6
ByBlock
 62
     0
 48
50.0
100
AcDbPoint
 10
1383.503974931858
 20
13885.22968713041
 30
0.0
  0
ENDBLK
  5
142A3
330
14085
100
AcDbEntity
  8
0
 48
50.0
100
AcDbBlockEnd
  0
BLOCK
  5
142A4
330
14091
100
AcDbEntity
  8
0
 48
50.0
100
AcDbBlockBegin
  2
*D5
 70
     1
 10
0.0
 20
0.0
 30
0.0
  3
*D5
  1

  0
LINE
  5
142A5
330
14091
100
AcDbEntity
  8
0
  6
ByBlock
 62
     0
 48
50.0
100
AcDbLine
 10
2032.12517365955
 20
14885.22968713041
 30
0.0
 11
1561.091807331983
 21
14885.22968713041
 31
0.0
  0
LINE
  5
142A6
330
14091
100
AcDbEntity
  8
0
  6
ByBlock
 62
     0
 48
50.0
100
AcDbLine
 10
2032.12517365955
 20
13885.22968713041
 30
0.0
 11
1561.091807331983
 21
13885.22968713041
 31
0.0
  0
LINE
  5
142A7
330
14091
100
AcDbEntity
  8
0
  6
ByBlock
 62
     0
 48
50.0
100
AcDbLine
 10
1606.091807331982
 20
14885.22968713041
 30
0.0
 11
1606.091807331982
 21
13885.22968713041
 31
0.0
  0
INSERT
  5
142A8
330
14091
100
AcDbEntity
  8
0
  6
ByBlock
 62
     0
 48
50.0
100
AcDbBlockReference
  2
_DOTSMALL
 10
1606.091807331982
 20
14885.22968713041
 30
0.0
 41
75.0
 42
75.0
 43
75.0
 50
90.0
  0
INSERT
  5
142A9
330
14091
100
AcDbEntity
  8
0
  6
ByBlock
 62
     0
 48
50.0
100
AcDbBlockReference
  2
_DOTSMALL
 10
1606.091807331982
 20
13885.22968713041
 30
0.0
 41
75.0
 42
75.0
 43
75.0
 50
270.0
  0
MTEXT
  5
142AA
330
14091
100
AcDbEntity
  8
0
  6
ByBlock
 62
     7
 48
50.0
100
AcDbMText
 10
1531.091807331982
 20
14385.22968713042
 30
0.0
 40
90.0
 41
0.0
 71
     5
 72
     1
  1
\A1;1000
  7
STYLE1
 11
0.0000000000000001
 21
1.0
 31
0.0
 73
     1
 44
1.0
1001
ACAD
1000
MTEXTBEGIN
1070
    73
1070
     1
1070
    44
1040
1.0
1070
    74
1070
     0
1000
MTEXTEND
  0
POINT
  5
142AB
330
14091
100
AcDbEntity
  8
DEFPOINTS
  6
ByBlock
 62
     0
 48
50.0
100
AcDbPoint
 10
2047.12517365955
 20
14885.22968713041
 30
0.0
  0
POINT
  5
142AC
330
14091
100
AcDbEntity
  8
DEFPOINTS
  6
ByBlock
 62
     0
 48
50.0
100
AcDbPoint
 10
2047.12517365955
 20
13885.22968713041
 30
0.0
  0
POINT
  5
142AD
330
14091
100
AcDbEntity
  8
DEFPOINTS
  6
ByBlock
 62
     0
 48
50.0
100
AcDbPoint
 10
1606.091807331982
 20
13885.22968713041
 30
0.0
  0
ENDBLK
  5
142AE
330
14091
100
AcDbEntity
  8
0
 48
50.0
100
AcDbBlockEnd
  0
BLOCK
  5
142AF
330
1409D
100
AcDbEntity
  8
0
 48
50.0
100
AcDbBlockBegin
  2
*D6
 70
     1
 10
0.0
 20
0.0
 30
0.0
  3
*D6
  1

  0
LINE
  5
142B0
330
1409D
100
AcDbEntity
  8
0
  6
ByBlock
 62
     0
 48
50.0
100
AcDbLine
 10
2032.12517365955
 20
15885.22968713041
 30
0.0
 11
1561.253336948319
 21
15885.22968713041
 31
0.0
  0
LINE
  5
142B1
330
1409D
100
AcDbEntity
  8
0
  6
ByBlock
 62
     0
 48
50.0
100
AcDbLine
 10
2032.12517365955
 20
14885.22968713041
 30
0.0
 11
1561.253336948319
 21
14885.22968713041
 31
0.0
  0
LINE
  5
142B2
330
1409D
100
AcDbEntity
  8
0
  6
ByBlock
 62
     0
 48
50.0
100
AcDbLine
 10
1606.253336948319
 20
15885.22968713041
 30
0.0
 11
1606.253336948319
 21
14885.22968713041
 31
0.0
  0
INSERT
  5
142B3
330
1409D
100
AcDbEntity
  8
0
  6
ByBlock
 62
     0
 48
50.0
100
AcDbBlockReference
  2
_DOTSMALL
 10
1606.253336948319
 20
15885.22968713041
 30
0.0
 41
75.0
 42
75.0
 43
75.0
 50
90.0
  0
INSERT
  5
142B4
330
1409D
100
AcDbEntity
  8
0
  6
ByBlock
 62
     0
 48
50.0
100
AcDbBlockReference
  2
_DOTSMALL
 10
1606.253336948319
 20
14885.22968713041
 30
0.0
 41
75.0
 42
75.0
 43
75.0
 50
270.0
  0
MTEXT
  5
142B5
330
1409D
100
AcDbEntity
  8
0
  6
ByBlock
 62
     7
 48
50.0
100
AcDbMText
 10
1531.253336948319
 20
15385.22968713041
 30
0.0
 40
90.0
 41
0.0
 71
     5
 72
     1
  1
\A1;1000
  7
STYLE1
 11
0.0000000000000001
 21
1.0
 31
0.0
 73
     1
 44
1.0
1001
ACAD
1000
MTEXTBEGIN
1070
    73
1070
     1
1070
    44
1040
1.0
1070
    74
1070
     0
1000
MTEXTEND
  0
POINT
  5
142B6
330
1409D
100
AcDbEntity
  8
DEFPOINTS
  6
ByBlock
 62
     0
 48
50.0
100
AcDbPoint
 10
2047.12517365955
 20
15885.22968713041
 30
0.0
  0
POINT
  5
142B7
330
1409D
100
AcDbEntity
  8
DEFPOINTS
  6
ByBlock
 62
     0
 48
50.0
100
AcDbPoint
 10
2047.12517365955
 20
14885.22968713041
 30
0.0
  0
POINT
  5
142B8
330
1409D
100
AcDbEntity
  8
DEFPOINTS
  6
ByBlock
 62
     0
 48
50.0
100
AcDbPoint
 10
1606.253336948319
 20
14885.22968713041
 30
0.0
  0
ENDBLK
  5
142B9
330
1409D
100
AcDbEntity
  8
0
 48
50.0
100
AcDbBlockEnd
  0
BLOCK
  5
145FA
330
140A9
100
AcDbEntity
  8
0
 48
50.0
100
AcDbBlockBegin
  2
*D7
 70
     1
 10
0.0
 20
0.0
 30
0.0
  3
*D7
  1

  0
LINE
  5
145FB
330
140A9
100
AcDbEntity
  8
0
  6
ByBlock
 62
     0
 48
50.0
100
AcDbLine
 10
2297.12517365955
 20
15150.22968713041
 30
0.0
 11
2297.12517365955
 21
16382.68198126152
 31
0.0
  0
LINE
  5
145FC
330
140A9
100
AcDbEntity
  8
0
  6
ByBlock
 62
     0
 48
50.0
100
AcDbLine
 10
5127.12517365955
 20
15588.77470450133
 30
0.0
 11
5127.12517365955
 21
16382.68198126152
 31
0.0
  0
LINE
  5
145FD
330
140A9
100
AcDbEntity
  8
0
  6
ByBlock
 62
     0
 48
50.0
100
AcDbLine
 10
2297.12517365955
 20
16337.68198126152
 30
0.0
 11
5127.12517365955
 21
16337.68198126152
 31
0.0
  0
INSERT
  5
145FE
330
140A9
100
AcDbEntity
  8
0
  6
ByBlock
 62
     0
 48
50.0
100
AcDbBlockReference
  2
_DOTSMALL
 10
2297.12517365955
 20
16337.68198126152
 30
0.0
 41
75.0
 42
75.0
 43
75.0
 50
180.0
  0
INSERT
  5
145FF
330
140A9
100
AcDbEntity
  8
0
  6
ByBlock
 62
     0
 48
50.0
100
AcDbBlockReference
  2
_DOTSMALL
 10
5127.12517365955
 20
16337.68198126152
 30
0.0
 41
75.0
 42
75.0
 43
75.0
  0
MTEXT
  5
14600
330
140A9
100
AcDbEntity
  8
0
  6
ByBlock
 62
     7
 48
50.0
100
AcDbMText
 10
3712.12517365955
 20
16412.69083952924
 30
0.0
 40
90.0
 41
0.0
 71
     5
 72
     1
  1
\A1;2830
  7
STYLE1
 73
     1
 44
1.0
1001
ACAD
1000
MTEXTBEGIN
1070
    73
1070
     1
1070
    44
1040
1.0
1070
    74
1070
     0
1000
MTEXTEND
  0
POINT
  5
14601
330
140A9
100
AcDbEntity
  8
DEFPOINTS
  6
ByBlock
 62
     0
 48
50.0
100
AcDbPoint
 10
2297.12517365955
 20
15135.22968713041
 30
0.0
  0
POINT
  5
14602
330
140A9
100
AcDbEntity
  8
DEFPOINTS
  6
ByBlock
 62
     0
 48
50.0
100
AcDbPoint
 10
5127.12517365955
 20
15573.77470450133
 30
0.0
  0
POINT
  5
14603
330
140A9
100
AcDbEntity
  8
DEFPOINTS
  6
ByBlock
 62
     0
 48
50.0
100
AcDbPoint
 10
5127.12517365955
 20
16337.68198126152
 30
0.0
  0
ENDBLK
  5
14604
330
140A9
100
AcDbEntity
  8
0
 48
50.0
100
AcDbBlockEnd
  0
BLOCK
  5
142C5
330
140B5
100
AcDbEntity
  8
0
 48
50.0
100
AcDbBlockBegin
  2
*D8
 70
     1
 10
0.0
 20
0.0
 30
0.0
  3
*D8
  1

  0
LINE
  5
142C6
330
140B5
100
AcDbEntity
  8
0
  6
ByBlock
 62
     0
 48
50.0
100
AcDbLine
 10
4707.12517365955
 20
15970.22968713041
 30
0.0
 11
4707.12517365955
 21
16383.27921660643
 31
0.0
  0
LINE
  5
142C7
330
140B5
100
AcDbEntity
  8
0
  6
ByBlock
 62
     0
 48
50.0
100
AcDbLine
 10
4957.12517365955
 20
15900.22968713041
 30
0.0
 11
4957.12517365955
 21
16383.27921660643
 31
0.0
  0
LINE
  5
142C8
330
140B5
100
AcDbEntity
  8
0
  6
ByBlock
 62
     0
 48
50.0
100
AcDbLine
 10
4707.12517365955
 20
16338.27921660643
 30
0.0
 11
4957.12517365955
 21
16338.27921660643
 31
0.0
  0
INSERT
  5
142C9
330
140B5
100
AcDbEntity
  8
0
  6
ByBlock
 62
     0
 48
50.0
100
AcDbBlockReference
  2
_DOTSMALL
 10
4707.12517365955
 20
16338.27921660643
 30
0.0
 41
75.0
 42
75.0
 43
75.0
 50
180.0
  0
INSERT
  5
142CA
330
140B5
100
AcDbEntity
  8
0
  6
ByBlock
 62
     0
 48
50.0
100
AcDbBlockReference
  2
_DOTSMALL
 10
4957.12517365955
 20
16338.27921660643
 30
0.0
 41
75.0
 42
75.0
 43
75.0
  0
MTEXT
  5
142CB
330
140B5
100
AcDbEntity
  8
0
  6
ByBlock
 62
     7
 48
50.0
100
AcDbMText
 10
4832.12517365955
 20
16413.28807487414
 30
0.0
 40
90.0
 41
0.0
 71
     5
 72
     1
  1
\A1;250
  7
STYLE1
 73
     1
 44
1.0
1001
ACAD
1000
MTEXTBEGIN
1070
    73
1070
     1
1070
    44
1040
1.0
1070
    74
1070
     0
1000
MTEXTEND
  0
POINT
  5
142CC
330
140B5
100
AcDbEntity
  8
DEFPOINTS
  6
ByBlock
 62
     0
 48
50.0
100
AcDbPoint
 10
4707.12517365955
 20
15955.22968713041
 30
0.0
  0
POINT
  5
142CD
330
140B5
100
AcDbEntity
  8
DEFPOINTS
  6
ByBlock
 62
     0
 48
50.0
100
AcDbPoint
 10
4957.12517365955
 20
15885.22968713041
 30
0.0
  0
POINT
  5
142CE
330
140B5
100
AcDbEntity
  8
DEFPOINTS
  6
ByBlock
 62
     0
 48
50.0
100
AcDbPoint
 10
4957.12517365955
 20
16338.27921660643
 30
0.0
  0
ENDBLK
  5
142CF
330
140B5
100
AcDbEntity
  8
0
 48
50.0
100
AcDbBlockEnd
  0
BLOCK
  5
142D0
330
140C1
100
AcDbEntity
  8
0
 48
50.0
100
AcDbBlockBegin
  2
*D9
 70
     1
 10
0.0
 20
0.0
 30
0.0
  3
*D9
  1

  0
LINE
  5
142D1
330
140C1
100
AcDbEntity
  8
0
  6
ByBlock
 62
     0
 48
50.0
100
AcDbLine
 10
4342.125173659549
 20
15235.22968713041
 30
0.0
 11
4134.810670375369
 21
15235.22968713041
 31
0.0
  0
LINE
  5
142D2
330
140C1
100
AcDbEntity
  8
0
  6
ByBlock
 62
     0
 48
50.0
100
AcDbLine
 10
4342.125173659549
 20
14535.22968713041
 30
0.0
 11
4134.810670375369
 21
14535.22968713041
 31
0.0
  0
LINE
  5
142D3
330
140C1
100
AcDbEntity
  8
0
  6
ByBlock
 62
     0
 48
50.0
100
AcDbLine
 10
4179.81067037537
 20
15235.22968713041
 30
0.0
 11
4179.81067037537
 21
14535.22968713041
 31
0.0
  0
INSERT
  5
142D4
330
140C1
100
AcDbEntity
  8
0
  6
ByBlock
 62
     0
 48
50.0
100
AcDbBlockReference
  2
_DOTSMALL
 10
4179.81067037537
 20
15235.22968713041
 30
0.0
 41
75.0
 42
75.0
 43
75.0
 50
90.0
  0
INSERT
  5
142D5
330
140C1
100
AcDbEntity
  8
0
  6
ByBlock
 62
     0
 48
50.0
100
AcDbBlockReference
  2
_DOTSMALL
 10
4179.81067037537
 20
14535.22968713041
 30
0.0
 41
75.0
 42
75.0
 43
75.0
 50
270.0
  0
MTEXT
  5
142D6
330
140C1
100
AcDbEntity
  8
0
  6
ByBlock
 62
     7
 48
50.0
100
AcDbMText
 10
4104.810670375369
 20
14885.22968713041
 30
0.0
 40
90.0
 41
0.0
 71
     5
 72
     1
  1
\A1;700
  7
STYLE1
 11
0.0000000000000001
 21
1.0
 31
0.0
 73
     1
 44
1.0
1001
ACAD
1000
MTEXTBEGIN
1070
    73
1070
     1
1070
    44
1040
1.0
1070
    74
1070
     0
1000
MTEXTEND
  0
POINT
  5
142D7
330
140C1
100
AcDbEntity
  8
DEFPOINTS
  6
ByBlock
 62
     0
 48
50.0
100
AcDbPoint
 10
4357.125173659549
 20
15235.22968713041
 30
0.0
  0
POINT
  5
142D8
330
140C1
100
AcDbEntity
  8
DEFPOINTS
  6
ByBlock
 62
     0
 48
50.0
100
AcDbPoint
 10
4357.125173659549
 20
14535.22968713041
 30
0.0
  0
POINT
  5
142D9
330
140C1
100
AcDbEntity
  8
DEFPOINTS
  6
ByBlock
 62
     0
 48
50.0
100
AcDbPoint
 10
4179.81067037537
 20
14535.22968713041
 30
0.0
  0
ENDBLK
  5
142DA
330
140C1
100
AcDbEntity
  8
0
 48
50.0
100
AcDbBlockEnd
  0
BLOCK
  5
142DB
330
140CD
100
AcDbEntity
  8
0
 48
50.0
100
AcDbBlockBegin
  2
*D10
 70
     1
 10
0.0
 20
0.0
 30
0.0
  3
*D10
  1

  0
LINE
  5
142DC
330
140CD
100
AcDbEntity
  8
0
  6
ByBlock
 62
     0
 48
50.0
100
AcDbLine
 10
4807.125173659549
 20
14695.22968713041
 30
0.0
 11
4807.125173659549
 21
14270.70840381761
 31
0.0
  0
LINE
  5
142DD
330
140CD
100
AcDbEntity
  8
0
  6
ByBlock
 62
     0
 48
50.0
100
AcDbLine
 10
4607.125173659549
 20
14695.22968713041
 30
0.0
 11
4607.125173659549
 21
14270.70840381761
 31
0.0
  0
LINE
  5
142DE
330
140CD
100
AcDbEntity
  8
0
  6
ByBlock
 62
     0
 48
50.0
100
AcDbLine
 10
4807.125173659549
 20
14315.70840381761
 30
0.0
 11
4882.12517365955
 21
14315.70840381761
 31
0.0
  0
LINE
  5
142DF
330
140CD
100
AcDbEntity
  8
0
  6
ByBlock
 62
     0
 48
50.0
100
AcDbLine
 10
4607.125173659549
 20
14315.70840381761
 30
0.0
 11
4532.12517365955
 21
14315.70840381761
 31
0.0
  0
LINE
  5
142E0
330
140CD
100
AcDbEntity
  8
0
  6
ByBlock
 62
     0
 48
50.0
100
AcDbLine
 10
4807.125173659549
 20
14315.70840381761
 30
0.0
 11
4607.125173659549
 21
14315.70840381761
 31
0.0
  0
INSERT
  5
142E1
330
140CD
100
AcDbEntity
  8
0
  6
ByBlock
 62
     0
 48
50.0
100
AcDbBlockReference
  2
_DOTSMALL
 10
4807.125173659549
 20
14315.70840381761
 30
0.0
 41
75.0
 42
75.0
 43
75.0
 50
180.0
  0
INSERT
  5
142E2
330
140CD
100
AcDbEntity
  8
0
  6
ByBlock
 62
     0
 48
50.0
100
AcDbBlockReference
  2
_DOTSMALL
 10
4607.125173659549
 20
14315.70840381761
 30
0.0
 41
75.0
 42
75.0
 43
75.0
  0
MTEXT
  5
142E3
330
140CD
100
AcDbEntity
  8
0
  6
ByBlock
 62
     7
 48
50.0
100
AcDbMText
 10
4707.12517365955
 20
14390.71726208533
 30
0.0
 40
90.0
 41
0.0
 71
     5
 72
     1
  1
\A1;200
  7
STYLE1
 73
     1
 44
1.0
1001
ACAD
1000
MTEXTBEGIN
1070
    73
1070
     1
1070
    44
1040
1.0
1070
    74
1070
     0
1000
MTEXTEND
  0
POINT
  5
142E4
330
140CD
100
AcDbEntity
  8
DEFPOINTS
  6
ByBlock
 62
     0
 48
50.0
100
AcDbPoint
 10
4807.125173659549
 20
14710.22968713041
 30
0.0
  0
POINT
  5
142E5
330
140CD
100
AcDbEntity
  8
DEFPOINTS
  6
ByBlock
 62
     0
 48
50.0
100
AcDbPoint
 10
4607.125173659549
 20
14710.22968713041
 30
0.0
  0
POINT
  5
142E6
330
140CD
100
AcDbEntity
  8
DEFPOINTS
  6
ByBlock
 62
     0
 48
50.0
100
AcDbPoint
 10
4607.125173659549
 20
14315.70840381761
 30
0.0
  0
ENDBLK
  5
142E7
330
140CD
100
AcDbEntity
  8
0
 48
50.0
100
AcDbBlockEnd
  0
BLOCK
  5
142E8
330
140DB
100
AcDbEntity
  8
0
 48
50.0
100
AcDbBlockBegin
  2
*D11
 70
     1
 10
0.0
 20
0.0
 30
0.0
  3
*D11
  1

  0
LINE
  5
142E9
330
140DB
100
AcDbEntity
  8
0
  6
ByBlock
 62
     0
 48
50.0
100
AcDbLine
 10
4972.125173659549
 20
15885.22968713041
 30
0.0
 11
5484.399396023164
 21
15885.22968713041
 31
0.0
  0
LINE
  5
142EA
330
140DB
100
AcDbEntity
  8
0
  6
ByBlock
 62
     0
 48
50.0
100
AcDbLine
 10
4972.125173659549
 20
13885.22968713041
 30
0.0
 11
5484.399396023164
 21
13885.22968713041
 31
0.0
  0
LINE
  5
142EB
330
140DB
100
AcDbEntity
  8
0
  6
ByBlock
 62
     0
 48
50.0
100
AcDbLine
 10
5439.399396023164
 20
15885.22968713041
 30
0.0
 11
5439.399396023164
 21
13885.22968713041
 31
0.0
  0
INSERT
  5
142EC
330
140DB
100
AcDbEntity
  8
0
  6
ByBlock
 62
     0
 48
50.0
100
AcDbBlockReference
  2
_DOTSMALL
 10
5439.399396023164
 20
15885.22968713041
 30
0.0
 41
75.0
 42
75.0
 43
75.0
 50
90.0
  0
INSERT
  5
142ED
330
140DB
100
AcDbEntity
  8
0
  6
ByBlock
 62
     0
 48
50.0
100
AcDbBlockReference
  2
_DOTSMALL
 10
5439.399396023164
 20
13885.22968713041
 30
0.0
 41
75.0
 42
75.0
 43
75.0
 50
270.0
  0
MTEXT
  5
142EE
330
140DB
100
AcDbEntity
  8
0
  6
ByBlock
 62
     7
 48
50.0
100
AcDbMText
 10
5364.390537755447
 20
14885.22968713041
 30
0.0
 40
90.0
 41
0.0
 71
     5
 72
     1
  1
\A1;屋根寸法 2000
  7
STYLE1
 11
0.0000000000000001
 21
1.0
 31
0.0
 73
     1
 44
1.0
1001
ACAD
1000
MTEXTBEGIN
1070
    73
1070
     1
1070
    44
1040
1.0
1070
    74
1070
     0
1000
MTEXTEND
  0
POINT
  5
142EF
330
140DB
100
AcDbEntity
  8
DEFPOINTS
  6
ByBlock
 62
     0
 48
50.0
100
AcDbPoint
 10
4957.12517365955
 20
15885.22968713041
 30
0.0
  0
POINT
  5
142F0
330
140DB
100
AcDbEntity
  8
DEFPOINTS
  6
ByBlock
 62
     0
 48
50.0
100
AcDbPoint
 10
4957.12517365955
 20
13885.22968713041
 30
0.0
  0
POINT
  5
142F1
330
140DB
100
AcDbEntity
  8
DEFPOINTS
  6
ByBlock
 62
     0
 48
50.0
100
AcDbPoint
 10
5439.399396023164
 20
13885.22968713041
 30
0.0
  0
ENDBLK
  5
142F2
330
140DB
100
AcDbEntity
  8
0
 48
50.0
100
AcDbBlockEnd
  0
BLOCK
  5
142F3
330
140E7
100
AcDbEntity
  8
0
 48
50.0
100
AcDbBlockBegin
  2
*D12
 70
     1
 10
0.0
 20
0.0
 30
0.0
  3
*D12
  1

  0
LINE
  5
142F4
330
140E7
100
AcDbEntity
  8
0
  6
ByBlock
 62
     0
 48
50.0
100
AcDbLine
 10
4897.125173659549
 20
14785.22968713041
 30
0.0
 11
5263.71260079712
 21
14785.22968713041
 31
0.0
  0
LINE
  5
142F5
330
140E7
100
AcDbEntity
  8
0
  6
ByBlock
 62
     0
 48
50.0
100
AcDbLine
 10
4897.125173659549
 20
14985.22968713041
 30
0.0
 11
5263.71260079712
 21
14985.22968713041
 31
0.0
  0
LINE
  5
142F6
330
140E7
100
AcDbEntity
  8
0
  6
ByBlock
 62
     0
 48
50.0
100
AcDbLine
 10
5218.71260079712
 20
14785.22968713041
 30
0.0
 11
5218.71260079712
 21
14710.22968713041
 31
0.0
  0
LINE
  5
142F7
330
140E7
100
AcDbEntity
  8
0
  6
ByBlock
 62
     0
 48
50.0
100
AcDbLine
 10
5218.71260079712
 20
14985.22968713041
 30
0.0
 11
5218.71260079712
 21
15060.22968713041
 31
0.0
  0
LINE
  5
142F8
330
140E7
100
AcDbEntity
  8
0
  6
ByBlock
 62
     0
 48
50.0
100
AcDbLine
 10
5218.71260079712
 20
14785.22968713041
 30
0.0
 11
5218.71260079712
 21
14985.22968713041
 31
0.0
  0
INSERT
  5
142F9
330
140E7
100
AcDbEntity
  8
0
  6
ByBlock
 62
     0
 48
50.0
100
AcDbBlockReference
  2
_DOTSMALL
 10
5218.71260079712
 20
14785.22968713041
 30
0.0
 41
75.0
 42
75.0
 43
75.0
 50
90.0
  0
INSERT
  5
142FA
330
140E7
100
AcDbEntity
  8
0
  6
ByBlock
 62
     0
 48
50.0
100
AcDbBlockReference
  2
_DOTSMALL
 10
5218.71260079712
 20
14985.22968713041
 30
0.0
 41
75.0
 42
75.0
 43
75.0
 50
270.0
  0
MTEXT
  5
142FB
330
140E7
100
AcDbEntity
  8
0
  6
ByBlock
 62
     7
 48
50.0
100
AcDbMText
 10
5143.703742529403
 20
14885.22968713041
 30
0.0
 40
90.0
 41
0.0
 71
     5
 72
     1
  1
\A1;200
  7
STYLE1
 11
0.0000000000000001
 21
1.0
 31
0.0
 73
     1
 44
1.0
1001
ACAD
1000
MTEXTBEGIN
1070
    73
1070
     1
1070
    44
1040
1.0
1070
    74
1070
     0
1000
MTEXTEND
  0
POINT
  5
142FC
330
140E7
100
AcDbEntity
  8
DEFPOINTS
  6
ByBlock
 62
     0
 48
50.0
100
AcDbPoint
 10
4882.12517365955
 20
14785.22968713041
 30
0.0
  0
POINT
  5
142FD
330
140E7
100
AcDbEntity
  8
DEFPOINTS
  6
ByBlock
 62
     0
 48
50.0
100
AcDbPoint
 10
4882.12517365955
 20
14985.22968713041
 30
0.0
  0
POINT
  5
142FE
330
140E7
100
AcDbEntity
  8
DEFPOINTS
  6
ByBlock
 62
     0
 48
50.0
100
AcDbPoint
 10
5218.71260079712
 20
14985.22968713041
 30
0.0
  0
ENDBLK
  5
142FF
330
140E7
100
AcDbEntity
  8
0
 48
50.0
100
AcDbBlockEnd
  0
BLOCK
  5
14300
330
140F5
100
AcDbEntity
  8
0
 48
50.0
100
AcDbBlockBegin
  2
*D13
 70
     1
 10
0.0
 20
0.0
 30
0.0
  3
*D13
  1

  0
LINE
  5
14301
330
140F5
100
AcDbEntity
  8
0
  6
ByBlock
 62
     0
 48
50.0
100
AcDbLine
 10
4357.125173659549
 20
15250.22968713041
 30
0.0
 11
4357.125173659549
 21
15478.01904843041
 31
0.0
  0
LINE
  5
14302
330
140F5
100
AcDbEntity
  8
0
  6
ByBlock
 62
     0
 48
50.0
100
AcDbLine
 10
5057.125173659549
 20
15250.22968713041
 30
0.0
 11
5057.125173659549
 21
15478.01904843041
 31
0.0
  0
LINE
  5
14303
330
140F5
100
AcDbEntity
  8
0
  6
ByBlock
 62
     0
 48
50.0
100
AcDbLine
 10
4357.125173659549
 20
15433.01904843041
 30
0.0
 11
5057.125173659549
 21
15433.01904843041
 31
0.0
  0
INSERT
  5
14304
330
140F5
100
AcDbEntity
  8
0
  6
ByBlock
 62
     0
 48
50.0
100
AcDbBlockReference
  2
_DOTSMALL
 10
4357.125173659549
 20
15433.01904843041
 30
0.0
 41
75.0
 42
75.0
 43
75.0
 50
180.0
  0
INSERT
  5
14305
330
140F5
100
AcDbEntity
  8
0
  6
ByBlock
 62
     0
 48
50.0
100
AcDbBlockReference
  2
_DOTSMALL
 10
5057.125173659549
 20
15433.01904843041
 30
0.0
 41
75.0
 42
75.0
 43
75.0
  0
MTEXT
  5
14306
330
140F5
100
AcDbEntity
  8
0
  6
ByBlock
 62
     7
 48
50.0
100
AcDbMText
 10
4707.12517365955
 20
15508.01904843041
 30
0.0
 40
90.0
 41
0.0
 71
     5
 72
     1
  1
\A1;700
  7
STYLE1
 73
     1
 44
1.0
1001
ACAD
1000
MTEXTBEGIN
1070
    73
1070
     1
1070
    44
1040
1.0
1070
    74
1070
     0
1000
MTEXTEND
  0
POINT
  5
14307
330
140F5
100
AcDbEntity
  8
DEFPOINTS
  6
ByBlock
 62
     0
 48
50.0
100
AcDbPoint
 10
4357.125173659549
 20
15235.22968713041
 30
0.0
  0
POINT
  5
14308
330
140F5
100
AcDbEntity
  8
DEFPOINTS
  6
ByBlock
 62
     0
 48
50.0
100
AcDbPoint
 10
5057.125173659549
 20
15235.22968713041
 30
0.0
  0
POINT
  5
14309
330
140F5
100
AcDbEntity
  8
DEFPOINTS
  6
ByBlock
 62
     0
 48
50.0
100
AcDbPoint
 10
5057.125173659549
 20
15433.01904843041
 30
0.0
  0
ENDBLK
  5
1430A
330
140F5
100
AcDbEntity
  8
0
 48
50.0
100
AcDbBlockEnd
  0
BLOCK
  5
14631
330
141F4
100
AcDbEntity
  8
0
 48
50.0
100
AcDbBlockBegin
  2
*D14
 70
     1
 10
0.0
 20
0.0
 30
0.0
  3
*D14
  1

  0
LINE
  5
14632
330
141F4
100
AcDbEntity
  8
0
  6
ByBlock
 62
     0
 48
50.0
100
AcDbLine
 10
2047.12517365955
 20
11954.83070683355
 30
0.0
 11
2047.12517365955
 21
12631.32003993897
 31
0.0
  0
LINE
  5
14633
330
141F4
100
AcDbEntity
  8
0
  6
ByBlock
 62
     0
 48
50.0
100
AcDbLine
 10
5377.12517365955
 20
11954.83070683355
 30
0.0
 11
5377.12517365955
 21
12631.32003993897
 31
0.0
  0
LINE
  5
14634
330
141F4
100
AcDbEntity
  8
0
  6
ByBlock
 62
     0
 48
50.0
100
AcDbLine
 10
2047.12517365955
 20
12586.32003993897
 30
0.0
 11
5377.12517365955
 21
12586.32003993897
 31
0.0
  0
INSERT
  5
14635
330
141F4
100
AcDbEntity
  8
0
  6
ByBlock
 62
     0
 48
50.0
100
AcDbBlockReference
  2
_DOTSMALL
 10
2047.12517365955
 20
12586.32003993897
 30
0.0
 41
75.0
 42
75.0
 43
75.0
 50
180.0
  0
INSERT
  5
14636
330
141F4
100
AcDbEntity
  8
0
  6
ByBlock
 62
     0
 48
50.0
100
AcDbBlockReference
  2
_DOTSMALL
 10
5377.12517365955
 20
12586.32003993897
 30
0.0
 41
75.0
 42
75.0
 43
75.0
  0
MTEXT
  5
14637
330
141F4
100
AcDbEntity
  8
0
  6
ByBlock
 62
     7
 48
50.0
100
AcDbMText
 10
3712.12517365955
 20
12661.32003993897
 30
0.0
 40
90.0
 41
0.0
 71
     5
 72
     1
  1
\A1;基礎寸法 3330
  7
STYLE1
 73
     1
 44
1.0
1001
ACAD
1000
MTEXTBEGIN
1070
    73
1070
     1
1070
    44
1040
1.0
1070
    74
1070
     0
1000
MTEXTEND
  0
POINT
  5
14638
330
141F4
100
AcDbEntity
  8
DEFPOINTS
  6
ByBlock
 62
     0
 48
50.0
100
AcDbPoint
 10
2047.12517365955
 20
11939.83070683355
 30
0.0
  0
POINT
  5
14639
330
141F4
100
AcDbEntity
  8
DEFPOINTS
  6
ByBlock
 62
     0
 48
50.0
100
AcDbPoint
 10
5377.12517365955
 20
11939.83070683355
 30
0.0
  0
POINT
  5
1463A
330
141F4
100
AcDbEntity
  8
DEFPOINTS
  6
ByBlock
 62
     0
 48
50.0
100
AcDbPoint
 10
5377.12517365955
 20
12586.32003993897
 30
0.0
  0
ENDBLK
  5
1463B
330
141F4
100
AcDbEntity
  8
0
 48
50.0
100
AcDbBlockEnd
  0
BLOCK
  5
143F6
330
14200
100
AcDbEntity
  8
0
 48
50.0
100
AcDbBlockBegin
  2
*D15
 70
     1
 10
0.0
 20
0.0
 30
0.0
  3
*D15
  1

  0
LINE
  5
143F7
330
14200
100
AcDbEntity
  8
0
  6
ByBlock
 62
     0
 48
50.0
100
AcDbLine
 10
2047.12517365955
 20
11954.83070683355
 30
0.0
 11
2047.12517365955
 21
12437.28300096466
 31
0.0
  0
LINE
  5
143F8
330
14200
100
AcDbEntity
  8
0
  6
ByBlock
 62
     0
 48
50.0
100
AcDbLine
 10
2297.12517365955
 20
12204.83070683355
 30
0.0
 11
2297.12517365955
 21
12437.28300096466
 31
0.0
  0
LINE
  5
143F9
330
14200
100
AcDbEntity
  8
0
  6
ByBlock
 62
     0
 48
50.0
100
AcDbLine
 10
2047.12517365955
 20
12392.28300096465
 30
0.0
 11
2297.12517365955
 21
12392.28300096465
 31
0.0
  0
INSERT
  5
143FA
330
14200
100
AcDbEntity
  8
0
  6
ByBlock
 62
     0
 48
50.0
100
AcDbBlockReference
  2
_DOTSMALL
 10
2047.12517365955
 20
12392.28300096465
 30
0.0
 41
75.0
 42
75.0
 43
75.0
 50
180.0
  0
INSERT
  5
143FB
330
14200
100
AcDbEntity
  8
0
  6
ByBlock
 62
     0
 48
50.0
100
AcDbBlockReference
  2
_DOTSMALL
 10
2297.12517365955
 20
12392.28300096465
 30
0.0
 41
75.0
 42
75.0
 43
75.0
  0
MTEXT
  5
143FC
330
14200
100
AcDbEntity
  8
0
  6
ByBlock
 62
     7
 48
50.0
100
AcDbMText
 10
2172.12517365955
 20
12467.29185923237
 30
0.0
 40
90.0
 41
0.0
 71
     5
 72
     1
  1
\A1;250
  7
STYLE1
 73
     1
 44
1.0
1001
ACAD
1000
MTEXTBEGIN
1070
    73
1070
     1
1070
    44
1040
1.0
1070
    74
1070
     0
1000
MTEXTEND
  0
POINT
  5
143FD
330
14200
100
AcDbEntity
  8
DEFPOINTS
  6
ByBlock
 62
     0
 48
50.0
100
AcDbPoint
 10
2047.12517365955
 20
11939.83070683355
 30
0.0
  0
POINT
  5
143FE
330
14200
100
AcDbEntity
  8
DEFPOINTS
  6
ByBlock
 62
     0
 48
50.0
100
AcDbPoint
 10
2297.12517365955
 20
12189.83070683355
 30
0.0
  0
POINT
  5
143FF
330
14200
100
AcDbEntity
  8
DEFPOINTS
  6
ByBlock
 62
     0
 48
50.0
100
AcDbPoint
 10
2297.12517365955
 20
12392.28300096465
 30
0.0
  0
ENDBLK
  5
14400
330
14200
100
AcDbEntity
  8
0
 48
50.0
100
AcDbBlockEnd
  0
BLOCK
  5
14626
330
1420C
100
AcDbEntity
  8
0
 48
50.0
100
AcDbBlockBegin
  2
*D16
 70
     1
 10
0.0
 20
0.0
 30
0.0
  3
*D16
  1

  0
LINE
  5
14627
330
1420C
100
AcDbEntity
  8
0
  6
ByBlock
 62
     0
 48
50.0
100
AcDbLine
 10
2047.12517365955
 20
9924.830706833551
 30
0.0
 11
2047.12517365955
 21
9505.059002236841
 31
0.0
  0
LINE
  5
14628
330
1420C
100
AcDbEntity
  8
0
  6
ByBlock
 62
     0
 48
50.0
100
AcDbLine
 10
5377.12517365955
 20
9924.830706833551
 30
0.0
 11
5377.12517365955
 21
9505.059002236841
 31
0.0
  0
LINE
  5
14629
330
1420C
100
AcDbEntity
  8
0
  6
ByBlock
 62
     0
 48
50.0
100
AcDbLine
 10
2047.12517365955
 20
9550.059002236841
 30
0.0
 11
5377.12517365955
 21
9550.059002236841
 31
0.0
  0
INSERT
  5
1462A
330
1420C
100
AcDbEntity
  8
0
  6
ByBlock
 62
     0
 48
50.0
100
AcDbBlockReference
  2
_DOTSMALL
 10
2047.12517365955
 20
9550.059002236841
 30
0.0
 41
75.0
 42
75.0
 43
75.0
 50
180.0
  0
INSERT
  5
1462B
330
1420C
100
AcDbEntity
  8
0
  6
ByBlock
 62
     0
 48
50.0
100
AcDbBlockReference
  2
_DOTSMALL
 10
5377.12517365955
 20
9550.059002236841
 30
0.0
 41
75.0
 42
75.0
 43
75.0
  0
MTEXT
  5
1462C
330
1420C
100
AcDbEntity
  8
0
  6
ByBlock
 62
     7
 48
50.0
100
AcDbMText
 10
3712.12517365955
 20
9625.059002236842
 30
0.0
 40
90.0
 41
0.0
 71
     5
 72
     1
  1
\A1;屋根寸法 3330
  7
STYLE1
 73
     1
 44
1.0
1001
ACAD
1000
MTEXTBEGIN
1070
    73
1070
     1
1070
    44
1040
1.0
1070
    74
1070
     0
1000
MTEXTEND
  0
POINT
  5
1462D
330
1420C
100
AcDbEntity
  8
DEFPOINTS
  6
ByBlock
 62
     0
 48
50.0
100
AcDbPoint
 10
2047.12517365955
 20
9939.830706833552
 30
0.0
  0
POINT
  5
1462E
330
1420C
100
AcDbEntity
  8
DEFPOINTS
  6
ByBlock
 62
     0
 48
50.0
100
AcDbPoint
 10
5377.12517365955
 20
9939.830706833552
 30
0.0
  0
POINT
  5
1462F
330
1420C
100
AcDbEntity
  8
DEFPOINTS
  6
ByBlock
 62
     0
 48
50.0
100
AcDbPoint
 10
5377.12517365955
 20
9550.059002236841
 30
0.0
  0
ENDBLK
  5
14630
330
1420C
100
AcDbEntity
  8
0
 48
50.0
100
AcDbBlockEnd
  0
BLOCK
  5
1440C
330
14218
100
AcDbEntity
  8
0
 48
50.0
100
AcDbBlockBegin
  2
*D17
 70
     1
 10
0.0
 20
0.0
 30
0.0
  3
*D17
  1

  0
LINE
  5
1440D
330
14218
100
AcDbEntity
  8
0
  6
ByBlock
 62
     0
 48
50.0
100
AcDbLine
 10
2032.12517365955
 20
11939.83070683355
 30
0.0
 11
1338.503974931858
 21
11939.83070683355
 31
0.0
  0
LINE
  5
1440E
330
14218
100
AcDbEntity
  8
0
  6
ByBlock
 62
     0
 48
50.0
100
AcDbLine
 10
2032.12517365955
 20
9939.830706833552
 30
0.0
 11
1338.503974931858
 21
9939.830706833552
 31
0.0
  0
LINE
  5
1440F
330
14218
100
AcDbEntity
  8
0
  6
ByBlock
 62
     0
 48
50.0
100
AcDbLine
 10
1383.503974931858
 20
11939.83070683355
 30
0.0
 11
1383.503974931858
 21
9939.830706833552
 31
0.0
  0
INSERT
  5
14410
330
14218
100
AcDbEntity
  8
0
  6
ByBlock
 62
     0
 48
50.0
100
AcDbBlockReference
  2
_DOTSMALL
 10
1383.503974931858
 20
11939.83070683355
 30
0.0
 41
75.0
 42
75.0
 43
75.0
 50
90.0
  0
INSERT
  5
14411
330
14218
100
AcDbEntity
  8
0
  6
ByBlock
 62
     0
 48
50.0
100
AcDbBlockReference
  2
_DOTSMALL
 10
1383.503974931858
 20
9939.830706833552
 30
0.0
 41
75.0
 42
75.0
 43
75.0
 50
270.0
  0
MTEXT
  5
14412
330
14218
100
AcDbEntity
  8
0
  6
ByBlock
 62
     7
 48
50.0
100
AcDbMText
 10
1308.495116664142
 20
10939.83070683355
 30
0.0
 40
90.0
 41
0.0
 71
     5
 72
     1
  1
\A1;基礎寸法 2000
  7
STYLE1
 11
0.0000000000000001
 21
1.0
 31
0.0
 73
     1
 44
1.0
1001
ACAD
1000
MTEXTBEGIN
1070
    73
1070
     1
1070
    44
1040
1.0
1070
    74
1070
     0
1000
MTEXTEND
  0
POINT
  5
14413
330
14218
100
AcDbEntity
  8
DEFPOINTS
  6
ByBlock
 62
     0
 48
50.0
100
AcDbPoint
 10
2047.12517365955
 20
11939.83070683355
 30
0.0
  0
POINT
  5
14414
330
14218
100
AcDbEntity
  8
DEFPOINTS
  6
ByBlock
 62
     0
 48
50.0
100
AcDbPoint
 10
2047.12517365955
 20
9939.830706833552
 30
0.0
  0
POINT
  5
14415
330
14218
100
AcDbEntity
  8
DEFPOINTS
  6
ByBlock
 62
     0
 48
50.0
100
AcDbPoint
 10
1383.503974931858
 20
9939.830706833552
 30
0.0
  0
ENDBLK
  5
14416
330
14218
100
AcDbEntity
  8
0
 48
50.0
100
AcDbBlockEnd
  0
BLOCK
  5
14417
330
14224
100
AcDbEntity
  8
0
 48
50.0
100
AcDbBlockBegin
  2
*D18
 70
     1
 10
0.0
 20
0.0
 30
0.0
  3
*D18
  1

  0
LINE
  5
14418
330
14224
100
AcDbEntity
  8
0
  6
ByBlock
 62
     0
 48
50.0
100
AcDbLine
 10
1957.125173659549
 20
10939.83070683355
 30
0.0
 11
1561.091807331983
 21
10939.83070683355
 31
0.0
  0
LINE
  5
14419
330
14224
100
AcDbEntity
  8
0
  6
ByBlock
 62
     0
 48
50.0
100
AcDbLine
 10
2032.12517365955
 20
9939.830706833552
 30
0.0
 11
1561.091807331983
 21
9939.830706833552
 31
0.0
  0
LINE
  5
1441A
330
14224
100
AcDbEntity
  8
0
  6
ByBlock
 62
     0
 48
50.0
100
AcDbLine
 10
1606.091807331982
 20
10939.83070683355
 30
0.0
 11
1606.091807331982
 21
9939.830706833552
 31
0.0
  0
INSERT
  5
1441B
330
14224
100
AcDbEntity
  8
0
  6
ByBlock
 62
     0
 48
50.0
100
AcDbBlockReference
  2
_DOTSMALL
 10
1606.091807331982
 20
10939.83070683355
 30
0.0
 41
75.0
 42
75.0
 43
75.0
 50
90.0
  0
INSERT
  5
1441C
330
14224
100
AcDbEntity
  8
0
  6
ByBlock
 62
     0
 48
50.0
100
AcDbBlockReference
  2
_DOTSMALL
 10
1606.091807331982
 20
9939.830706833552
 30
0.0
 41
75.0
 42
75.0
 43
75.0
 50
270.0
  0
MTEXT
  5
1441D
330
14224
100
AcDbEntity
  8
0
  6
ByBlock
 62
     7
 48
50.0
100
AcDbMText
 10
1531.091807331982
 20
10439.83070683355
 30
0.0
 40
90.0
 41
0.0
 71
     5
 72
     1
  1
\A1;1000
  7
STYLE1
 11
0.0000000000000001
 21
1.0
 31
0.0
 73
     1
 44
1.0
1001
ACAD
1000
MTEXTBEGIN
1070
    73
1070
     1
1070
    44
1040
1.0
1070
    74
1070
     0
1000
MTEXTEND
  0
POINT
  5
1441E
330
14224
100
AcDbEntity
  8
DEFPOINTS
  6
ByBlock
 62
     0
 48
50.0
100
AcDbPoint
 10
1972.125173659549
 20
10939.83070683355
 30
0.0
  0
POINT
  5
1441F
330
14224
100
AcDbEntity
  8
DEFPOINTS
  6
ByBlock
 62
     0
 48
50.0
100
AcDbPoint
 10
2047.12517365955
 20
9939.830706833552
 30
0.0
  0
POINT
  5
14420
330
14224
100
AcDbEntity
  8
DEFPOINTS
  6
ByBlock
 62
     0
 48
50.0
100
AcDbPoint
 10
1606.091807331982
 20
9939.830706833552
 30
0.0
  0
ENDBLK
  5
14421
330
14224
100
AcDbEntity
  8
0
 48
50.0
100
AcDbBlockEnd
  0
BLOCK
  5
14422
330
14230
100
AcDbEntity
  8
0
 48
50.0
100
AcDbBlockBegin
  2
*D19
 70
     1
 10
0.0
 20
0.0
 30
0.0
  3
*D19
  1

  0
LINE
  5
14423
330
14230
100
AcDbEntity
  8
0
  6
ByBlock
 62
     0
 48
50.0
100
AcDbLine
 10
2032.12517365955
 20
11939.83070683355
 30
0.0
 11
1561.253336948319
 21
11939.83070683355
 31
0.0
  0
LINE
  5
14424
330
14230
100
AcDbEntity
  8
0
  6
ByBlock
 62
     0
 48
50.0
100
AcDbLine
 10
1957.125173659549
 20
10939.83070683355
 30
0.0
 11
1561.253336948319
 21
10939.83070683355
 31
0.0
  0
LINE
  5
14425
330
14230
100
AcDbEntity
  8
0
  6
ByBlock
 62
     0
 48
50.0
100
AcDbLine
 10
1606.253336948319
 20
11939.83070683355
 30
0.0
 11
1606.253336948319
 21
10939.83070683355
 31
0.0
  0
INSERT
  5
14426
330
14230
100
AcDbEntity
  8
0
  6
ByBlock
 62
     0
 48
50.0
100
AcDbBlockReference
  2
_DOTSMALL
 10
1606.253336948319
 20
11939.83070683355
 30
0.0
 41
75.0
 42
75.0
 43
75.0
 50
90.0
  0
INSERT
  5
14427
330
14230
100
AcDbEntity
  8
0
  6
ByBlock
 62
     0
 48
50.0
100
AcDbBlockReference
  2
_DOTSMALL
 10
1606.253336948319
 20
10939.83070683355
 30
0.0
 41
75.0
 42
75.0
 43
75.0
 50
270.0
  0
MTEXT
  5
14428
330
14230
100
AcDbEntity
  8
0
  6
ByBlock
 62
     7
 48
50.0
100
AcDbMText
 10
1531.253336948319
 20
11439.83070683355
 30
0.0
 40
90.0
 41
0.0
 71
     5
 72
     1
  1
\A1;1000
  7
STYLE1
 11
0.0000000000000001
 21
1.0
 31
0.0
 73
     1
 44
1.0
1001
ACAD
1000
MTEXTBEGIN
1070
    73
1070
     1
1070
    44
1040
1.0
1070
    74
1070
     0
1000
MTEXTEND
  0
POINT
  5
14429
330
14230
100
AcDbEntity
  8
DEFPOINTS
  6
ByBlock
 62
     0
 48
50.0
100
AcDbPoint
 10
2047.12517365955
 20
11939.83070683355
 30
0.0
  0
POINT
  5
1442A
330
14230
100
AcDbEntity
  8
DEFPOINTS
  6
ByBlock
 62
     0
 48
50.0
100
AcDbPoint
 10
1972.125173659549
 20
10939.83070683355
 30
0.0
  0
POINT
  5
1442B
330
14230
100
AcDbEntity
  8
DEFPOINTS
  6
ByBlock
 62
     0
 48
50.0
100
AcDbPoint
 10
1606.253336948319
 20
10939.83070683355
 30
0.0
  0
ENDBLK
  5
1442C
330
14230
100
AcDbEntity
  8
0
 48
50.0
100
AcDbBlockEnd
  0
BLOCK
  5
1442D
330
1423C
100
AcDbEntity
  8
0
 48
50.0
100
AcDbBlockBegin
  2
*D20
 70
     1
 10
0.0
 20
0.0
 30
0.0
  3
*D20
  1

  0
LINE
  5
1442E
330
1423C
100
AcDbEntity
  8
0
  6
ByBlock
 62
     0
 48
50.0
100
AcDbLine
 10
4972.125173659549
 20
11939.83070683355
 30
0.0
 11
5484.399396023164
 21
11939.83070683355
 31
0.0
  0
LINE
  5
1442F
330
1423C
100
AcDbEntity
  8
0
  6
ByBlock
 62
     0
 48
50.0
100
AcDbLine
 10
4972.125173659549
 20
9939.830706833552
 30
0.0
 11
5484.399396023164
 21
9939.830706833552
 31
0.0
  0
LINE
  5
14430
330
1423C
100
AcDbEntity
  8
0
  6
ByBlock
 62
     0
 48
50.0
100
AcDbLine
 10
5439.399396023164
 20
11939.83070683355
 30
0.0
 11
5439.399396023164
 21
9939.830706833552
 31
0.0
  0
INSERT
  5
14431
330
1423C
100
AcDbEntity
  8
0
  6
ByBlock
 62
     0
 48
50.0
100
AcDbBlockReference
  2
_DOTSMALL
 10
5439.399396023164
 20
11939.83070683355
 30
0.0
 41
75.0
 42
75.0
 43
75.0
 50
90.0
  0
INSERT
  5
14432
330
1423C
100
AcDbEntity
  8
0
  6
ByBlock
 62
     0
 48
50.0
100
AcDbBlockReference
  2
_DOTSMALL
 10
5439.399396023164
 20
9939.830706833552
 30
0.0
 41
75.0
 42
75.0
 43
75.0
 50
270.0
  0
MTEXT
  5
14433
330
1423C
100
AcDbEntity
  8
0
  6
ByBlock
 62
     7
 48
50.0
100
AcDbMText
 10
5364.390537755447
 20
10939.83070683355
 30
0.0
 40
90.0
 41
0.0
 71
     5
 72
     1
  1
\A1;屋根寸法 2000
  7
STYLE1
 11
0.0000000000000001
 21
1.0
 31
0.0
 73
     1
 44
1.0
1001
ACAD
1000
MTEXTBEGIN
1070
    73
1070
     1
1070
    44
1040
1.0
1070
    74
1070
     0
1000
MTEXTEND
  0
POINT
  5
14434
330
1423C
100
AcDbEntity
  8
DEFPOINTS
  6
ByBlock
 62
     0
 48
50.0
100
AcDbPoint
 10
4957.12517365955
 20
11939.83070683355
 30
0.0
  0
POINT
  5
14435
330
1423C
100
AcDbEntity
  8
DEFPOINTS
  6
ByBlock
 62
     0
 48
50.0
100
AcDbPoint
 10
4957.12517365955
 20
9939.830706833552
 30
0.0
  0
POINT
  5
14436
330
1423C
100
AcDbEntity
  8
DEFPOINTS
  6
ByBlock
 62
     0
 48
50.0
100
AcDbPoint
 10
5439.399396023164
 20
9939.830706833552
 30
0.0
  0
ENDBLK
  5
14437
330
1423C
100
AcDbEntity
  8
0
 48
50.0
100
AcDbBlockEnd
  0
BLOCK
  5
1461B
330
14248
100
AcDbEntity
  8
0
 48
50.0
100
AcDbBlockBegin
  2
*D21
 70
     1
 10
0.0
 20
0.0
 30
0.0
  3
*D21
  1

  0
LINE
  5
1461C
330
14248
100
AcDbEntity
  8
0
  6
ByBlock
 62
     0
 48
50.0
100
AcDbLine
 10
2297.12517365955
 20
11204.83070683355
 30
0.0
 11
2297.12517365955
 21
12437.28300096466
 31
0.0
  0
LINE
  5
1461D
330
14248
100
AcDbEntity
  8
0
  6
ByBlock
 62
     0
 48
50.0
100
AcDbLine
 10
5127.12517365955
 20
11643.37572420447
 30
0.0
 11
5127.12517365955
 21
12437.28300096466
 31
0.0
  0
LINE
  5
1461E
330
14248
100
AcDbEntity
  8
0
  6
ByBlock
 62
     0
 48
50.0
100
AcDbLine
 10
2297.12517365955
 20
12392.28300096465
 30
0.0
 11
5127.12517365955
 21
12392.28300096465
 31
0.0
  0
INSERT
  5
1461F
330
14248
100
AcDbEntity
  8
0
  6
ByBlock
 62
     0
 48
50.0
100
AcDbBlockReference
  2
_DOTSMALL
 10
2297.12517365955
 20
12392.28300096465
 30
0.0
 41
75.0
 42
75.0
 43
75.0
 50
180.0
  0
INSERT
  5
14620
330
14248
100
AcDbEntity
  8
0
  6
ByBlock
 62
     0
 48
50.0
100
AcDbBlockReference
  2
_DOTSMALL
 10
5127.12517365955
 20
12392.28300096465
 30
0.0
 41
75.0
 42
75.0
 43
75.0
  0
MTEXT
  5
14621
330
14248
100
AcDbEntity
  8
0
  6
ByBlock
 62
     7
 48
50.0
100
AcDbMText
 10
3712.12517365955
 20
12467.29185923237
 30
0.0
 40
90.0
 41
0.0
 71
     5
 72
     1
  1
\A1;2830
  7
STYLE1
 73
     1
 44
1.0
1001
ACAD
1000
MTEXTBEGIN
1070
    73
1070
     1
1070
    44
1040
1.0
1070
    74
1070
     0
1000
MTEXTEND
  0
POINT
  5
14622
330
14248
100
AcDbEntity
  8
DEFPOINTS
  6
ByBlock
 62
     0
 48
50.0
100
AcDbPoint
 10
2297.12517365955
 20
11189.83070683355
 30
0.0
  0
POINT
  5
14623
330
14248
100
AcDbEntity
  8
DEFPOINTS
  6
ByBlock
 62
     0
 48
50.0
100
AcDbPoint
 10
5127.12517365955
 20
11628.37572420447
 30
0.0
  0
POINT
  5
14624
330
14248
100
AcDbEntity
  8
DEFPOINTS
  6
ByBlock
 62
     0
 48
50.0
100
AcDbPoint
 10
5127.12517365955
 20
12392.28300096465
 30
0.0
  0
ENDBLK
  5
14625
330
14248
100
AcDbEntity
  8
0
 48
50.0
100
AcDbBlockEnd
  0
BLOCK
  5
14443
330
14254
100
AcDbEntity
  8
0
 48
50.0
100
AcDbBlockBegin
  2
*D22
 70
     1
 10
0.0
 20
0.0
 30
0.0
  3
*D22
  1

  0
LINE
  5
14444
330
14254
100
AcDbEntity
  8
0
  6
ByBlock
 62
     0
 48
50.0
100
AcDbLine
 10
4342.125173659549
 20
11289.83070683355
 30
0.0
 11
4134.810670375369
 21
11289.83070683355
 31
0.0
  0
LINE
  5
14445
330
14254
100
AcDbEntity
  8
0
  6
ByBlock
 62
     0
 48
50.0
100
AcDbLine
 10
4342.125173659549
 20
10589.83070683355
 30
0.0
 11
4134.810670375369
 21
10589.83070683355
 31
0.0
  0
LINE
  5
14446
330
14254
100
AcDbEntity
  8
0
  6
ByBlock
 62
     0
 48
50.0
100
AcDbLine
 10
4179.81067037537
 20
11289.83070683355
 30
0.0
 11
4179.81067037537
 21
10589.83070683355
 31
0.0
  0
INSERT
  5
14447
330
14254
100
AcDbEntity
  8
0
  6
ByBlock
 62
     0
 48
50.0
100
AcDbBlockReference
  2
_DOTSMALL
 10
4179.81067037537
 20
11289.83070683355
 30
0.0
 41
75.0
 42
75.0
 43
75.0
 50
90.0
  0
INSERT
  5
14448
330
14254
100
AcDbEntity
  8
0
  6
ByBlock
 62
     0
 48
50.0
100
AcDbBlockReference
  2
_DOTSMALL
 10
4179.81067037537
 20
10589.83070683355
 30
0.0
 41
75.0
 42
75.0
 43
75.0
 50
270.0
  0
MTEXT
  5
14449
330
14254
100
AcDbEntity
  8
0
  6
ByBlock
 62
     7
 48
50.0
100
AcDbMText
 10
4104.810670375369
 20
10939.83070683355
 30
0.0
 40
90.0
 41
0.0
 71
     5
 72
     1
  1
\A1;700
  7
STYLE1
 11
0.0000000000000001
 21
1.0
 31
0.0
 73
     1
 44
1.0
1001
ACAD
1000
MTEXTBEGIN
1070
    73
1070
     1
1070
    44
1040
1.0
1070
    74
1070
     0
1000
MTEXTEND
  0
POINT
  5
1444A
330
14254
100
AcDbEntity
  8
DEFPOINTS
  6
ByBlock
 62
     0
 48
50.0
100
AcDbPoint
 10
4357.125173659549
 20
11289.83070683355
 30
0.0
  0
POINT
  5
1444B
330
14254
100
AcDbEntity
  8
DEFPOINTS
  6
ByBlock
 62
     0
 48
50.0
100
AcDbPoint
 10
4357.125173659549
 20
10589.83070683355
 30
0.0
  0
POINT
  5
1444C
330
14254
100
AcDbEntity
  8
DEFPOINTS
  6
ByBlock
 62
     0
 48
50.0
100
AcDbPoint
 10
4179.81067037537
 20
10589.83070683355
 30
0.0
  0
ENDBLK
  5
1444D
330
14254
100
AcDbEntity
  8
0
 48
50.0
100
AcDbBlockEnd
  0
BLOCK
  5
1444E
330
14260
100
AcDbEntity
  8
0
 48
50.0
100
AcDbBlockBegin
  2
*D23
 70
     1
 10
0.0
 20
0.0
 30
0.0
  3
*D23
  1

  0
LINE
  5
1444F
330
14260
100
AcDbEntity
  8
0
  6
ByBlock
 62
     0
 48
50.0
100
AcDbLine
 10
4357.125173659549
 20
11304.83070683355
 30
0.0
 11
4357.125173659549
 21
11532.62006813355
 31
0.0
  0
LINE
  5
14450
330
14260
100
AcDbEntity
  8
0
  6
ByBlock
 62
     0
 48
50.0
100
AcDbLine
 10
5057.125173659549
 20
11304.83070683355
 30
0.0
 11
5057.125173659549
 21
11532.62006813355
 31
0.0
  0
LINE
  5
14451
330
14260
100
AcDbEntity
  8
0
  6
ByBlock
 62
     0
 48
50.0
100
AcDbLine
 10
4357.125173659549
 20
11487.62006813355
 30
0.0
 11
5057.125173659549
 21
11487.62006813355
 31
0.0
  0
INSERT
  5
14452
330
14260
100
AcDbEntity
  8
0
  6
ByBlock
 62
     0
 48
50.0
100
AcDbBlockReference
  2
_DOTSMALL
 10
4357.125173659549
 20
11487.62006813355
 30
0.0
 41
75.0
 42
75.0
 43
75.0
 50
180.0
  0
INSERT
  5
14453
330
14260
100
AcDbEntity
  8
0
  6
ByBlock
 62
     0
 48
50.0
100
AcDbBlockReference
  2
_DOTSMALL
 10
5057.125173659549
 20
11487.62006813355
 30
0.0
 41
75.0
 42
75.0
 43
75.0
  0
MTEXT
  5
14454
330
14260
100
AcDbEntity
  8
0
  6
ByBlock
 62
     7
 48
50.0
100
AcDbMText
 10
4707.12517365955
 20
11562.62006813354
 30
0.0
 40
90.0
 41
0.0
 71
     5
 72
     1
  1
\A1;700
  7
STYLE1
 73
     1
 44
1.0
1001
ACAD
1000
MTEXTBEGIN
1070
    73
1070
     1
1070
    44
1040
1.0
1070
    74
1070
     0
1000
MTEXTEND
  0
POINT
  5
14455
330
14260
100
AcDbEntity
  8
DEFPOINTS
  6
ByBlock
 62
     0
 48
50.0
100
AcDbPoint
 10
4357.125173659549
 20
11289.83070683355
 30
0.0
  0
POINT
  5
14456
330
14260
100
AcDbEntity
  8
DEFPOINTS
  6
ByBlock
 62
     0
 48
50.0
100
AcDbPoint
 10
5057.125173659549
 20
11289.83070683355
 30
0.0
  0
POINT
  5
14457
330
14260
100
AcDbEntity
  8
DEFPOINTS
  6
ByBlock
 62
     0
 48
50.0
100
AcDbPoint
 10
5057.125173659549
 20
11487.62006813355
 30
0.0
  0
ENDBLK
  5
14458
330
14260
100
AcDbEntity
  8
0
 48
50.0
100
AcDbBlockEnd
  0
BLOCK
  5
14459
330
1426C
100
AcDbEntity
  8
0
 48
50.0
100
AcDbBlockBegin
  2
*D24
 70
     1
 10
0.0
 20
0.0
 30
0.0
  3
*D24
  1

  0
LINE
  5
1445A
330
1426C
100
AcDbEntity
  8
0
  6
ByBlock
 62
     0
 48
50.0
100
AcDbLine
 10
4707.12517365955
 20
12024.83070683355
 30
0.0
 11
4707.12517365955
 21
12437.88023630956
 31
0.0
  0
LINE
  5
1445B
330
1426C
100
AcDbEntity
  8
0
  6
ByBlock
 62
     0
 48
50.0
100
AcDbLine
 10
4957.12517365955
 20
11954.83070683355
 30
0.0
 11
4957.12517365955
 21
12437.88023630956
 31
0.0
  0
LINE
  5
1445C
330
1426C
100
AcDbEntity
  8
0
  6
ByBlock
 62
     0
 48
50.0
100
AcDbLine
 10
4707.12517365955
 20
12392.88023630956
 30
0.0
 11
4957.12517365955
 21
12392.88023630956
 31
0.0
  0
INSERT
  5
1445D
330
1426C
100
AcDbEntity
  8
0
  6
ByBlock
 62
     0
 48
50.0
100
AcDbBlockReference
  2
_DOTSMALL
 10
4707.12517365955
 20
12392.88023630956
 30
0.0
 41
75.0
 42
75.0
 43
75.0
 50
180.0
  0
INSERT
  5
1445E
330
1426C
100
AcDbEntity
  8
0
  6
ByBlock
 62
     0
 48
50.0
100
AcDbBlockReference
  2
_DOTSMALL
 10
4957.12517365955
 20
12392.88023630956
 30
0.0
 41
75.0
 42
75.0
 43
75.0
  0
MTEXT
  5
1445F
330
1426C
100
AcDbEntity
  8
0
  6
ByBlock
 62
     7
 48
50.0
100
AcDbMText
 10
4832.12517365955
 20
12467.88909457728
 30
0.0
 40
90.0
 41
0.0
 71
     5
 72
     1
  1
\A1;250
  7
STYLE1
 73
     1
 44
1.0
1001
ACAD
1000
MTEXTBEGIN
1070
    73
1070
     1
1070
    44
1040
1.0
1070
    74
1070
     0
1000
MTEXTEND
  0
POINT
  5
14460
330
1426C
100
AcDbEntity
  8
DEFPOINTS
  6
ByBlock
 62
     0
 48
50.0
100
AcDbPoint
 10
4707.12517365955
 20
12009.83070683355
 30
0.0
  0
POINT
  5
14461
330
1426C
100
AcDbEntity
  8
DEFPOINTS
  6
ByBlock
 62
     0
 48
50.0
100
AcDbPoint
 10
4957.12517365955
 20
11939.83070683355
 30
0.0
  0
POINT
  5
14462
330
1426C
100
AcDbEntity
  8
DEFPOINTS
  6
ByBlock
 62
     0
 48
50.0
100
AcDbPoint
 10
4957.12517365955
 20
12392.88023630956
 30
0.0
  0
ENDBLK
  5
14463
330
1426C
100
AcDbEntity
  8
0
 48
50.0
100
AcDbBlockEnd
  0
BLOCK
  5
146B2
330
146B1
100
AcDbEntity
  8
0
 48
50.0
100
AcDbBlockBegin
  2
_None
 70
     0
 10
0.0
 20
0.0
 30
0.0
  3
_None
  1

  0
ENDBLK
  5
146B3
330
146B1
100
AcDbEntity
  8
0
 48
50.0
100
AcDbBlockEnd
  0
BLOCK
  5
14B40
330
14B36
100
AcDbEntity
  8
0
 48
50.0
100
AcDbBlockBegin
  2
*D26
 70
     1
 10
0.0
 20
0.0
 30
0.0
  3
*D26
  1

  0
LINE
  5
14C25
330
14B36
100
AcDbEntity
  8
寸法
 62
     0
 48
50.0
370
    -2
100
AcDbLine
 10
8785.309336270463
 20
5271.136281726281
 30
0.0
 11
8785.309336270463
 21
4986.598783490083
 31
0.0
  0
LINE
  5
14C26
330
14B36
100
AcDbEntity
  8
寸法
 62
     0
 48
50.0
370
    -2
100
AcDbLine
 10
8410.309336270465
 20
5271.136281726281
 30
0.0
 11
8410.309336270465
 21
4986.598783490083
 31
0.0
  0
LINE
  5
14C27
330
14B36
100
AcDbEntity
  8
寸法
 62
     0
 48
50.0
370
    -2
100
AcDbLine
 10
8785.309336270463
 20
5031.598783490082
 30
0.0
 11
8410.309336270465
 21
5031.598783490082
 31
0.0
  0
INSERT
  5
14C28
330
14B36
100
AcDbEntity
  8
寸法
 62
     0
 48
50.0
370
    -2
100
AcDbBlockReference
  2
_DOTSMALL
 10
8785.309336270463
 20
5031.598783490082
 30
0.0
 41
75.0
 42
75.0
 43
75.0
  0
INSERT
  5
14C29
330
14B36
100
AcDbEntity
  8
寸法
 62
     0
 48
50.0
370
    -2
100
AcDbBlockReference
  2
_DOTSMALL
 10
8410.309336270465
 20
5031.598783490082
 30
0.0
 41
75.0
 42
75.0
 43
75.0
 50
180.0
  0
MTEXT
  5
14C2A
330
14B36
100
AcDbEntity
  8
寸法
 62
     7
 48
50.0
100
AcDbMText
 10
8597.809336270463
 20
5106.607641757799
 30
0.0
 40
90.0
 41
0.0
 71
     5
 72
     1
  1
\A1;250
  7
STYLE1
 73
     1
 44
1.0
1001
ACAD
1000
MTEXTBEGIN
1070
    73
1070
     1
1070
    44
1040
1.0
1070
    74
1070
     0
1000
MTEXTEND
  0
POINT
  5
14C2B
330
14B36
100
AcDbEntity
  8
DEFPOINTS
 62
     0
 48
50.0
100
AcDbPoint
 10
8785.309336270463
 20
5286.136281726282
 30
0.0
  0
POINT
  5
14C2C
330
14B36
100
AcDbEntity
  8
DEFPOINTS
 62
     0
 48
50.0
100
AcDbPoint
 10
8410.309336270465
 20
5286.136281726282
 30
0.0
  0
POINT
  5
14C2D
330
14B36
100
AcDbEntity
  8
DEFPOINTS
 62
     0
 48
50.0
100
AcDbPoint
 10
8410.309336270465
 20
5031.598783490082
 30
0.0
  0
ENDBLK
  5
14B41
330
14B36
100
AcDbEntity
  8
0
 48
50.0
100
AcDbBlockEnd
  0
BLOCK
  5
14B4C
330
14B42
100
AcDbEntity
  8
0
 48
50.0
100
AcDbBlockBegin
  2
*D27
 70
     1
 10
0.0
 20
0.0
 30
0.0
  3
*D27
  1

  0
LINE
  5
14C2E
330
14B42
100
AcDbEntity
  8
寸法
 62
     0
 48
50.0
370
    -2
100
AcDbLine
 10
9085.309336270462
 20
5271.136281726281
 30
0.0
 11
9085.309336270462
 21
4986.598783490083
 31
0.0
  0
LINE
  5
14C2F
330
14B42
100
AcDbEntity
  8
寸法
 62
     0
 48
50.0
370
    -2
100
AcDbLine
 10
8785.309336270463
 20
5271.136281726281
 30
0.0
 11
8785.309336270463
 21
4986.598783490083
 31
0.0
  0
LINE
  5
14C30
330
14B42
100
AcDbEntity
  8
寸法
 62
     0
 48
50.0
370
    -2
100
AcDbLine
 10
9085.309336270462
 20
5031.598783490082
 30
0.0
 11
8785.309336270463
 21
5031.598783490082
 31
0.0
  0
INSERT
  5
14C31
330
14B42
100
AcDbEntity
  8
寸法
 62
     0
 48
50.0
370
    -2
100
AcDbBlockReference
  2
_DOTSMALL
 10
9085.309336270462
 20
5031.598783490082
 30
0.0
 41
75.0
 42
75.0
 43
75.0
  0
INSERT
  5
14C32
330
14B42
100
AcDbEntity
  8
寸法
 62
     0
 48
50.0
370
    -2
100
AcDbBlockReference
  2
_DOTSMALL
 10
8785.309336270463
 20
5031.598783490082
 30
0.0
 41
75.0
 42
75.0
 43
75.0
 50
180.0
  0
MTEXT
  5
14C33
330
14B42
100
AcDbEntity
  8
寸法
 62
     7
 48
50.0
100
AcDbMText
 10
8935.309336270462
 20
5106.607641757799
 30
0.0
 40
90.0
 41
0.0
 71
     5
 72
     1
  1
\A1;200
  7
STYLE1
 73
     1
 44
1.0
1001
ACAD
1000
MTEXTBEGIN
1070
    73
1070
     1
1070
    44
1040
1.0
1070
    74
1070
     0
1000
MTEXTEND
  0
POINT
  5
14C34
330
14B42
100
AcDbEntity
  8
DEFPOINTS
 62
     0
 48
50.0
100
AcDbPoint
 10
9085.309336270462
 20
5286.136281726282
 30
0.0
  0
POINT
  5
14C35
330
14B42
100
AcDbEntity
  8
DEFPOINTS
 62
     0
 48
50.0
100
AcDbPoint
 10
8785.309336270463
 20
5286.136281726282
 30
0.0
  0
POINT
  5
14C36
330
14B42
100
AcDbEntity
  8
DEFPOINTS
 62
     0
 48
50.0
100
AcDbPoint
 10
8785.309336270463
 20
5031.598783490082
 30
0.0
  0
ENDBLK
  5
14B4D
330
14B42
100
AcDbEntity
  8
0
 48
50.0
100
AcDbBlockEnd
  0
BLOCK
  5
14B58
330
14B4E
100
AcDbEntity
  8
0
 48
50.0
100
AcDbBlockBegin
  2
*D28
 70
     1
 10
0.0
 20
0.0
 30
0.0
  3
*D28
  1

  0
LINE
  5
14C37
330
14B4E
100
AcDbEntity
  8
寸法
 62
     0
 48
50.0
370
    -2
100
AcDbLine
 10
9460.309336270466
 20
5271.136281726281
 30
0.0
 11
9460.309336270466
 21
4986.598783490083
 31
0.0
  0
LINE
  5
14C38
330
14B4E
100
AcDbEntity
  8
寸法
 62
     0
 48
50.0
370
    -2
100
AcDbLine
 10
9085.309336270462
 20
5271.136281726281
 30
0.0
 11
9085.309336270462
 21
4986.598783490083
 31
0.0
  0
LINE
  5
14C39
330
14B4E
100
AcDbEntity
  8
寸法
 62
     0
 48
50.0
370
    -2
100
AcDbLine
 10
9460.309336270466
 20
5031.598783490082
 30
0.0
 11
9085.309336270462
 21
5031.598783490082
 31
0.0
  0
INSERT
  5
14C3A
330
14B4E
100
AcDbEntity
  8
寸法
 62
     0
 48
50.0
370
    -2
100
AcDbBlockReference
  2
_DOTSMALL
 10
9460.309336270466
 20
5031.598783490082
 30
0.0
 41
75.0
 42
75.0
 43
75.0
  0
INSERT
  5
14C3B
330
14B4E
100
AcDbEntity
  8
寸法
 62
     0
 48
50.0
370
    -2
100
AcDbBlockReference
  2
_DOTSMALL
 10
9085.309336270462
 20
5031.598783490082
 30
0.0
 41
75.0
 42
75.0
 43
75.0
 50
180.0
  0
MTEXT
  5
14C3C
330
14B4E
100
AcDbEntity
  8
寸法
 62
     7
 48
50.0
100
AcDbMText
 10
9272.809336270464
 20
5106.607641757799
 30
0.0
 40
90.0
 41
0.0
 71
     5
 72
     1
  1
\A1;250
  7
STYLE1
 73
     1
 44
1.0
1001
ACAD
1000
MTEXTBEGIN
1070
    73
1070
     1
1070
    44
1040
1.0
1070
    74
1070
     0
1000
MTEXTEND
  0
POINT
  5
14C3D
330
14B4E
100
AcDbEntity
  8
DEFPOINTS
 62
     0
 48
50.0
100
AcDbPoint
 10
9460.309336270466
 20
5286.136281726282
 30
0.0
  0
POINT
  5
14C3E
330
14B4E
100
AcDbEntity
  8
DEFPOINTS
 62
     0
 48
50.0
100
AcDbPoint
 10
9085.309336270462
 20
5286.136281726282
 30
0.0
  0
POINT
  5
14C3F
330
14B4E
100
AcDbEntity
  8
DEFPOINTS
 62
     0
 48
50.0
100
AcDbPoint
 10
9085.309336270462
 20
5031.598783490082
 30
0.0
  0
ENDBLK
  5
14B59
330
14B4E
100
AcDbEntity
  8
0
 48
50.0
100
AcDbBlockEnd
  0
BLOCK
  5
14B65
330
14B5A
100
AcDbEntity
  8
0
 48
50.0
100
AcDbBlockBegin
  2
*D29
 70
     1
 10
0.0
 20
0.0
 30
0.0
  3
*D29
  1

  0
LINE
  5
14D03
330
14B5A
100
AcDbEntity
  8
寸法
 62
     0
 48
50.0
370
    -2
100
AcDbLine
 10
8122.167045899502
 20
6086.5831349088
 30
0.0
 11
7794.046941219777
 21
6086.5831349088
 31
0.0
  0
LINE
  5
14D04
330
14B5A
100
AcDbEntity
  8
寸法
 62
     0
 48
50.0
370
    -2
100
AcDbLine
 10
8761.309336270462
 20
6176.083134908797
 30
0.0
 11
7794.046941219779
 21
6176.083134908797
 31
0.0
  0
LINE
  5
14D05
330
14B5A
100
AcDbEntity
  8
寸法
 62
     0
 48
50.0
370
    -2
100
AcDbLine
 10
7839.046941219779
 20
6176.083134908797
 30
0.0
 11
7839.046941219777
 21
6086.5831349088
 31
0.0
  0
LINE
  5
14D06
330
14B5A
100
AcDbEntity
  8
寸法
 62
     0
 48
50.0
370
    -2
100
AcDbLine
 10
7839.046941219777
 20
6086.5831349088
 30
0.0
 11
7839.046941219777
 21
5846.633081897028
 31
0.0
  0
INSERT
  5
14D07
330
14B5A
100
AcDbEntity
  8
寸法
 62
     0
 48
50.0
370
    -2
100
AcDbBlockReference
  2
_DOTSMALL
 10
7839.046941219779
 20
6176.083134908797
 30
0.0
 41
75.0
 42
75.0
 43
75.0
 50
90.0
  0
INSERT
  5
14D08
330
14B5A
100
AcDbEntity
  8
寸法
 62
     0
 48
50.0
370
    -2
100
AcDbBlockReference
  2
_DOTSMALL
 10
7839.046941219777
 20
6086.5831349088
 30
0.0
 41
75.0
 42
75.0
 43
75.0
 50
270.0
  0
MTEXT
  5
14D09
330
14B5A
100
AcDbEntity
  8
寸法
 62
     7
 48
50.0
100
AcDbMText
 10
7764.046941219776
 20
5928.861428353722
 30
0.0
 40
90.0
 41
0.0
 71
     5
 72
     1
  1
\A1;60
  7
STYLE1
 11
0.0000000000000001
 21
1.0
 31
0.0
 73
     1
 44
1.0
1001
ACAD
1000
MTEXTBEGIN
1070
    73
1070
     1
1070
    44
1040
1.0
1070
    74
1070
     0
1000
MTEXTEND
  0
POINT
  5
14D0A
330
14B5A
100
AcDbEntity
  8
DEFPOINTS
 62
     0
 48
50.0
100
AcDbPoint
 10
8137.1670458995
 20
6086.5831349088
 30
0.0
  0
POINT
  5
14D0B
330
14B5A
100
AcDbEntity
  8
DEFPOINTS
 62
     0
 48
50.0
100
AcDbPoint
 10
8776.309336270463
 20
6176.083134908797
 30
0.0
  0
POINT
  5
14D0C
330
14B5A
100
AcDbEntity
  8
DEFPOINTS
 62
     0
 48
50.0
100
AcDbPoint
 10
7839.046941219779
 20
6176.083134908797
 30
0.0
  0
ENDBLK
  5
14B66
330
14B5A
100
AcDbEntity
  8
0
 48
50.0
100
AcDbBlockEnd
  0
BLOCK
  5
14B73
330
14B67
100
AcDbEntity
  8
0
 48
50.0
100
AcDbBlockBegin
  2
*D30
 70
     1
 10
0.0
 20
0.0
 30
0.0
  3
*D30
  1

  0
LINE
  5
14C4A
330
14B67
100
AcDbEntity
  8
寸法
 62
     0
 48
50.0
370
    -2
100
AcDbLine
 10
8122.167045899502
 20
6086.583134908799
 30
0.0
 11
7979.847844613025
 21
6086.583134908799
 31
0.0
  0
LINE
  5
14C4B
330
14B67
100
AcDbEntity
  8
寸法
 62
     0
 48
50.0
370
    -2
100
AcDbLine
 10
8732.809336270463
 20
6131.583134908797
 30
0.0
 11
7979.847844613025
 21
6131.583134908797
 31
0.0
  0
LINE
  5
14C4C
330
14B67
100
AcDbEntity
  8
寸法
 62
     0
 48
50.0
370
    -2
100
AcDbLine
 10
8024.847844613024
 20
6131.583134908797
 30
0.0
 11
8024.847844613026
 21
6206.583134908798
 31
0.0
  0
LINE
  5
14C4D
330
14B67
100
AcDbEntity
  8
寸法
 62
     0
 48
50.0
370
    -2
100
AcDbLine
 10
8024.847844613024
 20
6086.583134908799
 30
0.0
 11
8024.847844613024
 21
5777.512268767066
 31
0.0
  0
LINE
  5
14C4E
330
14B67
100
AcDbEntity
  8
寸法
 62
     0
 48
50.0
370
    -2
100
AcDbLine
 10
8024.847844613024
 20
6131.583134908797
 30
0.0
 11
8024.847844613024
 21
6086.583134908799
 31
0.0
  0
INSERT
  5
14C4F
330
14B67
100
AcDbEntity
  8
寸法
 62
     0
 48
50.0
370
    -2
100
AcDbBlockReference
  2
_DOTSMALL
 10
8024.847844613024
 20
6131.583134908797
 30
0.0
 41
75.0
 42
75.0
 43
75.0
 50
270.0
  0
INSERT
  5
14C50
330
14B67
100
AcDbEntity
  8
寸法
 62
     0
 48
50.0
370
    -2
100
AcDbBlockReference
  2
_DOTSMALL
 10
8024.847844613024
 20
6086.583134908799
 30
0.0
 41
75.0
 42
75.0
 43
75.0
 50
90.0
  0
MTEXT
  5
14C51
330
14B67
100
AcDbEntity
  8
寸法
 62
     7
 48
50.0
100
AcDbMText
 10
7949.847844613024
 20
5857.047701837933
 30
0.0
 40
90.0
 41
0.0
 71
     5
 72
     1
  1
\A1;30
  7
STYLE1
 11
0.0000000000000001
 21
1.0
 31
0.0
 73
     1
 44
1.0
1001
ACAD
1000
MTEXTBEGIN
1070
    73
1070
     1
1070
    44
1040
1.0
1070
    74
1070
     0
1000
MTEXTEND
  0
POINT
  5
14C52
330
14B67
100
AcDbEntity
  8
DEFPOINTS
 62
     0
 48
50.0
100
AcDbPoint
 10
8137.1670458995
 20
6086.583134908799
 30
0.0
  0
POINT
  5
14C53
330
14B67
100
AcDbEntity
  8
DEFPOINTS
 62
     0
 48
50.0
100
AcDbPoint
 10
8747.809336270464
 20
6131.583134908797
 30
0.0
  0
POINT
  5
14C54
330
14B67
100
AcDbEntity
  8
DEFPOINTS
 62
     0
 48
50.0
100
AcDbPoint
 10
8024.847844613024
 20
6131.583134908797
 30
0.0
  0
ENDBLK
  5
14B74
330
14B67
100
AcDbEntity
  8
0
 48
50.0
100
AcDbBlockEnd
  0
BLOCK
  5
14B80
330
14B75
100
AcDbEntity
  8
0
 48
50.0
100
AcDbBlockBegin
  2
*D31
 70
     1
 10
0.0
 20
0.0
 30
0.0
  3
*D31
  1

  0
LINE
  5
14C55
330
14B75
100
AcDbEntity
  8
寸法
 62
     0
 48
50.0
370
    -2
100
AcDbLine
 10
9595.309336270466
 20
5487.136281726282
 30
0.0
 11
10165.01793660163
 21
5487.136281726282
 31
0.0
  0
LINE
  5
14C56
330
14B75
100
AcDbEntity
  8
寸法
 62
     0
 48
50.0
370
    -2
100
AcDbLine
 10
9595.309336270464
 20
5412.136281726282
 30
0.0
 11
10165.01793660163
 21
5412.136281726282
 31
0.0
  0
LINE
  5
14C57
330
14B75
100
AcDbEntity
  8
寸法
 62
     0
 48
50.0
370
    -2
100
AcDbLine
 10
10120.01793660163
 20
5487.136281726282
 30
0.0
 11
10120.01793660163
 21
5412.136281726282
 31
0.0
  0
LINE
  5
14C58
330
14B75
100
AcDbEntity
  8
寸法
 62
     0
 48
50.0
370
    -2
100
AcDbLine
 10
10120.01793660163
 20
5412.136281726282
 30
0.0
 11
10120.01793660163
 21
5152.898191175101
 31
0.0
  0
INSERT
  5
14C59
330
14B75
100
AcDbEntity
  8
寸法
 62
     0
 48
50.0
370
    -2
100
AcDbBlockReference
  2
_DOTSMALL
 10
10120.01793660163
 20
5487.136281726282
 30
0.0
 41
75.0
 42
75.0
 43
75.0
 50
90.0
  0
INSERT
  5
14C5A
330
14B75
100
AcDbEntity
  8
寸法
 62
     0
 48
50.0
370
    -2
100
AcDbBlockReference
  2
_DOTSMALL
 10
10120.01793660163
 20
5412.136281726282
 30
0.0
 41
75.0
 42
75.0
 43
75.0
 50
270.0
  0
MTEXT
  5
14C5B
330
14B75
100
AcDbEntity
  8
寸法
 62
     7
 48
50.0
100
AcDbMText
 10
10045.01793660163
 20
5232.433624245969
 30
0.0
 40
90.0
 41
0.0
 71
     5
 72
     1
  1
\A1;50
  7
STYLE1
 11
0.0000000000000001
 21
1.0
 31
0.0
 73
     1
 44
1.0
1001
ACAD
1000
MTEXTBEGIN
1070
    73
1070
     1
1070
    44
1040
1.0
1070
    74
1070
     0
1000
MTEXTEND
  0
POINT
  5
14C5C
330
14B75
100
AcDbEntity
  8
DEFPOINTS
 62
     0
 48
50.0
100
AcDbPoint
 10
9580.309336270465
 20
5487.136281726282
 30
0.0
  0
POINT
  5
14C5D
330
14B75
100
AcDbEntity
  8
DEFPOINTS
 62
     0
 48
50.0
100
AcDbPoint
 10
9580.309336270465
 20
5412.136281726282
 30
0.0
  0
POINT
  5
14C5E
330
14B75
100
AcDbEntity
  8
DEFPOINTS
 62
     0
 48
50.0
100
AcDbPoint
 10
10120.01793660163
 20
5412.136281726282
 30
0.0
  0
ENDBLK
  5
14B81
330
14B75
100
AcDbEntity
  8
0
 48
50.0
100
AcDbBlockEnd
  0
BLOCK
  5
14B8C
330
14B82
100
AcDbEntity
  8
0
 48
50.0
100
AcDbBlockBegin
  2
*D32
 70
     1
 10
0.0
 20
0.0
 30
0.0
  3
*D32
  1

  0
LINE
  5
14C5F
330
14B82
100
AcDbEntity
  8
寸法
 62
     0
 48
50.0
370
    -2
100
AcDbLine
 10
9870.00589469493
 20
6086.5831349088
 30
0.0
 11
10165.01793660163
 21
6086.5831349088
 31
0.0
  0
LINE
  5
14C60
330
14B82
100
AcDbEntity
  8
寸法
 62
     0
 48
50.0
370
    -2
100
AcDbLine
 10
9595.309336270466
 20
5487.136281726282
 30
0.0
 11
10165.01793660163
 21
5487.136281726282
 31
0.0
  0
LINE
  5
14C61
330
14B82
100
AcDbEntity
  8
寸法
 62
     0
 48
50.0
370
    -2
100
AcDbLine
 10
10120.01793660163
 20
6086.5831349088
 30
0.0
 11
10120.01793660163
 21
5487.136281726282
 31
0.0
  0
INSERT
  5
14C62
330
14B82
100
AcDbEntity
  8
寸法
 62
     0
 48
50.0
370
    -2
100
AcDbBlockReference
  2
_DOTSMALL
 10
10120.01793660163
 20
6086.5831349088
 30
0.0
 41
75.0
 42
75.0
 43
75.0
 50
90.0
  0
INSERT
  5
14C63
330
14B82
100
AcDbEntity
  8
寸法
 62
     0
 48
50.0
370
    -2
100
AcDbBlockReference
  2
_DOTSMALL
 10
10120.01793660163
 20
5487.136281726282
 30
0.0
 41
75.0
 42
75.0
 43
75.0
 50
270.0
  0
MTEXT
  5
14C64
330
14B82
100
AcDbEntity
  8
寸法
 62
     7
 48
50.0
100
AcDbMText
 10
10045.01793660163
 20
5786.859708317542
 30
0.0
 40
90.0
 41
0.0
 71
     5
 72
     1
  1
\A1;400
  7
STYLE1
 11
0.0000000000000001
 21
1.0
 31
0.0
 73
     1
 44
1.0
1001
ACAD
1000
MTEXTBEGIN
1070
    73
1070
     1
1070
    44
1040
1.0
1070
    74
1070
     0
1000
MTEXTEND
  0
POINT
  5
14C65
330
14B82
100
AcDbEntity
  8
DEFPOINTS
 62
     0
 48
50.0
100
AcDbPoint
 10
9855.005894694931
 20
6086.5831349088
 30
0.0
  0
POINT
  5
14C66
330
14B82
100
AcDbEntity
  8
DEFPOINTS
 62
     0
 48
50.0
100
AcDbPoint
 10
9580.309336270465
 20
5487.136281726282
 30
0.0
  0
POINT
  5
14C67
330
14B82
100
AcDbEntity
  8
DEFPOINTS
 62
     0
 48
50.0
100
AcDbPoint
 10
10120.01793660163
 20
5487.136281726282
 30
0.0
  0
ENDBLK
  5
14B8D
330
14B82
100
AcDbEntity
  8
0
 48
50.0
100
AcDbBlockEnd
  0
BLOCK
  5
14B98
330
14B8E
100
AcDbEntity
  8
0
 48
50.0
100
AcDbBlockBegin
  2
*D33
 70
     1
 10
0.0
 20
0.0
 30
0.0
  3
*D33
  1

  0
LINE
  5
14C68
330
14B8E
100
AcDbEntity
  8
寸法
 62
     0
 48
50.0
370
    -2
100
AcDbLine
 10
9829.497555052387
 20
6311.583134908801
 30
0.0
 11
10165.01793660163
 21
6311.583134908801
 31
0.0
  0
LINE
  5
14C69
330
14B8E
100
AcDbEntity
  8
寸法
 62
     0
 48
50.0
370
    -2
100
AcDbLine
 10
9870.00589469493
 20
6086.5831349088
 30
0.0
 11
10165.01793660163
 21
6086.5831349088
 31
0.0
  0
LINE
  5
14C6A
330
14B8E
100
AcDbEntity
  8
寸法
 62
     0
 48
50.0
370
    -2
100
AcDbLine
 10
10120.01793660163
 20
6311.583134908801
 30
0.0
 11
10120.01793660163
 21
6086.5831349088
 31
0.0
  0
INSERT
  5
14C6B
330
14B8E
100
AcDbEntity
  8
寸法
 62
     0
 48
50.0
370
    -2
100
AcDbBlockReference
  2
_DOTSMALL
 10
10120.01793660163
 20
6311.583134908801
 30
0.0
 41
75.0
 42
75.0
 43
75.0
 50
90.0
  0
INSERT
  5
14C6C
330
14B8E
100
AcDbEntity
  8
寸法
 62
     0
 48
50.0
370
    -2
100
AcDbBlockReference
  2
_DOTSMALL
 10
10120.01793660163
 20
6086.5831349088
 30
0.0
 41
75.0
 42
75.0
 43
75.0
 50
270.0
  0
MTEXT
  5
14C6D
330
14B8E
100
AcDbEntity
  8
寸法
 62
     7
 48
50.0
100
AcDbMText
 10
10045.01793660163
 20
6199.0831349088
 30
0.0
 40
90.0
 41
0.0
 71
     5
 72
     1
  1
\A1;150
  7
STYLE1
 11
0.0000000000000001
 21
1.0
 31
0.0
 73
     1
 44
1.0
1001
ACAD
1000
MTEXTBEGIN
1070
    73
1070
     1
1070
    44
1040
1.0
1070
    74
1070
     0
1000
MTEXTEND
  0
POINT
  5
14C6E
330
14B8E
100
AcDbEntity
  8
DEFPOINTS
 62
     0
 48
50.0
100
AcDbPoint
 10
9814.497555052387
 20
6311.583134908801
 30
0.0
  0
POINT
  5
14C6F
330
14B8E
100
AcDbEntity
  8
DEFPOINTS
 62
     0
 48
50.0
100
AcDbPoint
 10
9855.005894694931
 20
6086.5831349088
 30
0.0
  0
POINT
  5
14C70
330
14B8E
100
AcDbEntity
  8
DEFPOINTS
 62
     0
 48
50.0
100
AcDbPoint
 10
10120.01793660163
 20
6086.5831349088
 30
0.0
  0
ENDBLK
  5
14B99
330
14B8E
100
AcDbEntity
  8
0
 48
50.0
100
AcDbBlockEnd
  0
BLOCK
  5
14BA5
330
14B9A
100
AcDbEntity
  8
0
 48
50.0
100
AcDbBlockBegin
  2
*D34
 70
     1
 10
0.0
 20
0.0
 30
0.0
  3
*D34
  1

  0
LINE
  5
14C71
330
14B9A
100
AcDbEntity
  8
寸法
 62
     0
 48
50.0
370
    -2
100
AcDbLine
 10
9687.512124160107
 20
6386.583134908798
 30
0.0
 11
10165.01793660163
 21
6386.583134908798
 31
0.0
  0
LINE
  5
14C72
330
14B9A
100
AcDbEntity
  8
寸法
 62
     0
 48
50.0
370
    -2
100
AcDbLine
 10
9829.497555052387
 20
6311.583134908801
 30
0.0
 11
10165.01793660163
 21
6311.583134908801
 31
0.0
  0
LINE
  5
14C73
330
14B9A
100
AcDbEntity
  8
寸法
 62
     0
 48
50.0
370
    -2
100
AcDbLine
 10
10120.01793660163
 20
6311.583134908801
 30
0.0
 11
10120.01793660163
 21
6386.583134908798
 31
0.0
  0
LINE
  5
14C74
330
14B9A
100
AcDbEntity
  8
寸法
 62
     0
 48
50.0
370
    -2
100
AcDbLine
 10
10120.01793660163
 20
6386.583134908798
 30
0.0
 11
10120.01793660163
 21
6674.982529010344
 31
0.0
  0
INSERT
  5
14C75
330
14B9A
100
AcDbEntity
  8
寸法
 62
     0
 48
50.0
370
    -2
100
AcDbBlockReference
  2
_DOTSMALL
 10
10120.01793660163
 20
6311.583134908801
 30
0.0
 41
75.0
 42
75.0
 43
75.0
 50
270.0
  0
INSERT
  5
14C76
330
14B9A
100
AcDbEntity
  8
寸法
 62
     0
 48
50.0
370
    -2
100
AcDbBlockReference
  2
_DOTSMALL
 10
10120.01793660163
 20
6386.583134908798
 30
0.0
 41
75.0
 42
75.0
 43
75.0
 50
90.0
  0
MTEXT
  5
14C77
330
14B9A
100
AcDbEntity
  8
寸法
 62
     7
 48
50.0
100
AcDbMText
 10
10045.01793660163
 20
6595.44709593948
 30
0.0
 40
90.0
 41
0.0
 71
     5
 72
     1
  1
\A1;50
  7
STYLE1
 11
0.0000000000000001
 21
1.0
 31
0.0
 73
     1
 44
1.0
1001
ACAD
1000
MTEXTBEGIN
1070
    73
1070
     1
1070
    44
1040
1.0
1070
    74
1070
     0
1000
MTEXTEND
  0
POINT
  5
14C78
330
14B9A
100
AcDbEntity
  8
DEFPOINTS
 62
     0
 48
50.0
100
AcDbPoint
 10
9672.512124160107
 20
6386.583134908798
 30
0.0
  0
POINT
  5
14C79
330
14B9A
100
AcDbEntity
  8
DEFPOINTS
 62
     0
 48
50.0
100
AcDbPoint
 10
9814.497555052387
 20
6311.583134908801
 30
0.0
  0
POINT
  5
14C7A
330
14B9A
100
AcDbEntity
  8
DEFPOINTS
 62
     0
 48
50.0
100
AcDbPoint
 10
10120.01793660163
 20
6311.583134908801
 30
0.0
  0
ENDBLK
  5
14BA6
330
14B9A
100
AcDbEntity
  8
0
 48
50.0
100
AcDbBlockEnd
  0
BLOCK
  5
14BB2
330
14BA7
100
AcDbEntity
  8
0
 48
50.0
100
AcDbBlockBegin
  2
*D35
 70
     1
 10
0.0
 20
0.0
 30
0.0
  3
*D35
  1

  0
LINE
  5
14C7B
330
14BA7
100
AcDbEntity
  8
寸法
 62
     0
 48
50.0
370
    -2
100
AcDbLine
 10
8122.167045899502
 20
6236.583134908801
 30
0.0
 11
7613.79850019203
 21
6236.583134908801
 31
0.0
  0
LINE
  5
14C7C
330
14BA7
100
AcDbEntity
  8
寸法
 62
     0
 48
50.0
370
    -2
100
AcDbLine
 10
8122.167045899502
 20
6086.5831349088
 30
0.0
 11
7613.798500192029
 21
6086.5831349088
 31
0.0
  0
LINE
  5
14C7D
330
14BA7
100
AcDbEntity
  8
寸法
 62
     0
 48
50.0
370
    -2
100
AcDbLine
 10
7658.79850019203
 20
6236.583134908801
 30
0.0
 11
7658.798500192029
 21
6086.5831349088
 31
0.0
  0
LINE
  5
14C7E
330
14BA7
100
AcDbEntity
  8
寸法
 62
     0
 48
50.0
370
    -2
100
AcDbLine
 10
7658.798500192029
 20
6086.5831349088
 30
0.0
 11
7658.798500192029
 21
5807.512268767066
 31
0.0
  0
INSERT
  5
14C7F
330
14BA7
100
AcDbEntity
  8
寸法
 62
     0
 48
50.0
370
    -2
100
AcDbBlockReference
  2
_DOTSMALL
 10
7658.79850019203
 20
6236.583134908801
 30
0.0
 41
75.0
 42
75.0
 43
75.0
 50
90.0
  0
INSERT
  5
14C80
330
14BA7
100
AcDbEntity
  8
寸法
 62
     0
 48
50.0
370
    -2
100
AcDbBlockReference
  2
_DOTSMALL
 10
7658.798500192029
 20
6086.5831349088
 30
0.0
 41
75.0
 42
75.0
 43
75.0
 50
270.0
  0
MTEXT
  5
14C81
330
14BA7
100
AcDbEntity
  8
寸法
 62
     7
 48
50.0
100
AcDbMText
 10
7583.798500192028
 20
5909.547701837933
 30
0.0
 40
90.0
 41
0.0
 71
     5
 72
     1
  1
\A1;100
  7
STYLE1
 11
0.0000000000000001
 21
1.0
 31
0.0
 73
     1
 44
1.0
1001
ACAD
1000
MTEXTBEGIN
1070
    73
1070
     1
1070
    44
1040
1.0
1070
    74
1070
     0
1000
MTEXTEND
  0
POINT
  5
14C82
330
14BA7
100
AcDbEntity
  8
DEFPOINTS
 62
     0
 48
50.0
100
AcDbPoint
 10
8137.1670458995
 20
6236.583134908801
 30
0.0
  0
POINT
  5
14C83
330
14BA7
100
AcDbEntity
  8
DEFPOINTS
 62
     0
 48
50.0
100
AcDbPoint
 10
8137.1670458995
 20
6086.5831349088
 30
0.0
  0
POINT
  5
14C84
330
14BA7
100
AcDbEntity
  8
DEFPOINTS
 62
     0
 48
50.0
100
AcDbPoint
 10
7658.798500192029
 20
6086.5831349088
 30
0.0
  0
ENDBLK
  5
14BB3
330
14BA7
100
AcDbEntity
  8
0
 48
50.0
100
AcDbBlockEnd
  0
BLOCK
  5
14BBF
330
14BB4
100
AcDbEntity
  8
0
 48
50.0
100
AcDbBlockBegin
  2
*D36
 70
     1
 10
0.0
 20
0.0
 30
0.0
  3
*D36
  1

  0
LINE
  5
14C85
330
14BB4
100
AcDbEntity
  8
寸法
 62
     0
 48
50.0
370
    -2
100
AcDbLine
 10
8122.167045899503
 20
6386.583134908798
 30
0.0
 11
7613.79850019203
 21
6386.583134908798
 31
0.0
  0
LINE
  5
14C86
330
14BB4
100
AcDbEntity
  8
寸法
 62
     0
 48
50.0
370
    -2
100
AcDbLine
 10
8111.925038727719
 20
6236.583134908798
 30
0.0
 11
7613.79850019203
 21
6236.583134908798
 31
0.0
  0
LINE
  5
14C87
330
14BB4
100
AcDbEntity
  8
寸法
 62
     0
 48
50.0
370
    -2
100
AcDbLine
 10
7658.79850019203
 20
6236.583134908798
 30
0.0
 11
7658.79850019203
 21
6386.583134908798
 31
0.0
  0
LINE
  5
14C88
330
14BB4
100
AcDbEntity
  8
寸法
 62
     0
 48
50.0
370
    -2
100
AcDbLine
 10
7658.79850019203
 20
6386.583134908798
 30
0.0
 11
7658.79850019203
 21
6691.919595481988
 31
0.0
  0
INSERT
  5
14C89
330
14BB4
100
AcDbEntity
  8
寸法
 62
     0
 48
50.0
370
    -2
100
AcDbBlockReference
  2
_DOTSMALL
 10
7658.79850019203
 20
6236.583134908798
 30
0.0
 41
75.0
 42
75.0
 43
75.0
 50
270.0
  0
INSERT
  5
14C8A
330
14BB4
100
AcDbEntity
  8
寸法
 62
     0
 48
50.0
370
    -2
100
AcDbBlockReference
  2
_DOTSMALL
 10
7658.79850019203
 20
6386.583134908798
 30
0.0
 41
75.0
 42
75.0
 43
75.0
 50
90.0
  0
MTEXT
  5
14C8B
330
14BB4
100
AcDbEntity
  8
寸法
 62
     7
 48
50.0
100
AcDbMText
 10
7583.798500192028
 20
6589.884162411124
 30
0.0
 40
90.0
 41
0.0
 71
     5
 72
     1
  1
\A1;100
  7
STYLE1
 11
0.0000000000000001
 21
1.0
 31
0.0
 73
     1
 44
1.0
1001
ACAD
1000
MTEXTBEGIN
1070
    73
1070
     1
1070
    44
1040
1.0
1070
    74
1070
     0
1000
MTEXTEND
  0
POINT
  5
14C8C
330
14BB4
100
AcDbEntity
  8
DEFPOINTS
 62
     0
 48
50.0
100
AcDbPoint
 10
8137.167045899502
 20
6386.583134908798
 30
0.0
  0
POINT
  5
14C8D
330
14BB4
100
AcDbEntity
  8
DEFPOINTS
 62
     0
 48
50.0
100
AcDbPoint
 10
8126.925038727719
 20
6236.583134908798
 30
0.0
  0
POINT
  5
14C8E
330
14BB4
100
AcDbEntity
  8
DEFPOINTS
 62
     0
 48
50.0
100
AcDbPoint
 10
7658.79850019203
 20
6236.583134908798
 30
0.0
  0
ENDBLK
  5
14BC0
330
14BB4
100
AcDbEntity
  8
0
 48
50.0
100
AcDbBlockEnd
  0
BLOCK
  5
14BCB
330
14BC1
100
AcDbEntity
  8
0
 48
50.0
100
AcDbBlockBegin
  2
*D37
 70
     1
 10
0.0
 20
0.0
 30
0.0
  3
*D37
  1

  0
LINE
  5
14C8F
330
14BC1
100
AcDbEntity
  8
寸法
 62
     0
 48
50.0
370
    -2
100
AcDbLine
 10
8410.309336270465
 20
5271.136281726281
 30
0.0
 11
8410.309336270465
 21
4821.188069236652
 31
0.0
  0
LINE
  5
14C90
330
14BC1
100
AcDbEntity
  8
寸法
 62
     0
 48
50.0
370
    -2
100
AcDbLine
 10
9460.309336270466
 20
5271.136281726281
 30
0.0
 11
9460.309336270466
 21
4821.188069236652
 31
0.0
  0
LINE
  5
14C91
330
14BC1
100
AcDbEntity
  8
寸法
 62
     0
 48
50.0
370
    -2
100
AcDbLine
 10
8410.309336270465
 20
4866.188069236653
 30
0.0
 11
9460.309336270466
 21
4866.188069236653
 31
0.0
  0
INSERT
  5
14C92
330
14BC1
100
AcDbEntity
  8
寸法
 62
     0
 48
50.0
370
    -2
100
AcDbBlockReference
  2
_DOTSMALL
 10
8410.309336270465
 20
4866.188069236653
 30
0.0
 41
75.0
 42
75.0
 43
75.0
 50
180.0
  0
INSERT
  5
14C93
330
14BC1
100
AcDbEntity
  8
寸法
 62
     0
 48
50.0
370
    -2
100
AcDbBlockReference
  2
_DOTSMALL
 10
9460.309336270466
 20
4866.188069236653
 30
0.0
 41
75.0
 42
75.0
 43
75.0
  0
MTEXT
  5
14C94
330
14BC1
100
AcDbEntity
  8
寸法
 62
     7
 48
50.0
100
AcDbMText
 10
8935.309336270465
 20
4941.188069236652
 30
0.0
 40
90.0
 41
0.0
 71
     5
 72
     1
  1
\A1;700
  7
STYLE1
 73
     1
 44
1.0
1001
ACAD
1000
MTEXTBEGIN
1070
    73
1070
     1
1070
    44
1040
1.0
1070
    74
1070
     0
1000
MTEXTEND
  0
POINT
  5
14C95
330
14BC1
100
AcDbEntity
  8
DEFPOINTS
 62
     0
 48
50.0
100
AcDbPoint
 10
8410.309336270465
 20
5286.136281726282
 30
0.0
  0
POINT
  5
14C96
330
14BC1
100
AcDbEntity
  8
DEFPOINTS
 62
     0
 48
50.0
100
AcDbPoint
 10
9460.309336270466
 20
5286.136281726282
 30
0.0
  0
POINT
  5
14C97
330
14BC1
100
AcDbEntity
  8
DEFPOINTS
 62
     0
 48
50.0
100
AcDbPoint
 10
9460.309336270466
 20
4866.188069236653
 30
0.0
  0
ENDBLK
  5
14BCC
330
14BC1
100
AcDbEntity
  8
0
 48
50.0
100
AcDbBlockEnd
  0
BLOCK
  5
14BD7
330
14BCD
100
AcDbEntity
  8
0
 48
50.0
100
AcDbBlockBegin
  2
*D38
 70
     1
 10
0.0
 20
0.0
 30
0.0
  3
*D38
  1

  0
LINE
  5
14C98
330
14BCD
100
AcDbEntity
  8
寸法
 62
     0
 48
50.0
370
    -2
100
AcDbLine
 10
8410.30933627046
 20
1990.155748320803
 30
0.0
 11
8410.30933627046
 21
1708.10567576239
 31
0.0
  0
LINE
  5
14C99
330
14BCD
100
AcDbEntity
  8
寸法
 62
     0
 48
50.0
370
    -2
100
AcDbLine
 10
9460.30933627046
 20
1990.155748320803
 30
0.0
 11
9460.30933627046
 21
1708.10567576239
 31
0.0
  0
LINE
  5
14C9A
330
14BCD
100
AcDbEntity
  8
寸法
 62
     0
 48
50.0
370
    -2
100
AcDbLine
 10
8410.30933627046
 20
1753.10567576239
 30
0.0
 11
9460.30933627046
 21
1753.10567576239
 31
0.0
  0
INSERT
  5
14C9B
330
14BCD
100
AcDbEntity
  8
寸法
 62
     0
 48
50.0
370
    -2
100
AcDbBlockReference
  2
_DOTSMALL
 10
8410.30933627046
 20
1753.10567576239
 30
0.0
 41
75.0
 42
75.0
 43
75.0
 50
180.0
  0
INSERT
  5
14C9C
330
14BCD
100
AcDbEntity
  8
寸法
 62
     0
 48
50.0
370
    -2
100
AcDbBlockReference
  2
_DOTSMALL
 10
9460.30933627046
 20
1753.10567576239
 30
0.0
 41
75.0
 42
75.0
 43
75.0
  0
MTEXT
  5
14C9D
330
14BCD
100
AcDbEntity
  8
寸法
 62
     7
 48
50.0
100
AcDbMText
 10
8935.30933627046
 20
1828.10567576239
 30
0.0
 40
90.0
 41
0.0
 71
     5
 72
     1
  1
\A1;700
  7
STYLE1
 73
     1
 44
1.0
1001
ACAD
1000
MTEXTBEGIN
1070
    73
1070
     1
1070
    44
1040
1.0
1070
    74
1070
     0
1000
MTEXTEND
  0
POINT
  5
14C9E
330
14BCD
100
AcDbEntity
  8
DEFPOINTS
 62
     0
 48
50.0
100
AcDbPoint
 10
8410.30933627046
 20
2005.155748320804
 30
0.0
  0
POINT
  5
14C9F
330
14BCD
100
AcDbEntity
  8
DEFPOINTS
 62
     0
 48
50.0
100
AcDbPoint
 10
9460.30933627046
 20
2005.155748320804
 30
0.0
  0
POINT
  5
14CA0
330
14BCD
100
AcDbEntity
  8
DEFPOINTS
 62
     0
 48
50.0
100
AcDbPoint
 10
9460.30933627046
 20
1753.10567576239
 30
0.0
  0
ENDBLK
  5
14BD8
330
14BCD
100
AcDbEntity
  8
0
 48
50.0
100
AcDbBlockEnd
  0
BLOCK
  5
14BE4
330
14BD9
100
AcDbEntity
  8
0
 48
50.0
100
AcDbBlockBegin
  2
*D39
 70
     1
 10
0.0
 20
0.0
 30
0.0
  3
*D39
  1

  0
LINE
  5
14CA1
330
14BD9
100
AcDbEntity
  8
寸法
 62
     0
 48
50.0
370
    -2
100
AcDbLine
 10
8122.167045899498
 20
3105.602601503321
 30
0.0
 11
7902.036710689249
 21
3105.602601503321
 31
0.0
  0
LINE
  5
14CA2
330
14BD9
100
AcDbEntity
  8
寸法
 62
     0
 48
50.0
370
    -2
100
AcDbLine
 10
8111.925038727713
 20
2955.602601503321
 30
0.0
 11
7902.036710689249
 21
2955.602601503321
 31
0.0
  0
LINE
  5
14CA3
330
14BD9
100
AcDbEntity
  8
寸法
 62
     0
 48
50.0
370
    -2
100
AcDbLine
 10
7947.03671068925
 20
2955.602601503321
 30
0.0
 11
7947.03671068925
 21
3105.602601503321
 31
0.0
  0
LINE
  5
14CA4
330
14BD9
100
AcDbEntity
  8
寸法
 62
     0
 48
50.0
370
    -2
100
AcDbLine
 10
7947.03671068925
 20
3105.602601503321
 30
0.0
 11
7947.03671068925
 21
3384.673467645053
 31
0.0
  0
INSERT
  5
14CA5
330
14BD9
100
AcDbEntity
  8
寸法
 62
     0
 48
50.0
370
    -2
100
AcDbBlockReference
  2
_DOTSMALL
 10
7947.03671068925
 20
2955.602601503321
 30
0.0
 41
75.0
 42
75.0
 43
75.0
 50
270.0
  0
INSERT
  5
14CA6
330
14BD9
100
AcDbEntity
  8
寸法
 62
     0
 48
50.0
370
    -2
100
AcDbBlockReference
  2
_DOTSMALL
 10
7947.03671068925
 20
3105.602601503321
 30
0.0
 41
75.0
 42
75.0
 43
75.0
 50
90.0
  0
MTEXT
  5
14CA7
330
14BD9
100
AcDbEntity
  8
寸法
 62
     7
 48
50.0
100
AcDbMText
 10
7872.036710689248
 20
3282.638034574188
 30
0.0
 40
90.0
 41
0.0
 71
     5
 72
     1
  1
\A1;100
  7
STYLE1
 11
0.0000000000000001
 21
1.0
 31
0.0
 73
     1
 44
1.0
1001
ACAD
1000
MTEXTBEGIN
1070
    73
1070
     1
1070
    44
1040
1.0
1070
    74
1070
     0
1000
MTEXTEND
  0
POINT
  5
14CA8
330
14BD9
100
AcDbEntity
  8
DEFPOINTS
 62
     0
 48
50.0
100
AcDbPoint
 10
8137.167045899499
 20
3105.602601503321
 30
0.0
  0
POINT
  5
14CA9
330
14BD9
100
AcDbEntity
  8
DEFPOINTS
 62
     0
 48
50.0
100
AcDbPoint
 10
8126.925038727714
 20
2955.602601503321
 30
0.0
  0
POINT
  5
14CAA
330
14BD9
100
AcDbEntity
  8
DEFPOINTS
 62
     0
 48
50.0
100
AcDbPoint
 10
7947.03671068925
 20
2955.602601503321
 30
0.0
  0
ENDBLK
  5
14BE5
330
14BD9
100
AcDbEntity
  8
0
 48
50.0
100
AcDbBlockEnd
  0
BLOCK
  5
14BF1
330
14BE6
100
AcDbEntity
  8
0
 48
50.0
100
AcDbBlockBegin
  2
*D40
 70
     1
 10
0.0
 20
0.0
 30
0.0
  3
*D40
  1

  0
LINE
  5
14CAB
330
14BE6
100
AcDbEntity
  8
寸法
 62
     0
 48
50.0
370
    -2
100
AcDbLine
 10
8122.167045899496
 20
2955.602601503322
 30
0.0
 11
7902.036710689249
 21
2955.602601503322
 31
0.0
  0
LINE
  5
14CAC
330
14BE6
100
AcDbEntity
  8
寸法
 62
     0
 48
50.0
370
    -2
100
AcDbLine
 10
8122.167045899496
 20
2805.602601503322
 30
0.0
 11
7902.036710689249
 21
2805.602601503322
 31
0.0
  0
LINE
  5
14CAD
330
14BE6
100
AcDbEntity
  8
寸法
 62
     0
 48
50.0
370
    -2
100
AcDbLine
 10
7947.03671068925
 20
2955.602601503322
 30
0.0
 11
7947.03671068925
 21
2805.602601503322
 31
0.0
  0
LINE
  5
14CAE
330
14BE6
100
AcDbEntity
  8
寸法
 62
     0
 48
50.0
370
    -2
100
AcDbLine
 10
7947.03671068925
 20
2805.602601503322
 30
0.0
 11
7947.03671068925
 21
2526.531735361588
 31
0.0
  0
INSERT
  5
14CAF
330
14BE6
100
AcDbEntity
  8
寸法
 62
     0
 48
50.0
370
    -2
100
AcDbBlockReference
  2
_DOTSMALL
 10
7947.03671068925
 20
2955.602601503322
 30
0.0
 41
75.0
 42
75.0
 43
75.0
 50
90.0
  0
INSERT
  5
14CB0
330
14BE6
100
AcDbEntity
  8
寸法
 62
     0
 48
50.0
370
    -2
100
AcDbBlockReference
  2
_DOTSMALL
 10
7947.03671068925
 20
2805.602601503322
 30
0.0
 41
75.0
 42
75.0
 43
75.0
 50
270.0
  0
MTEXT
  5
14CB1
330
14BE6
100
AcDbEntity
  8
寸法
 62
     7
 48
50.0
100
AcDbMText
 10
7872.036710689248
 20
2628.567168432456
 30
0.0
 40
90.0
 41
0.0
 71
     5
 72
     1
  1
\A1;100
  7
STYLE1
 11
0.0000000000000001
 21
1.0
 31
0.0
 73
     1
 44
1.0
1001
ACAD
1000
MTEXTBEGIN
1070
    73
1070
     1
1070
    44
1040
1.0
1070
    74
1070
     0
1000
MTEXTEND
  0
POINT
  5
14CB2
330
14BE6
100
AcDbEntity
  8
DEFPOINTS
 62
     0
 48
50.0
100
AcDbPoint
 10
8137.167045899495
 20
2955.602601503322
 30
0.0
  0
POINT
  5
14CB3
330
14BE6
100
AcDbEntity
  8
DEFPOINTS
 62
     0
 48
50.0
100
AcDbPoint
 10
8137.167045899495
 20
2805.602601503322
 30
0.0
  0
POINT
  5
14CB4
330
14BE6
100
AcDbEntity
  8
DEFPOINTS
 62
     0
 48
50.0
100
AcDbPoint
 10
7947.03671068925
 20
2805.602601503322
 30
0.0
  0
ENDBLK
  5
14BF2
330
14BE6
100
AcDbEntity
  8
0
 48
50.0
100
AcDbBlockEnd
  0
BLOCK
  5
14BFE
330
14BF3
100
AcDbEntity
  8
0
 48
50.0
100
AcDbBlockBegin
  2
*D41
 70
     1
 10
0.0
 20
0.0
 30
0.0
  3
*D41
  1

  0
LINE
  5
14CB5
330
14BF3
100
AcDbEntity
  8
寸法
 62
     0
 48
50.0
370
    -2
100
AcDbLine
 10
9687.5121241601
 20
3105.602601503321
 30
0.0
 11
10165.01793660162
 21
3105.602601503321
 31
0.0
  0
LINE
  5
14CB6
330
14BF3
100
AcDbEntity
  8
寸法
 62
     0
 48
50.0
370
    -2
100
AcDbLine
 10
9829.497555052382
 20
3030.602601503322
 30
0.0
 11
10165.01793660162
 21
3030.602601503322
 31
0.0
  0
LINE
  5
14CB7
330
14BF3
100
AcDbEntity
  8
寸法
 62
     0
 48
50.0
370
    -2
100
AcDbLine
 10
10120.01793660162
 20
3030.602601503322
 30
0.0
 11
10120.01793660162
 21
3105.602601503321
 31
0.0
  0
LINE
  5
14CB8
330
14BF3
100
AcDbEntity
  8
寸法
 62
     0
 48
50.0
370
    -2
100
AcDbLine
 10
10120.01793660162
 20
3105.602601503321
 30
0.0
 11
10120.01793660162
 21
3394.001995604866
 31
0.0
  0
INSERT
  5
14CB9
330
14BF3
100
AcDbEntity
  8
寸法
 62
     0
 48
50.0
370
    -2
100
AcDbBlockReference
  2
_DOTSMALL
 10
10120.01793660162
 20
3030.602601503322
 30
0.0
 41
75.0
 42
75.0
 43
75.0
 50
270.0
  0
INSERT
  5
14CBA
330
14BF3
100
AcDbEntity
  8
寸法
 62
     0
 48
50.0
370
    -2
100
AcDbBlockReference
  2
_DOTSMALL
 10
10120.01793660162
 20
3105.602601503321
 30
0.0
 41
75.0
 42
75.0
 43
75.0
 50
90.0
  0
MTEXT
  5
14CBB
330
14BF3
100
AcDbEntity
  8
寸法
 62
     7
 48
50.0
100
AcDbMText
 10
10045.01793660162
 20
3314.466562534001
 30
0.0
 40
90.0
 41
0.0
 71
     5
 72
     1
  1
\A1;50
  7
STYLE1
 11
0.0000000000000001
 21
1.0
 31
0.0
 73
     1
 44
1.0
1001
ACAD
1000
MTEXTBEGIN
1070
    73
1070
     1
1070
    44
1040
1.0
1070
    74
1070
     0
1000
MTEXTEND
  0
POINT
  5
14CBC
330
14BF3
100
AcDbEntity
  8
DEFPOINTS
 62
     0
 48
50.0
100
AcDbPoint
 10
9672.512124160101
 20
3105.602601503321
 30
0.0
  0
POINT
  5
14CBD
330
14BF3
100
AcDbEntity
  8
DEFPOINTS
 62
     0
 48
50.0
100
AcDbPoint
 10
9814.497555052382
 20
3030.602601503322
 30
0.0
  0
POINT
  5
14CBE
330
14BF3
100
AcDbEntity
  8
DEFPOINTS
 62
     0
 48
50.0
100
AcDbPoint
 10
10120.01793660162
 20
3030.602601503322
 30
0.0
  0
ENDBLK
  5
14BFF
330
14BF3
100
AcDbEntity
  8
0
 48
50.0
100
AcDbBlockEnd
  0
BLOCK
  5
14C0A
330
14C00
100
AcDbEntity
  8
0
 48
50.0
100
AcDbBlockBegin
  2
*D42
 70
     1
 10
0.0
 20
0.0
 30
0.0
  3
*D42
  1

  0
LINE
  5
14CBF
330
14C00
100
AcDbEntity
  8
寸法
 62
     0
 48
50.0
370
    -2
100
AcDbLine
 10
9829.497555052382
 20
3030.602601503322
 30
0.0
 11
10007.70150774241
 21
3030.602601503322
 31
0.0
  0
LINE
  5
14CC0
330
14C00
100
AcDbEntity
  8
寸法
 62
     0
 48
50.0
370
    -2
100
AcDbLine
 10
8990.309336270458
 20
2355.655748320804
 30
0.0
 11
10007.70150774241
 21
2355.655748320803
 31
0.0
  0
LINE
  5
14CC1
330
14C00
100
AcDbEntity
  8
寸法
 62
     0
 48
50.0
370
    -2
100
AcDbLine
 10
9962.701507742412
 20
3030.602601503322
 30
0.0
 11
9962.701507742412
 21
2355.655748320803
 31
0.0
  0
INSERT
  5
14CC2
330
14C00
100
AcDbEntity
  8
寸法
 62
     0
 48
50.0
370
    -2
100
AcDbBlockReference
  2
_DOTSMALL
 10
9962.701507742412
 20
3030.602601503322
 30
0.0
 41
75.0
 42
75.0
 43
75.0
 50
90.0
  0
INSERT
  5
14CC3
330
14C00
100
AcDbEntity
  8
寸法
 62
     0
 48
50.0
370
    -2
100
AcDbBlockReference
  2
_DOTSMALL
 10
9962.701507742412
 20
2355.655748320803
 30
0.0
 41
75.0
 42
75.0
 43
75.0
 50
270.0
  0
MTEXT
  5
14CC4
330
14C00
100
AcDbEntity
  8
寸法
 62
     7
 48
50.0
100
AcDbMText
 10
9887.701507742413
 20
2693.129174912063
 30
0.0
 40
90.0
 41
0.0
 71
     5
 72
     1
  1
\A1;450
  7
STYLE1
 11
0.0000000000000001
 21
1.0
 31
0.0
 73
     1
 44
1.0
1001
ACAD
1000
MTEXTBEGIN
1070
    73
1070
     1
1070
    44
1040
1.0
1070
    74
1070
     0
1000
MTEXTEND
  0
POINT
  5
14CC5
330
14C00
100
AcDbEntity
  8
DEFPOINTS
 62
     0
 48
50.0
100
AcDbPoint
 10
9814.497555052382
 20
3030.602601503322
 30
0.0
  0
POINT
  5
14CC6
330
14C00
100
AcDbEntity
  8
DEFPOINTS
 62
     0
 48
50.0
100
AcDbPoint
 10
8975.309336270459
 20
2355.655748320804
 30
0.0
  0
POINT
  5
14CC7
330
14C00
100
AcDbEntity
  8
DEFPOINTS
 62
     0
 48
50.0
100
AcDbPoint
 10
9962.701507742412
 20
2355.655748320803
 30
0.0
  0
ENDBLK
  5
14C0B
330
14C00
100
AcDbEntity
  8
0
 48
50.0
100
AcDbBlockEnd
  0
BLOCK
  5
14C16
330
14C0C
100
AcDbEntity
  8
0
 48
50.0
100
AcDbBlockBegin
  2
*D43
 70
     1
 10
0.0
 20
0.0
 30
0.0
  3
*D43
  1

  0
LINE
  5
14CC8
330
14C0C
100
AcDbEntity
  8
寸法
 62
     0
 48
50.0
370
    -2
100
AcDbLine
 10
9829.497555052382
 20
3030.602601503322
 30
0.0
 11
10165.01793660162
 21
3030.602601503322
 31
0.0
  0
LINE
  5
14CC9
330
14C0C
100
AcDbEntity
  8
寸法
 62
     0
 48
50.0
370
    -2
100
AcDbLine
 10
9595.30933627046
 20
2206.155748320803
 30
0.0
 11
10165.01793660162
 21
2206.155748320803
 31
0.0
  0
LINE
  5
14CCA
330
14C0C
100
AcDbEntity
  8
寸法
 62
     0
 48
50.0
370
    -2
100
AcDbLine
 10
10120.01793660162
 20
3030.602601503322
 30
0.0
 11
10120.01793660162
 21
2206.155748320803
 31
0.0
  0
INSERT
  5
14CCB
330
14C0C
100
AcDbEntity
  8
寸法
 62
     0
 48
50.0
370
    -2
100
AcDbBlockReference
  2
_DOTSMALL
 10
10120.01793660162
 20
3030.602601503322
 30
0.0
 41
75.0
 42
75.0
 43
75.0
 50
90.0
  0
INSERT
  5
14CCC
330
14C0C
100
AcDbEntity
  8
寸法
 62
     0
 48
50.0
370
    -2
100
AcDbBlockReference
  2
_DOTSMALL
 10
10120.01793660162
 20
2206.155748320803
 30
0.0
 41
75.0
 42
75.0
 43
75.0
 50
270.0
  0
MTEXT
  5
14CCD
330
14C0C
100
AcDbEntity
  8
寸法
 62
     7
 48
50.0
100
AcDbMText
 10
10045.01793660162
 20
2618.379174912064
 30
0.0
 40
90.0
 41
0.0
 71
     5
 72
     1
  1
\A1;550
  7
STYLE1
 11
0.0000000000000001
 21
1.0
 31
0.0
 73
     1
 44
1.0
1001
ACAD
1000
MTEXTBEGIN
1070
    73
1070
     1
1070
    44
1040
1.0
1070
    74
1070
     0
1000
MTEXTEND
  0
POINT
  5
14CCE
330
14C0C
100
AcDbEntity
  8
DEFPOINTS
 62
     0
 48
50.0
100
AcDbPoint
 10
9814.497555052382
 20
3030.602601503322
 30
0.0
  0
POINT
  5
14CCF
330
14C0C
100
AcDbEntity
  8
DEFPOINTS
 62
     0
 48
50.0
100
AcDbPoint
 10
9580.30933627046
 20
2206.155748320803
 30
0.0
  0
POINT
  5
14CD0
330
14C0C
100
AcDbEntity
  8
DEFPOINTS
 62
     0
 48
50.0
100
AcDbPoint
 10
10120.01793660162
 20
2206.155748320803
 30
0.0
  0
ENDBLK
  5
14C17
330
14C0C
100
AcDbEntity
  8
0
 48
50.0
100
AcDbBlockEnd
  0
BLOCK
  5
14C23
330
14C18
100
AcDbEntity
  8
0
 48
50.0
100
AcDbBlockBegin
  2
*D44
 70
     1
 10
0.0
 20
0.0
 30
0.0
  3
*D44
  1

  0
LINE
  5
14CD1
330
14C18
100
AcDbEntity
  8
寸法
 62
     0
 48
50.0
370
    -2
100
AcDbLine
 10
9595.30933627046
 20
2206.155748320803
 30
0.0
 11
10165.01793660162
 21
2206.155748320803
 31
0.0
  0
LINE
  5
14CD2
330
14C18
100
AcDbEntity
  8
寸法
 62
     0
 48
50.0
370
    -2
100
AcDbLine
 10
9595.309336270458
 20
2131.155748320804
 30
0.0
 11
10165.01793660162
 21
2131.155748320804
 31
0.0
  0
LINE
  5
14CD3
330
14C18
100
AcDbEntity
  8
寸法
 62
     0
 48
50.0
370
    -2
100
AcDbLine
 10
10120.01793660162
 20
2206.155748320803
 30
0.0
 11
10120.01793660162
 21
2131.155748320804
 31
0.0
  0
LINE
  5
14CD4
330
14C18
100
AcDbEntity
  8
寸法
 62
     0
 48
50.0
370
    -2
100
AcDbLine
 10
10120.01793660162
 20
2131.155748320804
 30
0.0
 11
10120.01793660162
 21
1871.917657769623
 31
0.0
  0
INSERT
  5
14CD5
330
14C18
100
AcDbEntity
  8
寸法
 62
     0
 48
50.0
370
    -2
100
AcDbBlockReference
  2
_DOTSMALL
 10
10120.01793660162
 20
2206.155748320803
 30
0.0
 41
75.0
 42
75.0
 43
75.0
 50
90.0
  0
INSERT
  5
14CD6
330
14C18
100
AcDbEntity
  8
寸法
 62
     0
 48
50.0
370
    -2
100
AcDbBlockReference
  2
_DOTSMALL
 10
10120.01793660162
 20
2131.155748320804
 30
0.0
 41
75.0
 42
75.0
 43
75.0
 50
270.0
  0
MTEXT
  5
14CD7
330
14C18
100
AcDbEntity
  8
寸法
 62
     7
 48
50.0
100
AcDbMText
 10
10045.01793660162
 20
1951.453090840491
 30
0.0
 40
90.0
 41
0.0
 71
     5
 72
     1
  1
\A1;50
  7
STYLE1
 11
0.0000000000000001
 21
1.0
 31
0.0
 73
     1
 44
1.0
1001
ACAD
1000
MTEXTBEGIN
1070
    73
1070
     1
1070
    44
1040
1.0
1070
    74
1070
     0
1000
MTEXTEND
  0
POINT
  5
14CD8
330
14C18
100
AcDbEntity
  8
DEFPOINTS
 62
     0
 48
50.0
100
AcDbPoint
 10
9580.30933627046
 20
2206.155748320803
 30
0.0
  0
POINT
  5
14CD9
330
14C18
100
AcDbEntity
  8
DEFPOINTS
 62
     0
 48
50.0
100
AcDbPoint
 10
9580.309336270458
 20
2131.155748320804
 30
0.0
  0
POINT
  5
14CDA
330
14C18
100
AcDbEntity
  8
DEFPOINTS
 62
     0
 48
50.0
100
AcDbPoint
 10
10120.01793660162
 20
2131.155748320804
 30
0.0
  0
ENDBLK
  5
14C24
330
14C18
100
AcDbEntity
  8
0
 48
50.0
100
AcDbBlockEnd
  0
ENDSEC
  0
SECTION
  2
ENTITIES
  0
LINE
  5
10B56
330
747D
100
AcDbEntity
  8
補助
  6
PHANTOM
 62
   230
 48
50.0
100
AcDbLine
 10
105.0
 20
0.0
 30
0.0
 11
104.9999999999996
 21
8557.199999999999
 31
0.0
  0
LINE
  5
10B57
330
747D
100
AcDbEntity
  8
補助
  6
PHANTOM
 62
   230
 48
50.0
100
AcDbLine
 10
104.9999999999996
 20
8557.199999999999
 30
0.0
 11
12230.4
 21
8557.199999999999
 31
0.0
  0
LINE
  5
10B5D
330
747D
100
AcDbEntity
  8
仕様書枠
 48
50.0
100
AcDbLine
 10
105.0
 20
0.0
 30
0.0
 11
12230.4
 21
-0.0000000000000682
 31
0.0
  0
LINE
  5
10B5E
330
747D
100
AcDbEntity
  8
補助
  6
PHANTOM
 62
   230
 48
50.0
100
AcDbLine
 10
12230.4
 20
8557.199999999999
 30
0.0
 11
12230.4
 21
900.0
 31
0.0
  0
LINE
  5
10B6D
330
747D
100
AcDbEntity
  8
補助
  6
PHANTOM
 62
   230
 48
50.0
100
AcDbLine
 10
9830.400000000002
 20
8557.199999999999
 30
0.0
 11
9830.400000000002
 21
3600.0
 31
0.0
  0
LINE
  5
10B6F
330
747D
100
AcDbEntity
  8
補助
  6
PHANTOM
 62
   230
 48
50.0
100
AcDbLine
 10
9830.400000000002
 20
3600.0
 30
0.0
 11
12230.4
 21
3600.0
 31
0.0
  0
LINE
  5
13E19
330
747D
100
AcDbEntity
  8
部品1
 48
50.0
100
AcDbLine
 10
2991.61050258621
 20
4444.950660195085
 30
0.0
 11
4824.882623278098
 21
4444.950660195085
 31
0.0
  0
LINE
  5
13E1A
330
747D
100
AcDbEntity
  8
点線
 48
30.0
100
AcDbLine
 10
2243.246562932154
 20
5215.166988013343
 30
0.0
 11
5573.246562932155
 21
5215.166988013343
 31
0.0
  0
MTEXT
  5
13E1B
330
747D
100
AcDbEntity
  8
寸法
 62
     7
 48
50.0
100
AcDbMText
 10
2299.238447714295
 20
5332.447033880843
 30
0.0
 40
90.0
 41
0.0
 71
     4
 72
     1
  1
\A1;床コンクリート打コテ押エ
  7
STYLE1
 73
     1
 44
1.0
1001
ACAD
1000
MTEXTBEGIN
1070
    73
1070
     1
1070
    44
1040
1.0
1070
    74
1070
     0
1000
MTEXTEND
  0
LINE
  5
13E1C
330
747D
100
AcDbEntity
  8
センター
 48
10.0
100
AcDbLine
 10
2243.246562932154
 20
6215.166988013345
 30
0.0
 11
2743.246562932154
 21
6215.166988013343
 31
0.0
  0
DIMENSION
  5
13E1D
330
747D
100
AcDbEntity
  8
寸法
 48
50.0
100
AcDbDimension
  2
*D1
 10
5573.246562932155
 20
7861.656321118768
 30
0.0
 11
3908.246562932154
 21
7936.656321118768
 31
0.0
 12
196.1213892726046
 22
-8670.062699117073
 32
0.0
 70
    32
  1
基礎寸法 <>
 71
     5
 42
-1.0
  3
INABA_S30G
100
AcDbAlignedDimension
 13
2243.246562932154
 23
7215.166988013343
 33
0.0
 14
5573.246562932155
 24
7215.166988013343
 34
0.0
100
AcDbRotatedDimension
  0
LINE
  5
13E1E
330
747D
100
AcDbEntity
  8
点線
 48
30.0
100
AcDbLine
 10
5573.246562932155
 20
7215.166988013343
 30
0.0
 11
2243.246562932154
 21
7215.166988013343
 31
0.0
  0
DIMENSION
  5
13E1F
330
747D
100
AcDbEntity
  8
寸法
 48
50.0
100
AcDbDimension
  2
*D2
 10
2493.246562932154
 20
7667.619282144449
 30
0.0
 11
2368.246562932154
 21
7742.628140412165
 31
0.0
 12
196.1213892726046
 22
-8670.062699117073
 32
0.0
 70
    32
 71
     5
 42
-1.0
  3
INABA_S30G
100
AcDbAlignedDimension
 13
2243.246562932154
 23
7215.166988013343
 33
0.0
 14
2493.246562932154
 24
7465.166988013341
 34
0.0
100
AcDbRotatedDimension
  0
LINE
  5
13E20
330
747D
100
AcDbEntity
  8
センター
 48
3.0
100
AcDbLine
 10
2318.246562932154
 20
6315.166988013345
 30
0.0
 11
2468.246562932154
 21
6315.166988013345
 31
0.0
  0
LINE
  5
13E21
330
747D
100
AcDbEntity
  8
センター
 48
3.0
100
AcDbLine
 10
2318.246562932154
 20
6115.166988013346
 30
0.0
 11
2468.246562932154
 21
6115.166988013346
 31
0.0
  0
DIMENSION
  5
13E22
330
747D
100
AcDbEntity
  8
寸法
 48
50.0
100
AcDbDimension
  2
*D3
 10
5573.246562932155
 20
4825.395283416634
 30
0.0
 11
3908.246562932154
 21
4900.395283416634
 31
0.0
 12
196.1213892726046
 22
-8670.062699117073
 32
0.0
 70
    32
  1
屋根寸法 <>
 71
     5
 42
-1.0
  3
INABA_S30G
100
AcDbAlignedDimension
 13
2243.246562932154
 23
5215.166988013343
 33
0.0
 14
5573.246562932155
 24
5215.166988013343
 34
0.0
100
AcDbRotatedDimension
  0
LINE
  5
13E23
330
747D
100
AcDbEntity
  8
文字
 48
50.0
100
AcDbLine
 10
2843.246562932154
 20
6565.166988013342
 30
0.0
 11
2143.246562932154
 21
6565.166988013342
 31
0.0
  0
LINE
  5
13E24
330
747D
100
AcDbEntity
  8
文字
 48
50.0
100
AcDbLine
 10
2843.246562932154
 20
5865.166988013343
 30
0.0
 11
2143.246562932154
 21
5865.166988013343
 31
0.0
  0
DIMENSION
  5
13E25
330
747D
100
AcDbEntity
  8
寸法
 48
50.0
100
AcDbDimension
  2
*D4
 10
1579.625364204463
 20
5215.166988013343
 30
0.0
 11
1504.616505936747
 21
6215.166988013343
 31
0.0
 12
196.1213892726046
 22
-8670.062699117073
 32
0.0
 70
    32
  1
基礎寸法 <>
 71
     5
 42
-1.0
  3
INABA_S30G
100
AcDbAlignedDimension
 13
2243.246562932154
 23
7215.166988013343
 33
0.0
 14
2243.246562932154
 24
5215.166988013343
 34
0.0
 50
90.0
100
AcDbRotatedDimension
  0
LINE
  5
13E26
330
747D
100
AcDbEntity
  8
点線
 48
30.0
100
AcDbLine
 10
2243.246562932154
 20
7215.166988013343
 30
0.0
 11
2243.246562932154
 21
5215.166988013343
 31
0.0
  0
DIMENSION
  5
13E27
330
747D
100
AcDbEntity
  8
寸法
 48
50.0
100
AcDbDimension
  2
*D5
 10
1802.213196604587
 20
5215.166988013343
 30
0.0
 11
1727.213196604587
 21
5715.166988013345
 31
0.0
 12
196.1213892726046
 22
-8670.062699117073
 32
0.0
 70
    32
 71
     5
 42
-1.0
  3
INABA_S30G
100
AcDbAlignedDimension
 13
2243.246562932154
 23
6215.166988013345
 33
0.0
 14
2243.246562932154
 24
5215.166988013343
 34
0.0
 50
90.0
100
AcDbRotatedDimension
1001
ACAD
1000
DSTYLE
1002
{
1002
}
  0
DIMENSION
  5
13E28
330
747D
100
AcDbEntity
  8
寸法
 48
50.0
100
AcDbDimension
  2
*D6
 10
1802.374726220923
 20
6215.166988013345
 30
0.0
 11
1727.374726220924
 21
6715.166988013345
 31
0.0
 12
196.1213892726046
 22
-8670.062699117073
 32
0.0
 70
    32
 71
     5
 42
-1.0
  3
INABA_S30G
100
AcDbAlignedDimension
 13
2243.246562932154
 23
7215.166988013343
 33
0.0
 14
2243.246562932154
 24
6215.166988013345
 34
0.0
 50
90.0
100
AcDbRotatedDimension
  0
LINE
  5
13E29
330
747D
100
AcDbEntity
  8
文字
 48
50.0
100
AcDbLine
 10
2143.246562932154
 20
6565.166988013342
 30
0.0
 11
2143.246562932154
 21
5865.166988013343
 31
0.0
  0
DIMENSION
  5
13E2A
330
747D
100
AcDbEntity
  8
寸法
 48
50.0
100
AcDbDimension
  2
*D7
 10
5323.246562932155
 20
7667.619282144449
 30
0.0
 11
3908.246562932154
 21
7742.628140412165
 31
0.0
 12
196.1213892726046
 22
-8670.062699117073
 32
0.0
 70
    32
 71
     5
 42
-1.0
  3
INABA_S30G
100
AcDbAlignedDimension
 13
2493.246562932154
 23
6465.166988013343
 33
0.0
 14
5323.246562932155
 24
6903.712005384263
 34
0.0
100
AcDbRotatedDimension
1001
ACAD
1000
DSTYLE
1002
{
1002
}
  0
DIMENSION
  5
13E2B
330
747D
100
AcDbEntity
  8
寸法
 48
50.0
100
AcDbDimension
  2
*D8
 10
5573.246562932155
 20
7668.216517489357
 30
0.0
 11
5028.246562932154
 21
7743.225375757072
 31
0.0
 12
616.1213892726046
 22
-8670.062699117073
 32
0.0
 70
    32
 71
     5
 42
-1.0
  3
INABA_S30G
100
AcDbAlignedDimension
 13
5323.246562932155
 23
7285.166988013346
 33
0.0
 14
5573.246562932155
 24
7215.166988013343
 34
0.0
100
AcDbRotatedDimension
  0
TEXT
  5
13E2C
330
747D
100
AcDbEntity
  8
文字
 62
     7
 48
50.0
100
AcDbText
 10
3015.169744194221
 20
4508.982766907391
 30
0.0
 40
120.0
  1
A:プレート方式基礎伏図
  7
STYLE2
100
AcDbText
  0
DIMENSION
  5
13E2D
330
747D
100
AcDbEntity
  8
寸法
 48
50.0
100
AcDbDimension
  2
*D9
 10
4795.932059647974
 20
5865.166988013343
 30
0.0
 11
4300.932059647974
 21
6215.166988013343
 31
0.0
 12
616.1213892726046
 22
-8670.062699117073
 32
0.0
 70
    32
 71
     5
 42
-1.0
  3
INABA_S30G
100
AcDbAlignedDimension
 13
4973.246562932154
 23
6565.166988013342
 33
0.0
 14
4973.246562932154
 24
5865.166988013343
 34
0.0
 50
90.0
100
AcDbRotatedDimension
  0
MTEXT
  5
13E2E
102
{ACAD_REACTORS
330
13E2F
102
}
330
747D
100
AcDbEntity
  8
寸法
 62
     7
 48
50.0
100
AcDbMText
 10
4932.437660503012
 20
5694.02322571619
 30
0.0
 40
90.0
 41
0.0
 71
     6
 72
     1
  1
\A1;ｱﾝｶｰﾎﾞﾙﾄ\PM12x315(市販品)
  7
STYLE1
 73
     1
 44
1.0
1001
ACAD
1000
MTEXTBEGIN
1070
    73
1070
     1
1070
    44
1040
1.0
1070
    74
1070
     0
1000
MTEXTEND
  0
LEADER
  5
13E2F
330
747D
100
AcDbEntity
  8
寸法
 48
50.0
100
AcDbLeader
  3
INABA_S30G
 73
     0
 75
     1
 40
249.0
 41
791.9645669291342
 76
     3
 10
5223.246562932154
 20
6115.166988013343
 30
0.0
 10
5037.437660503012
 20
5539.52322571619
 30
0.0
 10
4962.437660503012
 20
5539.52322571619
 30
0.0
340
13E2E
1001
ACAD
1000
DSTYLE
1002
{
1070
   341
1005
0
1070
   343
1005
0
1070
   344
1005
0
1002
}
  0
LINE
  5
13E30
330
747D
100
AcDbEntity
  8
寸法
 48
50.0
100
AcDbLine
 10
2493.246562932154
 20
5786.268025533212
 30
0.0
 11
2493.246562932154
 21
5965.166988013343
 31
0.0
  0
LINE
  5
13E31
330
747D
100
AcDbEntity
  8
文字
 48
50.0
100
AcDbLine
 10
3409.86859960163
 20
6104.990150078466
 30
0.0
 11
3409.86859960163
 21
5468.477750616527
 31
0.0
  0
MTEXT
  5
13E32
330
747D
100
AcDbEntity
  8
寸法
 62
     7
 48
50.0
100
AcDbMText
 10
2791.852453911
 20
5789.040822525293
 30
0.0
 40
90.0
 41
0.0
 71
     4
 72
     1
  1
A'
  7
STYLE1
 73
     1
 44
1.0
1001
ACAD
1000
MTEXTBEGIN
1070
    73
1070
     1
1070
    44
1040
1.0
1070
    74
1070
     0
1000
MTEXTEND
  0
LINE
  5
13E33
330
747D
100
AcDbEntity
  8
寸法
 48
50.0
100
AcDbLine
 10
2493.246562932154
 20
5786.268025533212
 30
0.0
 11
2747.380393681075
 21
5786.268025533212
 31
0.0
  0
LINE
  5
13E34
330
747D
100
AcDbEntity
  8
寸法
 48
50.0
100
AcDbLine
 10
2747.380393681075
 20
5786.268025533212
 30
0.0
 11
2639.647023098096
 21
5757.400955887621
 31
0.0
  0
LINE
  5
13E35
330
747D
100
AcDbEntity
  8
寸法
 48
50.0
100
AcDbLine
 10
2639.647023098096
 20
5757.400955887621
 30
0.0
 11
2639.647023098096
 21
5823.335574809172
 31
0.0
  0
LINE
  5
13E36
330
747D
100
AcDbEntity
  8
文字
 48
50.0
100
AcDbLine
 10
3409.86859960163
 20
5468.477750616527
 30
0.0
 11
3442.716882434444
 21
5591.06921108998
 31
0.0
  0
LINE
  5
13E37
330
747D
100
AcDbEntity
  8
文字
 48
50.0
100
AcDbLine
 10
3409.86859960163
 20
5468.477750616527
 30
0.0
 11
3377.020316768816
 21
5591.06921108998
 31
0.0
  0
MTEXT
  5
13E38
330
747D
100
AcDbEntity
  8
寸法
 62
     7
 48
50.0
100
AcDbMText
 10
3315.430663535825
 20
5869.454166108135
 30
0.0
 40
90.0
 41
0.0
 71
     4
 72
     1
  1
\A1;水勾配 1/100 
  7
STYLE1
 11
0.0000000000000001
 21
1.0
 31
0.0
 73
     1
 44
1.0
1001
ACAD
1000
MTEXTBEGIN
1070
    73
1070
     1
1070
    44
1040
1.0
1070
    74
1070
     0
1000
MTEXTEND
  0
LINE
  5
13E39
330
747D
100
AcDbEntity
  8
文字
 48
50.0
100
AcDbLine
 10
2843.246562932154
 20
6565.166988013342
 30
0.0
 11
2843.246562932154
 21
5865.166988013343
 31
0.0
  0
LINE
  5
13E3A
330
747D
100
AcDbEntity
  8
センター
 48
10.0
100
AcDbLine
 10
2743.246562932154
 20
6215.166988013343
 30
0.0
 11
3211.389021724048
 21
6215.166988013343
 31
0.0
  0
LINE
  5
13E3B
330
747D
100
AcDbEntity
  8
センター
 48
10.0
100
AcDbLine
 10
2493.246562932154
 20
6465.166988013343
 30
0.0
 11
2493.246562932154
 21
5965.166988013343
 31
0.0
  0
LINE
  5
13E3C
330
747D
100
AcDbEntity
  8
センター
 48
3.0
100
AcDbLine
 10
2518.246562932154
 20
6115.166988013343
 30
0.0
 11
2668.246562932154
 21
6115.166988013343
 31
0.0
  0
LINE
  5
13E3D
330
747D
100
AcDbEntity
  8
センター
 48
3.0
100
AcDbLine
 10
2393.246562932154
 20
6190.166988013343
 30
0.0
 11
2393.246562932154
 21
6040.166988013343
 31
0.0
  0
CIRCLE
  5
13E3E
330
747D
100
AcDbEntity
  8
部品1
 48
50.0
100
AcDbCircle
 10
2393.246562932154
 20
6115.166988013343
 30
0.0
 40
15.0
  0
LINE
  5
13E3F
330
747D
100
AcDbEntity
  8
センター
 48
3.0
100
AcDbLine
 10
2593.246562932154
 20
6190.166988013343
 30
0.0
 11
2593.246562932154
 21
6040.166988013343
 31
0.0
  0
CIRCLE
  5
13E40
330
747D
100
AcDbEntity
  8
部品1
 48
50.0
100
AcDbCircle
 10
2593.246562932154
 20
6115.166988013343
 30
0.0
 40
15.0
  0
LINE
  5
13E41
330
747D
100
AcDbEntity
  8
センター
 48
3.0
100
AcDbLine
 10
2518.246562932154
 20
6315.166988013343
 30
0.0
 11
2668.246562932154
 21
6315.166988013343
 31
0.0
  0
LINE
  5
13E42
330
747D
100
AcDbEntity
  8
センター
 48
3.0
100
AcDbLine
 10
2393.246562932154
 20
6390.166988013345
 30
0.0
 11
2393.246562932154
 21
6240.166988013346
 31
0.0
  0
LINE
  5
13E43
330
747D
100
AcDbEntity
  8
センター
 48
3.0
100
AcDbLine
 10
2593.246562932154
 20
6390.166988013343
 30
0.0
 11
2593.246562932154
 21
6240.166988013343
 31
0.0
  0
CIRCLE
  5
13E44
330
747D
100
AcDbEntity
  8
部品1
 48
50.0
100
AcDbCircle
 10
2393.246562932154
 20
6315.166988013343
 30
0.0
 40
15.0
  0
CIRCLE
  5
13E45
330
747D
100
AcDbEntity
  8
部品1
 48
50.0
100
AcDbCircle
 10
2593.246562932154
 20
6315.166988013343
 30
0.0
 40
15.0
  0
LINE
  5
13E46
330
747D
100
AcDbEntity
  8
寸法
 48
50.0
100
AcDbLine
 10
2493.246562932154
 20
6644.065950493474
 30
0.0
 11
2747.380393681075
 21
6644.065950493474
 31
0.0
  0
LINE
  5
13E47
330
747D
100
AcDbEntity
  8
寸法
 48
50.0
100
AcDbLine
 10
2747.380393681075
 20
6644.065950493474
 30
0.0
 11
2639.647023098096
 21
6672.933020139065
 31
0.0
  0
LINE
  5
13E48
330
747D
100
AcDbEntity
  8
寸法
 48
50.0
100
AcDbLine
 10
2639.647023098096
 20
6672.933020139065
 30
0.0
 11
2639.647023098096
 21
6606.998401217516
 31
0.0
  0
MTEXT
  5
13E49
330
747D
100
AcDbEntity
  8
寸法
 62
     7
 48
50.0
100
AcDbMText
 10
2793.111082769685
 20
6661.000477691698
 30
0.0
 40
90.0
 41
0.0
 71
     4
 72
     1
  1
A
  7
STYLE1
 73
     1
 44
1.0
1001
ACAD
1000
MTEXTBEGIN
1070
    73
1070
     1
1070
    44
1040
1.0
1070
    74
1070
     0
1000
MTEXTEND
  0
LINE
  5
13E4A
330
747D
100
AcDbEntity
  8
文字
 48
50.0
100
AcDbLine
 10
3409.86859960163
 20
6325.343825948221
 30
0.0
 11
3409.86859960163
 21
6961.85622541016
 31
0.0
  0
LINE
  5
13E4B
330
747D
100
AcDbEntity
  8
センター
 48
10.0
100
AcDbLine
 10
3462.362059653948
 20
6215.166988013343
 30
0.0
 11
4628.847233293725
 21
6215.166988013343
 31
0.0
  0
LINE
  5
13E4C
330
747D
100
AcDbEntity
  8
文字
 48
50.0
100
AcDbLine
 10
3409.86859960163
 20
6961.85622541016
 30
0.0
 11
3377.020316768816
 21
6839.264764936706
 31
0.0
  0
LINE
  5
13E4D
330
747D
100
AcDbEntity
  8
文字
 48
50.0
100
AcDbLine
 10
3409.86859960163
 20
6961.85622541016
 30
0.0
 11
3442.716882434444
 21
6839.264764936706
 31
0.0
  0
LINE
  5
13E4E
330
747D
100
AcDbEntity
  8
点線
 48
30.0
100
AcDbLine
 10
5573.246562932155
 20
5215.166988013343
 30
0.0
 11
5573.246562932155
 21
7215.166988013343
 31
0.0
  0
DIMENSION
  5
13E4F
330
747D
100
AcDbEntity
  8
寸法
 48
50.0
100
AcDbDimension
  2
*D10
 10
5223.246562932154
 20
5645.645704700538
 30
0.0
 11
4903.246562932154
 21
5720.654562968255
 31
0.0
 12
616.1213892726046
 22
-8670.062699117073
 32
0.0
 70
    32
 71
     5
 42
-1.0
  3
INABA_S30G
100
AcDbAlignedDimension
 13
5423.246562932154
 23
6040.166988013343
 33
0.0
 14
5223.246562932154
 24
6040.166988013343
 34
0.0
100
AcDbRotatedDimension
  0
DIMENSION
  5
13E50
330
747D
100
AcDbEntity
  8
寸法
 48
50.0
100
AcDbDimension
  2
*D11
 10
6055.520785295769
 20
5215.166988013343
 30
0.0
 11
5560.511927028052
 21
6215.166988013343
 31
0.0
 12
616.1213892726046
 22
-8670.062699117073
 32
0.0
 70
    32
  1
屋根寸法 <>
 71
     5
 42
-1.0
  3
INABA_S30G
100
AcDbAlignedDimension
 13
5573.246562932155
 23
7215.166988013343
 33
0.0
 14
5573.246562932155
 24
5215.166988013343
 34
0.0
 50
90.0
100
AcDbRotatedDimension
1001
ACAD
1000
DSTYLE
1002
{
1070
   141
1040
-0.1
1070
   279
1070
     2
1070
   288
1070
     1
1002
}
  0
DIMENSION
  5
13E51
330
747D
100
AcDbEntity
  8
寸法
 48
50.0
100
AcDbDimension
  2
*D12
 10
5834.833990069725
 20
6315.166988013343
 30
0.0
 11
5339.825131802008
 21
6215.166988013343
 31
0.0
 12
616.1213892726046
 22
-8670.062699117073
 32
0.0
 70
    32
 71
     5
 42
-1.0
  3
INABA_S30G
100
AcDbAlignedDimension
 13
5498.246562932155
 23
6115.166988013343
 33
0.0
 14
5498.246562932155
 24
6315.166988013343
 34
0.0
 50
90.0
100
AcDbRotatedDimension
  0
LINE
  5
13E52
330
747D
100
AcDbEntity
  8
文字
 48
50.0
100
AcDbLine
 10
5673.246562932154
 20
6565.166988013342
 30
0.0
 11
5673.246562932154
 21
5865.166988013343
 31
0.0
  0
LINE
  5
13E53
330
747D
100
AcDbEntity
  8
文字
 48
50.0
100
AcDbLine
 10
4973.246562932154
 20
6565.166988013342
 30
0.0
 11
4973.246562932154
 21
5865.166988013343
 31
0.0
  0
LINE
  5
13E54
330
747D
100
AcDbEntity
  8
センター
 48
10.0
100
AcDbLine
 10
5073.246562932155
 20
6215.166988013345
 30
0.0
 11
5573.246562932155
 21
6215.166988013343
 31
0.0
  0
LINE
  5
13E55
330
747D
100
AcDbEntity
  8
文字
 48
50.0
100
AcDbLine
 10
4973.246562932154
 20
5865.166988013343
 30
0.0
 11
5673.246562932154
 21
5865.166988013343
 31
0.0
  0
LINE
  5
13E56
330
747D
100
AcDbEntity
  8
センター
 48
3.0
100
AcDbLine
 10
5148.246562932154
 20
6315.166988013345
 30
0.0
 11
5298.246562932154
 21
6315.166988013345
 31
0.0
  0
LINE
  5
13E57
330
747D
100
AcDbEntity
  8
センター
 48
3.0
100
AcDbLine
 10
5148.246562932154
 20
6115.166988013346
 30
0.0
 11
5298.246562932154
 21
6115.166988013346
 31
0.0
  0
LINE
  5
13E58
330
747D
100
AcDbEntity
  8
センター
 48
3.0
100
AcDbLine
 10
5223.246562932154
 20
6190.166988013343
 30
0.0
 11
5223.246562932154
 21
6040.166988013343
 31
0.0
  0
CIRCLE
  5
13E59
330
747D
100
AcDbEntity
  8
部品1
 48
50.0
100
AcDbCircle
 10
5223.246562932154
 20
6115.166988013343
 30
0.0
 40
15.0
  0
LINE
  5
13E5A
330
747D
100
AcDbEntity
  8
センター
 48
3.0
100
AcDbLine
 10
5223.246562932154
 20
6390.166988013345
 30
0.0
 11
5223.246562932154
 21
6240.166988013346
 31
0.0
  0
CIRCLE
  5
13E5B
330
747D
100
AcDbEntity
  8
部品1
 48
50.0
100
AcDbCircle
 10
5223.246562932154
 20
6315.166988013343
 30
0.0
 40
15.0
  0
LINE
  5
13E5C
330
747D
100
AcDbEntity
  8
センター
 48
10.0
100
AcDbLine
 10
5323.246562932155
 20
5965.166988013345
 30
0.0
 11
5323.246562932155
 21
6465.166988013345
 31
0.0
  0
LINE
  5
13E5D
330
747D
100
AcDbEntity
  8
センター
 48
3.0
100
AcDbLine
 10
5348.246562932154
 20
6115.166988013343
 30
0.0
 11
5498.246562932155
 21
6115.166988013343
 31
0.0
  0
LINE
  5
13E5E
330
747D
100
AcDbEntity
  8
センター
 48
3.0
100
AcDbLine
 10
5423.246562932154
 20
6190.166988013343
 30
0.0
 11
5423.246562932154
 21
6040.166988013343
 31
0.0
  0
CIRCLE
  5
13E5F
330
747D
100
AcDbEntity
  8
部品1
 48
50.0
100
AcDbCircle
 10
5423.246562932154
 20
6115.166988013343
 30
0.0
 40
15.0
  0
LINE
  5
13E60
330
747D
100
AcDbEntity
  8
センター
 48
3.0
100
AcDbLine
 10
5348.246562932154
 20
6315.166988013343
 30
0.0
 11
5498.246562932155
 21
6315.166988013343
 31
0.0
  0
LINE
  5
13E61
330
747D
100
AcDbEntity
  8
センター
 48
3.0
100
AcDbLine
 10
5423.246562932154
 20
6390.166988013343
 30
0.0
 11
5423.246562932154
 21
6240.166988013343
 31
0.0
  0
CIRCLE
  5
13E62
330
747D
100
AcDbEntity
  8
部品1
 48
50.0
100
AcDbCircle
 10
5423.246562932154
 20
6315.166988013343
 30
0.0
 40
15.0
  0
DIMENSION
  5
13E63
330
747D
100
AcDbEntity
  8
寸法
 48
50.0
100
AcDbDimension
  2
*D13
 10
5673.246562932154
 20
6762.956349313339
 30
0.0
 11
5323.246562932155
 21
6762.956349313339
 31
0.0
 12
616.1213892726046
 22
-8670.062699117073
 32
0.0
 70
   160
 71
     5
 42
-1.0
  3
INABA_S30G
100
AcDbAlignedDimension
 13
4973.246562932154
 23
6565.166988013342
 33
0.0
 14
5673.246562932154
 24
6565.166988013342
 34
0.0
100
AcDbRotatedDimension
  0
LINE
  5
13E64
330
747D
100
AcDbEntity
  8
文字
 48
50.0
100
AcDbLine
 10
4973.246562932154
 20
6565.166988013342
 30
0.0
 11
5673.246562932154
 21
6565.166988013342
 31
0.0
  0
LINE
  5
14027
330
747D
100
AcDbEntity
  8
文字
 48
50.0
100
AcDbLine
 10
2143.246562932154
 20
2619.768007716479
 30
0.0
 11
2843.246562932154
 21
2619.768007716479
 31
0.0
  0
LINE
  5
14028
330
747D
100
AcDbEntity
  8
文字
 48
50.0
100
AcDbLine
 10
2143.246562932154
 20
1919.768007716479
 30
0.0
 11
2843.246562932154
 21
1919.768007716479
 31
0.0
  0
LINE
  5
14029
330
747D
100
AcDbEntity
  8
センター
 48
10.0
100
AcDbLine
 10
2168.246562932154
 20
2269.768007716479
 30
0.0
 11
2818.246562932154
 21
2269.768007716479
 31
0.0
  0
LINE
  5
1402A
330
747D
100
AcDbEntity
  8
点線
 48
30.0
100
AcDbLine
 10
2243.246562932154
 20
1269.768007716479
 30
0.0
 11
5573.246562932155
 21
1269.768007716479
 31
0.0
  0
DIMENSION
  5
1402B
330
747D
100
AcDbEntity
  8
寸法
 48
50.0
100
AcDbDimension
  2
*D14
 10
5573.246562932155
 20
3916.257340821903
 30
0.0
 11
3908.246562932154
 21
3991.257340821903
 31
0.0
 12
196.1213892726046
 22
-8670.062699117073
 32
0.0
 70
    32
  1
基礎寸法 <>
 71
     5
 42
-1.0
  3
INABA_S30G
100
AcDbAlignedDimension
 13
2243.246562932154
 23
3269.768007716479
 33
0.0
 14
5573.246562932155
 24
3269.768007716479
 34
0.0
100
AcDbRotatedDimension
  0
LINE
  5
1402C
330
747D
100
AcDbEntity
  8
点線
 48
30.0
100
AcDbLine
 10
5573.246562932155
 20
3269.768007716479
 30
0.0
 11
2243.246562932154
 21
3269.768007716479
 31
0.0
  0
DIMENSION
  5
1402D
330
747D
100
AcDbEntity
  8
寸法
 48
50.0
100
AcDbDimension
  2
*D15
 10
2493.246562932154
 20
3722.220301847585
 30
0.0
 11
2368.246562932154
 21
3797.229160115301
 31
0.0
 12
196.1213892726046
 22
-8670.062699117073
 32
0.0
 70
    32
 71
     5
 42
-1.0
  3
INABA_S30G
100
AcDbAlignedDimension
 13
2243.246562932154
 23
3269.768007716479
 33
0.0
 14
2493.246562932154
 24
3519.768007716477
 34
0.0
100
AcDbRotatedDimension
  0
MTEXT
  5
1402E
330
747D
100
AcDbEntity
  8
寸法
 62
     7
 48
50.0
100
AcDbMText
 10
2299.238447714295
 20
1387.048053583978
 30
0.0
 40
90.0
 41
0.0
 71
     4
 72
     1
  1
\A1;床コンクリート打コテ押エ
  7
STYLE1
 73
     1
 44
1.0
1001
ACAD
1000
MTEXTBEGIN
1070
    73
1070
     1
1070
    44
1040
1.0
1070
    74
1070
     0
1000
MTEXTEND
  0
DIMENSION
  5
1402F
330
747D
100
AcDbEntity
  8
寸法
 48
50.0
100
AcDbDimension
  2
*D16
 10
5573.246562932155
 20
879.9963031197695
 30
0.0
 11
3908.246562932154
 21
954.9963031197695
 31
0.0
 12
196.1213892726046
 22
-8670.062699117073
 32
0.0
 70
    32
  1
屋根寸法 <>
 71
     5
 42
-1.0
  3
INABA_S30G
100
AcDbAlignedDimension
 13
2243.246562932154
 23
1269.768007716479
 33
0.0
 14
5573.246562932155
 24
1269.768007716479
 34
0.0
100
AcDbRotatedDimension
  0
LINE
  5
14030
330
747D
100
AcDbEntity
  8
点線
 48
30.0
100
AcDbLine
 10
2243.246562932154
 20
3269.768007716479
 30
0.0
 11
2243.246562932154
 21
1269.768007716479
 31
0.0
  0
DIMENSION
  5
14031
330
747D
100
AcDbEntity
  8
寸法
 48
50.0
100
AcDbDimension
  2
*D17
 10
1579.625364204463
 20
1269.768007716479
 30
0.0
 11
1504.616505936747
 21
2269.768007716479
 31
0.0
 12
196.1213892726046
 22
-8670.062699117073
 32
0.0
 70
    32
  1
基礎寸法 <>
 71
     5
 42
-1.0
  3
INABA_S30G
100
AcDbAlignedDimension
 13
2243.246562932154
 23
3269.768007716479
 33
0.0
 14
2243.246562932154
 24
1269.768007716479
 34
0.0
 50
90.0
100
AcDbRotatedDimension
  0
DIMENSION
  5
14032
330
747D
100
AcDbEntity
  8
寸法
 48
50.0
100
AcDbDimension
  2
*D18
 10
1802.213196604587
 20
1269.768007716479
 30
0.0
 11
1727.213196604587
 21
1769.768007716479
 31
0.0
 12
196.1213892726046
 22
-8670.062699117073
 32
0.0
 70
    32
 71
     5
 42
-1.0
  3
INABA_S30G
100
AcDbAlignedDimension
 13
2168.246562932154
 23
2269.768007716479
 33
0.0
 14
2243.246562932154
 24
1269.768007716479
 34
0.0
 50
90.0
100
AcDbRotatedDimension
1001
ACAD
1000
DSTYLE
1002
{
1002
}
  0
DIMENSION
  5
14033
330
747D
100
AcDbEntity
  8
寸法
 48
50.0
100
AcDbDimension
  2
*D19
 10
1802.374726220923
 20
2269.768007716479
 30
0.0
 11
1727.374726220924
 21
2769.768007716479
 31
0.0
 12
196.1213892726046
 22
-8670.062699117073
 32
0.0
 70
    32
 71
     5
 42
-1.0
  3
INABA_S30G
100
AcDbAlignedDimension
 13
2243.246562932154
 23
3269.768007716479
 33
0.0
 14
2168.246562932154
 24
2269.768007716479
 34
0.0
 50
90.0
100
AcDbRotatedDimension
  0
LINE
  5
14034
330
747D
100
AcDbEntity
  8
文字
 48
50.0
100
AcDbLine
 10
2143.246562932154
 20
2619.768007716479
 30
0.0
 11
2143.246562932154
 21
1919.768007716479
 31
0.0
  0
LINE
  5
14035
330
747D
100
AcDbEntity
  8
文字
 48
50.0
100
AcDbLine
 10
3409.86859960163
 20
2159.591169781601
 30
0.0
 11
3409.86859960163
 21
1523.078770319662
 31
0.0
  0
LINE
  5
14036
330
747D
100
AcDbEntity
  8
点線
 48
30.0
100
AcDbLine
 10
5573.246562932155
 20
1269.768007716479
 30
0.0
 11
5573.246562932155
 21
3269.768007716479
 31
0.0
  0
DIMENSION
  5
14037
330
747D
100
AcDbEntity
  8
寸法
 48
50.0
100
AcDbDimension
  2
*D20
 10
6055.520785295769
 20
1269.768007716479
 30
0.0
 11
5560.511927028052
 21
2269.768007716479
 31
0.0
 12
616.1213892726046
 22
-8670.062699117073
 32
0.0
 70
    32
  1
屋根寸法 <>
 71
     5
 42
-1.0
  3
INABA_S30G
100
AcDbAlignedDimension
 13
5573.246562932155
 23
3269.768007716479
 33
0.0
 14
5573.246562932155
 24
1269.768007716479
 34
0.0
 50
90.0
100
AcDbRotatedDimension
1001
ACAD
1000
DSTYLE
1002
{
1070
   141
1040
-0.1
1070
   279
1070
     2
1070
   288
1070
     1
1002
}
  0
TEXT
  5
14038
330
747D
100
AcDbEntity
  8
文字
 62
     7
 48
50.0
100
AcDbText
 10
2960.751641225593
 20
563.5837866105267
 30
0.0
 40
120.0
  1
B:埋め込み方式基礎伏図
  7
STYLE2
100
AcDbText
  0
LINE
  5
14039
330
747D
100
AcDbEntity
  8
部品1
 48
50.0
100
AcDbLine
 10
2937.192399617583
 20
499.5516798982207
 30
0.0
 11
4878.448709251592
 21
499.5516798982207
 31
0.0
  0
LINE
  5
1403A
330
747D
100
AcDbEntity
  8
文字
 48
50.0
100
AcDbLine
 10
3409.86859960163
 20
1523.078770319662
 30
0.0
 11
3377.020316768816
 21
1645.670230793115
 31
0.0
  0
LINE
  5
1403B
330
747D
100
AcDbEntity
  8
文字
 48
50.0
100
AcDbLine
 10
3409.86859960163
 20
1523.078770319662
 30
0.0
 11
3442.716882434444
 21
1645.670230793115
 31
0.0
  0
DIMENSION
  5
1403C
330
747D
100
AcDbEntity
  8
寸法
 48
50.0
100
AcDbDimension
  2
*D21
 10
5323.246562932155
 20
3722.220301847585
 30
0.0
 11
3908.246562932154
 21
3797.229160115301
 31
0.0
 12
196.1213892726046
 22
-8670.062699117073
 32
0.0
 70
    32
 71
     5
 42
-1.0
  3
INABA_S30G
100
AcDbAlignedDimension
 13
2493.246562932154
 23
2519.768007716479
 33
0.0
 14
5323.246562932155
 24
2958.313025087398
 34
0.0
100
AcDbRotatedDimension
1001
ACAD
1000
DSTYLE
1002
{
1002
}
  0
DIMENSION
  5
1403D
330
747D
100
AcDbEntity
  8
寸法
 48
50.0
100
AcDbDimension
  2
*D22
 10
4795.932059647974
 20
1919.768007716479
 30
0.0
 11
4300.932059647974
 21
2269.768007716479
 31
0.0
 12
616.1213892726046
 22
-8670.062699117073
 32
0.0
 70
    32
 71
     5
 42
-1.0
  3
INABA_S30G
100
AcDbAlignedDimension
 13
4973.246562932154
 23
2619.768007716479
 33
0.0
 14
4973.246562932154
 24
1919.768007716479
 34
0.0
 50
90.0
100
AcDbRotatedDimension
  0
MTEXT
  5
1403E
330
747D
100
AcDbEntity
  8
寸法
 62
     7
 48
50.0
100
AcDbMText
 10
3315.430663535825
 20
1924.05518581127
 30
0.0
 40
90.0
 41
0.0
 71
     4
 72
     1
  1
\A1;水勾配 1/100 
  7
STYLE1
 11
0.0000000000000001
 21
1.0
 31
0.0
 73
     1
 44
1.0
1001
ACAD
1000
MTEXTBEGIN
1070
    73
1070
     1
1070
    44
1040
1.0
1070
    74
1070
     0
1000
MTEXTEND
  0
LINE
  5
1403F
330
747D
100
AcDbEntity
  8
センター
 48
10.0
100
AcDbLine
 10
2493.246562932154
 20
2519.768007716479
 30
0.0
 11
2493.246562932154
 21
2019.768007716479
 31
0.0
  0
LINE
  5
14040
330
747D
100
AcDbEntity
  8
文字
 48
50.0
100
AcDbLine
 10
2843.246562932154
 20
2619.768007716479
 30
0.0
 11
2843.246562932154
 21
1919.768007716479
 31
0.0
  0
MTEXT
  5
14041
330
747D
100
AcDbEntity
  8
寸法
 62
     7
 48
50.0
100
AcDbMText
 10
2791.852453911
 20
1813.641842228428
 30
0.0
 40
90.0
 41
0.0
 71
     4
 72
     1
  1
B'
  7
STYLE1
 73
     1
 44
1.0
1001
ACAD
1000
MTEXTBEGIN
1070
    73
1070
     1
1070
    44
1040
1.0
1070
    74
1070
     0
1000
MTEXTEND
  0
LINE
  5
14042
330
747D
100
AcDbEntity
  8
寸法
 48
50.0
100
AcDbLine
 10
2493.246562932154
 20
1810.869045236348
 30
0.0
 11
2493.246562932154
 21
2019.768007716479
 31
0.0
  0
LINE
  5
14043
330
747D
100
AcDbEntity
  8
寸法
 48
50.0
100
AcDbLine
 10
2493.246562932154
 20
1810.869045236348
 30
0.0
 11
2747.380393681075
 21
1810.869045236348
 31
0.0
  0
LINE
  5
14044
330
747D
100
AcDbEntity
  8
寸法
 48
50.0
100
AcDbLine
 10
2639.647023098096
 20
1782.001975590756
 30
0.0
 11
2639.647023098096
 21
1847.936594512308
 31
0.0
  0
LINE
  5
14045
330
747D
100
AcDbEntity
  8
寸法
 48
50.0
100
AcDbLine
 10
2747.380393681075
 20
1810.869045236348
 30
0.0
 11
2639.647023098096
 21
1782.001975590756
 31
0.0
  0
LINE
  5
14046
330
747D
100
AcDbEntity
  8
文字
 48
50.0
100
AcDbLine
 10
2533.246562932154
 20
2229.768007716477
 30
0.0
 11
2453.246562932154
 21
2229.768007716477
 31
0.0
  0
LINE
  5
14047
330
747D
100
AcDbEntity
  8
文字
 48
50.0
100
AcDbLine
 10
2533.246562932154
 20
2309.768007716477
 30
0.0
 11
2453.246562932154
 21
2309.768007716477
 31
0.0
  0
LINE
  5
14048
330
747D
100
AcDbEntity
  8
文字
 48
50.0
100
AcDbLine
 10
2453.246562932154
 20
2309.768007716479
 30
0.0
 11
2453.246562932154
 21
2229.768007716477
 31
0.0
  0
LINE
  5
14049
330
747D
100
AcDbEntity
  8
文字
 48
50.0
100
AcDbLine
 10
2533.246562932154
 20
2309.768007716479
 30
0.0
 11
2533.246562932154
 21
2229.768007716477
 31
0.0
  0
LINE
  5
1404A
330
747D
100
AcDbEntity
  8
センター
 48
10.0
100
AcDbLine
 10
2893.246562932154
 20
2269.768007716479
 30
0.0
 11
3211.389021724048
 21
2269.768007716479
 31
0.0
  0
LINE
  5
1404B
330
747D
100
AcDbEntity
  8
寸法
 48
50.0
100
AcDbLine
 10
2639.647023098096
 20
2757.534039842202
 30
0.0
 11
2639.647023098096
 21
2691.599420920651
 31
0.0
  0
MTEXT
  5
1404C
330
747D
100
AcDbEntity
  8
寸法
 62
     7
 48
50.0
100
AcDbMText
 10
2793.111082769685
 20
2745.601497394833
 30
0.0
 40
90.0
 41
0.0
 71
     4
 72
     1
  1
B
  7
STYLE1
 73
     1
 44
1.0
1001
ACAD
1000
MTEXTBEGIN
1070
    73
1070
     1
1070
    44
1040
1.0
1070
    74
1070
     0
1000
MTEXTEND
  0
LINE
  5
1404D
330
747D
100
AcDbEntity
  8
寸法
 48
50.0
100
AcDbLine
 10
2493.246562932154
 20
2728.66697019661
 30
0.0
 11
2747.380393681075
 21
2728.66697019661
 31
0.0
  0
LINE
  5
1404E
330
747D
100
AcDbEntity
  8
寸法
 48
50.0
100
AcDbLine
 10
2747.380393681075
 20
2728.66697019661
 30
0.0
 11
2639.647023098096
 21
2757.534039842202
 31
0.0
  0
LINE
  5
1404F
330
747D
100
AcDbEntity
  8
センター
 48
10.0
100
AcDbLine
 10
3462.362059653948
 20
2269.768007716479
 30
0.0
 11
4628.847233293725
 21
2269.768007716479
 31
0.0
  0
LINE
  5
14050
330
747D
100
AcDbEntity
  8
文字
 48
50.0
100
AcDbLine
 10
3409.86859960163
 20
2379.944845651356
 30
0.0
 11
3409.86859960163
 21
3016.457245113296
 31
0.0
  0
LINE
  5
14051
330
747D
100
AcDbEntity
  8
文字
 48
50.0
100
AcDbLine
 10
3409.86859960163
 20
3016.457245113296
 30
0.0
 11
3377.020316768816
 21
2893.865784639842
 31
0.0
  0
LINE
  5
14052
330
747D
100
AcDbEntity
  8
文字
 48
50.0
100
AcDbLine
 10
3409.86859960163
 20
3016.457245113296
 30
0.0
 11
3442.716882434444
 21
2893.865784639842
 31
0.0
  0
LINE
  5
14053
330
747D
100
AcDbEntity
  8
文字
 48
50.0
100
AcDbLine
 10
5673.246562932154
 20
2619.768007716479
 30
0.0
 11
5673.246562932154
 21
1919.768007716479
 31
0.0
  0
LINE
  5
14054
330
747D
100
AcDbEntity
  8
文字
 48
50.0
100
AcDbLine
 10
4973.246562932154
 20
2619.768007716479
 30
0.0
 11
4973.246562932154
 21
1919.768007716479
 31
0.0
  0
LINE
  5
14055
330
747D
100
AcDbEntity
  8
センター
 48
10.0
100
AcDbLine
 10
5323.246562932155
 20
2019.76800771648
 30
0.0
 11
5323.246562932155
 21
2519.768007716481
 31
0.0
  0
LINE
  5
14056
330
747D
100
AcDbEntity
  8
文字
 48
50.0
100
AcDbLine
 10
4973.246562932154
 20
1919.768007716479
 30
0.0
 11
5673.246562932154
 21
1919.768007716479
 31
0.0
  0
LINE
  5
14057
330
747D
100
AcDbEntity
  8
センター
 48
10.0
100
AcDbLine
 10
5073.246562932155
 20
2269.76800771648
 30
0.0
 11
5573.246562932155
 21
2269.768007716479
 31
0.0
  0
MTEXT
  5
14058
102
{ACAD_REACTORS
330
14059
102
}
330
747D
100
AcDbEntity
  8
寸法
 62
     7
 48
50.0
100
AcDbMText
 10
5091.370504642917
 20
1787.546270780804
 30
0.0
 40
90.0
 41
0.0
 71
     6
 72
     1
  1
\A1;柱
  7
STYLE1
 73
     1
 44
1.0
1001
ACAD
1000
MTEXTBEGIN
1070
    73
1070
     1
1070
    44
1040
1.0
1070
    74
1070
     0
1000
MTEXTEND
  0
LEADER
  5
14059
330
747D
100
AcDbEntity
  8
寸法
 48
50.0
100
AcDbLeader
  3
INABA_S30G
 73
     0
 75
     1
 40
90.0
 41
108.0
 76
     3
 10
5302.35539682166
 20
2229.768007716477
 30
0.0
 10
5196.370504642917
 20
1712.546270780803
 30
0.0
 10
5121.370504642917
 20
1712.546270780803
 30
0.0
340
14058
1001
ACAD
1000
DSTYLE
1002
{
1070
   341
1005
0
1070
   343
1005
0
1070
   344
1005
0
1002
}
  0
LINE
  5
1405A
330
747D
100
AcDbEntity
  8
文字
 48
50.0
100
AcDbLine
 10
5283.246562932154
 20
2309.768007716479
 30
0.0
 11
5283.246562932154
 21
2229.768007716477
 31
0.0
  0
LINE
  5
1405B
330
747D
100
AcDbEntity
  8
文字
 48
50.0
100
AcDbLine
 10
5363.246562932154
 20
2309.768007716479
 30
0.0
 11
5363.246562932154
 21
2229.768007716477
 31
0.0
  0
LINE
  5
1405C
330
747D
100
AcDbEntity
  8
文字
 48
50.0
100
AcDbLine
 10
5363.246562932154
 20
2229.768007716477
 30
0.0
 11
5283.246562932154
 21
2229.768007716477
 31
0.0
  0
LINE
  5
1405D
330
747D
100
AcDbEntity
  8
文字
 48
50.0
100
AcDbLine
 10
5363.246562932154
 20
2309.768007716477
 30
0.0
 11
5283.246562932154
 21
2309.768007716477
 31
0.0
  0
DIMENSION
  5
1405E
330
747D
100
AcDbEntity
  8
寸法
 48
50.0
100
AcDbDimension
  2
*D23
 10
5673.246562932154
 20
2817.557369016475
 30
0.0
 11
5323.246562932155
 21
2817.557369016475
 31
0.0
 12
616.1213892726046
 22
-8670.062699117073
 32
0.0
 70
   160
 71
     5
 42
-1.0
  3
INABA_S30G
100
AcDbAlignedDimension
 13
4973.246562932154
 23
2619.768007716479
 33
0.0
 14
5673.246562932154
 24
2619.768007716479
 34
0.0
100
AcDbRotatedDimension
  0
LINE
  5
1405F
330
747D
100
AcDbEntity
  8
文字
 48
50.0
100
AcDbLine
 10
4973.246562932154
 20
2619.768007716479
 30
0.0
 11
5673.246562932154
 21
2619.768007716479
 31
0.0
  0
DIMENSION
  5
14060
330
747D
100
AcDbEntity
  8
寸法
 48
50.0
100
AcDbDimension
  2
*D24
 10
5573.246562932155
 20
3722.817537192492
 30
0.0
 11
5028.246562932154
 21
3797.826395460208
 31
0.0
 12
616.1213892726046
 22
-8670.062699117073
 32
0.0
 70
    32
 71
     5
 42
-1.0
  3
INABA_S30G
100
AcDbAlignedDimension
 13
5323.246562932155
 23
3339.768007716481
 33
0.0
 14
5573.246562932155
 24
3269.768007716479
 34
0.0
100
AcDbRotatedDimension
  0
DIMENSION
  5
14943
330
747D
100
AcDbEntity
  8
寸法
 48
50.0
100
AcDbDimension
  2
*D26
 10
8410.309336270465
 20
5031.598783490082
 30
0.0
 11
8597.809336270463
 21
5106.607641757799
 31
0.0
 70
    32
 71
     5
 42
250.0000000124976
  3
INABA_S30G詳細用20
100
AcDbAlignedDimension
 13
8785.309336270463
 23
5286.136281726282
 33
0.0
 14
8410.309336270465
 24
5286.136281726282
 34
0.0
100
AcDbRotatedDimension
  0
DIMENSION
  5
14944
330
747D
100
AcDbEntity
  8
寸法
 48
50.0
100
AcDbDimension
  2
*D27
 10
8785.309336270463
 20
5031.598783490082
 30
0.0
 11
8935.309336270462
 21
5106.607641757799
 31
0.0
 70
    32
 71
     5
 42
200.00000001
  3
INABA_S30G詳細用20
100
AcDbAlignedDimension
 13
9085.309336270462
 23
5286.136281726282
 33
0.0
 14
8785.309336270463
 24
5286.136281726282
 34
0.0
100
AcDbRotatedDimension
  0
DIMENSION
  5
14945
330
747D
100
AcDbEntity
  8
寸法
 48
50.0
100
AcDbDimension
  2
*D28
 10
9085.309336270462
 20
5031.598783490082
 30
0.0
 11
9272.809336270464
 21
5106.607641757799
 31
0.0
 70
    32
 71
     5
 42
250.0000000125024
  3
INABA_S30G詳細用20
100
AcDbAlignedDimension
 13
9460.309336270466
 23
5286.136281726282
 33
0.0
 14
9085.309336270462
 24
5286.136281726282
 34
0.0
100
AcDbRotatedDimension
  0
MTEXT
  5
14946
102
{ACAD_REACTORS
330
14947
102
}
330
747D
100
AcDbEntity
  8
寸法
 62
     7
 48
50.0
100
AcDbMText
 10
9518.677614090192
 20
5859.019823410331
 30
0.0
 40
90.0
 41
0.0
 71
     4
 72
     1
  1
\A1;ｱﾝｶｰﾎﾞﾙﾄ\PM12x315
  7
STYLE1
 73
     1
 44
1.0
1001
ACAD
1000
MTEXTBEGIN
1070
    73
1070
     1
1070
    44
1040
1.0
1070
    74
1070
     0
1000
MTEXTEND
  0
LEADER
  5
14947
330
747D
100
AcDbEntity
  8
寸法
 48
50.0
100
AcDbLeader
  3
INABA_S30G
 73
     0
 74
     0
 75
     1
 40
240.0177165354331
 41
399.7279220613578
 76
     3
 10
9094.309336270457
 20
5815.347719418351
 30
0.0
 10
9413.677614090191
 20
5709.010965142614
 30
0.0
 10
9488.677614090191
 20
5709.010965142614
 30
0.0
340
14946
  0
LINE
  5
14948
330
747D
100
AcDbEntity
  8
細線
 48
50.0
100
AcDbLine
 10
9521.952365630449
 20
6236.583134908798
 30
0.0
 11
9648.512124160106
 21
6363.142893438455
 31
0.0
  0
LINE
  5
14949
330
747D
100
AcDbEntity
  8
細線
 48
50.0
100
AcDbLine
 10
9539.771456516351
 20
6236.583134908798
 30
0.0
 11
9648.512124160106
 21
6345.323802552552
 31
0.0
  0
LINE
  5
1494A
330
747D
100
AcDbEntity
  8
細線
 48
50.0
100
AcDbLine
 10
9557.590547402249
 20
6236.583134908798
 30
0.0
 11
9648.512124160106
 21
6327.504711666655
 31
0.0
  0
LINE
  5
1494B
330
747D
100
AcDbEntity
  8
細線
 48
50.0
100
AcDbLine
 10
9076.309336270467
 20
5999.176165544218
 30
0.0
 11
8988.902366905882
 21
6086.583134908799
 31
0.0
  0
LINE
  5
1494C
330
747D
100
AcDbEntity
  8
細線
 48
50.0
100
AcDbLine
 10
9076.309336270467
 20
6016.995256430117
 30
0.0
 11
9006.721457791782
 21
6086.5831349088
 31
0.0
  0
LINE
  5
1494D
330
747D
100
AcDbEntity
  8
細線
 48
50.0
100
AcDbLine
 10
9076.309336270464
 20
6034.814347316018
 30
0.0
 11
9024.540548677686
 21
6086.583134908799
 31
0.0
  0
LINE
  5
1494E
330
747D
100
AcDbEntity
  8
細線
 48
50.0
100
AcDbLine
 10
9107.864487151765
 20
6163.583134908795
 30
0.0
 11
9330.864487151762
 21
6386.583134908798
 31
0.0
  0
LINE
  5
1494F
330
747D
100
AcDbEntity
  8
細線
 48
50.0
100
AcDbLine
 10
9111.683578037661
 20
6149.583134908798
 30
0.0
 11
9348.683578037663
 21
6386.583134908798
 31
0.0
  0
LINE
  5
14950
330
747D
100
AcDbEntity
  8
細線
 48
50.0
100
AcDbLine
 10
9122.809336270462
 20
6142.889802255702
 30
0.0
 11
9366.502668923564
 21
6386.583134908798
 31
0.0
  0
LINE
  5
14951
330
747D
100
AcDbEntity
  8
部品1
 48
50.0
100
AcDbLine
 10
8995.309336270462
 20
6247.083134908798
 30
0.0
 11
9076.309336270467
 21
6171.868849194511
 31
0.0
  0
LINE
  5
14952
330
747D
100
AcDbEntity
  8
細線
 48
50.0
100
AcDbLine
 10
8776.309336270463
 20
5824.000408586856
 30
0.0
 11
8513.726609948525
 21
6086.5831349088
 31
0.0
  0
LINE
  5
14953
330
747D
100
AcDbEntity
  8
細線
 48
50.0
100
AcDbLine
 10
8776.309336270463
 20
5841.819499472749
 30
0.0
 11
8531.545700834417
 21
6086.5831349088
 31
0.0
  0
LINE
  5
14954
330
747D
100
AcDbEntity
  8
細線
 48
50.0
100
AcDbLine
 10
8776.309336270463
 20
5859.638590358644
 30
0.0
 11
8549.36479172032
 21
6086.5831349088
 31
0.0
  0
LINE
  5
14955
330
747D
100
AcDbEntity
  8
部品1
 48
50.0
100
AcDbLine
 10
9094.309336270464
 20
6086.583134908799
 30
0.0
 11
9648.512124160106
 21
6086.5831349088
 31
0.0
  0
LINE
  5
14956
330
747D
100
AcDbEntity
  8
部品1
 48
50.0
100
AcDbLine
 10
8794.309336270464
 20
6086.583134908799
 30
0.0
 11
9076.309336270467
 21
6086.583134908799
 31
0.0
  0
LINE
  5
14957
330
747D
100
AcDbEntity
  8
細線
 48
50.0
100
AcDbLine
 10
8776.309336270463
 20
6061.58828706554
 30
0.0
 11
8751.314488427203
 21
6086.583134908799
 31
0.0
  0
LINE
  5
14958
330
747D
100
AcDbEntity
  8
細線
 48
50.0
100
AcDbLine
 10
8776.309336270463
 20
6079.407377951439
 30
0.0
 11
8769.133579313104
 21
6086.5831349088
 31
0.0
  0
LINE
  5
14959
330
747D
100
AcDbEntity
  8
細線
 48
50.0
100
AcDbLine
 10
8719.309336270493
 20
5661.231620994051
 30
0.0
 11
8410.309336270463
 21
5970.231620994073
 31
0.0
  0
LINE
  5
1495A
330
747D
100
AcDbEntity
  8
細線
 48
50.0
100
AcDbLine
 10
8721.276913241679
 20
5677.083134908755
 30
0.0
 11
8410.309336270463
 21
5988.050711879981
 31
0.0
  0
LINE
  5
1495B
330
747D
100
AcDbEntity
  8
部品1
 48
50.0
100
AcDbLine
 10
8719.309336270489
 20
5677.083134908754
 30
0.0
 11
8719.309336270493
 21
5659.083134908754
 31
0.0
  0
LINE
  5
1495C
330
747D
100
AcDbEntity
  8
部品1
 48
50.0
100
AcDbLine
 10
8776.309336270493
 20
5659.083134908765
 30
0.0
 11
8719.309336270493
 21
5659.083134908754
 31
0.0
  0
LINE
  5
1495D
330
747D
100
AcDbEntity
  8
部品1
 48
50.0
100
AcDbLine
 10
8776.309336270488
 20
5677.083134908766
 30
0.0
 11
8719.309336270489
 21
5677.083134908754
 31
0.0
  0
ARC
  5
1495E
330
747D
100
AcDbEntity
  8
部品1
 48
50.0
100
AcDbCircle
 10
8776.30933627049
 20
5677.083134908766
 30
0.0
 40
18.0
100
AcDbArc
 50
270.0
 51
0.0000000000115087
  0
ARC
  5
1495F
330
747D
100
AcDbEntity
  8
部品1
 48
50.0
100
AcDbCircle
 10
9094.309336270464
 20
5677.083134908798
 30
0.0
 40
18.0
100
AcDbArc
 50
180.0
 51
270.0
  0
LINE
  5
14960
330
747D
100
AcDbEntity
  8
部品1
 48
50.0
100
AcDbLine
 10
9094.309336270466
 20
5677.083134908798
 30
0.0
 11
9151.309336270463
 21
5677.083134908798
 31
0.0
  0
LINE
  5
14961
330
747D
100
AcDbEntity
  8
部品1
 48
50.0
100
AcDbLine
 10
9094.309336270464
 20
5659.083134908797
 30
0.0
 11
9151.309336270463
 21
5659.083134908797
 31
0.0
  0
LINE
  5
14962
330
747D
100
AcDbEntity
  8
部品1
 48
50.0
100
AcDbLine
 10
9151.309336270463
 20
5677.083134908798
 30
0.0
 11
9151.309336270463
 21
5659.083134908797
 31
0.0
  0
LINE
  5
14963
330
747D
100
AcDbEntity
  8
部品1
 48
50.0
100
AcDbLine
 10
8794.309336270464
 20
6176.083134908795
 30
0.0
 11
8776.309336270463
 21
6176.083134908797
 31
0.0
  0
LINE
  5
14964
330
747D
100
AcDbEntity
  8
部品1
 48
50.0
100
AcDbLine
 10
8761.309336270462
 20
6163.583134908796
 30
0.0
 11
8809.309336270462
 21
6163.583134908796
 31
0.0
  0
LINE
  5
14965
330
747D
100
AcDbEntity
  8
部品1
 48
50.0
100
AcDbLine
 10
8809.309336270461
 20
6149.583134908795
 30
0.0
 11
8809.309336270461
 21
6163.583134908796
 31
0.0
  0
LINE
  5
14966
330
747D
100
AcDbEntity
  8
部品1
 48
50.0
100
AcDbLine
 10
8761.309336270462
 20
6149.583134908795
 30
0.0
 11
8761.309336270462
 21
6163.583134908796
 31
0.0
  0
LINE
  5
14967
330
747D
100
AcDbEntity
  8
部品1
 48
50.0
100
AcDbLine
 10
8797.30933627046
 20
6149.583134908798
 30
0.0
 11
8797.30933627046
 21
6163.583134908796
 31
0.0
  0
LINE
  5
14968
330
747D
100
AcDbEntity
  8
部品1
 48
50.0
100
AcDbLine
 10
8773.309336270463
 20
6149.583134908798
 30
0.0
 11
8773.309336270463
 21
6163.583134908796
 31
0.0
  0
LINE
  5
14969
330
747D
100
AcDbEntity
  8
部品1
 48
50.0
100
AcDbLine
 10
8776.309336270463
 20
6163.583134908796
 30
0.0
 11
8776.309336270463
 21
6176.083134908798
 31
0.0
  0
LINE
  5
1496A
330
747D
100
AcDbEntity
  8
部品1
 48
50.0
100
AcDbLine
 10
8794.30933627046
 20
6163.583134908796
 30
0.0
 11
8794.30933627046
 21
6176.083134908798
 31
0.0
  0
LINE
  5
1496B
330
747D
100
AcDbEntity
  8
部品1
 48
50.0
100
AcDbLine
 10
9094.309336270461
 20
6163.583134908796
 30
0.0
 11
9094.309336270461
 21
6176.083134908798
 31
0.0
  0
LINE
  5
1496C
330
747D
100
AcDbEntity
  8
部品1
 48
50.0
100
AcDbLine
 10
9076.309336270462
 20
6163.583134908796
 30
0.0
 11
9076.309336270462
 21
6176.083134908798
 31
0.0
  0
LINE
  5
1496D
330
747D
100
AcDbEntity
  8
部品1
 48
50.0
100
AcDbLine
 10
9073.309336270462
 20
6149.583134908798
 30
0.0
 11
9073.30933627046
 21
6163.583134908796
 31
0.0
  0
LINE
  5
1496E
330
747D
100
AcDbEntity
  8
部品1
 48
50.0
100
AcDbLine
 10
9097.309336270461
 20
6149.583134908798
 30
0.0
 11
9097.309336270461
 21
6163.583134908796
 31
0.0
  0
LINE
  5
1496F
330
747D
100
AcDbEntity
  8
部品1
 48
50.0
100
AcDbLine
 10
9061.309336270461
 20
6149.583134908795
 30
0.0
 11
9061.309336270461
 21
6163.583134908796
 31
0.0
  0
LINE
  5
14970
330
747D
100
AcDbEntity
  8
部品1
 48
50.0
100
AcDbLine
 10
9109.309336270461
 20
6149.583134908795
 30
0.0
 11
9109.309336270461
 21
6163.583134908796
 31
0.0
  0
LINE
  5
14971
330
747D
100
AcDbEntity
  8
部品1
 48
50.0
100
AcDbLine
 10
9061.309336270461
 20
6163.583134908796
 30
0.0
 11
9109.309336270461
 21
6163.583134908796
 31
0.0
  0
LINE
  5
14972
330
747D
100
AcDbEntity
  8
部品1
 48
50.0
100
AcDbLine
 10
9094.309336270463
 20
6176.083134908795
 30
0.0
 11
9076.309336270462
 21
6176.083134908797
 31
0.0
  0
LINE
  5
14973
330
747D
100
AcDbEntity
  8
部品1
 48
50.0
100
AcDbLine
 10
8776.309336270463
 20
6131.583134908797
 30
0.0
 11
8776.309336270463
 21
5677.083134908766
 31
0.0
  0
LINE
  5
14974
330
747D
100
AcDbEntity
  8
部品1
 48
50.0
100
AcDbLine
 10
8794.309336270464
 20
6131.583134908797
 30
0.0
 11
8794.309336270464
 21
5677.083134908766
 31
0.0
  0
LINE
  5
14975
330
747D
100
AcDbEntity
  8
部品1
 48
50.0
100
AcDbLine
 10
9094.309336270464
 20
6131.583134908797
 30
0.0
 11
9094.309336270464
 21
5677.083134908798
 31
0.0
  0
LINE
  5
14976
330
747D
100
AcDbEntity
  8
部品1
 48
50.0
100
AcDbLine
 10
9076.309336270464
 20
6131.583134908797
 30
0.0
 11
9076.309336270464
 21
5677.083134908798
 31
0.0
  0
DIMENSION
  5
14977
330
747D
100
AcDbEntity
  8
寸法
 48
50.0
100
AcDbDimension
  2
*D29
 10
7839.046941219779
 20
6176.083134908797
 30
0.0
 11
7839.046941219776
 21
5928.861428353722
 31
0.0
 70
   160
 71
     5
 42
59.66666666964757
  3
INABA_S30G詳細用20
100
AcDbAlignedDimension
 13
8137.1670458995
 23
6086.5831349088
 33
0.0
 14
8776.309336270463
 24
6176.083134908797
 34
0.0
 50
90.0
100
AcDbRotatedDimension
  0
DIMENSION
  5
14978
330
747D
100
AcDbEntity
  8
寸法
 48
50.0
100
AcDbDimension
  2
*D30
 10
8024.847844613024
 20
6131.583134908797
 30
0.0
 11
8024.847844613024
 21
5857.047701837933
 31
0.0
 70
   160
 71
     5
 42
30.00000000149879
  3
INABA_S30G詳細用20
100
AcDbAlignedDimension
 13
8137.1670458995
 23
6086.583134908799
 33
0.0
 14
8747.809336270464
 24
6131.583134908797
 34
0.0
 50
90.0
100
AcDbRotatedDimension
  0
LINE
  5
14979
330
747D
100
AcDbEntity
  8
部品1
 48
50.0
100
AcDbLine
 10
8875.309336270465
 20
6247.083134908798
 30
0.0
 11
8794.30933627046
 21
6171.868849194511
 31
0.0
  0
LINE
  5
1497A
330
747D
100
AcDbEntity
  8
部品1
 48
50.0
100
AcDbLine
 10
8875.309336270465
 20
6247.083134908798
 30
0.0
 11
8995.309336270464
 21
6247.083134908798
 31
0.0
  0
ARC
  5
1497B
330
747D
100
AcDbEntity
  8
部品1
 48
50.0
100
AcDbCircle
 10
8935.309336270464
 20
6059.253133002802
 30
0.0
 40
72.33000190599523
100
AcDbArc
 50
22.20066484125966
 51
157.7993351587403
  0
LINE
  5
1497C
330
747D
100
AcDbEntity
  8
部品1
 48
50.0
100
AcDbLine
 10
9122.809336270464
 20
6149.583134908798
 30
0.0
 11
9122.809336270464
 21
6131.583134908797
 31
0.0
  0
LINE
  5
1497D
330
747D
100
AcDbEntity
  8
部品1
 48
50.0
100
AcDbLine
 10
8747.809336270464
 20
6149.583134908798
 30
0.0
 11
8747.809336270464
 21
6131.583134908797
 31
0.0
  0
LINE
  5
1497E
330
747D
100
AcDbEntity
  8
部品1
 48
50.0
100
AcDbLine
 10
8747.809336270464
 20
6149.583134908798
 30
0.0
 11
9122.809336270464
 21
6149.583134908798
 31
0.0
  0
LINE
  5
1497F
330
747D
100
AcDbEntity
  8
部品1
 48
50.0
100
AcDbLine
 10
8747.809336270464
 20
6131.583134908797
 30
0.0
 11
9122.809336270464
 21
6131.583134908797
 31
0.0
  0
TEXT
  5
14980
330
747D
100
AcDbEntity
  8
文字
 48
50.0
100
AcDbText
 10
9064.938991442792
 20
6610.087502863182
 30
0.0
 40
72.0
  1
水勾配
 41
0.8
  7
STYLE1
100
AcDbText
  0
TEXT
  5
14981
330
747D
100
AcDbEntity
  8
文字
 48
50.0
100
AcDbText
 10
8494.960295920781
 20
6610.087502863182
 30
0.0
 40
72.0
  1
水勾配
 41
0.8
  7
STYLE1
100
AcDbText
  0
LINE
  5
14982
330
747D
100
AcDbEntity
  8
部品1
 48
50.0
100
AcDbLine
 10
9814.497555052387
 20
6351.383134908796
 30
0.0
 11
9814.497555052387
 21
6236.583134908798
 31
0.0
  0
LINE
  5
14983
330
747D
100
AcDbEntity
  8
細線
 48
50.0
100
AcDbLine
 10
9825.369585788008
 20
6236.583134908798
 30
0.0
 11
9834.526210868421
 21
6215.583134908798
 31
0.0
  0
LINE
  5
14984
330
747D
100
AcDbEntity
  8
文字
 48
50.0
100
AcDbLine
 10
9592.39026435377
 20
6451.924215583384
 30
0.0
 11
9523.739046488637
 21
6433.529177197009
 31
0.0
  0
LINE
  5
14985
330
747D
100
AcDbEntity
  8
文字
 48
50.0
100
AcDbLine
 10
9592.39026435377
 20
6451.924215583384
 30
0.0
 11
9523.739046488637
 21
6470.319253969761
 31
0.0
  0
LINE
  5
14986
330
747D
100
AcDbEntity
  8
細線
 48
50.0
100
AcDbLine
 10
9719.771456516355
 20
6236.583134908801
 30
0.0
 11
9814.497555052387
 21
6331.309233444832
 31
0.0
  0
LINE
  5
14987
330
747D
100
AcDbEntity
  8
細線
 48
50.0
100
AcDbLine
 10
9701.95236563045
 20
6236.583134908798
 30
0.0
 11
9814.497555052387
 21
6349.128324330735
 31
0.0
  0
LINE
  5
14988
330
747D
100
AcDbEntity
  8
細線
 48
50.0
100
AcDbLine
 10
9741.369585788007
 20
6236.583134908798
 30
0.0
 11
9750.526210868422
 21
6215.583134908801
 31
0.0
  0
LINE
  5
14989
330
747D
100
AcDbEntity
  8
細線
 48
50.0
100
AcDbLine
 10
9672.512124160107
 20
6232.029296512522
 30
0.0
 11
9674.169585788011
 21
6236.583134908798
 31
0.0
  0
LINE
  5
1498A
330
747D
100
AcDbEntity
  8
細線
 48
50.0
100
AcDbLine
 10
9573.369585788006
 20
6236.583134908798
 30
0.0
 11
9582.526210868421
 21
6215.583134908798
 31
0.0
  0
LINE
  5
1498B
330
747D
100
AcDbEntity
  8
部品1
 48
50.0
100
AcDbLine
 10
9672.512124160107
 20
6379.583134908799
 30
0.0
 11
9789.297555052391
 21
6376.583134908798
 31
0.0
  0
LINE
  5
1498C
330
747D
100
AcDbEntity
  8
部品1
 48
50.0
100
AcDbLine
 10
9672.512124160107
 20
6236.583134908798
 30
0.0
 11
9855.005894694933
 21
6236.583134908798
 31
0.0
  0
LINE
  5
1498D
330
747D
100
AcDbEntity
  8
部品1
 48
50.0
100
AcDbLine
 10
9814.497555052387
 20
6351.383134908798
 30
0.0
 11
9789.297555052391
 21
6376.583134908798
 31
0.0
  0
LINE
  5
1498E
330
747D
100
AcDbEntity
  8
細線
 48
50.0
100
AcDbLine
 10
9737.590547402248
 20
6236.583134908798
 30
0.0
 11
9814.497555052385
 21
6313.490142558937
 31
0.0
  0
LINE
  5
1498F
330
747D
100
AcDbEntity
  8
細線
 48
50.0
100
AcDbLine
 10
9619.574050648088
 20
6086.5831349088
 30
0.0
 11
9648.512124160106
 21
6166.089838445609
 31
0.0
  0
LINE
  5
14990
330
747D
100
AcDbEntity
  8
部品1
 48
50.0
100
AcDbLine
 10
9672.512124160107
 20
6086.5831349088
 30
0.0
 11
9855.005894694931
 21
6086.5831349088
 31
0.0
  0
LINE
  5
14991
330
747D
100
AcDbEntity
  8
部品1
 48
50.0
100
AcDbLine
 10
9648.512124160106
 20
6407.79762300421
 30
0.0
 11
9648.512124160106
 21
6045.701980712575
 31
0.0
  0
LINE
  5
14992
330
747D
100
AcDbEntity
  8
部品1
 48
50.0
100
AcDbLine
 10
9672.512124160107
 20
6407.79762300421
 30
0.0
 11
9672.512124160109
 21
6045.701980712575
 31
0.0
  0
LINE
  5
14993
330
747D
100
AcDbEntity
  8
細線
 48
50.0
100
AcDbLine
 10
9787.57405064808
 20
6086.5831349088
 30
0.0
 11
9842.16958578801
 21
6236.583134908798
 31
0.0
  0
LINE
  5
14994
330
747D
100
AcDbEntity
  8
細線
 48
50.0
100
AcDbLine
 10
9703.574050648086
 20
6086.5831349088
 30
0.0
 11
9758.16958578801
 21
6236.583134908798
 31
0.0
  0
LINE
  5
14995
330
747D
100
AcDbEntity
  8
部品1
 48
50.0
100
AcDbLine
 10
9580.309336270465
 20
5286.136281726282
 30
0.0
 11
9580.309336270465
 21
5487.136281726282
 31
0.0
  0
DIMENSION
  5
14996
330
747D
100
AcDbEntity
  8
寸法
 48
50.0
100
AcDbDimension
  2
*D31
 10
10120.01793660163
 20
5412.136281726282
 30
0.0
 11
10120.01793660163
 21
5232.433624245969
 31
0.0
 70
   160
 71
     5
 42
50.0000000025
  3
INABA_S30G詳細用20
100
AcDbAlignedDimension
 13
9580.309336270465
 23
5487.136281726282
 33
0.0
 14
9580.309336270465
 24
5412.136281726282
 34
0.0
 50
90.0
100
AcDbRotatedDimension
  0
DIMENSION
  5
14997
330
747D
100
AcDbEntity
  8
寸法
 48
50.0
100
AcDbDimension
  2
*D32
 10
10120.01793660163
 20
5487.136281726282
 30
0.0
 11
10045.01793660163
 21
5786.859708317542
 31
0.0
 70
    32
 71
     5
 42
399.631235474994
  3
INABA_S30G詳細用20
100
AcDbAlignedDimension
 13
9855.005894694931
 23
6086.5831349088
 33
0.0
 14
9580.309336270465
 24
5487.136281726282
 34
0.0
 50
90.0
100
AcDbRotatedDimension
  0
LINE
  5
14998
330
747D
100
AcDbEntity
  8
細線
 48
50.0
100
AcDbLine
 10
9489.369585788006
 20
6236.583134908798
 30
0.0
 11
9498.526210868419
 21
6215.583134908798
 31
0.0
  0
LINE
  5
14999
330
747D
100
AcDbEntity
  8
細線
 48
50.0
100
AcDbLine
 10
9066.502668923561
 20
6086.583134908798
 30
0.0
 11
9076.309336270467
 21
6096.389802255703
 31
0.0
  0
LINE
  5
1499A
330
747D
100
AcDbEntity
  8
部品1
 48
50.0
100
AcDbLine
 10
9016.309336270472
 20
6407.583134908799
 30
0.0
 11
9037.309336270464
 21
6386.583134908798
 31
0.0
  0
LINE
  5
1499B
330
747D
100
AcDbEntity
  8
部品1
 48
50.0
100
AcDbLine
 10
8995.309336270464
 20
6407.583134908799
 30
0.0
 11
9016.309336270465
 21
6407.583134908799
 31
0.0
  0
LINE
  5
1499C
330
747D
100
AcDbEntity
  8
細線
 48
50.0
100
AcDbLine
 10
8995.309336270464
 20
6252.977680734386
 30
0.0
 11
9128.914790444877
 21
6386.583134908798
 31
0.0
  0
LINE
  5
1499D
330
747D
100
AcDbEntity
  8
細線
 48
50.0
100
AcDbLine
 10
8995.309336270464
 20
6270.796771620286
 30
0.0
 11
9111.095699558974
 21
6386.583134908798
 31
0.0
  0
LINE
  5
1499E
330
747D
100
AcDbEntity
  8
細線
 48
50.0
100
AcDbLine
 10
8995.309336270466
 20
6288.615862506187
 30
0.0
 11
9093.276608673075
 21
6386.583134908798
 31
0.0
  0
LINE
  5
1499F
330
747D
100
AcDbEntity
  8
細線
 48
50.0
100
AcDbLine
 10
9048.683578037662
 20
6086.5831349088
 30
0.0
 11
9076.309336270467
 21
6114.208893141602
 31
0.0
  0
LINE
  5
149A0
330
747D
100
AcDbEntity
  8
細線
 48
50.0
100
AcDbLine
 10
9030.864487151768
 20
6086.583134908799
 30
0.0
 11
9075.864487151767
 21
6131.583134908798
 31
0.0
  0
LINE
  5
149A1
330
747D
100
AcDbEntity
  8
細線
 48
50.0
100
AcDbLine
 10
9460.309336270471
 20
5852.764044022881
 30
0.0
 11
9226.490245384562
 21
6086.583134908799
 31
0.0
  0
LINE
  5
149A2
330
747D
100
AcDbEntity
  8
細線
 48
50.0
100
AcDbLine
 10
9460.309336270467
 20
5870.583134908805
 30
0.0
 11
9244.309336270466
 21
6086.5831349088
 31
0.0
  0
LINE
  5
149A3
330
747D
100
AcDbEntity
  8
細線
 48
50.0
100
AcDbLine
 10
9460.309336270471
 20
5888.402225794703
 30
0.0
 11
9262.128427156373
 21
6086.583134908798
 31
0.0
  0
LINE
  5
149A4
330
747D
100
AcDbEntity
  8
細線
 48
50.0
100
AcDbLine
 10
9460.309336270471
 20
6110.583134908813
 30
0.0
 11
9506.169585788009
 21
6236.583134908798
 31
0.0
  0
LINE
  5
149A5
330
747D
100
AcDbEntity
  8
部品1
 48
50.0
100
AcDbLine
 10
8854.309336270464
 20
6407.583134908799
 30
0.0
 11
8833.309336270465
 21
6386.583134908798
 31
0.0
  0
LINE
  5
149A6
330
747D
100
AcDbEntity
  8
部品1
 48
50.0
100
AcDbLine
 10
8854.309336270468
 20
6407.583134908799
 30
0.0
 11
8875.309336270465
 21
6407.583134908799
 31
0.0
  0
LINE
  5
149A7
330
747D
100
AcDbEntity
  8
細線
 48
50.0
100
AcDbLine
 10
8551.007821080306
 20
6086.583134908798
 30
0.0
 11
8872.007821080297
 21
6407.583134908799
 31
0.0
  0
LINE
  5
149A8
330
747D
100
AcDbEntity
  8
細線
 48
50.0
100
AcDbLine
 10
8568.826911966203
 20
6086.583134908798
 30
0.0
 11
8875.309336270465
 21
6393.065559213059
 31
0.0
  0
LINE
  5
149A9
330
747D
100
AcDbEntity
  8
細線
 48
50.0
100
AcDbLine
 10
8410.309336270469
 20
6165.653437691742
 30
0.0
 11
8631.239033487521
 21
6386.583134908798
 31
0.0
  0
LINE
  5
149AA
330
747D
100
AcDbEntity
  8
細線
 48
50.0
100
AcDbLine
 10
8410.309336270465
 20
6183.472528577645
 30
0.0
 11
8613.419942601618
 21
6386.583134908798
 31
0.0
  0
LINE
  5
149AB
330
747D
100
AcDbEntity
  8
細線
 48
50.0
100
AcDbLine
 10
8533.1887301944
 20
6086.583134908798
 30
0.0
 11
8833.188730194406
 21
6386.583134908798
 31
0.0
  0
LINE
  5
149AC
330
747D
100
AcDbEntity
  8
細線
 48
50.0
100
AcDbLine
 10
8381.371262758435
 20
6086.5831349088
 30
0.0
 11
8410.309336270463
 21
6166.089838445609
 31
0.0
  0
LINE
  5
149AD
330
747D
100
AcDbEntity
  8
細線
 48
50.0
100
AcDbLine
 10
8388.914688896569
 20
6107.308527888647
 30
0.0
 11
8397.951577142306
 21
6086.5831349088
 31
0.0
  0
LINE
  5
149AE
330
747D
100
AcDbEntity
  8
細線
 48
50.0
100
AcDbLine
 10
9076.309336270464
 20
5797.226468837329
 30
0.0
 11
8794.309336270464
 21
6079.226468837343
 31
0.0
  0
LINE
  5
149AF
330
747D
100
AcDbEntity
  8
細線
 48
50.0
100
AcDbLine
 10
9076.309336270467
 20
5779.407377951436
 30
0.0
 11
8794.309336270464
 21
6061.407377951441
 31
0.0
  0
LINE
  5
149B0
330
747D
100
AcDbEntity
  8
細線
 48
50.0
100
AcDbLine
 10
9076.309336270464
 20
5761.588287065536
 30
0.0
 11
8794.309336270464
 21
6043.588287065542
 31
0.0
  0
CIRCLE
  5
149B1
330
747D
100
AcDbEntity
  8
部品1
 48
5.0
100
AcDbCircle
 10
9259.309336270472
 20
5605.836281726284
 30
0.0
 40
8.4
  0
LINE
  5
149B2
330
747D
100
AcDbEntity
  8
部品1
 48
50.0
100
AcDbLine
 10
9282.934336270464
 20
5580.636281726281
 30
0.0
 11
9282.934336270464
 21
5597.436281726285
 31
0.0
  0
LINE
  5
149B3
330
747D
100
AcDbEntity
  8
細線
 48
50.0
100
AcDbLine
 10
9226.869585788005
 20
5412.136281726282
 30
0.0
 11
9236.026210868415
 21
5391.136281726282
 31
0.0
  0
LINE
  5
149B4
330
747D
100
AcDbEntity
  8
細線
 48
50.0
100
AcDbLine
 10
9310.869585788005
 20
5412.136281726282
 30
0.0
 11
9320.026210868414
 21
5391.136281726282
 31
0.0
  0
LINE
  5
149B5
330
747D
100
AcDbEntity
  8
細線
 48
50.0
100
AcDbLine
 10
9357.879639053402
 20
5487.136281726282
 30
0.0
 11
9282.879639053401
 21
5412.136281726282
 31
0.0
  0
LINE
  5
149B6
330
747D
100
AcDbEntity
  8
細線
 48
50.0
100
AcDbLine
 10
9375.698729939307
 20
5487.136281726282
 30
0.0
 11
9300.698729939304
 21
5412.136281726282
 31
0.0
  0
LINE
  5
149B7
330
747D
100
AcDbEntity
  8
細線
 48
50.0
100
AcDbLine
 10
9393.517820825204
 20
5487.136281726282
 30
0.0
 11
9318.517820825205
 21
5412.136281726282
 31
0.0
  0
CIRCLE
  5
149B8
330
747D
100
AcDbEntity
  8
部品1
 48
5.0
100
AcDbCircle
 10
9043.309336270471
 20
5605.836281726284
 30
0.0
 40
8.4
  0
LINE
  5
149B9
330
747D
100
AcDbEntity
  8
細線
 48
50.0
100
AcDbLine
 10
9142.869585788004
 20
5412.136281726282
 30
0.0
 11
9152.026210868415
 21
5391.136281726282
 31
0.0
  0
LINE
  5
149BA
330
747D
100
AcDbEntity
  8
細線
 48
50.0
100
AcDbLine
 10
8974.869585788004
 20
5412.136281726282
 30
0.0
 11
8984.026210868414
 21
5391.136281726282
 31
0.0
  0
LINE
  5
149BB
330
747D
100
AcDbEntity
  8
細線
 48
50.0
100
AcDbLine
 10
9058.869585788006
 20
5412.136281726282
 30
0.0
 11
9068.026210868415
 21
5391.136281726282
 31
0.0
  0
LINE
  5
149BC
330
747D
100
AcDbEntity
  8
細線
 48
50.0
100
AcDbLine
 10
9120.291760574724
 20
5487.136281726282
 30
0.0
 11
9045.291760574725
 21
5412.136281726282
 31
0.0
  0
LINE
  5
149BD
330
747D
100
AcDbEntity
  8
細線
 48
50.0
100
AcDbLine
 10
9138.110851460629
 20
5487.136281726282
 30
0.0
 11
9063.110851460628
 21
5412.136281726282
 31
0.0
  0
LINE
  5
149BE
330
747D
100
AcDbEntity
  8
細線
 48
50.0
100
AcDbLine
 10
9155.92994234653
 20
5487.136281726282
 30
0.0
 11
9080.929942346527
 21
5412.136281726282
 31
0.0
  0
LINE
  5
149BF
330
747D
100
AcDbEntity
  8
細線
 48
50.0
100
AcDbLine
 10
9289.452711190056
 20
5307.136281726282
 30
0.0
 11
9298.609336270466
 21
5286.136281726282
 31
0.0
  0
LINE
  5
149C0
330
747D
100
AcDbEntity
  8
細線
 48
50.0
100
AcDbLine
 10
9121.452711190057
 20
5307.136281726282
 30
0.0
 11
9130.609336270467
 21
5286.136281726282
 31
0.0
  0
LINE
  5
149C1
330
747D
100
AcDbEntity
  8
細線
 48
50.0
100
AcDbLine
 10
9037.452711190057
 20
5307.136281726282
 30
0.0
 11
9046.609336270467
 21
5286.136281726282
 31
0.0
  0
LINE
  5
149C2
330
747D
100
AcDbEntity
  8
細線
 48
50.0
100
AcDbLine
 10
9205.452711190057
 20
5307.136281726282
 30
0.0
 11
9214.609336270468
 21
5286.136281726282
 31
0.0
  0
LINE
  5
149C3
330
747D
100
AcDbEntity
  8
細線
 48
50.0
100
AcDbLine
 10
9029.809336270467
 20
5286.136281726282
 30
0.0
 11
9075.669585788007
 21
5412.136281726282
 31
0.0
  0
LINE
  5
149C4
330
747D
100
AcDbEntity
  8
細線
 48
50.0
100
AcDbLine
 10
9113.809336270469
 20
5286.136281726282
 30
0.0
 11
9159.669585788007
 21
5412.136281726282
 31
0.0
  0
LINE
  5
149C5
330
747D
100
AcDbEntity
  8
細線
 48
50.0
100
AcDbLine
 10
9197.809336270468
 20
5286.136281726282
 30
0.0
 11
9243.669585788008
 21
5412.136281726282
 31
0.0
  0
LINE
  5
149C6
330
747D
100
AcDbEntity
  8
細線
 48
50.0
100
AcDbLine
 10
9281.809336270468
 20
5286.136281726282
 30
0.0
 11
9327.669585788008
 21
5412.136281726282
 31
0.0
  0
CIRCLE
  5
149C7
330
747D
100
AcDbEntity
  8
部品1
 48
5.0
100
AcDbCircle
 10
8827.309336270472
 20
5605.836281726284
 30
0.0
 40
8.4
  0
LINE
  5
149C8
330
747D
100
AcDbEntity
  8
細線
 48
50.0
100
AcDbLine
 10
8890.869585788005
 20
5412.136281726282
 30
0.0
 11
8900.026210868416
 21
5391.136281726282
 31
0.0
  0
LINE
  5
149C9
330
747D
100
AcDbEntity
  8
細線
 48
50.0
100
AcDbLine
 10
8722.869585788005
 20
5412.136281726282
 30
0.0
 11
8732.026210868415
 21
5391.136281726282
 31
0.0
  0
LINE
  5
149CA
330
747D
100
AcDbEntity
  8
細線
 48
50.0
100
AcDbLine
 10
8806.869585788005
 20
5412.136281726282
 30
0.0
 11
8816.026210868415
 21
5391.136281726282
 31
0.0
  0
LINE
  5
149CB
330
747D
100
AcDbEntity
  8
細線
 48
50.0
100
AcDbLine
 10
8900.522972981953
 20
5487.136281726282
 30
0.0
 11
8825.522972981952
 21
5412.136281726282
 31
0.0
  0
LINE
  5
149CC
330
747D
100
AcDbEntity
  8
細線
 48
50.0
100
AcDbLine
 10
8882.70388209605
 20
5487.136281726282
 30
0.0
 11
8807.703882096047
 21
5412.136281726282
 31
0.0
  0
LINE
  5
149CD
330
747D
100
AcDbEntity
  8
細線
 48
50.0
100
AcDbLine
 10
8918.34206386785
 20
5487.136281726282
 30
0.0
 11
8843.342063867851
 21
5412.136281726282
 31
0.0
  0
CIRCLE
  5
149CE
330
747D
100
AcDbEntity
  8
部品1
 48
5.0
100
AcDbCircle
 10
8611.309336270471
 20
5605.836281726284
 30
0.0
 40
8.4
  0
LINE
  5
149CF
330
747D
100
AcDbEntity
  8
部品1
 48
50.0
100
AcDbLine
 10
8587.684336270465
 20
5580.636281726284
 30
0.0
 11
8587.684336270465
 21
5597.436281726283
 31
0.0
  0
LINE
  5
149D0
330
747D
100
AcDbEntity
  8
細線
 48
50.0
100
AcDbLine
 10
8638.869585788006
 20
5412.136281726282
 30
0.0
 11
8648.026210868414
 21
5391.136281726282
 31
0.0
  0
LINE
  5
149D1
330
747D
100
AcDbEntity
  8
細線
 48
50.0
100
AcDbLine
 10
8680.75418538917
 20
5487.136281726282
 30
0.0
 11
8605.754185389175
 21
5412.136281726282
 31
0.0
  0
LINE
  5
149D2
330
747D
100
AcDbEntity
  8
細線
 48
50.0
100
AcDbLine
 10
8554.869585788004
 20
5412.136281726282
 30
0.0
 11
8564.026210868416
 21
5391.136281726282
 31
0.0
  0
LINE
  5
149D3
330
747D
100
AcDbEntity
  8
細線
 48
50.0
100
AcDbLine
 10
8645.116003617372
 20
5487.136281726282
 30
0.0
 11
8570.116003617371
 21
5412.136281726282
 31
0.0
  0
LINE
  5
149D4
330
747D
100
AcDbEntity
  8
細線
 48
50.0
100
AcDbLine
 10
8662.935094503277
 20
5487.136281726282
 30
0.0
 11
8587.935094503276
 21
5412.136281726282
 31
0.0
  0
LINE
  5
149D5
330
747D
100
AcDbEntity
  8
細線
 48
50.0
100
AcDbLine
 10
8869.452711190056
 20
5307.136281726282
 30
0.0
 11
8878.609336270468
 21
5286.136281726282
 31
0.0
  0
LINE
  5
149D6
330
747D
100
AcDbEntity
  8
細線
 48
50.0
100
AcDbLine
 10
8953.452711190058
 20
5307.136281726282
 30
0.0
 11
8962.609336270466
 21
5286.136281726282
 31
0.0
  0
LINE
  5
149D7
330
747D
100
AcDbEntity
  8
細線
 48
50.0
100
AcDbLine
 10
8785.452711190057
 20
5307.136281726282
 30
0.0
 11
8794.609336270466
 21
5286.136281726282
 31
0.0
  0
LINE
  5
149D8
330
747D
100
AcDbEntity
  8
細線
 48
50.0
100
AcDbLine
 10
8617.452711190058
 20
5307.136281726282
 30
0.0
 11
8626.609336270467
 21
5286.136281726282
 31
0.0
  0
LINE
  5
149D9
330
747D
100
AcDbEntity
  8
細線
 48
50.0
100
AcDbLine
 10
8701.452711190057
 20
5307.136281726282
 30
0.0
 11
8710.609336270467
 21
5286.136281726282
 31
0.0
  0
LINE
  5
149DA
330
747D
100
AcDbEntity
  8
細線
 48
50.0
100
AcDbLine
 10
8533.452711190056
 20
5307.136281726282
 30
0.0
 11
8542.609336270468
 21
5286.136281726282
 31
0.0
  0
LINE
  5
149DB
330
747D
100
AcDbEntity
  8
細線
 48
50.0
100
AcDbLine
 10
8777.809336270468
 20
5286.136281726282
 30
0.0
 11
8823.669585788008
 21
5412.136281726282
 31
0.0
  0
LINE
  5
149DC
330
747D
100
AcDbEntity
  8
細線
 48
50.0
100
AcDbLine
 10
8609.809336270467
 20
5286.136281726282
 30
0.0
 11
8655.669585788007
 21
5412.136281726282
 31
0.0
  0
LINE
  5
149DD
330
747D
100
AcDbEntity
  8
細線
 48
50.0
100
AcDbLine
 10
8693.809336270467
 20
5286.136281726282
 30
0.0
 11
8739.669585788007
 21
5412.136281726282
 31
0.0
  0
LINE
  5
149DE
330
747D
100
AcDbEntity
  8
細線
 48
50.0
100
AcDbLine
 10
8861.809336270468
 20
5286.136281726282
 30
0.0
 11
8907.669585788008
 21
5412.136281726282
 31
0.0
  0
LINE
  5
149DF
330
747D
100
AcDbEntity
  8
細線
 48
50.0
100
AcDbLine
 10
8525.809336270468
 20
5286.136281726282
 30
0.0
 11
8571.669585788008
 21
5412.136281726282
 31
0.0
  0
LINE
  5
149E0
330
747D
100
AcDbEntity
  8
細線
 48
50.0
100
AcDbLine
 10
8945.809336270468
 20
5286.136281726282
 30
0.0
 11
8991.669585788008
 21
5412.136281726282
 31
0.0
  0
LINE
  5
149E1
330
747D
100
AcDbEntity
  8
部品1
 48
50.0
100
AcDbLine
 10
8587.684336270465
 20
5597.436281726283
 30
0.0
 11
9282.934336270464
 21
5597.436281726285
 31
0.0
  0
LINE
  5
149E2
330
747D
100
AcDbEntity
  8
部品1
 48
50.0
100
AcDbLine
 10
8587.684336270465
 20
5580.636281726281
 30
0.0
 11
9282.934336270464
 21
5580.636281726284
 31
0.0
  0
LINE
  5
149E3
330
747D
100
AcDbEntity
  8
部品1
 48
50.0
100
AcDbLine
 10
9460.309336270464
 20
5487.136281726282
 30
0.0
 11
9460.309336270473
 21
6236.583134908798
 31
0.0
  0
LINE
  5
149E4
330
747D
100
AcDbEntity
  8
部品1
 48
50.0
100
AcDbLine
 10
8410.309336270465
 20
6236.5831349088
 30
0.0
 11
8410.309336270465
 21
5487.136281726282
 31
0.0
  0
LINE
  5
149E5
330
747D
100
AcDbEntity
  8
細線
 48
50.0
100
AcDbLine
 10
9460.309336270466
 20
5615.176165544224
 30
0.0
 11
9094.309336270464
 21
5981.176165544218
 31
0.0
  0
LINE
  5
149E6
330
747D
100
AcDbEntity
  8
細線
 48
50.0
100
AcDbLine
 10
9460.309336270466
 20
5632.995256430115
 30
0.0
 11
9094.309336270464
 21
5998.995256430116
 31
0.0
  0
LINE
  5
149E7
330
747D
100
AcDbEntity
  8
細線
 48
50.0
100
AcDbLine
 10
9460.309336270466
 20
5650.814347316003
 30
0.0
 11
9094.309336270464
 21
6016.814347316019
 31
0.0
  0
LINE
  5
149E8
330
747D
100
AcDbEntity
  8
細線
 48
50.0
100
AcDbLine
 10
9148.811644902822
 20
5487.136281726282
 30
0.0
 11
9055.311644902822
 21
5580.636281726282
 31
0.0
  0
LINE
  5
149E9
330
747D
100
AcDbEntity
  8
細線
 48
50.0
100
AcDbLine
 10
9386.399523381525
 20
5487.136281726282
 30
0.0
 11
9282.934336270466
 21
5590.601468837339
 31
0.0
  0
LINE
  5
149EA
330
747D
100
AcDbEntity
  8
細線
 48
50.0
100
AcDbLine
 10
9368.580432495628
 20
5487.136281726282
 30
0.0
 11
9275.08043249562
 21
5580.636281726284
 31
0.0
  0
LINE
  5
149EB
330
747D
100
AcDbEntity
  8
細線
 48
50.0
100
AcDbLine
 10
9350.761341609716
 20
5487.136281726282
 30
0.0
 11
9257.261341609716
 21
5580.636281726284
 31
0.0
  0
LINE
  5
149EC
330
747D
100
AcDbEntity
  8
細線
 48
50.0
100
AcDbLine
 10
9130.992554016936
 20
5487.136281726282
 30
0.0
 11
9037.492554016933
 21
5580.636281726282
 31
0.0
  0
LINE
  5
149ED
330
747D
100
AcDbEntity
  8
細線
 48
50.0
100
AcDbLine
 10
9113.173463131031
 20
5487.136281726282
 30
0.0
 11
9019.673463131033
 21
5580.636281726282
 31
0.0
  0
LINE
  5
149EE
330
747D
100
AcDbEntity
  8
細線
 48
50.0
100
AcDbLine
 10
8911.223766424136
 20
5487.136281726282
 30
0.0
 11
8817.723766424142
 21
5580.636281726281
 31
0.0
  0
LINE
  5
149EF
330
747D
100
AcDbEntity
  8
細線
 48
50.0
100
AcDbLine
 10
8893.404675538267
 20
5487.136281726282
 30
0.0
 11
8799.904675538266
 21
5580.636281726281
 31
0.0
  0
LINE
  5
149F0
330
747D
100
AcDbEntity
  8
細線
 48
50.0
100
AcDbLine
 10
8875.585584652355
 20
5487.136281726282
 30
0.0
 11
8782.085584652357
 21
5580.636281726281
 31
0.0
  0
DIMENSION
  5
149F1
330
747D
100
AcDbEntity
  8
寸法
 48
50.0
100
AcDbDimension
  2
*D33
 10
10120.01793660163
 20
6086.5831349088
 30
0.0
 11
10120.01793660163
 21
6199.0831349088
 31
0.0
 70
   160
 71
     5
 42
150.0000000075
  3
INABA_S30G詳細用20
100
AcDbAlignedDimension
 13
9814.497555052387
 23
6311.583134908801
 33
0.0
 14
9855.005894694931
 24
6086.5831349088
 34
0.0
 50
90.0
100
AcDbRotatedDimension
  0
LINE
  5
149F2
330
747D
100
AcDbEntity
  8
細線
 48
50.0
100
AcDbLine
 10
9535.574050648079
 20
6086.5831349088
 30
0.0
 11
9590.169585788009
 21
6236.583134908798
 31
0.0
  0
LINE
  5
149F3
330
747D
100
AcDbEntity
  8
部品1
 48
50.0
100
AcDbLine
 10
8410.309336270465
 20
6086.583134908798
 30
0.0
 11
8776.309336270463
 21
6086.583134908799
 31
0.0
  0
LINE
  5
149F4
330
747D
100
AcDbEntity
  8
部品1
 48
50.0
100
AcDbLine
 10
9460.309336270475
 20
6236.583134908798
 30
0.0
 11
9648.512124160106
 21
6236.583134908798
 31
0.0
  0
LINE
  5
149F5
330
747D
100
AcDbEntity
  8
部品1
 48
50.0
100
AcDbLine
 10
9037.309336270462
 20
6386.583134908798
 30
0.0
 11
9648.512124160106
 21
6386.583134908798
 31
0.0
  0
LINE
  5
149F6
330
747D
100
AcDbEntity
  8
文字
 48
50.0
100
AcDbLine
 10
9592.39026435377
 20
6451.924215583384
 30
0.0
 11
9013.893166449804
 21
6451.924215583384
 31
0.0
  0
LINE
  5
149F7
330
747D
100
AcDbEntity
  8
細線
 48
50.0
100
AcDbLine
 10
9371.952365630455
 20
6086.583134908801
 30
0.0
 11
9460.309336270473
 21
6174.94010554882
 31
0.0
  0
LINE
  5
149F8
330
747D
100
AcDbEntity
  8
細線
 48
50.0
100
AcDbLine
 10
9389.771456516351
 20
6086.583134908801
 30
0.0
 11
9460.309336270471
 21
6157.12101466292
 31
0.0
  0
LINE
  5
149F9
330
747D
100
AcDbEntity
  8
細線
 48
50.0
100
AcDbLine
 10
9407.590547402252
 20
6086.5831349088
 30
0.0
 11
9460.309336270471
 21
6139.30192377702
 31
0.0
  0
LINE
  5
149FA
330
747D
100
AcDbEntity
  8
センター
 48
10.0
100
AcDbLine
 10
8935.309336270464
 20
6652.958453271509
 30
0.0
 11
8935.309336270464
 21
6042.281503553829
 31
0.0
  0
DIMENSION
  5
149FB
330
747D
100
AcDbEntity
  8
寸法
 48
50.0
100
AcDbDimension
  2
*D34
 10
10120.01793660163
 20
6311.583134908801
 30
0.0
 11
10120.01793660163
 21
6595.44709593948
 31
0.0
 70
   160
 71
     5
 42
50.00000000249879
  3
INABA_S30G詳細用20
100
AcDbAlignedDimension
 13
9672.512124160107
 23
6386.583134908798
 33
0.0
 14
9814.497555052387
 24
6311.583134908801
 34
0.0
 50
90.0
100
AcDbRotatedDimension
  0
TEXT
  5
149FC
330
747D
100
AcDbEntity
  8
文字
 48
50.0
100
AcDbText
 10
8494.960295920781
 20
6507.497000863212
 30
0.0
 40
72.0
  1
１／１００
 41
0.8
  7
STYLE1
100
AcDbText
  0
TEXT
  5
149FD
330
747D
100
AcDbEntity
  8
文字
 48
50.0
100
AcDbText
 10
9064.938991442792
 20
6507.497000863212
 30
0.0
 40
72.0
  1
１／１００
 41
0.8
  7
STYLE1
100
AcDbText
  0
LINE
  5
149FE
330
747D
100
AcDbEntity
  8
部品1
 48
10.0
100
AcDbLine
 10
8995.309336270464
 20
6595.634086671278
 30
0.0
 11
8995.309336270464
 21
6149.583134908798
 31
0.0
  0
LINE
  5
149FF
330
747D
100
AcDbEntity
  8
部品1
 48
10.0
100
AcDbLine
 10
8875.309336270465
 20
6595.634086671278
 30
0.0
 11
8875.309336270465
 21
6149.583134908798
 31
0.0
  0
LINE
  5
14A00
330
747D
100
AcDbEntity
  8
文字
 48
50.0
100
AcDbLine
 10
8278.228408187159
 20
6451.924215583384
 30
0.0
 11
8346.879626052293
 21
6433.529177197009
 31
0.0
  0
LINE
  5
14A01
330
747D
100
AcDbEntity
  8
文字
 48
50.0
100
AcDbLine
 10
8278.228408187159
 20
6451.924215583384
 30
0.0
 11
8346.879626052293
 21
6470.319253969761
 31
0.0
  0
LINE
  5
14A02
330
747D
100
AcDbEntity
  8
細線
 48
50.0
100
AcDbLine
 10
8251.166797898362
 20
6236.583134908798
 30
0.0
 11
8260.323422978773
 21
6215.583134908801
 31
0.0
  0
LINE
  5
14A03
330
747D
100
AcDbEntity
  8
細線
 48
50.0
100
AcDbLine
 10
8335.166797898363
 20
6236.583134908798
 30
0.0
 11
8344.323422978773
 21
6215.583134908801
 31
0.0
  0
LINE
  5
14A04
330
747D
100
AcDbEntity
  8
細線
 48
50.0
100
AcDbLine
 10
8167.166797898362
 20
6236.583134908798
 30
0.0
 11
8176.323422978773
 21
6215.583134908798
 31
0.0
  0
LINE
  5
14A05
330
747D
100
AcDbEntity
  8
細線
 48
50.0
100
AcDbLine
 10
8137.1670458995
 20
6246.737207571268
 30
0.0
 11
8277.012973237034
 21
6386.583134908798
 31
0.0
  0
LINE
  5
14A06
330
747D
100
AcDbEntity
  8
細線
 48
50.0
100
AcDbLine
 10
8144.832064122931
 20
6236.583134908801
 30
0.0
 11
8294.83206412293
 21
6386.583134908798
 31
0.0
  0
LINE
  5
14A07
330
747D
100
AcDbEntity
  8
細線
 48
50.0
100
AcDbLine
 10
8162.651155008836
 20
6236.583134908801
 30
0.0
 11
8312.651155008833
 21
6386.583134908798
 31
0.0
  0
LINE
  5
14A08
330
747D
100
AcDbEntity
  8
細線
 48
50.0
100
AcDbLine
 10
8304.91468889657
 20
6107.308527888647
 30
0.0
 11
8313.951577142312
 21
6086.5831349088
 31
0.0
  0
LINE
  5
14A09
330
747D
100
AcDbEntity
  8
細線
 48
50.0
100
AcDbLine
 10
8220.91468889657
 20
6107.308527888647
 30
0.0
 11
8229.951577142314
 21
6086.5831349088
 31
0.0
  0
LINE
  5
14A0A
330
747D
100
AcDbEntity
  8
細線
 48
50.0
100
AcDbLine
 10
8137.1670458995
 20
6108.001873055842
 30
0.0
 11
8183.966797898365
 21
6236.583134908798
 31
0.0
  0
LINE
  5
14A0B
330
747D
100
AcDbEntity
  8
細線
 48
50.0
100
AcDbLine
 10
8297.371262758437
 20
6086.5831349088
 30
0.0
 11
8351.966797898365
 21
6236.583134908798
 31
0.0
  0
LINE
  5
14A0C
330
747D
100
AcDbEntity
  8
細線
 48
50.0
100
AcDbLine
 10
8213.371262758435
 20
6086.5831349088
 30
0.0
 11
8267.966797898365
 21
6236.583134908798
 31
0.0
  0
DIMENSION
  5
14A0D
330
747D
100
AcDbEntity
  8
寸法
 48
50.0
100
AcDbDimension
  2
*D35
 10
7658.798500192029
 20
6086.5831349088
 30
0.0
 11
7658.798500192027
 21
5909.547701837933
 31
0.0
 70
   160
 71
     5
 42
100.000000005
  3
INABA_S30G詳細用20
100
AcDbAlignedDimension
 13
8137.1670458995
 23
6236.583134908801
 33
0.0
 14
8137.1670458995
 24
6086.5831349088
 34
0.0
 50
90.0
100
AcDbRotatedDimension
  0
LINE
  5
14A0E
330
747D
100
AcDbEntity
  8
部品1
 48
50.0
100
AcDbLine
 10
8290.309336270464
 20
5487.136281726282
 30
0.0
 11
8290.309336270466
 21
5286.136281726282
 31
0.0
  0
DIMENSION
  5
14A0F
330
747D
100
AcDbEntity
  8
寸法
 48
50.0
100
AcDbDimension
  2
*D36
 10
7658.79850019203
 20
6236.583134908798
 30
0.0
 11
7658.798500192027
 21
6589.884162411124
 31
0.0
 70
   160
 71
     5
 42
100.000000005
  3
INABA_S30G詳細用20
100
AcDbAlignedDimension
 13
8137.167045899502
 23
6386.583134908798
 33
0.0
 14
8126.925038727719
 24
6236.583134908798
 34
0.0
 50
90.0
100
AcDbRotatedDimension
  0
LINE
  5
14A10
330
747D
100
AcDbEntity
  8
部品1
 48
50.0
100
AcDbLine
 10
8410.309336270465
 20
6086.583134908799
 30
0.0
 11
8137.1670458995
 21
6086.5831349088
 31
0.0
  0
LINE
  5
14A11
330
747D
100
AcDbEntity
  8
部品1
 48
50.0
100
AcDbLine
 10
8290.309336270466
 20
5286.136281726282
 30
0.0
 11
9580.309336270465
 21
5286.136281726282
 31
0.0
  0
LINE
  5
14A12
330
747D
100
AcDbEntity
  8
部品1
 48
50.0
100
AcDbLine
 10
8290.309336270466
 20
5412.136281726282
 30
0.0
 11
9580.309336270465
 21
5412.136281726282
 31
0.0
  0
LINE
  5
14A13
330
747D
100
AcDbEntity
  8
部品1
 48
50.0
100
AcDbLine
 10
8290.309336270464
 20
5487.136281726282
 30
0.0
 11
9580.309336270465
 21
5487.136281726282
 31
0.0
  0
LINE
  5
14A14
330
747D
100
AcDbEntity
  8
文字
 48
50.0
100
AcDbLine
 10
8278.228408187159
 20
6451.924215583384
 30
0.0
 11
8856.725506091123
 21
6451.924215583384
 31
0.0
  0
LINE
  5
14A15
330
747D
100
AcDbEntity
  8
細線
 48
50.0
100
AcDbLine
 10
8410.309336270469
 20
6201.291619463556
 30
0.0
 11
8595.600851715721
 21
6386.583134908798
 31
0.0
  0
LINE
  5
14A16
330
747D
100
AcDbEntity
  8
部品1
 48
50.0
100
AcDbLine
 10
8137.167045899502
 20
6386.583134908798
 30
0.0
 11
8833.309336270465
 21
6386.583134908798
 31
0.0
  0
LINE
  5
14A17
330
747D
100
AcDbEntity
  8
部品1
 48
50.0
100
AcDbLine
 10
8137.1670458995
 20
6236.583134908801
 30
0.0
 11
8410.309336270465
 21
6236.5831349088
 31
0.0
  0
LEADER
  5
14A18
330
747D
100
AcDbEntity
  8
寸法
 48
5.0
100
AcDbLeader
  3
INABA_S30G詳細用20
 71
     0
 73
     0
 75
     1
 40
91.25178566873406
 41
703.4999999999999
 76
     3
 10
8611.309336270471
 20
5605.836281726284
 30
0.0
 10
8270.575220405101
 20
5436.480831932064
 30
0.0
 10
8195.575220405102
 20
5436.480831932064
 30
0.0
  0
MTEXT
  5
14A19
102
{ACAD_REACTORS
330
14A18
102
}
330
747D
100
AcDbEntity
  8
部品1
 62
     7
 48
5.0
100
AcDbMText
 10
8195.575220405102
 20
5507.350744478504
 30
0.0
 40
90.0
 41
0.0
 71
     6
 72
     1
  1
\A1;4-D10両方向共
  7
STYLE1
 73
     1
 44
1.0
1001
ACAD
1000
MTEXTBEGIN
1070
    73
1070
     1
1070
    44
1040
1.0
1070
    74
1070
     0
1000
MTEXTEND
  0
LINE
  5
14A1A
330
747D
100
AcDbEntity
  8
Ｇ．Ｌ
 48
50.0
100
AcDbLine
 10
9814.497555052387
 20
6311.583134908801
 30
0.0
 11
10597.68246157772
 21
6311.583134908798
 31
0.0
  0
MTEXT
  5
14A1B
330
747D
100
AcDbEntity
  8
寸法
 62
     7
 48
50.0
100
AcDbMText
 10
10260.5756447556
 20
6377.748419647373
 30
0.0
 40
90.0
 41
1.0
 71
     4
 72
     1
  1
▽G.L
  7
STYLE2
 73
     1
 44
1.0
1001
ACAD
1000
MTEXTBEGIN
1070
    73
1070
     1
1070
    44
1040
1.0
1070
    74
1070
     0
1000
MTEXTEND
  0
DIMENSION
  5
14A1C
330
747D
100
AcDbEntity
  8
寸法
 48
50.0
100
AcDbDimension
  2
*D37
 10
9460.309336270466
 20
4866.188069236653
 30
0.0
 11
8935.309336270465
 21
4941.188069236652
 31
0.0
 70
    32
 71
     5
 42
700.000000035
  3
INABA_S30G詳細用20
100
AcDbAlignedDimension
 13
8410.309336270465
 23
5286.136281726282
 33
0.0
 14
9460.309336270466
 24
5286.136281726282
 34
0.0
100
AcDbRotatedDimension
  0
LINE
  5
14A1D
330
747D
100
AcDbEntity
  8
細線
 48
50.0
100
AcDbLine
 10
9533.809336270469
 20
5286.136281726282
 30
0.0
 11
9579.669585788009
 21
5412.136281726282
 31
0.0
  0
LINE
  5
14A1E
330
747D
100
AcDbEntity
  8
細線
 48
50.0
100
AcDbLine
 10
9449.809336270467
 20
5286.136281726282
 30
0.0
 11
9495.669585788007
 21
5412.136281726282
 31
0.0
  0
LINE
  5
14A1F
330
747D
100
AcDbEntity
  8
細線
 48
50.0
100
AcDbLine
 10
9457.452711190056
 20
5307.136281726282
 30
0.0
 11
9466.609336270467
 21
5286.136281726282
 31
0.0
  0
LINE
  5
14A20
330
747D
100
AcDbEntity
  8
細線
 48
50.0
100
AcDbLine
 10
9373.452711190058
 20
5307.136281726282
 30
0.0
 11
9382.609336270467
 21
5286.136281726282
 31
0.0
  0
LINE
  5
14A21
330
747D
100
AcDbEntity
  8
細線
 48
50.0
100
AcDbLine
 10
9541.452711190057
 20
5307.136281726282
 30
0.0
 11
9550.609336270467
 21
5286.136281726282
 31
0.0
  0
LINE
  5
14A22
330
747D
100
AcDbEntity
  8
細線
 48
50.0
100
AcDbLine
 10
9394.869585788006
 20
5412.136281726282
 30
0.0
 11
9404.026210868414
 21
5391.136281726282
 31
0.0
  0
LINE
  5
14A23
330
747D
100
AcDbEntity
  8
細線
 48
50.0
100
AcDbLine
 10
9562.869585788005
 20
5412.136281726282
 30
0.0
 11
9572.026210868415
 21
5391.136281726282
 31
0.0
  0
LINE
  5
14A24
330
747D
100
AcDbEntity
  8
細線
 48
50.0
100
AcDbLine
 10
9478.869585788004
 20
5412.136281726282
 30
0.0
 11
9488.026210868415
 21
5391.136281726282
 31
0.0
  0
LINE
  5
14A25
330
747D
100
AcDbEntity
  8
細線
 48
50.0
100
AcDbLine
 10
9365.809336270467
 20
5286.136281726282
 30
0.0
 11
9411.669585788008
 21
5412.136281726282
 31
0.0
  0
LINE
  5
14A26
330
747D
100
AcDbEntity
  8
細線
 48
50.0
100
AcDbLine
 10
8357.809336270468
 20
5286.136281726282
 30
0.0
 11
8403.669585788007
 21
5412.136281726282
 31
0.0
  0
LINE
  5
14A27
330
747D
100
AcDbEntity
  8
細線
 48
50.0
100
AcDbLine
 10
8441.809336270468
 20
5286.136281726282
 30
0.0
 11
8487.669585788008
 21
5412.136281726282
 31
0.0
  0
LINE
  5
14A28
330
747D
100
AcDbEntity
  8
細線
 48
50.0
100
AcDbLine
 10
8365.452711190057
 20
5307.136281726282
 30
0.0
 11
8374.609336270466
 21
5286.136281726282
 31
0.0
  0
LINE
  5
14A29
330
747D
100
AcDbEntity
  8
細線
 48
50.0
100
AcDbLine
 10
8449.452711190057
 20
5307.136281726282
 30
0.0
 11
8458.609336270468
 21
5286.136281726282
 31
0.0
  0
LINE
  5
14A2A
330
747D
100
AcDbEntity
  8
細線
 48
50.0
100
AcDbLine
 10
8302.869585788005
 20
5412.136281726282
 30
0.0
 11
8312.026210868415
 21
5391.136281726282
 31
0.0
  0
LINE
  5
14A2B
330
747D
100
AcDbEntity
  8
細線
 48
50.0
100
AcDbLine
 10
8470.869585788005
 20
5412.136281726282
 30
0.0
 11
8480.026210868414
 21
5391.136281726282
 31
0.0
  0
LINE
  5
14A2C
330
747D
100
AcDbEntity
  8
細線
 48
50.0
100
AcDbLine
 10
8386.869585788005
 20
5412.136281726282
 30
0.0
 11
8396.026210868415
 21
5391.136281726282
 31
0.0
  0
LINE
  5
14A2D
330
747D
100
AcDbEntity
  8
細線
 48
50.0
100
AcDbLine
 10
8290.309336270466
 20
5286.824308149191
 30
0.0
 11
8290.609336270467
 21
5286.136281726282
 31
0.0
  0
LINE
  5
14A2E
330
747D
100
AcDbEntity
  8
細線
 48
50.0
100
AcDbLine
 10
8290.309336270464
 20
5331.469659147276
 30
0.0
 11
8319.669585788007
 21
5412.136281726282
 31
0.0
  0
LINE
  5
14A2F
330
747D
100
AcDbEntity
  8
細線
 48
50.0
100
AcDbLine
 10
9580.309336270465
 20
5436.339918692869
 30
0.0
 11
9556.105699303879
 21
5412.136281726282
 31
0.0
  0
LINE
  5
14A30
330
747D
100
AcDbEntity
  8
細線
 48
50.0
100
AcDbLine
 10
9580.309336270465
 20
5454.159009578765
 30
0.0
 11
9538.286608417978
 21
5412.136281726282
 31
0.0
  0
LINE
  5
14A31
330
747D
100
AcDbEntity
  8
細線
 48
50.0
100
AcDbLine
 10
9580.309336270465
 20
5471.978100464668
 30
0.0
 11
9520.467517532075
 21
5412.136281726282
 31
0.0
  0
LINE
  5
14A32
330
747D
100
AcDbEntity
  8
細線
 48
50.0
100
AcDbLine
 10
8425.347216024599
 20
5487.136281726282
 30
0.0
 11
8350.347216024596
 21
5412.136281726282
 31
0.0
  0
LINE
  5
14A33
330
747D
100
AcDbEntity
  8
細線
 48
50.0
100
AcDbLine
 10
8407.528125138695
 20
5487.136281726282
 30
0.0
 11
8332.528125138694
 21
5412.136281726282
 31
0.0
  0
LINE
  5
14A34
330
747D
100
AcDbEntity
  8
細線
 48
50.0
100
AcDbLine
 10
8443.166306910493
 20
5487.136281726282
 30
0.0
 11
8368.166306910495
 21
5412.136281726282
 31
0.0
  0
LINE
  5
14A35
330
747D
100
AcDbEntity
  8
細線
 48
50.0
100
AcDbLine
 10
8137.1670458995
 20
6106.729766935234
 30
0.0
 11
8145.951577142314
 21
6086.5831349088
 31
0.0
  0
LINE
  5
14A36
330
747D
100
AcDbEntity
  8
細線
 48
50.0
100
AcDbLine
 10
9460.309336270475
 20
6104.575091830111
 30
0.0
 11
9468.154365031965
 21
6086.5831349088
 31
0.0
  0
LINE
  5
14A37
330
747D
100
AcDbEntity
  8
細線
 48
50.0
100
AcDbLine
 10
9543.117476786221
 20
6107.308527888647
 30
0.0
 11
9552.154365031965
 21
6086.5831349088
 31
0.0
  0
LINE
  5
14A38
330
747D
100
AcDbEntity
  8
細線
 48
50.0
100
AcDbLine
 10
9627.117476786223
 20
6107.308527888647
 30
0.0
 11
9636.154365031963
 21
6086.5831349088
 31
0.0
  0
LINE
  5
14A39
330
747D
100
AcDbEntity
  8
細線
 48
50.0
100
AcDbLine
 10
9711.11747678622
 20
6107.308527888647
 30
0.0
 11
9720.154365031957
 21
6086.5831349088
 31
0.0
  0
LINE
  5
14A3A
330
747D
100
AcDbEntity
  8
細線
 48
50.0
100
AcDbLine
 10
9795.117476786217
 20
6107.308527888647
 30
0.0
 11
9804.154365031951
 21
6086.5831349088
 31
0.0
  0
LINE
  5
14A3B
330
747D
100
AcDbEntity
  8
細線
 48
50.0
100
AcDbLine
 10
8637.997706173669
 20
5487.136281726282
 30
0.0
 11
8410.309336270465
 21
5714.824651629488
 31
0.0
  0
LINE
  5
14A3C
330
747D
100
AcDbEntity
  8
細線
 48
50.0
100
AcDbLine
 10
8655.81679705958
 20
5487.136281726282
 30
0.0
 11
8410.309336270463
 21
5732.643742515391
 31
0.0
  0
LINE
  5
14A3D
330
747D
100
AcDbEntity
  8
細線
 48
50.0
100
AcDbLine
 10
8673.635887945451
 20
5487.136281726282
 30
0.0
 11
8410.309336270463
 21
5750.462833401283
 31
0.0
  0
LINE
  5
14A3E
330
747D
100
AcDbEntity
  8
細線
 48
50.0
100
AcDbLine
 10
9038.511644902813
 20
5597.436281726285
 30
0.0
 11
8794.30933627046
 21
5841.638590358644
 31
0.0
  0
LINE
  5
14A3F
330
747D
100
AcDbEntity
  8
細線
 48
50.0
100
AcDbLine
 10
9020.69255401693
 20
5597.436281726284
 30
0.0
 11
8794.309336270464
 21
5823.81949947275
 31
0.0
  0
LINE
  5
14A40
330
747D
100
AcDbEntity
  8
細線
 48
50.0
100
AcDbLine
 10
9002.873463131033
 20
5597.436281726285
 30
0.0
 11
8794.309336270464
 21
5806.000408586857
 31
0.0
  0
LINE
  5
14A41
330
747D
100
AcDbEntity
  8
細線
 48
50.0
100
AcDbLine
 10
9259.299529106549
 20
5614.236276001254
 30
0.0
 11
9094.309336270464
 21
5779.226468837333
 31
0.0
  0
LINE
  5
14A42
330
747D
100
AcDbEntity
  8
細線
 48
50.0
100
AcDbLine
 10
9250.981860247899
 20
5604.734853974007
 30
0.0
 11
9094.309336270464
 21
5761.407377951439
 31
0.0
  0
LINE
  5
14A43
330
747D
100
AcDbEntity
  8
細線
 48
50.0
100
AcDbLine
 10
9258.28043249562
 20
5597.436281726285
 30
0.0
 11
9258.207908518194
 21
5597.508805703712
 31
0.0
  0
LINE
  5
14A44
330
747D
100
AcDbEntity
  8
細線
 48
50.0
100
AcDbLine
 10
9276.099523381517
 20
5597.436281726285
 30
0.0
 11
9267.709330545441
 21
5605.826474562363
 31
0.0
  0
LINE
  5
14A45
330
747D
100
AcDbEntity
  8
細線
 48
50.0
100
AcDbLine
 10
9240.461341609714
 20
5597.436281726285
 30
0.0
 11
9094.309336270466
 21
5743.588287065534
 31
0.0
  0
LINE
  5
14A46
330
747D
100
AcDbEntity
  8
細線
 48
50.0
100
AcDbLine
 10
8800.923766424142
 20
5597.436281726284
 30
0.0
 11
8739.276913241672
 21
5659.083134908758
 31
0.0
  0
LINE
  5
14A47
330
747D
100
AcDbEntity
  8
細線
 48
50.0
100
AcDbLine
 10
8765.285584652357
 20
5597.436281726283
 30
0.0
 11
8410.309336270465
 21
5952.412530108177
 31
0.0
  0
LINE
  5
14A48
330
747D
100
AcDbEntity
  8
細線
 48
50.0
100
AcDbLine
 10
8783.104675538263
 20
5597.436281726284
 30
0.0
 11
8721.457822355787
 21
5659.083134908754
 31
0.0
  0
LINE
  5
14A49
330
747D
100
AcDbEntity
  8
細線
 48
50.0
100
AcDbLine
 10
8783.104675538258
 20
2316.455748320805
 30
0.0
 11
8410.309336270458
 21
2689.251087588595
 31
0.0
  0
LINE
  5
14A4A
330
747D
100
AcDbEntity
  8
細線
 48
50.0
100
AcDbLine
 10
8765.285584652351
 20
2316.455748320805
 30
0.0
 11
8410.30933627046
 21
2671.4319967027
 31
0.0
  0
LINE
  5
14A4B
330
747D
100
AcDbEntity
  8
細線
 48
50.0
100
AcDbLine
 10
8800.923766424137
 20
2316.455748320805
 30
0.0
 11
8410.309336270458
 21
2707.070178474503
 31
0.0
  0
LINE
  5
14A4C
330
747D
100
AcDbEntity
  8
細線
 48
50.0
100
AcDbLine
 10
9020.692554016925
 20
2316.455748320805
 30
0.0
 11
8981.492554016929
 21
2355.655748320804
 31
0.0
  0
LINE
  5
14A4D
330
747D
100
AcDbEntity
  8
細線
 48
50.0
100
AcDbLine
 10
9038.511644902817
 20
2316.455748320806
 30
0.0
 11
8995.309336270459
 21
2359.658056953162
 31
0.0
  0
LINE
  5
14A4E
330
747D
100
AcDbEntity
  8
細線
 48
50.0
100
AcDbLine
 10
9002.873463131026
 20
2316.455748320805
 30
0.0
 11
8963.673463131028
 21
2355.655748320804
 31
0.0
  0
LINE
  5
14A4F
330
747D
100
AcDbEntity
  8
細線
 48
50.0
100
AcDbLine
 10
9240.461341609709
 20
2316.455748320806
 30
0.0
 11
8995.309336270461
 21
2561.607753660054
 31
0.0
  0
LINE
  5
14A50
330
747D
100
AcDbEntity
  8
細線
 48
50.0
100
AcDbLine
 10
9276.099523381512
 20
2316.455748320806
 30
0.0
 11
9267.709330545436
 21
2324.845941156884
 31
0.0
  0
LINE
  5
14A51
330
747D
100
AcDbEntity
  8
細線
 48
50.0
100
AcDbLine
 10
9258.280432495615
 20
2316.455748320806
 30
0.0
 11
9258.207908518189
 21
2316.528272298234
 31
0.0
  0
LINE
  5
14A52
330
747D
100
AcDbEntity
  8
細線
 48
50.0
100
AcDbLine
 10
9250.981860247895
 20
2323.754320568529
 30
0.0
 11
8995.309336270461
 21
2579.426844545956
 31
0.0
  0
LINE
  5
14A53
330
747D
100
AcDbEntity
  8
細線
 48
50.0
100
AcDbLine
 10
9259.299529106543
 20
2333.255742595776
 30
0.0
 11
8995.309336270459
 21
2597.245935431854
 31
0.0
  0
LINE
  5
14A54
330
747D
100
AcDbEntity
  8
細線
 48
50.0
100
AcDbLine
 10
8875.309336270458
 20
2444.019875181377
 30
0.0
 11
8410.309336270463
 21
2909.019875181383
 31
0.0
  0
LINE
  5
14A55
330
747D
100
AcDbEntity
  8
細線
 48
50.0
100
AcDbLine
 10
8875.309336270458
 20
2461.838966067276
 30
0.0
 11
8410.30933627046
 21
2926.838966067274
 31
0.0
  0
LINE
  5
14A56
330
747D
100
AcDbEntity
  8
細線
 48
50.0
100
AcDbLine
 10
8875.309336270458
 20
2479.658056953166
 30
0.0
 11
8410.309336270458
 21
2944.658056953184
 31
0.0
  0
LINE
  5
14A57
330
747D
100
AcDbEntity
  8
細線
 48
50.0
100
AcDbLine
 10
8673.635887945446
 20
2206.155748320803
 30
0.0
 11
8410.309336270458
 21
2469.482299995805
 31
0.0
  0
LINE
  5
14A58
330
747D
100
AcDbEntity
  8
細線
 48
50.0
100
AcDbLine
 10
8655.816797059575
 20
2206.155748320803
 30
0.0
 11
8410.309336270458
 21
2451.663209109913
 31
0.0
  0
LINE
  5
14A59
330
747D
100
AcDbEntity
  8
細線
 48
50.0
100
AcDbLine
 10
8637.997706173665
 20
2206.155748320803
 30
0.0
 11
8410.30933627046
 21
2433.844118224011
 31
0.0
  0
LINE
  5
14A5A
330
747D
100
AcDbEntity
  8
細線
 48
50.0
100
AcDbLine
 10
9460.309336270467
 20
2809.371389096106
 30
0.0
 11
9314.078123863255
 21
2955.602601503321
 31
0.0
  0
LINE
  5
14A5B
330
747D
100
AcDbEntity
  8
細線
 48
50.0
100
AcDbLine
 10
9460.309336270466
 20
2827.190479982029
 30
0.0
 11
9331.897214749169
 21
2955.602601503321
 31
0.0
  0
LINE
  5
14A5C
330
747D
100
AcDbEntity
  8
細線
 48
50.0
100
AcDbLine
 10
9460.309336270469
 20
2845.009570867926
 30
0.0
 11
9349.716305635078
 21
2955.602601503321
 31
0.0
  0
LINE
  5
14A5D
330
747D
100
AcDbEntity
  8
細線
 48
50.0
100
AcDbLine
 10
9795.117476786209
 20
2826.327994483169
 30
0.0
 11
9804.154365031946
 21
2805.602601503322
 31
0.0
  0
LINE
  5
14A5E
330
747D
100
AcDbEntity
  8
細線
 48
50.0
100
AcDbLine
 10
9711.117476786217
 20
2826.327994483169
 30
0.0
 11
9720.154365031952
 21
2805.602601503322
 31
0.0
  0
LINE
  5
14A5F
330
747D
100
AcDbEntity
  8
細線
 48
50.0
100
AcDbLine
 10
9627.117476786217
 20
2826.327994483169
 30
0.0
 11
9636.154365031959
 21
2805.602601503323
 31
0.0
  0
LINE
  5
14A60
330
747D
100
AcDbEntity
  8
細線
 48
50.0
100
AcDbLine
 10
9543.117476786216
 20
2826.327994483169
 30
0.0
 11
9552.15436503196
 21
2805.602601503323
 31
0.0
  0
LINE
  5
14A61
330
747D
100
AcDbEntity
  8
細線
 48
50.0
100
AcDbLine
 10
9460.309336270469
 20
2823.594558424633
 30
0.0
 11
9468.15436503196
 21
2805.602601503323
 31
0.0
  0
LINE
  5
14A62
330
747D
100
AcDbEntity
  8
細線
 48
50.0
100
AcDbLine
 10
8137.167045899495
 20
2825.749233529757
 30
0.0
 11
8145.951577142309
 21
2805.602601503322
 31
0.0
  0
LINE
  5
14A63
330
747D
100
AcDbEntity
  8
細線
 48
50.0
100
AcDbLine
 10
8443.166306910487
 20
2206.155748320803
 30
0.0
 11
8368.166306910492
 21
2131.155748320804
 31
0.0
  0
LINE
  5
14A64
330
747D
100
AcDbEntity
  8
細線
 48
50.0
100
AcDbLine
 10
8407.528125138687
 20
2206.155748320803
 30
0.0
 11
8332.528125138688
 21
2131.155748320804
 31
0.0
  0
LINE
  5
14A65
330
747D
100
AcDbEntity
  8
細線
 48
50.0
100
AcDbLine
 10
8425.347216024594
 20
2206.155748320803
 30
0.0
 11
8350.347216024591
 21
2131.155748320804
 31
0.0
  0
LINE
  5
14A66
330
747D
100
AcDbEntity
  8
細線
 48
50.0
100
AcDbLine
 10
9580.30933627046
 20
2190.99756705919
 30
0.0
 11
9520.46751753207
 21
2131.155748320803
 31
0.0
  0
LINE
  5
14A67
330
747D
100
AcDbEntity
  8
細線
 48
50.0
100
AcDbLine
 10
9580.30933627046
 20
2173.178476173287
 30
0.0
 11
9538.286608417974
 21
2131.155748320803
 31
0.0
  0
LINE
  5
14A68
330
747D
100
AcDbEntity
  8
細線
 48
50.0
100
AcDbLine
 10
9580.30933627046
 20
2155.359385287392
 30
0.0
 11
9556.105699303873
 21
2131.155748320803
 31
0.0
  0
LINE
  5
14A69
330
747D
100
AcDbEntity
  8
細線
 48
50.0
100
AcDbLine
 10
8290.309336270459
 20
2050.489125741798
 30
0.0
 11
8319.669585788004
 21
2131.155748320804
 31
0.0
  0
LINE
  5
14A6A
330
747D
100
AcDbEntity
  8
細線
 48
50.0
100
AcDbLine
 10
8290.30933627046
 20
2005.843774743713
 30
0.0
 11
8290.609336270462
 21
2005.155748320804
 31
0.0
  0
LINE
  5
14A6B
330
747D
100
AcDbEntity
  8
細線
 48
50.0
100
AcDbLine
 10
8386.869585788
 20
2131.155748320804
 30
0.0
 11
8396.026210868409
 21
2110.155748320804
 31
0.0
  0
LINE
  5
14A6C
330
747D
100
AcDbEntity
  8
細線
 48
50.0
100
AcDbLine
 10
8470.869585787999
 20
2131.155748320804
 30
0.0
 11
8480.026210868409
 21
2110.155748320804
 31
0.0
  0
LINE
  5
14A6D
330
747D
100
AcDbEntity
  8
細線
 48
50.0
100
AcDbLine
 10
8302.869585788
 20
2131.155748320804
 30
0.0
 11
8312.026210868408
 21
2110.155748320804
 31
0.0
  0
LINE
  5
14A6E
330
747D
100
AcDbEntity
  8
細線
 48
50.0
100
AcDbLine
 10
8449.452711190053
 20
2026.155748320803
 30
0.0
 11
8458.609336270461
 21
2005.155748320804
 31
0.0
  0
LINE
  5
14A6F
330
747D
100
AcDbEntity
  8
細線
 48
50.0
100
AcDbLine
 10
8365.452711190052
 20
2026.155748320803
 30
0.0
 11
8374.609336270461
 21
2005.155748320804
 31
0.0
  0
LINE
  5
14A70
330
747D
100
AcDbEntity
  8
細線
 48
50.0
100
AcDbLine
 10
8441.809336270463
 20
2005.155748320804
 30
0.0
 11
8487.669585788003
 21
2131.155748320804
 31
0.0
  0
LINE
  5
14A71
330
747D
100
AcDbEntity
  8
細線
 48
50.0
100
AcDbLine
 10
8357.809336270461
 20
2005.155748320804
 30
0.0
 11
8403.669585788001
 21
2131.155748320804
 31
0.0
  0
LINE
  5
14A72
330
747D
100
AcDbEntity
  8
細線
 48
50.0
100
AcDbLine
 10
9365.809336270462
 20
2005.155748320803
 30
0.0
 11
9411.669585788002
 21
2131.155748320803
 31
0.0
  0
LINE
  5
14A73
330
747D
100
AcDbEntity
  8
細線
 48
50.0
100
AcDbLine
 10
9478.869585788
 20
2131.155748320803
 30
0.0
 11
9488.02621086841
 21
2110.155748320803
 31
0.0
  0
LINE
  5
14A74
330
747D
100
AcDbEntity
  8
細線
 48
50.0
100
AcDbLine
 10
9562.869585787998
 20
2131.155748320803
 30
0.0
 11
9572.026210868409
 21
2110.155748320803
 31
0.0
  0
LINE
  5
14A75
330
747D
100
AcDbEntity
  8
細線
 48
50.0
100
AcDbLine
 10
9394.869585787999
 20
2131.155748320803
 30
0.0
 11
9404.026210868408
 21
2110.155748320803
 31
0.0
  0
LINE
  5
14A76
330
747D
100
AcDbEntity
  8
細線
 48
50.0
100
AcDbLine
 10
9541.452711190052
 20
2026.155748320803
 30
0.0
 11
9550.609336270461
 21
2005.155748320803
 31
0.0
  0
LINE
  5
14A77
330
747D
100
AcDbEntity
  8
細線
 48
50.0
100
AcDbLine
 10
9373.452711190052
 20
2026.155748320803
 30
0.0
 11
9382.60933627046
 21
2005.155748320803
 31
0.0
  0
LINE
  5
14A78
330
747D
100
AcDbEntity
  8
細線
 48
50.0
100
AcDbLine
 10
9457.452711190052
 20
2026.155748320803
 30
0.0
 11
9466.609336270462
 21
2005.155748320803
 31
0.0
  0
LINE
  5
14A79
330
747D
100
AcDbEntity
  8
細線
 48
50.0
100
AcDbLine
 10
9449.809336270462
 20
2005.155748320803
 30
0.0
 11
9495.669585788002
 21
2131.155748320803
 31
0.0
  0
LINE
  5
14A7A
330
747D
100
AcDbEntity
  8
細線
 48
50.0
100
AcDbLine
 10
9533.809336270463
 20
2005.155748320803
 30
0.0
 11
9579.669585788002
 21
2131.155748320803
 31
0.0
  0
DIMENSION
  5
14A7B
330
747D
100
AcDbEntity
  8
寸法
 48
50.0
100
AcDbDimension
  2
*D38
 10
9460.30933627046
 20
1753.10567576239
 30
0.0
 11
8935.30933627046
 21
1828.10567576239
 31
0.0
 70
    32
 71
     5
 42
700.000000035
  3
INABA_S30G詳細用20
100
AcDbAlignedDimension
 13
8410.30933627046
 23
2005.155748320804
 33
0.0
 14
9460.30933627046
 24
2005.155748320804
 34
0.0
100
AcDbRotatedDimension
  0
MTEXT
  5
14A7C
330
747D
100
AcDbEntity
  8
寸法
 62
     7
 48
50.0
100
AcDbMText
 10
10260.5756447556
 20
3096.767886241894
 30
0.0
 40
90.0
 41
1.0
 71
     4
 72
     1
  1
▽G.L
  7
STYLE2
 73
     1
 44
1.0
1001
ACAD
1000
MTEXTBEGIN
1070
    73
1070
     1
1070
    44
1040
1.0
1070
    74
1070
     0
1000
MTEXTEND
  0
LINE
  5
14A7D
330
747D
100
AcDbEntity
  8
Ｇ．Ｌ
 48
50.0
100
AcDbLine
 10
9814.497555052382
 20
3030.602601503322
 30
0.0
 11
10597.68246157771
 21
3030.60260150332
 31
0.0
  0
MTEXT
  5
14A7E
102
{ACAD_REACTORS
330
14A7F
102
}
330
747D
100
AcDbEntity
  8
部品1
 62
     7
 48
5.0
100
AcDbMText
 10
8195.575220405094
 20
2226.370211073026
 30
0.0
 40
90.0
 41
0.0
 71
     6
 72
     1
  1
\A1;4-D10両方向共
  7
STYLE1
 73
     1
 44
1.0
1001
ACAD
1000
MTEXTBEGIN
1070
    73
1070
     1
1070
    44
1040
1.0
1070
    74
1070
     0
1000
MTEXTEND
  0
LEADER
  5
14A7F
330
747D
100
AcDbEntity
  8
寸法
 48
5.0
100
AcDbLeader
  3
INABA_S30G詳細用20
 71
     0
 73
     0
 75
     1
 40
91.25178566873406
 41
703.4999999999999
 76
     3
 10
8611.309336270466
 20
2324.855748320806
 30
0.0
 10
8270.575220405095
 20
2155.500298526586
 30
0.0
 10
8195.575220405094
 20
2155.500298526586
 30
0.0
  0
LINE
  5
14A80
330
747D
100
AcDbEntity
  8
部品1
 48
50.0
100
AcDbLine
 10
8137.167045899495
 20
2955.602601503322
 30
0.0
 11
8875.309336270458
 21
2955.602601503321
 31
0.0
  0
LINE
  5
14A81
330
747D
100
AcDbEntity
  8
部品1
 48
50.0
100
AcDbLine
 10
8137.167045899499
 20
3105.602601503321
 30
0.0
 11
8833.309336270458
 21
3105.60260150332
 31
0.0
  0
LINE
  5
14A82
330
747D
100
AcDbEntity
  8
細線
 48
50.0
100
AcDbLine
 10
8445.600851715708
 20
2955.602601503321
 30
0.0
 11
8595.600851715715
 21
3105.602601503321
 31
0.0
  0
LINE
  5
14A83
330
747D
100
AcDbEntity
  8
文字
 48
50.0
100
AcDbLine
 10
8278.228408187153
 20
3170.943682177906
 30
0.0
 11
8856.725506091118
 21
3170.943682177906
 31
0.0
  0
LINE
  5
14A84
330
747D
100
AcDbEntity
  8
部品1
 48
50.0
100
AcDbLine
 10
8290.309336270459
 20
2206.155748320803
 30
0.0
 11
9580.30933627046
 21
2206.155748320803
 31
0.0
  0
LINE
  5
14A85
330
747D
100
AcDbEntity
  8
部品1
 48
50.0
100
AcDbLine
 10
8290.30933627046
 20
2131.155748320804
 30
0.0
 11
9580.309336270458
 21
2131.155748320804
 31
0.0
  0
LINE
  5
14A86
330
747D
100
AcDbEntity
  8
部品1
 48
50.0
100
AcDbLine
 10
8290.30933627046
 20
2005.155748320804
 30
0.0
 11
9580.309336270458
 21
2005.155748320803
 31
0.0
  0
LINE
  5
14A87
330
747D
100
AcDbEntity
  8
部品1
 48
50.0
100
AcDbLine
 10
8410.309336270456
 20
2805.602601503322
 30
0.0
 11
8137.167045899495
 21
2805.602601503322
 31
0.0
  0
DIMENSION
  5
14A88
330
747D
100
AcDbEntity
  8
寸法
 48
50.0
100
AcDbDimension
  2
*D39
 10
7947.03671068925
 20
2955.602601503321
 30
0.0
 11
7947.036710689248
 21
3282.638034574188
 31
0.0
 70
   160
 71
     5
 42
100.000000005
  3
INABA_S30G詳細用20
100
AcDbAlignedDimension
 13
8137.167045899499
 23
3105.602601503321
 33
0.0
 14
8126.925038727714
 24
2955.602601503321
 34
0.0
 50
90.0
100
AcDbRotatedDimension
  0
LINE
  5
14A89
330
747D
100
AcDbEntity
  8
部品1
 48
50.0
100
AcDbLine
 10
8290.309336270459
 20
2206.155748320803
 30
0.0
 11
8290.30933627046
 21
2005.155748320804
 31
0.0
  0
DIMENSION
  5
14A8A
330
747D
100
AcDbEntity
  8
寸法
 48
50.0
100
AcDbDimension
  2
*D40
 10
7947.03671068925
 20
2805.602601503322
 30
0.0
 11
7947.036710689248
 21
2628.567168432456
 31
0.0
 70
   160
 71
     5
 42
100.000000005
  3
INABA_S30G詳細用20
100
AcDbAlignedDimension
 13
8137.167045899495
 23
2955.602601503322
 33
0.0
 14
8137.167045899495
 24
2805.602601503322
 34
0.0
 50
90.0
100
AcDbRotatedDimension
  0
LINE
  5
14A8B
330
747D
100
AcDbEntity
  8
細線
 48
50.0
100
AcDbLine
 10
8213.37126275843
 20
2805.602601503322
 30
0.0
 11
8267.96679789836
 21
2955.602601503321
 31
0.0
  0
LINE
  5
14A8C
330
747D
100
AcDbEntity
  8
細線
 48
50.0
100
AcDbLine
 10
8297.37126275843
 20
2805.602601503322
 30
0.0
 11
8351.966797898361
 21
2955.602601503321
 31
0.0
  0
LINE
  5
14A8D
330
747D
100
AcDbEntity
  8
細線
 48
50.0
100
AcDbLine
 10
8137.167045899493
 20
2827.021339650365
 30
0.0
 11
8183.96679789836
 21
2955.602601503321
 31
0.0
  0
LINE
  5
14A8E
330
747D
100
AcDbEntity
  8
細線
 48
50.0
100
AcDbLine
 10
8220.914688896565
 20
2826.327994483168
 30
0.0
 11
8229.951577142308
 21
2805.602601503322
 31
0.0
  0
LINE
  5
14A8F
330
747D
100
AcDbEntity
  8
細線
 48
50.0
100
AcDbLine
 10
8304.914688896564
 20
2826.327994483168
 30
0.0
 11
8313.951577142306
 21
2805.602601503322
 31
0.0
  0
LINE
  5
14A90
330
747D
100
AcDbEntity
  8
細線
 48
50.0
100
AcDbLine
 10
8162.651155008829
 20
2955.602601503322
 30
0.0
 11
8312.651155008827
 21
3105.602601503321
 31
0.0
  0
LINE
  5
14A91
330
747D
100
AcDbEntity
  8
細線
 48
50.0
100
AcDbLine
 10
8144.832064122926
 20
2955.602601503322
 30
0.0
 11
8294.832064122925
 21
3105.602601503321
 31
0.0
  0
LINE
  5
14A92
330
747D
100
AcDbEntity
  8
細線
 48
50.0
100
AcDbLine
 10
8137.167045899495
 20
2965.75667416579
 30
0.0
 11
8277.012973237029
 21
3105.602601503321
 31
0.0
  0
LINE
  5
14A93
330
747D
100
AcDbEntity
  8
細線
 48
50.0
100
AcDbLine
 10
8167.166797898357
 20
2955.602601503321
 30
0.0
 11
8176.323422978766
 21
2934.60260150332
 31
0.0
  0
LINE
  5
14A94
330
747D
100
AcDbEntity
  8
細線
 48
50.0
100
AcDbLine
 10
8335.166797898358
 20
2955.602601503321
 30
0.0
 11
8344.323422978765
 21
2934.602601503322
 31
0.0
  0
LINE
  5
14A95
330
747D
100
AcDbEntity
  8
細線
 48
50.0
100
AcDbLine
 10
8251.166797898356
 20
2955.602601503321
 30
0.0
 11
8260.323422978768
 21
2934.602601503322
 31
0.0
  0
LINE
  5
14A96
330
747D
100
AcDbEntity
  8
文字
 48
50.0
100
AcDbLine
 10
8278.228408187153
 20
3170.943682177906
 30
0.0
 11
8346.87962605229
 21
3189.338720564283
 31
0.0
  0
LINE
  5
14A97
330
747D
100
AcDbEntity
  8
文字
 48
50.0
100
AcDbLine
 10
8278.228408187153
 20
3170.943682177906
 30
0.0
 11
8346.87962605229
 21
3152.548643791531
 31
0.0
  0
LINE
  5
14A98
330
747D
100
AcDbEntity
  8
部品1
 48
10.0
100
AcDbLine
 10
8875.30933627046
 20
3314.6535532658
 30
0.0
 11
8875.30933627046
 21
2355.655748320804
 31
0.0
  0
LINE
  5
14A99
330
747D
100
AcDbEntity
  8
部品1
 48
10.0
100
AcDbLine
 10
8995.309336270459
 20
3314.6535532658
 30
0.0
 11
8995.309336270459
 21
2355.655748320804
 31
0.0
  0
TEXT
  5
14A9A
330
747D
100
AcDbEntity
  8
文字
 48
50.0
100
AcDbText
 10
9064.938991442787
 20
3226.516467457734
 30
0.0
 40
72.0
  1
１／１００
 41
0.8
  7
STYLE1
100
AcDbText
  0
TEXT
  5
14A9B
330
747D
100
AcDbEntity
  8
文字
 48
50.0
100
AcDbText
 10
8494.960295920774
 20
3226.516467457734
 30
0.0
 40
72.0
  1
１／１００
 41
0.8
  7
STYLE1
100
AcDbText
  0
DIMENSION
  5
14A9C
330
747D
100
AcDbEntity
  8
寸法
 48
50.0
100
AcDbDimension
  2
*D41
 10
10120.01793660162
 20
3030.602601503322
 30
0.0
 11
10120.01793660162
 21
3314.466562534001
 31
0.0
 70
   160
 71
     5
 42
50.00000000249879
  3
INABA_S30G詳細用20
100
AcDbAlignedDimension
 13
9672.512124160101
 23
3105.602601503321
 33
0.0
 14
9814.497555052382
 24
3030.602601503322
 34
0.0
 50
90.0
100
AcDbRotatedDimension
  0
LINE
  5
14A9D
330
747D
100
AcDbEntity
  8
センター
 48
10.0
100
AcDbLine
 10
8935.309336270458
 20
3371.977919866031
 30
0.0
 11
8935.309336270458
 21
2355.655748320804
 31
0.0
  0
LINE
  5
14A9E
330
747D
100
AcDbEntity
  8
細線
 48
50.0
100
AcDbLine
 10
9557.590547402243
 20
2955.602601503321
 30
0.0
 11
9648.512124160101
 21
3046.524178261178
 31
0.0
  0
LINE
  5
14A9F
330
747D
100
AcDbEntity
  8
細線
 48
50.0
100
AcDbLine
 10
9539.771456516348
 20
2955.602601503322
 30
0.0
 11
9648.512124160101
 21
3064.343269147074
 31
0.0
  0
LINE
  5
14AA0
330
747D
100
AcDbEntity
  8
細線
 48
50.0
100
AcDbLine
 10
9521.952365630445
 20
2955.602601503321
 30
0.0
 11
9648.512124160101
 21
3082.162360032977
 31
0.0
  0
LINE
  5
14AA1
330
747D
100
AcDbEntity
  8
文字
 48
50.0
100
AcDbLine
 10
9592.390264353765
 20
3170.943682177906
 30
0.0
 11
9013.8931664498
 21
3170.943682177906
 31
0.0
  0
MTEXT
  5
14AA2
102
{ACAD_REACTORS
330
14AA3
102
}
330
747D
100
AcDbEntity
  8
寸法
 62
     7
 48
50.0
100
AcDbMText
 10
9518.448270542489
 20
2670.200827322038
 30
0.0
 40
90.0
 41
0.0
 71
     4
 72
     1
  1
\A1;ｶﾝｻﾞｼ
  7
STYLE1
 73
     1
 44
1.0
1001
ACAD
1000
MTEXTBEGIN
1070
    73
1070
     1
1070
    44
1040
1.0
1070
    74
1070
     0
1000
MTEXTEND
  0
LEADER
  5
14AA3
330
747D
100
AcDbEntity
  8
寸法
 48
50.0
100
AcDbLeader
  3
INABA_S30G詳細用20
 73
     0
 74
     0
 40
90.0
 41
234.0000000000001
 76
     2
 10
8935.309336270458
 20
2468.155748320804
 30
0.0
 10
9493.426892952419
 20
2610.919032717891
 30
0.0
1001
ACAD
1000
DSTYLE
1002
{
1070
   341
1005
146B1
1002
}
  0
LINE
  5
14AA4
330
747D
100
AcDbEntity
  8
部品1
 48
50.0
100
AcDbLine
 10
9037.309336270457
 20
3105.602601503321
 30
0.0
 11
9648.512124160101
 21
3105.602601503321
 31
0.0
  0
LINE
  5
14AA5
330
747D
100
AcDbEntity
  8
部品1
 48
50.0
100
AcDbLine
 10
8995.309336270459
 20
2955.602601503321
 30
0.0
 11
9648.512124160101
 21
2955.602601503321
 31
0.0
  0
LINE
  5
14AA6
330
747D
100
AcDbEntity
  8
部品1
 48
50.0
100
AcDbLine
 10
9460.309336270467
 20
2805.602601503322
 30
0.0
 11
9648.512124160101
 21
2805.602601503322
 31
0.0
  0
LINE
  5
14AA7
330
747D
100
AcDbEntity
  8
細線
 48
50.0
100
AcDbLine
 10
9535.574050648074
 20
2805.602601503322
 30
0.0
 11
9590.169585788004
 21
2955.602601503321
 31
0.0
  0
DIMENSION
  5
14AA8
330
747D
100
AcDbEntity
  8
寸法
 48
50.0
100
AcDbDimension
  2
*D42
 10
9962.701507742412
 20
2355.655748320803
 30
0.0
 11
9962.701507742412
 21
2693.129174912063
 31
0.0
 70
   160
 71
     5
 42
449.9645688108443
  3
INABA_S30G詳細用20
100
AcDbAlignedDimension
 13
9814.497555052382
 23
3030.602601503322
 33
0.0
 14
8975.309336270459
 24
2355.655748320804
 34
0.0
 50
90.0
100
AcDbRotatedDimension
  0
LINE
  5
14AA9
330
747D
100
AcDbEntity
  8
細線
 48
50.0
100
AcDbLine
 10
8875.58558465235
 20
2206.155748320803
 30
0.0
 11
8782.085584652351
 21
2299.655748320803
 31
0.0
  0
LINE
  5
14AAA
330
747D
100
AcDbEntity
  8
細線
 48
50.0
100
AcDbLine
 10
8893.404675538262
 20
2206.155748320803
 30
0.0
 11
8799.904675538261
 21
2299.655748320804
 31
0.0
  0
LINE
  5
14AAB
330
747D
100
AcDbEntity
  8
細線
 48
50.0
100
AcDbLine
 10
8911.22376642413
 20
2206.155748320803
 30
0.0
 11
8817.723766424135
 21
2299.655748320803
 31
0.0
  0
LINE
  5
14AAC
330
747D
100
AcDbEntity
  8
細線
 48
50.0
100
AcDbLine
 10
9113.173463131024
 20
2206.155748320803
 30
0.0
 11
9019.673463131026
 21
2299.655748320804
 31
0.0
  0
LINE
  5
14AAD
330
747D
100
AcDbEntity
  8
細線
 48
50.0
100
AcDbLine
 10
9130.99255401693
 20
2206.155748320803
 30
0.0
 11
9037.492554016928
 21
2299.655748320804
 31
0.0
  0
LINE
  5
14AAE
330
747D
100
AcDbEntity
  8
細線
 48
50.0
100
AcDbLine
 10
9350.761341609711
 20
2206.155748320803
 30
0.0
 11
9257.26134160971
 21
2299.655748320805
 31
0.0
  0
LINE
  5
14AAF
330
747D
100
AcDbEntity
  8
細線
 48
50.0
100
AcDbLine
 10
9368.580432495623
 20
2206.155748320803
 30
0.0
 11
9275.080432495615
 21
2299.655748320805
 31
0.0
  0
LINE
  5
14AB0
330
747D
100
AcDbEntity
  8
細線
 48
50.0
100
AcDbLine
 10
9386.39952338152
 20
2206.155748320803
 30
0.0
 11
9282.934336270461
 21
2309.620935431861
 31
0.0
  0
LINE
  5
14AB1
330
747D
100
AcDbEntity
  8
細線
 48
50.0
100
AcDbLine
 10
9148.811644902817
 20
2206.155748320803
 30
0.0
 11
9055.311644902817
 21
2299.655748320804
 31
0.0
  0
LINE
  5
14AB2
330
747D
100
AcDbEntity
  8
細線
 48
50.0
100
AcDbLine
 10
9460.30933627046
 20
2369.833813910525
 30
0.0
 11
8995.309336270461
 21
2834.833813910544
 31
0.0
  0
LINE
  5
14AB3
330
747D
100
AcDbEntity
  8
細線
 48
50.0
100
AcDbLine
 10
9460.30933627046
 20
2352.014723024637
 30
0.0
 11
8995.309336270461
 21
2817.014723024639
 31
0.0
  0
LINE
  5
14AB4
330
747D
100
AcDbEntity
  8
細線
 48
50.0
100
AcDbLine
 10
9460.30933627046
 20
2334.195632138746
 30
0.0
 11
8995.309336270461
 21
2799.195632138737
 31
0.0
  0
LINE
  5
14AB5
330
747D
100
AcDbEntity
  8
部品1
 48
50.0
100
AcDbLine
 10
8410.30933627046
 20
2955.602601503321
 30
0.0
 11
8410.30933627046
 21
2206.155748320803
 31
0.0
  0
LINE
  5
14AB6
330
747D
100
AcDbEntity
  8
部品1
 48
50.0
100
AcDbLine
 10
9460.309336270459
 20
2206.155748320803
 30
0.0
 11
9460.309336270467
 21
2955.602601503321
 31
0.0
  0
LINE
  5
14AB7
330
747D
100
AcDbEntity
  8
部品1
 48
50.0
100
AcDbLine
 10
8587.684336270459
 20
2299.655748320803
 30
0.0
 11
9282.934336270459
 21
2299.655748320805
 31
0.0
  0
LINE
  5
14AB8
330
747D
100
AcDbEntity
  8
部品1
 48
50.0
100
AcDbLine
 10
8587.684336270459
 20
2316.455748320805
 30
0.0
 11
9282.934336270459
 21
2316.455748320807
 31
0.0
  0
LINE
  5
14AB9
330
747D
100
AcDbEntity
  8
部品1
 48
50.0
100
AcDbLine
 10
8875.309336270458
 20
2355.655748320804
 30
0.0
 11
8995.309336270459
 21
2355.655748320804
 31
0.0
  0
LINE
  5
14ABA
330
747D
100
AcDbEntity
  8
細線
 48
50.0
100
AcDbLine
 10
8945.809336270462
 20
2005.155748320804
 30
0.0
 11
8991.669585788002
 21
2131.155748320804
 31
0.0
  0
LINE
  5
14ABB
330
747D
100
AcDbEntity
  8
細線
 48
50.0
100
AcDbLine
 10
8525.809336270462
 20
2005.155748320804
 30
0.0
 11
8571.669585788002
 21
2131.155748320804
 31
0.0
  0
LINE
  5
14ABC
330
747D
100
AcDbEntity
  8
細線
 48
50.0
100
AcDbLine
 10
8861.809336270463
 20
2005.155748320804
 30
0.0
 11
8907.669585788003
 21
2131.155748320804
 31
0.0
  0
LINE
  5
14ABD
330
747D
100
AcDbEntity
  8
細線
 48
50.0
100
AcDbLine
 10
8693.809336270462
 20
2005.155748320804
 30
0.0
 11
8739.669585788002
 21
2131.155748320804
 31
0.0
  0
LINE
  5
14ABE
330
747D
100
AcDbEntity
  8
細線
 48
50.0
100
AcDbLine
 10
8609.809336270462
 20
2005.155748320804
 30
0.0
 11
8655.669585788002
 21
2131.155748320804
 31
0.0
  0
LINE
  5
14ABF
330
747D
100
AcDbEntity
  8
細線
 48
50.0
100
AcDbLine
 10
8777.809336270463
 20
2005.155748320804
 30
0.0
 11
8823.669585788001
 21
2131.155748320804
 31
0.0
  0
LINE
  5
14AC0
330
747D
100
AcDbEntity
  8
細線
 48
50.0
100
AcDbLine
 10
8533.452711190051
 20
2026.155748320803
 30
0.0
 11
8542.609336270462
 21
2005.155748320804
 31
0.0
  0
LINE
  5
14AC1
330
747D
100
AcDbEntity
  8
細線
 48
50.0
100
AcDbLine
 10
8701.452711190052
 20
2026.155748320803
 30
0.0
 11
8710.609336270461
 21
2005.155748320804
 31
0.0
  0
LINE
  5
14AC2
330
747D
100
AcDbEntity
  8
細線
 48
50.0
100
AcDbLine
 10
8617.452711190052
 20
2026.155748320803
 30
0.0
 11
8626.60933627046
 21
2005.155748320804
 31
0.0
  0
LINE
  5
14AC3
330
747D
100
AcDbEntity
  8
細線
 48
50.0
100
AcDbLine
 10
8785.452711190051
 20
2026.155748320803
 30
0.0
 11
8794.609336270461
 21
2005.155748320804
 31
0.0
  0
LINE
  5
14AC4
330
747D
100
AcDbEntity
  8
細線
 48
50.0
100
AcDbLine
 10
8953.452711190051
 20
2026.155748320803
 30
0.0
 11
8962.609336270462
 21
2005.155748320804
 31
0.0
  0
LINE
  5
14AC5
330
747D
100
AcDbEntity
  8
細線
 48
50.0
100
AcDbLine
 10
8869.452711190051
 20
2026.155748320803
 30
0.0
 11
8878.609336270463
 21
2005.155748320804
 31
0.0
  0
LINE
  5
14AC6
330
747D
100
AcDbEntity
  8
細線
 48
50.0
100
AcDbLine
 10
8662.935094503271
 20
2206.155748320803
 30
0.0
 11
8587.93509450327
 21
2131.155748320804
 31
0.0
  0
LINE
  5
14AC7
330
747D
100
AcDbEntity
  8
細線
 48
50.0
100
AcDbLine
 10
8645.116003617365
 20
2206.155748320803
 30
0.0
 11
8570.116003617366
 21
2131.155748320804
 31
0.0
  0
LINE
  5
14AC8
330
747D
100
AcDbEntity
  8
細線
 48
50.0
100
AcDbLine
 10
8554.869585787999
 20
2131.155748320804
 30
0.0
 11
8564.02621086841
 21
2110.155748320804
 31
0.0
  0
LINE
  5
14AC9
330
747D
100
AcDbEntity
  8
細線
 48
50.0
100
AcDbLine
 10
8680.754185389165
 20
2206.155748320803
 30
0.0
 11
8605.754185389169
 21
2131.155748320804
 31
0.0
  0
LINE
  5
14ACA
330
747D
100
AcDbEntity
  8
細線
 48
50.0
100
AcDbLine
 10
8638.869585787999
 20
2131.155748320804
 30
0.0
 11
8648.026210868408
 21
2110.155748320804
 31
0.0
  0
LINE
  5
14ACB
330
747D
100
AcDbEntity
  8
部品1
 48
50.0
100
AcDbLine
 10
8587.684336270459
 20
2299.655748320805
 30
0.0
 11
8587.684336270459
 21
2316.455748320805
 31
0.0
  0
CIRCLE
  5
14ACC
330
747D
100
AcDbEntity
  8
部品1
 48
5.0
100
AcDbCircle
 10
8611.309336270466
 20
2324.855748320806
 30
0.0
 40
8.4
  0
LINE
  5
14ACD
330
747D
100
AcDbEntity
  8
細線
 48
50.0
100
AcDbLine
 10
8918.342063867845
 20
2206.155748320803
 30
0.0
 11
8843.342063867845
 21
2131.155748320804
 31
0.0
  0
LINE
  5
14ACE
330
747D
100
AcDbEntity
  8
細線
 48
50.0
100
AcDbLine
 10
8882.703882096043
 20
2206.155748320803
 30
0.0
 11
8807.703882096042
 21
2131.155748320804
 31
0.0
  0
LINE
  5
14ACF
330
747D
100
AcDbEntity
  8
細線
 48
50.0
100
AcDbLine
 10
8900.522972981947
 20
2206.155748320803
 30
0.0
 11
8825.522972981946
 21
2131.155748320804
 31
0.0
  0
LINE
  5
14AD0
330
747D
100
AcDbEntity
  8
細線
 48
50.0
100
AcDbLine
 10
8806.869585788
 20
2131.155748320804
 30
0.0
 11
8816.026210868409
 21
2110.155748320804
 31
0.0
  0
LINE
  5
14AD1
330
747D
100
AcDbEntity
  8
細線
 48
50.0
100
AcDbLine
 10
8722.869585788
 20
2131.155748320804
 30
0.0
 11
8732.02621086841
 21
2110.155748320804
 31
0.0
  0
LINE
  5
14AD2
330
747D
100
AcDbEntity
  8
細線
 48
50.0
100
AcDbLine
 10
8890.869585787999
 20
2131.155748320804
 30
0.0
 11
8900.026210868409
 21
2110.155748320804
 31
0.0
  0
CIRCLE
  5
14AD3
330
747D
100
AcDbEntity
  8
部品1
 48
5.0
100
AcDbCircle
 10
8827.309336270465
 20
2324.855748320806
 30
0.0
 40
8.4
  0
CIRCLE
  5
14AD4
330
747D
100
AcDbEntity
  8
部品1
 48
50.0
100
AcDbCircle
 10
8935.309336270458
 20
2468.155748320804
 30
0.0
 40
8.4
  0
LINE
  5
14AD5
330
747D
100
AcDbEntity
  8
細線
 48
50.0
100
AcDbLine
 10
9281.809336270463
 20
2005.155748320804
 30
0.0
 11
9327.669585788003
 21
2131.155748320804
 31
0.0
  0
LINE
  5
14AD6
330
747D
100
AcDbEntity
  8
細線
 48
50.0
100
AcDbLine
 10
9197.809336270463
 20
2005.155748320804
 30
0.0
 11
9243.669585788003
 21
2131.155748320804
 31
0.0
  0
LINE
  5
14AD7
330
747D
100
AcDbEntity
  8
細線
 48
50.0
100
AcDbLine
 10
9113.809336270461
 20
2005.155748320804
 30
0.0
 11
9159.669585788002
 21
2131.155748320804
 31
0.0
  0
LINE
  5
14AD8
330
747D
100
AcDbEntity
  8
細線
 48
50.0
100
AcDbLine
 10
9029.809336270462
 20
2005.155748320804
 30
0.0
 11
9075.669585788002
 21
2131.155748320804
 31
0.0
  0
LINE
  5
14AD9
330
747D
100
AcDbEntity
  8
細線
 48
50.0
100
AcDbLine
 10
9205.452711190051
 20
2026.155748320803
 30
0.0
 11
9214.609336270461
 21
2005.155748320804
 31
0.0
  0
LINE
  5
14ADA
330
747D
100
AcDbEntity
  8
細線
 48
50.0
100
AcDbLine
 10
9037.452711190052
 20
2026.155748320803
 30
0.0
 11
9046.609336270462
 21
2005.155748320804
 31
0.0
  0
LINE
  5
14ADB
330
747D
100
AcDbEntity
  8
細線
 48
50.0
100
AcDbLine
 10
9121.452711190052
 20
2026.155748320803
 30
0.0
 11
9130.609336270461
 21
2005.155748320804
 31
0.0
  0
LINE
  5
14ADC
330
747D
100
AcDbEntity
  8
細線
 48
50.0
100
AcDbLine
 10
9289.452711190051
 20
2026.155748320803
 30
0.0
 11
9298.609336270462
 21
2005.155748320804
 31
0.0
  0
LINE
  5
14ADD
330
747D
100
AcDbEntity
  8
細線
 48
50.0
100
AcDbLine
 10
9155.929942346523
 20
2206.155748320803
 30
0.0
 11
9080.929942346521
 21
2131.155748320804
 31
0.0
  0
LINE
  5
14ADE
330
747D
100
AcDbEntity
  8
細線
 48
50.0
100
AcDbLine
 10
9138.110851460622
 20
2206.155748320803
 30
0.0
 11
9063.110851460622
 21
2131.155748320804
 31
0.0
  0
LINE
  5
14ADF
330
747D
100
AcDbEntity
  8
細線
 48
50.0
100
AcDbLine
 10
9120.291760574719
 20
2206.155748320803
 30
0.0
 11
9045.291760574718
 21
2131.155748320804
 31
0.0
  0
LINE
  5
14AE0
330
747D
100
AcDbEntity
  8
細線
 48
50.0
100
AcDbLine
 10
9058.869585788
 20
2131.155748320804
 30
0.0
 11
9068.026210868408
 21
2110.155748320804
 31
0.0
  0
LINE
  5
14AE1
330
747D
100
AcDbEntity
  8
細線
 48
50.0
100
AcDbLine
 10
8974.869585787999
 20
2131.155748320804
 30
0.0
 11
8984.026210868409
 21
2110.155748320804
 31
0.0
  0
LINE
  5
14AE2
330
747D
100
AcDbEntity
  8
細線
 48
50.0
100
AcDbLine
 10
9142.869585788
 20
2131.155748320804
 30
0.0
 11
9152.02621086841
 21
2110.155748320804
 31
0.0
  0
CIRCLE
  5
14AE3
330
747D
100
AcDbEntity
  8
部品1
 48
5.0
100
AcDbCircle
 10
9043.309336270466
 20
2324.855748320806
 30
0.0
 40
8.4
  0
LINE
  5
14AE4
330
747D
100
AcDbEntity
  8
細線
 48
50.0
100
AcDbLine
 10
9393.517820825199
 20
2206.155748320803
 30
0.0
 11
9318.517820825197
 21
2131.155748320804
 31
0.0
  0
LINE
  5
14AE5
330
747D
100
AcDbEntity
  8
細線
 48
50.0
100
AcDbLine
 10
9375.698729939299
 20
2206.155748320803
 30
0.0
 11
9300.698729939298
 21
2131.155748320804
 31
0.0
  0
LINE
  5
14AE6
330
747D
100
AcDbEntity
  8
細線
 48
50.0
100
AcDbLine
 10
9357.879639053397
 20
2206.155748320803
 30
0.0
 11
9282.879639053396
 21
2131.155748320804
 31
0.0
  0
LINE
  5
14AE7
330
747D
100
AcDbEntity
  8
細線
 48
50.0
100
AcDbLine
 10
9310.869585787999
 20
2131.155748320804
 30
0.0
 11
9320.026210868411
 21
2110.155748320804
 31
0.0
  0
LINE
  5
14AE8
330
747D
100
AcDbEntity
  8
細線
 48
50.0
100
AcDbLine
 10
9226.869585788
 20
2131.155748320804
 30
0.0
 11
9236.026210868409
 21
2110.155748320804
 31
0.0
  0
LINE
  5
14AE9
330
747D
100
AcDbEntity
  8
部品1
 48
50.0
100
AcDbLine
 10
9282.934336270459
 20
2299.655748320803
 30
0.0
 11
9282.934336270459
 21
2316.455748320807
 31
0.0
  0
CIRCLE
  5
14AEA
330
747D
100
AcDbEntity
  8
部品1
 48
5.0
100
AcDbCircle
 10
9259.309336270467
 20
2324.855748320806
 30
0.0
 40
8.4
  0
LINE
  5
14AEB
330
747D
100
AcDbEntity
  8
細線
 48
50.0
100
AcDbLine
 10
8875.309336270458
 20
2681.607753660062
 30
0.0
 11
8601.314488427203
 21
2955.602601503321
 31
0.0
  0
LINE
  5
14AEC
330
747D
100
AcDbEntity
  8
細線
 48
50.0
100
AcDbLine
 10
8875.30933627046
 20
2699.426844545961
 30
0.0
 11
8619.133579313098
 21
2955.602601503321
 31
0.0
  0
LINE
  5
14AED
330
747D
100
AcDbEntity
  8
細線
 48
50.0
100
AcDbLine
 10
8875.30933627046
 20
2717.245935431859
 30
0.0
 11
8636.952670199001
 21
2955.602601503321
 31
0.0
  0
LINE
  5
14AEE
330
747D
100
AcDbEntity
  8
細線
 48
50.0
100
AcDbLine
 10
8875.309336270458
 20
2919.195632138741
 30
0.0
 11
8838.902366905877
 21
2955.602601503321
 31
0.0
  0
LINE
  5
14AEF
330
747D
100
AcDbEntity
  8
細線
 48
50.0
100
AcDbLine
 10
8388.914688896564
 20
2826.327994483168
 30
0.0
 11
8397.951577142299
 21
2805.602601503322
 31
0.0
  0
LINE
  5
14AF0
330
747D
100
AcDbEntity
  8
細線
 48
50.0
100
AcDbLine
 10
8381.371262758431
 20
2805.602601503322
 30
0.0
 11
8410.309336270456
 21
2885.109305040131
 31
0.0
  0
LINE
  5
14AF1
330
747D
100
AcDbEntity
  8
細線
 48
50.0
100
AcDbLine
 10
8683.188730194398
 20
2955.602601503321
 30
0.0
 11
8833.188730194398
 21
3105.602601503321
 31
0.0
  0
LINE
  5
14AF2
330
747D
100
AcDbEntity
  8
細線
 48
50.0
100
AcDbLine
 10
8463.419942601616
 20
2955.602601503321
 30
0.0
 11
8613.419942601614
 21
3105.602601503321
 31
0.0
  0
LINE
  5
14AF3
330
747D
100
AcDbEntity
  8
細線
 48
50.0
100
AcDbLine
 10
8481.239033487518
 20
2955.602601503321
 30
0.0
 11
8631.239033487515
 21
3105.602601503321
 31
0.0
  0
LINE
  5
14AF4
330
747D
100
AcDbEntity
  8
細線
 48
50.0
100
AcDbLine
 10
8718.826911966196
 20
2955.602601503321
 30
0.0
 11
8875.30933627046
 21
3112.085025807582
 31
0.0
  0
LINE
  5
14AF5
330
747D
100
AcDbEntity
  8
細線
 48
50.0
100
AcDbLine
 10
8701.007821080297
 20
2955.602601503321
 30
0.0
 11
8872.007821080291
 21
3126.602601503321
 31
0.0
  0
LINE
  5
14AF6
330
747D
100
AcDbEntity
  8
細線
 48
50.0
100
AcDbLine
 10
8875.309336270458
 20
2937.014723024644
 30
0.0
 11
8856.721457791781
 21
2955.602601503321
 31
0.0
  0
LINE
  5
14AF7
330
747D
100
AcDbEntity
  8
細線
 48
50.0
100
AcDbLine
 10
8875.309336270458
 20
2954.83381391054
 30
0.0
 11
8874.540548677677
 21
2955.60260150332
 31
0.0
  0
LINE
  5
14AF8
330
747D
100
AcDbEntity
  8
部品1
 48
50.0
100
AcDbLine
 10
8854.309336270462
 20
3126.602601503321
 30
0.0
 11
8875.30933627046
 21
3126.602601503321
 31
0.0
  0
LINE
  5
14AF9
330
747D
100
AcDbEntity
  8
部品1
 48
50.0
100
AcDbLine
 10
8854.309336270459
 20
3126.602601503321
 30
0.0
 11
8833.309336270458
 21
3105.602601503321
 31
0.0
  0
LINE
  5
14AFA
330
747D
100
AcDbEntity
  8
細線
 48
50.0
100
AcDbLine
 10
9460.309336270466
 20
2829.602601503335
 30
0.0
 11
9506.169585788004
 21
2955.602601503321
 31
0.0
  0
LINE
  5
14AFB
330
747D
100
AcDbEntity
  8
細線
 48
50.0
100
AcDbLine
 10
9460.309336270466
 20
2607.421692389225
 30
0.0
 11
9112.128427156363
 21
2955.602601503321
 31
0.0
  0
LINE
  5
14AFC
330
747D
100
AcDbEntity
  8
細線
 48
50.0
100
AcDbLine
 10
9460.309336270462
 20
2589.602601503327
 30
0.0
 11
9094.309336270461
 21
2955.602601503321
 31
0.0
  0
LINE
  5
14AFD
330
747D
100
AcDbEntity
  8
細線
 48
50.0
100
AcDbLine
 10
9460.309336270466
 20
2571.783510617404
 30
0.0
 11
9076.490245384562
 21
2955.602601503321
 31
0.0
  0
LINE
  5
14AFE
330
747D
100
AcDbEntity
  8
細線
 48
50.0
100
AcDbLine
 10
9180.864487151758
 20
2955.602601503321
 30
0.0
 11
9330.864487151757
 21
3105.602601503321
 31
0.0
  0
LINE
  5
14AFF
330
747D
100
AcDbEntity
  8
細線
 48
50.0
100
AcDbLine
 10
9198.683578037659
 20
2955.602601503322
 30
0.0
 11
9348.683578037656
 21
3105.602601503321
 31
0.0
  0
LINE
  5
14B00
330
747D
100
AcDbEntity
  8
細線
 48
50.0
100
AcDbLine
 10
8995.309336270461
 20
3007.635329100708
 30
0.0
 11
9093.27660867307
 21
3105.602601503321
 31
0.0
  0
LINE
  5
14B01
330
747D
100
AcDbEntity
  8
細線
 48
50.0
100
AcDbLine
 10
8995.309336270459
 20
2989.816238214808
 30
0.0
 11
9111.095699558971
 21
3105.602601503321
 31
0.0
  0
LINE
  5
14B02
330
747D
100
AcDbEntity
  8
細線
 48
50.0
100
AcDbLine
 10
8995.309336270459
 20
2971.997147328908
 30
0.0
 11
9128.914790444872
 21
3105.602601503321
 31
0.0
  0
LINE
  5
14B03
330
747D
100
AcDbEntity
  8
部品1
 48
50.0
100
AcDbLine
 10
8995.309336270459
 20
3126.602601503321
 30
0.0
 11
9016.309336270458
 21
3126.602601503321
 31
0.0
  0
LINE
  5
14B04
330
747D
100
AcDbEntity
  8
部品1
 48
50.0
100
AcDbLine
 10
9016.309336270465
 20
3126.602601503321
 30
0.0
 11
9037.309336270459
 21
3105.602601503321
 31
0.0
  0
LINE
  5
14B05
330
747D
100
AcDbEntity
  8
細線
 48
50.0
100
AcDbLine
 10
9216.502668923558
 20
2955.602601503321
 30
0.0
 11
9366.502668923558
 21
3105.602601503321
 31
0.0
  0
LINE
  5
14B06
330
747D
100
AcDbEntity
  8
細線
 48
50.0
100
AcDbLine
 10
9489.369585788002
 20
2955.602601503321
 30
0.0
 11
9498.526210868416
 21
2934.60260150332
 31
0.0
  0
DIMENSION
  5
14B07
330
747D
100
AcDbEntity
  8
寸法
 48
50.0
100
AcDbDimension
  2
*D43
 10
10120.01793660162
 20
2206.155748320803
 30
0.0
 11
10045.01793660162
 21
2618.379174912064
 31
0.0
 70
    32
 71
     5
 42
549.6312354824943
  3
INABA_S30G詳細用20
100
AcDbAlignedDimension
 13
9814.497555052382
 23
3030.602601503322
 33
0.0
 14
9580.30933627046
 24
2206.155748320803
 34
0.0
 50
90.0
100
AcDbRotatedDimension
  0
DIMENSION
  5
14B08
330
747D
100
AcDbEntity
  8
寸法
 48
50.0
100
AcDbDimension
  2
*D44
 10
10120.01793660162
 20
2131.155748320804
 30
0.0
 11
10120.01793660162
 21
1951.453090840491
 31
0.0
 70
   160
 71
     5
 42
50.00000000249969
  3
INABA_S30G詳細用20
100
AcDbAlignedDimension
 13
9580.30933627046
 23
2206.155748320803
 33
0.0
 14
9580.309336270458
 24
2131.155748320804
 34
0.0
 50
90.0
100
AcDbRotatedDimension
  0
LINE
  5
14B09
330
747D
100
AcDbEntity
  8
部品1
 48
50.0
100
AcDbLine
 10
9580.30933627046
 20
2005.155748320804
 30
0.0
 11
9580.309336270458
 21
2206.155748320803
 31
0.0
  0
LINE
  5
14B0A
330
747D
100
AcDbEntity
  8
細線
 48
50.0
100
AcDbLine
 10
9703.57405064808
 20
2805.602601503322
 30
0.0
 11
9758.169585788005
 21
2955.602601503321
 31
0.0
  0
LINE
  5
14B0B
330
747D
100
AcDbEntity
  8
細線
 48
50.0
100
AcDbLine
 10
9787.574050648075
 20
2805.602601503322
 30
0.0
 11
9842.169585788004
 21
2955.602601503321
 31
0.0
  0
LINE
  5
14B0C
330
747D
100
AcDbEntity
  8
部品1
 48
50.0
100
AcDbLine
 10
9672.512124160101
 20
3126.817089598731
 30
0.0
 11
9672.512124160103
 21
2764.721447307096
 31
0.0
  0
LINE
  5
14B0D
330
747D
100
AcDbEntity
  8
部品1
 48
50.0
100
AcDbLine
 10
9648.512124160101
 20
3126.817089598731
 30
0.0
 11
9648.512124160101
 21
2764.721447307096
 31
0.0
  0
LINE
  5
14B0E
330
747D
100
AcDbEntity
  8
部品1
 48
50.0
100
AcDbLine
 10
9672.512124160101
 20
2805.602601503322
 30
0.0
 11
9855.005894694926
 21
2805.602601503322
 31
0.0
  0
LINE
  5
14B0F
330
747D
100
AcDbEntity
  8
細線
 48
50.0
100
AcDbLine
 10
9619.574050648083
 20
2805.602601503322
 30
0.0
 11
9648.512124160101
 21
2885.109305040131
 31
0.0
  0
LINE
  5
14B10
330
747D
100
AcDbEntity
  8
細線
 48
50.0
100
AcDbLine
 10
9737.590547402245
 20
2955.602601503321
 30
0.0
 11
9814.49755505238
 21
3032.509609153459
 31
0.0
  0
LINE
  5
14B11
330
747D
100
AcDbEntity
  8
部品1
 48
50.0
100
AcDbLine
 10
9814.497555052382
 20
3070.40260150332
 30
0.0
 11
9789.297555052385
 21
3095.60260150332
 31
0.0
  0
LINE
  5
14B12
330
747D
100
AcDbEntity
  8
部品1
 48
50.0
100
AcDbLine
 10
9672.512124160101
 20
2955.602601503321
 30
0.0
 11
9855.005894694929
 21
2955.602601503321
 31
0.0
  0
LINE
  5
14B13
330
747D
100
AcDbEntity
  8
部品1
 48
50.0
100
AcDbLine
 10
9672.512124160101
 20
3098.602601503321
 30
0.0
 11
9789.297555052385
 21
3095.60260150332
 31
0.0
  0
LINE
  5
14B14
330
747D
100
AcDbEntity
  8
細線
 48
50.0
100
AcDbLine
 10
9573.369585788
 20
2955.602601503321
 30
0.0
 11
9582.526210868413
 21
2934.60260150332
 31
0.0
  0
LINE
  5
14B15
330
747D
100
AcDbEntity
  8
細線
 48
50.0
100
AcDbLine
 10
9672.512124160101
 20
2951.048763107045
 30
0.0
 11
9674.169585788005
 21
2955.602601503321
 31
0.0
  0
LINE
  5
14B16
330
747D
100
AcDbEntity
  8
細線
 48
50.0
100
AcDbLine
 10
9741.369585788001
 20
2955.602601503321
 30
0.0
 11
9750.526210868414
 21
2934.602601503322
 31
0.0
  0
LINE
  5
14B17
330
747D
100
AcDbEntity
  8
細線
 48
50.0
100
AcDbLine
 10
9701.952365630445
 20
2955.602601503321
 30
0.0
 11
9814.497555052382
 21
3068.147790925258
 31
0.0
  0
LINE
  5
14B18
330
747D
100
AcDbEntity
  8
細線
 48
50.0
100
AcDbLine
 10
9719.771456516347
 20
2955.602601503322
 30
0.0
 11
9814.497555052382
 21
3050.328700039353
 31
0.0
  0
LINE
  5
14B19
330
747D
100
AcDbEntity
  8
文字
 48
50.0
100
AcDbLine
 10
9592.390264353765
 20
3170.943682177906
 30
0.0
 11
9523.739046488632
 21
3189.338720564283
 31
0.0
  0
LINE
  5
14B1A
330
747D
100
AcDbEntity
  8
文字
 48
50.0
100
AcDbLine
 10
9592.390264353765
 20
3170.943682177906
 30
0.0
 11
9523.739046488632
 21
3152.548643791531
 31
0.0
  0
LINE
  5
14B1B
330
747D
100
AcDbEntity
  8
細線
 48
50.0
100
AcDbLine
 10
9825.369585788003
 20
2955.602601503321
 30
0.0
 11
9834.526210868416
 21
2934.60260150332
 31
0.0
  0
LINE
  5
14B1C
330
747D
100
AcDbEntity
  8
部品1
 48
50.0
100
AcDbLine
 10
9814.497555052382
 20
3070.402601503318
 30
0.0
 11
9814.497555052382
 21
2955.602601503321
 31
0.0
  0
TEXT
  5
14B1D
330
747D
100
AcDbEntity
  8
文字
 48
50.0
100
AcDbText
 10
8494.960295920774
 20
3329.106969457704
 30
0.0
 40
72.0
  1
水勾配
 41
0.8
  7
STYLE1
100
AcDbText
  0
TEXT
  5
14B1E
330
747D
100
AcDbEntity
  8
文字
 48
50.0
100
AcDbText
 10
9064.938991442787
 20
3329.106969457704
 30
0.0
 40
72.0
  1
水勾配
 41
0.8
  7
STYLE1
100
AcDbText
  0
LINE
  5
14B1F
330
747D
100
AcDbEntity
  8
文字
 48
50.0
100
AcDbLine
 10
9462.821484594153
 20
4518.489493800728
 30
0.0
 11
9462.821484594153
 21
4339.989493800727
 31
0.0
  0
LINE
  5
14B20
330
747D
100
AcDbEntity
  8
文字
 48
50.0
100
AcDbLine
 10
8429.437713960631
 20
4518.489493800728
 30
0.0
 11
8429.437713960631
 21
4339.989493800727
 31
0.0
  0
TEXT
  5
14B21
330
747D
100
AcDbEntity
  8
文字
 62
     7
 48
50.0
100
AcDbText
 10
8482.705559890804
 20
4385.976326579426
 30
0.0
 40
90.0
  1
Ａ-Ａ' 断面 1/20
  7
STYLE2
100
AcDbText
  0
LINE
  5
14B22
330
747D
100
AcDbEntity
  8
文字
 48
50.0
100
AcDbLine
 10
8429.437713960631
 20
4339.989493800727
 30
0.0
 11
9462.821484594154
 21
4339.989493800727
 31
0.0
  0
LINE
  5
14B23
330
747D
100
AcDbEntity
  8
文字
 48
50.0
100
AcDbLine
 10
8429.437713960631
 20
4518.489493800728
 30
0.0
 11
9462.821484594154
 21
4518.489493800728
 31
0.0
  0
LINE
  5
14B24
330
747D
100
AcDbEntity
  8
文字
 48
50.0
100
AcDbLine
 10
8429.437713960631
 20
1359.84602608085
 30
0.0
 11
9462.821484594154
 21
1359.84602608085
 31
0.0
  0
LINE
  5
14B25
330
747D
100
AcDbEntity
  8
文字
 48
50.0
100
AcDbLine
 10
8429.437713960631
 20
1181.346026080849
 30
0.0
 11
9462.821484594154
 21
1181.34602608085
 31
0.0
  0
TEXT
  5
14B26
330
747D
100
AcDbEntity
  8
文字
 62
     7
 48
50.0
100
AcDbText
 10
8482.705559890804
 20
1227.332858859548
 30
0.0
 40
90.0
  1
Ｂ-Ｂ' 断面　1/20
  7
STYLE2
100
AcDbText
  0
LINE
  5
14B27
330
747D
100
AcDbEntity
  8
文字
 48
50.0
100
AcDbLine
 10
8429.437713960631
 20
1359.84602608085
 30
0.0
 11
8429.437713960631
 21
1181.346026080849
 31
0.0
  0
LINE
  5
14B28
330
747D
100
AcDbEntity
  8
文字
 48
50.0
100
AcDbLine
 10
9462.821484594153
 20
1359.84602608085
 30
0.0
 11
9462.821484594153
 21
1181.346026080849
 31
0.0
  0
TEXT
  5
14B29
330
747D
100
AcDbEntity
  8
文字
 62
     7
 48
50.0
100
AcDbText
 10
11138.71739229687
 20
628.6895453046891
 30
0.0
 40
75.0
  1
～一般型～
  7
STYLE2
100
AcDbText
  0
TEXT
  5
14B2A
330
747D
100
AcDbEntity
  8
文字
 62
     7
 48
50.0
100
AcDbText
 10
10951.9835159712
 20
362.922534743356
 30
0.0
 40
120.0
  1
BＹ-２８
  7
STYLE3
100
AcDbText
  0
LINE
  5
14B2B
330
747D
100
AcDbEntity
  8
仕様書枠
  6
Continuous
 48
50.0
100
AcDbLine
 10
10688.4
 20
900.0
 30
0.0
 11
10688.4
 21
600.0
 31
0.0
  0
LINE
  5
14B2C
330
747D
100
AcDbEntity
  8
仕様書枠
 48
50.0
100
AcDbLine
 10
9830.400000000002
 20
600.0
 30
0.0
 11
10688.4
 21
600.0
 31
0.0
  0
TEXT
  5
14B2D
330
747D
100
AcDbEntity
  8
文字
 62
     7
 48
50.0
100
AcDbText
 10
10893.0988779165
 20
773.6682797184214
 30
0.0
 40
75.0
  1
NO.2     <縮尺> S=1/30
  7
STYLE2
100
AcDbText
  0
TEXT
  5
14B2E
330
747D
100
AcDbEntity
  8
文字
 62
     7
 48
50.0
100
AcDbText
 10
9907.054008162901
 20
57.07076030737008
 30
0.0
 40
60.0
  1
○寒冷地等は、地域の実情に合わせた基礎にしてください。
  7
STYLE2
100
AcDbText
  0
TEXT
  5
14B2F
330
747D
100
AcDbEntity
  8
文字
 62
     7
 48
50.0
100
AcDbText
 10
9907.054008162901
 20
171.4076431926762
 30
0.0
 40
60.0
  1
○間口寸法は柱芯寸法です。
  7
STYLE2
100
AcDbText
  0
TEXT
  5
14B30
330
747D
100
AcDbEntity
  8
文字
 62
     7
 48
50.0
100
AcDbText
 10
9901.077524988313
 20
357.9555495773441
 30
0.0
 40
120.0
  1
機種名
  7
STYLE2
100
AcDbText
  0
TEXT
  5
14B31
330
747D
100
AcDbEntity
  8
文字
 62
     7
 48
50.0
100
AcDbText
 10
9872.234292432677
 20
671.3179555724553
 30
0.0
 40
150.0
  1
基 礎 図
  7
STYLE2
100
AcDbText
  0
LINE
  5
14B32
330
747D
100
AcDbEntity
  8
文字
 62
     7
 48
50.0
100
AcDbLine
 10
9890.400000000001
 20
300.0
 30
0.0
 11
12170.4
 21
300.0
 31
0.0
  0
LINE
  5
14B33
330
747D
100
AcDbEntity
  8
仕様書枠
 48
50.0
100
AcDbLine
 10
9830.400000000002
 20
900.0
 30
0.0
 11
12230.4
 21
900.0
 31
0.0
  0
LINE
  5
14B34
330
747D
100
AcDbEntity
  8
仕様書枠
 48
50.0
100
AcDbLine
 10
12230.4
 20
900.0
 30
0.0
 11
12230.4
 21
-0.0000000000000682
 31
0.0
  0
LINE
  5
14B35
330
747D
100
AcDbEntity
  8
仕様書枠
  6
Continuous
 48
50.0
100
AcDbLine
 10
9830.400000000002
 20
900.0
 30
0.0
 11
9830.400000000002
 21
-0.0000000000000547
 31
0.0
  0
ENDSEC
  0
SECTION
  2
OBJECTS
  0
DICTIONARY
  5
7471
330
0
100
AcDbDictionary
281
     1
  3
ACAD_COLOR
350
1464D
  3
ACAD_GROUP
350
7472
  3
ACAD_LAYOUT
350
1464E
  3
ACAD_MATERIAL
350
1464C
  3
ACAD_MLINESTYLE
350
7473
  3
ACAD_PLOTSETTINGS
350
1464F
  3
ACAD_PLOTSTYLENAME
350
1464A
  3
ACDBHEADERROUNDTRIPXREC
350
14D12
  3
AcDbVariableDictionary
350
14D0E
  3
CONTENTDICTIONARY
350
E71C
  3
DRAWINGVARIABLESDICT
350
F3B9
  0
DICTIONARY
  5
1464D
102
{ACAD_REACTORS
330
7471
102
}
330
7471
100
AcDbDictionary
281
     1
  0
DICTIONARY
  5
7472
102
{ACAD_REACTORS
330
7471
102
}
330
7471
100
AcDbDictionary
281
     1
  0
DICTIONARY
  5
1464E
102
{ACAD_REACTORS
330
7471
102
}
330
7471
100
AcDbDictionary
281
     1
  3
Model
350
14650
  3
レイアウト1
350
14651
  0
DICTIONARY
  5
1464C
102
{ACAD_REACTORS
330
7471
102
}
330
7471
100
AcDbDictionary
281
     1
  0
DICTIONARY
  5
7473
102
{ACAD_REACTORS
330
7471
102
}
330
7471
100
AcDbDictionary
281
     1
  3
STANDARD
350
7480
  0
DICTIONARY
  5
1464F
102
{ACAD_REACTORS
330
7471
102
}
330
7471
100
AcDbDictionary
281
     1
  0
ACDBDICTIONARYWDFLT
  5
1464A
102
{ACAD_REACTORS
330
7471
102
}
330
7471
100
AcDbDictionary
281
     1
  3
Normal
350
1464B
100
AcDbDictionaryWithDefault
340
1464B
  0
DICTIONARY
  5
14D12
102
{ACAD_REACTORS
330
7471
102
}
330
7471
100
AcDbDictionary
281
     1
  3
COLORDICT
350
14D14
  3
MATERIALDICT
350
14D13
  0
DICTIONARY
  5
14D0E
102
{ACAD_REACTORS
330
7471
102
}
330
7471
100
AcDbDictionary
281
     1
  3
DIMASSOC
350
14D0F
  3
PROJECTNAME
350
14D10
  0
DICTIONARY
  5
E71C
102
{ACAD_REACTORS
330
7471
102
}
330
7471
100
AcDbDictionary
281
     1
  0
DICTIONARY
  5
F3B9
102
{ACAD_REACTORS
330
7471
102
}
330
7471
100
AcDbDictionary
281
     1
1001
DRAWINGVARIABLESXDATA
1000
POLARMODE
1000
1
  0
LAYOUT
  5
14650
102
{ACAD_XDICTIONARY
360
14D15
102
}
102
{ACAD_REACTORS
330
1464E
102
}
330
1464E
100
AcDbPlotSettings
  1

  2
Microsoft XPS Document Writer
  4

  6

 40
0.0
 41
0.0
 42
0.0
 43
0.0
 44
0.0
 45
0.0
 46
0.0
 47
0.0
 48
0.0
 49
0.0
140
0.0
141
0.0
142
1.0
143
1.0
 70
  1712
 72
     0
 73
     0
 74
     0
  7

 75
     0
147
1.0
148
0.0
149
0.0
100
AcDbLayout
  1
Model
 70
     1
 71
     0
 10
0.0
 20
0.0
 11
12.0
 21
9.0
 12
0.0
 22
0.0
 32
0.0
 14
0.0
 24
0.0
 34
0.0
 15
0.0
 25
0.0
 35
0.0
146
0.0
 13
0.0
 23
0.0
 33
0.0
 16
1.0
 26
0.0
 36
0.0
 17
0.0
 27
1.0
 37
0.0
 76
     0
330
747D
  0
LAYOUT
  5
14651
102
{ACAD_XDICTIONARY
360
14D17
102
}
102
{ACAD_REACTORS
330
1464E
102
}
330
1464E
100
AcDbPlotSettings
  1

  2
Microsoft XPS Document Writer
  4

  6

 40
0.0
 41
0.0
 42
0.0
 43
0.0
 44
0.0
 45
0.0
 46
0.0
 47
0.0
 48
0.0
 49
0.0
140
0.0
141
0.0
142
1.0
143
1.0
 70
   688
 72
     0
 73
     0
 74
     5
  7

 75
    16
147
1.0
148
0.0
149
0.0
100
AcDbLayout
  1
レイアウト1
 70
     0
 71
     1
 10
0.0
 20
0.0
 11
420.0
 21
297.0
 12
0.0
 22
0.0
 32
0.0
 14
1.000000000000000E+20
 24
1.000000000000000E+20
 34
1.000000000000000E+20
 15
-1.000000000000000E+20
 25
-1.000000000000000E+20
 35
-1.000000000000000E+20
146
0.0
 13
0.0
 23
0.0
 33
0.0
 16
1.0
 26
0.0
 36
0.0
 17
0.0
 27
1.0
 37
0.0
 76
     0
330
747A
  0
MLINESTYLE
  5
7480
102
{ACAD_REACTORS
330
7473
102
}
330
7473
100
AcDbMlineStyle
  2
STANDARD
 70
     0
  3

 62
     0
 51
90.0
 52
90.0
 71
     2
 49
0.5
 62
   256
  6
BYLAYER
 49
-0.5
 62
   256
  6
BYLAYER
  0
ACDBPLACEHOLDER
  5
1464B
102
{ACAD_REACTORS
330
1464A
102
}
330
1464A
  0
XRECORD
  5
14D14
102
{ACAD_REACTORS
330
14D12
102
}
330
14D12
100
AcDbXrecord
280
     1
340
1464D
  0
XRECORD
  5
14D13
102
{ACAD_REACTORS
330
14D12
102
}
330
14D12
100
AcDbXrecord
280
     1
340
1464C
  0
DICTIONARYVAR
  5
14D0F
102
{ACAD_REACTORS
330
14D0E
102
}
330
14D0E
100
DictionaryVariables
280
     0
  1
1
  0
DICTIONARYVAR
  5
14D10
102
{ACAD_REACTORS
330
14D0E
102
}
330
14D0E
100
DictionaryVariables
280
     0
  1

  0
DICTIONARY
  5
14D15
330
14650
100
AcDbDictionary
280
     1
281
     1
  3
ACAD_XREC_ROUNDTRIP
360
14D16
  0
DICTIONARY
  5
14D17
330
14651
100
AcDbDictionary
280
     1
281
     1
  3
ACAD_XREC_ROUNDTRIP
360
14D18
  0
XRECORD
  5
14D16
102
{ACAD_REACTORS
330
14D15
102
}
330
14D15
100
AcDbXrecord
280
     1
102
SHADEPLOT
 70
     0
102
SHADEPLOTRESLEVEL
 70
     2
102
SHADEPLOTCUSTOMDPI
 70
   300
  0
XRECORD
  5
14D18
102
{ACAD_REACTORS
330
14D17
102
}
330
14D17
100
AcDbXrecord
280
     1
102
SHADEPLOT
 70
     0
102
SHADEPLOTRESLEVEL
 70
     2
102
SHADEPLOTCUSTOMDPI
 70
   300
  0
ENDSEC
  0
EOF
