  0
SECTION
  2
HEADER
  9
$ACADVER
  1
AC1015
  9
$ACADMAINTVER
 70
    20
  9
$DWGCODEPAGE
  3
ANSI_932
  9
$INSBASE
 10
0.0
 20
0.0
 30
0.0
  9
$EXTMIN
 10
104.3976124660112
 20
-0.5436551967941341
 30
-0.0000000000000076
  9
$EXTMAX
 10
12231.24392539175
 20
8557.455851277504
 30
0.0000000000000076
  9
$LIMMIN
 10
0.0
 20
0.0
  9
$LIMMAX
 10
12600.0
 20
8910.0
  9
$ORTHOMODE
 70
     1
  9
$REGENMODE
 70
     1
  9
$FILLMODE
 70
     1
  9
$QTEXTMODE
 70
     0
  9
$MIRRTEXT
 70
     1
  9
$LTSCALE
 40
20.0
  9
$ATTMODE
 70
     1
  9
$TEXTSIZE
 40
90.0
  9
$TRACEWID
 40
1.0
  9
$TEXTSTYLE
  7
STYLE3
  9
$CLAYER
  8
0
  9
$CELTYPE
  6
BYLAYER
  9
$CECOLOR
 62
   256
  9
$CELTSCALE
 40
50.0
  9
$DISPSILH
 70
     0
  9
$DIMSCALE
 40
30.0
  9
$DIMASZ
 40
2.5
  9
$DIMEXO
 40
0.5
  9
$DIMDLI
 40
7.0
  9
$DIMRND
 40
0.0
  9
$DIMDLE
 40
0.0
  9
$DIMEXE
 40
1.5
  9
$DIMTP
 40
0.0
  9
$DIMTM
 40
0.0
  9
$DIMTXT
 40
3.0
  9
$DIMCEN
 40
-0.1
  9
$DIMTSZ
 40
0.0
  9
$DIMTOL
 70
     0
  9
$DIMLIM
 70
     0
  9
$DIMTIH
 70
     0
  9
$DIMTOH
 70
     0
  9
$DIMSE1
 70
     0
  9
$DIMSE2
 70
     0
  9
$DIMTAD
 70
     3
  9
$DIMZIN
 70
     8
  9
$DIMBLK
  1

  9
$DIMASO
 70
     1
  9
$DIMSHO
 70
     1
  9
$DIMPOST
  1

  9
$DIMAPOST
  1

  9
$DIMALT
 70
     0
  9
$DIMALTD
 70
     2
  9
$DIMALTF
 40
0.0394
  9
$DIMLFAC
 40
1.0
  9
$DIMTOFL
 70
     1
  9
$DIMTVP
 40
0.0
  9
$DIMTIX
 70
     1
  9
$DIMSOXD
 70
     0
  9
$DIMSAH
 70
     1
  9
$DIMBLK1
  1
DOTSMALL
  9
$DIMBLK2
  1
DOTSMALL
  9
$DIMSTYLE
  2
INABA_S30G
  9
$DIMCLRD
 70
     0
  9
$DIMCLRE
 70
     0
  9
$DIMCLRT
 70
     7
  9
$DIMTFAC
 40
1.0
  9
$DIMGAP
 40
1.0
  9
$DIMJUST
 70
     0
  9
$DIMSD1
 70
     0
  9
$DIMSD2
 70
     0
  9
$DIMTOLJ
 70
     1
  9
$DIMTZIN
 70
     0
  9
$DIMALTZ
 70
     0
  9
$DIMALTTZ
 70
     0
  9
$DIMUPT
 70
     1
  9
$DIMDEC
 70
     1
  9
$DIMTDEC
 70
     4
  9
$DIMALTU
 70
     2
  9
$DIMALTTD
 70
     2
  9
$DIMTXSTY
  7
STYLE1
  9
$DIMAUNIT
 70
     0
  9
$DIMADEC
 70
     0
  9
$DIMALTRND
 40
0.0
  9
$DIMAZIN
 70
     0
  9
$DIMDSEP
 70
    46
  9
$DIMATFIT
 70
     3
  9
$DIMFRAC
 70
     0
  9
$DIMLDRBLK
  1

  9
$DIMLUNIT
 70
     2
  9
$DIMLWD
 70
    -2
  9
$DIMLWE
 70
    -2
  9
$DIMTMOVE
 70
     2
  9
$LUNITS
 70
     2
  9
$LUPREC
 70
     1
  9
$SKETCHINC
 40
1.0
  9
$FILLETRAD
 40
10.0
  9
$AUNITS
 70
     0
  9
$AUPREC
 70
     0
  9
$MENU
  1
acad
  9
$ELEVATION
 40
0.0
  9
$PELEVATION
 40
0.0
  9
$THICKNESS
 40
0.0
  9
$LIMCHECK
 70
     0
  9
$CHAMFERA
 40
0.0
  9
$CHAMFERB
 40
0.0
  9
$CHAMFERC
 40
0.0
  9
$CHAMFERD
 40
0.0
  9
$SKPOLY
 70
     0
  9
$TDCREATE
 40
2451605.424024074
  9
$TDUCREATE
 40
2451605.049024074
  9
$TDUPDATE
 40
2455091.750601123
  9
$TDUUPDATE
 40
2455091.375601123
  9
$TDINDWG
 40
0.5042460995
  9
$TDUSRTIMER
 40
0.5042460995
  9
$USRTIMER
 70
     1
  9
$ANGBASE
 50
0.0
  9
$ANGDIR
 70
     0
  9
$PDMODE
 70
     3
  9
$PDSIZE
 40
2.0
  9
$PLINEWID
 40
0.0
  9
$SPLFRAME
 70
     0
  9
$SPLINETYPE
 70
     6
  9
$SPLINESEGS
 70
     8
  9
$HANDSEED
  5
142C8
  9
$SURFTAB1
 70
     6
  9
$SURFTAB2
 70
     6
  9
$SURFTYPE
 70
     6
  9
$SURFU
 70
     6
  9
$SURFV
 70
     6
  9
$UCSBASE
  2

  9
$UCSNAME
  2

  9
$UCSORG
 10
0.0
 20
0.0
 30
0.0
  9
$UCSXDIR
 10
1.0
 20
0.0
 30
0.0
  9
$UCSYDIR
 10
0.0
 20
1.0
 30
0.0
  9
$UCSORTHOREF
  2

  9
$UCSORTHOVIEW
 70
     0
  9
$UCSORGTOP
 10
0.0
 20
0.0
 30
0.0
  9
$UCSORGBOTTOM
 10
0.0
 20
0.0
 30
0.0
  9
$UCSORGLEFT
 10
0.0
 20
0.0
 30
0.0
  9
$UCSORGRIGHT
 10
0.0
 20
0.0
 30
0.0
  9
$UCSORGFRONT
 10
0.0
 20
0.0
 30
0.0
  9
$UCSORGBACK
 10
0.0
 20
0.0
 30
0.0
  9
$PUCSBASE
  2

  9
$PUCSNAME
  2

  9
$PUCSORG
 10
0.0
 20
0.0
 30
0.0
  9
$PUCSXDIR
 10
1.0
 20
0.0
 30
0.0
  9
$PUCSYDIR
 10
0.0
 20
1.0
 30
0.0
  9
$PUCSORTHOREF
  2

  9
$PUCSORTHOVIEW
 70
     0
  9
$PUCSORGTOP
 10
0.0
 20
0.0
 30
0.0
  9
$PUCSORGBOTTOM
 10
0.0
 20
0.0
 30
0.0
  9
$PUCSORGLEFT
 10
0.0
 20
0.0
 30
0.0
  9
$PUCSORGRIGHT
 10
0.0
 20
0.0
 30
0.0
  9
$PUCSORGFRONT
 10
0.0
 20
0.0
 30
0.0
  9
$PUCSORGBACK
 10
0.0
 20
0.0
 30
0.0
  9
$USERI1
 70
     0
  9
$USERI2
 70
     0
  9
$USERI3
 70
     0
  9
$USERI4
 70
     0
  9
$USERI5
 70
     0
  9
$USERR1
 40
0.0
  9
$USERR2
 40
0.0
  9
$USERR3
 40
0.0
  9
$USERR4
 40
0.0
  9
$USERR5
 40
0.0
  9
$WORLDVIEW
 70
     1
  9
$SHADEDGE
 70
     3
  9
$SHADEDIF
 70
    70
  9
$TILEMODE
 70
     1
  9
$MAXACTVP
 70
    16
  9
$PINSBASE
 10
0.0
 20
0.0
 30
0.0
  9
$PLIMCHECK
 70
     0
  9
$PEXTMIN
 10
1.000000000000000E+20
 20
1.000000000000000E+20
 30
1.000000000000000E+20
  9
$PEXTMAX
 10
-1.000000000000000E+20
 20
-1.000000000000000E+20
 30
-1.000000000000000E+20
  9
$PLIMMIN
 10
0.0
 20
0.0
  9
$PLIMMAX
 10
420.0
 20
297.0
  9
$UNITMODE
 70
     0
  9
$VISRETAIN
 70
     0
  9
$PLINEGEN
 70
     0
  9
$PSLTSCALE
 70
     0
  9
$TREEDEPTH
 70
  3020
  9
$CMLSTYLE
  2
STANDARD
  9
$CMLJUST
 70
     0
  9
$CMLSCALE
 40
1.0
  9
$PROXYGRAPHICS
 70
     1
  9
$MEASUREMENT
 70
     1
  9
$CELWEIGHT
370
    -1
  9
$ENDCAPS
280
     0
  9
$JOINSTYLE
280
     0
  9
$LWDISPLAY
290
     0
  9
$INSUNITS
 70
     0
  9
$HYPERLINKBASE
  1

  9
$STYLESHEET
  1

  9
$XEDIT
290
     1
  9
$CEPSNTYPE
380
     0
  9
$PSTYLEMODE
290
     1
  9
$FINGERPRINTGUID
  2
{D739226C-1792-48E7-A6F4-BE6BA8014891}
  9
$VERSIONGUID
  2
{71371953-6409-4623-A8E3-C870791FCB31}
  9
$EXTNAMES
290
     1
  9
$PSVPSCALE
 40
0.0
  9
$OLESTARTUP
290
     0
  0
ENDSEC
  0
SECTION
  2
CLASSES
  0
CLASS
  1
ACDBDICTIONARYWDFLT
  2
AcDbDictionaryWithDefault
  3
ObjectDBX Classes
 90
        0
280
     0
281
     0
  0
CLASS
  1
DICTIONARYVAR
  2
AcDbDictionaryVar
  3
ObjectDBX Classes
 90
        0
280
     0
281
     0
  0
CLASS
  1
ACDBPLACEHOLDER
  2
AcDbPlaceHolder
  3
ObjectDBX Classes
 90
        0
280
     0
281
     0
  0
CLASS
  1
LAYOUT
  2
AcDbLayout
  3
ObjectDBX Classes
 90
        0
280
     0
281
     0
  0
ENDSEC
  0
SECTION
  2
TABLES
  0
TABLE
  2
VPORT
  5
746D
330
0
100
AcDbSymbolTable
 70
     3
  0
VPORT
  5
142C0
330
746D
100
AcDbSymbolTableRecord
100
AcDbViewportTableRecord
  2
*Active
 70
     0
 10
0.0
 20
0.0
 11
1.0
 21
1.0
 12
6167.820768928884
 22
4278.456098040356
 13
0.0
 23
0.0
 14
10.0
 24
10.0
 15
10.0
 25
10.0
 16
0.0
 26
0.0
 36
1.0
 17
0.0
 27
0.0
 37
0.0
 40
8619.939189271461
 41
1.492753623188405
 42
50.0
 43
0.0
 44
0.0
 50
0.0
 51
0.0
 71
     0
 72
     0
 73
     1
 74
     0
 75
     0
 76
     0
 77
     0
 78
     0
281
     0
 65
     1
110
0.0
120
0.0
130
0.0
111
1.0
121
0.0
131
0.0
112
0.0
122
1.0
132
0.0
 79
     0
146
0.0
  0
ENDTAB
  0
TABLE
  2
LTYPE
  5
746A
330
0
100
AcDbSymbolTable
 70
     4
  0
LTYPE
  5
7477
330
746A
100
AcDbSymbolTableRecord
100
AcDbLinetypeTableRecord
  2
BYBLOCK
 70
     0
  3

 72
    65
 73
     0
 40
0.0
  0
LTYPE
  5
7478
330
746A
100
AcDbSymbolTableRecord
100
AcDbLinetypeTableRecord
  2
BYLAYER
 70
     0
  3

 72
    65
 73
     0
 40
0.0
  0
LTYPE
  5
7479
330
746A
100
AcDbSymbolTableRecord
100
AcDbLinetypeTableRecord
  2
CONTINUOUS
 70
     0
  3
Solid line
 72
    65
 73
     0
 40
0.0
  0
LTYPE
  5
7816
330
746A
100
AcDbSymbolTableRecord
100
AcDbLinetypeTableRecord
  2
CENTER
 70
     0
  3
____ _ ____ _ ____ _ ____ _ ____ _ ____ _ ____ 
 72
    65
 73
     4
 40
2.0
 49
1.25
 74
     0
 49
-0.25
 74
     0
 49
0.25
 74
     0
 49
-0.25
 74
     0
  0
LTYPE
  5
781A
330
746A
100
AcDbSymbolTableRecord
100
AcDbLinetypeTableRecord
  2
HIDDEN
 70
     0
  3
__ __ __ __ __ __ __ __ __ __ __ __ __ __ __ __
 72
    65
 73
     2
 40
0.375
 49
0.25
 74
     0
 49
-0.125
 74
     0
  0
LTYPE
  5
781B
330
746A
100
AcDbSymbolTableRecord
100
AcDbLinetypeTableRecord
  2
PHANTOM
 70
     0
  3
______  __  __  ______  __  __  ______  __  __ 
 72
    65
 73
     6
 40
2.5
 49
1.25
 74
     0
 49
-0.25
 74
     0
 49
0.25
 74
     0
 49
-0.25
 74
     0
 49
0.25
 74
     0
 49
-0.25
 74
     0
  0
ENDTAB
  0
TABLE
  2
LAYER
  5
7467
330
0
100
AcDbSymbolTable
 70
    11
  0
LAYER
  5
7474
330
7467
100
AcDbSymbolTableRecord
100
AcDbLayerTableRecord
  2
0
 70
     0
 62
     7
  6
CONTINUOUS
370
    -3
390
13B3E
  0
LAYER
  5
DEB2
330
7467
100
AcDbSymbolTableRecord
100
AcDbLayerTableRecord
  2
センター
 70
     0
 62
     3
  6
CENTER
370
    -3
390
13B3E
  0
LAYER
  5
DEB3
330
7467
100
AcDbSymbolTableRecord
100
AcDbLayerTableRecord
  2
寸法
 70
     0
 62
     4
  6
CONTINUOUS
370
    -3
390
13B3E
  0
LAYER
  5
DEB4
330
7467
100
AcDbSymbolTableRecord
100
AcDbLayerTableRecord
  2
部品1
 70
     0
 62
     7
  6
CONTINUOUS
370
    -3
390
13B3E
  0
LAYER
  5
DEB5
330
7467
100
AcDbSymbolTableRecord
100
AcDbLayerTableRecord
  2
補助
 70
     0
 62
    -1
  6
CONTINUOUS
370
    -3
390
13B3E
  0
LAYER
  5
DEB6
330
7467
100
AcDbSymbolTableRecord
100
AcDbLayerTableRecord
  2
文字
 70
     0
 62
     7
  6
CONTINUOUS
370
    -3
390
13B3E
  0
LAYER
  5
F255
330
7467
100
AcDbSymbolTableRecord
100
AcDbLayerTableRecord
  2
DEFPOINTS
 70
     0
 62
     7
  6
CONTINUOUS
290
     0
370
    -3
390
13B3E
  0
LAYER
  5
10B54
330
7467
100
AcDbSymbolTableRecord
100
AcDbLayerTableRecord
  2
仕様書枠
 70
     0
 62
   230
  6
CONTINUOUS
370
    -3
390
13B3E
  0
LAYER
  5
11729
330
7467
100
AcDbSymbolTableRecord
100
AcDbLayerTableRecord
  2
Ｇ．Ｌ
 70
     0
 62
    30
  6
CONTINUOUS
370
    -3
390
13B3E
  0
LAYER
  5
1173F
330
7467
100
AcDbSymbolTableRecord
100
AcDbLayerTableRecord
  2
細線
 70
     0
 62
     5
  6
CONTINUOUS
370
    -3
390
13B3E
  0
LAYER
  5
11740
330
7467
100
AcDbSymbolTableRecord
100
AcDbLayerTableRecord
  2
点線
 70
     0
 62
     2
  6
HIDDEN
370
    -3
390
13B3E
  0
ENDTAB
  0
TABLE
  2
STYLE
  5
7468
330
0
100
AcDbSymbolTable
 70
     4
  0
STYLE
  5
7475
330
7468
100
AcDbSymbolTableRecord
100
AcDbTextStyleTableRecord
  2
STANDARD
 70
     0
 40
0.0
 41
1.0
 50
0.0
 71
     0
 42
4.0
  3
txt
  4
C:\AutoCAD LT\bigfont.shx
  0
STYLE
  5
F706
330
7468
100
AcDbSymbolTableRecord
100
AcDbTextStyleTableRecord
  2
STYLE1
 70
     0
 40
0.0
 41
1.0
 50
0.0
 71
     0
 42
4.0
  3
isocp.shx
  4
bigfont.shx
  0
STYLE
  5
103BF
330
7468
100
AcDbSymbolTableRecord
100
AcDbTextStyleTableRecord
  2
STYLE2
 70
     0
 40
0.0
 41
1.0
 50
0.0
 71
     0
 42
100.0
  3
MS PGothic.ttf
  4

1001
ACAD
1000
MS PGothic
1071
    32818
  0
STYLE
  5
10BAA
330
7468
100
AcDbSymbolTableRecord
100
AcDbTextStyleTableRecord
  2
STYLE3
 70
     0
 40
0.0
 41
1.0
 50
0.0
 71
     0
 42
90.0
  3
MS PGothic.ttf
  4

1001
ACAD
1000
MS PGothic
1071
    32818
  0
ENDTAB
  0
TABLE
  2
VIEW
  5
746B
330
0
100
AcDbSymbolTable
 70
     0
  0
ENDTAB
  0
TABLE
  2
UCS
  5
746C
330
0
100
AcDbSymbolTable
 70
     0
  0
ENDTAB
  0
TABLE
  2
APPID
  5
746E
330
0
100
AcDbSymbolTable
 70
     6
  0
APPID
  5
7476
330
746E
100
AcDbSymbolTableRecord
100
AcDbRegAppTableRecord
  2
ACAD
 70
     0
  0
APPID
  5
DEA9
330
746E
100
AcDbSymbolTableRecord
100
AcDbRegAppTableRecord
  2
CONTENTBLOCKICON
 70
     0
  0
APPID
  5
DEAA
330
746E
100
AcDbSymbolTableRecord
100
AcDbRegAppTableRecord
  2
CONTENTBLOCKDESCRIPTION
 70
     0
  0
APPID
  5
E71D
330
746E
100
AcDbSymbolTableRecord
100
AcDbRegAppTableRecord
  2
CONTENTTABDATA
 70
     0
  0
APPID
  5
E71E
330
746E
100
AcDbSymbolTableRecord
100
AcDbRegAppTableRecord
  2
CONTENTCURRENTTAB
 70
     0
  0
APPID
  5
F3BA
330
746E
100
AcDbSymbolTableRecord
100
AcDbRegAppTableRecord
  2
DRAWINGVARIABLESXDATA
 70
     0
  0
ENDTAB
  0
TABLE
  2
DIMSTYLE
  5
746F
330
0
100
AcDbSymbolTable
 70
     4
100
AcDbDimStyleTable
 71
     0
  0
DIMSTYLE
105
7484
330
746F
100
AcDbSymbolTableRecord
100
AcDbDimStyleTableRecord
  2
JIS
 70
     0
 41
2.5
 42
1.0
 43
7.0
 44
1.0
 73
     0
 74
     0
 77
     1
 78
     8
140
2.5
141
0.0
143
0.0394
147
0.0
172
     1
174
     1
175
     1
340
7475
  0
DIMSTYLE
105
F71F
102
{ACAD_REACTORS
330
12AD6
330
12ADE
330
12B03
330
12ADA
330
12B05
330
12AD5
330
12B08
330
12DFB
330
12EB6
330
12EB7
330
12F1D
330
12F1E
330
12F7E
330
12FC2
330
13AA2
330
13AA4
330
13AC2
330
13AC1
330
13AE0
330
13AE5
330
11AA7
330
11AB4
330
11B57
330
11B5D
330
11B60
330
11B6A
102
}
330
746F
100
AcDbSymbolTableRecord
100
AcDbDimStyleTableRecord
  2
INABA_S30G
 70
     0
 40
30.0
 41
2.5
 42
0.5
 43
7.0
 44
1.5
 73
     0
 74
     0
 77
     3
 78
     8
140
3.0
141
0.0
143
0.0394
147
1.0
172
     1
173
     1
174
     1
178
     7
271
     1
340
F706
341
F770
343
F770
344
F770
  0
DIMSTYLE
105
131F6
330
746F
100
AcDbSymbolTableRecord
100
AcDbDimStyleTableRecord
  2
INABA_S50G
 70
     0
 40
0.0
 41
125.0
 42
25.0
 43
7.0
 44
75.0
 73
     0
 74
     0
 77
     3
 78
     8
140
150.0
141
0.0
143
0.0394
147
25.0
172
     1
173
     1
174
     1
178
     7
271
     1
340
F706
341
F770
343
F770
344
F770
  0
DIMSTYLE
105
13C3E
102
{ACAD_REACTORS
330
13E63
330
13E64
330
13EC3
330
13ECF
330
13EE1
330
13EE3
330
13EF0
330
13F4F
330
13F5C
330
13F5E
330
13F70
330
13F7A
330
13FD4
330
13FD5
330
13FF3
330
13FF4
330
14026
330
14027
330
14028
102
}
330
746F
100
AcDbSymbolTableRecord
100
AcDbDimStyleTableRecord
  2
INABA_S30G詳細用20
 70
     0
 40
30.0
 41
2.5
 42
0.5
 43
7.0
 44
1.5
 73
     0
 74
     0
 77
     3
 78
     8
140
3.0
141
0.0
143
0.0394
144
0.6666666667
147
1.0
172
     1
173
     1
174
     1
178
     7
271
     0
272
     0
340
F706
341
F770
343
F770
344
F770
  0
ENDTAB
  0
TABLE
  2
BLOCK_RECORD
  5
7466
330
0
100
AcDbSymbolTable
 70
    86
  0
BLOCK_RECORD
  5
747D
330
7466
100
AcDbSymbolTableRecord
100
AcDbBlockTableRecord
  2
*MODEL_SPACE
340
13B43
  0
BLOCK_RECORD
  5
747A
330
7466
100
AcDbSymbolTableRecord
100
AcDbBlockTableRecord
  2
*PAPER_SPACE
340
13B44
  0
BLOCK_RECORD
  5
F770
330
7466
100
AcDbSymbolTableRecord
100
AcDbBlockTableRecord
  2
_DOTSMALL
340
0
102
{BLKREFS
331
12F3B
331
12F3C
331
12AC6
331
12AC7
331
12FA5
331
12FA6
331
12E10
331
12E11
331
12ABB
331
12ABC
331
12BE1
331
12BE2
331
12EF5
331
12EF6
331
12B26
331
12B27
331
12F9A
331
12F9B
331
13B04
331
13B05
331
12DD8
331
12DD9
331
12B57
331
12B58
331
12BCB
331
12BCC
331
13B0F
331
13B10
331
12ED4
331
12ED5
331
12F8F
331
12F90
331
12F24
331
12F25
331
12FB0
331
12FB1
331
12F84
331
12F85
331
12FC8
331
12FC9
331
139B3
331
139B4
331
139BE
331
139BF
331
139CA
331
139CB
331
139D7
331
139D8
331
139E3
331
139E4
331
139EF
331
139F0
331
139FB
331
139FC
331
13A07
331
13A08
331
13A12
331
13A13
331
13A1D
331
13A1E
331
13A2A
331
13A2B
331
13A35
331
13A36
331
13A40
331
13A41
331
13A4B
331
13A4C
331
13A56
331
13A57
331
13A63
331
13A64
331
13A70
331
13A71
331
13A7B
331
13A7C
331
13A87
331
13A88
331
13AAE
331
13AAF
331
13ABA
331
13ABB
331
13ACA
331
13ACB
331
13AD8
331
13AD9
331
13AED
331
13AEE
331
13AF9
331
13AFA
331
13C1E
331
13C1F
331
13C12
331
13C13
331
13C05
331
13C06
331
13BF8
331
13BF9
331
13BEB
331
13BEC
331
13BDF
331
13BE0
331
13BD3
331
13BD4
331
13BC6
331
13BC7
331
13BB9
331
13BBA
331
13BAC
331
13BAD
331
13C37
331
13C38
331
13C2A
331
13C2B
331
13BA0
331
13BA1
331
13B94
331
13B95
331
13B87
331
13B88
331
13B79
331
13B7A
331
13B6C
331
13B6D
331
13B60
331
13B61
331
13B54
331
13B55
331
141D1
331
141D2
331
141DA
331
141DB
331
141E3
331
141E4
331
141F8
331
141F9
331
14202
331
14203
331
1420B
331
1420C
331
14214
331
14215
331
1421E
331
1421F
331
14228
331
14229
331
14232
331
14233
331
1423B
331
1423C
331
14244
331
14245
331
1424E
331
1424F
331
14258
331
14259
331
14262
331
14263
331
1426B
331
1426C
331
14274
331
14275
331
1427E
331
1427F
331
142B6
331
142B7
102
}
  0
BLOCK_RECORD
  5
11C4F
330
7466
100
AcDbSymbolTableRecord
100
AcDbBlockTableRecord
  2
*D1
340
0
  0
BLOCK_RECORD
  5
11C72
330
7466
100
AcDbSymbolTableRecord
100
AcDbBlockTableRecord
  2
*D2
340
0
  0
BLOCK_RECORD
  5
11D01
330
7466
100
AcDbSymbolTableRecord
100
AcDbBlockTableRecord
  2
*D3
340
0
  0
BLOCK_RECORD
  5
11D18
330
7466
100
AcDbSymbolTableRecord
100
AcDbBlockTableRecord
  2
*D4
340
0
  0
BLOCK_RECORD
  5
11D25
330
7466
100
AcDbSymbolTableRecord
100
AcDbBlockTableRecord
  2
*D5
340
0
  0
BLOCK_RECORD
  5
11D32
330
7466
100
AcDbSymbolTableRecord
100
AcDbBlockTableRecord
  2
*D6
340
0
  0
BLOCK_RECORD
  5
12B15
330
7466
100
AcDbSymbolTableRecord
100
AcDbBlockTableRecord
  2
*D7
340
0
  0
BLOCK_RECORD
  5
12B21
330
7466
100
AcDbSymbolTableRecord
100
AcDbBlockTableRecord
  2
*D8
340
0
  0
BLOCK_RECORD
  5
12B2D
330
7466
100
AcDbSymbolTableRecord
100
AcDbBlockTableRecord
  2
*D9
340
0
  0
BLOCK_RECORD
  5
12B39
330
7466
100
AcDbSymbolTableRecord
100
AcDbBlockTableRecord
  2
*D10
340
0
  0
BLOCK_RECORD
  5
12B45
330
7466
100
AcDbSymbolTableRecord
100
AcDbBlockTableRecord
  2
*D11
340
0
  0
BLOCK_RECORD
  5
12B52
330
7466
100
AcDbSymbolTableRecord
100
AcDbBlockTableRecord
  2
*D12
340
0
  0
BLOCK_RECORD
  5
12B5E
330
7466
100
AcDbSymbolTableRecord
100
AcDbBlockTableRecord
  2
*D13
340
0
  0
BLOCK_RECORD
  5
12E00
330
7466
100
AcDbSymbolTableRecord
100
AcDbBlockTableRecord
  2
*D14
340
0
  0
BLOCK_RECORD
  5
12EB8
330
7466
100
AcDbSymbolTableRecord
100
AcDbBlockTableRecord
  2
*D15
340
0
  0
BLOCK_RECORD
  5
12EC4
330
7466
100
AcDbSymbolTableRecord
100
AcDbBlockTableRecord
  2
*D16
340
0
  0
BLOCK_RECORD
  5
12F1F
330
7466
100
AcDbSymbolTableRecord
100
AcDbBlockTableRecord
  2
*D17
340
0
  0
BLOCK_RECORD
  5
12F2B
330
7466
100
AcDbSymbolTableRecord
100
AcDbBlockTableRecord
  2
*D18
340
0
  0
BLOCK_RECORD
  5
12F7F
330
7466
100
AcDbSymbolTableRecord
100
AcDbBlockTableRecord
  2
*D19
340
0
  0
BLOCK_RECORD
  5
12FC3
330
7466
100
AcDbSymbolTableRecord
100
AcDbBlockTableRecord
  2
*D20
340
0
  0
BLOCK_RECORD
  5
13AA9
330
7466
100
AcDbSymbolTableRecord
100
AcDbBlockTableRecord
  2
*D40
340
0
  0
BLOCK_RECORD
  5
13AB5
330
7466
100
AcDbSymbolTableRecord
100
AcDbBlockTableRecord
  2
*D41
340
0
  0
BLOCK_RECORD
  5
13AC3
330
7466
100
AcDbSymbolTableRecord
100
AcDbBlockTableRecord
  2
*D42
340
0
  0
BLOCK_RECORD
  5
13AD1
330
7466
100
AcDbSymbolTableRecord
100
AcDbBlockTableRecord
  2
*D43
340
0
  0
BLOCK_RECORD
  5
13AE8
330
7466
100
AcDbSymbolTableRecord
100
AcDbBlockTableRecord
  2
*D44
340
0
  0
BLOCK_RECORD
  5
13AF4
330
7466
100
AcDbSymbolTableRecord
100
AcDbBlockTableRecord
  2
*D45
340
0
  0
BLOCK_RECORD
  5
13B4C
330
7466
100
AcDbSymbolTableRecord
100
AcDbBlockTableRecord
  2
_None
340
0
  0
BLOCK_RECORD
  5
14029
330
7466
100
AcDbSymbolTableRecord
100
AcDbBlockTableRecord
  2
*D66
340
0
  0
BLOCK_RECORD
  5
14036
330
7466
100
AcDbSymbolTableRecord
100
AcDbBlockTableRecord
  2
*D67
340
0
  0
BLOCK_RECORD
  5
14042
330
7466
100
AcDbSymbolTableRecord
100
AcDbBlockTableRecord
  2
*D68
340
0
  0
BLOCK_RECORD
  5
1404E
330
7466
100
AcDbSymbolTableRecord
100
AcDbBlockTableRecord
  2
*D69
340
0
  0
BLOCK_RECORD
  5
1405B
330
7466
100
AcDbSymbolTableRecord
100
AcDbBlockTableRecord
  2
*D70
340
0
  0
BLOCK_RECORD
  5
14068
330
7466
100
AcDbSymbolTableRecord
100
AcDbBlockTableRecord
  2
*D71
340
0
  0
BLOCK_RECORD
  5
14075
330
7466
100
AcDbSymbolTableRecord
100
AcDbBlockTableRecord
  2
*D72
340
0
  0
BLOCK_RECORD
  5
14081
330
7466
100
AcDbSymbolTableRecord
100
AcDbBlockTableRecord
  2
*D73
340
0
  0
BLOCK_RECORD
  5
1408D
330
7466
100
AcDbSymbolTableRecord
100
AcDbBlockTableRecord
  2
*D74
340
0
  0
BLOCK_RECORD
  5
1409A
330
7466
100
AcDbSymbolTableRecord
100
AcDbBlockTableRecord
  2
*D75
340
0
  0
BLOCK_RECORD
  5
140A7
330
7466
100
AcDbSymbolTableRecord
100
AcDbBlockTableRecord
  2
*D76
340
0
  0
BLOCK_RECORD
  5
140B4
330
7466
100
AcDbSymbolTableRecord
100
AcDbBlockTableRecord
  2
*D77
340
0
  0
BLOCK_RECORD
  5
140C0
330
7466
100
AcDbSymbolTableRecord
100
AcDbBlockTableRecord
  2
*D78
340
0
  0
BLOCK_RECORD
  5
140CC
330
7466
100
AcDbSymbolTableRecord
100
AcDbBlockTableRecord
  2
*D79
340
0
  0
BLOCK_RECORD
  5
140D9
330
7466
100
AcDbSymbolTableRecord
100
AcDbBlockTableRecord
  2
*D80
340
0
  0
BLOCK_RECORD
  5
140E7
330
7466
100
AcDbSymbolTableRecord
100
AcDbBlockTableRecord
  2
*D81
340
0
  0
BLOCK_RECORD
  5
140F4
330
7466
100
AcDbSymbolTableRecord
100
AcDbBlockTableRecord
  2
*D82
340
0
  0
BLOCK_RECORD
  5
14100
330
7466
100
AcDbSymbolTableRecord
100
AcDbBlockTableRecord
  2
*D83
340
0
  0
BLOCK_RECORD
  5
1410C
330
7466
100
AcDbSymbolTableRecord
100
AcDbBlockTableRecord
  2
*D84
340
0
  0
ENDTAB
  0
ENDSEC
  0
SECTION
  2
BLOCKS
  0
BLOCK
  5
7489
330
747D
100
AcDbEntity
  8
0
100
AcDbBlockBegin
  2
*MODEL_SPACE
 70
     0
 10
0.0
 20
0.0
 30
0.0
  3
*MODEL_SPACE
  1

  0
ENDBLK
  5
748A
330
747D
100
AcDbEntity
  8
0
100
AcDbBlockEnd
  0
BLOCK
  5
7487
330
747A
100
AcDbEntity
 67
     1
  8
0
100
AcDbBlockBegin
  2
*PAPER_SPACE
 70
     0
 10
0.0
 20
0.0
 30
0.0
  3
*PAPER_SPACE
  1

  0
ENDBLK
  5
7488
330
747A
100
AcDbEntity
 67
     1
  8
0
100
AcDbBlockEnd
  0
BLOCK
  5
F771
330
F770
100
AcDbEntity
  8
0
 48
50.0
100
AcDbBlockBegin
  2
_DOTSMALL
 70
     0
 10
0.0
 20
0.0
 30
0.0
  3
_DOTSMALL
  1

  0
LWPOLYLINE
  5
F772
330
F770
100
AcDbEntity
  8
0
  6
ByBlock
 62
     0
 48
50.0
100
AcDbPolyline
 90
        2
 70
     1
 43
0.5
 10
-0.0625
 20
0.0
 42
1.0
 10
0.0625
 20
0.0
 42
1.0
  0
ENDBLK
  5
F776
330
F770
100
AcDbEntity
  8
0
 48
50.0
100
AcDbBlockEnd
  0
BLOCK
  5
12F37
330
11C4F
100
AcDbEntity
  8
0
 48
50.0
100
AcDbBlockBegin
  2
*D1
 70
     1
 10
0.0
 20
0.0
 30
0.0
  3
*D1
  1

  0
LINE
  5
12F38
330
11C4F
100
AcDbEntity
  8
0
  6
ByBlock
 62
     0
 48
50.0
100
AcDbLine
 10
1023.246562932154
 20
3269.768007716479
 30
0.0
 11
329.6253642044633
 21
3269.768007716479
 31
0.0
  0
LINE
  5
12F39
330
11C4F
100
AcDbEntity
  8
0
  6
ByBlock
 62
     0
 48
50.0
100
AcDbLine
 10
1023.246562932154
 20
1269.768007716479
 30
0.0
 11
329.6253642044631
 21
1269.768007716479
 31
0.0
  0
LINE
  5
12F3A
330
11C4F
100
AcDbEntity
  8
0
  6
ByBlock
 62
     0
 48
50.0
100
AcDbLine
 10
374.6253642044632
 20
3269.768007716479
 30
0.0
 11
374.6253642044631
 21
1269.768007716479
 31
0.0
  0
INSERT
  5
12F3B
330
11C4F
100
AcDbEntity
  8
0
  6
ByBlock
 62
     0
 48
50.0
100
AcDbBlockReference
  2
_DOTSMALL
 10
374.6253642044632
 20
3269.768007716479
 30
0.0
 41
75.0
 42
75.0
 43
75.0
 50
90.0
  0
INSERT
  5
12F3C
330
11C4F
100
AcDbEntity
  8
0
  6
ByBlock
 62
     0
 48
50.0
100
AcDbBlockReference
  2
_DOTSMALL
 10
374.6253642044631
 20
1269.768007716479
 30
0.0
 41
75.0
 42
75.0
 43
75.0
 50
270.0
  0
MTEXT
  5
12F3D
330
11C4F
100
AcDbEntity
  8
0
  6
ByBlock
 62
     7
 48
50.0
100
AcDbMText
 10
299.6165059367466
 20
2269.768007716479
 30
0.0
 40
90.0
 41
0.0
 71
     5
 72
     1
  1
\A1;基礎寸法 2000
  7
STYLE1
 11
0.0000000000000001
 21
1.0
 31
0.0
 73
     1
 44
1.0
1001
ACAD
1000
MTEXTBEGIN
1070
    73
1070
     1
1070
    44
1040
1.0
1070
    74
1070
     0
1000
MTEXTEND
  0
POINT
  5
12F3E
330
11C4F
100
AcDbEntity
  8
DEFPOINTS
  6
ByBlock
 62
     0
 48
50.0
100
AcDbPoint
 10
1038.246562932154
 20
3269.768007716479
 30
0.0
  0
POINT
  5
12F3F
330
11C4F
100
AcDbEntity
  8
DEFPOINTS
  6
ByBlock
 62
     0
 48
50.0
100
AcDbPoint
 10
1038.246562932154
 20
1269.768007716479
 30
0.0
  0
POINT
  5
12F40
330
11C4F
100
AcDbEntity
  8
DEFPOINTS
  6
ByBlock
 62
     0
 48
50.0
100
AcDbPoint
 10
374.6253642044631
 20
1269.768007716479
 30
0.0
  0
ENDBLK
  5
12F41
330
11C4F
100
AcDbEntity
  8
0
 48
50.0
100
AcDbBlockEnd
  0
BLOCK
  5
12AC2
330
11C72
100
AcDbEntity
  8
0
 48
50.0
100
AcDbBlockBegin
  2
*D2
 70
     1
 10
0.0
 20
0.0
 30
0.0
  3
*D2
  1

  0
LINE
  5
12AC3
330
11C72
100
AcDbEntity
  8
0
  6
ByBlock
 62
     0
 48
50.0
100
AcDbLine
 10
2228.246562932154
 20
2269.76800771648
 30
0.0
 11
1757.213196604587
 21
2269.76800771648
 31
0.0
  0
LINE
  5
12AC4
330
11C72
100
AcDbEntity
  8
0
  6
ByBlock
 62
     0
 48
50.0
100
AcDbLine
 10
2228.246562932154
 20
1269.768007716479
 30
0.0
 11
1757.213196604587
 21
1269.768007716479
 31
0.0
  0
LINE
  5
12AC5
330
11C72
100
AcDbEntity
  8
0
  6
ByBlock
 62
     0
 48
50.0
100
AcDbLine
 10
1802.213196604587
 20
2269.76800771648
 30
0.0
 11
1802.213196604587
 21
1269.768007716479
 31
0.0
  0
INSERT
  5
12AC6
330
11C72
100
AcDbEntity
  8
0
  6
ByBlock
 62
     0
 48
50.0
100
AcDbBlockReference
  2
_DOTSMALL
 10
1802.213196604587
 20
2269.76800771648
 30
0.0
 41
75.0
 42
75.0
 43
75.0
 50
90.0
  0
INSERT
  5
12AC7
330
11C72
100
AcDbEntity
  8
0
  6
ByBlock
 62
     0
 48
50.0
100
AcDbBlockReference
  2
_DOTSMALL
 10
1802.213196604587
 20
1269.768007716479
 30
0.0
 41
75.0
 42
75.0
 43
75.0
 50
270.0
  0
MTEXT
  5
12AC8
330
11C72
100
AcDbEntity
  8
0
  6
ByBlock
 62
     7
 48
50.0
100
AcDbMText
 10
1727.213196604587
 20
1769.76800771648
 30
0.0
 40
90.0
 41
0.0
 71
     5
 72
     1
  1
\A1;1000
  7
STYLE1
 11
0.0000000000000001
 21
1.0
 31
0.0
 73
     1
 44
1.0
1001
ACAD
1000
MTEXTBEGIN
1070
    73
1070
     1
1070
    44
1040
1.0
1070
    74
1070
     0
1000
MTEXTEND
  0
POINT
  5
12AC9
330
11C72
100
AcDbEntity
  8
DEFPOINTS
  6
ByBlock
 62
     0
 48
50.0
100
AcDbPoint
 10
2243.246562932154
 20
2269.76800771648
 30
0.0
  0
POINT
  5
12ACA
330
11C72
100
AcDbEntity
  8
DEFPOINTS
  6
ByBlock
 62
     0
 48
50.0
100
AcDbPoint
 10
2243.246562932154
 20
1269.768007716479
 30
0.0
  0
POINT
  5
12ACB
330
11C72
100
AcDbEntity
  8
DEFPOINTS
  6
ByBlock
 62
     0
 48
50.0
100
AcDbPoint
 10
1802.213196604587
 20
1269.768007716479
 30
0.0
  0
ENDBLK
  5
12ACC
330
11C72
100
AcDbEntity
  8
0
 48
50.0
100
AcDbBlockEnd
  0
BLOCK
  5
12FA1
330
11D01
100
AcDbEntity
  8
0
 48
50.0
100
AcDbBlockBegin
  2
*D3
 70
     1
 10
0.0
 20
0.0
 30
0.0
  3
*D3
  1

  0
LINE
  5
12FA2
330
11D01
100
AcDbEntity
  8
0
  6
ByBlock
 62
     0
 48
50.0
100
AcDbLine
 10
1038.246562932154
 20
3284.768007716479
 30
0.0
 11
1038.246562932154
 21
3961.257340821904
 31
0.0
  0
LINE
  5
12FA3
330
11D01
100
AcDbEntity
  8
0
  6
ByBlock
 62
     0
 48
50.0
100
AcDbLine
 10
6358.246562932154
 20
3284.768007716479
 30
0.0
 11
6358.246562932154
 21
3961.257340821904
 31
0.0
  0
LINE
  5
12FA4
330
11D01
100
AcDbEntity
  8
0
  6
ByBlock
 62
     0
 48
50.0
100
AcDbLine
 10
1038.246562932154
 20
3916.257340821903
 30
0.0
 11
6358.246562932154
 21
3916.257340821903
 31
0.0
  0
INSERT
  5
12FA5
330
11D01
100
AcDbEntity
  8
0
  6
ByBlock
 62
     0
 48
50.0
100
AcDbBlockReference
  2
_DOTSMALL
 10
1038.246562932154
 20
3916.257340821903
 30
0.0
 41
75.0
 42
75.0
 43
75.0
 50
180.0
  0
INSERT
  5
12FA6
330
11D01
100
AcDbEntity
  8
0
  6
ByBlock
 62
     0
 48
50.0
100
AcDbBlockReference
  2
_DOTSMALL
 10
6358.246562932154
 20
3916.257340821903
 30
0.0
 41
75.0
 42
75.0
 43
75.0
  0
MTEXT
  5
12FA7
330
11D01
100
AcDbEntity
  8
0
  6
ByBlock
 62
     7
 48
50.0
100
AcDbMText
 10
3698.246562932155
 20
3991.26619908962
 30
0.0
 40
90.0
 41
0.0
 71
     5
 72
     1
  1
\A1;基礎寸法 5320
  7
STYLE1
 73
     1
 44
1.0
1001
ACAD
1000
MTEXTBEGIN
1070
    73
1070
     1
1070
    44
1040
1.0
1070
    74
1070
     0
1000
MTEXTEND
  0
POINT
  5
12FA8
330
11D01
100
AcDbEntity
  8
DEFPOINTS
  6
ByBlock
 62
     0
 48
50.0
100
AcDbPoint
 10
1038.246562932154
 20
3269.768007716479
 30
0.0
  0
POINT
  5
12FA9
330
11D01
100
AcDbEntity
  8
DEFPOINTS
  6
ByBlock
 62
     0
 48
50.0
100
AcDbPoint
 10
6358.246562932154
 20
3269.768007716479
 30
0.0
  0
POINT
  5
12FAA
330
11D01
100
AcDbEntity
  8
DEFPOINTS
  6
ByBlock
 62
     0
 48
50.0
100
AcDbPoint
 10
6358.246562932154
 20
3916.257340821903
 30
0.0
  0
ENDBLK
  5
12FAB
330
11D01
100
AcDbEntity
  8
0
 48
50.0
100
AcDbBlockEnd
  0
BLOCK
  5
12E0C
330
11D18
100
AcDbEntity
  8
0
 48
50.0
100
AcDbBlockBegin
  2
*D4
 70
     1
 10
0.0
 20
0.0
 30
0.0
  3
*D4
  1

  0
LINE
  5
12E0D
330
11D18
100
AcDbEntity
  8
0
  6
ByBlock
 62
     0
 48
50.0
100
AcDbLine
 10
1038.246562932154
 20
3284.768007716479
 30
0.0
 11
1038.246562932154
 21
3767.220301847585
 31
0.0
  0
LINE
  5
12E0E
330
11D18
100
AcDbEntity
  8
0
  6
ByBlock
 62
     0
 48
50.0
100
AcDbLine
 10
1288.246562932154
 20
2534.768007716479
 30
0.0
 11
1288.246562932154
 21
3767.220301847585
 31
0.0
  0
LINE
  5
12E0F
330
11D18
100
AcDbEntity
  8
0
  6
ByBlock
 62
     0
 48
50.0
100
AcDbLine
 10
1038.246562932154
 20
3722.220301847585
 30
0.0
 11
1288.246562932154
 21
3722.220301847585
 31
0.0
  0
INSERT
  5
12E10
330
11D18
100
AcDbEntity
  8
0
  6
ByBlock
 62
     0
 48
50.0
100
AcDbBlockReference
  2
_DOTSMALL
 10
1038.246562932154
 20
3722.220301847585
 30
0.0
 41
75.0
 42
75.0
 43
75.0
 50
180.0
  0
INSERT
  5
12E11
330
11D18
100
AcDbEntity
  8
0
  6
ByBlock
 62
     0
 48
50.0
100
AcDbBlockReference
  2
_DOTSMALL
 10
1288.246562932154
 20
3722.220301847585
 30
0.0
 41
75.0
 42
75.0
 43
75.0
  0
MTEXT
  5
12E12
330
11D18
100
AcDbEntity
  8
0
  6
ByBlock
 62
     7
 48
50.0
100
AcDbMText
 10
1163.246562932154
 20
3797.229160115302
 30
0.0
 40
90.0
 41
0.0
 71
     5
 72
     1
  1
\A1;250
  7
STYLE1
 73
     1
 44
1.0
1001
ACAD
1000
MTEXTBEGIN
1070
    73
1070
     1
1070
    44
1040
1.0
1070
    74
1070
     0
1000
MTEXTEND
  0
POINT
  5
12E13
330
11D18
100
AcDbEntity
  8
DEFPOINTS
  6
ByBlock
 62
     0
 48
50.0
100
AcDbPoint
 10
1038.246562932154
 20
3269.768007716479
 30
0.0
  0
POINT
  5
12E14
330
11D18
100
AcDbEntity
  8
DEFPOINTS
  6
ByBlock
 62
     0
 48
50.0
100
AcDbPoint
 10
1288.246562932154
 20
2519.768007716479
 30
0.0
  0
POINT
  5
12E15
330
11D18
100
AcDbEntity
  8
DEFPOINTS
  6
ByBlock
 62
     0
 48
50.0
100
AcDbPoint
 10
1288.246562932154
 20
3722.220301847585
 30
0.0
  0
ENDBLK
  5
12E16
330
11D18
100
AcDbEntity
  8
0
 48
50.0
100
AcDbBlockEnd
  0
BLOCK
  5
12AB7
330
11D25
100
AcDbEntity
  8
0
 48
50.0
100
AcDbBlockBegin
  2
*D5
 70
     1
 10
0.0
 20
0.0
 30
0.0
  3
*D5
  1

  0
LINE
  5
12AB8
330
11D25
100
AcDbEntity
  8
0
  6
ByBlock
 62
     0
 48
50.0
100
AcDbLine
 10
2228.246562932154
 20
3269.768007716479
 30
0.0
 11
1757.374726220923
 21
3269.768007716479
 31
0.0
  0
LINE
  5
12AB9
330
11D25
100
AcDbEntity
  8
0
  6
ByBlock
 62
     0
 48
50.0
100
AcDbLine
 10
2228.246562932154
 20
2269.76800771648
 30
0.0
 11
1757.374726220923
 21
2269.76800771648
 31
0.0
  0
LINE
  5
12ABA
330
11D25
100
AcDbEntity
  8
0
  6
ByBlock
 62
     0
 48
50.0
100
AcDbLine
 10
1802.374726220923
 20
3269.768007716479
 30
0.0
 11
1802.374726220923
 21
2269.76800771648
 31
0.0
  0
INSERT
  5
12ABB
330
11D25
100
AcDbEntity
  8
0
  6
ByBlock
 62
     0
 48
50.0
100
AcDbBlockReference
  2
_DOTSMALL
 10
1802.374726220923
 20
3269.768007716479
 30
0.0
 41
75.0
 42
75.0
 43
75.0
 50
90.0
  0
INSERT
  5
12ABC
330
11D25
100
AcDbEntity
  8
0
  6
ByBlock
 62
     0
 48
50.0
100
AcDbBlockReference
  2
_DOTSMALL
 10
1802.374726220923
 20
2269.76800771648
 30
0.0
 41
75.0
 42
75.0
 43
75.0
 50
270.0
  0
MTEXT
  5
12ABD
330
11D25
100
AcDbEntity
  8
0
  6
ByBlock
 62
     7
 48
50.0
100
AcDbMText
 10
1727.374726220924
 20
2769.768007716479
 30
0.0
 40
90.0
 41
0.0
 71
     5
 72
     1
  1
\A1;1000
  7
STYLE1
 11
0.0000000000000001
 21
1.0
 31
0.0
 73
     1
 44
1.0
1001
ACAD
1000
MTEXTBEGIN
1070
    73
1070
     1
1070
    44
1040
1.0
1070
    74
1070
     0
1000
MTEXTEND
  0
POINT
  5
12ABE
330
11D25
100
AcDbEntity
  8
DEFPOINTS
  6
ByBlock
 62
     0
 48
50.0
100
AcDbPoint
 10
2243.246562932154
 20
3269.768007716479
 30
0.0
  0
POINT
  5
12ABF
330
11D25
100
AcDbEntity
  8
DEFPOINTS
  6
ByBlock
 62
     0
 48
50.0
100
AcDbPoint
 10
2243.246562932154
 20
2269.76800771648
 30
0.0
  0
POINT
  5
12AC0
330
11D25
100
AcDbEntity
  8
DEFPOINTS
  6
ByBlock
 62
     0
 48
50.0
100
AcDbPoint
 10
1802.374726220923
 20
2269.76800771648
 30
0.0
  0
ENDBLK
  5
12AC1
330
11D25
100
AcDbEntity
  8
0
 48
50.0
100
AcDbBlockEnd
  0
BLOCK
  5
12BDD
330
11D32
100
AcDbEntity
  8
0
 48
50.0
100
AcDbBlockBegin
  2
*D6
 70
     1
 10
0.0
 20
0.0
 30
0.0
  3
*D6
  1

  0
LINE
  5
12BDE
330
11D32
100
AcDbEntity
  8
0
  6
ByBlock
 62
     0
 48
50.0
100
AcDbLine
 10
4903.246562932154
 20
3354.76800771648
 30
0.0
 11
4903.246562932154
 21
3767.817537192492
 31
0.0
  0
LINE
  5
12BDF
330
11D32
100
AcDbEntity
  8
0
  6
ByBlock
 62
     0
 48
50.0
100
AcDbLine
 10
5153.246562932154
 20
3284.768007716479
 30
0.0
 11
5153.246562932154
 21
3767.817537192492
 31
0.0
  0
LINE
  5
12BE0
330
11D32
100
AcDbEntity
  8
0
  6
ByBlock
 62
     0
 48
50.0
100
AcDbLine
 10
4903.246562932154
 20
3722.817537192492
 30
0.0
 11
5153.246562932154
 21
3722.817537192492
 31
0.0
  0
INSERT
  5
12BE1
330
11D32
100
AcDbEntity
  8
0
  6
ByBlock
 62
     0
 48
50.0
100
AcDbBlockReference
  2
_DOTSMALL
 10
4903.246562932154
 20
3722.817537192492
 30
0.0
 41
75.0
 42
75.0
 43
75.0
 50
180.0
  0
INSERT
  5
12BE2
330
11D32
100
AcDbEntity
  8
0
  6
ByBlock
 62
     0
 48
50.0
100
AcDbBlockReference
  2
_DOTSMALL
 10
5153.246562932154
 20
3722.817537192492
 30
0.0
 41
75.0
 42
75.0
 43
75.0
  0
MTEXT
  5
12BE3
330
11D32
100
AcDbEntity
  8
0
  6
ByBlock
 62
     7
 48
50.0
100
AcDbMText
 10
5028.246562932154
 20
3797.826395460209
 30
0.0
 40
90.0
 41
0.0
 71
     5
 72
     1
  1
\A1;250
  7
STYLE1
 73
     1
 44
1.0
1001
ACAD
1000
MTEXTBEGIN
1070
    73
1070
     1
1070
    44
1040
1.0
1070
    74
1070
     0
1000
MTEXTEND
  0
POINT
  5
12BE4
330
11D32
100
AcDbEntity
  8
DEFPOINTS
  6
ByBlock
 62
     0
 48
50.0
100
AcDbPoint
 10
4903.246562932154
 20
3339.768007716479
 30
0.0
  0
POINT
  5
12BE5
330
11D32
100
AcDbEntity
  8
DEFPOINTS
  6
ByBlock
 62
     0
 48
50.0
100
AcDbPoint
 10
5153.246562932154
 20
3269.768007716479
 30
0.0
  0
POINT
  5
12BE6
330
11D32
100
AcDbEntity
  8
DEFPOINTS
  6
ByBlock
 62
     0
 48
50.0
100
AcDbPoint
 10
5153.246562932154
 20
3722.817537192492
 30
0.0
  0
ENDBLK
  5
12BE7
330
11D32
100
AcDbEntity
  8
0
 48
50.0
100
AcDbBlockEnd
  0
BLOCK
  5
12EF1
330
12B15
100
AcDbEntity
  8
0
 48
50.0
100
AcDbBlockBegin
  2
*D7
 70
     1
 10
0.0
 20
0.0
 30
0.0
  3
*D7
  1

  0
LINE
  5
12EF2
330
12B15
100
AcDbEntity
  8
0
  6
ByBlock
 62
     0
 48
50.0
100
AcDbLine
 10
1023.246562932154
 20
7215.166988013343
 30
0.0
 11
329.6253642044632
 21
7215.166988013343
 31
0.0
  0
LINE
  5
12EF3
330
12B15
100
AcDbEntity
  8
0
  6
ByBlock
 62
     0
 48
50.0
100
AcDbLine
 10
1023.246562932154
 20
5215.166988013343
 30
0.0
 11
329.625364204463
 21
5215.166988013343
 31
0.0
  0
LINE
  5
12EF4
330
12B15
100
AcDbEntity
  8
0
  6
ByBlock
 62
     0
 48
50.0
100
AcDbLine
 10
374.6253642044631
 20
7215.166988013343
 30
0.0
 11
374.6253642044631
 21
5215.166988013343
 31
0.0
  0
INSERT
  5
12EF5
330
12B15
100
AcDbEntity
  8
0
  6
ByBlock
 62
     0
 48
50.0
100
AcDbBlockReference
  2
_DOTSMALL
 10
374.6253642044631
 20
7215.166988013343
 30
0.0
 41
75.0
 42
75.0
 43
75.0
 50
90.0
  0
INSERT
  5
12EF6
330
12B15
100
AcDbEntity
  8
0
  6
ByBlock
 62
     0
 48
50.0
100
AcDbBlockReference
  2
_DOTSMALL
 10
374.6253642044631
 20
5215.166988013343
 30
0.0
 41
75.0
 42
75.0
 43
75.0
 50
270.0
  0
MTEXT
  5
12EF7
330
12B15
100
AcDbEntity
  8
0
  6
ByBlock
 62
     7
 48
50.0
100
AcDbMText
 10
299.6165059367466
 20
6215.166988013343
 30
0.0
 40
90.0
 41
0.0
 71
     5
 72
     1
  1
\A1;基礎寸法 2000
  7
STYLE1
 11
0.0000000000000001
 21
1.0
 31
0.0
 73
     1
 44
1.0
1001
ACAD
1000
MTEXTBEGIN
1070
    73
1070
     1
1070
    44
1040
1.0
1070
    74
1070
     0
1000
MTEXTEND
  0
POINT
  5
12EF8
330
12B15
100
AcDbEntity
  8
DEFPOINTS
  6
ByBlock
 62
     0
 48
50.0
100
AcDbPoint
 10
1038.246562932154
 20
7215.166988013343
 30
0.0
  0
POINT
  5
12EF9
330
12B15
100
AcDbEntity
  8
DEFPOINTS
  6
ByBlock
 62
     0
 48
50.0
100
AcDbPoint
 10
1038.246562932154
 20
5215.166988013343
 30
0.0
  0
POINT
  5
12EFA
330
12B15
100
AcDbEntity
  8
DEFPOINTS
  6
ByBlock
 62
     0
 48
50.0
100
AcDbPoint
 10
374.6253642044631
 20
5215.166988013343
 30
0.0
  0
ENDBLK
  5
12EFB
330
12B15
100
AcDbEntity
  8
0
 48
50.0
100
AcDbBlockEnd
  0
BLOCK
  5
12B22
330
12B21
100
AcDbEntity
  8
0
 48
50.0
100
AcDbBlockBegin
  2
*D8
 70
     1
 10
0.0
 20
0.0
 30
0.0
  3
*D8
  1

  0
LINE
  5
12B23
330
12B21
100
AcDbEntity
  8
0
  6
ByBlock
 62
     0
 48
50.0
100
AcDbLine
 10
2228.246562932154
 20
2269.76800771648
 30
0.0
 11
1757.213196604587
 21
2269.76800771648
 31
0.0
  0
LINE
  5
12B24
330
12B21
100
AcDbEntity
  8
0
  6
ByBlock
 62
     0
 48
50.0
100
AcDbLine
 10
2228.246562932154
 20
1269.768007716479
 30
0.0
 11
1757.213196604587
 21
1269.768007716479
 31
0.0
  0
LINE
  5
12B25
330
12B21
100
AcDbEntity
  8
0
  6
ByBlock
 62
     0
 48
50.0
100
AcDbLine
 10
1802.213196604587
 20
2269.76800771648
 30
0.0
 11
1802.213196604587
 21
1269.768007716479
 31
0.0
  0
INSERT
  5
12B26
330
12B21
100
AcDbEntity
  8
0
  6
ByBlock
 62
     0
 48
50.0
100
AcDbBlockReference
  2
_DOTSMALL
 10
1802.213196604587
 20
2269.76800771648
 30
0.0
 41
75.0
 42
75.0
 43
75.0
 50
90.0
  0
INSERT
  5
12B27
330
12B21
100
AcDbEntity
  8
0
  6
ByBlock
 62
     0
 48
50.0
100
AcDbBlockReference
  2
_DOTSMALL
 10
1802.213196604587
 20
1269.768007716479
 30
0.0
 41
75.0
 42
75.0
 43
75.0
 50
270.0
  0
MTEXT
  5
12B28
330
12B21
100
AcDbEntity
  8
0
  6
ByBlock
 62
     7
 48
50.0
100
AcDbMText
 10
1727.213196604587
 20
1769.76800771648
 30
0.0
 40
90.0
 41
0.0
 71
     5
 72
     1
  1
\A1;1000
  7
STYLE1
 11
0.0000000000000001
 21
1.0
 31
0.0
 73
     1
 44
1.0
1001
ACAD
1000
MTEXTBEGIN
1070
    73
1070
     1
1070
    44
1040
1.0
1070
    74
1070
     0
1000
MTEXTEND
  0
POINT
  5
12B29
330
12B21
100
AcDbEntity
  8
DEFPOINTS
  6
ByBlock
 62
     0
 48
50.0
100
AcDbPoint
 10
2243.246562932154
 20
2269.76800771648
 30
0.0
  0
POINT
  5
12B2A
330
12B21
100
AcDbEntity
  8
DEFPOINTS
  6
ByBlock
 62
     0
 48
50.0
100
AcDbPoint
 10
2243.246562932154
 20
1269.768007716479
 30
0.0
  0
POINT
  5
12B2B
330
12B21
100
AcDbEntity
  8
DEFPOINTS
  6
ByBlock
 62
     0
 48
50.0
100
AcDbPoint
 10
1802.213196604587
 20
1269.768007716479
 30
0.0
  0
ENDBLK
  5
12B2C
330
12B21
100
AcDbEntity
  8
0
 48
50.0
100
AcDbBlockEnd
  0
BLOCK
  5
12F96
330
12B2D
100
AcDbEntity
  8
0
 48
50.0
100
AcDbBlockBegin
  2
*D9
 70
     1
 10
0.0
 20
0.0
 30
0.0
  3
*D9
  1

  0
LINE
  5
12F97
330
12B2D
100
AcDbEntity
  8
0
  6
ByBlock
 62
     0
 48
50.0
100
AcDbLine
 10
1038.246562932154
 20
7230.166988013343
 30
0.0
 11
1038.246562932154
 21
7906.656321118768
 31
0.0
  0
LINE
  5
12F98
330
12B2D
100
AcDbEntity
  8
0
  6
ByBlock
 62
     0
 48
50.0
100
AcDbLine
 10
6358.246562932154
 20
7230.166988013343
 30
0.0
 11
6358.246562932154
 21
7906.656321118768
 31
0.0
  0
LINE
  5
12F99
330
12B2D
100
AcDbEntity
  8
0
  6
ByBlock
 62
     0
 48
50.0
100
AcDbLine
 10
1038.246562932154
 20
7861.656321118768
 30
0.0
 11
6358.246562932154
 21
7861.656321118768
 31
0.0
  0
INSERT
  5
12F9A
330
12B2D
100
AcDbEntity
  8
0
  6
ByBlock
 62
     0
 48
50.0
100
AcDbBlockReference
  2
_DOTSMALL
 10
1038.246562932154
 20
7861.656321118768
 30
0.0
 41
75.0
 42
75.0
 43
75.0
 50
180.0
  0
INSERT
  5
12F9B
330
12B2D
100
AcDbEntity
  8
0
  6
ByBlock
 62
     0
 48
50.0
100
AcDbBlockReference
  2
_DOTSMALL
 10
6358.246562932154
 20
7861.656321118768
 30
0.0
 41
75.0
 42
75.0
 43
75.0
  0
MTEXT
  5
12F9C
330
12B2D
100
AcDbEntity
  8
0
  6
ByBlock
 62
     7
 48
50.0
100
AcDbMText
 10
3698.246562932155
 20
7936.665179386484
 30
0.0
 40
90.0
 41
0.0
 71
     5
 72
     1
  1
\A1;基礎寸法 5320
  7
STYLE1
 73
     1
 44
1.0
1001
ACAD
1000
MTEXTBEGIN
1070
    73
1070
     1
1070
    44
1040
1.0
1070
    74
1070
     0
1000
MTEXTEND
  0
POINT
  5
12F9D
330
12B2D
100
AcDbEntity
  8
DEFPOINTS
  6
ByBlock
 62
     0
 48
50.0
100
AcDbPoint
 10
1038.246562932154
 20
7215.166988013343
 30
0.0
  0
POINT
  5
12F9E
330
12B2D
100
AcDbEntity
  8
DEFPOINTS
  6
ByBlock
 62
     0
 48
50.0
100
AcDbPoint
 10
6358.246562932154
 20
7215.166988013343
 30
0.0
  0
POINT
  5
12F9F
330
12B2D
100
AcDbEntity
  8
DEFPOINTS
  6
ByBlock
 62
     0
 48
50.0
100
AcDbPoint
 10
6358.246562932154
 20
7861.656321118768
 30
0.0
  0
ENDBLK
  5
12FA0
330
12B2D
100
AcDbEntity
  8
0
 48
50.0
100
AcDbBlockEnd
  0
BLOCK
  5
13B00
330
12B39
100
AcDbEntity
  8
0
 48
50.0
100
AcDbBlockBegin
  2
*D10
 70
     1
 10
0.0
 20
0.0
 30
0.0
  3
*D10
  1

  0
LINE
  5
13B01
330
12B39
100
AcDbEntity
  8
0
  6
ByBlock
 62
     0
 48
50.0
100
AcDbLine
 10
4444.87128455665
 20
6480.166988013343
 30
0.0
 11
4444.87128455665
 21
7712.619282144449
 31
0.0
  0
LINE
  5
13B02
330
12B39
100
AcDbEntity
  8
0
  6
ByBlock
 62
     0
 48
50.0
100
AcDbLine
 10
6854.87128455665
 20
6897.956349313339
 30
0.0
 11
6854.87128455665
 21
7712.619282144449
 31
0.0
  0
LINE
  5
13B03
330
12B39
100
AcDbEntity
  8
0
  6
ByBlock
 62
     0
 48
50.0
100
AcDbLine
 10
4444.87128455665
 20
7667.619282144449
 30
0.0
 11
6854.87128455665
 21
7667.619282144449
 31
0.0
  0
INSERT
  5
13B04
330
12B39
100
AcDbEntity
  8
0
  6
ByBlock
 62
     0
 48
50.0
100
AcDbBlockReference
  2
_DOTSMALL
 10
4444.87128455665
 20
7667.619282144449
 30
0.0
 41
75.0
 42
75.0
 43
75.0
 50
180.0
  0
INSERT
  5
13B05
330
12B39
100
AcDbEntity
  8
0
  6
ByBlock
 62
     0
 48
50.0
100
AcDbBlockReference
  2
_DOTSMALL
 10
6854.87128455665
 20
7667.619282144449
 30
0.0
 41
75.0
 42
75.0
 43
75.0
  0
MTEXT
  5
13B06
330
12B39
100
AcDbEntity
  8
0
  6
ByBlock
 62
     7
 48
50.0
100
AcDbMText
 10
5649.87128455665
 20
7742.628140412165
 30
0.0
 40
90.0
 41
0.0
 71
     5
 72
     1
  1
\A1;2410
  7
STYLE1
 73
     1
 44
1.0
1001
ACAD
1000
MTEXTBEGIN
1070
    73
1070
     1
1070
    44
1040
1.0
1070
    74
1070
     0
1000
MTEXTEND
  0
POINT
  5
13B07
330
12B39
100
AcDbEntity
  8
DEFPOINTS
  6
ByBlock
 62
     0
 48
50.0
100
AcDbPoint
 10
4444.87128455665
 20
6465.166988013343
 30
0.0
  0
POINT
  5
13B08
330
12B39
100
AcDbEntity
  8
DEFPOINTS
  6
ByBlock
 62
     0
 48
50.0
100
AcDbPoint
 10
6854.87128455665
 20
6882.956349313339
 30
0.0
  0
POINT
  5
13B09
330
12B39
100
AcDbEntity
  8
DEFPOINTS
  6
ByBlock
 62
     0
 48
50.0
100
AcDbPoint
 10
6854.87128455665
 20
7667.619282144449
 30
0.0
  0
ENDBLK
  5
13B0A
330
12B39
100
AcDbEntity
  8
0
 48
50.0
100
AcDbBlockEnd
  0
BLOCK
  5
12DD4
330
12B45
100
AcDbEntity
  8
0
 48
50.0
100
AcDbBlockBegin
  2
*D11
 70
     1
 10
0.0
 20
0.0
 30
0.0
  3
*D11
  1

  0
LINE
  5
12DD5
330
12B45
100
AcDbEntity
  8
0
  6
ByBlock
 62
     0
 48
50.0
100
AcDbLine
 10
1038.246562932154
 20
7230.166988013343
 30
0.0
 11
1038.246562932154
 21
7712.619282144449
 31
0.0
  0
LINE
  5
12DD6
330
12B45
100
AcDbEntity
  8
0
  6
ByBlock
 62
     0
 48
50.0
100
AcDbLine
 10
1288.246562932154
 20
6480.166988013343
 30
0.0
 11
1288.246562932154
 21
7712.619282144449
 31
0.0
  0
LINE
  5
12DD7
330
12B45
100
AcDbEntity
  8
0
  6
ByBlock
 62
     0
 48
50.0
100
AcDbLine
 10
1038.246562932154
 20
7667.619282144449
 30
0.0
 11
1288.246562932154
 21
7667.619282144449
 31
0.0
  0
INSERT
  5
12DD8
330
12B45
100
AcDbEntity
  8
0
  6
ByBlock
 62
     0
 48
50.0
100
AcDbBlockReference
  2
_DOTSMALL
 10
1038.246562932154
 20
7667.619282144449
 30
0.0
 41
75.0
 42
75.0
 43
75.0
 50
180.0
  0
INSERT
  5
12DD9
330
12B45
100
AcDbEntity
  8
0
  6
ByBlock
 62
     0
 48
50.0
100
AcDbBlockReference
  2
_DOTSMALL
 10
1288.246562932154
 20
7667.619282144449
 30
0.0
 41
75.0
 42
75.0
 43
75.0
  0
MTEXT
  5
12DDA
330
12B45
100
AcDbEntity
  8
0
  6
ByBlock
 62
     7
 48
50.0
100
AcDbMText
 10
1163.246562932154
 20
7742.628140412165
 30
0.0
 40
90.0
 41
0.0
 71
     5
 72
     1
  1
\A1;250
  7
STYLE1
 73
     1
 44
1.0
1001
ACAD
1000
MTEXTBEGIN
1070
    73
1070
     1
1070
    44
1040
1.0
1070
    74
1070
     0
1000
MTEXTEND
  0
POINT
  5
12DDB
330
12B45
100
AcDbEntity
  8
DEFPOINTS
  6
ByBlock
 62
     0
 48
50.0
100
AcDbPoint
 10
1038.246562932154
 20
7215.166988013343
 30
0.0
  0
POINT
  5
12DDC
330
12B45
100
AcDbEntity
  8
DEFPOINTS
  6
ByBlock
 62
     0
 48
50.0
100
AcDbPoint
 10
1288.246562932154
 20
6465.166988013343
 30
0.0
  0
POINT
  5
12DDD
330
12B45
100
AcDbEntity
  8
DEFPOINTS
  6
ByBlock
 62
     0
 48
50.0
100
AcDbPoint
 10
1288.246562932154
 20
7667.619282144449
 30
0.0
  0
ENDBLK
  5
12DDE
330
12B45
100
AcDbEntity
  8
0
 48
50.0
100
AcDbBlockEnd
  0
BLOCK
  5
12B53
330
12B52
100
AcDbEntity
  8
0
 48
50.0
100
AcDbBlockBegin
  2
*D12
 70
     1
 10
0.0
 20
0.0
 30
0.0
  3
*D12
  1

  0
LINE
  5
12B54
330
12B52
100
AcDbEntity
  8
0
  6
ByBlock
 62
     0
 48
50.0
100
AcDbLine
 10
2228.246562932154
 20
3269.768007716479
 30
0.0
 11
1757.374726220923
 21
3269.768007716479
 31
0.0
  0
LINE
  5
12B55
330
12B52
100
AcDbEntity
  8
0
  6
ByBlock
 62
     0
 48
50.0
100
AcDbLine
 10
2228.246562932154
 20
2269.76800771648
 30
0.0
 11
1757.374726220923
 21
2269.76800771648
 31
0.0
  0
LINE
  5
12B56
330
12B52
100
AcDbEntity
  8
0
  6
ByBlock
 62
     0
 48
50.0
100
AcDbLine
 10
1802.374726220923
 20
3269.768007716479
 30
0.0
 11
1802.374726220923
 21
2269.76800771648
 31
0.0
  0
INSERT
  5
12B57
330
12B52
100
AcDbEntity
  8
0
  6
ByBlock
 62
     0
 48
50.0
100
AcDbBlockReference
  2
_DOTSMALL
 10
1802.374726220923
 20
3269.768007716479
 30
0.0
 41
75.0
 42
75.0
 43
75.0
 50
90.0
  0
INSERT
  5
12B58
330
12B52
100
AcDbEntity
  8
0
  6
ByBlock
 62
     0
 48
50.0
100
AcDbBlockReference
  2
_DOTSMALL
 10
1802.374726220923
 20
2269.76800771648
 30
0.0
 41
75.0
 42
75.0
 43
75.0
 50
270.0
  0
MTEXT
  5
12B59
330
12B52
100
AcDbEntity
  8
0
  6
ByBlock
 62
     7
 48
50.0
100
AcDbMText
 10
1727.374726220924
 20
2769.768007716479
 30
0.0
 40
90.0
 41
0.0
 71
     5
 72
     1
  1
\A1;1000
  7
STYLE1
 11
0.0000000000000001
 21
1.0
 31
0.0
 73
     1
 44
1.0
1001
ACAD
1000
MTEXTBEGIN
1070
    73
1070
     1
1070
    44
1040
1.0
1070
    74
1070
     0
1000
MTEXTEND
  0
POINT
  5
12B5A
330
12B52
100
AcDbEntity
  8
DEFPOINTS
  6
ByBlock
 62
     0
 48
50.0
100
AcDbPoint
 10
2243.246562932154
 20
3269.768007716479
 30
0.0
  0
POINT
  5
12B5B
330
12B52
100
AcDbEntity
  8
DEFPOINTS
  6
ByBlock
 62
     0
 48
50.0
100
AcDbPoint
 10
2243.246562932154
 20
2269.76800771648
 30
0.0
  0
POINT
  5
12B5C
330
12B52
100
AcDbEntity
  8
DEFPOINTS
  6
ByBlock
 62
     0
 48
50.0
100
AcDbPoint
 10
1802.374726220923
 20
2269.76800771648
 30
0.0
  0
ENDBLK
  5
12B5D
330
12B52
100
AcDbEntity
  8
0
 48
50.0
100
AcDbBlockEnd
  0
BLOCK
  5
12BC7
330
12B5E
100
AcDbEntity
  8
0
 48
50.0
100
AcDbBlockBegin
  2
*D13
 70
     1
 10
0.0
 20
0.0
 30
0.0
  3
*D13
  1

  0
LINE
  5
12BC8
330
12B5E
100
AcDbEntity
  8
0
  6
ByBlock
 62
     0
 48
50.0
100
AcDbLine
 10
4903.246562932154
 20
7300.166988013344
 30
0.0
 11
4903.246562932154
 21
7713.216517489356
 31
0.0
  0
LINE
  5
12BC9
330
12B5E
100
AcDbEntity
  8
0
  6
ByBlock
 62
     0
 48
50.0
100
AcDbLine
 10
5153.246562932154
 20
7230.166988013343
 30
0.0
 11
5153.246562932154
 21
7713.216517489356
 31
0.0
  0
LINE
  5
12BCA
330
12B5E
100
AcDbEntity
  8
0
  6
ByBlock
 62
     0
 48
50.0
100
AcDbLine
 10
4903.246562932154
 20
7668.216517489357
 30
0.0
 11
5153.246562932154
 21
7668.216517489357
 31
0.0
  0
INSERT
  5
12BCB
330
12B5E
100
AcDbEntity
  8
0
  6
ByBlock
 62
     0
 48
50.0
100
AcDbBlockReference
  2
_DOTSMALL
 10
4903.246562932154
 20
7668.216517489357
 30
0.0
 41
75.0
 42
75.0
 43
75.0
 50
180.0
  0
INSERT
  5
12BCC
330
12B5E
100
AcDbEntity
  8
0
  6
ByBlock
 62
     0
 48
50.0
100
AcDbBlockReference
  2
_DOTSMALL
 10
5153.246562932154
 20
7668.216517489357
 30
0.0
 41
75.0
 42
75.0
 43
75.0
  0
MTEXT
  5
12BCD
330
12B5E
100
AcDbEntity
  8
0
  6
ByBlock
 62
     7
 48
50.0
100
AcDbMText
 10
5028.246562932154
 20
7743.225375757072
 30
0.0
 40
90.0
 41
0.0
 71
     5
 72
     1
  1
\A1;250
  7
STYLE1
 73
     1
 44
1.0
1001
ACAD
1000
MTEXTBEGIN
1070
    73
1070
     1
1070
    44
1040
1.0
1070
    74
1070
     0
1000
MTEXTEND
  0
POINT
  5
12BCE
330
12B5E
100
AcDbEntity
  8
DEFPOINTS
  6
ByBlock
 62
     0
 48
50.0
100
AcDbPoint
 10
4903.246562932154
 20
7285.166988013344
 30
0.0
  0
POINT
  5
12BCF
330
12B5E
100
AcDbEntity
  8
DEFPOINTS
  6
ByBlock
 62
     0
 48
50.0
100
AcDbPoint
 10
5153.246562932154
 20
7215.166988013343
 30
0.0
  0
POINT
  5
12BD0
330
12B5E
100
AcDbEntity
  8
DEFPOINTS
  6
ByBlock
 62
     0
 48
50.0
100
AcDbPoint
 10
5153.246562932154
 20
7668.216517489357
 30
0.0
  0
ENDBLK
  5
12BD1
330
12B5E
100
AcDbEntity
  8
0
 48
50.0
100
AcDbBlockEnd
  0
BLOCK
  5
13B0B
330
12E00
100
AcDbEntity
  8
0
 48
50.0
100
AcDbBlockBegin
  2
*D14
 70
     1
 10
0.0
 20
0.0
 30
0.0
  3
*D14
  1

  0
LINE
  5
13B0C
330
12E00
100
AcDbEntity
  8
0
  6
ByBlock
 62
     0
 48
50.0
100
AcDbLine
 10
4444.87128455665
 20
2534.768007716479
 30
0.0
 11
4444.87128455665
 21
3767.220301847584
 31
0.0
  0
LINE
  5
13B0D
330
12E00
100
AcDbEntity
  8
0
  6
ByBlock
 62
     0
 48
50.0
100
AcDbLine
 10
6854.87128455665
 20
2952.557369016473
 30
0.0
 11
6854.87128455665
 21
3767.220301847584
 31
0.0
  0
LINE
  5
13B0E
330
12E00
100
AcDbEntity
  8
0
  6
ByBlock
 62
     0
 48
50.0
100
AcDbLine
 10
4444.87128455665
 20
3722.220301847585
 30
0.0
 11
6854.87128455665
 21
3722.220301847585
 31
0.0
  0
INSERT
  5
13B0F
330
12E00
100
AcDbEntity
  8
0
  6
ByBlock
 62
     0
 48
50.0
100
AcDbBlockReference
  2
_DOTSMALL
 10
4444.87128455665
 20
3722.220301847585
 30
0.0
 41
75.0
 42
75.0
 43
75.0
 50
180.0
  0
INSERT
  5
13B10
330
12E00
100
AcDbEntity
  8
0
  6
ByBlock
 62
     0
 48
50.0
100
AcDbBlockReference
  2
_DOTSMALL
 10
6854.87128455665
 20
3722.220301847585
 30
0.0
 41
75.0
 42
75.0
 43
75.0
  0
MTEXT
  5
13B11
330
12E00
100
AcDbEntity
  8
0
  6
ByBlock
 62
     7
 48
50.0
100
AcDbMText
 10
5649.87128455665
 20
3797.229160115301
 30
0.0
 40
90.0
 41
0.0
 71
     5
 72
     1
  1
\A1;2410
  7
STYLE1
 73
     1
 44
1.0
1001
ACAD
1000
MTEXTBEGIN
1070
    73
1070
     1
1070
    44
1040
1.0
1070
    74
1070
     0
1000
MTEXTEND
  0
POINT
  5
13B12
330
12E00
100
AcDbEntity
  8
DEFPOINTS
  6
ByBlock
 62
     0
 48
50.0
100
AcDbPoint
 10
4444.87128455665
 20
2519.768007716479
 30
0.0
  0
POINT
  5
13B13
330
12E00
100
AcDbEntity
  8
DEFPOINTS
  6
ByBlock
 62
     0
 48
50.0
100
AcDbPoint
 10
6854.87128455665
 20
2937.557369016473
 30
0.0
  0
POINT
  5
13B14
330
12E00
100
AcDbEntity
  8
DEFPOINTS
  6
ByBlock
 62
     0
 48
50.0
100
AcDbPoint
 10
6854.87128455665
 20
3722.220301847585
 30
0.0
  0
ENDBLK
  5
13B15
330
12E00
100
AcDbEntity
  8
0
 48
50.0
100
AcDbBlockEnd
  0
BLOCK
  5
12ED0
330
12EB8
100
AcDbEntity
  8
0
 48
50.0
100
AcDbBlockBegin
  2
*D15
 70
     1
 10
0.0
 20
0.0
 30
0.0
  3
*D15
  1

  0
LINE
  5
12ED1
330
12EB8
100
AcDbEntity
  8
0
  6
ByBlock
 62
     0
 48
50.0
100
AcDbLine
 10
6373.246562932155
 20
7215.166988013343
 30
0.0
 11
6885.520785295769
 21
7215.166988013343
 31
0.0
  0
LINE
  5
12ED2
330
12EB8
100
AcDbEntity
  8
0
  6
ByBlock
 62
     0
 48
50.0
100
AcDbLine
 10
6373.246562932155
 20
5215.166988013343
 30
0.0
 11
6885.520785295769
 21
5215.166988013343
 31
0.0
  0
LINE
  5
12ED3
330
12EB8
100
AcDbEntity
  8
0
  6
ByBlock
 62
     0
 48
50.0
100
AcDbLine
 10
6840.520785295769
 20
7215.166988013343
 30
0.0
 11
6840.520785295769
 21
5215.166988013343
 31
0.0
  0
INSERT
  5
12ED4
330
12EB8
100
AcDbEntity
  8
0
  6
ByBlock
 62
     0
 48
50.0
100
AcDbBlockReference
  2
_DOTSMALL
 10
6840.520785295769
 20
7215.166988013343
 30
0.0
 41
75.0
 42
75.0
 43
75.0
 50
90.0
  0
INSERT
  5
12ED5
330
12EB8
100
AcDbEntity
  8
0
  6
ByBlock
 62
     0
 48
50.0
100
AcDbBlockReference
  2
_DOTSMALL
 10
6840.520785295769
 20
5215.166988013343
 30
0.0
 41
75.0
 42
75.0
 43
75.0
 50
270.0
  0
MTEXT
  5
12ED6
330
12EB8
100
AcDbEntity
  8
0
  6
ByBlock
 62
     7
 48
50.0
100
AcDbMText
 10
6765.511927028052
 20
6215.166988013343
 30
0.0
 40
90.0
 41
0.0
 71
     5
 72
     1
  1
\A1;屋根寸法 2000
  7
STYLE1
 11
0.0000000000000001
 21
1.0
 31
0.0
 73
     1
 44
1.0
1001
ACAD
1000
MTEXTBEGIN
1070
    73
1070
     1
1070
    44
1040
1.0
1070
    74
1070
     0
1000
MTEXTEND
  0
POINT
  5
12ED7
330
12EB8
100
AcDbEntity
  8
DEFPOINTS
  6
ByBlock
 62
     0
 48
50.0
100
AcDbPoint
 10
6358.246562932154
 20
7215.166988013343
 30
0.0
  0
POINT
  5
12ED8
330
12EB8
100
AcDbEntity
  8
DEFPOINTS
  6
ByBlock
 62
     0
 48
50.0
100
AcDbPoint
 10
6358.246562932154
 20
5215.166988013343
 30
0.0
  0
POINT
  5
12ED9
330
12EB8
100
AcDbEntity
  8
DEFPOINTS
  6
ByBlock
 62
     0
 48
50.0
100
AcDbPoint
 10
6840.520785295769
 20
5215.166988013343
 30
0.0
  0
ENDBLK
  5
12EDA
330
12EB8
100
AcDbEntity
  8
0
 48
50.0
100
AcDbBlockEnd
  0
BLOCK
  5
12F8B
330
12EC4
100
AcDbEntity
  8
0
 48
50.0
100
AcDbBlockBegin
  2
*D16
 70
     1
 10
0.0
 20
0.0
 30
0.0
  3
*D16
  1

  0
LINE
  5
12F8C
330
12EC4
100
AcDbEntity
  8
0
  6
ByBlock
 62
     0
 48
50.0
100
AcDbLine
 10
1038.246562932154
 20
5200.166988013343
 30
0.0
 11
1038.246562932154
 21
4780.395283416633
 31
0.0
  0
LINE
  5
12F8D
330
12EC4
100
AcDbEntity
  8
0
  6
ByBlock
 62
     0
 48
50.0
100
AcDbLine
 10
6358.246562932154
 20
5200.166988013343
 30
0.0
 11
6358.246562932154
 21
4780.395283416633
 31
0.0
  0
LINE
  5
12F8E
330
12EC4
100
AcDbEntity
  8
0
  6
ByBlock
 62
     0
 48
50.0
100
AcDbLine
 10
1038.246562932154
 20
4825.395283416634
 30
0.0
 11
6358.246562932154
 21
4825.395283416634
 31
0.0
  0
INSERT
  5
12F8F
330
12EC4
100
AcDbEntity
  8
0
  6
ByBlock
 62
     0
 48
50.0
100
AcDbBlockReference
  2
_DOTSMALL
 10
1038.246562932154
 20
4825.395283416634
 30
0.0
 41
75.0
 42
75.0
 43
75.0
 50
180.0
  0
INSERT
  5
12F90
330
12EC4
100
AcDbEntity
  8
0
  6
ByBlock
 62
     0
 48
50.0
100
AcDbBlockReference
  2
_DOTSMALL
 10
6358.246562932154
 20
4825.395283416634
 30
0.0
 41
75.0
 42
75.0
 43
75.0
  0
MTEXT
  5
12F91
330
12EC4
100
AcDbEntity
  8
0
  6
ByBlock
 62
     7
 48
50.0
100
AcDbMText
 10
3698.246562932155
 20
4900.404141684351
 30
0.0
 40
90.0
 41
0.0
 71
     5
 72
     1
  1
\A1;屋根寸法 5320
  7
STYLE1
 73
     1
 44
1.0
1001
ACAD
1000
MTEXTBEGIN
1070
    73
1070
     1
1070
    44
1040
1.0
1070
    74
1070
     0
1000
MTEXTEND
  0
POINT
  5
12F92
330
12EC4
100
AcDbEntity
  8
DEFPOINTS
  6
ByBlock
 62
     0
 48
50.0
100
AcDbPoint
 10
1038.246562932154
 20
5215.166988013343
 30
0.0
  0
POINT
  5
12F93
330
12EC4
100
AcDbEntity
  8
DEFPOINTS
  6
ByBlock
 62
     0
 48
50.0
100
AcDbPoint
 10
6358.246562932154
 20
5215.166988013343
 30
0.0
  0
POINT
  5
12F94
330
12EC4
100
AcDbEntity
  8
DEFPOINTS
  6
ByBlock
 62
     0
 48
50.0
100
AcDbPoint
 10
6358.246562932154
 20
4825.395283416634
 30
0.0
  0
ENDBLK
  5
12F95
330
12EC4
100
AcDbEntity
  8
0
 48
50.0
100
AcDbBlockEnd
  0
BLOCK
  5
12F20
330
12F1F
100
AcDbEntity
  8
0
 48
50.0
100
AcDbBlockBegin
  2
*D17
 70
     1
 10
0.0
 20
0.0
 30
0.0
  3
*D17
  1

  0
LINE
  5
12F21
330
12F1F
100
AcDbEntity
  8
0
  6
ByBlock
 62
     0
 48
50.0
100
AcDbLine
 10
6373.246562932155
 20
7215.166988013343
 30
0.0
 11
6885.520785295769
 21
7215.166988013343
 31
0.0
  0
LINE
  5
12F22
330
12F1F
100
AcDbEntity
  8
0
  6
ByBlock
 62
     0
 48
50.0
100
AcDbLine
 10
6373.246562932155
 20
5215.166988013343
 30
0.0
 11
6885.520785295769
 21
5215.166988013343
 31
0.0
  0
LINE
  5
12F23
330
12F1F
100
AcDbEntity
  8
0
  6
ByBlock
 62
     0
 48
50.0
100
AcDbLine
 10
6840.520785295769
 20
7215.166988013343
 30
0.0
 11
6840.520785295769
 21
5215.166988013343
 31
0.0
  0
INSERT
  5
12F24
330
12F1F
100
AcDbEntity
  8
0
  6
ByBlock
 62
     0
 48
50.0
100
AcDbBlockReference
  2
_DOTSMALL
 10
6840.520785295769
 20
7215.166988013343
 30
0.0
 41
75.0
 42
75.0
 43
75.0
 50
90.0
  0
INSERT
  5
12F25
330
12F1F
100
AcDbEntity
  8
0
  6
ByBlock
 62
     0
 48
50.0
100
AcDbBlockReference
  2
_DOTSMALL
 10
6840.520785295769
 20
5215.166988013343
 30
0.0
 41
75.0
 42
75.0
 43
75.0
 50
270.0
  0
MTEXT
  5
12F26
330
12F1F
100
AcDbEntity
  8
0
  6
ByBlock
 62
     7
 48
50.0
100
AcDbMText
 10
6765.511927028052
 20
6215.166988013343
 30
0.0
 40
90.0
 41
0.0
 71
     5
 72
     1
  1
\A1;屋根寸法 2000
  7
STYLE1
 11
0.0000000000000001
 21
1.0
 31
0.0
 73
     1
 44
1.0
1001
ACAD
1000
MTEXTBEGIN
1070
    73
1070
     1
1070
    44
1040
1.0
1070
    74
1070
     0
1000
MTEXTEND
  0
POINT
  5
12F27
330
12F1F
100
AcDbEntity
  8
DEFPOINTS
  6
ByBlock
 62
     0
 48
50.0
100
AcDbPoint
 10
6358.246562932154
 20
7215.166988013343
 30
0.0
  0
POINT
  5
12F28
330
12F1F
100
AcDbEntity
  8
DEFPOINTS
  6
ByBlock
 62
     0
 48
50.0
100
AcDbPoint
 10
6358.246562932154
 20
5215.166988013343
 30
0.0
  0
POINT
  5
12F29
330
12F1F
100
AcDbEntity
  8
DEFPOINTS
  6
ByBlock
 62
     0
 48
50.0
100
AcDbPoint
 10
6840.520785295769
 20
5215.166988013343
 30
0.0
  0
ENDBLK
  5
12F2A
330
12F1F
100
AcDbEntity
  8
0
 48
50.0
100
AcDbBlockEnd
  0
BLOCK
  5
12FAC
330
12F2B
100
AcDbEntity
  8
0
 48
50.0
100
AcDbBlockBegin
  2
*D18
 70
     1
 10
0.0
 20
0.0
 30
0.0
  3
*D18
  1

  0
LINE
  5
12FAD
330
12F2B
100
AcDbEntity
  8
0
  6
ByBlock
 62
     0
 48
50.0
100
AcDbLine
 10
1038.246562932154
 20
1254.768007716478
 30
0.0
 11
1038.246562932154
 21
834.9963031197694
 31
0.0
  0
LINE
  5
12FAE
330
12F2B
100
AcDbEntity
  8
0
  6
ByBlock
 62
     0
 48
50.0
100
AcDbLine
 10
6358.246562932154
 20
1254.768007716478
 30
0.0
 11
6358.246562932154
 21
834.9963031197694
 31
0.0
  0
LINE
  5
12FAF
330
12F2B
100
AcDbEntity
  8
0
  6
ByBlock
 62
     0
 48
50.0
100
AcDbLine
 10
1038.246562932154
 20
879.9963031197695
 30
0.0
 11
6358.246562932154
 21
879.9963031197695
 31
0.0
  0
INSERT
  5
12FB0
330
12F2B
100
AcDbEntity
  8
0
  6
ByBlock
 62
     0
 48
50.0
100
AcDbBlockReference
  2
_DOTSMALL
 10
1038.246562932154
 20
879.9963031197695
 30
0.0
 41
75.0
 42
75.0
 43
75.0
 50
180.0
  0
INSERT
  5
12FB1
330
12F2B
100
AcDbEntity
  8
0
  6
ByBlock
 62
     0
 48
50.0
100
AcDbBlockReference
  2
_DOTSMALL
 10
6358.246562932154
 20
879.9963031197695
 30
0.0
 41
75.0
 42
75.0
 43
75.0
  0
MTEXT
  5
12FB2
330
12F2B
100
AcDbEntity
  8
0
  6
ByBlock
 62
     7
 48
50.0
100
AcDbMText
 10
3698.246562932155
 20
955.005161387486
 30
0.0
 40
90.0
 41
0.0
 71
     5
 72
     1
  1
\A1;屋根寸法 5320
  7
STYLE1
 73
     1
 44
1.0
1001
ACAD
1000
MTEXTBEGIN
1070
    73
1070
     1
1070
    44
1040
1.0
1070
    74
1070
     0
1000
MTEXTEND
  0
POINT
  5
12FB3
330
12F2B
100
AcDbEntity
  8
DEFPOINTS
  6
ByBlock
 62
     0
 48
50.0
100
AcDbPoint
 10
1038.246562932154
 20
1269.768007716479
 30
0.0
  0
POINT
  5
12FB4
330
12F2B
100
AcDbEntity
  8
DEFPOINTS
  6
ByBlock
 62
     0
 48
50.0
100
AcDbPoint
 10
6358.246562932154
 20
1269.768007716479
 30
0.0
  0
POINT
  5
12FB5
330
12F2B
100
AcDbEntity
  8
DEFPOINTS
  6
ByBlock
 62
     0
 48
50.0
100
AcDbPoint
 10
6358.246562932154
 20
879.9963031197695
 30
0.0
  0
ENDBLK
  5
12FB6
330
12F2B
100
AcDbEntity
  8
0
 48
50.0
100
AcDbBlockEnd
  0
BLOCK
  5
12F80
330
12F7F
100
AcDbEntity
  8
0
 48
50.0
100
AcDbBlockBegin
  2
*D19
 70
     1
 10
0.0
 20
0.0
 30
0.0
  3
*D19
  1

  0
LINE
  5
12F81
330
12F7F
100
AcDbEntity
  8
0
  6
ByBlock
 62
     0
 48
50.0
100
AcDbLine
 10
3698.246562932155
 20
6480.166988013343
 30
0.0
 11
3698.246562932155
 21
7712.619282144449
 31
0.0
  0
LINE
  5
12F82
330
12F7F
100
AcDbEntity
  8
0
  6
ByBlock
 62
     0
 48
50.0
100
AcDbLine
 10
6108.246562932154
 20
6768.712005384263
 30
0.0
 11
6108.246562932154
 21
7712.619282144449
 31
0.0
  0
LINE
  5
12F83
330
12F7F
100
AcDbEntity
  8
0
  6
ByBlock
 62
     0
 48
50.0
100
AcDbLine
 10
3698.246562932155
 20
7667.619282144449
 30
0.0
 11
6108.246562932154
 21
7667.619282144449
 31
0.0
  0
INSERT
  5
12F84
330
12F7F
100
AcDbEntity
  8
0
  6
ByBlock
 62
     0
 48
50.0
100
AcDbBlockReference
  2
_DOTSMALL
 10
3698.246562932155
 20
7667.619282144449
 30
0.0
 41
75.0
 42
75.0
 43
75.0
 50
180.0
  0
INSERT
  5
12F85
330
12F7F
100
AcDbEntity
  8
0
  6
ByBlock
 62
     0
 48
50.0
100
AcDbBlockReference
  2
_DOTSMALL
 10
6108.246562932154
 20
7667.619282144449
 30
0.0
 41
75.0
 42
75.0
 43
75.0
  0
MTEXT
  5
12F86
330
12F7F
100
AcDbEntity
  8
0
  6
ByBlock
 62
     7
 48
50.0
100
AcDbMText
 10
4903.246562932154
 20
7742.628140412165
 30
0.0
 40
90.0
 41
0.0
 71
     5
 72
     1
  1
\A1;2410
  7
STYLE1
 73
     1
 44
1.0
1001
ACAD
1000
MTEXTBEGIN
1070
    73
1070
     1
1070
    44
1040
1.0
1070
    74
1070
     0
1000
MTEXTEND
  0
POINT
  5
12F87
330
12F7F
100
AcDbEntity
  8
DEFPOINTS
  6
ByBlock
 62
     0
 48
50.0
100
AcDbPoint
 10
3698.246562932155
 20
6465.166988013343
 30
0.0
  0
POINT
  5
12F88
330
12F7F
100
AcDbEntity
  8
DEFPOINTS
  6
ByBlock
 62
     0
 48
50.0
100
AcDbPoint
 10
6108.246562932154
 20
6753.712005384262
 30
0.0
  0
POINT
  5
12F89
330
12F7F
100
AcDbEntity
  8
DEFPOINTS
  6
ByBlock
 62
     0
 48
50.0
100
AcDbPoint
 10
6108.246562932154
 20
7667.619282144449
 30
0.0
  0
ENDBLK
  5
12F8A
330
12F7F
100
AcDbEntity
  8
0
 48
50.0
100
AcDbBlockEnd
  0
BLOCK
  5
12FC4
330
12FC3
100
AcDbEntity
  8
0
 48
50.0
100
AcDbBlockBegin
  2
*D20
 70
     1
 10
0.0
 20
0.0
 30
0.0
  3
*D20
  1

  0
LINE
  5
12FC5
330
12FC3
100
AcDbEntity
  8
0
  6
ByBlock
 62
     0
 48
50.0
100
AcDbLine
 10
3698.246562932155
 20
2534.768007716478
 30
0.0
 11
3698.246562932155
 21
3767.220301847584
 31
0.0
  0
LINE
  5
12FC6
330
12FC3
100
AcDbEntity
  8
0
  6
ByBlock
 62
     0
 48
50.0
100
AcDbLine
 10
6108.246562932154
 20
2823.313025087398
 30
0.0
 11
6108.246562932154
 21
3767.220301847584
 31
0.0
  0
LINE
  5
12FC7
330
12FC3
100
AcDbEntity
  8
0
  6
ByBlock
 62
     0
 48
50.0
100
AcDbLine
 10
3698.246562932155
 20
3722.220301847585
 30
0.0
 11
6108.246562932154
 21
3722.220301847585
 31
0.0
  0
INSERT
  5
12FC8
330
12FC3
100
AcDbEntity
  8
0
  6
ByBlock
 62
     0
 48
50.0
100
AcDbBlockReference
  2
_DOTSMALL
 10
3698.246562932155
 20
3722.220301847585
 30
0.0
 41
75.0
 42
75.0
 43
75.0
 50
180.0
  0
INSERT
  5
12FC9
330
12FC3
100
AcDbEntity
  8
0
  6
ByBlock
 62
     0
 48
50.0
100
AcDbBlockReference
  2
_DOTSMALL
 10
6108.246562932154
 20
3722.220301847585
 30
0.0
 41
75.0
 42
75.0
 43
75.0
  0
MTEXT
  5
12FCA
330
12FC3
100
AcDbEntity
  8
0
  6
ByBlock
 62
     7
 48
50.0
100
AcDbMText
 10
4903.246562932154
 20
3797.229160115301
 30
0.0
 40
90.0
 41
0.0
 71
     5
 72
     1
  1
\A1;2410
  7
STYLE1
 73
     1
 44
1.0
1001
ACAD
1000
MTEXTBEGIN
1070
    73
1070
     1
1070
    44
1040
1.0
1070
    74
1070
     0
1000
MTEXTEND
  0
POINT
  5
12FCB
330
12FC3
100
AcDbEntity
  8
DEFPOINTS
  6
ByBlock
 62
     0
 48
50.0
100
AcDbPoint
 10
3698.246562932155
 20
2519.768007716479
 30
0.0
  0
POINT
  5
12FCC
330
12FC3
100
AcDbEntity
  8
DEFPOINTS
  6
ByBlock
 62
     0
 48
50.0
100
AcDbPoint
 10
6108.246562932154
 20
2808.313025087398
 30
0.0
  0
POINT
  5
12FCD
330
12FC3
100
AcDbEntity
  8
DEFPOINTS
  6
ByBlock
 62
     0
 48
50.0
100
AcDbPoint
 10
6108.246562932154
 20
3722.220301847585
 30
0.0
  0
ENDBLK
  5
12FCE
330
12FC3
100
AcDbEntity
  8
0
 48
50.0
100
AcDbBlockEnd
  0
BLOCK
  5
13AAA
330
13AA9
100
AcDbEntity
  8
0
 48
50.0
100
AcDbBlockBegin
  2
*D40
 70
     1
 10
0.0
 20
0.0
 30
0.0
  3
*D40
  1

  0
LINE
  5
13AAB
330
13AA9
100
AcDbEntity
  8
0
  6
ByBlock
 62
     0
 48
50.0
100
AcDbLine
 10
10850.24049714666
 20
14841.59605101524
 30
0.0
 11
10850.24049714666
 21
15069.38541231524
 31
0.0
  0
LINE
  5
13AAC
330
13AA9
100
AcDbEntity
  8
0
  6
ByBlock
 62
     0
 48
50.0
100
AcDbLine
 10
11550.24049714666
 20
14841.59605101524
 30
0.0
 11
11550.24049714666
 21
15069.38541231524
 31
0.0
  0
LINE
  5
13AAD
330
13AA9
100
AcDbEntity
  8
0
  6
ByBlock
 62
     0
 48
50.0
100
AcDbLine
 10
10850.24049714666
 20
15024.38541231524
 30
0.0
 11
11550.24049714666
 21
15024.38541231524
 31
0.0
  0
INSERT
  5
13AAE
330
13AA9
100
AcDbEntity
  8
0
  6
ByBlock
 62
     0
 48
50.0
100
AcDbBlockReference
  2
_DOTSMALL
 10
10850.24049714666
 20
15024.38541231524
 30
0.0
 41
75.0
 42
75.0
 43
75.0
 50
180.0
  0
INSERT
  5
13AAF
330
13AA9
100
AcDbEntity
  8
0
  6
ByBlock
 62
     0
 48
50.0
100
AcDbBlockReference
  2
_DOTSMALL
 10
11550.24049714666
 20
15024.38541231524
 30
0.0
 41
75.0
 42
75.0
 43
75.0
  0
MTEXT
  5
13AB0
330
13AA9
100
AcDbEntity
  8
0
  6
ByBlock
 62
     7
 48
50.0
100
AcDbMText
 10
11200.24049714666
 20
15099.38541231524
 30
0.0
 40
90.0
 41
0.0
 71
     5
 72
     1
  1
\A1;700
  7
STYLE1
 73
     1
 44
1.0
1001
ACAD
1000
MTEXTBEGIN
1070
    73
1070
     1
1070
    44
1040
1.0
1070
    74
1070
     0
1000
MTEXTEND
  0
POINT
  5
13AB1
330
13AA9
100
AcDbEntity
  8
DEFPOINTS
  6
ByBlock
 62
     0
 48
50.0
100
AcDbPoint
 10
10850.24049714666
 20
14826.59605101524
 30
0.0
  0
POINT
  5
13AB2
330
13AA9
100
AcDbEntity
  8
DEFPOINTS
  6
ByBlock
 62
     0
 48
50.0
100
AcDbPoint
 10
11550.24049714666
 20
14826.59605101524
 30
0.0
  0
POINT
  5
13AB3
330
13AA9
100
AcDbEntity
  8
DEFPOINTS
  6
ByBlock
 62
     0
 48
50.0
100
AcDbPoint
 10
11550.24049714666
 20
15024.38541231524
 30
0.0
  0
ENDBLK
  5
13AB4
330
13AA9
100
AcDbEntity
  8
0
 48
50.0
100
AcDbBlockEnd
  0
BLOCK
  5
13AB6
330
13AB5
100
AcDbEntity
  8
0
 48
50.0
100
AcDbBlockBegin
  2
*D41
 70
     1
 10
0.0
 20
0.0
 30
0.0
  3
*D41
  1

  0
LINE
  5
13AB7
330
13AB5
100
AcDbEntity
  8
0
  6
ByBlock
 62
     0
 48
50.0
100
AcDbLine
 10
10835.24049714666
 20
14826.59605101524
 30
0.0
 11
10627.92599386248
 21
14826.59605101524
 31
0.0
  0
LINE
  5
13AB8
330
13AB5
100
AcDbEntity
  8
0
  6
ByBlock
 62
     0
 48
50.0
100
AcDbLine
 10
10835.24049714666
 20
14126.59605101524
 30
0.0
 11
10627.92599386248
 21
14126.59605101524
 31
0.0
  0
LINE
  5
13AB9
330
13AB5
100
AcDbEntity
  8
0
  6
ByBlock
 62
     0
 48
50.0
100
AcDbLine
 10
10672.92599386248
 20
14826.59605101524
 30
0.0
 11
10672.92599386248
 21
14126.59605101524
 31
0.0
  0
INSERT
  5
13ABA
330
13AB5
100
AcDbEntity
  8
0
  6
ByBlock
 62
     0
 48
50.0
100
AcDbBlockReference
  2
_DOTSMALL
 10
10672.92599386248
 20
14826.59605101524
 30
0.0
 41
75.0
 42
75.0
 43
75.0
 50
90.0
  0
INSERT
  5
13ABB
330
13AB5
100
AcDbEntity
  8
0
  6
ByBlock
 62
     0
 48
50.0
100
AcDbBlockReference
  2
_DOTSMALL
 10
10672.92599386248
 20
14126.59605101524
 30
0.0
 41
75.0
 42
75.0
 43
75.0
 50
270.0
  0
MTEXT
  5
13ABC
330
13AB5
100
AcDbEntity
  8
0
  6
ByBlock
 62
     7
 48
50.0
100
AcDbMText
 10
10597.92599386248
 20
14476.59605101524
 30
0.0
 40
90.0
 41
0.0
 71
     5
 72
     1
  1
\A1;700
  7
STYLE1
 11
0.0000000000000001
 21
1.0
 31
0.0
 73
     1
 44
1.0
1001
ACAD
1000
MTEXTBEGIN
1070
    73
1070
     1
1070
    44
1040
1.0
1070
    74
1070
     0
1000
MTEXTEND
  0
POINT
  5
13ABD
330
13AB5
100
AcDbEntity
  8
DEFPOINTS
  6
ByBlock
 62
     0
 48
50.0
100
AcDbPoint
 10
10850.24049714666
 20
14826.59605101524
 30
0.0
  0
POINT
  5
13ABE
330
13AB5
100
AcDbEntity
  8
DEFPOINTS
  6
ByBlock
 62
     0
 48
50.0
100
AcDbPoint
 10
10850.24049714666
 20
14126.59605101524
 30
0.0
  0
POINT
  5
13ABF
330
13AB5
100
AcDbEntity
  8
DEFPOINTS
  6
ByBlock
 62
     0
 48
50.0
100
AcDbPoint
 10
10672.92599386248
 20
14126.59605101524
 30
0.0
  0
ENDBLK
  5
13AC0
330
13AB5
100
AcDbEntity
  8
0
 48
50.0
100
AcDbBlockEnd
  0
BLOCK
  5
13AC4
330
13AC3
100
AcDbEntity
  8
0
 48
50.0
100
AcDbBlockBegin
  2
*D42
 70
     1
 10
0.0
 20
0.0
 30
0.0
  3
*D42
  1

  0
LINE
  5
13AC5
330
13AC3
100
AcDbEntity
  8
0
  6
ByBlock
 62
     0
 48
50.0
100
AcDbLine
 10
11300.24049714666
 20
14286.59605101524
 30
0.0
 11
11300.24049714666
 21
13862.07476770243
 31
0.0
  0
LINE
  5
13AC6
330
13AC3
100
AcDbEntity
  8
0
  6
ByBlock
 62
     0
 48
50.0
100
AcDbLine
 10
11100.24049714666
 20
14286.59605101524
 30
0.0
 11
11100.24049714666
 21
13862.07476770243
 31
0.0
  0
LINE
  5
13AC7
330
13AC3
100
AcDbEntity
  8
0
  6
ByBlock
 62
     0
 48
50.0
100
AcDbLine
 10
11300.24049714666
 20
13907.07476770244
 30
0.0
 11
11375.24049714666
 21
13907.07476770244
 31
0.0
  0
LINE
  5
13AC8
330
13AC3
100
AcDbEntity
  8
0
  6
ByBlock
 62
     0
 48
50.0
100
AcDbLine
 10
11100.24049714666
 20
13907.07476770244
 30
0.0
 11
11025.24049714666
 21
13907.07476770244
 31
0.0
  0
LINE
  5
13AC9
330
13AC3
100
AcDbEntity
  8
0
  6
ByBlock
 62
     0
 48
50.0
100
AcDbLine
 10
11300.24049714666
 20
13907.07476770244
 30
0.0
 11
11100.24049714666
 21
13907.07476770244
 31
0.0
  0
INSERT
  5
13ACA
330
13AC3
100
AcDbEntity
  8
0
  6
ByBlock
 62
     0
 48
50.0
100
AcDbBlockReference
  2
_DOTSMALL
 10
11300.24049714666
 20
13907.07476770244
 30
0.0
 41
75.0
 42
75.0
 43
75.0
 50
180.0
  0
INSERT
  5
13ACB
330
13AC3
100
AcDbEntity
  8
0
  6
ByBlock
 62
     0
 48
50.0
100
AcDbBlockReference
  2
_DOTSMALL
 10
11100.24049714666
 20
13907.07476770244
 30
0.0
 41
75.0
 42
75.0
 43
75.0
  0
MTEXT
  5
13ACC
330
13AC3
100
AcDbEntity
  8
0
  6
ByBlock
 62
     7
 48
50.0
100
AcDbMText
 10
11200.24049714666
 20
13982.08362597015
 30
0.0
 40
90.0
 41
0.0
 71
     5
 72
     1
  1
\A1;200
  7
STYLE1
 73
     1
 44
1.0
1001
ACAD
1000
MTEXTBEGIN
1070
    73
1070
     1
1070
    44
1040
1.0
1070
    74
1070
     0
1000
MTEXTEND
  0
POINT
  5
13ACD
330
13AC3
100
AcDbEntity
  8
DEFPOINTS
  6
ByBlock
 62
     0
 48
50.0
100
AcDbPoint
 10
11300.24049714666
 20
14301.59605101524
 30
0.0
  0
POINT
  5
13ACE
330
13AC3
100
AcDbEntity
  8
DEFPOINTS
  6
ByBlock
 62
     0
 48
50.0
100
AcDbPoint
 10
11100.24049714666
 20
14301.59605101524
 30
0.0
  0
POINT
  5
13ACF
330
13AC3
100
AcDbEntity
  8
DEFPOINTS
  6
ByBlock
 62
     0
 48
50.0
100
AcDbPoint
 10
11100.24049714666
 20
13907.07476770244
 30
0.0
  0
ENDBLK
  5
13AD0
330
13AC3
100
AcDbEntity
  8
0
 48
50.0
100
AcDbBlockEnd
  0
BLOCK
  5
13AD2
330
13AD1
100
AcDbEntity
  8
0
 48
50.0
100
AcDbBlockBegin
  2
*D43
 70
     1
 10
0.0
 20
0.0
 30
0.0
  3
*D43
  1

  0
LINE
  5
13AD3
330
13AD1
100
AcDbEntity
  8
0
  6
ByBlock
 62
     0
 48
50.0
100
AcDbLine
 10
11390.24049714666
 20
14376.59605101524
 30
0.0
 11
11756.82792428423
 21
14376.59605101524
 31
0.0
  0
LINE
  5
13AD4
330
13AD1
100
AcDbEntity
  8
0
  6
ByBlock
 62
     0
 48
50.0
100
AcDbLine
 10
11390.24049714666
 20
14576.59605101524
 30
0.0
 11
11756.82792428423
 21
14576.59605101524
 31
0.0
  0
LINE
  5
13AD5
330
13AD1
100
AcDbEntity
  8
0
  6
ByBlock
 62
     0
 48
50.0
100
AcDbLine
 10
11711.82792428423
 20
14376.59605101524
 30
0.0
 11
11711.82792428423
 21
14301.59605101524
 31
0.0
  0
LINE
  5
13AD6
330
13AD1
100
AcDbEntity
  8
0
  6
ByBlock
 62
     0
 48
50.0
100
AcDbLine
 10
11711.82792428423
 20
14576.59605101524
 30
0.0
 11
11711.82792428423
 21
14651.59605101524
 31
0.0
  0
LINE
  5
13AD7
330
13AD1
100
AcDbEntity
  8
0
  6
ByBlock
 62
     0
 48
50.0
100
AcDbLine
 10
11711.82792428423
 20
14376.59605101524
 30
0.0
 11
11711.82792428423
 21
14576.59605101524
 31
0.0
  0
INSERT
  5
13AD8
330
13AD1
100
AcDbEntity
  8
0
  6
ByBlock
 62
     0
 48
50.0
100
AcDbBlockReference
  2
_DOTSMALL
 10
11711.82792428423
 20
14376.59605101524
 30
0.0
 41
75.0
 42
75.0
 43
75.0
 50
90.0
  0
INSERT
  5
13AD9
330
13AD1
100
AcDbEntity
  8
0
  6
ByBlock
 62
     0
 48
50.0
100
AcDbBlockReference
  2
_DOTSMALL
 10
11711.82792428423
 20
14576.59605101524
 30
0.0
 41
75.0
 42
75.0
 43
75.0
 50
270.0
  0
MTEXT
  5
13ADA
330
13AD1
100
AcDbEntity
  8
0
  6
ByBlock
 62
     7
 48
50.0
100
AcDbMText
 10
11636.81906601652
 20
14476.59605101524
 30
0.0
 40
90.0
 41
0.0
 71
     5
 72
     1
  1
\A1;200
  7
STYLE1
 11
0.0000000000000001
 21
1.0
 31
0.0
 73
     1
 44
1.0
1001
ACAD
1000
MTEXTBEGIN
1070
    73
1070
     1
1070
    44
1040
1.0
1070
    74
1070
     0
1000
MTEXTEND
  0
POINT
  5
13ADB
330
13AD1
100
AcDbEntity
  8
DEFPOINTS
  6
ByBlock
 62
     0
 48
50.0
100
AcDbPoint
 10
11375.24049714666
 20
14376.59605101524
 30
0.0
  0
POINT
  5
13ADC
330
13AD1
100
AcDbEntity
  8
DEFPOINTS
  6
ByBlock
 62
     0
 48
50.0
100
AcDbPoint
 10
11375.24049714666
 20
14576.59605101524
 30
0.0
  0
POINT
  5
13ADD
330
13AD1
100
AcDbEntity
  8
DEFPOINTS
  6
ByBlock
 62
     0
 48
50.0
100
AcDbPoint
 10
11711.82792428423
 20
14576.59605101524
 30
0.0
  0
ENDBLK
  5
13ADE
330
13AD1
100
AcDbEntity
  8
0
 48
50.0
100
AcDbBlockEnd
  0
BLOCK
  5
13AE9
330
13AE8
100
AcDbEntity
  8
0
 48
50.0
100
AcDbBlockBegin
  2
*D44
 70
     1
 10
0.0
 20
0.0
 30
0.0
  3
*D44
  1

  0
LINE
  5
13AEA
330
13AE8
100
AcDbEntity
  8
0
  6
ByBlock
 62
     0
 48
50.0
100
AcDbLine
 10
10850.24049714666
 20
10896.19707071838
 30
0.0
 11
10850.24049714666
 21
11123.98643201837
 31
0.0
  0
LINE
  5
13AEB
330
13AE8
100
AcDbEntity
  8
0
  6
ByBlock
 62
     0
 48
50.0
100
AcDbLine
 10
11550.24049714666
 20
10896.19707071838
 30
0.0
 11
11550.24049714666
 21
11123.98643201837
 31
0.0
  0
LINE
  5
13AEC
330
13AE8
100
AcDbEntity
  8
0
  6
ByBlock
 62
     0
 48
50.0
100
AcDbLine
 10
10850.24049714666
 20
11078.98643201837
 30
0.0
 11
11550.24049714666
 21
11078.98643201837
 31
0.0
  0
INSERT
  5
13AED
330
13AE8
100
AcDbEntity
  8
0
  6
ByBlock
 62
     0
 48
50.0
100
AcDbBlockReference
  2
_DOTSMALL
 10
10850.24049714666
 20
11078.98643201837
 30
0.0
 41
75.0
 42
75.0
 43
75.0
 50
180.0
  0
INSERT
  5
13AEE
330
13AE8
100
AcDbEntity
  8
0
  6
ByBlock
 62
     0
 48
50.0
100
AcDbBlockReference
  2
_DOTSMALL
 10
11550.24049714666
 20
11078.98643201837
 30
0.0
 41
75.0
 42
75.0
 43
75.0
  0
MTEXT
  5
13AEF
330
13AE8
100
AcDbEntity
  8
0
  6
ByBlock
 62
     7
 48
50.0
100
AcDbMText
 10
11200.24049714666
 20
11153.98643201837
 30
0.0
 40
90.0
 41
0.0
 71
     5
 72
     1
  1
\A1;700
  7
STYLE1
 73
     1
 44
1.0
1001
ACAD
1000
MTEXTBEGIN
1070
    73
1070
     1
1070
    44
1040
1.0
1070
    74
1070
     0
1000
MTEXTEND
  0
POINT
  5
13AF0
330
13AE8
100
AcDbEntity
  8
DEFPOINTS
  6
ByBlock
 62
     0
 48
50.0
100
AcDbPoint
 10
10850.24049714666
 20
10881.19707071838
 30
0.0
  0
POINT
  5
13AF1
330
13AE8
100
AcDbEntity
  8
DEFPOINTS
  6
ByBlock
 62
     0
 48
50.0
100
AcDbPoint
 10
11550.24049714666
 20
10881.19707071838
 30
0.0
  0
POINT
  5
13AF2
330
13AE8
100
AcDbEntity
  8
DEFPOINTS
  6
ByBlock
 62
     0
 48
50.0
100
AcDbPoint
 10
11550.24049714666
 20
11078.98643201837
 30
0.0
  0
ENDBLK
  5
13AF3
330
13AE8
100
AcDbEntity
  8
0
 48
50.0
100
AcDbBlockEnd
  0
BLOCK
  5
13AF5
330
13AF4
100
AcDbEntity
  8
0
 48
50.0
100
AcDbBlockBegin
  2
*D45
 70
     1
 10
0.0
 20
0.0
 30
0.0
  3
*D45
  1

  0
LINE
  5
13AF6
330
13AF4
100
AcDbEntity
  8
0
  6
ByBlock
 62
     0
 48
50.0
100
AcDbLine
 10
10835.24049714666
 20
10881.19707071838
 30
0.0
 11
10627.92599386248
 21
10881.19707071838
 31
0.0
  0
LINE
  5
13AF7
330
13AF4
100
AcDbEntity
  8
0
  6
ByBlock
 62
     0
 48
50.0
100
AcDbLine
 10
10835.24049714666
 20
10181.19707071837
 30
0.0
 11
10627.92599386248
 21
10181.19707071837
 31
0.0
  0
LINE
  5
13AF8
330
13AF4
100
AcDbEntity
  8
0
  6
ByBlock
 62
     0
 48
50.0
100
AcDbLine
 10
10672.92599386248
 20
10881.19707071838
 30
0.0
 11
10672.92599386248
 21
10181.19707071837
 31
0.0
  0
INSERT
  5
13AF9
330
13AF4
100
AcDbEntity
  8
0
  6
ByBlock
 62
     0
 48
50.0
100
AcDbBlockReference
  2
_DOTSMALL
 10
10672.92599386248
 20
10881.19707071838
 30
0.0
 41
75.0
 42
75.0
 43
75.0
 50
90.0
  0
INSERT
  5
13AFA
330
13AF4
100
AcDbEntity
  8
0
  6
ByBlock
 62
     0
 48
50.0
100
AcDbBlockReference
  2
_DOTSMALL
 10
10672.92599386248
 20
10181.19707071837
 30
0.0
 41
75.0
 42
75.0
 43
75.0
 50
270.0
  0
MTEXT
  5
13AFB
330
13AF4
100
AcDbEntity
  8
0
  6
ByBlock
 62
     7
 48
50.0
100
AcDbMText
 10
10597.92599386248
 20
10531.19707071838
 30
0.0
 40
90.0
 41
0.0
 71
     5
 72
     1
  1
\A1;700
  7
STYLE1
 11
0.0000000000000001
 21
1.0
 31
0.0
 73
     1
 44
1.0
1001
ACAD
1000
MTEXTBEGIN
1070
    73
1070
     1
1070
    44
1040
1.0
1070
    74
1070
     0
1000
MTEXTEND
  0
POINT
  5
13AFC
330
13AF4
100
AcDbEntity
  8
DEFPOINTS
  6
ByBlock
 62
     0
 48
50.0
100
AcDbPoint
 10
10850.24049714666
 20
10881.19707071838
 30
0.0
  0
POINT
  5
13AFD
330
13AF4
100
AcDbEntity
  8
DEFPOINTS
  6
ByBlock
 62
     0
 48
50.0
100
AcDbPoint
 10
10850.24049714666
 20
10181.19707071837
 30
0.0
  0
POINT
  5
13AFE
330
13AF4
100
AcDbEntity
  8
DEFPOINTS
  6
ByBlock
 62
     0
 48
50.0
100
AcDbPoint
 10
10672.92599386248
 20
10181.19707071837
 30
0.0
  0
ENDBLK
  5
13AFF
330
13AF4
100
AcDbEntity
  8
0
 48
50.0
100
AcDbBlockEnd
  0
BLOCK
  5
13B4D
330
13B4C
100
AcDbEntity
  8
0
 48
50.0
100
AcDbBlockBegin
  2
_None
 70
     0
 10
0.0
 20
0.0
 30
0.0
  3
_None
  1

  0
ENDBLK
  5
13B4E
330
13B4C
100
AcDbEntity
  8
0
 48
50.0
100
AcDbBlockEnd
  0
BLOCK
  5
14034
330
14029
100
AcDbEntity
  8
0
 48
50.0
100
AcDbBlockBegin
  2
*D66
 70
     1
 10
0.0
 20
0.0
 30
0.0
  3
*D66
  1

  0
LINE
  5
1427A
330
14029
100
AcDbEntity
  8
寸法
 62
     0
 48
50.0
370
    -2
100
AcDbLine
 10
10134.74150214281
 20
2206.155748320803
 30
0.0
 11
10704.45010247398
 21
2206.155748320803
 31
0.0
  0
LINE
  5
1427B
330
14029
100
AcDbEntity
  8
寸法
 62
     0
 48
50.0
370
    -2
100
AcDbLine
 10
10134.74150214281
 20
2131.155748320804
 30
0.0
 11
10704.45010247398
 21
2131.155748320804
 31
0.0
  0
LINE
  5
1427C
330
14029
100
AcDbEntity
  8
寸法
 62
     0
 48
50.0
370
    -2
100
AcDbLine
 10
10659.45010247398
 20
2206.155748320803
 30
0.0
 11
10659.45010247398
 21
2131.155748320804
 31
0.0
  0
LINE
  5
1427D
330
14029
100
AcDbEntity
  8
寸法
 62
     0
 48
50.0
370
    -2
100
AcDbLine
 10
10659.45010247398
 20
2131.155748320804
 30
0.0
 11
10659.45010247398
 21
1871.917657769623
 31
0.0
  0
INSERT
  5
1427E
330
14029
100
AcDbEntity
  8
寸法
 62
     0
 48
50.0
370
    -2
100
AcDbBlockReference
  2
_DOTSMALL
 10
10659.45010247398
 20
2206.155748320803
 30
0.0
 41
75.0
 42
75.0
 43
75.0
 50
90.0
  0
INSERT
  5
1427F
330
14029
100
AcDbEntity
  8
寸法
 62
     0
 48
50.0
370
    -2
100
AcDbBlockReference
  2
_DOTSMALL
 10
10659.45010247398
 20
2131.155748320804
 30
0.0
 41
75.0
 42
75.0
 43
75.0
 50
270.0
  0
MTEXT
  5
14280
330
14029
100
AcDbEntity
  8
寸法
 62
     7
 48
50.0
100
AcDbMText
 10
10584.45010247398
 20
1951.453090840491
 30
0.0
 40
90.0
 41
0.0
 71
     5
 72
     1
  1
\A1;50
  7
STYLE1
 11
0.0000000000000001
 21
1.0
 31
0.0
 73
     1
 44
1.0
1001
ACAD
1000
MTEXTBEGIN
1070
    73
1070
     1
1070
    44
1040
1.0
1070
    74
1070
     0
1000
MTEXTEND
  0
POINT
  5
14281
330
14029
100
AcDbEntity
  8
DEFPOINTS
 62
     0
 48
50.0
100
AcDbPoint
 10
10119.74150214281
 20
2206.155748320803
 30
0.0
  0
POINT
  5
14282
330
14029
100
AcDbEntity
  8
DEFPOINTS
 62
     0
 48
50.0
100
AcDbPoint
 10
10119.74150214281
 20
2131.155748320804
 30
0.0
  0
POINT
  5
14283
330
14029
100
AcDbEntity
  8
DEFPOINTS
 62
     0
 48
50.0
100
AcDbPoint
 10
10659.45010247398
 20
2131.155748320804
 30
0.0
  0
ENDBLK
  5
14035
330
14029
100
AcDbEntity
  8
0
 48
50.0
100
AcDbBlockEnd
  0
BLOCK
  5
14040
330
14036
100
AcDbEntity
  8
0
 48
50.0
100
AcDbBlockBegin
  2
*D67
 70
     1
 10
0.0
 20
0.0
 30
0.0
  3
*D67
  1

  0
LINE
  5
14271
330
14036
100
AcDbEntity
  8
寸法
 62
     0
 48
50.0
370
    -2
100
AcDbLine
 10
10368.92972092473
 20
3030.602601503322
 30
0.0
 11
10704.45010247398
 21
3030.602601503322
 31
0.0
  0
LINE
  5
14272
330
14036
100
AcDbEntity
  8
寸法
 62
     0
 48
50.0
370
    -2
100
AcDbLine
 10
10134.74150214281
 20
2206.155748320803
 30
0.0
 11
10704.45010247398
 21
2206.155748320803
 31
0.0
  0
LINE
  5
14273
330
14036
100
AcDbEntity
  8
寸法
 62
     0
 48
50.0
370
    -2
100
AcDbLine
 10
10659.45010247398
 20
3030.602601503322
 30
0.0
 11
10659.45010247398
 21
2206.155748320803
 31
0.0
  0
INSERT
  5
14274
330
14036
100
AcDbEntity
  8
寸法
 62
     0
 48
50.0
370
    -2
100
AcDbBlockReference
  2
_DOTSMALL
 10
10659.45010247398
 20
3030.602601503322
 30
0.0
 41
75.0
 42
75.0
 43
75.0
 50
90.0
  0
INSERT
  5
14275
330
14036
100
AcDbEntity
  8
寸法
 62
     0
 48
50.0
370
    -2
100
AcDbBlockReference
  2
_DOTSMALL
 10
10659.45010247398
 20
2206.155748320803
 30
0.0
 41
75.0
 42
75.0
 43
75.0
 50
270.0
  0
MTEXT
  5
14276
330
14036
100
AcDbEntity
  8
寸法
 62
     7
 48
50.0
100
AcDbMText
 10
10584.45010247398
 20
2618.379174912064
 30
0.0
 40
90.0
 41
0.0
 71
     5
 72
     1
  1
\A1;550
  7
STYLE1
 11
0.0000000000000001
 21
1.0
 31
0.0
 73
     1
 44
1.0
1001
ACAD
1000
MTEXTBEGIN
1070
    73
1070
     1
1070
    44
1040
1.0
1070
    74
1070
     0
1000
MTEXTEND
  0
POINT
  5
14277
330
14036
100
AcDbEntity
  8
DEFPOINTS
 62
     0
 48
50.0
100
AcDbPoint
 10
10353.92972092473
 20
3030.602601503322
 30
0.0
  0
POINT
  5
14278
330
14036
100
AcDbEntity
  8
DEFPOINTS
 62
     0
 48
50.0
100
AcDbPoint
 10
10119.74150214281
 20
2206.155748320803
 30
0.0
  0
POINT
  5
14279
330
14036
100
AcDbEntity
  8
DEFPOINTS
 62
     0
 48
50.0
100
AcDbPoint
 10
10659.45010247398
 20
2206.155748320803
 30
0.0
  0
ENDBLK
  5
14041
330
14036
100
AcDbEntity
  8
0
 48
50.0
100
AcDbBlockEnd
  0
BLOCK
  5
1404C
330
14042
100
AcDbEntity
  8
0
 48
50.0
100
AcDbBlockBegin
  2
*D68
 70
     1
 10
0.0
 20
0.0
 30
0.0
  3
*D68
  1

  0
LINE
  5
14268
330
14042
100
AcDbEntity
  8
寸法
 62
     0
 48
50.0
370
    -2
100
AcDbLine
 10
10368.92972092473
 20
3030.602601503322
 30
0.0
 11
10547.13367361476
 21
3030.602601503322
 31
0.0
  0
LINE
  5
14269
330
14042
100
AcDbEntity
  8
寸法
 62
     0
 48
50.0
370
    -2
100
AcDbLine
 10
9529.741502142814
 20
2355.655748320804
 30
0.0
 11
10547.13367361476
 21
2355.655748320804
 31
0.0
  0
LINE
  5
1426A
330
14042
100
AcDbEntity
  8
寸法
 62
     0
 48
50.0
370
    -2
100
AcDbLine
 10
10502.13367361476
 20
3030.602601503322
 30
0.0
 11
10502.13367361476
 21
2355.655748320804
 31
0.0
  0
INSERT
  5
1426B
330
14042
100
AcDbEntity
  8
寸法
 62
     0
 48
50.0
370
    -2
100
AcDbBlockReference
  2
_DOTSMALL
 10
10502.13367361476
 20
3030.602601503322
 30
0.0
 41
75.0
 42
75.0
 43
75.0
 50
90.0
  0
INSERT
  5
1426C
330
14042
100
AcDbEntity
  8
寸法
 62
     0
 48
50.0
370
    -2
100
AcDbBlockReference
  2
_DOTSMALL
 10
10502.13367361476
 20
2355.655748320804
 30
0.0
 41
75.0
 42
75.0
 43
75.0
 50
270.0
  0
MTEXT
  5
1426D
330
14042
100
AcDbEntity
  8
寸法
 62
     7
 48
50.0
100
AcDbMText
 10
10427.13367361476
 20
2693.129174912063
 30
0.0
 40
90.0
 41
0.0
 71
     5
 72
     1
  1
\A1;450
  7
STYLE1
 11
0.0000000000000001
 21
1.0
 31
0.0
 73
     1
 44
1.0
1001
ACAD
1000
MTEXTBEGIN
1070
    73
1070
     1
1070
    44
1040
1.0
1070
    74
1070
     0
1000
MTEXTEND
  0
POINT
  5
1426E
330
14042
100
AcDbEntity
  8
DEFPOINTS
 62
     0
 48
50.0
100
AcDbPoint
 10
10353.92972092473
 20
3030.602601503322
 30
0.0
  0
POINT
  5
1426F
330
14042
100
AcDbEntity
  8
DEFPOINTS
 62
     0
 48
50.0
100
AcDbPoint
 10
9514.741502142813
 20
2355.655748320804
 30
0.0
  0
POINT
  5
14270
330
14042
100
AcDbEntity
  8
DEFPOINTS
 62
     0
 48
50.0
100
AcDbPoint
 10
10502.13367361476
 20
2355.655748320804
 30
0.0
  0
ENDBLK
  5
1404D
330
14042
100
AcDbEntity
  8
0
 48
50.0
100
AcDbBlockEnd
  0
BLOCK
  5
14059
330
1404E
100
AcDbEntity
  8
0
 48
50.0
100
AcDbBlockBegin
  2
*D69
 70
     1
 10
0.0
 20
0.0
 30
0.0
  3
*D69
  1

  0
LINE
  5
1425E
330
1404E
100
AcDbEntity
  8
寸法
 62
     0
 48
50.0
370
    -2
100
AcDbLine
 10
10226.94429003245
 20
3105.602601503321
 30
0.0
 11
10704.45010247398
 21
3105.602601503321
 31
0.0
  0
LINE
  5
1425F
330
1404E
100
AcDbEntity
  8
寸法
 62
     0
 48
50.0
370
    -2
100
AcDbLine
 10
10368.92972092473
 20
3030.602601503322
 30
0.0
 11
10704.45010247398
 21
3030.602601503322
 31
0.0
  0
LINE
  5
14260
330
1404E
100
AcDbEntity
  8
寸法
 62
     0
 48
50.0
370
    -2
100
AcDbLine
 10
10659.45010247398
 20
3030.602601503322
 30
0.0
 11
10659.45010247398
 21
3105.602601503321
 31
0.0
  0
LINE
  5
14261
330
1404E
100
AcDbEntity
  8
寸法
 62
     0
 48
50.0
370
    -2
100
AcDbLine
 10
10659.45010247398
 20
3105.602601503321
 30
0.0
 11
10659.45010247398
 21
3394.001995604866
 31
0.0
  0
INSERT
  5
14262
330
1404E
100
AcDbEntity
  8
寸法
 62
     0
 48
50.0
370
    -2
100
AcDbBlockReference
  2
_DOTSMALL
 10
10659.45010247398
 20
3030.602601503322
 30
0.0
 41
75.0
 42
75.0
 43
75.0
 50
270.0
  0
INSERT
  5
14263
330
1404E
100
AcDbEntity
  8
寸法
 62
     0
 48
50.0
370
    -2
100
AcDbBlockReference
  2
_DOTSMALL
 10
10659.45010247398
 20
3105.602601503321
 30
0.0
 41
75.0
 42
75.0
 43
75.0
 50
90.0
  0
MTEXT
  5
14264
330
1404E
100
AcDbEntity
  8
寸法
 62
     7
 48
50.0
100
AcDbMText
 10
10584.45010247398
 20
3314.466562534001
 30
0.0
 40
90.0
 41
0.0
 71
     5
 72
     1
  1
\A1;50
  7
STYLE1
 11
0.0000000000000001
 21
1.0
 31
0.0
 73
     1
 44
1.0
1001
ACAD
1000
MTEXTBEGIN
1070
    73
1070
     1
1070
    44
1040
1.0
1070
    74
1070
     0
1000
MTEXTEND
  0
POINT
  5
14265
330
1404E
100
AcDbEntity
  8
DEFPOINTS
 62
     0
 48
50.0
100
AcDbPoint
 10
10211.94429003245
 20
3105.602601503321
 30
0.0
  0
POINT
  5
14266
330
1404E
100
AcDbEntity
  8
DEFPOINTS
 62
     0
 48
50.0
100
AcDbPoint
 10
10353.92972092473
 20
3030.602601503322
 30
0.0
  0
POINT
  5
14267
330
1404E
100
AcDbEntity
  8
DEFPOINTS
 62
     0
 48
50.0
100
AcDbPoint
 10
10659.45010247398
 20
3030.602601503322
 30
0.0
  0
ENDBLK
  5
1405A
330
1404E
100
AcDbEntity
  8
0
 48
50.0
100
AcDbBlockEnd
  0
BLOCK
  5
14066
330
1405B
100
AcDbEntity
  8
0
 48
50.0
100
AcDbBlockBegin
  2
*D70
 70
     1
 10
0.0
 20
0.0
 30
0.0
  3
*D70
  1

  0
LINE
  5
14254
330
1405B
100
AcDbEntity
  8
寸法
 62
     0
 48
50.0
370
    -2
100
AcDbLine
 10
8661.59921177185
 20
2955.602601503322
 30
0.0
 11
8441.468876561604
 21
2955.602601503322
 31
0.0
  0
LINE
  5
14255
330
1405B
100
AcDbEntity
  8
寸法
 62
     0
 48
50.0
370
    -2
100
AcDbLine
 10
8661.59921177185
 20
2805.602601503322
 30
0.0
 11
8441.468876561604
 21
2805.602601503322
 31
0.0
  0
LINE
  5
14256
330
1405B
100
AcDbEntity
  8
寸法
 62
     0
 48
50.0
370
    -2
100
AcDbLine
 10
8486.468876561604
 20
2955.602601503322
 30
0.0
 11
8486.468876561604
 21
2805.602601503322
 31
0.0
  0
LINE
  5
14257
330
1405B
100
AcDbEntity
  8
寸法
 62
     0
 48
50.0
370
    -2
100
AcDbLine
 10
8486.468876561604
 20
2805.602601503322
 30
0.0
 11
8486.468876561604
 21
2526.531735361588
 31
0.0
  0
INSERT
  5
14258
330
1405B
100
AcDbEntity
  8
寸法
 62
     0
 48
50.0
370
    -2
100
AcDbBlockReference
  2
_DOTSMALL
 10
8486.468876561604
 20
2955.602601503322
 30
0.0
 41
75.0
 42
75.0
 43
75.0
 50
90.0
  0
INSERT
  5
14259
330
1405B
100
AcDbEntity
  8
寸法
 62
     0
 48
50.0
370
    -2
100
AcDbBlockReference
  2
_DOTSMALL
 10
8486.468876561604
 20
2805.602601503322
 30
0.0
 41
75.0
 42
75.0
 43
75.0
 50
270.0
  0
MTEXT
  5
1425A
330
1405B
100
AcDbEntity
  8
寸法
 62
     7
 48
50.0
100
AcDbMText
 10
8411.468876561604
 20
2628.567168432456
 30
0.0
 40
90.0
 41
0.0
 71
     5
 72
     1
  1
\A1;100
  7
STYLE1
 11
0.0000000000000001
 21
1.0
 31
0.0
 73
     1
 44
1.0
1001
ACAD
1000
MTEXTBEGIN
1070
    73
1070
     1
1070
    44
1040
1.0
1070
    74
1070
     0
1000
MTEXTEND
  0
POINT
  5
1425B
330
1405B
100
AcDbEntity
  8
DEFPOINTS
 62
     0
 48
50.0
100
AcDbPoint
 10
8676.599211771851
 20
2955.602601503322
 30
0.0
  0
POINT
  5
1425C
330
1405B
100
AcDbEntity
  8
DEFPOINTS
 62
     0
 48
50.0
100
AcDbPoint
 10
8676.599211771851
 20
2805.602601503322
 30
0.0
  0
POINT
  5
1425D
330
1405B
100
AcDbEntity
  8
DEFPOINTS
 62
     0
 48
50.0
100
AcDbPoint
 10
8486.468876561604
 20
2805.602601503322
 30
0.0
  0
ENDBLK
  5
14067
330
1405B
100
AcDbEntity
  8
0
 48
50.0
100
AcDbBlockEnd
  0
BLOCK
  5
14073
330
14068
100
AcDbEntity
  8
0
 48
50.0
100
AcDbBlockBegin
  2
*D71
 70
     1
 10
0.0
 20
0.0
 30
0.0
  3
*D71
  1

  0
LINE
  5
1424A
330
14068
100
AcDbEntity
  8
寸法
 62
     0
 48
50.0
370
    -2
100
AcDbLine
 10
8661.599211771852
 20
3105.602601503321
 30
0.0
 11
8441.468876561604
 21
3105.602601503321
 31
0.0
  0
LINE
  5
1424B
330
14068
100
AcDbEntity
  8
寸法
 62
     0
 48
50.0
370
    -2
100
AcDbLine
 10
8651.357204600069
 20
2955.602601503321
 30
0.0
 11
8441.468876561604
 21
2955.602601503321
 31
0.0
  0
LINE
  5
1424C
330
14068
100
AcDbEntity
  8
寸法
 62
     0
 48
50.0
370
    -2
100
AcDbLine
 10
8486.468876561604
 20
2955.602601503321
 30
0.0
 11
8486.468876561604
 21
3105.602601503321
 31
0.0
  0
LINE
  5
1424D
330
14068
100
AcDbEntity
  8
寸法
 62
     0
 48
50.0
370
    -2
100
AcDbLine
 10
8486.468876561604
 20
3105.602601503321
 30
0.0
 11
8486.468876561604
 21
3384.673467645053
 31
0.0
  0
INSERT
  5
1424E
330
14068
100
AcDbEntity
  8
寸法
 62
     0
 48
50.0
370
    -2
100
AcDbBlockReference
  2
_DOTSMALL
 10
8486.468876561604
 20
2955.602601503321
 30
0.0
 41
75.0
 42
75.0
 43
75.0
 50
270.0
  0
INSERT
  5
1424F
330
14068
100
AcDbEntity
  8
寸法
 62
     0
 48
50.0
370
    -2
100
AcDbBlockReference
  2
_DOTSMALL
 10
8486.468876561604
 20
3105.602601503321
 30
0.0
 41
75.0
 42
75.0
 43
75.0
 50
90.0
  0
MTEXT
  5
14250
330
14068
100
AcDbEntity
  8
寸法
 62
     7
 48
50.0
100
AcDbMText
 10
8411.468876561604
 20
3282.638034574188
 30
0.0
 40
90.0
 41
0.0
 71
     5
 72
     1
  1
\A1;100
  7
STYLE1
 11
0.0000000000000001
 21
1.0
 31
0.0
 73
     1
 44
1.0
1001
ACAD
1000
MTEXTBEGIN
1070
    73
1070
     1
1070
    44
1040
1.0
1070
    74
1070
     0
1000
MTEXTEND
  0
POINT
  5
14251
330
14068
100
AcDbEntity
  8
DEFPOINTS
 62
     0
 48
50.0
100
AcDbPoint
 10
8676.599211771852
 20
3105.602601503321
 30
0.0
  0
POINT
  5
14252
330
14068
100
AcDbEntity
  8
DEFPOINTS
 62
     0
 48
50.0
100
AcDbPoint
 10
8666.357204600068
 20
2955.602601503321
 30
0.0
  0
POINT
  5
14253
330
14068
100
AcDbEntity
  8
DEFPOINTS
 62
     0
 48
50.0
100
AcDbPoint
 10
8486.468876561604
 20
2955.602601503321
 30
0.0
  0
ENDBLK
  5
14074
330
14068
100
AcDbEntity
  8
0
 48
50.0
100
AcDbBlockEnd
  0
BLOCK
  5
1407F
330
14075
100
AcDbEntity
  8
0
 48
50.0
100
AcDbBlockBegin
  2
*D72
 70
     1
 10
0.0
 20
0.0
 30
0.0
  3
*D72
  1

  0
LINE
  5
14241
330
14075
100
AcDbEntity
  8
寸法
 62
     0
 48
50.0
370
    -2
100
AcDbLine
 10
8949.741502142815
 20
1990.155748320803
 30
0.0
 11
8949.741502142815
 21
1708.10567576239
 31
0.0
  0
LINE
  5
14242
330
14075
100
AcDbEntity
  8
寸法
 62
     0
 48
50.0
370
    -2
100
AcDbLine
 10
9999.741502142816
 20
1990.155748320803
 30
0.0
 11
9999.741502142816
 21
1708.10567576239
 31
0.0
  0
LINE
  5
14243
330
14075
100
AcDbEntity
  8
寸法
 62
     0
 48
50.0
370
    -2
100
AcDbLine
 10
8949.741502142815
 20
1753.10567576239
 30
0.0
 11
9999.741502142816
 21
1753.10567576239
 31
0.0
  0
INSERT
  5
14244
330
14075
100
AcDbEntity
  8
寸法
 62
     0
 48
50.0
370
    -2
100
AcDbBlockReference
  2
_DOTSMALL
 10
8949.741502142815
 20
1753.10567576239
 30
0.0
 41
75.0
 42
75.0
 43
75.0
 50
180.0
  0
INSERT
  5
14245
330
14075
100
AcDbEntity
  8
寸法
 62
     0
 48
50.0
370
    -2
100
AcDbBlockReference
  2
_DOTSMALL
 10
9999.741502142816
 20
1753.10567576239
 30
0.0
 41
75.0
 42
75.0
 43
75.0
  0
MTEXT
  5
14246
330
14075
100
AcDbEntity
  8
寸法
 62
     7
 48
50.0
100
AcDbMText
 10
9474.741502142816
 20
1828.10567576239
 30
0.0
 40
90.0
 41
0.0
 71
     5
 72
     1
  1
\A1;700
  7
STYLE1
 73
     1
 44
1.0
1001
ACAD
1000
MTEXTBEGIN
1070
    73
1070
     1
1070
    44
1040
1.0
1070
    74
1070
     0
1000
MTEXTEND
  0
POINT
  5
14247
330
14075
100
AcDbEntity
  8
DEFPOINTS
 62
     0
 48
50.0
100
AcDbPoint
 10
8949.741502142815
 20
2005.155748320804
 30
0.0
  0
POINT
  5
14248
330
14075
100
AcDbEntity
  8
DEFPOINTS
 62
     0
 48
50.0
100
AcDbPoint
 10
9999.741502142816
 20
2005.155748320804
 30
0.0
  0
POINT
  5
14249
330
14075
100
AcDbEntity
  8
DEFPOINTS
 62
     0
 48
50.0
100
AcDbPoint
 10
9999.741502142816
 20
1753.10567576239
 30
0.0
  0
ENDBLK
  5
14080
330
14075
100
AcDbEntity
  8
0
 48
50.0
100
AcDbBlockEnd
  0
BLOCK
  5
1408B
330
14081
100
AcDbEntity
  8
0
 48
50.0
100
AcDbBlockBegin
  2
*D73
 70
     1
 10
0.0
 20
0.0
 30
0.0
  3
*D73
  1

  0
LINE
  5
14238
330
14081
100
AcDbEntity
  8
寸法
 62
     0
 48
50.0
370
    -2
100
AcDbLine
 10
8949.741502142821
 20
5271.136281726281
 30
0.0
 11
8949.741502142821
 21
4821.188069236652
 31
0.0
  0
LINE
  5
14239
330
14081
100
AcDbEntity
  8
寸法
 62
     0
 48
50.0
370
    -2
100
AcDbLine
 10
9999.741502142821
 20
5271.136281726281
 30
0.0
 11
9999.741502142821
 21
4821.188069236652
 31
0.0
  0
LINE
  5
1423A
330
14081
100
AcDbEntity
  8
寸法
 62
     0
 48
50.0
370
    -2
100
AcDbLine
 10
8949.741502142821
 20
4866.188069236653
 30
0.0
 11
9999.741502142821
 21
4866.188069236653
 31
0.0
  0
INSERT
  5
1423B
330
14081
100
AcDbEntity
  8
寸法
 62
     0
 48
50.0
370
    -2
100
AcDbBlockReference
  2
_DOTSMALL
 10
8949.741502142821
 20
4866.188069236653
 30
0.0
 41
75.0
 42
75.0
 43
75.0
 50
180.0
  0
INSERT
  5
1423C
330
14081
100
AcDbEntity
  8
寸法
 62
     0
 48
50.0
370
    -2
100
AcDbBlockReference
  2
_DOTSMALL
 10
9999.741502142821
 20
4866.188069236653
 30
0.0
 41
75.0
 42
75.0
 43
75.0
  0
MTEXT
  5
1423D
330
14081
100
AcDbEntity
  8
寸法
 62
     7
 48
50.0
100
AcDbMText
 10
9474.741502142821
 20
4941.188069236652
 30
0.0
 40
90.0
 41
0.0
 71
     5
 72
     1
  1
\A1;700
  7
STYLE1
 73
     1
 44
1.0
1001
ACAD
1000
MTEXTBEGIN
1070
    73
1070
     1
1070
    44
1040
1.0
1070
    74
1070
     0
1000
MTEXTEND
  0
POINT
  5
1423E
330
14081
100
AcDbEntity
  8
DEFPOINTS
 62
     0
 48
50.0
100
AcDbPoint
 10
8949.741502142821
 20
5286.136281726282
 30
0.0
  0
POINT
  5
1423F
330
14081
100
AcDbEntity
  8
DEFPOINTS
 62
     0
 48
50.0
100
AcDbPoint
 10
9999.741502142821
 20
5286.136281726282
 30
0.0
  0
POINT
  5
14240
330
14081
100
AcDbEntity
  8
DEFPOINTS
 62
     0
 48
50.0
100
AcDbPoint
 10
9999.741502142821
 20
4866.188069236653
 30
0.0
  0
ENDBLK
  5
1408C
330
14081
100
AcDbEntity
  8
0
 48
50.0
100
AcDbBlockEnd
  0
BLOCK
  5
14098
330
1408D
100
AcDbEntity
  8
0
 48
50.0
100
AcDbBlockBegin
  2
*D74
 70
     1
 10
0.0
 20
0.0
 30
0.0
  3
*D74
  1

  0
LINE
  5
1422E
330
1408D
100
AcDbEntity
  8
寸法
 62
     0
 48
50.0
370
    -2
100
AcDbLine
 10
8661.599211771857
 20
6386.583134908798
 30
0.0
 11
8153.230666064384
 21
6386.583134908798
 31
0.0
  0
LINE
  5
1422F
330
1408D
100
AcDbEntity
  8
寸法
 62
     0
 48
50.0
370
    -2
100
AcDbLine
 10
8651.357204600072
 20
6236.583134908798
 30
0.0
 11
8153.230666064384
 21
6236.583134908798
 31
0.0
  0
LINE
  5
14230
330
1408D
100
AcDbEntity
  8
寸法
 62
     0
 48
50.0
370
    -2
100
AcDbLine
 10
8198.230666064384
 20
6236.583134908798
 30
0.0
 11
8198.230666064384
 21
6386.583134908798
 31
0.0
  0
LINE
  5
14231
330
1408D
100
AcDbEntity
  8
寸法
 62
     0
 48
50.0
370
    -2
100
AcDbLine
 10
8198.230666064384
 20
6386.583134908798
 30
0.0
 11
8198.230666064384
 21
6691.919595481988
 31
0.0
  0
INSERT
  5
14232
330
1408D
100
AcDbEntity
  8
寸法
 62
     0
 48
50.0
370
    -2
100
AcDbBlockReference
  2
_DOTSMALL
 10
8198.230666064384
 20
6236.583134908798
 30
0.0
 41
75.0
 42
75.0
 43
75.0
 50
270.0
  0
INSERT
  5
14233
330
1408D
100
AcDbEntity
  8
寸法
 62
     0
 48
50.0
370
    -2
100
AcDbBlockReference
  2
_DOTSMALL
 10
8198.230666064384
 20
6386.583134908798
 30
0.0
 41
75.0
 42
75.0
 43
75.0
 50
90.0
  0
MTEXT
  5
14234
330
1408D
100
AcDbEntity
  8
寸法
 62
     7
 48
50.0
100
AcDbMText
 10
8123.230666064383
 20
6589.884162411124
 30
0.0
 40
90.0
 41
0.0
 71
     5
 72
     1
  1
\A1;100
  7
STYLE1
 11
0.0000000000000001
 21
1.0
 31
0.0
 73
     1
 44
1.0
1001
ACAD
1000
MTEXTBEGIN
1070
    73
1070
     1
1070
    44
1040
1.0
1070
    74
1070
     0
1000
MTEXTEND
  0
POINT
  5
14235
330
1408D
100
AcDbEntity
  8
DEFPOINTS
 62
     0
 48
50.0
100
AcDbPoint
 10
8676.599211771858
 20
6386.583134908798
 30
0.0
  0
POINT
  5
14236
330
1408D
100
AcDbEntity
  8
DEFPOINTS
 62
     0
 48
50.0
100
AcDbPoint
 10
8666.357204600073
 20
6236.583134908798
 30
0.0
  0
POINT
  5
14237
330
1408D
100
AcDbEntity
  8
DEFPOINTS
 62
     0
 48
50.0
100
AcDbPoint
 10
8198.230666064384
 20
6236.583134908798
 30
0.0
  0
ENDBLK
  5
14099
330
1408D
100
AcDbEntity
  8
0
 48
50.0
100
AcDbBlockEnd
  0
BLOCK
  5
140A5
330
1409A
100
AcDbEntity
  8
0
 48
50.0
100
AcDbBlockBegin
  2
*D75
 70
     1
 10
0.0
 20
0.0
 30
0.0
  3
*D75
  1

  0
LINE
  5
14224
330
1409A
100
AcDbEntity
  8
寸法
 62
     0
 48
50.0
370
    -2
100
AcDbLine
 10
8661.599211771855
 20
6236.583134908801
 30
0.0
 11
8153.230666064384
 21
6236.583134908801
 31
0.0
  0
LINE
  5
14225
330
1409A
100
AcDbEntity
  8
寸法
 62
     0
 48
50.0
370
    -2
100
AcDbLine
 10
8661.599211771855
 20
6086.5831349088
 30
0.0
 11
8153.230666064384
 21
6086.5831349088
 31
0.0
  0
LINE
  5
14226
330
1409A
100
AcDbEntity
  8
寸法
 62
     0
 48
50.0
370
    -2
100
AcDbLine
 10
8198.230666064384
 20
6236.583134908801
 30
0.0
 11
8198.230666064384
 21
6086.5831349088
 31
0.0
  0
LINE
  5
14227
330
1409A
100
AcDbEntity
  8
寸法
 62
     0
 48
50.0
370
    -2
100
AcDbLine
 10
8198.230666064384
 20
6086.5831349088
 30
0.0
 11
8198.230666064384
 21
5807.512268767066
 31
0.0
  0
INSERT
  5
14228
330
1409A
100
AcDbEntity
  8
寸法
 62
     0
 48
50.0
370
    -2
100
AcDbBlockReference
  2
_DOTSMALL
 10
8198.230666064384
 20
6236.583134908801
 30
0.0
 41
75.0
 42
75.0
 43
75.0
 50
90.0
  0
INSERT
  5
14229
330
1409A
100
AcDbEntity
  8
寸法
 62
     0
 48
50.0
370
    -2
100
AcDbBlockReference
  2
_DOTSMALL
 10
8198.230666064384
 20
6086.5831349088
 30
0.0
 41
75.0
 42
75.0
 43
75.0
 50
270.0
  0
MTEXT
  5
1422A
330
1409A
100
AcDbEntity
  8
寸法
 62
     7
 48
50.0
100
AcDbMText
 10
8123.230666064383
 20
5909.547701837933
 30
0.0
 40
90.0
 41
0.0
 71
     5
 72
     1
  1
\A1;100
  7
STYLE1
 11
0.0000000000000001
 21
1.0
 31
0.0
 73
     1
 44
1.0
1001
ACAD
1000
MTEXTBEGIN
1070
    73
1070
     1
1070
    44
1040
1.0
1070
    74
1070
     0
1000
MTEXTEND
  0
POINT
  5
1422B
330
1409A
100
AcDbEntity
  8
DEFPOINTS
 62
     0
 48
50.0
100
AcDbPoint
 10
8676.599211771856
 20
6236.583134908801
 30
0.0
  0
POINT
  5
1422C
330
1409A
100
AcDbEntity
  8
DEFPOINTS
 62
     0
 48
50.0
100
AcDbPoint
 10
8676.599211771856
 20
6086.5831349088
 30
0.0
  0
POINT
  5
1422D
330
1409A
100
AcDbEntity
  8
DEFPOINTS
 62
     0
 48
50.0
100
AcDbPoint
 10
8198.230666064384
 20
6086.5831349088
 30
0.0
  0
ENDBLK
  5
140A6
330
1409A
100
AcDbEntity
  8
0
 48
50.0
100
AcDbBlockEnd
  0
BLOCK
  5
140B2
330
140A7
100
AcDbEntity
  8
0
 48
50.0
100
AcDbBlockBegin
  2
*D76
 70
     1
 10
0.0
 20
0.0
 30
0.0
  3
*D76
  1

  0
LINE
  5
1421A
330
140A7
100
AcDbEntity
  8
寸法
 62
     0
 48
50.0
370
    -2
100
AcDbLine
 10
10226.94429003246
 20
6386.583134908798
 30
0.0
 11
10704.45010247398
 21
6386.583134908797
 31
0.0
  0
LINE
  5
1421B
330
140A7
100
AcDbEntity
  8
寸法
 62
     0
 48
50.0
370
    -2
100
AcDbLine
 10
10368.92972092474
 20
6311.583134908801
 30
0.0
 11
10704.45010247398
 21
6311.583134908801
 31
0.0
  0
LINE
  5
1421C
330
140A7
100
AcDbEntity
  8
寸法
 62
     0
 48
50.0
370
    -2
100
AcDbLine
 10
10659.45010247398
 20
6311.583134908801
 30
0.0
 11
10659.45010247398
 21
6386.583134908797
 31
0.0
  0
LINE
  5
1421D
330
140A7
100
AcDbEntity
  8
寸法
 62
     0
 48
50.0
370
    -2
100
AcDbLine
 10
10659.45010247398
 20
6386.583134908797
 30
0.0
 11
10659.45010247398
 21
6674.982529010343
 31
0.0
  0
INSERT
  5
1421E
330
140A7
100
AcDbEntity
  8
寸法
 62
     0
 48
50.0
370
    -2
100
AcDbBlockReference
  2
_DOTSMALL
 10
10659.45010247398
 20
6311.583134908801
 30
0.0
 41
75.0
 42
75.0
 43
75.0
 50
270.0
  0
INSERT
  5
1421F
330
140A7
100
AcDbEntity
  8
寸法
 62
     0
 48
50.0
370
    -2
100
AcDbBlockReference
  2
_DOTSMALL
 10
10659.45010247398
 20
6386.583134908797
 30
0.0
 41
75.0
 42
75.0
 43
75.0
 50
90.0
  0
MTEXT
  5
14220
330
140A7
100
AcDbEntity
  8
寸法
 62
     7
 48
50.0
100
AcDbMText
 10
10584.45010247398
 20
6595.44709593948
 30
0.0
 40
90.0
 41
0.0
 71
     5
 72
     1
  1
\A1;50
  7
STYLE1
 11
0.0000000000000001
 21
1.0
 31
0.0
 73
     1
 44
1.0
1001
ACAD
1000
MTEXTBEGIN
1070
    73
1070
     1
1070
    44
1040
1.0
1070
    74
1070
     0
1000
MTEXTEND
  0
POINT
  5
14221
330
140A7
100
AcDbEntity
  8
DEFPOINTS
 62
     0
 48
50.0
100
AcDbPoint
 10
10211.94429003246
 20
6386.583134908798
 30
0.0
  0
POINT
  5
14222
330
140A7
100
AcDbEntity
  8
DEFPOINTS
 62
     0
 48
50.0
100
AcDbPoint
 10
10353.92972092474
 20
6311.583134908801
 30
0.0
  0
POINT
  5
14223
330
140A7
100
AcDbEntity
  8
DEFPOINTS
 62
     0
 48
50.0
100
AcDbPoint
 10
10659.45010247398
 20
6311.583134908801
 30
0.0
  0
ENDBLK
  5
140B3
330
140A7
100
AcDbEntity
  8
0
 48
50.0
100
AcDbBlockEnd
  0
BLOCK
  5
140BE
330
140B4
100
AcDbEntity
  8
0
 48
50.0
100
AcDbBlockBegin
  2
*D77
 70
     1
 10
0.0
 20
0.0
 30
0.0
  3
*D77
  1

  0
LINE
  5
14211
330
140B4
100
AcDbEntity
  8
寸法
 62
     0
 48
50.0
370
    -2
100
AcDbLine
 10
10368.92972092474
 20
6311.583134908801
 30
0.0
 11
10704.45010247399
 21
6311.583134908801
 31
0.0
  0
LINE
  5
14212
330
140B4
100
AcDbEntity
  8
寸法
 62
     0
 48
50.0
370
    -2
100
AcDbLine
 10
10409.43806056728
 20
6086.5831349088
 30
0.0
 11
10704.45010247399
 21
6086.5831349088
 31
0.0
  0
LINE
  5
14213
330
140B4
100
AcDbEntity
  8
寸法
 62
     0
 48
50.0
370
    -2
100
AcDbLine
 10
10659.45010247399
 20
6311.583134908801
 30
0.0
 11
10659.45010247399
 21
6086.5831349088
 31
0.0
  0
INSERT
  5
14214
330
140B4
100
AcDbEntity
  8
寸法
 62
     0
 48
50.0
370
    -2
100
AcDbBlockReference
  2
_DOTSMALL
 10
10659.45010247399
 20
6311.583134908801
 30
0.0
 41
75.0
 42
75.0
 43
75.0
 50
90.0
  0
INSERT
  5
14215
330
140B4
100
AcDbEntity
  8
寸法
 62
     0
 48
50.0
370
    -2
100
AcDbBlockReference
  2
_DOTSMALL
 10
10659.45010247399
 20
6086.5831349088
 30
0.0
 41
75.0
 42
75.0
 43
75.0
 50
270.0
  0
MTEXT
  5
14216
330
140B4
100
AcDbEntity
  8
寸法
 62
     7
 48
50.0
100
AcDbMText
 10
10584.45010247398
 20
6199.0831349088
 30
0.0
 40
90.0
 41
0.0
 71
     5
 72
     1
  1
\A1;150
  7
STYLE1
 11
0.0000000000000001
 21
1.0
 31
0.0
 73
     1
 44
1.0
1001
ACAD
1000
MTEXTBEGIN
1070
    73
1070
     1
1070
    44
1040
1.0
1070
    74
1070
     0
1000
MTEXTEND
  0
POINT
  5
14217
330
140B4
100
AcDbEntity
  8
DEFPOINTS
 62
     0
 48
50.0
100
AcDbPoint
 10
10353.92972092474
 20
6311.583134908801
 30
0.0
  0
POINT
  5
14218
330
140B4
100
AcDbEntity
  8
DEFPOINTS
 62
     0
 48
50.0
100
AcDbPoint
 10
10394.43806056728
 20
6086.5831349088
 30
0.0
  0
POINT
  5
14219
330
140B4
100
AcDbEntity
  8
DEFPOINTS
 62
     0
 48
50.0
100
AcDbPoint
 10
10659.45010247399
 20
6086.5831349088
 30
0.0
  0
ENDBLK
  5
140BF
330
140B4
100
AcDbEntity
  8
0
 48
50.0
100
AcDbBlockEnd
  0
BLOCK
  5
140CA
330
140C0
100
AcDbEntity
  8
0
 48
50.0
100
AcDbBlockBegin
  2
*D78
 70
     1
 10
0.0
 20
0.0
 30
0.0
  3
*D78
  1

  0
LINE
  5
14208
330
140C0
100
AcDbEntity
  8
寸法
 62
     0
 48
50.0
370
    -2
100
AcDbLine
 10
10409.43806056728
 20
6086.5831349088
 30
0.0
 11
10704.45010247398
 21
6086.5831349088
 31
0.0
  0
LINE
  5
14209
330
140C0
100
AcDbEntity
  8
寸法
 62
     0
 48
50.0
370
    -2
100
AcDbLine
 10
10134.74150214282
 20
5487.136281726282
 30
0.0
 11
10704.45010247398
 21
5487.13628172628
 31
0.0
  0
LINE
  5
1420A
330
140C0
100
AcDbEntity
  8
寸法
 62
     0
 48
50.0
370
    -2
100
AcDbLine
 10
10659.45010247398
 20
6086.5831349088
 30
0.0
 11
10659.45010247398
 21
5487.13628172628
 31
0.0
  0
INSERT
  5
1420B
330
140C0
100
AcDbEntity
  8
寸法
 62
     0
 48
50.0
370
    -2
100
AcDbBlockReference
  2
_DOTSMALL
 10
10659.45010247398
 20
6086.5831349088
 30
0.0
 41
75.0
 42
75.0
 43
75.0
 50
90.0
  0
INSERT
  5
1420C
330
140C0
100
AcDbEntity
  8
寸法
 62
     0
 48
50.0
370
    -2
100
AcDbBlockReference
  2
_DOTSMALL
 10
10659.45010247398
 20
5487.13628172628
 30
0.0
 41
75.0
 42
75.0
 43
75.0
 50
270.0
  0
MTEXT
  5
1420D
330
140C0
100
AcDbEntity
  8
寸法
 62
     7
 48
50.0
100
AcDbMText
 10
10584.45010247398
 20
5786.859708317542
 30
0.0
 40
90.0
 41
0.0
 71
     5
 72
     1
  1
\A1;400
  7
STYLE1
 11
0.0000000000000001
 21
1.0
 31
0.0
 73
     1
 44
1.0
1001
ACAD
1000
MTEXTBEGIN
1070
    73
1070
     1
1070
    44
1040
1.0
1070
    74
1070
     0
1000
MTEXTEND
  0
POINT
  5
1420E
330
140C0
100
AcDbEntity
  8
DEFPOINTS
 62
     0
 48
50.0
100
AcDbPoint
 10
10394.43806056728
 20
6086.5831349088
 30
0.0
  0
POINT
  5
1420F
330
140C0
100
AcDbEntity
  8
DEFPOINTS
 62
     0
 48
50.0
100
AcDbPoint
 10
10119.74150214282
 20
5487.136281726282
 30
0.0
  0
POINT
  5
14210
330
140C0
100
AcDbEntity
  8
DEFPOINTS
 62
     0
 48
50.0
100
AcDbPoint
 10
10659.45010247398
 20
5487.13628172628
 30
0.0
  0
ENDBLK
  5
140CB
330
140C0
100
AcDbEntity
  8
0
 48
50.0
100
AcDbBlockEnd
  0
BLOCK
  5
140D7
330
140CC
100
AcDbEntity
  8
0
 48
50.0
100
AcDbBlockBegin
  2
*D79
 70
     1
 10
0.0
 20
0.0
 30
0.0
  3
*D79
  1

  0
LINE
  5
141FE
330
140CC
100
AcDbEntity
  8
寸法
 62
     0
 48
50.0
370
    -2
100
AcDbLine
 10
10134.74150214282
 20
5487.136281726282
 30
0.0
 11
10704.45010247398
 21
5487.13628172628
 31
0.0
  0
LINE
  5
141FF
330
140CC
100
AcDbEntity
  8
寸法
 62
     0
 48
50.0
370
    -2
100
AcDbLine
 10
10134.74150214282
 20
5412.136281726282
 30
0.0
 11
10704.45010247398
 21
5412.13628172628
 31
0.0
  0
LINE
  5
14200
330
140CC
100
AcDbEntity
  8
寸法
 62
     0
 48
50.0
370
    -2
100
AcDbLine
 10
10659.45010247398
 20
5487.13628172628
 30
0.0
 11
10659.45010247398
 21
5412.13628172628
 31
0.0
  0
LINE
  5
14201
330
140CC
100
AcDbEntity
  8
寸法
 62
     0
 48
50.0
370
    -2
100
AcDbLine
 10
10659.45010247398
 20
5412.13628172628
 30
0.0
 11
10659.45010247398
 21
5152.898191175101
 31
0.0
  0
INSERT
  5
14202
330
140CC
100
AcDbEntity
  8
寸法
 62
     0
 48
50.0
370
    -2
100
AcDbBlockReference
  2
_DOTSMALL
 10
10659.45010247398
 20
5487.13628172628
 30
0.0
 41
75.0
 42
75.0
 43
75.0
 50
90.0
  0
INSERT
  5
14203
330
140CC
100
AcDbEntity
  8
寸法
 62
     0
 48
50.0
370
    -2
100
AcDbBlockReference
  2
_DOTSMALL
 10
10659.45010247398
 20
5412.13628172628
 30
0.0
 41
75.0
 42
75.0
 43
75.0
 50
270.0
  0
MTEXT
  5
14204
330
140CC
100
AcDbEntity
  8
寸法
 62
     7
 48
50.0
100
AcDbMText
 10
10584.45010247398
 20
5232.433624245969
 30
0.0
 40
90.0
 41
0.0
 71
     5
 72
     1
  1
\A1;50
  7
STYLE1
 11
0.0000000000000001
 21
1.0
 31
0.0
 73
     1
 44
1.0
1001
ACAD
1000
MTEXTBEGIN
1070
    73
1070
     1
1070
    44
1040
1.0
1070
    74
1070
     0
1000
MTEXTEND
  0
POINT
  5
14205
330
140CC
100
AcDbEntity
  8
DEFPOINTS
 62
     0
 48
50.0
100
AcDbPoint
 10
10119.74150214282
 20
5487.136281726282
 30
0.0
  0
POINT
  5
14206
330
140CC
100
AcDbEntity
  8
DEFPOINTS
 62
     0
 48
50.0
100
AcDbPoint
 10
10119.74150214282
 20
5412.136281726282
 30
0.0
  0
POINT
  5
14207
330
140CC
100
AcDbEntity
  8
DEFPOINTS
 62
     0
 48
50.0
100
AcDbPoint
 10
10659.45010247398
 20
5412.13628172628
 30
0.0
  0
ENDBLK
  5
140D8
330
140CC
100
AcDbEntity
  8
0
 48
50.0
100
AcDbBlockEnd
  0
BLOCK
  5
140E5
330
140D9
100
AcDbEntity
  8
0
 48
50.0
100
AcDbBlockBegin
  2
*D80
 70
     1
 10
0.0
 20
0.0
 30
0.0
  3
*D80
  1

  0
LINE
  5
141F3
330
140D9
100
AcDbEntity
  8
寸法
 62
     0
 48
50.0
370
    -2
100
AcDbLine
 10
8661.599211771855
 20
6086.583134908799
 30
0.0
 11
8519.280010485379
 21
6086.583134908799
 31
0.0
  0
LINE
  5
141F4
330
140D9
100
AcDbEntity
  8
寸法
 62
     0
 48
50.0
370
    -2
100
AcDbLine
 10
9272.241502142819
 20
6131.583134908797
 30
0.0
 11
8519.280010485379
 21
6131.583134908797
 31
0.0
  0
LINE
  5
141F5
330
140D9
100
AcDbEntity
  8
寸法
 62
     0
 48
50.0
370
    -2
100
AcDbLine
 10
8564.280010485379
 20
6131.583134908797
 30
0.0
 11
8564.280010485379
 21
6206.583134908798
 31
0.0
  0
LINE
  5
141F6
330
140D9
100
AcDbEntity
  8
寸法
 62
     0
 48
50.0
370
    -2
100
AcDbLine
 10
8564.280010485379
 20
6086.583134908799
 30
0.0
 11
8564.280010485379
 21
5777.512268767066
 31
0.0
  0
LINE
  5
141F7
330
140D9
100
AcDbEntity
  8
寸法
 62
     0
 48
50.0
370
    -2
100
AcDbLine
 10
8564.280010485379
 20
6131.583134908797
 30
0.0
 11
8564.280010485379
 21
6086.583134908799
 31
0.0
  0
INSERT
  5
141F8
330
140D9
100
AcDbEntity
  8
寸法
 62
     0
 48
50.0
370
    -2
100
AcDbBlockReference
  2
_DOTSMALL
 10
8564.280010485379
 20
6131.583134908797
 30
0.0
 41
75.0
 42
75.0
 43
75.0
 50
270.0
  0
INSERT
  5
141F9
330
140D9
100
AcDbEntity
  8
寸法
 62
     0
 48
50.0
370
    -2
100
AcDbBlockReference
  2
_DOTSMALL
 10
8564.280010485379
 20
6086.583134908799
 30
0.0
 41
75.0
 42
75.0
 43
75.0
 50
90.0
  0
MTEXT
  5
141FA
330
140D9
100
AcDbEntity
  8
寸法
 62
     7
 48
50.0
100
AcDbMText
 10
8489.280010485378
 20
5857.047701837933
 30
0.0
 40
90.0
 41
0.0
 71
     5
 72
     1
  1
\A1;30
  7
STYLE1
 11
0.0000000000000001
 21
1.0
 31
0.0
 73
     1
 44
1.0
1001
ACAD
1000
MTEXTBEGIN
1070
    73
1070
     1
1070
    44
1040
1.0
1070
    74
1070
     0
1000
MTEXTEND
  0
POINT
  5
141FB
330
140D9
100
AcDbEntity
  8
DEFPOINTS
 62
     0
 48
50.0
100
AcDbPoint
 10
8676.599211771856
 20
6086.583134908799
 30
0.0
  0
POINT
  5
141FC
330
140D9
100
AcDbEntity
  8
DEFPOINTS
 62
     0
 48
50.0
100
AcDbPoint
 10
9287.241502142817
 20
6131.583134908797
 30
0.0
  0
POINT
  5
141FD
330
140D9
100
AcDbEntity
  8
DEFPOINTS
 62
     0
 48
50.0
100
AcDbPoint
 10
8564.280010485379
 20
6131.583134908797
 30
0.0
  0
ENDBLK
  5
140E6
330
140D9
100
AcDbEntity
  8
0
 48
50.0
100
AcDbBlockEnd
  0
BLOCK
  5
140F2
330
140E7
100
AcDbEntity
  8
0
 48
50.0
100
AcDbBlockBegin
  2
*D81
 70
     1
 10
0.0
 20
0.0
 30
0.0
  3
*D81
  1

  0
LINE
  5
142B2
330
140E7
100
AcDbEntity
  8
寸法
 62
     0
 48
50.0
370
    -2
100
AcDbLine
 10
8661.599211771855
 20
6086.5831349088
 30
0.0
 11
8333.479107092133
 21
6086.5831349088
 31
0.0
  0
LINE
  5
142B3
330
140E7
100
AcDbEntity
  8
寸法
 62
     0
 48
50.0
370
    -2
100
AcDbLine
 10
9300.741502142818
 20
6176.083134908798
 30
0.0
 11
8333.479107092133
 21
6176.083134908798
 31
0.0
  0
LINE
  5
142B4
330
140E7
100
AcDbEntity
  8
寸法
 62
     0
 48
50.0
370
    -2
100
AcDbLine
 10
8378.479107092132
 20
6176.083134908798
 30
0.0
 11
8378.479107092132
 21
6086.5831349088
 31
0.0
  0
LINE
  5
142B5
330
140E7
100
AcDbEntity
  8
寸法
 62
     0
 48
50.0
370
    -2
100
AcDbLine
 10
8378.479107092132
 20
6086.5831349088
 30
0.0
 11
8378.479107092132
 21
5847.126441995412
 31
0.0
  0
INSERT
  5
142B6
330
140E7
100
AcDbEntity
  8
寸法
 62
     0
 48
50.0
370
    -2
100
AcDbBlockReference
  2
_DOTSMALL
 10
8378.479107092132
 20
6176.083134908798
 30
0.0
 41
75.0
 42
75.0
 43
75.0
 50
90.0
  0
INSERT
  5
142B7
330
140E7
100
AcDbEntity
  8
寸法
 62
     0
 48
50.0
370
    -2
100
AcDbBlockReference
  2
_DOTSMALL
 10
8378.479107092132
 20
6086.5831349088
 30
0.0
 41
75.0
 42
75.0
 43
75.0
 50
270.0
  0
MTEXT
  5
142B8
330
140E7
100
AcDbEntity
  8
寸法
 62
     7
 48
50.0
100
AcDbMText
 10
8303.479107092131
 20
5929.354788452107
 30
0.0
 40
90.0
 41
0.0
 71
     5
 72
     1
  1
\A1;60
  7
STYLE1
 11
0.0000000000000001
 21
1.0
 31
0.0
 73
     1
 44
1.0
1001
ACAD
1000
MTEXTBEGIN
1070
    73
1070
     1
1070
    44
1040
1.0
1070
    74
1070
     0
1000
MTEXTEND
  0
POINT
  5
142B9
330
140E7
100
AcDbEntity
  8
DEFPOINTS
 62
     0
 48
50.0
100
AcDbPoint
 10
8676.599211771856
 20
6086.5831349088
 30
0.0
  0
POINT
  5
142BA
330
140E7
100
AcDbEntity
  8
DEFPOINTS
 62
     0
 48
50.0
100
AcDbPoint
 10
9315.741502142817
 20
6176.083134908798
 30
0.0
  0
POINT
  5
142BB
330
140E7
100
AcDbEntity
  8
DEFPOINTS
 62
     0
 48
50.0
100
AcDbPoint
 10
8378.479107092132
 20
6176.083134908798
 30
0.0
  0
ENDBLK
  5
140F3
330
140E7
100
AcDbEntity
  8
0
 48
50.0
100
AcDbBlockEnd
  0
BLOCK
  5
140FE
330
140F4
100
AcDbEntity
  8
0
 48
50.0
100
AcDbBlockBegin
  2
*D82
 70
     1
 10
0.0
 20
0.0
 30
0.0
  3
*D82
  1

  0
LINE
  5
141E0
330
140F4
100
AcDbEntity
  8
寸法
 62
     0
 48
50.0
370
    -2
100
AcDbLine
 10
9999.741502142821
 20
5271.136281726281
 30
0.0
 11
9999.741502142821
 21
4986.598783490083
 31
0.0
  0
LINE
  5
141E1
330
140F4
100
AcDbEntity
  8
寸法
 62
     0
 48
50.0
370
    -2
100
AcDbLine
 10
9624.741502142818
 20
5271.136281726281
 30
0.0
 11
9624.741502142818
 21
4986.598783490083
 31
0.0
  0
LINE
  5
141E2
330
140F4
100
AcDbEntity
  8
寸法
 62
     0
 48
50.0
370
    -2
100
AcDbLine
 10
9999.741502142821
 20
5031.598783490082
 30
0.0
 11
9624.741502142818
 21
5031.598783490082
 31
0.0
  0
INSERT
  5
141E3
330
140F4
100
AcDbEntity
  8
寸法
 62
     0
 48
50.0
370
    -2
100
AcDbBlockReference
  2
_DOTSMALL
 10
9999.741502142821
 20
5031.598783490082
 30
0.0
 41
75.0
 42
75.0
 43
75.0
  0
INSERT
  5
141E4
330
140F4
100
AcDbEntity
  8
寸法
 62
     0
 48
50.0
370
    -2
100
AcDbBlockReference
  2
_DOTSMALL
 10
9624.741502142818
 20
5031.598783490082
 30
0.0
 41
75.0
 42
75.0
 43
75.0
 50
180.0
  0
MTEXT
  5
141E5
330
140F4
100
AcDbEntity
  8
寸法
 62
     7
 48
50.0
100
AcDbMText
 10
9812.241502142819
 20
5106.607641757799
 30
0.0
 40
90.0
 41
0.0
 71
     5
 72
     1
  1
\A1;250
  7
STYLE1
 73
     1
 44
1.0
1001
ACAD
1000
MTEXTBEGIN
1070
    73
1070
     1
1070
    44
1040
1.0
1070
    74
1070
     0
1000
MTEXTEND
  0
POINT
  5
141E6
330
140F4
100
AcDbEntity
  8
DEFPOINTS
 62
     0
 48
50.0
100
AcDbPoint
 10
9999.741502142821
 20
5286.136281726282
 30
0.0
  0
POINT
  5
141E7
330
140F4
100
AcDbEntity
  8
DEFPOINTS
 62
     0
 48
50.0
100
AcDbPoint
 10
9624.741502142818
 20
5286.136281726282
 30
0.0
  0
POINT
  5
141E8
330
140F4
100
AcDbEntity
  8
DEFPOINTS
 62
     0
 48
50.0
100
AcDbPoint
 10
9624.741502142818
 20
5031.598783490082
 30
0.0
  0
ENDBLK
  5
140FF
330
140F4
100
AcDbEntity
  8
0
 48
50.0
100
AcDbBlockEnd
  0
BLOCK
  5
1410A
330
14100
100
AcDbEntity
  8
0
 48
50.0
100
AcDbBlockBegin
  2
*D83
 70
     1
 10
0.0
 20
0.0
 30
0.0
  3
*D83
  1

  0
LINE
  5
141D7
330
14100
100
AcDbEntity
  8
寸法
 62
     0
 48
50.0
370
    -2
100
AcDbLine
 10
9624.741502142818
 20
5271.136281726281
 30
0.0
 11
9624.741502142818
 21
4986.598783490083
 31
0.0
  0
LINE
  5
141D8
330
14100
100
AcDbEntity
  8
寸法
 62
     0
 48
50.0
370
    -2
100
AcDbLine
 10
9324.741502142817
 20
5271.136281726281
 30
0.0
 11
9324.741502142817
 21
4986.598783490083
 31
0.0
  0
LINE
  5
141D9
330
14100
100
AcDbEntity
  8
寸法
 62
     0
 48
50.0
370
    -2
100
AcDbLine
 10
9624.741502142818
 20
5031.598783490082
 30
0.0
 11
9324.741502142817
 21
5031.598783490082
 31
0.0
  0
INSERT
  5
141DA
330
14100
100
AcDbEntity
  8
寸法
 62
     0
 48
50.0
370
    -2
100
AcDbBlockReference
  2
_DOTSMALL
 10
9624.741502142818
 20
5031.598783490082
 30
0.0
 41
75.0
 42
75.0
 43
75.0
  0
INSERT
  5
141DB
330
14100
100
AcDbEntity
  8
寸法
 62
     0
 48
50.0
370
    -2
100
AcDbBlockReference
  2
_DOTSMALL
 10
9324.741502142817
 20
5031.598783490082
 30
0.0
 41
75.0
 42
75.0
 43
75.0
 50
180.0
  0
MTEXT
  5
141DC
330
14100
100
AcDbEntity
  8
寸法
 62
     7
 48
50.0
100
AcDbMText
 10
9474.741502142817
 20
5106.607641757799
 30
0.0
 40
90.0
 41
0.0
 71
     5
 72
     1
  1
\A1;200
  7
STYLE1
 73
     1
 44
1.0
1001
ACAD
1000
MTEXTBEGIN
1070
    73
1070
     1
1070
    44
1040
1.0
1070
    74
1070
     0
1000
MTEXTEND
  0
POINT
  5
141DD
330
14100
100
AcDbEntity
  8
DEFPOINTS
 62
     0
 48
50.0
100
AcDbPoint
 10
9624.741502142818
 20
5286.136281726282
 30
0.0
  0
POINT
  5
141DE
330
14100
100
AcDbEntity
  8
DEFPOINTS
 62
     0
 48
50.0
100
AcDbPoint
 10
9324.741502142817
 20
5286.136281726282
 30
0.0
  0
POINT
  5
141DF
330
14100
100
AcDbEntity
  8
DEFPOINTS
 62
     0
 48
50.0
100
AcDbPoint
 10
9324.741502142817
 20
5031.598783490082
 30
0.0
  0
ENDBLK
  5
1410B
330
14100
100
AcDbEntity
  8
0
 48
50.0
100
AcDbBlockEnd
  0
BLOCK
  5
14116
330
1410C
100
AcDbEntity
  8
0
 48
50.0
100
AcDbBlockBegin
  2
*D84
 70
     1
 10
0.0
 20
0.0
 30
0.0
  3
*D84
  1

  0
LINE
  5
141CE
330
1410C
100
AcDbEntity
  8
寸法
 62
     0
 48
50.0
370
    -2
100
AcDbLine
 10
9324.741502142817
 20
5271.136281726281
 30
0.0
 11
9324.741502142817
 21
4986.598783490083
 31
0.0
  0
LINE
  5
141CF
330
1410C
100
AcDbEntity
  8
寸法
 62
     0
 48
50.0
370
    -2
100
AcDbLine
 10
8949.741502142821
 20
5271.136281726281
 30
0.0
 11
8949.741502142821
 21
4986.598783490083
 31
0.0
  0
LINE
  5
141D0
330
1410C
100
AcDbEntity
  8
寸法
 62
     0
 48
50.0
370
    -2
100
AcDbLine
 10
9324.741502142817
 20
5031.598783490082
 30
0.0
 11
8949.741502142821
 21
5031.598783490082
 31
0.0
  0
INSERT
  5
141D1
330
1410C
100
AcDbEntity
  8
寸法
 62
     0
 48
50.0
370
    -2
100
AcDbBlockReference
  2
_DOTSMALL
 10
9324.741502142817
 20
5031.598783490082
 30
0.0
 41
75.0
 42
75.0
 43
75.0
  0
INSERT
  5
141D2
330
1410C
100
AcDbEntity
  8
寸法
 62
     0
 48
50.0
370
    -2
100
AcDbBlockReference
  2
_DOTSMALL
 10
8949.741502142821
 20
5031.598783490082
 30
0.0
 41
75.0
 42
75.0
 43
75.0
 50
180.0
  0
MTEXT
  5
141D3
330
1410C
100
AcDbEntity
  8
寸法
 62
     7
 48
50.0
100
AcDbMText
 10
9137.241502142819
 20
5106.607641757799
 30
0.0
 40
90.0
 41
0.0
 71
     5
 72
     1
  1
\A1;250
  7
STYLE1
 73
     1
 44
1.0
1001
ACAD
1000
MTEXTBEGIN
1070
    73
1070
     1
1070
    44
1040
1.0
1070
    74
1070
     0
1000
MTEXTEND
  0
POINT
  5
141D4
330
1410C
100
AcDbEntity
  8
DEFPOINTS
 62
     0
 48
50.0
100
AcDbPoint
 10
9324.741502142817
 20
5286.136281726282
 30
0.0
  0
POINT
  5
141D5
330
1410C
100
AcDbEntity
  8
DEFPOINTS
 62
     0
 48
50.0
100
AcDbPoint
 10
8949.741502142821
 20
5286.136281726282
 30
0.0
  0
POINT
  5
141D6
330
1410C
100
AcDbEntity
  8
DEFPOINTS
 62
     0
 48
50.0
100
AcDbPoint
 10
8949.741502142821
 20
5031.598783490082
 30
0.0
  0
ENDBLK
  5
14117
330
1410C
100
AcDbEntity
  8
0
 48
50.0
100
AcDbBlockEnd
  0
ENDSEC
  0
SECTION
  2
ENTITIES
  0
LINE
  5
10B56
330
747D
100
AcDbEntity
  8
補助
  6
PHANTOM
 62
   230
 48
50.0
100
AcDbLine
 10
105.0
 20
0.0
 30
0.0
 11
104.9999999999996
 21
8557.199999999999
 31
0.0
  0
LINE
  5
10B57
330
747D
100
AcDbEntity
  8
補助
  6
PHANTOM
 62
   230
 48
50.0
100
AcDbLine
 10
104.9999999999996
 20
8557.199999999999
 30
0.0
 11
12230.4
 21
8557.199999999999
 31
0.0
  0
LINE
  5
10B5D
330
747D
100
AcDbEntity
  8
仕様書枠
 48
50.0
100
AcDbLine
 10
105.0
 20
0.0
 30
0.0
 11
12230.4
 21
-0.0000000000000682
 31
0.0
  0
LINE
  5
10B5E
330
747D
100
AcDbEntity
  8
補助
  6
PHANTOM
 62
   230
 48
50.0
100
AcDbLine
 10
12230.4
 20
8557.199999999999
 30
0.0
 11
12230.4
 21
900.0
 31
0.0
  0
LINE
  5
10B6D
330
747D
100
AcDbEntity
  8
補助
  6
PHANTOM
 62
   230
 48
50.0
100
AcDbLine
 10
9830.400000000002
 20
8557.199999999999
 30
0.0
 11
9830.400000000002
 21
3600.0
 31
0.0
  0
LINE
  5
10B6F
330
747D
100
AcDbEntity
  8
補助
  6
PHANTOM
 62
   230
 48
50.0
100
AcDbLine
 10
9830.400000000002
 20
3600.0
 30
0.0
 11
12230.4
 21
3600.0
 31
0.0
  0
LINE
  5
11AA1
330
747D
100
AcDbEntity
  8
点線
 48
30.0
100
AcDbLine
 10
1784.871284556649
 20
3269.768007716479
 30
0.0
 11
1784.871284556649
 21
1269.768007716479
 31
0.0
  0
MTEXT
  5
11AA2
330
747D
100
AcDbEntity
  8
寸法
 62
     7
 48
50.0
100
AcDbMText
 10
5267.05538516032
 20
1924.05518581127
 30
0.0
 40
90.0
 41
0.0
 71
     4
 72
     1
  1
\A1;水勾配 1/100 
  7
STYLE1
 11
0.0000000000000001
 21
1.0
 31
0.0
 73
     1
 44
1.0
1001
ACAD
1000
MTEXTBEGIN
1070
    73
1070
     1
1070
    44
1040
1.0
1070
    74
1070
     0
1000
MTEXTEND
  0
LINE
  5
11AA3
330
747D
100
AcDbEntity
  8
文字
 48
50.0
100
AcDbLine
 10
5361.493321226125
 20
2159.591169781602
 30
0.0
 11
5361.493321226125
 21
1523.078770319662
 31
0.0
  0
DIMENSION
  5
11AA7
330
747D
100
AcDbEntity
  8
寸法
 48
50.0
100
AcDbDimension
  2
*D1
 10
1121.250085828958
 20
1269.768007716479
 30
0.0
 11
1046.241227561242
 21
2269.768007716479
 31
0.0
 12
746.6247216244956
 22
0.0
 32
0.0
 70
    32
  1
基礎寸法 <>
 71
     5
 42
-1.0
  3
INABA_S30G
100
AcDbAlignedDimension
 13
1784.871284556649
 23
3269.768007716479
 33
0.0
 14
1784.871284556649
 24
1269.768007716479
 34
0.0
 50
90.0
100
AcDbRotatedDimension
  0
LINE
  5
11AAA
330
747D
100
AcDbEntity
  8
点線
 48
30.0
100
AcDbLine
 10
7104.87128455665
 20
1269.768007716479
 30
0.0
 11
7104.87128455665
 21
3269.768007716479
 31
0.0
  0
LINE
  5
11AB2
330
747D
100
AcDbEntity
  8
センター
 48
10.0
100
AcDbLine
 10
1784.871284556649
 20
2269.76800771648
 30
0.0
 11
2284.87128455665
 21
2269.768007716479
 31
0.0
  0
DIMENSION
  5
11AB4
330
747D
100
AcDbEntity
  8
寸法
 48
50.0
100
AcDbDimension
  2
*D2
 10
1343.837918229083
 20
1269.768007716479
 30
0.0
 11
3678.837918229084
 21
1769.76800771648
 31
0.0
 12
-458.3752783755044
 22
0.0
 32
0.0
 70
    32
 71
     5
 42
-1.0
  3
INABA_S30G
100
AcDbAlignedDimension
 13
1784.871284556649
 23
2269.76800771648
 33
0.0
 14
1784.871284556649
 24
1269.768007716479
 34
0.0
 50
90.0
100
AcDbRotatedDimension
1001
ACAD
1000
DSTYLE
1002
{
1002
}
  0
LINE
  5
11AB8
330
747D
100
AcDbEntity
  8
センター
 48
10.0
100
AcDbLine
 10
2034.87128455665
 20
2519.768007716479
 30
0.0
 11
2034.87128455665
 21
2019.768007716479
 31
0.0
  0
LINE
  5
11AB9
330
747D
100
AcDbEntity
  8
文字
 48
50.0
100
AcDbLine
 10
1994.87128455665
 20
2309.768007716479
 30
0.0
 11
1994.87128455665
 21
2229.768007716477
 31
0.0
  0
LINE
  5
11ABA
330
747D
100
AcDbEntity
  8
文字
 48
50.0
100
AcDbLine
 10
2074.87128455665
 20
2309.768007716479
 30
0.0
 11
2074.87128455665
 21
2229.768007716477
 31
0.0
  0
LINE
  5
11ABB
330
747D
100
AcDbEntity
  8
文字
 48
50.0
100
AcDbLine
 10
2074.87128455665
 20
2229.768007716477
 30
0.0
 11
1994.87128455665
 21
2229.768007716477
 31
0.0
  0
LINE
  5
11ABC
330
747D
100
AcDbEntity
  8
文字
 48
50.0
100
AcDbLine
 10
2074.87128455665
 20
2309.768007716477
 30
0.0
 11
1994.87128455665
 21
2309.768007716477
 31
0.0
  0
TEXT
  5
11B11
330
747D
100
AcDbEntity
  8
文字
 62
     7
 48
50.0
100
AcDbText
 10
3551.794465818718
 20
563.5837866105267
 30
0.0
 40
120.0
  1
B:埋め込み方式基礎伏図
  7
STYLE2
100
AcDbText
  0
LINE
  5
11B2E
330
747D
100
AcDbEntity
  8
文字
 48
50.0
100
AcDbLine
 10
5361.493321226125
 20
1523.078770319662
 30
0.0
 11
5328.645038393311
 21
1645.670230793115
 31
0.0
  0
LINE
  5
11B2F
330
747D
100
AcDbEntity
  8
文字
 48
50.0
100
AcDbLine
 10
5361.493321226125
 20
1523.078770319662
 30
0.0
 11
5394.34160405894
 21
1645.670230793115
 31
0.0
  0
LINE
  5
11B36
330
747D
100
AcDbEntity
  8
文字
 48
50.0
100
AcDbLine
 10
6814.871284556649
 20
2309.768007716479
 30
0.0
 11
6814.871284556649
 21
2229.768007716476
 31
0.0
  0
LINE
  5
11B37
330
747D
100
AcDbEntity
  8
文字
 48
50.0
100
AcDbLine
 10
6894.87128455665
 20
2309.768007716479
 30
0.0
 11
6894.87128455665
 21
2229.768007716476
 31
0.0
  0
LINE
  5
11B38
330
747D
100
AcDbEntity
  8
センター
 48
10.0
100
AcDbLine
 10
6854.87128455665
 20
2019.76800771648
 30
0.0
 11
6854.87128455665
 21
2519.768007716481
 31
0.0
  0
LINE
  5
11B3A
330
747D
100
AcDbEntity
  8
文字
 48
50.0
100
AcDbLine
 10
6894.87128455665
 20
2229.768007716476
 30
0.0
 11
6814.871284556649
 21
2229.768007716476
 31
0.0
  0
LINE
  5
11B3C
330
747D
100
AcDbEntity
  8
センター
 48
10.0
100
AcDbLine
 10
6604.87128455665
 20
2269.76800771648
 30
0.0
 11
7104.87128455665
 21
2269.768007716479
 31
0.0
  0
LINE
  5
11B3D
330
747D
100
AcDbEntity
  8
文字
 48
50.0
100
AcDbLine
 10
6894.87128455665
 20
2309.768007716477
 30
0.0
 11
6814.871284556649
 21
2309.768007716477
 31
0.0
  0
DIMENSION
  5
11B57
330
747D
100
AcDbEntity
  8
寸法
 48
50.0
100
AcDbDimension
  2
*D3
 10
7104.87128455665
 20
3916.257340821903
 30
0.0
 11
4444.87128455665
 21
3991.26619908962
 31
0.0
 12
746.6247216244956
 22
0.0
 32
0.0
 70
    32
  1
基礎寸法 <>
 71
     5
 42
-1.0
  3
INABA_S30G
100
AcDbAlignedDimension
 13
1784.871284556649
 23
3269.768007716479
 33
0.0
 14
7104.87128455665
 24
3269.768007716479
 34
0.0
100
AcDbRotatedDimension
  0
LINE
  5
11B5C
330
747D
100
AcDbEntity
  8
点線
 48
30.0
100
AcDbLine
 10
7104.87128455665
 20
3269.768007716479
 30
0.0
 11
1784.871284556649
 21
3269.768007716479
 31
0.0
  0
DIMENSION
  5
11B5D
330
747D
100
AcDbEntity
  8
寸法
 48
50.0
100
AcDbDimension
  2
*D4
 10
2034.87128455665
 20
3722.220301847585
 30
0.0
 11
1909.871284556649
 21
3797.229160115302
 31
0.0
 12
746.6247216244956
 22
0.0
 32
0.0
 70
    32
 71
     5
 42
-1.0
  3
INABA_S30G
100
AcDbAlignedDimension
 13
1784.871284556649
 23
3269.768007716479
 33
0.0
 14
2034.87128455665
 24
2519.768007716479
 34
0.0
100
AcDbRotatedDimension
  0
DIMENSION
  5
11B60
330
747D
100
AcDbEntity
  8
寸法
 48
50.0
100
AcDbDimension
  2
*D5
 10
1343.999447845419
 20
2269.76800771648
 30
0.0
 11
3678.999447845419
 21
2769.768007716479
 31
0.0
 12
-458.3752783755044
 22
0.0
 32
0.0
 70
    32
 71
     5
 42
-1.0
  3
INABA_S30G
100
AcDbAlignedDimension
 13
1784.871284556649
 23
3269.768007716479
 33
0.0
 14
1784.871284556649
 24
2269.76800771648
 34
0.0
 50
90.0
100
AcDbRotatedDimension
  0
DIMENSION
  5
11B6A
330
747D
100
AcDbEntity
  8
寸法
 48
50.0
100
AcDbDimension
  2
*D6
 10
7104.87128455665
 20
3722.817537192492
 30
0.0
 11
6979.87128455665
 21
3797.826395460208
 31
0.0
 12
1951.624721624495
 22
0.0
 32
0.0
 70
    32
 71
     5
 42
-1.0
  3
INABA_S30G
100
AcDbAlignedDimension
 13
6854.87128455665
 23
3339.768007716479
 33
0.0
 14
7104.87128455665
 24
3269.768007716479
 34
0.0
100
AcDbRotatedDimension
  0
MTEXT
  5
11B6B
330
747D
100
AcDbEntity
  8
寸法
 62
     7
 48
50.0
100
AcDbMText
 10
5739.654257512277
 20
1387.048053583978
 30
0.0
 40
90.0
 41
0.0
 71
     4
 72
     1
  1
\A1;床コンクリート打コテ押エ
  7
STYLE1
 73
     1
 44
1.0
1001
ACAD
1000
MTEXTBEGIN
1070
    73
1070
     1
1070
    44
1040
1.0
1070
    74
1070
     0
1000
MTEXTEND
  0
LINE
  5
129F5
330
747D
100
AcDbEntity
  8
寸法
 48
50.0
100
AcDbLine
 10
2034.87128455665
 20
1960.869045236347
 30
0.0
 11
2034.87128455665
 21
2019.768007716479
 31
0.0
  0
LINE
  5
129FA
330
747D
100
AcDbEntity
  8
センター
 48
10.0
100
AcDbLine
 10
5413.986781278443
 20
2269.768007716479
 30
0.0
 11
6179.26482661441
 21
2269.768007716479
 31
0.0
  0
LINE
  5
129FB
330
747D
100
AcDbEntity
  8
文字
 48
50.0
100
AcDbLine
 10
5361.493321226125
 20
2379.944845651356
 30
0.0
 11
5361.493321226125
 21
3016.457245113296
 31
0.0
  0
LINE
  5
129FC
330
747D
100
AcDbEntity
  8
文字
 48
50.0
100
AcDbLine
 10
5361.493321226125
 20
3016.457245113296
 30
0.0
 11
5328.645038393311
 21
2893.865784639842
 31
0.0
  0
LINE
  5
129FD
330
747D
100
AcDbEntity
  8
文字
 48
50.0
100
AcDbLine
 10
5361.493321226125
 20
3016.457245113296
 30
0.0
 11
5394.34160405894
 21
2893.865784639842
 31
0.0
  0
LINE
  5
12AD2
330
747D
100
AcDbEntity
  8
部品1
 48
50.0
100
AcDbLine
 10
3528.235224210707
 20
499.5516798982207
 30
0.0
 11
5469.491533844715
 21
499.5516798982207
 31
0.0
  0
LINE
  5
12AD3
330
747D
100
AcDbEntity
  8
部品1
 48
50.0
100
AcDbLine
 10
3528.235224210707
 20
4444.950660195085
 30
0.0
 11
5361.507344902594
 21
4444.950660195085
 31
0.0
  0
TEXT
  5
12AD4
330
747D
100
AcDbEntity
  8
文字
 62
     7
 48
50.0
100
AcDbText
 10
3551.794465818718
 20
4508.982766907391
 30
0.0
 40
120.0
  1
A:プレート方式基礎伏図
  7
STYLE2
100
AcDbText
  0
DIMENSION
  5
12AD5
330
747D
100
AcDbEntity
  8
寸法
 48
50.0
100
AcDbDimension
  2
*D12
 10
1343.999447845419
 20
6215.166988013345
 30
0.0
 11
3678.999447845419
 21
6715.166988013343
 31
0.0
 12
-458.3752783755044
 22
3945.398980296864
 32
0.0
 70
    32
 71
     5
 42
-1.0
  3
INABA_S30G
100
AcDbAlignedDimension
 13
1784.871284556649
 23
7215.166988013343
 33
0.0
 14
1784.871284556649
 24
6215.166988013345
 34
0.0
 50
90.0
100
AcDbRotatedDimension
  0
DIMENSION
  5
12AD6
330
747D
100
AcDbEntity
  8
寸法
 48
50.0
100
AcDbDimension
  2
*D7
 10
1121.250085828958
 20
5215.166988013343
 30
0.0
 11
1046.241227561242
 21
6215.166988013343
 31
0.0
 12
746.6247216244956
 22
0.0
 32
0.0
 70
    32
  1
基礎寸法 <>
 71
     5
 42
-1.0
  3
INABA_S30G
100
AcDbAlignedDimension
 13
1784.871284556649
 23
7215.166988013343
 33
0.0
 14
1784.871284556649
 24
5215.166988013343
 34
0.0
 50
90.0
100
AcDbRotatedDimension
  0
LINE
  5
12AD7
330
747D
100
AcDbEntity
  8
点線
 48
30.0
100
AcDbLine
 10
1784.871284556649
 20
7215.166988013343
 30
0.0
 11
1784.871284556649
 21
5215.166988013343
 31
0.0
  0
LINE
  5
12AD8
330
747D
100
AcDbEntity
  8
点線
 48
30.0
100
AcDbLine
 10
7104.87128455665
 20
5215.166988013343
 30
0.0
 11
7104.87128455665
 21
7215.166988013343
 31
0.0
  0
LINE
  5
12AD9
330
747D
100
AcDbEntity
  8
文字
 48
50.0
100
AcDbLine
 10
5361.493321226125
 20
6325.343825948221
 30
0.0
 11
5361.493321226125
 21
6961.85622541016
 31
0.0
  0
DIMENSION
  5
12ADA
330
747D
100
AcDbEntity
  8
寸法
 48
50.0
100
AcDbDimension
  2
*D10
 10
6854.87128455665
 20
7667.619282144449
 30
0.0
 11
5649.87128455665
 21
7742.628140412165
 31
0.0
 70
    32
 71
     5
 42
-1.0
  3
INABA_S30G
100
AcDbAlignedDimension
 13
4444.87128455665
 23
6465.166988013343
 33
0.0
 14
6854.87128455665
 24
6882.956349313339
 34
0.0
100
AcDbRotatedDimension
1001
ACAD
1000
DSTYLE
1002
{
1002
}
  0
MTEXT
  5
12ADD
330
747D
100
AcDbEntity
  8
寸法
 62
     7
 48
50.0
100
AcDbMText
 10
5739.654257512277
 20
5332.447033880843
 30
0.0
 40
90.0
 41
0.0
 71
     4
 72
     1
  1
\A1;床コンクリート打コテ押エ
  7
STYLE1
 73
     1
 44
1.0
1001
ACAD
1000
MTEXTBEGIN
1070
    73
1070
     1
1070
    44
1040
1.0
1070
    74
1070
     0
1000
MTEXTEND
  0
DIMENSION
  5
12ADE
330
747D
100
AcDbEntity
  8
寸法
 48
50.0
100
AcDbDimension
  2
*D8
 10
1343.837918229083
 20
5215.166988013343
 30
0.0
 11
3678.837918229084
 21
5715.166988013345
 31
0.0
 12
-458.3752783755044
 22
3945.398980296864
 32
0.0
 70
    32
 71
     5
 42
-1.0
  3
INABA_S30G
100
AcDbAlignedDimension
 13
1784.871284556649
 23
6215.166988013345
 33
0.0
 14
1784.871284556649
 24
5215.166988013343
 34
0.0
 50
90.0
100
AcDbRotatedDimension
1001
ACAD
1000
DSTYLE
1002
{
1002
}
  0
LINE
  5
12AE3
330
747D
100
AcDbEntity
  8
センター
 48
10.0
100
AcDbLine
 10
2034.87128455665
 20
6465.166988013343
 30
0.0
 11
2034.87128455665
 21
5965.166988013343
 31
0.0
  0
LINE
  5
12AE9
330
747D
100
AcDbEntity
  8
センター
 48
10.0
100
AcDbLine
 10
1784.871284556649
 20
6215.166988013345
 30
0.0
 11
2284.87128455665
 21
6215.166988013343
 31
0.0
  0
LINE
  5
12AF2
330
747D
100
AcDbEntity
  8
文字
 48
50.0
100
AcDbLine
 10
5361.493321226125
 20
6104.990150078466
 30
0.0
 11
5361.493321226125
 21
5468.477750616527
 31
0.0
  0
LINE
  5
12AF3
330
747D
100
AcDbEntity
  8
文字
 48
50.0
100
AcDbLine
 10
5361.493321226125
 20
5468.477750616527
 30
0.0
 11
5394.34160405894
 21
5591.06921108998
 31
0.0
  0
LINE
  5
12AF4
330
747D
100
AcDbEntity
  8
文字
 48
50.0
100
AcDbLine
 10
5361.493321226125
 20
5468.477750616527
 30
0.0
 11
5328.645038393311
 21
5591.06921108998
 31
0.0
  0
MTEXT
  5
12AF6
330
747D
100
AcDbEntity
  8
寸法
 62
     7
 48
50.0
100
AcDbMText
 10
5267.05538516032
 20
5869.454166108135
 30
0.0
 40
90.0
 41
0.0
 71
     4
 72
     1
  1
\A1;水勾配 1/100 
  7
STYLE1
 11
0.0000000000000001
 21
1.0
 31
0.0
 73
     1
 44
1.0
1001
ACAD
1000
MTEXTBEGIN
1070
    73
1070
     1
1070
    44
1040
1.0
1070
    74
1070
     0
1000
MTEXTEND
  0
LINE
  5
12AFC
330
747D
100
AcDbEntity
  8
センター
 48
10.0
100
AcDbLine
 10
6854.87128455665
 20
5965.166988013345
 30
0.0
 11
6854.87128455665
 21
6465.166988013345
 31
0.0
  0
LINE
  5
12AFE
330
747D
100
AcDbEntity
  8
センター
 48
10.0
100
AcDbLine
 10
6604.87128455665
 20
6215.166988013345
 30
0.0
 11
7104.87128455665
 21
6215.166988013343
 31
0.0
  0
DIMENSION
  5
12B03
330
747D
100
AcDbEntity
  8
寸法
 48
50.0
100
AcDbDimension
  2
*D9
 10
7104.87128455665
 20
7861.656321118768
 30
0.0
 11
4444.87128455665
 21
7936.665179386484
 31
0.0
 12
746.6247216244956
 22
0.0
 32
0.0
 70
    32
  1
基礎寸法 <>
 71
     5
 42
-1.0
  3
INABA_S30G
100
AcDbAlignedDimension
 13
1784.871284556649
 23
7215.166988013343
 33
0.0
 14
7104.87128455665
 24
7215.166988013343
 34
0.0
100
AcDbRotatedDimension
  0
LINE
  5
12B04
330
747D
100
AcDbEntity
  8
点線
 48
30.0
100
AcDbLine
 10
7104.87128455665
 20
7215.166988013343
 30
0.0
 11
1784.871284556649
 21
7215.166988013343
 31
0.0
  0
DIMENSION
  5
12B05
330
747D
100
AcDbEntity
  8
寸法
 48
50.0
100
AcDbDimension
  2
*D11
 10
2034.87128455665
 20
7667.619282144449
 30
0.0
 11
1909.871284556649
 21
7742.628140412165
 31
0.0
 12
746.6247216244956
 22
0.0
 32
0.0
 70
    32
 71
     5
 42
-1.0
  3
INABA_S30G
100
AcDbAlignedDimension
 13
1784.871284556649
 23
7215.166988013343
 33
0.0
 14
2034.87128455665
 24
6465.166988013343
 34
0.0
100
AcDbRotatedDimension
  0
LINE
  5
12B06
330
747D
100
AcDbEntity
  8
文字
 48
50.0
100
AcDbLine
 10
5361.493321226125
 20
6961.85622541016
 30
0.0
 11
5328.645038393311
 21
6839.264764936706
 31
0.0
  0
LINE
  5
12B07
330
747D
100
AcDbEntity
  8
文字
 48
50.0
100
AcDbLine
 10
5361.493321226125
 20
6961.85622541016
 30
0.0
 11
5394.34160405894
 21
6839.264764936706
 31
0.0
  0
DIMENSION
  5
12B08
330
747D
100
AcDbEntity
  8
寸法
 48
50.0
100
AcDbDimension
  2
*D13
 10
7104.87128455665
 20
7668.216517489357
 30
0.0
 11
6979.87128455665
 21
7743.225375757072
 31
0.0
 12
1951.624721624495
 22
0.0
 32
0.0
 70
    32
 71
     5
 42
-1.0
  3
INABA_S30G
100
AcDbAlignedDimension
 13
6854.87128455665
 23
7285.166988013346
 33
0.0
 14
7104.87128455665
 24
7215.166988013343
 34
0.0
100
AcDbRotatedDimension
  0
LINE
  5
12B7D
330
747D
100
AcDbEntity
  8
センター
 48
3.0
100
AcDbLine
 10
1859.871284556649
 20
6315.166988013345
 30
0.0
 11
2009.87128455665
 21
6315.166988013345
 31
0.0
  0
LINE
  5
12B7E
330
747D
100
AcDbEntity
  8
センター
 48
3.0
100
AcDbLine
 10
1859.871284556649
 20
6115.166988013346
 30
0.0
 11
2009.87128455665
 21
6115.166988013346
 31
0.0
  0
LINE
  5
12B7F
330
747D
100
AcDbEntity
  8
センター
 48
3.0
100
AcDbLine
 10
1934.871284556649
 20
6390.166988013345
 30
0.0
 11
1934.871284556649
 21
6240.166988013346
 31
0.0
  0
LINE
  5
12B80
330
747D
100
AcDbEntity
  8
センター
 48
3.0
100
AcDbLine
 10
2134.87128455665
 20
6390.166988013343
 30
0.0
 11
2134.87128455665
 21
6240.166988013343
 31
0.0
  0
LINE
  5
12B81
330
747D
100
AcDbEntity
  8
センター
 48
3.0
100
AcDbLine
 10
2059.87128455665
 20
6315.166988013343
 30
0.0
 11
2209.871284556649
 21
6315.166988013343
 31
0.0
  0
LINE
  5
12B82
330
747D
100
AcDbEntity
  8
センター
 48
3.0
100
AcDbLine
 10
1934.871284556649
 20
6190.166988013343
 30
0.0
 11
1934.871284556649
 21
6040.166988013343
 31
0.0
  0
LINE
  5
12B83
330
747D
100
AcDbEntity
  8
センター
 48
3.0
100
AcDbLine
 10
2134.87128455665
 20
6190.166988013343
 30
0.0
 11
2134.87128455665
 21
6040.166988013343
 31
0.0
  0
LINE
  5
12B84
330
747D
100
AcDbEntity
  8
センター
 48
3.0
100
AcDbLine
 10
2059.87128455665
 20
6115.166988013343
 30
0.0
 11
2209.871284556649
 21
6115.166988013343
 31
0.0
  0
CIRCLE
  5
12B85
330
747D
100
AcDbEntity
  8
部品1
 48
50.0
100
AcDbCircle
 10
2134.87128455665
 20
6315.166988013343
 30
0.0
 40
15.0
  0
LINE
  5
12B89
330
747D
100
AcDbEntity
  8
センター
 48
3.0
100
AcDbLine
 10
6954.87128455665
 20
6390.166988013343
 30
0.0
 11
6954.87128455665
 21
6240.166988013343
 31
0.0
  0
LINE
  5
12B8A
330
747D
100
AcDbEntity
  8
センター
 48
3.0
100
AcDbLine
 10
6879.871284556649
 20
6315.166988013343
 30
0.0
 11
7029.87128455665
 21
6315.166988013343
 31
0.0
  0
LINE
  5
12B8C
330
747D
100
AcDbEntity
  8
センター
 48
3.0
100
AcDbLine
 10
6679.87128455665
 20
6315.166988013345
 30
0.0
 11
6829.87128455665
 21
6315.166988013345
 31
0.0
  0
LINE
  5
12B8D
330
747D
100
AcDbEntity
  8
センター
 48
3.0
100
AcDbLine
 10
6754.871284556649
 20
6390.166988013345
 30
0.0
 11
6754.871284556649
 21
6240.166988013346
 31
0.0
  0
LINE
  5
12B8F
330
747D
100
AcDbEntity
  8
センター
 48
3.0
100
AcDbLine
 10
6754.871284556649
 20
6190.166988013343
 30
0.0
 11
6754.871284556649
 21
6040.166988013343
 31
0.0
  0
LINE
  5
12B90
330
747D
100
AcDbEntity
  8
センター
 48
3.0
100
AcDbLine
 10
6679.87128455665
 20
6115.166988013346
 30
0.0
 11
6829.87128455665
 21
6115.166988013346
 31
0.0
  0
LINE
  5
12B92
330
747D
100
AcDbEntity
  8
センター
 48
3.0
100
AcDbLine
 10
6954.87128455665
 20
6190.166988013343
 30
0.0
 11
6954.87128455665
 21
6040.166988013343
 31
0.0
  0
LINE
  5
12B93
330
747D
100
AcDbEntity
  8
センター
 48
3.0
100
AcDbLine
 10
6879.871284556649
 20
6115.166988013343
 30
0.0
 11
7029.87128455665
 21
6115.166988013343
 31
0.0
  0
CIRCLE
  5
12BF3
330
747D
100
AcDbEntity
  8
部品1
 48
50.0
100
AcDbCircle
 10
2134.87128455665
 20
6115.166988013343
 30
0.0
 40
15.0
  0
CIRCLE
  5
12BF4
330
747D
100
AcDbEntity
  8
部品1
 48
50.0
100
AcDbCircle
 10
1934.871284556649
 20
6315.166988013343
 30
0.0
 40
15.0
  0
CIRCLE
  5
12BF5
330
747D
100
AcDbEntity
  8
部品1
 48
50.0
100
AcDbCircle
 10
1934.871284556649
 20
6115.166988013343
 30
0.0
 40
15.0
  0
CIRCLE
  5
12BF6
330
747D
100
AcDbEntity
  8
部品1
 48
50.0
100
AcDbCircle
 10
6754.871284556649
 20
6315.166988013343
 30
0.0
 40
15.0
  0
CIRCLE
  5
12BF7
330
747D
100
AcDbEntity
  8
部品1
 48
50.0
100
AcDbCircle
 10
6954.87128455665
 20
6315.166988013343
 30
0.0
 40
15.0
  0
CIRCLE
  5
12BF8
330
747D
100
AcDbEntity
  8
部品1
 48
50.0
100
AcDbCircle
 10
6954.87128455665
 20
6115.166988013343
 30
0.0
 40
15.0
  0
CIRCLE
  5
12BF9
330
747D
100
AcDbEntity
  8
部品1
 48
50.0
100
AcDbCircle
 10
6754.871284556649
 20
6115.166988013343
 30
0.0
 40
15.0
  0
CIRCLE
  5
12DB7
330
747D
100
AcDbEntity
  8
部品1
 48
50.0
100
AcDbCircle
 10
4544.871284556649
 20
6315.166988013343
 30
0.0
 40
15.0
  0
CIRCLE
  5
12DB8
330
747D
100
AcDbEntity
  8
部品1
 48
50.0
100
AcDbCircle
 10
4544.871284556649
 20
6115.166988013343
 30
0.0
 40
15.0
  0
LINE
  5
12DBB
330
747D
100
AcDbEntity
  8
センター
 48
10.0
100
AcDbLine
 10
4194.87128455665
 20
6215.166988013345
 30
0.0
 11
4694.87128455665
 21
6215.166988013343
 31
0.0
  0
LINE
  5
12DBC
330
747D
100
AcDbEntity
  8
センター
 48
3.0
100
AcDbLine
 10
4469.871284556649
 20
6115.166988013343
 30
0.0
 11
4619.87128455665
 21
6115.166988013343
 31
0.0
  0
LINE
  5
12DBD
330
747D
100
AcDbEntity
  8
センター
 48
3.0
100
AcDbLine
 10
4469.871284556649
 20
6315.166988013343
 30
0.0
 11
4619.87128455665
 21
6315.166988013343
 31
0.0
  0
LINE
  5
12DBF
330
747D
100
AcDbEntity
  8
センター
 48
3.0
100
AcDbLine
 10
4269.871284556649
 20
6115.166988013346
 30
0.0
 11
4419.871284556649
 21
6115.166988013346
 31
0.0
  0
LINE
  5
12DC0
330
747D
100
AcDbEntity
  8
センター
 48
3.0
100
AcDbLine
 10
4344.871284556649
 20
6190.166988013343
 30
0.0
 11
4344.871284556649
 21
6040.166988013343
 31
0.0
  0
CIRCLE
  5
12DC1
330
747D
100
AcDbEntity
  8
部品1
 48
50.0
100
AcDbCircle
 10
4344.871284556649
 20
6115.166988013343
 30
0.0
 40
15.0
  0
LINE
  5
12DC2
330
747D
100
AcDbEntity
  8
センター
 48
3.0
100
AcDbLine
 10
4269.871284556649
 20
6315.166988013345
 30
0.0
 11
4419.871284556649
 21
6315.166988013345
 31
0.0
  0
LINE
  5
12DC3
330
747D
100
AcDbEntity
  8
センター
 48
3.0
100
AcDbLine
 10
4344.871284556649
 20
6390.166988013345
 30
0.0
 11
4344.871284556649
 21
6240.166988013346
 31
0.0
  0
CIRCLE
  5
12DC4
330
747D
100
AcDbEntity
  8
部品1
 48
50.0
100
AcDbCircle
 10
4344.871284556649
 20
6315.166988013343
 30
0.0
 40
15.0
  0
LINE
  5
12DC6
330
747D
100
AcDbEntity
  8
センター
 48
3.0
100
AcDbLine
 10
4544.871284556649
 20
6190.166988013343
 30
0.0
 11
4544.871284556649
 21
6040.166988013343
 31
0.0
  0
LINE
  5
12DC7
330
747D
100
AcDbEntity
  8
センター
 48
3.0
100
AcDbLine
 10
4544.871284556649
 20
6390.166988013343
 30
0.0
 11
4544.871284556649
 21
6240.166988013343
 31
0.0
  0
LINE
  5
12DC8
330
747D
100
AcDbEntity
  8
センター
 48
10.0
100
AcDbLine
 10
4444.87128455665
 20
6465.166988013343
 30
0.0
 11
4444.87128455665
 21
5965.166988013343
 31
0.0
  0
DIMENSION
  5
12DFB
330
747D
100
AcDbEntity
  8
寸法
 48
50.0
100
AcDbDimension
  2
*D14
 10
6854.87128455665
 20
3722.220301847585
 30
0.0
 11
5649.87128455665
 21
3797.229160115301
 31
0.0
 70
    32
 71
     5
 42
-1.0
  3
INABA_S30G
100
AcDbAlignedDimension
 13
4444.87128455665
 23
2519.768007716479
 33
0.0
 14
6854.87128455665
 24
2937.557369016473
 34
0.0
100
AcDbRotatedDimension
1001
ACAD
1000
DSTYLE
1002
{
1002
}
  0
LINE
  5
12E19
330
747D
100
AcDbEntity
  8
文字
 48
50.0
100
AcDbLine
 10
4484.871284556649
 20
2229.768007716477
 30
0.0
 11
4404.87128455665
 21
2229.768007716477
 31
0.0
  0
LINE
  5
12E1A
330
747D
100
AcDbEntity
  8
文字
 48
50.0
100
AcDbLine
 10
4484.871284556649
 20
2309.768007716479
 30
0.0
 11
4484.871284556649
 21
2229.768007716477
 31
0.0
  0
LINE
  5
12E1B
330
747D
100
AcDbEntity
  8
文字
 48
50.0
100
AcDbLine
 10
4484.871284556649
 20
2309.768007716477
 30
0.0
 11
4404.87128455665
 21
2309.768007716477
 31
0.0
  0
LINE
  5
12E1C
330
747D
100
AcDbEntity
  8
文字
 48
50.0
100
AcDbLine
 10
4404.87128455665
 20
2309.768007716479
 30
0.0
 11
4404.87128455665
 21
2229.768007716477
 31
0.0
  0
LINE
  5
12E1F
330
747D
100
AcDbEntity
  8
センター
 48
10.0
100
AcDbLine
 10
4444.87128455665
 20
2519.768007716479
 30
0.0
 11
4444.87128455665
 21
2019.768007716479
 31
0.0
  0
LINE
  5
12E20
330
747D
100
AcDbEntity
  8
センター
 48
10.0
100
AcDbLine
 10
4194.87128455665
 20
2269.76800771648
 30
0.0
 11
4694.87128455665
 21
2269.768007716479
 31
0.0
  0
LINE
  5
12E21
330
747D
100
AcDbEntity
  8
センター
 48
10.0
100
AcDbLine
 10
4194.87128455665
 20
6215.166988013345
 30
0.0
 11
4694.87128455665
 21
6215.166988013343
 31
0.0
  0
LINE
  5
12E22
330
747D
100
AcDbEntity
  8
センター
 48
10.0
100
AcDbLine
 10
4694.87128455665
 20
6215.166988013343
 30
0.0
 11
5163.013743348543
 21
6215.166988013343
 31
0.0
  0
LINE
  5
12E24
330
747D
100
AcDbEntity
  8
センター
 48
10.0
100
AcDbLine
 10
4694.87128455665
 20
2269.768007716479
 30
0.0
 11
5163.013743348543
 21
2269.768007716479
 31
0.0
  0
LINE
  5
12E56
330
747D
100
AcDbEntity
  8
センター
 48
10.0
100
AcDbLine
 10
2284.87128455665
 20
6215.166988013343
 30
0.0
 11
4194.87128455665
 21
6215.166988013343
 31
0.0
  0
LINE
  5
12E57
330
747D
100
AcDbEntity
  8
点線
 48
30.0
100
AcDbLine
 10
1784.871284556649
 20
5215.166988013343
 30
0.0
 11
7104.87128455665
 21
5215.166988013343
 31
0.0
  0
LINE
  5
12E63
330
747D
100
AcDbEntity
  8
センター
 48
10.0
100
AcDbLine
 10
2284.87128455665
 20
2269.768007716479
 30
0.0
 11
4194.87128455665
 21
2269.768007716479
 31
0.0
  0
LINE
  5
12E64
330
747D
100
AcDbEntity
  8
点線
 48
30.0
100
AcDbLine
 10
1784.871284556649
 20
1269.768007716479
 30
0.0
 11
7104.87128455665
 21
1269.768007716479
 31
0.0
  0
DIMENSION
  5
12EB6
330
747D
100
AcDbEntity
  8
寸法
 48
50.0
100
AcDbDimension
  2
*D15
 10
7587.145506920264
 20
5215.166988013343
 30
0.0
 11
7512.136648652547
 21
6215.166988013343
 31
0.0
 12
746.6247216244956
 22
0.0
 32
0.0
 70
    32
  1
屋根寸法 <>
 71
     5
 42
-1.0
  3
INABA_S30G
100
AcDbAlignedDimension
 13
7104.87128455665
 23
7215.166988013343
 33
0.0
 14
7104.87128455665
 24
5215.166988013343
 34
0.0
 50
90.0
100
AcDbRotatedDimension
1001
ACAD
1000
DSTYLE
1002
{
1070
   141
1040
-0.1
1070
   279
1070
     2
1070
   288
1070
     1
1002
}
  0
DIMENSION
  5
12EB7
330
747D
100
AcDbEntity
  8
寸法
 48
50.0
100
AcDbDimension
  2
*D16
 10
7104.87128455665
 20
4825.395283416634
 30
0.0
 11
4444.87128455665
 21
4900.404141684351
 31
0.0
 12
746.6247216244956
 22
0.0
 32
0.0
 70
    32
  1
屋根寸法 <>
 71
     5
 42
-1.0
  3
INABA_S30G
100
AcDbAlignedDimension
 13
1784.871284556649
 23
5215.166988013343
 33
0.0
 14
7104.87128455665
 24
5215.166988013343
 34
0.0
100
AcDbRotatedDimension
  0
DIMENSION
  5
12F1D
330
747D
100
AcDbEntity
  8
寸法
 48
50.0
100
AcDbDimension
  2
*D17
 10
7587.145506920264
 20
1269.768007716479
 30
0.0
 11
7512.136648652547
 21
2269.768007716479
 31
0.0
 12
746.6247216244956
 22
-3945.398980296864
 32
0.0
 70
    32
  1
屋根寸法 <>
 71
     5
 42
-1.0
  3
INABA_S30G
100
AcDbAlignedDimension
 13
7104.87128455665
 23
3269.768007716479
 33
0.0
 14
7104.87128455665
 24
1269.768007716479
 34
0.0
 50
90.0
100
AcDbRotatedDimension
1001
ACAD
1000
DSTYLE
1002
{
1070
   141
1040
-0.1
1070
   279
1070
     2
1070
   288
1070
     1
1002
}
  0
DIMENSION
  5
12F1E
330
747D
100
AcDbEntity
  8
寸法
 48
50.0
100
AcDbDimension
  2
*D18
 10
7104.87128455665
 20
879.9963031197695
 30
0.0
 11
4444.87128455665
 21
955.0051613874856
 31
0.0
 12
746.6247216244956
 22
0.0
 32
0.0
 70
    32
  1
屋根寸法 <>
 71
     5
 42
-1.0
  3
INABA_S30G
100
AcDbAlignedDimension
 13
1784.871284556649
 23
1269.768007716479
 33
0.0
 14
7104.87128455665
 24
1269.768007716479
 34
0.0
100
AcDbRotatedDimension
  0
DIMENSION
  5
12F7E
330
747D
100
AcDbEntity
  8
寸法
 48
50.0
100
AcDbDimension
  2
*D19
 10
4444.87128455665
 20
7667.619282144449
 30
0.0
 11
3239.87128455665
 21
7742.628140412165
 31
0.0
 12
-1663.375278375504
 22
0.0
 32
0.0
 70
    32
 71
     5
 42
-1.0
  3
INABA_S30G
100
AcDbAlignedDimension
 13
2034.87128455665
 23
6465.166988013343
 33
0.0
 14
4444.87128455665
 24
6753.712005384262
 34
0.0
100
AcDbRotatedDimension
1001
ACAD
1000
DSTYLE
1002
{
1002
}
  0
DIMENSION
  5
12FC2
330
747D
100
AcDbEntity
  8
寸法
 48
50.0
100
AcDbDimension
  2
*D20
 10
4444.87128455665
 20
3722.220301847585
 30
0.0
 11
3239.87128455665
 21
3797.229160115301
 31
0.0
 12
-1663.375278375504
 22
0.0
 32
0.0
 70
    32
 71
     5
 42
-1.0
  3
INABA_S30G
100
AcDbAlignedDimension
 13
2034.87128455665
 23
2519.768007716479
 33
0.0
 14
4444.87128455665
 24
2808.313025087398
 34
0.0
100
AcDbRotatedDimension
1001
ACAD
1000
DSTYLE
1002
{
1002
}
  0
LINE
  5
13A90
330
747D
100
AcDbEntity
  8
文字
 48
50.0
100
AcDbLine
 10
2384.87128455665
 20
6565.166988013342
 30
0.0
 11
1684.871284556649
 21
6565.166988013342
 31
0.0
  0
LINE
  5
13A91
330
747D
100
AcDbEntity
  8
文字
 48
50.0
100
AcDbLine
 10
2384.87128455665
 20
6565.166988013342
 30
0.0
 11
2384.87128455665
 21
5865.166988013343
 31
0.0
  0
MTEXT
  5
13A92
330
747D
100
AcDbEntity
  8
寸法
 62
     7
 48
50.0
100
AcDbMText
 10
2334.73580439418
 20
6661.000477691698
 30
0.0
 40
90.0
 41
0.0
 71
     4
 72
     1
  1
A
  7
STYLE1
 73
     1
 44
1.0
1001
ACAD
1000
MTEXTBEGIN
1070
    73
1070
     1
1070
    44
1040
1.0
1070
    74
1070
     0
1000
MTEXTEND
  0
LINE
  5
13A93
330
747D
100
AcDbEntity
  8
寸法
 48
50.0
100
AcDbLine
 10
2181.271744722591
 20
6672.933020139065
 30
0.0
 11
2181.271744722591
 21
6606.998401217516
 31
0.0
  0
LINE
  5
13A94
330
747D
100
AcDbEntity
  8
寸法
 48
50.0
100
AcDbLine
 10
2034.87128455665
 20
6644.065950493474
 30
0.0
 11
2289.00511530557
 21
6644.065950493474
 31
0.0
  0
LINE
  5
13A95
330
747D
100
AcDbEntity
  8
寸法
 48
50.0
100
AcDbLine
 10
2289.00511530557
 20
6644.065950493474
 30
0.0
 11
2181.271744722591
 21
6672.933020139065
 31
0.0
  0
LINE
  5
13A96
330
747D
100
AcDbEntity
  8
文字
 48
50.0
100
AcDbLine
 10
1684.871284556649
 20
6565.166988013342
 30
0.0
 11
1684.871284556649
 21
5865.166988013343
 31
0.0
  0
LINE
  5
13A97
330
747D
100
AcDbEntity
  8
文字
 48
50.0
100
AcDbLine
 10
2384.87128455665
 20
5865.166988013343
 30
0.0
 11
1684.871284556649
 21
5865.166988013343
 31
0.0
  0
LINE
  5
13A98
330
747D
100
AcDbEntity
  8
寸法
 48
50.0
100
AcDbLine
 10
2034.87128455665
 20
5786.268025533212
 30
0.0
 11
2034.87128455665
 21
5965.166988013343
 31
0.0
  0
LINE
  5
13A99
330
747D
100
AcDbEntity
  8
寸法
 48
50.0
100
AcDbLine
 10
2034.87128455665
 20
5786.268025533212
 30
0.0
 11
2289.00511530557
 21
5786.268025533212
 31
0.0
  0
LINE
  5
13A9A
330
747D
100
AcDbEntity
  8
寸法
 48
50.0
100
AcDbLine
 10
2181.271744722591
 20
5757.400955887621
 30
0.0
 11
2181.271744722591
 21
5823.335574809172
 31
0.0
  0
LINE
  5
13A9B
330
747D
100
AcDbEntity
  8
寸法
 48
50.0
100
AcDbLine
 10
2289.00511530557
 20
5786.268025533212
 30
0.0
 11
2181.271744722591
 21
5757.400955887621
 31
0.0
  0
MTEXT
  5
13A9C
330
747D
100
AcDbEntity
  8
寸法
 62
     7
 48
50.0
100
AcDbMText
 10
2333.477175535496
 20
5789.040822525293
 30
0.0
 40
90.0
 41
0.0
 71
     4
 72
     1
  1
A'
  7
STYLE1
 73
     1
 44
1.0
1001
ACAD
1000
MTEXTBEGIN
1070
    73
1070
     1
1070
    44
1040
1.0
1070
    74
1070
     0
1000
MTEXTEND
  0
LINE
  5
13A9D
330
747D
100
AcDbEntity
  8
文字
 48
50.0
100
AcDbLine
 10
4794.871284556649
 20
6565.166988013341
 30
0.0
 11
4094.871284556649
 21
6565.166988013341
 31
0.0
  0
LINE
  5
13A9E
330
747D
100
AcDbEntity
  8
文字
 48
50.0
100
AcDbLine
 10
4794.871284556649
 20
6565.166988013341
 30
0.0
 11
4794.871284556649
 21
5865.166988013341
 31
0.0
  0
LINE
  5
13A9F
330
747D
100
AcDbEntity
  8
文字
 48
50.0
100
AcDbLine
 10
4794.871284556649
 20
5865.166988013341
 30
0.0
 11
4094.871284556649
 21
5865.166988013341
 31
0.0
  0
LINE
  5
13AA0
330
747D
100
AcDbEntity
  8
文字
 48
50.0
100
AcDbLine
 10
4094.871284556649
 20
6565.166988013341
 30
0.0
 11
4094.871284556649
 21
5865.166988013341
 31
0.0
  0
LINE
  5
13AA1
330
747D
100
AcDbEntity
  8
文字
 48
50.0
100
AcDbLine
 10
7204.87128455665
 20
6565.166988013342
 30
0.0
 11
7204.87128455665
 21
5865.166988013343
 31
0.0
  0
DIMENSION
  5
13AA2
330
747D
100
AcDbEntity
  8
寸法
 48
50.0
100
AcDbDimension
  2
*D40
 10
7204.87128455665
 20
6762.956349313339
 30
0.0
 11
6854.87128455665
 21
6762.956349313339
 31
0.0
 12
-4345.369212590016
 22
-8261.429063001898
 32
0.0
 70
   160
 71
     5
 42
-1.0
  3
INABA_S30G
100
AcDbAlignedDimension
 13
6504.871284556649
 23
6565.166988013342
 33
0.0
 14
7204.87128455665
 24
6565.166988013342
 34
0.0
100
AcDbRotatedDimension
  0
LINE
  5
13AA3
330
747D
100
AcDbEntity
  8
文字
 48
50.0
100
AcDbLine
 10
6504.871284556649
 20
6565.166988013342
 30
0.0
 11
7204.87128455665
 21
6565.166988013342
 31
0.0
  0
DIMENSION
  5
13AA4
330
747D
100
AcDbEntity
  8
寸法
 48
50.0
100
AcDbDimension
  2
*D41
 10
6327.55678127247
 20
5865.166988013343
 30
0.0
 11
6252.55678127247
 21
6215.166988013343
 31
0.0
 12
-4345.369212590016
 22
-8261.429063001898
 32
0.0
 70
    32
 71
     5
 42
-1.0
  3
INABA_S30G
100
AcDbAlignedDimension
 13
6504.871284556649
 23
6565.166988013342
 33
0.0
 14
6504.871284556649
 24
5865.166988013343
 34
0.0
 50
90.0
100
AcDbRotatedDimension
  0
LINE
  5
13AA5
330
747D
100
AcDbEntity
  8
文字
 48
50.0
100
AcDbLine
 10
6504.871284556649
 20
6565.166988013342
 30
0.0
 11
6504.871284556649
 21
5865.166988013343
 31
0.0
  0
LINE
  5
13AA6
330
747D
100
AcDbEntity
  8
文字
 48
50.0
100
AcDbLine
 10
6504.871284556649
 20
5865.166988013343
 30
0.0
 11
7204.87128455665
 21
5865.166988013343
 31
0.0
  0
LEADER
  5
13AA7
330
747D
100
AcDbEntity
  8
寸法
 48
50.0
100
AcDbLeader
  3
INABA_S30G
 73
     0
 75
     1
 40
249.0
 41
791.9645669291342
 76
     3
 10
6754.871284556649
 20
6115.166988013343
 30
0.0
 10
6569.062382127508
 20
5539.52322571619
 30
0.0
 10
6494.062382127508
 20
5539.52322571619
 30
0.0
340
13AA8
1001
ACAD
1000
DSTYLE
1002
{
1070
   341
1005
0
1070
   343
1005
0
1070
   344
1005
0
1002
}
  0
MTEXT
  5
13AA8
102
{ACAD_REACTORS
330
13AA7
102
}
330
747D
100
AcDbEntity
  8
寸法
 62
     7
 48
50.0
100
AcDbMText
 10
6464.062382127507
 20
5694.02322571619
 30
0.0
 40
90.0
 41
0.0
 71
     6
 72
     1
  1
\A1;ｱﾝｶｰﾎﾞﾙﾄ\PM12x315(市販品)
  7
STYLE1
 73
     1
 44
1.0
1001
ACAD
1000
MTEXTBEGIN
1070
    73
1070
     1
1070
    44
1040
1.0
1070
    74
1070
     0
1000
MTEXTEND
  0
DIMENSION
  5
13AC1
330
747D
100
AcDbEntity
  8
寸法
 48
50.0
100
AcDbDimension
  2
*D43
 10
7366.45871169422
 20
6315.166988013343
 30
0.0
 11
7291.449853426503
 21
6215.166988013343
 31
0.0
 12
-4345.369212590016
 22
-8261.429063001898
 32
0.0
 70
    32
 71
     5
 42
-1.0
  3
INABA_S30G
100
AcDbAlignedDimension
 13
7029.87128455665
 23
6115.166988013343
 33
0.0
 14
7029.87128455665
 24
6315.166988013343
 34
0.0
 50
90.0
100
AcDbRotatedDimension
  0
DIMENSION
  5
13AC2
330
747D
100
AcDbEntity
  8
寸法
 48
50.0
100
AcDbDimension
  2
*D42
 10
6754.871284556649
 20
5645.645704700538
 30
0.0
 11
6854.87128455665
 21
5720.654562968255
 31
0.0
 12
-4345.369212590016
 22
-8261.429063001898
 32
0.0
 70
    32
 71
     5
 42
-1.0
  3
INABA_S30G
100
AcDbAlignedDimension
 13
6954.87128455665
 23
6040.166988013343
 33
0.0
 14
6754.871284556649
 24
6040.166988013343
 34
0.0
100
AcDbRotatedDimension
  0
LINE
  5
13ADF
330
747D
100
AcDbEntity
  8
センター
 48
10.0
100
AcDbLine
 10
5480.182436223074
 20
6215.166988013343
 30
0.0
 11
6160.471954918222
 21
6215.166988013343
 31
0.0
  0
DIMENSION
  5
13AE0
330
747D
100
AcDbEntity
  8
寸法
 48
50.0
100
AcDbDimension
  2
*D44
 10
7204.87128455665
 20
2817.557369016473
 30
0.0
 11
6854.87128455665
 21
2817.557369016473
 31
0.0
 12
-4345.369212590016
 22
-8261.4290630019
 32
0.0
 70
   160
 71
     5
 42
-1.0
  3
INABA_S30G
100
AcDbAlignedDimension
 13
6504.871284556649
 23
2619.768007716477
 33
0.0
 14
7204.87128455665
 24
2619.768007716477
 34
0.0
100
AcDbRotatedDimension
  0
LINE
  5
13AE1
330
747D
100
AcDbEntity
  8
文字
 48
50.0
100
AcDbLine
 10
6504.871284556649
 20
2619.768007716477
 30
0.0
 11
7204.87128455665
 21
2619.768007716477
 31
0.0
  0
LINE
  5
13AE2
330
747D
100
AcDbEntity
  8
文字
 48
50.0
100
AcDbLine
 10
7204.87128455665
 20
2619.768007716477
 30
0.0
 11
7204.87128455665
 21
1919.768007716477
 31
0.0
  0
LINE
  5
13AE3
330
747D
100
AcDbEntity
  8
文字
 48
50.0
100
AcDbLine
 10
6504.871284556649
 20
1919.768007716477
 30
0.0
 11
7204.87128455665
 21
1919.768007716477
 31
0.0
  0
LINE
  5
13AE4
330
747D
100
AcDbEntity
  8
文字
 48
50.0
100
AcDbLine
 10
6504.871284556649
 20
2619.768007716477
 30
0.0
 11
6504.871284556649
 21
1919.768007716477
 31
0.0
  0
DIMENSION
  5
13AE5
330
747D
100
AcDbEntity
  8
寸法
 48
50.0
100
AcDbDimension
  2
*D45
 10
6327.55678127247
 20
1919.768007716477
 30
0.0
 11
6252.55678127247
 21
2269.768007716477
 31
0.0
 12
-4345.369212590016
 22
-8261.4290630019
 32
0.0
 70
    32
 71
     5
 42
-1.0
  3
INABA_S30G
100
AcDbAlignedDimension
 13
6504.871284556649
 23
2619.768007716477
 33
0.0
 14
6504.871284556649
 24
1919.768007716477
 34
0.0
 50
90.0
100
AcDbRotatedDimension
  0
LEADER
  5
13AE6
330
747D
100
AcDbEntity
  8
寸法
 48
50.0
100
AcDbLeader
  3
INABA_S30G
 73
     0
 75
     1
 40
90.0
 41
108.0
 76
     3
 10
6833.980118446156
 20
2229.768007716475
 30
0.0
 10
6727.995226267413
 20
1712.546270780802
 30
0.0
 10
6652.995226267413
 20
1712.546270780802
 30
0.0
340
13AE7
1001
ACAD
1000
DSTYLE
1002
{
1070
   341
1005
0
1070
   343
1005
0
1070
   344
1005
0
1002
}
  0
MTEXT
  5
13AE7
102
{ACAD_REACTORS
330
13AE6
102
}
330
747D
100
AcDbEntity
  8
寸法
 62
     7
 48
50.0
100
AcDbMText
 10
6622.995226267412
 20
1787.546270780802
 30
0.0
 40
90.0
 41
0.0
 71
     6
 72
     1
  1
\A1;柱
  7
STYLE1
 73
     1
 44
1.0
1001
ACAD
1000
MTEXTBEGIN
1070
    73
1070
     1
1070
    44
1040
1.0
1070
    74
1070
     0
1000
MTEXTEND
  0
LINE
  5
13B16
330
747D
100
AcDbEntity
  8
文字
 48
50.0
100
AcDbLine
 10
4794.871284556649
 20
2619.768007716479
 30
0.0
 11
4794.871284556649
 21
1919.768007716479
 31
0.0
  0
LINE
  5
13B17
330
747D
100
AcDbEntity
  8
文字
 48
50.0
100
AcDbLine
 10
4094.871284556649
 20
2619.768007716479
 30
0.0
 11
4794.871284556649
 21
2619.768007716479
 31
0.0
  0
LINE
  5
13B18
330
747D
100
AcDbEntity
  8
文字
 48
50.0
100
AcDbLine
 10
4094.871284556649
 20
2619.768007716479
 30
0.0
 11
4094.871284556649
 21
1919.768007716479
 31
0.0
  0
LINE
  5
13B19
330
747D
100
AcDbEntity
  8
文字
 48
50.0
100
AcDbLine
 10
4094.871284556649
 20
1919.768007716479
 30
0.0
 11
4794.871284556649
 21
1919.768007716479
 31
0.0
  0
LINE
  5
13B1A
330
747D
100
AcDbEntity
  8
文字
 48
50.0
100
AcDbLine
 10
1684.871284556649
 20
2619.768007716479
 30
0.0
 11
2384.87128455665
 21
2619.768007716479
 31
0.0
  0
LINE
  5
13B1B
330
747D
100
AcDbEntity
  8
文字
 48
50.0
100
AcDbLine
 10
2384.87128455665
 20
2619.768007716479
 30
0.0
 11
2384.87128455665
 21
1919.768007716479
 31
0.0
  0
LINE
  5
13B1C
330
747D
100
AcDbEntity
  8
寸法
 48
50.0
100
AcDbLine
 10
2034.87128455665
 20
2728.66697019661
 30
0.0
 11
2289.00511530557
 21
2728.66697019661
 31
0.0
  0
LINE
  5
13B1D
330
747D
100
AcDbEntity
  8
寸法
 48
50.0
100
AcDbLine
 10
2181.271744722591
 20
2757.534039842202
 30
0.0
 11
2181.271744722591
 21
2691.599420920651
 31
0.0
  0
LINE
  5
13B1E
330
747D
100
AcDbEntity
  8
寸法
 48
50.0
100
AcDbLine
 10
2289.00511530557
 20
2728.66697019661
 30
0.0
 11
2181.271744722591
 21
2757.534039842202
 31
0.0
  0
MTEXT
  5
13B1F
330
747D
100
AcDbEntity
  8
寸法
 62
     7
 48
50.0
100
AcDbMText
 10
2334.73580439418
 20
2745.601497394833
 30
0.0
 40
90.0
 41
0.0
 71
     4
 72
     1
  1
B
  7
STYLE1
 73
     1
 44
1.0
1001
ACAD
1000
MTEXTBEGIN
1070
    73
1070
     1
1070
    44
1040
1.0
1070
    74
1070
     0
1000
MTEXTEND
  0
LINE
  5
13B20
330
747D
100
AcDbEntity
  8
文字
 48
50.0
100
AcDbLine
 10
1684.871284556649
 20
1919.768007716479
 30
0.0
 11
2384.87128455665
 21
1919.768007716479
 31
0.0
  0
LINE
  5
13B21
330
747D
100
AcDbEntity
  8
文字
 48
50.0
100
AcDbLine
 10
1684.871284556649
 20
2619.768007716479
 30
0.0
 11
1684.871284556649
 21
1919.768007716479
 31
0.0
  0
LINE
  5
13B22
330
747D
100
AcDbEntity
  8
寸法
 48
50.0
100
AcDbLine
 10
2034.87128455665
 20
1810.869045236348
 30
0.0
 11
2289.00511530557
 21
1810.869045236348
 31
0.0
  0
LINE
  5
13B23
330
747D
100
AcDbEntity
  8
寸法
 48
50.0
100
AcDbLine
 10
2034.87128455665
 20
1810.869045236348
 30
0.0
 11
2034.87128455665
 21
2019.768007716479
 31
0.0
  0
LINE
  5
13B24
330
747D
100
AcDbEntity
  8
寸法
 48
50.0
100
AcDbLine
 10
2181.271744722591
 20
1782.001975590756
 30
0.0
 11
2181.271744722591
 21
1847.936594512308
 31
0.0
  0
LINE
  5
13B25
330
747D
100
AcDbEntity
  8
寸法
 48
50.0
100
AcDbLine
 10
2289.00511530557
 20
1810.869045236348
 30
0.0
 11
2181.271744722591
 21
1782.001975590756
 31
0.0
  0
MTEXT
  5
13B26
330
747D
100
AcDbEntity
  8
寸法
 62
     7
 48
50.0
100
AcDbMText
 10
2333.477175535496
 20
1813.641842228428
 30
0.0
 40
90.0
 41
0.0
 71
     4
 72
     1
  1
B'
  7
STYLE1
 73
     1
 44
1.0
1001
ACAD
1000
MTEXTBEGIN
1070
    73
1070
     1
1070
    44
1040
1.0
1070
    74
1070
     0
1000
MTEXTEND
  0
LINE
  5
13E36
330
747D
100
AcDbEntity
  8
仕様書枠
  6
Continuous
 48
50.0
100
AcDbLine
 10
9830.400000000002
 20
900.0
 30
0.0
 11
9830.400000000002
 21
-0.0000000000000092
 31
0.0
  0
LINE
  5
13E37
330
747D
100
AcDbEntity
  8
仕様書枠
 48
50.0
100
AcDbLine
 10
12230.4
 20
900.0
 30
0.0
 11
12230.4
 21
-0.0000000000000227
 31
0.0
  0
LINE
  5
13E38
330
747D
100
AcDbEntity
  8
仕様書枠
 48
50.0
100
AcDbLine
 10
9830.400000000002
 20
900.0
 30
0.0
 11
12230.4
 21
900.0
 31
0.0
  0
LINE
  5
13E39
330
747D
100
AcDbEntity
  8
文字
 62
     7
 48
50.0
100
AcDbLine
 10
9890.400000000001
 20
300.0
 30
0.0
 11
12170.4
 21
300.0
 31
0.0
  0
TEXT
  5
13E3A
330
747D
100
AcDbEntity
  8
文字
 62
     7
 48
50.0
100
AcDbText
 10
9872.234292432677
 20
671.3179555724553
 30
0.0
 40
150.0
  1
基 礎 図
  7
STYLE2
100
AcDbText
  0
TEXT
  5
13E3B
330
747D
100
AcDbEntity
  8
文字
 62
     7
 48
50.0
100
AcDbText
 10
9901.077524988313
 20
357.9555495773442
 30
0.0
 40
120.0
  1
機種名
  7
STYLE2
100
AcDbText
  0
TEXT
  5
13E3C
330
747D
100
AcDbEntity
  8
文字
 62
     7
 48
50.0
100
AcDbText
 10
9907.054008162901
 20
171.4076431926763
 30
0.0
 40
60.0
  1
○間口寸法は柱芯寸法です。
  7
STYLE2
100
AcDbText
  0
TEXT
  5
13E3D
330
747D
100
AcDbEntity
  8
文字
 62
     7
 48
50.0
100
AcDbText
 10
9907.054008162901
 20
57.07076030737012
 30
0.0
 40
60.0
  1
○寒冷地等は、地域の実情に合わせた基礎にしてください。
  7
STYLE2
100
AcDbText
  0
TEXT
  5
13E3E
330
747D
100
AcDbEntity
  8
文字
 62
     7
 48
50.0
100
AcDbText
 10
10893.0988779165
 20
773.6682797184214
 30
0.0
 40
75.0
  1
NO.3     <縮尺> S=1/30
  7
STYLE2
100
AcDbText
  0
LINE
  5
13E3F
330
747D
100
AcDbEntity
  8
仕様書枠
 48
50.0
100
AcDbLine
 10
9830.400000000002
 20
600.0
 30
0.0
 11
10688.4
 21
600.0
 31
0.0
  0
LINE
  5
13E40
330
747D
100
AcDbEntity
  8
仕様書枠
  6
Continuous
 48
50.0
100
AcDbLine
 10
10688.4
 20
900.0
 30
0.0
 11
10688.4
 21
600.0
 31
0.0
  0
TEXT
  5
13E41
330
747D
100
AcDbEntity
  8
文字
 62
     7
 48
50.0
100
AcDbText
 10
10951.9835159712
 20
362.922534743356
 30
0.0
 40
120.0
  1
BＹ-２４L-２
  7
STYLE3
100
AcDbText
  0
TEXT
  5
13E42
330
747D
100
AcDbEntity
  8
文字
 62
     7
 48
50.0
100
AcDbText
 10
11138.71739229687
 20
628.6895453046891
 30
0.0
 40
75.0
  1
～一般型～
  7
STYLE2
100
AcDbText
  0
LINE
  5
13E43
330
747D
100
AcDbEntity
  8
文字
 48
50.0
100
AcDbLine
 10
10002.25365046651
 20
1359.84602608085
 30
0.0
 11
10002.25365046651
 21
1181.346026080849
 31
0.0
  0
LINE
  5
13E44
330
747D
100
AcDbEntity
  8
文字
 48
50.0
100
AcDbLine
 10
8968.869879832986
 20
1359.84602608085
 30
0.0
 11
8968.869879832986
 21
1181.346026080849
 31
0.0
  0
TEXT
  5
13E45
330
747D
100
AcDbEntity
  8
文字
 62
     7
 48
50.0
100
AcDbText
 10
9022.13772576316
 20
1227.332858859548
 30
0.0
 40
90.0
  1
Ｂ-Ｂ' 断面　1/20
  7
STYLE2
100
AcDbText
  0
LINE
  5
13E46
330
747D
100
AcDbEntity
  8
文字
 48
50.0
100
AcDbLine
 10
8968.869879832986
 20
1181.346026080849
 30
0.0
 11
10002.25365046651
 21
1181.34602608085
 31
0.0
  0
LINE
  5
13E47
330
747D
100
AcDbEntity
  8
文字
 48
50.0
100
AcDbLine
 10
8968.869879832986
 20
1359.84602608085
 30
0.0
 11
10002.25365046651
 21
1359.84602608085
 31
0.0
  0
LINE
  5
13E48
330
747D
100
AcDbEntity
  8
文字
 48
50.0
100
AcDbLine
 10
8968.869879832986
 20
4518.489493800728
 30
0.0
 11
10002.25365046651
 21
4518.489493800728
 31
0.0
  0
LINE
  5
13E49
330
747D
100
AcDbEntity
  8
文字
 48
50.0
100
AcDbLine
 10
8968.869879832986
 20
4339.989493800727
 30
0.0
 11
10002.25365046651
 21
4339.989493800727
 31
0.0
  0
TEXT
  5
13E4A
330
747D
100
AcDbEntity
  8
文字
 62
     7
 48
50.0
100
AcDbText
 10
9022.13772576316
 20
4385.976326579426
 30
0.0
 40
90.0
  1
Ａ-Ａ' 断面 1/20
  7
STYLE2
100
AcDbText
  0
LINE
  5
13E4B
330
747D
100
AcDbEntity
  8
文字
 48
50.0
100
AcDbLine
 10
8968.869879832986
 20
4518.489493800728
 30
0.0
 11
8968.869879832986
 21
4339.989493800727
 31
0.0
  0
LINE
  5
13E4C
330
747D
100
AcDbEntity
  8
文字
 48
50.0
100
AcDbLine
 10
10002.25365046651
 20
4518.489493800728
 30
0.0
 11
10002.25365046651
 21
4339.989493800727
 31
0.0
  0
TEXT
  5
13E4D
330
747D
100
AcDbEntity
  8
文字
 48
50.0
100
AcDbText
 10
9604.371157315142
 20
3329.106969457704
 30
0.0
 40
72.0
  1
水勾配
 41
0.8
  7
STYLE1
100
AcDbText
  0
TEXT
  5
13E4E
330
747D
100
AcDbEntity
  8
文字
 48
50.0
100
AcDbText
 10
9034.39246179313
 20
3329.106969457704
 30
0.0
 40
72.0
  1
水勾配
 41
0.8
  7
STYLE1
100
AcDbText
  0
LINE
  5
13E4F
330
747D
100
AcDbEntity
  8
部品1
 48
50.0
100
AcDbLine
 10
10353.92972092473
 20
3070.402601503318
 30
0.0
 11
10353.92972092473
 21
2955.602601503321
 31
0.0
  0
LINE
  5
13E50
330
747D
100
AcDbEntity
  8
細線
 48
50.0
100
AcDbLine
 10
10364.80175166035
 20
2955.602601503321
 30
0.0
 11
10373.95837674077
 21
2934.60260150332
 31
0.0
  0
LINE
  5
13E51
330
747D
100
AcDbEntity
  8
文字
 48
50.0
100
AcDbLine
 10
10131.82243022612
 20
3170.943682177906
 30
0.0
 11
10063.17121236098
 21
3152.548643791531
 31
0.0
  0
LINE
  5
13E52
330
747D
100
AcDbEntity
  8
文字
 48
50.0
100
AcDbLine
 10
10131.82243022612
 20
3170.943682177906
 30
0.0
 11
10063.17121236098
 21
3189.338720564283
 31
0.0
  0
LINE
  5
13E53
330
747D
100
AcDbEntity
  8
細線
 48
50.0
100
AcDbLine
 10
10259.2036223887
 20
2955.602601503322
 30
0.0
 11
10353.92972092473
 21
3050.328700039353
 31
0.0
  0
LINE
  5
13E54
330
747D
100
AcDbEntity
  8
細線
 48
50.0
100
AcDbLine
 10
10241.3845315028
 20
2955.602601503321
 30
0.0
 11
10353.92972092473
 21
3068.147790925258
 31
0.0
  0
LINE
  5
13E55
330
747D
100
AcDbEntity
  8
細線
 48
50.0
100
AcDbLine
 10
10280.80175166035
 20
2955.602601503321
 30
0.0
 11
10289.95837674077
 21
2934.602601503322
 31
0.0
  0
LINE
  5
13E56
330
747D
100
AcDbEntity
  8
細線
 48
50.0
100
AcDbLine
 10
10211.94429003245
 20
2951.048763107045
 30
0.0
 11
10213.60175166036
 21
2955.602601503321
 31
0.0
  0
LINE
  5
13E57
330
747D
100
AcDbEntity
  8
細線
 48
50.0
100
AcDbLine
 10
10112.80175166035
 20
2955.602601503321
 30
0.0
 11
10121.95837674077
 21
2934.60260150332
 31
0.0
  0
LINE
  5
13E58
330
747D
100
AcDbEntity
  8
部品1
 48
50.0
100
AcDbLine
 10
10211.94429003245
 20
3098.602601503321
 30
0.0
 11
10328.72972092474
 21
3095.60260150332
 31
0.0
  0
LINE
  5
13E59
330
747D
100
AcDbEntity
  8
部品1
 48
50.0
100
AcDbLine
 10
10211.94429003245
 20
2955.602601503321
 30
0.0
 11
10394.43806056728
 21
2955.602601503321
 31
0.0
  0
LINE
  5
13E5A
330
747D
100
AcDbEntity
  8
部品1
 48
50.0
100
AcDbLine
 10
10353.92972092473
 20
3070.40260150332
 30
0.0
 11
10328.72972092474
 21
3095.60260150332
 31
0.0
  0
LINE
  5
13E5B
330
747D
100
AcDbEntity
  8
細線
 48
50.0
100
AcDbLine
 10
10277.0227132746
 20
2955.602601503321
 30
0.0
 11
10353.92972092473
 21
3032.509609153459
 31
0.0
  0
LINE
  5
13E5C
330
747D
100
AcDbEntity
  8
細線
 48
50.0
100
AcDbLine
 10
10159.00621652043
 20
2805.602601503322
 30
0.0
 11
10187.94429003245
 21
2885.109305040131
 31
0.0
  0
LINE
  5
13E5D
330
747D
100
AcDbEntity
  8
部品1
 48
50.0
100
AcDbLine
 10
10211.94429003245
 20
2805.602601503322
 30
0.0
 11
10394.43806056728
 21
2805.602601503322
 31
0.0
  0
LINE
  5
13E5E
330
747D
100
AcDbEntity
  8
部品1
 48
50.0
100
AcDbLine
 10
10187.94429003245
 20
3126.817089598731
 30
0.0
 11
10187.94429003245
 21
2764.721447307096
 31
0.0
  0
LINE
  5
13E5F
330
747D
100
AcDbEntity
  8
部品1
 48
50.0
100
AcDbLine
 10
10211.94429003245
 20
3126.817089598731
 30
0.0
 11
10211.94429003245
 21
2764.721447307096
 31
0.0
  0
LINE
  5
13E60
330
747D
100
AcDbEntity
  8
細線
 48
50.0
100
AcDbLine
 10
10327.00621652043
 20
2805.602601503322
 30
0.0
 11
10381.60175166036
 21
2955.602601503321
 31
0.0
  0
LINE
  5
13E61
330
747D
100
AcDbEntity
  8
細線
 48
50.0
100
AcDbLine
 10
10243.00621652043
 20
2805.602601503322
 30
0.0
 11
10297.60175166036
 21
2955.602601503321
 31
0.0
  0
LINE
  5
13E62
330
747D
100
AcDbEntity
  8
部品1
 48
50.0
100
AcDbLine
 10
10119.74150214281
 20
2005.155748320804
 30
0.0
 11
10119.74150214281
 21
2206.155748320803
 31
0.0
  0
DIMENSION
  5
13E63
330
747D
100
AcDbEntity
  8
寸法
 48
50.0
100
AcDbDimension
  2
*D66
 10
10659.45010247398
 20
2131.155748320804
 30
0.0
 11
10659.45010247398
 21
1951.453090840491
 31
0.0
 70
   160
 71
     5
 42
50.00000000249969
  3
INABA_S30G詳細用20
100
AcDbAlignedDimension
 13
10119.74150214281
 23
2206.155748320803
 33
0.0
 14
10119.74150214281
 24
2131.155748320804
 34
0.0
 50
90.0
100
AcDbRotatedDimension
  0
DIMENSION
  5
13E64
330
747D
100
AcDbEntity
  8
寸法
 48
50.0
100
AcDbDimension
  2
*D67
 10
10659.45010247398
 20
2206.155748320803
 30
0.0
 11
10584.45010247398
 21
2618.379174912064
 31
0.0
 70
    32
 71
     5
 42
549.6312354824943
  3
INABA_S30G詳細用20
100
AcDbAlignedDimension
 13
10353.92972092473
 23
3030.602601503322
 33
0.0
 14
10119.74150214281
 24
2206.155748320803
 34
0.0
 50
90.0
100
AcDbRotatedDimension
  0
LINE
  5
13E65
330
747D
100
AcDbEntity
  8
細線
 48
50.0
100
AcDbLine
 10
10028.80175166035
 20
2955.602601503321
 30
0.0
 11
10037.95837674077
 21
2934.60260150332
 31
0.0
  0
LINE
  5
13E66
330
747D
100
AcDbEntity
  8
細線
 48
50.0
100
AcDbLine
 10
9755.934834795914
 20
2955.602601503321
 30
0.0
 11
9905.934834795914
 21
3105.602601503321
 31
0.0
  0
LINE
  5
13E67
330
747D
100
AcDbEntity
  8
部品1
 48
50.0
100
AcDbLine
 10
9555.74150214282
 20
3126.602601503321
 30
0.0
 11
9576.741502142814
 21
3105.602601503321
 31
0.0
  0
LINE
  5
13E68
330
747D
100
AcDbEntity
  8
部品1
 48
50.0
100
AcDbLine
 10
9534.741502142813
 20
3126.602601503321
 30
0.0
 11
9555.741502142813
 21
3126.602601503321
 31
0.0
  0
LINE
  5
13E69
330
747D
100
AcDbEntity
  8
細線
 48
50.0
100
AcDbLine
 10
9534.741502142813
 20
2971.997147328908
 30
0.0
 11
9668.346956317225
 21
3105.602601503321
 31
0.0
  0
LINE
  5
13E6A
330
747D
100
AcDbEntity
  8
細線
 48
50.0
100
AcDbLine
 10
9534.741502142813
 20
2989.816238214808
 30
0.0
 11
9650.527865431325
 21
3105.602601503321
 31
0.0
  0
LINE
  5
13E6B
330
747D
100
AcDbEntity
  8
細線
 48
50.0
100
AcDbLine
 10
9534.741502142814
 20
3007.635329100708
 30
0.0
 11
9632.708774545426
 21
3105.602601503321
 31
0.0
  0
LINE
  5
13E6C
330
747D
100
AcDbEntity
  8
細線
 48
50.0
100
AcDbLine
 10
9738.115743910014
 20
2955.602601503322
 30
0.0
 11
9888.115743910013
 21
3105.602601503321
 31
0.0
  0
LINE
  5
13E6D
330
747D
100
AcDbEntity
  8
細線
 48
50.0
100
AcDbLine
 10
9720.296653024114
 20
2955.602601503321
 30
0.0
 11
9870.296653024112
 21
3105.602601503321
 31
0.0
  0
LINE
  5
13E6E
330
747D
100
AcDbEntity
  8
細線
 48
50.0
100
AcDbLine
 10
9999.741502142821
 20
2571.783510617404
 30
0.0
 11
9615.922411256917
 21
2955.602601503321
 31
0.0
  0
LINE
  5
13E6F
330
747D
100
AcDbEntity
  8
細線
 48
50.0
100
AcDbLine
 10
9999.741502142818
 20
2589.602601503327
 30
0.0
 11
9633.741502142816
 21
2955.602601503321
 31
0.0
  0
LINE
  5
13E70
330
747D
100
AcDbEntity
  8
細線
 48
50.0
100
AcDbLine
 10
9999.741502142821
 20
2607.421692389225
 30
0.0
 11
9651.560593028719
 21
2955.602601503321
 31
0.0
  0
LINE
  5
13E71
330
747D
100
AcDbEntity
  8
細線
 48
50.0
100
AcDbLine
 10
9999.741502142821
 20
2829.602601503335
 30
0.0
 11
10045.60175166036
 21
2955.602601503321
 31
0.0
  0
LINE
  5
13E72
330
747D
100
AcDbEntity
  8
部品1
 48
50.0
100
AcDbLine
 10
9393.741502142814
 20
3126.602601503321
 30
0.0
 11
9372.741502142813
 21
3105.602601503321
 31
0.0
  0
LINE
  5
13E73
330
747D
100
AcDbEntity
  8
部品1
 48
50.0
100
AcDbLine
 10
9393.741502142816
 20
3126.602601503321
 30
0.0
 11
9414.741502142813
 21
3126.602601503321
 31
0.0
  0
LINE
  5
13E74
330
747D
100
AcDbEntity
  8
細線
 48
50.0
100
AcDbLine
 10
9414.741502142812
 20
2954.83381391054
 30
0.0
 11
9413.972714550032
 21
2955.60260150332
 31
0.0
  0
LINE
  5
13E75
330
747D
100
AcDbEntity
  8
細線
 48
50.0
100
AcDbLine
 10
9414.741502142812
 20
2937.014723024644
 30
0.0
 11
9396.153623664135
 21
2955.602601503321
 31
0.0
  0
LINE
  5
13E76
330
747D
100
AcDbEntity
  8
細線
 48
50.0
100
AcDbLine
 10
9240.439986952651
 20
2955.602601503321
 30
0.0
 11
9411.439986952647
 21
3126.602601503321
 31
0.0
  0
LINE
  5
13E77
330
747D
100
AcDbEntity
  8
細線
 48
50.0
100
AcDbLine
 10
9258.25907783855
 20
2955.602601503321
 30
0.0
 11
9414.741502142813
 21
3112.085025807582
 31
0.0
  0
LINE
  5
13E78
330
747D
100
AcDbEntity
  8
細線
 48
50.0
100
AcDbLine
 10
9020.671199359872
 20
2955.602601503321
 30
0.0
 11
9170.671199359869
 21
3105.602601503321
 31
0.0
  0
LINE
  5
13E79
330
747D
100
AcDbEntity
  8
細線
 48
50.0
100
AcDbLine
 10
9002.85210847397
 20
2955.602601503321
 30
0.0
 11
9152.852108473968
 21
3105.602601503321
 31
0.0
  0
LINE
  5
13E7A
330
747D
100
AcDbEntity
  8
細線
 48
50.0
100
AcDbLine
 10
9222.620896066752
 20
2955.602601503321
 30
0.0
 11
9372.620896066754
 21
3105.602601503321
 31
0.0
  0
LINE
  5
13E7B
330
747D
100
AcDbEntity
  8
細線
 48
50.0
100
AcDbLine
 10
8920.803428630785
 20
2805.602601503322
 30
0.0
 11
8949.741502142812
 21
2885.109305040131
 31
0.0
  0
LINE
  5
13E7C
330
747D
100
AcDbEntity
  8
細線
 48
50.0
100
AcDbLine
 10
8928.346854768919
 20
2826.327994483168
 30
0.0
 11
8937.383743014654
 21
2805.602601503322
 31
0.0
  0
LINE
  5
13E7D
330
747D
100
AcDbEntity
  8
細線
 48
50.0
100
AcDbLine
 10
9414.741502142812
 20
2919.195632138741
 30
0.0
 11
9378.334532778231
 21
2955.602601503321
 31
0.0
  0
LINE
  5
13E7E
330
747D
100
AcDbEntity
  8
細線
 48
50.0
100
AcDbLine
 10
9414.741502142813
 20
2717.245935431859
 30
0.0
 11
9176.384836071356
 21
2955.602601503321
 31
0.0
  0
LINE
  5
13E7F
330
747D
100
AcDbEntity
  8
細線
 48
50.0
100
AcDbLine
 10
9414.741502142813
 20
2699.426844545961
 30
0.0
 11
9158.565745185454
 21
2955.602601503321
 31
0.0
  0
LINE
  5
13E80
330
747D
100
AcDbEntity
  8
細線
 48
50.0
100
AcDbLine
 10
9414.741502142812
 20
2681.607753660062
 30
0.0
 11
9140.746654299558
 21
2955.602601503321
 31
0.0
  0
CIRCLE
  5
13E81
330
747D
100
AcDbEntity
  8
部品1
 48
5.0
100
AcDbCircle
 10
9798.741502142821
 20
2324.855748320806
 30
0.0
 40
8.4
  0
LINE
  5
13E82
330
747D
100
AcDbEntity
  8
部品1
 48
50.0
100
AcDbLine
 10
9822.366502142813
 20
2299.655748320803
 30
0.0
 11
9822.366502142813
 21
2316.455748320807
 31
0.0
  0
LINE
  5
13E83
330
747D
100
AcDbEntity
  8
細線
 48
50.0
100
AcDbLine
 10
9766.301751660355
 20
2131.155748320804
 30
0.0
 11
9775.458376740765
 21
2110.155748320804
 31
0.0
  0
LINE
  5
13E84
330
747D
100
AcDbEntity
  8
細線
 48
50.0
100
AcDbLine
 10
9850.301751660355
 20
2131.155748320804
 30
0.0
 11
9859.458376740764
 21
2110.155748320804
 31
0.0
  0
LINE
  5
13E85
330
747D
100
AcDbEntity
  8
細線
 48
50.0
100
AcDbLine
 10
9897.311804925752
 20
2206.155748320803
 30
0.0
 11
9822.311804925751
 21
2131.155748320804
 31
0.0
  0
LINE
  5
13E86
330
747D
100
AcDbEntity
  8
細線
 48
50.0
100
AcDbLine
 10
9915.130895811657
 20
2206.155748320803
 30
0.0
 11
9840.130895811654
 21
2131.155748320804
 31
0.0
  0
LINE
  5
13E87
330
747D
100
AcDbEntity
  8
細線
 48
50.0
100
AcDbLine
 10
9932.949986697554
 20
2206.155748320803
 30
0.0
 11
9857.949986697555
 21
2131.155748320804
 31
0.0
  0
CIRCLE
  5
13E88
330
747D
100
AcDbEntity
  8
部品1
 48
5.0
100
AcDbCircle
 10
9582.741502142821
 20
2324.855748320806
 30
0.0
 40
8.4
  0
LINE
  5
13E89
330
747D
100
AcDbEntity
  8
細線
 48
50.0
100
AcDbLine
 10
9682.301751660354
 20
2131.155748320804
 30
0.0
 11
9691.458376740763
 21
2110.155748320804
 31
0.0
  0
LINE
  5
13E8A
330
747D
100
AcDbEntity
  8
細線
 48
50.0
100
AcDbLine
 10
9514.301751660353
 20
2131.155748320804
 30
0.0
 11
9523.458376740764
 21
2110.155748320804
 31
0.0
  0
LINE
  5
13E8B
330
747D
100
AcDbEntity
  8
細線
 48
50.0
100
AcDbLine
 10
9598.301751660354
 20
2131.155748320804
 30
0.0
 11
9607.458376740765
 21
2110.155748320804
 31
0.0
  0
LINE
  5
13E8C
330
747D
100
AcDbEntity
  8
細線
 48
50.0
100
AcDbLine
 10
9659.723926447075
 20
2206.155748320803
 30
0.0
 11
9584.723926447074
 21
2131.155748320804
 31
0.0
  0
LINE
  5
13E8D
330
747D
100
AcDbEntity
  8
細線
 48
50.0
100
AcDbLine
 10
9677.543017332977
 20
2206.155748320803
 30
0.0
 11
9602.543017332976
 21
2131.155748320804
 31
0.0
  0
LINE
  5
13E8E
330
747D
100
AcDbEntity
  8
細線
 48
50.0
100
AcDbLine
 10
9695.36210821888
 20
2206.155748320803
 30
0.0
 11
9620.362108218877
 21
2131.155748320804
 31
0.0
  0
LINE
  5
13E8F
330
747D
100
AcDbEntity
  8
細線
 48
50.0
100
AcDbLine
 10
9828.884877062407
 20
2026.155748320803
 30
0.0
 11
9838.041502142816
 21
2005.155748320804
 31
0.0
  0
LINE
  5
13E90
330
747D
100
AcDbEntity
  8
細線
 48
50.0
100
AcDbLine
 10
9660.884877062407
 20
2026.155748320803
 30
0.0
 11
9670.041502142817
 21
2005.155748320804
 31
0.0
  0
LINE
  5
13E91
330
747D
100
AcDbEntity
  8
細線
 48
50.0
100
AcDbLine
 10
9576.884877062406
 20
2026.155748320803
 30
0.0
 11
9586.041502142817
 21
2005.155748320804
 31
0.0
  0
LINE
  5
13E92
330
747D
100
AcDbEntity
  8
細線
 48
50.0
100
AcDbLine
 10
9744.884877062407
 20
2026.155748320803
 30
0.0
 11
9754.041502142817
 21
2005.155748320804
 31
0.0
  0
LINE
  5
13E93
330
747D
100
AcDbEntity
  8
細線
 48
50.0
100
AcDbLine
 10
9569.241502142817
 20
2005.155748320804
 30
0.0
 11
9615.101751660358
 21
2131.155748320804
 31
0.0
  0
LINE
  5
13E94
330
747D
100
AcDbEntity
  8
細線
 48
50.0
100
AcDbLine
 10
9653.241502142817
 20
2005.155748320804
 30
0.0
 11
9699.101751660357
 21
2131.155748320804
 31
0.0
  0
LINE
  5
13E95
330
747D
100
AcDbEntity
  8
細線
 48
50.0
100
AcDbLine
 10
9737.241502142817
 20
2005.155748320804
 30
0.0
 11
9783.101751660357
 21
2131.155748320804
 31
0.0
  0
LINE
  5
13E96
330
747D
100
AcDbEntity
  8
細線
 48
50.0
100
AcDbLine
 10
9821.241502142818
 20
2005.155748320804
 30
0.0
 11
9867.101751660356
 21
2131.155748320804
 31
0.0
  0
CIRCLE
  5
13E97
330
747D
100
AcDbEntity
  8
部品1
 48
50.0
100
AcDbCircle
 10
9474.741502142814
 20
2468.155748320804
 30
0.0
 40
8.4
  0
CIRCLE
  5
13E98
330
747D
100
AcDbEntity
  8
部品1
 48
5.0
100
AcDbCircle
 10
9366.74150214282
 20
2324.855748320806
 30
0.0
 40
8.4
  0
LINE
  5
13E99
330
747D
100
AcDbEntity
  8
細線
 48
50.0
100
AcDbLine
 10
9430.301751660355
 20
2131.155748320804
 30
0.0
 11
9439.458376740764
 21
2110.155748320804
 31
0.0
  0
LINE
  5
13E9A
330
747D
100
AcDbEntity
  8
細線
 48
50.0
100
AcDbLine
 10
9262.301751660354
 20
2131.155748320804
 30
0.0
 11
9271.458376740765
 21
2110.155748320804
 31
0.0
  0
LINE
  5
13E9B
330
747D
100
AcDbEntity
  8
細線
 48
50.0
100
AcDbLine
 10
9346.301751660353
 20
2131.155748320804
 30
0.0
 11
9355.458376740763
 21
2110.155748320804
 31
0.0
  0
LINE
  5
13E9C
330
747D
100
AcDbEntity
  8
細線
 48
50.0
100
AcDbLine
 10
9439.955138854303
 20
2206.155748320803
 30
0.0
 11
9364.9551388543
 21
2131.155748320804
 31
0.0
  0
LINE
  5
13E9D
330
747D
100
AcDbEntity
  8
細線
 48
50.0
100
AcDbLine
 10
9422.136047968399
 20
2206.155748320803
 30
0.0
 11
9347.136047968398
 21
2131.155748320804
 31
0.0
  0
LINE
  5
13E9E
330
747D
100
AcDbEntity
  8
細線
 48
50.0
100
AcDbLine
 10
9457.774229740198
 20
2206.155748320803
 30
0.0
 11
9382.774229740199
 21
2131.155748320804
 31
0.0
  0
CIRCLE
  5
13E9F
330
747D
100
AcDbEntity
  8
部品1
 48
5.0
100
AcDbCircle
 10
9150.741502142819
 20
2324.855748320806
 30
0.0
 40
8.4
  0
LINE
  5
13EA0
330
747D
100
AcDbEntity
  8
部品1
 48
50.0
100
AcDbLine
 10
9127.116502142813
 20
2299.655748320805
 30
0.0
 11
9127.116502142813
 21
2316.455748320805
 31
0.0
  0
LINE
  5
13EA1
330
747D
100
AcDbEntity
  8
細線
 48
50.0
100
AcDbLine
 10
9178.301751660354
 20
2131.155748320804
 30
0.0
 11
9187.458376740764
 21
2110.155748320804
 31
0.0
  0
LINE
  5
13EA2
330
747D
100
AcDbEntity
  8
細線
 48
50.0
100
AcDbLine
 10
9220.186351261521
 20
2206.155748320803
 30
0.0
 11
9145.186351261523
 21
2131.155748320804
 31
0.0
  0
LINE
  5
13EA3
330
747D
100
AcDbEntity
  8
細線
 48
50.0
100
AcDbLine
 10
9094.301751660355
 20
2131.155748320804
 30
0.0
 11
9103.458376740764
 21
2110.155748320804
 31
0.0
  0
LINE
  5
13EA4
330
747D
100
AcDbEntity
  8
細線
 48
50.0
100
AcDbLine
 10
9184.548169489721
 20
2206.155748320803
 30
0.0
 11
9109.54816948972
 21
2131.155748320804
 31
0.0
  0
LINE
  5
13EA5
330
747D
100
AcDbEntity
  8
細線
 48
50.0
100
AcDbLine
 10
9202.367260375625
 20
2206.155748320803
 30
0.0
 11
9127.367260375624
 21
2131.155748320804
 31
0.0
  0
LINE
  5
13EA6
330
747D
100
AcDbEntity
  8
細線
 48
50.0
100
AcDbLine
 10
9408.884877062407
 20
2026.155748320803
 30
0.0
 11
9418.041502142816
 21
2005.155748320804
 31
0.0
  0
LINE
  5
13EA7
330
747D
100
AcDbEntity
  8
細線
 48
50.0
100
AcDbLine
 10
9492.884877062406
 20
2026.155748320803
 30
0.0
 11
9502.041502142816
 21
2005.155748320804
 31
0.0
  0
LINE
  5
13EA8
330
747D
100
AcDbEntity
  8
細線
 48
50.0
100
AcDbLine
 10
9324.884877062407
 20
2026.155748320803
 30
0.0
 11
9334.041502142815
 21
2005.155748320804
 31
0.0
  0
LINE
  5
13EA9
330
747D
100
AcDbEntity
  8
細線
 48
50.0
100
AcDbLine
 10
9156.884877062406
 20
2026.155748320803
 30
0.0
 11
9166.041502142816
 21
2005.155748320804
 31
0.0
  0
LINE
  5
13EAA
330
747D
100
AcDbEntity
  8
細線
 48
50.0
100
AcDbLine
 10
9240.884877062406
 20
2026.155748320803
 30
0.0
 11
9250.041502142817
 21
2005.155748320804
 31
0.0
  0
LINE
  5
13EAB
330
747D
100
AcDbEntity
  8
細線
 48
50.0
100
AcDbLine
 10
9072.884877062406
 20
2026.155748320803
 30
0.0
 11
9082.041502142816
 21
2005.155748320804
 31
0.0
  0
LINE
  5
13EAC
330
747D
100
AcDbEntity
  8
細線
 48
50.0
100
AcDbLine
 10
9317.241502142817
 20
2005.155748320804
 30
0.0
 11
9363.101751660357
 21
2131.155748320804
 31
0.0
  0
LINE
  5
13EAD
330
747D
100
AcDbEntity
  8
細線
 48
50.0
100
AcDbLine
 10
9149.241502142817
 20
2005.155748320804
 30
0.0
 11
9195.101751660358
 21
2131.155748320804
 31
0.0
  0
LINE
  5
13EAE
330
747D
100
AcDbEntity
  8
細線
 48
50.0
100
AcDbLine
 10
9233.241502142817
 20
2005.155748320804
 30
0.0
 11
9279.101751660357
 21
2131.155748320804
 31
0.0
  0
LINE
  5
13EAF
330
747D
100
AcDbEntity
  8
細線
 48
50.0
100
AcDbLine
 10
9401.241502142816
 20
2005.155748320804
 30
0.0
 11
9447.101751660357
 21
2131.155748320804
 31
0.0
  0
LINE
  5
13EB0
330
747D
100
AcDbEntity
  8
細線
 48
50.0
100
AcDbLine
 10
9065.241502142816
 20
2005.155748320804
 30
0.0
 11
9111.101751660356
 21
2131.155748320804
 31
0.0
  0
LINE
  5
13EB1
330
747D
100
AcDbEntity
  8
細線
 48
50.0
100
AcDbLine
 10
9485.241502142818
 20
2005.155748320804
 30
0.0
 11
9531.101751660356
 21
2131.155748320804
 31
0.0
  0
LINE
  5
13EB2
330
747D
100
AcDbEntity
  8
部品1
 48
50.0
100
AcDbLine
 10
9414.741502142812
 20
2355.655748320804
 30
0.0
 11
9534.741502142813
 21
2355.655748320804
 31
0.0
  0
LINE
  5
13EB3
330
747D
100
AcDbEntity
  8
部品1
 48
50.0
100
AcDbLine
 10
9127.116502142813
 20
2316.455748320805
 30
0.0
 11
9822.366502142813
 21
2316.455748320807
 31
0.0
  0
LINE
  5
13EB4
330
747D
100
AcDbEntity
  8
部品1
 48
50.0
100
AcDbLine
 10
9127.116502142813
 20
2299.655748320803
 30
0.0
 11
9822.366502142813
 21
2299.655748320805
 31
0.0
  0
LINE
  5
13EB5
330
747D
100
AcDbEntity
  8
部品1
 48
50.0
100
AcDbLine
 10
9999.741502142814
 20
2206.155748320803
 30
0.0
 11
9999.741502142823
 21
2955.602601503321
 31
0.0
  0
LINE
  5
13EB6
330
747D
100
AcDbEntity
  8
部品1
 48
50.0
100
AcDbLine
 10
8949.741502142815
 20
2955.602601503321
 30
0.0
 11
8949.741502142815
 21
2206.155748320803
 31
0.0
  0
LINE
  5
13EB7
330
747D
100
AcDbEntity
  8
細線
 48
50.0
100
AcDbLine
 10
9999.741502142816
 20
2334.195632138746
 30
0.0
 11
9534.741502142814
 21
2799.195632138737
 31
0.0
  0
LINE
  5
13EB8
330
747D
100
AcDbEntity
  8
細線
 48
50.0
100
AcDbLine
 10
9999.741502142816
 20
2352.014723024637
 30
0.0
 11
9534.741502142814
 21
2817.014723024639
 31
0.0
  0
LINE
  5
13EB9
330
747D
100
AcDbEntity
  8
細線
 48
50.0
100
AcDbLine
 10
9999.741502142816
 20
2369.833813910525
 30
0.0
 11
9534.741502142814
 21
2834.833813910544
 31
0.0
  0
LINE
  5
13EBA
330
747D
100
AcDbEntity
  8
細線
 48
50.0
100
AcDbLine
 10
9688.243810775171
 20
2206.155748320803
 30
0.0
 11
9594.743810775172
 21
2299.655748320804
 31
0.0
  0
LINE
  5
13EBB
330
747D
100
AcDbEntity
  8
細線
 48
50.0
100
AcDbLine
 10
9925.831689253875
 20
2206.155748320803
 30
0.0
 11
9822.366502142815
 21
2309.620935431861
 31
0.0
  0
LINE
  5
13EBC
330
747D
100
AcDbEntity
  8
細線
 48
50.0
100
AcDbLine
 10
9908.012598367978
 20
2206.155748320803
 30
0.0
 11
9814.51259836797
 21
2299.655748320805
 31
0.0
  0
LINE
  5
13EBD
330
747D
100
AcDbEntity
  8
細線
 48
50.0
100
AcDbLine
 10
9890.193507482067
 20
2206.155748320803
 30
0.0
 11
9796.693507482066
 21
2299.655748320805
 31
0.0
  0
LINE
  5
13EBE
330
747D
100
AcDbEntity
  8
細線
 48
50.0
100
AcDbLine
 10
9670.424719889284
 20
2206.155748320803
 30
0.0
 11
9576.924719889282
 21
2299.655748320804
 31
0.0
  0
LINE
  5
13EBF
330
747D
100
AcDbEntity
  8
細線
 48
50.0
100
AcDbLine
 10
9652.60562900338
 20
2206.155748320803
 30
0.0
 11
9559.105629003381
 21
2299.655748320804
 31
0.0
  0
LINE
  5
13EC0
330
747D
100
AcDbEntity
  8
細線
 48
50.0
100
AcDbLine
 10
9450.655932296486
 20
2206.155748320803
 30
0.0
 11
9357.155932296491
 21
2299.655748320803
 31
0.0
  0
LINE
  5
13EC1
330
747D
100
AcDbEntity
  8
細線
 48
50.0
100
AcDbLine
 10
9432.836841410615
 20
2206.155748320803
 30
0.0
 11
9339.336841410615
 21
2299.655748320804
 31
0.0
  0
LINE
  5
13EC2
330
747D
100
AcDbEntity
  8
細線
 48
50.0
100
AcDbLine
 10
9415.017750524704
 20
2206.155748320803
 30
0.0
 11
9321.517750524707
 21
2299.655748320803
 31
0.0
  0
DIMENSION
  5
13EC3
330
747D
100
AcDbEntity
  8
寸法
 48
50.0
100
AcDbDimension
  2
*D68
 10
10502.13367361476
 20
2355.655748320804
 30
0.0
 11
10502.13367361476
 21
2693.129174912063
 31
0.0
 70
   160
 71
     5
 42
449.964568810844
  3
INABA_S30G詳細用20
100
AcDbAlignedDimension
 13
10353.92972092473
 23
3030.602601503322
 33
0.0
 14
9514.741502142813
 24
2355.655748320804
 34
0.0
 50
90.0
100
AcDbRotatedDimension
  0
LINE
  5
13EC4
330
747D
100
AcDbEntity
  8
細線
 48
50.0
100
AcDbLine
 10
10075.00621652043
 20
2805.602601503322
 30
0.0
 11
10129.60175166036
 21
2955.602601503321
 31
0.0
  0
LINE
  5
13EC5
330
747D
100
AcDbEntity
  8
部品1
 48
50.0
100
AcDbLine
 10
9999.741502142823
 20
2805.602601503322
 30
0.0
 11
10187.94429003245
 21
2805.602601503322
 31
0.0
  0
LINE
  5
13EC6
330
747D
100
AcDbEntity
  8
部品1
 48
50.0
100
AcDbLine
 10
9534.741502142813
 20
2955.602601503321
 30
0.0
 11
10187.94429003245
 21
2955.602601503321
 31
0.0
  0
LINE
  5
13EC7
330
747D
100
AcDbEntity
  8
部品1
 48
50.0
100
AcDbLine
 10
9576.741502142812
 20
3105.602601503321
 30
0.0
 11
10187.94429003245
 21
3105.602601503321
 31
0.0
  0
LEADER
  5
13EC8
330
747D
100
AcDbEntity
  8
寸法
 48
50.0
100
AcDbLeader
  3
INABA_S30G詳細用20
 73
     0
 74
     0
 40
90.0
 41
234.0000000000001
 76
     2
 10
9474.741502142814
 20
2468.155748320804
 30
0.0
 10
10032.85905882477
 20
2610.919032717891
 30
0.0
1001
ACAD
1000
DSTYLE
1002
{
1070
   341
1005
13B4C
1002
}
  0
MTEXT
  5
13EC9
102
{ACAD_REACTORS
330
13EC8
102
}
330
747D
100
AcDbEntity
  8
寸法
 62
     7
 48
50.0
100
AcDbMText
 10
10057.88043641484
 20
2670.200827322038
 30
0.0
 40
90.0
 41
0.0
 71
     4
 72
     1
  1
\A1;ｶﾝｻﾞｼ
  7
STYLE1
 73
     1
 44
1.0
1001
ACAD
1000
MTEXTBEGIN
1070
    73
1070
     1
1070
    44
1040
1.0
1070
    74
1070
     0
1000
MTEXTEND
  0
LINE
  5
13ECA
330
747D
100
AcDbEntity
  8
文字
 48
50.0
100
AcDbLine
 10
10131.82243022612
 20
3170.943682177906
 30
0.0
 11
9553.325332322154
 21
3170.943682177906
 31
0.0
  0
LINE
  5
13ECB
330
747D
100
AcDbEntity
  8
細線
 48
50.0
100
AcDbLine
 10
10061.3845315028
 20
2955.602601503321
 30
0.0
 11
10187.94429003245
 21
3082.162360032977
 31
0.0
  0
LINE
  5
13ECC
330
747D
100
AcDbEntity
  8
細線
 48
50.0
100
AcDbLine
 10
10079.2036223887
 20
2955.602601503322
 30
0.0
 11
10187.94429003245
 21
3064.343269147074
 31
0.0
  0
LINE
  5
13ECD
330
747D
100
AcDbEntity
  8
細線
 48
50.0
100
AcDbLine
 10
10097.0227132746
 20
2955.602601503321
 30
0.0
 11
10187.94429003245
 21
3046.524178261178
 31
0.0
  0
LINE
  5
13ECE
330
747D
100
AcDbEntity
  8
センター
 48
10.0
100
AcDbLine
 10
9474.741502142814
 20
3371.977919866031
 30
0.0
 11
9474.741502142814
 21
2355.655748320804
 31
0.0
  0
DIMENSION
  5
13ECF
330
747D
100
AcDbEntity
  8
寸法
 48
50.0
100
AcDbDimension
  2
*D69
 10
10659.45010247398
 20
3030.602601503322
 30
0.0
 11
10659.45010247398
 21
3314.466562534001
 31
0.0
 70
   160
 71
     5
 42
50.00000000249879
  3
INABA_S30G詳細用20
100
AcDbAlignedDimension
 13
10211.94429003245
 23
3105.602601503321
 33
0.0
 14
10353.92972092473
 24
3030.602601503322
 34
0.0
 50
90.0
100
AcDbRotatedDimension
  0
TEXT
  5
13ED0
330
747D
100
AcDbEntity
  8
文字
 48
50.0
100
AcDbText
 10
9034.39246179313
 20
3226.516467457734
 30
0.0
 40
72.0
  1
１／１００
 41
0.8
  7
STYLE1
100
AcDbText
  0
TEXT
  5
13ED1
330
747D
100
AcDbEntity
  8
文字
 48
50.0
100
AcDbText
 10
9604.371157315142
 20
3226.516467457734
 30
0.0
 40
72.0
  1
１／１００
 41
0.8
  7
STYLE1
100
AcDbText
  0
LINE
  5
13ED2
330
747D
100
AcDbEntity
  8
部品1
 48
10.0
100
AcDbLine
 10
9534.741502142813
 20
3314.6535532658
 30
0.0
 11
9534.741502142813
 21
2355.655748320804
 31
0.0
  0
LINE
  5
13ED3
330
747D
100
AcDbEntity
  8
部品1
 48
10.0
100
AcDbLine
 10
9414.741502142813
 20
3314.6535532658
 30
0.0
 11
9414.741502142813
 21
2355.655748320804
 31
0.0
  0
LINE
  5
13ED4
330
747D
100
AcDbEntity
  8
文字
 48
50.0
100
AcDbLine
 10
8817.660574059507
 20
3170.943682177906
 30
0.0
 11
8886.311791924644
 21
3152.548643791531
 31
0.0
  0
LINE
  5
13ED5
330
747D
100
AcDbEntity
  8
文字
 48
50.0
100
AcDbLine
 10
8817.660574059507
 20
3170.943682177906
 30
0.0
 11
8886.311791924644
 21
3189.338720564283
 31
0.0
  0
LINE
  5
13ED6
330
747D
100
AcDbEntity
  8
細線
 48
50.0
100
AcDbLine
 10
8790.598963770712
 20
2955.602601503321
 30
0.0
 11
8799.755588851121
 21
2934.602601503322
 31
0.0
  0
LINE
  5
13ED7
330
747D
100
AcDbEntity
  8
細線
 48
50.0
100
AcDbLine
 10
8874.598963770711
 20
2955.602601503321
 30
0.0
 11
8883.755588851121
 21
2934.602601503322
 31
0.0
  0
LINE
  5
13ED8
330
747D
100
AcDbEntity
  8
細線
 48
50.0
100
AcDbLine
 10
8706.598963770712
 20
2955.602601503321
 30
0.0
 11
8715.755588851122
 21
2934.60260150332
 31
0.0
  0
LINE
  5
13ED9
330
747D
100
AcDbEntity
  8
細線
 48
50.0
100
AcDbLine
 10
8676.599211771851
 20
2965.75667416579
 30
0.0
 11
8816.445139109385
 21
3105.602601503321
 31
0.0
  0
LINE
  5
13EDA
330
747D
100
AcDbEntity
  8
細線
 48
50.0
100
AcDbLine
 10
8684.26422999528
 20
2955.602601503322
 30
0.0
 11
8834.264229995278
 21
3105.602601503321
 31
0.0
  0
LINE
  5
13EDB
330
747D
100
AcDbEntity
  8
細線
 48
50.0
100
AcDbLine
 10
8702.083320881184
 20
2955.602601503322
 30
0.0
 11
8852.083320881183
 21
3105.602601503321
 31
0.0
  0
LINE
  5
13EDC
330
747D
100
AcDbEntity
  8
細線
 48
50.0
100
AcDbLine
 10
8844.34685476892
 20
2826.327994483168
 30
0.0
 11
8853.383743014662
 21
2805.602601503322
 31
0.0
  0
LINE
  5
13EDD
330
747D
100
AcDbEntity
  8
細線
 48
50.0
100
AcDbLine
 10
8760.346854768918
 20
2826.327994483168
 30
0.0
 11
8769.383743014662
 21
2805.602601503322
 31
0.0
  0
LINE
  5
13EDE
330
747D
100
AcDbEntity
  8
細線
 48
50.0
100
AcDbLine
 10
8676.599211771849
 20
2827.021339650365
 30
0.0
 11
8723.398963770716
 21
2955.602601503321
 31
0.0
  0
LINE
  5
13EDF
330
747D
100
AcDbEntity
  8
細線
 48
50.0
100
AcDbLine
 10
8836.803428630785
 20
2805.602601503322
 30
0.0
 11
8891.398963770715
 21
2955.602601503321
 31
0.0
  0
LINE
  5
13EE0
330
747D
100
AcDbEntity
  8
細線
 48
50.0
100
AcDbLine
 10
8752.803428630784
 20
2805.602601503322
 30
0.0
 11
8807.398963770713
 21
2955.602601503321
 31
0.0
  0
DIMENSION
  5
13EE1
330
747D
100
AcDbEntity
  8
寸法
 48
50.0
100
AcDbDimension
  2
*D70
 10
8486.468876561604
 20
2805.602601503322
 30
0.0
 11
8486.468876561604
 21
2628.567168432456
 31
0.0
 70
   160
 71
     5
 42
100.000000005
  3
INABA_S30G詳細用20
100
AcDbAlignedDimension
 13
8676.599211771851
 23
2955.602601503322
 33
0.0
 14
8676.599211771851
 24
2805.602601503322
 34
0.0
 50
90.0
100
AcDbRotatedDimension
  0
LINE
  5
13EE2
330
747D
100
AcDbEntity
  8
部品1
 48
50.0
100
AcDbLine
 10
8829.741502142814
 20
2206.155748320803
 30
0.0
 11
8829.741502142814
 21
2005.155748320804
 31
0.0
  0
DIMENSION
  5
13EE3
330
747D
100
AcDbEntity
  8
寸法
 48
50.0
100
AcDbDimension
  2
*D71
 10
8486.468876561604
 20
2955.602601503321
 30
0.0
 11
8486.468876561604
 21
3282.638034574188
 31
0.0
 70
   160
 71
     5
 42
100.000000005
  3
INABA_S30G詳細用20
100
AcDbAlignedDimension
 13
8676.599211771852
 23
3105.602601503321
 33
0.0
 14
8666.357204600068
 24
2955.602601503321
 34
0.0
 50
90.0
100
AcDbRotatedDimension
  0
LINE
  5
13EE4
330
747D
100
AcDbEntity
  8
部品1
 48
50.0
100
AcDbLine
 10
8949.741502142812
 20
2805.602601503322
 30
0.0
 11
8676.599211771851
 21
2805.602601503322
 31
0.0
  0
LINE
  5
13EE5
330
747D
100
AcDbEntity
  8
部品1
 48
50.0
100
AcDbLine
 10
8829.741502142814
 20
2005.155748320804
 30
0.0
 11
10119.74150214281
 21
2005.155748320804
 31
0.0
  0
LINE
  5
13EE6
330
747D
100
AcDbEntity
  8
部品1
 48
50.0
100
AcDbLine
 10
8829.741502142814
 20
2131.155748320804
 30
0.0
 11
10119.74150214281
 21
2131.155748320804
 31
0.0
  0
LINE
  5
13EE7
330
747D
100
AcDbEntity
  8
部品1
 48
50.0
100
AcDbLine
 10
8829.741502142814
 20
2206.155748320803
 30
0.0
 11
10119.74150214281
 21
2206.155748320803
 31
0.0
  0
LINE
  5
13EE8
330
747D
100
AcDbEntity
  8
文字
 48
50.0
100
AcDbLine
 10
8817.660574059507
 20
3170.943682177906
 30
0.0
 11
9396.157671963472
 21
3170.943682177906
 31
0.0
  0
LINE
  5
13EE9
330
747D
100
AcDbEntity
  8
細線
 48
50.0
100
AcDbLine
 10
8985.033017588063
 20
2955.602601503321
 30
0.0
 11
9135.033017588069
 21
3105.602601503321
 31
0.0
  0
LINE
  5
13EEA
330
747D
100
AcDbEntity
  8
部品1
 48
50.0
100
AcDbLine
 10
8676.599211771852
 20
3105.602601503321
 30
0.0
 11
9372.741502142813
 21
3105.60260150332
 31
0.0
  0
LINE
  5
13EEB
330
747D
100
AcDbEntity
  8
部品1
 48
50.0
100
AcDbLine
 10
8676.599211771851
 20
2955.602601503322
 30
0.0
 11
9414.741502142812
 21
2955.602601503321
 31
0.0
  0
LEADER
  5
13EEC
330
747D
100
AcDbEntity
  8
寸法
 48
5.0
100
AcDbLeader
  3
INABA_S30G詳細用20
 71
     0
 73
     0
 75
     1
 40
91.25178566873406
 41
703.4999999999999
 76
     3
 10
9150.741502142819
 20
2324.855748320806
 30
0.0
 10
8810.007386277449
 20
2155.500298526586
 30
0.0
 10
8735.00738627745
 20
2155.500298526586
 30
0.0
  0
MTEXT
  5
13EED
102
{ACAD_REACTORS
330
13EEC
102
}
330
747D
100
AcDbEntity
  8
部品1
 62
     7
 48
5.0
100
AcDbMText
 10
8735.00738627745
 20
2226.370211073026
 30
0.0
 40
90.0
 41
0.0
 71
     6
 72
     1
  1
\A1;4-D10両方向共
  7
STYLE1
 73
     1
 44
1.0
1001
ACAD
1000
MTEXTBEGIN
1070
    73
1070
     1
1070
    44
1040
1.0
1070
    74
1070
     0
1000
MTEXTEND
  0
LINE
  5
13EEE
330
747D
100
AcDbEntity
  8
Ｇ．Ｌ
 48
50.0
100
AcDbLine
 10
10353.92972092473
 20
3030.602601503322
 30
0.0
 11
11137.11462745007
 21
3030.60260150332
 31
0.0
  0
MTEXT
  5
13EEF
330
747D
100
AcDbEntity
  8
寸法
 62
     7
 48
50.0
100
AcDbMText
 10
10800.00781062795
 20
3096.767886241894
 30
0.0
 40
90.0
 41
1.0
 71
     4
 72
     1
  1
▽G.L
  7
STYLE2
 73
     1
 44
1.0
1001
ACAD
1000
MTEXTBEGIN
1070
    73
1070
     1
1070
    44
1040
1.0
1070
    74
1070
     0
1000
MTEXTEND
  0
DIMENSION
  5
13EF0
330
747D
100
AcDbEntity
  8
寸法
 48
50.0
100
AcDbDimension
  2
*D72
 10
9999.741502142816
 20
1753.10567576239
 30
0.0
 11
9474.741502142816
 21
1828.10567576239
 31
0.0
 70
    32
 71
     5
 42
700.000000035
  3
INABA_S30G詳細用20
100
AcDbAlignedDimension
 13
8949.741502142815
 23
2005.155748320804
 33
0.0
 14
9999.741502142816
 24
2005.155748320804
 34
0.0
100
AcDbRotatedDimension
  0
LINE
  5
13EF1
330
747D
100
AcDbEntity
  8
細線
 48
50.0
100
AcDbLine
 10
10073.24150214282
 20
2005.155748320804
 30
0.0
 11
10119.10175166035
 21
2131.155748320803
 31
0.0
  0
LINE
  5
13EF2
330
747D
100
AcDbEntity
  8
細線
 48
50.0
100
AcDbLine
 10
9989.241502142817
 20
2005.155748320804
 30
0.0
 11
10035.10175166036
 21
2131.155748320803
 31
0.0
  0
LINE
  5
13EF3
330
747D
100
AcDbEntity
  8
細線
 48
50.0
100
AcDbLine
 10
9996.884877062406
 20
2026.155748320803
 30
0.0
 11
10006.04150214281
 21
2005.155748320804
 31
0.0
  0
LINE
  5
13EF4
330
747D
100
AcDbEntity
  8
細線
 48
50.0
100
AcDbLine
 10
9912.884877062406
 20
2026.155748320803
 30
0.0
 11
9922.041502142818
 21
2005.155748320804
 31
0.0
  0
LINE
  5
13EF5
330
747D
100
AcDbEntity
  8
細線
 48
50.0
100
AcDbLine
 10
10080.8848770624
 20
2026.155748320803
 30
0.0
 11
10090.04150214281
 21
2005.155748320804
 31
0.0
  0
LINE
  5
13EF6
330
747D
100
AcDbEntity
  8
細線
 48
50.0
100
AcDbLine
 10
9934.301751660354
 20
2131.155748320803
 30
0.0
 11
9943.458376740764
 21
2110.155748320803
 31
0.0
  0
LINE
  5
13EF7
330
747D
100
AcDbEntity
  8
細線
 48
50.0
100
AcDbLine
 10
10102.30175166035
 20
2131.155748320803
 30
0.0
 11
10111.45837674076
 21
2110.155748320803
 31
0.0
  0
LINE
  5
13EF8
330
747D
100
AcDbEntity
  8
細線
 48
50.0
100
AcDbLine
 10
10018.30175166035
 20
2131.155748320803
 30
0.0
 11
10027.45837674076
 21
2110.155748320803
 31
0.0
  0
LINE
  5
13EF9
330
747D
100
AcDbEntity
  8
細線
 48
50.0
100
AcDbLine
 10
9905.241502142818
 20
2005.155748320804
 30
0.0
 11
9951.101751660358
 21
2131.155748320803
 31
0.0
  0
LINE
  5
13EFA
330
747D
100
AcDbEntity
  8
細線
 48
50.0
100
AcDbLine
 10
8897.241502142817
 20
2005.155748320804
 30
0.0
 11
8943.101751660357
 21
2131.155748320804
 31
0.0
  0
LINE
  5
13EFB
330
747D
100
AcDbEntity
  8
細線
 48
50.0
100
AcDbLine
 10
8981.241502142816
 20
2005.155748320804
 30
0.0
 11
9027.101751660358
 21
2131.155748320804
 31
0.0
  0
LINE
  5
13EFC
330
747D
100
AcDbEntity
  8
細線
 48
50.0
100
AcDbLine
 10
8904.884877062405
 20
2026.155748320803
 30
0.0
 11
8914.041502142817
 21
2005.155748320804
 31
0.0
  0
LINE
  5
13EFD
330
747D
100
AcDbEntity
  8
細線
 48
50.0
100
AcDbLine
 10
8988.884877062407
 20
2026.155748320803
 30
0.0
 11
8998.041502142816
 21
2005.155748320804
 31
0.0
  0
LINE
  5
13EFE
330
747D
100
AcDbEntity
  8
細線
 48
50.0
100
AcDbLine
 10
8842.301751660354
 20
2131.155748320804
 30
0.0
 11
8851.458376740763
 21
2110.155748320804
 31
0.0
  0
LINE
  5
13EFF
330
747D
100
AcDbEntity
  8
細線
 48
50.0
100
AcDbLine
 10
9010.301751660355
 20
2131.155748320804
 30
0.0
 11
9019.458376740763
 21
2110.155748320804
 31
0.0
  0
LINE
  5
13F00
330
747D
100
AcDbEntity
  8
細線
 48
50.0
100
AcDbLine
 10
8926.301751660354
 20
2131.155748320804
 30
0.0
 11
8935.458376740765
 21
2110.155748320804
 31
0.0
  0
LINE
  5
13F01
330
747D
100
AcDbEntity
  8
細線
 48
50.0
100
AcDbLine
 10
8829.741502142814
 20
2005.843774743713
 30
0.0
 11
8830.041502142817
 21
2005.155748320804
 31
0.0
  0
LINE
  5
13F02
330
747D
100
AcDbEntity
  8
細線
 48
50.0
100
AcDbLine
 10
8829.741502142814
 20
2050.489125741798
 30
0.0
 11
8859.101751660357
 21
2131.155748320804
 31
0.0
  0
LINE
  5
13F03
330
747D
100
AcDbEntity
  8
細線
 48
50.0
100
AcDbLine
 10
10119.74150214281
 20
2155.359385287392
 30
0.0
 11
10095.53786517622
 21
2131.155748320803
 31
0.0
  0
LINE
  5
13F04
330
747D
100
AcDbEntity
  8
細線
 48
50.0
100
AcDbLine
 10
10119.74150214281
 20
2173.178476173287
 30
0.0
 11
10077.71877429032
 21
2131.155748320803
 31
0.0
  0
LINE
  5
13F05
330
747D
100
AcDbEntity
  8
細線
 48
50.0
100
AcDbLine
 10
10119.74150214281
 20
2190.99756705919
 30
0.0
 11
10059.89968340442
 21
2131.155748320803
 31
0.0
  0
LINE
  5
13F06
330
747D
100
AcDbEntity
  8
細線
 48
50.0
100
AcDbLine
 10
8964.779381896947
 20
2206.155748320803
 30
0.0
 11
8889.779381896946
 21
2131.155748320804
 31
0.0
  0
LINE
  5
13F07
330
747D
100
AcDbEntity
  8
細線
 48
50.0
100
AcDbLine
 10
8946.960291011043
 20
2206.155748320803
 30
0.0
 11
8871.960291011042
 21
2131.155748320804
 31
0.0
  0
LINE
  5
13F08
330
747D
100
AcDbEntity
  8
細線
 48
50.0
100
AcDbLine
 10
8982.598472782841
 20
2206.155748320803
 30
0.0
 11
8907.598472782845
 21
2131.155748320804
 31
0.0
  0
LINE
  5
13F09
330
747D
100
AcDbEntity
  8
細線
 48
50.0
100
AcDbLine
 10
8676.599211771851
 20
2825.749233529757
 30
0.0
 11
8685.383743014664
 21
2805.602601503322
 31
0.0
  0
LINE
  5
13F0A
330
747D
100
AcDbEntity
  8
細線
 48
50.0
100
AcDbLine
 10
9999.741502142825
 20
2823.594558424633
 30
0.0
 11
10007.58653090431
 21
2805.602601503323
 31
0.0
  0
LINE
  5
13F0B
330
747D
100
AcDbEntity
  8
細線
 48
50.0
100
AcDbLine
 10
10082.54964265857
 20
2826.327994483169
 30
0.0
 11
10091.58653090431
 21
2805.602601503323
 31
0.0
  0
LINE
  5
13F0C
330
747D
100
AcDbEntity
  8
細線
 48
50.0
100
AcDbLine
 10
10166.54964265857
 20
2826.327994483169
 30
0.0
 11
10175.58653090431
 21
2805.602601503323
 31
0.0
  0
LINE
  5
13F0D
330
747D
100
AcDbEntity
  8
細線
 48
50.0
100
AcDbLine
 10
10250.54964265857
 20
2826.327994483169
 30
0.0
 11
10259.5865309043
 21
2805.602601503322
 31
0.0
  0
LINE
  5
13F0E
330
747D
100
AcDbEntity
  8
細線
 48
50.0
100
AcDbLine
 10
10334.54964265856
 20
2826.327994483169
 30
0.0
 11
10343.5865309043
 21
2805.602601503322
 31
0.0
  0
LINE
  5
13F0F
330
747D
100
AcDbEntity
  8
細線
 48
50.0
100
AcDbLine
 10
9999.741502142825
 20
2845.009570867926
 30
0.0
 11
9889.148471507432
 21
2955.602601503321
 31
0.0
  0
LINE
  5
13F10
330
747D
100
AcDbEntity
  8
細線
 48
50.0
100
AcDbLine
 10
9999.741502142821
 20
2827.190479982029
 30
0.0
 11
9871.329380621524
 21
2955.602601503321
 31
0.0
  0
LINE
  5
13F11
330
747D
100
AcDbEntity
  8
細線
 48
50.0
100
AcDbLine
 10
9999.741502142823
 20
2809.371389096106
 30
0.0
 11
9853.510289735609
 21
2955.602601503321
 31
0.0
  0
LINE
  5
13F12
330
747D
100
AcDbEntity
  8
細線
 48
50.0
100
AcDbLine
 10
9177.429872046019
 20
2206.155748320803
 30
0.0
 11
8949.741502142815
 21
2433.844118224011
 31
0.0
  0
LINE
  5
13F13
330
747D
100
AcDbEntity
  8
細線
 48
50.0
100
AcDbLine
 10
9195.24896293193
 20
2206.155748320803
 30
0.0
 11
8949.741502142813
 21
2451.663209109913
 31
0.0
  0
LINE
  5
13F14
330
747D
100
AcDbEntity
  8
細線
 48
50.0
100
AcDbLine
 10
9213.068053817799
 20
2206.155748320803
 30
0.0
 11
8949.741502142813
 21
2469.482299995805
 31
0.0
  0
LINE
  5
13F15
330
747D
100
AcDbEntity
  8
細線
 48
50.0
100
AcDbLine
 10
9414.741502142812
 20
2479.658056953166
 30
0.0
 11
8949.741502142813
 21
2944.658056953184
 31
0.0
  0
LINE
  5
13F16
330
747D
100
AcDbEntity
  8
細線
 48
50.0
100
AcDbLine
 10
9414.741502142812
 20
2461.838966067276
 30
0.0
 11
8949.741502142815
 21
2926.838966067274
 31
0.0
  0
LINE
  5
13F17
330
747D
100
AcDbEntity
  8
細線
 48
50.0
100
AcDbLine
 10
9414.741502142812
 20
2444.019875181377
 30
0.0
 11
8949.741502142817
 21
2909.019875181383
 31
0.0
  0
LINE
  5
13F18
330
747D
100
AcDbEntity
  8
細線
 48
50.0
100
AcDbLine
 10
9798.731694978899
 20
2333.255742595776
 30
0.0
 11
9534.741502142813
 21
2597.245935431854
 31
0.0
  0
LINE
  5
13F19
330
747D
100
AcDbEntity
  8
細線
 48
50.0
100
AcDbLine
 10
9790.414026120249
 20
2323.754320568529
 30
0.0
 11
9534.741502142814
 21
2579.426844545956
 31
0.0
  0
LINE
  5
13F1A
330
747D
100
AcDbEntity
  8
細線
 48
50.0
100
AcDbLine
 10
9797.712598367969
 20
2316.455748320806
 30
0.0
 11
9797.640074390542
 21
2316.528272298234
 31
0.0
  0
LINE
  5
13F1B
330
747D
100
AcDbEntity
  8
細線
 48
50.0
100
AcDbLine
 10
9815.531689253866
 20
2316.455748320806
 30
0.0
 11
9807.141496417791
 21
2324.845941156884
 31
0.0
  0
LINE
  5
13F1C
330
747D
100
AcDbEntity
  8
細線
 48
50.0
100
AcDbLine
 10
9779.893507482064
 20
2316.455748320806
 30
0.0
 11
9534.741502142814
 21
2561.607753660054
 31
0.0
  0
LINE
  5
13F1D
330
747D
100
AcDbEntity
  8
細線
 48
50.0
100
AcDbLine
 10
9542.305629003379
 20
2316.455748320805
 30
0.0
 11
9503.105629003384
 21
2355.655748320804
 31
0.0
  0
LINE
  5
13F1E
330
747D
100
AcDbEntity
  8
細線
 48
50.0
100
AcDbLine
 10
9577.94381077517
 20
2316.455748320806
 30
0.0
 11
9534.741502142813
 21
2359.658056953162
 31
0.0
  0
LINE
  5
13F1F
330
747D
100
AcDbEntity
  8
細線
 48
50.0
100
AcDbLine
 10
9560.124719889278
 20
2316.455748320805
 30
0.0
 11
9520.924719889283
 21
2355.655748320804
 31
0.0
  0
LINE
  5
13F20
330
747D
100
AcDbEntity
  8
細線
 48
50.0
100
AcDbLine
 10
9340.355932296493
 20
2316.455748320805
 30
0.0
 11
8949.741502142813
 21
2707.070178474503
 31
0.0
  0
LINE
  5
13F21
330
747D
100
AcDbEntity
  8
細線
 48
50.0
100
AcDbLine
 10
9304.717750524707
 20
2316.455748320805
 30
0.0
 11
8949.741502142815
 21
2671.4319967027
 31
0.0
  0
LINE
  5
13F22
330
747D
100
AcDbEntity
  8
細線
 48
50.0
100
AcDbLine
 10
9322.536841410613
 20
2316.455748320805
 30
0.0
 11
8949.741502142813
 21
2689.251087588595
 31
0.0
  0
LINE
  5
13F23
330
747D
100
AcDbEntity
  8
細線
 48
50.0
100
AcDbLine
 10
9322.536841410618
 20
5597.436281726284
 30
0.0
 11
9260.889988228141
 21
5659.083134908754
 31
0.0
  0
LINE
  5
13F24
330
747D
100
AcDbEntity
  8
細線
 48
50.0
100
AcDbLine
 10
9304.71775052471
 20
5597.436281726283
 30
0.0
 11
8949.741502142821
 21
5952.412530108177
 31
0.0
  0
LINE
  5
13F25
330
747D
100
AcDbEntity
  8
細線
 48
50.0
100
AcDbLine
 10
9340.355932296498
 20
5597.436281726284
 30
0.0
 11
9278.709079114028
 21
5659.083134908758
 31
0.0
  0
LINE
  5
13F26
330
747D
100
AcDbEntity
  8
細線
 48
50.0
100
AcDbLine
 10
9779.89350748207
 20
5597.436281726285
 30
0.0
 11
9633.741502142822
 21
5743.588287065534
 31
0.0
  0
LINE
  5
13F27
330
747D
100
AcDbEntity
  8
細線
 48
50.0
100
AcDbLine
 10
9815.531689253873
 20
5597.436281726285
 30
0.0
 11
9807.141496417797
 21
5605.826474562363
 31
0.0
  0
LINE
  5
13F28
330
747D
100
AcDbEntity
  8
細線
 48
50.0
100
AcDbLine
 10
9797.712598367974
 20
5597.436281726285
 30
0.0
 11
9797.64007439055
 21
5597.508805703712
 31
0.0
  0
LINE
  5
13F29
330
747D
100
AcDbEntity
  8
細線
 48
50.0
100
AcDbLine
 10
9790.414026120254
 20
5604.734853974007
 30
0.0
 11
9633.741502142818
 21
5761.407377951439
 31
0.0
  0
LINE
  5
13F2A
330
747D
100
AcDbEntity
  8
細線
 48
50.0
100
AcDbLine
 10
9798.731694978904
 20
5614.236276001254
 30
0.0
 11
9633.741502142818
 21
5779.226468837333
 31
0.0
  0
LINE
  5
13F2B
330
747D
100
AcDbEntity
  8
細線
 48
50.0
100
AcDbLine
 10
9542.305629003386
 20
5597.436281726285
 30
0.0
 11
9333.741502142819
 21
5806.000408586857
 31
0.0
  0
LINE
  5
13F2C
330
747D
100
AcDbEntity
  8
細線
 48
50.0
100
AcDbLine
 10
9560.124719889284
 20
5597.436281726284
 30
0.0
 11
9333.741502142817
 21
5823.81949947275
 31
0.0
  0
LINE
  5
13F2D
330
747D
100
AcDbEntity
  8
細線
 48
50.0
100
AcDbLine
 10
9577.943810775169
 20
5597.436281726285
 30
0.0
 11
9333.741502142816
 21
5841.638590358644
 31
0.0
  0
LINE
  5
13F2E
330
747D
100
AcDbEntity
  8
細線
 48
50.0
100
AcDbLine
 10
9213.068053817805
 20
5487.136281726282
 30
0.0
 11
8949.741502142819
 21
5750.462833401283
 31
0.0
  0
LINE
  5
13F2F
330
747D
100
AcDbEntity
  8
細線
 48
50.0
100
AcDbLine
 10
9195.248962931936
 20
5487.136281726282
 30
0.0
 11
8949.741502142819
 21
5732.643742515391
 31
0.0
  0
LINE
  5
13F30
330
747D
100
AcDbEntity
  8
細線
 48
50.0
100
AcDbLine
 10
9177.429872046024
 20
5487.136281726282
 30
0.0
 11
8949.741502142821
 21
5714.824651629488
 31
0.0
  0
LINE
  5
13F31
330
747D
100
AcDbEntity
  8
細線
 48
50.0
100
AcDbLine
 10
10334.54964265857
 20
6107.308527888647
 30
0.0
 11
10343.5865309043
 21
6086.5831349088
 31
0.0
  0
LINE
  5
13F32
330
747D
100
AcDbEntity
  8
細線
 48
50.0
100
AcDbLine
 10
10250.54964265857
 20
6107.308527888647
 30
0.0
 11
10259.58653090431
 21
6086.5831349088
 31
0.0
  0
LINE
  5
13F33
330
747D
100
AcDbEntity
  8
細線
 48
50.0
100
AcDbLine
 10
10166.54964265857
 20
6107.308527888647
 30
0.0
 11
10175.58653090432
 21
6086.5831349088
 31
0.0
  0
LINE
  5
13F34
330
747D
100
AcDbEntity
  8
細線
 48
50.0
100
AcDbLine
 10
10082.54964265857
 20
6107.308527888647
 30
0.0
 11
10091.58653090432
 21
6086.5831349088
 31
0.0
  0
LINE
  5
13F35
330
747D
100
AcDbEntity
  8
細線
 48
50.0
100
AcDbLine
 10
9999.74150214283
 20
6104.575091830111
 30
0.0
 11
10007.58653090432
 21
6086.5831349088
 31
0.0
  0
LINE
  5
13F36
330
747D
100
AcDbEntity
  8
細線
 48
50.0
100
AcDbLine
 10
8676.599211771856
 20
6106.729766935234
 30
0.0
 11
8685.383743014668
 21
6086.5831349088
 31
0.0
  0
LINE
  5
13F37
330
747D
100
AcDbEntity
  8
細線
 48
50.0
100
AcDbLine
 10
8982.598472782846
 20
5487.136281726282
 30
0.0
 11
8907.598472782851
 21
5412.136281726282
 31
0.0
  0
LINE
  5
13F38
330
747D
100
AcDbEntity
  8
細線
 48
50.0
100
AcDbLine
 10
8946.960291011048
 20
5487.136281726282
 30
0.0
 11
8871.960291011047
 21
5412.136281726282
 31
0.0
  0
LINE
  5
13F39
330
747D
100
AcDbEntity
  8
細線
 48
50.0
100
AcDbLine
 10
8964.779381896953
 20
5487.136281726282
 30
0.0
 11
8889.779381896952
 21
5412.136281726282
 31
0.0
  0
LINE
  5
13F3A
330
747D
100
AcDbEntity
  8
細線
 48
50.0
100
AcDbLine
 10
10119.74150214282
 20
5471.978100464668
 30
0.0
 11
10059.89968340443
 21
5412.136281726282
 31
0.0
  0
LINE
  5
13F3B
330
747D
100
AcDbEntity
  8
細線
 48
50.0
100
AcDbLine
 10
10119.74150214282
 20
5454.159009578765
 30
0.0
 11
10077.71877429033
 21
5412.136281726282
 31
0.0
  0
LINE
  5
13F3C
330
747D
100
AcDbEntity
  8
細線
 48
50.0
100
AcDbLine
 10
10119.74150214282
 20
5436.339918692869
 30
0.0
 11
10095.53786517623
 21
5412.136281726282
 31
0.0
  0
LINE
  5
13F3D
330
747D
100
AcDbEntity
  8
細線
 48
50.0
100
AcDbLine
 10
8829.74150214282
 20
5331.469659147276
 30
0.0
 11
8859.101751660363
 21
5412.136281726282
 31
0.0
  0
LINE
  5
13F3E
330
747D
100
AcDbEntity
  8
細線
 48
50.0
100
AcDbLine
 10
8829.741502142821
 20
5286.824308149191
 30
0.0
 11
8830.041502142822
 21
5286.136281726282
 31
0.0
  0
LINE
  5
13F3F
330
747D
100
AcDbEntity
  8
細線
 48
50.0
100
AcDbLine
 10
8926.301751660359
 20
5412.136281726282
 30
0.0
 11
8935.458376740768
 21
5391.136281726282
 31
0.0
  0
LINE
  5
13F40
330
747D
100
AcDbEntity
  8
細線
 48
50.0
100
AcDbLine
 10
9010.30175166036
 20
5412.136281726282
 30
0.0
 11
9019.45837674077
 21
5391.136281726282
 31
0.0
  0
LINE
  5
13F41
330
747D
100
AcDbEntity
  8
細線
 48
50.0
100
AcDbLine
 10
8842.301751660359
 20
5412.136281726282
 30
0.0
 11
8851.458376740771
 21
5391.136281726282
 31
0.0
  0
LINE
  5
13F42
330
747D
100
AcDbEntity
  8
細線
 48
50.0
100
AcDbLine
 10
8988.884877062412
 20
5307.136281726282
 30
0.0
 11
8998.041502142822
 21
5286.136281726282
 31
0.0
  0
LINE
  5
13F43
330
747D
100
AcDbEntity
  8
細線
 48
50.0
100
AcDbLine
 10
8904.884877062412
 20
5307.136281726282
 30
0.0
 11
8914.04150214282
 21
5286.136281726282
 31
0.0
  0
LINE
  5
13F44
330
747D
100
AcDbEntity
  8
細線
 48
50.0
100
AcDbLine
 10
8981.241502142822
 20
5286.136281726282
 30
0.0
 11
9027.101751660362
 21
5412.136281726282
 31
0.0
  0
LINE
  5
13F45
330
747D
100
AcDbEntity
  8
細線
 48
50.0
100
AcDbLine
 10
8897.241502142822
 20
5286.136281726282
 30
0.0
 11
8943.101751660362
 21
5412.136281726282
 31
0.0
  0
LINE
  5
13F46
330
747D
100
AcDbEntity
  8
細線
 48
50.0
100
AcDbLine
 10
9905.241502142823
 20
5286.136281726282
 30
0.0
 11
9951.101751660363
 21
5412.136281726282
 31
0.0
  0
LINE
  5
13F47
330
747D
100
AcDbEntity
  8
細線
 48
50.0
100
AcDbLine
 10
10018.30175166036
 20
5412.136281726282
 30
0.0
 11
10027.45837674077
 21
5391.136281726282
 31
0.0
  0
LINE
  5
13F48
330
747D
100
AcDbEntity
  8
細線
 48
50.0
100
AcDbLine
 10
10102.30175166036
 20
5412.136281726282
 30
0.0
 11
10111.45837674077
 21
5391.136281726282
 31
0.0
  0
LINE
  5
13F49
330
747D
100
AcDbEntity
  8
細線
 48
50.0
100
AcDbLine
 10
9934.30175166036
 20
5412.136281726282
 30
0.0
 11
9943.458376740771
 21
5391.136281726282
 31
0.0
  0
LINE
  5
13F4A
330
747D
100
AcDbEntity
  8
細線
 48
50.0
100
AcDbLine
 10
10080.88487706241
 20
5307.136281726282
 30
0.0
 11
10090.04150214282
 21
5286.136281726282
 31
0.0
  0
LINE
  5
13F4B
330
747D
100
AcDbEntity
  8
細線
 48
50.0
100
AcDbLine
 10
9912.884877062412
 20
5307.136281726282
 30
0.0
 11
9922.041502142823
 21
5286.136281726282
 31
0.0
  0
LINE
  5
13F4C
330
747D
100
AcDbEntity
  8
細線
 48
50.0
100
AcDbLine
 10
9996.884877062413
 20
5307.136281726282
 30
0.0
 11
10006.04150214282
 21
5286.136281726282
 31
0.0
  0
LINE
  5
13F4D
330
747D
100
AcDbEntity
  8
細線
 48
50.0
100
AcDbLine
 10
9989.241502142823
 20
5286.136281726282
 30
0.0
 11
10035.10175166036
 21
5412.136281726282
 31
0.0
  0
LINE
  5
13F4E
330
747D
100
AcDbEntity
  8
細線
 48
50.0
100
AcDbLine
 10
10073.24150214282
 20
5286.136281726282
 30
0.0
 11
10119.10175166036
 21
5412.136281726282
 31
0.0
  0
DIMENSION
  5
13F4F
330
747D
100
AcDbEntity
  8
寸法
 48
50.0
100
AcDbDimension
  2
*D73
 10
9999.741502142821
 20
4866.188069236653
 30
0.0
 11
9474.741502142821
 21
4941.188069236652
 31
0.0
 70
    32
 71
     5
 42
700.000000035
  3
INABA_S30G詳細用20
100
AcDbAlignedDimension
 13
8949.741502142821
 23
5286.136281726282
 33
0.0
 14
9999.741502142821
 24
5286.136281726282
 34
0.0
100
AcDbRotatedDimension
  0
MTEXT
  5
13F50
330
747D
100
AcDbEntity
  8
寸法
 62
     7
 48
50.0
100
AcDbMText
 10
10800.00781062796
 20
6377.748419647373
 30
0.0
 40
90.0
 41
1.0
 71
     4
 72
     1
  1
▽G.L
  7
STYLE2
 73
     1
 44
1.0
1001
ACAD
1000
MTEXTBEGIN
1070
    73
1070
     1
1070
    44
1040
1.0
1070
    74
1070
     0
1000
MTEXTEND
  0
LINE
  5
13F51
330
747D
100
AcDbEntity
  8
Ｇ．Ｌ
 48
50.0
100
AcDbLine
 10
10353.92972092474
 20
6311.583134908801
 30
0.0
 11
11137.11462745007
 21
6311.583134908798
 31
0.0
  0
MTEXT
  5
13F52
102
{ACAD_REACTORS
330
13F53
102
}
330
747D
100
AcDbEntity
  8
部品1
 62
     7
 48
5.0
100
AcDbMText
 10
8735.007386277455
 20
5507.350744478504
 30
0.0
 40
90.0
 41
0.0
 71
     6
 72
     1
  1
\A1;4-D10両方向共
  7
STYLE1
 73
     1
 44
1.0
1001
ACAD
1000
MTEXTBEGIN
1070
    73
1070
     1
1070
    44
1040
1.0
1070
    74
1070
     0
1000
MTEXTEND
  0
LEADER
  5
13F53
330
747D
100
AcDbEntity
  8
寸法
 48
5.0
100
AcDbLeader
  3
INABA_S30G詳細用20
 71
     0
 73
     0
 75
     1
 40
91.25178566873406
 41
703.4999999999999
 76
     3
 10
9150.741502142826
 20
5605.836281726284
 30
0.0
 10
8810.007386277455
 20
5436.480831932064
 30
0.0
 10
8735.007386277455
 20
5436.480831932064
 30
0.0
  0
LINE
  5
13F54
330
747D
100
AcDbEntity
  8
部品1
 48
50.0
100
AcDbLine
 10
8676.599211771856
 20
6236.583134908801
 30
0.0
 11
8949.741502142821
 21
6236.5831349088
 31
0.0
  0
LINE
  5
13F55
330
747D
100
AcDbEntity
  8
部品1
 48
50.0
100
AcDbLine
 10
8676.599211771858
 20
6386.583134908798
 30
0.0
 11
9372.741502142819
 21
6386.583134908798
 31
0.0
  0
LINE
  5
13F56
330
747D
100
AcDbEntity
  8
細線
 48
50.0
100
AcDbLine
 10
8949.741502142822
 20
6201.291619463556
 30
0.0
 11
9135.033017588076
 21
6386.583134908798
 31
0.0
  0
LINE
  5
13F57
330
747D
100
AcDbEntity
  8
文字
 48
50.0
100
AcDbLine
 10
8817.660574059514
 20
6451.924215583384
 30
0.0
 11
9396.157671963477
 21
6451.924215583384
 31
0.0
  0
LINE
  5
13F58
330
747D
100
AcDbEntity
  8
部品1
 48
50.0
100
AcDbLine
 10
8829.74150214282
 20
5487.136281726282
 30
0.0
 11
10119.74150214282
 21
5487.136281726282
 31
0.0
  0
LINE
  5
13F59
330
747D
100
AcDbEntity
  8
部品1
 48
50.0
100
AcDbLine
 10
8829.741502142821
 20
5412.136281726282
 30
0.0
 11
10119.74150214282
 21
5412.136281726282
 31
0.0
  0
LINE
  5
13F5A
330
747D
100
AcDbEntity
  8
部品1
 48
50.0
100
AcDbLine
 10
8829.741502142821
 20
5286.136281726282
 30
0.0
 11
10119.74150214282
 21
5286.136281726282
 31
0.0
  0
LINE
  5
13F5B
330
747D
100
AcDbEntity
  8
部品1
 48
50.0
100
AcDbLine
 10
8949.741502142821
 20
6086.583134908799
 30
0.0
 11
8676.599211771856
 21
6086.5831349088
 31
0.0
  0
DIMENSION
  5
13F5C
330
747D
100
AcDbEntity
  8
寸法
 48
50.0
100
AcDbDimension
  2
*D74
 10
8198.230666064384
 20
6236.583134908798
 30
0.0
 11
8198.230666064382
 21
6589.884162411124
 31
0.0
 70
   160
 71
     5
 42
100.000000005
  3
INABA_S30G詳細用20
100
AcDbAlignedDimension
 13
8676.599211771858
 23
6386.583134908798
 33
0.0
 14
8666.357204600073
 24
6236.583134908798
 34
0.0
 50
90.0
100
AcDbRotatedDimension
  0
LINE
  5
13F5D
330
747D
100
AcDbEntity
  8
部品1
 48
50.0
100
AcDbLine
 10
8829.74150214282
 20
5487.136281726282
 30
0.0
 11
8829.741502142821
 21
5286.136281726282
 31
0.0
  0
DIMENSION
  5
13F5E
330
747D
100
AcDbEntity
  8
寸法
 48
50.0
100
AcDbDimension
  2
*D75
 10
8198.230666064384
 20
6086.5831349088
 30
0.0
 11
8198.230666064382
 21
5909.547701837933
 31
0.0
 70
   160
 71
     5
 42
100.000000005
  3
INABA_S30G詳細用20
100
AcDbAlignedDimension
 13
8676.599211771856
 23
6236.583134908801
 33
0.0
 14
8676.599211771856
 24
6086.5831349088
 34
0.0
 50
90.0
100
AcDbRotatedDimension
  0
LINE
  5
13F5F
330
747D
100
AcDbEntity
  8
細線
 48
50.0
100
AcDbLine
 10
8752.803428630789
 20
6086.5831349088
 30
0.0
 11
8807.398963770721
 21
6236.583134908798
 31
0.0
  0
LINE
  5
13F60
330
747D
100
AcDbEntity
  8
細線
 48
50.0
100
AcDbLine
 10
8836.803428630791
 20
6086.5831349088
 30
0.0
 11
8891.39896377072
 21
6236.583134908798
 31
0.0
  0
LINE
  5
13F61
330
747D
100
AcDbEntity
  8
細線
 48
50.0
100
AcDbLine
 10
8676.599211771854
 20
6108.001873055842
 30
0.0
 11
8723.398963770719
 21
6236.583134908798
 31
0.0
  0
LINE
  5
13F62
330
747D
100
AcDbEntity
  8
細線
 48
50.0
100
AcDbLine
 10
8760.346854768924
 20
6107.308527888647
 30
0.0
 11
8769.383743014669
 21
6086.5831349088
 31
0.0
  0
LINE
  5
13F63
330
747D
100
AcDbEntity
  8
細線
 48
50.0
100
AcDbLine
 10
8844.346854768925
 20
6107.308527888647
 30
0.0
 11
8853.383743014667
 21
6086.5831349088
 31
0.0
  0
LINE
  5
13F64
330
747D
100
AcDbEntity
  8
細線
 48
50.0
100
AcDbLine
 10
8702.08332088119
 20
6236.583134908801
 30
0.0
 11
8852.083320881188
 21
6386.583134908798
 31
0.0
  0
LINE
  5
13F65
330
747D
100
AcDbEntity
  8
細線
 48
50.0
100
AcDbLine
 10
8684.264229995285
 20
6236.583134908801
 30
0.0
 11
8834.264229995284
 21
6386.583134908798
 31
0.0
  0
LINE
  5
13F66
330
747D
100
AcDbEntity
  8
細線
 48
50.0
100
AcDbLine
 10
8676.599211771856
 20
6246.737207571268
 30
0.0
 11
8816.44513910939
 21
6386.583134908798
 31
0.0
  0
LINE
  5
13F67
330
747D
100
AcDbEntity
  8
細線
 48
50.0
100
AcDbLine
 10
8706.598963770717
 20
6236.583134908798
 30
0.0
 11
8715.755588851127
 21
6215.583134908798
 31
0.0
  0
LINE
  5
13F68
330
747D
100
AcDbEntity
  8
細線
 48
50.0
100
AcDbLine
 10
8874.598963770717
 20
6236.583134908798
 30
0.0
 11
8883.755588851128
 21
6215.583134908801
 31
0.0
  0
LINE
  5
13F69
330
747D
100
AcDbEntity
  8
細線
 48
50.0
100
AcDbLine
 10
8790.598963770717
 20
6236.583134908798
 30
0.0
 11
8799.755588851127
 21
6215.583134908801
 31
0.0
  0
LINE
  5
13F6A
330
747D
100
AcDbEntity
  8
文字
 48
50.0
100
AcDbLine
 10
8817.660574059514
 20
6451.924215583384
 30
0.0
 11
8886.311791924649
 21
6470.319253969761
 31
0.0
  0
LINE
  5
13F6B
330
747D
100
AcDbEntity
  8
文字
 48
50.0
100
AcDbLine
 10
8817.660574059514
 20
6451.924215583384
 30
0.0
 11
8886.311791924649
 21
6433.529177197009
 31
0.0
  0
LINE
  5
13F6C
330
747D
100
AcDbEntity
  8
部品1
 48
10.0
100
AcDbLine
 10
9414.741502142819
 20
6595.634086671278
 30
0.0
 11
9414.741502142819
 21
6149.583134908798
 31
0.0
  0
LINE
  5
13F6D
330
747D
100
AcDbEntity
  8
部品1
 48
10.0
100
AcDbLine
 10
9534.74150214282
 20
6595.634086671278
 30
0.0
 11
9534.74150214282
 21
6149.583134908798
 31
0.0
  0
TEXT
  5
13F6E
330
747D
100
AcDbEntity
  8
文字
 48
50.0
100
AcDbText
 10
9604.371157315148
 20
6507.497000863212
 30
0.0
 40
72.0
  1
１／１００
 41
0.8
  7
STYLE1
100
AcDbText
  0
TEXT
  5
13F6F
330
747D
100
AcDbEntity
  8
文字
 48
50.0
100
AcDbText
 10
9034.392461793135
 20
6507.497000863212
 30
0.0
 40
72.0
  1
１／１００
 41
0.8
  7
STYLE1
100
AcDbText
  0
DIMENSION
  5
13F70
330
747D
100
AcDbEntity
  8
寸法
 48
50.0
100
AcDbDimension
  2
*D76
 10
10659.45010247398
 20
6311.583134908801
 30
0.0
 11
10659.45010247398
 21
6595.44709593948
 31
0.0
 70
   160
 71
     5
 42
50.00000000249817
  3
INABA_S30G詳細用20
100
AcDbAlignedDimension
 13
10211.94429003246
 23
6386.583134908798
 33
0.0
 14
10353.92972092474
 24
6311.583134908801
 34
0.0
 50
90.0
100
AcDbRotatedDimension
  0
LINE
  5
13F71
330
747D
100
AcDbEntity
  8
センター
 48
10.0
100
AcDbLine
 10
9474.741502142817
 20
6652.958453271509
 30
0.0
 11
9474.741502142817
 21
6042.281503553829
 31
0.0
  0
LINE
  5
13F72
330
747D
100
AcDbEntity
  8
細線
 48
50.0
100
AcDbLine
 10
9947.022713274606
 20
6086.5831349088
 30
0.0
 11
9999.741502142827
 21
6139.30192377702
 31
0.0
  0
LINE
  5
13F73
330
747D
100
AcDbEntity
  8
細線
 48
50.0
100
AcDbLine
 10
9929.203622388707
 20
6086.583134908801
 30
0.0
 11
9999.741502142827
 21
6157.12101466292
 31
0.0
  0
LINE
  5
13F74
330
747D
100
AcDbEntity
  8
細線
 48
50.0
100
AcDbLine
 10
9911.384531502811
 20
6086.583134908801
 30
0.0
 11
9999.741502142828
 21
6174.94010554882
 31
0.0
  0
LINE
  5
13F75
330
747D
100
AcDbEntity
  8
文字
 48
50.0
100
AcDbLine
 10
10131.82243022612
 20
6451.924215583384
 30
0.0
 11
9553.32533232216
 21
6451.924215583384
 31
0.0
  0
LINE
  5
13F76
330
747D
100
AcDbEntity
  8
部品1
 48
50.0
100
AcDbLine
 10
9576.741502142818
 20
6386.583134908798
 30
0.0
 11
10187.94429003246
 21
6386.583134908798
 31
0.0
  0
LINE
  5
13F77
330
747D
100
AcDbEntity
  8
部品1
 48
50.0
100
AcDbLine
 10
9999.74150214283
 20
6236.583134908798
 30
0.0
 11
10187.94429003246
 21
6236.583134908798
 31
0.0
  0
LINE
  5
13F78
330
747D
100
AcDbEntity
  8
部品1
 48
50.0
100
AcDbLine
 10
8949.741502142821
 20
6086.583134908798
 30
0.0
 11
9315.741502142818
 21
6086.583134908799
 31
0.0
  0
LINE
  5
13F79
330
747D
100
AcDbEntity
  8
細線
 48
50.0
100
AcDbLine
 10
10075.00621652043
 20
6086.5831349088
 30
0.0
 11
10129.60175166036
 21
6236.583134908798
 31
0.0
  0
DIMENSION
  5
13F7A
330
747D
100
AcDbEntity
  8
寸法
 48
50.0
100
AcDbDimension
  2
*D77
 10
10659.45010247399
 20
6086.5831349088
 30
0.0
 11
10659.45010247398
 21
6199.0831349088
 31
0.0
 70
   160
 71
     5
 42
150.0000000075
  3
INABA_S30G詳細用20
100
AcDbAlignedDimension
 13
10353.92972092474
 23
6311.583134908801
 33
0.0
 14
10394.43806056728
 24
6086.5831349088
 34
0.0
 50
90.0
100
AcDbRotatedDimension
  0
LINE
  5
13F7B
330
747D
100
AcDbEntity
  8
細線
 48
50.0
100
AcDbLine
 10
9415.017750524709
 20
5487.136281726282
 30
0.0
 11
9321.517750524712
 21
5580.636281726281
 31
0.0
  0
LINE
  5
13F7C
330
747D
100
AcDbEntity
  8
細線
 48
50.0
100
AcDbLine
 10
9432.836841410621
 20
5487.136281726282
 30
0.0
 11
9339.33684141062
 21
5580.636281726281
 31
0.0
  0
LINE
  5
13F7D
330
747D
100
AcDbEntity
  8
細線
 48
50.0
100
AcDbLine
 10
9450.655932296491
 20
5487.136281726282
 30
0.0
 11
9357.155932296498
 21
5580.636281726281
 31
0.0
  0
LINE
  5
13F7E
330
747D
100
AcDbEntity
  8
細線
 48
50.0
100
AcDbLine
 10
9652.605629003385
 20
5487.136281726282
 30
0.0
 11
9559.105629003386
 21
5580.636281726282
 31
0.0
  0
LINE
  5
13F7F
330
747D
100
AcDbEntity
  8
細線
 48
50.0
100
AcDbLine
 10
9670.42471988929
 20
5487.136281726282
 30
0.0
 11
9576.924719889289
 21
5580.636281726282
 31
0.0
  0
LINE
  5
13F80
330
747D
100
AcDbEntity
  8
細線
 48
50.0
100
AcDbLine
 10
9890.193507482074
 20
5487.136281726282
 30
0.0
 11
9796.693507482071
 21
5580.636281726284
 31
0.0
  0
LINE
  5
13F81
330
747D
100
AcDbEntity
  8
細線
 48
50.0
100
AcDbLine
 10
9908.012598367983
 20
5487.136281726282
 30
0.0
 11
9814.512598367976
 21
5580.636281726284
 31
0.0
  0
LINE
  5
13F82
330
747D
100
AcDbEntity
  8
細線
 48
50.0
100
AcDbLine
 10
9925.831689253881
 20
5487.136281726282
 30
0.0
 11
9822.36650214282
 21
5590.601468837339
 31
0.0
  0
LINE
  5
13F83
330
747D
100
AcDbEntity
  8
細線
 48
50.0
100
AcDbLine
 10
9688.243810775176
 20
5487.136281726282
 30
0.0
 11
9594.743810775176
 21
5580.636281726282
 31
0.0
  0
LINE
  5
13F84
330
747D
100
AcDbEntity
  8
細線
 48
50.0
100
AcDbLine
 10
9999.741502142821
 20
5650.814347316003
 30
0.0
 11
9633.741502142818
 21
6016.814347316019
 31
0.0
  0
LINE
  5
13F85
330
747D
100
AcDbEntity
  8
細線
 48
50.0
100
AcDbLine
 10
9999.741502142821
 20
5632.995256430115
 30
0.0
 11
9633.741502142818
 21
5998.995256430116
 31
0.0
  0
LINE
  5
13F86
330
747D
100
AcDbEntity
  8
細線
 48
50.0
100
AcDbLine
 10
9999.741502142821
 20
5615.176165544224
 30
0.0
 11
9633.741502142818
 21
5981.176165544218
 31
0.0
  0
LINE
  5
13F87
330
747D
100
AcDbEntity
  8
部品1
 48
50.0
100
AcDbLine
 10
8949.741502142821
 20
6236.5831349088
 30
0.0
 11
8949.741502142821
 21
5487.136281726282
 31
0.0
  0
LINE
  5
13F88
330
747D
100
AcDbEntity
  8
部品1
 48
50.0
100
AcDbLine
 10
9999.741502142819
 20
5487.136281726282
 30
0.0
 11
9999.741502142828
 21
6236.583134908798
 31
0.0
  0
LINE
  5
13F89
330
747D
100
AcDbEntity
  8
部品1
 48
50.0
100
AcDbLine
 10
9127.116502142818
 20
5580.636281726281
 30
0.0
 11
9822.36650214282
 21
5580.636281726284
 31
0.0
  0
LINE
  5
13F8A
330
747D
100
AcDbEntity
  8
部品1
 48
50.0
100
AcDbLine
 10
9127.116502142818
 20
5597.436281726283
 30
0.0
 11
9822.36650214282
 21
5597.436281726285
 31
0.0
  0
LINE
  5
13F8B
330
747D
100
AcDbEntity
  8
細線
 48
50.0
100
AcDbLine
 10
9485.241502142823
 20
5286.136281726282
 30
0.0
 11
9531.101751660363
 21
5412.136281726282
 31
0.0
  0
LINE
  5
13F8C
330
747D
100
AcDbEntity
  8
細線
 48
50.0
100
AcDbLine
 10
9065.241502142823
 20
5286.136281726282
 30
0.0
 11
9111.101751660362
 21
5412.136281726282
 31
0.0
  0
LINE
  5
13F8D
330
747D
100
AcDbEntity
  8
細線
 48
50.0
100
AcDbLine
 10
9401.241502142822
 20
5286.136281726282
 30
0.0
 11
9447.101751660362
 21
5412.136281726282
 31
0.0
  0
LINE
  5
13F8E
330
747D
100
AcDbEntity
  8
細線
 48
50.0
100
AcDbLine
 10
9233.241502142822
 20
5286.136281726282
 30
0.0
 11
9279.101751660363
 21
5412.136281726282
 31
0.0
  0
LINE
  5
13F8F
330
747D
100
AcDbEntity
  8
細線
 48
50.0
100
AcDbLine
 10
9149.241502142823
 20
5286.136281726282
 30
0.0
 11
9195.101751660363
 21
5412.136281726282
 31
0.0
  0
LINE
  5
13F90
330
747D
100
AcDbEntity
  8
細線
 48
50.0
100
AcDbLine
 10
9317.241502142822
 20
5286.136281726282
 30
0.0
 11
9363.101751660362
 21
5412.136281726282
 31
0.0
  0
LINE
  5
13F91
330
747D
100
AcDbEntity
  8
細線
 48
50.0
100
AcDbLine
 10
9072.884877062412
 20
5307.136281726282
 30
0.0
 11
9082.041502142821
 21
5286.136281726282
 31
0.0
  0
LINE
  5
13F92
330
747D
100
AcDbEntity
  8
細線
 48
50.0
100
AcDbLine
 10
9240.884877062411
 20
5307.136281726282
 30
0.0
 11
9250.041502142822
 21
5286.136281726282
 31
0.0
  0
LINE
  5
13F93
330
747D
100
AcDbEntity
  8
細線
 48
50.0
100
AcDbLine
 10
9156.884877062411
 20
5307.136281726282
 30
0.0
 11
9166.041502142823
 21
5286.136281726282
 31
0.0
  0
LINE
  5
13F94
330
747D
100
AcDbEntity
  8
細線
 48
50.0
100
AcDbLine
 10
9324.884877062412
 20
5307.136281726282
 30
0.0
 11
9334.041502142822
 21
5286.136281726282
 31
0.0
  0
LINE
  5
13F95
330
747D
100
AcDbEntity
  8
細線
 48
50.0
100
AcDbLine
 10
9492.884877062412
 20
5307.136281726282
 30
0.0
 11
9502.041502142821
 21
5286.136281726282
 31
0.0
  0
LINE
  5
13F96
330
747D
100
AcDbEntity
  8
細線
 48
50.0
100
AcDbLine
 10
9408.884877062412
 20
5307.136281726282
 30
0.0
 11
9418.041502142822
 21
5286.136281726282
 31
0.0
  0
LINE
  5
13F97
330
747D
100
AcDbEntity
  8
細線
 48
50.0
100
AcDbLine
 10
9202.367260375631
 20
5487.136281726282
 30
0.0
 11
9127.367260375629
 21
5412.136281726282
 31
0.0
  0
LINE
  5
13F98
330
747D
100
AcDbEntity
  8
細線
 48
50.0
100
AcDbLine
 10
9184.548169489726
 20
5487.136281726282
 30
0.0
 11
9109.548169489725
 21
5412.136281726282
 31
0.0
  0
LINE
  5
13F99
330
747D
100
AcDbEntity
  8
細線
 48
50.0
100
AcDbLine
 10
9094.30175166036
 20
5412.136281726282
 30
0.0
 11
9103.458376740769
 21
5391.136281726282
 31
0.0
  0
LINE
  5
13F9A
330
747D
100
AcDbEntity
  8
細線
 48
50.0
100
AcDbLine
 10
9220.186351261526
 20
5487.136281726282
 30
0.0
 11
9145.186351261529
 21
5412.136281726282
 31
0.0
  0
LINE
  5
13F9B
330
747D
100
AcDbEntity
  8
細線
 48
50.0
100
AcDbLine
 10
9178.301751660359
 20
5412.136281726282
 30
0.0
 11
9187.458376740769
 21
5391.136281726282
 31
0.0
  0
LINE
  5
13F9C
330
747D
100
AcDbEntity
  8
部品1
 48
50.0
100
AcDbLine
 10
9127.116502142818
 20
5580.636281726284
 30
0.0
 11
9127.116502142818
 21
5597.436281726283
 31
0.0
  0
CIRCLE
  5
13F9D
330
747D
100
AcDbEntity
  8
部品1
 48
5.0
100
AcDbCircle
 10
9150.741502142826
 20
5605.836281726284
 30
0.0
 40
8.4
  0
LINE
  5
13F9E
330
747D
100
AcDbEntity
  8
細線
 48
50.0
100
AcDbLine
 10
9457.774229740204
 20
5487.136281726282
 30
0.0
 11
9382.774229740205
 21
5412.136281726282
 31
0.0
  0
LINE
  5
13F9F
330
747D
100
AcDbEntity
  8
細線
 48
50.0
100
AcDbLine
 10
9422.136047968406
 20
5487.136281726282
 30
0.0
 11
9347.136047968403
 21
5412.136281726282
 31
0.0
  0
LINE
  5
13FA0
330
747D
100
AcDbEntity
  8
細線
 48
50.0
100
AcDbLine
 10
9439.955138854307
 20
5487.136281726282
 30
0.0
 11
9364.955138854305
 21
5412.136281726282
 31
0.0
  0
LINE
  5
13FA1
330
747D
100
AcDbEntity
  8
細線
 48
50.0
100
AcDbLine
 10
9346.301751660361
 20
5412.136281726282
 30
0.0
 11
9355.458376740768
 21
5391.136281726282
 31
0.0
  0
LINE
  5
13FA2
330
747D
100
AcDbEntity
  8
細線
 48
50.0
100
AcDbLine
 10
9262.301751660359
 20
5412.136281726282
 30
0.0
 11
9271.458376740769
 21
5391.136281726282
 31
0.0
  0
LINE
  5
13FA3
330
747D
100
AcDbEntity
  8
細線
 48
50.0
100
AcDbLine
 10
9430.30175166036
 20
5412.136281726282
 30
0.0
 11
9439.45837674077
 21
5391.136281726282
 31
0.0
  0
CIRCLE
  5
13FA4
330
747D
100
AcDbEntity
  8
部品1
 48
5.0
100
AcDbCircle
 10
9366.741502142826
 20
5605.836281726284
 30
0.0
 40
8.4
  0
LINE
  5
13FA5
330
747D
100
AcDbEntity
  8
細線
 48
50.0
100
AcDbLine
 10
9821.241502142823
 20
5286.136281726282
 30
0.0
 11
9867.101751660364
 21
5412.136281726282
 31
0.0
  0
LINE
  5
13FA6
330
747D
100
AcDbEntity
  8
細線
 48
50.0
100
AcDbLine
 10
9737.241502142822
 20
5286.136281726282
 30
0.0
 11
9783.101751660362
 21
5412.136281726282
 31
0.0
  0
LINE
  5
13FA7
330
747D
100
AcDbEntity
  8
細線
 48
50.0
100
AcDbLine
 10
9653.241502142822
 20
5286.136281726282
 30
0.0
 11
9699.101751660363
 21
5412.136281726282
 31
0.0
  0
LINE
  5
13FA8
330
747D
100
AcDbEntity
  8
細線
 48
50.0
100
AcDbLine
 10
9569.241502142823
 20
5286.136281726282
 30
0.0
 11
9615.101751660363
 21
5412.136281726282
 31
0.0
  0
LINE
  5
13FA9
330
747D
100
AcDbEntity
  8
細線
 48
50.0
100
AcDbLine
 10
9744.884877062412
 20
5307.136281726282
 30
0.0
 11
9754.041502142822
 21
5286.136281726282
 31
0.0
  0
LINE
  5
13FAA
330
747D
100
AcDbEntity
  8
細線
 48
50.0
100
AcDbLine
 10
9576.884877062411
 20
5307.136281726282
 30
0.0
 11
9586.041502142823
 21
5286.136281726282
 31
0.0
  0
LINE
  5
13FAB
330
747D
100
AcDbEntity
  8
細線
 48
50.0
100
AcDbLine
 10
9660.884877062413
 20
5307.136281726282
 30
0.0
 11
9670.041502142822
 21
5286.136281726282
 31
0.0
  0
LINE
  5
13FAC
330
747D
100
AcDbEntity
  8
細線
 48
50.0
100
AcDbLine
 10
9828.884877062412
 20
5307.136281726282
 30
0.0
 11
9838.041502142822
 21
5286.136281726282
 31
0.0
  0
LINE
  5
13FAD
330
747D
100
AcDbEntity
  8
細線
 48
50.0
100
AcDbLine
 10
9695.362108218885
 20
5487.136281726282
 30
0.0
 11
9620.362108218882
 21
5412.136281726282
 31
0.0
  0
LINE
  5
13FAE
330
747D
100
AcDbEntity
  8
細線
 48
50.0
100
AcDbLine
 10
9677.543017332983
 20
5487.136281726282
 30
0.0
 11
9602.543017332983
 21
5412.136281726282
 31
0.0
  0
LINE
  5
13FAF
330
747D
100
AcDbEntity
  8
細線
 48
50.0
100
AcDbLine
 10
9659.723926447078
 20
5487.136281726282
 30
0.0
 11
9584.723926447079
 21
5412.136281726282
 31
0.0
  0
LINE
  5
13FB0
330
747D
100
AcDbEntity
  8
細線
 48
50.0
100
AcDbLine
 10
9598.301751660359
 20
5412.136281726282
 30
0.0
 11
9607.458376740771
 21
5391.136281726282
 31
0.0
  0
LINE
  5
13FB1
330
747D
100
AcDbEntity
  8
細線
 48
50.0
100
AcDbLine
 10
9514.30175166036
 20
5412.136281726282
 30
0.0
 11
9523.458376740769
 21
5391.136281726282
 31
0.0
  0
LINE
  5
13FB2
330
747D
100
AcDbEntity
  8
細線
 48
50.0
100
AcDbLine
 10
9682.301751660361
 20
5412.136281726282
 30
0.0
 11
9691.458376740769
 21
5391.136281726282
 31
0.0
  0
CIRCLE
  5
13FB3
330
747D
100
AcDbEntity
  8
部品1
 48
5.0
100
AcDbCircle
 10
9582.741502142827
 20
5605.836281726284
 30
0.0
 40
8.4
  0
LINE
  5
13FB4
330
747D
100
AcDbEntity
  8
細線
 48
50.0
100
AcDbLine
 10
9932.949986697558
 20
5487.136281726282
 30
0.0
 11
9857.949986697558
 21
5412.136281726282
 31
0.0
  0
LINE
  5
13FB5
330
747D
100
AcDbEntity
  8
細線
 48
50.0
100
AcDbLine
 10
9915.13089581166
 20
5487.136281726282
 30
0.0
 11
9840.130895811659
 21
5412.136281726282
 31
0.0
  0
LINE
  5
13FB6
330
747D
100
AcDbEntity
  8
細線
 48
50.0
100
AcDbLine
 10
9897.311804925758
 20
5487.136281726282
 30
0.0
 11
9822.311804925755
 21
5412.136281726282
 31
0.0
  0
LINE
  5
13FB7
330
747D
100
AcDbEntity
  8
細線
 48
50.0
100
AcDbLine
 10
9850.30175166036
 20
5412.136281726282
 30
0.0
 11
9859.45837674077
 21
5391.136281726282
 31
0.0
  0
LINE
  5
13FB8
330
747D
100
AcDbEntity
  8
細線
 48
50.0
100
AcDbLine
 10
9766.30175166036
 20
5412.136281726282
 30
0.0
 11
9775.45837674077
 21
5391.136281726282
 31
0.0
  0
LINE
  5
13FB9
330
747D
100
AcDbEntity
  8
部品1
 48
50.0
100
AcDbLine
 10
9822.36650214282
 20
5580.636281726281
 30
0.0
 11
9822.36650214282
 21
5597.436281726285
 31
0.0
  0
CIRCLE
  5
13FBA
330
747D
100
AcDbEntity
  8
部品1
 48
5.0
100
AcDbCircle
 10
9798.741502142826
 20
5605.836281726284
 30
0.0
 40
8.4
  0
LINE
  5
13FBB
330
747D
100
AcDbEntity
  8
細線
 48
50.0
100
AcDbLine
 10
9615.741502142819
 20
5761.588287065536
 30
0.0
 11
9333.741502142817
 21
6043.588287065542
 31
0.0
  0
LINE
  5
13FBC
330
747D
100
AcDbEntity
  8
細線
 48
50.0
100
AcDbLine
 10
9615.741502142821
 20
5779.407377951436
 30
0.0
 11
9333.741502142817
 21
6061.407377951441
 31
0.0
  0
LINE
  5
13FBD
330
747D
100
AcDbEntity
  8
細線
 48
50.0
100
AcDbLine
 10
9615.741502142819
 20
5797.226468837329
 30
0.0
 11
9333.741502142819
 21
6079.226468837343
 31
0.0
  0
LINE
  5
13FBE
330
747D
100
AcDbEntity
  8
細線
 48
50.0
100
AcDbLine
 10
8928.346854768925
 20
6107.308527888647
 30
0.0
 11
8937.38374301466
 21
6086.5831349088
 31
0.0
  0
LINE
  5
13FBF
330
747D
100
AcDbEntity
  8
細線
 48
50.0
100
AcDbLine
 10
8920.80342863079
 20
6086.5831349088
 30
0.0
 11
8949.741502142817
 21
6166.089838445609
 31
0.0
  0
LINE
  5
13FC0
330
747D
100
AcDbEntity
  8
細線
 48
50.0
100
AcDbLine
 10
9072.620896066753
 20
6086.583134908798
 30
0.0
 11
9372.620896066759
 21
6386.583134908798
 31
0.0
  0
LINE
  5
13FC1
330
747D
100
AcDbEntity
  8
細線
 48
50.0
100
AcDbLine
 10
8949.741502142821
 20
6183.472528577645
 30
0.0
 11
9152.852108473974
 21
6386.583134908798
 31
0.0
  0
LINE
  5
13FC2
330
747D
100
AcDbEntity
  8
細線
 48
50.0
100
AcDbLine
 10
8949.741502142822
 20
6165.653437691742
 30
0.0
 11
9170.671199359874
 21
6386.583134908798
 31
0.0
  0
LINE
  5
13FC3
330
747D
100
AcDbEntity
  8
細線
 48
50.0
100
AcDbLine
 10
9108.259077838557
 20
6086.583134908798
 30
0.0
 11
9414.741502142819
 21
6393.065559213059
 31
0.0
  0
LINE
  5
13FC4
330
747D
100
AcDbEntity
  8
細線
 48
50.0
100
AcDbLine
 10
9090.439986952661
 20
6086.583134908798
 30
0.0
 11
9411.439986952652
 21
6407.583134908799
 31
0.0
  0
LINE
  5
13FC5
330
747D
100
AcDbEntity
  8
部品1
 48
50.0
100
AcDbLine
 10
9393.741502142821
 20
6407.583134908799
 30
0.0
 11
9414.741502142819
 21
6407.583134908799
 31
0.0
  0
LINE
  5
13FC6
330
747D
100
AcDbEntity
  8
部品1
 48
50.0
100
AcDbLine
 10
9393.74150214282
 20
6407.583134908799
 30
0.0
 11
9372.741502142819
 21
6386.583134908798
 31
0.0
  0
LINE
  5
13FC7
330
747D
100
AcDbEntity
  8
細線
 48
50.0
100
AcDbLine
 10
9999.741502142827
 20
6110.583134908813
 30
0.0
 11
10045.60175166036
 21
6236.583134908798
 31
0.0
  0
LINE
  5
13FC8
330
747D
100
AcDbEntity
  8
細線
 48
50.0
100
AcDbLine
 10
9999.741502142827
 20
5888.402225794703
 30
0.0
 11
9801.560593028728
 21
6086.583134908798
 31
0.0
  0
LINE
  5
13FC9
330
747D
100
AcDbEntity
  8
細線
 48
50.0
100
AcDbLine
 10
9999.741502142823
 20
5870.583134908805
 30
0.0
 11
9783.741502142824
 21
6086.5831349088
 31
0.0
  0
LINE
  5
13FCA
330
747D
100
AcDbEntity
  8
細線
 48
50.0
100
AcDbLine
 10
9999.741502142827
 20
5852.764044022881
 30
0.0
 11
9765.922411256918
 21
6086.583134908799
 31
0.0
  0
LINE
  5
13FCB
330
747D
100
AcDbEntity
  8
細線
 48
50.0
100
AcDbLine
 10
9570.296653024122
 20
6086.583134908799
 30
0.0
 11
9615.296653024122
 21
6131.583134908798
 31
0.0
  0
LINE
  5
13FCC
330
747D
100
AcDbEntity
  8
細線
 48
50.0
100
AcDbLine
 10
9588.115743910018
 20
6086.5831349088
 30
0.0
 11
9615.741502142821
 21
6114.208893141602
 31
0.0
  0
LINE
  5
13FCD
330
747D
100
AcDbEntity
  8
細線
 48
50.0
100
AcDbLine
 10
9534.74150214282
 20
6288.615862506187
 30
0.0
 11
9632.708774545431
 21
6386.583134908798
 31
0.0
  0
LINE
  5
13FCE
330
747D
100
AcDbEntity
  8
細線
 48
50.0
100
AcDbLine
 10
9534.74150214282
 20
6270.796771620286
 30
0.0
 11
9650.52786543133
 21
6386.583134908798
 31
0.0
  0
LINE
  5
13FCF
330
747D
100
AcDbEntity
  8
細線
 48
50.0
100
AcDbLine
 10
9534.74150214282
 20
6252.977680734386
 30
0.0
 11
9668.346956317231
 21
6386.583134908798
 31
0.0
  0
LINE
  5
13FD0
330
747D
100
AcDbEntity
  8
部品1
 48
50.0
100
AcDbLine
 10
9534.74150214282
 20
6407.583134908799
 30
0.0
 11
9555.741502142819
 21
6407.583134908799
 31
0.0
  0
LINE
  5
13FD1
330
747D
100
AcDbEntity
  8
部品1
 48
50.0
100
AcDbLine
 10
9555.741502142826
 20
6407.583134908799
 30
0.0
 11
9576.741502142819
 21
6386.583134908798
 31
0.0
  0
LINE
  5
13FD2
330
747D
100
AcDbEntity
  8
細線
 48
50.0
100
AcDbLine
 10
9605.934834795917
 20
6086.583134908798
 30
0.0
 11
9615.741502142821
 21
6096.389802255703
 31
0.0
  0
LINE
  5
13FD3
330
747D
100
AcDbEntity
  8
細線
 48
50.0
100
AcDbLine
 10
10028.80175166036
 20
6236.583134908798
 30
0.0
 11
10037.95837674077
 21
6215.583134908798
 31
0.0
  0
DIMENSION
  5
13FD4
330
747D
100
AcDbEntity
  8
寸法
 48
50.0
100
AcDbDimension
  2
*D78
 10
10659.45010247398
 20
5487.13628172628
 30
0.0
 11
10584.45010247398
 21
5786.859708317542
 31
0.0
 70
    32
 71
     5
 42
399.6312354749946
  3
INABA_S30G詳細用20
100
AcDbAlignedDimension
 13
10394.43806056728
 23
6086.5831349088
 33
0.0
 14
10119.74150214282
 24
5487.136281726282
 34
0.0
 50
90.0
100
AcDbRotatedDimension
  0
DIMENSION
  5
13FD5
330
747D
100
AcDbEntity
  8
寸法
 48
50.0
100
AcDbDimension
  2
*D79
 10
10659.45010247398
 20
5412.13628172628
 30
0.0
 11
10659.45010247398
 21
5232.433624245969
 31
0.0
 70
   160
 71
     5
 42
50.0000000025
  3
INABA_S30G詳細用20
100
AcDbAlignedDimension
 13
10119.74150214282
 23
5487.136281726282
 33
0.0
 14
10119.74150214282
 24
5412.136281726282
 34
0.0
 50
90.0
100
AcDbRotatedDimension
  0
LINE
  5
13FD6
330
747D
100
AcDbEntity
  8
部品1
 48
50.0
100
AcDbLine
 10
10119.74150214282
 20
5286.136281726282
 30
0.0
 11
10119.74150214282
 21
5487.136281726282
 31
0.0
  0
LINE
  5
13FD7
330
747D
100
AcDbEntity
  8
細線
 48
50.0
100
AcDbLine
 10
10243.00621652044
 20
6086.5831349088
 30
0.0
 11
10297.60175166036
 21
6236.583134908798
 31
0.0
  0
LINE
  5
13FD8
330
747D
100
AcDbEntity
  8
細線
 48
50.0
100
AcDbLine
 10
10327.00621652043
 20
6086.5831349088
 30
0.0
 11
10381.60175166036
 21
6236.583134908798
 31
0.0
  0
LINE
  5
13FD9
330
747D
100
AcDbEntity
  8
部品1
 48
50.0
100
AcDbLine
 10
10211.94429003246
 20
6407.79762300421
 30
0.0
 11
10211.94429003246
 21
6045.701980712575
 31
0.0
  0
LINE
  5
13FDA
330
747D
100
AcDbEntity
  8
部品1
 48
50.0
100
AcDbLine
 10
10187.94429003246
 20
6407.79762300421
 30
0.0
 11
10187.94429003246
 21
6045.701980712575
 31
0.0
  0
LINE
  5
13FDB
330
747D
100
AcDbEntity
  8
部品1
 48
50.0
100
AcDbLine
 10
10211.94429003246
 20
6086.5831349088
 30
0.0
 11
10394.43806056728
 21
6086.5831349088
 31
0.0
  0
LINE
  5
13FDC
330
747D
100
AcDbEntity
  8
細線
 48
50.0
100
AcDbLine
 10
10159.00621652044
 20
6086.5831349088
 30
0.0
 11
10187.94429003246
 21
6166.089838445609
 31
0.0
  0
LINE
  5
13FDD
330
747D
100
AcDbEntity
  8
細線
 48
50.0
100
AcDbLine
 10
10277.0227132746
 20
6236.583134908798
 30
0.0
 11
10353.92972092474
 21
6313.490142558937
 31
0.0
  0
LINE
  5
13FDE
330
747D
100
AcDbEntity
  8
部品1
 48
50.0
100
AcDbLine
 10
10353.92972092474
 20
6351.383134908798
 30
0.0
 11
10328.72972092474
 21
6376.583134908798
 31
0.0
  0
LINE
  5
13FDF
330
747D
100
AcDbEntity
  8
部品1
 48
50.0
100
AcDbLine
 10
10211.94429003246
 20
6236.583134908798
 30
0.0
 11
10394.43806056729
 21
6236.583134908798
 31
0.0
  0
LINE
  5
13FE0
330
747D
100
AcDbEntity
  8
部品1
 48
50.0
100
AcDbLine
 10
10211.94429003246
 20
6379.583134908799
 30
0.0
 11
10328.72972092474
 21
6376.583134908798
 31
0.0
  0
LINE
  5
13FE1
330
747D
100
AcDbEntity
  8
細線
 48
50.0
100
AcDbLine
 10
10112.80175166036
 20
6236.583134908798
 30
0.0
 11
10121.95837674077
 21
6215.583134908798
 31
0.0
  0
LINE
  5
13FE2
330
747D
100
AcDbEntity
  8
細線
 48
50.0
100
AcDbLine
 10
10211.94429003246
 20
6232.029296512522
 30
0.0
 11
10213.60175166036
 21
6236.583134908798
 31
0.0
  0
LINE
  5
13FE3
330
747D
100
AcDbEntity
  8
細線
 48
50.0
100
AcDbLine
 10
10280.80175166036
 20
6236.583134908798
 30
0.0
 11
10289.95837674077
 21
6215.583134908801
 31
0.0
  0
LINE
  5
13FE4
330
747D
100
AcDbEntity
  8
細線
 48
50.0
100
AcDbLine
 10
10241.3845315028
 20
6236.583134908798
 30
0.0
 11
10353.92972092474
 21
6349.128324330735
 31
0.0
  0
LINE
  5
13FE5
330
747D
100
AcDbEntity
  8
細線
 48
50.0
100
AcDbLine
 10
10259.20362238871
 20
6236.583134908801
 30
0.0
 11
10353.92972092474
 21
6331.309233444832
 31
0.0
  0
LINE
  5
13FE6
330
747D
100
AcDbEntity
  8
文字
 48
50.0
100
AcDbLine
 10
10131.82243022612
 20
6451.924215583384
 30
0.0
 11
10063.17121236099
 21
6470.319253969761
 31
0.0
  0
LINE
  5
13FE7
330
747D
100
AcDbEntity
  8
文字
 48
50.0
100
AcDbLine
 10
10131.82243022612
 20
6451.924215583384
 30
0.0
 11
10063.17121236099
 21
6433.529177197009
 31
0.0
  0
LINE
  5
13FE8
330
747D
100
AcDbEntity
  8
細線
 48
50.0
100
AcDbLine
 10
10364.80175166036
 20
6236.583134908798
 30
0.0
 11
10373.95837674077
 21
6215.583134908798
 31
0.0
  0
LINE
  5
13FE9
330
747D
100
AcDbEntity
  8
部品1
 48
50.0
100
AcDbLine
 10
10353.92972092474
 20
6351.383134908796
 30
0.0
 11
10353.92972092474
 21
6236.583134908798
 31
0.0
  0
TEXT
  5
13FEA
330
747D
100
AcDbEntity
  8
文字
 48
50.0
100
AcDbText
 10
9034.392461793135
 20
6610.087502863182
 30
0.0
 40
72.0
  1
水勾配
 41
0.8
  7
STYLE1
100
AcDbText
  0
TEXT
  5
13FEB
330
747D
100
AcDbEntity
  8
文字
 48
50.0
100
AcDbText
 10
9604.371157315148
 20
6610.087502863182
 30
0.0
 40
72.0
  1
水勾配
 41
0.8
  7
STYLE1
100
AcDbText
  0
LINE
  5
13FEC
330
747D
100
AcDbEntity
  8
部品1
 48
50.0
100
AcDbLine
 10
9287.241502142817
 20
6131.583134908797
 30
0.0
 11
9662.241502142819
 21
6131.583134908797
 31
0.0
  0
LINE
  5
13FED
330
747D
100
AcDbEntity
  8
部品1
 48
50.0
100
AcDbLine
 10
9287.241502142817
 20
6149.583134908798
 30
0.0
 11
9662.241502142819
 21
6149.583134908798
 31
0.0
  0
LINE
  5
13FEE
330
747D
100
AcDbEntity
  8
部品1
 48
50.0
100
AcDbLine
 10
9287.241502142817
 20
6149.583134908798
 30
0.0
 11
9287.241502142817
 21
6131.583134908797
 31
0.0
  0
LINE
  5
13FEF
330
747D
100
AcDbEntity
  8
部品1
 48
50.0
100
AcDbLine
 10
9662.241502142819
 20
6149.583134908798
 30
0.0
 11
9662.241502142819
 21
6131.583134908797
 31
0.0
  0
ARC
  5
13FF0
330
747D
100
AcDbEntity
  8
部品1
 48
50.0
100
AcDbCircle
 10
9474.741502142817
 20
6059.253133002802
 30
0.0
 40
72.33000190599523
100
AcDbArc
 50
22.2006648412468
 51
157.7993351587532
  0
LINE
  5
13FF1
330
747D
100
AcDbEntity
  8
部品1
 48
50.0
100
AcDbLine
 10
9414.741502142819
 20
6247.083134908798
 30
0.0
 11
9534.74150214282
 21
6247.083134908798
 31
0.0
  0
LINE
  5
13FF2
330
747D
100
AcDbEntity
  8
部品1
 48
50.0
100
AcDbLine
 10
9414.741502142819
 20
6247.083134908798
 30
0.0
 11
9333.741502142816
 21
6171.868849194511
 31
0.0
  0
DIMENSION
  5
13FF3
330
747D
100
AcDbEntity
  8
寸法
 48
50.0
100
AcDbDimension
  2
*D80
 10
8564.280010485379
 20
6131.583134908797
 30
0.0
 11
8564.280010485378
 21
5857.047701837933
 31
0.0
 70
   160
 71
     5
 42
30.00000000149879
  3
INABA_S30G詳細用20
100
AcDbAlignedDimension
 13
8676.599211771856
 23
6086.583134908799
 33
0.0
 14
9287.241502142817
 24
6131.583134908797
 34
0.0
 50
90.0
100
AcDbRotatedDimension
  0
DIMENSION
  5
13FF4
330
747D
100
AcDbEntity
  8
寸法
 48
50.0
100
AcDbDimension
  2
*D81
 10
8378.479107092132
 20
6176.083134908798
 30
0.0
 11
8378.479107092131
 21
5929.354788452107
 31
0.0
 70
   160
 71
     5
 42
59.66666666964818
  3
INABA_S30G詳細用20
100
AcDbAlignedDimension
 13
8676.599211771856
 23
6086.5831349088
 33
0.0
 14
9315.741502142817
 24
6176.083134908798
 34
0.0
 50
90.0
100
AcDbRotatedDimension
  0
LINE
  5
13FF5
330
747D
100
AcDbEntity
  8
部品1
 48
50.0
100
AcDbLine
 10
9615.741502142819
 20
6131.583134908797
 30
0.0
 11
9615.741502142819
 21
5677.083134908798
 31
0.0
  0
LINE
  5
13FF6
330
747D
100
AcDbEntity
  8
部品1
 48
50.0
100
AcDbLine
 10
9633.741502142818
 20
6131.583134908797
 30
0.0
 11
9633.741502142818
 21
5677.083134908798
 31
0.0
  0
LINE
  5
13FF7
330
747D
100
AcDbEntity
  8
部品1
 48
50.0
100
AcDbLine
 10
9333.741502142819
 20
6131.583134908797
 30
0.0
 11
9333.741502142819
 21
5677.083134908766
 31
0.0
  0
LINE
  5
13FF8
330
747D
100
AcDbEntity
  8
部品1
 48
50.0
100
AcDbLine
 10
9315.741502142818
 20
6131.583134908797
 30
0.0
 11
9315.741502142818
 21
5677.083134908766
 31
0.0
  0
LINE
  5
14009
330
747D
100
AcDbEntity
  8
部品1
 48
50.0
100
AcDbLine
 10
9690.74150214282
 20
5677.083134908798
 30
0.0
 11
9690.74150214282
 21
5659.083134908797
 31
0.0
  0
LINE
  5
1400A
330
747D
100
AcDbEntity
  8
部品1
 48
50.0
100
AcDbLine
 10
9633.741502142818
 20
5659.083134908797
 30
0.0
 11
9690.74150214282
 21
5659.083134908797
 31
0.0
  0
LINE
  5
1400B
330
747D
100
AcDbEntity
  8
部品1
 48
50.0
100
AcDbLine
 10
9633.741502142822
 20
5677.083134908798
 30
0.0
 11
9690.74150214282
 21
5677.083134908798
 31
0.0
  0
ARC
  5
1400C
330
747D
100
AcDbEntity
  8
部品1
 48
50.0
100
AcDbCircle
 10
9633.741502142818
 20
5677.083134908798
 30
0.0
 40
18.0
100
AcDbArc
 50
180.0
 51
270.0
  0
ARC
  5
1400D
330
747D
100
AcDbEntity
  8
部品1
 48
50.0
100
AcDbCircle
 10
9315.741502142845
 20
5677.083134908766
 30
0.0
 40
18.0
100
AcDbArc
 50
270.0
 51
0.0000000000115087
  0
LINE
  5
1400E
330
747D
100
AcDbEntity
  8
部品1
 48
50.0
100
AcDbLine
 10
9315.741502142842
 20
5677.083134908766
 30
0.0
 11
9258.741502142845
 21
5677.083134908754
 31
0.0
  0
LINE
  5
1400F
330
747D
100
AcDbEntity
  8
部品1
 48
50.0
100
AcDbLine
 10
9315.741502142847
 20
5659.083134908765
 30
0.0
 11
9258.741502142848
 21
5659.083134908754
 31
0.0
  0
LINE
  5
14010
330
747D
100
AcDbEntity
  8
部品1
 48
50.0
100
AcDbLine
 10
9258.741502142845
 20
5677.083134908754
 30
0.0
 11
9258.741502142848
 21
5659.083134908754
 31
0.0
  0
LINE
  5
14011
330
747D
100
AcDbEntity
  8
細線
 48
50.0
100
AcDbLine
 10
9260.709079114032
 20
5677.083134908755
 30
0.0
 11
8949.741502142819
 21
5988.050711879981
 31
0.0
  0
LINE
  5
14012
330
747D
100
AcDbEntity
  8
細線
 48
50.0
100
AcDbLine
 10
9258.741502142848
 20
5661.231620994051
 30
0.0
 11
8949.741502142819
 21
5970.231620994073
 31
0.0
  0
LINE
  5
14013
330
747D
100
AcDbEntity
  8
細線
 48
50.0
100
AcDbLine
 10
9315.741502142818
 20
6079.407377951439
 30
0.0
 11
9308.565745185459
 21
6086.5831349088
 31
0.0
  0
LINE
  5
14014
330
747D
100
AcDbEntity
  8
細線
 48
50.0
100
AcDbLine
 10
9315.741502142818
 20
6061.58828706554
 30
0.0
 11
9290.746654299558
 21
6086.583134908799
 31
0.0
  0
LINE
  5
14015
330
747D
100
AcDbEntity
  8
部品1
 48
50.0
100
AcDbLine
 10
9333.741502142819
 20
6086.583134908799
 30
0.0
 11
9615.741502142821
 21
6086.583134908799
 31
0.0
  0
LINE
  5
14016
330
747D
100
AcDbEntity
  8
部品1
 48
50.0
100
AcDbLine
 10
9633.741502142818
 20
6086.583134908799
 30
0.0
 11
10187.94429003246
 21
6086.5831349088
 31
0.0
  0
LINE
  5
14017
330
747D
100
AcDbEntity
  8
細線
 48
50.0
100
AcDbLine
 10
9315.741502142818
 20
5859.638590358644
 30
0.0
 11
9088.796957592675
 21
6086.5831349088
 31
0.0
  0
LINE
  5
14018
330
747D
100
AcDbEntity
  8
細線
 48
50.0
100
AcDbLine
 10
9315.741502142818
 20
5841.819499472749
 30
0.0
 11
9070.977866706771
 21
6086.5831349088
 31
0.0
  0
LINE
  5
14019
330
747D
100
AcDbEntity
  8
細線
 48
50.0
100
AcDbLine
 10
9315.741502142818
 20
5824.000408586856
 30
0.0
 11
9053.158775820879
 21
6086.5831349088
 31
0.0
  0
LINE
  5
1401A
330
747D
100
AcDbEntity
  8
部品1
 48
50.0
100
AcDbLine
 10
9534.741502142818
 20
6247.083134908798
 30
0.0
 11
9615.741502142821
 21
6171.868849194511
 31
0.0
  0
LINE
  5
1401B
330
747D
100
AcDbEntity
  8
細線
 48
50.0
100
AcDbLine
 10
9662.241502142817
 20
6142.889802255702
 30
0.0
 11
9905.934834795919
 21
6386.583134908798
 31
0.0
  0
LINE
  5
1401C
330
747D
100
AcDbEntity
  8
細線
 48
50.0
100
AcDbLine
 10
9651.115743910017
 20
6149.583134908798
 30
0.0
 11
9888.115743910018
 21
6386.583134908798
 31
0.0
  0
LINE
  5
1401D
330
747D
100
AcDbEntity
  8
細線
 48
50.0
100
AcDbLine
 10
9647.296653024119
 20
6163.583134908795
 30
0.0
 11
9870.296653024118
 21
6386.583134908798
 31
0.0
  0
LINE
  5
1401E
330
747D
100
AcDbEntity
  8
細線
 48
50.0
100
AcDbLine
 10
9615.741502142819
 20
6034.814347316018
 30
0.0
 11
9563.97271455004
 21
6086.583134908799
 31
0.0
  0
LINE
  5
1401F
330
747D
100
AcDbEntity
  8
細線
 48
50.0
100
AcDbLine
 10
9615.741502142821
 20
6016.995256430117
 30
0.0
 11
9546.153623664137
 21
6086.5831349088
 31
0.0
  0
LINE
  5
14020
330
747D
100
AcDbEntity
  8
細線
 48
50.0
100
AcDbLine
 10
9615.741502142821
 20
5999.176165544218
 30
0.0
 11
9528.334532778236
 21
6086.583134908799
 31
0.0
  0
LINE
  5
14021
330
747D
100
AcDbEntity
  8
細線
 48
50.0
100
AcDbLine
 10
10097.0227132746
 20
6236.583134908798
 30
0.0
 11
10187.94429003246
 21
6327.504711666655
 31
0.0
  0
LINE
  5
14022
330
747D
100
AcDbEntity
  8
細線
 48
50.0
100
AcDbLine
 10
10079.2036223887
 20
6236.583134908798
 30
0.0
 11
10187.94429003246
 21
6345.323802552552
 31
0.0
  0
LINE
  5
14023
330
747D
100
AcDbEntity
  8
細線
 48
50.0
100
AcDbLine
 10
10061.3845315028
 20
6236.583134908798
 30
0.0
 11
10187.94429003246
 21
6363.142893438455
 31
0.0
  0
LEADER
  5
14024
330
747D
100
AcDbEntity
  8
寸法
 48
50.0
100
AcDbLeader
  3
INABA_S30G
 73
     0
 74
     0
 75
     1
 40
240.0177165354331
 41
399.7279220613578
 76
     3
 10
9633.741502142811
 20
5815.347719418351
 30
0.0
 10
9953.109779962545
 20
5709.010965142614
 30
0.0
 10
10028.10977996254
 20
5709.010965142614
 30
0.0
340
14025
  0
MTEXT
  5
14025
102
{ACAD_REACTORS
330
14024
102
}
330
747D
100
AcDbEntity
  8
寸法
 62
     7
 48
50.0
100
AcDbMText
 10
10058.10977996254
 20
5859.019823410331
 30
0.0
 40
90.0
 41
0.0
 71
     4
 72
     1
  1
\A1;ｱﾝｶｰﾎﾞﾙﾄ\PM12x315
  7
STYLE1
 73
     1
 44
1.0
1001
ACAD
1000
MTEXTBEGIN
1070
    73
1070
     1
1070
    44
1040
1.0
1070
    74
1070
     0
1000
MTEXTEND
  0
DIMENSION
  5
14026
330
747D
100
AcDbEntity
  8
寸法
 48
50.0
100
AcDbDimension
  2
*D82
 10
9624.741502142818
 20
5031.598783490082
 30
0.0
 11
9812.241502142819
 21
5106.607641757799
 31
0.0
 70
    32
 71
     5
 42
250.0000000125024
  3
INABA_S30G詳細用20
100
AcDbAlignedDimension
 13
9999.741502142821
 23
5286.136281726282
 33
0.0
 14
9624.741502142818
 24
5286.136281726282
 34
0.0
100
AcDbRotatedDimension
  0
DIMENSION
  5
14027
330
747D
100
AcDbEntity
  8
寸法
 48
50.0
100
AcDbDimension
  2
*D83
 10
9324.741502142817
 20
5031.598783490082
 30
0.0
 11
9474.741502142817
 21
5106.607641757799
 31
0.0
 70
    32
 71
     5
 42
200.00000001
  3
INABA_S30G詳細用20
100
AcDbAlignedDimension
 13
9624.741502142818
 23
5286.136281726282
 33
0.0
 14
9324.741502142817
 24
5286.136281726282
 34
0.0
100
AcDbRotatedDimension
  0
DIMENSION
  5
14028
330
747D
100
AcDbEntity
  8
寸法
 48
50.0
100
AcDbDimension
  2
*D84
 10
8949.741502142821
 20
5031.598783490082
 30
0.0
 11
9137.241502142819
 21
5106.607641757799
 31
0.0
 70
    32
 71
     5
 42
250.0000000124976
  3
INABA_S30G詳細用20
100
AcDbAlignedDimension
 13
9324.741502142817
 23
5286.136281726282
 33
0.0
 14
8949.741502142821
 24
5286.136281726282
 34
0.0
100
AcDbRotatedDimension
  0
LINE
  5
142A2
330
747D
100
AcDbEntity
  8
部品1
 48
50.0
100
AcDbLine
 10
9333.741502142817
 20
6176.083134908795
 30
0.0
 11
9315.741502142817
 21
6176.083134908797
 31
0.0
  0
LINE
  5
142A3
330
747D
100
AcDbEntity
  8
部品1
 48
50.0
100
AcDbLine
 10
9300.741502142818
 20
6163.583134908796
 30
0.0
 11
9348.741502142818
 21
6163.583134908796
 31
0.0
  0
LINE
  5
142A4
330
747D
100
AcDbEntity
  8
部品1
 48
50.0
100
AcDbLine
 10
9348.741502142814
 20
6149.583134908795
 30
0.0
 11
9348.741502142814
 21
6163.583134908796
 31
0.0
  0
LINE
  5
142A5
330
747D
100
AcDbEntity
  8
部品1
 48
50.0
100
AcDbLine
 10
9300.741502142818
 20
6149.583134908795
 30
0.0
 11
9300.741502142818
 21
6163.583134908796
 31
0.0
  0
LINE
  5
142A6
330
747D
100
AcDbEntity
  8
部品1
 48
50.0
100
AcDbLine
 10
9336.741502142816
 20
6149.583134908798
 30
0.0
 11
9336.741502142816
 21
6163.583134908796
 31
0.0
  0
LINE
  5
142A7
330
747D
100
AcDbEntity
  8
部品1
 48
50.0
100
AcDbLine
 10
9312.741502142818
 20
6149.583134908798
 30
0.0
 11
9312.741502142818
 21
6163.583134908796
 31
0.0
  0
LINE
  5
142A8
330
747D
100
AcDbEntity
  8
部品1
 48
50.0
100
AcDbLine
 10
9315.741502142817
 20
6163.583134908796
 30
0.0
 11
9315.741502142817
 21
6176.083134908798
 31
0.0
  0
LINE
  5
142A9
330
747D
100
AcDbEntity
  8
部品1
 48
50.0
100
AcDbLine
 10
9333.741502142816
 20
6163.583134908796
 30
0.0
 11
9333.741502142816
 21
6176.083134908798
 31
0.0
  0
LINE
  5
142AA
330
747D
100
AcDbEntity
  8
部品1
 48
50.0
100
AcDbLine
 10
9633.741502142818
 20
6163.583134908793
 30
0.0
 11
9633.741502142818
 21
6176.083134908795
 31
0.0
  0
LINE
  5
142AB
330
747D
100
AcDbEntity
  8
部品1
 48
50.0
100
AcDbLine
 10
9615.741502142819
 20
6163.583134908793
 30
0.0
 11
9615.741502142819
 21
6176.083134908795
 31
0.0
  0
LINE
  5
142AC
330
747D
100
AcDbEntity
  8
部品1
 48
50.0
100
AcDbLine
 10
9612.741502142817
 20
6149.583134908798
 30
0.0
 11
9612.741502142815
 21
6163.583134908796
 31
0.0
  0
LINE
  5
142AD
330
747D
100
AcDbEntity
  8
部品1
 48
50.0
100
AcDbLine
 10
9636.741502142816
 20
6149.583134908798
 30
0.0
 11
9636.741502142818
 21
6163.583134908796
 31
0.0
  0
LINE
  5
142AE
330
747D
100
AcDbEntity
  8
部品1
 48
50.0
100
AcDbLine
 10
9600.741502142817
 20
6149.583134908795
 30
0.0
 11
9600.741502142817
 21
6163.583134908796
 31
0.0
  0
LINE
  5
142AF
330
747D
100
AcDbEntity
  8
部品1
 48
50.0
100
AcDbLine
 10
9648.741502142815
 20
6149.583134908795
 30
0.0
 11
9648.741502142815
 21
6163.583134908796
 31
0.0
  0
LINE
  5
142B0
330
747D
100
AcDbEntity
  8
部品1
 48
50.0
100
AcDbLine
 10
9600.741502142817
 20
6163.583134908796
 30
0.0
 11
9648.741502142819
 21
6163.583134908796
 31
0.0
  0
LINE
  5
142B1
330
747D
100
AcDbEntity
  8
部品1
 48
50.0
100
AcDbLine
 10
9633.741502142818
 20
6176.083134908795
 30
0.0
 11
9615.741502142817
 21
6176.083134908797
 31
0.0
  0
ENDSEC
  0
SECTION
  2
OBJECTS
  0
DICTIONARY
  5
7471
330
0
100
AcDbDictionary
281
     1
  3
ACAD_COLOR
350
13B40
  3
ACAD_GROUP
350
7472
  3
ACAD_LAYOUT
350
13B41
  3
ACAD_MATERIAL
350
13B3F
  3
ACAD_MLINESTYLE
350
7473
  3
ACAD_PLOTSETTINGS
350
13B42
  3
ACAD_PLOTSTYLENAME
350
13B3D
  3
ACDBHEADERROUNDTRIPXREC
350
142C1
  3
AcDbVariableDictionary
350
142BD
  3
CONTENTDICTIONARY
350
E71C
  3
DRAWINGVARIABLESDICT
350
F3B9
  0
DICTIONARY
  5
13B40
102
{ACAD_REACTORS
330
7471
102
}
330
7471
100
AcDbDictionary
281
     1
  0
DICTIONARY
  5
7472
102
{ACAD_REACTORS
330
7471
102
}
330
7471
100
AcDbDictionary
281
     1
  0
DICTIONARY
  5
13B41
102
{ACAD_REACTORS
330
7471
102
}
330
7471
100
AcDbDictionary
281
     1
  3
Model
350
13B43
  3
レイアウト1
350
13B44
  0
DICTIONARY
  5
13B3F
102
{ACAD_REACTORS
330
7471
102
}
330
7471
100
AcDbDictionary
281
     1
  0
DICTIONARY
  5
7473
102
{ACAD_REACTORS
330
7471
102
}
330
7471
100
AcDbDictionary
281
     1
  3
STANDARD
350
7480
  0
DICTIONARY
  5
13B42
102
{ACAD_REACTORS
330
7471
102
}
330
7471
100
AcDbDictionary
281
     1
  0
ACDBDICTIONARYWDFLT
  5
13B3D
102
{ACAD_REACTORS
330
7471
102
}
330
7471
100
AcDbDictionary
281
     1
  3
Normal
350
13B3E
100
AcDbDictionaryWithDefault
340
13B3E
  0
DICTIONARY
  5
142C1
102
{ACAD_REACTORS
330
7471
102
}
330
7471
100
AcDbDictionary
281
     1
  3
COLORDICT
350
142C3
  3
MATERIALDICT
350
142C2
  0
DICTIONARY
  5
142BD
102
{ACAD_REACTORS
330
7471
102
}
330
7471
100
AcDbDictionary
281
     1
  3
DIMASSOC
350
142BE
  3
PROJECTNAME
350
142BF
  0
DICTIONARY
  5
E71C
102
{ACAD_REACTORS
330
7471
102
}
330
7471
100
AcDbDictionary
281
     1
  0
DICTIONARY
  5
F3B9
102
{ACAD_REACTORS
330
7471
102
}
330
7471
100
AcDbDictionary
281
     1
1001
DRAWINGVARIABLESXDATA
1000
POLARMODE
1000
1
  0
LAYOUT
  5
13B43
102
{ACAD_XDICTIONARY
360
142C4
102
}
102
{ACAD_REACTORS
330
13B41
102
}
330
13B41
100
AcDbPlotSettings
  1

  2
Microsoft XPS Document Writer
  4

  6

 40
0.0
 41
0.0
 42
0.0
 43
0.0
 44
0.0
 45
0.0
 46
0.0
 47
0.0
 48
0.0
 49
0.0
140
0.0
141
0.0
142
1.0
143
1.0
 70
  1712
 72
     0
 73
     0
 74
     0
  7

 75
     0
147
1.0
148
0.0
149
0.0
100
AcDbLayout
  1
Model
 70
     1
 71
     0
 10
0.0
 20
0.0
 11
12.0
 21
9.0
 12
0.0
 22
0.0
 32
0.0
 14
0.0
 24
0.0
 34
0.0
 15
0.0
 25
0.0
 35
0.0
146
0.0
 13
0.0
 23
0.0
 33
0.0
 16
1.0
 26
0.0
 36
0.0
 17
0.0
 27
1.0
 37
0.0
 76
     0
330
747D
  0
LAYOUT
  5
13B44
102
{ACAD_XDICTIONARY
360
142C6
102
}
102
{ACAD_REACTORS
330
13B41
102
}
330
13B41
100
AcDbPlotSettings
  1

  2
Microsoft XPS Document Writer
  4

  6

 40
0.0
 41
0.0
 42
0.0
 43
0.0
 44
0.0
 45
0.0
 46
0.0
 47
0.0
 48
0.0
 49
0.0
140
0.0
141
0.0
142
1.0
143
1.0
 70
   688
 72
     0
 73
     0
 74
     5
  7

 75
    16
147
1.0
148
0.0
149
0.0
100
AcDbLayout
  1
レイアウト1
 70
     0
 71
     1
 10
0.0
 20
0.0
 11
420.0
 21
297.0
 12
0.0
 22
0.0
 32
0.0
 14
1.000000000000000E+20
 24
1.000000000000000E+20
 34
1.000000000000000E+20
 15
-1.000000000000000E+20
 25
-1.000000000000000E+20
 35
-1.000000000000000E+20
146
0.0
 13
0.0
 23
0.0
 33
0.0
 16
1.0
 26
0.0
 36
0.0
 17
0.0
 27
1.0
 37
0.0
 76
     0
330
747A
  0
MLINESTYLE
  5
7480
102
{ACAD_REACTORS
330
7473
102
}
330
7473
100
AcDbMlineStyle
  2
STANDARD
 70
     0
  3

 62
     0
 51
90.0
 52
90.0
 71
     2
 49
0.5
 62
   256
  6
BYLAYER
 49
-0.5
 62
   256
  6
BYLAYER
  0
ACDBPLACEHOLDER
  5
13B3E
102
{ACAD_REACTORS
330
13B3D
102
}
330
13B3D
  0
XRECORD
  5
142C3
102
{ACAD_REACTORS
330
142C1
102
}
330
142C1
100
AcDbXrecord
280
     1
340
13B40
  0
XRECORD
  5
142C2
102
{ACAD_REACTORS
330
142C1
102
}
330
142C1
100
AcDbXrecord
280
     1
340
13B3F
  0
DICTIONARYVAR
  5
142BE
102
{ACAD_REACTORS
330
142BD
102
}
330
142BD
100
DictionaryVariables
280
     0
  1
1
  0
DICTIONARYVAR
  5
142BF
102
{ACAD_REACTORS
330
142BD
102
}
330
142BD
100
DictionaryVariables
280
     0
  1

  0
DICTIONARY
  5
142C4
330
13B43
100
AcDbDictionary
280
     1
281
     1
  3
ACAD_XREC_ROUNDTRIP
360
142C5
  0
DICTIONARY
  5
142C6
330
13B44
100
AcDbDictionary
280
     1
281
     1
  3
ACAD_XREC_ROUNDTRIP
360
142C7
  0
XRECORD
  5
142C5
102
{ACAD_REACTORS
330
142C4
102
}
330
142C4
100
AcDbXrecord
280
     1
102
SHADEPLOT
 70
     0
102
SHADEPLOTRESLEVEL
 70
     2
102
SHADEPLOTCUSTOMDPI
 70
   300
  0
XRECORD
  5
142C7
102
{ACAD_REACTORS
330
142C6
102
}
330
142C6
100
AcDbXrecord
280
     1
102
SHADEPLOT
 70
     0
102
SHADEPLOTRESLEVEL
 70
     2
102
SHADEPLOTCUSTOMDPI
 70
   300
  0
ENDSEC
  0
EOF
