  0
SECTION
  2
HEADER
  9
$ACADVER
  1
AC1015
  9
$ACADMAINTVER
 70
    20
  9
$DWGCODEPAGE
  3
ANSI_932
  9
$INSBASE
 10
0.0
 20
0.0
 30
0.0
  9
$EXTMIN
 10
104.3976124660112
 20
-0.1357421316424734
 30
-0.0000000000000153
  9
$EXTMAX
 10
12231.24392539175
 20
8557.445093304719
 30
0.0
  9
$LIMMIN
 10
0.0
 20
0.0
  9
$LIMMAX
 10
12600.0
 20
8910.0
  9
$ORTHOMODE
 70
     0
  9
$REGENMODE
 70
     1
  9
$FILLMODE
 70
     1
  9
$QTEXTMODE
 70
     0
  9
$MIRRTEXT
 70
     1
  9
$LTSCALE
 40
20.0
  9
$ATTMODE
 70
     1
  9
$TEXTSIZE
 40
100.0
  9
$TRACEWID
 40
1.0
  9
$TEXTSTYLE
  7
STYLE3
  9
$CLAYER
  8
寸法
  9
$CELTYPE
  6
BYLAYER
  9
$CECOLOR
 62
   256
  9
$CELTSCALE
 40
50.0
  9
$DISPSILH
 70
     0
  9
$DIMSCALE
 40
30.0
  9
$DIMASZ
 40
2.5
  9
$DIMEXO
 40
0.5
  9
$DIMDLI
 40
7.0
  9
$DIMRND
 40
0.0
  9
$DIMDLE
 40
0.0
  9
$DIMEXE
 40
1.5
  9
$DIMTP
 40
0.0
  9
$DIMTM
 40
0.0
  9
$DIMTXT
 40
3.0
  9
$DIMCEN
 40
0.0
  9
$DIMTSZ
 40
0.0
  9
$DIMTOL
 70
     0
  9
$DIMLIM
 70
     0
  9
$DIMTIH
 70
     0
  9
$DIMTOH
 70
     0
  9
$DIMSE1
 70
     0
  9
$DIMSE2
 70
     0
  9
$DIMTAD
 70
     3
  9
$DIMZIN
 70
     8
  9
$DIMBLK
  1

  9
$DIMASO
 70
     1
  9
$DIMSHO
 70
     1
  9
$DIMPOST
  1

  9
$DIMAPOST
  1

  9
$DIMALT
 70
     0
  9
$DIMALTD
 70
     2
  9
$DIMALTF
 40
0.0394
  9
$DIMLFAC
 40
0.6666666667
  9
$DIMTOFL
 70
     1
  9
$DIMTVP
 40
0.0
  9
$DIMTIX
 70
     1
  9
$DIMSOXD
 70
     0
  9
$DIMSAH
 70
     1
  9
$DIMBLK1
  1
DOTSMALL
  9
$DIMBLK2
  1
DOTSMALL
  9
$DIMSTYLE
  2
INABA_S30G詳細用20
  9
$DIMCLRD
 70
     0
  9
$DIMCLRE
 70
     0
  9
$DIMCLRT
 70
     7
  9
$DIMTFAC
 40
1.0
  9
$DIMGAP
 40
1.0
  9
$DIMJUST
 70
     0
  9
$DIMSD1
 70
     0
  9
$DIMSD2
 70
     0
  9
$DIMTOLJ
 70
     1
  9
$DIMTZIN
 70
     0
  9
$DIMALTZ
 70
     0
  9
$DIMALTTZ
 70
     0
  9
$DIMUPT
 70
     0
  9
$DIMDEC
 70
     0
  9
$DIMTDEC
 70
     0
  9
$DIMALTU
 70
     2
  9
$DIMALTTD
 70
     2
  9
$DIMTXSTY
  7
STYLE1
  9
$DIMAUNIT
 70
     0
  9
$DIMADEC
 70
     0
  9
$DIMALTRND
 40
0.0
  9
$DIMAZIN
 70
     0
  9
$DIMDSEP
 70
    46
  9
$DIMATFIT
 70
     3
  9
$DIMFRAC
 70
     0
  9
$DIMLDRBLK
  1
DOTSMALL
  9
$DIMLUNIT
 70
     2
  9
$DIMLWD
 70
    -2
  9
$DIMLWE
 70
    -2
  9
$DIMTMOVE
 70
     0
  9
$LUNITS
 70
     2
  9
$LUPREC
 70
     1
  9
$SKETCHINC
 40
1.0
  9
$FILLETRAD
 40
18.0
  9
$AUNITS
 70
     0
  9
$AUPREC
 70
     0
  9
$MENU
  1
acad
  9
$ELEVATION
 40
0.0
  9
$PELEVATION
 40
0.0
  9
$THICKNESS
 40
0.0
  9
$LIMCHECK
 70
     0
  9
$CHAMFERA
 40
0.0
  9
$CHAMFERB
 40
0.0
  9
$CHAMFERC
 40
0.0
  9
$CHAMFERD
 40
0.0
  9
$SKPOLY
 70
     0
  9
$TDCREATE
 40
2451605.424024074
  9
$TDUCREATE
 40
2451605.049024074
  9
$TDUPDATE
 40
2455091.750771123
  9
$TDUUPDATE
 40
2455091.375771123
  9
$TDINDWG
 40
0.5647229514
  9
$TDUSRTIMER
 40
0.5647229514
  9
$USRTIMER
 70
     1
  9
$ANGBASE
 50
0.0
  9
$ANGDIR
 70
     0
  9
$PDMODE
 70
     3
  9
$PDSIZE
 40
2.0
  9
$PLINEWID
 40
0.0
  9
$SPLFRAME
 70
     0
  9
$SPLINETYPE
 70
     6
  9
$SPLINESEGS
 70
     8
  9
$HANDSEED
  5
14CA7
  9
$SURFTAB1
 70
     6
  9
$SURFTAB2
 70
     6
  9
$SURFTYPE
 70
     6
  9
$SURFU
 70
     6
  9
$SURFV
 70
     6
  9
$UCSBASE
  2

  9
$UCSNAME
  2

  9
$UCSORG
 10
0.0
 20
0.0
 30
0.0
  9
$UCSXDIR
 10
1.0
 20
0.0
 30
0.0
  9
$UCSYDIR
 10
0.0
 20
1.0
 30
0.0
  9
$UCSORTHOREF
  2

  9
$UCSORTHOVIEW
 70
     0
  9
$UCSORGTOP
 10
0.0
 20
0.0
 30
0.0
  9
$UCSORGBOTTOM
 10
0.0
 20
0.0
 30
0.0
  9
$UCSORGLEFT
 10
0.0
 20
0.0
 30
0.0
  9
$UCSORGRIGHT
 10
0.0
 20
0.0
 30
0.0
  9
$UCSORGFRONT
 10
0.0
 20
0.0
 30
0.0
  9
$UCSORGBACK
 10
0.0
 20
0.0
 30
0.0
  9
$PUCSBASE
  2

  9
$PUCSNAME
  2

  9
$PUCSORG
 10
0.0
 20
0.0
 30
0.0
  9
$PUCSXDIR
 10
1.0
 20
0.0
 30
0.0
  9
$PUCSYDIR
 10
0.0
 20
1.0
 30
0.0
  9
$PUCSORTHOREF
  2

  9
$PUCSORTHOVIEW
 70
     0
  9
$PUCSORGTOP
 10
0.0
 20
0.0
 30
0.0
  9
$PUCSORGBOTTOM
 10
0.0
 20
0.0
 30
0.0
  9
$PUCSORGLEFT
 10
0.0
 20
0.0
 30
0.0
  9
$PUCSORGRIGHT
 10
0.0
 20
0.0
 30
0.0
  9
$PUCSORGFRONT
 10
0.0
 20
0.0
 30
0.0
  9
$PUCSORGBACK
 10
0.0
 20
0.0
 30
0.0
  9
$USERI1
 70
     0
  9
$USERI2
 70
     0
  9
$USERI3
 70
     0
  9
$USERI4
 70
     0
  9
$USERI5
 70
     0
  9
$USERR1
 40
0.0
  9
$USERR2
 40
0.0
  9
$USERR3
 40
0.0
  9
$USERR4
 40
0.0
  9
$USERR5
 40
0.0
  9
$WORLDVIEW
 70
     1
  9
$SHADEDGE
 70
     3
  9
$SHADEDIF
 70
    70
  9
$TILEMODE
 70
     1
  9
$MAXACTVP
 70
    16
  9
$PINSBASE
 10
0.0
 20
0.0
 30
0.0
  9
$PLIMCHECK
 70
     0
  9
$PEXTMIN
 10
1.000000000000000E+20
 20
1.000000000000000E+20
 30
1.000000000000000E+20
  9
$PEXTMAX
 10
-1.000000000000000E+20
 20
-1.000000000000000E+20
 30
-1.000000000000000E+20
  9
$PLIMMIN
 10
0.0
 20
0.0
  9
$PLIMMAX
 10
420.0
 20
297.0
  9
$UNITMODE
 70
     0
  9
$VISRETAIN
 70
     0
  9
$PLINEGEN
 70
     0
  9
$PSLTSCALE
 70
     0
  9
$TREEDEPTH
 70
  3020
  9
$CMLSTYLE
  2
STANDARD
  9
$CMLJUST
 70
     0
  9
$CMLSCALE
 40
1.0
  9
$PROXYGRAPHICS
 70
     1
  9
$MEASUREMENT
 70
     1
  9
$CELWEIGHT
370
    -1
  9
$ENDCAPS
280
     0
  9
$JOINSTYLE
280
     0
  9
$LWDISPLAY
290
     0
  9
$INSUNITS
 70
     0
  9
$HYPERLINKBASE
  1

  9
$STYLESHEET
  1

  9
$XEDIT
290
     1
  9
$CEPSNTYPE
380
     0
  9
$PSTYLEMODE
290
     1
  9
$FINGERPRINTGUID
  2
{4A967B52-386E-4F8B-B34B-37C034907E78}
  9
$VERSIONGUID
  2
{5BE47EF3-B72D-49CD-A2DA-05377D42E49C}
  9
$EXTNAMES
290
     1
  9
$PSVPSCALE
 40
0.0
  9
$OLESTARTUP
290
     0
  0
ENDSEC
  0
SECTION
  2
CLASSES
  0
CLASS
  1
ACDBDICTIONARYWDFLT
  2
AcDbDictionaryWithDefault
  3
ObjectDBX Classes
 90
        0
280
     0
281
     0
  0
CLASS
  1
DICTIONARYVAR
  2
AcDbDictionaryVar
  3
ObjectDBX Classes
 90
        0
280
     0
281
     0
  0
CLASS
  1
ACDBPLACEHOLDER
  2
AcDbPlaceHolder
  3
ObjectDBX Classes
 90
        0
280
     0
281
     0
  0
CLASS
  1
LAYOUT
  2
AcDbLayout
  3
ObjectDBX Classes
 90
        0
280
     0
281
     0
  0
ENDSEC
  0
SECTION
  2
TABLES
  0
TABLE
  2
VPORT
  5
746D
330
0
100
AcDbSymbolTable
 70
     5
  0
VPORT
  5
14C9F
330
746D
100
AcDbSymbolTableRecord
100
AcDbViewportTableRecord
  2
*Active
 70
     0
 10
0.0
 20
0.0
 11
1.0
 21
1.0
 12
6167.820768928883
 22
4278.654675586539
 13
0.0
 23
0.0
 14
10.0
 24
10.0
 15
10.0
 25
10.0
 16
0.0
 26
0.0
 36
1.0
 17
0.0
 27
0.0
 37
0.0
 40
8619.517488045069
 41
1.492753623188405
 42
50.0
 43
0.0
 44
0.0
 50
0.0
 51
0.0
 71
     0
 72
     0
 73
     1
 74
     0
 75
     0
 76
     0
 77
     0
 78
     0
281
     0
 65
     1
110
0.0
120
0.0
130
0.0
111
1.0
121
0.0
131
0.0
112
0.0
122
1.0
132
0.0
 79
     0
146
0.0
  0
ENDTAB
  0
TABLE
  2
LTYPE
  5
746A
330
0
100
AcDbSymbolTable
 70
     4
  0
LTYPE
  5
7477
330
746A
100
AcDbSymbolTableRecord
100
AcDbLinetypeTableRecord
  2
BYBLOCK
 70
     0
  3

 72
    65
 73
     0
 40
0.0
  0
LTYPE
  5
7478
330
746A
100
AcDbSymbolTableRecord
100
AcDbLinetypeTableRecord
  2
BYLAYER
 70
     0
  3

 72
    65
 73
     0
 40
0.0
  0
LTYPE
  5
7479
330
746A
100
AcDbSymbolTableRecord
100
AcDbLinetypeTableRecord
  2
CONTINUOUS
 70
     0
  3
Solid line
 72
    65
 73
     0
 40
0.0
  0
LTYPE
  5
7816
330
746A
100
AcDbSymbolTableRecord
100
AcDbLinetypeTableRecord
  2
CENTER
 70
     0
  3
____ _ ____ _ ____ _ ____ _ ____ _ ____ _ ____ 
 72
    65
 73
     4
 40
2.0
 49
1.25
 74
     0
 49
-0.25
 74
     0
 49
0.25
 74
     0
 49
-0.25
 74
     0
  0
LTYPE
  5
781A
330
746A
100
AcDbSymbolTableRecord
100
AcDbLinetypeTableRecord
  2
HIDDEN
 70
     0
  3
__ __ __ __ __ __ __ __ __ __ __ __ __ __ __ __
 72
    65
 73
     2
 40
0.375
 49
0.25
 74
     0
 49
-0.125
 74
     0
  0
LTYPE
  5
781B
330
746A
100
AcDbSymbolTableRecord
100
AcDbLinetypeTableRecord
  2
PHANTOM
 70
     0
  3
______  __  __  ______  __  __  ______  __  __ 
 72
    65
 73
     6
 40
2.5
 49
1.25
 74
     0
 49
-0.25
 74
     0
 49
0.25
 74
     0
 49
-0.25
 74
     0
 49
0.25
 74
     0
 49
-0.25
 74
     0
  0
ENDTAB
  0
TABLE
  2
LAYER
  5
7467
330
0
100
AcDbSymbolTable
 70
    11
  0
LAYER
  5
7474
330
7467
100
AcDbSymbolTableRecord
100
AcDbLayerTableRecord
  2
0
 70
     0
 62
     7
  6
CONTINUOUS
370
    -3
390
140F5
  0
LAYER
  5
DEB2
330
7467
100
AcDbSymbolTableRecord
100
AcDbLayerTableRecord
  2
センター
 70
     0
 62
     3
  6
CENTER
370
    -3
390
140F5
  0
LAYER
  5
DEB3
330
7467
100
AcDbSymbolTableRecord
100
AcDbLayerTableRecord
  2
寸法
 70
     0
 62
     4
  6
CONTINUOUS
370
    -3
390
140F5
  0
LAYER
  5
DEB4
330
7467
100
AcDbSymbolTableRecord
100
AcDbLayerTableRecord
  2
部品1
 70
     0
 62
     7
  6
CONTINUOUS
370
    -3
390
140F5
  0
LAYER
  5
DEB5
330
7467
100
AcDbSymbolTableRecord
100
AcDbLayerTableRecord
  2
補助
 70
     0
 62
    -1
  6
CONTINUOUS
370
    -3
390
140F5
  0
LAYER
  5
DEB6
330
7467
100
AcDbSymbolTableRecord
100
AcDbLayerTableRecord
  2
文字
 70
     0
 62
     7
  6
CONTINUOUS
370
    -3
390
140F5
  0
LAYER
  5
F255
330
7467
100
AcDbSymbolTableRecord
100
AcDbLayerTableRecord
  2
DEFPOINTS
 70
     0
 62
     7
  6
CONTINUOUS
290
     0
370
    -3
390
140F5
  0
LAYER
  5
10B54
330
7467
100
AcDbSymbolTableRecord
100
AcDbLayerTableRecord
  2
仕様書枠
 70
     0
 62
   230
  6
CONTINUOUS
370
    -3
390
140F5
  0
LAYER
  5
11729
330
7467
100
AcDbSymbolTableRecord
100
AcDbLayerTableRecord
  2
Ｇ．Ｌ
 70
     0
 62
    30
  6
CONTINUOUS
370
    -3
390
140F5
  0
LAYER
  5
1173F
330
7467
100
AcDbSymbolTableRecord
100
AcDbLayerTableRecord
  2
細線
 70
     0
 62
     5
  6
CONTINUOUS
370
    -3
390
140F5
  0
LAYER
  5
11740
330
7467
100
AcDbSymbolTableRecord
100
AcDbLayerTableRecord
  2
点線
 70
     0
 62
     2
  6
HIDDEN
370
    -3
390
140F5
  0
ENDTAB
  0
TABLE
  2
STYLE
  5
7468
330
0
100
AcDbSymbolTable
 70
     4
  0
STYLE
  5
7475
330
7468
100
AcDbSymbolTableRecord
100
AcDbTextStyleTableRecord
  2
STANDARD
 70
     0
 40
0.0
 41
1.0
 50
0.0
 71
     0
 42
4.0
  3
txt
  4
C:\AutoCAD LT\bigfont.shx
  0
STYLE
  5
F706
330
7468
100
AcDbSymbolTableRecord
100
AcDbTextStyleTableRecord
  2
STYLE1
 70
     0
 40
0.0
 41
1.0
 50
0.0
 71
     0
 42
4.0
  3
isocp.shx
  4
bigfont.shx
  0
STYLE
  5
103BF
330
7468
100
AcDbSymbolTableRecord
100
AcDbTextStyleTableRecord
  2
STYLE2
 70
     0
 40
0.0
 41
1.0
 50
0.0
 71
     0
 42
100.0
  3
MS PGothic.ttf
  4

1001
ACAD
1000
MS PGothic
1071
    32818
  0
STYLE
  5
10BAA
330
7468
100
AcDbSymbolTableRecord
100
AcDbTextStyleTableRecord
  2
STYLE3
 70
     0
 40
0.0
 41
1.0
 50
0.0
 71
     0
 42
100.0
  3
MS PGothic.ttf
  4

1001
ACAD
1000
MS PGothic
1071
    32818
  0
ENDTAB
  0
TABLE
  2
VIEW
  5
746B
330
0
100
AcDbSymbolTable
 70
     0
  0
ENDTAB
  0
TABLE
  2
UCS
  5
746C
330
0
100
AcDbSymbolTable
 70
     0
  0
ENDTAB
  0
TABLE
  2
APPID
  5
746E
330
0
100
AcDbSymbolTable
 70
     6
  0
APPID
  5
7476
330
746E
100
AcDbSymbolTableRecord
100
AcDbRegAppTableRecord
  2
ACAD
 70
     0
  0
APPID
  5
DEA9
330
746E
100
AcDbSymbolTableRecord
100
AcDbRegAppTableRecord
  2
CONTENTBLOCKICON
 70
     0
  0
APPID
  5
DEAA
330
746E
100
AcDbSymbolTableRecord
100
AcDbRegAppTableRecord
  2
CONTENTBLOCKDESCRIPTION
 70
     0
  0
APPID
  5
E71D
330
746E
100
AcDbSymbolTableRecord
100
AcDbRegAppTableRecord
  2
CONTENTTABDATA
 70
     0
  0
APPID
  5
E71E
330
746E
100
AcDbSymbolTableRecord
100
AcDbRegAppTableRecord
  2
CONTENTCURRENTTAB
 70
     0
  0
APPID
  5
F3BA
330
746E
100
AcDbSymbolTableRecord
100
AcDbRegAppTableRecord
  2
DRAWINGVARIABLESXDATA
 70
     0
  0
ENDTAB
  0
TABLE
  2
DIMSTYLE
  5
746F
330
0
100
AcDbSymbolTable
 70
     2
100
AcDbDimStyleTable
 71
     2
340
14299
340
F71F
  0
DIMSTYLE
105
F71F
102
{ACAD_REACTORS
330
13756
330
13755
330
1374D
330
13733
330
13732
330
1372B
330
13729
330
13727
330
13726
330
13721
330
1371F
330
1371D
330
1371C
330
13709
330
13707
330
13706
330
136E6
330
136E5
330
136E3
330
136E2
330
136E1
330
136DF
330
136DD
330
136D9
330
136D7
330
136D4
102
}
330
746F
100
AcDbSymbolTableRecord
100
AcDbDimStyleTableRecord
  2
INABA_S30G
 70
     0
 40
30.0
 41
2.5
 42
0.5
 43
7.0
 44
1.5
 73
     0
 74
     0
 77
     3
 78
     8
140
3.0
141
0.0
143
0.0394
147
1.0
172
     1
173
     1
174
     1
178
     7
271
     1
340
F706
341
F770
343
F770
344
F770
  0
DIMSTYLE
105
14299
102
{ACAD_REACTORS
330
1448A
330
1447F
330
14479
330
14466
330
1445D
330
14457
330
143E4
330
143E3
330
14617
330
148A7
330
148A6
330
14847
330
1483B
330
14829
330
14827
330
1481A
330
149D8
330
149E7
330
14AF0
330
14AFD
330
14B0A
102
}
330
746F
100
AcDbSymbolTableRecord
100
AcDbDimStyleTableRecord
  2
INABA_S30G詳細用20
 70
     0
 40
30.0
 41
2.5
 42
0.5
 43
7.0
 44
1.5
 73
     0
 74
     0
 77
     3
 78
     8
140
3.0
141
0.0
143
0.0394
144
0.6666666667
147
1.0
172
     1
173
     1
174
     1
178
     7
271
     0
272
     0
340
F706
341
F770
343
F770
344
F770
  0
ENDTAB
  0
TABLE
  2
BLOCK_RECORD
  5
7466
330
0
100
AcDbSymbolTable
 70
    45
  0
BLOCK_RECORD
  5
747D
330
7466
100
AcDbSymbolTableRecord
100
AcDbBlockTableRecord
  2
*MODEL_SPACE
340
140FA
  0
BLOCK_RECORD
  5
747A
330
7466
100
AcDbSymbolTableRecord
100
AcDbBlockTableRecord
  2
*PAPER_SPACE
340
140FB
  0
BLOCK_RECORD
  5
F770
330
7466
100
AcDbSymbolTableRecord
100
AcDbBlockTableRecord
  2
_DOTSMALL
340
0
102
{BLKREFS
331
1414A
331
1414B
331
14153
331
14154
331
1415C
331
1415D
331
14165
331
14166
331
1416E
331
1416F
331
14177
331
14178
331
14180
331
14181
331
14189
331
1418A
331
14192
331
14193
331
1419B
331
1419C
331
141A4
331
141A5
331
141AD
331
141AE
331
141B8
331
141B9
331
141C3
331
141C4
331
141CC
331
141CD
331
141D5
331
141D6
331
141DE
331
141DF
331
141E7
331
141E8
331
141F0
331
141F1
331
141F9
331
141FA
331
14202
331
14203
331
1420B
331
1420C
331
14214
331
14215
331
1421D
331
1421E
331
14B48
331
14B49
331
14B52
331
14B53
331
14B5C
331
14B5D
331
14B66
331
14B67
331
14B6F
331
14B70
331
14B78
331
14B79
331
14B82
331
14B83
331
14C05
331
14C06
331
14C0E
331
14C0F
331
14C17
331
14C18
331
14C2C
331
14C2D
331
14C36
331
14C37
331
14C3F
331
14C40
331
14C48
331
14C49
331
14C52
331
14C53
331
14C5C
331
14C5D
331
14C66
331
14C67
331
14C6F
331
14C70
331
14C8C
331
14C8D
102
}
  0
BLOCK_RECORD
  5
138BB
330
7466
100
AcDbSymbolTableRecord
100
AcDbBlockTableRecord
  2
*D1
340
0
  0
BLOCK_RECORD
  5
138C7
330
7466
100
AcDbSymbolTableRecord
100
AcDbBlockTableRecord
  2
*D2
340
0
  0
BLOCK_RECORD
  5
138D3
330
7466
100
AcDbSymbolTableRecord
100
AcDbBlockTableRecord
  2
*D3
340
0
  0
BLOCK_RECORD
  5
138DF
330
7466
100
AcDbSymbolTableRecord
100
AcDbBlockTableRecord
  2
*D4
340
0
  0
BLOCK_RECORD
  5
138EB
330
7466
100
AcDbSymbolTableRecord
100
AcDbBlockTableRecord
  2
*D5
340
0
  0
BLOCK_RECORD
  5
138F7
330
7466
100
AcDbSymbolTableRecord
100
AcDbBlockTableRecord
  2
*D6
340
0
  0
BLOCK_RECORD
  5
13903
330
7466
100
AcDbSymbolTableRecord
100
AcDbBlockTableRecord
  2
*D7
340
0
  0
BLOCK_RECORD
  5
1390F
330
7466
100
AcDbSymbolTableRecord
100
AcDbBlockTableRecord
  2
*D8
340
0
  0
BLOCK_RECORD
  5
1391B
330
7466
100
AcDbSymbolTableRecord
100
AcDbBlockTableRecord
  2
*D9
340
0
  0
BLOCK_RECORD
  5
13927
330
7466
100
AcDbSymbolTableRecord
100
AcDbBlockTableRecord
  2
*D10
340
0
  0
BLOCK_RECORD
  5
13933
330
7466
100
AcDbSymbolTableRecord
100
AcDbBlockTableRecord
  2
*D11
340
0
  0
BLOCK_RECORD
  5
13941
330
7466
100
AcDbSymbolTableRecord
100
AcDbBlockTableRecord
  2
*D12
340
0
  0
BLOCK_RECORD
  5
1394F
330
7466
100
AcDbSymbolTableRecord
100
AcDbBlockTableRecord
  2
*D13
340
0
  0
BLOCK_RECORD
  5
1395B
330
7466
100
AcDbSymbolTableRecord
100
AcDbBlockTableRecord
  2
*D14
340
0
  0
BLOCK_RECORD
  5
13967
330
7466
100
AcDbSymbolTableRecord
100
AcDbBlockTableRecord
  2
*D15
340
0
  0
BLOCK_RECORD
  5
13973
330
7466
100
AcDbSymbolTableRecord
100
AcDbBlockTableRecord
  2
*D16
340
0
  0
BLOCK_RECORD
  5
1397F
330
7466
100
AcDbSymbolTableRecord
100
AcDbBlockTableRecord
  2
*D17
340
0
  0
BLOCK_RECORD
  5
1398B
330
7466
100
AcDbSymbolTableRecord
100
AcDbBlockTableRecord
  2
*D18
340
0
  0
BLOCK_RECORD
  5
13997
330
7466
100
AcDbSymbolTableRecord
100
AcDbBlockTableRecord
  2
*D19
340
0
  0
BLOCK_RECORD
  5
139A3
330
7466
100
AcDbSymbolTableRecord
100
AcDbBlockTableRecord
  2
*D20
340
0
  0
BLOCK_RECORD
  5
139AF
330
7466
100
AcDbSymbolTableRecord
100
AcDbBlockTableRecord
  2
*D21
340
0
  0
BLOCK_RECORD
  5
139BB
330
7466
100
AcDbSymbolTableRecord
100
AcDbBlockTableRecord
  2
*D22
340
0
  0
BLOCK_RECORD
  5
139C7
330
7466
100
AcDbSymbolTableRecord
100
AcDbBlockTableRecord
  2
*D23
340
0
  0
BLOCK_RECORD
  5
139D3
330
7466
100
AcDbSymbolTableRecord
100
AcDbBlockTableRecord
  2
*D24
340
0
  0
BLOCK_RECORD
  5
1448F
330
7466
100
AcDbSymbolTableRecord
100
AcDbBlockTableRecord
  2
*D25
340
0
  0
BLOCK_RECORD
  5
1449B
330
7466
100
AcDbSymbolTableRecord
100
AcDbBlockTableRecord
  2
*D26
340
0
  0
BLOCK_RECORD
  5
144A9
330
7466
100
AcDbSymbolTableRecord
100
AcDbBlockTableRecord
  2
*D27
340
0
  0
BLOCK_RECORD
  5
144B6
330
7466
100
AcDbSymbolTableRecord
100
AcDbBlockTableRecord
  2
*D28
340
0
  0
BLOCK_RECORD
  5
144CF
330
7466
100
AcDbSymbolTableRecord
100
AcDbBlockTableRecord
  2
*D29
340
0
  0
BLOCK_RECORD
  5
144DC
330
7466
100
AcDbSymbolTableRecord
100
AcDbBlockTableRecord
  2
*D30
340
0
  0
BLOCK_RECORD
  5
14618
330
7466
100
AcDbSymbolTableRecord
100
AcDbBlockTableRecord
  2
*D31
340
0
  0
BLOCK_RECORD
  5
1472B
330
7466
100
AcDbSymbolTableRecord
100
AcDbBlockTableRecord
  2
_None
340
0
  0
BLOCK_RECORD
  5
148BE
330
7466
100
AcDbSymbolTableRecord
100
AcDbBlockTableRecord
  2
*D33
340
0
  0
BLOCK_RECORD
  5
148CB
330
7466
100
AcDbSymbolTableRecord
100
AcDbBlockTableRecord
  2
*D34
340
0
  0
BLOCK_RECORD
  5
148D7
330
7466
100
AcDbSymbolTableRecord
100
AcDbBlockTableRecord
  2
*D35
340
0
  0
BLOCK_RECORD
  5
148E3
330
7466
100
AcDbSymbolTableRecord
100
AcDbBlockTableRecord
  2
*D36
340
0
  0
BLOCK_RECORD
  5
148F0
330
7466
100
AcDbSymbolTableRecord
100
AcDbBlockTableRecord
  2
*D37
340
0
  0
BLOCK_RECORD
  5
148FD
330
7466
100
AcDbSymbolTableRecord
100
AcDbBlockTableRecord
  2
*D38
340
0
  0
BLOCK_RECORD
  5
1490A
330
7466
100
AcDbSymbolTableRecord
100
AcDbBlockTableRecord
  2
*D39
340
0
  0
BLOCK_RECORD
  5
149D9
330
7466
100
AcDbSymbolTableRecord
100
AcDbBlockTableRecord
  2
*D40
340
0
  0
BLOCK_RECORD
  5
149E8
330
7466
100
AcDbSymbolTableRecord
100
AcDbBlockTableRecord
  2
*D41
340
0
  0
BLOCK_RECORD
  5
14AF1
330
7466
100
AcDbSymbolTableRecord
100
AcDbBlockTableRecord
  2
*D42
340
0
  0
BLOCK_RECORD
  5
14AFE
330
7466
100
AcDbSymbolTableRecord
100
AcDbBlockTableRecord
  2
*D43
340
0
  0
BLOCK_RECORD
  5
14B0B
330
7466
100
AcDbSymbolTableRecord
100
AcDbBlockTableRecord
  2
*D44
340
0
  0
ENDTAB
  0
ENDSEC
  0
SECTION
  2
BLOCKS
  0
BLOCK
  5
7489
330
747D
100
AcDbEntity
  8
0
100
AcDbBlockBegin
  2
*MODEL_SPACE
 70
     0
 10
0.0
 20
0.0
 30
0.0
  3
*MODEL_SPACE
  1

  0
ENDBLK
  5
748A
330
747D
100
AcDbEntity
  8
0
100
AcDbBlockEnd
  0
BLOCK
  5
7487
330
747A
100
AcDbEntity
 67
     1
  8
0
100
AcDbBlockBegin
  2
*PAPER_SPACE
 70
     0
 10
0.0
 20
0.0
 30
0.0
  3
*PAPER_SPACE
  1

  0
ENDBLK
  5
7488
330
747A
100
AcDbEntity
 67
     1
  8
0
100
AcDbBlockEnd
  0
BLOCK
  5
F771
330
F770
100
AcDbEntity
  8
0
 48
50.0
100
AcDbBlockBegin
  2
_DOTSMALL
 70
     0
 10
0.0
 20
0.0
 30
0.0
  3
_DOTSMALL
  1

  0
LWPOLYLINE
  5
F772
330
F770
100
AcDbEntity
  8
0
  6
ByBlock
 62
     0
 48
50.0
100
AcDbPolyline
 90
        2
 70
     1
 43
0.5
 10
-0.0625
 20
0.0
 42
1.0
 10
0.0625
 20
0.0
 42
1.0
  0
ENDBLK
  5
F776
330
F770
100
AcDbEntity
  8
0
 48
50.0
100
AcDbBlockEnd
  0
BLOCK
  5
13C64
330
138BB
100
AcDbEntity
  8
0
 48
50.0
100
AcDbBlockBegin
  2
*D1
 70
     1
 10
0.0
 20
0.0
 30
0.0
  3
*D1
  1

  0
LINE
  5
1421A
330
138BB
100
AcDbEntity
  8
寸法
 62
     0
 48
50.0
370
    -2
100
AcDbLine
 10
2243.246562932154
 20
5200.166988013343
 30
0.0
 11
2243.246562932154
 21
4780.395283416633
 31
0.0
  0
LINE
  5
1421B
330
138BB
100
AcDbEntity
  8
寸法
 62
     0
 48
50.0
370
    -2
100
AcDbLine
 10
5153.246562932154
 20
5200.166988013343
 30
0.0
 11
5153.246562932154
 21
4780.395283416633
 31
0.0
  0
LINE
  5
1421C
330
138BB
100
AcDbEntity
  8
寸法
 62
     0
 48
50.0
370
    -2
100
AcDbLine
 10
2243.246562932154
 20
4825.395283416634
 30
0.0
 11
5153.246562932154
 21
4825.395283416634
 31
0.0
  0
INSERT
  5
1421D
330
138BB
100
AcDbEntity
  8
寸法
 62
     0
 48
50.0
370
    -2
100
AcDbBlockReference
  2
_DOTSMALL
 10
2243.246562932154
 20
4825.395283416634
 30
0.0
 41
75.0
 42
75.0
 43
75.0
 50
180.0
  0
INSERT
  5
1421E
330
138BB
100
AcDbEntity
  8
寸法
 62
     0
 48
50.0
370
    -2
100
AcDbBlockReference
  2
_DOTSMALL
 10
5153.246562932154
 20
4825.395283416634
 30
0.0
 41
75.0
 42
75.0
 43
75.0
  0
MTEXT
  5
1421F
330
138BB
100
AcDbEntity
  8
寸法
 62
     7
 48
50.0
100
AcDbMText
 10
3698.246562932155
 20
4900.404141684351
 30
0.0
 40
90.0
 41
0.0
 71
     5
 72
     1
  1
\A1;屋根寸法 2910
  7
STYLE1
 73
     1
 44
1.0
1001
ACAD
1000
MTEXTBEGIN
1070
    73
1070
     1
1070
    44
1040
1.0
1070
    74
1070
     0
1000
MTEXTEND
  0
POINT
  5
14220
330
138BB
100
AcDbEntity
  8
DEFPOINTS
 62
     0
 48
50.0
100
AcDbPoint
 10
2243.246562932154
 20
5215.166988013343
 30
0.0
  0
POINT
  5
14221
330
138BB
100
AcDbEntity
  8
DEFPOINTS
 62
     0
 48
50.0
100
AcDbPoint
 10
5153.246562932154
 20
5215.166988013343
 30
0.0
  0
POINT
  5
14222
330
138BB
100
AcDbEntity
  8
DEFPOINTS
 62
     0
 48
50.0
100
AcDbPoint
 10
5153.246562932154
 20
4825.395283416634
 30
0.0
  0
ENDBLK
  5
13C6E
330
138BB
100
AcDbEntity
  8
0
 48
50.0
100
AcDbBlockEnd
  0
BLOCK
  5
13AD1
330
138C7
100
AcDbEntity
  8
0
 48
50.0
100
AcDbBlockBegin
  2
*D2
 70
     1
 10
0.0
 20
0.0
 30
0.0
  3
*D2
  1

  0
LINE
  5
14211
330
138C7
100
AcDbEntity
  8
寸法
 62
     0
 48
50.0
370
    -2
100
AcDbLine
 10
2243.246562932154
 20
7230.166988013343
 30
0.0
 11
2243.246562932154
 21
7712.619282144449
 31
0.0
  0
LINE
  5
14212
330
138C7
100
AcDbEntity
  8
寸法
 62
     0
 48
50.0
370
    -2
100
AcDbLine
 10
2493.246562932154
 20
7480.166988013341
 30
0.0
 11
2493.246562932154
 21
7712.619282144449
 31
0.0
  0
LINE
  5
14213
330
138C7
100
AcDbEntity
  8
寸法
 62
     0
 48
50.0
370
    -2
100
AcDbLine
 10
2243.246562932154
 20
7667.619282144449
 30
0.0
 11
2493.246562932154
 21
7667.619282144449
 31
0.0
  0
INSERT
  5
14214
330
138C7
100
AcDbEntity
  8
寸法
 62
     0
 48
50.0
370
    -2
100
AcDbBlockReference
  2
_DOTSMALL
 10
2243.246562932154
 20
7667.619282144449
 30
0.0
 41
75.0
 42
75.0
 43
75.0
 50
180.0
  0
INSERT
  5
14215
330
138C7
100
AcDbEntity
  8
寸法
 62
     0
 48
50.0
370
    -2
100
AcDbBlockReference
  2
_DOTSMALL
 10
2493.246562932154
 20
7667.619282144449
 30
0.0
 41
75.0
 42
75.0
 43
75.0
  0
MTEXT
  5
14216
330
138C7
100
AcDbEntity
  8
寸法
 62
     7
 48
50.0
100
AcDbMText
 10
2368.246562932154
 20
7742.628140412165
 30
0.0
 40
90.0
 41
0.0
 71
     5
 72
     1
  1
\A1;250
  7
STYLE1
 73
     1
 44
1.0
1001
ACAD
1000
MTEXTBEGIN
1070
    73
1070
     1
1070
    44
1040
1.0
1070
    74
1070
     0
1000
MTEXTEND
  0
POINT
  5
14217
330
138C7
100
AcDbEntity
  8
DEFPOINTS
 62
     0
 48
50.0
100
AcDbPoint
 10
2243.246562932154
 20
7215.166988013343
 30
0.0
  0
POINT
  5
14218
330
138C7
100
AcDbEntity
  8
DEFPOINTS
 62
     0
 48
50.0
100
AcDbPoint
 10
2493.246562932154
 20
7465.166988013341
 30
0.0
  0
POINT
  5
14219
330
138C7
100
AcDbEntity
  8
DEFPOINTS
 62
     0
 48
50.0
100
AcDbPoint
 10
2493.246562932154
 20
7667.619282144449
 30
0.0
  0
ENDBLK
  5
13ADB
330
138C7
100
AcDbEntity
  8
0
 48
50.0
100
AcDbBlockEnd
  0
BLOCK
  5
13C49
330
138D3
100
AcDbEntity
  8
0
 48
50.0
100
AcDbBlockBegin
  2
*D3
 70
     1
 10
0.0
 20
0.0
 30
0.0
  3
*D3
  1

  0
LINE
  5
14208
330
138D3
100
AcDbEntity
  8
寸法
 62
     0
 48
50.0
370
    -2
100
AcDbLine
 10
2243.246562932154
 20
7230.166988013343
 30
0.0
 11
2243.246562932154
 21
7906.656321118768
 31
0.0
  0
LINE
  5
14209
330
138D3
100
AcDbEntity
  8
寸法
 62
     0
 48
50.0
370
    -2
100
AcDbLine
 10
5153.246562932154
 20
7230.166988013343
 30
0.0
 11
5153.246562932154
 21
7906.656321118768
 31
0.0
  0
LINE
  5
1420A
330
138D3
100
AcDbEntity
  8
寸法
 62
     0
 48
50.0
370
    -2
100
AcDbLine
 10
2243.246562932154
 20
7861.656321118768
 30
0.0
 11
5153.246562932154
 21
7861.656321118768
 31
0.0
  0
INSERT
  5
1420B
330
138D3
100
AcDbEntity
  8
寸法
 62
     0
 48
50.0
370
    -2
100
AcDbBlockReference
  2
_DOTSMALL
 10
2243.246562932154
 20
7861.656321118768
 30
0.0
 41
75.0
 42
75.0
 43
75.0
 50
180.0
  0
INSERT
  5
1420C
330
138D3
100
AcDbEntity
  8
寸法
 62
     0
 48
50.0
370
    -2
100
AcDbBlockReference
  2
_DOTSMALL
 10
5153.246562932154
 20
7861.656321118768
 30
0.0
 41
75.0
 42
75.0
 43
75.0
  0
MTEXT
  5
1420D
330
138D3
100
AcDbEntity
  8
寸法
 62
     7
 48
50.0
100
AcDbMText
 10
3698.246562932155
 20
7936.665179386484
 30
0.0
 40
90.0
 41
0.0
 71
     5
 72
     1
  1
\A1;基礎寸法 2910
  7
STYLE1
 73
     1
 44
1.0
1001
ACAD
1000
MTEXTBEGIN
1070
    73
1070
     1
1070
    44
1040
1.0
1070
    74
1070
     0
1000
MTEXTEND
  0
POINT
  5
1420E
330
138D3
100
AcDbEntity
  8
DEFPOINTS
 62
     0
 48
50.0
100
AcDbPoint
 10
2243.246562932154
 20
7215.166988013343
 30
0.0
  0
POINT
  5
1420F
330
138D3
100
AcDbEntity
  8
DEFPOINTS
 62
     0
 48
50.0
100
AcDbPoint
 10
5153.246562932154
 20
7215.166988013343
 30
0.0
  0
POINT
  5
14210
330
138D3
100
AcDbEntity
  8
DEFPOINTS
 62
     0
 48
50.0
100
AcDbPoint
 10
5153.246562932154
 20
7861.656321118768
 30
0.0
  0
ENDBLK
  5
13C53
330
138D3
100
AcDbEntity
  8
0
 48
50.0
100
AcDbBlockEnd
  0
BLOCK
  5
13AE7
330
138DF
100
AcDbEntity
  8
0
 48
50.0
100
AcDbBlockBegin
  2
*D4
 70
     1
 10
0.0
 20
0.0
 30
0.0
  3
*D4
  1

  0
LINE
  5
141FF
330
138DF
100
AcDbEntity
  8
寸法
 62
     0
 48
50.0
370
    -2
100
AcDbLine
 10
2228.246562932154
 20
6215.166988013345
 30
0.0
 11
1757.213196604587
 21
6215.166988013346
 31
0.0
  0
LINE
  5
14200
330
138DF
100
AcDbEntity
  8
寸法
 62
     0
 48
50.0
370
    -2
100
AcDbLine
 10
2228.246562932154
 20
5215.166988013343
 30
0.0
 11
1757.213196604587
 21
5215.166988013343
 31
0.0
  0
LINE
  5
14201
330
138DF
100
AcDbEntity
  8
寸法
 62
     0
 48
50.0
370
    -2
100
AcDbLine
 10
1802.213196604587
 20
6215.166988013346
 30
0.0
 11
1802.213196604587
 21
5215.166988013343
 31
0.0
  0
INSERT
  5
14202
330
138DF
100
AcDbEntity
  8
寸法
 62
     0
 48
50.0
370
    -2
100
AcDbBlockReference
  2
_DOTSMALL
 10
1802.213196604587
 20
6215.166988013346
 30
0.0
 41
75.0
 42
75.0
 43
75.0
 50
90.0
  0
INSERT
  5
14203
330
138DF
100
AcDbEntity
  8
寸法
 62
     0
 48
50.0
370
    -2
100
AcDbBlockReference
  2
_DOTSMALL
 10
1802.213196604587
 20
5215.166988013343
 30
0.0
 41
75.0
 42
75.0
 43
75.0
 50
270.0
  0
MTEXT
  5
14204
330
138DF
100
AcDbEntity
  8
寸法
 62
     7
 48
50.0
100
AcDbMText
 10
1727.213196604586
 20
5715.166988013345
 30
0.0
 40
90.0
 41
0.0
 71
     5
 72
     1
  1
\A1;1000
  7
STYLE1
 11
0.0000000000000001
 21
1.0
 31
0.0
 73
     1
 44
1.0
1001
ACAD
1000
MTEXTBEGIN
1070
    73
1070
     1
1070
    44
1040
1.0
1070
    74
1070
     0
1000
MTEXTEND
  0
POINT
  5
14205
330
138DF
100
AcDbEntity
  8
DEFPOINTS
 62
     0
 48
50.0
100
AcDbPoint
 10
2243.246562932154
 20
6215.166988013345
 30
0.0
  0
POINT
  5
14206
330
138DF
100
AcDbEntity
  8
DEFPOINTS
 62
     0
 48
50.0
100
AcDbPoint
 10
2243.246562932154
 20
5215.166988013343
 30
0.0
  0
POINT
  5
14207
330
138DF
100
AcDbEntity
  8
DEFPOINTS
 62
     0
 48
50.0
100
AcDbPoint
 10
1802.213196604587
 20
5215.166988013343
 30
0.0
  0
ENDBLK
  5
13AF1
330
138DF
100
AcDbEntity
  8
0
 48
50.0
100
AcDbBlockEnd
  0
BLOCK
  5
13AF2
330
138EB
100
AcDbEntity
  8
0
 48
50.0
100
AcDbBlockBegin
  2
*D5
 70
     1
 10
0.0
 20
0.0
 30
0.0
  3
*D5
  1

  0
LINE
  5
141F6
330
138EB
100
AcDbEntity
  8
寸法
 62
     0
 48
50.0
370
    -2
100
AcDbLine
 10
2228.246562932154
 20
7215.166988013343
 30
0.0
 11
1534.625364204463
 21
7215.166988013343
 31
0.0
  0
LINE
  5
141F7
330
138EB
100
AcDbEntity
  8
寸法
 62
     0
 48
50.0
370
    -2
100
AcDbLine
 10
2228.246562932154
 20
5215.166988013343
 30
0.0
 11
1534.625364204463
 21
5215.166988013343
 31
0.0
  0
LINE
  5
141F8
330
138EB
100
AcDbEntity
  8
寸法
 62
     0
 48
50.0
370
    -2
100
AcDbLine
 10
1579.625364204463
 20
7215.166988013343
 30
0.0
 11
1579.625364204463
 21
5215.166988013343
 31
0.0
  0
INSERT
  5
141F9
330
138EB
100
AcDbEntity
  8
寸法
 62
     0
 48
50.0
370
    -2
100
AcDbBlockReference
  2
_DOTSMALL
 10
1579.625364204463
 20
7215.166988013343
 30
0.0
 41
75.0
 42
75.0
 43
75.0
 50
90.0
  0
INSERT
  5
141FA
330
138EB
100
AcDbEntity
  8
寸法
 62
     0
 48
50.0
370
    -2
100
AcDbBlockReference
  2
_DOTSMALL
 10
1579.625364204463
 20
5215.166988013343
 30
0.0
 41
75.0
 42
75.0
 43
75.0
 50
270.0
  0
MTEXT
  5
141FB
330
138EB
100
AcDbEntity
  8
寸法
 62
     7
 48
50.0
100
AcDbMText
 10
1504.616505936746
 20
6215.166988013343
 30
0.0
 40
90.0
 41
0.0
 71
     5
 72
     1
  1
\A1;基礎寸法 2000
  7
STYLE1
 11
0.0000000000000001
 21
1.0
 31
0.0
 73
     1
 44
1.0
1001
ACAD
1000
MTEXTBEGIN
1070
    73
1070
     1
1070
    44
1040
1.0
1070
    74
1070
     0
1000
MTEXTEND
  0
POINT
  5
141FC
330
138EB
100
AcDbEntity
  8
DEFPOINTS
 62
     0
 48
50.0
100
AcDbPoint
 10
2243.246562932154
 20
7215.166988013343
 30
0.0
  0
POINT
  5
141FD
330
138EB
100
AcDbEntity
  8
DEFPOINTS
 62
     0
 48
50.0
100
AcDbPoint
 10
2243.246562932154
 20
5215.166988013343
 30
0.0
  0
POINT
  5
141FE
330
138EB
100
AcDbEntity
  8
DEFPOINTS
 62
     0
 48
50.0
100
AcDbPoint
 10
1579.625364204463
 20
5215.166988013343
 30
0.0
  0
ENDBLK
  5
13AFC
330
138EB
100
AcDbEntity
  8
0
 48
50.0
100
AcDbBlockEnd
  0
BLOCK
  5
13AFD
330
138F7
100
AcDbEntity
  8
0
 48
50.0
100
AcDbBlockBegin
  2
*D6
 70
     1
 10
0.0
 20
0.0
 30
0.0
  3
*D6
  1

  0
LINE
  5
141ED
330
138F7
100
AcDbEntity
  8
寸法
 62
     0
 48
50.0
370
    -2
100
AcDbLine
 10
2228.246562932154
 20
7215.166988013343
 30
0.0
 11
1757.374726220924
 21
7215.166988013343
 31
0.0
  0
LINE
  5
141EE
330
138F7
100
AcDbEntity
  8
寸法
 62
     0
 48
50.0
370
    -2
100
AcDbLine
 10
2228.246562932154
 20
6215.166988013345
 30
0.0
 11
1757.374726220923
 21
6215.166988013346
 31
0.0
  0
LINE
  5
141EF
330
138F7
100
AcDbEntity
  8
寸法
 62
     0
 48
50.0
370
    -2
100
AcDbLine
 10
1802.374726220923
 20
7215.166988013343
 30
0.0
 11
1802.374726220923
 21
6215.166988013346
 31
0.0
  0
INSERT
  5
141F0
330
138F7
100
AcDbEntity
  8
寸法
 62
     0
 48
50.0
370
    -2
100
AcDbBlockReference
  2
_DOTSMALL
 10
1802.374726220923
 20
7215.166988013343
 30
0.0
 41
75.0
 42
75.0
 43
75.0
 50
90.0
  0
INSERT
  5
141F1
330
138F7
100
AcDbEntity
  8
寸法
 62
     0
 48
50.0
370
    -2
100
AcDbBlockReference
  2
_DOTSMALL
 10
1802.374726220923
 20
6215.166988013346
 30
0.0
 41
75.0
 42
75.0
 43
75.0
 50
270.0
  0
MTEXT
  5
141F2
330
138F7
100
AcDbEntity
  8
寸法
 62
     7
 48
50.0
100
AcDbMText
 10
1727.374726220922
 20
6715.166988013345
 30
0.0
 40
90.0
 41
0.0
 71
     5
 72
     1
  1
\A1;1000
  7
STYLE1
 11
0.0000000000000001
 21
1.0
 31
0.0
 73
     1
 44
1.0
1001
ACAD
1000
MTEXTBEGIN
1070
    73
1070
     1
1070
    44
1040
1.0
1070
    74
1070
     0
1000
MTEXTEND
  0
POINT
  5
141F3
330
138F7
100
AcDbEntity
  8
DEFPOINTS
 62
     0
 48
50.0
100
AcDbPoint
 10
2243.246562932154
 20
7215.166988013343
 30
0.0
  0
POINT
  5
141F4
330
138F7
100
AcDbEntity
  8
DEFPOINTS
 62
     0
 48
50.0
100
AcDbPoint
 10
2243.246562932154
 20
6215.166988013345
 30
0.0
  0
POINT
  5
141F5
330
138F7
100
AcDbEntity
  8
DEFPOINTS
 62
     0
 48
50.0
100
AcDbPoint
 10
1802.374726220923
 20
6215.166988013346
 30
0.0
  0
ENDBLK
  5
13B07
330
138F7
100
AcDbEntity
  8
0
 48
50.0
100
AcDbBlockEnd
  0
BLOCK
  5
13B08
330
13903
100
AcDbEntity
  8
0
 48
50.0
100
AcDbBlockBegin
  2
*D7
 70
     1
 10
0.0
 20
0.0
 30
0.0
  3
*D7
  1

  0
LINE
  5
141E4
330
13903
100
AcDbEntity
  8
寸法
 62
     0
 48
50.0
370
    -2
100
AcDbLine
 10
4903.246562932154
 20
7300.166988013344
 30
0.0
 11
4903.246562932154
 21
7713.216517489356
 31
0.0
  0
LINE
  5
141E5
330
13903
100
AcDbEntity
  8
寸法
 62
     0
 48
50.0
370
    -2
100
AcDbLine
 10
5153.246562932154
 20
7230.166988013343
 30
0.0
 11
5153.246562932154
 21
7713.216517489356
 31
0.0
  0
LINE
  5
141E6
330
13903
100
AcDbEntity
  8
寸法
 62
     0
 48
50.0
370
    -2
100
AcDbLine
 10
4903.246562932154
 20
7668.216517489357
 30
0.0
 11
5153.246562932154
 21
7668.216517489357
 31
0.0
  0
INSERT
  5
141E7
330
13903
100
AcDbEntity
  8
寸法
 62
     0
 48
50.0
370
    -2
100
AcDbBlockReference
  2
_DOTSMALL
 10
4903.246562932154
 20
7668.216517489357
 30
0.0
 41
75.0
 42
75.0
 43
75.0
 50
180.0
  0
INSERT
  5
141E8
330
13903
100
AcDbEntity
  8
寸法
 62
     0
 48
50.0
370
    -2
100
AcDbBlockReference
  2
_DOTSMALL
 10
5153.246562932154
 20
7668.216517489357
 30
0.0
 41
75.0
 42
75.0
 43
75.0
  0
MTEXT
  5
141E9
330
13903
100
AcDbEntity
  8
寸法
 62
     7
 48
50.0
100
AcDbMText
 10
5028.246562932154
 20
7743.225375757072
 30
0.0
 40
90.0
 41
0.0
 71
     5
 72
     1
  1
\A1;250
  7
STYLE1
 73
     1
 44
1.0
1001
ACAD
1000
MTEXTBEGIN
1070
    73
1070
     1
1070
    44
1040
1.0
1070
    74
1070
     0
1000
MTEXTEND
  0
POINT
  5
141EA
330
13903
100
AcDbEntity
  8
DEFPOINTS
 62
     0
 48
50.0
100
AcDbPoint
 10
4903.246562932154
 20
7285.166988013346
 30
0.0
  0
POINT
  5
141EB
330
13903
100
AcDbEntity
  8
DEFPOINTS
 62
     0
 48
50.0
100
AcDbPoint
 10
5153.246562932154
 20
7215.166988013343
 30
0.0
  0
POINT
  5
141EC
330
13903
100
AcDbEntity
  8
DEFPOINTS
 62
     0
 48
50.0
100
AcDbPoint
 10
5153.246562932154
 20
7668.216517489357
 30
0.0
  0
ENDBLK
  5
13B12
330
13903
100
AcDbEntity
  8
0
 48
50.0
100
AcDbBlockEnd
  0
BLOCK
  5
13C3E
330
1390F
100
AcDbEntity
  8
0
 48
50.0
100
AcDbBlockBegin
  2
*D8
 70
     1
 10
0.0
 20
0.0
 30
0.0
  3
*D8
  1

  0
LINE
  5
141DB
330
1390F
100
AcDbEntity
  8
寸法
 62
     0
 48
50.0
370
    -2
100
AcDbLine
 10
2493.246562932154
 20
6480.166988013343
 30
0.0
 11
2493.246562932154
 21
7712.619282144449
 31
0.0
  0
LINE
  5
141DC
330
1390F
100
AcDbEntity
  8
寸法
 62
     0
 48
50.0
370
    -2
100
AcDbLine
 10
4903.246562932154
 20
6918.712005384263
 30
0.0
 11
4903.246562932154
 21
7712.619282144449
 31
0.0
  0
LINE
  5
141DD
330
1390F
100
AcDbEntity
  8
寸法
 62
     0
 48
50.0
370
    -2
100
AcDbLine
 10
2493.246562932154
 20
7667.619282144449
 30
0.0
 11
4903.246562932154
 21
7667.619282144449
 31
0.0
  0
INSERT
  5
141DE
330
1390F
100
AcDbEntity
  8
寸法
 62
     0
 48
50.0
370
    -2
100
AcDbBlockReference
  2
_DOTSMALL
 10
2493.246562932154
 20
7667.619282144449
 30
0.0
 41
75.0
 42
75.0
 43
75.0
 50
180.0
  0
INSERT
  5
141DF
330
1390F
100
AcDbEntity
  8
寸法
 62
     0
 48
50.0
370
    -2
100
AcDbBlockReference
  2
_DOTSMALL
 10
4903.246562932154
 20
7667.619282144449
 30
0.0
 41
75.0
 42
75.0
 43
75.0
  0
MTEXT
  5
141E0
330
1390F
100
AcDbEntity
  8
寸法
 62
     7
 48
50.0
100
AcDbMText
 10
3698.246562932155
 20
7742.628140412165
 30
0.0
 40
90.0
 41
0.0
 71
     5
 72
     1
  1
\A1;2410
  7
STYLE1
 73
     1
 44
1.0
1001
ACAD
1000
MTEXTBEGIN
1070
    73
1070
     1
1070
    44
1040
1.0
1070
    74
1070
     0
1000
MTEXTEND
  0
POINT
  5
141E1
330
1390F
100
AcDbEntity
  8
DEFPOINTS
 62
     0
 48
50.0
100
AcDbPoint
 10
2493.246562932154
 20
6465.166988013343
 30
0.0
  0
POINT
  5
141E2
330
1390F
100
AcDbEntity
  8
DEFPOINTS
 62
     0
 48
50.0
100
AcDbPoint
 10
4903.246562932154
 20
6903.712005384263
 30
0.0
  0
POINT
  5
141E3
330
1390F
100
AcDbEntity
  8
DEFPOINTS
 62
     0
 48
50.0
100
AcDbPoint
 10
4903.246562932154
 20
7667.619282144449
 30
0.0
  0
ENDBLK
  5
13C48
330
1390F
100
AcDbEntity
  8
0
 48
50.0
100
AcDbBlockEnd
  0
BLOCK
  5
13B1E
330
1391B
100
AcDbEntity
  8
0
 48
50.0
100
AcDbBlockBegin
  2
*D9
 70
     1
 10
0.0
 20
0.0
 30
0.0
  3
*D9
  1

  0
LINE
  5
141D2
330
1391B
100
AcDbEntity
  8
寸法
 62
     0
 48
50.0
370
    -2
100
AcDbLine
 10
4538.246562932154
 20
6565.166988013342
 30
0.0
 11
4330.932059647975
 21
6565.166988013342
 31
0.0
  0
LINE
  5
141D3
330
1391B
100
AcDbEntity
  8
寸法
 62
     0
 48
50.0
370
    -2
100
AcDbLine
 10
4538.246562932154
 20
5865.166988013343
 30
0.0
 11
4330.932059647973
 21
5865.166988013343
 31
0.0
  0
LINE
  5
141D4
330
1391B
100
AcDbEntity
  8
寸法
 62
     0
 48
50.0
370
    -2
100
AcDbLine
 10
4375.932059647975
 20
6565.166988013342
 30
0.0
 11
4375.932059647974
 21
5865.166988013343
 31
0.0
  0
INSERT
  5
141D5
330
1391B
100
AcDbEntity
  8
寸法
 62
     0
 48
50.0
370
    -2
100
AcDbBlockReference
  2
_DOTSMALL
 10
4375.932059647975
 20
6565.166988013342
 30
0.0
 41
75.0
 42
75.0
 43
75.0
 50
90.0
  0
INSERT
  5
141D6
330
1391B
100
AcDbEntity
  8
寸法
 62
     0
 48
50.0
370
    -2
100
AcDbBlockReference
  2
_DOTSMALL
 10
4375.932059647974
 20
5865.166988013343
 30
0.0
 41
75.0
 42
75.0
 43
75.0
 50
270.0
  0
MTEXT
  5
141D7
330
1391B
100
AcDbEntity
  8
寸法
 62
     7
 48
50.0
100
AcDbMText
 10
4300.932059647973
 20
6215.166988013343
 30
0.0
 40
90.0
 41
0.0
 71
     5
 72
     1
  1
\A1;700
  7
STYLE1
 11
0.0000000000000001
 21
1.0
 31
0.0
 73
     1
 44
1.0
1001
ACAD
1000
MTEXTBEGIN
1070
    73
1070
     1
1070
    44
1040
1.0
1070
    74
1070
     0
1000
MTEXTEND
  0
POINT
  5
141D8
330
1391B
100
AcDbEntity
  8
DEFPOINTS
 62
     0
 48
50.0
100
AcDbPoint
 10
4553.246562932154
 20
6565.166988013342
 30
0.0
  0
POINT
  5
141D9
330
1391B
100
AcDbEntity
  8
DEFPOINTS
 62
     0
 48
50.0
100
AcDbPoint
 10
4553.246562932154
 20
5865.166988013343
 30
0.0
  0
POINT
  5
141DA
330
1391B
100
AcDbEntity
  8
DEFPOINTS
 62
     0
 48
50.0
100
AcDbPoint
 10
4375.932059647974
 20
5865.166988013343
 30
0.0
  0
ENDBLK
  5
13B28
330
1391B
100
AcDbEntity
  8
0
 48
50.0
100
AcDbBlockEnd
  0
BLOCK
  5
13B29
330
13927
100
AcDbEntity
  8
0
 48
50.0
100
AcDbBlockBegin
  2
*D10
 70
     1
 10
0.0
 20
0.0
 30
0.0
  3
*D10
  1

  0
LINE
  5
141C9
330
13927
100
AcDbEntity
  8
寸法
 62
     0
 48
50.0
370
    -2
100
AcDbLine
 10
5168.246562932154
 20
7215.166988013343
 30
0.0
 11
5680.520785295769
 21
7215.166988013343
 31
0.0
  0
LINE
  5
141CA
330
13927
100
AcDbEntity
  8
寸法
 62
     0
 48
50.0
370
    -2
100
AcDbLine
 10
5168.246562932154
 20
5215.166988013343
 30
0.0
 11
5680.520785295769
 21
5215.166988013343
 31
0.0
  0
LINE
  5
141CB
330
13927
100
AcDbEntity
  8
寸法
 62
     0
 48
50.0
370
    -2
100
AcDbLine
 10
5635.520785295769
 20
7215.166988013343
 30
0.0
 11
5635.520785295768
 21
5215.166988013343
 31
0.0
  0
INSERT
  5
141CC
330
13927
100
AcDbEntity
  8
寸法
 62
     0
 48
50.0
370
    -2
100
AcDbBlockReference
  2
_DOTSMALL
 10
5635.520785295769
 20
7215.166988013343
 30
0.0
 41
75.0
 42
75.0
 43
75.0
 50
90.0
  0
INSERT
  5
141CD
330
13927
100
AcDbEntity
  8
寸法
 62
     0
 48
50.0
370
    -2
100
AcDbBlockReference
  2
_DOTSMALL
 10
5635.520785295768
 20
5215.166988013343
 30
0.0
 41
75.0
 42
75.0
 43
75.0
 50
270.0
  0
MTEXT
  5
141CE
330
13927
100
AcDbEntity
  8
寸法
 62
     7
 48
50.0
100
AcDbMText
 10
5560.511927028051
 20
6215.166988013343
 30
0.0
 40
90.0
 41
0.0
 71
     5
 72
     1
  1
\A1;屋根寸法 2000
  7
STYLE1
 11
0.0000000000000001
 21
1.0
 31
0.0
 73
     1
 44
1.0
1001
ACAD
1000
MTEXTBEGIN
1070
    73
1070
     1
1070
    44
1040
1.0
1070
    74
1070
     0
1000
MTEXTEND
  0
POINT
  5
141CF
330
13927
100
AcDbEntity
  8
DEFPOINTS
 62
     0
 48
50.0
100
AcDbPoint
 10
5153.246562932154
 20
7215.166988013343
 30
0.0
  0
POINT
  5
141D0
330
13927
100
AcDbEntity
  8
DEFPOINTS
 62
     0
 48
50.0
100
AcDbPoint
 10
5153.246562932154
 20
5215.166988013343
 30
0.0
  0
POINT
  5
141D1
330
13927
100
AcDbEntity
  8
DEFPOINTS
 62
     0
 48
50.0
100
AcDbPoint
 10
5635.520785295768
 20
5215.166988013343
 30
0.0
  0
ENDBLK
  5
13B33
330
13927
100
AcDbEntity
  8
0
 48
50.0
100
AcDbBlockEnd
  0
BLOCK
  5
13B34
330
13933
100
AcDbEntity
  8
0
 48
50.0
100
AcDbBlockBegin
  2
*D11
 70
     1
 10
0.0
 20
0.0
 30
0.0
  3
*D11
  1

  0
LINE
  5
141BE
330
13933
100
AcDbEntity
  8
寸法
 62
     0
 48
50.0
370
    -2
100
AcDbLine
 10
5003.246562932154
 20
6025.166988013343
 30
0.0
 11
5003.246562932154
 21
5600.645704700539
 31
0.0
  0
LINE
  5
141BF
330
13933
100
AcDbEntity
  8
寸法
 62
     0
 48
50.0
370
    -2
100
AcDbLine
 10
4803.246562932154
 20
6025.166988013343
 30
0.0
 11
4803.246562932154
 21
5600.645704700539
 31
0.0
  0
LINE
  5
141C0
330
13933
100
AcDbEntity
  8
寸法
 62
     0
 48
50.0
370
    -2
100
AcDbLine
 10
5003.246562932154
 20
5645.645704700538
 30
0.0
 11
5078.246562932154
 21
5645.645704700538
 31
0.0
  0
LINE
  5
141C1
330
13933
100
AcDbEntity
  8
寸法
 62
     0
 48
50.0
370
    -2
100
AcDbLine
 10
4803.246562932154
 20
5645.645704700538
 30
0.0
 11
4728.246562932154
 21
5645.645704700538
 31
0.0
  0
LINE
  5
141C2
330
13933
100
AcDbEntity
  8
寸法
 62
     0
 48
50.0
370
    -2
100
AcDbLine
 10
5003.246562932154
 20
5645.645704700538
 30
0.0
 11
4803.246562932154
 21
5645.645704700538
 31
0.0
  0
INSERT
  5
141C3
330
13933
100
AcDbEntity
  8
寸法
 62
     0
 48
50.0
370
    -2
100
AcDbBlockReference
  2
_DOTSMALL
 10
5003.246562932154
 20
5645.645704700538
 30
0.0
 41
75.0
 42
75.0
 43
75.0
 50
180.0
  0
INSERT
  5
141C4
330
13933
100
AcDbEntity
  8
寸法
 62
     0
 48
50.0
370
    -2
100
AcDbBlockReference
  2
_DOTSMALL
 10
4803.246562932154
 20
5645.645704700538
 30
0.0
 41
75.0
 42
75.0
 43
75.0
  0
MTEXT
  5
141C5
330
13933
100
AcDbEntity
  8
寸法
 62
     7
 48
50.0
100
AcDbMText
 10
4903.246562932154
 20
5720.654562968255
 30
0.0
 40
90.0
 41
0.0
 71
     5
 72
     1
  1
\A1;200
  7
STYLE1
 73
     1
 44
1.0
1001
ACAD
1000
MTEXTBEGIN
1070
    73
1070
     1
1070
    44
1040
1.0
1070
    74
1070
     0
1000
MTEXTEND
  0
POINT
  5
141C6
330
13933
100
AcDbEntity
  8
DEFPOINTS
 62
     0
 48
50.0
100
AcDbPoint
 10
5003.246562932154
 20
6040.166988013343
 30
0.0
  0
POINT
  5
141C7
330
13933
100
AcDbEntity
  8
DEFPOINTS
 62
     0
 48
50.0
100
AcDbPoint
 10
4803.246562932154
 20
6040.166988013343
 30
0.0
  0
POINT
  5
141C8
330
13933
100
AcDbEntity
  8
DEFPOINTS
 62
     0
 48
50.0
100
AcDbPoint
 10
4803.246562932154
 20
5645.645704700538
 30
0.0
  0
ENDBLK
  5
13B40
330
13933
100
AcDbEntity
  8
0
 48
50.0
100
AcDbBlockEnd
  0
BLOCK
  5
13B41
330
13941
100
AcDbEntity
  8
0
 48
50.0
100
AcDbBlockBegin
  2
*D12
 70
     1
 10
0.0
 20
0.0
 30
0.0
  3
*D12
  1

  0
LINE
  5
141B3
330
13941
100
AcDbEntity
  8
寸法
 62
     0
 48
50.0
370
    -2
100
AcDbLine
 10
5093.246562932154
 20
6115.166988013343
 30
0.0
 11
5459.833990069724
 21
6115.166988013343
 31
0.0
  0
LINE
  5
141B4
330
13941
100
AcDbEntity
  8
寸法
 62
     0
 48
50.0
370
    -2
100
AcDbLine
 10
5093.246562932154
 20
6315.166988013343
 30
0.0
 11
5459.833990069725
 21
6315.166988013343
 31
0.0
  0
LINE
  5
141B5
330
13941
100
AcDbEntity
  8
寸法
 62
     0
 48
50.0
370
    -2
100
AcDbLine
 10
5414.833990069723
 20
6115.166988013343
 30
0.0
 11
5414.833990069723
 21
6040.166988013343
 31
0.0
  0
LINE
  5
141B6
330
13941
100
AcDbEntity
  8
寸法
 62
     0
 48
50.0
370
    -2
100
AcDbLine
 10
5414.833990069724
 20
6315.166988013343
 30
0.0
 11
5414.833990069724
 21
6390.166988013343
 31
0.0
  0
LINE
  5
141B7
330
13941
100
AcDbEntity
  8
寸法
 62
     0
 48
50.0
370
    -2
100
AcDbLine
 10
5414.833990069723
 20
6115.166988013343
 30
0.0
 11
5414.833990069724
 21
6315.166988013343
 31
0.0
  0
INSERT
  5
141B8
330
13941
100
AcDbEntity
  8
寸法
 62
     0
 48
50.0
370
    -2
100
AcDbBlockReference
  2
_DOTSMALL
 10
5414.833990069723
 20
6115.166988013343
 30
0.0
 41
75.0
 42
75.0
 43
75.0
 50
90.0
  0
INSERT
  5
141B9
330
13941
100
AcDbEntity
  8
寸法
 62
     0
 48
50.0
370
    -2
100
AcDbBlockReference
  2
_DOTSMALL
 10
5414.833990069724
 20
6315.166988013343
 30
0.0
 41
75.0
 42
75.0
 43
75.0
 50
270.0
  0
MTEXT
  5
141BA
330
13941
100
AcDbEntity
  8
寸法
 62
     7
 48
50.0
100
AcDbMText
 10
5339.825131802006
 20
6215.166988013343
 30
0.0
 40
90.0
 41
0.0
 71
     5
 72
     1
  1
\A1;200
  7
STYLE1
 11
0.0000000000000001
 21
1.0
 31
0.0
 73
     1
 44
1.0
1001
ACAD
1000
MTEXTBEGIN
1070
    73
1070
     1
1070
    44
1040
1.0
1070
    74
1070
     0
1000
MTEXTEND
  0
POINT
  5
141BB
330
13941
100
AcDbEntity
  8
DEFPOINTS
 62
     0
 48
50.0
100
AcDbPoint
 10
5078.246562932154
 20
6115.166988013343
 30
0.0
  0
POINT
  5
141BC
330
13941
100
AcDbEntity
  8
DEFPOINTS
 62
     0
 48
50.0
100
AcDbPoint
 10
5078.246562932154
 20
6315.166988013343
 30
0.0
  0
POINT
  5
141BD
330
13941
100
AcDbEntity
  8
DEFPOINTS
 62
     0
 48
50.0
100
AcDbPoint
 10
5414.833990069724
 20
6315.166988013343
 30
0.0
  0
ENDBLK
  5
13B4D
330
13941
100
AcDbEntity
  8
0
 48
50.0
100
AcDbBlockEnd
  0
BLOCK
  5
13B4E
330
1394F
100
AcDbEntity
  8
0
 48
50.0
100
AcDbBlockBegin
  2
*D13
 70
     1
 10
0.0
 20
0.0
 30
0.0
  3
*D13
  1

  0
LINE
  5
141AA
330
1394F
100
AcDbEntity
  8
寸法
 62
     0
 48
50.0
370
    -2
100
AcDbLine
 10
4553.246562932154
 20
6580.166988013343
 30
0.0
 11
4553.246562932154
 21
6807.956349313339
 31
0.0
  0
LINE
  5
141AB
330
1394F
100
AcDbEntity
  8
寸法
 62
     0
 48
50.0
370
    -2
100
AcDbLine
 10
5253.246562932154
 20
6580.166988013343
 30
0.0
 11
5253.246562932154
 21
6807.956349313339
 31
0.0
  0
LINE
  5
141AC
330
1394F
100
AcDbEntity
  8
寸法
 62
     0
 48
50.0
370
    -2
100
AcDbLine
 10
4553.246562932154
 20
6762.956349313339
 30
0.0
 11
5253.246562932154
 21
6762.956349313339
 31
0.0
  0
INSERT
  5
141AD
330
1394F
100
AcDbEntity
  8
寸法
 62
     0
 48
50.0
370
    -2
100
AcDbBlockReference
  2
_DOTSMALL
 10
4553.246562932154
 20
6762.956349313339
 30
0.0
 41
75.0
 42
75.0
 43
75.0
 50
180.0
  0
INSERT
  5
141AE
330
1394F
100
AcDbEntity
  8
寸法
 62
     0
 48
50.0
370
    -2
100
AcDbBlockReference
  2
_DOTSMALL
 10
5253.246562932154
 20
6762.956349313339
 30
0.0
 41
75.0
 42
75.0
 43
75.0
  0
MTEXT
  5
141AF
330
1394F
100
AcDbEntity
  8
寸法
 62
     7
 48
50.0
100
AcDbMText
 10
4903.246562932154
 20
6837.956349313339
 30
0.0
 40
90.0
 41
0.0
 71
     5
 72
     1
  1
\A1;700
  7
STYLE1
 73
     1
 44
1.0
1001
ACAD
1000
MTEXTBEGIN
1070
    73
1070
     1
1070
    44
1040
1.0
1070
    74
1070
     0
1000
MTEXTEND
  0
POINT
  5
141B0
330
1394F
100
AcDbEntity
  8
DEFPOINTS
 62
     0
 48
50.0
100
AcDbPoint
 10
4553.246562932154
 20
6565.166988013342
 30
0.0
  0
POINT
  5
141B1
330
1394F
100
AcDbEntity
  8
DEFPOINTS
 62
     0
 48
50.0
100
AcDbPoint
 10
5253.246562932154
 20
6565.166988013342
 30
0.0
  0
POINT
  5
141B2
330
1394F
100
AcDbEntity
  8
DEFPOINTS
 62
     0
 48
50.0
100
AcDbPoint
 10
5253.246562932154
 20
6762.956349313339
 30
0.0
  0
ENDBLK
  5
13B58
330
1394F
100
AcDbEntity
  8
0
 48
50.0
100
AcDbBlockEnd
  0
BLOCK
  5
13C6F
330
1395B
100
AcDbEntity
  8
0
 48
50.0
100
AcDbBlockBegin
  2
*D14
 70
     1
 10
0.0
 20
0.0
 30
0.0
  3
*D14
  1

  0
LINE
  5
141A1
330
1395B
100
AcDbEntity
  8
寸法
 62
     0
 48
50.0
370
    -2
100
AcDbLine
 10
2243.246562932154
 20
1254.768007716478
 30
0.0
 11
2243.246562932154
 21
834.9963031197694
 31
0.0
  0
LINE
  5
141A2
330
1395B
100
AcDbEntity
  8
寸法
 62
     0
 48
50.0
370
    -2
100
AcDbLine
 10
5153.246562932154
 20
1254.768007716478
 30
0.0
 11
5153.246562932154
 21
834.9963031197694
 31
0.0
  0
LINE
  5
141A3
330
1395B
100
AcDbEntity
  8
寸法
 62
     0
 48
50.0
370
    -2
100
AcDbLine
 10
2243.246562932154
 20
879.9963031197695
 30
0.0
 11
5153.246562932154
 21
879.9963031197695
 31
0.0
  0
INSERT
  5
141A4
330
1395B
100
AcDbEntity
  8
寸法
 62
     0
 48
50.0
370
    -2
100
AcDbBlockReference
  2
_DOTSMALL
 10
2243.246562932154
 20
879.9963031197695
 30
0.0
 41
75.0
 42
75.0
 43
75.0
 50
180.0
  0
INSERT
  5
141A5
330
1395B
100
AcDbEntity
  8
寸法
 62
     0
 48
50.0
370
    -2
100
AcDbBlockReference
  2
_DOTSMALL
 10
5153.246562932154
 20
879.9963031197695
 30
0.0
 41
75.0
 42
75.0
 43
75.0
  0
MTEXT
  5
141A6
330
1395B
100
AcDbEntity
  8
寸法
 62
     7
 48
50.0
100
AcDbMText
 10
3698.246562932155
 20
955.005161387486
 30
0.0
 40
90.0
 41
0.0
 71
     5
 72
     1
  1
\A1;屋根寸法 2910
  7
STYLE1
 73
     1
 44
1.0
1001
ACAD
1000
MTEXTBEGIN
1070
    73
1070
     1
1070
    44
1040
1.0
1070
    74
1070
     0
1000
MTEXTEND
  0
POINT
  5
141A7
330
1395B
100
AcDbEntity
  8
DEFPOINTS
 62
     0
 48
50.0
100
AcDbPoint
 10
2243.246562932154
 20
1269.768007716479
 30
0.0
  0
POINT
  5
141A8
330
1395B
100
AcDbEntity
  8
DEFPOINTS
 62
     0
 48
50.0
100
AcDbPoint
 10
5153.246562932154
 20
1269.768007716479
 30
0.0
  0
POINT
  5
141A9
330
1395B
100
AcDbEntity
  8
DEFPOINTS
 62
     0
 48
50.0
100
AcDbPoint
 10
5153.246562932154
 20
879.9963031197695
 30
0.0
  0
ENDBLK
  5
13C79
330
1395B
100
AcDbEntity
  8
0
 48
50.0
100
AcDbBlockEnd
  0
BLOCK
  5
13B64
330
13967
100
AcDbEntity
  8
0
 48
50.0
100
AcDbBlockBegin
  2
*D15
 70
     1
 10
0.0
 20
0.0
 30
0.0
  3
*D15
  1

  0
LINE
  5
14198
330
13967
100
AcDbEntity
  8
寸法
 62
     0
 48
50.0
370
    -2
100
AcDbLine
 10
2243.246562932154
 20
3284.768007716479
 30
0.0
 11
2243.246562932154
 21
3767.220301847585
 31
0.0
  0
LINE
  5
14199
330
13967
100
AcDbEntity
  8
寸法
 62
     0
 48
50.0
370
    -2
100
AcDbLine
 10
2493.246562932154
 20
3534.768007716477
 30
0.0
 11
2493.246562932154
 21
3767.220301847585
 31
0.0
  0
LINE
  5
1419A
330
13967
100
AcDbEntity
  8
寸法
 62
     0
 48
50.0
370
    -2
100
AcDbLine
 10
2243.246562932154
 20
3722.220301847585
 30
0.0
 11
2493.246562932154
 21
3722.220301847585
 31
0.0
  0
INSERT
  5
1419B
330
13967
100
AcDbEntity
  8
寸法
 62
     0
 48
50.0
370
    -2
100
AcDbBlockReference
  2
_DOTSMALL
 10
2243.246562932154
 20
3722.220301847585
 30
0.0
 41
75.0
 42
75.0
 43
75.0
 50
180.0
  0
INSERT
  5
1419C
330
13967
100
AcDbEntity
  8
寸法
 62
     0
 48
50.0
370
    -2
100
AcDbBlockReference
  2
_DOTSMALL
 10
2493.246562932154
 20
3722.220301847585
 30
0.0
 41
75.0
 42
75.0
 43
75.0
  0
MTEXT
  5
1419D
330
13967
100
AcDbEntity
  8
寸法
 62
     7
 48
50.0
100
AcDbMText
 10
2368.246562932154
 20
3797.229160115302
 30
0.0
 40
90.0
 41
0.0
 71
     5
 72
     1
  1
\A1;250
  7
STYLE1
 73
     1
 44
1.0
1001
ACAD
1000
MTEXTBEGIN
1070
    73
1070
     1
1070
    44
1040
1.0
1070
    74
1070
     0
1000
MTEXTEND
  0
POINT
  5
1419E
330
13967
100
AcDbEntity
  8
DEFPOINTS
 62
     0
 48
50.0
100
AcDbPoint
 10
2243.246562932154
 20
3269.768007716479
 30
0.0
  0
POINT
  5
1419F
330
13967
100
AcDbEntity
  8
DEFPOINTS
 62
     0
 48
50.0
100
AcDbPoint
 10
2493.246562932154
 20
3519.768007716477
 30
0.0
  0
POINT
  5
141A0
330
13967
100
AcDbEntity
  8
DEFPOINTS
 62
     0
 48
50.0
100
AcDbPoint
 10
2493.246562932154
 20
3722.220301847585
 30
0.0
  0
ENDBLK
  5
13B6E
330
13967
100
AcDbEntity
  8
0
 48
50.0
100
AcDbBlockEnd
  0
BLOCK
  5
13C54
330
13973
100
AcDbEntity
  8
0
 48
50.0
100
AcDbBlockBegin
  2
*D16
 70
     1
 10
0.0
 20
0.0
 30
0.0
  3
*D16
  1

  0
LINE
  5
1418F
330
13973
100
AcDbEntity
  8
寸法
 62
     0
 48
50.0
370
    -2
100
AcDbLine
 10
2243.246562932154
 20
3284.768007716479
 30
0.0
 11
2243.246562932154
 21
3961.257340821904
 31
0.0
  0
LINE
  5
14190
330
13973
100
AcDbEntity
  8
寸法
 62
     0
 48
50.0
370
    -2
100
AcDbLine
 10
5153.246562932154
 20
3284.768007716479
 30
0.0
 11
5153.246562932154
 21
3961.257340821904
 31
0.0
  0
LINE
  5
14191
330
13973
100
AcDbEntity
  8
寸法
 62
     0
 48
50.0
370
    -2
100
AcDbLine
 10
2243.246562932154
 20
3916.257340821903
 30
0.0
 11
5153.246562932154
 21
3916.257340821903
 31
0.0
  0
INSERT
  5
14192
330
13973
100
AcDbEntity
  8
寸法
 62
     0
 48
50.0
370
    -2
100
AcDbBlockReference
  2
_DOTSMALL
 10
2243.246562932154
 20
3916.257340821903
 30
0.0
 41
75.0
 42
75.0
 43
75.0
 50
180.0
  0
INSERT
  5
14193
330
13973
100
AcDbEntity
  8
寸法
 62
     0
 48
50.0
370
    -2
100
AcDbBlockReference
  2
_DOTSMALL
 10
5153.246562932154
 20
3916.257340821903
 30
0.0
 41
75.0
 42
75.0
 43
75.0
  0
MTEXT
  5
14194
330
13973
100
AcDbEntity
  8
寸法
 62
     7
 48
50.0
100
AcDbMText
 10
3698.246562932155
 20
3991.26619908962
 30
0.0
 40
90.0
 41
0.0
 71
     5
 72
     1
  1
\A1;基礎寸法 2910
  7
STYLE1
 73
     1
 44
1.0
1001
ACAD
1000
MTEXTBEGIN
1070
    73
1070
     1
1070
    44
1040
1.0
1070
    74
1070
     0
1000
MTEXTEND
  0
POINT
  5
14195
330
13973
100
AcDbEntity
  8
DEFPOINTS
 62
     0
 48
50.0
100
AcDbPoint
 10
2243.246562932154
 20
3269.768007716479
 30
0.0
  0
POINT
  5
14196
330
13973
100
AcDbEntity
  8
DEFPOINTS
 62
     0
 48
50.0
100
AcDbPoint
 10
5153.246562932154
 20
3269.768007716479
 30
0.0
  0
POINT
  5
14197
330
13973
100
AcDbEntity
  8
DEFPOINTS
 62
     0
 48
50.0
100
AcDbPoint
 10
5153.246562932154
 20
3916.257340821903
 30
0.0
  0
ENDBLK
  5
13C5E
330
13973
100
AcDbEntity
  8
0
 48
50.0
100
AcDbBlockEnd
  0
BLOCK
  5
13B7A
330
1397F
100
AcDbEntity
  8
0
 48
50.0
100
AcDbBlockBegin
  2
*D17
 70
     1
 10
0.0
 20
0.0
 30
0.0
  3
*D17
  1

  0
LINE
  5
14186
330
1397F
100
AcDbEntity
  8
寸法
 62
     0
 48
50.0
370
    -2
100
AcDbLine
 10
2153.246562932154
 20
2269.768007716479
 30
0.0
 11
1757.213196604587
 21
2269.768007716479
 31
0.0
  0
LINE
  5
14187
330
1397F
100
AcDbEntity
  8
寸法
 62
     0
 48
50.0
370
    -2
100
AcDbLine
 10
2228.246562932154
 20
1269.768007716479
 30
0.0
 11
1757.213196604587
 21
1269.768007716479
 31
0.0
  0
LINE
  5
14188
330
1397F
100
AcDbEntity
  8
寸法
 62
     0
 48
50.0
370
    -2
100
AcDbLine
 10
1802.213196604587
 20
2269.768007716479
 30
0.0
 11
1802.213196604587
 21
1269.768007716479
 31
0.0
  0
INSERT
  5
14189
330
1397F
100
AcDbEntity
  8
寸法
 62
     0
 48
50.0
370
    -2
100
AcDbBlockReference
  2
_DOTSMALL
 10
1802.213196604587
 20
2269.768007716479
 30
0.0
 41
75.0
 42
75.0
 43
75.0
 50
90.0
  0
INSERT
  5
1418A
330
1397F
100
AcDbEntity
  8
寸法
 62
     0
 48
50.0
370
    -2
100
AcDbBlockReference
  2
_DOTSMALL
 10
1802.213196604587
 20
1269.768007716479
 30
0.0
 41
75.0
 42
75.0
 43
75.0
 50
270.0
  0
MTEXT
  5
1418B
330
1397F
100
AcDbEntity
  8
寸法
 62
     7
 48
50.0
100
AcDbMText
 10
1727.213196604587
 20
1769.768007716479
 30
0.0
 40
90.0
 41
0.0
 71
     5
 72
     1
  1
\A1;1000
  7
STYLE1
 11
0.0000000000000001
 21
1.0
 31
0.0
 73
     1
 44
1.0
1001
ACAD
1000
MTEXTBEGIN
1070
    73
1070
     1
1070
    44
1040
1.0
1070
    74
1070
     0
1000
MTEXTEND
  0
POINT
  5
1418C
330
1397F
100
AcDbEntity
  8
DEFPOINTS
 62
     0
 48
50.0
100
AcDbPoint
 10
2168.246562932154
 20
2269.768007716479
 30
0.0
  0
POINT
  5
1418D
330
1397F
100
AcDbEntity
  8
DEFPOINTS
 62
     0
 48
50.0
100
AcDbPoint
 10
2243.246562932154
 20
1269.768007716479
 30
0.0
  0
POINT
  5
1418E
330
1397F
100
AcDbEntity
  8
DEFPOINTS
 62
     0
 48
50.0
100
AcDbPoint
 10
1802.213196604587
 20
1269.768007716479
 30
0.0
  0
ENDBLK
  5
13B84
330
1397F
100
AcDbEntity
  8
0
 48
50.0
100
AcDbBlockEnd
  0
BLOCK
  5
13B85
330
1398B
100
AcDbEntity
  8
0
 48
50.0
100
AcDbBlockBegin
  2
*D18
 70
     1
 10
0.0
 20
0.0
 30
0.0
  3
*D18
  1

  0
LINE
  5
1417D
330
1398B
100
AcDbEntity
  8
寸法
 62
     0
 48
50.0
370
    -2
100
AcDbLine
 10
2228.246562932154
 20
3269.768007716479
 30
0.0
 11
1534.625364204463
 21
3269.768007716479
 31
0.0
  0
LINE
  5
1417E
330
1398B
100
AcDbEntity
  8
寸法
 62
     0
 48
50.0
370
    -2
100
AcDbLine
 10
2228.246562932154
 20
1269.768007716479
 30
0.0
 11
1534.625364204463
 21
1269.768007716479
 31
0.0
  0
LINE
  5
1417F
330
1398B
100
AcDbEntity
  8
寸法
 62
     0
 48
50.0
370
    -2
100
AcDbLine
 10
1579.625364204463
 20
3269.768007716479
 30
0.0
 11
1579.625364204463
 21
1269.768007716479
 31
0.0
  0
INSERT
  5
14180
330
1398B
100
AcDbEntity
  8
寸法
 62
     0
 48
50.0
370
    -2
100
AcDbBlockReference
  2
_DOTSMALL
 10
1579.625364204463
 20
3269.768007716479
 30
0.0
 41
75.0
 42
75.0
 43
75.0
 50
90.0
  0
INSERT
  5
14181
330
1398B
100
AcDbEntity
  8
寸法
 62
     0
 48
50.0
370
    -2
100
AcDbBlockReference
  2
_DOTSMALL
 10
1579.625364204463
 20
1269.768007716479
 30
0.0
 41
75.0
 42
75.0
 43
75.0
 50
270.0
  0
MTEXT
  5
14182
330
1398B
100
AcDbEntity
  8
寸法
 62
     7
 48
50.0
100
AcDbMText
 10
1504.616505936746
 20
2269.768007716479
 30
0.0
 40
90.0
 41
0.0
 71
     5
 72
     1
  1
\A1;基礎寸法 2000
  7
STYLE1
 11
0.0000000000000001
 21
1.0
 31
0.0
 73
     1
 44
1.0
1001
ACAD
1000
MTEXTBEGIN
1070
    73
1070
     1
1070
    44
1040
1.0
1070
    74
1070
     0
1000
MTEXTEND
  0
POINT
  5
14183
330
1398B
100
AcDbEntity
  8
DEFPOINTS
 62
     0
 48
50.0
100
AcDbPoint
 10
2243.246562932154
 20
3269.768007716479
 30
0.0
  0
POINT
  5
14184
330
1398B
100
AcDbEntity
  8
DEFPOINTS
 62
     0
 48
50.0
100
AcDbPoint
 10
2243.246562932154
 20
1269.768007716479
 30
0.0
  0
POINT
  5
14185
330
1398B
100
AcDbEntity
  8
DEFPOINTS
 62
     0
 48
50.0
100
AcDbPoint
 10
1579.625364204463
 20
1269.768007716479
 30
0.0
  0
ENDBLK
  5
13B8F
330
1398B
100
AcDbEntity
  8
0
 48
50.0
100
AcDbBlockEnd
  0
BLOCK
  5
13B90
330
13997
100
AcDbEntity
  8
0
 48
50.0
100
AcDbBlockBegin
  2
*D19
 70
     1
 10
0.0
 20
0.0
 30
0.0
  3
*D19
  1

  0
LINE
  5
14174
330
13997
100
AcDbEntity
  8
寸法
 62
     0
 48
50.0
370
    -2
100
AcDbLine
 10
2228.246562932154
 20
3269.768007716479
 30
0.0
 11
1757.374726220924
 21
3269.768007716479
 31
0.0
  0
LINE
  5
14175
330
13997
100
AcDbEntity
  8
寸法
 62
     0
 48
50.0
370
    -2
100
AcDbLine
 10
2153.246562932154
 20
2269.768007716479
 30
0.0
 11
1757.374726220923
 21
2269.768007716479
 31
0.0
  0
LINE
  5
14176
330
13997
100
AcDbEntity
  8
寸法
 62
     0
 48
50.0
370
    -2
100
AcDbLine
 10
1802.374726220923
 20
3269.768007716479
 30
0.0
 11
1802.374726220923
 21
2269.768007716479
 31
0.0
  0
INSERT
  5
14177
330
13997
100
AcDbEntity
  8
寸法
 62
     0
 48
50.0
370
    -2
100
AcDbBlockReference
  2
_DOTSMALL
 10
1802.374726220923
 20
3269.768007716479
 30
0.0
 41
75.0
 42
75.0
 43
75.0
 50
90.0
  0
INSERT
  5
14178
330
13997
100
AcDbEntity
  8
寸法
 62
     0
 48
50.0
370
    -2
100
AcDbBlockReference
  2
_DOTSMALL
 10
1802.374726220923
 20
2269.768007716479
 30
0.0
 41
75.0
 42
75.0
 43
75.0
 50
270.0
  0
MTEXT
  5
14179
330
13997
100
AcDbEntity
  8
寸法
 62
     7
 48
50.0
100
AcDbMText
 10
1727.374726220923
 20
2769.768007716479
 30
0.0
 40
90.0
 41
0.0
 71
     5
 72
     1
  1
\A1;1000
  7
STYLE1
 11
0.0000000000000001
 21
1.0
 31
0.0
 73
     1
 44
1.0
1001
ACAD
1000
MTEXTBEGIN
1070
    73
1070
     1
1070
    44
1040
1.0
1070
    74
1070
     0
1000
MTEXTEND
  0
POINT
  5
1417A
330
13997
100
AcDbEntity
  8
DEFPOINTS
 62
     0
 48
50.0
100
AcDbPoint
 10
2243.246562932154
 20
3269.768007716479
 30
0.0
  0
POINT
  5
1417B
330
13997
100
AcDbEntity
  8
DEFPOINTS
 62
     0
 48
50.0
100
AcDbPoint
 10
2168.246562932154
 20
2269.768007716479
 30
0.0
  0
POINT
  5
1417C
330
13997
100
AcDbEntity
  8
DEFPOINTS
 62
     0
 48
50.0
100
AcDbPoint
 10
1802.374726220923
 20
2269.768007716479
 30
0.0
  0
ENDBLK
  5
13B9A
330
13997
100
AcDbEntity
  8
0
 48
50.0
100
AcDbBlockEnd
  0
BLOCK
  5
13B9B
330
139A3
100
AcDbEntity
  8
0
 48
50.0
100
AcDbBlockBegin
  2
*D20
 70
     1
 10
0.0
 20
0.0
 30
0.0
  3
*D20
  1

  0
LINE
  5
1416B
330
139A3
100
AcDbEntity
  8
寸法
 62
     0
 48
50.0
370
    -2
100
AcDbLine
 10
5168.246562932154
 20
3269.768007716479
 30
0.0
 11
5680.520785295769
 21
3269.768007716479
 31
0.0
  0
LINE
  5
1416C
330
139A3
100
AcDbEntity
  8
寸法
 62
     0
 48
50.0
370
    -2
100
AcDbLine
 10
5168.246562932154
 20
1269.768007716479
 30
0.0
 11
5680.520785295769
 21
1269.768007716478
 31
0.0
  0
LINE
  5
1416D
330
139A3
100
AcDbEntity
  8
寸法
 62
     0
 48
50.0
370
    -2
100
AcDbLine
 10
5635.520785295769
 20
3269.768007716479
 30
0.0
 11
5635.520785295768
 21
1269.768007716478
 31
0.0
  0
INSERT
  5
1416E
330
139A3
100
AcDbEntity
  8
寸法
 62
     0
 48
50.0
370
    -2
100
AcDbBlockReference
  2
_DOTSMALL
 10
5635.520785295769
 20
3269.768007716479
 30
0.0
 41
75.0
 42
75.0
 43
75.0
 50
90.0
  0
INSERT
  5
1416F
330
139A3
100
AcDbEntity
  8
寸法
 62
     0
 48
50.0
370
    -2
100
AcDbBlockReference
  2
_DOTSMALL
 10
5635.520785295768
 20
1269.768007716478
 30
0.0
 41
75.0
 42
75.0
 43
75.0
 50
270.0
  0
MTEXT
  5
14170
330
139A3
100
AcDbEntity
  8
寸法
 62
     7
 48
50.0
100
AcDbMText
 10
5560.511927028052
 20
2269.76800771648
 30
0.0
 40
90.0
 41
0.0
 71
     5
 72
     1
  1
\A1;屋根寸法 2000
  7
STYLE1
 11
0.0000000000000001
 21
1.0
 31
0.0
 73
     1
 44
1.0
1001
ACAD
1000
MTEXTBEGIN
1070
    73
1070
     1
1070
    44
1040
1.0
1070
    74
1070
     0
1000
MTEXTEND
  0
POINT
  5
14171
330
139A3
100
AcDbEntity
  8
DEFPOINTS
 62
     0
 48
50.0
100
AcDbPoint
 10
5153.246562932154
 20
3269.768007716479
 30
0.0
  0
POINT
  5
14172
330
139A3
100
AcDbEntity
  8
DEFPOINTS
 62
     0
 48
50.0
100
AcDbPoint
 10
5153.246562932154
 20
1269.768007716479
 30
0.0
  0
POINT
  5
14173
330
139A3
100
AcDbEntity
  8
DEFPOINTS
 62
     0
 48
50.0
100
AcDbPoint
 10
5635.520785295768
 20
1269.768007716478
 30
0.0
  0
ENDBLK
  5
13BA5
330
139A3
100
AcDbEntity
  8
0
 48
50.0
100
AcDbBlockEnd
  0
BLOCK
  5
13BA6
330
139AF
100
AcDbEntity
  8
0
 48
50.0
100
AcDbBlockBegin
  2
*D21
 70
     1
 10
0.0
 20
0.0
 30
0.0
  3
*D21
  1

  0
LINE
  5
14162
330
139AF
100
AcDbEntity
  8
寸法
 62
     0
 48
50.0
370
    -2
100
AcDbLine
 10
4538.246562932154
 20
2619.768007716479
 30
0.0
 11
4330.932059647975
 21
2619.768007716479
 31
0.0
  0
LINE
  5
14163
330
139AF
100
AcDbEntity
  8
寸法
 62
     0
 48
50.0
370
    -2
100
AcDbLine
 10
4538.246562932154
 20
1919.768007716479
 30
0.0
 11
4330.932059647973
 21
1919.768007716479
 31
0.0
  0
LINE
  5
14164
330
139AF
100
AcDbEntity
  8
寸法
 62
     0
 48
50.0
370
    -2
100
AcDbLine
 10
4375.932059647975
 20
2619.768007716479
 30
0.0
 11
4375.932059647974
 21
1919.768007716479
 31
0.0
  0
INSERT
  5
14165
330
139AF
100
AcDbEntity
  8
寸法
 62
     0
 48
50.0
370
    -2
100
AcDbBlockReference
  2
_DOTSMALL
 10
4375.932059647975
 20
2619.768007716479
 30
0.0
 41
75.0
 42
75.0
 43
75.0
 50
90.0
  0
INSERT
  5
14166
330
139AF
100
AcDbEntity
  8
寸法
 62
     0
 48
50.0
370
    -2
100
AcDbBlockReference
  2
_DOTSMALL
 10
4375.932059647974
 20
1919.768007716479
 30
0.0
 41
75.0
 42
75.0
 43
75.0
 50
270.0
  0
MTEXT
  5
14167
330
139AF
100
AcDbEntity
  8
寸法
 62
     7
 48
50.0
100
AcDbMText
 10
4300.932059647974
 20
2269.768007716479
 30
0.0
 40
90.0
 41
0.0
 71
     5
 72
     1
  1
\A1;700
  7
STYLE1
 11
0.0000000000000001
 21
1.0
 31
0.0
 73
     1
 44
1.0
1001
ACAD
1000
MTEXTBEGIN
1070
    73
1070
     1
1070
    44
1040
1.0
1070
    74
1070
     0
1000
MTEXTEND
  0
POINT
  5
14168
330
139AF
100
AcDbEntity
  8
DEFPOINTS
 62
     0
 48
50.0
100
AcDbPoint
 10
4553.246562932154
 20
2619.768007716479
 30
0.0
  0
POINT
  5
14169
330
139AF
100
AcDbEntity
  8
DEFPOINTS
 62
     0
 48
50.0
100
AcDbPoint
 10
4553.246562932154
 20
1919.768007716479
 30
0.0
  0
POINT
  5
1416A
330
139AF
100
AcDbEntity
  8
DEFPOINTS
 62
     0
 48
50.0
100
AcDbPoint
 10
4375.932059647974
 20
1919.768007716479
 30
0.0
  0
ENDBLK
  5
13BB0
330
139AF
100
AcDbEntity
  8
0
 48
50.0
100
AcDbBlockEnd
  0
BLOCK
  5
13C33
330
139BB
100
AcDbEntity
  8
0
 48
50.0
100
AcDbBlockBegin
  2
*D22
 70
     1
 10
0.0
 20
0.0
 30
0.0
  3
*D22
  1

  0
LINE
  5
14159
330
139BB
100
AcDbEntity
  8
寸法
 62
     0
 48
50.0
370
    -2
100
AcDbLine
 10
2493.246562932154
 20
2534.768007716479
 30
0.0
 11
2493.246562932154
 21
3767.220301847585
 31
0.0
  0
LINE
  5
1415A
330
139BB
100
AcDbEntity
  8
寸法
 62
     0
 48
50.0
370
    -2
100
AcDbLine
 10
4903.246562932154
 20
2973.313025087398
 30
0.0
 11
4903.246562932154
 21
3767.220301847585
 31
0.0
  0
LINE
  5
1415B
330
139BB
100
AcDbEntity
  8
寸法
 62
     0
 48
50.0
370
    -2
100
AcDbLine
 10
2493.246562932154
 20
3722.220301847585
 30
0.0
 11
4903.246562932154
 21
3722.220301847585
 31
0.0
  0
INSERT
  5
1415C
330
139BB
100
AcDbEntity
  8
寸法
 62
     0
 48
50.0
370
    -2
100
AcDbBlockReference
  2
_DOTSMALL
 10
2493.246562932154
 20
3722.220301847585
 30
0.0
 41
75.0
 42
75.0
 43
75.0
 50
180.0
  0
INSERT
  5
1415D
330
139BB
100
AcDbEntity
  8
寸法
 62
     0
 48
50.0
370
    -2
100
AcDbBlockReference
  2
_DOTSMALL
 10
4903.246562932154
 20
3722.220301847585
 30
0.0
 41
75.0
 42
75.0
 43
75.0
  0
MTEXT
  5
1415E
330
139BB
100
AcDbEntity
  8
寸法
 62
     7
 48
50.0
100
AcDbMText
 10
3698.246562932155
 20
3797.229160115302
 30
0.0
 40
90.0
 41
0.0
 71
     5
 72
     1
  1
\A1;2410
  7
STYLE1
 73
     1
 44
1.0
1001
ACAD
1000
MTEXTBEGIN
1070
    73
1070
     1
1070
    44
1040
1.0
1070
    74
1070
     0
1000
MTEXTEND
  0
POINT
  5
1415F
330
139BB
100
AcDbEntity
  8
DEFPOINTS
 62
     0
 48
50.0
100
AcDbPoint
 10
2493.246562932154
 20
2519.768007716479
 30
0.0
  0
POINT
  5
14160
330
139BB
100
AcDbEntity
  8
DEFPOINTS
 62
     0
 48
50.0
100
AcDbPoint
 10
4903.246562932154
 20
2958.313025087398
 30
0.0
  0
POINT
  5
14161
330
139BB
100
AcDbEntity
  8
DEFPOINTS
 62
     0
 48
50.0
100
AcDbPoint
 10
4903.246562932154
 20
3722.220301847585
 30
0.0
  0
ENDBLK
  5
13C3D
330
139BB
100
AcDbEntity
  8
0
 48
50.0
100
AcDbBlockEnd
  0
BLOCK
  5
13BBC
330
139C7
100
AcDbEntity
  8
0
 48
50.0
100
AcDbBlockBegin
  2
*D23
 70
     1
 10
0.0
 20
0.0
 30
0.0
  3
*D23
  1

  0
LINE
  5
14150
330
139C7
100
AcDbEntity
  8
寸法
 62
     0
 48
50.0
370
    -2
100
AcDbLine
 10
4553.246562932154
 20
2634.768007716479
 30
0.0
 11
4553.246562932154
 21
2862.557369016475
 31
0.0
  0
LINE
  5
14151
330
139C7
100
AcDbEntity
  8
寸法
 62
     0
 48
50.0
370
    -2
100
AcDbLine
 10
5253.246562932154
 20
2634.768007716479
 30
0.0
 11
5253.246562932154
 21
2862.557369016475
 31
0.0
  0
LINE
  5
14152
330
139C7
100
AcDbEntity
  8
寸法
 62
     0
 48
50.0
370
    -2
100
AcDbLine
 10
4553.246562932154
 20
2817.557369016475
 30
0.0
 11
5253.246562932154
 21
2817.557369016475
 31
0.0
  0
INSERT
  5
14153
330
139C7
100
AcDbEntity
  8
寸法
 62
     0
 48
50.0
370
    -2
100
AcDbBlockReference
  2
_DOTSMALL
 10
4553.246562932154
 20
2817.557369016475
 30
0.0
 41
75.0
 42
75.0
 43
75.0
 50
180.0
  0
INSERT
  5
14154
330
139C7
100
AcDbEntity
  8
寸法
 62
     0
 48
50.0
370
    -2
100
AcDbBlockReference
  2
_DOTSMALL
 10
5253.246562932154
 20
2817.557369016475
 30
0.0
 41
75.0
 42
75.0
 43
75.0
  0
MTEXT
  5
14155
330
139C7
100
AcDbEntity
  8
寸法
 62
     7
 48
50.0
100
AcDbMText
 10
4903.246562932154
 20
2892.557369016475
 30
0.0
 40
90.0
 41
0.0
 71
     5
 72
     1
  1
\A1;700
  7
STYLE1
 73
     1
 44
1.0
1001
ACAD
1000
MTEXTBEGIN
1070
    73
1070
     1
1070
    44
1040
1.0
1070
    74
1070
     0
1000
MTEXTEND
  0
POINT
  5
14156
330
139C7
100
AcDbEntity
  8
DEFPOINTS
 62
     0
 48
50.0
100
AcDbPoint
 10
4553.246562932154
 20
2619.768007716479
 30
0.0
  0
POINT
  5
14157
330
139C7
100
AcDbEntity
  8
DEFPOINTS
 62
     0
 48
50.0
100
AcDbPoint
 10
5253.246562932154
 20
2619.768007716479
 30
0.0
  0
POINT
  5
14158
330
139C7
100
AcDbEntity
  8
DEFPOINTS
 62
     0
 48
50.0
100
AcDbPoint
 10
5253.246562932154
 20
2817.557369016475
 30
0.0
  0
ENDBLK
  5
13BC6
330
139C7
100
AcDbEntity
  8
0
 48
50.0
100
AcDbBlockEnd
  0
BLOCK
  5
13BC7
330
139D3
100
AcDbEntity
  8
0
 48
50.0
100
AcDbBlockBegin
  2
*D24
 70
     1
 10
0.0
 20
0.0
 30
0.0
  3
*D24
  1

  0
LINE
  5
14147
330
139D3
100
AcDbEntity
  8
寸法
 62
     0
 48
50.0
370
    -2
100
AcDbLine
 10
4903.246562932154
 20
3354.768007716481
 30
0.0
 11
4903.246562932154
 21
3767.817537192492
 31
0.0
  0
LINE
  5
14148
330
139D3
100
AcDbEntity
  8
寸法
 62
     0
 48
50.0
370
    -2
100
AcDbLine
 10
5153.246562932154
 20
3284.768007716479
 30
0.0
 11
5153.246562932154
 21
3767.817537192492
 31
0.0
  0
LINE
  5
14149
330
139D3
100
AcDbEntity
  8
寸法
 62
     0
 48
50.0
370
    -2
100
AcDbLine
 10
4903.246562932154
 20
3722.817537192492
 30
0.0
 11
5153.246562932154
 21
3722.817537192492
 31
0.0
  0
INSERT
  5
1414A
330
139D3
100
AcDbEntity
  8
寸法
 62
     0
 48
50.0
370
    -2
100
AcDbBlockReference
  2
_DOTSMALL
 10
4903.246562932154
 20
3722.817537192492
 30
0.0
 41
75.0
 42
75.0
 43
75.0
 50
180.0
  0
INSERT
  5
1414B
330
139D3
100
AcDbEntity
  8
寸法
 62
     0
 48
50.0
370
    -2
100
AcDbBlockReference
  2
_DOTSMALL
 10
5153.246562932154
 20
3722.817537192492
 30
0.0
 41
75.0
 42
75.0
 43
75.0
  0
MTEXT
  5
1414C
330
139D3
100
AcDbEntity
  8
寸法
 62
     7
 48
50.0
100
AcDbMText
 10
5028.246562932154
 20
3797.826395460209
 30
0.0
 40
90.0
 41
0.0
 71
     5
 72
     1
  1
\A1;250
  7
STYLE1
 73
     1
 44
1.0
1001
ACAD
1000
MTEXTBEGIN
1070
    73
1070
     1
1070
    44
1040
1.0
1070
    74
1070
     0
1000
MTEXTEND
  0
POINT
  5
1414D
330
139D3
100
AcDbEntity
  8
DEFPOINTS
 62
     0
 48
50.0
100
AcDbPoint
 10
4903.246562932154
 20
3339.768007716481
 30
0.0
  0
POINT
  5
1414E
330
139D3
100
AcDbEntity
  8
DEFPOINTS
 62
     0
 48
50.0
100
AcDbPoint
 10
5153.246562932154
 20
3269.768007716479
 30
0.0
  0
POINT
  5
1414F
330
139D3
100
AcDbEntity
  8
DEFPOINTS
 62
     0
 48
50.0
100
AcDbPoint
 10
5153.246562932154
 20
3722.817537192492
 30
0.0
  0
ENDBLK
  5
13BD1
330
139D3
100
AcDbEntity
  8
0
 48
50.0
100
AcDbBlockEnd
  0
BLOCK
  5
14499
330
1448F
100
AcDbEntity
  8
0
 48
50.0
100
AcDbBlockBegin
  2
*D25
 70
     1
 10
0.0
 20
0.0
 30
0.0
  3
*D25
  1

  0
LINE
  5
14B6C
330
1448F
100
AcDbEntity
  8
寸法
 62
     0
 48
50.0
370
    -2
100
AcDbLine
 10
9829.497555052382
 20
3030.602601503322
 30
0.0
 11
10007.70150774241
 21
3030.602601503322
 31
0.0
  0
LINE
  5
14B6D
330
1448F
100
AcDbEntity
  8
寸法
 62
     0
 48
50.0
370
    -2
100
AcDbLine
 10
8990.309336270458
 20
2355.655748320804
 30
0.0
 11
10007.70150774241
 21
2355.655748320803
 31
0.0
  0
LINE
  5
14B6E
330
1448F
100
AcDbEntity
  8
寸法
 62
     0
 48
50.0
370
    -2
100
AcDbLine
 10
9962.701507742412
 20
3030.602601503322
 30
0.0
 11
9962.701507742412
 21
2355.655748320803
 31
0.0
  0
INSERT
  5
14B6F
330
1448F
100
AcDbEntity
  8
寸法
 62
     0
 48
50.0
370
    -2
100
AcDbBlockReference
  2
_DOTSMALL
 10
9962.701507742412
 20
3030.602601503322
 30
0.0
 41
75.0
 42
75.0
 43
75.0
 50
90.0
  0
INSERT
  5
14B70
330
1448F
100
AcDbEntity
  8
寸法
 62
     0
 48
50.0
370
    -2
100
AcDbBlockReference
  2
_DOTSMALL
 10
9962.701507742412
 20
2355.655748320803
 30
0.0
 41
75.0
 42
75.0
 43
75.0
 50
270.0
  0
MTEXT
  5
14B71
330
1448F
100
AcDbEntity
  8
寸法
 62
     7
 48
50.0
100
AcDbMText
 10
9887.701507742413
 20
2693.129174912063
 30
0.0
 40
90.0
 41
0.0
 71
     5
 72
     1
  1
\A1;450
  7
STYLE1
 11
0.0000000000000001
 21
1.0
 31
0.0
 73
     1
 44
1.0
1001
ACAD
1000
MTEXTBEGIN
1070
    73
1070
     1
1070
    44
1040
1.0
1070
    74
1070
     0
1000
MTEXTEND
  0
POINT
  5
14B72
330
1448F
100
AcDbEntity
  8
DEFPOINTS
 62
     0
 48
50.0
100
AcDbPoint
 10
9814.497555052382
 20
3030.602601503322
 30
0.0
  0
POINT
  5
14B73
330
1448F
100
AcDbEntity
  8
DEFPOINTS
 62
     0
 48
50.0
100
AcDbPoint
 10
8975.309336270459
 20
2355.655748320804
 30
0.0
  0
POINT
  5
14B74
330
1448F
100
AcDbEntity
  8
DEFPOINTS
 62
     0
 48
50.0
100
AcDbPoint
 10
9962.701507742412
 20
2355.655748320803
 30
0.0
  0
ENDBLK
  5
1449A
330
1448F
100
AcDbEntity
  8
0
 48
50.0
100
AcDbBlockEnd
  0
BLOCK
  5
144A7
330
1449B
100
AcDbEntity
  8
0
 48
50.0
100
AcDbBlockBegin
  2
*D26
 70
     1
 10
0.0
 20
0.0
 30
0.0
  3
*D26
  1

  0
LINE
  5
14B62
330
1449B
100
AcDbEntity
  8
寸法
 62
     0
 48
50.0
370
    -2
100
AcDbLine
 10
9687.5121241601
 20
3105.602601503321
 30
0.0
 11
10165.01793660162
 21
3105.602601503321
 31
0.0
  0
LINE
  5
14B63
330
1449B
100
AcDbEntity
  8
寸法
 62
     0
 48
50.0
370
    -2
100
AcDbLine
 10
9829.497555052382
 20
3030.602601503322
 30
0.0
 11
10165.01793660162
 21
3030.602601503322
 31
0.0
  0
LINE
  5
14B64
330
1449B
100
AcDbEntity
  8
寸法
 62
     0
 48
50.0
370
    -2
100
AcDbLine
 10
10120.01793660162
 20
3030.602601503322
 30
0.0
 11
10120.01793660162
 21
3105.602601503321
 31
0.0
  0
LINE
  5
14B65
330
1449B
100
AcDbEntity
  8
寸法
 62
     0
 48
50.0
370
    -2
100
AcDbLine
 10
10120.01793660162
 20
3105.602601503321
 30
0.0
 11
10120.01793660162
 21
3394.001995604866
 31
0.0
  0
INSERT
  5
14B66
330
1449B
100
AcDbEntity
  8
寸法
 62
     0
 48
50.0
370
    -2
100
AcDbBlockReference
  2
_DOTSMALL
 10
10120.01793660162
 20
3030.602601503322
 30
0.0
 41
75.0
 42
75.0
 43
75.0
 50
270.0
  0
INSERT
  5
14B67
330
1449B
100
AcDbEntity
  8
寸法
 62
     0
 48
50.0
370
    -2
100
AcDbBlockReference
  2
_DOTSMALL
 10
10120.01793660162
 20
3105.602601503321
 30
0.0
 41
75.0
 42
75.0
 43
75.0
 50
90.0
  0
MTEXT
  5
14B68
330
1449B
100
AcDbEntity
  8
寸法
 62
     7
 48
50.0
100
AcDbMText
 10
10045.01793660162
 20
3314.466562534001
 30
0.0
 40
90.0
 41
0.0
 71
     5
 72
     1
  1
\A1;50
  7
STYLE1
 11
0.0000000000000001
 21
1.0
 31
0.0
 73
     1
 44
1.0
1001
ACAD
1000
MTEXTBEGIN
1070
    73
1070
     1
1070
    44
1040
1.0
1070
    74
1070
     0
1000
MTEXTEND
  0
POINT
  5
14B69
330
1449B
100
AcDbEntity
  8
DEFPOINTS
 62
     0
 48
50.0
100
AcDbPoint
 10
9672.512124160101
 20
3105.602601503321
 30
0.0
  0
POINT
  5
14B6A
330
1449B
100
AcDbEntity
  8
DEFPOINTS
 62
     0
 48
50.0
100
AcDbPoint
 10
9814.497555052382
 20
3030.602601503322
 30
0.0
  0
POINT
  5
14B6B
330
1449B
100
AcDbEntity
  8
DEFPOINTS
 62
     0
 48
50.0
100
AcDbPoint
 10
10120.01793660162
 20
3030.602601503322
 30
0.0
  0
ENDBLK
  5
144A8
330
1449B
100
AcDbEntity
  8
0
 48
50.0
100
AcDbBlockEnd
  0
BLOCK
  5
144B4
330
144A9
100
AcDbEntity
  8
0
 48
50.0
100
AcDbBlockBegin
  2
*D27
 70
     1
 10
0.0
 20
0.0
 30
0.0
  3
*D27
  1

  0
LINE
  5
14B58
330
144A9
100
AcDbEntity
  8
寸法
 62
     0
 48
50.0
370
    -2
100
AcDbLine
 10
8122.167045899496
 20
2955.602601503322
 30
0.0
 11
7902.036710689249
 21
2955.602601503322
 31
0.0
  0
LINE
  5
14B59
330
144A9
100
AcDbEntity
  8
寸法
 62
     0
 48
50.0
370
    -2
100
AcDbLine
 10
8122.167045899496
 20
2805.602601503322
 30
0.0
 11
7902.036710689249
 21
2805.602601503322
 31
0.0
  0
LINE
  5
14B5A
330
144A9
100
AcDbEntity
  8
寸法
 62
     0
 48
50.0
370
    -2
100
AcDbLine
 10
7947.03671068925
 20
2955.602601503322
 30
0.0
 11
7947.03671068925
 21
2805.602601503322
 31
0.0
  0
LINE
  5
14B5B
330
144A9
100
AcDbEntity
  8
寸法
 62
     0
 48
50.0
370
    -2
100
AcDbLine
 10
7947.03671068925
 20
2805.602601503322
 30
0.0
 11
7947.03671068925
 21
2526.53173536159
 31
0.0
  0
INSERT
  5
14B5C
330
144A9
100
AcDbEntity
  8
寸法
 62
     0
 48
50.0
370
    -2
100
AcDbBlockReference
  2
_DOTSMALL
 10
7947.03671068925
 20
2955.602601503322
 30
0.0
 41
75.0
 42
75.0
 43
75.0
 50
90.0
  0
INSERT
  5
14B5D
330
144A9
100
AcDbEntity
  8
寸法
 62
     0
 48
50.0
370
    -2
100
AcDbBlockReference
  2
_DOTSMALL
 10
7947.03671068925
 20
2805.602601503322
 30
0.0
 41
75.0
 42
75.0
 43
75.0
 50
270.0
  0
MTEXT
  5
14B5E
330
144A9
100
AcDbEntity
  8
寸法
 62
     7
 48
50.0
100
AcDbMText
 10
7872.036710689248
 20
2628.567168432458
 30
0.0
 40
90.0
 41
0.0
 71
     5
 72
     1
  1
\A1;100
  7
STYLE1
 11
0.0000000000000001
 21
1.0
 31
0.0
 73
     1
 44
1.0
1001
ACAD
1000
MTEXTBEGIN
1070
    73
1070
     1
1070
    44
1040
1.0
1070
    74
1070
     0
1000
MTEXTEND
  0
POINT
  5
14B5F
330
144A9
100
AcDbEntity
  8
DEFPOINTS
 62
     0
 48
50.0
100
AcDbPoint
 10
8137.167045899495
 20
2955.602601503322
 30
0.0
  0
POINT
  5
14B60
330
144A9
100
AcDbEntity
  8
DEFPOINTS
 62
     0
 48
50.0
100
AcDbPoint
 10
8137.167045899495
 20
2805.602601503322
 30
0.0
  0
POINT
  5
14B61
330
144A9
100
AcDbEntity
  8
DEFPOINTS
 62
     0
 48
50.0
100
AcDbPoint
 10
7947.03671068925
 20
2805.602601503322
 30
0.0
  0
ENDBLK
  5
144B5
330
144A9
100
AcDbEntity
  8
0
 48
50.0
100
AcDbBlockEnd
  0
BLOCK
  5
144C1
330
144B6
100
AcDbEntity
  8
0
 48
50.0
100
AcDbBlockBegin
  2
*D28
 70
     1
 10
0.0
 20
0.0
 30
0.0
  3
*D28
  1

  0
LINE
  5
14B4E
330
144B6
100
AcDbEntity
  8
寸法
 62
     0
 48
50.0
370
    -2
100
AcDbLine
 10
8122.167045899498
 20
3105.602601503321
 30
0.0
 11
7902.036710689249
 21
3105.602601503321
 31
0.0
  0
LINE
  5
14B4F
330
144B6
100
AcDbEntity
  8
寸法
 62
     0
 48
50.0
370
    -2
100
AcDbLine
 10
8111.925038727713
 20
2955.602601503321
 30
0.0
 11
7902.036710689249
 21
2955.602601503321
 31
0.0
  0
LINE
  5
14B50
330
144B6
100
AcDbEntity
  8
寸法
 62
     0
 48
50.0
370
    -2
100
AcDbLine
 10
7947.03671068925
 20
2955.602601503321
 30
0.0
 11
7947.03671068925
 21
3105.602601503321
 31
0.0
  0
LINE
  5
14B51
330
144B6
100
AcDbEntity
  8
寸法
 62
     0
 48
50.0
370
    -2
100
AcDbLine
 10
7947.03671068925
 20
3105.602601503321
 30
0.0
 11
7947.03671068925
 21
3384.673467645053
 31
0.0
  0
INSERT
  5
14B52
330
144B6
100
AcDbEntity
  8
寸法
 62
     0
 48
50.0
370
    -2
100
AcDbBlockReference
  2
_DOTSMALL
 10
7947.03671068925
 20
2955.602601503321
 30
0.0
 41
75.0
 42
75.0
 43
75.0
 50
270.0
  0
INSERT
  5
14B53
330
144B6
100
AcDbEntity
  8
寸法
 62
     0
 48
50.0
370
    -2
100
AcDbBlockReference
  2
_DOTSMALL
 10
7947.03671068925
 20
3105.602601503321
 30
0.0
 41
75.0
 42
75.0
 43
75.0
 50
90.0
  0
MTEXT
  5
14B54
330
144B6
100
AcDbEntity
  8
寸法
 62
     7
 48
50.0
100
AcDbMText
 10
7872.036710689248
 20
3282.638034574188
 30
0.0
 40
90.0
 41
0.0
 71
     5
 72
     1
  1
\A1;100
  7
STYLE1
 11
0.0000000000000001
 21
1.0
 31
0.0
 73
     1
 44
1.0
1001
ACAD
1000
MTEXTBEGIN
1070
    73
1070
     1
1070
    44
1040
1.0
1070
    74
1070
     0
1000
MTEXTEND
  0
POINT
  5
14B55
330
144B6
100
AcDbEntity
  8
DEFPOINTS
 62
     0
 48
50.0
100
AcDbPoint
 10
8137.167045899499
 20
3105.602601503321
 30
0.0
  0
POINT
  5
14B56
330
144B6
100
AcDbEntity
  8
DEFPOINTS
 62
     0
 48
50.0
100
AcDbPoint
 10
8126.925038727714
 20
2955.602601503321
 30
0.0
  0
POINT
  5
14B57
330
144B6
100
AcDbEntity
  8
DEFPOINTS
 62
     0
 48
50.0
100
AcDbPoint
 10
7947.03671068925
 20
2955.602601503321
 30
0.0
  0
ENDBLK
  5
144C2
330
144B6
100
AcDbEntity
  8
0
 48
50.0
100
AcDbBlockEnd
  0
BLOCK
  5
144DA
330
144CF
100
AcDbEntity
  8
0
 48
50.0
100
AcDbBlockBegin
  2
*D29
 70
     1
 10
0.0
 20
0.0
 30
0.0
  3
*D29
  1

  0
LINE
  5
14B7E
330
144CF
100
AcDbEntity
  8
寸法
 62
     0
 48
50.0
370
    -2
100
AcDbLine
 10
9595.30933627046
 20
2206.155748320803
 30
0.0
 11
10165.01793660162
 21
2206.155748320803
 31
0.0
  0
LINE
  5
14B7F
330
144CF
100
AcDbEntity
  8
寸法
 62
     0
 48
50.0
370
    -2
100
AcDbLine
 10
9595.309336270458
 20
2131.155748320804
 30
0.0
 11
10165.01793660162
 21
2131.155748320804
 31
0.0
  0
LINE
  5
14B80
330
144CF
100
AcDbEntity
  8
寸法
 62
     0
 48
50.0
370
    -2
100
AcDbLine
 10
10120.01793660162
 20
2206.155748320803
 30
0.0
 11
10120.01793660162
 21
2131.155748320804
 31
0.0
  0
LINE
  5
14B81
330
144CF
100
AcDbEntity
  8
寸法
 62
     0
 48
50.0
370
    -2
100
AcDbLine
 10
10120.01793660162
 20
2131.155748320804
 30
0.0
 11
10120.01793660162
 21
1871.917657769623
 31
0.0
  0
INSERT
  5
14B82
330
144CF
100
AcDbEntity
  8
寸法
 62
     0
 48
50.0
370
    -2
100
AcDbBlockReference
  2
_DOTSMALL
 10
10120.01793660162
 20
2206.155748320803
 30
0.0
 41
75.0
 42
75.0
 43
75.0
 50
90.0
  0
INSERT
  5
14B83
330
144CF
100
AcDbEntity
  8
寸法
 62
     0
 48
50.0
370
    -2
100
AcDbBlockReference
  2
_DOTSMALL
 10
10120.01793660162
 20
2131.155748320804
 30
0.0
 41
75.0
 42
75.0
 43
75.0
 50
270.0
  0
MTEXT
  5
14B84
330
144CF
100
AcDbEntity
  8
寸法
 62
     7
 48
50.0
100
AcDbMText
 10
10045.01793660162
 20
1951.453090840491
 30
0.0
 40
90.0
 41
0.0
 71
     5
 72
     1
  1
\A1;50
  7
STYLE1
 11
0.0000000000000001
 21
1.0
 31
0.0
 73
     1
 44
1.0
1001
ACAD
1000
MTEXTBEGIN
1070
    73
1070
     1
1070
    44
1040
1.0
1070
    74
1070
     0
1000
MTEXTEND
  0
POINT
  5
14B85
330
144CF
100
AcDbEntity
  8
DEFPOINTS
 62
     0
 48
50.0
100
AcDbPoint
 10
9580.30933627046
 20
2206.155748320803
 30
0.0
  0
POINT
  5
14B86
330
144CF
100
AcDbEntity
  8
DEFPOINTS
 62
     0
 48
50.0
100
AcDbPoint
 10
9580.309336270458
 20
2131.155748320804
 30
0.0
  0
POINT
  5
14B87
330
144CF
100
AcDbEntity
  8
DEFPOINTS
 62
     0
 48
50.0
100
AcDbPoint
 10
10120.01793660162
 20
2131.155748320804
 30
0.0
  0
ENDBLK
  5
144DB
330
144CF
100
AcDbEntity
  8
0
 48
50.0
100
AcDbBlockEnd
  0
BLOCK
  5
144E6
330
144DC
100
AcDbEntity
  8
0
 48
50.0
100
AcDbBlockBegin
  2
*D30
 70
     1
 10
0.0
 20
0.0
 30
0.0
  3
*D30
  1

  0
LINE
  5
14B75
330
144DC
100
AcDbEntity
  8
寸法
 62
     0
 48
50.0
370
    -2
100
AcDbLine
 10
9829.497555052382
 20
3030.602601503322
 30
0.0
 11
10165.01793660162
 21
3030.602601503322
 31
0.0
  0
LINE
  5
14B76
330
144DC
100
AcDbEntity
  8
寸法
 62
     0
 48
50.0
370
    -2
100
AcDbLine
 10
9595.30933627046
 20
2206.155748320803
 30
0.0
 11
10165.01793660162
 21
2206.155748320803
 31
0.0
  0
LINE
  5
14B77
330
144DC
100
AcDbEntity
  8
寸法
 62
     0
 48
50.0
370
    -2
100
AcDbLine
 10
10120.01793660162
 20
3030.602601503322
 30
0.0
 11
10120.01793660162
 21
2206.155748320803
 31
0.0
  0
INSERT
  5
14B78
330
144DC
100
AcDbEntity
  8
寸法
 62
     0
 48
50.0
370
    -2
100
AcDbBlockReference
  2
_DOTSMALL
 10
10120.01793660162
 20
3030.602601503322
 30
0.0
 41
75.0
 42
75.0
 43
75.0
 50
90.0
  0
INSERT
  5
14B79
330
144DC
100
AcDbEntity
  8
寸法
 62
     0
 48
50.0
370
    -2
100
AcDbBlockReference
  2
_DOTSMALL
 10
10120.01793660162
 20
2206.155748320803
 30
0.0
 41
75.0
 42
75.0
 43
75.0
 50
270.0
  0
MTEXT
  5
14B7A
330
144DC
100
AcDbEntity
  8
寸法
 62
     7
 48
50.0
100
AcDbMText
 10
10045.01793660162
 20
2618.379174912064
 30
0.0
 40
90.0
 41
0.0
 71
     5
 72
     1
  1
\A1;550
  7
STYLE1
 11
0.0000000000000001
 21
1.0
 31
0.0
 73
     1
 44
1.0
1001
ACAD
1000
MTEXTBEGIN
1070
    73
1070
     1
1070
    44
1040
1.0
1070
    74
1070
     0
1000
MTEXTEND
  0
POINT
  5
14B7B
330
144DC
100
AcDbEntity
  8
DEFPOINTS
 62
     0
 48
50.0
100
AcDbPoint
 10
9814.497555052382
 20
3030.602601503322
 30
0.0
  0
POINT
  5
14B7C
330
144DC
100
AcDbEntity
  8
DEFPOINTS
 62
     0
 48
50.0
100
AcDbPoint
 10
9580.30933627046
 20
2206.155748320803
 30
0.0
  0
POINT
  5
14B7D
330
144DC
100
AcDbEntity
  8
DEFPOINTS
 62
     0
 48
50.0
100
AcDbPoint
 10
10120.01793660162
 20
2206.155748320803
 30
0.0
  0
ENDBLK
  5
144E7
330
144DC
100
AcDbEntity
  8
0
 48
50.0
100
AcDbBlockEnd
  0
BLOCK
  5
14622
330
14618
100
AcDbEntity
  8
0
 48
50.0
100
AcDbBlockBegin
  2
*D31
 70
     1
 10
0.0
 20
0.0
 30
0.0
  3
*D31
  1

  0
LINE
  5
14B45
330
14618
100
AcDbEntity
  8
寸法
 62
     0
 48
50.0
370
    -2
100
AcDbLine
 10
8410.30933627046
 20
1990.155748320803
 30
0.0
 11
8410.30933627046
 21
1708.10567576239
 31
0.0
  0
LINE
  5
14B46
330
14618
100
AcDbEntity
  8
寸法
 62
     0
 48
50.0
370
    -2
100
AcDbLine
 10
9460.30933627046
 20
1990.155748320803
 30
0.0
 11
9460.30933627046
 21
1708.10567576239
 31
0.0
  0
LINE
  5
14B47
330
14618
100
AcDbEntity
  8
寸法
 62
     0
 48
50.0
370
    -2
100
AcDbLine
 10
8410.30933627046
 20
1753.10567576239
 30
0.0
 11
9460.30933627046
 21
1753.10567576239
 31
0.0
  0
INSERT
  5
14B48
330
14618
100
AcDbEntity
  8
寸法
 62
     0
 48
50.0
370
    -2
100
AcDbBlockReference
  2
_DOTSMALL
 10
8410.30933627046
 20
1753.10567576239
 30
0.0
 41
75.0
 42
75.0
 43
75.0
 50
180.0
  0
INSERT
  5
14B49
330
14618
100
AcDbEntity
  8
寸法
 62
     0
 48
50.0
370
    -2
100
AcDbBlockReference
  2
_DOTSMALL
 10
9460.30933627046
 20
1753.10567576239
 30
0.0
 41
75.0
 42
75.0
 43
75.0
  0
MTEXT
  5
14B4A
330
14618
100
AcDbEntity
  8
寸法
 62
     7
 48
50.0
100
AcDbMText
 10
8935.30933627046
 20
1828.10567576239
 30
0.0
 40
90.0
 41
0.0
 71
     5
 72
     1
  1
\A1;700
  7
STYLE1
 73
     1
 44
1.0
1001
ACAD
1000
MTEXTBEGIN
1070
    73
1070
     1
1070
    44
1040
1.0
1070
    74
1070
     0
1000
MTEXTEND
  0
POINT
  5
14B4B
330
14618
100
AcDbEntity
  8
DEFPOINTS
 62
     0
 48
50.0
100
AcDbPoint
 10
8410.30933627046
 20
2005.155748320804
 30
0.0
  0
POINT
  5
14B4C
330
14618
100
AcDbEntity
  8
DEFPOINTS
 62
     0
 48
50.0
100
AcDbPoint
 10
9460.30933627046
 20
2005.155748320804
 30
0.0
  0
POINT
  5
14B4D
330
14618
100
AcDbEntity
  8
DEFPOINTS
 62
     0
 48
50.0
100
AcDbPoint
 10
9460.30933627046
 20
1753.10567576239
 30
0.0
  0
ENDBLK
  5
14623
330
14618
100
AcDbEntity
  8
0
 48
50.0
100
AcDbBlockEnd
  0
BLOCK
  5
1472C
330
1472B
100
AcDbEntity
  8
0
 48
50.0
100
AcDbBlockBegin
  2
_None
 70
     0
 10
0.0
 20
0.0
 30
0.0
  3
_None
  1

  0
ENDBLK
  5
1472D
330
1472B
100
AcDbEntity
  8
0
 48
50.0
100
AcDbBlockEnd
  0
BLOCK
  5
148C9
330
148BE
100
AcDbEntity
  8
0
 48
50.0
100
AcDbBlockBegin
  2
*D33
 70
     1
 10
0.0
 20
0.0
 30
0.0
  3
*D33
  1

  0
LINE
  5
14C32
330
148BE
100
AcDbEntity
  8
寸法
 62
     0
 48
50.0
370
    -2
100
AcDbLine
 10
9595.309336270466
 20
5487.136281726282
 30
0.0
 11
10165.01793660163
 21
5487.136281726282
 31
0.0
  0
LINE
  5
14C33
330
148BE
100
AcDbEntity
  8
寸法
 62
     0
 48
50.0
370
    -2
100
AcDbLine
 10
9595.309336270464
 20
5412.136281726282
 30
0.0
 11
10165.01793660163
 21
5412.136281726282
 31
0.0
  0
LINE
  5
14C34
330
148BE
100
AcDbEntity
  8
寸法
 62
     0
 48
50.0
370
    -2
100
AcDbLine
 10
10120.01793660163
 20
5487.136281726282
 30
0.0
 11
10120.01793660163
 21
5412.136281726282
 31
0.0
  0
LINE
  5
14C35
330
148BE
100
AcDbEntity
  8
寸法
 62
     0
 48
50.0
370
    -2
100
AcDbLine
 10
10120.01793660163
 20
5412.136281726282
 30
0.0
 11
10120.01793660163
 21
5152.898191175101
 31
0.0
  0
INSERT
  5
14C36
330
148BE
100
AcDbEntity
  8
寸法
 62
     0
 48
50.0
370
    -2
100
AcDbBlockReference
  2
_DOTSMALL
 10
10120.01793660163
 20
5487.136281726282
 30
0.0
 41
75.0
 42
75.0
 43
75.0
 50
90.0
  0
INSERT
  5
14C37
330
148BE
100
AcDbEntity
  8
寸法
 62
     0
 48
50.0
370
    -2
100
AcDbBlockReference
  2
_DOTSMALL
 10
10120.01793660163
 20
5412.136281726282
 30
0.0
 41
75.0
 42
75.0
 43
75.0
 50
270.0
  0
MTEXT
  5
14C38
330
148BE
100
AcDbEntity
  8
寸法
 62
     7
 48
50.0
100
AcDbMText
 10
10045.01793660163
 20
5232.433624245969
 30
0.0
 40
90.0
 41
0.0
 71
     5
 72
     1
  1
\A1;50
  7
STYLE1
 11
0.0000000000000001
 21
1.0
 31
0.0
 73
     1
 44
1.0
1001
ACAD
1000
MTEXTBEGIN
1070
    73
1070
     1
1070
    44
1040
1.0
1070
    74
1070
     0
1000
MTEXTEND
  0
POINT
  5
14C39
330
148BE
100
AcDbEntity
  8
DEFPOINTS
 62
     0
 48
50.0
100
AcDbPoint
 10
9580.309336270465
 20
5487.136281726282
 30
0.0
  0
POINT
  5
14C3A
330
148BE
100
AcDbEntity
  8
DEFPOINTS
 62
     0
 48
50.0
100
AcDbPoint
 10
9580.309336270465
 20
5412.136281726282
 30
0.0
  0
POINT
  5
14C3B
330
148BE
100
AcDbEntity
  8
DEFPOINTS
 62
     0
 48
50.0
100
AcDbPoint
 10
10120.01793660163
 20
5412.136281726282
 30
0.0
  0
ENDBLK
  5
148CA
330
148BE
100
AcDbEntity
  8
0
 48
50.0
100
AcDbBlockEnd
  0
BLOCK
  5
148D5
330
148CB
100
AcDbEntity
  8
0
 48
50.0
100
AcDbBlockBegin
  2
*D34
 70
     1
 10
0.0
 20
0.0
 30
0.0
  3
*D34
  1

  0
LINE
  5
14C3C
330
148CB
100
AcDbEntity
  8
寸法
 62
     0
 48
50.0
370
    -2
100
AcDbLine
 10
9870.00589469493
 20
6086.5831349088
 30
0.0
 11
10165.01793660163
 21
6086.5831349088
 31
0.0
  0
LINE
  5
14C3D
330
148CB
100
AcDbEntity
  8
寸法
 62
     0
 48
50.0
370
    -2
100
AcDbLine
 10
9595.309336270466
 20
5487.136281726282
 30
0.0
 11
10165.01793660163
 21
5487.136281726282
 31
0.0
  0
LINE
  5
14C3E
330
148CB
100
AcDbEntity
  8
寸法
 62
     0
 48
50.0
370
    -2
100
AcDbLine
 10
10120.01793660163
 20
6086.5831349088
 30
0.0
 11
10120.01793660163
 21
5487.136281726282
 31
0.0
  0
INSERT
  5
14C3F
330
148CB
100
AcDbEntity
  8
寸法
 62
     0
 48
50.0
370
    -2
100
AcDbBlockReference
  2
_DOTSMALL
 10
10120.01793660163
 20
6086.5831349088
 30
0.0
 41
75.0
 42
75.0
 43
75.0
 50
90.0
  0
INSERT
  5
14C40
330
148CB
100
AcDbEntity
  8
寸法
 62
     0
 48
50.0
370
    -2
100
AcDbBlockReference
  2
_DOTSMALL
 10
10120.01793660163
 20
5487.136281726282
 30
0.0
 41
75.0
 42
75.0
 43
75.0
 50
270.0
  0
MTEXT
  5
14C41
330
148CB
100
AcDbEntity
  8
寸法
 62
     7
 48
50.0
100
AcDbMText
 10
10045.01793660163
 20
5786.859708317542
 30
0.0
 40
90.0
 41
0.0
 71
     5
 72
     1
  1
\A1;400
  7
STYLE1
 11
0.0000000000000001
 21
1.0
 31
0.0
 73
     1
 44
1.0
1001
ACAD
1000
MTEXTBEGIN
1070
    73
1070
     1
1070
    44
1040
1.0
1070
    74
1070
     0
1000
MTEXTEND
  0
POINT
  5
14C42
330
148CB
100
AcDbEntity
  8
DEFPOINTS
 62
     0
 48
50.0
100
AcDbPoint
 10
9855.005894694931
 20
6086.5831349088
 30
0.0
  0
POINT
  5
14C43
330
148CB
100
AcDbEntity
  8
DEFPOINTS
 62
     0
 48
50.0
100
AcDbPoint
 10
9580.309336270465
 20
5487.136281726282
 30
0.0
  0
POINT
  5
14C44
330
148CB
100
AcDbEntity
  8
DEFPOINTS
 62
     0
 48
50.0
100
AcDbPoint
 10
10120.01793660163
 20
5487.136281726282
 30
0.0
  0
ENDBLK
  5
148D6
330
148CB
100
AcDbEntity
  8
0
 48
50.0
100
AcDbBlockEnd
  0
BLOCK
  5
148E1
330
148D7
100
AcDbEntity
  8
0
 48
50.0
100
AcDbBlockBegin
  2
*D35
 70
     1
 10
0.0
 20
0.0
 30
0.0
  3
*D35
  1

  0
LINE
  5
14C45
330
148D7
100
AcDbEntity
  8
寸法
 62
     0
 48
50.0
370
    -2
100
AcDbLine
 10
9829.497555052387
 20
6311.583134908801
 30
0.0
 11
10165.01793660163
 21
6311.583134908801
 31
0.0
  0
LINE
  5
14C46
330
148D7
100
AcDbEntity
  8
寸法
 62
     0
 48
50.0
370
    -2
100
AcDbLine
 10
9870.00589469493
 20
6086.5831349088
 30
0.0
 11
10165.01793660163
 21
6086.5831349088
 31
0.0
  0
LINE
  5
14C47
330
148D7
100
AcDbEntity
  8
寸法
 62
     0
 48
50.0
370
    -2
100
AcDbLine
 10
10120.01793660163
 20
6311.583134908801
 30
0.0
 11
10120.01793660163
 21
6086.5831349088
 31
0.0
  0
INSERT
  5
14C48
330
148D7
100
AcDbEntity
  8
寸法
 62
     0
 48
50.0
370
    -2
100
AcDbBlockReference
  2
_DOTSMALL
 10
10120.01793660163
 20
6311.583134908801
 30
0.0
 41
75.0
 42
75.0
 43
75.0
 50
90.0
  0
INSERT
  5
14C49
330
148D7
100
AcDbEntity
  8
寸法
 62
     0
 48
50.0
370
    -2
100
AcDbBlockReference
  2
_DOTSMALL
 10
10120.01793660163
 20
6086.5831349088
 30
0.0
 41
75.0
 42
75.0
 43
75.0
 50
270.0
  0
MTEXT
  5
14C4A
330
148D7
100
AcDbEntity
  8
寸法
 62
     7
 48
50.0
100
AcDbMText
 10
10045.01793660163
 20
6199.0831349088
 30
0.0
 40
90.0
 41
0.0
 71
     5
 72
     1
  1
\A1;150
  7
STYLE1
 11
0.0000000000000001
 21
1.0
 31
0.0
 73
     1
 44
1.0
1001
ACAD
1000
MTEXTBEGIN
1070
    73
1070
     1
1070
    44
1040
1.0
1070
    74
1070
     0
1000
MTEXTEND
  0
POINT
  5
14C4B
330
148D7
100
AcDbEntity
  8
DEFPOINTS
 62
     0
 48
50.0
100
AcDbPoint
 10
9814.497555052387
 20
6311.583134908801
 30
0.0
  0
POINT
  5
14C4C
330
148D7
100
AcDbEntity
  8
DEFPOINTS
 62
     0
 48
50.0
100
AcDbPoint
 10
9855.005894694931
 20
6086.5831349088
 30
0.0
  0
POINT
  5
14C4D
330
148D7
100
AcDbEntity
  8
DEFPOINTS
 62
     0
 48
50.0
100
AcDbPoint
 10
10120.01793660163
 20
6086.5831349088
 30
0.0
  0
ENDBLK
  5
148E2
330
148D7
100
AcDbEntity
  8
0
 48
50.0
100
AcDbBlockEnd
  0
BLOCK
  5
148EE
330
148E3
100
AcDbEntity
  8
0
 48
50.0
100
AcDbBlockBegin
  2
*D36
 70
     1
 10
0.0
 20
0.0
 30
0.0
  3
*D36
  1

  0
LINE
  5
14C4E
330
148E3
100
AcDbEntity
  8
寸法
 62
     0
 48
50.0
370
    -2
100
AcDbLine
 10
9687.512124160107
 20
6386.583134908798
 30
0.0
 11
10165.01793660163
 21
6386.583134908798
 31
0.0
  0
LINE
  5
14C4F
330
148E3
100
AcDbEntity
  8
寸法
 62
     0
 48
50.0
370
    -2
100
AcDbLine
 10
9829.497555052387
 20
6311.583134908801
 30
0.0
 11
10165.01793660163
 21
6311.583134908801
 31
0.0
  0
LINE
  5
14C50
330
148E3
100
AcDbEntity
  8
寸法
 62
     0
 48
50.0
370
    -2
100
AcDbLine
 10
10120.01793660163
 20
6311.583134908801
 30
0.0
 11
10120.01793660163
 21
6386.583134908798
 31
0.0
  0
LINE
  5
14C51
330
148E3
100
AcDbEntity
  8
寸法
 62
     0
 48
50.0
370
    -2
100
AcDbLine
 10
10120.01793660163
 20
6386.583134908798
 30
0.0
 11
10120.01793660163
 21
6674.982529010344
 31
0.0
  0
INSERT
  5
14C52
330
148E3
100
AcDbEntity
  8
寸法
 62
     0
 48
50.0
370
    -2
100
AcDbBlockReference
  2
_DOTSMALL
 10
10120.01793660163
 20
6311.583134908801
 30
0.0
 41
75.0
 42
75.0
 43
75.0
 50
270.0
  0
INSERT
  5
14C53
330
148E3
100
AcDbEntity
  8
寸法
 62
     0
 48
50.0
370
    -2
100
AcDbBlockReference
  2
_DOTSMALL
 10
10120.01793660163
 20
6386.583134908798
 30
0.0
 41
75.0
 42
75.0
 43
75.0
 50
90.0
  0
MTEXT
  5
14C54
330
148E3
100
AcDbEntity
  8
寸法
 62
     7
 48
50.0
100
AcDbMText
 10
10045.01793660163
 20
6595.44709593948
 30
0.0
 40
90.0
 41
0.0
 71
     5
 72
     1
  1
\A1;50
  7
STYLE1
 11
0.0000000000000001
 21
1.0
 31
0.0
 73
     1
 44
1.0
1001
ACAD
1000
MTEXTBEGIN
1070
    73
1070
     1
1070
    44
1040
1.0
1070
    74
1070
     0
1000
MTEXTEND
  0
POINT
  5
14C55
330
148E3
100
AcDbEntity
  8
DEFPOINTS
 62
     0
 48
50.0
100
AcDbPoint
 10
9672.512124160107
 20
6386.583134908798
 30
0.0
  0
POINT
  5
14C56
330
148E3
100
AcDbEntity
  8
DEFPOINTS
 62
     0
 48
50.0
100
AcDbPoint
 10
9814.497555052387
 20
6311.583134908801
 30
0.0
  0
POINT
  5
14C57
330
148E3
100
AcDbEntity
  8
DEFPOINTS
 62
     0
 48
50.0
100
AcDbPoint
 10
10120.01793660163
 20
6311.583134908801
 30
0.0
  0
ENDBLK
  5
148EF
330
148E3
100
AcDbEntity
  8
0
 48
50.0
100
AcDbBlockEnd
  0
BLOCK
  5
148FB
330
148F0
100
AcDbEntity
  8
0
 48
50.0
100
AcDbBlockBegin
  2
*D37
 70
     1
 10
0.0
 20
0.0
 30
0.0
  3
*D37
  1

  0
LINE
  5
14C58
330
148F0
100
AcDbEntity
  8
寸法
 62
     0
 48
50.0
370
    -2
100
AcDbLine
 10
8122.167045899502
 20
6236.583134908801
 30
0.0
 11
7613.79850019203
 21
6236.583134908801
 31
0.0
  0
LINE
  5
14C59
330
148F0
100
AcDbEntity
  8
寸法
 62
     0
 48
50.0
370
    -2
100
AcDbLine
 10
8122.167045899502
 20
6086.5831349088
 30
0.0
 11
7613.798500192029
 21
6086.5831349088
 31
0.0
  0
LINE
  5
14C5A
330
148F0
100
AcDbEntity
  8
寸法
 62
     0
 48
50.0
370
    -2
100
AcDbLine
 10
7658.79850019203
 20
6236.583134908801
 30
0.0
 11
7658.798500192029
 21
6086.5831349088
 31
0.0
  0
LINE
  5
14C5B
330
148F0
100
AcDbEntity
  8
寸法
 62
     0
 48
50.0
370
    -2
100
AcDbLine
 10
7658.798500192029
 20
6086.5831349088
 30
0.0
 11
7658.798500192029
 21
5807.512268767067
 31
0.0
  0
INSERT
  5
14C5C
330
148F0
100
AcDbEntity
  8
寸法
 62
     0
 48
50.0
370
    -2
100
AcDbBlockReference
  2
_DOTSMALL
 10
7658.79850019203
 20
6236.583134908801
 30
0.0
 41
75.0
 42
75.0
 43
75.0
 50
90.0
  0
INSERT
  5
14C5D
330
148F0
100
AcDbEntity
  8
寸法
 62
     0
 48
50.0
370
    -2
100
AcDbBlockReference
  2
_DOTSMALL
 10
7658.798500192029
 20
6086.5831349088
 30
0.0
 41
75.0
 42
75.0
 43
75.0
 50
270.0
  0
MTEXT
  5
14C5E
330
148F0
100
AcDbEntity
  8
寸法
 62
     7
 48
50.0
100
AcDbMText
 10
7583.798500192028
 20
5909.547701837934
 30
0.0
 40
90.0
 41
0.0
 71
     5
 72
     1
  1
\A1;100
  7
STYLE1
 11
0.0000000000000001
 21
1.0
 31
0.0
 73
     1
 44
1.0
1001
ACAD
1000
MTEXTBEGIN
1070
    73
1070
     1
1070
    44
1040
1.0
1070
    74
1070
     0
1000
MTEXTEND
  0
POINT
  5
14C5F
330
148F0
100
AcDbEntity
  8
DEFPOINTS
 62
     0
 48
50.0
100
AcDbPoint
 10
8137.1670458995
 20
6236.583134908801
 30
0.0
  0
POINT
  5
14C60
330
148F0
100
AcDbEntity
  8
DEFPOINTS
 62
     0
 48
50.0
100
AcDbPoint
 10
8137.1670458995
 20
6086.5831349088
 30
0.0
  0
POINT
  5
14C61
330
148F0
100
AcDbEntity
  8
DEFPOINTS
 62
     0
 48
50.0
100
AcDbPoint
 10
7658.798500192029
 20
6086.5831349088
 30
0.0
  0
ENDBLK
  5
148FC
330
148F0
100
AcDbEntity
  8
0
 48
50.0
100
AcDbBlockEnd
  0
BLOCK
  5
14908
330
148FD
100
AcDbEntity
  8
0
 48
50.0
100
AcDbBlockBegin
  2
*D38
 70
     1
 10
0.0
 20
0.0
 30
0.0
  3
*D38
  1

  0
LINE
  5
14C62
330
148FD
100
AcDbEntity
  8
寸法
 62
     0
 48
50.0
370
    -2
100
AcDbLine
 10
8122.167045899503
 20
6386.583134908798
 30
0.0
 11
7613.79850019203
 21
6386.583134908798
 31
0.0
  0
LINE
  5
14C63
330
148FD
100
AcDbEntity
  8
寸法
 62
     0
 48
50.0
370
    -2
100
AcDbLine
 10
8111.925038727719
 20
6236.583134908798
 30
0.0
 11
7613.79850019203
 21
6236.583134908798
 31
0.0
  0
LINE
  5
14C64
330
148FD
100
AcDbEntity
  8
寸法
 62
     0
 48
50.0
370
    -2
100
AcDbLine
 10
7658.79850019203
 20
6236.583134908798
 30
0.0
 11
7658.79850019203
 21
6386.583134908798
 31
0.0
  0
LINE
  5
14C65
330
148FD
100
AcDbEntity
  8
寸法
 62
     0
 48
50.0
370
    -2
100
AcDbLine
 10
7658.79850019203
 20
6386.583134908798
 30
0.0
 11
7658.79850019203
 21
6691.919595481988
 31
0.0
  0
INSERT
  5
14C66
330
148FD
100
AcDbEntity
  8
寸法
 62
     0
 48
50.0
370
    -2
100
AcDbBlockReference
  2
_DOTSMALL
 10
7658.79850019203
 20
6236.583134908798
 30
0.0
 41
75.0
 42
75.0
 43
75.0
 50
270.0
  0
INSERT
  5
14C67
330
148FD
100
AcDbEntity
  8
寸法
 62
     0
 48
50.0
370
    -2
100
AcDbBlockReference
  2
_DOTSMALL
 10
7658.79850019203
 20
6386.583134908798
 30
0.0
 41
75.0
 42
75.0
 43
75.0
 50
90.0
  0
MTEXT
  5
14C68
330
148FD
100
AcDbEntity
  8
寸法
 62
     7
 48
50.0
100
AcDbMText
 10
7583.798500192028
 20
6589.884162411124
 30
0.0
 40
90.0
 41
0.0
 71
     5
 72
     1
  1
\A1;100
  7
STYLE1
 11
0.0000000000000001
 21
1.0
 31
0.0
 73
     1
 44
1.0
1001
ACAD
1000
MTEXTBEGIN
1070
    73
1070
     1
1070
    44
1040
1.0
1070
    74
1070
     0
1000
MTEXTEND
  0
POINT
  5
14C69
330
148FD
100
AcDbEntity
  8
DEFPOINTS
 62
     0
 48
50.0
100
AcDbPoint
 10
8137.167045899502
 20
6386.583134908798
 30
0.0
  0
POINT
  5
14C6A
330
148FD
100
AcDbEntity
  8
DEFPOINTS
 62
     0
 48
50.0
100
AcDbPoint
 10
8126.925038727719
 20
6236.583134908798
 30
0.0
  0
POINT
  5
14C6B
330
148FD
100
AcDbEntity
  8
DEFPOINTS
 62
     0
 48
50.0
100
AcDbPoint
 10
7658.79850019203
 20
6236.583134908798
 30
0.0
  0
ENDBLK
  5
14909
330
148FD
100
AcDbEntity
  8
0
 48
50.0
100
AcDbBlockEnd
  0
BLOCK
  5
14914
330
1490A
100
AcDbEntity
  8
0
 48
50.0
100
AcDbBlockBegin
  2
*D39
 70
     1
 10
0.0
 20
0.0
 30
0.0
  3
*D39
  1

  0
LINE
  5
14C6C
330
1490A
100
AcDbEntity
  8
寸法
 62
     0
 48
50.0
370
    -2
100
AcDbLine
 10
8410.309336270465
 20
5271.136281726281
 30
0.0
 11
8410.309336270465
 21
4821.188069236652
 31
0.0
  0
LINE
  5
14C6D
330
1490A
100
AcDbEntity
  8
寸法
 62
     0
 48
50.0
370
    -2
100
AcDbLine
 10
9460.309336270466
 20
5271.136281726281
 30
0.0
 11
9460.309336270466
 21
4821.188069236652
 31
0.0
  0
LINE
  5
14C6E
330
1490A
100
AcDbEntity
  8
寸法
 62
     0
 48
50.0
370
    -2
100
AcDbLine
 10
8410.309336270465
 20
4866.188069236653
 30
0.0
 11
9460.309336270466
 21
4866.188069236653
 31
0.0
  0
INSERT
  5
14C6F
330
1490A
100
AcDbEntity
  8
寸法
 62
     0
 48
50.0
370
    -2
100
AcDbBlockReference
  2
_DOTSMALL
 10
8410.309336270465
 20
4866.188069236653
 30
0.0
 41
75.0
 42
75.0
 43
75.0
 50
180.0
  0
INSERT
  5
14C70
330
1490A
100
AcDbEntity
  8
寸法
 62
     0
 48
50.0
370
    -2
100
AcDbBlockReference
  2
_DOTSMALL
 10
9460.309336270466
 20
4866.188069236653
 30
0.0
 41
75.0
 42
75.0
 43
75.0
  0
MTEXT
  5
14C71
330
1490A
100
AcDbEntity
  8
寸法
 62
     7
 48
50.0
100
AcDbMText
 10
8935.309336270465
 20
4941.188069236652
 30
0.0
 40
90.0
 41
0.0
 71
     5
 72
     1
  1
\A1;700
  7
STYLE1
 73
     1
 44
1.0
1001
ACAD
1000
MTEXTBEGIN
1070
    73
1070
     1
1070
    44
1040
1.0
1070
    74
1070
     0
1000
MTEXTEND
  0
POINT
  5
14C72
330
1490A
100
AcDbEntity
  8
DEFPOINTS
 62
     0
 48
50.0
100
AcDbPoint
 10
8410.309336270465
 20
5286.136281726282
 30
0.0
  0
POINT
  5
14C73
330
1490A
100
AcDbEntity
  8
DEFPOINTS
 62
     0
 48
50.0
100
AcDbPoint
 10
9460.309336270466
 20
5286.136281726282
 30
0.0
  0
POINT
  5
14C74
330
1490A
100
AcDbEntity
  8
DEFPOINTS
 62
     0
 48
50.0
100
AcDbPoint
 10
9460.309336270466
 20
4866.188069236653
 30
0.0
  0
ENDBLK
  5
14915
330
1490A
100
AcDbEntity
  8
0
 48
50.0
100
AcDbBlockEnd
  0
BLOCK
  5
149E5
330
149D9
100
AcDbEntity
  8
0
 48
50.0
100
AcDbBlockBegin
  2
*D40
 70
     1
 10
0.0
 20
0.0
 30
0.0
  3
*D40
  1

  0
LINE
  5
14C27
330
149D9
100
AcDbEntity
  8
寸法
 62
     0
 48
50.0
370
    -2
100
AcDbLine
 10
8122.167045899502
 20
6086.583134908799
 30
0.0
 11
7979.847844613025
 21
6086.583134908799
 31
0.0
  0
LINE
  5
14C28
330
149D9
100
AcDbEntity
  8
寸法
 62
     0
 48
50.0
370
    -2
100
AcDbLine
 10
8732.809336270463
 20
6131.583134908797
 30
0.0
 11
7979.847844613025
 21
6131.583134908797
 31
0.0
  0
LINE
  5
14C29
330
149D9
100
AcDbEntity
  8
寸法
 62
     0
 48
50.0
370
    -2
100
AcDbLine
 10
8024.847844613024
 20
6131.583134908797
 30
0.0
 11
8024.847844613026
 21
6206.583134908798
 31
0.0
  0
LINE
  5
14C2A
330
149D9
100
AcDbEntity
  8
寸法
 62
     0
 48
50.0
370
    -2
100
AcDbLine
 10
8024.847844613024
 20
6086.583134908799
 30
0.0
 11
8024.847844613024
 21
5777.512268767067
 31
0.0
  0
LINE
  5
14C2B
330
149D9
100
AcDbEntity
  8
寸法
 62
     0
 48
50.0
370
    -2
100
AcDbLine
 10
8024.847844613024
 20
6131.583134908797
 30
0.0
 11
8024.847844613024
 21
6086.583134908799
 31
0.0
  0
INSERT
  5
14C2C
330
149D9
100
AcDbEntity
  8
寸法
 62
     0
 48
50.0
370
    -2
100
AcDbBlockReference
  2
_DOTSMALL
 10
8024.847844613024
 20
6131.583134908797
 30
0.0
 41
75.0
 42
75.0
 43
75.0
 50
270.0
  0
INSERT
  5
14C2D
330
149D9
100
AcDbEntity
  8
寸法
 62
     0
 48
50.0
370
    -2
100
AcDbBlockReference
  2
_DOTSMALL
 10
8024.847844613024
 20
6086.583134908799
 30
0.0
 41
75.0
 42
75.0
 43
75.0
 50
90.0
  0
MTEXT
  5
14C2E
330
149D9
100
AcDbEntity
  8
寸法
 62
     7
 48
50.0
100
AcDbMText
 10
7949.847844613024
 20
5857.047701837934
 30
0.0
 40
90.0
 41
0.0
 71
     5
 72
     1
  1
\A1;30
  7
STYLE1
 11
0.0000000000000001
 21
1.0
 31
0.0
 73
     1
 44
1.0
1001
ACAD
1000
MTEXTBEGIN
1070
    73
1070
     1
1070
    44
1040
1.0
1070
    74
1070
     0
1000
MTEXTEND
  0
POINT
  5
14C2F
330
149D9
100
AcDbEntity
  8
DEFPOINTS
 62
     0
 48
50.0
100
AcDbPoint
 10
8137.1670458995
 20
6086.583134908799
 30
0.0
  0
POINT
  5
14C30
330
149D9
100
AcDbEntity
  8
DEFPOINTS
 62
     0
 48
50.0
100
AcDbPoint
 10
8747.809336270464
 20
6131.583134908797
 30
0.0
  0
POINT
  5
14C31
330
149D9
100
AcDbEntity
  8
DEFPOINTS
 62
     0
 48
50.0
100
AcDbPoint
 10
8024.847844613024
 20
6131.583134908797
 30
0.0
  0
ENDBLK
  5
149E6
330
149D9
100
AcDbEntity
  8
0
 48
50.0
100
AcDbBlockEnd
  0
BLOCK
  5
149F4
330
149E8
100
AcDbEntity
  8
0
 48
50.0
100
AcDbBlockBegin
  2
*D41
 70
     1
 10
0.0
 20
0.0
 30
0.0
  3
*D41
  1

  0
LINE
  5
14C88
330
149E8
100
AcDbEntity
  8
寸法
 62
     0
 48
50.0
370
    -2
100
AcDbLine
 10
8122.167045899502
 20
6086.5831349088
 30
0.0
 11
7794.046941219777
 21
6086.5831349088
 31
0.0
  0
LINE
  5
14C89
330
149E8
100
AcDbEntity
  8
寸法
 62
     0
 48
50.0
370
    -2
100
AcDbLine
 10
8761.309336270462
 20
6176.083134908798
 30
0.0
 11
7794.046941219779
 21
6176.083134908798
 31
0.0
  0
LINE
  5
14C8A
330
149E8
100
AcDbEntity
  8
寸法
 62
     0
 48
50.0
370
    -2
100
AcDbLine
 10
7839.046941219779
 20
6176.083134908798
 30
0.0
 11
7839.046941219777
 21
6086.5831349088
 31
0.0
  0
LINE
  5
14C8B
330
149E8
100
AcDbEntity
  8
寸法
 62
     0
 48
50.0
370
    -2
100
AcDbLine
 10
7839.046941219777
 20
6086.5831349088
 30
0.0
 11
7839.046941219777
 21
5847.126441995413
 31
0.0
  0
INSERT
  5
14C8C
330
149E8
100
AcDbEntity
  8
寸法
 62
     0
 48
50.0
370
    -2
100
AcDbBlockReference
  2
_DOTSMALL
 10
7839.046941219779
 20
6176.083134908798
 30
0.0
 41
75.0
 42
75.0
 43
75.0
 50
90.0
  0
INSERT
  5
14C8D
330
149E8
100
AcDbEntity
  8
寸法
 62
     0
 48
50.0
370
    -2
100
AcDbBlockReference
  2
_DOTSMALL
 10
7839.046941219777
 20
6086.5831349088
 30
0.0
 41
75.0
 42
75.0
 43
75.0
 50
270.0
  0
MTEXT
  5
14C8E
330
149E8
100
AcDbEntity
  8
寸法
 62
     7
 48
50.0
100
AcDbMText
 10
7764.046941219776
 20
5929.354788452108
 30
0.0
 40
90.0
 41
0.0
 71
     5
 72
     1
  1
\A1;60
  7
STYLE1
 11
0.0000000000000001
 21
1.0
 31
0.0
 73
     1
 44
1.0
1001
ACAD
1000
MTEXTBEGIN
1070
    73
1070
     1
1070
    44
1040
1.0
1070
    74
1070
     0
1000
MTEXTEND
  0
POINT
  5
14C8F
330
149E8
100
AcDbEntity
  8
DEFPOINTS
 62
     0
 48
50.0
100
AcDbPoint
 10
8137.1670458995
 20
6086.5831349088
 30
0.0
  0
POINT
  5
14C90
330
149E8
100
AcDbEntity
  8
DEFPOINTS
 62
     0
 48
50.0
100
AcDbPoint
 10
8776.309336270463
 20
6176.083134908798
 30
0.0
  0
POINT
  5
14C91
330
149E8
100
AcDbEntity
  8
DEFPOINTS
 62
     0
 48
50.0
100
AcDbPoint
 10
7839.046941219779
 20
6176.083134908798
 30
0.0
  0
ENDBLK
  5
149F5
330
149E8
100
AcDbEntity
  8
0
 48
50.0
100
AcDbBlockEnd
  0
BLOCK
  5
14AFB
330
14AF1
100
AcDbEntity
  8
0
 48
50.0
100
AcDbBlockBegin
  2
*D42
 70
     1
 10
0.0
 20
0.0
 30
0.0
  3
*D42
  1

  0
LINE
  5
14C14
330
14AF1
100
AcDbEntity
  8
寸法
 62
     0
 48
50.0
370
    -2
100
AcDbLine
 10
9460.309336270466
 20
5271.136281726281
 30
0.0
 11
9460.309336270466
 21
4986.598783490083
 31
0.0
  0
LINE
  5
14C15
330
14AF1
100
AcDbEntity
  8
寸法
 62
     0
 48
50.0
370
    -2
100
AcDbLine
 10
9085.309336270462
 20
5271.136281726281
 30
0.0
 11
9085.309336270462
 21
4986.598783490083
 31
0.0
  0
LINE
  5
14C16
330
14AF1
100
AcDbEntity
  8
寸法
 62
     0
 48
50.0
370
    -2
100
AcDbLine
 10
9460.309336270466
 20
5031.598783490082
 30
0.0
 11
9085.309336270462
 21
5031.598783490082
 31
0.0
  0
INSERT
  5
14C17
330
14AF1
100
AcDbEntity
  8
寸法
 62
     0
 48
50.0
370
    -2
100
AcDbBlockReference
  2
_DOTSMALL
 10
9460.309336270466
 20
5031.598783490082
 30
0.0
 41
75.0
 42
75.0
 43
75.0
  0
INSERT
  5
14C18
330
14AF1
100
AcDbEntity
  8
寸法
 62
     0
 48
50.0
370
    -2
100
AcDbBlockReference
  2
_DOTSMALL
 10
9085.309336270462
 20
5031.598783490082
 30
0.0
 41
75.0
 42
75.0
 43
75.0
 50
180.0
  0
MTEXT
  5
14C19
330
14AF1
100
AcDbEntity
  8
寸法
 62
     7
 48
50.0
100
AcDbMText
 10
9272.809336270464
 20
5106.607641757799
 30
0.0
 40
90.0
 41
0.0
 71
     5
 72
     1
  1
\A1;250
  7
STYLE1
 73
     1
 44
1.0
1001
ACAD
1000
MTEXTBEGIN
1070
    73
1070
     1
1070
    44
1040
1.0
1070
    74
1070
     0
1000
MTEXTEND
  0
POINT
  5
14C1A
330
14AF1
100
AcDbEntity
  8
DEFPOINTS
 62
     0
 48
50.0
100
AcDbPoint
 10
9460.309336270466
 20
5286.136281726282
 30
0.0
  0
POINT
  5
14C1B
330
14AF1
100
AcDbEntity
  8
DEFPOINTS
 62
     0
 48
50.0
100
AcDbPoint
 10
9085.309336270462
 20
5286.136281726282
 30
0.0
  0
POINT
  5
14C1C
330
14AF1
100
AcDbEntity
  8
DEFPOINTS
 62
     0
 48
50.0
100
AcDbPoint
 10
9085.309336270462
 20
5031.598783490082
 30
0.0
  0
ENDBLK
  5
14AFC
330
14AF1
100
AcDbEntity
  8
0
 48
50.0
100
AcDbBlockEnd
  0
BLOCK
  5
14B08
330
14AFE
100
AcDbEntity
  8
0
 48
50.0
100
AcDbBlockBegin
  2
*D43
 70
     1
 10
0.0
 20
0.0
 30
0.0
  3
*D43
  1

  0
LINE
  5
14C0B
330
14AFE
100
AcDbEntity
  8
寸法
 62
     0
 48
50.0
370
    -2
100
AcDbLine
 10
9085.309336270462
 20
5271.136281726281
 30
0.0
 11
9085.309336270462
 21
4986.598783490083
 31
0.0
  0
LINE
  5
14C0C
330
14AFE
100
AcDbEntity
  8
寸法
 62
     0
 48
50.0
370
    -2
100
AcDbLine
 10
8785.309336270463
 20
5271.136281726281
 30
0.0
 11
8785.309336270463
 21
4986.598783490083
 31
0.0
  0
LINE
  5
14C0D
330
14AFE
100
AcDbEntity
  8
寸法
 62
     0
 48
50.0
370
    -2
100
AcDbLine
 10
9085.309336270462
 20
5031.598783490082
 30
0.0
 11
8785.309336270463
 21
5031.598783490082
 31
0.0
  0
INSERT
  5
14C0E
330
14AFE
100
AcDbEntity
  8
寸法
 62
     0
 48
50.0
370
    -2
100
AcDbBlockReference
  2
_DOTSMALL
 10
9085.309336270462
 20
5031.598783490082
 30
0.0
 41
75.0
 42
75.0
 43
75.0
  0
INSERT
  5
14C0F
330
14AFE
100
AcDbEntity
  8
寸法
 62
     0
 48
50.0
370
    -2
100
AcDbBlockReference
  2
_DOTSMALL
 10
8785.309336270463
 20
5031.598783490082
 30
0.0
 41
75.0
 42
75.0
 43
75.0
 50
180.0
  0
MTEXT
  5
14C10
330
14AFE
100
AcDbEntity
  8
寸法
 62
     7
 48
50.0
100
AcDbMText
 10
8935.309336270462
 20
5106.607641757799
 30
0.0
 40
90.0
 41
0.0
 71
     5
 72
     1
  1
\A1;200
  7
STYLE1
 73
     1
 44
1.0
1001
ACAD
1000
MTEXTBEGIN
1070
    73
1070
     1
1070
    44
1040
1.0
1070
    74
1070
     0
1000
MTEXTEND
  0
POINT
  5
14C11
330
14AFE
100
AcDbEntity
  8
DEFPOINTS
 62
     0
 48
50.0
100
AcDbPoint
 10
9085.309336270462
 20
5286.136281726282
 30
0.0
  0
POINT
  5
14C12
330
14AFE
100
AcDbEntity
  8
DEFPOINTS
 62
     0
 48
50.0
100
AcDbPoint
 10
8785.309336270463
 20
5286.136281726282
 30
0.0
  0
POINT
  5
14C13
330
14AFE
100
AcDbEntity
  8
DEFPOINTS
 62
     0
 48
50.0
100
AcDbPoint
 10
8785.309336270463
 20
5031.598783490082
 30
0.0
  0
ENDBLK
  5
14B09
330
14AFE
100
AcDbEntity
  8
0
 48
50.0
100
AcDbBlockEnd
  0
BLOCK
  5
14B15
330
14B0B
100
AcDbEntity
  8
0
 48
50.0
100
AcDbBlockBegin
  2
*D44
 70
     1
 10
0.0
 20
0.0
 30
0.0
  3
*D44
  1

  0
LINE
  5
14C02
330
14B0B
100
AcDbEntity
  8
寸法
 62
     0
 48
50.0
370
    -2
100
AcDbLine
 10
8785.309336270463
 20
5271.136281726281
 30
0.0
 11
8785.309336270463
 21
4986.598783490083
 31
0.0
  0
LINE
  5
14C03
330
14B0B
100
AcDbEntity
  8
寸法
 62
     0
 48
50.0
370
    -2
100
AcDbLine
 10
8410.309336270465
 20
5271.136281726281
 30
0.0
 11
8410.309336270465
 21
4986.598783490083
 31
0.0
  0
LINE
  5
14C04
330
14B0B
100
AcDbEntity
  8
寸法
 62
     0
 48
50.0
370
    -2
100
AcDbLine
 10
8785.309336270463
 20
5031.598783490082
 30
0.0
 11
8410.309336270465
 21
5031.598783490082
 31
0.0
  0
INSERT
  5
14C05
330
14B0B
100
AcDbEntity
  8
寸法
 62
     0
 48
50.0
370
    -2
100
AcDbBlockReference
  2
_DOTSMALL
 10
8785.309336270463
 20
5031.598783490082
 30
0.0
 41
75.0
 42
75.0
 43
75.0
  0
INSERT
  5
14C06
330
14B0B
100
AcDbEntity
  8
寸法
 62
     0
 48
50.0
370
    -2
100
AcDbBlockReference
  2
_DOTSMALL
 10
8410.309336270465
 20
5031.598783490082
 30
0.0
 41
75.0
 42
75.0
 43
75.0
 50
180.0
  0
MTEXT
  5
14C07
330
14B0B
100
AcDbEntity
  8
寸法
 62
     7
 48
50.0
100
AcDbMText
 10
8597.809336270463
 20
5106.607641757799
 30
0.0
 40
90.0
 41
0.0
 71
     5
 72
     1
  1
\A1;250
  7
STYLE1
 73
     1
 44
1.0
1001
ACAD
1000
MTEXTBEGIN
1070
    73
1070
     1
1070
    44
1040
1.0
1070
    74
1070
     0
1000
MTEXTEND
  0
POINT
  5
14C08
330
14B0B
100
AcDbEntity
  8
DEFPOINTS
 62
     0
 48
50.0
100
AcDbPoint
 10
8785.309336270463
 20
5286.136281726282
 30
0.0
  0
POINT
  5
14C09
330
14B0B
100
AcDbEntity
  8
DEFPOINTS
 62
     0
 48
50.0
100
AcDbPoint
 10
8410.309336270465
 20
5286.136281726282
 30
0.0
  0
POINT
  5
14C0A
330
14B0B
100
AcDbEntity
  8
DEFPOINTS
 62
     0
 48
50.0
100
AcDbPoint
 10
8410.309336270465
 20
5031.598783490082
 30
0.0
  0
ENDBLK
  5
14B16
330
14B0B
100
AcDbEntity
  8
0
 48
50.0
100
AcDbBlockEnd
  0
ENDSEC
  0
SECTION
  2
ENTITIES
  0
LINE
  5
10B56
330
747D
100
AcDbEntity
  8
補助
  6
PHANTOM
 62
   230
 48
50.0
100
AcDbLine
 10
105.0
 20
0.0
 30
0.0
 11
104.9999999999996
 21
8557.199999999999
 31
0.0
  0
LINE
  5
10B57
330
747D
100
AcDbEntity
  8
補助
  6
PHANTOM
 62
   230
 48
50.0
100
AcDbLine
 10
104.9999999999996
 20
8557.199999999999
 30
0.0
 11
12230.4
 21
8557.199999999999
 31
0.0
  0
LINE
  5
10B59
330
747D
100
AcDbEntity
  8
仕様書枠
  6
Continuous
 48
50.0
100
AcDbLine
 10
9830.400000000002
 20
900.0
 30
0.0
 11
9830.400000000002
 21
-0.0000000000000547
 31
0.0
  0
LINE
  5
10B5C
330
747D
100
AcDbEntity
  8
仕様書枠
 48
50.0
100
AcDbLine
 10
12230.4
 20
900.0
 30
0.0
 11
12230.4
 21
-0.0000000000000682
 31
0.0
  0
LINE
  5
10B5D
330
747D
100
AcDbEntity
  8
仕様書枠
 48
50.0
100
AcDbLine
 10
105.0
 20
0.0
 30
0.0
 11
12230.4
 21
-0.0000000000000682
 31
0.0
  0
LINE
  5
10B5E
330
747D
100
AcDbEntity
  8
補助
  6
PHANTOM
 62
   230
 48
50.0
100
AcDbLine
 10
12230.4
 20
8557.199999999999
 30
0.0
 11
12230.4
 21
900.0
 31
0.0
  0
LINE
  5
10B6C
330
747D
100
AcDbEntity
  8
仕様書枠
 48
50.0
100
AcDbLine
 10
9830.400000000002
 20
900.0
 30
0.0
 11
12230.4
 21
900.0
 31
0.0
  0
LINE
  5
10B6D
330
747D
100
AcDbEntity
  8
補助
  6
PHANTOM
 62
   230
 48
50.0
100
AcDbLine
 10
9830.400000000002
 20
8557.199999999999
 30
0.0
 11
9830.400000000002
 21
3600.0
 31
0.0
  0
LINE
  5
10B6F
330
747D
100
AcDbEntity
  8
補助
  6
PHANTOM
 62
   230
 48
50.0
100
AcDbLine
 10
9830.400000000002
 20
3600.0
 30
0.0
 11
12230.4
 21
3600.0
 31
0.0
  0
LINE
  5
10B72
330
747D
100
AcDbEntity
  8
文字
 62
     7
 48
50.0
100
AcDbLine
 10
9890.400000000001
 20
300.0
 30
0.0
 11
12170.4
 21
300.0
 31
0.0
  0
TEXT
  5
10B73
330
747D
100
AcDbEntity
  8
文字
 62
     7
 48
50.0
100
AcDbText
 10
9872.234292432677
 20
671.3179555724553
 30
0.0
 40
150.0
  1
基 礎 図
  7
STYLE2
100
AcDbText
  0
TEXT
  5
10B74
330
747D
100
AcDbEntity
  8
文字
 62
     7
 48
50.0
100
AcDbText
 10
9901.077524988313
 20
357.9555495773441
 30
0.0
 40
120.0
  1
機種名
  7
STYLE2
100
AcDbText
  0
TEXT
  5
10B75
330
747D
100
AcDbEntity
  8
文字
 62
     7
 48
50.0
100
AcDbText
 10
9907.054008162901
 20
171.4076431926762
 30
0.0
 40
60.0
  1
○間口寸法は柱芯寸法です。
  7
STYLE2
100
AcDbText
  0
TEXT
  5
10B76
330
747D
100
AcDbEntity
  8
文字
 62
     7
 48
50.0
100
AcDbText
 10
9907.054008162901
 20
57.07076030737008
 30
0.0
 40
60.0
  1
○寒冷地等は、地域の実情に合わせた基礎にしてください。
  7
STYLE2
100
AcDbText
  0
TEXT
  5
10B79
330
747D
100
AcDbEntity
  8
文字
 62
     7
 48
50.0
100
AcDbText
 10
10893.0988779165
 20
773.6682797184214
 30
0.0
 40
75.0
  1
NO.1     <縮尺> S=1/30
  7
STYLE2
100
AcDbText
  0
LINE
  5
10B7B
330
747D
100
AcDbEntity
  8
仕様書枠
 48
50.0
100
AcDbLine
 10
9830.400000000002
 20
600.0
 30
0.0
 11
10688.4
 21
600.0
 31
0.0
  0
LINE
  5
10B88
330
747D
100
AcDbEntity
  8
仕様書枠
  6
Continuous
 48
50.0
100
AcDbLine
 10
10688.4
 20
900.0
 30
0.0
 11
10688.4
 21
600.0
 31
0.0
  0
TEXT
  5
10BB0
330
747D
100
AcDbEntity
  8
文字
 62
     7
 48
50.0
100
AcDbText
 10
10951.9835159712
 20
362.922534743356
 30
0.0
 40
120.0
  1
BＹ-２４
  7
STYLE3
100
AcDbText
  0
TEXT
  5
10EA8
330
747D
100
AcDbEntity
  8
文字
 62
     7
 48
50.0
100
AcDbText
 10
11138.71739229687
 20
628.6895453046891
 30
0.0
 40
75.0
  1
～一般型～
  7
STYLE2
100
AcDbText
  0
LINE
  5
12058
330
747D
100
AcDbEntity
  8
文字
 48
50.0
100
AcDbLine
 10
9462.821484594153
 20
1359.84602608085
 30
0.0
 11
9462.821484594153
 21
1181.346026080849
 31
0.0
  0
LINE
  5
12059
330
747D
100
AcDbEntity
  8
文字
 48
50.0
100
AcDbLine
 10
8429.437713960631
 20
1359.84602608085
 30
0.0
 11
8429.437713960631
 21
1181.346026080849
 31
0.0
  0
TEXT
  5
1205A
330
747D
100
AcDbEntity
  8
文字
 62
     7
 48
50.0
100
AcDbText
 10
8482.705559890804
 20
1227.332858859548
 30
0.0
 40
90.0
  1
Ｂ-Ｂ' 断面　1/20
  7
STYLE2
100
AcDbText
  0
LINE
  5
1205B
330
747D
100
AcDbEntity
  8
文字
 48
50.0
100
AcDbLine
 10
8429.437713960631
 20
1181.346026080849
 30
0.0
 11
9462.821484594154
 21
1181.34602608085
 31
0.0
  0
LINE
  5
12062
330
747D
100
AcDbEntity
  8
文字
 48
50.0
100
AcDbLine
 10
8429.437713960631
 20
1359.84602608085
 30
0.0
 11
9462.821484594154
 21
1359.84602608085
 31
0.0
  0
LINE
  5
123F5
330
747D
100
AcDbEntity
  8
文字
 48
50.0
100
AcDbLine
 10
8429.437713960631
 20
4518.489493800728
 30
0.0
 11
9462.821484594154
 21
4518.489493800728
 31
0.0
  0
LINE
  5
123F6
330
747D
100
AcDbEntity
  8
文字
 48
50.0
100
AcDbLine
 10
8429.437713960631
 20
4339.989493800727
 30
0.0
 11
9462.821484594154
 21
4339.989493800727
 31
0.0
  0
TEXT
  5
123F7
330
747D
100
AcDbEntity
  8
文字
 62
     7
 48
50.0
100
AcDbText
 10
8482.705559890804
 20
4385.976326579426
 30
0.0
 40
90.0
  1
Ａ-Ａ' 断面 1/20
  7
STYLE2
100
AcDbText
  0
LINE
  5
123F8
330
747D
100
AcDbEntity
  8
文字
 48
50.0
100
AcDbLine
 10
8429.437713960631
 20
4518.489493800728
 30
0.0
 11
8429.437713960631
 21
4339.989493800727
 31
0.0
  0
LINE
  5
123F9
330
747D
100
AcDbEntity
  8
文字
 48
50.0
100
AcDbLine
 10
9462.821484594153
 20
4518.489493800728
 30
0.0
 11
9462.821484594153
 21
4339.989493800727
 31
0.0
  0
LINE
  5
136D1
330
747D
100
AcDbEntity
  8
部品1
 48
50.0
100
AcDbLine
 10
2781.610502586211
 20
4444.950660195085
 30
0.0
 11
4614.882623278098
 21
4444.950660195085
 31
0.0
  0
LINE
  5
136D2
330
747D
100
AcDbEntity
  8
文字
 48
50.0
100
AcDbLine
 10
2843.246562932154
 20
5865.166988013343
 30
0.0
 11
2143.246562932154
 21
5865.166988013343
 31
0.0
  0
LINE
  5
136D3
330
747D
100
AcDbEntity
  8
文字
 48
50.0
100
AcDbLine
 10
2843.246562932154
 20
6565.166988013342
 30
0.0
 11
2143.246562932154
 21
6565.166988013342
 31
0.0
  0
DIMENSION
  5
136D4
330
747D
100
AcDbEntity
  8
寸法
 48
50.0
100
AcDbDimension
  2
*D1
 10
5153.246562932154
 20
4825.395283416634
 30
0.0
 11
3698.246562932155
 21
4900.404141684351
 31
0.0
 70
    32
  1
屋根寸法 <>
 71
     5
 42
2910.0
  3
INABA_S30G
100
AcDbAlignedDimension
 13
2243.246562932154
 23
5215.166988013343
 33
0.0
 14
5153.246562932154
 24
5215.166988013343
 34
0.0
100
AcDbRotatedDimension
  0
LINE
  5
136D5
330
747D
100
AcDbEntity
  8
センター
 48
3.0
100
AcDbLine
 10
2318.246562932154
 20
6115.166988013346
 30
0.0
 11
2468.246562932154
 21
6115.166988013346
 31
0.0
  0
LINE
  5
136D6
330
747D
100
AcDbEntity
  8
センター
 48
3.0
100
AcDbLine
 10
2318.246562932154
 20
6315.166988013345
 30
0.0
 11
2468.246562932154
 21
6315.166988013345
 31
0.0
  0
DIMENSION
  5
136D7
330
747D
100
AcDbEntity
  8
寸法
 48
50.0
100
AcDbDimension
  2
*D2
 10
2493.246562932154
 20
7667.619282144449
 30
0.0
 11
2368.246562932154
 21
7742.628140412165
 31
0.0
 70
    32
 71
     5
 42
250.0
  3
INABA_S30G
100
AcDbAlignedDimension
 13
2243.246562932154
 23
7215.166988013343
 33
0.0
 14
2493.246562932154
 24
7465.166988013341
 34
0.0
100
AcDbRotatedDimension
  0
LINE
  5
136D8
330
747D
100
AcDbEntity
  8
点線
 48
30.0
100
AcDbLine
 10
5153.246562932154
 20
7215.166988013343
 30
0.0
 11
2243.246562932154
 21
7215.166988013343
 31
0.0
  0
DIMENSION
  5
136D9
330
747D
100
AcDbEntity
  8
寸法
 48
50.0
100
AcDbDimension
  2
*D3
 10
5153.246562932154
 20
7861.656321118768
 30
0.0
 11
3698.246562932155
 21
7936.665179386484
 31
0.0
 70
    32
  1
基礎寸法 <>
 71
     5
 42
2910.0
  3
INABA_S30G
100
AcDbAlignedDimension
 13
2243.246562932154
 23
7215.166988013343
 33
0.0
 14
5153.246562932154
 24
7215.166988013343
 34
0.0
100
AcDbRotatedDimension
  0
LINE
  5
136DA
330
747D
100
AcDbEntity
  8
センター
 48
10.0
100
AcDbLine
 10
2243.246562932154
 20
6215.166988013345
 30
0.0
 11
2743.246562932154
 21
6215.166988013343
 31
0.0
  0
MTEXT
  5
136DB
330
747D
100
AcDbEntity
  8
寸法
 62
     7
 48
50.0
100
AcDbMText
 10
2299.238447714295
 20
5332.447033880843
 30
0.0
 40
90.0
 41
0.0
 71
     4
 72
     1
  1
\A1;床コンクリート打コテ押エ
  7
STYLE1
 73
     1
 44
1.0
1001
ACAD
1000
MTEXTBEGIN
1070
    73
1070
     1
1070
    44
1040
1.0
1070
    74
1070
     0
1000
MTEXTEND
  0
LINE
  5
136DC
330
747D
100
AcDbEntity
  8
点線
 48
30.0
100
AcDbLine
 10
2243.246562932154
 20
5215.166988013343
 30
0.0
 11
5153.246562932154
 21
5215.166988013343
 31
0.0
  0
DIMENSION
  5
136DD
330
747D
100
AcDbEntity
  8
寸法
 48
50.0
100
AcDbDimension
  2
*D4
 10
1802.213196604587
 20
5215.166988013343
 30
0.0
 11
1727.213196604586
 21
5715.166988013345
 31
0.0
 70
    32
 71
     5
 42
1000.000000000001
  3
INABA_S30G
100
AcDbAlignedDimension
 13
2243.246562932154
 23
6215.166988013345
 33
0.0
 14
2243.246562932154
 24
5215.166988013343
 34
0.0
 50
90.0
100
AcDbRotatedDimension
  0
LINE
  5
136DE
330
747D
100
AcDbEntity
  8
点線
 48
30.0
100
AcDbLine
 10
2243.246562932154
 20
7215.166988013343
 30
0.0
 11
2243.246562932154
 21
5215.166988013343
 31
0.0
  0
DIMENSION
  5
136DF
330
747D
100
AcDbEntity
  8
寸法
 48
50.0
100
AcDbDimension
  2
*D5
 10
1579.625364204463
 20
5215.166988013343
 30
0.0
 11
1504.616505936746
 21
6215.166988013343
 31
0.0
 70
    32
  1
基礎寸法 <>
 71
     5
 42
2000.0
  3
INABA_S30G
100
AcDbAlignedDimension
 13
2243.246562932154
 23
7215.166988013343
 33
0.0
 14
2243.246562932154
 24
5215.166988013343
 34
0.0
 50
90.0
100
AcDbRotatedDimension
  0
LINE
  5
136E0
330
747D
100
AcDbEntity
  8
文字
 48
50.0
100
AcDbLine
 10
2143.246562932154
 20
6565.166988013342
 30
0.0
 11
2143.246562932154
 21
5865.166988013343
 31
0.0
  0
DIMENSION
  5
136E1
330
747D
100
AcDbEntity
  8
寸法
 48
50.0
100
AcDbDimension
  2
*D6
 10
1802.374726220923
 20
6215.166988013346
 30
0.0
 11
1727.374726220922
 21
6715.166988013345
 31
0.0
 70
    32
 71
     5
 42
999.9999999999982
  3
INABA_S30G
100
AcDbAlignedDimension
 13
2243.246562932154
 23
7215.166988013343
 33
0.0
 14
2243.246562932154
 24
6215.166988013345
 34
0.0
 50
90.0
100
AcDbRotatedDimension
  0
DIMENSION
  5
136E2
330
747D
100
AcDbEntity
  8
寸法
 48
50.0
100
AcDbDimension
  2
*D7
 10
5153.246562932154
 20
7668.216517489357
 30
0.0
 11
5028.246562932154
 21
7743.225375757072
 31
0.0
 70
    32
 71
     5
 42
250.0
  3
INABA_S30G
100
AcDbAlignedDimension
 13
4903.246562932154
 23
7285.166988013346
 33
0.0
 14
5153.246562932154
 24
7215.166988013343
 34
0.0
100
AcDbRotatedDimension
  0
DIMENSION
  5
136E3
330
747D
100
AcDbEntity
  8
寸法
 48
50.0
100
AcDbDimension
  2
*D8
 10
4903.246562932154
 20
7667.619282144449
 30
0.0
 11
3698.246562932155
 21
7742.628140412165
 31
0.0
 70
    32
 71
     5
 42
2410.0
  3
INABA_S30G
100
AcDbAlignedDimension
 13
2493.246562932154
 23
6465.166988013343
 33
0.0
 14
4903.246562932154
 24
6903.712005384263
 34
0.0
100
AcDbRotatedDimension
  0
MTEXT
  5
136E4
102
{ACAD_REACTORS
330
136E5
102
}
330
747D
100
AcDbEntity
  8
寸法
 62
     7
 48
50.0
100
AcDbMText
 10
4512.437660503012
 20
5694.02322571619
 30
0.0
 40
90.0
 41
0.0
 71
     6
 72
     1
  1
\A1;ｱﾝｶｰﾎﾞﾙﾄ\PM12x315(市販品)
  7
STYLE1
 73
     1
 44
1.0
1001
ACAD
1000
MTEXTBEGIN
1070
    73
1070
     1
1070
    44
1040
1.0
1070
    74
1070
     0
1000
MTEXTEND
  0
LEADER
  5
136E5
330
747D
100
AcDbEntity
  8
寸法
 48
50.0
100
AcDbLeader
  3
INABA_S30G
 73
     0
 75
     1
 40
249.0
 41
791.9645669291342
 76
     3
 10
4803.246562932154
 20
6115.166988013343
 30
0.0
 10
4617.437660503012
 20
5539.52322571619
 30
0.0
 10
4542.437660503011
 20
5539.52322571619
 30
0.0
340
136E4
  0
DIMENSION
  5
136E6
330
747D
100
AcDbEntity
  8
寸法
 48
50.0
100
AcDbDimension
  2
*D9
 10
4375.932059647974
 20
5865.166988013343
 30
0.0
 11
4300.932059647973
 21
6215.166988013343
 31
0.0
 70
    32
 71
     5
 42
700.0
  3
INABA_S30G
100
AcDbAlignedDimension
 13
4553.246562932154
 23
6565.166988013342
 33
0.0
 14
4553.246562932154
 24
5865.166988013343
 34
0.0
 50
90.0
100
AcDbRotatedDimension
  0
TEXT
  5
136E7
330
747D
100
AcDbEntity
  8
文字
 62
     7
 48
50.0
100
AcDbText
 10
2805.169744194222
 20
4508.982766907391
 30
0.0
 40
120.0
  1
A:プレート方式基礎伏図
  7
STYLE2
100
AcDbText
  0
LINE
  5
136E8
330
747D
100
AcDbEntity
  8
文字
 48
50.0
100
AcDbLine
 10
3409.86859960163
 20
6104.990150078466
 30
0.0
 11
3409.86859960163
 21
5468.477750616527
 31
0.0
  0
LINE
  5
136E9
330
747D
100
AcDbEntity
  8
寸法
 48
50.0
100
AcDbLine
 10
2493.246562932154
 20
5786.268025533212
 30
0.0
 11
2493.246562932154
 21
5965.166988013343
 31
0.0
  0
MTEXT
  5
136EA
330
747D
100
AcDbEntity
  8
寸法
 62
     7
 48
50.0
100
AcDbMText
 10
2791.852453911
 20
5789.040822525293
 30
0.0
 40
90.0
 41
0.0
 71
     4
 72
     1
  1
A'
  7
STYLE1
 73
     1
 44
1.0
1001
ACAD
1000
MTEXTBEGIN
1070
    73
1070
     1
1070
    44
1040
1.0
1070
    74
1070
     0
1000
MTEXTEND
  0
LINE
  5
136EB
330
747D
100
AcDbEntity
  8
寸法
 48
50.0
100
AcDbLine
 10
2493.246562932154
 20
5786.268025533212
 30
0.0
 11
2747.380393681075
 21
5786.268025533212
 31
0.0
  0
LINE
  5
136EC
330
747D
100
AcDbEntity
  8
寸法
 48
50.0
100
AcDbLine
 10
2747.380393681075
 20
5786.268025533212
 30
0.0
 11
2639.647023098096
 21
5757.400955887621
 31
0.0
  0
LINE
  5
136ED
330
747D
100
AcDbEntity
  8
寸法
 48
50.0
100
AcDbLine
 10
2639.647023098096
 20
5757.400955887621
 30
0.0
 11
2639.647023098096
 21
5823.335574809172
 31
0.0
  0
LINE
  5
136EE
330
747D
100
AcDbEntity
  8
文字
 48
50.0
100
AcDbLine
 10
3409.86859960163
 20
5468.477750616527
 30
0.0
 11
3377.020316768816
 21
5591.06921108998
 31
0.0
  0
LINE
  5
136EF
330
747D
100
AcDbEntity
  8
文字
 48
50.0
100
AcDbLine
 10
3409.86859960163
 20
5468.477750616527
 30
0.0
 11
3442.716882434444
 21
5591.06921108998
 31
0.0
  0
MTEXT
  5
136F0
330
747D
100
AcDbEntity
  8
寸法
 62
     7
 48
50.0
100
AcDbMText
 10
3315.430663535825
 20
5869.454166108135
 30
0.0
 40
90.0
 41
0.0
 71
     4
 72
     1
  1
\A1;水勾配 1/100 
  7
STYLE1
 11
0.0000000000000001
 21
1.0
 31
0.0
 73
     1
 44
1.0
1001
ACAD
1000
MTEXTBEGIN
1070
    73
1070
     1
1070
    44
1040
1.0
1070
    74
1070
     0
1000
MTEXTEND
  0
LINE
  5
136F1
330
747D
100
AcDbEntity
  8
文字
 48
50.0
100
AcDbLine
 10
2843.246562932154
 20
6565.166988013342
 30
0.0
 11
2843.246562932154
 21
5865.166988013343
 31
0.0
  0
LINE
  5
136F2
330
747D
100
AcDbEntity
  8
センター
 48
10.0
100
AcDbLine
 10
2743.246562932154
 20
6215.166988013343
 30
0.0
 11
3211.389021724048
 21
6215.166988013343
 31
0.0
  0
LINE
  5
136F3
330
747D
100
AcDbEntity
  8
センター
 48
10.0
100
AcDbLine
 10
2493.246562932154
 20
6465.166988013343
 30
0.0
 11
2493.246562932154
 21
5965.166988013343
 31
0.0
  0
LINE
  5
136F4
330
747D
100
AcDbEntity
  8
センター
 48
3.0
100
AcDbLine
 10
2518.246562932154
 20
6115.166988013343
 30
0.0
 11
2668.246562932154
 21
6115.166988013343
 31
0.0
  0
CIRCLE
  5
136F5
330
747D
100
AcDbEntity
  8
部品1
 48
50.0
100
AcDbCircle
 10
2393.246562932154
 20
6115.166988013343
 30
0.0
 40
15.0
  0
LINE
  5
136F6
330
747D
100
AcDbEntity
  8
センター
 48
3.0
100
AcDbLine
 10
2393.246562932154
 20
6190.166988013343
 30
0.0
 11
2393.246562932154
 21
6040.166988013343
 31
0.0
  0
CIRCLE
  5
136F7
330
747D
100
AcDbEntity
  8
部品1
 48
50.0
100
AcDbCircle
 10
2593.246562932154
 20
6115.166988013343
 30
0.0
 40
15.0
  0
LINE
  5
136F8
330
747D
100
AcDbEntity
  8
センター
 48
3.0
100
AcDbLine
 10
2593.246562932154
 20
6190.166988013343
 30
0.0
 11
2593.246562932154
 21
6040.166988013343
 31
0.0
  0
LINE
  5
136F9
330
747D
100
AcDbEntity
  8
センター
 48
3.0
100
AcDbLine
 10
2518.246562932154
 20
6315.166988013343
 30
0.0
 11
2668.246562932154
 21
6315.166988013343
 31
0.0
  0
LINE
  5
136FA
330
747D
100
AcDbEntity
  8
センター
 48
3.0
100
AcDbLine
 10
2593.246562932154
 20
6390.166988013343
 30
0.0
 11
2593.246562932154
 21
6240.166988013343
 31
0.0
  0
LINE
  5
136FB
330
747D
100
AcDbEntity
  8
センター
 48
3.0
100
AcDbLine
 10
2393.246562932154
 20
6390.166988013345
 30
0.0
 11
2393.246562932154
 21
6240.166988013346
 31
0.0
  0
CIRCLE
  5
136FC
330
747D
100
AcDbEntity
  8
部品1
 48
50.0
100
AcDbCircle
 10
2393.246562932154
 20
6315.166988013343
 30
0.0
 40
15.0
  0
CIRCLE
  5
136FD
330
747D
100
AcDbEntity
  8
部品1
 48
50.0
100
AcDbCircle
 10
2593.246562932154
 20
6315.166988013343
 30
0.0
 40
15.0
  0
LINE
  5
136FE
330
747D
100
AcDbEntity
  8
寸法
 48
50.0
100
AcDbLine
 10
2493.246562932154
 20
6644.065950493474
 30
0.0
 11
2747.380393681075
 21
6644.065950493474
 31
0.0
  0
LINE
  5
136FF
330
747D
100
AcDbEntity
  8
寸法
 48
50.0
100
AcDbLine
 10
2747.380393681075
 20
6644.065950493474
 30
0.0
 11
2639.647023098096
 21
6672.933020139065
 31
0.0
  0
LINE
  5
13700
330
747D
100
AcDbEntity
  8
寸法
 48
50.0
100
AcDbLine
 10
2639.647023098096
 20
6672.933020139065
 30
0.0
 11
2639.647023098096
 21
6606.998401217516
 31
0.0
  0
MTEXT
  5
13701
330
747D
100
AcDbEntity
  8
寸法
 62
     7
 48
50.0
100
AcDbMText
 10
2793.111082769685
 20
6661.000477691698
 30
0.0
 40
90.0
 41
0.0
 71
     4
 72
     1
  1
A
  7
STYLE1
 73
     1
 44
1.0
1001
ACAD
1000
MTEXTBEGIN
1070
    73
1070
     1
1070
    44
1040
1.0
1070
    74
1070
     0
1000
MTEXTEND
  0
LINE
  5
13702
330
747D
100
AcDbEntity
  8
文字
 48
50.0
100
AcDbLine
 10
3409.86859960163
 20
6325.343825948221
 30
0.0
 11
3409.86859960163
 21
6961.85622541016
 31
0.0
  0
LINE
  5
13703
330
747D
100
AcDbEntity
  8
センター
 48
10.0
100
AcDbLine
 10
3462.362059653948
 20
6215.166988013343
 30
0.0
 11
4208.847233293726
 21
6215.166988013343
 31
0.0
  0
LINE
  5
13704
330
747D
100
AcDbEntity
  8
文字
 48
50.0
100
AcDbLine
 10
3409.86859960163
 20
6961.85622541016
 30
0.0
 11
3442.716882434444
 21
6839.264764936706
 31
0.0
  0
LINE
  5
13705
330
747D
100
AcDbEntity
  8
文字
 48
50.0
100
AcDbLine
 10
3409.86859960163
 20
6961.85622541016
 30
0.0
 11
3377.020316768816
 21
6839.264764936706
 31
0.0
  0
DIMENSION
  5
13706
330
747D
100
AcDbEntity
  8
寸法
 48
50.0
100
AcDbDimension
  2
*D10
 10
5635.520785295768
 20
5215.166988013343
 30
0.0
 11
5560.511927028051
 21
6215.166988013343
 31
0.0
 70
    32
  1
屋根寸法 <>
 71
     5
 42
2000.0
  3
INABA_S30G
100
AcDbAlignedDimension
 13
5153.246562932154
 23
7215.166988013343
 33
0.0
 14
5153.246562932154
 24
5215.166988013343
 34
0.0
 50
90.0
100
AcDbRotatedDimension
  0
DIMENSION
  5
13707
330
747D
100
AcDbEntity
  8
寸法
 48
50.0
100
AcDbDimension
  2
*D11
 10
4803.246562932154
 20
5645.645704700538
 30
0.0
 11
4903.246562932154
 21
5720.654562968255
 31
0.0
 70
    32
 71
     5
 42
200.0
  3
INABA_S30G
100
AcDbAlignedDimension
 13
5003.246562932154
 23
6040.166988013343
 33
0.0
 14
4803.246562932154
 24
6040.166988013343
 34
0.0
100
AcDbRotatedDimension
  0
LINE
  5
13708
330
747D
100
AcDbEntity
  8
点線
 48
30.0
100
AcDbLine
 10
5153.246562932154
 20
5215.166988013343
 30
0.0
 11
5153.246562932154
 21
7215.166988013343
 31
0.0
  0
DIMENSION
  5
13709
330
747D
100
AcDbEntity
  8
寸法
 48
50.0
100
AcDbDimension
  2
*D12
 10
5414.833990069724
 20
6315.166988013343
 30
0.0
 11
5339.825131802006
 21
6215.166988013343
 31
0.0
 70
    32
 71
     5
 42
200.0
  3
INABA_S30G
100
AcDbAlignedDimension
 13
5078.246562932154
 23
6115.166988013343
 33
0.0
 14
5078.246562932154
 24
6315.166988013343
 34
0.0
 50
90.0
100
AcDbRotatedDimension
  0
LINE
  5
1370A
330
747D
100
AcDbEntity
  8
文字
 48
50.0
100
AcDbLine
 10
4553.246562932154
 20
6565.166988013342
 30
0.0
 11
4553.246562932154
 21
5865.166988013343
 31
0.0
  0
LINE
  5
1370B
330
747D
100
AcDbEntity
  8
文字
 48
50.0
100
AcDbLine
 10
5253.246562932154
 20
6565.166988013342
 30
0.0
 11
5253.246562932154
 21
5865.166988013343
 31
0.0
  0
LINE
  5
1370C
330
747D
100
AcDbEntity
  8
センター
 48
3.0
100
AcDbLine
 10
4728.246562932154
 20
6115.166988013346
 30
0.0
 11
4878.246562932154
 21
6115.166988013346
 31
0.0
  0
LINE
  5
1370D
330
747D
100
AcDbEntity
  8
センター
 48
3.0
100
AcDbLine
 10
4728.246562932154
 20
6315.166988013345
 30
0.0
 11
4878.246562932154
 21
6315.166988013345
 31
0.0
  0
LINE
  5
1370E
330
747D
100
AcDbEntity
  8
文字
 48
50.0
100
AcDbLine
 10
4553.246562932154
 20
5865.166988013343
 30
0.0
 11
5253.246562932154
 21
5865.166988013343
 31
0.0
  0
LINE
  5
1370F
330
747D
100
AcDbEntity
  8
センター
 48
10.0
100
AcDbLine
 10
4653.246562932154
 20
6215.166988013345
 30
0.0
 11
5153.246562932154
 21
6215.166988013343
 31
0.0
  0
CIRCLE
  5
13710
330
747D
100
AcDbEntity
  8
部品1
 48
50.0
100
AcDbCircle
 10
4803.246562932154
 20
6115.166988013343
 30
0.0
 40
15.0
  0
LINE
  5
13711
330
747D
100
AcDbEntity
  8
センター
 48
3.0
100
AcDbLine
 10
4803.246562932154
 20
6190.166988013343
 30
0.0
 11
4803.246562932154
 21
6040.166988013343
 31
0.0
  0
LINE
  5
13712
330
747D
100
AcDbEntity
  8
センター
 48
3.0
100
AcDbLine
 10
4803.246562932154
 20
6390.166988013345
 30
0.0
 11
4803.246562932154
 21
6240.166988013346
 31
0.0
  0
CIRCLE
  5
13713
330
747D
100
AcDbEntity
  8
部品1
 48
50.0
100
AcDbCircle
 10
4803.246562932154
 20
6315.166988013343
 30
0.0
 40
15.0
  0
LINE
  5
13714
330
747D
100
AcDbEntity
  8
センター
 48
10.0
100
AcDbLine
 10
4903.246562932154
 20
5965.166988013345
 30
0.0
 11
4903.246562932154
 21
6465.166988013345
 31
0.0
  0
LINE
  5
13715
330
747D
100
AcDbEntity
  8
センター
 48
3.0
100
AcDbLine
 10
4928.246562932154
 20
6115.166988013343
 30
0.0
 11
5078.246562932154
 21
6115.166988013343
 31
0.0
  0
CIRCLE
  5
13716
330
747D
100
AcDbEntity
  8
部品1
 48
50.0
100
AcDbCircle
 10
5003.246562932154
 20
6115.166988013343
 30
0.0
 40
15.0
  0
LINE
  5
13717
330
747D
100
AcDbEntity
  8
センター
 48
3.0
100
AcDbLine
 10
5003.246562932154
 20
6190.166988013343
 30
0.0
 11
5003.246562932154
 21
6040.166988013343
 31
0.0
  0
LINE
  5
13718
330
747D
100
AcDbEntity
  8
センター
 48
3.0
100
AcDbLine
 10
4928.246562932154
 20
6315.166988013343
 30
0.0
 11
5078.246562932154
 21
6315.166988013343
 31
0.0
  0
LINE
  5
13719
330
747D
100
AcDbEntity
  8
センター
 48
3.0
100
AcDbLine
 10
5003.246562932154
 20
6390.166988013343
 30
0.0
 11
5003.246562932154
 21
6240.166988013343
 31
0.0
  0
CIRCLE
  5
1371A
330
747D
100
AcDbEntity
  8
部品1
 48
50.0
100
AcDbCircle
 10
5003.246562932154
 20
6315.166988013343
 30
0.0
 40
15.0
  0
LINE
  5
1371B
330
747D
100
AcDbEntity
  8
文字
 48
50.0
100
AcDbLine
 10
4553.246562932154
 20
6565.166988013342
 30
0.0
 11
5253.246562932154
 21
6565.166988013342
 31
0.0
  0
DIMENSION
  5
1371C
330
747D
100
AcDbEntity
  8
寸法
 48
50.0
100
AcDbDimension
  2
*D13
 10
5253.246562932154
 20
6762.956349313339
 30
0.0
 11
4903.246562932154
 21
6762.956349313339
 31
0.0
 70
   160
 71
     5
 42
700.0
  3
INABA_S30G
100
AcDbAlignedDimension
 13
4553.246562932154
 23
6565.166988013342
 33
0.0
 14
5253.246562932154
 24
6565.166988013342
 34
0.0
100
AcDbRotatedDimension
  0
DIMENSION
  5
1371D
330
747D
100
AcDbEntity
  8
寸法
 48
50.0
100
AcDbDimension
  2
*D14
 10
5153.246562932154
 20
879.9963031197695
 30
0.0
 11
3698.246562932155
 21
955.005161387486
 31
0.0
 70
    32
  1
屋根寸法 <>
 71
     5
 42
2910.0
  3
INABA_S30G
100
AcDbAlignedDimension
 13
2243.246562932154
 23
1269.768007716479
 33
0.0
 14
5153.246562932154
 24
1269.768007716479
 34
0.0
100
AcDbRotatedDimension
  0
MTEXT
  5
1371E
330
747D
100
AcDbEntity
  8
寸法
 62
     7
 48
50.0
100
AcDbMText
 10
2299.238447714295
 20
1387.048053583978
 30
0.0
 40
90.0
 41
0.0
 71
     4
 72
     1
  1
\A1;床コンクリート打コテ押エ
  7
STYLE1
 73
     1
 44
1.0
1001
ACAD
1000
MTEXTBEGIN
1070
    73
1070
     1
1070
    44
1040
1.0
1070
    74
1070
     0
1000
MTEXTEND
  0
DIMENSION
  5
1371F
330
747D
100
AcDbEntity
  8
寸法
 48
50.0
100
AcDbDimension
  2
*D15
 10
2493.246562932154
 20
3722.220301847585
 30
0.0
 11
2368.246562932154
 21
3797.229160115302
 31
0.0
 70
    32
 71
     5
 42
250.0
  3
INABA_S30G
100
AcDbAlignedDimension
 13
2243.246562932154
 23
3269.768007716479
 33
0.0
 14
2493.246562932154
 24
3519.768007716477
 34
0.0
100
AcDbRotatedDimension
  0
LINE
  5
13720
330
747D
100
AcDbEntity
  8
点線
 48
30.0
100
AcDbLine
 10
5153.246562932154
 20
3269.768007716479
 30
0.0
 11
2243.246562932154
 21
3269.768007716479
 31
0.0
  0
DIMENSION
  5
13721
330
747D
100
AcDbEntity
  8
寸法
 48
50.0
100
AcDbDimension
  2
*D16
 10
5153.246562932154
 20
3916.257340821903
 30
0.0
 11
3698.246562932155
 21
3991.26619908962
 31
0.0
 70
    32
  1
基礎寸法 <>
 71
     5
 42
2910.0
  3
INABA_S30G
100
AcDbAlignedDimension
 13
2243.246562932154
 23
3269.768007716479
 33
0.0
 14
5153.246562932154
 24
3269.768007716479
 34
0.0
100
AcDbRotatedDimension
  0
LINE
  5
13722
330
747D
100
AcDbEntity
  8
点線
 48
30.0
100
AcDbLine
 10
2243.246562932154
 20
1269.768007716479
 30
0.0
 11
5153.246562932154
 21
1269.768007716479
 31
0.0
  0
LINE
  5
13723
330
747D
100
AcDbEntity
  8
センター
 48
10.0
100
AcDbLine
 10
2168.246562932154
 20
2269.768007716479
 30
0.0
 11
2818.246562932154
 21
2269.768007716479
 31
0.0
  0
LINE
  5
13724
330
747D
100
AcDbEntity
  8
文字
 48
50.0
100
AcDbLine
 10
2143.246562932154
 20
1919.768007716479
 30
0.0
 11
2843.246562932154
 21
1919.768007716479
 31
0.0
  0
LINE
  5
13725
330
747D
100
AcDbEntity
  8
文字
 48
50.0
100
AcDbLine
 10
2143.246562932154
 20
2619.768007716479
 30
0.0
 11
2843.246562932154
 21
2619.768007716479
 31
0.0
  0
DIMENSION
  5
13726
330
747D
100
AcDbEntity
  8
寸法
 48
50.0
100
AcDbDimension
  2
*D17
 10
1802.213196604587
 20
1269.768007716479
 30
0.0
 11
1727.213196604587
 21
1769.768007716479
 31
0.0
 70
    32
 71
     5
 42
1000.0
  3
INABA_S30G
100
AcDbAlignedDimension
 13
2168.246562932154
 23
2269.768007716479
 33
0.0
 14
2243.246562932154
 24
1269.768007716479
 34
0.0
 50
90.0
100
AcDbRotatedDimension
  0
DIMENSION
  5
13727
330
747D
100
AcDbEntity
  8
寸法
 48
50.0
100
AcDbDimension
  2
*D18
 10
1579.625364204463
 20
1269.768007716479
 30
0.0
 11
1504.616505936746
 21
2269.768007716479
 31
0.0
 70
    32
  1
基礎寸法 <>
 71
     5
 42
2000.0
  3
INABA_S30G
100
AcDbAlignedDimension
 13
2243.246562932154
 23
3269.768007716479
 33
0.0
 14
2243.246562932154
 24
1269.768007716479
 34
0.0
 50
90.0
100
AcDbRotatedDimension
  0
LINE
  5
13728
330
747D
100
AcDbEntity
  8
点線
 48
30.0
100
AcDbLine
 10
2243.246562932154
 20
3269.768007716479
 30
0.0
 11
2243.246562932154
 21
1269.768007716479
 31
0.0
  0
DIMENSION
  5
13729
330
747D
100
AcDbEntity
  8
寸法
 48
50.0
100
AcDbDimension
  2
*D19
 10
1802.374726220923
 20
2269.768007716479
 30
0.0
 11
1727.374726220923
 21
2769.768007716479
 31
0.0
 70
    32
 71
     5
 42
1000.0
  3
INABA_S30G
100
AcDbAlignedDimension
 13
2243.246562932154
 23
3269.768007716479
 33
0.0
 14
2168.246562932154
 24
2269.768007716479
 34
0.0
 50
90.0
100
AcDbRotatedDimension
  0
LINE
  5
1372A
330
747D
100
AcDbEntity
  8
文字
 48
50.0
100
AcDbLine
 10
2143.246562932154
 20
2619.768007716479
 30
0.0
 11
2143.246562932154
 21
1919.768007716479
 31
0.0
  0
DIMENSION
  5
1372B
330
747D
100
AcDbEntity
  8
寸法
 48
50.0
100
AcDbDimension
  2
*D20
 10
5635.520785295768
 20
1269.768007716478
 30
0.0
 11
5560.511927028052
 21
2269.76800771648
 31
0.0
 70
    32
  1
屋根寸法 <>
 71
     5
 42
2000.0
  3
INABA_S30G
100
AcDbAlignedDimension
 13
5153.246562932154
 23
3269.768007716479
 33
0.0
 14
5153.246562932154
 24
1269.768007716479
 34
0.0
 50
90.0
100
AcDbRotatedDimension
  0
LINE
  5
1372C
330
747D
100
AcDbEntity
  8
点線
 48
30.0
100
AcDbLine
 10
5153.246562932154
 20
1269.768007716479
 30
0.0
 11
5153.246562932154
 21
3269.768007716479
 31
0.0
  0
LINE
  5
1372D
330
747D
100
AcDbEntity
  8
文字
 48
50.0
100
AcDbLine
 10
3409.86859960163
 20
2159.591169781601
 30
0.0
 11
3409.86859960163
 21
1523.078770319662
 31
0.0
  0
LINE
  5
1372E
330
747D
100
AcDbEntity
  8
部品1
 48
50.0
100
AcDbLine
 10
2727.192399617583
 20
499.5516798982207
 30
0.0
 11
4668.448709251592
 21
499.5516798982207
 31
0.0
  0
TEXT
  5
1372F
330
747D
100
AcDbEntity
  8
文字
 62
     7
 48
50.0
100
AcDbText
 10
2750.751641225594
 20
563.5837866105267
 30
0.0
 40
120.0
  1
B:埋め込み方式基礎伏図
  7
STYLE2
100
AcDbText
  0
LINE
  5
13730
330
747D
100
AcDbEntity
  8
文字
 48
50.0
100
AcDbLine
 10
3409.86859960163
 20
1523.078770319662
 30
0.0
 11
3442.716882434444
 21
1645.670230793115
 31
0.0
  0
LINE
  5
13731
330
747D
100
AcDbEntity
  8
文字
 48
50.0
100
AcDbLine
 10
3409.86859960163
 20
1523.078770319662
 30
0.0
 11
3377.020316768816
 21
1645.670230793115
 31
0.0
  0
DIMENSION
  5
13732
330
747D
100
AcDbEntity
  8
寸法
 48
50.0
100
AcDbDimension
  2
*D21
 10
4375.932059647974
 20
1919.768007716479
 30
0.0
 11
4300.932059647974
 21
2269.768007716479
 31
0.0
 70
    32
 71
     5
 42
700.0
  3
INABA_S30G
100
AcDbAlignedDimension
 13
4553.246562932154
 23
2619.768007716479
 33
0.0
 14
4553.246562932154
 24
1919.768007716479
 34
0.0
 50
90.0
100
AcDbRotatedDimension
  0
DIMENSION
  5
13733
330
747D
100
AcDbEntity
  8
寸法
 48
50.0
100
AcDbDimension
  2
*D22
 10
4903.246562932154
 20
3722.220301847585
 30
0.0
 11
3698.246562932155
 21
3797.229160115302
 31
0.0
 70
    32
 71
     5
 42
2410.0
  3
INABA_S30G
100
AcDbAlignedDimension
 13
2493.246562932154
 23
2519.768007716479
 33
0.0
 14
4903.246562932154
 24
2958.313025087398
 34
0.0
100
AcDbRotatedDimension
  0
MTEXT
  5
13734
330
747D
100
AcDbEntity
  8
寸法
 62
     7
 48
50.0
100
AcDbMText
 10
3315.430663535825
 20
1924.05518581127
 30
0.0
 40
90.0
 41
0.0
 71
     4
 72
     1
  1
\A1;水勾配 1/100 
  7
STYLE1
 11
0.0000000000000001
 21
1.0
 31
0.0
 73
     1
 44
1.0
1001
ACAD
1000
MTEXTBEGIN
1070
    73
1070
     1
1070
    44
1040
1.0
1070
    74
1070
     0
1000
MTEXTEND
  0
LINE
  5
13735
330
747D
100
AcDbEntity
  8
文字
 48
50.0
100
AcDbLine
 10
2843.246562932154
 20
2619.768007716479
 30
0.0
 11
2843.246562932154
 21
1919.768007716479
 31
0.0
  0
LINE
  5
13736
330
747D
100
AcDbEntity
  8
センター
 48
10.0
100
AcDbLine
 10
2493.246562932154
 20
2519.768007716479
 30
0.0
 11
2493.246562932154
 21
2019.768007716479
 31
0.0
  0
MTEXT
  5
13737
330
747D
100
AcDbEntity
  8
寸法
 62
     7
 48
50.0
100
AcDbMText
 10
2791.852453911
 20
1813.641842228428
 30
0.0
 40
90.0
 41
0.0
 71
     4
 72
     1
  1
B'
  7
STYLE1
 73
     1
 44
1.0
1001
ACAD
1000
MTEXTBEGIN
1070
    73
1070
     1
1070
    44
1040
1.0
1070
    74
1070
     0
1000
MTEXTEND
  0
LINE
  5
13738
330
747D
100
AcDbEntity
  8
寸法
 48
50.0
100
AcDbLine
 10
2493.246562932154
 20
1810.869045236348
 30
0.0
 11
2493.246562932154
 21
2019.768007716479
 31
0.0
  0
LINE
  5
13739
330
747D
100
AcDbEntity
  8
寸法
 48
50.0
100
AcDbLine
 10
2493.246562932154
 20
1810.869045236348
 30
0.0
 11
2747.380393681075
 21
1810.869045236348
 31
0.0
  0
LINE
  5
1373A
330
747D
100
AcDbEntity
  8
寸法
 48
50.0
100
AcDbLine
 10
2639.647023098096
 20
1782.001975590756
 30
0.0
 11
2639.647023098096
 21
1847.936594512308
 31
0.0
  0
LINE
  5
1373B
330
747D
100
AcDbEntity
  8
寸法
 48
50.0
100
AcDbLine
 10
2747.380393681075
 20
1810.869045236348
 30
0.0
 11
2639.647023098096
 21
1782.001975590756
 31
0.0
  0
LINE
  5
1373C
330
747D
100
AcDbEntity
  8
文字
 48
50.0
100
AcDbLine
 10
2533.246562932154
 20
2309.768007716477
 30
0.0
 11
2453.246562932154
 21
2309.768007716477
 31
0.0
  0
LINE
  5
1373D
330
747D
100
AcDbEntity
  8
文字
 48
50.0
100
AcDbLine
 10
2533.246562932154
 20
2229.768007716477
 30
0.0
 11
2453.246562932154
 21
2229.768007716477
 31
0.0
  0
LINE
  5
1373E
330
747D
100
AcDbEntity
  8
文字
 48
50.0
100
AcDbLine
 10
2453.246562932154
 20
2309.768007716479
 30
0.0
 11
2453.246562932154
 21
2229.768007716477
 31
0.0
  0
LINE
  5
1373F
330
747D
100
AcDbEntity
  8
文字
 48
50.0
100
AcDbLine
 10
2533.246562932154
 20
2309.768007716479
 30
0.0
 11
2533.246562932154
 21
2229.768007716477
 31
0.0
  0
LINE
  5
13740
330
747D
100
AcDbEntity
  8
センター
 48
10.0
100
AcDbLine
 10
2893.246562932154
 20
2269.768007716479
 30
0.0
 11
3211.389021724048
 21
2269.768007716479
 31
0.0
  0
MTEXT
  5
13741
330
747D
100
AcDbEntity
  8
寸法
 62
     7
 48
50.0
100
AcDbMText
 10
2793.111082769685
 20
2745.601497394833
 30
0.0
 40
90.0
 41
0.0
 71
     4
 72
     1
  1
B
  7
STYLE1
 73
     1
 44
1.0
1001
ACAD
1000
MTEXTBEGIN
1070
    73
1070
     1
1070
    44
1040
1.0
1070
    74
1070
     0
1000
MTEXTEND
  0
LINE
  5
13742
330
747D
100
AcDbEntity
  8
寸法
 48
50.0
100
AcDbLine
 10
2639.647023098096
 20
2757.534039842202
 30
0.0
 11
2639.647023098096
 21
2691.599420920651
 31
0.0
  0
LINE
  5
13743
330
747D
100
AcDbEntity
  8
寸法
 48
50.0
100
AcDbLine
 10
2493.246562932154
 20
2728.66697019661
 30
0.0
 11
2747.380393681075
 21
2728.66697019661
 31
0.0
  0
LINE
  5
13744
330
747D
100
AcDbEntity
  8
寸法
 48
50.0
100
AcDbLine
 10
2747.380393681075
 20
2728.66697019661
 30
0.0
 11
2639.647023098096
 21
2757.534039842202
 31
0.0
  0
LINE
  5
13745
330
747D
100
AcDbEntity
  8
センター
 48
10.0
100
AcDbLine
 10
3462.362059653948
 20
2269.768007716479
 30
0.0
 11
4208.847233293726
 21
2269.768007716479
 31
0.0
  0
LINE
  5
13746
330
747D
100
AcDbEntity
  8
文字
 48
50.0
100
AcDbLine
 10
3409.86859960163
 20
2379.944845651356
 30
0.0
 11
3409.86859960163
 21
3016.457245113296
 31
0.0
  0
LINE
  5
13747
330
747D
100
AcDbEntity
  8
文字
 48
50.0
100
AcDbLine
 10
3409.86859960163
 20
3016.457245113296
 30
0.0
 11
3442.716882434444
 21
2893.865784639842
 31
0.0
  0
LINE
  5
13748
330
747D
100
AcDbEntity
  8
文字
 48
50.0
100
AcDbLine
 10
3409.86859960163
 20
3016.457245113296
 30
0.0
 11
3377.020316768816
 21
2893.865784639842
 31
0.0
  0
LINE
  5
13749
330
747D
100
AcDbEntity
  8
センター
 48
10.0
100
AcDbLine
 10
4903.246562932154
 20
2019.76800771648
 30
0.0
 11
4903.246562932154
 21
2519.768007716481
 31
0.0
  0
LINE
  5
1374A
330
747D
100
AcDbEntity
  8
文字
 48
50.0
100
AcDbLine
 10
4553.246562932154
 20
2619.768007716479
 30
0.0
 11
4553.246562932154
 21
1919.768007716479
 31
0.0
  0
LINE
  5
1374B
330
747D
100
AcDbEntity
  8
文字
 48
50.0
100
AcDbLine
 10
5253.246562932154
 20
2619.768007716479
 30
0.0
 11
5253.246562932154
 21
1919.768007716479
 31
0.0
  0
MTEXT
  5
1374C
102
{ACAD_REACTORS
330
1374D
102
}
330
747D
100
AcDbEntity
  8
寸法
 62
     7
 48
50.0
100
AcDbMText
 10
4671.370504642917
 20
1787.546270780804
 30
0.0
 40
90.0
 41
0.0
 71
     6
 72
     1
  1
\A1;柱
  7
STYLE1
 73
     1
 44
1.0
1001
ACAD
1000
MTEXTBEGIN
1070
    73
1070
     1
1070
    44
1040
1.0
1070
    74
1070
     0
1000
MTEXTEND
  0
LEADER
  5
1374D
330
747D
100
AcDbEntity
  8
寸法
 48
50.0
100
AcDbLeader
  3
INABA_S30G
 73
     0
 75
     1
 40
90.0
 41
108.0
 76
     3
 10
4882.35539682166
 20
2229.768007716477
 30
0.0
 10
4776.370504642916
 20
1712.546270780803
 30
0.0
 10
4701.370504642916
 20
1712.546270780803
 30
0.0
340
1374C
  0
LINE
  5
1374E
330
747D
100
AcDbEntity
  8
センター
 48
10.0
100
AcDbLine
 10
4653.246562932154
 20
2269.76800771648
 30
0.0
 11
5153.246562932154
 21
2269.768007716479
 31
0.0
  0
LINE
  5
1374F
330
747D
100
AcDbEntity
  8
文字
 48
50.0
100
AcDbLine
 10
4553.246562932154
 20
1919.768007716479
 30
0.0
 11
5253.246562932154
 21
1919.768007716479
 31
0.0
  0
LINE
  5
13750
330
747D
100
AcDbEntity
  8
文字
 48
50.0
100
AcDbLine
 10
4943.246562932154
 20
2309.768007716477
 30
0.0
 11
4863.246562932154
 21
2309.768007716477
 31
0.0
  0
LINE
  5
13751
330
747D
100
AcDbEntity
  8
文字
 48
50.0
100
AcDbLine
 10
4943.246562932154
 20
2229.768007716477
 30
0.0
 11
4863.246562932154
 21
2229.768007716477
 31
0.0
  0
LINE
  5
13752
330
747D
100
AcDbEntity
  8
文字
 48
50.0
100
AcDbLine
 10
4943.246562932154
 20
2309.768007716479
 30
0.0
 11
4943.246562932154
 21
2229.768007716477
 31
0.0
  0
LINE
  5
13753
330
747D
100
AcDbEntity
  8
文字
 48
50.0
100
AcDbLine
 10
4863.246562932154
 20
2309.768007716479
 30
0.0
 11
4863.246562932154
 21
2229.768007716477
 31
0.0
  0
LINE
  5
13754
330
747D
100
AcDbEntity
  8
文字
 48
50.0
100
AcDbLine
 10
4553.246562932154
 20
2619.768007716479
 30
0.0
 11
5253.246562932154
 21
2619.768007716479
 31
0.0
  0
DIMENSION
  5
13755
330
747D
100
AcDbEntity
  8
寸法
 48
50.0
100
AcDbDimension
  2
*D23
 10
5253.246562932154
 20
2817.557369016475
 30
0.0
 11
4903.246562932154
 21
2817.557369016475
 31
0.0
 70
   160
 71
     5
 42
700.0
  3
INABA_S30G
100
AcDbAlignedDimension
 13
4553.246562932154
 23
2619.768007716479
 33
0.0
 14
5253.246562932154
 24
2619.768007716479
 34
0.0
100
AcDbRotatedDimension
  0
DIMENSION
  5
13756
330
747D
100
AcDbEntity
  8
寸法
 48
50.0
100
AcDbDimension
  2
*D24
 10
5153.246562932154
 20
3722.817537192492
 30
0.0
 11
5028.246562932154
 21
3797.826395460209
 31
0.0
 70
    32
 71
     5
 42
250.0
  3
INABA_S30G
100
AcDbAlignedDimension
 13
4903.246562932154
 23
3339.768007716481
 33
0.0
 14
5153.246562932154
 24
3269.768007716479
 34
0.0
100
AcDbRotatedDimension
  0
TEXT
  5
143CA
330
747D
100
AcDbEntity
  8
文字
 48
50.0
100
AcDbText
 10
9064.938991442787
 20
3329.106969457704
 30
0.0
 40
72.0
  1
水勾配
 41
0.8
  7
STYLE1
100
AcDbText
  0
TEXT
  5
143CB
330
747D
100
AcDbEntity
  8
文字
 48
50.0
100
AcDbText
 10
8494.960295920774
 20
3329.106969457704
 30
0.0
 40
72.0
  1
水勾配
 41
0.8
  7
STYLE1
100
AcDbText
  0
LINE
  5
143CC
330
747D
100
AcDbEntity
  8
部品1
 48
50.0
100
AcDbLine
 10
9814.497555052382
 20
3070.402601503318
 30
0.0
 11
9814.497555052382
 21
2955.602601503321
 31
0.0
  0
LINE
  5
143CD
330
747D
100
AcDbEntity
  8
細線
 48
50.0
100
AcDbLine
 10
9825.369585788003
 20
2955.602601503321
 30
0.0
 11
9834.526210868416
 21
2934.60260150332
 31
0.0
  0
LINE
  5
143CE
330
747D
100
AcDbEntity
  8
文字
 48
50.0
100
AcDbLine
 10
9592.390264353765
 20
3170.943682177906
 30
0.0
 11
9523.739046488632
 21
3152.548643791531
 31
0.0
  0
LINE
  5
143CF
330
747D
100
AcDbEntity
  8
文字
 48
50.0
100
AcDbLine
 10
9592.390264353765
 20
3170.943682177906
 30
0.0
 11
9523.739046488632
 21
3189.338720564283
 31
0.0
  0
LINE
  5
143D0
330
747D
100
AcDbEntity
  8
細線
 48
50.0
100
AcDbLine
 10
9719.771456516347
 20
2955.602601503322
 30
0.0
 11
9814.497555052382
 21
3050.328700039353
 31
0.0
  0
LINE
  5
143D1
330
747D
100
AcDbEntity
  8
細線
 48
50.0
100
AcDbLine
 10
9701.952365630445
 20
2955.602601503321
 30
0.0
 11
9814.497555052382
 21
3068.147790925258
 31
0.0
  0
LINE
  5
143D2
330
747D
100
AcDbEntity
  8
細線
 48
50.0
100
AcDbLine
 10
9741.369585788001
 20
2955.602601503321
 30
0.0
 11
9750.526210868414
 21
2934.602601503322
 31
0.0
  0
LINE
  5
143D3
330
747D
100
AcDbEntity
  8
細線
 48
50.0
100
AcDbLine
 10
9672.512124160101
 20
2951.048763107045
 30
0.0
 11
9674.169585788005
 21
2955.602601503321
 31
0.0
  0
LINE
  5
143D4
330
747D
100
AcDbEntity
  8
細線
 48
50.0
100
AcDbLine
 10
9573.369585788
 20
2955.602601503321
 30
0.0
 11
9582.526210868413
 21
2934.60260150332
 31
0.0
  0
LINE
  5
143D5
330
747D
100
AcDbEntity
  8
部品1
 48
50.0
100
AcDbLine
 10
9672.512124160101
 20
3098.602601503321
 30
0.0
 11
9789.297555052385
 21
3095.60260150332
 31
0.0
  0
LINE
  5
143D6
330
747D
100
AcDbEntity
  8
部品1
 48
50.0
100
AcDbLine
 10
9672.512124160101
 20
2955.602601503321
 30
0.0
 11
9855.005894694929
 21
2955.602601503321
 31
0.0
  0
LINE
  5
143D7
330
747D
100
AcDbEntity
  8
部品1
 48
50.0
100
AcDbLine
 10
9814.497555052382
 20
3070.40260150332
 30
0.0
 11
9789.297555052385
 21
3095.60260150332
 31
0.0
  0
LINE
  5
143D8
330
747D
100
AcDbEntity
  8
細線
 48
50.0
100
AcDbLine
 10
9737.590547402245
 20
2955.602601503321
 30
0.0
 11
9814.49755505238
 21
3032.509609153459
 31
0.0
  0
LINE
  5
143DB
330
747D
100
AcDbEntity
  8
細線
 48
50.0
100
AcDbLine
 10
9619.574050648083
 20
2805.602601503322
 30
0.0
 11
9648.512124160101
 21
2885.109305040131
 31
0.0
  0
LINE
  5
143DD
330
747D
100
AcDbEntity
  8
部品1
 48
50.0
100
AcDbLine
 10
9672.512124160101
 20
2805.602601503322
 30
0.0
 11
9855.005894694926
 21
2805.602601503322
 31
0.0
  0
LINE
  5
143DE
330
747D
100
AcDbEntity
  8
部品1
 48
50.0
100
AcDbLine
 10
9648.512124160101
 20
3126.817089598731
 30
0.0
 11
9648.512124160101
 21
2764.721447307096
 31
0.0
  0
LINE
  5
143DF
330
747D
100
AcDbEntity
  8
部品1
 48
50.0
100
AcDbLine
 10
9672.512124160101
 20
3126.817089598731
 30
0.0
 11
9672.512124160103
 21
2764.721447307096
 31
0.0
  0
LINE
  5
143E0
330
747D
100
AcDbEntity
  8
細線
 48
50.0
100
AcDbLine
 10
9787.574050648075
 20
2805.602601503322
 30
0.0
 11
9842.169585788004
 21
2955.602601503321
 31
0.0
  0
LINE
  5
143E1
330
747D
100
AcDbEntity
  8
細線
 48
50.0
100
AcDbLine
 10
9703.57405064808
 20
2805.602601503322
 30
0.0
 11
9758.169585788005
 21
2955.602601503321
 31
0.0
  0
LINE
  5
143E2
330
747D
100
AcDbEntity
  8
部品1
 48
50.0
100
AcDbLine
 10
9580.30933627046
 20
2005.155748320804
 30
0.0
 11
9580.309336270458
 21
2206.155748320803
 31
0.0
  0
DIMENSION
  5
143E3
330
747D
100
AcDbEntity
  8
寸法
 48
50.0
100
AcDbDimension
  2
*D29
 10
10120.01793660162
 20
2131.155748320804
 30
0.0
 11
10120.01793660162
 21
1951.453090840491
 31
0.0
 70
   160
 71
     5
 42
50.00000000249969
  3
INABA_S30G詳細用20
100
AcDbAlignedDimension
 13
9580.30933627046
 23
2206.155748320803
 33
0.0
 14
9580.309336270458
 24
2131.155748320804
 34
0.0
 50
90.0
100
AcDbRotatedDimension
  0
DIMENSION
  5
143E4
330
747D
100
AcDbEntity
  8
寸法
 48
50.0
100
AcDbDimension
  2
*D30
 10
10120.01793660162
 20
2206.155748320803
 30
0.0
 11
10045.01793660162
 21
2618.379174912064
 31
0.0
 70
    32
 71
     5
 42
549.6312354824943
  3
INABA_S30G詳細用20
100
AcDbAlignedDimension
 13
9814.497555052382
 23
3030.602601503322
 33
0.0
 14
9580.30933627046
 24
2206.155748320803
 34
0.0
 50
90.0
100
AcDbRotatedDimension
  0
LINE
  5
143E5
330
747D
100
AcDbEntity
  8
細線
 48
50.0
100
AcDbLine
 10
9489.369585788002
 20
2955.602601503321
 30
0.0
 11
9498.526210868416
 21
2934.60260150332
 31
0.0
  0
LINE
  5
143E9
330
747D
100
AcDbEntity
  8
細線
 48
50.0
100
AcDbLine
 10
9216.502668923558
 20
2955.602601503321
 30
0.0
 11
9366.502668923558
 21
3105.602601503321
 31
0.0
  0
LINE
  5
143EA
330
747D
100
AcDbEntity
  8
部品1
 48
50.0
100
AcDbLine
 10
9016.309336270465
 20
3126.602601503321
 30
0.0
 11
9037.309336270459
 21
3105.602601503321
 31
0.0
  0
LINE
  5
143EB
330
747D
100
AcDbEntity
  8
部品1
 48
50.0
100
AcDbLine
 10
8995.309336270459
 20
3126.602601503321
 30
0.0
 11
9016.309336270458
 21
3126.602601503321
 31
0.0
  0
LINE
  5
143EC
330
747D
100
AcDbEntity
  8
細線
 48
50.0
100
AcDbLine
 10
8995.309336270459
 20
2971.997147328908
 30
0.0
 11
9128.914790444872
 21
3105.602601503321
 31
0.0
  0
LINE
  5
143ED
330
747D
100
AcDbEntity
  8
細線
 48
50.0
100
AcDbLine
 10
8995.309336270459
 20
2989.816238214808
 30
0.0
 11
9111.095699558971
 21
3105.602601503321
 31
0.0
  0
LINE
  5
143EE
330
747D
100
AcDbEntity
  8
細線
 48
50.0
100
AcDbLine
 10
8995.309336270461
 20
3007.635329100708
 30
0.0
 11
9093.27660867307
 21
3105.602601503321
 31
0.0
  0
LINE
  5
143EF
330
747D
100
AcDbEntity
  8
細線
 48
50.0
100
AcDbLine
 10
9198.683578037659
 20
2955.602601503322
 30
0.0
 11
9348.683578037656
 21
3105.602601503321
 31
0.0
  0
LINE
  5
143F0
330
747D
100
AcDbEntity
  8
細線
 48
50.0
100
AcDbLine
 10
9180.864487151758
 20
2955.602601503321
 30
0.0
 11
9330.864487151757
 21
3105.602601503321
 31
0.0
  0
LINE
  5
143F2
330
747D
100
AcDbEntity
  8
細線
 48
50.0
100
AcDbLine
 10
9460.309336270466
 20
2571.783510617404
 30
0.0
 11
9076.490245384562
 21
2955.602601503321
 31
0.0
  0
LINE
  5
143F3
330
747D
100
AcDbEntity
  8
細線
 48
50.0
100
AcDbLine
 10
9460.309336270462
 20
2589.602601503327
 30
0.0
 11
9094.309336270461
 21
2955.602601503321
 31
0.0
  0
LINE
  5
143F4
330
747D
100
AcDbEntity
  8
細線
 48
50.0
100
AcDbLine
 10
9460.309336270466
 20
2607.421692389225
 30
0.0
 11
9112.128427156363
 21
2955.602601503321
 31
0.0
  0
LINE
  5
143F5
330
747D
100
AcDbEntity
  8
細線
 48
50.0
100
AcDbLine
 10
9460.309336270466
 20
2829.602601503335
 30
0.0
 11
9506.169585788004
 21
2955.602601503321
 31
0.0
  0
LINE
  5
143F6
330
747D
100
AcDbEntity
  8
部品1
 48
50.0
100
AcDbLine
 10
8854.309336270459
 20
3126.602601503321
 30
0.0
 11
8833.309336270458
 21
3105.602601503321
 31
0.0
  0
LINE
  5
143F7
330
747D
100
AcDbEntity
  8
部品1
 48
50.0
100
AcDbLine
 10
8854.309336270462
 20
3126.602601503321
 30
0.0
 11
8875.30933627046
 21
3126.602601503321
 31
0.0
  0
LINE
  5
143F8
330
747D
100
AcDbEntity
  8
細線
 48
50.0
100
AcDbLine
 10
8875.309336270458
 20
2954.83381391054
 30
0.0
 11
8874.540548677677
 21
2955.60260150332
 31
0.0
  0
LINE
  5
143F9
330
747D
100
AcDbEntity
  8
細線
 48
50.0
100
AcDbLine
 10
8875.309336270458
 20
2937.014723024644
 30
0.0
 11
8856.721457791781
 21
2955.602601503321
 31
0.0
  0
LINE
  5
143FA
330
747D
100
AcDbEntity
  8
細線
 48
50.0
100
AcDbLine
 10
8701.007821080297
 20
2955.602601503321
 30
0.0
 11
8872.007821080291
 21
3126.602601503321
 31
0.0
  0
LINE
  5
143FB
330
747D
100
AcDbEntity
  8
細線
 48
50.0
100
AcDbLine
 10
8718.826911966196
 20
2955.602601503321
 30
0.0
 11
8875.30933627046
 21
3112.085025807582
 31
0.0
  0
LINE
  5
143FC
330
747D
100
AcDbEntity
  8
細線
 48
50.0
100
AcDbLine
 10
8481.239033487518
 20
2955.602601503321
 30
0.0
 11
8631.239033487515
 21
3105.602601503321
 31
0.0
  0
LINE
  5
143FD
330
747D
100
AcDbEntity
  8
細線
 48
50.0
100
AcDbLine
 10
8463.419942601616
 20
2955.602601503321
 30
0.0
 11
8613.419942601614
 21
3105.602601503321
 31
0.0
  0
LINE
  5
143FE
330
747D
100
AcDbEntity
  8
細線
 48
50.0
100
AcDbLine
 10
8683.188730194398
 20
2955.602601503321
 30
0.0
 11
8833.188730194398
 21
3105.602601503321
 31
0.0
  0
LINE
  5
143FF
330
747D
100
AcDbEntity
  8
細線
 48
50.0
100
AcDbLine
 10
8381.371262758431
 20
2805.602601503322
 30
0.0
 11
8410.309336270456
 21
2885.109305040131
 31
0.0
  0
LINE
  5
14400
330
747D
100
AcDbEntity
  8
細線
 48
50.0
100
AcDbLine
 10
8388.914688896564
 20
2826.327994483168
 30
0.0
 11
8397.951577142299
 21
2805.602601503322
 31
0.0
  0
LINE
  5
14401
330
747D
100
AcDbEntity
  8
細線
 48
50.0
100
AcDbLine
 10
8875.309336270458
 20
2919.195632138741
 30
0.0
 11
8838.902366905877
 21
2955.602601503321
 31
0.0
  0
LINE
  5
14402
330
747D
100
AcDbEntity
  8
細線
 48
50.0
100
AcDbLine
 10
8875.30933627046
 20
2717.245935431859
 30
0.0
 11
8636.952670199001
 21
2955.602601503321
 31
0.0
  0
LINE
  5
14403
330
747D
100
AcDbEntity
  8
細線
 48
50.0
100
AcDbLine
 10
8875.30933627046
 20
2699.426844545961
 30
0.0
 11
8619.133579313098
 21
2955.602601503321
 31
0.0
  0
LINE
  5
14404
330
747D
100
AcDbEntity
  8
細線
 48
50.0
100
AcDbLine
 10
8875.309336270458
 20
2681.607753660062
 30
0.0
 11
8601.314488427203
 21
2955.602601503321
 31
0.0
  0
CIRCLE
  5
14405
330
747D
100
AcDbEntity
  8
部品1
 48
5.0
100
AcDbCircle
 10
9259.309336270467
 20
2324.855748320806
 30
0.0
 40
8.4
  0
LINE
  5
14406
330
747D
100
AcDbEntity
  8
部品1
 48
50.0
100
AcDbLine
 10
9282.934336270459
 20
2299.655748320803
 30
0.0
 11
9282.934336270459
 21
2316.455748320807
 31
0.0
  0
LINE
  5
14408
330
747D
100
AcDbEntity
  8
細線
 48
50.0
100
AcDbLine
 10
9226.869585788
 20
2131.155748320804
 30
0.0
 11
9236.026210868409
 21
2110.155748320804
 31
0.0
  0
LINE
  5
14409
330
747D
100
AcDbEntity
  8
細線
 48
50.0
100
AcDbLine
 10
9310.869585787999
 20
2131.155748320804
 30
0.0
 11
9320.026210868411
 21
2110.155748320804
 31
0.0
  0
LINE
  5
1440A
330
747D
100
AcDbEntity
  8
細線
 48
50.0
100
AcDbLine
 10
9357.879639053397
 20
2206.155748320803
 30
0.0
 11
9282.879639053396
 21
2131.155748320804
 31
0.0
  0
LINE
  5
1440B
330
747D
100
AcDbEntity
  8
細線
 48
50.0
100
AcDbLine
 10
9375.698729939299
 20
2206.155748320803
 30
0.0
 11
9300.698729939298
 21
2131.155748320804
 31
0.0
  0
LINE
  5
1440C
330
747D
100
AcDbEntity
  8
細線
 48
50.0
100
AcDbLine
 10
9393.517820825199
 20
2206.155748320803
 30
0.0
 11
9318.517820825197
 21
2131.155748320804
 31
0.0
  0
CIRCLE
  5
1440D
330
747D
100
AcDbEntity
  8
部品1
 48
5.0
100
AcDbCircle
 10
9043.309336270466
 20
2324.855748320806
 30
0.0
 40
8.4
  0
LINE
  5
1440E
330
747D
100
AcDbEntity
  8
細線
 48
50.0
100
AcDbLine
 10
9142.869585788
 20
2131.155748320804
 30
0.0
 11
9152.02621086841
 21
2110.155748320804
 31
0.0
  0
LINE
  5
1440F
330
747D
100
AcDbEntity
  8
細線
 48
50.0
100
AcDbLine
 10
8974.869585787999
 20
2131.155748320804
 30
0.0
 11
8984.026210868409
 21
2110.155748320804
 31
0.0
  0
LINE
  5
14410
330
747D
100
AcDbEntity
  8
細線
 48
50.0
100
AcDbLine
 10
9058.869585788
 20
2131.155748320804
 30
0.0
 11
9068.026210868408
 21
2110.155748320804
 31
0.0
  0
LINE
  5
14411
330
747D
100
AcDbEntity
  8
細線
 48
50.0
100
AcDbLine
 10
9120.291760574719
 20
2206.155748320803
 30
0.0
 11
9045.291760574718
 21
2131.155748320804
 31
0.0
  0
LINE
  5
14412
330
747D
100
AcDbEntity
  8
細線
 48
50.0
100
AcDbLine
 10
9138.110851460622
 20
2206.155748320803
 30
0.0
 11
9063.110851460622
 21
2131.155748320804
 31
0.0
  0
LINE
  5
14413
330
747D
100
AcDbEntity
  8
細線
 48
50.0
100
AcDbLine
 10
9155.929942346523
 20
2206.155748320803
 30
0.0
 11
9080.929942346521
 21
2131.155748320804
 31
0.0
  0
LINE
  5
14418
330
747D
100
AcDbEntity
  8
細線
 48
50.0
100
AcDbLine
 10
9289.452711190051
 20
2026.155748320803
 30
0.0
 11
9298.609336270462
 21
2005.155748320804
 31
0.0
  0
LINE
  5
14419
330
747D
100
AcDbEntity
  8
細線
 48
50.0
100
AcDbLine
 10
9121.452711190052
 20
2026.155748320803
 30
0.0
 11
9130.609336270461
 21
2005.155748320804
 31
0.0
  0
LINE
  5
1441A
330
747D
100
AcDbEntity
  8
細線
 48
50.0
100
AcDbLine
 10
9037.452711190052
 20
2026.155748320803
 30
0.0
 11
9046.609336270462
 21
2005.155748320804
 31
0.0
  0
LINE
  5
1441B
330
747D
100
AcDbEntity
  8
細線
 48
50.0
100
AcDbLine
 10
9205.452711190051
 20
2026.155748320803
 30
0.0
 11
9214.609336270461
 21
2005.155748320804
 31
0.0
  0
LINE
  5
1441C
330
747D
100
AcDbEntity
  8
細線
 48
50.0
100
AcDbLine
 10
9029.809336270462
 20
2005.155748320804
 30
0.0
 11
9075.669585788002
 21
2131.155748320804
 31
0.0
  0
LINE
  5
1441D
330
747D
100
AcDbEntity
  8
細線
 48
50.0
100
AcDbLine
 10
9113.809336270461
 20
2005.155748320804
 30
0.0
 11
9159.669585788002
 21
2131.155748320804
 31
0.0
  0
LINE
  5
1441E
330
747D
100
AcDbEntity
  8
細線
 48
50.0
100
AcDbLine
 10
9197.809336270463
 20
2005.155748320804
 30
0.0
 11
9243.669585788003
 21
2131.155748320804
 31
0.0
  0
LINE
  5
1441F
330
747D
100
AcDbEntity
  8
細線
 48
50.0
100
AcDbLine
 10
9281.809336270463
 20
2005.155748320804
 30
0.0
 11
9327.669585788003
 21
2131.155748320804
 31
0.0
  0
CIRCLE
  5
14421
330
747D
100
AcDbEntity
  8
部品1
 48
50.0
100
AcDbCircle
 10
8935.309336270458
 20
2468.155748320804
 30
0.0
 40
8.4
  0
CIRCLE
  5
14423
330
747D
100
AcDbEntity
  8
部品1
 48
5.0
100
AcDbCircle
 10
8827.309336270465
 20
2324.855748320806
 30
0.0
 40
8.4
  0
LINE
  5
14424
330
747D
100
AcDbEntity
  8
細線
 48
50.0
100
AcDbLine
 10
8890.869585787999
 20
2131.155748320804
 30
0.0
 11
8900.026210868409
 21
2110.155748320804
 31
0.0
  0
LINE
  5
14425
330
747D
100
AcDbEntity
  8
細線
 48
50.0
100
AcDbLine
 10
8722.869585788
 20
2131.155748320804
 30
0.0
 11
8732.02621086841
 21
2110.155748320804
 31
0.0
  0
LINE
  5
14426
330
747D
100
AcDbEntity
  8
細線
 48
50.0
100
AcDbLine
 10
8806.869585788
 20
2131.155748320804
 30
0.0
 11
8816.026210868409
 21
2110.155748320804
 31
0.0
  0
LINE
  5
14427
330
747D
100
AcDbEntity
  8
細線
 48
50.0
100
AcDbLine
 10
8900.522972981947
 20
2206.155748320803
 30
0.0
 11
8825.522972981946
 21
2131.155748320804
 31
0.0
  0
LINE
  5
14428
330
747D
100
AcDbEntity
  8
細線
 48
50.0
100
AcDbLine
 10
8882.703882096043
 20
2206.155748320803
 30
0.0
 11
8807.703882096042
 21
2131.155748320804
 31
0.0
  0
LINE
  5
14429
330
747D
100
AcDbEntity
  8
細線
 48
50.0
100
AcDbLine
 10
8918.342063867845
 20
2206.155748320803
 30
0.0
 11
8843.342063867845
 21
2131.155748320804
 31
0.0
  0
CIRCLE
  5
1442B
330
747D
100
AcDbEntity
  8
部品1
 48
5.0
100
AcDbCircle
 10
8611.309336270466
 20
2324.855748320806
 30
0.0
 40
8.4
  0
LINE
  5
1442C
330
747D
100
AcDbEntity
  8
部品1
 48
50.0
100
AcDbLine
 10
8587.684336270459
 20
2299.655748320805
 30
0.0
 11
8587.684336270459
 21
2316.455748320805
 31
0.0
  0
LINE
  5
1442D
330
747D
100
AcDbEntity
  8
細線
 48
50.0
100
AcDbLine
 10
8638.869585787999
 20
2131.155748320804
 30
0.0
 11
8648.026210868408
 21
2110.155748320804
 31
0.0
  0
LINE
  5
1442E
330
747D
100
AcDbEntity
  8
細線
 48
50.0
100
AcDbLine
 10
8680.754185389165
 20
2206.155748320803
 30
0.0
 11
8605.754185389169
 21
2131.155748320804
 31
0.0
  0
LINE
  5
14432
330
747D
100
AcDbEntity
  8
細線
 48
50.0
100
AcDbLine
 10
8554.869585787999
 20
2131.155748320804
 30
0.0
 11
8564.02621086841
 21
2110.155748320804
 31
0.0
  0
LINE
  5
14433
330
747D
100
AcDbEntity
  8
細線
 48
50.0
100
AcDbLine
 10
8645.116003617365
 20
2206.155748320803
 30
0.0
 11
8570.116003617366
 21
2131.155748320804
 31
0.0
  0
LINE
  5
14434
330
747D
100
AcDbEntity
  8
細線
 48
50.0
100
AcDbLine
 10
8662.935094503271
 20
2206.155748320803
 30
0.0
 11
8587.93509450327
 21
2131.155748320804
 31
0.0
  0
LINE
  5
14437
330
747D
100
AcDbEntity
  8
細線
 48
50.0
100
AcDbLine
 10
8869.452711190051
 20
2026.155748320803
 30
0.0
 11
8878.609336270463
 21
2005.155748320804
 31
0.0
  0
LINE
  5
14438
330
747D
100
AcDbEntity
  8
細線
 48
50.0
100
AcDbLine
 10
8953.452711190051
 20
2026.155748320803
 30
0.0
 11
8962.609336270462
 21
2005.155748320804
 31
0.0
  0
LINE
  5
14439
330
747D
100
AcDbEntity
  8
細線
 48
50.0
100
AcDbLine
 10
8785.452711190051
 20
2026.155748320803
 30
0.0
 11
8794.609336270461
 21
2005.155748320804
 31
0.0
  0
LINE
  5
1443A
330
747D
100
AcDbEntity
  8
細線
 48
50.0
100
AcDbLine
 10
8617.452711190052
 20
2026.155748320803
 30
0.0
 11
8626.60933627046
 21
2005.155748320804
 31
0.0
  0
LINE
  5
1443B
330
747D
100
AcDbEntity
  8
細線
 48
50.0
100
AcDbLine
 10
8701.452711190052
 20
2026.155748320803
 30
0.0
 11
8710.609336270461
 21
2005.155748320804
 31
0.0
  0
LINE
  5
1443C
330
747D
100
AcDbEntity
  8
細線
 48
50.0
100
AcDbLine
 10
8533.452711190051
 20
2026.155748320803
 30
0.0
 11
8542.609336270462
 21
2005.155748320804
 31
0.0
  0
LINE
  5
1443D
330
747D
100
AcDbEntity
  8
細線
 48
50.0
100
AcDbLine
 10
8777.809336270463
 20
2005.155748320804
 30
0.0
 11
8823.669585788001
 21
2131.155748320804
 31
0.0
  0
LINE
  5
1443E
330
747D
100
AcDbEntity
  8
細線
 48
50.0
100
AcDbLine
 10
8609.809336270462
 20
2005.155748320804
 30
0.0
 11
8655.669585788002
 21
2131.155748320804
 31
0.0
  0
LINE
  5
1443F
330
747D
100
AcDbEntity
  8
細線
 48
50.0
100
AcDbLine
 10
8693.809336270462
 20
2005.155748320804
 30
0.0
 11
8739.669585788002
 21
2131.155748320804
 31
0.0
  0
LINE
  5
14440
330
747D
100
AcDbEntity
  8
細線
 48
50.0
100
AcDbLine
 10
8861.809336270463
 20
2005.155748320804
 30
0.0
 11
8907.669585788003
 21
2131.155748320804
 31
0.0
  0
LINE
  5
14441
330
747D
100
AcDbEntity
  8
細線
 48
50.0
100
AcDbLine
 10
8525.809336270462
 20
2005.155748320804
 30
0.0
 11
8571.669585788002
 21
2131.155748320804
 31
0.0
  0
LINE
  5
14445
330
747D
100
AcDbEntity
  8
細線
 48
50.0
100
AcDbLine
 10
8945.809336270462
 20
2005.155748320804
 30
0.0
 11
8991.669585788002
 21
2131.155748320804
 31
0.0
  0
LINE
  5
14446
330
747D
100
AcDbEntity
  8
部品1
 48
50.0
100
AcDbLine
 10
8875.309336270458
 20
2355.655748320804
 30
0.0
 11
8995.309336270459
 21
2355.655748320804
 31
0.0
  0
LINE
  5
14447
330
747D
100
AcDbEntity
  8
部品1
 48
50.0
100
AcDbLine
 10
8587.684336270459
 20
2316.455748320805
 30
0.0
 11
9282.934336270459
 21
2316.455748320807
 31
0.0
  0
LINE
  5
14448
330
747D
100
AcDbEntity
  8
部品1
 48
50.0
100
AcDbLine
 10
8587.684336270459
 20
2299.655748320803
 30
0.0
 11
9282.934336270459
 21
2299.655748320805
 31
0.0
  0
LINE
  5
14449
330
747D
100
AcDbEntity
  8
部品1
 48
50.0
100
AcDbLine
 10
9460.309336270459
 20
2206.155748320803
 30
0.0
 11
9460.309336270467
 21
2955.602601503321
 31
0.0
  0
LINE
  5
1444A
330
747D
100
AcDbEntity
  8
部品1
 48
50.0
100
AcDbLine
 10
8410.30933627046
 20
2955.602601503321
 30
0.0
 11
8410.30933627046
 21
2206.155748320803
 31
0.0
  0
LINE
  5
1444B
330
747D
100
AcDbEntity
  8
細線
 48
50.0
100
AcDbLine
 10
9460.30933627046
 20
2334.195632138746
 30
0.0
 11
8995.309336270461
 21
2799.195632138737
 31
0.0
  0
LINE
  5
1444C
330
747D
100
AcDbEntity
  8
細線
 48
50.0
100
AcDbLine
 10
9460.30933627046
 20
2352.014723024637
 30
0.0
 11
8995.309336270461
 21
2817.014723024639
 31
0.0
  0
LINE
  5
1444D
330
747D
100
AcDbEntity
  8
細線
 48
50.0
100
AcDbLine
 10
9460.30933627046
 20
2369.833813910525
 30
0.0
 11
8995.309336270461
 21
2834.833813910544
 31
0.0
  0
LINE
  5
1444E
330
747D
100
AcDbEntity
  8
細線
 48
50.0
100
AcDbLine
 10
9148.811644902817
 20
2206.155748320803
 30
0.0
 11
9055.311644902817
 21
2299.655748320804
 31
0.0
  0
LINE
  5
1444F
330
747D
100
AcDbEntity
  8
細線
 48
50.0
100
AcDbLine
 10
9386.39952338152
 20
2206.155748320803
 30
0.0
 11
9282.934336270461
 21
2309.620935431861
 31
0.0
  0
LINE
  5
14450
330
747D
100
AcDbEntity
  8
細線
 48
50.0
100
AcDbLine
 10
9368.580432495623
 20
2206.155748320803
 30
0.0
 11
9275.080432495615
 21
2299.655748320805
 31
0.0
  0
LINE
  5
14451
330
747D
100
AcDbEntity
  8
細線
 48
50.0
100
AcDbLine
 10
9350.761341609711
 20
2206.155748320803
 30
0.0
 11
9257.26134160971
 21
2299.655748320805
 31
0.0
  0
LINE
  5
14452
330
747D
100
AcDbEntity
  8
細線
 48
50.0
100
AcDbLine
 10
9130.99255401693
 20
2206.155748320803
 30
0.0
 11
9037.492554016928
 21
2299.655748320804
 31
0.0
  0
LINE
  5
14453
330
747D
100
AcDbEntity
  8
細線
 48
50.0
100
AcDbLine
 10
9113.173463131024
 20
2206.155748320803
 30
0.0
 11
9019.673463131026
 21
2299.655748320804
 31
0.0
  0
LINE
  5
14454
330
747D
100
AcDbEntity
  8
細線
 48
50.0
100
AcDbLine
 10
8911.22376642413
 20
2206.155748320803
 30
0.0
 11
8817.723766424135
 21
2299.655748320803
 31
0.0
  0
LINE
  5
14455
330
747D
100
AcDbEntity
  8
細線
 48
50.0
100
AcDbLine
 10
8893.404675538262
 20
2206.155748320803
 30
0.0
 11
8799.904675538261
 21
2299.655748320804
 31
0.0
  0
LINE
  5
14456
330
747D
100
AcDbEntity
  8
細線
 48
50.0
100
AcDbLine
 10
8875.58558465235
 20
2206.155748320803
 30
0.0
 11
8782.085584652351
 21
2299.655748320803
 31
0.0
  0
DIMENSION
  5
14457
330
747D
100
AcDbEntity
  8
寸法
 48
50.0
100
AcDbDimension
  2
*D25
 10
9962.701507742412
 20
2355.655748320803
 30
0.0
 11
9962.701507742412
 21
2693.129174912063
 31
0.0
 70
   160
 71
     5
 42
449.9645688108443
  3
INABA_S30G詳細用20
100
AcDbAlignedDimension
 13
9814.497555052382
 23
3030.602601503322
 33
0.0
 14
8975.309336270459
 24
2355.655748320804
 34
0.0
 50
90.0
100
AcDbRotatedDimension
  0
LINE
  5
14458
330
747D
100
AcDbEntity
  8
細線
 48
50.0
100
AcDbLine
 10
9535.574050648074
 20
2805.602601503322
 30
0.0
 11
9590.169585788004
 21
2955.602601503321
 31
0.0
  0
LINE
  5
14459
330
747D
100
AcDbEntity
  8
部品1
 48
50.0
100
AcDbLine
 10
9460.309336270467
 20
2805.602601503322
 30
0.0
 11
9648.512124160101
 21
2805.602601503322
 31
0.0
  0
LINE
  5
1445B
330
747D
100
AcDbEntity
  8
部品1
 48
50.0
100
AcDbLine
 10
8995.309336270459
 20
2955.602601503321
 30
0.0
 11
9648.512124160101
 21
2955.602601503321
 31
0.0
  0
LINE
  5
1445C
330
747D
100
AcDbEntity
  8
部品1
 48
50.0
100
AcDbLine
 10
9037.309336270457
 20
3105.602601503321
 30
0.0
 11
9648.512124160101
 21
3105.602601503321
 31
0.0
  0
LEADER
  5
1445D
330
747D
100
AcDbEntity
  8
寸法
 48
50.0
100
AcDbLeader
  3
INABA_S30G詳細用20
 73
     0
 74
     0
 40
90.0
 41
234.0000000000001
 76
     2
 10
8935.309336270458
 20
2468.155748320804
 30
0.0
 10
9493.426892952419
 20
2610.919032717891
 30
0.0
1001
ACAD
1000
DSTYLE
1002
{
1070
   341
1005
1472B
1002
}
  0
MTEXT
  5
1445E
102
{ACAD_REACTORS
330
1445D
102
}
330
747D
100
AcDbEntity
  8
寸法
 62
     7
 48
50.0
100
AcDbMText
 10
9518.448270542489
 20
2670.200827322038
 30
0.0
 40
90.0
 41
0.0
 71
     4
 72
     1
  1
\A1;ｶﾝｻﾞｼ
  7
STYLE1
 73
     1
 44
1.0
1001
ACAD
1000
MTEXTBEGIN
1070
    73
1070
     1
1070
    44
1040
1.0
1070
    74
1070
     0
1000
MTEXTEND
  0
LINE
  5
1445F
330
747D
100
AcDbEntity
  8
文字
 48
50.0
100
AcDbLine
 10
9592.390264353765
 20
3170.943682177906
 30
0.0
 11
9013.8931664498
 21
3170.943682177906
 31
0.0
  0
LINE
  5
14460
330
747D
100
AcDbEntity
  8
細線
 48
50.0
100
AcDbLine
 10
9521.952365630445
 20
2955.602601503321
 30
0.0
 11
9648.512124160101
 21
3082.162360032977
 31
0.0
  0
LINE
  5
14461
330
747D
100
AcDbEntity
  8
細線
 48
50.0
100
AcDbLine
 10
9539.771456516348
 20
2955.602601503322
 30
0.0
 11
9648.512124160101
 21
3064.343269147074
 31
0.0
  0
LINE
  5
14462
330
747D
100
AcDbEntity
  8
細線
 48
50.0
100
AcDbLine
 10
9557.590547402243
 20
2955.602601503321
 30
0.0
 11
9648.512124160101
 21
3046.524178261178
 31
0.0
  0
LINE
  5
14465
330
747D
100
AcDbEntity
  8
センター
 48
10.0
100
AcDbLine
 10
8935.309336270458
 20
3371.977919866031
 30
0.0
 11
8935.309336270458
 21
2355.655748320804
 31
0.0
  0
DIMENSION
  5
14466
330
747D
100
AcDbEntity
  8
寸法
 48
50.0
100
AcDbDimension
  2
*D26
 10
10120.01793660162
 20
3030.602601503322
 30
0.0
 11
10120.01793660162
 21
3314.466562534001
 31
0.0
 70
   160
 71
     5
 42
50.00000000249879
  3
INABA_S30G詳細用20
100
AcDbAlignedDimension
 13
9672.512124160101
 23
3105.602601503321
 33
0.0
 14
9814.497555052382
 24
3030.602601503322
 34
0.0
 50
90.0
100
AcDbRotatedDimension
  0
TEXT
  5
14467
330
747D
100
AcDbEntity
  8
文字
 48
50.0
100
AcDbText
 10
8494.960295920774
 20
3226.516467457734
 30
0.0
 40
72.0
  1
１／１００
 41
0.8
  7
STYLE1
100
AcDbText
  0
TEXT
  5
14468
330
747D
100
AcDbEntity
  8
文字
 48
50.0
100
AcDbText
 10
9064.938991442787
 20
3226.516467457734
 30
0.0
 40
72.0
  1
１／１００
 41
0.8
  7
STYLE1
100
AcDbText
  0
LINE
  5
14469
330
747D
100
AcDbEntity
  8
部品1
 48
10.0
100
AcDbLine
 10
8995.309336270459
 20
3314.6535532658
 30
0.0
 11
8995.309336270459
 21
2355.655748320804
 31
0.0
  0
LINE
  5
1446A
330
747D
100
AcDbEntity
  8
部品1
 48
10.0
100
AcDbLine
 10
8875.30933627046
 20
3314.6535532658
 30
0.0
 11
8875.30933627046
 21
2355.655748320804
 31
0.0
  0
LINE
  5
1446B
330
747D
100
AcDbEntity
  8
文字
 48
50.0
100
AcDbLine
 10
8278.228408187153
 20
3170.943682177906
 30
0.0
 11
8346.87962605229
 21
3152.548643791531
 31
0.0
  0
LINE
  5
1446C
330
747D
100
AcDbEntity
  8
文字
 48
50.0
100
AcDbLine
 10
8278.228408187153
 20
3170.943682177906
 30
0.0
 11
8346.87962605229
 21
3189.338720564283
 31
0.0
  0
LINE
  5
1446D
330
747D
100
AcDbEntity
  8
細線
 48
50.0
100
AcDbLine
 10
8251.166797898356
 20
2955.602601503321
 30
0.0
 11
8260.323422978768
 21
2934.602601503322
 31
0.0
  0
LINE
  5
1446E
330
747D
100
AcDbEntity
  8
細線
 48
50.0
100
AcDbLine
 10
8335.166797898358
 20
2955.602601503321
 30
0.0
 11
8344.323422978765
 21
2934.602601503322
 31
0.0
  0
LINE
  5
1446F
330
747D
100
AcDbEntity
  8
細線
 48
50.0
100
AcDbLine
 10
8167.166797898357
 20
2955.602601503321
 30
0.0
 11
8176.323422978766
 21
2934.60260150332
 31
0.0
  0
LINE
  5
14470
330
747D
100
AcDbEntity
  8
細線
 48
50.0
100
AcDbLine
 10
8137.167045899495
 20
2965.75667416579
 30
0.0
 11
8277.012973237029
 21
3105.602601503321
 31
0.0
  0
LINE
  5
14471
330
747D
100
AcDbEntity
  8
細線
 48
50.0
100
AcDbLine
 10
8144.832064122926
 20
2955.602601503322
 30
0.0
 11
8294.832064122925
 21
3105.602601503321
 31
0.0
  0
LINE
  5
14472
330
747D
100
AcDbEntity
  8
細線
 48
50.0
100
AcDbLine
 10
8162.651155008829
 20
2955.602601503322
 30
0.0
 11
8312.651155008827
 21
3105.602601503321
 31
0.0
  0
LINE
  5
14473
330
747D
100
AcDbEntity
  8
細線
 48
50.0
100
AcDbLine
 10
8304.914688896564
 20
2826.327994483168
 30
0.0
 11
8313.951577142306
 21
2805.602601503322
 31
0.0
  0
LINE
  5
14475
330
747D
100
AcDbEntity
  8
細線
 48
50.0
100
AcDbLine
 10
8220.914688896565
 20
2826.327994483168
 30
0.0
 11
8229.951577142308
 21
2805.602601503322
 31
0.0
  0
LINE
  5
14476
330
747D
100
AcDbEntity
  8
細線
 48
50.0
100
AcDbLine
 10
8137.167045899493
 20
2827.021339650365
 30
0.0
 11
8183.96679789836
 21
2955.602601503321
 31
0.0
  0
LINE
  5
14477
330
747D
100
AcDbEntity
  8
細線
 48
50.0
100
AcDbLine
 10
8297.37126275843
 20
2805.602601503322
 30
0.0
 11
8351.966797898361
 21
2955.602601503321
 31
0.0
  0
LINE
  5
14478
330
747D
100
AcDbEntity
  8
細線
 48
50.0
100
AcDbLine
 10
8213.37126275843
 20
2805.602601503322
 30
0.0
 11
8267.96679789836
 21
2955.602601503321
 31
0.0
  0
DIMENSION
  5
14479
330
747D
100
AcDbEntity
  8
寸法
 48
50.0
100
AcDbDimension
  2
*D27
 10
7947.03671068925
 20
2805.602601503322
 30
0.0
 11
7947.036710689248
 21
2628.567168432458
 31
0.0
 70
   160
 71
     5
 42
100.000000005
  3
INABA_S30G詳細用20
100
AcDbAlignedDimension
 13
8137.167045899495
 23
2955.602601503322
 33
0.0
 14
8137.167045899495
 24
2805.602601503322
 34
0.0
 50
90.0
100
AcDbRotatedDimension
  0
LINE
  5
1447D
330
747D
100
AcDbEntity
  8
部品1
 48
50.0
100
AcDbLine
 10
8290.309336270459
 20
2206.155748320803
 30
0.0
 11
8290.30933627046
 21
2005.155748320804
 31
0.0
  0
DIMENSION
  5
1447F
330
747D
100
AcDbEntity
  8
寸法
 48
50.0
100
AcDbDimension
  2
*D28
 10
7947.03671068925
 20
2955.602601503321
 30
0.0
 11
7947.036710689248
 21
3282.638034574188
 31
0.0
 70
   160
 71
     5
 42
100.000000005
  3
INABA_S30G詳細用20
100
AcDbAlignedDimension
 13
8137.167045899499
 23
3105.602601503321
 33
0.0
 14
8126.925038727714
 24
2955.602601503321
 34
0.0
 50
90.0
100
AcDbRotatedDimension
  0
LINE
  5
14480
330
747D
100
AcDbEntity
  8
部品1
 48
50.0
100
AcDbLine
 10
8410.309336270456
 20
2805.602601503322
 30
0.0
 11
8137.167045899495
 21
2805.602601503322
 31
0.0
  0
LINE
  5
14481
330
747D
100
AcDbEntity
  8
部品1
 48
50.0
100
AcDbLine
 10
8290.30933627046
 20
2005.155748320804
 30
0.0
 11
9580.309336270458
 21
2005.155748320803
 31
0.0
  0
LINE
  5
14482
330
747D
100
AcDbEntity
  8
部品1
 48
50.0
100
AcDbLine
 10
8290.30933627046
 20
2131.155748320804
 30
0.0
 11
9580.309336270458
 21
2131.155748320804
 31
0.0
  0
LINE
  5
14483
330
747D
100
AcDbEntity
  8
部品1
 48
50.0
100
AcDbLine
 10
8290.309336270459
 20
2206.155748320803
 30
0.0
 11
9580.30933627046
 21
2206.155748320803
 31
0.0
  0
LINE
  5
14484
330
747D
100
AcDbEntity
  8
文字
 48
50.0
100
AcDbLine
 10
8278.228408187153
 20
3170.943682177906
 30
0.0
 11
8856.725506091118
 21
3170.943682177906
 31
0.0
  0
LINE
  5
14485
330
747D
100
AcDbEntity
  8
細線
 48
50.0
100
AcDbLine
 10
8445.600851715708
 20
2955.602601503321
 30
0.0
 11
8595.600851715715
 21
3105.602601503321
 31
0.0
  0
LINE
  5
14486
330
747D
100
AcDbEntity
  8
部品1
 48
50.0
100
AcDbLine
 10
8137.167045899499
 20
3105.602601503321
 30
0.0
 11
8833.309336270458
 21
3105.60260150332
 31
0.0
  0
LINE
  5
14487
330
747D
100
AcDbEntity
  8
部品1
 48
50.0
100
AcDbLine
 10
8137.167045899495
 20
2955.602601503322
 30
0.0
 11
8875.309336270458
 21
2955.602601503321
 31
0.0
  0
LEADER
  5
1448A
330
747D
100
AcDbEntity
  8
寸法
 48
5.0
100
AcDbLeader
  3
INABA_S30G詳細用20
 71
     0
 73
     0
 75
     1
 40
91.25178566873406
 41
703.4999999999999
 76
     3
 10
8611.309336270466
 20
2324.855748320806
 30
0.0
 10
8270.575220405095
 20
2155.500298526586
 30
0.0
 10
8195.575220405094
 20
2155.500298526586
 30
0.0
  0
MTEXT
  5
1448B
102
{ACAD_REACTORS
330
1448A
102
}
330
747D
100
AcDbEntity
  8
部品1
 62
     7
 48
5.0
100
AcDbMText
 10
8195.575220405094
 20
2226.370211073026
 30
0.0
 40
90.0
 41
0.0
 71
     6
 72
     1
  1
\A1;4-D10両方向共
  7
STYLE1
 73
     1
 44
1.0
1001
ACAD
1000
MTEXTBEGIN
1070
    73
1070
     1
1070
    44
1040
1.0
1070
    74
1070
     0
1000
MTEXTEND
  0
LINE
  5
1448D
330
747D
100
AcDbEntity
  8
Ｇ．Ｌ
 48
50.0
100
AcDbLine
 10
9814.497555052382
 20
3030.602601503322
 30
0.0
 11
10597.68246157771
 21
3030.60260150332
 31
0.0
  0
MTEXT
  5
1448E
330
747D
100
AcDbEntity
  8
寸法
 62
     7
 48
50.0
100
AcDbMText
 10
10260.5756447556
 20
3096.767886241894
 30
0.0
 40
90.0
 41
1.0
 71
     4
 72
     1
  1
▽G.L
  7
STYLE2
 73
     1
 44
1.0
1001
ACAD
1000
MTEXTBEGIN
1070
    73
1070
     1
1070
    44
1040
1.0
1070
    74
1070
     0
1000
MTEXTEND
  0
DIMENSION
  5
14617
330
747D
100
AcDbEntity
  8
寸法
 48
50.0
100
AcDbDimension
  2
*D31
 10
9460.30933627046
 20
1753.10567576239
 30
0.0
 11
8935.30933627046
 21
1828.10567576239
 31
0.0
 70
    32
 71
     5
 42
700.000000035
  3
INABA_S30G詳細用20
100
AcDbAlignedDimension
 13
8410.30933627046
 23
2005.155748320804
 33
0.0
 14
9460.30933627046
 24
2005.155748320804
 34
0.0
100
AcDbRotatedDimension
  0
LINE
  5
146C7
330
747D
100
AcDbEntity
  8
細線
 48
50.0
100
AcDbLine
 10
9533.809336270463
 20
2005.155748320803
 30
0.0
 11
9579.669585788002
 21
2131.155748320803
 31
0.0
  0
LINE
  5
146C8
330
747D
100
AcDbEntity
  8
細線
 48
50.0
100
AcDbLine
 10
9449.809336270462
 20
2005.155748320803
 30
0.0
 11
9495.669585788002
 21
2131.155748320803
 31
0.0
  0
LINE
  5
146C9
330
747D
100
AcDbEntity
  8
細線
 48
50.0
100
AcDbLine
 10
9457.452711190052
 20
2026.155748320803
 30
0.0
 11
9466.609336270462
 21
2005.155748320803
 31
0.0
  0
LINE
  5
146CA
330
747D
100
AcDbEntity
  8
細線
 48
50.0
100
AcDbLine
 10
9373.452711190052
 20
2026.155748320803
 30
0.0
 11
9382.60933627046
 21
2005.155748320803
 31
0.0
  0
LINE
  5
146CB
330
747D
100
AcDbEntity
  8
細線
 48
50.0
100
AcDbLine
 10
9541.452711190052
 20
2026.155748320803
 30
0.0
 11
9550.609336270461
 21
2005.155748320803
 31
0.0
  0
LINE
  5
146CC
330
747D
100
AcDbEntity
  8
細線
 48
50.0
100
AcDbLine
 10
9394.869585787999
 20
2131.155748320803
 30
0.0
 11
9404.026210868408
 21
2110.155748320803
 31
0.0
  0
LINE
  5
146CD
330
747D
100
AcDbEntity
  8
細線
 48
50.0
100
AcDbLine
 10
9562.869585787998
 20
2131.155748320803
 30
0.0
 11
9572.026210868409
 21
2110.155748320803
 31
0.0
  0
LINE
  5
146CE
330
747D
100
AcDbEntity
  8
細線
 48
50.0
100
AcDbLine
 10
9478.869585788
 20
2131.155748320803
 30
0.0
 11
9488.02621086841
 21
2110.155748320803
 31
0.0
  0
LINE
  5
146CF
330
747D
100
AcDbEntity
  8
細線
 48
50.0
100
AcDbLine
 10
9365.809336270462
 20
2005.155748320803
 30
0.0
 11
9411.669585788002
 21
2131.155748320803
 31
0.0
  0
LINE
  5
146D1
330
747D
100
AcDbEntity
  8
細線
 48
50.0
100
AcDbLine
 10
8357.809336270461
 20
2005.155748320804
 30
0.0
 11
8403.669585788001
 21
2131.155748320804
 31
0.0
  0
LINE
  5
146D3
330
747D
100
AcDbEntity
  8
細線
 48
50.0
100
AcDbLine
 10
8441.809336270463
 20
2005.155748320804
 30
0.0
 11
8487.669585788003
 21
2131.155748320804
 31
0.0
  0
LINE
  5
146D5
330
747D
100
AcDbEntity
  8
細線
 48
50.0
100
AcDbLine
 10
8365.452711190052
 20
2026.155748320803
 30
0.0
 11
8374.609336270461
 21
2005.155748320804
 31
0.0
  0
LINE
  5
146D7
330
747D
100
AcDbEntity
  8
細線
 48
50.0
100
AcDbLine
 10
8449.452711190053
 20
2026.155748320803
 30
0.0
 11
8458.609336270461
 21
2005.155748320804
 31
0.0
  0
LINE
  5
146D9
330
747D
100
AcDbEntity
  8
細線
 48
50.0
100
AcDbLine
 10
8302.869585788
 20
2131.155748320804
 30
0.0
 11
8312.026210868408
 21
2110.155748320804
 31
0.0
  0
LINE
  5
146DA
330
747D
100
AcDbEntity
  8
細線
 48
50.0
100
AcDbLine
 10
8470.869585787999
 20
2131.155748320804
 30
0.0
 11
8480.026210868409
 21
2110.155748320804
 31
0.0
  0
LINE
  5
146DB
330
747D
100
AcDbEntity
  8
細線
 48
50.0
100
AcDbLine
 10
8386.869585788
 20
2131.155748320804
 30
0.0
 11
8396.026210868409
 21
2110.155748320804
 31
0.0
  0
LINE
  5
146DC
330
747D
100
AcDbEntity
  8
細線
 48
50.0
100
AcDbLine
 10
8290.30933627046
 20
2005.843774743713
 30
0.0
 11
8290.609336270462
 21
2005.155748320804
 31
0.0
  0
LINE
  5
146DD
330
747D
100
AcDbEntity
  8
細線
 48
50.0
100
AcDbLine
 10
8290.309336270459
 20
2050.489125741798
 30
0.0
 11
8319.669585788004
 21
2131.155748320804
 31
0.0
  0
LINE
  5
146F9
330
747D
100
AcDbEntity
  8
細線
 48
50.0
100
AcDbLine
 10
9580.30933627046
 20
2155.359385287392
 30
0.0
 11
9556.105699303873
 21
2131.155748320803
 31
0.0
  0
LINE
  5
146FA
330
747D
100
AcDbEntity
  8
細線
 48
50.0
100
AcDbLine
 10
9580.30933627046
 20
2173.178476173287
 30
0.0
 11
9538.286608417974
 21
2131.155748320803
 31
0.0
  0
LINE
  5
146FB
330
747D
100
AcDbEntity
  8
細線
 48
50.0
100
AcDbLine
 10
9580.30933627046
 20
2190.99756705919
 30
0.0
 11
9520.46751753207
 21
2131.155748320803
 31
0.0
  0
LINE
  5
146FC
330
747D
100
AcDbEntity
  8
細線
 48
50.0
100
AcDbLine
 10
8425.347216024594
 20
2206.155748320803
 30
0.0
 11
8350.347216024591
 21
2131.155748320804
 31
0.0
  0
LINE
  5
146FD
330
747D
100
AcDbEntity
  8
細線
 48
50.0
100
AcDbLine
 10
8407.528125138687
 20
2206.155748320803
 30
0.0
 11
8332.528125138688
 21
2131.155748320804
 31
0.0
  0
LINE
  5
146FE
330
747D
100
AcDbEntity
  8
細線
 48
50.0
100
AcDbLine
 10
8443.166306910487
 20
2206.155748320803
 30
0.0
 11
8368.166306910492
 21
2131.155748320804
 31
0.0
  0
LINE
  5
14719
330
747D
100
AcDbEntity
  8
細線
 48
50.0
100
AcDbLine
 10
8137.167045899495
 20
2825.749233529757
 30
0.0
 11
8145.951577142309
 21
2805.602601503322
 31
0.0
  0
LINE
  5
14726
330
747D
100
AcDbEntity
  8
細線
 48
50.0
100
AcDbLine
 10
9460.309336270469
 20
2823.594558424633
 30
0.0
 11
9468.15436503196
 21
2805.602601503323
 31
0.0
  0
LINE
  5
14727
330
747D
100
AcDbEntity
  8
細線
 48
50.0
100
AcDbLine
 10
9543.117476786216
 20
2826.327994483169
 30
0.0
 11
9552.15436503196
 21
2805.602601503323
 31
0.0
  0
LINE
  5
14728
330
747D
100
AcDbEntity
  8
細線
 48
50.0
100
AcDbLine
 10
9627.117476786217
 20
2826.327994483169
 30
0.0
 11
9636.154365031959
 21
2805.602601503323
 31
0.0
  0
LINE
  5
14729
330
747D
100
AcDbEntity
  8
細線
 48
50.0
100
AcDbLine
 10
9711.117476786217
 20
2826.327994483169
 30
0.0
 11
9720.154365031952
 21
2805.602601503322
 31
0.0
  0
LINE
  5
1472A
330
747D
100
AcDbEntity
  8
細線
 48
50.0
100
AcDbLine
 10
9795.117476786209
 20
2826.327994483169
 30
0.0
 11
9804.154365031946
 21
2805.602601503322
 31
0.0
  0
LINE
  5
14770
330
747D
100
AcDbEntity
  8
細線
 48
50.0
100
AcDbLine
 10
9460.309336270469
 20
2845.009570867926
 30
0.0
 11
9349.716305635078
 21
2955.602601503321
 31
0.0
  0
LINE
  5
14771
330
747D
100
AcDbEntity
  8
細線
 48
50.0
100
AcDbLine
 10
9460.309336270466
 20
2827.190479982029
 30
0.0
 11
9331.897214749169
 21
2955.602601503321
 31
0.0
  0
LINE
  5
14772
330
747D
100
AcDbEntity
  8
細線
 48
50.0
100
AcDbLine
 10
9460.309336270467
 20
2809.371389096106
 30
0.0
 11
9314.078123863255
 21
2955.602601503321
 31
0.0
  0
LINE
  5
14773
330
747D
100
AcDbEntity
  8
細線
 48
50.0
100
AcDbLine
 10
8637.997706173665
 20
2206.155748320803
 30
0.0
 11
8410.30933627046
 21
2433.844118224011
 31
0.0
  0
LINE
  5
14774
330
747D
100
AcDbEntity
  8
細線
 48
50.0
100
AcDbLine
 10
8655.816797059575
 20
2206.155748320803
 30
0.0
 11
8410.309336270458
 21
2451.663209109913
 31
0.0
  0
LINE
  5
14775
330
747D
100
AcDbEntity
  8
細線
 48
50.0
100
AcDbLine
 10
8673.635887945446
 20
2206.155748320803
 30
0.0
 11
8410.309336270458
 21
2469.482299995805
 31
0.0
  0
LINE
  5
14776
330
747D
100
AcDbEntity
  8
細線
 48
50.0
100
AcDbLine
 10
8875.309336270458
 20
2479.658056953166
 30
0.0
 11
8410.309336270458
 21
2944.658056953184
 31
0.0
  0
LINE
  5
14777
330
747D
100
AcDbEntity
  8
細線
 48
50.0
100
AcDbLine
 10
8875.309336270458
 20
2461.838966067276
 30
0.0
 11
8410.30933627046
 21
2926.838966067274
 31
0.0
  0
LINE
  5
14778
330
747D
100
AcDbEntity
  8
細線
 48
50.0
100
AcDbLine
 10
8875.309336270458
 20
2444.019875181377
 30
0.0
 11
8410.309336270463
 21
2909.019875181383
 31
0.0
  0
LINE
  5
14779
330
747D
100
AcDbEntity
  8
細線
 48
50.0
100
AcDbLine
 10
9259.299529106543
 20
2333.255742595776
 30
0.0
 11
8995.309336270459
 21
2597.245935431854
 31
0.0
  0
LINE
  5
1477A
330
747D
100
AcDbEntity
  8
細線
 48
50.0
100
AcDbLine
 10
9250.981860247895
 20
2323.754320568529
 30
0.0
 11
8995.309336270461
 21
2579.426844545956
 31
0.0
  0
LINE
  5
1477B
330
747D
100
AcDbEntity
  8
細線
 48
50.0
100
AcDbLine
 10
9258.280432495615
 20
2316.455748320806
 30
0.0
 11
9258.207908518189
 21
2316.528272298234
 31
0.0
  0
LINE
  5
1477C
330
747D
100
AcDbEntity
  8
細線
 48
50.0
100
AcDbLine
 10
9276.099523381512
 20
2316.455748320806
 30
0.0
 11
9267.709330545436
 21
2324.845941156884
 31
0.0
  0
LINE
  5
1477D
330
747D
100
AcDbEntity
  8
細線
 48
50.0
100
AcDbLine
 10
9240.461341609709
 20
2316.455748320806
 30
0.0
 11
8995.309336270461
 21
2561.607753660054
 31
0.0
  0
LINE
  5
147D0
330
747D
100
AcDbEntity
  8
細線
 48
50.0
100
AcDbLine
 10
9002.873463131026
 20
2316.455748320805
 30
0.0
 11
8963.673463131028
 21
2355.655748320804
 31
0.0
  0
LINE
  5
147D1
330
747D
100
AcDbEntity
  8
細線
 48
50.0
100
AcDbLine
 10
9038.511644902817
 20
2316.455748320806
 30
0.0
 11
8995.309336270459
 21
2359.658056953162
 31
0.0
  0
LINE
  5
147D2
330
747D
100
AcDbEntity
  8
細線
 48
50.0
100
AcDbLine
 10
9020.692554016925
 20
2316.455748320805
 30
0.0
 11
8981.492554016929
 21
2355.655748320804
 31
0.0
  0
LINE
  5
147D3
330
747D
100
AcDbEntity
  8
細線
 48
50.0
100
AcDbLine
 10
8800.923766424137
 20
2316.455748320805
 30
0.0
 11
8410.309336270458
 21
2707.070178474503
 31
0.0
  0
LINE
  5
147D4
330
747D
100
AcDbEntity
  8
細線
 48
50.0
100
AcDbLine
 10
8765.285584652351
 20
2316.455748320805
 30
0.0
 11
8410.30933627046
 21
2671.4319967027
 31
0.0
  0
LINE
  5
147D5
330
747D
100
AcDbEntity
  8
細線
 48
50.0
100
AcDbLine
 10
8783.104675538258
 20
2316.455748320805
 30
0.0
 11
8410.309336270458
 21
2689.251087588595
 31
0.0
  0
LINE
  5
147E8
330
747D
100
AcDbEntity
  8
細線
 48
50.0
100
AcDbLine
 10
8783.104675538263
 20
5597.436281726284
 30
0.0
 11
8721.457822355787
 21
5659.083134908754
 31
0.0
  0
LINE
  5
147E9
330
747D
100
AcDbEntity
  8
細線
 48
50.0
100
AcDbLine
 10
8765.285584652357
 20
5597.436281726283
 30
0.0
 11
8410.309336270465
 21
5952.412530108177
 31
0.0
  0
LINE
  5
147EA
330
747D
100
AcDbEntity
  8
細線
 48
50.0
100
AcDbLine
 10
8800.923766424142
 20
5597.436281726284
 30
0.0
 11
8739.276913241672
 21
5659.083134908758
 31
0.0
  0
LINE
  5
147EE
330
747D
100
AcDbEntity
  8
細線
 48
50.0
100
AcDbLine
 10
9240.461341609714
 20
5597.436281726285
 30
0.0
 11
9094.309336270466
 21
5743.588287065534
 31
0.0
  0
LINE
  5
147EF
330
747D
100
AcDbEntity
  8
細線
 48
50.0
100
AcDbLine
 10
9276.099523381517
 20
5597.436281726285
 30
0.0
 11
9267.709330545441
 21
5605.826474562363
 31
0.0
  0
LINE
  5
147F0
330
747D
100
AcDbEntity
  8
細線
 48
50.0
100
AcDbLine
 10
9258.28043249562
 20
5597.436281726285
 30
0.0
 11
9258.207908518194
 21
5597.508805703712
 31
0.0
  0
LINE
  5
147F1
330
747D
100
AcDbEntity
  8
細線
 48
50.0
100
AcDbLine
 10
9250.981860247899
 20
5604.734853974007
 30
0.0
 11
9094.309336270464
 21
5761.407377951439
 31
0.0
  0
LINE
  5
147F2
330
747D
100
AcDbEntity
  8
細線
 48
50.0
100
AcDbLine
 10
9259.299529106549
 20
5614.236276001254
 30
0.0
 11
9094.309336270464
 21
5779.226468837333
 31
0.0
  0
LINE
  5
147F3
330
747D
100
AcDbEntity
  8
細線
 48
50.0
100
AcDbLine
 10
9002.873463131033
 20
5597.436281726285
 30
0.0
 11
8794.309336270464
 21
5806.000408586857
 31
0.0
  0
LINE
  5
147F4
330
747D
100
AcDbEntity
  8
細線
 48
50.0
100
AcDbLine
 10
9020.69255401693
 20
5597.436281726284
 30
0.0
 11
8794.309336270464
 21
5823.81949947275
 31
0.0
  0
LINE
  5
147F5
330
747D
100
AcDbEntity
  8
細線
 48
50.0
100
AcDbLine
 10
9038.511644902813
 20
5597.436281726285
 30
0.0
 11
8794.30933627046
 21
5841.638590358644
 31
0.0
  0
LINE
  5
147F6
330
747D
100
AcDbEntity
  8
細線
 48
50.0
100
AcDbLine
 10
8673.635887945451
 20
5487.136281726282
 30
0.0
 11
8410.309336270463
 21
5750.462833401283
 31
0.0
  0
LINE
  5
147F7
330
747D
100
AcDbEntity
  8
細線
 48
50.0
100
AcDbLine
 10
8655.81679705958
 20
5487.136281726282
 30
0.0
 11
8410.309336270463
 21
5732.643742515391
 31
0.0
  0
LINE
  5
147F8
330
747D
100
AcDbEntity
  8
細線
 48
50.0
100
AcDbLine
 10
8637.997706173669
 20
5487.136281726282
 30
0.0
 11
8410.309336270465
 21
5714.824651629488
 31
0.0
  0
LINE
  5
147FC
330
747D
100
AcDbEntity
  8
細線
 48
50.0
100
AcDbLine
 10
9795.117476786217
 20
6107.308527888647
 30
0.0
 11
9804.154365031951
 21
6086.5831349088
 31
0.0
  0
LINE
  5
147FD
330
747D
100
AcDbEntity
  8
細線
 48
50.0
100
AcDbLine
 10
9711.11747678622
 20
6107.308527888647
 30
0.0
 11
9720.154365031957
 21
6086.5831349088
 31
0.0
  0
LINE
  5
147FE
330
747D
100
AcDbEntity
  8
細線
 48
50.0
100
AcDbLine
 10
9627.117476786223
 20
6107.308527888647
 30
0.0
 11
9636.154365031963
 21
6086.5831349088
 31
0.0
  0
LINE
  5
147FF
330
747D
100
AcDbEntity
  8
細線
 48
50.0
100
AcDbLine
 10
9543.117476786221
 20
6107.308527888647
 30
0.0
 11
9552.154365031965
 21
6086.5831349088
 31
0.0
  0
LINE
  5
14800
330
747D
100
AcDbEntity
  8
細線
 48
50.0
100
AcDbLine
 10
9460.309336270475
 20
6104.575091830111
 30
0.0
 11
9468.154365031965
 21
6086.5831349088
 31
0.0
  0
LINE
  5
14801
330
747D
100
AcDbEntity
  8
細線
 48
50.0
100
AcDbLine
 10
8137.1670458995
 20
6106.729766935234
 30
0.0
 11
8145.951577142314
 21
6086.5831349088
 31
0.0
  0
LINE
  5
14802
330
747D
100
AcDbEntity
  8
細線
 48
50.0
100
AcDbLine
 10
8443.166306910493
 20
5487.136281726282
 30
0.0
 11
8368.166306910495
 21
5412.136281726282
 31
0.0
  0
LINE
  5
14803
330
747D
100
AcDbEntity
  8
細線
 48
50.0
100
AcDbLine
 10
8407.528125138695
 20
5487.136281726282
 30
0.0
 11
8332.528125138694
 21
5412.136281726282
 31
0.0
  0
LINE
  5
14804
330
747D
100
AcDbEntity
  8
細線
 48
50.0
100
AcDbLine
 10
8425.347216024599
 20
5487.136281726282
 30
0.0
 11
8350.347216024596
 21
5412.136281726282
 31
0.0
  0
LINE
  5
14805
330
747D
100
AcDbEntity
  8
細線
 48
50.0
100
AcDbLine
 10
9580.309336270465
 20
5471.978100464668
 30
0.0
 11
9520.467517532075
 21
5412.136281726282
 31
0.0
  0
LINE
  5
14806
330
747D
100
AcDbEntity
  8
細線
 48
50.0
100
AcDbLine
 10
9580.309336270465
 20
5454.159009578765
 30
0.0
 11
9538.286608417978
 21
5412.136281726282
 31
0.0
  0
LINE
  5
14807
330
747D
100
AcDbEntity
  8
細線
 48
50.0
100
AcDbLine
 10
9580.309336270465
 20
5436.339918692869
 30
0.0
 11
9556.105699303879
 21
5412.136281726282
 31
0.0
  0
LINE
  5
14808
330
747D
100
AcDbEntity
  8
細線
 48
50.0
100
AcDbLine
 10
8290.309336270464
 20
5331.469659147276
 30
0.0
 11
8319.669585788007
 21
5412.136281726282
 31
0.0
  0
LINE
  5
14809
330
747D
100
AcDbEntity
  8
細線
 48
50.0
100
AcDbLine
 10
8290.309336270466
 20
5286.824308149191
 30
0.0
 11
8290.609336270467
 21
5286.136281726282
 31
0.0
  0
LINE
  5
1480A
330
747D
100
AcDbEntity
  8
細線
 48
50.0
100
AcDbLine
 10
8386.869585788005
 20
5412.136281726282
 30
0.0
 11
8396.026210868415
 21
5391.136281726282
 31
0.0
  0
LINE
  5
1480B
330
747D
100
AcDbEntity
  8
細線
 48
50.0
100
AcDbLine
 10
8470.869585788005
 20
5412.136281726282
 30
0.0
 11
8480.026210868414
 21
5391.136281726282
 31
0.0
  0
LINE
  5
1480C
330
747D
100
AcDbEntity
  8
細線
 48
50.0
100
AcDbLine
 10
8302.869585788005
 20
5412.136281726282
 30
0.0
 11
8312.026210868415
 21
5391.136281726282
 31
0.0
  0
LINE
  5
1480D
330
747D
100
AcDbEntity
  8
細線
 48
50.0
100
AcDbLine
 10
8449.452711190057
 20
5307.136281726282
 30
0.0
 11
8458.609336270468
 21
5286.136281726282
 31
0.0
  0
LINE
  5
1480E
330
747D
100
AcDbEntity
  8
細線
 48
50.0
100
AcDbLine
 10
8365.452711190057
 20
5307.136281726282
 30
0.0
 11
8374.609336270466
 21
5286.136281726282
 31
0.0
  0
LINE
  5
1480F
330
747D
100
AcDbEntity
  8
細線
 48
50.0
100
AcDbLine
 10
8441.809336270468
 20
5286.136281726282
 30
0.0
 11
8487.669585788008
 21
5412.136281726282
 31
0.0
  0
LINE
  5
14810
330
747D
100
AcDbEntity
  8
細線
 48
50.0
100
AcDbLine
 10
8357.809336270468
 20
5286.136281726282
 30
0.0
 11
8403.669585788007
 21
5412.136281726282
 31
0.0
  0
LINE
  5
14811
330
747D
100
AcDbEntity
  8
細線
 48
50.0
100
AcDbLine
 10
9365.809336270467
 20
5286.136281726282
 30
0.0
 11
9411.669585788008
 21
5412.136281726282
 31
0.0
  0
LINE
  5
14812
330
747D
100
AcDbEntity
  8
細線
 48
50.0
100
AcDbLine
 10
9478.869585788004
 20
5412.136281726282
 30
0.0
 11
9488.026210868415
 21
5391.136281726282
 31
0.0
  0
LINE
  5
14813
330
747D
100
AcDbEntity
  8
細線
 48
50.0
100
AcDbLine
 10
9562.869585788005
 20
5412.136281726282
 30
0.0
 11
9572.026210868415
 21
5391.136281726282
 31
0.0
  0
LINE
  5
14814
330
747D
100
AcDbEntity
  8
細線
 48
50.0
100
AcDbLine
 10
9394.869585788006
 20
5412.136281726282
 30
0.0
 11
9404.026210868414
 21
5391.136281726282
 31
0.0
  0
LINE
  5
14815
330
747D
100
AcDbEntity
  8
細線
 48
50.0
100
AcDbLine
 10
9541.452711190057
 20
5307.136281726282
 30
0.0
 11
9550.609336270467
 21
5286.136281726282
 31
0.0
  0
LINE
  5
14816
330
747D
100
AcDbEntity
  8
細線
 48
50.0
100
AcDbLine
 10
9373.452711190058
 20
5307.136281726282
 30
0.0
 11
9382.609336270467
 21
5286.136281726282
 31
0.0
  0
LINE
  5
14817
330
747D
100
AcDbEntity
  8
細線
 48
50.0
100
AcDbLine
 10
9457.452711190056
 20
5307.136281726282
 30
0.0
 11
9466.609336270467
 21
5286.136281726282
 31
0.0
  0
LINE
  5
14818
330
747D
100
AcDbEntity
  8
細線
 48
50.0
100
AcDbLine
 10
9449.809336270467
 20
5286.136281726282
 30
0.0
 11
9495.669585788007
 21
5412.136281726282
 31
0.0
  0
LINE
  5
14819
330
747D
100
AcDbEntity
  8
細線
 48
50.0
100
AcDbLine
 10
9533.809336270469
 20
5286.136281726282
 30
0.0
 11
9579.669585788009
 21
5412.136281726282
 31
0.0
  0
DIMENSION
  5
1481A
330
747D
100
AcDbEntity
  8
寸法
 48
50.0
100
AcDbDimension
  2
*D39
 10
9460.309336270466
 20
4866.188069236653
 30
0.0
 11
8935.309336270465
 21
4941.188069236652
 31
0.0
 70
    32
 71
     5
 42
700.000000035
  3
INABA_S30G詳細用20
100
AcDbAlignedDimension
 13
8410.309336270465
 23
5286.136281726282
 33
0.0
 14
9460.309336270466
 24
5286.136281726282
 34
0.0
100
AcDbRotatedDimension
  0
MTEXT
  5
1481B
330
747D
100
AcDbEntity
  8
寸法
 62
     7
 48
50.0
100
AcDbMText
 10
10260.5756447556
 20
6377.748419647373
 30
0.0
 40
90.0
 41
1.0
 71
     4
 72
     1
  1
▽G.L
  7
STYLE2
 73
     1
 44
1.0
1001
ACAD
1000
MTEXTBEGIN
1070
    73
1070
     1
1070
    44
1040
1.0
1070
    74
1070
     0
1000
MTEXTEND
  0
LINE
  5
1481C
330
747D
100
AcDbEntity
  8
Ｇ．Ｌ
 48
50.0
100
AcDbLine
 10
9814.497555052387
 20
6311.583134908801
 30
0.0
 11
10597.68246157772
 21
6311.583134908798
 31
0.0
  0
MTEXT
  5
1481D
102
{ACAD_REACTORS
330
1481E
102
}
330
747D
100
AcDbEntity
  8
部品1
 62
     7
 48
5.0
100
AcDbMText
 10
8195.575220405102
 20
5507.350744478504
 30
0.0
 40
90.0
 41
0.0
 71
     6
 72
     1
  1
\A1;4-D10両方向共
  7
STYLE1
 73
     1
 44
1.0
1001
ACAD
1000
MTEXTBEGIN
1070
    73
1070
     1
1070
    44
1040
1.0
1070
    74
1070
     0
1000
MTEXTEND
  0
LEADER
  5
1481E
330
747D
100
AcDbEntity
  8
寸法
 48
5.0
100
AcDbLeader
  3
INABA_S30G詳細用20
 71
     0
 73
     0
 75
     1
 40
91.25178566873406
 41
703.4999999999999
 76
     3
 10
8611.309336270471
 20
5605.836281726284
 30
0.0
 10
8270.575220405101
 20
5436.480831932064
 30
0.0
 10
8195.575220405102
 20
5436.480831932064
 30
0.0
  0
LINE
  5
1481F
330
747D
100
AcDbEntity
  8
部品1
 48
50.0
100
AcDbLine
 10
8137.1670458995
 20
6236.583134908801
 30
0.0
 11
8410.309336270465
 21
6236.5831349088
 31
0.0
  0
LINE
  5
14820
330
747D
100
AcDbEntity
  8
部品1
 48
50.0
100
AcDbLine
 10
8137.167045899502
 20
6386.583134908798
 30
0.0
 11
8833.309336270465
 21
6386.583134908798
 31
0.0
  0
LINE
  5
14821
330
747D
100
AcDbEntity
  8
細線
 48
50.0
100
AcDbLine
 10
8410.309336270469
 20
6201.291619463556
 30
0.0
 11
8595.600851715721
 21
6386.583134908798
 31
0.0
  0
LINE
  5
14822
330
747D
100
AcDbEntity
  8
文字
 48
50.0
100
AcDbLine
 10
8278.228408187159
 20
6451.924215583384
 30
0.0
 11
8856.725506091123
 21
6451.924215583384
 31
0.0
  0
LINE
  5
14823
330
747D
100
AcDbEntity
  8
部品1
 48
50.0
100
AcDbLine
 10
8290.309336270464
 20
5487.136281726282
 30
0.0
 11
9580.309336270465
 21
5487.136281726282
 31
0.0
  0
LINE
  5
14824
330
747D
100
AcDbEntity
  8
部品1
 48
50.0
100
AcDbLine
 10
8290.309336270466
 20
5412.136281726282
 30
0.0
 11
9580.309336270465
 21
5412.136281726282
 31
0.0
  0
LINE
  5
14825
330
747D
100
AcDbEntity
  8
部品1
 48
50.0
100
AcDbLine
 10
8290.309336270466
 20
5286.136281726282
 30
0.0
 11
9580.309336270465
 21
5286.136281726282
 31
0.0
  0
LINE
  5
14826
330
747D
100
AcDbEntity
  8
部品1
 48
50.0
100
AcDbLine
 10
8410.309336270465
 20
6086.583134908799
 30
0.0
 11
8137.1670458995
 21
6086.5831349088
 31
0.0
  0
DIMENSION
  5
14827
330
747D
100
AcDbEntity
  8
寸法
 48
50.0
100
AcDbDimension
  2
*D38
 10
7658.79850019203
 20
6236.583134908798
 30
0.0
 11
7658.798500192027
 21
6589.884162411124
 31
0.0
 70
   160
 71
     5
 42
100.000000005
  3
INABA_S30G詳細用20
100
AcDbAlignedDimension
 13
8137.167045899502
 23
6386.583134908798
 33
0.0
 14
8126.925038727719
 24
6236.583134908798
 34
0.0
 50
90.0
100
AcDbRotatedDimension
  0
LINE
  5
14828
330
747D
100
AcDbEntity
  8
部品1
 48
50.0
100
AcDbLine
 10
8290.309336270464
 20
5487.136281726282
 30
0.0
 11
8290.309336270466
 21
5286.136281726282
 31
0.0
  0
DIMENSION
  5
14829
330
747D
100
AcDbEntity
  8
寸法
 48
50.0
100
AcDbDimension
  2
*D37
 10
7658.798500192029
 20
6086.5831349088
 30
0.0
 11
7658.798500192027
 21
5909.547701837934
 31
0.0
 70
   160
 71
     5
 42
100.000000005
  3
INABA_S30G詳細用20
100
AcDbAlignedDimension
 13
8137.1670458995
 23
6236.583134908801
 33
0.0
 14
8137.1670458995
 24
6086.5831349088
 34
0.0
 50
90.0
100
AcDbRotatedDimension
  0
LINE
  5
1482A
330
747D
100
AcDbEntity
  8
細線
 48
50.0
100
AcDbLine
 10
8213.371262758435
 20
6086.5831349088
 30
0.0
 11
8267.966797898365
 21
6236.583134908798
 31
0.0
  0
LINE
  5
1482B
330
747D
100
AcDbEntity
  8
細線
 48
50.0
100
AcDbLine
 10
8297.371262758437
 20
6086.5831349088
 30
0.0
 11
8351.966797898365
 21
6236.583134908798
 31
0.0
  0
LINE
  5
1482C
330
747D
100
AcDbEntity
  8
細線
 48
50.0
100
AcDbLine
 10
8137.1670458995
 20
6108.001873055842
 30
0.0
 11
8183.966797898365
 21
6236.583134908798
 31
0.0
  0
LINE
  5
1482D
330
747D
100
AcDbEntity
  8
細線
 48
50.0
100
AcDbLine
 10
8220.91468889657
 20
6107.308527888647
 30
0.0
 11
8229.951577142314
 21
6086.5831349088
 31
0.0
  0
LINE
  5
1482E
330
747D
100
AcDbEntity
  8
細線
 48
50.0
100
AcDbLine
 10
8304.91468889657
 20
6107.308527888647
 30
0.0
 11
8313.951577142312
 21
6086.5831349088
 31
0.0
  0
LINE
  5
1482F
330
747D
100
AcDbEntity
  8
細線
 48
50.0
100
AcDbLine
 10
8162.651155008836
 20
6236.583134908801
 30
0.0
 11
8312.651155008833
 21
6386.583134908798
 31
0.0
  0
LINE
  5
14830
330
747D
100
AcDbEntity
  8
細線
 48
50.0
100
AcDbLine
 10
8144.832064122931
 20
6236.583134908801
 30
0.0
 11
8294.83206412293
 21
6386.583134908798
 31
0.0
  0
LINE
  5
14831
330
747D
100
AcDbEntity
  8
細線
 48
50.0
100
AcDbLine
 10
8137.1670458995
 20
6246.737207571268
 30
0.0
 11
8277.012973237034
 21
6386.583134908798
 31
0.0
  0
LINE
  5
14832
330
747D
100
AcDbEntity
  8
細線
 48
50.0
100
AcDbLine
 10
8167.166797898362
 20
6236.583134908798
 30
0.0
 11
8176.323422978773
 21
6215.583134908798
 31
0.0
  0
LINE
  5
14833
330
747D
100
AcDbEntity
  8
細線
 48
50.0
100
AcDbLine
 10
8335.166797898363
 20
6236.583134908798
 30
0.0
 11
8344.323422978773
 21
6215.583134908801
 31
0.0
  0
LINE
  5
14834
330
747D
100
AcDbEntity
  8
細線
 48
50.0
100
AcDbLine
 10
8251.166797898362
 20
6236.583134908798
 30
0.0
 11
8260.323422978773
 21
6215.583134908801
 31
0.0
  0
LINE
  5
14835
330
747D
100
AcDbEntity
  8
文字
 48
50.0
100
AcDbLine
 10
8278.228408187159
 20
6451.924215583384
 30
0.0
 11
8346.879626052293
 21
6470.319253969761
 31
0.0
  0
LINE
  5
14836
330
747D
100
AcDbEntity
  8
文字
 48
50.0
100
AcDbLine
 10
8278.228408187159
 20
6451.924215583384
 30
0.0
 11
8346.879626052293
 21
6433.529177197009
 31
0.0
  0
LINE
  5
14837
330
747D
100
AcDbEntity
  8
部品1
 48
10.0
100
AcDbLine
 10
8875.309336270465
 20
6595.634086671278
 30
0.0
 11
8875.309336270465
 21
6149.583134908798
 31
0.0
  0
LINE
  5
14838
330
747D
100
AcDbEntity
  8
部品1
 48
10.0
100
AcDbLine
 10
8995.309336270464
 20
6595.634086671278
 30
0.0
 11
8995.309336270464
 21
6149.583134908798
 31
0.0
  0
TEXT
  5
14839
330
747D
100
AcDbEntity
  8
文字
 48
50.0
100
AcDbText
 10
9064.938991442792
 20
6507.497000863212
 30
0.0
 40
72.0
  1
１／１００
 41
0.8
  7
STYLE1
100
AcDbText
  0
TEXT
  5
1483A
330
747D
100
AcDbEntity
  8
文字
 48
50.0
100
AcDbText
 10
8494.960295920781
 20
6507.497000863212
 30
0.0
 40
72.0
  1
１／１００
 41
0.8
  7
STYLE1
100
AcDbText
  0
DIMENSION
  5
1483B
330
747D
100
AcDbEntity
  8
寸法
 48
50.0
100
AcDbDimension
  2
*D36
 10
10120.01793660163
 20
6311.583134908801
 30
0.0
 11
10120.01793660163
 21
6595.44709593948
 31
0.0
 70
   160
 71
     5
 42
50.00000000249879
  3
INABA_S30G詳細用20
100
AcDbAlignedDimension
 13
9672.512124160107
 23
6386.583134908798
 33
0.0
 14
9814.497555052387
 24
6311.583134908801
 34
0.0
 50
90.0
100
AcDbRotatedDimension
  0
LINE
  5
1483C
330
747D
100
AcDbEntity
  8
センター
 48
10.0
100
AcDbLine
 10
8935.309336270464
 20
6652.958453271509
 30
0.0
 11
8935.309336270464
 21
6042.281503553829
 31
0.0
  0
LINE
  5
1483D
330
747D
100
AcDbEntity
  8
細線
 48
50.0
100
AcDbLine
 10
9407.590547402252
 20
6086.5831349088
 30
0.0
 11
9460.309336270471
 21
6139.30192377702
 31
0.0
  0
LINE
  5
1483E
330
747D
100
AcDbEntity
  8
細線
 48
50.0
100
AcDbLine
 10
9389.771456516351
 20
6086.583134908801
 30
0.0
 11
9460.309336270471
 21
6157.12101466292
 31
0.0
  0
LINE
  5
1483F
330
747D
100
AcDbEntity
  8
細線
 48
50.0
100
AcDbLine
 10
9371.952365630455
 20
6086.583134908801
 30
0.0
 11
9460.309336270473
 21
6174.94010554882
 31
0.0
  0
LINE
  5
14840
330
747D
100
AcDbEntity
  8
文字
 48
50.0
100
AcDbLine
 10
9592.39026435377
 20
6451.924215583384
 30
0.0
 11
9013.893166449804
 21
6451.924215583384
 31
0.0
  0
LINE
  5
14843
330
747D
100
AcDbEntity
  8
部品1
 48
50.0
100
AcDbLine
 10
9037.309336270462
 20
6386.583134908798
 30
0.0
 11
9648.512124160106
 21
6386.583134908798
 31
0.0
  0
LINE
  5
14844
330
747D
100
AcDbEntity
  8
部品1
 48
50.0
100
AcDbLine
 10
9460.309336270475
 20
6236.583134908798
 30
0.0
 11
9648.512124160106
 21
6236.583134908798
 31
0.0
  0
LINE
  5
14845
330
747D
100
AcDbEntity
  8
部品1
 48
50.0
100
AcDbLine
 10
8410.309336270465
 20
6086.583134908798
 30
0.0
 11
8776.309336270463
 21
6086.583134908799
 31
0.0
  0
LINE
  5
14846
330
747D
100
AcDbEntity
  8
細線
 48
50.0
100
AcDbLine
 10
9535.574050648079
 20
6086.5831349088
 30
0.0
 11
9590.169585788009
 21
6236.583134908798
 31
0.0
  0
DIMENSION
  5
14847
330
747D
100
AcDbEntity
  8
寸法
 48
50.0
100
AcDbDimension
  2
*D35
 10
10120.01793660163
 20
6086.5831349088
 30
0.0
 11
10120.01793660163
 21
6199.0831349088
 31
0.0
 70
   160
 71
     5
 42
150.0000000075
  3
INABA_S30G詳細用20
100
AcDbAlignedDimension
 13
9814.497555052387
 23
6311.583134908801
 33
0.0
 14
9855.005894694931
 24
6086.5831349088
 34
0.0
 50
90.0
100
AcDbRotatedDimension
  0
LINE
  5
14848
330
747D
100
AcDbEntity
  8
細線
 48
50.0
100
AcDbLine
 10
8875.585584652355
 20
5487.136281726282
 30
0.0
 11
8782.085584652357
 21
5580.636281726281
 31
0.0
  0
LINE
  5
14849
330
747D
100
AcDbEntity
  8
細線
 48
50.0
100
AcDbLine
 10
8893.404675538267
 20
5487.136281726282
 30
0.0
 11
8799.904675538266
 21
5580.636281726281
 31
0.0
  0
LINE
  5
1484A
330
747D
100
AcDbEntity
  8
細線
 48
50.0
100
AcDbLine
 10
8911.223766424136
 20
5487.136281726282
 30
0.0
 11
8817.723766424142
 21
5580.636281726281
 31
0.0
  0
LINE
  5
1484B
330
747D
100
AcDbEntity
  8
細線
 48
50.0
100
AcDbLine
 10
9113.173463131031
 20
5487.136281726282
 30
0.0
 11
9019.673463131033
 21
5580.636281726282
 31
0.0
  0
LINE
  5
1484C
330
747D
100
AcDbEntity
  8
細線
 48
50.0
100
AcDbLine
 10
9130.992554016936
 20
5487.136281726282
 30
0.0
 11
9037.492554016933
 21
5580.636281726282
 31
0.0
  0
LINE
  5
1484D
330
747D
100
AcDbEntity
  8
細線
 48
50.0
100
AcDbLine
 10
9350.761341609716
 20
5487.136281726282
 30
0.0
 11
9257.261341609716
 21
5580.636281726284
 31
0.0
  0
LINE
  5
1484E
330
747D
100
AcDbEntity
  8
細線
 48
50.0
100
AcDbLine
 10
9368.580432495628
 20
5487.136281726282
 30
0.0
 11
9275.08043249562
 21
5580.636281726284
 31
0.0
  0
LINE
  5
1484F
330
747D
100
AcDbEntity
  8
細線
 48
50.0
100
AcDbLine
 10
9386.399523381525
 20
5487.136281726282
 30
0.0
 11
9282.934336270466
 21
5590.601468837339
 31
0.0
  0
LINE
  5
14850
330
747D
100
AcDbEntity
  8
細線
 48
50.0
100
AcDbLine
 10
9148.811644902822
 20
5487.136281726282
 30
0.0
 11
9055.311644902822
 21
5580.636281726282
 31
0.0
  0
LINE
  5
14851
330
747D
100
AcDbEntity
  8
細線
 48
50.0
100
AcDbLine
 10
9460.309336270466
 20
5650.814347316003
 30
0.0
 11
9094.309336270464
 21
6016.814347316019
 31
0.0
  0
LINE
  5
14852
330
747D
100
AcDbEntity
  8
細線
 48
50.0
100
AcDbLine
 10
9460.309336270466
 20
5632.995256430115
 30
0.0
 11
9094.309336270464
 21
5998.995256430116
 31
0.0
  0
LINE
  5
14853
330
747D
100
AcDbEntity
  8
細線
 48
50.0
100
AcDbLine
 10
9460.309336270466
 20
5615.176165544224
 30
0.0
 11
9094.309336270464
 21
5981.176165544218
 31
0.0
  0
LINE
  5
14854
330
747D
100
AcDbEntity
  8
部品1
 48
50.0
100
AcDbLine
 10
8410.309336270465
 20
6236.5831349088
 30
0.0
 11
8410.309336270465
 21
5487.136281726282
 31
0.0
  0
LINE
  5
14855
330
747D
100
AcDbEntity
  8
部品1
 48
50.0
100
AcDbLine
 10
9460.309336270464
 20
5487.136281726282
 30
0.0
 11
9460.309336270473
 21
6236.583134908798
 31
0.0
  0
LINE
  5
14856
330
747D
100
AcDbEntity
  8
部品1
 48
50.0
100
AcDbLine
 10
8587.684336270465
 20
5580.636281726281
 30
0.0
 11
9282.934336270464
 21
5580.636281726284
 31
0.0
  0
LINE
  5
14857
330
747D
100
AcDbEntity
  8
部品1
 48
50.0
100
AcDbLine
 10
8587.684336270465
 20
5597.436281726283
 30
0.0
 11
9282.934336270464
 21
5597.436281726285
 31
0.0
  0
LINE
  5
14859
330
747D
100
AcDbEntity
  8
細線
 48
50.0
100
AcDbLine
 10
8945.809336270468
 20
5286.136281726282
 30
0.0
 11
8991.669585788008
 21
5412.136281726282
 31
0.0
  0
LINE
  5
1485A
330
747D
100
AcDbEntity
  8
細線
 48
50.0
100
AcDbLine
 10
8525.809336270468
 20
5286.136281726282
 30
0.0
 11
8571.669585788008
 21
5412.136281726282
 31
0.0
  0
LINE
  5
1485B
330
747D
100
AcDbEntity
  8
細線
 48
50.0
100
AcDbLine
 10
8861.809336270468
 20
5286.136281726282
 30
0.0
 11
8907.669585788008
 21
5412.136281726282
 31
0.0
  0
LINE
  5
1485C
330
747D
100
AcDbEntity
  8
細線
 48
50.0
100
AcDbLine
 10
8693.809336270467
 20
5286.136281726282
 30
0.0
 11
8739.669585788007
 21
5412.136281726282
 31
0.0
  0
LINE
  5
1485D
330
747D
100
AcDbEntity
  8
細線
 48
50.0
100
AcDbLine
 10
8609.809336270467
 20
5286.136281726282
 30
0.0
 11
8655.669585788007
 21
5412.136281726282
 31
0.0
  0
LINE
  5
1485E
330
747D
100
AcDbEntity
  8
細線
 48
50.0
100
AcDbLine
 10
8777.809336270468
 20
5286.136281726282
 30
0.0
 11
8823.669585788008
 21
5412.136281726282
 31
0.0
  0
LINE
  5
1485F
330
747D
100
AcDbEntity
  8
細線
 48
50.0
100
AcDbLine
 10
8533.452711190056
 20
5307.136281726282
 30
0.0
 11
8542.609336270468
 21
5286.136281726282
 31
0.0
  0
LINE
  5
14860
330
747D
100
AcDbEntity
  8
細線
 48
50.0
100
AcDbLine
 10
8701.452711190057
 20
5307.136281726282
 30
0.0
 11
8710.609336270467
 21
5286.136281726282
 31
0.0
  0
LINE
  5
14861
330
747D
100
AcDbEntity
  8
細線
 48
50.0
100
AcDbLine
 10
8617.452711190058
 20
5307.136281726282
 30
0.0
 11
8626.609336270467
 21
5286.136281726282
 31
0.0
  0
LINE
  5
14862
330
747D
100
AcDbEntity
  8
細線
 48
50.0
100
AcDbLine
 10
8785.452711190057
 20
5307.136281726282
 30
0.0
 11
8794.609336270466
 21
5286.136281726282
 31
0.0
  0
LINE
  5
14863
330
747D
100
AcDbEntity
  8
細線
 48
50.0
100
AcDbLine
 10
8953.452711190058
 20
5307.136281726282
 30
0.0
 11
8962.609336270466
 21
5286.136281726282
 31
0.0
  0
LINE
  5
14864
330
747D
100
AcDbEntity
  8
細線
 48
50.0
100
AcDbLine
 10
8869.452711190056
 20
5307.136281726282
 30
0.0
 11
8878.609336270468
 21
5286.136281726282
 31
0.0
  0
LINE
  5
14865
330
747D
100
AcDbEntity
  8
細線
 48
50.0
100
AcDbLine
 10
8662.935094503277
 20
5487.136281726282
 30
0.0
 11
8587.935094503276
 21
5412.136281726282
 31
0.0
  0
LINE
  5
14866
330
747D
100
AcDbEntity
  8
細線
 48
50.0
100
AcDbLine
 10
8645.116003617372
 20
5487.136281726282
 30
0.0
 11
8570.116003617371
 21
5412.136281726282
 31
0.0
  0
LINE
  5
14867
330
747D
100
AcDbEntity
  8
細線
 48
50.0
100
AcDbLine
 10
8554.869585788004
 20
5412.136281726282
 30
0.0
 11
8564.026210868416
 21
5391.136281726282
 31
0.0
  0
LINE
  5
14868
330
747D
100
AcDbEntity
  8
細線
 48
50.0
100
AcDbLine
 10
8680.75418538917
 20
5487.136281726282
 30
0.0
 11
8605.754185389175
 21
5412.136281726282
 31
0.0
  0
LINE
  5
14869
330
747D
100
AcDbEntity
  8
細線
 48
50.0
100
AcDbLine
 10
8638.869585788006
 20
5412.136281726282
 30
0.0
 11
8648.026210868414
 21
5391.136281726282
 31
0.0
  0
LINE
  5
1486A
330
747D
100
AcDbEntity
  8
部品1
 48
50.0
100
AcDbLine
 10
8587.684336270465
 20
5580.636281726284
 30
0.0
 11
8587.684336270465
 21
5597.436281726283
 31
0.0
  0
CIRCLE
  5
1486B
330
747D
100
AcDbEntity
  8
部品1
 48
5.0
100
AcDbCircle
 10
8611.309336270471
 20
5605.836281726284
 30
0.0
 40
8.4
  0
LINE
  5
1486C
330
747D
100
AcDbEntity
  8
細線
 48
50.0
100
AcDbLine
 10
8918.34206386785
 20
5487.136281726282
 30
0.0
 11
8843.342063867851
 21
5412.136281726282
 31
0.0
  0
LINE
  5
1486D
330
747D
100
AcDbEntity
  8
細線
 48
50.0
100
AcDbLine
 10
8882.70388209605
 20
5487.136281726282
 30
0.0
 11
8807.703882096047
 21
5412.136281726282
 31
0.0
  0
LINE
  5
1486E
330
747D
100
AcDbEntity
  8
細線
 48
50.0
100
AcDbLine
 10
8900.522972981953
 20
5487.136281726282
 30
0.0
 11
8825.522972981952
 21
5412.136281726282
 31
0.0
  0
LINE
  5
1486F
330
747D
100
AcDbEntity
  8
細線
 48
50.0
100
AcDbLine
 10
8806.869585788005
 20
5412.136281726282
 30
0.0
 11
8816.026210868415
 21
5391.136281726282
 31
0.0
  0
LINE
  5
14870
330
747D
100
AcDbEntity
  8
細線
 48
50.0
100
AcDbLine
 10
8722.869585788005
 20
5412.136281726282
 30
0.0
 11
8732.026210868415
 21
5391.136281726282
 31
0.0
  0
LINE
  5
14871
330
747D
100
AcDbEntity
  8
細線
 48
50.0
100
AcDbLine
 10
8890.869585788005
 20
5412.136281726282
 30
0.0
 11
8900.026210868416
 21
5391.136281726282
 31
0.0
  0
CIRCLE
  5
14872
330
747D
100
AcDbEntity
  8
部品1
 48
5.0
100
AcDbCircle
 10
8827.309336270472
 20
5605.836281726284
 30
0.0
 40
8.4
  0
LINE
  5
14874
330
747D
100
AcDbEntity
  8
細線
 48
50.0
100
AcDbLine
 10
9281.809336270468
 20
5286.136281726282
 30
0.0
 11
9327.669585788008
 21
5412.136281726282
 31
0.0
  0
LINE
  5
14875
330
747D
100
AcDbEntity
  8
細線
 48
50.0
100
AcDbLine
 10
9197.809336270468
 20
5286.136281726282
 30
0.0
 11
9243.669585788008
 21
5412.136281726282
 31
0.0
  0
LINE
  5
14876
330
747D
100
AcDbEntity
  8
細線
 48
50.0
100
AcDbLine
 10
9113.809336270469
 20
5286.136281726282
 30
0.0
 11
9159.669585788007
 21
5412.136281726282
 31
0.0
  0
LINE
  5
14877
330
747D
100
AcDbEntity
  8
細線
 48
50.0
100
AcDbLine
 10
9029.809336270467
 20
5286.136281726282
 30
0.0
 11
9075.669585788007
 21
5412.136281726282
 31
0.0
  0
LINE
  5
14878
330
747D
100
AcDbEntity
  8
細線
 48
50.0
100
AcDbLine
 10
9205.452711190057
 20
5307.136281726282
 30
0.0
 11
9214.609336270468
 21
5286.136281726282
 31
0.0
  0
LINE
  5
14879
330
747D
100
AcDbEntity
  8
細線
 48
50.0
100
AcDbLine
 10
9037.452711190057
 20
5307.136281726282
 30
0.0
 11
9046.609336270467
 21
5286.136281726282
 31
0.0
  0
LINE
  5
1487A
330
747D
100
AcDbEntity
  8
細線
 48
50.0
100
AcDbLine
 10
9121.452711190057
 20
5307.136281726282
 30
0.0
 11
9130.609336270467
 21
5286.136281726282
 31
0.0
  0
LINE
  5
1487B
330
747D
100
AcDbEntity
  8
細線
 48
50.0
100
AcDbLine
 10
9289.452711190056
 20
5307.136281726282
 30
0.0
 11
9298.609336270466
 21
5286.136281726282
 31
0.0
  0
LINE
  5
1487C
330
747D
100
AcDbEntity
  8
細線
 48
50.0
100
AcDbLine
 10
9155.92994234653
 20
5487.136281726282
 30
0.0
 11
9080.929942346527
 21
5412.136281726282
 31
0.0
  0
LINE
  5
1487D
330
747D
100
AcDbEntity
  8
細線
 48
50.0
100
AcDbLine
 10
9138.110851460629
 20
5487.136281726282
 30
0.0
 11
9063.110851460628
 21
5412.136281726282
 31
0.0
  0
LINE
  5
1487E
330
747D
100
AcDbEntity
  8
細線
 48
50.0
100
AcDbLine
 10
9120.291760574724
 20
5487.136281726282
 30
0.0
 11
9045.291760574725
 21
5412.136281726282
 31
0.0
  0
LINE
  5
1487F
330
747D
100
AcDbEntity
  8
細線
 48
50.0
100
AcDbLine
 10
9058.869585788006
 20
5412.136281726282
 30
0.0
 11
9068.026210868415
 21
5391.136281726282
 31
0.0
  0
LINE
  5
14880
330
747D
100
AcDbEntity
  8
細線
 48
50.0
100
AcDbLine
 10
8974.869585788004
 20
5412.136281726282
 30
0.0
 11
8984.026210868414
 21
5391.136281726282
 31
0.0
  0
LINE
  5
14881
330
747D
100
AcDbEntity
  8
細線
 48
50.0
100
AcDbLine
 10
9142.869585788004
 20
5412.136281726282
 30
0.0
 11
9152.026210868415
 21
5391.136281726282
 31
0.0
  0
CIRCLE
  5
14882
330
747D
100
AcDbEntity
  8
部品1
 48
5.0
100
AcDbCircle
 10
9043.309336270471
 20
5605.836281726284
 30
0.0
 40
8.4
  0
LINE
  5
14883
330
747D
100
AcDbEntity
  8
細線
 48
50.0
100
AcDbLine
 10
9393.517820825204
 20
5487.136281726282
 30
0.0
 11
9318.517820825205
 21
5412.136281726282
 31
0.0
  0
LINE
  5
14884
330
747D
100
AcDbEntity
  8
細線
 48
50.0
100
AcDbLine
 10
9375.698729939307
 20
5487.136281726282
 30
0.0
 11
9300.698729939304
 21
5412.136281726282
 31
0.0
  0
LINE
  5
14885
330
747D
100
AcDbEntity
  8
細線
 48
50.0
100
AcDbLine
 10
9357.879639053402
 20
5487.136281726282
 30
0.0
 11
9282.879639053401
 21
5412.136281726282
 31
0.0
  0
LINE
  5
14886
330
747D
100
AcDbEntity
  8
細線
 48
50.0
100
AcDbLine
 10
9310.869585788005
 20
5412.136281726282
 30
0.0
 11
9320.026210868414
 21
5391.136281726282
 31
0.0
  0
LINE
  5
14887
330
747D
100
AcDbEntity
  8
細線
 48
50.0
100
AcDbLine
 10
9226.869585788005
 20
5412.136281726282
 30
0.0
 11
9236.026210868415
 21
5391.136281726282
 31
0.0
  0
LINE
  5
14888
330
747D
100
AcDbEntity
  8
部品1
 48
50.0
100
AcDbLine
 10
9282.934336270464
 20
5580.636281726281
 30
0.0
 11
9282.934336270464
 21
5597.436281726285
 31
0.0
  0
CIRCLE
  5
14889
330
747D
100
AcDbEntity
  8
部品1
 48
5.0
100
AcDbCircle
 10
9259.309336270472
 20
5605.836281726284
 30
0.0
 40
8.4
  0
LINE
  5
1488A
330
747D
100
AcDbEntity
  8
細線
 48
50.0
100
AcDbLine
 10
9076.309336270464
 20
5761.588287065536
 30
0.0
 11
8794.309336270464
 21
6043.588287065542
 31
0.0
  0
LINE
  5
1488B
330
747D
100
AcDbEntity
  8
細線
 48
50.0
100
AcDbLine
 10
9076.309336270467
 20
5779.407377951436
 30
0.0
 11
8794.309336270464
 21
6061.407377951441
 31
0.0
  0
LINE
  5
1488C
330
747D
100
AcDbEntity
  8
細線
 48
50.0
100
AcDbLine
 10
9076.309336270464
 20
5797.226468837329
 30
0.0
 11
8794.309336270464
 21
6079.226468837343
 31
0.0
  0
LINE
  5
1488E
330
747D
100
AcDbEntity
  8
細線
 48
50.0
100
AcDbLine
 10
8388.914688896569
 20
6107.308527888647
 30
0.0
 11
8397.951577142306
 21
6086.5831349088
 31
0.0
  0
LINE
  5
1488F
330
747D
100
AcDbEntity
  8
細線
 48
50.0
100
AcDbLine
 10
8381.371262758435
 20
6086.5831349088
 30
0.0
 11
8410.309336270463
 21
6166.089838445609
 31
0.0
  0
LINE
  5
14890
330
747D
100
AcDbEntity
  8
細線
 48
50.0
100
AcDbLine
 10
8533.1887301944
 20
6086.583134908798
 30
0.0
 11
8833.188730194406
 21
6386.583134908798
 31
0.0
  0
LINE
  5
14891
330
747D
100
AcDbEntity
  8
細線
 48
50.0
100
AcDbLine
 10
8410.309336270465
 20
6183.472528577645
 30
0.0
 11
8613.419942601618
 21
6386.583134908798
 31
0.0
  0
LINE
  5
14892
330
747D
100
AcDbEntity
  8
細線
 48
50.0
100
AcDbLine
 10
8410.309336270469
 20
6165.653437691742
 30
0.0
 11
8631.239033487521
 21
6386.583134908798
 31
0.0
  0
LINE
  5
14893
330
747D
100
AcDbEntity
  8
細線
 48
50.0
100
AcDbLine
 10
8568.826911966203
 20
6086.583134908798
 30
0.0
 11
8875.309336270465
 21
6393.065559213059
 31
0.0
  0
LINE
  5
14894
330
747D
100
AcDbEntity
  8
細線
 48
50.0
100
AcDbLine
 10
8551.007821080306
 20
6086.583134908798
 30
0.0
 11
8872.007821080297
 21
6407.583134908799
 31
0.0
  0
LINE
  5
14897
330
747D
100
AcDbEntity
  8
部品1
 48
50.0
100
AcDbLine
 10
8854.309336270468
 20
6407.583134908799
 30
0.0
 11
8875.309336270465
 21
6407.583134908799
 31
0.0
  0
LINE
  5
14898
330
747D
100
AcDbEntity
  8
部品1
 48
50.0
100
AcDbLine
 10
8854.309336270464
 20
6407.583134908799
 30
0.0
 11
8833.309336270465
 21
6386.583134908798
 31
0.0
  0
LINE
  5
14899
330
747D
100
AcDbEntity
  8
細線
 48
50.0
100
AcDbLine
 10
9460.309336270471
 20
6110.583134908813
 30
0.0
 11
9506.169585788009
 21
6236.583134908798
 31
0.0
  0
LINE
  5
1489A
330
747D
100
AcDbEntity
  8
細線
 48
50.0
100
AcDbLine
 10
9460.309336270471
 20
5888.402225794703
 30
0.0
 11
9262.128427156373
 21
6086.583134908798
 31
0.0
  0
LINE
  5
1489B
330
747D
100
AcDbEntity
  8
細線
 48
50.0
100
AcDbLine
 10
9460.309336270467
 20
5870.583134908805
 30
0.0
 11
9244.309336270466
 21
6086.5831349088
 31
0.0
  0
LINE
  5
1489C
330
747D
100
AcDbEntity
  8
細線
 48
50.0
100
AcDbLine
 10
9460.309336270471
 20
5852.764044022881
 30
0.0
 11
9226.490245384562
 21
6086.583134908799
 31
0.0
  0
LINE
  5
1489D
330
747D
100
AcDbEntity
  8
細線
 48
50.0
100
AcDbLine
 10
9030.864487151768
 20
6086.583134908799
 30
0.0
 11
9075.864487151767
 21
6131.583134908798
 31
0.0
  0
LINE
  5
1489E
330
747D
100
AcDbEntity
  8
細線
 48
50.0
100
AcDbLine
 10
9048.683578037662
 20
6086.5831349088
 30
0.0
 11
9076.309336270467
 21
6114.208893141602
 31
0.0
  0
LINE
  5
1489F
330
747D
100
AcDbEntity
  8
細線
 48
50.0
100
AcDbLine
 10
8995.309336270466
 20
6288.615862506187
 30
0.0
 11
9093.276608673075
 21
6386.583134908798
 31
0.0
  0
LINE
  5
148A0
330
747D
100
AcDbEntity
  8
細線
 48
50.0
100
AcDbLine
 10
8995.309336270464
 20
6270.796771620286
 30
0.0
 11
9111.095699558974
 21
6386.583134908798
 31
0.0
  0
LINE
  5
148A1
330
747D
100
AcDbEntity
  8
細線
 48
50.0
100
AcDbLine
 10
8995.309336270464
 20
6252.977680734386
 30
0.0
 11
9128.914790444877
 21
6386.583134908798
 31
0.0
  0
LINE
  5
148A2
330
747D
100
AcDbEntity
  8
部品1
 48
50.0
100
AcDbLine
 10
8995.309336270464
 20
6407.583134908799
 30
0.0
 11
9016.309336270465
 21
6407.583134908799
 31
0.0
  0
LINE
  5
148A3
330
747D
100
AcDbEntity
  8
部品1
 48
50.0
100
AcDbLine
 10
9016.309336270472
 20
6407.583134908799
 30
0.0
 11
9037.309336270464
 21
6386.583134908798
 31
0.0
  0
LINE
  5
148A4
330
747D
100
AcDbEntity
  8
細線
 48
50.0
100
AcDbLine
 10
9066.502668923561
 20
6086.583134908798
 30
0.0
 11
9076.309336270467
 21
6096.389802255703
 31
0.0
  0
LINE
  5
148A5
330
747D
100
AcDbEntity
  8
細線
 48
50.0
100
AcDbLine
 10
9489.369585788006
 20
6236.583134908798
 30
0.0
 11
9498.526210868419
 21
6215.583134908798
 31
0.0
  0
DIMENSION
  5
148A6
330
747D
100
AcDbEntity
  8
寸法
 48
50.0
100
AcDbDimension
  2
*D34
 10
10120.01793660163
 20
5487.136281726282
 30
0.0
 11
10045.01793660163
 21
5786.859708317542
 31
0.0
 70
    32
 71
     5
 42
399.631235474994
  3
INABA_S30G詳細用20
100
AcDbAlignedDimension
 13
9855.005894694931
 23
6086.5831349088
 33
0.0
 14
9580.309336270465
 24
5487.136281726282
 34
0.0
 50
90.0
100
AcDbRotatedDimension
  0
DIMENSION
  5
148A7
330
747D
100
AcDbEntity
  8
寸法
 48
50.0
100
AcDbDimension
  2
*D33
 10
10120.01793660163
 20
5412.136281726282
 30
0.0
 11
10120.01793660163
 21
5232.433624245969
 31
0.0
 70
   160
 71
     5
 42
50.0000000025
  3
INABA_S30G詳細用20
100
AcDbAlignedDimension
 13
9580.309336270465
 23
5487.136281726282
 33
0.0
 14
9580.309336270465
 24
5412.136281726282
 34
0.0
 50
90.0
100
AcDbRotatedDimension
  0
LINE
  5
148A8
330
747D
100
AcDbEntity
  8
部品1
 48
50.0
100
AcDbLine
 10
9580.309336270465
 20
5286.136281726282
 30
0.0
 11
9580.309336270465
 21
5487.136281726282
 31
0.0
  0
LINE
  5
148A9
330
747D
100
AcDbEntity
  8
細線
 48
50.0
100
AcDbLine
 10
9703.574050648086
 20
6086.5831349088
 30
0.0
 11
9758.16958578801
 21
6236.583134908798
 31
0.0
  0
LINE
  5
148AA
330
747D
100
AcDbEntity
  8
細線
 48
50.0
100
AcDbLine
 10
9787.57405064808
 20
6086.5831349088
 30
0.0
 11
9842.16958578801
 21
6236.583134908798
 31
0.0
  0
LINE
  5
148AB
330
747D
100
AcDbEntity
  8
部品1
 48
50.0
100
AcDbLine
 10
9672.512124160107
 20
6407.79762300421
 30
0.0
 11
9672.512124160109
 21
6045.701980712575
 31
0.0
  0
LINE
  5
148AC
330
747D
100
AcDbEntity
  8
部品1
 48
50.0
100
AcDbLine
 10
9648.512124160106
 20
6407.79762300421
 30
0.0
 11
9648.512124160106
 21
6045.701980712575
 31
0.0
  0
LINE
  5
148AD
330
747D
100
AcDbEntity
  8
部品1
 48
50.0
100
AcDbLine
 10
9672.512124160107
 20
6086.5831349088
 30
0.0
 11
9855.005894694931
 21
6086.5831349088
 31
0.0
  0
LINE
  5
148AE
330
747D
100
AcDbEntity
  8
細線
 48
50.0
100
AcDbLine
 10
9619.574050648088
 20
6086.5831349088
 30
0.0
 11
9648.512124160106
 21
6166.089838445609
 31
0.0
  0
LINE
  5
148AF
330
747D
100
AcDbEntity
  8
細線
 48
50.0
100
AcDbLine
 10
9737.590547402248
 20
6236.583134908798
 30
0.0
 11
9814.497555052385
 21
6313.490142558937
 31
0.0
  0
LINE
  5
148B0
330
747D
100
AcDbEntity
  8
部品1
 48
50.0
100
AcDbLine
 10
9814.497555052387
 20
6351.383134908798
 30
0.0
 11
9789.297555052391
 21
6376.583134908798
 31
0.0
  0
LINE
  5
148B1
330
747D
100
AcDbEntity
  8
部品1
 48
50.0
100
AcDbLine
 10
9672.512124160107
 20
6236.583134908798
 30
0.0
 11
9855.005894694933
 21
6236.583134908798
 31
0.0
  0
LINE
  5
148B2
330
747D
100
AcDbEntity
  8
部品1
 48
50.0
100
AcDbLine
 10
9672.512124160107
 20
6379.583134908799
 30
0.0
 11
9789.297555052391
 21
6376.583134908798
 31
0.0
  0
LINE
  5
148B3
330
747D
100
AcDbEntity
  8
細線
 48
50.0
100
AcDbLine
 10
9573.369585788006
 20
6236.583134908798
 30
0.0
 11
9582.526210868421
 21
6215.583134908798
 31
0.0
  0
LINE
  5
148B4
330
747D
100
AcDbEntity
  8
細線
 48
50.0
100
AcDbLine
 10
9672.512124160107
 20
6232.029296512522
 30
0.0
 11
9674.169585788011
 21
6236.583134908798
 31
0.0
  0
LINE
  5
148B5
330
747D
100
AcDbEntity
  8
細線
 48
50.0
100
AcDbLine
 10
9741.369585788007
 20
6236.583134908798
 30
0.0
 11
9750.526210868422
 21
6215.583134908801
 31
0.0
  0
LINE
  5
148B6
330
747D
100
AcDbEntity
  8
細線
 48
50.0
100
AcDbLine
 10
9701.95236563045
 20
6236.583134908798
 30
0.0
 11
9814.497555052387
 21
6349.128324330735
 31
0.0
  0
LINE
  5
148B7
330
747D
100
AcDbEntity
  8
細線
 48
50.0
100
AcDbLine
 10
9719.771456516355
 20
6236.583134908801
 30
0.0
 11
9814.497555052387
 21
6331.309233444832
 31
0.0
  0
LINE
  5
148B8
330
747D
100
AcDbEntity
  8
文字
 48
50.0
100
AcDbLine
 10
9592.39026435377
 20
6451.924215583384
 30
0.0
 11
9523.739046488637
 21
6470.319253969761
 31
0.0
  0
LINE
  5
148B9
330
747D
100
AcDbEntity
  8
文字
 48
50.0
100
AcDbLine
 10
9592.39026435377
 20
6451.924215583384
 30
0.0
 11
9523.739046488637
 21
6433.529177197009
 31
0.0
  0
LINE
  5
148BA
330
747D
100
AcDbEntity
  8
細線
 48
50.0
100
AcDbLine
 10
9825.369585788008
 20
6236.583134908798
 30
0.0
 11
9834.526210868421
 21
6215.583134908798
 31
0.0
  0
LINE
  5
148BB
330
747D
100
AcDbEntity
  8
部品1
 48
50.0
100
AcDbLine
 10
9814.497555052387
 20
6351.383134908796
 30
0.0
 11
9814.497555052387
 21
6236.583134908798
 31
0.0
  0
TEXT
  5
148BC
330
747D
100
AcDbEntity
  8
文字
 48
50.0
100
AcDbText
 10
8494.960295920781
 20
6610.087502863182
 30
0.0
 40
72.0
  1
水勾配
 41
0.8
  7
STYLE1
100
AcDbText
  0
TEXT
  5
148BD
330
747D
100
AcDbEntity
  8
文字
 48
50.0
100
AcDbText
 10
9064.938991442792
 20
6610.087502863182
 30
0.0
 40
72.0
  1
水勾配
 41
0.8
  7
STYLE1
100
AcDbText
  0
LINE
  5
149D0
330
747D
100
AcDbEntity
  8
部品1
 48
50.0
100
AcDbLine
 10
8747.809336270464
 20
6131.583134908797
 30
0.0
 11
9122.809336270464
 21
6131.583134908797
 31
0.0
  0
LINE
  5
149D1
330
747D
100
AcDbEntity
  8
部品1
 48
50.0
100
AcDbLine
 10
8747.809336270464
 20
6149.583134908798
 30
0.0
 11
9122.809336270464
 21
6149.583134908798
 31
0.0
  0
LINE
  5
149D2
330
747D
100
AcDbEntity
  8
部品1
 48
50.0
100
AcDbLine
 10
8747.809336270464
 20
6149.583134908798
 30
0.0
 11
8747.809336270464
 21
6131.583134908797
 31
0.0
  0
LINE
  5
149D3
330
747D
100
AcDbEntity
  8
部品1
 48
50.0
100
AcDbLine
 10
9122.809336270464
 20
6149.583134908798
 30
0.0
 11
9122.809336270464
 21
6131.583134908797
 31
0.0
  0
ARC
  5
149D4
330
747D
100
AcDbEntity
  8
部品1
 48
50.0
100
AcDbCircle
 10
8935.309336270464
 20
6059.253133002802
 30
0.0
 40
72.33000190599523
100
AcDbArc
 50
22.20066484127715
 51
157.7993351587228
  0
LINE
  5
149D5
330
747D
100
AcDbEntity
  8
部品1
 48
50.0
100
AcDbLine
 10
8875.309336270465
 20
6247.083134908798
 30
0.0
 11
8995.309336270464
 21
6247.083134908798
 31
0.0
  0
LINE
  5
149D6
330
747D
100
AcDbEntity
  8
部品1
 48
50.0
100
AcDbLine
 10
8875.309336270465
 20
6247.083134908798
 30
0.0
 11
8794.30933627046
 21
6171.868849194511
 31
0.0
  0
DIMENSION
  5
149D8
330
747D
100
AcDbEntity
  8
寸法
 48
50.0
100
AcDbDimension
  2
*D40
 10
8024.847844613024
 20
6131.583134908797
 30
0.0
 11
8024.847844613024
 21
5857.047701837934
 31
0.0
 70
   160
 71
     5
 42
30.00000000149879
  3
INABA_S30G詳細用20
100
AcDbAlignedDimension
 13
8137.1670458995
 23
6086.583134908799
 33
0.0
 14
8747.809336270464
 24
6131.583134908797
 34
0.0
 50
90.0
100
AcDbRotatedDimension
  0
DIMENSION
  5
149E7
330
747D
100
AcDbEntity
  8
寸法
 48
50.0
100
AcDbDimension
  2
*D41
 10
7839.046941219779
 20
6176.083134908798
 30
0.0
 11
7839.046941219776
 21
5929.354788452108
 31
0.0
 70
   160
 71
     5
 42
59.66666666964818
  3
INABA_S30G詳細用20
100
AcDbAlignedDimension
 13
8137.1670458995
 23
6086.5831349088
 33
0.0
 14
8776.309336270463
 24
6176.083134908798
 34
0.0
 50
90.0
100
AcDbRotatedDimension
  0
LINE
  5
14A1B
330
747D
100
AcDbEntity
  8
部品1
 48
50.0
100
AcDbLine
 10
9076.309336270464
 20
6131.583134908797
 30
0.0
 11
9076.309336270464
 21
5677.083134908798
 31
0.0
  0
LINE
  5
14A1C
330
747D
100
AcDbEntity
  8
部品1
 48
50.0
100
AcDbLine
 10
9094.309336270464
 20
6131.583134908797
 30
0.0
 11
9094.309336270464
 21
5677.083134908798
 31
0.0
  0
LINE
  5
14A2A
330
747D
100
AcDbEntity
  8
部品1
 48
50.0
100
AcDbLine
 10
8794.309336270464
 20
6131.583134908797
 30
0.0
 11
8794.309336270464
 21
5677.083134908766
 31
0.0
  0
LINE
  5
14A2B
330
747D
100
AcDbEntity
  8
部品1
 48
50.0
100
AcDbLine
 10
8776.309336270463
 20
6131.583134908797
 30
0.0
 11
8776.309336270463
 21
5677.083134908766
 31
0.0
  0
LINE
  5
14A2C
330
747D
100
AcDbEntity
  8
部品1
 48
50.0
100
AcDbLine
 10
9094.309336270463
 20
6176.083134908795
 30
0.0
 11
9076.309336270462
 21
6176.083134908797
 31
0.0
  0
LINE
  5
14A2D
330
747D
100
AcDbEntity
  8
部品1
 48
50.0
100
AcDbLine
 10
9061.309336270461
 20
6163.583134908796
 30
0.0
 11
9109.309336270461
 21
6163.583134908796
 31
0.0
  0
LINE
  5
14A2E
330
747D
100
AcDbEntity
  8
部品1
 48
50.0
100
AcDbLine
 10
9109.309336270461
 20
6149.583134908795
 30
0.0
 11
9109.309336270461
 21
6163.583134908796
 31
0.0
  0
LINE
  5
14A2F
330
747D
100
AcDbEntity
  8
部品1
 48
50.0
100
AcDbLine
 10
9061.309336270461
 20
6149.583134908795
 30
0.0
 11
9061.309336270461
 21
6163.583134908796
 31
0.0
  0
LINE
  5
14A30
330
747D
100
AcDbEntity
  8
部品1
 48
50.0
100
AcDbLine
 10
9097.309336270461
 20
6149.583134908798
 30
0.0
 11
9097.309336270461
 21
6163.583134908796
 31
0.0
  0
LINE
  5
14A31
330
747D
100
AcDbEntity
  8
部品1
 48
50.0
100
AcDbLine
 10
9073.309336270462
 20
6149.583134908798
 30
0.0
 11
9073.30933627046
 21
6163.583134908796
 31
0.0
  0
LINE
  5
14A32
330
747D
100
AcDbEntity
  8
部品1
 48
50.0
100
AcDbLine
 10
9076.309336270464
 20
6163.583134908793
 30
0.0
 11
9076.309336270464
 21
6176.083134908795
 31
0.0
  0
LINE
  5
14A33
330
747D
100
AcDbEntity
  8
部品1
 48
50.0
100
AcDbLine
 10
9094.309336270463
 20
6163.583134908793
 30
0.0
 11
9094.309336270463
 21
6176.083134908795
 31
0.0
  0
LINE
  5
14A34
330
747D
100
AcDbEntity
  8
部品1
 48
50.0
100
AcDbLine
 10
8794.30933627046
 20
6163.583134908796
 30
0.0
 11
8794.30933627046
 21
6176.083134908798
 31
0.0
  0
LINE
  5
14A35
330
747D
100
AcDbEntity
  8
部品1
 48
50.0
100
AcDbLine
 10
8776.309336270463
 20
6163.583134908796
 30
0.0
 11
8776.309336270463
 21
6176.083134908798
 31
0.0
  0
LINE
  5
14A36
330
747D
100
AcDbEntity
  8
部品1
 48
50.0
100
AcDbLine
 10
8773.309336270463
 20
6149.583134908798
 30
0.0
 11
8773.309336270463
 21
6163.583134908796
 31
0.0
  0
LINE
  5
14A37
330
747D
100
AcDbEntity
  8
部品1
 48
50.0
100
AcDbLine
 10
8797.30933627046
 20
6149.583134908798
 30
0.0
 11
8797.30933627046
 21
6163.583134908796
 31
0.0
  0
LINE
  5
14A38
330
747D
100
AcDbEntity
  8
部品1
 48
50.0
100
AcDbLine
 10
8761.309336270462
 20
6149.583134908795
 30
0.0
 11
8761.309336270462
 21
6163.583134908796
 31
0.0
  0
LINE
  5
14A39
330
747D
100
AcDbEntity
  8
部品1
 48
50.0
100
AcDbLine
 10
8809.309336270461
 20
6149.583134908795
 30
0.0
 11
8809.309336270461
 21
6163.583134908796
 31
0.0
  0
LINE
  5
14A3A
330
747D
100
AcDbEntity
  8
部品1
 48
50.0
100
AcDbLine
 10
8761.309336270462
 20
6163.583134908796
 30
0.0
 11
8809.309336270462
 21
6163.583134908796
 31
0.0
  0
LINE
  5
14A3B
330
747D
100
AcDbEntity
  8
部品1
 48
50.0
100
AcDbLine
 10
8794.309336270464
 20
6176.083134908795
 30
0.0
 11
8776.309336270463
 21
6176.083134908797
 31
0.0
  0
LINE
  5
14A4D
330
747D
100
AcDbEntity
  8
部品1
 48
50.0
100
AcDbLine
 10
9151.309336270463
 20
5677.083134908798
 30
0.0
 11
9151.309336270463
 21
5659.083134908797
 31
0.0
  0
LINE
  5
14A4E
330
747D
100
AcDbEntity
  8
部品1
 48
50.0
100
AcDbLine
 10
9094.309336270464
 20
5659.083134908797
 30
0.0
 11
9151.309336270463
 21
5659.083134908797
 31
0.0
  0
LINE
  5
14A4F
330
747D
100
AcDbEntity
  8
部品1
 48
50.0
100
AcDbLine
 10
9094.309336270466
 20
5677.083134908798
 30
0.0
 11
9151.309336270463
 21
5677.083134908798
 31
0.0
  0
ARC
  5
14A50
330
747D
100
AcDbEntity
  8
部品1
 48
50.0
100
AcDbCircle
 10
9094.309336270464
 20
5677.083134908798
 30
0.0
 40
18.0
100
AcDbArc
 50
180.0
 51
270.0
  0
ARC
  5
14A51
330
747D
100
AcDbEntity
  8
部品1
 48
50.0
100
AcDbCircle
 10
8776.30933627049
 20
5677.083134908766
 30
0.0
 40
18.0
100
AcDbArc
 50
270.0000000000115
 51
0.0000000000115087
  0
LINE
  5
14A52
330
747D
100
AcDbEntity
  8
部品1
 48
50.0
100
AcDbLine
 10
8776.309336270488
 20
5677.083134908766
 30
0.0
 11
8719.309336270489
 21
5677.083134908754
 31
0.0
  0
LINE
  5
14A53
330
747D
100
AcDbEntity
  8
部品1
 48
50.0
100
AcDbLine
 10
8776.309336270493
 20
5659.083134908765
 30
0.0
 11
8719.309336270493
 21
5659.083134908754
 31
0.0
  0
LINE
  5
14A54
330
747D
100
AcDbEntity
  8
部品1
 48
50.0
100
AcDbLine
 10
8719.309336270489
 20
5677.083134908754
 30
0.0
 11
8719.309336270493
 21
5659.083134908754
 31
0.0
  0
LINE
  5
14A55
330
747D
100
AcDbEntity
  8
細線
 48
50.0
100
AcDbLine
 10
8721.276913241679
 20
5677.083134908755
 30
0.0
 11
8410.309336270463
 21
5988.050711879981
 31
0.0
  0
LINE
  5
14A56
330
747D
100
AcDbEntity
  8
細線
 48
50.0
100
AcDbLine
 10
8719.309336270493
 20
5661.231620994051
 30
0.0
 11
8410.309336270463
 21
5970.231620994073
 31
0.0
  0
LINE
  5
14A57
330
747D
100
AcDbEntity
  8
細線
 48
50.0
100
AcDbLine
 10
8776.309336270463
 20
6079.407377951439
 30
0.0
 11
8769.133579313104
 21
6086.5831349088
 31
0.0
  0
LINE
  5
14A58
330
747D
100
AcDbEntity
  8
細線
 48
50.0
100
AcDbLine
 10
8776.309336270463
 20
6061.58828706554
 30
0.0
 11
8751.314488427203
 21
6086.583134908799
 31
0.0
  0
LINE
  5
14A59
330
747D
100
AcDbEntity
  8
部品1
 48
50.0
100
AcDbLine
 10
8794.309336270464
 20
6086.583134908799
 30
0.0
 11
9076.309336270467
 21
6086.583134908799
 31
0.0
  0
LINE
  5
14A5A
330
747D
100
AcDbEntity
  8
部品1
 48
50.0
100
AcDbLine
 10
9094.309336270464
 20
6086.583134908799
 30
0.0
 11
9648.512124160106
 21
6086.5831349088
 31
0.0
  0
LINE
  5
14A5B
330
747D
100
AcDbEntity
  8
細線
 48
50.0
100
AcDbLine
 10
8776.309336270463
 20
5859.638590358644
 30
0.0
 11
8549.36479172032
 21
6086.5831349088
 31
0.0
  0
LINE
  5
14A5C
330
747D
100
AcDbEntity
  8
細線
 48
50.0
100
AcDbLine
 10
8776.309336270463
 20
5841.819499472749
 30
0.0
 11
8531.545700834417
 21
6086.5831349088
 31
0.0
  0
LINE
  5
14A5D
330
747D
100
AcDbEntity
  8
細線
 48
50.0
100
AcDbLine
 10
8776.309336270463
 20
5824.000408586856
 30
0.0
 11
8513.726609948525
 21
6086.5831349088
 31
0.0
  0
LINE
  5
14A61
330
747D
100
AcDbEntity
  8
部品1
 48
50.0
100
AcDbLine
 10
8995.309336270462
 20
6247.083134908798
 30
0.0
 11
9076.309336270467
 21
6171.868849194511
 31
0.0
  0
LINE
  5
14AB5
330
747D
100
AcDbEntity
  8
細線
 48
50.0
100
AcDbLine
 10
9122.809336270462
 20
6142.889802255702
 30
0.0
 11
9366.502668923564
 21
6386.583134908798
 31
0.0
  0
LINE
  5
14AB6
330
747D
100
AcDbEntity
  8
細線
 48
50.0
100
AcDbLine
 10
9111.683578037661
 20
6149.583134908798
 30
0.0
 11
9348.683578037663
 21
6386.583134908798
 31
0.0
  0
LINE
  5
14AB7
330
747D
100
AcDbEntity
  8
細線
 48
50.0
100
AcDbLine
 10
9107.864487151765
 20
6163.583134908795
 30
0.0
 11
9330.864487151762
 21
6386.583134908798
 31
0.0
  0
LINE
  5
14AB8
330
747D
100
AcDbEntity
  8
細線
 48
50.0
100
AcDbLine
 10
9076.309336270464
 20
6034.814347316018
 30
0.0
 11
9024.540548677686
 21
6086.583134908799
 31
0.0
  0
LINE
  5
14AB9
330
747D
100
AcDbEntity
  8
細線
 48
50.0
100
AcDbLine
 10
9076.309336270467
 20
6016.995256430117
 30
0.0
 11
9006.721457791782
 21
6086.5831349088
 31
0.0
  0
LINE
  5
14ABA
330
747D
100
AcDbEntity
  8
細線
 48
50.0
100
AcDbLine
 10
9076.309336270467
 20
5999.176165544218
 30
0.0
 11
8988.902366905882
 21
6086.583134908799
 31
0.0
  0
LINE
  5
14ABB
330
747D
100
AcDbEntity
  8
細線
 48
50.0
100
AcDbLine
 10
9557.590547402249
 20
6236.583134908798
 30
0.0
 11
9648.512124160106
 21
6327.504711666655
 31
0.0
  0
LINE
  5
14ABC
330
747D
100
AcDbEntity
  8
細線
 48
50.0
100
AcDbLine
 10
9539.771456516351
 20
6236.583134908798
 30
0.0
 11
9648.512124160106
 21
6345.323802552552
 31
0.0
  0
LINE
  5
14ABD
330
747D
100
AcDbEntity
  8
細線
 48
50.0
100
AcDbLine
 10
9521.952365630449
 20
6236.583134908798
 30
0.0
 11
9648.512124160106
 21
6363.142893438455
 31
0.0
  0
LEADER
  5
14AD3
330
747D
100
AcDbEntity
  8
寸法
 48
50.0
100
AcDbLeader
  3
INABA_S30G
 73
     0
 74
     0
 75
     1
 40
240.0177165354331
 41
399.7279220613578
 76
     3
 10
9094.309336270457
 20
5815.347719418351
 30
0.0
 10
9413.677614090191
 20
5709.010965142614
 30
0.0
 10
9488.677614090191
 20
5709.010965142614
 30
0.0
340
14AD4
  0
MTEXT
  5
14AD4
102
{ACAD_REACTORS
330
14AD3
102
}
330
747D
100
AcDbEntity
  8
寸法
 62
     7
 48
50.0
100
AcDbMText
 10
9518.677614090192
 20
5859.019823410331
 30
0.0
 40
90.0
 41
0.0
 71
     4
 72
     1
  1
\A1;ｱﾝｶｰﾎﾞﾙﾄ\PM12x315
  7
STYLE1
 73
     1
 44
1.0
1001
ACAD
1000
MTEXTBEGIN
1070
    73
1070
     1
1070
    44
1040
1.0
1070
    74
1070
     0
1000
MTEXTEND
  0
DIMENSION
  5
14AF0
330
747D
100
AcDbEntity
  8
寸法
 48
50.0
100
AcDbDimension
  2
*D42
 10
9085.309336270462
 20
5031.598783490082
 30
0.0
 11
9272.809336270464
 21
5106.607641757799
 31
0.0
 70
    32
 71
     5
 42
250.0000000125024
  3
INABA_S30G詳細用20
100
AcDbAlignedDimension
 13
9460.309336270466
 23
5286.136281726282
 33
0.0
 14
9085.309336270462
 24
5286.136281726282
 34
0.0
100
AcDbRotatedDimension
  0
DIMENSION
  5
14AFD
330
747D
100
AcDbEntity
  8
寸法
 48
50.0
100
AcDbDimension
  2
*D43
 10
8785.309336270463
 20
5031.598783490082
 30
0.0
 11
8935.309336270462
 21
5106.607641757799
 31
0.0
 70
    32
 71
     5
 42
200.00000001
  3
INABA_S30G詳細用20
100
AcDbAlignedDimension
 13
9085.309336270462
 23
5286.136281726282
 33
0.0
 14
8785.309336270463
 24
5286.136281726282
 34
0.0
100
AcDbRotatedDimension
  0
DIMENSION
  5
14B0A
330
747D
100
AcDbEntity
  8
寸法
 48
50.0
100
AcDbDimension
  2
*D44
 10
8410.309336270465
 20
5031.598783490082
 30
0.0
 11
8597.809336270463
 21
5106.607641757799
 31
0.0
 70
    32
 71
     5
 42
250.0000000124976
  3
INABA_S30G詳細用20
100
AcDbAlignedDimension
 13
8785.309336270463
 23
5286.136281726282
 33
0.0
 14
8410.309336270465
 24
5286.136281726282
 34
0.0
100
AcDbRotatedDimension
  0
ENDSEC
  0
SECTION
  2
OBJECTS
  0
DICTIONARY
  5
7471
330
0
100
AcDbDictionary
281
     1
  3
ACAD_COLOR
350
140F7
  3
ACAD_GROUP
350
7472
  3
ACAD_LAYOUT
350
140F8
  3
ACAD_MATERIAL
350
140F6
  3
ACAD_MLINESTYLE
350
7473
  3
ACAD_PLOTSETTINGS
350
140F9
  3
ACAD_PLOTSTYLENAME
350
140F4
  3
ACDBHEADERROUNDTRIPXREC
350
14CA0
  3
AcDbVariableDictionary
350
14C93
  3
CONTENTDICTIONARY
350
E71C
  3
DRAWINGVARIABLESDICT
350
F3B9
  0
DICTIONARY
  5
140F7
102
{ACAD_REACTORS
330
7471
102
}
330
7471
100
AcDbDictionary
281
     1
  0
DICTIONARY
  5
7472
102
{ACAD_REACTORS
330
7471
102
}
330
7471
100
AcDbDictionary
281
     1
  0
DICTIONARY
  5
140F8
102
{ACAD_REACTORS
330
7471
102
}
330
7471
100
AcDbDictionary
281
     1
  3
Model
350
140FA
  3
レイアウト1
350
140FB
  0
DICTIONARY
  5
140F6
102
{ACAD_REACTORS
330
7471
102
}
330
7471
100
AcDbDictionary
281
     1
  0
DICTIONARY
  5
7473
102
{ACAD_REACTORS
330
7471
102
}
330
7471
100
AcDbDictionary
281
     1
  3
STANDARD
350
7480
  0
DICTIONARY
  5
140F9
102
{ACAD_REACTORS
330
7471
102
}
330
7471
100
AcDbDictionary
281
     1
  0
ACDBDICTIONARYWDFLT
  5
140F4
102
{ACAD_REACTORS
330
7471
102
}
330
7471
100
AcDbDictionary
281
     1
  3
Normal
350
140F5
100
AcDbDictionaryWithDefault
340
140F5
  0
DICTIONARY
  5
14CA0
102
{ACAD_REACTORS
330
7471
102
}
330
7471
100
AcDbDictionary
281
     1
  3
COLORDICT
350
14CA2
  3
MATERIALDICT
350
14CA1
  0
DICTIONARY
  5
14C93
102
{ACAD_REACTORS
330
7471
102
}
330
7471
100
AcDbDictionary
281
     1
  3
DIMASSOC
350
14C94
  3
PROJECTNAME
350
14C95
  0
DICTIONARY
  5
E71C
102
{ACAD_REACTORS
330
7471
102
}
330
7471
100
AcDbDictionary
281
     1
  0
DICTIONARY
  5
F3B9
102
{ACAD_REACTORS
330
7471
102
}
330
7471
100
AcDbDictionary
281
     1
1001
DRAWINGVARIABLESXDATA
1000
POLARMODE
1000
1
  0
LAYOUT
  5
140FA
102
{ACAD_XDICTIONARY
360
14CA3
102
}
102
{ACAD_REACTORS
330
140F8
102
}
330
140F8
100
AcDbPlotSettings
  1

  2
Microsoft XPS Document Writer
  4

  6

 40
0.0
 41
0.0
 42
0.0
 43
0.0
 44
0.0
 45
0.0
 46
0.0
 47
0.0
 48
0.0
 49
0.0
140
0.0
141
0.0
142
1.0
143
1.0
 70
  1712
 72
     0
 73
     0
 74
     0
  7

 75
     0
147
1.0
148
0.0
149
0.0
100
AcDbLayout
  1
Model
 70
     1
 71
     0
 10
0.0
 20
0.0
 11
12.0
 21
9.0
 12
0.0
 22
0.0
 32
0.0
 14
0.0
 24
0.0
 34
0.0
 15
0.0
 25
0.0
 35
0.0
146
0.0
 13
0.0
 23
0.0
 33
0.0
 16
1.0
 26
0.0
 36
0.0
 17
0.0
 27
1.0
 37
0.0
 76
     0
330
747D
  0
LAYOUT
  5
140FB
102
{ACAD_XDICTIONARY
360
14CA5
102
}
102
{ACAD_REACTORS
330
140F8
102
}
330
140F8
100
AcDbPlotSettings
  1

  2
Microsoft XPS Document Writer
  4

  6

 40
0.0
 41
0.0
 42
0.0
 43
0.0
 44
0.0
 45
0.0
 46
0.0
 47
0.0
 48
0.0
 49
0.0
140
0.0
141
0.0
142
1.0
143
1.0
 70
   688
 72
     0
 73
     0
 74
     5
  7

 75
    16
147
1.0
148
0.0
149
0.0
100
AcDbLayout
  1
レイアウト1
 70
     0
 71
     1
 10
0.0
 20
0.0
 11
420.0
 21
297.0
 12
0.0
 22
0.0
 32
0.0
 14
1.000000000000000E+20
 24
1.000000000000000E+20
 34
1.000000000000000E+20
 15
-1.000000000000000E+20
 25
-1.000000000000000E+20
 35
-1.000000000000000E+20
146
0.0
 13
0.0
 23
0.0
 33
0.0
 16
1.0
 26
0.0
 36
0.0
 17
0.0
 27
1.0
 37
0.0
 76
     0
330
747A
  0
MLINESTYLE
  5
7480
102
{ACAD_REACTORS
330
7473
102
}
330
7473
100
AcDbMlineStyle
  2
STANDARD
 70
     0
  3

 62
     0
 51
90.0
 52
90.0
 71
     2
 49
0.5
 62
   256
  6
BYLAYER
 49
-0.5
 62
   256
  6
BYLAYER
  0
ACDBPLACEHOLDER
  5
140F5
102
{ACAD_REACTORS
330
140F4
102
}
330
140F4
  0
XRECORD
  5
14CA2
102
{ACAD_REACTORS
330
14CA0
102
}
330
14CA0
100
AcDbXrecord
280
     1
340
140F7
  0
XRECORD
  5
14CA1
102
{ACAD_REACTORS
330
14CA0
102
}
330
14CA0
100
AcDbXrecord
280
     1
340
140F6
  0
DICTIONARYVAR
  5
14C94
102
{ACAD_REACTORS
330
14C93
102
}
330
14C93
100
DictionaryVariables
280
     0
  1
1
  0
DICTIONARYVAR
  5
14C95
102
{ACAD_REACTORS
330
14C93
102
}
330
14C93
100
DictionaryVariables
280
     0
  1

  0
DICTIONARY
  5
14CA3
330
140FA
100
AcDbDictionary
280
     1
281
     1
  3
ACAD_XREC_ROUNDTRIP
360
14CA4
  0
DICTIONARY
  5
14CA5
330
140FB
100
AcDbDictionary
280
     1
281
     1
  3
ACAD_XREC_ROUNDTRIP
360
14CA6
  0
XRECORD
  5
14CA4
102
{ACAD_REACTORS
330
14CA3
102
}
330
14CA3
100
AcDbXrecord
280
     1
102
SHADEPLOT
 70
     0
102
SHADEPLOTRESLEVEL
 70
     2
102
SHADEPLOTCUSTOMDPI
 70
   300
  0
XRECORD
  5
14CA6
102
{ACAD_REACTORS
330
14CA5
102
}
330
14CA5
100
AcDbXrecord
280
     1
102
SHADEPLOT
 70
     0
102
SHADEPLOTRESLEVEL
 70
     2
102
SHADEPLOTCUSTOMDPI
 70
   300
  0
ENDSEC
  0
EOF
