  0
SECTION
  2
HEADER
  9
$ACADVER
  1
AC1015
  9
$ACADMAINTVER
 70
    20
  9
$DWGCODEPAGE
  3
ANSI_932
  9
$INSBASE
 10
0.0
 20
0.0
 30
0.0
  9
$EXTMIN
 10
127.6611720766668
 20
263.39175159972
 30
-0.0000000000112498
  9
$EXTMAX
 10
16296.78958931098
 20
10886.97878626987
 30
0.0000000000002956
  9
$LIMMIN
 10
0.0
 20
0.0
  9
$LIMMAX
 10
16800.0
 20
11880.0
  9
$ORTHOMODE
 70
     0
  9
$REGENMODE
 70
     1
  9
$FILLMODE
 70
     1
  9
$QTEXTMODE
 70
     0
  9
$MIRRTEXT
 70
     1
  9
$LTSCALE
 40
7.0
  9
$ATTMODE
 70
     1
  9
$TEXTSIZE
 40
3.5
  9
$TRACEWID
 40
1.0
  9
$TEXTSTYLE
  7
MSGOTHIC
  9
$CLAYER
  8
点線
  9
$CELTYPE
  6
BYLAYER
  9
$CECOLOR
 62
   256
  9
$CELTSCALE
 40
50.0
  9
$DISPSILH
 70
     0
  9
$DIMSCALE
 40
40.0
  9
$DIMASZ
 40
2.5
  9
$DIMEXO
 40
1.0
  9
$DIMDLI
 40
7.0
  9
$DIMRND
 40
0.0
  9
$DIMDLE
 40
0.0
  9
$DIMEXE
 40
1.0
  9
$DIMTP
 40
0.0
  9
$DIMTM
 40
0.0
  9
$DIMTXT
 40
3.0
  9
$DIMCEN
 40
2.5
  9
$DIMTSZ
 40
0.0
  9
$DIMTOL
 70
     0
  9
$DIMLIM
 70
     0
  9
$DIMTIH
 70
     0
  9
$DIMTOH
 70
     0
  9
$DIMSE1
 70
     0
  9
$DIMSE2
 70
     0
  9
$DIMTAD
 70
     3
  9
$DIMZIN
 70
     8
  9
$DIMBLK
  1

  9
$DIMASO
 70
     1
  9
$DIMSHO
 70
     1
  9
$DIMPOST
  1

  9
$DIMAPOST
  1

  9
$DIMALT
 70
     0
  9
$DIMALTD
 70
     2
  9
$DIMALTF
 40
0.0394
  9
$DIMLFAC
 40
1.0
  9
$DIMTOFL
 70
     0
  9
$DIMTVP
 40
1.0
  9
$DIMTIX
 70
     0
  9
$DIMSOXD
 70
     0
  9
$DIMSAH
 70
     1
  9
$DIMBLK1
  1
DOTSMALL
  9
$DIMBLK2
  1
DOTSMALL
  9
$DIMSTYLE
  2
物置仕様図40
  9
$DIMCLRD
 70
     4
  9
$DIMCLRE
 70
     4
  9
$DIMCLRT
 70
     7
  9
$DIMTFAC
 40
1.0
  9
$DIMGAP
 40
1.0
  9
$DIMJUST
 70
     0
  9
$DIMSD1
 70
     0
  9
$DIMSD2
 70
     0
  9
$DIMTOLJ
 70
     1
  9
$DIMTZIN
 70
     8
  9
$DIMALTZ
 70
     0
  9
$DIMALTTZ
 70
     0
  9
$DIMUPT
 70
     0
  9
$DIMDEC
 70
     2
  9
$DIMTDEC
 70
     2
  9
$DIMALTU
 70
     2
  9
$DIMALTTD
 70
     2
  9
$DIMTXSTY
  7
STANDARD
  9
$DIMAUNIT
 70
     0
  9
$DIMADEC
 70
     0
  9
$DIMALTRND
 40
0.0
  9
$DIMAZIN
 70
     0
  9
$DIMDSEP
 70
    46
  9
$DIMATFIT
 70
     3
  9
$DIMFRAC
 70
     0
  9
$DIMLDRBLK
  1

  9
$DIMLUNIT
 70
     2
  9
$DIMLWD
 70
    -2
  9
$DIMLWE
 70
    -2
  9
$DIMTMOVE
 70
     2
  9
$LUNITS
 70
     2
  9
$LUPREC
 70
     1
  9
$SKETCHINC
 40
1.0
  9
$FILLETRAD
 40
70.0
  9
$AUNITS
 70
     0
  9
$AUPREC
 70
     1
  9
$MENU
  1
.
  9
$ELEVATION
 40
0.0
  9
$PELEVATION
 40
0.0
  9
$THICKNESS
 40
0.0
  9
$LIMCHECK
 70
     0
  9
$CHAMFERA
 40
400.0
  9
$CHAMFERB
 40
400.0
  9
$CHAMFERC
 40
800.0
  9
$CHAMFERD
 40
0.0
  9
$SKPOLY
 70
     0
  9
$TDCREATE
 40
2450696.487780324
  9
$TDUCREATE
 40
2450696.112780324
  9
$TDUPDATE
 40
2455579.596402269
  9
$TDUUPDATE
 40
2455579.221402269
  9
$TDINDWG
 40
0.7166620602
  9
$TDUSRTIMER
 40
0.7166620602
  9
$USRTIMER
 70
     1
  9
$ANGBASE
 50
0.0
  9
$ANGDIR
 70
     0
  9
$PDMODE
 70
     0
  9
$PDSIZE
 40
0.0
  9
$PLINEWID
 40
0.0
  9
$SPLFRAME
 70
     0
  9
$SPLINETYPE
 70
     6
  9
$SPLINESEGS
 70
     8
  9
$HANDSEED
  5
2EA8
  9
$SURFTAB1
 70
     6
  9
$SURFTAB2
 70
     6
  9
$SURFTYPE
 70
     6
  9
$SURFU
 70
     6
  9
$SURFV
 70
     6
  9
$UCSBASE
  2

  9
$UCSNAME
  2

  9
$UCSORG
 10
0.0
 20
0.0
 30
0.0
  9
$UCSXDIR
 10
1.0
 20
0.0
 30
0.0
  9
$UCSYDIR
 10
0.0
 20
1.0
 30
0.0
  9
$UCSORTHOREF
  2

  9
$UCSORTHOVIEW
 70
     0
  9
$UCSORGTOP
 10
0.0
 20
0.0
 30
0.0
  9
$UCSORGBOTTOM
 10
0.0
 20
0.0
 30
0.0
  9
$UCSORGLEFT
 10
0.0
 20
0.0
 30
0.0
  9
$UCSORGRIGHT
 10
0.0
 20
0.0
 30
0.0
  9
$UCSORGFRONT
 10
0.0
 20
0.0
 30
0.0
  9
$UCSORGBACK
 10
0.0
 20
0.0
 30
0.0
  9
$PUCSBASE
  2

  9
$PUCSNAME
  2

  9
$PUCSORG
 10
0.0
 20
0.0
 30
0.0
  9
$PUCSXDIR
 10
1.0
 20
0.0
 30
0.0
  9
$PUCSYDIR
 10
0.0
 20
1.0
 30
0.0
  9
$PUCSORTHOREF
  2

  9
$PUCSORTHOVIEW
 70
     0
  9
$PUCSORGTOP
 10
0.0
 20
0.0
 30
0.0
  9
$PUCSORGBOTTOM
 10
0.0
 20
0.0
 30
0.0
  9
$PUCSORGLEFT
 10
0.0
 20
0.0
 30
0.0
  9
$PUCSORGRIGHT
 10
0.0
 20
0.0
 30
0.0
  9
$PUCSORGFRONT
 10
0.0
 20
0.0
 30
0.0
  9
$PUCSORGBACK
 10
0.0
 20
0.0
 30
0.0
  9
$USERI1
 70
     0
  9
$USERI2
 70
     0
  9
$USERI3
 70
     0
  9
$USERI4
 70
     0
  9
$USERI5
 70
     0
  9
$USERR1
 40
0.0
  9
$USERR2
 40
0.0
  9
$USERR3
 40
0.0
  9
$USERR4
 40
0.0
  9
$USERR5
 40
0.0
  9
$WORLDVIEW
 70
     1
  9
$SHADEDGE
 70
     3
  9
$SHADEDIF
 70
    70
  9
$TILEMODE
 70
     1
  9
$MAXACTVP
 70
    16
  9
$PINSBASE
 10
0.0
 20
0.0
 30
0.0
  9
$PLIMCHECK
 70
     0
  9
$PEXTMIN
 10
1.000000000000000E+20
 20
1.000000000000000E+20
 30
1.000000000000000E+20
  9
$PEXTMAX
 10
-1.000000000000000E+20
 20
-1.000000000000000E+20
 30
-1.000000000000000E+20
  9
$PLIMMIN
 10
0.0
 20
0.0
  9
$PLIMMAX
 10
420.0
 20
297.0
  9
$UNITMODE
 70
     0
  9
$VISRETAIN
 70
     0
  9
$PLINEGEN
 70
     0
  9
$PSLTSCALE
 70
     1
  9
$TREEDEPTH
 70
  3020
  9
$CMLSTYLE
  2
STANDARD
  9
$CMLJUST
 70
     0
  9
$CMLSCALE
 40
1.0
  9
$PROXYGRAPHICS
 70
     1
  9
$MEASUREMENT
 70
     1
  9
$CELWEIGHT
370
    -1
  9
$ENDCAPS
280
     0
  9
$JOINSTYLE
280
     0
  9
$LWDISPLAY
290
     0
  9
$INSUNITS
 70
     0
  9
$HYPERLINKBASE
  1

  9
$STYLESHEET
  1
inaba.ctb
  9
$XEDIT
290
     1
  9
$CEPSNTYPE
380
     0
  9
$PSTYLEMODE
290
     1
  9
$FINGERPRINTGUID
  2
{3E7DBE64-0C8B-4A38-AEEF-CDB144859C6F}
  9
$VERSIONGUID
  2
{AD403F47-9105-4136-9FAF-945978C81DAB}
  9
$EXTNAMES
290
     1
  9
$PSVPSCALE
 40
0.0
  9
$OLESTARTUP
290
     0
  0
ENDSEC
  0
SECTION
  2
CLASSES
  0
CLASS
  1
ACDBDICTIONARYWDFLT
  2
AcDbDictionaryWithDefault
  3
ObjectDBX Classes
 90
        0
280
     0
281
     0
  0
CLASS
  1
DICTIONARYVAR
  2
AcDbDictionaryVar
  3
ObjectDBX Classes
 90
        0
280
     0
281
     0
  0
CLASS
  1
ACDBPLACEHOLDER
  2
AcDbPlaceHolder
  3
ObjectDBX Classes
 90
        0
280
     0
281
     0
  0
CLASS
  1
LAYOUT
  2
AcDbLayout
  3
ObjectDBX Classes
 90
        0
280
     0
281
     0
  0
ENDSEC
  0
SECTION
  2
TABLES
  0
TABLE
  2
VPORT
  5
8
330
0
100
AcDbSymbolTable
 70
     4
  0
VPORT
  5
2E9E
330
8
100
AcDbSymbolTableRecord
100
AcDbViewportTableRecord
  2
*Active
 70
     0
 10
0.0
 20
0.0
 11
1.0
 21
1.0
 12
8212.225380693825
 22
5575.185268934796
 13
0.0
 23
0.0
 14
420.0
 24
420.0
 15
420.0
 25
420.0
 16
0.0
 26
0.0
 36
1.0
 17
0.0
 27
0.0
 37
0.0
 40
10779.08551472664
 41
1.5075
 42
50.0
 43
0.0
 44
0.0
 50
0.0
 51
0.0
 71
     0
 72
   100
 73
     1
 74
     0
 75
     0
 76
     0
 77
     0
 78
     1
281
     0
 65
     1
110
0.0
120
0.0
130
0.0
111
1.0
121
0.0
131
0.0
112
0.0
122
1.0
132
0.0
 79
     0
146
0.0
  0
ENDTAB
  0
TABLE
  2
LTYPE
  5
5
330
0
100
AcDbSymbolTable
 70
     3
  0
LTYPE
  5
14
330
5
100
AcDbSymbolTableRecord
100
AcDbLinetypeTableRecord
  2
BYBLOCK
 70
     0
  3

 72
    65
 73
     0
 40
0.0
  0
LTYPE
  5
15
330
5
100
AcDbSymbolTableRecord
100
AcDbLinetypeTableRecord
  2
BYLAYER
 70
     0
  3

 72
    65
 73
     0
 40
0.0
  0
LTYPE
  5
16
330
5
100
AcDbSymbolTableRecord
100
AcDbLinetypeTableRecord
  2
CONTINUOUS
 70
     0
  3
Solid line
 72
    65
 73
     0
 40
0.0
  0
LTYPE
  5
61
330
5
100
AcDbSymbolTableRecord
100
AcDbLinetypeTableRecord
  2
CENTER
 70
     0
  3
____ _ ____ _ ____ _ ____ _ ____ _ ____ _ ____ 
 72
    65
 73
     4
 40
2.0
 49
1.25
 74
     0
 49
-0.25
 74
     0
 49
0.25
 74
     0
 49
-0.25
 74
     0
  0
LTYPE
  5
62
330
5
100
AcDbSymbolTableRecord
100
AcDbLinetypeTableRecord
  2
HIDDEN
 70
     0
  3
__ __ __ __ __ __ __ __ __ __ __ __ __ __ __ __
 72
    65
 73
     2
 40
0.375
 49
0.25
 74
     0
 49
-0.125
 74
     0
  0
ENDTAB
  0
TABLE
  2
LAYER
  5
2
102
{ACAD_XDICTIONARY
360
210C
102
}
330
0
100
AcDbSymbolTable
 70
    10
  0
LAYER
  5
F
330
2
100
AcDbSymbolTableRecord
100
AcDbLayerTableRecord
  2
0
 70
     0
 62
     7
  6
CONTINUOUS
370
    -3
390
20DF
  0
LAYER
  5
63
330
2
100
AcDbSymbolTableRecord
100
AcDbLayerTableRecord
  2
細線
 70
     0
 62
     5
  6
CONTINUOUS
370
    -3
390
20DF
  0
LAYER
  5
64
330
2
100
AcDbSymbolTableRecord
100
AcDbLayerTableRecord
  2
寸法
 70
     0
 62
     4
  6
CONTINUOUS
370
    -3
390
20DF
  0
LAYER
  5
65
330
2
100
AcDbSymbolTableRecord
100
AcDbLayerTableRecord
  2
センター
 70
     0
 62
     3
  6
CENTER
370
    -3
390
20DF
  0
LAYER
  5
92A
330
2
100
AcDbSymbolTableRecord
100
AcDbLayerTableRecord
  2
DEFPOINTS
 70
     0
 62
     7
  6
CONTINUOUS
290
     0
370
    -3
390
20DF
  0
LAYER
  5
1813
330
2
100
AcDbSymbolTableRecord
100
AcDbLayerTableRecord
  2
Ｇ．Ｌ
 70
     0
 62
    30
  6
CONTINUOUS
370
    -3
390
20DF
  0
LAYER
  5
183D
330
2
100
AcDbSymbolTableRecord
100
AcDbLayerTableRecord
  2
文字
 70
     0
 62
     7
  6
CONTINUOUS
370
    -3
390
20DF
  0
LAYER
  5
183E
330
2
100
AcDbSymbolTableRecord
100
AcDbLayerTableRecord
  2
仕様書枠
 70
     0
 62
   230
  6
CONTINUOUS
370
    -3
390
20DF
  0
LAYER
  5
20B1
330
2
100
AcDbSymbolTableRecord
100
AcDbLayerTableRecord
  2
部品1
 70
     0
 62
     7
  6
CONTINUOUS
370
    -3
390
20DF
  0
LAYER
  5
21A8
330
2
100
AcDbSymbolTableRecord
100
AcDbLayerTableRecord
  2
点線
 70
     0
 62
     2
  6
HIDDEN
370
    -3
390
20DF
  0
ENDTAB
  0
TABLE
  2
STYLE
  5
3
330
0
100
AcDbSymbolTable
 70
     6
  0
STYLE
  5
10
330
3
100
AcDbSymbolTableRecord
100
AcDbTextStyleTableRecord
  2
STANDARD
 70
     0
 40
0.0
 41
1.0
 50
0.0
 71
     0
 42
120.0
  3
ISOCP
  4
C:\Program Files\AutoCAD LT\bigfont.shx
  0
STYLE
  5
373
330
3
100
AcDbSymbolTableRecord
100
AcDbTextStyleTableRecord
  2
MSGOTHIC
 70
     0
 40
0.0
 41
1.0
 50
0.0
 71
     0
 42
3.5
  3
MS PGothic.ttf
  4

1001
ACAD
1000
MS PGothic
1071
    32818
  0
STYLE
  5
374
330
3
100
AcDbSymbolTableRecord
100
AcDbTextStyleTableRecord
  2
MSMINCHO
 70
     0
 40
0.0
 41
1.0
 50
0.0
 71
     0
 42
1.199999999999999
  3
msminch2.TTF
  4

  0
STYLE
  5
183F
330
3
100
AcDbSymbolTableRecord
100
AcDbTextStyleTableRecord
  2
STYLE2
 70
     0
 40
0.0
 41
1.0
 50
0.0
 71
     0
 42
100.0
  3
MS PGothic.ttf
  4

1001
ACAD
1000
MS PGothic
1071
    32818
  0
STYLE
  5
210A
330
3
100
AcDbSymbolTableRecord
100
AcDbTextStyleTableRecord
  2
STYLE1
 70
     0
 40
0.0
 41
1.0
 50
0.0
 71
     0
 42
4.0
  3
isocp.shx
  4
bigfont.shx
  0
STYLE
  5
229C
330
3
100
AcDbSymbolTableRecord
100
AcDbTextStyleTableRecord
  2

 70
     1
 40
0.0
 41
1.0
 50
0.0
 71
     0
 42
120.0
  3
ltypeshp.shx
  4

  0
ENDTAB
  0
TABLE
  2
VIEW
  5
6
330
0
100
AcDbSymbolTable
 70
     0
  0
ENDTAB
  0
TABLE
  2
UCS
  5
7
330
0
100
AcDbSymbolTable
 70
     0
  0
ENDTAB
  0
TABLE
  2
APPID
  5
9
330
0
100
AcDbSymbolTable
 70
     1
  0
APPID
  5
11
330
9
100
AcDbSymbolTableRecord
100
AcDbRegAppTableRecord
  2
ACAD
 70
     0
  0
ENDTAB
  0
TABLE
  2
DIMSTYLE
  5
A
330
0
100
AcDbSymbolTable
 70
     2
100
AcDbDimStyleTable
 71
     1
340
92
  0
DIMSTYLE
105
1D
330
A
100
AcDbSymbolTableRecord
100
AcDbDimStyleTableRecord
  2
STANDARD
 70
     0
340
10
  0
DIMSTYLE
105
92
102
{ACAD_REACTORS
330
283F
330
2840
330
28A0
330
290D
330
290E
330
290F
330
2910
330
2911
330
2912
330
2913
330
2914
330
2A2B
330
2A2C
330
2A2D
330
2A2E
330
2A32
330
2A33
330
2A34
330
2A35
330
2A36
330
2A37
330
2A38
330
2A39
330
2A3A
330
2A3B
330
2A3C
330
2A3D
330
2A3E
330
2A3F
330
2A40
330
2A41
102
}
330
A
100
AcDbSymbolTableRecord
100
AcDbDimStyleTableRecord
  2
物置仕様図40
 70
     0
 40
40.0
 41
2.5
 42
1.0
 43
7.0
 44
1.0
 73
     0
 74
     0
 77
     3
 78
     8
140
3.0
141
2.5
143
0.0394
145
1.0
147
1.0
173
     1
176
     4
177
     4
178
     7
271
     2
272
     2
279
     2
284
     8
340
10
341
14F1
343
14F1
344
14F1
  0
ENDTAB
  0
TABLE
  2
BLOCK_RECORD
  5
1
330
0
100
AcDbSymbolTable
 70
    93
  0
BLOCK_RECORD
  5
1A
330
1
100
AcDbSymbolTableRecord
100
AcDbBlockTableRecord
  2
*MODEL_SPACE
340
20E4
  0
BLOCK_RECORD
  5
17
330
1
100
AcDbSymbolTableRecord
100
AcDbBlockTableRecord
  2
*PAPER_SPACE
340
20E5
  0
BLOCK_RECORD
  5
14F1
330
1
100
AcDbSymbolTableRecord
100
AcDbBlockTableRecord
  2
_DOTSMALL
340
0
102
{BLKREFS
331
17B9
331
17BA
331
1750
331
1751
331
16FF
331
1700
331
205D
331
205E
331
173C
331
173D
331
2067
331
2068
331
1713
331
1714
331
171D
331
171E
331
17A3
331
17A4
331
16C8
331
16C9
331
16F5
331
16F6
331
16EB
331
16EC
331
16BD
331
16BE
331
2082
331
2083
331
2073
331
2074
331
1732
331
1733
331
15AA
331
15AB
331
15B5
331
15B6
331
15BE
331
15BF
331
15CA
331
15CB
331
15D5
331
15D6
331
15DE
331
15DF
331
15E9
331
15EA
331
15F3
331
15F4
331
15FE
331
15FF
331
1652
331
1653
331
1627
331
1628
331
1632
331
1633
331
2283
331
2284
331
228B
331
228C
331
240B
331
240C
331
23FF
331
2400
331
23F3
331
23F4
331
23E7
331
23E8
331
23DB
331
23DC
331
23CF
331
23D0
331
23C4
331
23C5
331
23B9
331
23BA
331
23AE
331
23AF
331
23A3
331
23A4
331
2398
331
2399
331
238C
331
238D
331
237F
331
2380
331
2375
331
2376
331
2369
331
236A
331
235B
331
235C
331
2350
331
2351
331
2343
331
2344
331
2335
331
2336
331
232B
331
232C
331
231D
331
231E
331
2311
331
2312
331
2306
331
2307
331
22FA
331
22FB
331
22EF
331
22F0
331
22E5
331
22E6
331
22DA
331
22DB
331
22CF
331
22D0
331
22C3
331
22C4
331
22B8
331
22B9
331
22AE
331
22AF
331
2842
331
284F
331
2850
331
2851
331
2852
331
2895
331
2D6D
331
2D6E
331
2D74
331
2D75
331
2D7C
331
2D7D
331
2D8E
331
2D8F
331
2D96
331
2D97
331
2D9D
331
2D9E
331
2DA5
331
2DA6
331
2DAE
331
2DAF
331
2DB6
331
2DB7
331
2DBF
331
2DC0
331
2DC9
331
2DCA
331
2DD0
331
2DD1
331
2DDA
331
2DDB
331
2DE3
331
2DE4
331
2DEB
331
2DEC
331
2DF5
331
2DF6
331
2DFE
331
2DFF
331
2E05
331
2E06
331
2E0F
331
2E10
331
2E18
331
2E19
331
2E20
331
2E21
331
2E28
331
2E29
331
2E30
331
2E31
331
2E49
331
2E4A
331
2E52
331
2E53
331
2E5B
331
2E5C
331
2E64
331
2E65
331
2E6D
331
2E6E
331
2E76
331
2E77
331
2E7E
331
2E7F
331
2E94
331
2E95
102
}
  0
BLOCK_RECORD
  5
2AF7
330
1
100
AcDbSymbolTableRecord
100
AcDbBlockTableRecord
  2
*D62
340
0
  0
BLOCK_RECORD
  5
2B03
330
1
100
AcDbSymbolTableRecord
100
AcDbBlockTableRecord
  2
*D63
340
0
  0
BLOCK_RECORD
  5
2B0F
330
1
100
AcDbSymbolTableRecord
100
AcDbBlockTableRecord
  2
*D64
340
0
  0
BLOCK_RECORD
  5
2B1B
330
1
100
AcDbSymbolTableRecord
100
AcDbBlockTableRecord
  2
*D65
340
0
  0
BLOCK_RECORD
  5
2B27
330
1
100
AcDbSymbolTableRecord
100
AcDbBlockTableRecord
  2
*D66
340
0
  0
BLOCK_RECORD
  5
2B33
330
1
100
AcDbSymbolTableRecord
100
AcDbBlockTableRecord
  2
*D67
340
0
  0
BLOCK_RECORD
  5
2B3E
330
1
100
AcDbSymbolTableRecord
100
AcDbBlockTableRecord
  2
*D68
340
0
  0
BLOCK_RECORD
  5
2B49
330
1
100
AcDbSymbolTableRecord
100
AcDbBlockTableRecord
  2
*D69
340
0
  0
BLOCK_RECORD
  5
2B54
330
1
100
AcDbSymbolTableRecord
100
AcDbBlockTableRecord
  2
*D70
340
0
  0
BLOCK_RECORD
  5
2B60
330
1
100
AcDbSymbolTableRecord
100
AcDbBlockTableRecord
  2
*D71
340
0
  0
BLOCK_RECORD
  5
2B6B
330
1
100
AcDbSymbolTableRecord
100
AcDbBlockTableRecord
  2
*D72
340
0
  0
BLOCK_RECORD
  5
2B77
330
1
100
AcDbSymbolTableRecord
100
AcDbBlockTableRecord
  2
*D73
340
0
  0
BLOCK_RECORD
  5
2B83
330
1
100
AcDbSymbolTableRecord
100
AcDbBlockTableRecord
  2
*D74
340
0
  0
BLOCK_RECORD
  5
2B8E
330
1
100
AcDbSymbolTableRecord
100
AcDbBlockTableRecord
  2
*D75
340
0
  0
BLOCK_RECORD
  5
2B9A
330
1
100
AcDbSymbolTableRecord
100
AcDbBlockTableRecord
  2
*D76
340
0
  0
BLOCK_RECORD
  5
2BA7
330
1
100
AcDbSymbolTableRecord
100
AcDbBlockTableRecord
  2
*D77
340
0
  0
BLOCK_RECORD
  5
2BB2
330
1
100
AcDbSymbolTableRecord
100
AcDbBlockTableRecord
  2
*D78
340
0
  0
BLOCK_RECORD
  5
2BBE
330
1
100
AcDbSymbolTableRecord
100
AcDbBlockTableRecord
  2
*D79
340
0
  0
BLOCK_RECORD
  5
2BCA
330
1
100
AcDbSymbolTableRecord
100
AcDbBlockTableRecord
  2
*D80
340
0
  0
BLOCK_RECORD
  5
2BD5
330
1
100
AcDbSymbolTableRecord
100
AcDbBlockTableRecord
  2
*D81
340
0
  0
BLOCK_RECORD
  5
2BE1
330
1
100
AcDbSymbolTableRecord
100
AcDbBlockTableRecord
  2
*D82
340
0
  0
BLOCK_RECORD
  5
2BED
330
1
100
AcDbSymbolTableRecord
100
AcDbBlockTableRecord
  2
*D83
340
0
  0
BLOCK_RECORD
  5
2BF9
330
1
100
AcDbSymbolTableRecord
100
AcDbBlockTableRecord
  2
*D84
340
0
  0
BLOCK_RECORD
  5
2C04
330
1
100
AcDbSymbolTableRecord
100
AcDbBlockTableRecord
  2
*D85
340
0
  0
BLOCK_RECORD
  5
2C0F
330
1
100
AcDbSymbolTableRecord
100
AcDbBlockTableRecord
  2
*D86
340
0
  0
BLOCK_RECORD
  5
2C1A
330
1
100
AcDbSymbolTableRecord
100
AcDbBlockTableRecord
  2
*D87
340
0
  0
BLOCK_RECORD
  5
2C25
330
1
100
AcDbSymbolTableRecord
100
AcDbBlockTableRecord
  2
*D88
340
0
  0
BLOCK_RECORD
  5
2C30
330
1
100
AcDbSymbolTableRecord
100
AcDbBlockTableRecord
  2
*D89
340
0
  0
BLOCK_RECORD
  5
2C3C
330
1
100
AcDbSymbolTableRecord
100
AcDbBlockTableRecord
  2
*D90
340
0
  0
BLOCK_RECORD
  5
2C47
330
1
100
AcDbSymbolTableRecord
100
AcDbBlockTableRecord
  2
*D91
340
0
  0
BLOCK_RECORD
  5
2C52
330
1
100
AcDbSymbolTableRecord
100
AcDbBlockTableRecord
  2
*D92
340
0
  0
ENDTAB
  0
ENDSEC
  0
SECTION
  2
BLOCKS
  0
BLOCK
  5
1B
330
1A
100
AcDbEntity
  8
0
100
AcDbBlockBegin
  2
*MODEL_SPACE
 70
     0
 10
0.0
 20
0.0
 30
0.0
  3
*MODEL_SPACE
  1

  0
ENDBLK
  5
1C
330
1A
100
AcDbEntity
  8
0
100
AcDbBlockEnd
  0
BLOCK
  5
18
330
17
100
AcDbEntity
 67
     1
  8
0
100
AcDbBlockBegin
  2
*PAPER_SPACE
 70
     0
 10
0.0
 20
0.0
 30
0.0
  3
*PAPER_SPACE
  1

  0
ENDBLK
  5
19
330
17
100
AcDbEntity
 67
     1
  8
0
100
AcDbBlockEnd
  0
BLOCK
  5
14F2
330
14F1
100
AcDbEntity
  8
0
100
AcDbBlockBegin
  2
_DOTSMALL
 70
     0
 10
0.0
 20
0.0
 30
0.0
  3
_DOTSMALL
  1

  0
LWPOLYLINE
  5
14F3
330
14F1
100
AcDbEntity
  8
0
  6
ByBlock
 62
     0
100
AcDbPolyline
 90
        2
 70
     1
 43
0.5
 10
-0.0625
 20
0.0
 42
1.0
 10
0.0625
 20
0.0
 42
1.0
  0
ENDBLK
  5
14F7
330
14F1
100
AcDbEntity
  8
0
100
AcDbBlockEnd
  0
BLOCK
  5
2B01
330
2AF7
100
AcDbEntity
  8
0
 48
50.0
100
AcDbBlockBegin
  2
*D62
 70
     1
 10
0.0
 20
0.0
 30
0.0
  3
*D62
  1

  0
LINE
  5
2E6A
330
2AF7
100
AcDbEntity
  8
寸法
 62
     4
 48
50.0
370
    -2
100
AcDbLine
 10
2191.540608108044
 20
4390.354811104376
 30
0.0
 11
2191.540608108044
 21
4836.274603944512
 31
0.0
  0
LINE
  5
2E6B
330
2AF7
100
AcDbEntity
  8
寸法
 62
     4
 48
50.0
370
    -2
100
AcDbLine
 10
7791.540608108045
 20
4390.354811104376
 30
0.0
 11
7791.540608108045
 21
4836.274603944512
 31
0.0
  0
LINE
  5
2E6C
330
2AF7
100
AcDbEntity
  8
寸法
 62
     4
 48
50.0
370
    -2
100
AcDbLine
 10
2191.540608108044
 20
4796.274603944512
 30
0.0
 11
7791.540608108045
 21
4796.274603944512
 31
0.0
  0
INSERT
  5
2E6D
330
2AF7
100
AcDbEntity
  8
寸法
 62
     4
 48
50.0
370
    -2
100
AcDbBlockReference
  2
_DOTSMALL
 10
2191.540608108044
 20
4796.274603944512
 30
0.0
 41
100.0
 42
100.0
 43
100.0
 50
180.0
  0
INSERT
  5
2E6E
330
2AF7
100
AcDbEntity
  8
寸法
 62
     4
 48
50.0
370
    -2
100
AcDbBlockReference
  2
_DOTSMALL
 10
7791.540608108045
 20
4796.274603944512
 30
0.0
 41
100.0
 42
100.0
 43
100.0
  0
MTEXT
  5
2E6F
330
2AF7
100
AcDbEntity
  8
寸法
 62
     7
 48
50.0
100
AcDbMText
 10
4991.540608108045
 20
4896.286414968134
 30
0.0
 40
120.0
 41
0.0
 71
     5
 72
     1
  1
\A1;N X 2800
 73
     1
 44
1.0
1001
ACAD
1000
MTEXTBEGIN
1070
    73
1070
     1
1070
    44
1040
1.0
1070
    74
1070
     0
1000
MTEXTEND
  0
POINT
  5
2E70
330
2AF7
100
AcDbEntity
  8
DEFPOINTS
 62
     0
 48
50.0
100
AcDbPoint
 10
2191.540608108044
 20
4350.354811104376
 30
0.0
  0
POINT
  5
2E71
330
2AF7
100
AcDbEntity
  8
DEFPOINTS
 62
     0
 48
50.0
100
AcDbPoint
 10
7791.540608108045
 20
4350.354811104376
 30
0.0
  0
POINT
  5
2E72
330
2AF7
100
AcDbEntity
  8
DEFPOINTS
 62
     0
 48
50.0
100
AcDbPoint
 10
7791.540608108045
 20
4796.274603944512
 30
0.0
  0
ENDBLK
  5
2B02
330
2AF7
100
AcDbEntity
  8
0
 48
50.0
100
AcDbBlockEnd
  0
BLOCK
  5
2B0D
330
2B03
100
AcDbEntity
  8
0
 48
50.0
100
AcDbBlockBegin
  2
*D63
 70
     1
 10
0.0
 20
0.0
 30
0.0
  3
*D63
  1

  0
LINE
  5
2E61
330
2B03
100
AcDbEntity
  8
寸法
 62
     4
 48
50.0
370
    -2
100
AcDbLine
 10
1941.540608108043
 20
4719.058816120088
 30
0.0
 11
1941.540608108043
 21
5116.274603944511
 31
0.0
  0
LINE
  5
2E62
330
2B03
100
AcDbEntity
  8
寸法
 62
     4
 48
50.0
370
    -2
100
AcDbLine
 10
8041.540608108043
 20
4719.058816120088
 30
0.0
 11
8041.540608108043
 21
5116.274603944511
 31
0.0
  0
LINE
  5
2E63
330
2B03
100
AcDbEntity
  8
寸法
 62
     4
 48
50.0
370
    -2
100
AcDbLine
 10
1941.540608108043
 20
5076.274603944511
 30
0.0
 11
8041.540608108043
 21
5076.274603944511
 31
0.0
  0
INSERT
  5
2E64
330
2B03
100
AcDbEntity
  8
寸法
 62
     4
 48
50.0
370
    -2
100
AcDbBlockReference
  2
_DOTSMALL
 10
1941.540608108043
 20
5076.274603944511
 30
0.0
 41
100.0
 42
100.0
 43
100.0
 50
180.0
  0
INSERT
  5
2E65
330
2B03
100
AcDbEntity
  8
寸法
 62
     4
 48
50.0
370
    -2
100
AcDbBlockReference
  2
_DOTSMALL
 10
8041.540608108043
 20
5076.274603944511
 30
0.0
 41
100.0
 42
100.0
 43
100.0
  0
MTEXT
  5
2E66
330
2B03
100
AcDbEntity
  8
寸法
 62
     7
 48
50.0
100
AcDbMText
 10
4991.540608108044
 20
5176.286414968133
 30
0.0
 40
120.0
 41
0.0
 71
     5
 72
     1
  1
\A1;N X 2800 + 500
 73
     1
 44
1.0
1001
ACAD
1000
MTEXTBEGIN
1070
    73
1070
     1
1070
    44
1040
1.0
1070
    74
1070
     0
1000
MTEXTEND
  0
POINT
  5
2E67
330
2B03
100
AcDbEntity
  8
DEFPOINTS
 62
     0
 48
50.0
100
AcDbPoint
 10
1941.540608108043
 20
4679.058816120089
 30
0.0
  0
POINT
  5
2E68
330
2B03
100
AcDbEntity
  8
DEFPOINTS
 62
     0
 48
50.0
100
AcDbPoint
 10
8041.540608108043
 20
4679.058816120089
 30
0.0
  0
POINT
  5
2E69
330
2B03
100
AcDbEntity
  8
DEFPOINTS
 62
     0
 48
50.0
100
AcDbPoint
 10
8041.540608108043
 20
5076.274603944511
 30
0.0
  0
ENDBLK
  5
2B0E
330
2B03
100
AcDbEntity
  8
0
 48
50.0
100
AcDbBlockEnd
  0
BLOCK
  5
2B19
330
2B0F
100
AcDbEntity
  8
0
 48
50.0
100
AcDbBlockBegin
  2
*D64
 70
     1
 10
0.0
 20
0.0
 30
0.0
  3
*D64
  1

  0
LINE
  5
2E58
330
2B0F
100
AcDbEntity
  8
寸法
 62
     4
 48
50.0
370
    -2
100
AcDbLine
 10
7791.540608108043
 20
2065.747464225399
 30
0.0
 11
7791.540608108043
 21
1772.9827369265
 31
0.0
  0
LINE
  5
2E59
330
2B0F
100
AcDbEntity
  8
寸法
 62
     4
 48
50.0
370
    -2
100
AcDbLine
 10
4991.540608108044
 20
2065.747464225399
 30
0.0
 11
4991.540608108044
 21
1772.9827369265
 31
0.0
  0
LINE
  5
2E5A
330
2B0F
100
AcDbEntity
  8
寸法
 62
     4
 48
50.0
370
    -2
100
AcDbLine
 10
7791.540608108043
 20
1812.9827369265
 30
0.0
 11
4991.540608108044
 21
1812.9827369265
 31
0.0
  0
INSERT
  5
2E5B
330
2B0F
100
AcDbEntity
  8
寸法
 62
     4
 48
50.0
370
    -2
100
AcDbBlockReference
  2
_DOTSMALL
 10
7791.540608108043
 20
1812.9827369265
 30
0.0
 41
100.0
 42
100.0
 43
100.0
  0
INSERT
  5
2E5C
330
2B0F
100
AcDbEntity
  8
寸法
 62
     4
 48
50.0
370
    -2
100
AcDbBlockReference
  2
_DOTSMALL
 10
4991.540608108044
 20
1812.9827369265
 30
0.0
 41
100.0
 42
100.0
 43
100.0
 50
180.0
  0
MTEXT
  5
2E5D
330
2B0F
100
AcDbEntity
  8
寸法
 62
     7
 48
50.0
100
AcDbMText
 10
6391.540608108044
 20
1912.994547950123
 30
0.0
 40
120.0
 41
0.0
 71
     5
 72
     1
  1
\A1;2800
 73
     1
 44
1.0
1001
ACAD
1000
MTEXTBEGIN
1070
    73
1070
     1
1070
    44
1040
1.0
1070
    74
1070
     0
1000
MTEXTEND
  0
POINT
  5
2E5E
330
2B0F
100
AcDbEntity
  8
DEFPOINTS
 62
     0
 48
50.0
100
AcDbPoint
 10
7791.540608108043
 20
2105.747464225398
 30
0.0
  0
POINT
  5
2E5F
330
2B0F
100
AcDbEntity
  8
DEFPOINTS
 62
     0
 48
50.0
100
AcDbPoint
 10
4991.540608108044
 20
2105.747464225398
 30
0.0
  0
POINT
  5
2E60
330
2B0F
100
AcDbEntity
  8
DEFPOINTS
 62
     0
 48
50.0
100
AcDbPoint
 10
4991.540608108044
 20
1812.9827369265
 30
0.0
  0
ENDBLK
  5
2B1A
330
2B0F
100
AcDbEntity
  8
0
 48
50.0
100
AcDbBlockEnd
  0
BLOCK
  5
2B25
330
2B1B
100
AcDbEntity
  8
0
 48
50.0
100
AcDbBlockBegin
  2
*D65
 70
     1
 10
0.0
 20
0.0
 30
0.0
  3
*D65
  1

  0
LINE
  5
2E4F
330
2B1B
100
AcDbEntity
  8
寸法
 62
     4
 48
50.0
370
    -2
100
AcDbLine
 10
9439.783367713159
 20
4480.058816120087
 30
0.0
 11
8745.253168747922
 21
4480.058816120087
 31
0.0
  0
LINE
  5
2E50
330
2B1B
100
AcDbEntity
  8
寸法
 62
     4
 48
50.0
370
    -2
100
AcDbLine
 10
8782.49845011434
 20
2369.058816120087
 30
0.0
 11
8745.25316874792
 21
2369.058816120087
 31
0.0
  0
LINE
  5
2E51
330
2B1B
100
AcDbEntity
  8
寸法
 62
     4
 48
50.0
370
    -2
100
AcDbLine
 10
8785.253168747923
 20
4480.058816120087
 30
0.0
 11
8785.253168747919
 21
2369.058816120087
 31
0.0
  0
INSERT
  5
2E52
330
2B1B
100
AcDbEntity
  8
寸法
 62
     4
 48
50.0
370
    -2
100
AcDbBlockReference
  2
_DOTSMALL
 10
8785.253168747923
 20
4480.058816120087
 30
0.0
 41
100.0
 42
100.0
 43
100.0
 50
90.0
  0
INSERT
  5
2E53
330
2B1B
100
AcDbEntity
  8
寸法
 62
     4
 48
50.0
370
    -2
100
AcDbBlockReference
  2
_DOTSMALL
 10
8785.253168747919
 20
2369.058816120087
 30
0.0
 41
100.0
 42
100.0
 43
100.0
 50
270.0
  0
MTEXT
  5
2E54
330
2B1B
100
AcDbEntity
  8
寸法
 62
     7
 48
50.0
100
AcDbMText
 10
8685.241357724299
 20
3424.558816120088
 30
0.0
 40
120.0
 41
0.0
 71
     5
 72
     1
  1
\A1;2111
 11
0.0000000000000001
 21
1.0
 31
0.0
 73
     1
 44
1.0
1001
ACAD
1000
MTEXTBEGIN
1070
    73
1070
     1
1070
    44
1040
1.0
1070
    74
1070
     0
1000
MTEXTEND
  0
POINT
  5
2E55
330
2B1B
100
AcDbEntity
  8
DEFPOINTS
 62
     0
 48
50.0
100
AcDbPoint
 10
9479.78336771316
 20
4480.058816120087
 30
0.0
  0
POINT
  5
2E56
330
2B1B
100
AcDbEntity
  8
DEFPOINTS
 62
     0
 48
50.0
100
AcDbPoint
 10
8822.498450114341
 20
2369.058816120087
 30
0.0
  0
POINT
  5
2E57
330
2B1B
100
AcDbEntity
  8
DEFPOINTS
 62
     0
 48
50.0
100
AcDbPoint
 10
8785.253168747919
 20
2369.058816120087
 30
0.0
  0
ENDBLK
  5
2B26
330
2B1B
100
AcDbEntity
  8
0
 48
50.0
100
AcDbBlockEnd
  0
BLOCK
  5
2B31
330
2B27
100
AcDbEntity
  8
0
 48
50.0
100
AcDbBlockBegin
  2
*D66
 70
     1
 10
0.0
 20
0.0
 30
0.0
  3
*D66
  1

  0
LINE
  5
2E46
330
2B27
100
AcDbEntity
  8
寸法
 62
     4
 48
50.0
370
    -2
100
AcDbLine
 10
9479.78336771316
 20
4520.058816120086
 30
0.0
 11
9479.78336771316
 21
5113.498668445671
 31
0.0
  0
LINE
  5
2E47
330
2B27
100
AcDbEntity
  8
寸法
 62
     4
 48
50.0
370
    -2
100
AcDbLine
 10
14279.78336771315
 20
4520.058816120086
 30
0.0
 11
14279.78336771315
 21
5113.498668445671
 31
0.0
  0
LINE
  5
2E48
330
2B27
100
AcDbEntity
  8
寸法
 62
     4
 48
50.0
370
    -2
100
AcDbLine
 10
9479.78336771316
 20
5073.498668445671
 30
0.0
 11
14279.78336771315
 21
5073.498668445671
 31
0.0
  0
INSERT
  5
2E49
330
2B27
100
AcDbEntity
  8
寸法
 62
     4
 48
50.0
370
    -2
100
AcDbBlockReference
  2
_DOTSMALL
 10
9479.78336771316
 20
5073.498668445671
 30
0.0
 41
100.0
 42
100.0
 43
100.0
 50
180.0
  0
INSERT
  5
2E4A
330
2B27
100
AcDbEntity
  8
寸法
 62
     4
 48
50.0
370
    -2
100
AcDbBlockReference
  2
_DOTSMALL
 10
14279.78336771315
 20
5073.498668445671
 30
0.0
 41
100.0
 42
100.0
 43
100.0
  0
MTEXT
  5
2E4B
330
2B27
100
AcDbEntity
  8
寸法
 62
     7
 48
50.0
100
AcDbMText
 10
11879.78336771315
 20
5173.49866844567
 30
0.0
 40
120.0
 41
0.0
 71
     5
 72
     1
  1
\A1;4800
 73
     1
 44
1.0
1001
ACAD
1000
MTEXTBEGIN
1070
    73
1070
     1
1070
    44
1040
1.0
1070
    74
1070
     0
1000
MTEXTEND
  0
POINT
  5
2E4C
330
2B27
100
AcDbEntity
  8
DEFPOINTS
 62
     0
 48
50.0
100
AcDbPoint
 10
9479.78336771316
 20
4480.058816120087
 30
0.0
  0
POINT
  5
2E4D
330
2B27
100
AcDbEntity
  8
DEFPOINTS
 62
     0
 48
50.0
100
AcDbPoint
 10
14279.78336771315
 20
4480.058816120087
 30
0.0
  0
POINT
  5
2E4E
330
2B27
100
AcDbEntity
  8
DEFPOINTS
 62
     0
 48
50.0
100
AcDbPoint
 10
14279.78336771315
 20
5073.498668445671
 30
0.0
  0
ENDBLK
  5
2B32
330
2B27
100
AcDbEntity
  8
0
 48
50.0
100
AcDbBlockEnd
  0
BLOCK
  5
2B3C
330
2B33
100
AcDbEntity
  8
0
 48
50.0
100
AcDbBlockBegin
  2
*D67
 70
     1
 10
0.0
 20
0.0
 30
0.0
  3
*D67
  1

  0
LINE
  5
2E7C
330
2B33
100
AcDbEntity
  8
細線
 62
     4
 48
50.0
370
    -2
100
AcDbLine
 10
14279.78336771315
 20
4520.058816120086
 30
0.0
 11
14279.78336771315
 21
4833.49866844567
 31
0.0
  0
LINE
  5
2E7D
330
2B33
100
AcDbEntity
  8
細線
 62
     4
 48
50.0
370
    -2
100
AcDbLine
 10
13529.78336771315
 20
4793.49866844567
 30
0.0
 11
14279.78336771315
 21
4793.49866844567
 31
0.0
  0
INSERT
  5
2E7E
330
2B33
100
AcDbEntity
  8
細線
 62
     4
 48
50.0
370
    -2
100
AcDbBlockReference
  2
_DOTSMALL
 10
13529.78336771315
 20
4793.49866844567
 30
0.0
 41
100.0
 42
100.0
 43
100.0
 50
180.0
  0
INSERT
  5
2E7F
330
2B33
100
AcDbEntity
  8
細線
 62
     4
 48
50.0
370
    -2
100
AcDbBlockReference
  2
_DOTSMALL
 10
14279.78336771315
 20
4793.49866844567
 30
0.0
 41
100.0
 42
100.0
 43
100.0
  0
MTEXT
  5
2E80
330
2B33
100
AcDbEntity
  8
細線
 62
     7
 48
50.0
100
AcDbMText
 10
13904.78336771315
 20
4893.498668445671
 30
0.0
 40
120.0
 41
0.0
 71
     5
 72
     1
  1
\A1;750
 73
     1
 44
1.0
1001
ACAD
1000
MTEXTBEGIN
1070
    73
1070
     1
1070
    44
1040
1.0
1070
    74
1070
     0
1000
MTEXTEND
  0
POINT
  5
2E81
330
2B33
100
AcDbEntity
  8
DEFPOINTS
 62
     0
 48
50.0
100
AcDbPoint
 10
13529.78336771315
 20
4183.078148876734
 30
0.0
  0
POINT
  5
2E82
330
2B33
100
AcDbEntity
  8
DEFPOINTS
 62
     0
 48
50.0
100
AcDbPoint
 10
14279.78336771315
 20
4480.058816120087
 30
0.0
  0
POINT
  5
2E83
330
2B33
100
AcDbEntity
  8
DEFPOINTS
 62
     0
 48
50.0
100
AcDbPoint
 10
14279.78336771315
 20
4793.49866844567
 30
0.0
  0
ENDBLK
  5
2B3D
330
2B33
100
AcDbEntity
  8
0
 48
50.0
100
AcDbBlockEnd
  0
BLOCK
  5
2B47
330
2B3E
100
AcDbEntity
  8
0
 48
50.0
100
AcDbBlockBegin
  2
*D68
 70
     1
 10
0.0
 20
0.0
 30
0.0
  3
*D68
  1

  0
LINE
  5
2E74
330
2B3E
100
AcDbEntity
  8
寸法
 62
     4
 48
50.0
370
    -2
100
AcDbLine
 10
13529.78336771315
 20
4223.078148876733
 30
0.0
 11
13529.78336771315
 21
4833.49866844567
 31
0.0
  0
LINE
  5
2E75
330
2B3E
100
AcDbEntity
  8
寸法
 62
     4
 48
50.0
370
    -2
100
AcDbLine
 10
11879.78336771315
 20
4793.49866844567
 30
0.0
 11
13529.78336771315
 21
4793.49866844567
 31
0.0
  0
INSERT
  5
2E76
330
2B3E
100
AcDbEntity
  8
寸法
 62
     4
 48
50.0
370
    -2
100
AcDbBlockReference
  2
_DOTSMALL
 10
11879.78336771315
 20
4793.49866844567
 30
0.0
 41
100.0
 42
100.0
 43
100.0
 50
180.0
  0
INSERT
  5
2E77
330
2B3E
100
AcDbEntity
  8
寸法
 62
     4
 48
50.0
370
    -2
100
AcDbBlockReference
  2
_DOTSMALL
 10
13529.78336771315
 20
4793.49866844567
 30
0.0
 41
100.0
 42
100.0
 43
100.0
  0
MTEXT
  5
2E78
330
2B3E
100
AcDbEntity
  8
寸法
 62
     7
 48
50.0
100
AcDbMText
 10
12704.78336771315
 20
4893.498668445671
 30
0.0
 40
120.0
 41
0.0
 71
     5
 72
     1
  1
\A1;1650
 73
     1
 44
1.0
1001
ACAD
1000
MTEXTBEGIN
1070
    73
1070
     1
1070
    44
1040
1.0
1070
    74
1070
     0
1000
MTEXTEND
  0
POINT
  5
2E79
330
2B3E
100
AcDbEntity
  8
DEFPOINTS
 62
     0
 48
50.0
100
AcDbPoint
 10
11879.78336771315
 20
4480.058816120087
 30
0.0
  0
POINT
  5
2E7A
330
2B3E
100
AcDbEntity
  8
DEFPOINTS
 62
     0
 48
50.0
100
AcDbPoint
 10
13529.78336771315
 20
4183.078148876734
 30
0.0
  0
POINT
  5
2E7B
330
2B3E
100
AcDbEntity
  8
DEFPOINTS
 62
     0
 48
50.0
100
AcDbPoint
 10
13529.78336771315
 20
4793.49866844567
 30
0.0
  0
ENDBLK
  5
2B48
330
2B3E
100
AcDbEntity
  8
0
 48
50.0
100
AcDbBlockEnd
  0
BLOCK
  5
2B52
330
2B49
100
AcDbEntity
  8
0
 48
50.0
100
AcDbBlockBegin
  2
*D69
 70
     1
 10
0.0
 20
0.0
 30
0.0
  3
*D69
  1

  0
LINE
  5
2E2E
330
2B49
100
AcDbEntity
  8
寸法
 62
     4
 48
50.0
370
    -2
100
AcDbLine
 10
11879.78336771315
 20
4520.058816120086
 30
0.0
 11
11879.78336771315
 21
4833.49866844567
 31
0.0
  0
LINE
  5
2E2F
330
2B49
100
AcDbEntity
  8
寸法
 62
     4
 48
50.0
370
    -2
100
AcDbLine
 10
10229.78336771315
 20
4793.49866844567
 30
0.0
 11
11879.78336771315
 21
4793.49866844567
 31
0.0
  0
INSERT
  5
2E30
330
2B49
100
AcDbEntity
  8
寸法
 62
     4
 48
50.0
370
    -2
100
AcDbBlockReference
  2
_DOTSMALL
 10
10229.78336771315
 20
4793.49866844567
 30
0.0
 41
100.0
 42
100.0
 43
100.0
 50
180.0
  0
INSERT
  5
2E31
330
2B49
100
AcDbEntity
  8
寸法
 62
     4
 48
50.0
370
    -2
100
AcDbBlockReference
  2
_DOTSMALL
 10
11879.78336771315
 20
4793.49866844567
 30
0.0
 41
100.0
 42
100.0
 43
100.0
  0
MTEXT
  5
2E32
330
2B49
100
AcDbEntity
  8
寸法
 62
     7
 48
50.0
100
AcDbMText
 10
11054.78336771315
 20
4893.498668445671
 30
0.0
 40
120.0
 41
0.0
 71
     5
 72
     1
  1
\A1;1650
 73
     1
 44
1.0
1001
ACAD
1000
MTEXTBEGIN
1070
    73
1070
     1
1070
    44
1040
1.0
1070
    74
1070
     0
1000
MTEXTEND
  0
POINT
  5
2E33
330
2B49
100
AcDbEntity
  8
DEFPOINTS
 62
     0
 48
50.0
100
AcDbPoint
 10
10229.78336771315
 20
4183.078148876735
 30
0.0
  0
POINT
  5
2E34
330
2B49
100
AcDbEntity
  8
DEFPOINTS
 62
     0
 48
50.0
100
AcDbPoint
 10
11879.78336771315
 20
4480.058816120087
 30
0.0
  0
POINT
  5
2E35
330
2B49
100
AcDbEntity
  8
DEFPOINTS
 62
     0
 48
50.0
100
AcDbPoint
 10
11879.78336771315
 20
4793.49866844567
 30
0.0
  0
ENDBLK
  5
2B53
330
2B49
100
AcDbEntity
  8
0
 48
50.0
100
AcDbBlockEnd
  0
BLOCK
  5
2B5E
330
2B54
100
AcDbEntity
  8
0
 48
50.0
100
AcDbBlockBegin
  2
*D70
 70
     1
 10
0.0
 20
0.0
 30
0.0
  3
*D70
  1

  0
LINE
  5
2E25
330
2B54
100
AcDbEntity
  8
寸法
 62
     4
 48
50.0
370
    -2
100
AcDbLine
 10
9479.78336771316
 20
4520.058816120086
 30
0.0
 11
9479.78336771316
 21
4833.49866844567
 31
0.0
  0
LINE
  5
2E26
330
2B54
100
AcDbEntity
  8
寸法
 62
     4
 48
50.0
370
    -2
100
AcDbLine
 10
10229.78336771315
 20
4223.078148876735
 30
0.0
 11
10229.78336771315
 21
4833.49866844567
 31
0.0
  0
LINE
  5
2E27
330
2B54
100
AcDbEntity
  8
寸法
 62
     4
 48
50.0
370
    -2
100
AcDbLine
 10
9479.78336771316
 20
4793.49866844567
 30
0.0
 11
10229.78336771315
 21
4793.49866844567
 31
0.0
  0
INSERT
  5
2E28
330
2B54
100
AcDbEntity
  8
寸法
 62
     4
 48
50.0
370
    -2
100
AcDbBlockReference
  2
_DOTSMALL
 10
9479.78336771316
 20
4793.49866844567
 30
0.0
 41
100.0
 42
100.0
 43
100.0
 50
180.0
  0
INSERT
  5
2E29
330
2B54
100
AcDbEntity
  8
寸法
 62
     4
 48
50.0
370
    -2
100
AcDbBlockReference
  2
_DOTSMALL
 10
10229.78336771315
 20
4793.49866844567
 30
0.0
 41
100.0
 42
100.0
 43
100.0
  0
MTEXT
  5
2E2A
330
2B54
100
AcDbEntity
  8
寸法
 62
     7
 48
50.0
100
AcDbMText
 10
9854.78336771316
 20
4893.498668445671
 30
0.0
 40
120.0
 41
0.0
 71
     5
 72
     1
  1
\A1;750
 73
     1
 44
1.0
1001
ACAD
1000
MTEXTBEGIN
1070
    73
1070
     1
1070
    44
1040
1.0
1070
    74
1070
     0
1000
MTEXTEND
  0
POINT
  5
2E2B
330
2B54
100
AcDbEntity
  8
DEFPOINTS
 62
     0
 48
50.0
100
AcDbPoint
 10
9479.78336771316
 20
4480.058816120087
 30
0.0
  0
POINT
  5
2E2C
330
2B54
100
AcDbEntity
  8
DEFPOINTS
 62
     0
 48
50.0
100
AcDbPoint
 10
10229.78336771315
 20
4183.078148876735
 30
0.0
  0
POINT
  5
2E2D
330
2B54
100
AcDbEntity
  8
DEFPOINTS
 62
     0
 48
50.0
100
AcDbPoint
 10
10229.78336771315
 20
4793.49866844567
 30
0.0
  0
ENDBLK
  5
2B5F
330
2B54
100
AcDbEntity
  8
0
 48
50.0
100
AcDbBlockEnd
  0
BLOCK
  5
2B69
330
2B60
100
AcDbEntity
  8
0
 48
50.0
100
AcDbBlockBegin
  2
*D71
 70
     1
 10
0.0
 20
0.0
 30
0.0
  3
*D71
  1

  0
LINE
  5
2E1D
330
2B60
100
AcDbEntity
  8
寸法
 62
     4
 48
50.0
370
    -2
100
AcDbLine
 10
1941.540608108043
 20
4520.058816120086
 30
0.0
 11
1941.540608108043
 21
4836.274603944512
 31
0.0
  0
LINE
  5
2E1E
330
2B60
100
AcDbEntity
  8
寸法
 62
     4
 48
50.0
370
    -2
100
AcDbLine
 10
2191.540608108044
 20
4796.274603944512
 30
0.0
 11
1941.540608108043
 21
4796.274603944512
 31
0.0
  0
MTEXT
  5
2E1F
330
2B60
100
AcDbEntity
  8
寸法
 62
     7
 48
50.0
100
AcDbMText
 10
2079.804927475772
 20
4924.275006809526
 30
0.0
 40
120.0
 41
0.0
 71
     5
 72
     1
  1
\A1;250
 73
     1
 44
1.0
1001
ACAD
1000
MTEXTBEGIN
1070
    73
1070
     1
1070
    44
1040
1.0
1070
    74
1070
     0
1000
MTEXTEND
  0
INSERT
  5
2E20
330
2B60
100
AcDbEntity
  8
寸法
 62
     4
 48
50.0
370
    -2
100
AcDbBlockReference
  2
_DOTSMALL
 10
2191.540608108044
 20
4796.274603944512
 30
0.0
 41
100.0
 42
100.0
 43
100.0
  0
INSERT
  5
2E21
330
2B60
100
AcDbEntity
  8
寸法
 62
     4
 48
50.0
370
    -2
100
AcDbBlockReference
  2
_DOTSMALL
 10
1941.540608108043
 20
4796.274603944512
 30
0.0
 41
100.0
 42
100.0
 43
100.0
 50
180.0
  0
POINT
  5
2E22
330
2B60
100
AcDbEntity
  8
DEFPOINTS
 62
     0
 48
50.0
100
AcDbPoint
 10
2191.540608108044
 20
4350.354811104376
 30
0.0
  0
POINT
  5
2E23
330
2B60
100
AcDbEntity
  8
DEFPOINTS
 62
     0
 48
50.0
100
AcDbPoint
 10
1941.540608108043
 20
4480.058816120087
 30
0.0
  0
POINT
  5
2E24
330
2B60
100
AcDbEntity
  8
DEFPOINTS
 62
     0
 48
50.0
100
AcDbPoint
 10
1941.540608108043
 20
4796.274603944512
 30
0.0
  0
ENDBLK
  5
2B6A
330
2B60
100
AcDbEntity
  8
0
 48
50.0
100
AcDbBlockEnd
  0
BLOCK
  5
2B75
330
2B6B
100
AcDbEntity
  8
0
 48
50.0
100
AcDbBlockBegin
  2
*D72
 70
     1
 10
0.0
 20
0.0
 30
0.0
  3
*D72
  1

  0
LINE
  5
2E14
330
2B6B
100
AcDbEntity
  8
寸法
 62
     4
 48
50.0
370
    -2
100
AcDbLine
 10
8041.540608108043
 20
4520.058816120086
 30
0.0
 11
8041.540608108043
 21
4836.274603944512
 31
0.0
  0
LINE
  5
2E15
330
2B6B
100
AcDbEntity
  8
寸法
 62
     4
 48
50.0
370
    -2
100
AcDbLine
 10
7791.540608108045
 20
4390.354811104376
 30
0.0
 11
7791.540608108045
 21
4836.274603944512
 31
0.0
  0
LINE
  5
2E16
330
2B6B
100
AcDbEntity
  8
寸法
 62
     4
 48
50.0
370
    -2
100
AcDbLine
 10
8041.540608108043
 20
4796.274603944512
 30
0.0
 11
7791.540608108045
 21
4796.274603944512
 31
0.0
  0
MTEXT
  5
2E17
330
2B6B
100
AcDbEntity
  8
寸法
 62
     7
 48
50.0
100
AcDbMText
 10
7910.612716964052
 20
4906.185095823541
 30
0.0
 40
120.0
 41
0.0
 71
     5
 72
     1
  1
\A1;250
 73
     1
 44
1.0
1001
ACAD
1000
MTEXTBEGIN
1070
    73
1070
     1
1070
    44
1040
1.0
1070
    74
1070
     0
1000
MTEXTEND
  0
INSERT
  5
2E18
330
2B6B
100
AcDbEntity
  8
寸法
 62
     4
 48
50.0
370
    -2
100
AcDbBlockReference
  2
_DOTSMALL
 10
8041.540608108043
 20
4796.274603944512
 30
0.0
 41
100.0
 42
100.0
 43
100.0
  0
INSERT
  5
2E19
330
2B6B
100
AcDbEntity
  8
寸法
 62
     4
 48
50.0
370
    -2
100
AcDbBlockReference
  2
_DOTSMALL
 10
7791.540608108045
 20
4796.274603944512
 30
0.0
 41
100.0
 42
100.0
 43
100.0
 50
180.0
  0
POINT
  5
2E1A
330
2B6B
100
AcDbEntity
  8
DEFPOINTS
 62
     0
 48
50.0
100
AcDbPoint
 10
8041.540608108043
 20
4480.058816120087
 30
0.0
  0
POINT
  5
2E1B
330
2B6B
100
AcDbEntity
  8
DEFPOINTS
 62
     0
 48
50.0
100
AcDbPoint
 10
7791.540608108045
 20
4350.354811104376
 30
0.0
  0
POINT
  5
2E1C
330
2B6B
100
AcDbEntity
  8
DEFPOINTS
 62
     0
 48
50.0
100
AcDbPoint
 10
7791.540608108045
 20
4796.274603944512
 30
0.0
  0
ENDBLK
  5
2B76
330
2B6B
100
AcDbEntity
  8
0
 48
50.0
100
AcDbBlockEnd
  0
BLOCK
  5
2B81
330
2B77
100
AcDbEntity
  8
0
 48
50.0
100
AcDbBlockBegin
  2
*D73
 70
     1
 10
0.0
 20
0.0
 30
0.0
  3
*D73
  1

  0
LINE
  5
2E0B
330
2B77
100
AcDbEntity
  8
寸法
 62
     4
 48
50.0
370
    -2
100
AcDbLine
 10
2121.540608108044
 20
2099.058816120087
 30
0.0
 11
1655.022956010813
 21
2099.058816120087
 31
0.0
  0
LINE
  5
2E0C
330
2B77
100
AcDbEntity
  8
寸法
 62
     4
 48
50.0
370
    -2
100
AcDbLine
 10
1521.35927109274
 20
2369.058816120087
 30
0.0
 11
1735.022956010813
 21
2369.058816120087
 31
0.0
  0
LINE
  5
2E0D
330
2B77
100
AcDbEntity
  8
寸法
 62
     4
 48
50.0
370
    -2
100
AcDbLine
 10
1695.022956010812
 20
2099.058816120087
 30
0.0
 11
1695.022956010812
 21
2369.058816120087
 31
0.0
  0
MTEXT
  5
2E0E
330
2B77
100
AcDbEntity
  8
寸法
 62
     7
 48
50.0
100
AcDbMText
 10
1855.034767034435
 20
2234.058816120088
 30
0.0
 40
120.0
 41
0.0
 71
     5
 72
     1
  1
\A1;270
 11
0.0000000000000001
 21
1.0
 31
0.0
 73
     1
 44
1.0
1001
ACAD
1000
MTEXTBEGIN
1070
    73
1070
     1
1070
    44
1040
1.0
1070
    74
1070
     0
1000
MTEXTEND
  0
INSERT
  5
2E0F
330
2B77
100
AcDbEntity
  8
寸法
 62
     4
 48
50.0
370
    -2
100
AcDbBlockReference
  2
_DOTSMALL
 10
1695.022956010812
 20
2099.058816120087
 30
0.0
 41
100.0
 42
100.0
 43
100.0
 50
270.0
  0
INSERT
  5
2E10
330
2B77
100
AcDbEntity
  8
寸法
 62
     4
 48
50.0
370
    -2
100
AcDbBlockReference
  2
_DOTSMALL
 10
1695.022956010812
 20
2369.058816120087
 30
0.0
 41
100.0
 42
100.0
 43
100.0
 50
90.0
  0
POINT
  5
2E11
330
2B77
100
AcDbEntity
  8
DEFPOINTS
 62
     0
 48
50.0
100
AcDbPoint
 10
2161.540608108044
 20
2099.058816120087
 30
0.0
  0
POINT
  5
2E12
330
2B77
100
AcDbEntity
  8
DEFPOINTS
 62
     0
 48
50.0
100
AcDbPoint
 10
1481.35927109274
 20
2369.058816120087
 30
0.0
  0
POINT
  5
2E13
330
2B77
100
AcDbEntity
  8
DEFPOINTS
 62
     0
 48
50.0
100
AcDbPoint
 10
1695.022956010812
 20
2369.058816120087
 30
0.0
  0
ENDBLK
  5
2B82
330
2B77
100
AcDbEntity
  8
0
 48
50.0
100
AcDbBlockEnd
  0
BLOCK
  5
2B8C
330
2B83
100
AcDbEntity
  8
0
 48
50.0
100
AcDbBlockBegin
  2
*D74
 70
     1
 10
0.0
 20
0.0
 30
0.0
  3
*D74
  1

  0
LINE
  5
2E03
330
2B83
100
AcDbEntity
  8
寸法
 62
     4
 48
50.0
370
    -2
100
AcDbLine
 10
10219.78336771316
 20
3519.058816120087
 30
0.0
 11
9351.810716276849
 21
3519.058816120087
 31
0.0
  0
LINE
  5
2E04
330
2B83
100
AcDbEntity
  8
寸法
 62
     4
 48
50.0
370
    -2
100
AcDbLine
 10
9391.81071627685
 20
2619.058816120087
 30
0.0
 11
9391.81071627685
 21
3519.058816120087
 31
0.0
  0
INSERT
  5
2E05
330
2B83
100
AcDbEntity
  8
寸法
 62
     4
 48
50.0
370
    -2
100
AcDbBlockReference
  2
_DOTSMALL
 10
9391.81071627685
 20
2619.058816120087
 30
0.0
 41
100.0
 42
100.0
 43
100.0
 50
270.0
  0
INSERT
  5
2E06
330
2B83
100
AcDbEntity
  8
寸法
 62
     4
 48
50.0
370
    -2
100
AcDbBlockReference
  2
_DOTSMALL
 10
9391.81071627685
 20
3519.058816120087
 30
0.0
 41
100.0
 42
100.0
 43
100.0
 50
90.0
  0
MTEXT
  5
2E07
330
2B83
100
AcDbEntity
  8
寸法
 62
     7
 48
50.0
100
AcDbMText
 10
9291.810716276851
 20
3069.058816120089
 30
0.0
 40
120.0
 41
0.0
 71
     5
 72
     1
  1
\A1;900
 11
0.0000000000000001
 21
1.0
 31
0.0
 73
     1
 44
1.0
1001
ACAD
1000
MTEXTBEGIN
1070
    73
1070
     1
1070
    44
1040
1.0
1070
    74
1070
     0
1000
MTEXTEND
  0
POINT
  5
2E08
330
2B83
100
AcDbEntity
  8
DEFPOINTS
 62
     0
 48
50.0
100
AcDbPoint
 10
10259.78336771316
 20
2619.058816120087
 30
0.0
  0
POINT
  5
2E09
330
2B83
100
AcDbEntity
  8
DEFPOINTS
 62
     0
 48
50.0
100
AcDbPoint
 10
10259.78336771316
 20
3519.058816120087
 30
0.0
  0
POINT
  5
2E0A
330
2B83
100
AcDbEntity
  8
DEFPOINTS
 62
     0
 48
50.0
100
AcDbPoint
 10
9391.81071627685
 20
3519.058816120087
 30
0.0
  0
ENDBLK
  5
2B8D
330
2B83
100
AcDbEntity
  8
0
 48
50.0
100
AcDbBlockEnd
  0
BLOCK
  5
2B98
330
2B8E
100
AcDbEntity
  8
0
 48
50.0
100
AcDbBlockBegin
  2
*D75
 70
     1
 10
0.0
 20
0.0
 30
0.0
  3
*D75
  1

  0
LINE
  5
2DFA
330
2B8E
100
AcDbEntity
  8
寸法
 62
     4
 48
50.0
370
    -2
100
AcDbLine
 10
9415.710487269301
 20
2369.058816120087
 30
0.0
 11
9431.810716276849
 21
2369.058816120087
 31
0.0
  0
LINE
  5
2DFB
330
2B8E
100
AcDbEntity
  8
寸法
 62
     4
 48
50.0
370
    -2
100
AcDbLine
 10
10219.78336771316
 20
2619.058816120087
 30
0.0
 11
9351.810716276849
 21
2619.058816120087
 31
0.0
  0
LINE
  5
2DFC
330
2B8E
100
AcDbEntity
  8
寸法
 62
     4
 48
50.0
370
    -2
100
AcDbLine
 10
9391.81071627685
 20
2369.058816120087
 30
0.0
 11
9391.81071627685
 21
2619.058816120087
 31
0.0
  0
MTEXT
  5
2DFD
330
2B8E
100
AcDbEntity
  8
寸法
 62
     7
 48
50.0
100
AcDbMText
 10
9281.254079217594
 20
2494.058816120087
 30
0.0
 40
120.0
 41
0.0
 71
     5
 72
     1
  1
\A1;250
 11
0.0000000000000001
 21
1.0
 31
0.0
 73
     1
 44
1.0
1001
ACAD
1000
MTEXTBEGIN
1070
    73
1070
     1
1070
    44
1040
1.0
1070
    74
1070
     0
1000
MTEXTEND
  0
INSERT
  5
2DFE
330
2B8E
100
AcDbEntity
  8
寸法
 62
     4
 48
50.0
370
    -2
100
AcDbBlockReference
  2
_DOTSMALL
 10
9391.81071627685
 20
2369.058816120087
 30
0.0
 41
100.0
 42
100.0
 43
100.0
 50
270.0
  0
INSERT
  5
2DFF
330
2B8E
100
AcDbEntity
  8
寸法
 62
     4
 48
50.0
370
    -2
100
AcDbBlockReference
  2
_DOTSMALL
 10
9391.81071627685
 20
2619.058816120087
 30
0.0
 41
100.0
 42
100.0
 43
100.0
 50
90.0
  0
POINT
  5
2E00
330
2B8E
100
AcDbEntity
  8
DEFPOINTS
 62
     0
 48
50.0
100
AcDbPoint
 10
9375.710487269302
 20
2369.058816120087
 30
0.0
  0
POINT
  5
2E01
330
2B8E
100
AcDbEntity
  8
DEFPOINTS
 62
     0
 48
50.0
100
AcDbPoint
 10
10259.78336771316
 20
2619.058816120087
 30
0.0
  0
POINT
  5
2E02
330
2B8E
100
AcDbEntity
  8
DEFPOINTS
 62
     0
 48
50.0
100
AcDbPoint
 10
9391.81071627685
 20
2619.058816120087
 30
0.0
  0
ENDBLK
  5
2B99
330
2B8E
100
AcDbEntity
  8
0
 48
50.0
100
AcDbBlockEnd
  0
BLOCK
  5
2BA5
330
2B9A
100
AcDbEntity
  8
0
 48
50.0
100
AcDbBlockBegin
  2
*D76
 70
     1
 10
0.0
 20
0.0
 30
0.0
  3
*D76
  1

  0
LINE
  5
2DF0
330
2B9A
100
AcDbEntity
  8
寸法
 62
     4
 48
50.0
370
    -2
100
AcDbLine
 10
14319.78336771315
 20
2419.058816120087
 30
0.0
 11
14836.91192884818
 21
2419.058816120087
 31
0.0
  0
LINE
  5
2DF1
330
2B9A
100
AcDbEntity
  8
寸法
 62
     4
 48
50.0
370
    -2
100
AcDbLine
 10
14769.05573788627
 20
2369.058816120087
 30
0.0
 11
14756.91192884818
 21
2369.058816120087
 31
0.0
  0
LINE
  5
2DF2
330
2B9A
100
AcDbEntity
  8
寸法
 62
     4
 48
50.0
370
    -2
100
AcDbLine
 10
14796.91192884818
 20
2419.058816120087
 30
0.0
 11
14796.91192884818
 21
2519.058816120087
 31
0.0
  0
LINE
  5
2DF3
330
2B9A
100
AcDbEntity
  8
寸法
 62
     4
 48
50.0
370
    -2
100
AcDbLine
 10
14796.91192884818
 20
2369.058816120087
 30
0.0
 11
14796.91192884818
 21
2269.058816120087
 31
0.0
  0
MTEXT
  5
2DF4
330
2B9A
100
AcDbEntity
  8
寸法
 62
     7
 48
50.0
100
AcDbMText
 10
14675.47383846734
 20
2549.461862598048
 30
0.0
 40
120.0
 41
0.0
 71
     5
 72
     1
  1
\A1;50
 11
0.0000000000000001
 21
1.0
 31
0.0
 73
     1
 44
1.0
1001
ACAD
1000
MTEXTBEGIN
1070
    73
1070
     1
1070
    44
1040
1.0
1070
    74
1070
     0
1000
MTEXTEND
  0
INSERT
  5
2DF5
330
2B9A
100
AcDbEntity
  8
寸法
 62
     4
 48
50.0
370
    -2
100
AcDbBlockReference
  2
_DOTSMALL
 10
14796.91192884818
 20
2419.058816120087
 30
0.0
 41
100.0
 42
100.0
 43
100.0
 50
270.0
  0
INSERT
  5
2DF6
330
2B9A
100
AcDbEntity
  8
寸法
 62
     4
 48
50.0
370
    -2
100
AcDbBlockReference
  2
_DOTSMALL
 10
14796.91192884818
 20
2369.058816120087
 30
0.0
 41
100.0
 42
100.0
 43
100.0
 50
90.0
  0
POINT
  5
2DF7
330
2B9A
100
AcDbEntity
  8
DEFPOINTS
 62
     0
 48
50.0
100
AcDbPoint
 10
14279.78336771315
 20
2419.058816120087
 30
0.0
  0
POINT
  5
2DF8
330
2B9A
100
AcDbEntity
  8
DEFPOINTS
 62
     0
 48
50.0
100
AcDbPoint
 10
14809.05573788627
 20
2369.058816120087
 30
0.0
  0
POINT
  5
2DF9
330
2B9A
100
AcDbEntity
  8
DEFPOINTS
 62
     0
 48
50.0
100
AcDbPoint
 10
14796.91192884818
 20
2369.058816120087
 30
0.0
  0
ENDBLK
  5
2BA6
330
2B9A
100
AcDbEntity
  8
0
 48
50.0
100
AcDbBlockEnd
  0
BLOCK
  5
2BB0
330
2BA7
100
AcDbEntity
  8
0
 48
50.0
100
AcDbBlockBegin
  2
*D77
 70
     1
 10
0.0
 20
0.0
 30
0.0
  3
*D77
  1

  0
LINE
  5
2DE8
330
2BA7
100
AcDbEntity
  8
寸法
 62
     4
 48
50.0
370
    -2
100
AcDbLine
 10
1901.540608108044
 20
8026.020619012554
 30
0.0
 11
1327.870956908438
 21
8026.020619012554
 31
0.0
  0
LINE
  5
2DE9
330
2BA7
100
AcDbEntity
  8
寸法
 62
     4
 48
50.0
370
    -2
100
AcDbLine
 10
1367.870956908438
 20
8286.120619012553
 30
0.0
 11
1367.870956908438
 21
8026.020619012554
 31
0.0
  0
MTEXT
  5
2DEA
330
2BA7
100
AcDbEntity
  8
寸法
 62
     7
 48
50.0
100
AcDbMText
 10
1207.859145884817
 20
8068.085528056217
 30
0.0
 40
120.0
 41
0.0
 71
     5
 72
     1
  1
\A1;260.1
 11
0.0000000000000001
 21
1.0
 31
0.0
 73
     1
 44
1.0
1001
ACAD
1000
MTEXTBEGIN
1070
    73
1070
     1
1070
    44
1040
1.0
1070
    74
1070
     0
1000
MTEXTEND
  0
INSERT
  5
2DEB
330
2BA7
100
AcDbEntity
  8
寸法
 62
     4
 48
50.0
370
    -2
100
AcDbBlockReference
  2
_DOTSMALL
 10
1367.870956908438
 20
8286.120619012553
 30
0.0
 41
100.0
 42
100.0
 43
100.0
 50
90.0
  0
INSERT
  5
2DEC
330
2BA7
100
AcDbEntity
  8
寸法
 62
     4
 48
50.0
370
    -2
100
AcDbBlockReference
  2
_DOTSMALL
 10
1367.870956908438
 20
8026.020619012554
 30
0.0
 41
100.0
 42
100.0
 43
100.0
 50
270.0
  0
POINT
  5
2DED
330
2BA7
100
AcDbEntity
  8
DEFPOINTS
 62
     0
 48
50.0
100
AcDbPoint
 10
1941.540608108043
 20
8286.120619012553
 30
0.0
  0
POINT
  5
2DEE
330
2BA7
100
AcDbEntity
  8
DEFPOINTS
 62
     0
 48
50.0
100
AcDbPoint
 10
1941.540608108043
 20
8026.020619012554
 30
0.0
  0
POINT
  5
2DEF
330
2BA7
100
AcDbEntity
  8
DEFPOINTS
 62
     0
 48
50.0
100
AcDbPoint
 10
1367.870956908438
 20
8026.020619012554
 30
0.0
  0
ENDBLK
  5
2BB1
330
2BA7
100
AcDbEntity
  8
0
 48
50.0
100
AcDbBlockEnd
  0
BLOCK
  5
2BBC
330
2BB2
100
AcDbEntity
  8
0
 48
50.0
100
AcDbBlockBegin
  2
*D78
 70
     1
 10
0.0
 20
0.0
 30
0.0
  3
*D78
  1

  0
LINE
  5
2DDF
330
2BB2
100
AcDbEntity
  8
寸法
 62
     4
 48
50.0
370
    -2
100
AcDbLine
 10
8071.540608108042
 20
10686.12061901255
 30
0.0
 11
8696.993531295163
 21
10686.12061901255
 31
0.0
  0
LINE
  5
2DE0
330
2BB2
100
AcDbEntity
  8
寸法
 62
     4
 48
50.0
370
    -2
100
AcDbLine
 10
8656.993531295164
 20
10616.12061901255
 30
0.0
 11
8656.993531295164
 21
10516.12061901255
 31
0.0
  0
LINE
  5
2DE1
330
2BB2
100
AcDbEntity
  8
寸法
 62
     4
 48
50.0
370
    -2
100
AcDbLine
 10
8656.993531295164
 20
10686.12061901255
 30
0.0
 11
8656.993531295164
 21
10786.12061901255
 31
0.0
  0
MTEXT
  5
2DE2
330
2BB2
100
AcDbEntity
  8
寸法
 62
     7
 48
50.0
100
AcDbMText
 10
8584.969369210027
 20
10778.24091587259
 30
0.0
 40
120.0
 41
0.0
 71
     5
 72
     1
  1
\A1;70
 11
0.0000000000000001
 21
1.0
 31
0.0
 73
     1
 44
1.0
1001
ACAD
1000
MTEXTBEGIN
1070
    73
1070
     1
1070
    44
1040
1.0
1070
    74
1070
     0
1000
MTEXTEND
  0
INSERT
  5
2DE3
330
2BB2
100
AcDbEntity
  8
寸法
 62
     4
 48
50.0
370
    -2
100
AcDbBlockReference
  2
_DOTSMALL
 10
8656.993531295164
 20
10616.12061901255
 30
0.0
 41
100.0
 42
100.0
 43
100.0
 50
90.0
  0
INSERT
  5
2DE4
330
2BB2
100
AcDbEntity
  8
寸法
 62
     4
 48
50.0
370
    -2
100
AcDbBlockReference
  2
_DOTSMALL
 10
8656.993531295164
 20
10686.12061901255
 30
0.0
 41
100.0
 42
100.0
 43
100.0
 50
270.0
  0
POINT
  5
2DE5
330
2BB2
100
AcDbEntity
  8
DEFPOINTS
 62
     0
 48
50.0
100
AcDbPoint
 10
7993.040608108036
 20
10616.12061901255
 30
0.0
  0
POINT
  5
2DE6
330
2BB2
100
AcDbEntity
  8
DEFPOINTS
 62
     0
 48
50.0
100
AcDbPoint
 10
8031.540608108043
 20
10686.12061901255
 30
0.0
  0
POINT
  5
2DE7
330
2BB2
100
AcDbEntity
  8
DEFPOINTS
 62
     0
 48
50.0
100
AcDbPoint
 10
8656.993531295164
 20
10686.12061901255
 30
0.0
  0
ENDBLK
  5
2BBD
330
2BB2
100
AcDbEntity
  8
0
 48
50.0
100
AcDbBlockEnd
  0
BLOCK
  5
2BC8
330
2BBE
100
AcDbEntity
  8
0
 48
50.0
100
AcDbBlockBegin
  2
*D79
 70
     1
 10
0.0
 20
0.0
 30
0.0
  3
*D79
  1

  0
LINE
  5
2DD6
330
2BBE
100
AcDbEntity
  8
寸法
 62
     4
 48
50.0
370
    -2
100
AcDbLine
 10
8071.540608108044
 20
5886.120619012552
 30
0.0
 11
8696.993531295163
 21
5886.120619012552
 31
0.0
  0
LINE
  5
2DD7
330
2BBE
100
AcDbEntity
  8
寸法
 62
     4
 48
50.0
370
    -2
100
AcDbLine
 10
8656.993531295164
 20
5956.120619012557
 30
0.0
 11
8656.993531295164
 21
6056.120619012557
 31
0.0
  0
LINE
  5
2DD8
330
2BBE
100
AcDbEntity
  8
寸法
 62
     4
 48
50.0
370
    -2
100
AcDbLine
 10
8656.993531295164
 20
5886.120619012552
 30
0.0
 11
8656.993531295164
 21
5786.120619012552
 31
0.0
  0
MTEXT
  5
2DD9
330
2BBE
100
AcDbEntity
  8
寸法
 62
     7
 48
50.0
100
AcDbMText
 10
8567.659428881663
 20
5779.883997147961
 30
0.0
 40
120.0
 41
0.0
 71
     5
 72
     1
  1
\A1;70
 11
0.0000000000000001
 21
1.0
 31
0.0
 73
     1
 44
1.0
1001
ACAD
1000
MTEXTBEGIN
1070
    73
1070
     1
1070
    44
1040
1.0
1070
    74
1070
     0
1000
MTEXTEND
  0
INSERT
  5
2DDA
330
2BBE
100
AcDbEntity
  8
寸法
 62
     4
 48
50.0
370
    -2
100
AcDbBlockReference
  2
_DOTSMALL
 10
8656.993531295164
 20
5956.120619012557
 30
0.0
 41
100.0
 42
100.0
 43
100.0
 50
270.0
  0
INSERT
  5
2DDB
330
2BBE
100
AcDbEntity
  8
寸法
 62
     4
 48
50.0
370
    -2
100
AcDbBlockReference
  2
_DOTSMALL
 10
8656.993531295164
 20
5886.120619012552
 30
0.0
 41
100.0
 42
100.0
 43
100.0
 50
90.0
  0
POINT
  5
2DDC
330
2BBE
100
AcDbEntity
  8
DEFPOINTS
 62
     0
 48
50.0
100
AcDbPoint
 10
7996.540608108045
 20
5956.120619012557
 30
0.0
  0
POINT
  5
2DDD
330
2BBE
100
AcDbEntity
  8
DEFPOINTS
 62
     0
 48
50.0
100
AcDbPoint
 10
8031.540608108043
 20
5886.120619012552
 30
0.0
  0
POINT
  5
2DDE
330
2BBE
100
AcDbEntity
  8
DEFPOINTS
 62
     0
 48
50.0
100
AcDbPoint
 10
8656.993531295164
 20
5886.120619012552
 30
0.0
  0
ENDBLK
  5
2BC9
330
2BBE
100
AcDbEntity
  8
0
 48
50.0
100
AcDbBlockEnd
  0
BLOCK
  5
2BD3
330
2BCA
100
AcDbEntity
  8
0
 48
50.0
100
AcDbBlockBegin
  2
*D80
 70
     1
 10
0.0
 20
0.0
 30
0.0
  3
*D80
  1

  0
LINE
  5
2DCE
330
2BCA
100
AcDbEntity
  8
寸法
 62
     4
 48
50.0
370
    -2
100
AcDbLine
 10
8036.540608108044
 20
5956.120619012557
 30
0.0
 11
8696.993531295163
 21
5956.120619012557
 31
0.0
  0
LINE
  5
2DCF
330
2BCA
100
AcDbEntity
  8
寸法
 62
     4
 48
50.0
370
    -2
100
AcDbLine
 10
8656.993531295164
 20
8251.120619012557
 30
0.0
 11
8656.993531295164
 21
5956.120619012557
 31
0.0
  0
INSERT
  5
2DD0
330
2BCA
100
AcDbEntity
  8
寸法
 62
     4
 48
50.0
370
    -2
100
AcDbBlockReference
  2
_DOTSMALL
 10
8656.993531295164
 20
8251.120619012557
 30
0.0
 41
100.0
 42
100.0
 43
100.0
 50
90.0
  0
INSERT
  5
2DD1
330
2BCA
100
AcDbEntity
  8
寸法
 62
     4
 48
50.0
370
    -2
100
AcDbBlockReference
  2
_DOTSMALL
 10
8656.993531295164
 20
5956.120619012557
 30
0.0
 41
100.0
 42
100.0
 43
100.0
 50
270.0
  0
MTEXT
  5
2DD2
330
2BCA
100
AcDbEntity
  8
寸法
 62
     7
 48
50.0
100
AcDbMText
 10
8556.98172027154
 20
7103.620619012558
 30
0.0
 40
120.0
 41
0.0
 71
     5
 72
     1
  1
\A1;2295
 11
0.0000000000000001
 21
1.0
 31
0.0
 73
     1
 44
1.0
1001
ACAD
1000
MTEXTBEGIN
1070
    73
1070
     1
1070
    44
1040
1.0
1070
    74
1070
     0
1000
MTEXTEND
  0
POINT
  5
2DD3
330
2BCA
100
AcDbEntity
  8
DEFPOINTS
 62
     0
 48
50.0
100
AcDbPoint
 10
7996.540608108045
 20
8251.120619012557
 30
0.0
  0
POINT
  5
2DD4
330
2BCA
100
AcDbEntity
  8
DEFPOINTS
 62
     0
 48
50.0
100
AcDbPoint
 10
7996.540608108045
 20
5956.120619012557
 30
0.0
  0
POINT
  5
2DD5
330
2BCA
100
AcDbEntity
  8
DEFPOINTS
 62
     0
 48
50.0
100
AcDbPoint
 10
8656.993531295164
 20
5956.120619012557
 30
0.0
  0
ENDBLK
  5
2BD4
330
2BCA
100
AcDbEntity
  8
0
 48
50.0
100
AcDbBlockEnd
  0
BLOCK
  5
2BDF
330
2BD5
100
AcDbEntity
  8
0
 48
50.0
100
AcDbBlockBegin
  2
*D81
 70
     1
 10
0.0
 20
0.0
 30
0.0
  3
*D81
  1

  0
LINE
  5
2DC5
330
2BD5
100
AcDbEntity
  8
寸法
 62
     4
 48
50.0
370
    -2
100
AcDbLine
 10
8036.540608108044
 20
8251.120619012557
 30
0.0
 11
8696.993531295163
 21
8251.120619012557
 31
0.0
  0
LINE
  5
2DC6
330
2BD5
100
AcDbEntity
  8
寸法
 62
     4
 48
50.0
370
    -2
100
AcDbLine
 10
8656.993531295164
 20
8321.120619012559
 30
0.0
 11
8656.993531295164
 21
8421.12061901256
 31
0.0
  0
LINE
  5
2DC7
330
2BD5
100
AcDbEntity
  8
寸法
 62
     4
 48
50.0
370
    -2
100
AcDbLine
 10
8656.993531295164
 20
8251.120619012557
 30
0.0
 11
8656.993531295164
 21
8151.120619012557
 31
0.0
  0
MTEXT
  5
2DC8
330
2BD5
100
AcDbEntity
  8
寸法
 62
     7
 48
50.0
100
AcDbMText
 10
8936.993531295163
 20
8286.12061901256
 30
0.0
 40
120.0
 41
0.0
 71
     5
 72
     1
  1
\A1;70
 11
0.0000000000000001
 21
1.0
 31
0.0
 73
     1
 44
1.0
1001
ACAD
1000
MTEXTBEGIN
1070
    73
1070
     1
1070
    44
1040
1.0
1070
    74
1070
     0
1000
MTEXTEND
  0
INSERT
  5
2DC9
330
2BD5
100
AcDbEntity
  8
寸法
 62
     4
 48
50.0
370
    -2
100
AcDbBlockReference
  2
_DOTSMALL
 10
8656.993531295164
 20
8321.120619012559
 30
0.0
 41
100.0
 42
100.0
 43
100.0
 50
270.0
  0
INSERT
  5
2DCA
330
2BD5
100
AcDbEntity
  8
寸法
 62
     4
 48
50.0
370
    -2
100
AcDbBlockReference
  2
_DOTSMALL
 10
8656.993531295164
 20
8251.120619012557
 30
0.0
 41
100.0
 42
100.0
 43
100.0
 50
90.0
  0
POINT
  5
2DCB
330
2BD5
100
AcDbEntity
  8
DEFPOINTS
 62
     0
 48
50.0
100
AcDbPoint
 10
7996.540608108043
 20
8321.120619012559
 30
0.0
  0
POINT
  5
2DCC
330
2BD5
100
AcDbEntity
  8
DEFPOINTS
 62
     0
 48
50.0
100
AcDbPoint
 10
7996.540608108045
 20
8251.120619012557
 30
0.0
  0
POINT
  5
2DCD
330
2BD5
100
AcDbEntity
  8
DEFPOINTS
 62
     0
 48
50.0
100
AcDbPoint
 10
8656.993531295164
 20
8251.120619012557
 30
0.0
  0
ENDBLK
  5
2BE0
330
2BD5
100
AcDbEntity
  8
0
 48
50.0
100
AcDbBlockEnd
  0
BLOCK
  5
2BEB
330
2BE1
100
AcDbEntity
  8
0
 48
50.0
100
AcDbBlockBegin
  2
*D82
 70
     1
 10
0.0
 20
0.0
 30
0.0
  3
*D82
  1

  0
LINE
  5
2DBC
330
2BE1
100
AcDbEntity
  8
寸法
 62
     4
 48
50.0
370
    -2
100
AcDbLine
 10
8036.540608108042
 20
10616.12061901255
 30
0.0
 11
8696.993531295163
 21
10616.12061901255
 31
0.0
  0
LINE
  5
2DBD
330
2BE1
100
AcDbEntity
  8
寸法
 62
     4
 48
50.0
370
    -2
100
AcDbLine
 10
8036.540608108042
 20
8321.120619012559
 30
0.0
 11
8696.993531295163
 21
8321.120619012559
 31
0.0
  0
LINE
  5
2DBE
330
2BE1
100
AcDbEntity
  8
寸法
 62
     4
 48
50.0
370
    -2
100
AcDbLine
 10
8656.993531295164
 20
10616.12061901255
 30
0.0
 11
8656.993531295164
 21
8321.120619012559
 31
0.0
  0
INSERT
  5
2DBF
330
2BE1
100
AcDbEntity
  8
寸法
 62
     4
 48
50.0
370
    -2
100
AcDbBlockReference
  2
_DOTSMALL
 10
8656.993531295164
 20
10616.12061901255
 30
0.0
 41
100.0
 42
100.0
 43
100.0
 50
90.0
  0
INSERT
  5
2DC0
330
2BE1
100
AcDbEntity
  8
寸法
 62
     4
 48
50.0
370
    -2
100
AcDbBlockReference
  2
_DOTSMALL
 10
8656.993531295164
 20
8321.120619012559
 30
0.0
 41
100.0
 42
100.0
 43
100.0
 50
270.0
  0
MTEXT
  5
2DC1
330
2BE1
100
AcDbEntity
  8
寸法
 62
     7
 48
50.0
100
AcDbMText
 10
8556.98172027154
 20
9468.620619012556
 30
0.0
 40
120.0
 41
0.0
 71
     5
 72
     1
  1
\A1;2295
 11
0.0000000000000001
 21
1.0
 31
0.0
 73
     1
 44
1.0
1001
ACAD
1000
MTEXTBEGIN
1070
    73
1070
     1
1070
    44
1040
1.0
1070
    74
1070
     0
1000
MTEXTEND
  0
POINT
  5
2DC2
330
2BE1
100
AcDbEntity
  8
DEFPOINTS
 62
     0
 48
50.0
100
AcDbPoint
 10
7996.540608108041
 20
10616.12061901255
 30
0.0
  0
POINT
  5
2DC3
330
2BE1
100
AcDbEntity
  8
DEFPOINTS
 62
     0
 48
50.0
100
AcDbPoint
 10
7996.540608108043
 20
8321.120619012559
 30
0.0
  0
POINT
  5
2DC4
330
2BE1
100
AcDbEntity
  8
DEFPOINTS
 62
     0
 48
50.0
100
AcDbPoint
 10
8656.993531295164
 20
8321.120619012559
 30
0.0
  0
ENDBLK
  5
2BEC
330
2BE1
100
AcDbEntity
  8
0
 48
50.0
100
AcDbBlockEnd
  0
BLOCK
  5
2BF7
330
2BED
100
AcDbEntity
  8
0
 48
50.0
100
AcDbBlockBegin
  2
*D83
 70
     1
 10
0.0
 20
0.0
 30
0.0
  3
*D83
  1

  0
LINE
  5
2DB3
330
2BED
100
AcDbEntity
  8
寸法
 62
     4
 48
50.0
370
    -2
100
AcDbLine
 10
1911.540608108044
 20
10686.12061901255
 30
0.0
 11
852.4227855077926
 21
10686.12061901255
 31
0.0
  0
LINE
  5
2DB4
330
2BED
100
AcDbEntity
  8
寸法
 62
     4
 48
50.0
370
    -2
100
AcDbLine
 10
1911.540608108044
 20
5886.120619012551
 30
0.0
 11
852.4227855077914
 21
5886.120619012551
 31
0.0
  0
LINE
  5
2DB5
330
2BED
100
AcDbEntity
  8
寸法
 62
     4
 48
50.0
370
    -2
100
AcDbLine
 10
892.4227855077926
 20
10686.12061901255
 30
0.0
 11
892.4227855077916
 21
5886.120619012551
 31
0.0
  0
INSERT
  5
2DB6
330
2BED
100
AcDbEntity
  8
寸法
 62
     4
 48
50.0
370
    -2
100
AcDbBlockReference
  2
_DOTSMALL
 10
892.4227855077926
 20
10686.12061901255
 30
0.0
 41
100.0
 42
100.0
 43
100.0
 50
90.0
  0
INSERT
  5
2DB7
330
2BED
100
AcDbEntity
  8
寸法
 62
     4
 48
50.0
370
    -2
100
AcDbBlockReference
  2
_DOTSMALL
 10
892.4227855077916
 20
5886.120619012551
 30
0.0
 41
100.0
 42
100.0
 43
100.0
 50
270.0
  0
MTEXT
  5
2DB8
330
2BED
100
AcDbEntity
  8
寸法
 62
     7
 48
50.0
100
AcDbMText
 10
792.4227855077908
 20
8286.120619012553
 30
0.0
 40
120.0
 41
0.0
 71
     5
 72
     1
  1
\A1;4800
 11
0.0000000000000001
 21
1.0
 31
0.0
 73
     1
 44
1.0
1001
ACAD
1000
MTEXTBEGIN
1070
    73
1070
     1
1070
    44
1040
1.0
1070
    74
1070
     0
1000
MTEXTEND
  0
POINT
  5
2DB9
330
2BED
100
AcDbEntity
  8
DEFPOINTS
 62
     0
 48
50.0
100
AcDbPoint
 10
1951.540608108044
 20
10686.12061901255
 30
0.0
  0
POINT
  5
2DBA
330
2BED
100
AcDbEntity
  8
DEFPOINTS
 62
     0
 48
50.0
100
AcDbPoint
 10
1951.540608108044
 20
5886.120619012551
 30
0.0
  0
POINT
  5
2DBB
330
2BED
100
AcDbEntity
  8
DEFPOINTS
 62
     0
 48
50.0
100
AcDbPoint
 10
892.4227855077916
 20
5886.120619012551
 30
0.0
  0
ENDBLK
  5
2BF8
330
2BED
100
AcDbEntity
  8
0
 48
50.0
100
AcDbBlockEnd
  0
BLOCK
  5
2C02
330
2BF9
100
AcDbEntity
  8
0
 48
50.0
100
AcDbBlockBegin
  2
*D84
 70
     1
 10
0.0
 20
0.0
 30
0.0
  3
*D84
  1

  0
LINE
  5
2DAB
330
2BF9
100
AcDbEntity
  8
寸法
 62
     4
 48
50.0
370
    -2
100
AcDbLine
 10
1911.540608108044
 20
5886.120619012551
 30
0.0
 11
1327.870956908438
 21
5886.120619012551
 31
0.0
  0
LINE
  5
2DAC
330
2BF9
100
AcDbEntity
  8
寸法
 62
     4
 48
50.0
370
    -2
100
AcDbLine
 10
1367.870956908438
 20
6123.12061901255
 30
0.0
 11
1367.870956908438
 21
5886.120619012551
 31
0.0
  0
MTEXT
  5
2DAD
330
2BF9
100
AcDbEntity
  8
寸法
 62
     7
 48
50.0
100
AcDbMText
 10
1281.195924353022
 20
6004.62061901255
 30
0.0
 40
120.0
 41
0.0
 71
     5
 72
     1
  1
\A1;237
 11
0.0000000000000001
 21
1.0
 31
0.0
 73
     1
 44
1.0
1001
ACAD
1000
MTEXTBEGIN
1070
    73
1070
     1
1070
    44
1040
1.0
1070
    74
1070
     0
1000
MTEXTEND
  0
INSERT
  5
2DAE
330
2BF9
100
AcDbEntity
  8
寸法
 62
     4
 48
50.0
370
    -2
100
AcDbBlockReference
  2
_DOTSMALL
 10
1367.870956908438
 20
6123.12061901255
 30
0.0
 41
100.0
 42
100.0
 43
100.0
 50
90.0
  0
INSERT
  5
2DAF
330
2BF9
100
AcDbEntity
  8
寸法
 62
     4
 48
50.0
370
    -2
100
AcDbBlockReference
  2
_DOTSMALL
 10
1367.870956908438
 20
5886.120619012551
 30
0.0
 41
100.0
 42
100.0
 43
100.0
 50
270.0
  0
POINT
  5
2DB0
330
2BF9
100
AcDbEntity
  8
DEFPOINTS
 62
     0
 48
50.0
100
AcDbPoint
 10
1941.540608108043
 20
6123.12061901255
 30
0.0
  0
POINT
  5
2DB1
330
2BF9
100
AcDbEntity
  8
DEFPOINTS
 62
     0
 48
50.0
100
AcDbPoint
 10
1951.540608108044
 20
5886.120619012551
 30
0.0
  0
POINT
  5
2DB2
330
2BF9
100
AcDbEntity
  8
DEFPOINTS
 62
     0
 48
50.0
100
AcDbPoint
 10
1367.870956908438
 20
5886.120619012551
 30
0.0
  0
ENDBLK
  5
2C03
330
2BF9
100
AcDbEntity
  8
0
 48
50.0
100
AcDbBlockEnd
  0
BLOCK
  5
2C0D
330
2C04
100
AcDbEntity
  8
0
 48
50.0
100
AcDbBlockBegin
  2
*D85
 70
     1
 10
0.0
 20
0.0
 30
0.0
  3
*D85
  1

  0
LINE
  5
2DA3
330
2C04
100
AcDbEntity
  8
寸法
 62
     4
 48
50.0
370
    -2
100
AcDbLine
 10
1901.540608108044
 20
6123.12061901255
 30
0.0
 11
1327.870956908438
 21
6123.12061901255
 31
0.0
  0
LINE
  5
2DA4
330
2C04
100
AcDbEntity
  8
寸法
 62
     4
 48
50.0
370
    -2
100
AcDbLine
 10
1367.870956908439
 20
6757.420619012552
 30
0.0
 11
1367.870956908438
 21
6123.12061901255
 31
0.0
  0
INSERT
  5
2DA5
330
2C04
100
AcDbEntity
  8
寸法
 62
     4
 48
50.0
370
    -2
100
AcDbBlockReference
  2
_DOTSMALL
 10
1367.870956908439
 20
6757.420619012552
 30
0.0
 41
100.0
 42
100.0
 43
100.0
 50
90.0
  0
INSERT
  5
2DA6
330
2C04
100
AcDbEntity
  8
寸法
 62
     4
 48
50.0
370
    -2
100
AcDbBlockReference
  2
_DOTSMALL
 10
1367.870956908438
 20
6123.12061901255
 30
0.0
 41
100.0
 42
100.0
 43
100.0
 50
270.0
  0
MTEXT
  5
2DA7
330
2C04
100
AcDbEntity
  8
寸法
 62
     7
 48
50.0
100
AcDbMText
 10
1267.870956908437
 20
6440.270619012551
 30
0.0
 40
120.0
 41
0.0
 71
     5
 72
     1
  1
\A1;634.3
 11
0.0000000000000001
 21
1.0
 31
0.0
 73
     1
 44
1.0
1001
ACAD
1000
MTEXTBEGIN
1070
    73
1070
     1
1070
    44
1040
1.0
1070
    74
1070
     0
1000
MTEXTEND
  0
POINT
  5
2DA8
330
2C04
100
AcDbEntity
  8
DEFPOINTS
 62
     0
 48
50.0
100
AcDbPoint
 10
1941.540608108043
 20
6757.420619012552
 30
0.0
  0
POINT
  5
2DA9
330
2C04
100
AcDbEntity
  8
DEFPOINTS
 62
     0
 48
50.0
100
AcDbPoint
 10
1941.540608108043
 20
6123.12061901255
 30
0.0
  0
POINT
  5
2DAA
330
2C04
100
AcDbEntity
  8
DEFPOINTS
 62
     0
 48
50.0
100
AcDbPoint
 10
1367.870956908438
 20
6123.12061901255
 30
0.0
  0
ENDBLK
  5
2C0E
330
2C04
100
AcDbEntity
  8
0
 48
50.0
100
AcDbBlockEnd
  0
BLOCK
  5
2C18
330
2C0F
100
AcDbEntity
  8
0
 48
50.0
100
AcDbBlockBegin
  2
*D86
 70
     1
 10
0.0
 20
0.0
 30
0.0
  3
*D86
  1

  0
LINE
  5
2D9B
330
2C0F
100
AcDbEntity
  8
寸法
 62
     4
 48
50.0
370
    -2
100
AcDbLine
 10
1901.540608108044
 20
6757.420619012552
 30
0.0
 11
1327.870956908438
 21
6757.420619012552
 31
0.0
  0
LINE
  5
2D9C
330
2C0F
100
AcDbEntity
  8
寸法
 62
     4
 48
50.0
370
    -2
100
AcDbLine
 10
1367.870956908438
 20
7391.720619012551
 30
0.0
 11
1367.870956908438
 21
6757.420619012552
 31
0.0
  0
INSERT
  5
2D9D
330
2C0F
100
AcDbEntity
  8
寸法
 62
     4
 48
50.0
370
    -2
100
AcDbBlockReference
  2
_DOTSMALL
 10
1367.870956908438
 20
7391.720619012551
 30
0.0
 41
100.0
 42
100.0
 43
100.0
 50
90.0
  0
INSERT
  5
2D9E
330
2C0F
100
AcDbEntity
  8
寸法
 62
     4
 48
50.0
370
    -2
100
AcDbBlockReference
  2
_DOTSMALL
 10
1367.870956908438
 20
6757.420619012552
 30
0.0
 41
100.0
 42
100.0
 43
100.0
 50
270.0
  0
MTEXT
  5
2D9F
330
2C0F
100
AcDbEntity
  8
寸法
 62
     7
 48
50.0
100
AcDbMText
 10
1267.870956908437
 20
7074.570619012551
 30
0.0
 40
120.0
 41
0.0
 71
     5
 72
     1
  1
\A1;634.3
 11
0.0000000000000001
 21
1.0
 31
0.0
 73
     1
 44
1.0
1001
ACAD
1000
MTEXTBEGIN
1070
    73
1070
     1
1070
    44
1040
1.0
1070
    74
1070
     0
1000
MTEXTEND
  0
POINT
  5
2DA0
330
2C0F
100
AcDbEntity
  8
DEFPOINTS
 62
     0
 48
50.0
100
AcDbPoint
 10
1941.540608108043
 20
7391.720619012551
 30
0.0
  0
POINT
  5
2DA1
330
2C0F
100
AcDbEntity
  8
DEFPOINTS
 62
     0
 48
50.0
100
AcDbPoint
 10
1941.540608108043
 20
6757.420619012552
 30
0.0
  0
POINT
  5
2DA2
330
2C0F
100
AcDbEntity
  8
DEFPOINTS
 62
     0
 48
50.0
100
AcDbPoint
 10
1367.870956908438
 20
6757.420619012552
 30
0.0
  0
ENDBLK
  5
2C19
330
2C0F
100
AcDbEntity
  8
0
 48
50.0
100
AcDbBlockEnd
  0
BLOCK
  5
2C23
330
2C1A
100
AcDbEntity
  8
0
 48
50.0
100
AcDbBlockBegin
  2
*D87
 70
     1
 10
0.0
 20
0.0
 30
0.0
  3
*D87
  1

  0
LINE
  5
2D93
330
2C1A
100
AcDbEntity
  8
寸法
 62
     4
 48
50.0
370
    -2
100
AcDbLine
 10
1901.540608108044
 20
7391.720619012551
 30
0.0
 11
1327.870956908438
 21
7391.720619012551
 31
0.0
  0
LINE
  5
2D94
330
2C1A
100
AcDbEntity
  8
寸法
 62
     4
 48
50.0
370
    -2
100
AcDbLine
 10
1367.870956908439
 20
8026.020619012554
 30
0.0
 11
1367.870956908438
 21
7391.720619012551
 31
0.0
  0
MTEXT
  5
2D95
330
2C1A
100
AcDbEntity
  8
寸法
 62
     7
 48
50.0
100
AcDbMText
 10
1257.790302725618
 20
7601.205545746511
 30
0.0
 40
120.0
 41
0.0
 71
     5
 72
     1
  1
\A1;634.3
 11
0.0000000000000001
 21
1.0
 31
0.0
 73
     1
 44
1.0
1001
ACAD
1000
MTEXTBEGIN
1070
    73
1070
     1
1070
    44
1040
1.0
1070
    74
1070
     0
1000
MTEXTEND
  0
INSERT
  5
2D96
330
2C1A
100
AcDbEntity
  8
寸法
 62
     4
 48
50.0
370
    -2
100
AcDbBlockReference
  2
_DOTSMALL
 10
1367.870956908439
 20
8026.020619012554
 30
0.0
 41
100.0
 42
100.0
 43
100.0
 50
90.0
  0
INSERT
  5
2D97
330
2C1A
100
AcDbEntity
  8
寸法
 62
     4
 48
50.0
370
    -2
100
AcDbBlockReference
  2
_DOTSMALL
 10
1367.870956908438
 20
7391.720619012551
 30
0.0
 41
100.0
 42
100.0
 43
100.0
 50
270.0
  0
POINT
  5
2D98
330
2C1A
100
AcDbEntity
  8
DEFPOINTS
 62
     0
 48
50.0
100
AcDbPoint
 10
1941.540608108043
 20
8026.020619012554
 30
0.0
  0
POINT
  5
2D99
330
2C1A
100
AcDbEntity
  8
DEFPOINTS
 62
     0
 48
50.0
100
AcDbPoint
 10
1941.540608108043
 20
7391.720619012551
 30
0.0
  0
POINT
  5
2D9A
330
2C1A
100
AcDbEntity
  8
DEFPOINTS
 62
     0
 48
50.0
100
AcDbPoint
 10
1367.870956908438
 20
7391.720619012551
 30
0.0
  0
ENDBLK
  5
2C24
330
2C1A
100
AcDbEntity
  8
0
 48
50.0
100
AcDbBlockEnd
  0
BLOCK
  5
2C2E
330
2C25
100
AcDbEntity
  8
0
 48
50.0
100
AcDbBlockBegin
  2
*D88
 70
     1
 10
0.0
 20
0.0
 30
0.0
  3
*D88
  1

  0
LINE
  5
2D8B
330
2C25
100
AcDbEntity
  8
寸法
 62
     4
 48
50.0
370
    -2
100
AcDbLine
 10
1901.540608108044
 20
8286.120619012553
 30
0.0
 11
1327.870956908438
 21
8286.120619012553
 31
0.0
  0
LINE
  5
2D8C
330
2C25
100
AcDbEntity
  8
寸法
 62
     4
 48
50.0
370
    -2
100
AcDbLine
 10
1367.870956908438
 20
8546.220619012547
 30
0.0
 11
1367.870956908438
 21
8286.120619012553
 31
0.0
  0
MTEXT
  5
2D8D
330
2C25
100
AcDbEntity
  8
寸法
 62
     7
 48
50.0
100
AcDbMText
 10
1207.859145884817
 20
8471.537888503204
 30
0.0
 40
120.0
 41
0.0
 71
     5
 72
     1
  1
\A1;260.1
 11
0.0000000000000001
 21
1.0
 31
0.0
 73
     1
 44
1.0
1001
ACAD
1000
MTEXTBEGIN
1070
    73
1070
     1
1070
    44
1040
1.0
1070
    74
1070
     0
1000
MTEXTEND
  0
INSERT
  5
2D8E
330
2C25
100
AcDbEntity
  8
寸法
 62
     4
 48
50.0
370
    -2
100
AcDbBlockReference
  2
_DOTSMALL
 10
1367.870956908438
 20
8546.220619012547
 30
0.0
 41
100.0
 42
100.0
 43
100.0
 50
90.0
  0
INSERT
  5
2D8F
330
2C25
100
AcDbEntity
  8
寸法
 62
     4
 48
50.0
370
    -2
100
AcDbBlockReference
  2
_DOTSMALL
 10
1367.870956908438
 20
8286.120619012553
 30
0.0
 41
100.0
 42
100.0
 43
100.0
 50
270.0
  0
POINT
  5
2D90
330
2C25
100
AcDbEntity
  8
DEFPOINTS
 62
     0
 48
50.0
100
AcDbPoint
 10
1941.540608108043
 20
8546.220619012547
 30
0.0
  0
POINT
  5
2D91
330
2C25
100
AcDbEntity
  8
DEFPOINTS
 62
     0
 48
50.0
100
AcDbPoint
 10
1941.540608108043
 20
8286.120619012553
 30
0.0
  0
POINT
  5
2D92
330
2C25
100
AcDbEntity
  8
DEFPOINTS
 62
     0
 48
50.0
100
AcDbPoint
 10
1367.870956908438
 20
8286.120619012553
 30
0.0
  0
ENDBLK
  5
2C2F
330
2C25
100
AcDbEntity
  8
0
 48
50.0
100
AcDbBlockEnd
  0
BLOCK
  5
2C3A
330
2C30
100
AcDbEntity
  8
0
 48
50.0
100
AcDbBlockBegin
  2
*D89
 70
     1
 10
0.0
 20
0.0
 30
0.0
  3
*D89
  1

  0
LINE
  5
2E8F
330
2C30
100
AcDbEntity
  8
寸法
 62
     4
 48
50.0
370
    -2
100
AcDbLine
 10
1901.540608108044
 20
8546.220619012547
 30
0.0
 11
1327.870956908438
 21
8546.220619012547
 31
0.0
  0
LINE
  5
2E90
330
2C30
100
AcDbEntity
  8
寸法
 62
     4
 48
50.0
370
    -2
100
AcDbLine
 10
1367.870956908439
 20
9180.520619012551
 30
0.0
 11
1367.870956908439
 21
9280.52061901255
 31
0.0
  0
LINE
  5
2E91
330
2C30
100
AcDbEntity
  8
寸法
 62
     4
 48
50.0
370
    -2
100
AcDbLine
 10
1367.870956908438
 20
8546.220619012547
 30
0.0
 11
1367.870956908438
 21
8446.220619012548
 31
0.0
  0
MTEXT
  5
2E92
330
2C30
100
AcDbEntity
  8
寸法
 62
     7
 48
50.0
100
AcDbMText
 10
1270.572535303916
 20
8975.492142007752
 30
0.0
 40
120.0
 41
0.0
 71
     5
 72
     1
  1
\A1;634.3
 11
0.0000000000000001
 21
1.0
 31
0.0
 73
     1
 44
1.0
1001
ACAD
1000
MTEXTBEGIN
1070
    73
1070
     1
1070
    44
1040
1.0
1070
    74
1070
     0
1000
MTEXTEND
  0
LINE
  5
2E93
330
2C30
100
AcDbEntity
  8
寸法
 62
     4
 48
50.0
370
    -2
100
AcDbLine
 10
1367.870956908439
 20
9180.520619012551
 30
0.0
 11
1367.870956908438
 21
8546.220619012547
 31
0.0
  0
INSERT
  5
2E94
330
2C30
100
AcDbEntity
  8
寸法
 62
     4
 48
50.0
370
    -2
100
AcDbBlockReference
  2
_DOTSMALL
 10
1367.870956908439
 20
9180.520619012551
 30
0.0
 41
100.0
 42
100.0
 43
100.0
 50
270.0
  0
INSERT
  5
2E95
330
2C30
100
AcDbEntity
  8
寸法
 62
     4
 48
50.0
370
    -2
100
AcDbBlockReference
  2
_DOTSMALL
 10
1367.870956908438
 20
8546.220619012547
 30
0.0
 41
100.0
 42
100.0
 43
100.0
 50
90.0
  0
POINT
  5
2E96
330
2C30
100
AcDbEntity
  8
DEFPOINTS
 62
     0
 48
50.0
100
AcDbPoint
 10
1941.540608108043
 20
9180.520619012551
 30
0.0
  0
POINT
  5
2E97
330
2C30
100
AcDbEntity
  8
DEFPOINTS
 62
     0
 48
50.0
100
AcDbPoint
 10
1941.540608108043
 20
8546.220619012547
 30
0.0
  0
POINT
  5
2E98
330
2C30
100
AcDbEntity
  8
DEFPOINTS
 62
     0
 48
50.0
100
AcDbPoint
 10
1367.870956908438
 20
8546.220619012547
 30
0.0
  0
ENDBLK
  5
2C3B
330
2C30
100
AcDbEntity
  8
0
 48
50.0
100
AcDbBlockEnd
  0
BLOCK
  5
2C45
330
2C3C
100
AcDbEntity
  8
0
 48
50.0
100
AcDbBlockBegin
  2
*D90
 70
     1
 10
0.0
 20
0.0
 30
0.0
  3
*D90
  1

  0
LINE
  5
2D7A
330
2C3C
100
AcDbEntity
  8
寸法
 62
     4
 48
50.0
370
    -2
100
AcDbLine
 10
1901.540608108044
 20
9180.520619012551
 30
0.0
 11
1327.870956908438
 21
9180.520619012551
 31
0.0
  0
LINE
  5
2D7B
330
2C3C
100
AcDbEntity
  8
寸法
 62
     4
 48
50.0
370
    -2
100
AcDbLine
 10
1367.870956908439
 20
9814.82061901255
 30
0.0
 11
1367.870956908438
 21
9180.520619012551
 31
0.0
  0
INSERT
  5
2D7C
330
2C3C
100
AcDbEntity
  8
寸法
 62
     4
 48
50.0
370
    -2
100
AcDbBlockReference
  2
_DOTSMALL
 10
1367.870956908439
 20
9814.82061901255
 30
0.0
 41
100.0
 42
100.0
 43
100.0
 50
90.0
  0
INSERT
  5
2D7D
330
2C3C
100
AcDbEntity
  8
寸法
 62
     4
 48
50.0
370
    -2
100
AcDbBlockReference
  2
_DOTSMALL
 10
1367.870956908438
 20
9180.520619012551
 30
0.0
 41
100.0
 42
100.0
 43
100.0
 50
270.0
  0
MTEXT
  5
2D7E
330
2C3C
100
AcDbEntity
  8
寸法
 62
     7
 48
50.0
100
AcDbMText
 10
1267.870956908437
 20
9497.67061901255
 30
0.0
 40
120.0
 41
0.0
 71
     5
 72
     1
  1
\A1;634.3
 11
0.0000000000000001
 21
1.0
 31
0.0
 73
     1
 44
1.0
1001
ACAD
1000
MTEXTBEGIN
1070
    73
1070
     1
1070
    44
1040
1.0
1070
    74
1070
     0
1000
MTEXTEND
  0
POINT
  5
2D7F
330
2C3C
100
AcDbEntity
  8
DEFPOINTS
 62
     0
 48
50.0
100
AcDbPoint
 10
1941.540608108043
 20
9814.82061901255
 30
0.0
  0
POINT
  5
2D80
330
2C3C
100
AcDbEntity
  8
DEFPOINTS
 62
     0
 48
50.0
100
AcDbPoint
 10
1941.540608108043
 20
9180.520619012551
 30
0.0
  0
POINT
  5
2D81
330
2C3C
100
AcDbEntity
  8
DEFPOINTS
 62
     0
 48
50.0
100
AcDbPoint
 10
1367.870956908438
 20
9180.520619012551
 30
0.0
  0
ENDBLK
  5
2C46
330
2C3C
100
AcDbEntity
  8
0
 48
50.0
100
AcDbBlockEnd
  0
BLOCK
  5
2C50
330
2C47
100
AcDbEntity
  8
0
 48
50.0
100
AcDbBlockBegin
  2
*D91
 70
     1
 10
0.0
 20
0.0
 30
0.0
  3
*D91
  1

  0
LINE
  5
2D72
330
2C47
100
AcDbEntity
  8
寸法
 62
     4
 48
50.0
370
    -2
100
AcDbLine
 10
1901.540608108044
 20
9814.82061901255
 30
0.0
 11
1327.870956908438
 21
9814.82061901255
 31
0.0
  0
LINE
  5
2D73
330
2C47
100
AcDbEntity
  8
寸法
 62
     4
 48
50.0
370
    -2
100
AcDbLine
 10
1367.870956908438
 20
10449.12061901255
 30
0.0
 11
1367.870956908438
 21
9814.82061901255
 31
0.0
  0
INSERT
  5
2D74
330
2C47
100
AcDbEntity
  8
寸法
 62
     4
 48
50.0
370
    -2
100
AcDbBlockReference
  2
_DOTSMALL
 10
1367.870956908438
 20
10449.12061901255
 30
0.0
 41
100.0
 42
100.0
 43
100.0
 50
90.0
  0
INSERT
  5
2D75
330
2C47
100
AcDbEntity
  8
寸法
 62
     4
 48
50.0
370
    -2
100
AcDbBlockReference
  2
_DOTSMALL
 10
1367.870956908438
 20
9814.82061901255
 30
0.0
 41
100.0
 42
100.0
 43
100.0
 50
270.0
  0
MTEXT
  5
2D76
330
2C47
100
AcDbEntity
  8
寸法
 62
     7
 48
50.0
100
AcDbMText
 10
1267.870956908437
 20
10131.97061901255
 30
0.0
 40
120.0
 41
0.0
 71
     5
 72
     1
  1
\A1;634.3
 11
0.0000000000000001
 21
1.0
 31
0.0
 73
     1
 44
1.0
1001
ACAD
1000
MTEXTBEGIN
1070
    73
1070
     1
1070
    44
1040
1.0
1070
    74
1070
     0
1000
MTEXTEND
  0
POINT
  5
2D77
330
2C47
100
AcDbEntity
  8
DEFPOINTS
 62
     0
 48
50.0
100
AcDbPoint
 10
1941.540608108043
 20
10449.12061901255
 30
0.0
  0
POINT
  5
2D78
330
2C47
100
AcDbEntity
  8
DEFPOINTS
 62
     0
 48
50.0
100
AcDbPoint
 10
1941.540608108043
 20
9814.82061901255
 30
0.0
  0
POINT
  5
2D79
330
2C47
100
AcDbEntity
  8
DEFPOINTS
 62
     0
 48
50.0
100
AcDbPoint
 10
1367.870956908438
 20
9814.82061901255
 30
0.0
  0
ENDBLK
  5
2C51
330
2C47
100
AcDbEntity
  8
0
 48
50.0
100
AcDbBlockEnd
  0
BLOCK
  5
2C5C
330
2C52
100
AcDbEntity
  8
0
 48
50.0
100
AcDbBlockBegin
  2
*D92
 70
     1
 10
0.0
 20
0.0
 30
0.0
  3
*D92
  1

  0
LINE
  5
2D69
330
2C52
100
AcDbEntity
  8
寸法
 62
     4
 48
50.0
370
    -2
100
AcDbLine
 10
1911.540608108044
 20
10686.12061901255
 30
0.0
 11
1327.870956908438
 21
10686.12061901255
 31
0.0
  0
LINE
  5
2D6A
330
2C52
100
AcDbEntity
  8
寸法
 62
     4
 48
50.0
370
    -2
100
AcDbLine
 10
1901.540608108044
 20
10449.12061901255
 30
0.0
 11
1327.870956908438
 21
10449.12061901255
 31
0.0
  0
LINE
  5
2D6B
330
2C52
100
AcDbEntity
  8
寸法
 62
     4
 48
50.0
370
    -2
100
AcDbLine
 10
1367.870956908438
 20
10686.12061901255
 30
0.0
 11
1367.870956908438
 21
10449.12061901255
 31
0.0
  0
MTEXT
  5
2D6C
330
2C52
100
AcDbEntity
  8
寸法
 62
     7
 48
50.0
100
AcDbMText
 10
1262.405509913456
 20
10567.62061901255
 30
0.0
 40
120.0
 41
0.0
 71
     5
 72
     1
  1
\A1;237
 11
0.0000000000000001
 21
1.0
 31
0.0
 73
     1
 44
1.0
1001
ACAD
1000
MTEXTBEGIN
1070
    73
1070
     1
1070
    44
1040
1.0
1070
    74
1070
     0
1000
MTEXTEND
  0
INSERT
  5
2D6D
330
2C52
100
AcDbEntity
  8
寸法
 62
     4
 48
50.0
370
    -2
100
AcDbBlockReference
  2
_DOTSMALL
 10
1367.870956908438
 20
10686.12061901255
 30
0.0
 41
100.0
 42
100.0
 43
100.0
 50
90.0
  0
INSERT
  5
2D6E
330
2C52
100
AcDbEntity
  8
寸法
 62
     4
 48
50.0
370
    -2
100
AcDbBlockReference
  2
_DOTSMALL
 10
1367.870956908438
 20
10449.12061901255
 30
0.0
 41
100.0
 42
100.0
 43
100.0
 50
270.0
  0
POINT
  5
2D6F
330
2C52
100
AcDbEntity
  8
DEFPOINTS
 62
     0
 48
50.0
100
AcDbPoint
 10
1951.540608108044
 20
10686.12061901255
 30
0.0
  0
POINT
  5
2D70
330
2C52
100
AcDbEntity
  8
DEFPOINTS
 62
     0
 48
50.0
100
AcDbPoint
 10
1941.540608108043
 20
10449.12061901255
 30
0.0
  0
POINT
  5
2D71
330
2C52
100
AcDbEntity
  8
DEFPOINTS
 62
     0
 48
50.0
100
AcDbPoint
 10
1367.870956908438
 20
10449.12061901255
 30
0.0
  0
ENDBLK
  5
2C5D
330
2C52
100
AcDbEntity
  8
0
 48
50.0
100
AcDbBlockEnd
  0
ENDSEC
  0
SECTION
  2
ENTITIES
  0
MTEXT
  5
1C51
330
1A
100
AcDbEntity
  8
0
100
AcDbMText
 10
12113.85383347236
 20
11207.9349056396
 30
0.0
 40
140.0
 41
212.9488506697089
 71
     1
 72
     5
  1

  7
MSMINCHO
 73
     1
 44
1.0
1001
ACAD
1000
MTEXTBEGIN
1070
    73
1070
     1
1070
    44
1040
1.0
1070
    74
1070
     0
1000
MTEXTEND
  0
LINE
  5
2787
330
1A
100
AcDbEntity
  8
部品1
100
AcDbLine
 10
4991.54060810804
 20
4365.187199662496
 30
0.0
 11
4991.540608108044
 21
4357.044811104377
 31
0.0
  0
LINE
  5
2788
330
1A
100
AcDbEntity
  8
部品1
100
AcDbLine
 10
4981.540608108041
 20
4480.058816120087
 30
0.0
 11
4981.540608108041
 21
4365.187199662496
 31
0.0
  0
LINE
  5
2789
330
1A
100
AcDbEntity
  8
部品1
100
AcDbLine
 10
4981.540608108041
 20
5956.12061901255
 30
0.0
 11
4981.540608108041
 21
5886.120619012548
 31
0.0
  0
LINE
  5
278A
330
1A
100
AcDbEntity
  8
点線
 48
6.0
100
AcDbLine
 10
5021.540608108042
 20
6165.620619012552
 30
0.0
 11
5021.540608108043
 21
6100.620619012552
 31
0.0
  0
LINE
  5
278B
330
1A
100
AcDbEntity
  8
点線
 48
6.0
100
AcDbLine
 10
4961.540608108044
 20
6165.620619012554
 30
0.0
 11
4961.540608108044
 21
6100.620619012554
 31
0.0
  0
LINE
  5
278C
330
1A
100
AcDbEntity
  8
点線
 48
6.0
100
AcDbLine
 10
5021.540608108043
 20
6799.920619012553
 30
0.0
 11
5021.540608108042
 21
6734.920619012552
 31
0.0
  0
LINE
  5
278D
330
1A
100
AcDbEntity
  8
点線
 48
6.0
100
AcDbLine
 10
4961.540608108044
 20
6799.920619012553
 30
0.0
 11
4961.540608108044
 21
6734.920619012552
 31
0.0
  0
LINE
  5
278E
330
1A
100
AcDbEntity
  8
点線
 48
6.0
100
AcDbLine
 10
5021.540608108043
 20
7434.220619012555
 30
0.0
 11
5021.540608108043
 21
7369.220619012556
 31
0.0
  0
LINE
  5
278F
330
1A
100
AcDbEntity
  8
点線
 48
6.0
100
AcDbLine
 10
4961.540608108044
 20
7434.220619012553
 30
0.0
 11
4961.540608108044
 21
7369.220619012556
 31
0.0
  0
LINE
  5
2790
330
1A
100
AcDbEntity
  8
点線
 48
6.0
100
AcDbLine
 10
5021.540608108043
 20
8068.52061901255
 30
0.0
 11
5021.540608108046
 21
8003.520619012558
 31
0.0
  0
LINE
  5
2791
330
1A
100
AcDbEntity
  8
点線
 48
6.0
100
AcDbLine
 10
4961.540608108044
 20
8068.52061901255
 30
0.0
 11
4961.540608108044
 21
8003.520619012558
 31
0.0
  0
LINE
  5
2792
330
1A
100
AcDbEntity
  8
部品1
100
AcDbLine
 10
4991.540608108042
 20
6165.620619012552
 30
0.0
 11
4991.540608108042
 21
6100.620619012554
 31
0.0
  0
LINE
  5
2793
330
1A
100
AcDbEntity
  8
部品1
100
AcDbLine
 10
4991.540608108042
 20
6799.920619012555
 30
0.0
 11
4991.540608108042
 21
6734.920619012557
 31
0.0
  0
LINE
  5
2794
330
1A
100
AcDbEntity
  8
部品1
100
AcDbLine
 10
4991.540608108042
 20
7434.220619012555
 30
0.0
 11
4991.540608108042
 21
7369.220619012555
 31
0.0
  0
LINE
  5
2795
330
1A
100
AcDbEntity
  8
部品1
100
AcDbLine
 10
4991.540608108042
 20
8068.52061901255
 30
0.0
 11
4991.540608108042
 21
8003.520619012558
 31
0.0
  0
LINE
  5
2796
330
1A
100
AcDbEntity
  8
点線
 48
6.0
100
AcDbLine
 10
4991.540608108042
 20
8568.72061901255
 30
0.0
 11
4991.540608108042
 21
8503.720619012547
 31
0.0
  0
LINE
  5
2797
330
1A
100
AcDbEntity
  8
点線
 48
6.0
100
AcDbLine
 10
4991.540608108042
 20
9203.020619012553
 30
0.0
 11
4991.540608108042
 21
9138.020619012552
 31
0.0
  0
LINE
  5
2798
330
1A
100
AcDbEntity
  8
点線
 48
6.0
100
AcDbLine
 10
4991.540608108042
 20
9837.320619012553
 30
0.0
 11
4991.540608108042
 21
9772.320619012553
 31
0.0
  0
LINE
  5
2799
330
1A
100
AcDbEntity
  8
点線
 48
6.0
100
AcDbLine
 10
4991.540608108042
 20
10471.62061901255
 30
0.0
 11
4991.540608108042
 21
10406.62061901255
 31
0.0
  0
LINE
  5
279A
330
1A
100
AcDbEntity
  8
点線
 48
6.0
100
AcDbLine
 10
8011.540608108042
 20
6165.620619012543
 30
0.0
 11
8011.540608108042
 21
6100.620619012554
 31
0.0
  0
LINE
  5
279B
330
1A
100
AcDbEntity
  8
点線
 48
6.0
100
AcDbLine
 10
8011.54060810804
 20
6799.920619012548
 30
0.0
 11
8011.54060810804
 21
6734.920619012552
 31
0.0
  0
LINE
  5
279C
330
1A
100
AcDbEntity
  8
点線
 48
6.0
100
AcDbLine
 10
8011.540608108042
 20
7434.22061901256
 30
0.0
 11
8011.540608108042
 21
7369.220619012553
 31
0.0
  0
LINE
  5
279D
330
1A
100
AcDbEntity
  8
点線
 48
6.0
100
AcDbLine
 10
8011.540608108042
 20
8068.520619012559
 30
0.0
 11
8011.540608108042
 21
8003.520619012558
 31
0.0
  0
LINE
  5
279E
330
1A
100
AcDbEntity
  8
点線
 48
6.0
100
AcDbLine
 10
8011.540608108042
 20
8568.720619012548
 30
0.0
 11
8011.540608108042
 21
8503.720619012547
 31
0.0
  0
LINE
  5
279F
330
1A
100
AcDbEntity
  8
点線
 48
6.0
100
AcDbLine
 10
8011.540608108042
 20
9203.020619012553
 30
0.0
 11
8011.54060810804
 21
9138.02061901255
 31
0.0
  0
LINE
  5
27A0
330
1A
100
AcDbEntity
  8
点線
 48
6.0
100
AcDbLine
 10
8011.540608108042
 20
9837.320619012553
 30
0.0
 11
8011.540608108042
 21
9772.320619012552
 31
0.0
  0
LINE
  5
27A1
330
1A
100
AcDbEntity
  8
点線
 48
6.0
100
AcDbLine
 10
8011.540608108042
 20
10471.62061901255
 30
0.0
 11
8011.540608108042
 21
10406.62061901256
 31
0.0
  0
LINE
  5
27A2
330
1A
100
AcDbEntity
  8
点線
 48
6.0
100
AcDbLine
 10
2221.540608108049
 20
6165.62061901255
 30
0.0
 11
2221.540608108049
 21
6100.620619012557
 31
0.0
  0
LINE
  5
27A3
330
1A
100
AcDbEntity
  8
点線
 48
6.0
100
AcDbLine
 10
2161.540608108047
 20
6165.62061901255
 30
0.0
 11
2161.540608108047
 21
6100.620619012557
 31
0.0
  0
LINE
  5
27A4
330
1A
100
AcDbEntity
  8
点線
 48
6.0
100
AcDbLine
 10
2221.540608108044
 20
6799.920619012553
 30
0.0
 11
2221.540608108044
 21
6734.920619012553
 31
0.0
  0
LINE
  5
27A5
330
1A
100
AcDbEntity
  8
点線
 48
6.0
100
AcDbLine
 10
2161.540608108044
 20
6799.920619012557
 30
0.0
 11
2161.540608108044
 21
6734.920619012553
 31
0.0
  0
LINE
  5
27A6
330
1A
100
AcDbEntity
  8
点線
 48
6.0
100
AcDbLine
 10
2221.540608108044
 20
7434.220619012549
 30
0.0
 11
2221.540608108042
 21
7369.220619012553
 31
0.0
  0
LINE
  5
27A7
330
1A
100
AcDbEntity
  8
点線
 48
6.0
100
AcDbLine
 10
2161.540608108044
 20
7434.220619012549
 30
0.0
 11
2161.540608108044
 21
7369.220619012553
 31
0.0
  0
LINE
  5
27A8
330
1A
100
AcDbEntity
  8
点線
 48
6.0
100
AcDbLine
 10
2221.540608108044
 20
8068.520619012554
 30
0.0
 11
2221.540608108044
 21
8003.520619012558
 31
0.0
  0
LINE
  5
27A9
330
1A
100
AcDbEntity
  8
点線
 48
6.0
100
AcDbLine
 10
2161.540608108042
 20
8068.520619012559
 30
0.0
 11
2161.540608108044
 21
8003.520619012554
 31
0.0
  0
LINE
  5
27AA
330
1A
100
AcDbEntity
  8
点線
 48
6.0
100
AcDbLine
 10
2221.540608108044
 20
8568.720619012543
 30
0.0
 11
2221.540608108046
 21
8503.720619012545
 31
0.0
  0
LINE
  5
27AB
330
1A
100
AcDbEntity
  8
点線
 48
6.0
100
AcDbLine
 10
2161.540608108044
 20
8568.720619012548
 30
0.0
 11
2161.540608108046
 21
8503.720619012545
 31
0.0
  0
LINE
  5
27AC
330
1A
100
AcDbEntity
  8
点線
 48
6.0
100
AcDbLine
 10
2221.540608108044
 20
9203.02061901255
 30
0.0
 11
2221.540608108044
 21
9138.020619012548
 31
0.0
  0
LINE
  5
27AD
330
1A
100
AcDbEntity
  8
点線
 48
6.0
100
AcDbLine
 10
2161.540608108042
 20
9203.020619012553
 30
0.0
 11
2161.540608108044
 21
9138.020619012548
 31
0.0
  0
LINE
  5
27AE
330
1A
100
AcDbEntity
  8
点線
 48
6.0
100
AcDbLine
 10
2221.540608108044
 20
9837.320619012551
 30
0.0
 11
2221.540608108044
 21
9772.32061901255
 31
0.0
  0
LINE
  5
27AF
330
1A
100
AcDbEntity
  8
点線
 48
6.0
100
AcDbLine
 10
2161.540608108044
 20
9837.320619012551
 30
0.0
 11
2161.540608108046
 21
9772.32061901255
 31
0.0
  0
LINE
  5
27B0
330
1A
100
AcDbEntity
  8
点線
 48
6.0
100
AcDbLine
 10
2221.540608108044
 20
10471.62061901255
 30
0.0
 11
2221.540608108042
 21
10406.62061901256
 31
0.0
  0
LINE
  5
27B1
330
1A
100
AcDbEntity
  8
点線
 48
6.0
100
AcDbLine
 10
2161.540608108044
 20
10471.62061901255
 30
0.0
 11
2161.540608108044
 21
10406.62061901256
 31
0.0
  0
LINE
  5
27B2
330
1A
100
AcDbEntity
  8
点線
 48
6.0
100
AcDbLine
 10
1971.540608108042
 20
6165.62061901255
 30
0.0
 11
1971.540608108042
 21
6100.620619012557
 31
0.0
  0
LINE
  5
27B3
330
1A
100
AcDbEntity
  8
点線
 48
6.0
100
AcDbLine
 10
1971.540608108042
 20
6799.920619012557
 30
0.0
 11
1971.540608108042
 21
6734.920619012553
 31
0.0
  0
LINE
  5
27B4
330
1A
100
AcDbEntity
  8
点線
 48
6.0
100
AcDbLine
 10
1971.540608108042
 20
7434.220619012551
 30
0.0
 11
1971.540608108042
 21
7369.220619012553
 31
0.0
  0
LINE
  5
27B5
330
1A
100
AcDbEntity
  8
点線
 48
6.0
100
AcDbLine
 10
1971.540608108044
 20
8068.520619012559
 30
0.0
 11
1971.540608108042
 21
8003.520619012558
 31
0.0
  0
LINE
  5
27B6
330
1A
100
AcDbEntity
  8
点線
 48
6.0
100
AcDbLine
 10
1971.540608108044
 20
8568.720619012543
 30
0.0
 11
1971.540608108042
 21
8503.720619012545
 31
0.0
  0
LINE
  5
27B7
330
1A
100
AcDbEntity
  8
点線
 48
6.0
100
AcDbLine
 10
1971.540608108044
 20
9203.020619012553
 30
0.0
 11
1971.540608108044
 21
9138.020619012548
 31
0.0
  0
LINE
  5
27B8
330
1A
100
AcDbEntity
  8
点線
 48
6.0
100
AcDbLine
 10
1971.540608108044
 20
9837.320619012551
 30
0.0
 11
1971.540608108044
 21
9772.320619012548
 31
0.0
  0
LINE
  5
27B9
330
1A
100
AcDbEntity
  8
点線
 48
6.0
100
AcDbLine
 10
1971.540608108044
 20
10471.62061901255
 30
0.0
 11
1971.540608108044
 21
10406.62061901256
 31
0.0
  0
LINE
  5
27BA
330
1A
100
AcDbEntity
  8
点線
 48
6.0
100
AcDbLine
 10
2011.540608108044
 20
6100.620619012557
 30
0.0
 11
1971.540608108042
 21
6100.620619012557
 31
0.0
  0
LINE
  5
27BB
330
1A
100
AcDbEntity
  8
点線
 48
6.0
100
AcDbLine
 10
2011.540608108044
 20
6145.620619012554
 30
0.0
 11
1971.540608108042
 21
6145.620619012554
 31
0.0
  0
LINE
  5
27BC
330
1A
100
AcDbEntity
  8
点線
 48
6.0
100
AcDbLine
 10
2011.540608108044
 20
6165.62061901255
 30
0.0
 11
1971.540608108042
 21
6165.62061901255
 31
0.0
  0
LINE
  5
27BD
330
1A
100
AcDbEntity
  8
点線
 48
6.0
100
AcDbLine
 10
2011.540608108044
 20
6734.920619012553
 30
0.0
 11
1971.540608108042
 21
6734.920619012553
 31
0.0
  0
LINE
  5
27BE
330
1A
100
AcDbEntity
  8
点線
 48
6.0
100
AcDbLine
 10
2011.540608108044
 20
6779.92061901255
 30
0.0
 11
1971.540608108042
 21
6779.92061901255
 31
0.0
  0
LINE
  5
27BF
330
1A
100
AcDbEntity
  8
点線
 48
6.0
100
AcDbLine
 10
2011.540608108044
 20
6799.920619012557
 30
0.0
 11
1971.540608108042
 21
6799.920619012557
 31
0.0
  0
LINE
  5
27C0
330
1A
100
AcDbEntity
  8
点線
 48
6.0
100
AcDbLine
 10
2011.540608108044
 20
7369.220619012553
 30
0.0
 11
1971.540608108042
 21
7369.220619012553
 31
0.0
  0
LINE
  5
27C1
330
1A
100
AcDbEntity
  8
点線
 48
6.0
100
AcDbLine
 10
2011.540608108044
 20
7414.22061901256
 30
0.0
 11
1971.540608108042
 21
7414.22061901256
 31
0.0
  0
LINE
  5
27C2
330
1A
100
AcDbEntity
  8
点線
 48
6.0
100
AcDbLine
 10
2011.540608108044
 20
7434.220619012551
 30
0.0
 11
1971.540608108042
 21
7434.220619012551
 31
0.0
  0
LINE
  5
27C3
330
1A
100
AcDbEntity
  8
点線
 48
6.0
100
AcDbLine
 10
2011.540608108044
 20
8003.520619012558
 30
0.0
 11
1971.540608108042
 21
8003.520619012558
 31
0.0
  0
LINE
  5
27C4
330
1A
100
AcDbEntity
  8
点線
 48
6.0
100
AcDbLine
 10
2011.540608108044
 20
8048.520619012554
 30
0.0
 11
1971.540608108042
 21
8048.520619012554
 31
0.0
  0
LINE
  5
27C5
330
1A
100
AcDbEntity
  8
点線
 48
6.0
100
AcDbLine
 10
2011.540608108044
 20
8068.520619012559
 30
0.0
 11
1971.540608108042
 21
8068.520619012559
 31
0.0
  0
LINE
  5
27C6
330
1A
100
AcDbEntity
  8
点線
 48
6.0
100
AcDbLine
 10
2011.540608108044
 20
8503.720619012545
 30
0.0
 11
1971.540608108042
 21
8503.720619012545
 31
0.0
  0
LINE
  5
27C7
330
1A
100
AcDbEntity
  8
点線
 48
6.0
100
AcDbLine
 10
2011.540608108044
 20
8523.720619012548
 30
0.0
 11
1971.540608108042
 21
8523.720619012548
 31
0.0
  0
LINE
  5
27C8
330
1A
100
AcDbEntity
  8
点線
 48
6.0
100
AcDbLine
 10
2011.540608108044
 20
8568.720619012543
 30
0.0
 11
1971.540608108042
 21
8568.720619012543
 31
0.0
  0
LINE
  5
27C9
330
1A
100
AcDbEntity
  8
点線
 48
6.0
100
AcDbLine
 10
2011.540608108044
 20
9138.020619012548
 30
0.0
 11
1971.540608108042
 21
9138.020619012548
 31
0.0
  0
LINE
  5
27CA
330
1A
100
AcDbEntity
  8
点線
 48
6.0
100
AcDbLine
 10
2011.540608108044
 20
9158.020619012562
 30
0.0
 11
1971.540608108042
 21
9158.020619012562
 31
0.0
  0
LINE
  5
27CB
330
1A
100
AcDbEntity
  8
点線
 48
6.0
100
AcDbLine
 10
2011.540608108044
 20
9203.020619012553
 30
0.0
 11
1971.540608108044
 21
9203.020619012553
 31
0.0
  0
LINE
  5
27CC
330
1A
100
AcDbEntity
  8
点線
 48
6.0
100
AcDbLine
 10
2011.540608108044
 20
9772.320619012548
 30
0.0
 11
1971.540608108044
 21
9772.320619012548
 31
0.0
  0
LINE
  5
27CD
330
1A
100
AcDbEntity
  8
点線
 48
6.0
100
AcDbLine
 10
2011.540608108044
 20
9792.320619012549
 30
0.0
 11
1971.540608108044
 21
9792.320619012549
 31
0.0
  0
LINE
  5
27CE
330
1A
100
AcDbEntity
  8
点線
 48
6.0
100
AcDbLine
 10
2011.540608108044
 20
9837.320619012551
 30
0.0
 11
1971.540608108044
 21
9837.320619012551
 31
0.0
  0
LINE
  5
27CF
330
1A
100
AcDbEntity
  8
点線
 48
6.0
100
AcDbLine
 10
2011.540608108045
 20
10406.62061901256
 30
0.0
 11
1971.540608108044
 21
10406.62061901256
 31
0.0
  0
LINE
  5
27D0
330
1A
100
AcDbEntity
  8
点線
 48
6.0
100
AcDbLine
 10
2011.540608108045
 20
10426.62061901255
 30
0.0
 11
1971.540608108044
 21
10426.62061901255
 31
0.0
  0
LINE
  5
27D1
330
1A
100
AcDbEntity
  8
点線
 48
6.0
100
AcDbLine
 10
2011.540608108045
 20
10471.62061901255
 30
0.0
 11
1971.540608108044
 21
10471.62061901255
 31
0.0
  0
LINE
  5
27D2
330
1A
100
AcDbEntity
  8
点線
 48
50.0
100
AcDbLine
 10
5021.540608108046
 20
8151.686066800349
 30
0.0
 11
5021.540608108046
 21
8204.620619012549
 31
0.0
  0
LINE
  5
27D3
330
1A
100
AcDbEntity
  8
部品1
100
AcDbLine
 10
4591.540608108044
 20
10108.93821177593
 30
0.0
 11
4591.540608108044
 21
9576.914648508687
 31
0.0
  0
LINE
  5
27D4
330
1A
100
AcDbEntity
  8
部品1
100
AcDbLine
 10
4636.540608108044
 20
10120.99592543533
 30
0.0
 11
4636.540608108045
 21
9427.762820190372
 31
0.0
  0
LINE
  5
27D5
330
1A
100
AcDbEntity
  8
部品1
100
AcDbLine
 10
4664.540608108046
 20
10128.49850282341
 30
0.0
 11
4664.540608108046
 21
9334.957238125637
 31
0.0
  0
SPLINE
  5
27D6
330
1A
100
AcDbEntity
  8
部品1
 48
50.0
100
AcDbSpline
210
0.0
220
0.0
230
1.0
 70
     8
 71
     3
 72
    10
 73
     6
 74
     4
 42
0.0000000001
 43
0.0000000001
 44
0.0000000001
 40
0.0
 40
0.0
 40
0.0
 40
0.0
 40
147.8767566010009
 40
301.8091093202477
 40
466.5049223087739
 40
466.5049223087739
 40
466.5049223087739
 40
466.5049223087739
 10
3526.629052119482
 20
3338.720090254343
 30
0.0
 10
3603.510734614316
 20
3329.815656596505
 30
0.0
 10
3760.422426824443
 20
3311.642150137172
 30
0.0
 10
3437.609016880101
 20
3209.121565497831
 30
0.0
 10
3607.451636549475
 20
3190.486476785626
 30
0.0
 10
3695.241641756368
 20
3180.854179908316
 30
0.0
 11
3526.629052119482
 21
3338.720090254343
 31
0.0
 11
3669.467030428251
 21
3300.446769318014
 31
0.0
 11
3536.157702509077
 21
3223.480592958391
 31
0.0
 11
3695.241641756368
 21
3180.854179908316
 31
0.0
  0
LINE
  5
27D7
330
1A
100
AcDbEntity
  8
部品1
 48
50.0
100
AcDbLine
 10
3203.748489942433
 20
4714.661496733522
 30
0.0
 11
3891.071215973408
 21
2149.538161989176
 31
0.0
  0
SPLINE
  5
27D8
330
1A
100
AcDbEntity
  8
部品1
 48
50.0
100
AcDbSpline
210
0.0
220
0.0
230
1.0
 70
     8
 71
     3
 72
    10
 73
     6
 74
     4
 42
0.0000000001
 43
0.0000000001
 44
0.0000000001
 40
0.0
 40
0.0
 40
0.0
 40
0.0
 40
147.8767566010009
 40
301.8091093202477
 40
466.5049223087734
 40
466.5049223087734
 40
466.5049223087734
 40
466.5049223087734
 10
3345.460288437269
 20
8958.848133207323
 30
0.0
 10
3422.341970932104
 20
8949.943699549487
 30
0.0
 10
3579.253663142231
 20
8931.770193090155
 30
0.0
 10
3256.440253197889
 20
8829.249608450814
 30
0.0
 10
3426.282872867262
 20
8810.614519738608
 30
0.0
 10
3514.072878074156
 20
8800.982222861298
 30
0.0
 11
3345.460288437269
 21
8958.848133207323
 31
0.0
 11
3488.298266746038
 21
8920.574812270997
 31
0.0
 11
3354.988938826864
 21
8843.608635911373
 31
0.0
 11
3514.072878074156
 21
8800.982222861298
 31
0.0
  0
LINE
  5
27D9
330
1A
100
AcDbEntity
  8
部品1
 48
50.0
100
AcDbLine
 10
2901.64592803574
 20
10786.12061901255
 30
0.0
 11
4243.713771359125
 21
5777.455240525285
 31
0.0
  0
LINE
  5
27DA
330
1A
100
AcDbEntity
  8
点線
 48
50.0
100
AcDbLine
 10
7821.540608108044
 20
2099.058816120087
 30
0.0
 11
7761.540608108044
 21
2099.058816120087
 31
0.0
  0
LINE
  5
27DB
330
1A
100
AcDbEntity
  8
点線
 48
10.0
100
AcDbLine
 10
7691.540608108041
 20
2124.058816120085
 30
0.0
 11
7691.540608108041
 21
2114.058816120085
 31
0.0
  0
LINE
  5
27DC
330
1A
100
AcDbEntity
  8
点線
 48
10.0
100
AcDbLine
 10
7891.540608108043
 20
2124.058816120087
 30
0.0
 11
7891.540608108043
 21
2114.058816120087
 31
0.0
  0
LINE
  5
27DD
330
1A
100
AcDbEntity
  8
点線
 48
10.0
100
AcDbLine
 10
7691.540608108041
 20
2124.058816120085
 30
0.0
 11
7761.540608108044
 21
2124.058816120085
 31
0.0
  0
LINE
  5
27DE
330
1A
100
AcDbEntity
  8
点線
 48
10.0
100
AcDbLine
 10
7821.540608108044
 20
2124.058816120087
 30
0.0
 11
7891.540608108043
 21
2124.058816120087
 31
0.0
  0
LINE
  5
27DF
330
1A
100
AcDbEntity
  8
点線
 48
10.0
100
AcDbLine
 10
7821.540608108044
 20
2114.058816120087
 30
0.0
 11
7891.540608108043
 21
2114.058816120087
 31
0.0
  0
LINE
  5
27E0
330
1A
100
AcDbEntity
  8
点線
 48
10.0
100
AcDbLine
 10
7691.540608108041
 20
2114.058816120085
 30
0.0
 11
7761.540608108044
 21
2114.058816120085
 31
0.0
  0
LINE
  5
27E1
330
1A
100
AcDbEntity
  8
点線
 48
10.0
100
AcDbLine
 10
4891.540608108042
 20
2114.058816120085
 30
0.0
 11
4961.540608108044
 21
2114.058816120085
 31
0.0
  0
LINE
  5
27E2
330
1A
100
AcDbEntity
  8
点線
 48
10.0
100
AcDbLine
 10
5021.540608108043
 20
2114.058816120087
 30
0.0
 11
5091.540608108044
 21
2114.058816120087
 31
0.0
  0
LINE
  5
27E3
330
1A
100
AcDbEntity
  8
点線
 48
10.0
100
AcDbLine
 10
5021.540608108043
 20
2124.058816120087
 30
0.0
 11
5091.540608108044
 21
2124.058816120087
 31
0.0
  0
LINE
  5
27E4
330
1A
100
AcDbEntity
  8
点線
 48
10.0
100
AcDbLine
 10
4891.540608108042
 20
2124.058816120085
 30
0.0
 11
4961.540608108044
 21
2124.058816120085
 31
0.0
  0
LINE
  5
27E5
330
1A
100
AcDbEntity
  8
点線
 48
10.0
100
AcDbLine
 10
5091.540608108044
 20
2124.058816120087
 30
0.0
 11
5091.540608108044
 21
2114.058816120087
 31
0.0
  0
LINE
  5
27E6
330
1A
100
AcDbEntity
  8
点線
 48
10.0
100
AcDbLine
 10
4891.540608108042
 20
2124.058816120085
 30
0.0
 11
4891.540608108042
 21
2114.058816120085
 31
0.0
  0
LINE
  5
27E7
330
1A
100
AcDbEntity
  8
点線
 48
50.0
100
AcDbLine
 10
5021.540608108043
 20
2099.058816120087
 30
0.0
 11
4961.540608108044
 21
2099.058816120087
 31
0.0
  0
LINE
  5
27E8
330
1A
100
AcDbEntity
  8
点線
 48
50.0
100
AcDbLine
 10
2221.540608108044
 20
2099.058816120087
 30
0.0
 11
2161.540608108044
 21
2099.058816120087
 31
0.0
  0
LINE
  5
27E9
330
1A
100
AcDbEntity
  8
点線
 48
10.0
100
AcDbLine
 10
2091.540608108042
 20
2124.058816120085
 30
0.0
 11
2091.540608108042
 21
2114.058816120085
 31
0.0
  0
LINE
  5
27EA
330
1A
100
AcDbEntity
  8
点線
 48
10.0
100
AcDbLine
 10
2291.540608108044
 20
2124.058816120087
 30
0.0
 11
2291.540608108044
 21
2114.058816120087
 31
0.0
  0
LINE
  5
27EB
330
1A
100
AcDbEntity
  8
点線
 48
10.0
100
AcDbLine
 10
2091.540608108042
 20
2124.058816120085
 30
0.0
 11
2161.540608108044
 21
2124.058816120085
 31
0.0
  0
LINE
  5
27EC
330
1A
100
AcDbEntity
  8
点線
 48
10.0
100
AcDbLine
 10
2221.540608108044
 20
2124.058816120087
 30
0.0
 11
2291.540608108044
 21
2124.058816120087
 31
0.0
  0
LINE
  5
27ED
330
1A
100
AcDbEntity
  8
点線
 48
10.0
100
AcDbLine
 10
2221.540608108044
 20
2114.058816120087
 30
0.0
 11
2291.540608108044
 21
2114.058816120087
 31
0.0
  0
LINE
  5
27EE
330
1A
100
AcDbEntity
  8
点線
 48
10.0
100
AcDbLine
 10
2091.540608108042
 20
2114.058816120085
 30
0.0
 11
2161.540608108044
 21
2114.058816120085
 31
0.0
  0
TEXT
  5
27EF
330
1A
100
AcDbEntity
  8
部品1
 48
50.0
100
AcDbText
 10
1207.560294255943
 20
2408.450116550416
 30
0.0
 40
100.0
  1
▽G.L
  7
STYLE2
100
AcDbText
  0
TEXT
  5
27F0
330
1A
100
AcDbEntity
  8
文字
 62
     7
 48
50.0
100
AcDbText
 10
13198.2053442172
 20
492.5435242569019
 30
0.0
 40
100.0
  1
○間口奥行寸法は柱芯寸法です。    N : 連続数
  7
STYLE2
100
AcDbText
  0
TEXT
  5
27F1
330
1A
100
AcDbEntity
  8
文字
 62
     7
 48
50.0
100
AcDbText
 10
14498.64186586069
 20
9796.380007906275
 30
0.0
 40
108.152
  1
Y10            0.6
  7
STYLE1
100
AcDbText
  0
TEXT
  5
27F2
330
1A
100
AcDbEntity
  8
文字
 62
     7
 48
50.0
100
AcDbText
 10
14520.08840531452
 20
10347.95520790628
 30
0.0
 40
108.152
  1
PZ            2.3
  7
STYLE1
100
AcDbText
  0
TEXT
  5
27F3
330
1A
100
AcDbEntity
  8
文字
 62
     7
 48
50.0
100
AcDbText
 10
14520.08840531454
 20
10164.09680790627
 30
0.0
 40
108.152
  1
F12            1.6
  7
STYLE1
100
AcDbText
  0
TEXT
  5
27F4
330
1A
100
AcDbEntity
  8
文字
 62
     7
 48
50.0
100
AcDbText
 10
14520.08840531453
 20
10531.81360790627
 30
0.0
 40
108.152
  1
PZ            2.3
  7
STYLE1
100
AcDbText
  0
TEXT
  5
27F5
330
1A
100
AcDbEntity
  8
文字
 62
     7
 48
50.0
100
AcDbText
 10
14343.97162432508
 20
10715.67200790627
 30
0.0
 40
108.152
  1
材料（材質）　　単位mm
  7
STYLE1
100
AcDbText
  0
TEXT
  5
27F6
330
1A
100
AcDbEntity
  8
文字
 62
     7
 48
50.0
100
AcDbText
 10
14498.64186586069
 20
9980.238407906277
 30
0.0
 40
108.152
  1
Y10            1.0
  7
STYLE1
100
AcDbText
  0
TEXT
  5
27F7
330
1A
100
AcDbEntity
  8
文字
 62
     7
 48
50.0
100
AcDbText
 10
14520.08840531453
 20
9060.946407906275
 30
0.0
 40
108.152
  1
F12            2.3
  7
STYLE1
100
AcDbText
  0
TEXT
  5
27F8
330
1A
100
AcDbEntity
  8
文字
 62
     7
 48
50.0
100
AcDbText
 10
14498.64186586069
 20
9244.804807906277
 30
0.0
 40
108.152
  1
Y10            0.7
  7
STYLE1
100
AcDbText
  0
TEXT
  5
27F9
330
1A
100
AcDbEntity
  8
文字
 62
     7
 48
50.0
100
AcDbText
 10
14498.64186586069
 20
9428.663207906277
 30
0.0
 40
108.152
  1
Y10            0.7
  7
STYLE1
100
AcDbText
  0
TEXT
  5
27FA
330
1A
100
AcDbEntity
  8
文字
 62
     7
 48
50.0
100
AcDbText
 10
14520.08840531454
 20
8693.229607906276
 30
0.0
 40
108.152
  1
硬質塩化ビニール
  7
STYLE1
100
AcDbText
  0
TEXT
  5
27FB
330
1A
100
AcDbEntity
  8
文字
 62
     7
 48
50.0
100
AcDbText
 10
14520.08840531455
 20
8877.088007906275
 30
0.0
 40
108.152
  1
F12            1.2
  7
STYLE1
100
AcDbText
  0
TEXT
  5
27FC
330
1A
100
AcDbEntity
  8
文字
 62
     7
 48
50.0
100
AcDbText
 10
14498.64186586069
 20
9612.521607906279
 30
0.0
 40
108.152
  1
Y10            0.5
  7
STYLE1
100
AcDbText
  0
LINE
  5
27FD
330
1A
100
AcDbEntity
  8
部品1
100
AcDbLine
 10
14263.29266991453
 20
10866.6373334581
 30
0.0
 11
14263.29266991453
 21
8660.336533458105
 31
0.0
  0
LINE
  5
27FE
330
1A
100
AcDbEntity
  8
部品1
100
AcDbLine
 10
15909.36610991453
 20
8108.76133345811
 30
0.0
 11
15909.36610991453
 21
10866.63733345811
 31
0.0
  0
TEXT
  5
27FF
330
1A
100
AcDbEntity
  8
文字
 62
     7
 48
50.0
100
AcDbText
 10
12583.0459330226
 20
10715.67200790627
 30
0.0
 40
108.152
  1
品番
  7
STYLE1
100
AcDbText
  0
TEXT
  5
2800
330
1A
100
AcDbEntity
  8
文字
 62
     7
 48
50.0
100
AcDbText
 10
12662.82440382197
 20
10164.09680790627
 30
0.0
 40
108.152
  1
3
  7
STYLE1
100
AcDbText
  0
TEXT
  5
2801
330
1A
100
AcDbEntity
  8
文字
 62
     7
 48
50.0
100
AcDbText
 10
12662.82440382197
 20
10347.95520790628
 30
0.0
 40
108.152
  1
2
  7
STYLE1
100
AcDbText
  0
TEXT
  5
2802
330
1A
100
AcDbEntity
  8
文字
 62
     7
 48
50.0
100
AcDbText
 10
12662.82440382197
 20
9796.380007906273
 30
0.0
 40
108.152
  1
5
  7
STYLE1
100
AcDbText
  0
TEXT
  5
2803
330
1A
100
AcDbEntity
  8
文字
 62
     7
 48
50.0
100
AcDbText
 10
12662.82440382197
 20
9980.238407906277
 30
0.0
 40
108.152
  1
4
  7
STYLE1
100
AcDbText
  0
TEXT
  5
2804
330
1A
100
AcDbEntity
  8
文字
 62
     7
 48
50.0
100
AcDbText
 10
13000.1806313161
 20
10164.09680790627
 30
0.0
 40
108.152
  1
母屋
  7
STYLE1
100
AcDbText
  0
TEXT
  5
2805
330
1A
100
AcDbEntity
  8
文字
 62
     7
 48
50.0
100
AcDbText
 10
13000.1806313161
 20
10347.95520790628
 30
0.0
 40
108.152
  1
梁
  7
STYLE1
100
AcDbText
  0
TEXT
  5
2806
330
1A
100
AcDbEntity
  8
文字
 62
     7
 48
50.0
100
AcDbText
 10
13000.1806313161
 20
9796.380007906275
 30
0.0
 40
108.152
  1
腰パネル
  7
STYLE1
100
AcDbText
  0
TEXT
  5
2807
330
1A
100
AcDbEntity
  8
文字
 62
     7
 48
50.0
100
AcDbText
 10
13000.1806313161
 20
9980.238407906277
 30
0.0
 40
108.152
  1
梁中屋根板
  7
STYLE1
100
AcDbText
  0
TEXT
  5
2808
330
1A
100
AcDbEntity
  8
文字
 62
     7
 48
50.0
100
AcDbText
 10
13000.18063131609
 20
10531.81360790627
 30
0.0
 40
108.152
  1
柱
  7
STYLE1
100
AcDbText
  0
TEXT
  5
2809
330
1A
100
AcDbEntity
  8
文字
 62
     7
 48
50.0
100
AcDbText
 10
12662.82440382197
 20
10531.81360790627
 30
0.0
 40
108.152
  1
1
  7
STYLE1
100
AcDbText
  0
TEXT
  5
280A
330
1A
100
AcDbEntity
  8
文字
 62
     7
 48
50.0
100
AcDbText
 10
12662.82440382196
 20
9428.663207906277
 30
0.0
 40
108.152
  1
7
  7
STYLE1
100
AcDbText
  0
TEXT
  5
280B
330
1A
100
AcDbEntity
  8
文字
 62
     7
 48
50.0
100
AcDbText
 10
12662.82440382196
 20
9244.804807906275
 30
0.0
 40
108.152
  1
8
  7
STYLE1
100
AcDbText
  0
TEXT
  5
280C
330
1A
100
AcDbEntity
  8
文字
 62
     7
 48
50.0
100
AcDbText
 10
12662.82440382196
 20
9060.946407906275
 30
0.0
 40
108.152
  1
9
  7
STYLE1
100
AcDbText
  0
TEXT
  5
280D
330
1A
100
AcDbEntity
  8
文字
 62
     7
 48
50.0
100
AcDbText
 10
12638.58445960569
 20
8877.088007906273
 30
0.0
 40
108.152
  1
10
  7
STYLE1
100
AcDbText
  0
TEXT
  5
280E
330
1A
100
AcDbEntity
  8
文字
 62
     7
 48
50.0
100
AcDbText
 10
13000.1806313161
 20
9244.804807906277
 30
0.0
 40
108.152
  1
鼻隠シ
  7
STYLE1
100
AcDbText
  0
TEXT
  5
280F
330
1A
100
AcDbEntity
  8
文字
 62
     7
 48
50.0
100
AcDbText
 10
13000.1806313161
 20
9060.946407906275
 30
0.0
 40
108.152
  1
プレート
  7
STYLE1
100
AcDbText
  0
TEXT
  5
2810
330
1A
100
AcDbEntity
  8
文字
 62
     7
 48
50.0
100
AcDbText
 10
13000.1806313161
 20
8877.088007906275
 30
0.0
 40
108.152
  1
車止メ棒
  7
STYLE1
100
AcDbText
  0
TEXT
  5
2811
330
1A
100
AcDbEntity
  8
文字
 62
     7
 48
50.0
100
AcDbText
 10
13000.1806313161
 20
9428.663207906277
 30
0.0
 40
108.152
  1
妻板
  7
STYLE1
100
AcDbText
  0
TEXT
  5
2812
330
1A
100
AcDbEntity
  8
文字
 62
     7
 48
50.0
100
AcDbText
 10
13000.1806313161
 20
8693.22960790628
 30
0.0
 40
108.152
  1
雨とい
  7
STYLE1
100
AcDbText
  0
TEXT
  5
2813
330
1A
100
AcDbEntity
  8
文字
 62
     7
 48
50.0
100
AcDbText
 10
12638.58445960569
 20
8693.229607906271
 30
0.0
 40
108.152
  1
11
  7
STYLE1
100
AcDbText
  0
LINE
  5
2814
330
1A
100
AcDbEntity
  8
部品1
100
AcDbLine
 10
12509.36610991453
 20
10866.63733345811
 30
0.0
 11
12509.36610991453
 21
8108.761333458115
 31
0.0
  0
TEXT
  5
2815
330
1A
100
AcDbEntity
  8
文字
 62
     7
 48
50.0
100
AcDbText
 10
12662.82440382197
 20
9612.521607906275
 30
0.0
 40
108.152
  1
6
  7
STYLE1
100
AcDbText
  0
LINE
  5
2816
330
1A
100
AcDbEntity
  8
部品1
100
AcDbLine
 10
12899.68775028809
 20
10866.63733345811
 30
0.0
 11
12899.68775028812
 21
8660.336533458105
 31
0.0
  0
TEXT
  5
2817
330
1A
100
AcDbEntity
  8
文字
 62
     7
 48
50.0
100
AcDbText
 10
13000.1806313161
 20
9612.521607906279
 30
0.0
 40
108.152
  1
屋根パネル
  7
STYLE1
100
AcDbText
  0
LINE
  5
2818
330
1A
100
AcDbEntity
  8
部品1
100
AcDbLine
 10
15909.36610991453
 20
8108.76133345811
 30
0.0
 11
12509.36610991453
 21
8108.761333458113
 31
0.0
  0
LINE
  5
2819
330
1A
100
AcDbEntity
  8
部品1
100
AcDbLine
 10
15909.36610991453
 20
8844.194933458105
 30
0.0
 11
12509.36610991453
 21
8844.194933458108
 31
0.0
  0
LINE
  5
281A
330
1A
100
AcDbEntity
  8
部品1
100
AcDbLine
 10
15909.36610991453
 20
9395.770133458107
 30
0.0
 11
12509.36610991453
 21
9395.770133458107
 31
0.0
  0
LINE
  5
281B
330
1A
100
AcDbEntity
  8
部品1
100
AcDbLine
 10
15909.36610991453
 20
8476.47813345811
 30
0.0
 11
12509.36610991453
 21
8476.47813345811
 31
0.0
  0
LINE
  5
281C
330
1A
100
AcDbEntity
  8
部品1
100
AcDbLine
 10
15909.36610991453
 20
8292.61973345811
 30
0.0
 11
12509.36610991453
 21
8292.619733458112
 31
0.0
  0
LINE
  5
281D
330
1A
100
AcDbEntity
  8
部品1
100
AcDbLine
 10
15909.36610991453
 20
8660.336533458103
 30
0.0
 11
12509.36610991453
 21
8660.336533458103
 31
0.0
  0
TEXT
  5
281E
330
1A
100
AcDbEntity
  8
文字
 62
     7
 48
50.0
100
AcDbText
 10
13187.01391724483
 20
10715.67200790627
 30
0.0
 40
108.152
  1
部　　品　　名
  7
STYLE1
100
AcDbText
  0
LINE
  5
281F
330
1A
100
AcDbEntity
  8
部品1
100
AcDbLine
 10
15909.36610991453
 20
10131.2037334581
 30
0.0
 11
12509.36610991453
 21
10131.2037334581
 31
0.0
  0
LINE
  5
2820
330
1A
100
AcDbEntity
  8
部品1
100
AcDbLine
 10
15909.36610991453
 20
9579.628533458109
 30
0.0
 11
12509.36610991453
 21
9579.628533458109
 31
0.0
  0
LINE
  5
2821
330
1A
100
AcDbEntity
  8
部品1
100
AcDbLine
 10
15909.36610991453
 20
9763.486933458105
 30
0.0
 11
12509.36610991453
 21
9763.486933458105
 31
0.0
  0
LINE
  5
2822
330
1A
100
AcDbEntity
  8
部品1
100
AcDbLine
 10
15909.36610991453
 20
10498.9205334581
 30
0.0
 11
12509.36610991453
 21
10498.9205334581
 31
0.0
  0
LINE
  5
2823
330
1A
100
AcDbEntity
  8
部品1
100
AcDbLine
 10
15909.36610991453
 20
10315.06213345811
 30
0.0
 11
12509.36610991453
 21
10315.06213345811
 31
0.0
  0
LINE
  5
2824
330
1A
100
AcDbEntity
  8
部品1
100
AcDbLine
 10
15909.36610991453
 20
10682.7789334581
 30
0.0
 11
12509.36610991453
 21
10682.77893345811
 31
0.0
  0
LINE
  5
2825
330
1A
100
AcDbEntity
  8
部品1
100
AcDbLine
 10
15909.36610991453
 20
10866.63733345811
 30
0.0
 11
12509.36610991453
 21
10866.63733345811
 31
0.0
  0
LINE
  5
2826
330
1A
100
AcDbEntity
  8
部品1
100
AcDbLine
 10
15909.36610991453
 20
9028.053333458109
 30
0.0
 11
12509.36610991453
 21
9028.05333345811
 31
0.0
  0
TEXT
  5
2827
330
1A
100
AcDbEntity
  8
文字
 62
     7
 48
50.0
100
AcDbText
 10
12618.09327102003
 20
8325.512807906278
 30
0.0
 40
108.152
  1
F12→溶融亜鉛めっき鋼板(JIS G 3302)
  7
STYLE1
100
AcDbText
  0
TEXT
  5
2828
330
1A
100
AcDbEntity
  8
文字
 62
     7
 48
50.0
100
AcDbText
 10
12618.09327102002
 20
8141.654407906274
 30
0.0
 40
108.152
  1
Y10→溶融亜鉛-5％アルミニウム合金めっき鋼板(JIS G 3317)
 41
0.9
  7
STYLE1
100
AcDbText
  0
TEXT
  5
2829
330
1A
100
AcDbEntity
  8
文字
 62
     7
 48
50.0
100
AcDbText
 10
12618.09327102024
 20
8509.371207906276
 30
0.0
 40
108.152
  1
PZ→一般構造用角形鋼管(JIS G 3466)
 41
0.9
  7
STYLE1
100
AcDbText
  0
LINE
  5
282A
330
1A
100
AcDbEntity
  8
部品1
100
AcDbLine
 10
15909.36610991453
 20
9211.911733458107
 30
0.0
 11
12509.36610991453
 21
9211.911733458107
 31
0.0
  0
LINE
  5
282B
330
1A
100
AcDbEntity
  8
部品1
100
AcDbLine
 10
15909.36610991453
 20
9947.345333458102
 30
0.0
 11
12509.36610991453
 21
9947.345333458102
 31
0.0
  0
LINE
  5
282C
330
1A
100
AcDbEntity
  8
Ｇ．Ｌ
100
AcDbLine
 10
1201.701318365929
 20
2369.058816120085
 30
0.0
 11
15256.88218203101
 21
2369.058816120087
 31
0.0
  0
LINE
  5
282D
330
1A
100
AcDbEntity
  8
部品1
100
AcDbLine
 10
2224.540608108046
 20
4213.429171466534
 30
0.0
 11
4958.540608108042
 21
4213.429171466532
 31
0.0
  0
LINE
  5
282E
330
1A
100
AcDbEntity
  8
部品1
100
AcDbLine
 10
2224.540608108044
 20
4262.932076724847
 30
0.0
 11
4958.540608108042
 21
4262.932076724847
 31
0.0
  0
LINE
  5
282F
330
1A
100
AcDbEntity
  8
部品1
100
AcDbLine
 10
2224.540608108044
 20
4292.929180891515
 30
0.0
 11
4958.540608108042
 21
4292.929180891515
 31
0.0
  0
LINE
  5
2830
330
1A
100
AcDbEntity
  8
部品1
100
AcDbLine
 10
2224.540608108044
 20
4322.926285058182
 30
0.0
 11
4958.540608108042
 21
4322.926285058182
 31
0.0
  0
LINE
  5
2831
330
1A
100
AcDbEntity
  8
部品1
100
AcDbLine
 10
2224.540608108042
 20
4352.923389224847
 30
0.0
 11
4958.540608108044
 21
4352.923389224848
 31
0.0
  0
LINE
  5
2832
330
1A
100
AcDbEntity
  8
部品1
100
AcDbLine
 10
1955.118766189067
 20
4365.187199662496
 30
0.0
 11
8024.094148213297
 21
4365.187199662494
 31
0.0
  0
LINE
  5
2833
330
1A
100
AcDbEntity
  8
細線
100
AcDbLine
 10
1942.118766189067
 20
4403.187199662492
 30
0.0
 11
8038.194628534144
 21
4403.187199662494
 31
0.0
  0
LINE
  5
2834
330
1A
100
AcDbEntity
  8
細線
100
AcDbLine
 10
1942.118766189069
 20
4415.187199662496
 30
0.0
 11
8038.716950773965
 21
4415.187199662493
 31
0.0
  0
LINE
  5
2835
330
1A
100
AcDbEntity
  8
部品1
100
AcDbLine
 10
1955.118766189069
 20
4480.058816120084
 30
0.0
 11
8027.962450027018
 21
4480.058816120088
 31
0.0
  0
LINE
  5
2836
330
1A
100
AcDbEntity
  8
部品1
100
AcDbLine
 10
1951.540608108044
 20
5886.120619012551
 30
0.0
 11
8031.540608108043
 21
5886.120619012551
 31
0.0
  0
LINE
  5
2837
330
1A
100
AcDbEntity
  8
センター
 48
10.0
100
AcDbLine
 10
1971.540608108042
 20
6123.120619012554
 30
0.0
 11
8011.540608108042
 21
6123.120619012554
 31
0.0
  0
LINE
  5
2838
330
1A
100
AcDbEntity
  8
センター
 48
10.0
100
AcDbLine
 10
1971.540608108044
 20
6757.420619012553
 30
0.0
 11
8011.54060810804
 21
6757.420619012553
 31
0.0
  0
LINE
  5
2839
330
1A
100
AcDbEntity
  8
センター
 48
10.0
100
AcDbLine
 10
1971.540608108044
 20
7391.720619012547
 30
0.0
 11
8011.540608108042
 21
7391.720619012557
 31
0.0
  0
LINE
  5
283A
330
1A
100
AcDbEntity
  8
センター
 48
10.0
100
AcDbLine
 10
1971.540608108044
 20
8026.020619012554
 30
0.0
 11
8011.540608108042
 21
8026.020619012562
 31
0.0
  0
LINE
  5
283B
330
1A
100
AcDbEntity
  8
部品1
100
AcDbLine
 10
2011.540608108044
 20
8367.620619012548
 30
0.0
 11
4956.391860291081
 21
8367.620619012553
 31
0.0
  0
LINE
  5
283C
330
1A
100
AcDbEntity
  8
細線
100
AcDbLine
 10
2011.540608108044
 20
8357.620619012555
 30
0.0
 11
4959.408920189531
 21
8357.620619012555
 31
0.0
  0
LINE
  5
283D
330
1A
100
AcDbEntity
  8
細線
100
AcDbLine
 10
2011.540608108044
 20
8214.620619012555
 30
0.0
 11
5002.5528767374
 21
8214.620619012547
 31
0.0
  0
LINE
  5
283E
330
1A
100
AcDbEntity
  8
部品1
100
AcDbLine
 10
2011.540608108044
 20
8204.620619012551
 30
0.0
 11
5005.569936635851
 21
8204.620619012551
 31
0.0
  0
DIMENSION
  5
283F
330
1A
100
AcDbEntity
  8
寸法
100
AcDbDimension
  2
*D62
 10
7791.540608108045
 20
4796.274603944512
 30
0.0
 11
4991.540608108045
 21
4896.286414968134
 31
0.0
 70
    32
  1
N X 2800
 71
     5
 42
5600.0
  3
物置仕様図40
100
AcDbAlignedDimension
 13
2191.540608108044
 23
4350.354811104376
 33
0.0
 14
7791.540608108045
 24
4350.354811104376
 34
0.0
100
AcDbRotatedDimension
1001
ACAD
1000
DSTYLE
1002
{
1070
   279
1070
     0
1002
}
  0
DIMENSION
  5
2840
330
1A
100
AcDbEntity
  8
寸法
100
AcDbDimension
  2
*D63
 10
8041.540608108043
 20
5076.274603944511
 30
0.0
 11
4991.540608108044
 21
5176.286414968133
 31
0.0
 70
    32
  1
N X 2800 + 500
 71
     5
 42
6100.0
  3
物置仕様図40
100
AcDbAlignedDimension
 13
1941.540608108043
 23
4679.058816120089
 33
0.0
 14
8041.540608108043
 24
4679.058816120089
 34
0.0
100
AcDbRotatedDimension
  0
POINT
  5
2841
330
1A
100
AcDbEntity
  8
寸法
100
AcDbPoint
 10
2191.540608108044
 20
1812.9827369265
 30
0.0
  0
INSERT
  5
2842
330
1A
100
AcDbEntity
  8
寸法
100
AcDbBlockReference
  2
_DOTSMALL
 10
2191.540608108044
 20
1812.9827369265
 30
0.0
 41
100.0
 42
100.0
 43
100.0
 50
180.0
  0
LINE
  5
2843
330
1A
100
AcDbEntity
  8
寸法
100
AcDbLine
 10
2191.540608108044
 20
2065.747464225399
 30
0.0
 11
2191.540608108044
 21
1772.9827369265
 31
0.0
  0
LINE
  5
2844
330
1A
100
AcDbEntity
  8
寸法
100
AcDbLine
 10
3851.540608108044
 20
1812.982736926502
 30
0.0
 11
4991.540608108044
 21
1812.9827369265
 31
0.0
  0
MTEXT
  5
2845
330
1A
100
AcDbEntity
  8
寸法
  6
ByBlock
 62
     7
100
AcDbMText
 10
4386.533811426139
 20
1912.994547950123
 30
0.0
 40
120.0
 41
0.0
 71
     5
 72
     1
  1
\A1;2800
 73
     1
 44
1.0
1001
ACAD
1000
MTEXTBEGIN
1070
    73
1070
     1
1070
    44
1040
1.0
1070
    74
1070
     0
1000
MTEXTEND
  0
LINE
  5
2846
330
1A
100
AcDbEntity
  8
寸法
100
AcDbLine
 10
2191.540608108044
 20
1812.9827369265
 30
0.0
 11
3751.540608108044
 21
1812.982736926502
 31
0.0
  0
MTEXT
  5
2847
330
1A
100
AcDbEntity
  8
寸法
  6
ByBlock
 62
     7
100
AcDbMText
 10
3215.201201500364
 20
1912.994547950123
 30
0.0
 40
120.0
 41
0.0
 71
     5
 72
     1
  1
\A1;2800
 73
     1
 44
1.0
1001
ACAD
1000
MTEXTBEGIN
1070
    73
1070
     1
1070
    44
1040
1.0
1070
    74
1070
     0
1000
MTEXTEND
  0
LINE
  5
2848
330
1A
100
AcDbEntity
  8
寸法
100
AcDbLine
 10
8656.993531295164
 20
5886.120619012552
 30
0.0
 11
8656.993531295164
 21
5686.120619012552
 31
0.0
  0
LINE
  5
2849
330
1A
100
AcDbEntity
  8
寸法
100
AcDbLine
 10
8656.993531295164
 20
10686.12061901255
 30
0.0
 11
8656.993531295164
 21
10886.12061901255
 31
0.0
  0
TEXT
  5
284A
330
1A
100
AcDbEntity
  8
仕様書枠
 62
     7
 48
50.0
100
AcDbText
 10
14507.17944936723
 20
1295.557706291229
 30
0.0
 40
100.0
  1
NO.06     <縮尺> S=1/40
  7
STYLE2
100
AcDbText
  0
LINE
  5
284B
330
1A
100
AcDbEntity
  8
寸法
100
AcDbLine
 10
14279.78336771315
 20
4480.058816120087
 30
0.0
 11
14605.83650485156
 21
4495.478412397248
 31
0.0
  0
LINE
  5
284C
330
1A
100
AcDbEntity
  8
寸法
100
AcDbLine
 10
14285.21583790812
 20
4365.187199662494
 30
0.0
 11
14611.26897504653
 21
4380.606795939654
 31
0.0
  0
POINT
  5
284D
330
1A
100
AcDbEntity
  8
寸法
100
AcDbPoint
 10
14571.31363019172
 20
4378.717241089229
 30
0.0
  0
POINT
  5
284E
330
1A
100
AcDbEntity
  8
寸法
100
AcDbPoint
 10
14571.31363019172
 20
4378.717241089229
 30
0.0
  0
INSERT
  5
284F
330
1A
100
AcDbEntity
  8
寸法
100
AcDbBlockReference
  2
_DOTSMALL
 10
14565.88115999675
 20
4493.588857546821
 30
0.0
 41
99.99999999999976
 42
100.0
 43
100.0
 50
92.7075955944894
  0
INSERT
  5
2850
330
1A
100
AcDbEntity
  8
寸法
100
AcDbBlockReference
  2
_DOTSMALL
 10
14565.88115999674
 20
4493.588857546821
 30
0.0
 41
99.99999999999976
 42
100.0
 43
100.0
 50
92.7075955944894
  0
INSERT
  5
2851
330
1A
100
AcDbEntity
  8
寸法
100
AcDbBlockReference
  2
_DOTSMALL
 10
14571.31363019172
 20
4378.717241089229
 30
0.0
 41
99.99999999999976
 42
100.0
 43
100.0
 50
272.7075955944894
  0
INSERT
  5
2852
330
1A
100
AcDbEntity
  8
寸法
100
AcDbBlockReference
  2
_DOTSMALL
 10
14571.31363019172
 20
4378.717241089229
 30
0.0
 41
99.99999999999976
 42
100.0
 43
100.0
 50
272.7075955944894
  0
LINE
  5
2853
330
1A
100
AcDbEntity
  8
寸法
100
AcDbLine
 10
14565.88115999675
 20
4493.588857546821
 30
0.0
 11
14571.31363019172
 21
4378.717241089229
 31
0.0
  0
LINE
  5
2854
330
1A
100
AcDbEntity
  8
寸法
100
AcDbLine
 10
14565.88115999674
 20
4493.588857546821
 30
0.0
 11
14571.31363019172
 21
4378.717241089229
 31
0.0
  0
MTEXT
  5
2855
330
1A
100
AcDbEntity
  8
寸法
  6
ByBlock
 62
     7
100
AcDbMText
 10
14689.49538718285
 20
4446.751577030763
 30
0.0
 40
120.0
 41
0.0
 71
     5
 72
     1
  1
\A1;115
 11
-0.0472388712606028
 21
0.9988836213703898
 31
0.0
 73
     1
 44
1.0
1001
ACAD
1000
MTEXTBEGIN
1070
    73
1070
     1
1070
    44
1040
1.0
1070
    74
1070
     0
1000
MTEXTEND
  0
LINE
  5
2856
330
1A
100
AcDbEntity
  8
仕様書枠
 48
50.0
100
AcDbLine
 10
16296.0
 20
1464.0
 30
0.0
 11
16296.0
 21
264.0
 31
0.0
  0
LINE
  5
2857
330
1A
100
AcDbEntity
  8
仕様書枠
  6
Continuous
 48
50.0
100
AcDbLine
 10
14240.0
 20
1464.0
 30
0.0
 11
14240.0
 21
1064.0
 31
0.0
  0
TEXT
  5
2858
330
1A
100
AcDbEntity
  8
文字
 62
     7
 48
50.0
100
AcDbText
 10
14642.72383614939
 20
747.8967129911416
 30
0.0
 40
160.0
  1
BF-２８VL
  7
MSGOTHIC
100
AcDbText
  0
TEXT
  5
2859
330
1A
100
AcDbEntity
  8
文字
 62
     7
 48
50.0
100
AcDbText
 10
14840.42318972916
 20
1102.252727072919
 30
0.0
 40
100.0
  1
～一般型～
  7
STYLE2
100
AcDbText
  0
LINE
  5
285A
330
1A
100
AcDbEntity
  8
仕様書枠
  6
Continuous
 48
50.0
100
AcDbLine
 10
13096.0
 20
1464.0
 30
0.0
 11
13096.0
 21
264.0
 31
0.0
  0
LINE
  5
285B
330
1A
100
AcDbEntity
  8
仕様書枠
 48
50.0
100
AcDbLine
 10
13096.0
 20
1464.0
 30
0.0
 11
16296.0
 21
1464.0
 31
0.0
  0
LINE
  5
285C
330
1A
100
AcDbEntity
  8
文字
 62
     7
 48
50.0
100
AcDbLine
 10
13176.0
 20
664.0
 30
0.0
 11
16216.0
 21
664.0
 31
0.0
  0
TEXT
  5
285D
330
1A
100
AcDbEntity
  8
文字
 62
     7
 48
50.0
100
AcDbText
 10
13151.7790565769
 20
1159.09060742994
 30
0.0
 40
200.0
  1
外 形 図
  7
STYLE2
100
AcDbText
  0
TEXT
  5
285E
330
1A
100
AcDbEntity
  8
文字
 62
     7
 48
50.0
100
AcDbText
 10
13190.23669998441
 20
741.2740661031257
 30
0.0
 40
160.0
  1
機種名
  7
STYLE2
100
AcDbText
  0
LINE
  5
285F
330
1A
100
AcDbEntity
  8
仕様書枠
 48
50.0
100
AcDbLine
 10
13096.0
 20
1064.0
 30
0.0
 11
14240.0
 21
1064.0
 31
0.0
  0
LINE
  5
2860
330
1A
100
AcDbEntity
  8
仕様書枠
 48
50.0
100
AcDbLine
 10
128.8000000000011
 20
264.0
 30
0.0
 11
16296.0
 21
264.0
 31
0.0
  0
LINE
  5
2861
330
1A
100
AcDbEntity
  8
細線
100
AcDbLine
 10
13182.67557129805
 20
2369.058816120087
 30
0.0
 11
13232.67557129805
 21
2419.058816120087
 31
0.0
  0
LINE
  5
2862
330
1A
100
AcDbEntity
  8
細線
100
AcDbLine
 10
13216.35153175206
 20
2369.058816120087
 30
0.0
 11
13266.35153175206
 21
2419.058816120087
 31
0.0
  0
LINE
  5
2863
330
1A
100
AcDbEntity
  8
細線
100
AcDbLine
 10
13250.02749220607
 20
2369.058816120087
 30
0.0
 11
13300.02749220607
 21
2419.058816120087
 31
0.0
  0
LINE
  5
2864
330
1A
100
AcDbEntity
  8
細線
100
AcDbLine
 10
12172.39675767777
 20
2369.058816120087
 30
0.0
 11
12222.39675767777
 21
2419.058816120087
 31
0.0
  0
LINE
  5
2865
330
1A
100
AcDbEntity
  8
細線
100
AcDbLine
 10
12105.04483676975
 20
2369.058816120087
 30
0.0
 11
12155.04483676975
 21
2419.058816120087
 31
0.0
  0
LINE
  5
2866
330
1A
100
AcDbEntity
  8
細線
100
AcDbLine
 10
12138.72079722376
 20
2369.058816120087
 30
0.0
 11
12188.72079722376
 21
2419.058816120087
 31
0.0
  0
LINE
  5
2867
330
1A
100
AcDbEntity
  8
細線
100
AcDbLine
 10
11061.09006269546
 20
2369.058816120087
 30
0.0
 11
11111.09006269546
 21
2419.058816120087
 31
0.0
  0
LINE
  5
2868
330
1A
100
AcDbEntity
  8
細線
100
AcDbLine
 10
11027.41410224145
 20
2369.058816120087
 30
0.0
 11
11077.41410224145
 21
2419.058816120087
 31
0.0
  0
LINE
  5
2869
330
1A
100
AcDbEntity
  8
細線
100
AcDbLine
 10
11094.76602314947
 20
2369.058816120087
 30
0.0
 11
11144.76602314947
 21
2419.058816120087
 31
0.0
  0
LINE
  5
286A
330
1A
100
AcDbEntity
  8
細線
100
AcDbLine
 10
9949.783367713157
 20
2369.058816120087
 30
0.0
 11
9999.783367713156
 21
2419.058816120087
 31
0.0
  0
LINE
  5
286B
330
1A
100
AcDbEntity
  8
細線
100
AcDbLine
 10
9983.459328167166
 20
2369.058816120087
 30
0.0
 11
10033.45932816716
 21
2419.058816120087
 31
0.0
  0
LINE
  5
286C
330
1A
100
AcDbEntity
  8
細線
100
AcDbLine
 10
10017.13528862117
 20
2369.058816120087
 30
0.0
 11
10067.13528862117
 21
2419.058816120087
 31
0.0
  0
LINE
  5
286D
330
1A
100
AcDbEntity
  8
細線
100
AcDbLine
 10
7447.046201657555
 20
2369.058816120087
 30
0.0
 11
7497.046201657555
 21
2419.058816120087
 31
0.0
  0
LINE
  5
286E
330
1A
100
AcDbEntity
  8
細線
100
AcDbLine
 10
7413.370241203546
 20
2369.058816120087
 30
0.0
 11
7463.370241203548
 21
2419.058816120088
 31
0.0
  0
LINE
  5
286F
330
1A
100
AcDbEntity
  8
細線
100
AcDbLine
 10
7379.694280749537
 20
2369.058816120087
 30
0.0
 11
7429.694280749538
 21
2419.058816120088
 31
0.0
  0
LINE
  5
2870
330
1A
100
AcDbEntity
  8
細線
100
AcDbLine
 10
6335.739506675247
 20
2369.058816120087
 30
0.0
 11
6385.739506675247
 21
2419.058816120087
 31
0.0
  0
LINE
  5
2871
330
1A
100
AcDbEntity
  8
細線
100
AcDbLine
 10
6302.063546221237
 20
2369.058816120087
 30
0.0
 11
6352.063546221238
 21
2419.058816120087
 31
0.0
  0
LINE
  5
2872
330
1A
100
AcDbEntity
  8
細線
100
AcDbLine
 10
6369.415467129257
 20
2369.058816120087
 30
0.0
 11
6419.415467129256
 21
2419.058816120087
 31
0.0
  0
LINE
  5
2873
330
1A
100
AcDbEntity
  8
細線
100
AcDbLine
 10
5291.784732600958
 20
2369.058816120087
 30
0.0
 11
5341.784732600958
 21
2419.058816120087
 31
0.0
  0
LINE
  5
2874
330
1A
100
AcDbEntity
  8
細線
100
AcDbLine
 10
5258.108772146949
 20
2369.058816120087
 30
0.0
 11
5308.108772146948
 21
2419.058816120087
 31
0.0
  0
LINE
  5
2875
330
1A
100
AcDbEntity
  8
細線
100
AcDbLine
 10
5224.432811692939
 20
2369.058816120087
 30
0.0
 11
5274.432811692939
 21
2419.058816120087
 31
0.0
  0
LINE
  5
2876
330
1A
100
AcDbEntity
  8
細線
100
AcDbLine
 10
4214.153998072659
 20
2369.058816120087
 30
0.0
 11
4264.153998072659
 21
2419.058816120087
 31
0.0
  0
LINE
  5
2877
330
1A
100
AcDbEntity
  8
細線
100
AcDbLine
 10
4180.47803761865
 20
2369.058816120087
 30
0.0
 11
4230.47803761865
 21
2419.058816120087
 31
0.0
  0
LINE
  5
2878
330
1A
100
AcDbEntity
  8
細線
100
AcDbLine
 10
4146.80207716464
 20
2369.058816120087
 30
0.0
 11
4196.80207716464
 21
2419.058816120087
 31
0.0
  0
LINE
  5
2879
330
1A
100
AcDbEntity
  8
細線
100
AcDbLine
 10
3136.523263544361
 20
2369.058816120087
 30
0.0
 11
3186.523263544361
 21
2419.058816120087
 31
0.0
  0
LINE
  5
287A
330
1A
100
AcDbEntity
  8
細線
100
AcDbLine
 10
3102.847303090352
 20
2369.058816120087
 30
0.0
 11
3152.847303090352
 21
2419.058816120087
 31
0.0
  0
LINE
  5
287B
330
1A
100
AcDbEntity
  8
細線
100
AcDbLine
 10
3069.171342636342
 20
2369.058816120087
 30
0.0
 11
3119.171342636342
 21
2419.058816120087
 31
0.0
  0
LINE
  5
287C
330
1A
100
AcDbEntity
  8
細線
100
AcDbLine
 10
2058.892529016063
 20
2369.058816120087
 30
0.0
 11
2108.892529016062
 21
2419.058816120087
 31
0.0
  0
LINE
  5
287D
330
1A
100
AcDbEntity
  8
細線
100
AcDbLine
 10
2025.216568562053
 20
2369.058816120087
 30
0.0
 11
2075.216568562053
 21
2419.058816120087
 31
0.0
  0
LINE
  5
287E
330
1A
100
AcDbEntity
  8
細線
100
AcDbLine
 10
1991.540608108044
 20
2369.058816120087
 30
0.0
 11
2041.540608108044
 21
2419.058816120087
 31
0.0
  0
LINE
  5
287F
330
1A
100
AcDbEntity
  8
部品1
100
AcDbLine
 10
6533.540608108038
 20
5956.120619012552
 30
0.0
 11
6533.54060810804
 21
8251.120619012555
 31
0.0
  0
LINE
  5
2880
330
1A
100
AcDbEntity
  8
部品1
100
AcDbLine
 10
6578.540608108038
 20
5956.120619012552
 30
0.0
 11
6578.540608108039
 21
8251.120619012555
 31
0.0
  0
LINE
  5
2881
330
1A
100
AcDbEntity
  8
部品1
100
AcDbLine
 10
6606.540608108038
 20
5956.120619012552
 30
0.0
 11
6606.54060810804
 21
8251.120619012555
 31
0.0
  0
LINE
  5
2882
330
1A
100
AcDbEntity
  8
部品1
100
AcDbLine
 10
6651.54060810804
 20
5956.120619012552
 30
0.0
 11
6651.54060810804
 21
8251.120619012555
 31
0.0
  0
LINE
  5
2883
330
1A
100
AcDbEntity
  8
部品1
100
AcDbLine
 10
6788.540608108043
 20
5956.120619012557
 30
0.0
 11
6788.540608108043
 21
8251.120619012551
 31
0.0
  0
LINE
  5
2884
330
1A
100
AcDbEntity
  8
部品1
100
AcDbLine
 10
6823.040608108046
 20
5956.120619012557
 30
0.0
 11
6823.040608108041
 21
8251.120619012555
 31
0.0
  0
LINE
  5
2885
330
1A
100
AcDbEntity
  8
部品1
100
AcDbLine
 10
6834.540608108044
 20
8321.120619012553
 30
0.0
 11
6834.540608108044
 21
10616.12061901255
 31
0.0
  0
LINE
  5
2886
330
1A
100
AcDbEntity
  8
部品1
100
AcDbLine
 10
6800.040608108044
 20
8321.120619012553
 30
0.0
 11
6800.040608108044
 21
10616.12061901255
 31
0.0
  0
LINE
  5
2887
330
1A
100
AcDbEntity
  8
部品1
100
AcDbLine
 10
6669.540608108045
 20
10616.12061901255
 30
0.0
 11
6669.540608108043
 21
8321.120619012553
 31
0.0
  0
LINE
  5
2888
330
1A
100
AcDbEntity
  8
部品1
100
AcDbLine
 10
6624.540608108046
 20
10616.12061901255
 30
0.0
 11
6624.540608108043
 21
8321.120619012553
 31
0.0
  0
LINE
  5
2889
330
1A
100
AcDbEntity
  8
部品1
100
AcDbLine
 10
6596.540608108046
 20
10616.12061901255
 30
0.0
 11
6596.540608108043
 21
8321.120619012553
 31
0.0
  0
LINE
  5
288A
330
1A
100
AcDbEntity
  8
部品1
100
AcDbLine
 10
6551.540608108044
 20
10616.12061901255
 30
0.0
 11
6551.540608108044
 21
8321.120619012553
 31
0.0
  0
LINE
  5
288B
330
1A
100
AcDbEntity
  8
点線
 48
50.0
100
AcDbLine
 10
5448.987229911358
 20
6734.92061901255
 30
0.0
 11
8011.540608108042
 21
6734.920619012552
 31
0.0
  0
LINE
  5
288C
330
1A
100
AcDbEntity
  8
部品1
100
AcDbLine
 10
4420.040608108045
 20
10062.984925274
 30
0.0
 11
4420.040608108044
 21
9956.304913319719
 31
0.0
  0
LINE
  5
288D
330
1A
100
AcDbEntity
  8
部品1
100
AcDbLine
 10
4454.540608108046
 20
10072.22917241287
 30
0.0
 11
4454.540608108046
 21
9947.060666180847
 31
0.0
  0
LINE
  5
288E
330
1A
100
AcDbEntity
  8
部品1
100
AcDbLine
 10
5123.040608108041
 20
7815.265831815716
 30
0.0
 11
5123.040608108041
 21
8251.120619012549
 31
0.0
  0
LINE
  5
288F
330
1A
100
AcDbEntity
  8
部品1
100
AcDbLine
 10
4237.275633495021
 20
10751.12061901255
 30
0.0
 11
4403.988515928456
 21
10198.55325858669
 31
0.0
  0
LINE
  5
2890
330
1A
100
AcDbEntity
  8
部品1
100
AcDbLine
 10
4403.988515928464
 20
10198.55325858669
 30
0.0
 11
4664.98851592846
 21
10128.61851936217
 31
0.0
  0
LINE
  5
2891
330
1A
100
AcDbEntity
  8
部品1
100
AcDbLine
 10
4664.98851592846
 20
10128.61851936217
 30
0.0
 11
4220.972995725329
 21
10009.64491929686
 31
0.0
  0
LINE
  5
2892
330
1A
100
AcDbEntity
  8
部品1
100
AcDbLine
 10
4220.972995725329
 20
10009.64491929686
 30
0.0
 11
4482.092700287638
 21
9939.678105331539
 31
0.0
  0
LINE
  5
2893
330
1A
100
AcDbEntity
  8
部品1
100
AcDbLine
 10
4482.092700287636
 20
9939.678105331536
 30
0.0
 11
5745.805582721073
 21
5751.120619012554
 31
0.0
  0
POINT
  5
2894
330
1A
100
AcDbEntity
  8
寸法
100
AcDbPoint
 10
4991.540608108044
 20
1812.9827369265
 30
0.0
  0
INSERT
  5
2895
330
1A
100
AcDbEntity
  8
寸法
100
AcDbBlockReference
  2
_DOTSMALL
 10
4991.540608108044
 20
1812.9827369265
 30
0.0
 41
100.0
 42
100.0
 43
100.0
  0
LINE
  5
2896
330
1A
100
AcDbEntity
  8
寸法
100
AcDbLine
 10
4991.540608108044
 20
2065.747464225399
 30
0.0
 11
4991.540608108044
 21
1772.9827369265
 31
0.0
  0
ARC
  5
2897
330
1A
100
AcDbEntity
  8
部品1
100
AcDbCircle
 10
1955.118766189067
 20
4378.187199662494
 30
0.0
 40
13.0
100
AcDbArc
 50
180.0
 51
270.0
  0
ARC
  5
2898
330
1A
100
AcDbEntity
  8
部品1
100
AcDbCircle
 10
8024.094148213297
 20
4264.430289092856
 30
0.0
 40
13.0
100
AcDbArc
 50
270.0
 51
357.5076681947367
  0
LINE
  5
2899
330
1A
100
AcDbEntity
  8
部品1
100
AcDbLine
 10
8040.962450027018
 20
4353.019114883403
 30
0.0
 11
8037.081850869093
 21
4263.864975264413
 31
0.0
  0
TEXT
  5
289A
330
1A
100
AcDbEntity
  8
部品1
100
AcDbText
 10
4728.259583084414
 20
5528.740650316461
 30
0.0
 40
120.0
  1
平面図
  7
MSGOTHIC
100
AcDbText
  0
LWPOLYLINE
  5
289B
330
1A
100
AcDbEntity
  8
部品1
100
AcDbPolyline
 90
        4
 70
     1
 43
0.0
 10
4685.792097628284
 20
5703.179327042941
 10
4685.792097628284
 20
5481.595068002673
 10
5322.804430388045
 20
5481.595068002673
 10
5322.804430388045
 20
5703.179327042941
  0
LWPOLYLINE
  5
289C
330
1A
100
AcDbEntity
  8
部品1
100
AcDbPolyline
 90
        4
 70
     1
 43
0.0
 10
11560.80653936852
 20
1655.832550647501
 10
11560.80653936852
 20
1434.248291607233
 10
12197.81887212828
 20
1434.248291607233
 10
12197.81887212828
 20
1655.832550647501
  0
TEXT
  5
289D
330
1A
100
AcDbEntity
  8
部品1
100
AcDbText
 10
11603.27402482465
 20
1481.393873921021
 30
0.0
 40
120.0
  1
側面図
  7
MSGOTHIC
100
AcDbText
  0
LWPOLYLINE
  5
289E
330
1A
100
AcDbEntity
  8
部品1
100
AcDbPolyline
 90
        4
 70
     1
 43
0.0
 10
4685.792097628284
 20
1655.832550647501
 10
4685.792097628284
 20
1434.248291607233
 10
5322.804430388045
 20
1434.248291607233
 10
5322.804430388045
 20
1655.832550647501
  0
TEXT
  5
289F
330
1A
100
AcDbEntity
  8
部品1
100
AcDbText
 10
4728.259583084414
 20
1481.393873921021
 30
0.0
 40
120.0
  1
正面図
  7
MSGOTHIC
100
AcDbText
  0
DIMENSION
  5
28A0
330
1A
100
AcDbEntity
  8
寸法
100
AcDbDimension
  2
*D64
 10
4991.540608108044
 20
1812.9827369265
 30
0.0
 11
6391.540608108044
 21
1912.994547950123
 31
0.0
 70
    32
 71
     5
 42
2800.0
  3
物置仕様図40
100
AcDbAlignedDimension
 13
7791.540608108043
 23
2105.747464225398
 33
0.0
 14
4991.540608108044
 24
2105.747464225398
 34
0.0
100
AcDbRotatedDimension
  0
LINE
  5
28A1
330
1A
100
AcDbEntity
  8
部品1
100
AcDbLine
 10
2221.540608108044
 20
2769.058816120089
 30
0.0
 11
4961.540608108045
 21
2769.058816120089
 31
0.0
  0
LINE
  5
28A2
330
1A
100
AcDbEntity
  8
部品1
100
AcDbLine
 10
2221.540608108044
 20
2619.05881612009
 30
0.0
 11
4961.540608108045
 21
2619.058816120089
 31
0.0
  0
LINE
  5
28A3
330
1A
100
AcDbEntity
  8
部品1
100
AcDbLine
 10
2221.540608108044
 20
3519.058816120091
 30
0.0
 11
4961.540608108045
 21
3519.058816120089
 31
0.0
  0
LINE
  5
28A4
330
1A
100
AcDbEntity
  8
部品1
100
AcDbLine
 10
2221.540608108044
 20
3474.058816120087
 30
0.0
 11
4961.540608108042
 21
3474.05881612009
 31
0.0
  0
LINE
  5
28A5
330
1A
100
AcDbEntity
  8
部品1
100
AcDbLine
 10
2221.540608108044
 20
3099.058816120089
 30
0.0
 11
4961.540608108045
 21
3099.058816120089
 31
0.0
  0
LINE
  5
28A6
330
1A
100
AcDbEntity
  8
部品1
100
AcDbLine
 10
2221.540608108044
 20
3069.058816120089
 30
0.0
 11
4961.540608108045
 21
3069.058816120089
 31
0.0
  0
LINE
  5
28A7
330
1A
100
AcDbEntity
  8
部品1
100
AcDbLine
 10
6409.040608108043
 20
2729.058816120089
 30
0.0
 11
6409.040608108043
 21
2664.058816120089
 31
0.0
  0
LINE
  5
28A8
330
1A
100
AcDbEntity
  8
部品1
100
AcDbLine
 10
6374.040608108043
 20
2729.058816120089
 30
0.0
 11
6374.040608108043
 21
2664.058816120089
 31
0.0
  0
LINE
  5
28A9
330
1A
100
AcDbEntity
  8
部品1
100
AcDbLine
 10
5021.540608108046
 20
2619.058816120089
 30
0.0
 11
7761.540608108044
 21
2619.058816120089
 31
0.0
  0
LINE
  5
28AA
330
1A
100
AcDbEntity
  8
部品1
100
AcDbLine
 10
5021.540608108046
 20
2664.058816120089
 30
0.0
 11
7761.540608108044
 21
2664.058816120089
 31
0.0
  0
LINE
  5
28AB
330
1A
100
AcDbEntity
  8
部品1
100
AcDbLine
 10
5021.540608108046
 20
2729.058816120089
 30
0.0
 11
7761.540608108044
 21
2729.058816120089
 31
0.0
  0
LINE
  5
28AC
330
1A
100
AcDbEntity
  8
部品1
100
AcDbLine
 10
5021.540608108046
 20
2769.058816120089
 30
0.0
 11
7761.540608108044
 21
2769.058816120089
 31
0.0
  0
LINE
  5
28AD
330
1A
100
AcDbEntity
  8
部品1
100
AcDbLine
 10
5021.540608108046
 20
3069.058816120089
 30
0.0
 11
7761.540608108044
 21
3069.058816120089
 31
0.0
  0
LINE
  5
28AE
330
1A
100
AcDbEntity
  8
部品1
100
AcDbLine
 10
5021.540608108046
 20
3099.058816120089
 30
0.0
 11
7761.540608108044
 21
3099.058816120089
 31
0.0
  0
LINE
  5
28AF
330
1A
100
AcDbEntity
  8
部品1
100
AcDbLine
 10
5021.540608108046
 20
3474.058816120088
 30
0.0
 11
7761.540608108044
 21
3474.058816120088
 31
0.0
  0
LINE
  5
28B0
330
1A
100
AcDbEntity
  8
部品1
100
AcDbLine
 10
5021.540608108046
 20
3519.058816120089
 30
0.0
 11
7761.540608108044
 21
3519.058816120089
 31
0.0
  0
LINE
  5
28B1
330
1A
100
AcDbEntity
  8
部品1
100
AcDbLine
 10
5024.540608108042
 20
4352.923389224848
 30
0.0
 11
7758.540608108042
 21
4352.923389224848
 31
0.0
  0
LINE
  5
28B2
330
1A
100
AcDbEntity
  8
部品1
100
AcDbLine
 10
5024.540608108042
 20
4322.926285058182
 30
0.0
 11
7758.540608108042
 21
4322.926285058182
 31
0.0
  0
LINE
  5
28B3
330
1A
100
AcDbEntity
  8
部品1
100
AcDbLine
 10
5024.540608108043
 20
4292.929180891515
 30
0.0
 11
7758.540608108042
 21
4292.929180891515
 31
0.0
  0
LINE
  5
28B4
330
1A
100
AcDbEntity
  8
部品1
100
AcDbLine
 10
5024.540608108043
 20
4262.932076724847
 30
0.0
 11
7758.540608108042
 21
4262.932076724847
 31
0.0
  0
LINE
  5
28B5
330
1A
100
AcDbEntity
  8
部品1
100
AcDbLine
 10
5024.540608108043
 20
4213.429171466532
 30
0.0
 11
7758.540608108042
 21
4213.429171466528
 31
0.0
  0
ARC
  5
28B6
330
1A
100
AcDbEntity
  8
部品1
100
AcDbCircle
 10
4961.540608108045
 20
4354.044811104377
 30
0.0
 40
3.0
100
AcDbArc
 50
90.0
 51
180.0
  0
ARC
  5
28B7
330
1A
100
AcDbEntity
  8
部品1
100
AcDbCircle
 10
4961.540608108044
 20
4297.874516173435
 30
0.0
 40
3.0
100
AcDbArc
 50
180.0
 51
270.0
  0
LINE
  5
28B8
330
1A
100
AcDbEntity
  8
細線
100
AcDbLine
 10
4973.540608108044
 20
4276.869496260782
 30
0.0
 11
4973.540608108044
 21
4101.419996260784
 31
0.0
  0
LINE
  5
28B9
330
1A
100
AcDbEntity
  8
細線
100
AcDbLine
 10
4978.540608108044
 20
4276.869496260782
 30
0.0
 11
4978.540608108044
 21
4101.419996260784
 31
0.0
  0
LINE
  5
28BA
330
1A
100
AcDbEntity
  8
細線
100
AcDbLine
 10
5004.540608108042
 20
4276.869496260782
 30
0.0
 11
5004.540608108044
 21
4101.419996260784
 31
0.0
  0
LINE
  5
28BB
330
1A
100
AcDbEntity
  8
細線
100
AcDbLine
 10
5009.540608108042
 20
4276.869496260782
 30
0.0
 11
5009.540608108044
 21
4101.419996260784
 31
0.0
  0
LINE
  5
28BC
330
1A
100
AcDbEntity
  8
部品1
100
AcDbLine
 10
4958.540608108045
 20
4354.044811104377
 30
0.0
 11
4958.540608108042
 21
4101.419996260784
 31
0.0
  0
ARC
  5
28BD
330
1A
100
AcDbEntity
  8
部品1
100
AcDbCircle
 10
5021.540608108042
 20
4354.044811104377
 30
0.0
 40
3.0
100
AcDbArc
 50
0.0
 51
90.0
  0
ARC
  5
28BE
330
1A
100
AcDbEntity
  8
部品1
100
AcDbCircle
 10
5021.540608108043
 20
4297.874516173433
 30
0.0
 40
3.0
100
AcDbArc
 50
270.0
 51
0.0
  0
LINE
  5
28BF
330
1A
100
AcDbEntity
  8
部品1
100
AcDbLine
 10
5024.540608108042
 20
4354.044811104377
 30
0.0
 11
5024.540608108045
 21
4101.419996260784
 31
0.0
  0
LINE
  5
28C0
330
1A
100
AcDbEntity
  8
部品1
100
AcDbLine
 10
5024.540608108043
 20
4101.419996260784
 30
0.0
 11
4958.540608108044
 21
4101.419996260784
 31
0.0
  0
LINE
  5
28C1
330
1A
100
AcDbEntity
  8
部品1
100
AcDbLine
 10
5024.540608108043
 20
4276.869496260782
 30
0.0
 11
4958.540608108044
 21
4276.869496260782
 31
0.0
  0
LINE
  5
28C2
330
1A
100
AcDbEntity
  8
部品1
100
AcDbLine
 10
5021.540608108042
 20
4357.044811104377
 30
0.0
 11
4961.540608108045
 21
4357.044811104377
 31
0.0
  0
LINE
  5
28C3
330
1A
100
AcDbEntity
  8
部品1
100
AcDbLine
 10
5021.540608108043
 20
4294.874516173432
 30
0.0
 11
4961.540608108044
 21
4294.874516173435
 31
0.0
  0
LINE
  5
28C4
330
1A
100
AcDbEntity
  8
センター
 48
10.0
100
AcDbLine
 10
4991.54060810804
 20
4350.354811104376
 30
0.0
 11
4991.540608108044
 21
2105.747464225398
 31
0.0
  0
LINE
  5
28C5
330
1A
100
AcDbEntity
  8
部品1
100
AcDbLine
 10
4961.540608108044
 20
4101.419996260784
 30
0.0
 11
4961.540608108045
 21
2419.058816120087
 31
0.0
  0
LINE
  5
28C6
330
1A
100
AcDbEntity
  8
部品1
100
AcDbLine
 10
5021.540608108043
 20
4101.419996260784
 30
0.0
 11
5021.540608108043
 21
2419.058816120087
 31
0.0
  0
LINE
  5
28C7
330
1A
100
AcDbEntity
  8
点線
 48
50.0
100
AcDbLine
 10
4961.540608108045
 20
2419.058816120087
 30
0.0
 11
4961.540608108044
 21
2099.058816120087
 31
0.0
  0
LINE
  5
28C8
330
1A
100
AcDbEntity
  8
点線
 48
50.0
100
AcDbLine
 10
5021.540608108043
 20
2419.058816120087
 30
0.0
 11
5021.540608108043
 21
2099.058816120087
 31
0.0
  0
LINE
  5
28C9
330
1A
100
AcDbEntity
  8
部品1
100
AcDbLine
 10
6113.540608108039
 20
5956.12061901255
 30
0.0
 11
6113.54060810804
 21
8251.120619012551
 31
0.0
  0
LINE
  5
28CA
330
1A
100
AcDbEntity
  8
部品1
100
AcDbLine
 10
6158.540608108038
 20
5956.12061901255
 30
0.0
 11
6158.54060810804
 21
8251.120619012551
 31
0.0
  0
LINE
  5
28CB
330
1A
100
AcDbEntity
  8
部品1
100
AcDbLine
 10
6186.540608108039
 20
5956.12061901255
 30
0.0
 11
6186.54060810804
 21
8251.120619012551
 31
0.0
  0
LINE
  5
28CC
330
1A
100
AcDbEntity
  8
部品1
100
AcDbLine
 10
6231.540608108041
 20
5956.12061901255
 30
0.0
 11
6231.540608108041
 21
8251.120619012551
 31
0.0
  0
LINE
  5
28CD
330
1A
100
AcDbEntity
  8
部品1
100
AcDbLine
 10
5983.040608108042
 20
5956.120619012552
 30
0.0
 11
5983.040608108041
 21
8251.120619012551
 31
0.0
  0
LINE
  5
28CE
330
1A
100
AcDbEntity
  8
部品1
100
AcDbLine
 10
5948.540608108039
 20
5956.120619012552
 30
0.0
 11
5948.540608108038
 21
8251.120619012551
 31
0.0
  0
LINE
  5
28CF
330
1A
100
AcDbEntity
  8
部品1
100
AcDbLine
 10
5811.54060810804
 20
5956.12061901255
 30
0.0
 11
5811.54060810804
 21
8251.120619012551
 31
0.0
  0
LINE
  5
28D0
330
1A
100
AcDbEntity
  8
部品1
100
AcDbLine
 10
5738.540608108039
 20
5956.12061901255
 30
0.0
 11
5738.54060810804
 21
8251.120619012551
 31
0.0
  0
LINE
  5
28D1
330
1A
100
AcDbEntity
  8
部品1
100
AcDbLine
 10
5766.540608108038
 20
5956.12061901255
 30
0.0
 11
5766.54060810804
 21
8251.120619012551
 31
0.0
  0
LINE
  5
28D2
330
1A
100
AcDbEntity
  8
部品1
100
AcDbLine
 10
5693.540608108038
 20
5956.12061901255
 30
0.0
 11
5693.54060810804
 21
8251.120619012551
 31
0.0
  0
LINE
  5
28D3
330
1A
100
AcDbEntity
  8
部品1
100
AcDbLine
 10
5563.040608108043
 20
6356.892399369978
 30
0.0
 11
5563.04060810804
 21
8251.120619012551
 31
0.0
  0
LINE
  5
28D4
330
1A
100
AcDbEntity
  8
部品1
100
AcDbLine
 10
5528.54060810804
 20
6471.242134414023
 30
0.0
 11
5528.540608108038
 21
8251.120619012551
 31
0.0
  0
LINE
  5
28D5
330
1A
100
AcDbEntity
  8
部品1
100
AcDbLine
 10
5391.540608108038
 20
6925.326589516455
 30
0.0
 11
5391.54060810804
 21
8251.120619012551
 31
0.0
  0
LINE
  5
28D6
330
1A
100
AcDbEntity
  8
部品1
100
AcDbLine
 10
5346.540608108038
 20
7074.478417834767
 30
0.0
 11
5346.54060810804
 21
8251.120619012551
 31
0.0
  0
LINE
  5
28D7
330
1A
100
AcDbEntity
  8
部品1
100
AcDbLine
 10
5318.540608108042
 20
7167.28399989949
 30
0.0
 11
5318.54060810804
 21
8251.120619012551
 31
0.0
  0
LINE
  5
28D8
330
1A
100
AcDbEntity
  8
部品1
100
AcDbLine
 10
5273.540608108039
 20
7316.43582821781
 30
0.0
 11
5273.54060810804
 21
8251.120619012551
 31
0.0
  0
LINE
  5
28D9
330
1A
100
AcDbEntity
  8
部品1
100
AcDbLine
 10
5140.040608108042
 20
7758.919585562132
 30
0.0
 11
5140.040608108042
 21
8251.120619012551
 31
0.0
  0
LINE
  5
28DA
330
1A
100
AcDbEntity
  8
部品1
100
AcDbLine
 10
7963.040608108045
 20
8321.120619012557
 30
0.0
 11
7963.040608108042
 21
10616.12061901255
 31
0.0
  0
LINE
  5
28DB
330
1A
100
AcDbEntity
  8
部品1
100
AcDbLine
 10
7980.040608108045
 20
8321.120619012557
 30
0.0
 11
7980.040608108042
 21
10616.12061901255
 31
0.0
  0
LINE
  5
28DC
330
1A
100
AcDbEntity
  8
部品1
100
AcDbLine
 10
5001.540608108042
 20
10616.12061901255
 30
0.0
 11
5001.540608108042
 21
10686.12061901255
 31
0.0
  0
LINE
  5
28DD
330
1A
100
AcDbEntity
  8
部品1
100
AcDbLine
 10
4591.540608108044
 20
10616.12061901255
 30
0.0
 11
4591.540608108044
 21
10148.29882694841
 31
0.0
  0
LINE
  5
28DE
330
1A
100
AcDbEntity
  8
部品1
100
AcDbLine
 10
4636.540608108045
 20
10616.12061901255
 30
0.0
 11
4636.540608108044
 21
10136.241113289
 31
0.0
  0
LINE
  5
28DF
330
1A
100
AcDbEntity
  8
部品1
100
AcDbLine
 10
4664.540608108046
 20
10616.12061901255
 30
0.0
 11
4664.540608108046
 21
10128.73853590093
 31
0.0
  0
LINE
  5
28E0
330
1A
100
AcDbEntity
  8
部品1
100
AcDbLine
 10
4709.540608108045
 20
10616.12061901255
 30
0.0
 11
4709.540608108045
 21
9180.520619012552
 31
0.0
  0
LINE
  5
28E1
330
1A
100
AcDbEntity
  8
部品1
100
AcDbLine
 10
4843.040608108042
 20
10616.12061901255
 30
0.0
 11
4843.040608108042
 21
8743.321652463011
 31
0.0
  0
LINE
  5
28E2
330
1A
100
AcDbEntity
  8
部品1
100
AcDbLine
 10
4860.040608108042
 20
10616.12061901255
 30
0.0
 11
4860.040608108042
 21
8686.975406209425
 31
0.0
  0
LINE
  5
28E3
330
1A
100
AcDbEntity
  8
部品1
100
AcDbLine
 10
4420.040608108041
 20
10616.12061901255
 30
0.0
 11
4420.040608108041
 21
10194.25211345034
 31
0.0
  0
LINE
  5
28E4
330
1A
100
AcDbEntity
  8
部品1
100
AcDbLine
 10
4454.540608108043
 20
10616.12061901255
 30
0.0
 11
4454.540608108046
 21
10185.00786631147
 31
0.0
  0
LINE
  5
28E5
330
1A
100
AcDbEntity
  8
部品1
100
AcDbLine
 10
5120.040608108041
 20
10616.12061901255
 30
0.0
 11
5120.040608108041
 21
8321.120619012557
 31
0.0
  0
LINE
  5
28E6
330
1A
100
AcDbEntity
  8
部品1
100
AcDbLine
 10
5154.540608108042
 20
10616.12061901255
 30
0.0
 11
5154.540608108042
 21
8321.120619012557
 31
0.0
  0
LINE
  5
28E7
330
1A
100
AcDbEntity
  8
部品1
100
AcDbLine
 10
5291.540608108042
 20
10616.12061901255
 30
0.0
 11
5291.540608108042
 21
8321.120619012551
 31
0.0
  0
LINE
  5
28E8
330
1A
100
AcDbEntity
  8
部品1
100
AcDbLine
 10
5336.540608108042
 20
10616.12061901255
 30
0.0
 11
5336.540608108042
 21
8321.120619012551
 31
0.0
  0
LINE
  5
28E9
330
1A
100
AcDbEntity
  8
部品1
100
AcDbLine
 10
5364.540608108042
 20
10616.12061901255
 30
0.0
 11
5364.540608108042
 21
8321.120619012551
 31
0.0
  0
LINE
  5
28EA
330
1A
100
AcDbEntity
  8
部品1
100
AcDbLine
 10
5409.540608108041
 20
10616.12061901255
 30
0.0
 11
5409.540608108041
 21
8321.120619012551
 31
0.0
  0
LINE
  5
28EB
330
1A
100
AcDbEntity
  8
部品1
100
AcDbLine
 10
5540.040608108042
 20
10616.12061901255
 30
0.0
 11
5540.040608108044
 21
8321.120619012557
 31
0.0
  0
LINE
  5
28EC
330
1A
100
AcDbEntity
  8
部品1
100
AcDbLine
 10
5574.540608108041
 20
10616.12061901255
 30
0.0
 11
5574.540608108044
 21
8321.120619012557
 31
0.0
  0
LINE
  5
28ED
330
1A
100
AcDbEntity
  8
部品1
100
AcDbLine
 10
5711.540608108042
 20
10616.12061901255
 30
0.0
 11
5711.540608108042
 21
8321.120619012551
 31
0.0
  0
LINE
  5
28EE
330
1A
100
AcDbEntity
  8
部品1
100
AcDbLine
 10
5756.540608108044
 20
10616.12061901255
 30
0.0
 11
5756.540608108042
 21
8321.120619012551
 31
0.0
  0
LINE
  5
28EF
330
1A
100
AcDbEntity
  8
部品1
100
AcDbLine
 10
5784.540608108044
 20
10616.12061901255
 30
0.0
 11
5784.540608108041
 21
8321.120619012551
 31
0.0
  0
LINE
  5
28F0
330
1A
100
AcDbEntity
  8
部品1
100
AcDbLine
 10
5829.540608108043
 20
10616.12061901255
 30
0.0
 11
5829.540608108042
 21
8321.120619012551
 31
0.0
  0
LINE
  5
28F1
330
1A
100
AcDbEntity
  8
部品1
100
AcDbLine
 10
5960.040608108042
 20
10616.12061901255
 30
0.0
 11
5960.040608108045
 21
8321.120619012557
 31
0.0
  0
LINE
  5
28F2
330
1A
100
AcDbEntity
  8
部品1
100
AcDbLine
 10
5994.540608108043
 20
10616.12061901255
 30
0.0
 11
5994.540608108046
 21
8321.120619012557
 31
0.0
  0
LINE
  5
28F3
330
1A
100
AcDbEntity
  8
部品1
100
AcDbLine
 10
6131.540608108044
 20
10616.12061901255
 30
0.0
 11
6131.540608108044
 21
8321.120619012551
 31
0.0
  0
LINE
  5
28F4
330
1A
100
AcDbEntity
  8
部品1
100
AcDbLine
 10
6176.540608108045
 20
10616.12061901255
 30
0.0
 11
6176.540608108044
 21
8321.120619012551
 31
0.0
  0
LINE
  5
28F5
330
1A
100
AcDbEntity
  8
部品1
100
AcDbLine
 10
6204.540608108046
 20
10616.12061901255
 30
0.0
 11
6204.540608108043
 21
8321.120619012551
 31
0.0
  0
LINE
  5
28F6
330
1A
100
AcDbEntity
  8
部品1
100
AcDbLine
 10
6249.540608108045
 20
10616.12061901255
 30
0.0
 11
6249.540608108044
 21
8321.120619012551
 31
0.0
  0
LINE
  5
28F7
330
1A
100
AcDbEntity
  8
部品1
100
AcDbLine
 10
5021.540608108043
 20
8068.520619012558
 30
0.0
 11
5021.540608108046
 21
8151.686066800357
 31
0.0
  0
LINE
  5
28F8
330
1A
100
AcDbEntity
  8
部品1
100
AcDbLine
 10
4961.540608108044
 20
8068.520619012558
 30
0.0
 11
4961.540608108044
 21
8204.620619012555
 31
0.0
  0
LINE
  5
28F9
330
1A
100
AcDbEntity
  8
点線
 48
50.0
100
AcDbLine
 10
5021.540608108042
 20
10527.62061901255
 30
0.0
 11
4961.540608108042
 21
10527.62061901255
 31
0.0
  0
LINE
  5
28FA
330
1A
100
AcDbEntity
  8
点線
 48
50.0
100
AcDbLine
 10
5021.540608108042
 20
10471.62061901255
 30
0.0
 11
5021.540608108042
 21
10527.62061901255
 31
0.0
  0
LINE
  5
28FB
330
1A
100
AcDbEntity
  8
点線
 48
50.0
100
AcDbLine
 10
4961.54060810804
 20
10471.62061901255
 30
0.0
 11
4961.540608108042
 21
10527.62061901255
 31
0.0
  0
LINE
  5
28FC
330
1A
100
AcDbEntity
  8
点線
 48
50.0
100
AcDbLine
 10
5021.540608108042
 20
9837.320619012551
 30
0.0
 11
5021.540608108042
 21
10406.62061901255
 31
0.0
  0
LINE
  5
28FD
330
1A
100
AcDbEntity
  8
点線
 48
50.0
100
AcDbLine
 10
4961.540608108042
 20
9837.320619012551
 30
0.0
 11
4961.540608108042
 21
10406.62061901255
 31
0.0
  0
LINE
  5
28FE
330
1A
100
AcDbEntity
  8
点線
 48
50.0
100
AcDbLine
 10
5021.540608108043
 20
9203.02061901255
 30
0.0
 11
5021.540608108042
 21
9772.320619012553
 31
0.0
  0
LINE
  5
28FF
330
1A
100
AcDbEntity
  8
点線
 48
50.0
100
AcDbLine
 10
4961.540608108044
 20
9203.02061901255
 30
0.0
 11
4961.540608108042
 21
9772.320619012553
 31
0.0
  0
LINE
  5
2900
330
1A
100
AcDbEntity
  8
点線
 48
50.0
100
AcDbLine
 10
5021.540608108043
 20
8367.620619012553
 30
0.0
 11
5021.540608108042
 21
8503.720619012549
 31
0.0
  0
LINE
  5
2901
330
1A
100
AcDbEntity
  8
点線
 48
50.0
100
AcDbLine
 10
4961.540608108042
 20
8367.620619012553
 30
0.0
 11
4961.540608108042
 21
8503.720619012549
 31
0.0
  0
LINE
  5
2902
330
1A
100
AcDbEntity
  8
点線
 48
50.0
100
AcDbLine
 10
5021.540608108042
 20
8568.72061901255
 30
0.0
 11
5021.540608108042
 21
9138.020619012552
 31
0.0
  0
LINE
  5
2903
330
1A
100
AcDbEntity
  8
点線
 48
50.0
100
AcDbLine
 10
4961.540608108042
 20
8568.72061901255
 30
0.0
 11
4961.540608108042
 21
9138.020619012552
 31
0.0
  0
LINE
  5
2904
330
1A
100
AcDbEntity
  8
部品1
100
AcDbLine
 10
5021.540608108042
 20
6165.620619012554
 30
0.0
 11
5021.540608108042
 21
6734.920619012552
 31
0.0
  0
LINE
  5
2905
330
1A
100
AcDbEntity
  8
部品1
100
AcDbLine
 10
4961.540608108044
 20
6165.620619012554
 30
0.0
 11
4961.540608108044
 21
6734.920619012552
 31
0.0
  0
LINE
  5
2906
330
1A
100
AcDbEntity
  8
部品1
100
AcDbLine
 10
5021.540608108043
 20
6799.920619012553
 30
0.0
 11
5021.540608108043
 21
7369.22061901255
 31
0.0
  0
LINE
  5
2907
330
1A
100
AcDbEntity
  8
部品1
100
AcDbLine
 10
4961.540608108044
 20
6799.920619012553
 30
0.0
 11
4961.540608108044
 21
7369.22061901255
 31
0.0
  0
LINE
  5
2908
330
1A
100
AcDbEntity
  8
部品1
100
AcDbLine
 10
4961.540608108044
 20
7434.220619012553
 30
0.0
 11
4961.540608108045
 21
8003.520619012556
 31
0.0
  0
LINE
  5
2909
330
1A
100
AcDbEntity
  8
部品1
100
AcDbLine
 10
5021.540608108043
 20
7434.220619012553
 30
0.0
 11
5021.540608108046
 21
8003.520619012556
 31
0.0
  0
LINE
  5
290A
330
1A
100
AcDbEntity
  8
部品1
100
AcDbLine
 10
4961.540608108044
 20
6044.620619012552
 30
0.0
 11
5021.540608108043
 21
6044.620619012552
 31
0.0
  0
LINE
  5
290B
330
1A
100
AcDbEntity
  8
部品1
100
AcDbLine
 10
4961.540608108044
 20
6044.620619012552
 30
0.0
 11
4961.540608108044
 21
6100.620619012552
 31
0.0
  0
LINE
  5
290C
330
1A
100
AcDbEntity
  8
部品1
100
AcDbLine
 10
5021.540608108043
 20
6044.620619012552
 30
0.0
 11
5021.540608108043
 21
6100.620619012552
 31
0.0
  0
DIMENSION
  5
290D
330
1A
100
AcDbEntity
  8
寸法
100
AcDbDimension
  2
*D65
 10
8785.253168747919
 20
2369.058816120087
 30
0.0
 11
8685.241357724299
 21
3424.558816120088
 31
0.0
 70
    32
 71
     5
 42
2111.0
  3
物置仕様図40
100
AcDbAlignedDimension
 13
9479.78336771316
 23
4480.058816120087
 33
0.0
 14
8822.498450114341
 24
2369.058816120087
 34
0.0
 50
90.0
100
AcDbRotatedDimension
  0
DIMENSION
  5
290E
330
1A
100
AcDbEntity
  8
寸法
100
AcDbDimension
  2
*D66
 10
14279.78336771315
 20
5073.498668445671
 30
0.0
 11
11879.78336771315
 21
5173.49866844567
 31
0.0
 70
    32
 71
     5
 42
4799.999999999992
  3
物置仕様図40
100
AcDbAlignedDimension
 13
9479.78336771316
 23
4480.058816120087
 33
0.0
 14
14279.78336771315
 24
4480.058816120087
 34
0.0
100
AcDbRotatedDimension
  0
DIMENSION
  5
290F
330
1A
100
AcDbEntity
  8
細線
100
AcDbDimension
  2
*D67
 10
14279.78336771315
 20
4793.49866844567
 30
0.0
 11
13904.78336771315
 21
4893.498668445671
 31
0.0
 70
    32
 71
     5
 42
749.9999999999982
  3
物置仕様図40
100
AcDbAlignedDimension
 13
13529.78336771315
 23
4183.078148876734
 33
0.0
 14
14279.78336771315
 24
4480.058816120087
 34
0.0
100
AcDbRotatedDimension
1001
ACAD
1000
DSTYLE
1002
{
1070
    75
1070
     1
1002
}
  0
DIMENSION
  5
2910
330
1A
100
AcDbEntity
  8
寸法
100
AcDbDimension
  2
*D68
 10
13529.78336771315
 20
4793.49866844567
 30
0.0
 11
12704.78336771315
 21
4893.498668445671
 31
0.0
 70
    32
 71
     5
 42
1649.999999999998
  3
物置仕様図40
100
AcDbAlignedDimension
 13
11879.78336771315
 23
4480.058816120087
 33
0.0
 14
13529.78336771315
 24
4183.078148876734
 34
0.0
100
AcDbRotatedDimension
1001
ACAD
1000
DSTYLE
1002
{
1070
    75
1070
     1
1002
}
  0
DIMENSION
  5
2911
330
1A
100
AcDbEntity
  8
寸法
100
AcDbDimension
  2
*D69
 10
11879.78336771315
 20
4793.49866844567
 30
0.0
 11
11054.78336771315
 21
4893.498668445671
 31
0.0
 70
    32
 71
     5
 42
1650.0
  3
物置仕様図40
100
AcDbAlignedDimension
 13
10229.78336771315
 23
4183.078148876735
 33
0.0
 14
11879.78336771315
 24
4480.058816120087
 34
0.0
100
AcDbRotatedDimension
1001
ACAD
1000
DSTYLE
1002
{
1070
    75
1070
     1
1002
}
  0
DIMENSION
  5
2912
330
1A
100
AcDbEntity
  8
寸法
100
AcDbDimension
  2
*D70
 10
10229.78336771315
 20
4793.49866844567
 30
0.0
 11
9854.78336771316
 21
4893.498668445671
 31
0.0
 70
    32
 71
     5
 42
749.9999999999963
  3
物置仕様図40
100
AcDbAlignedDimension
 13
9479.78336771316
 23
4480.058816120087
 33
0.0
 14
10229.78336771315
 24
4183.078148876735
 34
0.0
100
AcDbRotatedDimension
  0
DIMENSION
  5
2913
330
1A
100
AcDbEntity
  8
寸法
100
AcDbDimension
  2
*D71
 10
1941.540608108043
 20
4796.274603944512
 30
0.0
 11
2079.804927475772
 21
4924.275006809526
 31
0.0
 70
   160
 71
     5
 42
250.0000000000004
  3
物置仕様図40
100
AcDbAlignedDimension
 13
2191.540608108044
 23
4350.354811104376
 33
0.0
 14
1941.540608108043
 24
4480.058816120087
 34
0.0
100
AcDbRotatedDimension
1001
ACAD
1000
DSTYLE
1002
{
1070
    75
1070
     1
1002
}
  0
DIMENSION
  5
2914
330
1A
100
AcDbEntity
  8
寸法
100
AcDbDimension
  2
*D72
 10
7791.540608108045
 20
4796.274603944512
 30
0.0
 11
7910.612716964052
 21
4906.185095823541
 31
0.0
 70
   160
 71
     5
 42
249.9999999999991
  3
物置仕様図40
100
AcDbAlignedDimension
 13
8041.540608108043
 23
4480.058816120087
 33
0.0
 14
7791.540608108045
 24
4350.354811104376
 34
0.0
100
AcDbRotatedDimension
  0
ARC
  5
2915
330
1A
100
AcDbEntity
  8
部品1
100
AcDbCircle
 10
2056.540608108043
 20
2519.058816120087
 30
0.0
 40
70.0
100
AcDbArc
 50
270.0
 51
0.0
  0
LINE
  5
2916
330
1A
100
AcDbEntity
  8
部品1
100
AcDbLine
 10
2016.540608108044
 20
2519.058816120087
 30
0.0
 11
2016.540608108044
 21
2449.058816120087
 31
0.0
  0
LINE
  5
2917
330
1A
100
AcDbEntity
  8
部品1
100
AcDbLine
 10
2016.540608108044
 20
2519.058816120087
 30
0.0
 11
2056.540608108043
 21
2519.058816120087
 31
0.0
  0
LINE
  5
2918
330
1A
100
AcDbEntity
  8
部品1
100
AcDbLine
 10
2016.540608108044
 20
2449.058816120087
 30
0.0
 11
2056.540608108043
 21
2449.058816120087
 31
0.0
  0
LINE
  5
2919
330
1A
100
AcDbEntity
  8
部品1
100
AcDbLine
 10
2161.540608108044
 20
2557.658867108212
 30
0.0
 11
2056.540608108043
 21
2557.658867108212
 31
0.0
  0
LINE
  5
291A
330
1A
100
AcDbEntity
  8
部品1
100
AcDbLine
 10
2161.540608108044
 20
2582.658867108212
 30
0.0
 11
2056.540608108043
 21
2582.658867108212
 31
0.0
  0
LINE
  5
291B
330
1A
100
AcDbEntity
  8
部品1
100
AcDbLine
 10
2161.540608108044
 20
4076.419996260784
 30
0.0
 11
2056.540608108043
 21
4076.419996260784
 31
0.0
  0
LINE
  5
291C
330
1A
100
AcDbEntity
  8
部品1
100
AcDbLine
 10
2158.540608108044
 20
4101.419996260784
 30
0.0
 11
2056.540608108043
 21
4101.419996260784
 31
0.0
  0
LINE
  5
291D
330
1A
100
AcDbEntity
  8
部品1
100
AcDbLine
 10
2126.540608108044
 20
4213.429171466531
 30
0.0
 11
2126.540608108044
 21
2519.058816120087
 31
0.0
  0
LINE
  5
291E
330
1A
100
AcDbEntity
  8
部品1
100
AcDbLine
 10
2056.540608108043
 20
4213.429171466531
 30
0.0
 11
2056.540608108043
 21
2519.058816120087
 31
0.0
  0
LINE
  5
291F
330
1A
100
AcDbEntity
  8
部品1
100
AcDbLine
 10
2012.118766189071
 20
4262.932076724847
 30
0.0
 11
2012.118766189071
 21
4213.429171466532
 31
0.0
  0
LINE
  5
2920
330
1A
100
AcDbEntity
  8
部品1
100
AcDbLine
 10
7970.962450027018
 20
4262.932076724847
 30
0.0
 11
7970.962450027016
 21
4213.429171466532
 31
0.0
  0
LINE
  5
2921
330
1A
100
AcDbEntity
  8
部品1
100
AcDbLine
 10
7824.540608108043
 20
4213.429171466532
 30
0.0
 11
7980.962450027016
 21
4213.429171466532
 31
0.0
  0
LINE
  5
2922
330
1A
100
AcDbEntity
  8
部品1
100
AcDbLine
 10
7824.540608108043
 20
4262.932076724847
 30
0.0
 11
7985.962450027017
 21
4262.932076724847
 31
0.0
  0
LINE
  5
2923
330
1A
100
AcDbEntity
  8
部品1
100
AcDbLine
 10
7824.540608108043
 20
4292.929180891515
 30
0.0
 11
7985.962450027018
 21
4292.929180891515
 31
0.0
  0
LINE
  5
2924
330
1A
100
AcDbEntity
  8
部品1
100
AcDbLine
 10
7824.540608108043
 20
4322.926285058182
 30
0.0
 11
7985.962450027018
 21
4322.926285058182
 31
0.0
  0
LINE
  5
2925
330
1A
100
AcDbEntity
  8
部品1
100
AcDbLine
 10
7824.540608108041
 20
4352.923389224847
 30
0.0
 11
7985.962450027018
 21
4352.923389224847
 31
0.0
  0
LINE
  5
2926
330
1A
100
AcDbEntity
  8
部品1
100
AcDbLine
 10
1997.118766189069
 20
4352.923389224848
 30
0.0
 11
2158.540608108046
 21
4352.923389224848
 31
0.0
  0
LINE
  5
2927
330
1A
100
AcDbEntity
  8
部品1
100
AcDbLine
 10
1997.118766189069
 20
4322.926285058182
 30
0.0
 11
2158.540608108046
 21
4322.926285058182
 31
0.0
  0
LINE
  5
2928
330
1A
100
AcDbEntity
  8
部品1
100
AcDbLine
 10
1997.118766189071
 20
4292.929180891515
 30
0.0
 11
2158.540608108046
 21
4292.929180891515
 31
0.0
  0
LINE
  5
2929
330
1A
100
AcDbEntity
  8
部品1
100
AcDbLine
 10
1997.118766189071
 20
4262.932076724847
 30
0.0
 11
2158.540608108042
 21
4262.932076724847
 31
0.0
  0
LINE
  5
292A
330
1A
100
AcDbEntity
  8
部品1
100
AcDbLine
 10
2002.118766189071
 20
4262.932076724847
 30
0.0
 11
2002.118766189071
 21
4213.429171466532
 31
0.0
  0
LINE
  5
292B
330
1A
100
AcDbEntity
  8
部品1
100
AcDbLine
 10
7980.962450027019
 20
4262.932076724847
 30
0.0
 11
7980.962450027016
 21
4213.429171466532
 31
0.0
  0
LINE
  5
292C
330
1A
100
AcDbEntity
  8
部品1
100
AcDbLine
 10
2002.118766189071
 20
4213.429171466532
 30
0.0
 11
2158.540608108046
 21
4213.429171466532
 31
0.0
  0
LINE
  5
292D
330
1A
100
AcDbEntity
  8
部品1
100
AcDbLine
 10
7980.962450027016
 20
4251.430289092855
 30
0.0
 11
8024.094148213297
 21
4251.430289092858
 31
0.0
  0
LINE
  5
292E
330
1A
100
AcDbEntity
  8
部品1
100
AcDbLine
 10
1997.118766189069
 20
4365.187199662494
 30
0.0
 11
1997.118766189071
 21
4251.430289092855
 31
0.0
  0
LINE
  5
292F
330
1A
100
AcDbEntity
  8
部品1
100
AcDbLine
 10
1942.118766189069
 20
4467.058816120089
 30
0.0
 11
1942.118766189067
 21
4353.019114883374
 31
0.0
  0
LINE
  5
2930
330
1A
100
AcDbEntity
  8
部品1
100
AcDbLine
 10
7985.962450027018
 20
4365.187199662494
 30
0.0
 11
7985.962450027017
 21
4251.430289092855
 31
0.0
  0
LINE
  5
2931
330
1A
100
AcDbEntity
  8
部品1
100
AcDbLine
 10
8040.962450027018
 20
4467.058816120089
 30
0.0
 11
8040.962450027018
 21
4353.019114883408
 31
0.0
  0
LINE
  5
2932
330
1A
100
AcDbEntity
  8
部品1
100
AcDbLine
 10
1958.987068002789
 20
4251.430289092854
 30
0.0
 11
2002.118766189071
 21
4251.430289092854
 31
0.0
  0
LINE
  5
2933
330
1A
100
AcDbEntity
  8
部品1
100
AcDbLine
 10
2224.540608108044
 20
4276.869496260782
 30
0.0
 11
2158.540608108044
 21
4276.869496260782
 31
0.0
  0
ARC
  5
2934
330
1A
100
AcDbEntity
  8
部品1
100
AcDbCircle
 10
2161.540608108046
 20
4354.044811104377
 30
0.0
 40
3.0
100
AcDbArc
 50
90.0
 51
180.0
  0
LINE
  5
2935
330
1A
100
AcDbEntity
  8
部品1
100
AcDbLine
 10
2221.540608108042
 20
4357.044811104377
 30
0.0
 11
2161.540608108046
 21
4357.044811104377
 31
0.0
  0
ARC
  5
2936
330
1A
100
AcDbEntity
  8
部品1
100
AcDbCircle
 10
2221.540608108042
 20
4354.044811104377
 30
0.0
 40
3.0
100
AcDbArc
 50
0.0
 51
90.0
  0
ARC
  5
2937
330
1A
100
AcDbEntity
  8
部品1
100
AcDbCircle
 10
2221.540608108044
 20
4297.874516173433
 30
0.0
 40
3.0
100
AcDbArc
 50
270.0
 51
0.0
  0
LINE
  5
2938
330
1A
100
AcDbEntity
  8
部品1
100
AcDbLine
 10
2221.540608108044
 20
4294.874516173432
 30
0.0
 11
2161.540608108044
 21
4294.874516173435
 31
0.0
  0
ARC
  5
2939
330
1A
100
AcDbEntity
  8
部品1
100
AcDbCircle
 10
2161.540608108044
 20
4297.874516173435
 30
0.0
 40
3.0
100
AcDbArc
 50
180.0
 51
270.0
  0
LINE
  5
293A
330
1A
100
AcDbEntity
  8
部品1
100
AcDbLine
 10
2224.540608108044
 20
4101.419996260784
 30
0.0
 11
2158.540608108044
 21
4101.419996260784
 31
0.0
  0
LINE
  5
293B
330
1A
100
AcDbEntity
  8
細線
100
AcDbLine
 10
2173.540608108044
 20
4276.869496260782
 30
0.0
 11
2173.540608108044
 21
4101.419996260784
 31
0.0
  0
LINE
  5
293C
330
1A
100
AcDbEntity
  8
細線
100
AcDbLine
 10
2178.540608108044
 20
4276.869496260782
 30
0.0
 11
2178.540608108044
 21
4101.419996260784
 31
0.0
  0
LINE
  5
293D
330
1A
100
AcDbEntity
  8
細線
100
AcDbLine
 10
2204.540608108042
 20
4276.869496260782
 30
0.0
 11
2204.540608108044
 21
4101.419996260784
 31
0.0
  0
LINE
  5
293E
330
1A
100
AcDbEntity
  8
細線
100
AcDbLine
 10
2209.540608108042
 20
4276.869496260782
 30
0.0
 11
2209.540608108044
 21
4101.419996260784
 31
0.0
  0
LINE
  5
293F
330
1A
100
AcDbEntity
  8
部品1
100
AcDbLine
 10
2158.540608108046
 20
4354.044811104377
 30
0.0
 11
2158.540608108042
 21
4101.419996260784
 31
0.0
  0
LINE
  5
2940
330
1A
100
AcDbEntity
  8
部品1
100
AcDbLine
 10
2224.540608108042
 20
4354.044811104377
 30
0.0
 11
2224.540608108046
 21
4101.419996260784
 31
0.0
  0
ARC
  5
2941
330
1A
100
AcDbEntity
  8
部品1
100
AcDbCircle
 10
7821.540608108044
 20
4297.874516173435
 30
0.0
 40
3.0
100
AcDbArc
 50
270.0
 51
0.0
  0
ARC
  5
2942
330
1A
100
AcDbEntity
  8
部品1
100
AcDbCircle
 10
7761.540608108044
 20
4297.874516173433
 30
0.0
 40
3.0
100
AcDbArc
 50
180.0
 51
270.0
  0
ARC
  5
2943
330
1A
100
AcDbEntity
  8
部品1
100
AcDbCircle
 10
7761.540608108044
 20
4354.044811104377
 30
0.0
 40
3.0
100
AcDbArc
 50
90.0
 51
180.0
  0
ARC
  5
2944
330
1A
100
AcDbEntity
  8
部品1
100
AcDbCircle
 10
7821.540608108041
 20
4354.044811104377
 30
0.0
 40
3.0
100
AcDbArc
 50
0.0
 51
90.0
  0
LINE
  5
2945
330
1A
100
AcDbEntity
  8
細線
100
AcDbLine
 10
7778.540608108045
 20
4276.869496260782
 30
0.0
 11
7778.540608108044
 21
4101.419996260784
 31
0.0
  0
LINE
  5
2946
330
1A
100
AcDbEntity
  8
細線
100
AcDbLine
 10
7804.540608108045
 20
4276.869496260782
 30
0.0
 11
7804.540608108045
 21
4101.419996260784
 31
0.0
  0
LINE
  5
2947
330
1A
100
AcDbEntity
  8
細線
100
AcDbLine
 10
7773.540608108044
 20
4276.869496260782
 30
0.0
 11
7773.540608108044
 21
4101.419996260784
 31
0.0
  0
LINE
  5
2948
330
1A
100
AcDbEntity
  8
細線
100
AcDbLine
 10
7809.540608108044
 20
4276.869496260782
 30
0.0
 11
7809.540608108044
 21
4101.419996260784
 31
0.0
  0
LINE
  5
2949
330
1A
100
AcDbEntity
  8
部品1
100
AcDbLine
 10
7761.540608108044
 20
4357.044811104377
 30
0.0
 11
7821.540608108041
 21
4357.044811104377
 31
0.0
  0
LINE
  5
294A
330
1A
100
AcDbEntity
  8
部品1
100
AcDbLine
 10
7758.540608108043
 20
4354.044811104377
 30
0.0
 11
7758.540608108042
 21
4101.419996260784
 31
0.0
  0
LINE
  5
294B
330
1A
100
AcDbEntity
  8
部品1
100
AcDbLine
 10
7824.540608108041
 20
4354.044811104377
 30
0.0
 11
7824.540608108043
 21
4101.419996260784
 31
0.0
  0
LINE
  5
294C
330
1A
100
AcDbEntity
  8
部品1
100
AcDbLine
 10
7758.540608108043
 20
4276.869496260782
 30
0.0
 11
7824.540608108043
 21
4276.869496260782
 31
0.0
  0
LINE
  5
294D
330
1A
100
AcDbEntity
  8
部品1
100
AcDbLine
 10
7761.540608108044
 20
4294.874516173432
 30
0.0
 11
7821.540608108044
 21
4294.874516173435
 31
0.0
  0
LINE
  5
294E
330
1A
100
AcDbEntity
  8
部品1
100
AcDbLine
 10
7758.540608108043
 20
4101.419996260784
 30
0.0
 11
7824.540608108043
 21
4101.419996260784
 31
0.0
  0
LINE
  5
294F
330
1A
100
AcDbEntity
  8
部品1
100
AcDbLine
 10
1964.540608108044
 20
4480.058816120087
 30
0.0
 11
1964.540608108044
 21
4365.187199662494
 31
0.0
  0
LINE
  5
2950
330
1A
100
AcDbEntity
  8
部品1
100
AcDbLine
 10
8018.540608108045
 20
4480.058816120087
 30
0.0
 11
8018.540608108045
 21
4365.187199662494
 31
0.0
  0
ARC
  5
2951
330
1A
100
AcDbEntity
  8
部品1
100
AcDbCircle
 10
1955.118766189069
 20
4467.058816120089
 30
0.0
 40
13.0
100
AcDbArc
 50
90.0
 51
182.4923318052633
  0
ARC
  5
2952
330
1A
100
AcDbEntity
  8
部品1
100
AcDbCircle
 10
1958.987068002789
 20
4264.430289092853
 30
0.0
 40
13.0
100
AcDbArc
 50
182.4923318052633
 51
270.0
  0
LINE
  5
2953
330
1A
100
AcDbEntity
  8
部品1
100
AcDbLine
 10
1942.118766189067
 20
4353.019114883374
 30
0.0
 11
1945.999365346994
 21
4263.864975264413
 31
0.0
  0
ARC
  5
2954
330
1A
100
AcDbEntity
  8
部品1
100
AcDbCircle
 10
8024.094148213297
 20
4378.187199662494
 30
0.0
 40
13.0
100
AcDbArc
 50
270.0
 51
357.5076681947367
  0
ARC
  5
2955
330
1A
100
AcDbEntity
  8
部品1
100
AcDbCircle
 10
8027.962450027018
 20
4467.058816120089
 30
0.0
 40
13.0
100
AcDbArc
 50
357.5076681947367
 51
90.0
  0
LINE
  5
2956
330
1A
100
AcDbEntity
  8
部品1
100
AcDbLine
 10
8040.950152682814
 20
4466.493502291645
 30
0.0
 11
8037.081850869093
 21
4377.621885834052
 31
0.0
  0
CIRCLE
  5
2957
330
1A
100
AcDbEntity
  8
細線
100
AcDbCircle
 10
11988.35157664092
 20
4228.032808289835
 30
0.0
 40
6.0
  0
LWPOLYLINE
  5
2958
330
1A
100
AcDbEntity
  8
細線
100
AcDbPolyline
 90
        6
 70
     1
 43
0.0
 10
11981.85157664092
 20
4231.785585039568
 10
11988.35157664092
 20
4235.5383617893
 10
11994.85157664092
 20
4231.785585039568
 10
11994.85157664092
 20
4224.280031540103
 10
11988.35157664092
 20
4220.527254790371
 10
11981.85157664092
 20
4224.280031540103
  0
CIRCLE
  5
2959
330
1A
100
AcDbEntity
  8
細線
100
AcDbCircle
 10
11988.35157664092
 20
4228.032808289835
 30
0.0
 40
8.0
  0
ARC
  5
295A
330
1A
100
AcDbEntity
  8
部品1
100
AcDbCircle
 10
11940.02423079616
 20
4218.429171466532
 30
0.0
 40
5.0
100
AcDbArc
 50
270.0
 51
350.8505326377247
  0
LINE
  5
295B
330
1A
100
AcDbEntity
  8
部品1
100
AcDbLine
 10
11944.9606152466
 20
4217.634118916401
 30
0.0
 11
11950.94584496152
 21
4254.79568124606
 31
0.0
  0
LINE
  5
295C
330
1A
100
AcDbEntity
  8
部品1
100
AcDbLine
 10
11940.02423079616
 20
4218.429171466532
 30
0.0
 11
11945.84253882757
 21
4254.554337393474
 31
0.0
  0
LINE
  5
295D
330
1A
100
AcDbEntity
  8
部品1
100
AcDbLine
 10
11879.78336771316
 20
4213.429171466532
 30
0.0
 11
11940.02423079616
 21
4213.429171466532
 31
0.0
  0
LINE
  5
295E
330
1A
100
AcDbEntity
  8
部品1
100
AcDbLine
 10
11879.78336771316
 20
4218.429171466532
 30
0.0
 11
11940.02423079616
 21
4218.429171466532
 31
0.0
  0
CIRCLE
  5
295F
330
1A
100
AcDbEntity
  8
細線
100
AcDbCircle
 10
11879.78336771315
 20
4035.947454594116
 30
0.0
 40
6.0
  0
LWPOLYLINE
  5
2960
330
1A
100
AcDbEntity
  8
細線
100
AcDbPolyline
 90
        6
 70
     1
 43
0.0
 10
11873.28336771315
 20
4039.700231343847
 10
11879.78336771315
 20
4043.45300809358
 10
11886.28336771315
 20
4039.700231343847
 10
11886.28336771315
 20
4032.194677844383
 10
11879.78336771315
 20
4028.441901094651
 10
11873.28336771315
 20
4032.194677844383
  0
CIRCLE
  5
2961
330
1A
100
AcDbEntity
  8
細線
100
AcDbCircle
 10
11879.78336771315
 20
4035.947454594116
 30
0.0
 40
8.0
  0
CIRCLE
  5
2962
330
1A
100
AcDbEntity
  8
細線
100
AcDbCircle
 10
11879.78336771315
 20
4137.947454594115
 30
0.0
 40
6.0
  0
LWPOLYLINE
  5
2963
330
1A
100
AcDbEntity
  8
細線
100
AcDbPolyline
 90
        6
 70
     1
 43
0.0
 10
11873.28336771315
 20
4141.700231343848
 10
11879.78336771315
 20
4145.45300809358
 10
11886.28336771315
 20
4141.700231343848
 10
11886.28336771315
 20
4134.194677844383
 10
11879.78336771315
 20
4130.441901094651
 10
11873.28336771315
 20
4134.194677844383
  0
CIRCLE
  5
2964
330
1A
100
AcDbEntity
  8
細線
100
AcDbCircle
 10
11879.78336771315
 20
4137.947454594115
 30
0.0
 40
8.0
  0
LINE
  5
2965
330
1A
100
AcDbEntity
  8
部品1
100
AcDbLine
 10
11913.78336771315
 20
4002.947454594115
 30
0.0
 11
11879.78336771315
 21
4002.947454594115
 31
0.0
  0
LINE
  5
2966
330
1A
100
AcDbEntity
  8
部品1
100
AcDbLine
 10
12167.78514228874
 20
4204.883203673433
 30
0.0
 11
12125.83203019119
 21
4202.899171080487
 31
0.0
  0
LINE
  5
2967
330
1A
100
AcDbEntity
  8
部品1
100
AcDbLine
 10
12164.94608612598
 20
4264.916109317795
 30
0.0
 11
12167.78514228874
 21
4204.883203673433
 31
0.0
  0
LINE
  5
2968
330
1A
100
AcDbEntity
  8
部品1
100
AcDbLine
 10
12122.99297402842
 20
4262.932076724847
 30
0.0
 11
12125.83203019119
 21
4202.899171080486
 31
0.0
  0
LINE
  5
2969
330
1A
100
AcDbEntity
  8
部品1
100
AcDbLine
 10
12124.78336771315
 20
4200.947454594116
 30
0.0
 11
12122.37418527886
 21
4251.890519284005
 31
0.0
  0
ARC
  5
296A
330
1A
100
AcDbEntity
  8
部品1
100
AcDbCircle
 10
12112.38534906516
 20
4251.418130571399
 30
0.0
 40
10.0
100
AcDbArc
 50
2.707595594486153
 51
92.70759559448615
  0
LINE
  5
296B
330
1A
100
AcDbEntity
  8
部品1
100
AcDbLine
 10
12124.78336771315
 20
4200.947454594116
 30
0.0
 11
12104.31676016853
 21
4199.979554612318
 31
0.0
  0
LINE
  5
296C
330
1A
100
AcDbEntity
  8
部品1
100
AcDbLine
 10
12125.75644799717
 20
4204.497384874679
 30
0.0
 11
12124.61803166374
 21
4204.443547268913
 31
0.0
  0
ARC
  5
296D
330
1A
100
AcDbEntity
  8
部品1
100
AcDbCircle
 10
12113.76453442066
 20
4000.202830338237
 30
0.0
 40
200.0
100
AcDbArc
 50
92.70759559448615
 51
179.2136983877133
  0
CIRCLE
  5
296E
330
1A
100
AcDbEntity
  8
細線
100
AcDbCircle
 10
12090.2377060207
 20
4232.851173158421
 30
0.0
 40
6.0
  0
LWPOLYLINE
  5
296F
330
1A
100
AcDbEntity
  8
細線
100
AcDbPolyline
 90
        6
 70
     1
 43
0.0
 10
12083.7377060207
 20
4236.603949908154
 10
12090.2377060207
 20
4240.356726657886
 10
12096.7377060207
 20
4236.603949908154
 10
12096.7377060207
 20
4229.09839640869
 10
12090.2377060207
 20
4225.345619658957
 10
12083.7377060207
 20
4229.09839640869
  0
CIRCLE
  5
2970
330
1A
100
AcDbEntity
  8
細線
100
AcDbCircle
 10
12090.2377060207
 20
4232.851173158421
 30
0.0
 40
8.0
  0
LINE
  5
2971
330
1A
100
AcDbEntity
  8
部品1
100
AcDbLine
 10
12111.91296035255
 20
4261.406966785101
 30
0.0
 11
11950.78336771316
 21
4253.786879799863
 31
0.0
  0
LINE
  5
2972
330
1A
100
AcDbEntity
  8
部品1
100
AcDbLine
 10
12802.08514228874
 20
4234.880307840099
 30
0.0
 11
12760.13203019118
 21
4232.896275247152
 31
0.0
  0
LINE
  5
2973
330
1A
100
AcDbEntity
  8
部品1
100
AcDbLine
 10
12799.24608612598
 20
4294.91321348446
 30
0.0
 11
12802.08514228874
 21
4234.880307840102
 31
0.0
  0
LINE
  5
2974
330
1A
100
AcDbEntity
  8
部品1
100
AcDbLine
 10
12757.29297402842
 20
4292.929180891515
 30
0.0
 11
12760.13203019118
 21
4232.896275247155
 31
0.0
  0
LINE
  5
2975
330
1A
100
AcDbEntity
  8
部品1
100
AcDbLine
 10
13342.58336771315
 20
4258.619996260784
 30
0.0
 11
13340.1847748899
 21
4309.563560647933
 31
0.0
  0
CIRCLE
  5
2976
330
1A
100
AcDbEntity
  8
細線
100
AcDbCircle
 10
13371.00397731746
 20
4293.495244814781
 30
0.0
 40
8.0
  0
LWPOLYLINE
  5
2977
330
1A
100
AcDbEntity
  8
細線
100
AcDbPolyline
 90
        6
 70
     1
 43
0.0
 10
13364.50397731746
 20
4297.248021564513
 10
13371.00397731746
 20
4301.000798314245
 10
13377.50397731746
 20
4297.248021564513
 10
13377.50397731746
 20
4289.742468065049
 10
13371.00397731746
 20
4285.989691315317
 10
13364.50397731746
 20
4289.742468065049
  0
CIRCLE
  5
2978
330
1A
100
AcDbEntity
  8
細線
100
AcDbCircle
 10
13371.00397731746
 20
4293.495244814781
 30
0.0
 40
6.0
  0
LINE
  5
2979
330
1A
100
AcDbEntity
  8
部品1
100
AcDbLine
 10
13342.58336771315
 20
4258.619996260784
 30
0.0
 11
13385.84508837121
 21
4260.6569022751
 31
0.0
  0
ARC
  5
297A
330
1A
100
AcDbEntity
  8
部品1
100
AcDbCircle
 10
13350.17370908346
 20
4310.033872966218
 30
0.0
 40
10.0
100
AcDbArc
 50
92.69568549357613
 51
182.6956854935736
  0
LINE
  5
297B
330
1A
100
AcDbEntity
  8
部品1
100
AcDbLine
 10
13391.59297402842
 20
4322.926285058182
 30
0.0
 11
13393.455658783
 21
4283.539118441609
 31
0.0
  0
ARC
  5
297C
330
1A
100
AcDbEntity
  8
部品1
100
AcDbCircle
 10
13398.45007688985
 20
4283.775312797914
 30
0.0
 40
5.0
100
AcDbArc
 50
182.7075955944861
 51
272.6956854935762
  0
LINE
  5
297D
330
1A
100
AcDbEntity
  8
部品1
100
AcDbLine
 10
13342.4225519305
 20
4262.035552706527
 30
0.0
 11
12802.00956009472
 21
4236.478521634295
 31
0.0
  0
CIRCLE
  5
297E
330
1A
100
AcDbEntity
  8
細線
100
AcDbCircle
 10
13529.78336771315
 20
4216.419996260785
 30
0.0
 40
6.0
  0
LWPOLYLINE
  5
297F
330
1A
100
AcDbEntity
  8
細線
100
AcDbPolyline
 90
        6
 70
     1
 43
0.0
 10
13523.28336771315
 20
4220.172773010517
 10
13529.78336771315
 20
4223.92554976025
 10
13536.28336771315
 20
4220.172773010517
 10
13536.28336771315
 20
4212.667219511053
 10
13529.78336771315
 20
4208.914442761321
 10
13523.28336771315
 20
4212.667219511053
  0
CIRCLE
  5
2980
330
1A
100
AcDbEntity
  8
細線
100
AcDbCircle
 10
13529.78336771315
 20
4216.419996260785
 30
0.0
 40
8.0
  0
CIRCLE
  5
2981
330
1A
100
AcDbEntity
  8
細線
100
AcDbCircle
 10
13476.8866797692
 20
4298.480555388549
 30
0.0
 40
6.0
  0
LWPOLYLINE
  5
2982
330
1A
100
AcDbEntity
  8
細線
100
AcDbPolyline
 90
        6
 70
     1
 43
0.0
 10
13470.3866797692
 20
4302.233332138281
 10
13476.8866797692
 20
4305.986108888013
 10
13483.3866797692
 20
4302.233332138281
 10
13483.3866797692
 20
4294.727778638817
 10
13476.8866797692
 20
4290.975001889084
 10
13470.3866797692
 20
4294.727778638817
  0
CIRCLE
  5
2983
330
1A
100
AcDbEntity
  8
細線
100
AcDbCircle
 10
13476.8866797692
 20
4298.480555388549
 30
0.0
 40
8.0
  0
LINE
  5
2984
330
1A
100
AcDbEntity
  8
部品1
100
AcDbLine
 10
13433.54608612597
 20
4324.910317651126
 30
0.0
 11
13435.40908510669
 21
4285.516506605229
 31
0.0
  0
ARC
  5
2985
330
1A
100
AcDbEntity
  8
部品1
100
AcDbCircle
 10
13430.41466699984
 20
4285.280312248925
 30
0.0
 40
5.0
100
AcDbArc
 50
272.6956854935762
 51
2.707595594486153
  0
CIRCLE
  5
2986
330
1A
100
AcDbEntity
  8
細線
100
AcDbCircle
 10
13413.91502839473
 20
4295.515640136336
 30
0.0
 40
8.0
  0
LWPOLYLINE
  5
2987
330
1A
100
AcDbEntity
  8
細線
100
AcDbPolyline
 90
        6
 70
     1
 43
0.0
 10
13407.41502839474
 20
4299.268416886067
 10
13413.91502839473
 20
4303.0211936358
 10
13420.41502839473
 20
4299.268416886067
 10
13420.41502839473
 20
4291.762863386602
 10
13413.91502839473
 20
4288.010086636872
 10
13407.41502839474
 20
4291.762863386602
  0
CIRCLE
  5
2988
330
1A
100
AcDbEntity
  8
細線
100
AcDbCircle
 10
13413.91502839473
 20
4295.515640136336
 30
0.0
 40
6.0
  0
CIRCLE
  5
2989
330
1A
100
AcDbEntity
  8
細線
100
AcDbCircle
 10
13688.65208467268
 20
4308.451176536086
 30
0.0
 40
6.0
  0
LWPOLYLINE
  5
298A
330
1A
100
AcDbEntity
  8
細線
100
AcDbPolyline
 90
        6
 70
     1
 43
0.0
 10
13682.15208467268
 20
4312.203953285818
 10
13688.65208467268
 20
4315.956730035551
 10
13695.15208467268
 20
4312.203953285818
 10
13695.15208467268
 20
4304.698399786353
 10
13688.65208467268
 20
4300.94562303662
 10
13682.15208467268
 20
4304.698399786353
  0
CIRCLE
  5
298B
330
1A
100
AcDbEntity
  8
細線
100
AcDbCircle
 10
13688.65208467268
 20
4308.451176536086
 30
0.0
 40
8.0
  0
CIRCLE
  5
298C
330
1A
100
AcDbEntity
  8
細線
100
AcDbCircle
 10
13582.76938222094
 20
4303.465865962318
 30
0.0
 40
6.0
  0
LWPOLYLINE
  5
298D
330
1A
100
AcDbEntity
  8
細線
100
AcDbPolyline
 90
        6
 70
     1
 43
0.0
 10
13576.26938222094
 20
4307.21864271205
 10
13582.76938222094
 20
4310.971419461782
 10
13589.26938222094
 20
4307.21864271205
 10
13589.26938222094
 20
4299.713089212586
 10
13582.76938222094
 20
4295.960312462853
 10
13576.26938222094
 20
4299.713089212586
  0
CIRCLE
  5
298E
330
1A
100
AcDbEntity
  8
細線
100
AcDbCircle
 10
13582.76938222094
 20
4303.465865962318
 30
0.0
 40
8.0
  0
ARC
  5
298F
330
1A
100
AcDbEntity
  8
部品1
100
AcDbCircle
 10
13683.78336771316
 20
4154.551892811569
 30
0.0
 40
120.0
100
AcDbArc
 50
92.69568549357613
 51
180.0
  0
CIRCLE
  5
2990
330
1A
100
AcDbEntity
  8
細線
100
AcDbCircle
 10
13529.78336771315
 20
4131.419996260784
 30
0.0
 40
6.0
  0
LWPOLYLINE
  5
2991
330
1A
100
AcDbEntity
  8
細線
100
AcDbPolyline
 90
        6
 70
     1
 43
0.0
 10
13523.28336771315
 20
4135.172773010517
 10
13529.78336771315
 20
4138.925549760248
 10
13536.28336771315
 20
4135.172773010517
 10
13536.28336771315
 20
4127.667219511053
 10
13529.78336771315
 20
4123.914442761319
 10
13523.28336771315
 20
4127.667219511053
  0
CIRCLE
  5
2992
330
1A
100
AcDbEntity
  8
細線
100
AcDbCircle
 10
13529.78336771315
 20
4131.419996260784
 30
0.0
 40
8.0
  0
LINE
  5
2993
330
1A
100
AcDbEntity
  8
部品1
100
AcDbLine
 10
13495.78336771315
 20
4101.419996260784
 30
0.0
 11
13563.78336771316
 21
4101.419996260784
 31
0.0
  0
LINE
  5
2994
330
1A
100
AcDbEntity
  8
部品1
100
AcDbLine
 10
13495.78336771315
 20
4155.773093242721
 30
0.0
 11
13495.78336771315
 21
4101.419996260785
 31
0.0
  0
LINE
  5
2995
330
1A
100
AcDbEntity
  8
部品1
100
AcDbLine
 10
13563.78336771316
 20
4154.551892811569
 30
0.0
 11
13563.78336771316
 21
4101.419996260784
 31
0.0
  0
LINE
  5
2996
330
1A
100
AcDbEntity
  8
部品1
100
AcDbLine
 10
13730.18336771316
 20
4276.869496260784
 30
0.0
 11
13727.78477488993
 21
4327.813060647937
 31
0.0
  0
LINE
  5
2997
330
1A
100
AcDbEntity
  8
部品1
100
AcDbLine
 10
14025.89297402842
 20
4352.923389224848
 30
0.0
 11
14028.73203019118
 21
4292.890483580486
 31
0.0
  0
LINE
  5
2998
330
1A
100
AcDbEntity
  8
部品1
100
AcDbLine
 10
14028.65644799717
 20
4294.488697374681
 30
0.0
 11
13730.0187583982
 21
4280.365623304062
 31
0.0
  0
ARC
  5
2999
330
1A
100
AcDbEntity
  8
部品1
100
AcDbCircle
 10
13717.79584069637
 20
4327.342748329656
 30
0.0
 40
10.0
100
AcDbArc
 50
2.695685493573654
 51
92.69568549357613
  0
LINE
  5
299A
330
1A
100
AcDbEntity
  8
部品1
100
AcDbLine
 10
13678.13961989379
 20
4274.419103134288
 30
0.0
 11
13730.18336771316
 21
4276.869496260782
 31
0.0
  0
LINE
  5
299B
330
1A
100
AcDbEntity
  8
部品1
100
AcDbLine
 10
13349.70339676518
 20
4320.022807159779
 30
0.0
 11
13717.32552837809
 21
4337.331682523218
 31
0.0
  0
ARC
  5
299C
330
1A
100
AcDbEntity
  8
部品1
100
AcDbCircle
 10
13390.78336771315
 20
4155.773093242721
 30
0.0
 40
105.0
100
AcDbArc
 50
0.0
 51
92.69568549357613
  0
LINE
  5
299D
330
1A
100
AcDbEntity
  8
部品1
100
AcDbLine
 10
13430.64982315898
 20
4280.285845152144
 30
0.0
 11
13398.68523304899
 21
4278.780845701132
 31
0.0
  0
LINE
  5
299E
330
1A
100
AcDbEntity
  8
部品1
100
AcDbLine
 10
12760.05644799717
 20
4234.494489041348
 30
0.0
 11
12167.70956009472
 21
4206.481417467626
 31
0.0
  0
ARC
  5
299F
330
1A
100
AcDbEntity
  8
部品1
100
AcDbCircle
 10
14266.35602463569
 20
4466.40928554484
 30
0.0
 40
13.0
100
AcDbArc
 50
358.2326990882403
 51
92.70759559448615
  0
LINE
  5
29A0
330
1A
100
AcDbEntity
  8
部品1
100
AcDbLine
 10
14067.84608612598
 20
4354.907421817794
 30
0.0
 11
14070.68514228874
 21
4294.874516173432
 31
0.0
  0
LINE
  5
29A1
330
1A
100
AcDbEntity
  8
部品1
100
AcDbLine
 10
14071.60844371609
 20
4296.519968838889
 30
0.0
 11
14070.60956009472
 21
4296.472729967629
 31
0.0
  0
LINE
  5
29A2
330
1A
100
AcDbEntity
  8
部品1
100
AcDbLine
 10
14068.84496974735
 20
4354.954660689056
 30
0.0
 11
14071.70292145861
 21
4294.522201596148
 31
0.0
  0
ARC
  5
29A3
330
1A
100
AcDbEntity
  8
部品1
100
AcDbCircle
 10
14108.34847002126
 20
4355.321170616689
 30
0.0
 40
5.0
100
AcDbArc
 50
348.7828223740929
 51
20.16519871825012
  0
LINE
  5
29A4
330
1A
100
AcDbEntity
  8
部品1
100
AcDbLine
 10
14093.85473036113
 20
4295.569797558829
 30
0.0
 11
14071.70292145861
 21
4294.522201596146
 31
0.0
  0
ARC
  5
29A5
330
1A
100
AcDbEntity
  8
部品1
100
AcDbCircle
 10
14093.38234164852
 20
4305.558633772533
 30
0.0
 40
10.0
100
AcDbArc
 50
272.7075955944861
 51
348.7828223740929
  0
LINE
  5
29A6
330
1A
100
AcDbEntity
  8
部品1
100
AcDbLine
 10
14113.25295441433
 20
4354.348528422415
 30
0.0
 11
14103.19131043469
 21
4303.613349383982
 31
0.0
  0
ARC
  5
29A7
330
1A
100
AcDbEntity
  8
部品1
100
AcDbCircle
 10
14263.60284260643
 20
4377.179614235225
 30
0.0
 40
13.0
100
AcDbArc
 50
272.7075955944861
 51
358.2326990882403
  0
LINE
  5
29A8
330
1A
100
AcDbEntity
  8
部品1
100
AcDbLine
 10
14279.34984084671
 20
4466.008361269779
 30
0.0
 11
14276.59665881745
 21
4376.778689960165
 31
0.0
  0
LINE
  5
29A9
330
1A
100
AcDbEntity
  8
部品1
100
AcDbLine
 10
14256.73879567097
 20
4478.968999900591
 30
0.0
 11
14253.1813132736
 21
4363.672233601652
 31
0.0
  0
LINE
  5
29AA
330
1A
100
AcDbEntity
  8
部品1
100
AcDbLine
 10
14265.7419193093
 20
4479.394772622656
 30
0.0
 11
11879.78336771315
 21
4366.558816120086
 31
0.0
  0
LINE
  5
29AB
330
1A
100
AcDbEntity
  8
部品1
100
AcDbLine
 10
14070.68514228874
 20
4294.874516173432
 30
0.0
 11
14028.73203019118
 21
4292.890483580488
 31
0.0
  0
LINE
  5
29AC
330
1A
100
AcDbEntity
  8
細線
100
AcDbLine
 10
14277.77261679291
 20
4414.891078646773
 30
0.0
 11
11879.78336771315
 21
4301.486170409042
 31
0.0
  0
LINE
  5
29AD
330
1A
100
AcDbEntity
  8
細線
100
AcDbLine
 10
14277.4014012384
 20
4402.860111728621
 30
0.0
 11
11879.78336771315
 21
4289.472758893158
 31
0.0
  0
LINE
  5
29AE
330
1A
100
AcDbEntity
  8
部品1
100
AcDbLine
 10
14264.21694793282
 20
4364.19412715741
 30
0.0
 11
11879.78336771316
 21
4251.430289092855
 31
0.0
  0
LINE
  5
29AF
330
1A
100
AcDbEntity
  8
部品1
100
AcDbLine
 10
11879.78336771315
 20
4218.429171466532
 30
0.0
 11
11819.54250463015
 21
4218.429171466532
 31
0.0
  0
LINE
  5
29B0
330
1A
100
AcDbEntity
  8
部品1
100
AcDbLine
 10
11819.54250463015
 20
4218.429171466532
 30
0.0
 11
11813.72419659874
 21
4254.554337393474
 31
0.0
  0
ARC
  5
29B1
330
1A
100
AcDbEntity
  8
部品1
100
AcDbCircle
 10
11819.54250463015
 20
4218.429171466532
 30
0.0
 40
5.0
100
AcDbArc
 50
189.1494673622753
 51
270.0
  0
LINE
  5
29B2
330
1A
100
AcDbEntity
  8
部品1
100
AcDbLine
 10
11814.60612017971
 20
4217.634118916401
 30
0.0
 11
11808.62089046479
 21
4254.79568124606
 31
0.0
  0
LINE
  5
29B3
330
1A
100
AcDbEntity
  8
部品1
100
AcDbLine
 10
11879.78336771315
 20
4213.429171466532
 30
0.0
 11
11819.54250463015
 21
4213.429171466532
 31
0.0
  0
CIRCLE
  5
29B4
330
1A
100
AcDbEntity
  8
細線
100
AcDbCircle
 10
11879.78336771315
 20
4137.947454594115
 30
0.0
 40
8.0
  0
LWPOLYLINE
  5
29B5
330
1A
100
AcDbEntity
  8
細線
100
AcDbPolyline
 90
        6
 70
     1
 43
0.0
 10
11886.28336771315
 20
4141.700231343848
 10
11879.78336771315
 20
4145.45300809358
 10
11873.28336771315
 20
4141.700231343848
 10
11873.28336771315
 20
4134.194677844383
 10
11879.78336771315
 20
4130.441901094651
 10
11886.28336771315
 20
4134.194677844383
  0
CIRCLE
  5
29B6
330
1A
100
AcDbEntity
  8
細線
100
AcDbCircle
 10
11879.78336771315
 20
4137.947454594115
 30
0.0
 40
6.0
  0
CIRCLE
  5
29B7
330
1A
100
AcDbEntity
  8
細線
100
AcDbCircle
 10
11879.78336771315
 20
4035.947454594116
 30
0.0
 40
8.0
  0
LWPOLYLINE
  5
29B8
330
1A
100
AcDbEntity
  8
細線
100
AcDbPolyline
 90
        6
 70
     1
 43
0.0
 10
11886.28336771315
 20
4039.700231343847
 10
11879.78336771315
 20
4043.45300809358
 10
11873.28336771315
 20
4039.700231343847
 10
11873.28336771315
 20
4032.194677844383
 10
11879.78336771315
 20
4028.441901094651
 10
11886.28336771315
 20
4032.194677844383
  0
CIRCLE
  5
29B9
330
1A
100
AcDbEntity
  8
細線
100
AcDbCircle
 10
11879.78336771315
 20
4035.947454594116
 30
0.0
 40
6.0
  0
CIRCLE
  5
29BA
330
1A
100
AcDbEntity
  8
細線
100
AcDbCircle
 10
11771.21515878539
 20
4228.032808289835
 30
0.0
 40
8.0
  0
LWPOLYLINE
  5
29BB
330
1A
100
AcDbEntity
  8
細線
100
AcDbPolyline
 90
        6
 70
     1
 43
0.0
 10
11777.71515878539
 20
4231.785585039568
 10
11771.21515878539
 20
4235.5383617893
 10
11764.71515878539
 20
4231.785585039568
 10
11764.71515878539
 20
4224.280031540103
 10
11771.21515878539
 20
4220.527254790371
 10
11777.71515878539
 20
4224.280031540103
  0
CIRCLE
  5
29BC
330
1A
100
AcDbEntity
  8
細線
100
AcDbCircle
 10
11771.21515878539
 20
4228.032808289835
 30
0.0
 40
6.0
  0
CIRCLE
  5
29BD
330
1A
100
AcDbEntity
  8
細線
100
AcDbCircle
 10
11669.32902940561
 20
4232.851173158421
 30
0.0
 40
8.0
  0
LWPOLYLINE
  5
29BE
330
1A
100
AcDbEntity
  8
細線
100
AcDbPolyline
 90
        6
 70
     1
 43
0.0
 10
11675.82902940561
 20
4236.603949908154
 10
11669.32902940561
 20
4240.356726657886
 10
11662.82902940561
 20
4236.603949908154
 10
11662.82902940561
 20
4229.09839640869
 10
11669.32902940561
 20
4225.345619658957
 10
11675.82902940561
 20
4229.09839640869
  0
CIRCLE
  5
29BF
330
1A
100
AcDbEntity
  8
細線
100
AcDbCircle
 10
11669.32902940561
 20
4232.851173158421
 30
0.0
 40
6.0
  0
ARC
  5
29C0
330
1A
100
AcDbEntity
  8
部品1
100
AcDbCircle
 10
11647.18138636116
 20
4251.418130571399
 30
0.0
 40
10.0
100
AcDbArc
 50
87.29240440551384
 51
177.2924044055138
  0
LINE
  5
29C1
330
1A
100
AcDbEntity
  8
部品1
100
AcDbLine
 10
11634.78336771315
 20
4200.947454594116
 30
0.0
 11
11637.19255014745
 21
4251.890519284005
 31
0.0
  0
ARC
  5
29C2
330
1A
100
AcDbEntity
  8
部品1
100
AcDbCircle
 10
11645.80220100565
 20
4000.202830338237
 30
0.0
 40
200.0
100
AcDbArc
 50
0.7863016122866425
 51
87.29240440551384
  0
LINE
  5
29C3
330
1A
100
AcDbEntity
  8
部品1
100
AcDbLine
 10
11845.78336771316
 20
4002.947454594115
 30
0.0
 11
11879.78336771315
 21
4002.947454594115
 31
0.0
  0
LINE
  5
29C4
330
1A
100
AcDbEntity
  8
部品1
100
AcDbLine
 10
11647.65377507376
 20
4261.406966785101
 30
0.0
 11
11808.78336771316
 21
4253.786879799863
 31
0.0
  0
LINE
  5
29C5
330
1A
100
AcDbEntity
  8
部品1
100
AcDbLine
 10
11634.78336771316
 20
4200.947454594116
 30
0.0
 11
11655.24997525778
 21
4199.979554612318
 31
0.0
  0
CIRCLE
  5
29C6
330
1A
100
AcDbEntity
  8
細線
100
AcDbCircle
 10
10345.65170703158
 20
4295.515640136336
 30
0.0
 40
6.0
  0
LWPOLYLINE
  5
29C7
330
1A
100
AcDbEntity
  8
細線
100
AcDbPolyline
 90
        6
 70
     1
 43
0.0
 10
10352.15170703158
 20
4299.268416886067
 10
10345.65170703158
 20
4303.0211936358
 10
10339.15170703157
 20
4299.268416886067
 10
10339.15170703157
 20
4291.762863386602
 10
10345.65170703158
 20
4288.010086636872
 10
10352.15170703158
 20
4291.762863386602
  0
CIRCLE
  5
29C8
330
1A
100
AcDbEntity
  8
細線
100
AcDbCircle
 10
10345.65170703158
 20
4295.515640136336
 30
0.0
 40
8.0
  0
ARC
  5
29C9
330
1A
100
AcDbEntity
  8
部品1
100
AcDbCircle
 10
10361.11665853646
 20
4283.775312797914
 30
0.0
 40
5.0
100
AcDbArc
 50
267.3043145064239
 51
357.2924044055139
  0
ARC
  5
29CA
330
1A
100
AcDbEntity
  8
部品1
100
AcDbCircle
 10
10329.15206842647
 20
4285.280312248925
 30
0.0
 40
5.0
100
AcDbArc
 50
177.2924044055138
 51
267.3043145064239
  0
LINE
  5
29CB
330
1A
100
AcDbEntity
  8
部品1
100
AcDbLine
 10
10328.91691226733
 20
4280.285845152144
 30
0.0
 11
10360.88150237732
 21
4278.780845701132
 31
0.0
  0
CIRCLE
  5
29CC
330
1A
100
AcDbEntity
  8
細線
100
AcDbCircle
 10
10070.91465075363
 20
4308.451176536086
 30
0.0
 40
8.0
  0
LWPOLYLINE
  5
29CD
330
1A
100
AcDbEntity
  8
細線
100
AcDbPolyline
 90
        6
 70
     1
 43
0.0
 10
10077.41465075363
 20
4312.203953285818
 10
10070.91465075363
 20
4315.956730035551
 10
10064.41465075363
 20
4312.203953285818
 10
10064.41465075363
 20
4304.698399786353
 10
10070.91465075363
 20
4300.94562303662
 10
10077.41465075363
 20
4304.698399786353
  0
CIRCLE
  5
29CE
330
1A
100
AcDbEntity
  8
細線
100
AcDbCircle
 10
10070.91465075363
 20
4308.451176536086
 30
0.0
 40
6.0
  0
ARC
  5
29CF
330
1A
100
AcDbEntity
  8
部品1
100
AcDbCircle
 10
10041.77089472994
 20
4327.342748329656
 30
0.0
 40
10.0
100
AcDbArc
 50
87.3043145064239
 51
177.3043145064263
  0
ARC
  5
29D0
330
1A
100
AcDbEntity
  8
部品1
100
AcDbCircle
 10
10409.39302634285
 20
4310.033872966218
 30
0.0
 40
10.0
100
AcDbArc
 50
357.3043145064263
 51
87.3043145064239
  0
LINE
  5
29D1
330
1A
100
AcDbEntity
  8
部品1
100
AcDbLine
 10
10409.86333866113
 20
4320.022807159779
 30
0.0
 11
10042.24120704822
 21
4337.331682523218
 31
0.0
  0
LINE
  5
29D2
330
1A
100
AcDbEntity
  8
部品1
100
AcDbLine
 10
10081.42711553251
 20
4274.419103134288
 30
0.0
 11
10029.38336771315
 21
4276.869496260782
 31
0.0
  0
CIRCLE
  5
29D3
330
1A
100
AcDbEntity
  8
細線
100
AcDbCircle
 10
10229.78336771316
 20
4131.419996260784
 30
0.0
 40
8.0
  0
LWPOLYLINE
  5
29D4
330
1A
100
AcDbEntity
  8
細線
100
AcDbPolyline
 90
        6
 70
     1
 43
0.0
 10
10236.28336771316
 20
4135.172773010517
 10
10229.78336771316
 20
4138.925549760248
 10
10223.28336771316
 20
4135.172773010517
 10
10223.28336771316
 20
4127.667219511053
 10
10229.78336771316
 20
4123.914442761319
 10
10236.28336771316
 20
4127.667219511053
  0
CIRCLE
  5
29D5
330
1A
100
AcDbEntity
  8
細線
100
AcDbCircle
 10
10229.78336771316
 20
4131.419996260784
 30
0.0
 40
6.0
  0
LINE
  5
29D6
330
1A
100
AcDbEntity
  8
部品1
100
AcDbLine
 10
10195.78336771316
 20
4154.551892811569
 30
0.0
 11
10195.78336771316
 21
4101.419996260784
 31
0.0
  0
CIRCLE
  5
29D7
330
1A
100
AcDbEntity
  8
細線
100
AcDbCircle
 10
10229.78336771316
 20
4216.419996260785
 30
0.0
 40
8.0
  0
LWPOLYLINE
  5
29D8
330
1A
100
AcDbEntity
  8
細線
100
AcDbPolyline
 90
        6
 70
     1
 43
0.0
 10
10236.28336771316
 20
4220.172773010517
 10
10229.78336771316
 20
4223.92554976025
 10
10223.28336771316
 20
4220.172773010517
 10
10223.28336771316
 20
4212.667219511053
 10
10229.78336771316
 20
4208.914442761321
 10
10236.28336771316
 20
4212.667219511053
  0
CIRCLE
  5
29D9
330
1A
100
AcDbEntity
  8
細線
100
AcDbCircle
 10
10229.78336771316
 20
4216.419996260785
 30
0.0
 40
6.0
  0
LINE
  5
29DA
330
1A
100
AcDbEntity
  8
部品1
100
AcDbLine
 10
10263.78336771315
 20
4155.773093242721
 30
0.0
 11
10263.78336771315
 21
4101.419996260785
 31
0.0
  0
LINE
  5
29DB
330
1A
100
AcDbEntity
  8
部品1
100
AcDbLine
 10
10416.98336771316
 20
4258.619996260784
 30
0.0
 11
10373.7216470551
 21
4260.6569022751
 31
0.0
  0
ARC
  5
29DC
330
1A
100
AcDbEntity
  8
部品1
100
AcDbCircle
 10
10368.78336771315
 20
4155.773093242721
 30
0.0
 40
105.0
100
AcDbArc
 50
87.3043145064239
 51
180.0
  0
LINE
  5
29DD
330
1A
100
AcDbEntity
  8
部品1
100
AcDbLine
 10
10263.78336771315
 20
4101.419996260784
 30
0.0
 11
10195.78336771315
 21
4101.419996260784
 31
0.0
  0
ARC
  5
29DE
330
1A
100
AcDbEntity
  8
部品1
100
AcDbCircle
 10
10075.78336771316
 20
4154.551892811569
 30
0.0
 40
120.0
100
AcDbArc
 50
0.0
 51
87.3043145064239
  0
LINE
  5
29DF
330
1A
100
AcDbEntity
  8
部品1
100
AcDbLine
 10
10029.38336771316
 20
4276.869496260784
 30
0.0
 11
10031.78196053638
 21
4327.813060647937
 31
0.0
  0
CIRCLE
  5
29E0
330
1A
100
AcDbEntity
  8
細線
100
AcDbCircle
 10
10282.68005565711
 20
4298.480555388549
 30
0.0
 40
8.0
  0
LWPOLYLINE
  5
29E1
330
1A
100
AcDbEntity
  8
細線
100
AcDbPolyline
 90
        6
 70
     1
 43
0.0
 10
10289.18005565711
 20
4302.233332138281
 10
10282.68005565711
 20
4305.986108888013
 10
10276.18005565711
 20
4302.233332138281
 10
10276.18005565711
 20
4294.727778638817
 10
10282.68005565711
 20
4290.975001889084
 10
10289.18005565711
 20
4294.727778638817
  0
CIRCLE
  5
29E2
330
1A
100
AcDbEntity
  8
細線
100
AcDbCircle
 10
10282.68005565711
 20
4298.480555388549
 30
0.0
 40
6.0
  0
CIRCLE
  5
29E3
330
1A
100
AcDbEntity
  8
細線
100
AcDbCircle
 10
10176.79735320537
 20
4303.465865962318
 30
0.0
 40
8.0
  0
LWPOLYLINE
  5
29E4
330
1A
100
AcDbEntity
  8
細線
100
AcDbPolyline
 90
        6
 70
     1
 43
0.0
 10
10183.29735320537
 20
4307.21864271205
 10
10176.79735320537
 20
4310.971419461782
 10
10170.29735320537
 20
4307.21864271205
 10
10170.29735320537
 20
4299.713089212586
 10
10176.79735320537
 20
4295.960312462853
 10
10183.29735320537
 20
4299.713089212586
  0
CIRCLE
  5
29E5
330
1A
100
AcDbEntity
  8
細線
100
AcDbCircle
 10
10176.79735320537
 20
4303.465865962318
 30
0.0
 40
6.0
  0
CIRCLE
  5
29E6
330
1A
100
AcDbEntity
  8
細線
100
AcDbCircle
 10
10388.56275810885
 20
4293.495244814781
 30
0.0
 40
6.0
  0
LWPOLYLINE
  5
29E7
330
1A
100
AcDbEntity
  8
細線
100
AcDbPolyline
 90
        6
 70
     1
 43
0.0
 10
10395.06275810885
 20
4297.248021564513
 10
10388.56275810885
 20
4301.000798314245
 10
10382.06275810885
 20
4297.248021564513
 10
10382.06275810885
 20
4289.742468065049
 10
10388.56275810885
 20
4285.989691315317
 10
10395.06275810885
 20
4289.742468065049
  0
CIRCLE
  5
29E8
330
1A
100
AcDbEntity
  8
細線
100
AcDbCircle
 10
10388.56275810885
 20
4293.495244814781
 30
0.0
 40
8.0
  0
LINE
  5
29E9
330
1A
100
AcDbEntity
  8
部品1
100
AcDbLine
 10
10416.98336771315
 20
4258.619996260784
 30
0.0
 11
10419.38196053641
 21
4309.563560647933
 31
0.0
  0
ARC
  5
29EA
330
1A
100
AcDbEntity
  8
部品1
100
AcDbCircle
 10
9666.184393777784
 20
4305.558633772533
 30
0.0
 40
10.0
100
AcDbArc
 50
191.2171776259071
 51
267.2924044055139
  0
ARC
  5
29EB
330
1A
100
AcDbEntity
  8
部品1
100
AcDbCircle
 10
9651.218265405052
 20
4355.321170616689
 30
0.0
 40
5.0
100
AcDbArc
 50
159.8348012817499
 51
191.2171776259071
  0
LINE
  5
29EC
330
1A
100
AcDbEntity
  8
部品1
100
AcDbLine
 10
9646.313781011977
 20
4354.348528422415
 30
0.0
 11
9656.375424991624
 21
4303.613349383982
 31
0.0
  0
LINE
  5
29ED
330
1A
100
AcDbEntity
  8
部品1
100
AcDbLine
 10
9665.712005065181
 20
4295.569797558829
 30
0.0
 11
9687.8638139677
 21
4294.522201596146
 31
0.0
  0
LINE
  5
29EE
330
1A
100
AcDbEntity
  8
部品1
100
AcDbLine
 10
9690.721765678965
 20
4354.954660689056
 30
0.0
 11
9687.8638139677
 21
4294.522201596148
 31
0.0
  0
LINE
  5
29EF
330
1A
100
AcDbEntity
  8
部品1
100
AcDbLine
 10
10957.48159313757
 20
4234.880307840099
 30
0.0
 11
10999.43470523512
 21
4232.896275247152
 31
0.0
  0
LINE
  5
29F0
330
1A
100
AcDbEntity
  8
部品1
100
AcDbLine
 10
11591.78159313757
 20
4204.883203673433
 30
0.0
 11
11633.73470523512
 21
4202.899171080487
 31
0.0
  0
LINE
  5
29F1
330
1A
100
AcDbEntity
  8
部品1
100
AcDbLine
 10
9730.910287429145
 20
4294.488697374681
 30
0.0
 11
10029.54797702811
 21
4280.365623304062
 31
0.0
  0
LINE
  5
29F2
330
1A
100
AcDbEntity
  8
部品1
100
AcDbLine
 10
10417.14418349581
 20
4262.035552706527
 30
0.0
 11
10957.55717533159
 21
4236.478521634295
 31
0.0
  0
LINE
  5
29F3
330
1A
100
AcDbEntity
  8
部品1
100
AcDbLine
 10
10999.51028742914
 20
4234.494489041348
 30
0.0
 11
11591.85717533159
 21
4206.481417467626
 31
0.0
  0
LINE
  5
29F4
330
1A
100
AcDbEntity
  8
部品1
100
AcDbLine
 10
11633.81028742914
 20
4204.497384874679
 30
0.0
 11
11634.94870376257
 21
4204.443547268913
 31
0.0
  0
LINE
  5
29F5
330
1A
100
AcDbEntity
  8
部品1
100
AcDbLine
 10
9688.881593137573
 20
4294.874516173432
 30
0.0
 11
9730.834705235128
 21
4292.890483580488
 31
0.0
  0
LINE
  5
29F6
330
1A
100
AcDbEntity
  8
部品1
100
AcDbLine
 10
11636.57376139789
 20
4262.932076724847
 30
0.0
 11
11633.73470523512
 21
4202.899171080486
 31
0.0
  0
LINE
  5
29F7
330
1A
100
AcDbEntity
  8
部品1
100
AcDbLine
 10
11594.62064930033
 20
4264.916109317795
 30
0.0
 11
11591.78159313757
 21
4204.883203673433
 31
0.0
  0
LINE
  5
29F8
330
1A
100
AcDbEntity
  8
部品1
100
AcDbLine
 10
11002.27376139789
 20
4292.929180891515
 30
0.0
 11
10999.43470523512
 21
4232.896275247155
 31
0.0
  0
LINE
  5
29F9
330
1A
100
AcDbEntity
  8
部品1
100
AcDbLine
 10
10960.32064930033
 20
4294.91321348446
 30
0.0
 11
10957.48159313757
 21
4234.880307840102
 31
0.0
  0
LINE
  5
29FA
330
1A
100
AcDbEntity
  8
部品1
100
AcDbLine
 10
10367.97376139789
 20
4322.926285058182
 30
0.0
 11
10366.11107664331
 21
4283.539118441609
 31
0.0
  0
LINE
  5
29FB
330
1A
100
AcDbEntity
  8
部品1
100
AcDbLine
 10
10326.02064930034
 20
4324.910317651126
 30
0.0
 11
10324.15765031962
 21
4285.516506605229
 31
0.0
  0
LINE
  5
29FC
330
1A
100
AcDbEntity
  8
部品1
100
AcDbLine
 10
9733.673761397891
 20
4352.923389224848
 30
0.0
 11
9730.834705235128
 21
4292.890483580486
 31
0.0
  0
LINE
  5
29FD
330
1A
100
AcDbEntity
  8
部品1
100
AcDbLine
 10
9691.720649300336
 20
4354.907421817794
 30
0.0
 11
9688.881593137573
 21
4294.874516173432
 31
0.0
  0
LINE
  5
29FE
330
1A
100
AcDbEntity
  8
部品1
100
AcDbLine
 10
9687.95829171022
 20
4296.519968838889
 30
0.0
 11
9688.957175331589
 21
4296.472729967629
 31
0.0
  0
LINE
  5
29FF
330
1A
100
AcDbEntity
  8
部品1
100
AcDbLine
 10
9502.827939755345
 20
4478.968999900591
 30
0.0
 11
9506.385422152709
 21
4363.672233601652
 31
0.0
  0
ARC
  5
2A00
330
1A
100
AcDbEntity
  8
部品1
100
AcDbCircle
 10
9495.963892819879
 20
4377.179614235225
 30
0.0
 40
13.0
100
AcDbArc
 50
181.7673009117597
 51
267.2924044055139
  0
ARC
  5
2A01
330
1A
100
AcDbEntity
  8
部品1
100
AcDbCircle
 10
9493.210710790618
 20
4466.40928554484
 30
0.0
 40
13.0
100
AcDbArc
 50
87.29240440551384
 51
181.7673009117597
  0
LINE
  5
2A02
330
1A
100
AcDbEntity
  8
部品1
100
AcDbLine
 10
9480.216894579603
 20
4466.008361269779
 30
0.0
 11
9482.970076608864
 21
4376.778689960165
 31
0.0
  0
LINE
  5
2A03
330
1A
100
AcDbEntity
  8
細線
100
AcDbLine
 10
9481.794118633402
 20
4414.891078646773
 30
0.0
 11
11879.78336771315
 21
4301.486170409042
 31
0.0
  0
LINE
  5
2A04
330
1A
100
AcDbEntity
  8
細線
100
AcDbLine
 10
9482.165334187913
 20
4402.860111728621
 30
0.0
 11
11879.78336771315
 21
4289.472758893158
 31
0.0
  0
LINE
  5
2A05
330
1A
100
AcDbEntity
  8
部品1
100
AcDbLine
 10
9495.349787493493
 20
4364.19412715741
 30
0.0
 11
11879.78336771315
 21
4251.430289092855
 31
0.0
  0
LINE
  5
2A06
330
1A
100
AcDbEntity
  8
部品1
100
AcDbLine
 10
9493.82481611701
 20
4479.394772622656
 30
0.0
 11
11879.78336771315
 21
4366.558816120086
 31
0.0
  0
LINE
  5
2A07
330
1A
100
AcDbEntity
  8
点線
 48
50.0
100
AcDbLine
 10
5620.748449930236
 20
6165.620619012558
 30
0.0
 11
8011.540608108042
 21
6165.620619012543
 31
0.0
  0
LINE
  5
2A08
330
1A
100
AcDbEntity
  8
点線
 48
50.0
100
AcDbLine
 10
5429.376340571415
 20
6799.920619012553
 30
0.0
 11
8011.54060810804
 21
6799.920619012548
 31
0.0
  0
LINE
  5
2A09
330
1A
100
AcDbEntity
  8
点線
 48
50.0
100
AcDbLine
 10
5238.004231212601
 20
7434.220619012553
 30
0.0
 11
8011.540608108042
 21
7434.22061901256
 31
0.0
  0
LINE
  5
2A0A
330
1A
100
AcDbEntity
  8
点線
 48
50.0
100
AcDbLine
 10
5046.63212185378
 20
8068.520619012558
 30
0.0
 11
8011.540608108042
 21
8068.520619012559
 31
0.0
  0
LINE
  5
2A0B
330
1A
100
AcDbEntity
  8
点線
 48
50.0
100
AcDbLine
 10
8011.540608108042
 20
8503.720619012547
 30
0.0
 11
4915.329675073148
 21
8503.720619012547
 31
0.0
  0
LINE
  5
2A0C
330
1A
100
AcDbEntity
  8
点線
 48
50.0
100
AcDbLine
 10
8011.54060810804
 20
9138.02061901255
 30
0.0
 11
4723.957565714328
 21
9138.020619012552
 31
0.0
  0
LINE
  5
2A0D
330
1A
100
AcDbEntity
  8
点線
 48
50.0
100
AcDbLine
 10
8011.540608108042
 20
9772.320619012552
 30
0.0
 11
4532.585456355511
 21
9772.320619012553
 31
0.0
  0
LINE
  5
2A0E
330
1A
100
AcDbEntity
  8
点線
 48
50.0
100
AcDbLine
 10
8011.540608108042
 20
10406.62061901256
 30
0.0
 11
4341.213346996692
 21
10406.62061901255
 31
0.0
  0
LINE
  5
2A0F
330
1A
100
AcDbEntity
  8
部品1
100
AcDbLine
 10
4532.585456355513
 20
9772.320619012552
 30
0.0
 11
2011.540608108044
 21
9772.320619012548
 31
0.0
  0
LINE
  5
2A10
330
1A
100
AcDbEntity
  8
部品1
100
AcDbLine
 10
4341.213346996692
 20
10406.62061901256
 30
0.0
 11
2011.540608108045
 21
10406.62061901256
 31
0.0
  0
LINE
  5
2A11
330
1A
100
AcDbEntity
  8
部品1
100
AcDbLine
 10
4915.329675073148
 20
8503.720619012545
 30
0.0
 11
2011.540608108044
 21
8503.720619012545
 31
0.0
  0
LINE
  5
2A12
330
1A
100
AcDbEntity
  8
部品1
100
AcDbLine
 10
4723.957565714334
 20
9138.020619012541
 30
0.0
 11
2011.540608108044
 21
9138.020619012548
 31
0.0
  0
LINE
  5
2A13
330
1A
100
AcDbEntity
  8
部品1
100
AcDbLine
 10
5238.004231212601
 20
7434.220619012555
 30
0.0
 11
2011.540608108044
 21
7434.220619012551
 31
0.0
  0
LINE
  5
2A14
330
1A
100
AcDbEntity
  8
部品1
100
AcDbLine
 10
5046.632121853783
 20
8068.52061901255
 30
0.0
 11
2011.540608108044
 21
8068.520619012559
 31
0.0
  0
LINE
  5
2A15
330
1A
100
AcDbEntity
  8
点線
 48
6.0
100
AcDbLine
 10
2221.540608108044
 20
8367.620619012553
 30
0.0
 11
2221.540608108044
 21
8204.620619012549
 31
0.0
  0
LINE
  5
2A16
330
1A
100
AcDbEntity
  8
点線
 48
6.0
100
AcDbLine
 10
2161.540608108044
 20
8367.620619012553
 30
0.0
 11
2161.540608108044
 21
8204.620619012549
 31
0.0
  0
LINE
  5
2A17
330
1A
100
AcDbEntity
  8
点線
 48
50.0
100
AcDbLine
 10
5005.56993663585
 20
8204.620619012549
 30
0.0
 11
7983.040608108045
 21
8204.620619012551
 31
0.0
  0
LINE
  5
2A18
330
1A
100
AcDbEntity
  8
点線
 48
50.0
100
AcDbLine
 10
4956.391860291081
 20
8367.620619012553
 30
0.0
 11
7980.040608108045
 21
8367.620619012551
 31
0.0
  0
LINE
  5
2A19
330
1A
100
AcDbEntity
  8
部品1
100
AcDbLine
 10
1986.540608108043
 20
8251.120619012551
 30
0.0
 11
2011.540608108044
 21
8251.120619012551
 31
0.0
  0
LINE
  5
2A1A
330
1A
100
AcDbEntity
  8
部品1
100
AcDbLine
 10
1986.540608108043
 20
8321.120619012551
 30
0.0
 11
2011.540608108044
 21
8321.120619012551
 31
0.0
  0
LINE
  5
2A1B
330
1A
100
AcDbEntity
  8
部品1
100
AcDbLine
 10
4991.540608108048
 20
8251.120619012551
 30
0.0
 11
7996.540608108045
 21
8251.120619012557
 31
0.0
  0
LINE
  5
2A1C
330
1A
100
AcDbEntity
  8
部品1
100
AcDbLine
 10
4970.421188818882
 20
8321.120619012557
 30
0.0
 11
7996.540608108041
 21
8321.120619012559
 31
0.0
  0
LINE
  5
2A1D
330
1A
100
AcDbEntity
  8
部品1
100
AcDbLine
 10
7996.540608108045
 20
5956.120619012557
 30
0.0
 11
1986.540608108043
 21
5956.120619012543
 31
0.0
  0
LINE
  5
2A1E
330
1A
100
AcDbEntity
  8
部品1
100
AcDbLine
 10
1964.040608108044
 20
5886.120619012551
 30
0.0
 11
1964.040608108044
 21
5931.12061901255
 31
0.0
  0
ARC
  5
2A1F
330
1A
100
AcDbEntity
  8
部品1
100
AcDbCircle
 10
1969.040608108043
 20
5931.12061901255
 30
0.0
 40
5.0
100
AcDbArc
 50
90.0
 51
180.0
  0
LINE
  5
2A20
330
1A
100
AcDbEntity
  8
部品1
100
AcDbLine
 10
1986.540608108043
 20
5936.120619012551
 30
0.0
 11
1969.040608108043
 21
5936.120619012551
 31
0.0
  0
LINE
  5
2A21
330
1A
100
AcDbEntity
  8
部品1
100
AcDbLine
 10
8019.040608108042
 20
5931.12061901255
 30
0.0
 11
8019.040608108044
 21
5886.120619012555
 31
0.0
  0
LINE
  5
2A22
330
1A
100
AcDbEntity
  8
部品1
100
AcDbLine
 10
8014.040608108041
 20
5936.120619012551
 30
0.0
 11
7996.540608108041
 21
5936.120619012551
 31
0.0
  0
ARC
  5
2A23
330
1A
100
AcDbEntity
  8
部品1
100
AcDbCircle
 10
8014.040608108041
 20
5931.12061901255
 30
0.0
 40
5.0
100
AcDbArc
 50
0.0
 51
90.0
  0
ARC
  5
2A24
330
1A
100
AcDbEntity
  8
部品1
100
AcDbCircle
 10
8014.040608108041
 20
10641.12061901255
 30
0.0
 40
5.0
100
AcDbArc
 50
270.0
 51
0.0
  0
LINE
  5
2A25
330
1A
100
AcDbEntity
  8
部品1
100
AcDbLine
 10
8014.040608108041
 20
10636.12061901255
 30
0.0
 11
7996.540608108041
 21
10636.12061901255
 31
0.0
  0
ARC
  5
2A26
330
1A
100
AcDbEntity
  8
部品1
100
AcDbCircle
 10
1969.040608108043
 20
10641.12061901255
 30
0.0
 40
5.0
100
AcDbArc
 50
180.0
 51
270.0
  0
LINE
  5
2A27
330
1A
100
AcDbEntity
  8
部品1
100
AcDbLine
 10
1986.540608108043
 20
10636.12061901255
 30
0.0
 11
1969.040608108043
 21
10636.12061901255
 31
0.0
  0
LINE
  5
2A28
330
1A
100
AcDbEntity
  8
部品1
100
AcDbLine
 10
7996.540608108041
 20
10616.12061901255
 30
0.0
 11
1986.540608108043
 21
10616.12061901255
 31
0.0
  0
LINE
  5
2A29
330
1A
100
AcDbEntity
  8
部品1
100
AcDbLine
 10
7996.540608108041
 20
8286.120619012553
 30
0.0
 11
8041.540608108043
 21
8286.120619012553
 31
0.0
  0
LINE
  5
2A2A
330
1A
100
AcDbEntity
  8
部品1
100
AcDbLine
 10
1986.540608108043
 20
8286.120619012553
 30
0.0
 11
1941.540608108043
 21
8286.120619012553
 31
0.0
  0
DIMENSION
  5
2A2B
330
1A
100
AcDbEntity
  8
寸法
100
AcDbDimension
  2
*D73
 10
1695.022956010812
 20
2369.058816120087
 30
0.0
 11
1855.034767034435
 21
2234.058816120088
 31
0.0
 70
    32
 71
     5
 42
270.0
  3
物置仕様図40
100
AcDbAlignedDimension
 13
2161.540608108044
 23
2099.058816120087
 33
0.0
 14
1481.35927109274
 24
2369.058816120087
 34
0.0
 50
270.0
100
AcDbRotatedDimension
  0
DIMENSION
  5
2A2C
330
1A
100
AcDbEntity
  8
寸法
100
AcDbDimension
  2
*D74
 10
9391.81071627685
 20
3519.058816120087
 30
0.0
 11
9291.810716276851
 21
3069.058816120089
 31
0.0
 70
    32
 71
     5
 42
900.0
  3
物置仕様図40
100
AcDbAlignedDimension
 13
10259.78336771316
 23
2619.058816120087
 33
0.0
 14
10259.78336771316
 24
3519.058816120087
 34
0.0
 50
90.0
100
AcDbRotatedDimension
1001
ACAD
1000
DSTYLE
1002
{
1070
    75
1070
     1
1002
}
  0
DIMENSION
  5
2A2D
330
1A
100
AcDbEntity
  8
寸法
100
AcDbDimension
  2
*D75
 10
9391.81071627685
 20
2619.058816120087
 30
0.0
 11
9281.254079217594
 21
2494.058816120087
 31
0.0
 70
   160
 71
     5
 42
250.0
  3
物置仕様図40
100
AcDbAlignedDimension
 13
9375.710487269302
 23
2369.058816120087
 33
0.0
 14
10259.78336771316
 24
2619.058816120087
 34
0.0
 50
90.0
100
AcDbRotatedDimension
  0
DIMENSION
  5
2A2E
330
1A
100
AcDbEntity
  8
寸法
100
AcDbDimension
  2
*D76
 10
14796.91192884818
 20
2369.058816120087
 30
0.0
 11
14675.47383846734
 21
2549.461862598048
 31
0.0
 70
   160
 71
     5
 42
50.0
  3
物置仕様図40
100
AcDbAlignedDimension
 13
14279.78336771315
 23
2419.058816120087
 33
0.0
 14
14809.05573788627
 24
2369.058816120087
 34
0.0
 50
90.0
100
AcDbRotatedDimension
  0
LINE
  5
2A2F
330
1A
100
AcDbEntity
  8
センター
 48
10.0
100
AcDbLine
 10
13529.78336771315
 20
4183.078148876734
 30
0.0
 11
13529.78336771315
 21
2419.058816120087
 31
0.0
  0
LINE
  5
2A30
330
1A
100
AcDbEntity
  8
センター
 48
10.0
100
AcDbLine
 10
11879.78336771315
 20
4480.058816120087
 30
0.0
 11
11879.78336771315
 21
2419.058816120087
 31
0.0
  0
LINE
  5
2A31
330
1A
100
AcDbEntity
  8
センター
 48
10.0
100
AcDbLine
 10
10229.78336771315
 20
4183.078148876735
 30
0.0
 11
10229.78336771315
 21
2419.058816120087
 31
0.0
  0
DIMENSION
  5
2A32
330
1A
100
AcDbEntity
  8
寸法
100
AcDbDimension
  2
*D77
 10
1367.870956908438
 20
8026.020619012554
 30
0.0
 11
1207.859145884817
 21
8068.085528056217
 31
0.0
 70
   160
 71
     5
 42
260.0999999999985
  3
物置仕様図40
100
AcDbAlignedDimension
 13
1941.540608108043
 23
8286.120619012553
 33
0.0
 14
1941.540608108043
 24
8026.020619012554
 34
0.0
 50
90.0
100
AcDbRotatedDimension
1001
ACAD
1000
DSTYLE
1002
{
1070
    75
1070
     1
1002
}
  0
DIMENSION
  5
2A33
330
1A
100
AcDbEntity
  8
寸法
100
AcDbDimension
  2
*D78
 10
8656.993531295164
 20
10686.12061901255
 30
0.0
 11
8584.969369210027
 21
10778.24091587259
 31
0.0
 70
   160
 71
     5
 42
70.00000000000364
  3
物置仕様図40
100
AcDbAlignedDimension
 13
7993.040608108036
 23
10616.12061901255
 33
0.0
 14
8031.540608108043
 24
10686.12061901255
 34
0.0
 50
90.0
100
AcDbRotatedDimension
1001
ACAD
1000
DSTYLE
1002
{
1070
    75
1070
     1
1002
}
  0
DIMENSION
  5
2A34
330
1A
100
AcDbEntity
  8
寸法
100
AcDbDimension
  2
*D79
 10
8656.993531295164
 20
5886.120619012552
 30
0.0
 11
8567.659428881663
 21
5779.883997147961
 31
0.0
 70
   160
 71
     5
 42
70.00000000000546
  3
物置仕様図40
100
AcDbAlignedDimension
 13
7996.540608108045
 23
5956.120619012557
 33
0.0
 14
8031.540608108043
 24
5886.120619012552
 34
0.0
 50
90.0
100
AcDbRotatedDimension
1001
ACAD
1000
DSTYLE
1002
{
1070
    75
1070
     1
1002
}
  0
DIMENSION
  5
2A35
330
1A
100
AcDbEntity
  8
寸法
100
AcDbDimension
  2
*D80
 10
8656.993531295164
 20
5956.120619012557
 30
0.0
 11
8556.98172027154
 21
7103.620619012558
 31
0.0
 70
    32
 71
     5
 42
2294.999999999998
  3
物置仕様図40
100
AcDbAlignedDimension
 13
7996.540608108045
 23
8251.120619012557
 33
0.0
 14
7996.540608108045
 24
5956.120619012557
 34
0.0
 50
90.0
100
AcDbRotatedDimension
1001
ACAD
1000
DSTYLE
1002
{
1070
    75
1070
     1
1002
}
  0
DIMENSION
  5
2A36
330
1A
100
AcDbEntity
  8
寸法
100
AcDbDimension
  2
*D81
 10
8656.993531295164
 20
8251.120619012557
 30
0.0
 11
8936.993531295163
 21
8286.12061901256
 31
0.0
 70
    32
 71
     5
 42
70.00000000000364
  3
物置仕様図40
100
AcDbAlignedDimension
 13
7996.540608108043
 23
8321.120619012559
 33
0.0
 14
7996.540608108045
 24
8251.120619012557
 34
0.0
 50
90.0
100
AcDbRotatedDimension
1001
ACAD
1000
DSTYLE
1002
{
1070
    75
1070
     1
1002
}
  0
DIMENSION
  5
2A37
330
1A
100
AcDbEntity
  8
寸法
100
AcDbDimension
  2
*D82
 10
8656.993531295164
 20
8321.120619012559
 30
0.0
 11
8556.98172027154
 21
9468.620619012556
 31
0.0
 70
    32
 71
     5
 42
2294.999999999989
  3
物置仕様図40
100
AcDbAlignedDimension
 13
7996.540608108041
 23
10616.12061901255
 33
0.0
 14
7996.540608108043
 24
8321.120619012559
 34
0.0
 50
90.0
100
AcDbRotatedDimension
  0
DIMENSION
  5
2A38
330
1A
100
AcDbEntity
  8
寸法
100
AcDbDimension
  2
*D83
 10
892.4227855077916
 20
5886.120619012551
 30
0.0
 11
792.4227855077908
 21
8286.120619012553
 31
0.0
 70
    32
 71
     5
 42
4800.000000000002
  3
物置仕様図40
100
AcDbAlignedDimension
 13
1951.540608108044
 23
10686.12061901255
 33
0.0
 14
1951.540608108044
 24
5886.120619012551
 34
0.0
 50
90.0
100
AcDbRotatedDimension
  0
DIMENSION
  5
2A39
330
1A
100
AcDbEntity
  8
寸法
100
AcDbDimension
  2
*D84
 10
1367.870956908438
 20
5886.120619012551
 30
0.0
 11
1281.195924353022
 21
6004.62061901255
 31
0.0
 70
   160
 71
     5
 42
237.0
  3
物置仕様図40
100
AcDbAlignedDimension
 13
1941.540608108043
 23
6123.12061901255
 33
0.0
 14
1951.540608108044
 24
5886.120619012551
 34
0.0
 50
90.0
100
AcDbRotatedDimension
1001
ACAD
1000
DSTYLE
1002
{
1070
    75
1070
     1
1002
}
  0
DIMENSION
  5
2A3A
330
1A
100
AcDbEntity
  8
寸法
100
AcDbDimension
  2
*D85
 10
1367.870956908438
 20
6123.12061901255
 30
0.0
 11
1267.870956908437
 21
6440.270619012551
 31
0.0
 70
    32
 71
     5
 42
634.300000000001
  3
物置仕様図40
100
AcDbAlignedDimension
 13
1941.540608108043
 23
6757.420619012552
 33
0.0
 14
1941.540608108043
 24
6123.12061901255
 34
0.0
 50
90.0
100
AcDbRotatedDimension
1001
ACAD
1000
DSTYLE
1002
{
1070
    75
1070
     1
1002
}
  0
DIMENSION
  5
2A3B
330
1A
100
AcDbEntity
  8
寸法
100
AcDbDimension
  2
*D86
 10
1367.870956908438
 20
6757.420619012552
 30
0.0
 11
1267.870956908437
 21
7074.570619012551
 31
0.0
 70
    32
 71
     5
 42
634.2999999999992
  3
物置仕様図40
100
AcDbAlignedDimension
 13
1941.540608108043
 23
7391.720619012551
 33
0.0
 14
1941.540608108043
 24
6757.420619012552
 34
0.0
 50
90.0
100
AcDbRotatedDimension
1001
ACAD
1000
DSTYLE
1002
{
1070
    75
1070
     1
1002
}
  0
DIMENSION
  5
2A3C
330
1A
100
AcDbEntity
  8
寸法
100
AcDbDimension
  2
*D87
 10
1367.870956908438
 20
7391.720619012551
 30
0.0
 11
1257.790302725618
 21
7601.205545746511
 31
0.0
 70
   160
 71
     5
 42
634.3000000000029
  3
物置仕様図40
100
AcDbAlignedDimension
 13
1941.540608108043
 23
8026.020619012554
 33
0.0
 14
1941.540608108043
 24
7391.720619012551
 34
0.0
 50
90.0
100
AcDbRotatedDimension
1001
ACAD
1000
DSTYLE
1002
{
1070
    75
1070
     1
1002
}
  0
DIMENSION
  5
2A3D
330
1A
100
AcDbEntity
  8
寸法
100
AcDbDimension
  2
*D88
 10
1367.870956908438
 20
8286.120619012553
 30
0.0
 11
1207.859145884817
 21
8471.537888503204
 31
0.0
 70
   160
 71
     5
 42
260.0999999999949
  3
物置仕様図40
100
AcDbAlignedDimension
 13
1941.540608108043
 23
8546.220619012547
 33
0.0
 14
1941.540608108043
 24
8286.120619012553
 34
0.0
 50
90.0
100
AcDbRotatedDimension
1001
ACAD
1000
DSTYLE
1002
{
1070
    75
1070
     1
1002
}
  0
DIMENSION
  5
2A3E
330
1A
100
AcDbEntity
  8
寸法
100
AcDbDimension
  2
*D89
 10
1367.870956908438
 20
8546.220619012547
 30
0.0
 11
1270.572535303916
 21
8975.492142007752
 31
0.0
 70
   160
 71
     5
 42
634.3000000000029
  3
物置仕様図40
100
AcDbAlignedDimension
 13
1941.540608108043
 23
9180.520619012551
 33
0.0
 14
1941.540608108043
 24
8546.220619012547
 34
0.0
 50
90.0
100
AcDbRotatedDimension
1001
ACAD
1000
DSTYLE
1002
{
1070
   172
1070
     1
1070
    75
1070
     1
1002
}
  0
DIMENSION
  5
2A3F
330
1A
100
AcDbEntity
  8
寸法
100
AcDbDimension
  2
*D90
 10
1367.870956908438
 20
9180.520619012551
 30
0.0
 11
1267.870956908437
 21
9497.67061901255
 31
0.0
 70
    32
 71
     5
 42
634.2999999999992
  3
物置仕様図40
100
AcDbAlignedDimension
 13
1941.540608108043
 23
9814.82061901255
 33
0.0
 14
1941.540608108043
 24
9180.520619012551
 34
0.0
 50
90.0
100
AcDbRotatedDimension
1001
ACAD
1000
DSTYLE
1002
{
1070
    75
1070
     1
1002
}
  0
DIMENSION
  5
2A40
330
1A
100
AcDbEntity
  8
寸法
100
AcDbDimension
  2
*D91
 10
1367.870956908438
 20
9814.82061901255
 30
0.0
 11
1267.870956908437
 21
10131.97061901255
 31
0.0
 70
    32
 71
     5
 42
634.3000000000029
  3
物置仕様図40
100
AcDbAlignedDimension
 13
1941.540608108043
 23
10449.12061901255
 33
0.0
 14
1941.540608108043
 24
9814.82061901255
 34
0.0
 50
90.0
100
AcDbRotatedDimension
1001
ACAD
1000
DSTYLE
1002
{
1070
    75
1070
     1
1002
}
  0
DIMENSION
  5
2A41
330
1A
100
AcDbEntity
  8
寸法
100
AcDbDimension
  2
*D92
 10
1367.870956908438
 20
10449.12061901255
 30
0.0
 11
1262.405509913456
 21
10567.62061901255
 31
0.0
 70
   160
 71
     5
 42
237.0
  3
物置仕様図40
100
AcDbAlignedDimension
 13
1951.540608108044
 23
10686.12061901255
 33
0.0
 14
1941.540608108043
 24
10449.12061901255
 34
0.0
 50
90.0
100
AcDbRotatedDimension
  0
LINE
  5
2A42
330
1A
100
AcDbEntity
  8
点線
 48
50.0
100
AcDbLine
 10
2161.540608108046
 20
2419.058816120087
 30
0.0
 11
2161.540608108044
 21
2099.058816120087
 31
0.0
  0
LINE
  5
2A43
330
1A
100
AcDbEntity
  8
点線
 48
50.0
100
AcDbLine
 10
2221.540608108044
 20
2419.058816120087
 30
0.0
 11
2221.540608108044
 21
2099.058816120087
 31
0.0
  0
LINE
  5
2A44
330
1A
100
AcDbEntity
  8
点線
 48
50.0
100
AcDbLine
 10
7761.540608108044
 20
2419.058816120087
 30
0.0
 11
7761.540608108044
 21
2099.058816120087
 31
0.0
  0
LINE
  5
2A45
330
1A
100
AcDbEntity
  8
点線
 48
50.0
100
AcDbLine
 10
7821.540608108044
 20
2419.058816120087
 30
0.0
 11
7821.540608108044
 21
2099.058816120087
 31
0.0
  0
LINE
  5
2A46
330
1A
100
AcDbEntity
  8
部品1
100
AcDbLine
 10
1941.540608108043
 20
2419.058816120087
 30
0.0
 11
1941.540608108043
 21
2369.058816120087
 31
0.0
  0
LINE
  5
2A47
330
1A
100
AcDbEntity
  8
部品1
100
AcDbLine
 10
8041.540608108043
 20
2419.058816120087
 30
0.0
 11
8041.540608108043
 21
2369.058816120087
 31
0.0
  0
LINE
  5
2A48
330
1A
100
AcDbEntity
  8
部品1
100
AcDbLine
 10
8041.540608108043
 20
2419.058816120087
 30
0.0
 11
1941.540608108043
 21
2419.058816120087
 31
0.0
  0
LINE
  5
2A49
330
1A
100
AcDbEntity
  8
部品1
100
AcDbLine
 10
3574.040608108044
 20
2729.058816120089
 30
0.0
 11
3574.040608108044
 21
2664.058816120089
 31
0.0
  0
LINE
  5
2A4A
330
1A
100
AcDbEntity
  8
部品1
100
AcDbLine
 10
3609.040608108044
 20
2729.058816120089
 30
0.0
 11
3609.040608108044
 21
2664.058816120089
 31
0.0
  0
LINE
  5
2A4B
330
1A
100
AcDbEntity
  8
部品1
100
AcDbLine
 10
2221.540608108044
 20
2729.058816120089
 30
0.0
 11
4961.540608108045
 21
2729.058816120089
 31
0.0
  0
LINE
  5
2A4C
330
1A
100
AcDbEntity
  8
部品1
100
AcDbLine
 10
2221.540608108044
 20
3099.058816120089
 30
0.0
 11
3610.715028916029
 21
3099.058816120089
 31
0.0
  0
LINE
  5
2A4D
330
1A
100
AcDbEntity
  8
部品1
100
AcDbLine
 10
2221.540608108044
 20
3069.058816120089
 30
0.0
 11
3619.766208611385
 21
3069.058816120089
 31
0.0
  0
LINE
  5
2A4E
330
1A
100
AcDbEntity
  8
部品1
100
AcDbLine
 10
2221.540608108044
 20
2664.058816120089
 30
0.0
 11
4961.540608108045
 21
2664.058816120089
 31
0.0
  0
LINE
  5
2A4F
330
1A
100
AcDbEntity
  8
部品1
100
AcDbLine
 10
2221.540608108044
 20
3474.058816120088
 30
0.0
 11
3497.575282724074
 21
3474.058816120088
 31
0.0
  0
LINE
  5
2A50
330
1A
100
AcDbEntity
  8
部品1
100
AcDbLine
 10
14279.78336771315
 20
2419.058816120087
 30
0.0
 11
14279.78336771315
 21
2369.058816120087
 31
0.0
  0
LINE
  5
2A51
330
1A
100
AcDbEntity
  8
部品1
100
AcDbLine
 10
9479.783367713157
 20
2419.058816120087
 30
0.0
 11
9479.783367713157
 21
2369.058816120087
 31
0.0
  0
LINE
  5
2A52
330
1A
100
AcDbEntity
  8
点線
 48
50.0
100
AcDbLine
 10
13499.78336771315
 20
2099.058816120087
 30
0.0
 11
13559.78336771315
 21
2099.058816120087
 31
0.0
  0
LINE
  5
2A53
330
1A
100
AcDbEntity
  8
点線
 48
50.0
100
AcDbLine
 10
13559.78336771316
 20
2419.058816120087
 30
0.0
 11
13559.78336771315
 21
2099.058816120087
 31
0.0
  0
LINE
  5
2A54
330
1A
100
AcDbEntity
  8
点線
 48
50.0
100
AcDbLine
 10
13499.78336771315
 20
2419.058816120087
 30
0.0
 11
13499.78336771315
 21
2099.058816120087
 31
0.0
  0
LINE
  5
2A55
330
1A
100
AcDbEntity
  8
点線
 48
50.0
100
AcDbLine
 10
11849.78336771316
 20
2099.058816120087
 30
0.0
 11
11909.78336771316
 21
2099.058816120087
 31
0.0
  0
LINE
  5
2A56
330
1A
100
AcDbEntity
  8
点線
 48
50.0
100
AcDbLine
 10
11909.78336771316
 20
2419.058816120087
 30
0.0
 11
11909.78336771316
 21
2099.058816120087
 31
0.0
  0
LINE
  5
2A57
330
1A
100
AcDbEntity
  8
点線
 48
50.0
100
AcDbLine
 10
11849.78336771316
 20
2419.058816120087
 30
0.0
 11
11849.78336771316
 21
2099.058816120087
 31
0.0
  0
LINE
  5
2A58
330
1A
100
AcDbEntity
  8
部品1
100
AcDbLine
 10
9479.783367713157
 20
2419.058816120087
 30
0.0
 11
14279.78336771315
 21
2419.058816120087
 31
0.0
  0
LINE
  5
2A59
330
1A
100
AcDbEntity
  8
点線
 48
50.0
100
AcDbLine
 10
10259.78336771316
 20
2419.058816120087
 30
0.0
 11
10259.78336771316
 21
2099.058816120087
 31
0.0
  0
LINE
  5
2A5A
330
1A
100
AcDbEntity
  8
点線
 48
50.0
100
AcDbLine
 10
10199.78336771315
 20
2419.058816120087
 30
0.0
 11
10199.78336771315
 21
2099.058816120087
 31
0.0
  0
LINE
  5
2A5B
330
1A
100
AcDbEntity
  8
部品1
100
AcDbLine
 10
10259.78336771316
 20
2619.058816120087
 30
0.0
 11
11849.78336771316
 21
2619.058816120089
 31
0.0
  0
LINE
  5
2A5C
330
1A
100
AcDbEntity
  8
細線
100
AcDbLine
 10
10259.78336771316
 20
2722.058816120087
 30
0.0
 11
11849.78336771316
 21
2722.058816120089
 31
0.0
  0
LINE
  5
2A5D
330
1A
100
AcDbEntity
  8
細線
100
AcDbLine
 10
10259.78336771316
 20
2734.058816120087
 30
0.0
 11
11849.78336771316
 21
2734.058816120088
 31
0.0
  0
LINE
  5
2A5E
330
1A
100
AcDbEntity
  8
細線
100
AcDbLine
 10
10259.78336771316
 20
3063.058816120087
 30
0.0
 11
11849.78336771316
 21
3063.058816120089
 31
0.0
  0
LINE
  5
2A5F
330
1A
100
AcDbEntity
  8
細線
100
AcDbLine
 10
10259.78336771316
 20
3057.058816120087
 30
0.0
 11
11849.78336771316
 21
3057.058816120088
 31
0.0
  0
LINE
  5
2A60
330
1A
100
AcDbEntity
  8
部品1
100
AcDbLine
 10
10259.78336771316
 20
3519.058816120087
 30
0.0
 11
11849.78336771316
 21
3519.058816120089
 31
0.0
  0
LINE
  5
2A61
330
1A
100
AcDbEntity
  8
細線
100
AcDbLine
 10
10259.78336771316
 20
3416.058816120087
 30
0.0
 11
11849.78336771316
 21
3416.058816120088
 31
0.0
  0
LINE
  5
2A62
330
1A
100
AcDbEntity
  8
細線
100
AcDbLine
 10
10259.78336771316
 20
3404.058816120087
 30
0.0
 11
11849.78336771316
 21
3404.058816120089
 31
0.0
  0
LINE
  5
2A63
330
1A
100
AcDbEntity
  8
部品1
100
AcDbLine
 10
10259.78336771316
 20
4101.419996260784
 30
0.0
 11
10259.78336771316
 21
2419.058816120087
 31
0.0
  0
LINE
  5
2A64
330
1A
100
AcDbEntity
  8
部品1
100
AcDbLine
 10
10199.78336771315
 20
4101.419996260784
 30
0.0
 11
10199.78336771315
 21
2419.058816120087
 31
0.0
  0
LINE
  5
2A65
330
1A
100
AcDbEntity
  8
部品1
100
AcDbLine
 10
11849.78336771315
 20
4002.947454594115
 30
0.0
 11
11849.78336771316
 21
2419.058816120087
 31
0.0
  0
LINE
  5
2A66
330
1A
100
AcDbEntity
  8
部品1
100
AcDbLine
 10
2221.540608108044
 20
3519.058816120089
 30
0.0
 11
3483.99851318104
 21
3519.058816120089
 31
0.0
  0
LINE
  5
2A67
330
1A
100
AcDbEntity
  8
点線
 48
50.0
100
AcDbLine
 10
10199.78336771315
 20
2099.058816120087
 30
0.0
 11
10259.78336771316
 21
2099.058816120087
 31
0.0
  0
LINE
  5
2A68
330
1A
100
AcDbEntity
  8
細線
100
AcDbLine
 10
13499.78336771315
 20
3057.058816120087
 30
0.0
 11
11909.78336771316
 21
3057.058816120088
 31
0.0
  0
LINE
  5
2A69
330
1A
100
AcDbEntity
  8
細線
100
AcDbLine
 10
13499.78336771315
 20
3063.058816120087
 30
0.0
 11
11909.78336771316
 21
3063.058816120089
 31
0.0
  0
LINE
  5
2A6A
330
1A
100
AcDbEntity
  8
細線
100
AcDbLine
 10
13499.78336771315
 20
2734.058816120087
 30
0.0
 11
11909.78336771316
 21
2734.058816120088
 31
0.0
  0
LINE
  5
2A6B
330
1A
100
AcDbEntity
  8
細線
100
AcDbLine
 10
13499.78336771315
 20
2722.058816120087
 30
0.0
 11
11909.78336771316
 21
2722.058816120089
 31
0.0
  0
LINE
  5
2A6C
330
1A
100
AcDbEntity
  8
細線
100
AcDbLine
 10
13499.78336771315
 20
3404.058816120087
 30
0.0
 11
11909.78336771316
 21
3404.058816120089
 31
0.0
  0
LINE
  5
2A6D
330
1A
100
AcDbEntity
  8
細線
100
AcDbLine
 10
13499.78336771315
 20
3416.058816120087
 30
0.0
 11
11909.78336771316
 21
3416.058816120088
 31
0.0
  0
LINE
  5
2A6E
330
1A
100
AcDbEntity
  8
部品1
100
AcDbLine
 10
13499.78336771315
 20
3519.058816120087
 30
0.0
 11
11909.78336771316
 21
3519.058816120089
 31
0.0
  0
LINE
  5
2A6F
330
1A
100
AcDbEntity
  8
部品1
100
AcDbLine
 10
13499.78336771315
 20
2619.058816120087
 30
0.0
 11
11909.78336771316
 21
2619.058816120089
 31
0.0
  0
LINE
  5
2A70
330
1A
100
AcDbEntity
  8
部品1
100
AcDbLine
 10
11909.78336771315
 20
4002.947454594115
 30
0.0
 11
11909.78336771316
 21
2419.058816120087
 31
0.0
  0
LINE
  5
2A71
330
1A
100
AcDbEntity
  8
部品1
100
AcDbLine
 10
13499.78336771315
 20
4101.419996260784
 30
0.0
 11
13499.78336771315
 21
2419.058816120087
 31
0.0
  0
LINE
  5
2A72
330
1A
100
AcDbEntity
  8
部品1
100
AcDbLine
 10
13559.78336771315
 20
4101.419996260784
 30
0.0
 11
13559.78336771316
 21
2419.058816120087
 31
0.0
  0
LINE
  5
2A73
330
1A
100
AcDbEntity
  8
部品1
100
AcDbLine
 10
2161.540608108044
 20
4101.419996260784
 30
0.0
 11
2161.540608108046
 21
2419.058816120087
 31
0.0
  0
LINE
  5
2A74
330
1A
100
AcDbEntity
  8
部品1
100
AcDbLine
 10
2221.540608108044
 20
4101.419996260784
 30
0.0
 11
2221.540608108044
 21
2419.058816120087
 31
0.0
  0
LINE
  5
2A75
330
1A
100
AcDbEntity
  8
部品1
100
AcDbLine
 10
7761.540608108044
 20
4101.419996260784
 30
0.0
 11
7761.540608108044
 21
2419.058816120087
 31
0.0
  0
LINE
  5
2A76
330
1A
100
AcDbEntity
  8
部品1
100
AcDbLine
 10
7821.540608108044
 20
4101.419996260784
 30
0.0
 11
7821.540608108044
 21
2419.058816120087
 31
0.0
  0
LINE
  5
2A77
330
1A
100
AcDbEntity
  8
センター
 48
10.0
100
AcDbLine
 10
2191.540608108044
 20
4350.354811104376
 30
0.0
 11
2191.540608108044
 21
2105.747464225398
 31
0.0
  0
LINE
  5
2A78
330
1A
100
AcDbEntity
  8
センター
 48
10.0
100
AcDbLine
 10
7791.540608108046
 20
4350.354811104376
 30
0.0
 11
7791.540608108043
 21
2105.747464225398
 31
0.0
  0
ARC
  5
2A79
330
1A
100
AcDbEntity
  8
部品1
100
AcDbCircle
 10
1951.540608108044
 20
10676.12061901255
 30
0.0
 40
10.0
100
AcDbArc
 50
90.0
 51
180.0
  0
ARC
  5
2A7A
330
1A
100
AcDbEntity
  8
部品1
100
AcDbCircle
 10
8031.540608108043
 20
5896.120619012553
 30
0.0
 40
10.0
100
AcDbArc
 50
270.0
 51
0.0
  0
LINE
  5
2A7B
330
1A
100
AcDbEntity
  8
点線
 48
50.0
100
AcDbLine
 10
7761.540608108044
 20
6799.920619012553
 30
0.0
 11
7761.540608108044
 21
7369.220619012553
 31
0.0
  0
LINE
  5
2A7C
330
1A
100
AcDbEntity
  8
点線
 48
50.0
100
AcDbLine
 10
7821.540608108044
 20
6799.920619012553
 30
0.0
 11
7821.540608108044
 21
7369.220619012553
 31
0.0
  0
LINE
  5
2A7D
330
1A
100
AcDbEntity
  8
点線
 48
50.0
100
AcDbLine
 10
7821.540608108041
 20
6165.620619012554
 30
0.0
 11
7821.540608108041
 21
6734.920619012553
 31
0.0
  0
LINE
  5
2A7E
330
1A
100
AcDbEntity
  8
点線
 48
50.0
100
AcDbLine
 10
7761.540608108044
 20
6165.620619012554
 30
0.0
 11
7761.540608108044
 21
6734.920619012553
 31
0.0
  0
LINE
  5
2A7F
330
1A
100
AcDbEntity
  8
点線
 48
50.0
100
AcDbLine
 10
7821.540608108044
 20
7434.220619012553
 30
0.0
 11
7821.540608108046
 21
8003.520619012558
 31
0.0
  0
LINE
  5
2A80
330
1A
100
AcDbEntity
  8
点線
 48
50.0
100
AcDbLine
 10
7761.540608108044
 20
7434.220619012553
 30
0.0
 11
7761.540608108045
 21
8003.520619012558
 31
0.0
  0
LINE
  5
2A81
330
1A
100
AcDbEntity
  8
点線
 48
50.0
100
AcDbLine
 10
7761.540608108044
 20
8068.520619012558
 30
0.0
 11
7761.540608108044
 21
8204.620619012557
 31
0.0
  0
LINE
  5
2A82
330
1A
100
AcDbEntity
  8
点線
 48
50.0
100
AcDbLine
 10
7821.540608108044
 20
8068.520619012558
 30
0.0
 11
7821.540608108044
 21
8204.620619012557
 31
0.0
  0
LINE
  5
2A83
330
1A
100
AcDbEntity
  8
部品1
100
AcDbLine
 10
5620.748449930236
 20
6165.620619012554
 30
0.0
 11
2011.540608108044
 21
6165.62061901255
 31
0.0
  0
LINE
  5
2A84
330
1A
100
AcDbEntity
  8
部品1
100
AcDbLine
 10
5640.359339270173
 20
6100.620619012554
 30
0.0
 11
2011.540608108044
 21
6100.620619012557
 31
0.0
  0
LINE
  5
2A85
330
1A
100
AcDbEntity
  8
部品1
100
AcDbLine
 10
5626.782569727138
 20
6145.620619012554
 30
0.0
 11
2011.540608108044
 21
6145.620619012554
 31
0.0
  0
LINE
  5
2A86
330
1A
100
AcDbEntity
  8
部品1
100
AcDbLine
 10
5429.376340571418
 20
6799.920619012555
 30
0.0
 11
2011.540608108044
 21
6799.920619012557
 31
0.0
  0
LINE
  5
2A87
330
1A
100
AcDbEntity
  8
部品1
100
AcDbLine
 10
5448.987229911354
 20
6734.920619012557
 30
0.0
 11
2011.540608108044
 21
6734.920619012553
 31
0.0
  0
LINE
  5
2A88
330
1A
100
AcDbEntity
  8
部品1
100
AcDbLine
 10
5435.410460368321
 20
6779.920619012553
 30
0.0
 11
2011.540608108044
 21
6779.92061901255
 31
0.0
  0
LINE
  5
2A89
330
1A
100
AcDbEntity
  8
部品1
100
AcDbLine
 10
5257.615120552537
 20
7369.220619012556
 30
0.0
 11
2011.540608108044
 21
7369.220619012553
 31
0.0
  0
LINE
  5
2A8A
330
1A
100
AcDbEntity
  8
部品1
100
AcDbLine
 10
5244.038351009503
 20
7414.22061901255
 30
0.0
 11
2011.540608108044
 21
7414.22061901256
 31
0.0
  0
LINE
  5
2A8B
330
1A
100
AcDbEntity
  8
部品1
100
AcDbLine
 10
5052.666241650686
 20
8048.520619012558
 30
0.0
 11
2011.540608108044
 21
8048.520619012554
 31
0.0
  0
LINE
  5
2A8C
330
1A
100
AcDbEntity
  8
部品1
100
AcDbLine
 10
5066.243011193719
 20
8003.520619012558
 30
0.0
 11
2011.540608108044
 21
8003.520619012558
 31
0.0
  0
LINE
  5
2A8D
330
1A
100
AcDbEntity
  8
部品1
100
AcDbLine
 10
2011.540608108044
 20
8251.120619012551
 30
0.0
 11
2011.540608108044
 21
5956.120619012549
 31
0.0
  0
LINE
  5
2A8E
330
1A
100
AcDbEntity
  8
部品1
100
AcDbLine
 10
2161.540608108046
 20
8503.720619012543
 30
0.0
 11
2161.540608108044
 21
8367.620619012553
 31
0.0
  0
LINE
  5
2A8F
330
1A
100
AcDbEntity
  8
部品1
100
AcDbLine
 10
2221.540608108046
 20
8503.720619012543
 30
0.0
 11
2221.540608108044
 21
8367.620619012553
 31
0.0
  0
LINE
  5
2A90
330
1A
100
AcDbEntity
  8
部品1
100
AcDbLine
 10
2221.540608108044
 20
9138.020619012547
 30
0.0
 11
2221.540608108044
 21
8568.720619012548
 31
0.0
  0
LINE
  5
2A91
330
1A
100
AcDbEntity
  8
部品1
100
AcDbLine
 10
2161.540608108044
 20
9138.020619012547
 30
0.0
 11
2161.540608108044
 21
8568.720619012548
 31
0.0
  0
LINE
  5
2A92
330
1A
100
AcDbEntity
  8
部品1
100
AcDbLine
 10
2161.540608108046
 20
9772.32061901255
 30
0.0
 11
2161.540608108042
 21
9203.02061901255
 31
0.0
  0
LINE
  5
2A93
330
1A
100
AcDbEntity
  8
部品1
100
AcDbLine
 10
2221.540608108044
 20
9772.32061901255
 30
0.0
 11
2221.540608108044
 21
9203.02061901255
 31
0.0
  0
LINE
  5
2A94
330
1A
100
AcDbEntity
  8
部品1
100
AcDbLine
 10
2221.540608108042
 20
10406.62061901255
 30
0.0
 11
2221.540608108044
 21
9837.320619012551
 31
0.0
  0
LINE
  5
2A95
330
1A
100
AcDbEntity
  8
部品1
100
AcDbLine
 10
2161.540608108044
 20
10406.62061901255
 30
0.0
 11
2161.540608108044
 21
9837.320619012551
 31
0.0
  0
LINE
  5
2A96
330
1A
100
AcDbEntity
  8
部品1
100
AcDbLine
 10
4895.718785733205
 20
8568.720619012557
 30
0.0
 11
2011.540608108044
 21
8568.720619012543
 31
0.0
  0
LINE
  5
2A97
330
1A
100
AcDbEntity
  8
部品1
100
AcDbLine
 10
4909.295555276245
 20
8523.720619012548
 30
0.0
 11
2011.540608108044
 21
8523.720619012548
 31
0.0
  0
LINE
  5
2A98
330
1A
100
AcDbEntity
  8
部品1
100
AcDbLine
 10
4704.346676374391
 20
9203.020619012555
 30
0.0
 11
2011.540608108044
 21
9203.020619012553
 31
0.0
  0
LINE
  5
2A99
330
1A
100
AcDbEntity
  8
部品1
100
AcDbLine
 10
4717.923445917426
 20
9158.020619012551
 30
0.0
 11
2011.540608108044
 21
9158.020619012562
 31
0.0
  0
LINE
  5
2A9A
330
1A
100
AcDbEntity
  8
部品1
100
AcDbLine
 10
4526.55133655861
 20
9792.320619012549
 30
0.0
 11
2011.540608108045
 21
9792.320619012549
 31
0.0
  0
LINE
  5
2A9B
330
1A
100
AcDbEntity
  8
部品1
100
AcDbLine
 10
4512.974567015573
 20
9837.320619012551
 30
0.0
 11
2011.540608108045
 21
9837.320619012551
 31
0.0
  0
LINE
  5
2A9C
330
1A
100
AcDbEntity
  8
部品1
100
AcDbLine
 10
4335.179227199789
 20
10426.62061901255
 30
0.0
 11
2011.540608108045
 21
10426.62061901255
 31
0.0
  0
LINE
  5
2A9D
330
1A
100
AcDbEntity
  8
部品1
100
AcDbLine
 10
4321.602457656758
 20
10471.62061901254
 30
0.0
 11
2011.540608108045
 21
10471.62061901255
 31
0.0
  0
LINE
  5
2A9E
330
1A
100
AcDbEntity
  8
部品1
100
AcDbLine
 10
2011.540608108045
 20
10616.12061901255
 30
0.0
 11
2011.540608108044
 21
8321.120619012551
 31
0.0
  0
ARC
  5
2A9F
330
1A
100
AcDbEntity
  8
部品1
100
AcDbCircle
 10
1951.540608108044
 20
5896.12061901255
 30
0.0
 40
10.0
100
AcDbArc
 50
180.0
 51
270.0
  0
LINE
  5
2AA0
330
1A
100
AcDbEntity
  8
部品1
100
AcDbLine
 10
2161.540608108046
 20
6044.620619012551
 30
0.0
 11
2221.540608108046
 21
6044.620619012551
 31
0.0
  0
LINE
  5
2AA1
330
1A
100
AcDbEntity
  8
部品1
100
AcDbLine
 10
2161.540608108047
 20
6100.62061901255
 30
0.0
 11
2161.540608108046
 21
6044.620619012551
 31
0.0
  0
LINE
  5
2AA2
330
1A
100
AcDbEntity
  8
部品1
100
AcDbLine
 10
2221.540608108049
 20
6100.62061901255
 30
0.0
 11
2221.540608108046
 21
6044.620619012551
 31
0.0
  0
LINE
  5
2AA3
330
1A
100
AcDbEntity
  8
部品1
100
AcDbLine
 10
2161.540608108044
 20
7369.220619012553
 30
0.0
 11
2161.540608108044
 21
6799.920619012553
 31
0.0
  0
LINE
  5
2AA4
330
1A
100
AcDbEntity
  8
部品1
100
AcDbLine
 10
2221.540608108042
 20
7369.220619012553
 30
0.0
 11
2221.540608108044
 21
6799.920619012553
 31
0.0
  0
LINE
  5
2AA5
330
1A
100
AcDbEntity
  8
部品1
100
AcDbLine
 10
2161.540608108044
 20
8204.620619012549
 30
0.0
 11
2161.540608108042
 21
8068.520619012554
 31
0.0
  0
LINE
  5
2AA6
330
1A
100
AcDbEntity
  8
部品1
100
AcDbLine
 10
2221.540608108044
 20
8204.620619012549
 30
0.0
 11
2221.540608108044
 21
8068.520619012554
 31
0.0
  0
LINE
  5
2AA7
330
1A
100
AcDbEntity
  8
部品1
100
AcDbLine
 10
2161.540608108044
 20
8003.520619012554
 30
0.0
 11
2161.540608108044
 21
7434.220619012549
 31
0.0
  0
LINE
  5
2AA8
330
1A
100
AcDbEntity
  8
部品1
100
AcDbLine
 10
2221.540608108042
 20
8003.520619012554
 30
0.0
 11
2221.540608108044
 21
7434.220619012549
 31
0.0
  0
LINE
  5
2AA9
330
1A
100
AcDbEntity
  8
部品1
100
AcDbLine
 10
1941.540608108043
 20
8286.120619012553
 30
0.0
 11
1941.540608108043
 21
5896.12061901255
 31
0.0
  0
LINE
  5
2AAA
330
1A
100
AcDbEntity
  8
部品1
100
AcDbLine
 10
1986.540608108043
 20
8286.120619012553
 30
0.0
 11
1986.540608108043
 21
5936.120619012551
 31
0.0
  0
LINE
  5
2AAB
330
1A
100
AcDbEntity
  8
部品1
100
AcDbLine
 10
2161.540608108044
 20
6734.920619012552
 30
0.0
 11
2161.540608108047
 21
6165.62061901255
 31
0.0
  0
LINE
  5
2AAC
330
1A
100
AcDbEntity
  8
部品1
100
AcDbLine
 10
2221.540608108044
 20
6734.920619012552
 30
0.0
 11
2221.540608108049
 21
6165.62061901255
 31
0.0
  0
LINE
  5
2AAD
330
1A
100
AcDbEntity
  8
点線
 48
50.0
100
AcDbLine
 10
7761.540608108044
 20
6044.620619012555
 30
0.0
 11
7821.540608108044
 21
6044.620619012555
 31
0.0
  0
LINE
  5
2AAE
330
1A
100
AcDbEntity
  8
部品1
100
AcDbLine
 10
8041.540608108043
 20
5896.120619012553
 30
0.0
 11
8041.540608108043
 21
8286.120619012553
 31
0.0
  0
LINE
  5
2AAF
330
1A
100
AcDbEntity
  8
部品1
100
AcDbLine
 10
7996.540608108045
 20
5936.120619012551
 30
0.0
 11
7996.540608108045
 21
8286.120619012553
 31
0.0
  0
LINE
  5
2AB0
330
1A
100
AcDbEntity
  8
部品1
100
AcDbLine
 10
7983.040608108044
 20
5956.120619012554
 30
0.0
 11
7983.040608108044
 21
8251.120619012557
 31
0.0
  0
LINE
  5
2AB1
330
1A
100
AcDbEntity
  8
部品1
100
AcDbLine
 10
7948.540608108044
 20
5956.120619012554
 30
0.0
 11
7948.540608108044
 21
8251.120619012551
 31
0.0
  0
LINE
  5
2AB2
330
1A
100
AcDbEntity
  8
部品1
100
AcDbLine
 10
7403.040608108044
 20
5956.120619012554
 30
0.0
 11
7403.040608108044
 21
8251.120619012551
 31
0.0
  0
LINE
  5
2AB3
330
1A
100
AcDbEntity
  8
部品1
100
AcDbLine
 10
7368.540608108045
 20
5956.120619012554
 30
0.0
 11
7368.540608108041
 21
8251.120619012551
 31
0.0
  0
LINE
  5
2AB4
330
1A
100
AcDbEntity
  8
部品1
100
AcDbLine
 10
6403.040608108046
 20
5956.120619012554
 30
0.0
 11
6403.040608108041
 21
8251.120619012551
 31
0.0
  0
LINE
  5
2AB5
330
1A
100
AcDbEntity
  8
部品1
100
AcDbLine
 10
6368.540608108044
 20
5956.120619012554
 30
0.0
 11
6368.540608108044
 21
8251.120619012551
 31
0.0
  0
LINE
  5
2AB6
330
1A
100
AcDbEntity
  8
部品1
100
AcDbLine
 10
7613.540608108043
 20
5956.120619012554
 30
0.0
 11
7613.540608108046
 21
8251.120619012551
 31
0.0
  0
LINE
  5
2AB7
330
1A
100
AcDbEntity
  8
部品1
100
AcDbLine
 10
7658.540608108044
 20
5956.120619012554
 30
0.0
 11
7658.540608108044
 21
8251.120619012551
 31
0.0
  0
LINE
  5
2AB8
330
1A
100
AcDbEntity
  8
部品1
100
AcDbLine
 10
7686.540608108043
 20
5956.120619012554
 30
0.0
 11
7686.540608108043
 21
8251.120619012551
 31
0.0
  0
LINE
  5
2AB9
330
1A
100
AcDbEntity
  8
部品1
100
AcDbLine
 10
7731.540608108044
 20
5956.120619012554
 30
0.0
 11
7731.540608108044
 21
8251.120619012551
 31
0.0
  0
LINE
  5
2ABA
330
1A
100
AcDbEntity
  8
部品1
100
AcDbLine
 10
7151.540608108044
 20
5956.120619012556
 30
0.0
 11
7151.540608108044
 21
8251.120619012551
 31
0.0
  0
LINE
  5
2ABB
330
1A
100
AcDbEntity
  8
部品1
100
AcDbLine
 10
7106.540608108044
 20
5956.120619012557
 30
0.0
 11
7106.540608108045
 21
8251.120619012551
 31
0.0
  0
LINE
  5
2ABC
330
1A
100
AcDbEntity
  8
部品1
100
AcDbLine
 10
7078.540608108044
 20
5956.120619012557
 30
0.0
 11
7078.540608108044
 21
8251.120619012551
 31
0.0
  0
LINE
  5
2ABD
330
1A
100
AcDbEntity
  8
部品1
100
AcDbLine
 10
7033.540608108044
 20
5956.120619012556
 30
0.0
 11
7033.540608108044
 21
8251.120619012551
 31
0.0
  0
LINE
  5
2ABE
330
1A
100
AcDbEntity
  8
点線
 48
50.0
100
AcDbLine
 10
7821.540608108044
 20
6044.620619012555
 30
0.0
 11
7821.540608108044
 21
6100.620619012554
 31
0.0
  0
LINE
  5
2ABF
330
1A
100
AcDbEntity
  8
点線
 48
50.0
100
AcDbLine
 10
7761.540608108044
 20
6044.620619012555
 30
0.0
 11
7761.540608108044
 21
6100.620619012554
 31
0.0
  0
LINE
  5
2AC0
330
1A
100
AcDbEntity
  8
部品1
100
AcDbLine
 10
8041.540608108043
 20
8286.120619012553
 30
0.0
 11
7996.540608108041
 21
8286.120619012553
 31
0.0
  0
LINE
  5
2AC1
330
1A
100
AcDbEntity
  8
点線
 48
50.0
100
AcDbLine
 10
5640.359339270173
 20
6100.620619012554
 30
0.0
 11
8011.540608108042
 21
6100.620619012554
 31
0.0
  0
LINE
  5
2AC2
330
1A
100
AcDbEntity
  8
点線
 48
50.0
100
AcDbLine
 10
5626.782569727138
 20
6145.620619012554
 30
0.0
 11
8011.540608108042
 21
6145.620619012557
 31
0.0
  0
LINE
  5
2AC3
330
1A
100
AcDbEntity
  8
点線
 48
50.0
100
AcDbLine
 10
5435.410460368321
 20
6779.920619012553
 30
0.0
 11
8011.54060810804
 21
6779.920619012552
 31
0.0
  0
LINE
  5
2AC4
330
1A
100
AcDbEntity
  8
点線
 48
50.0
100
AcDbLine
 10
5257.615120552538
 20
7369.220619012553
 30
0.0
 11
8011.540608108042
 21
7369.220619012553
 31
0.0
  0
LINE
  5
2AC5
330
1A
100
AcDbEntity
  8
点線
 48
50.0
100
AcDbLine
 10
5244.038351009505
 20
7414.22061901255
 30
0.0
 11
8011.54060810804
 21
7414.220619012552
 31
0.0
  0
LINE
  5
2AC6
330
1A
100
AcDbEntity
  8
点線
 48
50.0
100
AcDbLine
 10
5066.243011193719
 20
8003.520619012556
 30
0.0
 11
8011.540608108042
 21
8003.520619012558
 31
0.0
  0
LINE
  5
2AC7
330
1A
100
AcDbEntity
  8
点線
 48
50.0
100
AcDbLine
 10
5052.666241650686
 20
8048.520619012554
 30
0.0
 11
8011.54060810804
 21
8048.520619012554
 31
0.0
  0
LINE
  5
2AC8
330
1A
100
AcDbEntity
  8
点線
 48
50.0
100
AcDbLine
 10
7761.540608108041
 20
10471.62061901255
 30
0.0
 11
7761.540608108042
 21
10527.62061901255
 31
0.0
  0
LINE
  5
2AC9
330
1A
100
AcDbEntity
  8
点線
 48
50.0
100
AcDbLine
 10
7821.540608108041
 20
10471.62061901255
 30
0.0
 11
7821.540608108041
 21
10527.62061901255
 31
0.0
  0
LINE
  5
2ACA
330
1A
100
AcDbEntity
  8
点線
 48
50.0
100
AcDbLine
 10
7761.540608108042
 20
9837.320619012553
 30
0.0
 11
7761.540608108042
 21
10406.62061901255
 31
0.0
  0
LINE
  5
2ACB
330
1A
100
AcDbEntity
  8
点線
 48
50.0
100
AcDbLine
 10
7821.540608108041
 20
9837.320619012553
 30
0.0
 11
7821.540608108041
 21
10406.62061901255
 31
0.0
  0
LINE
  5
2ACC
330
1A
100
AcDbEntity
  8
点線
 48
50.0
100
AcDbLine
 10
7761.540608108044
 20
9203.02061901255
 30
0.0
 11
7761.540608108042
 21
9772.320619012553
 31
0.0
  0
LINE
  5
2ACD
330
1A
100
AcDbEntity
  8
点線
 48
50.0
100
AcDbLine
 10
7821.540608108044
 20
9203.02061901255
 30
0.0
 11
7821.540608108041
 21
9772.320619012553
 31
0.0
  0
LINE
  5
2ACE
330
1A
100
AcDbEntity
  8
点線
 48
50.0
100
AcDbLine
 10
7761.540608108042
 20
8568.72061901255
 30
0.0
 11
7761.540608108042
 21
9138.020619012554
 31
0.0
  0
LINE
  5
2ACF
330
1A
100
AcDbEntity
  8
点線
 48
50.0
100
AcDbLine
 10
7821.540608108041
 20
8568.72061901255
 30
0.0
 11
7821.540608108041
 21
9138.020619012554
 31
0.0
  0
LINE
  5
2AD0
330
1A
100
AcDbEntity
  8
点線
 48
50.0
100
AcDbLine
 10
7821.540608108041
 20
10527.62061901255
 30
0.0
 11
7761.540608108042
 21
10527.62061901255
 31
0.0
  0
LINE
  5
2AD1
330
1A
100
AcDbEntity
  8
部品1
100
AcDbLine
 10
2221.540608108044
 20
10527.62061901255
 30
0.0
 11
2161.540608108044
 21
10527.62061901255
 31
0.0
  0
LINE
  5
2AD2
330
1A
100
AcDbEntity
  8
点線
 48
50.0
100
AcDbLine
 10
7821.540608108044
 20
8367.620619012553
 30
0.0
 11
7821.540608108041
 21
8503.72061901255
 31
0.0
  0
LINE
  5
2AD3
330
1A
100
AcDbEntity
  8
点線
 48
50.0
100
AcDbLine
 10
7761.540608108042
 20
8367.620619012553
 30
0.0
 11
7761.540608108042
 21
8503.72061901255
 31
0.0
  0
LINE
  5
2AD4
330
1A
100
AcDbEntity
  8
部品1
100
AcDbLine
 10
2221.540608108044
 20
10527.62061901255
 30
0.0
 11
2221.540608108044
 21
10471.62061901255
 31
0.0
  0
LINE
  5
2AD5
330
1A
100
AcDbEntity
  8
部品1
100
AcDbLine
 10
2161.540608108044
 20
10527.62061901255
 30
0.0
 11
2161.540608108044
 21
10471.62061901255
 31
0.0
  0
LINE
  5
2AD6
330
1A
100
AcDbEntity
  8
点線
 48
50.0
100
AcDbLine
 10
8011.540608108042
 20
8568.720619012548
 30
0.0
 11
4895.718785733208
 21
8568.72061901255
 31
0.0
  0
LINE
  5
2AD7
330
1A
100
AcDbEntity
  8
点線
 48
50.0
100
AcDbLine
 10
8011.540608108042
 20
8523.720619012548
 30
0.0
 11
4909.295555276245
 21
8523.720619012548
 31
0.0
  0
LINE
  5
2AD8
330
1A
100
AcDbEntity
  8
点線
 48
50.0
100
AcDbLine
 10
8011.540608108042
 20
9158.020619012551
 30
0.0
 11
4717.923445917423
 21
9158.020619012551
 31
0.0
  0
LINE
  5
2AD9
330
1A
100
AcDbEntity
  8
点線
 48
50.0
100
AcDbLine
 10
8011.540608108042
 20
9203.020619012553
 30
0.0
 11
4704.346676374391
 21
9203.020619012553
 31
0.0
  0
LINE
  5
2ADA
330
1A
100
AcDbEntity
  8
点線
 48
50.0
100
AcDbLine
 10
8011.540608108042
 20
9792.320619012549
 30
0.0
 11
4526.551336558608
 21
9792.320619012551
 31
0.0
  0
LINE
  5
2ADB
330
1A
100
AcDbEntity
  8
点線
 48
50.0
100
AcDbLine
 10
8011.540608108042
 20
9837.320619012553
 30
0.0
 11
4512.974567015573
 21
9837.320619012553
 31
0.0
  0
LINE
  5
2ADC
330
1A
100
AcDbEntity
  8
点線
 48
50.0
100
AcDbLine
 10
8011.540608108042
 20
10426.62061901254
 30
0.0
 11
4335.17922719979
 21
10426.62061901255
 31
0.0
  0
LINE
  5
2ADD
330
1A
100
AcDbEntity
  8
点線
 48
50.0
100
AcDbLine
 10
8011.540608108042
 20
10471.62061901255
 30
0.0
 11
4321.602457656756
 21
10471.62061901255
 31
0.0
  0
LINE
  5
2ADE
330
1A
100
AcDbEntity
  8
センター
 48
10.0
100
AcDbLine
 10
8011.540608108042
 20
8546.220619012546
 30
0.0
 11
1971.540608108044
 21
8546.220619012546
 31
0.0
  0
LINE
  5
2ADF
330
1A
100
AcDbEntity
  8
センター
 48
10.0
100
AcDbLine
 10
8011.540608108042
 20
9180.520619012551
 30
0.0
 11
1971.540608108044
 21
9180.520619012549
 31
0.0
  0
LINE
  5
2AE0
330
1A
100
AcDbEntity
  8
センター
 48
10.0
100
AcDbLine
 10
8011.540608108042
 20
9814.820619012548
 30
0.0
 11
1971.540608108044
 21
9814.82061901255
 31
0.0
  0
LINE
  5
2AE1
330
1A
100
AcDbEntity
  8
センター
 48
10.0
100
AcDbLine
 10
8011.540608108042
 20
10449.12061901255
 30
0.0
 11
1971.540608108044
 21
10449.12061901255
 31
0.0
  0
LINE
  5
2AE2
330
1A
100
AcDbEntity
  8
部品1
100
AcDbLine
 10
7749.540608108046
 20
10616.12061901255
 30
0.0
 11
7749.540608108043
 21
8321.120619012551
 31
0.0
  0
LINE
  5
2AE3
330
1A
100
AcDbEntity
  8
部品1
100
AcDbLine
 10
7704.540608108046
 20
10616.12061901255
 30
0.0
 11
7704.540608108046
 21
8321.120619012551
 31
0.0
  0
LINE
  5
2AE4
330
1A
100
AcDbEntity
  8
部品1
100
AcDbLine
 10
7676.540608108045
 20
10616.12061901255
 30
0.0
 11
7676.540608108044
 21
8321.120619012551
 31
0.0
  0
LINE
  5
2AE5
330
1A
100
AcDbEntity
  8
部品1
100
AcDbLine
 10
7631.540608108045
 20
10616.12061901255
 30
0.0
 11
7631.540608108044
 21
8321.120619012551
 31
0.0
  0
LINE
  5
2AE6
330
1A
100
AcDbEntity
  8
部品1
100
AcDbLine
 10
7169.540608108043
 20
10616.12061901255
 30
0.0
 11
7169.540608108042
 21
8321.120619012551
 31
0.0
  0
LINE
  5
2AE7
330
1A
100
AcDbEntity
  8
部品1
100
AcDbLine
 10
7124.540608108043
 20
10616.12061901255
 30
0.0
 11
7124.540608108043
 21
8321.120619012551
 31
0.0
  0
LINE
  5
2AE8
330
1A
100
AcDbEntity
  8
部品1
100
AcDbLine
 10
7096.540608108044
 20
10616.12061901255
 30
0.0
 11
7096.540608108044
 21
8321.120619012551
 31
0.0
  0
LINE
  5
2AE9
330
1A
100
AcDbEntity
  8
部品1
100
AcDbLine
 10
7051.540608108044
 20
10616.12061901255
 30
0.0
 11
7051.540608108044
 21
8321.120619012551
 31
0.0
  0
LINE
  5
2AEA
330
1A
100
AcDbEntity
  8
部品1
100
AcDbLine
 10
7414.540608108042
 20
8321.120619012551
 30
0.0
 11
7414.540608108042
 21
10616.12061901255
 31
0.0
  0
LINE
  5
2AEB
330
1A
100
AcDbEntity
  8
部品1
100
AcDbLine
 10
7380.040608108043
 20
8321.120619012551
 30
0.0
 11
7380.040608108043
 21
10616.12061901255
 31
0.0
  0
LINE
  5
2AEC
330
1A
100
AcDbEntity
  8
部品1
100
AcDbLine
 10
6414.540608108044
 20
8321.120619012551
 30
0.0
 11
6414.540608108044
 21
10616.12061901255
 31
0.0
  0
LINE
  5
2AED
330
1A
100
AcDbEntity
  8
部品1
100
AcDbLine
 10
6380.040608108044
 20
8321.120619012551
 30
0.0
 11
6380.040608108044
 21
10616.12061901255
 31
0.0
  0
ARC
  5
2AEE
330
1A
100
AcDbEntity
  8
部品1
100
AcDbCircle
 10
8031.540608108043
 20
10676.12061901255
 30
0.0
 40
10.0
100
AcDbArc
 50
0.0
 51
90.0
  0
LINE
  5
2AEF
330
1A
100
AcDbEntity
  8
部品1
100
AcDbLine
 10
8019.040608108042
 20
10641.12061901255
 30
0.0
 11
8019.040608108044
 21
10686.12061901255
 31
0.0
  0
LINE
  5
2AF0
330
1A
100
AcDbEntity
  8
部品1
100
AcDbLine
 10
1964.040608108044
 20
10686.12061901255
 30
0.0
 11
1964.040608108044
 21
10641.12061901255
 31
0.0
  0
LINE
  5
2AF1
330
1A
100
AcDbEntity
  8
部品1
100
AcDbLine
 10
7996.540608108041
 20
8286.120619012553
 30
0.0
 11
7996.540608108041
 21
10636.12061901255
 31
0.0
  0
LINE
  5
2AF2
330
1A
100
AcDbEntity
  8
部品1
100
AcDbLine
 10
1986.540608108043
 20
10636.12061901255
 30
0.0
 11
1986.540608108043
 21
8286.120619012553
 31
0.0
  0
LINE
  5
2AF3
330
1A
100
AcDbEntity
  8
部品1
100
AcDbLine
 10
1941.540608108043
 20
8286.120619012553
 30
0.0
 11
1986.540608108043
 21
8286.120619012553
 31
0.0
  0
LINE
  5
2AF4
330
1A
100
AcDbEntity
  8
部品1
100
AcDbLine
 10
8031.540608108043
 20
10686.12061901255
 30
0.0
 11
1951.540608108044
 21
10686.12061901255
 31
0.0
  0
LINE
  5
2AF5
330
1A
100
AcDbEntity
  8
部品1
100
AcDbLine
 10
8041.540608108041
 20
8286.120619012553
 30
0.0
 11
8041.540608108041
 21
10676.12061901255
 31
0.0
  0
LINE
  5
2AF6
330
1A
100
AcDbEntity
  8
部品1
100
AcDbLine
 10
1941.540608108043
 20
10676.12061901255
 30
0.0
 11
1941.540608108043
 21
8286.120619012553
 31
0.0
  0
VIEWPORT
  5
22
102
{ACAD_XDICTIONARY
360
2EA2
102
}
330
17
100
AcDbEntity
 67
     1
  8
0
100
AcDbViewport
 10
261.5176991150442
 20
154.7242978687078
 30
0.0
 40
523.0353982300885
 41
309.4485957374157
 68
     1
 69
     1
 12
261.5176991150442
 22
154.7242978687078
 13
0.0
 23
0.0
 14
1.0
 24
1.0
 15
10.0
 25
10.0
 16
0.0
 26
0.0
 36
1.0
 17
0.0
 27
0.0
 37
0.0
 42
50.0
 43
0.0
 44
0.0
 45
309.4485957374157
 50
0.0
 51
0.0
 72
   100
 90
    32768
  1

281
     0
 71
     1
 74
     0
110
0.0
120
0.0
130
0.0
111
1.0
121
0.0
131
0.0
112
0.0
122
1.0
132
0.0
 79
     0
146
0.0
  0
ENDSEC
  0
SECTION
  2
OBJECTS
  0
DICTIONARY
  5
C
330
0
100
AcDbDictionary
281
     1
  3
ACAD_COLOR
350
20E1
  3
ACAD_GROUP
350
D
  3
ACAD_LAYOUT
350
20E2
  3
ACAD_MATERIAL
350
20E0
  3
ACAD_MLINESTYLE
350
E
  3
ACAD_PLOTSETTINGS
350
20E3
  3
ACAD_PLOTSTYLENAME
350
20DE
  3
ACDBHEADERROUNDTRIPXREC
350
2E9F
  3
AcDbVariableDictionary
350
2E9B
  0
DICTIONARY
  5
210C
330
2
100
AcDbDictionary
280
     1
281
     1
  3
ACAD_LAYERFILTERS
360
21CD
  3
ACAD_LAYERSTATES
360
210D
  0
DICTIONARY
  5
2EA2
330
22
100
AcDbDictionary
280
     1
281
     1
  3
ACAD_XREC_ROUNDTRIP
360
2EA3
  0
DICTIONARY
  5
20E1
102
{ACAD_REACTORS
330
C
102
}
330
C
100
AcDbDictionary
281
     1
  0
DICTIONARY
  5
D
102
{ACAD_REACTORS
330
C
102
}
330
C
100
AcDbDictionary
281
     1
  0
DICTIONARY
  5
20E2
102
{ACAD_REACTORS
330
C
102
}
330
C
100
AcDbDictionary
281
     1
  3
Model
350
20E4
  3
レイアウト1
350
20E5
  0
DICTIONARY
  5
20E0
102
{ACAD_REACTORS
330
C
102
}
330
C
100
AcDbDictionary
281
     1
  0
DICTIONARY
  5
E
102
{ACAD_REACTORS
330
C
102
}
330
C
100
AcDbDictionary
281
     1
  3
STANDARD
350
13
  0
DICTIONARY
  5
20E3
102
{ACAD_REACTORS
330
C
102
}
330
C
100
AcDbDictionary
281
     1
  0
ACDBDICTIONARYWDFLT
  5
20DE
102
{ACAD_REACTORS
330
C
102
}
330
C
100
AcDbDictionary
281
     1
  3
Normal
350
20DF
100
AcDbDictionaryWithDefault
340
20DF
  0
DICTIONARY
  5
2E9F
102
{ACAD_REACTORS
330
C
102
}
330
C
100
AcDbDictionary
281
     1
  3
COLORDICT
350
2EA1
  3
MATERIALDICT
350
2EA0
  0
DICTIONARY
  5
2E9B
102
{ACAD_REACTORS
330
C
102
}
330
C
100
AcDbDictionary
281
     1
  3
DIMASSOC
350
2E9C
  3
PROJECTNAME
350
2E9D
  0
DICTIONARY
  5
21CD
102
{ACAD_REACTORS
330
210C
102
}
330
210C
100
AcDbDictionary
281
     1
  0
DICTIONARY
  5
210D
102
{ACAD_REACTORS
330
210C
102
}
330
210C
100
AcDbDictionary
281
     1
  0
XRECORD
  5
2EA3
102
{ACAD_REACTORS
330
2EA2
102
}
330
2EA2
100
AcDbXrecord
280
     1
102
SHADEPLOT
 70
     0
  0
LAYOUT
  5
20E4
102
{ACAD_XDICTIONARY
360
2EA4
102
}
102
{ACAD_REACTORS
330
20E2
102
}
330
20E2
100
AcDbPlotSettings
  1

  2
iR C3880
  4
A3
  6

 40
5.873749732971191
 41
5.873747825622558
 42
5.873748779296875
 43
5.873748779296875
 44
296.9259948730469
 45
419.9466552734374
 46
0.0
 47
0.0
 48
0.0
 49
0.0
140
0.0
141
0.0
142
1.0
143
40.0
 70
 11952
 72
     1
 73
     1
 74
     2
  7
inaba.ctb
 75
    24
147
0.025
148
0.0
149
0.0
100
AcDbLayout
  1
Model
 70
     1
 71
     0
 10
0.0
 20
0.0
 11
12.0
 21
9.0
 12
0.0
 22
0.0
 32
0.0
 14
0.0
 24
0.0
 34
0.0
 15
0.0
 25
0.0
 35
0.0
146
0.0
 13
0.0
 23
0.0
 33
0.0
 16
1.0
 26
0.0
 36
0.0
 17
0.0
 27
1.0
 37
0.0
 76
     0
330
1A
  0
LAYOUT
  5
20E5
102
{ACAD_XDICTIONARY
360
2EA6
102
}
102
{ACAD_REACTORS
330
20E2
102
}
330
20E2
100
AcDbPlotSettings
  1

  2
自動 EPSON LP-8400FX (TATENO 上)
  4

  6

 40
0.0
 41
0.0
 42
0.0
 43
0.0
 44
0.0
 45
0.0
 46
0.0
 47
0.0
 48
0.0
 49
0.0
140
0.0
141
0.0
142
1.0
143
1.0
 70
   688
 72
     0
 73
     0
 74
     5
  7
inaba.ctb
 75
    16
147
1.0
148
0.0
149
0.0
100
AcDbLayout
  1
レイアウト1
 70
     1
 71
     1
 10
0.0
 20
0.0
 11
420.0
 21
297.0
 12
0.0
 22
0.0
 32
0.0
 14
1.000000000000000E+20
 24
1.000000000000000E+20
 34
1.000000000000000E+20
 15
-1.000000000000000E+20
 25
-1.000000000000000E+20
 35
-1.000000000000000E+20
146
0.0
 13
0.0
 23
0.0
 33
0.0
 16
1.0
 26
0.0
 36
0.0
 17
0.0
 27
1.0
 37
0.0
 76
     0
330
17
331
22
  0
MLINESTYLE
  5
13
102
{ACAD_REACTORS
330
E
102
}
330
E
100
AcDbMlineStyle
  2
STANDARD
 70
     0
  3

 62
     0
 51
90.0
 52
90.0
 71
     2
 49
0.5
 62
   256
  6
BYLAYER
 49
-0.5
 62
   256
  6
BYLAYER
  0
ACDBPLACEHOLDER
  5
20DF
102
{ACAD_REACTORS
330
20DE
102
}
330
20DE
  0
XRECORD
  5
2EA1
102
{ACAD_REACTORS
330
2E9F
102
}
330
2E9F
100
AcDbXrecord
280
     1
340
20E1
  0
XRECORD
  5
2EA0
102
{ACAD_REACTORS
330
2E9F
102
}
330
2E9F
100
AcDbXrecord
280
     1
340
20E0
  0
DICTIONARYVAR
  5
2E9C
102
{ACAD_REACTORS
330
2E9B
102
}
330
2E9B
100
DictionaryVariables
280
     0
  1
1
  0
DICTIONARYVAR
  5
2E9D
102
{ACAD_REACTORS
330
2E9B
102
}
330
2E9B
100
DictionaryVariables
280
     0
  1

  0
DICTIONARY
  5
2EA4
330
20E4
100
AcDbDictionary
280
     1
281
     1
  3
ACAD_XREC_ROUNDTRIP
360
2EA5
  0
DICTIONARY
  5
2EA6
330
20E5
100
AcDbDictionary
280
     1
281
     1
  3
ACAD_XREC_ROUNDTRIP
360
2EA7
  0
XRECORD
  5
2EA5
102
{ACAD_REACTORS
330
2EA4
102
}
330
2EA4
100
AcDbXrecord
280
     1
102
SHADEPLOT
 70
     0
102
SHADEPLOTRESLEVEL
 70
     2
102
SHADEPLOTCUSTOMDPI
 70
   300
  0
XRECORD
  5
2EA7
102
{ACAD_REACTORS
330
2EA6
102
}
330
2EA6
100
AcDbXrecord
280
     1
102
SHADEPLOT
 70
     0
102
SHADEPLOTRESLEVEL
 70
     2
102
SHADEPLOTCUSTOMDPI
 70
   300
  0
ENDSEC
  0
EOF
