  0
SECTION
  2
HEADER
  9
$ACADVER
  1
AC1015
  9
$ACADMAINTVER
 70
    20
  9
$DWGCODEPAGE
  3
ANSI_932
  9
$INSBASE
 10
0.0
 20
0.0
 30
0.0
  9
$EXTMIN
 10
127.6611720766668
 20
263.39175159972
 30
-0.0000000000112498
  9
$EXTMAX
 10
16296.78958931098
 20
10878.82143762756
 30
0.0000000000002956
  9
$LIMMIN
 10
0.0
 20
0.0
  9
$LIMMAX
 10
16800.0
 20
11880.0
  9
$ORTHOMODE
 70
     0
  9
$REGENMODE
 70
     1
  9
$FILLMODE
 70
     1
  9
$QTEXTMODE
 70
     0
  9
$MIRRTEXT
 70
     1
  9
$LTSCALE
 40
7.0
  9
$ATTMODE
 70
     1
  9
$TEXTSIZE
 40
3.5
  9
$TRACEWID
 40
1.0
  9
$TEXTSTYLE
  7
MSGOTHIC
  9
$CLAYER
  8
点線
  9
$CELTYPE
  6
BYLAYER
  9
$CECOLOR
 62
   256
  9
$CELTSCALE
 40
50.0
  9
$DISPSILH
 70
     0
  9
$DIMSCALE
 40
40.0
  9
$DIMASZ
 40
2.5
  9
$DIMEXO
 40
1.0
  9
$DIMDLI
 40
7.0
  9
$DIMRND
 40
0.0
  9
$DIMDLE
 40
0.0
  9
$DIMEXE
 40
1.0
  9
$DIMTP
 40
0.0
  9
$DIMTM
 40
0.0
  9
$DIMTXT
 40
3.0
  9
$DIMCEN
 40
2.5
  9
$DIMTSZ
 40
0.0
  9
$DIMTOL
 70
     0
  9
$DIMLIM
 70
     0
  9
$DIMTIH
 70
     0
  9
$DIMTOH
 70
     0
  9
$DIMSE1
 70
     0
  9
$DIMSE2
 70
     0
  9
$DIMTAD
 70
     3
  9
$DIMZIN
 70
     8
  9
$DIMBLK
  1

  9
$DIMASO
 70
     1
  9
$DIMSHO
 70
     1
  9
$DIMPOST
  1

  9
$DIMAPOST
  1

  9
$DIMALT
 70
     0
  9
$DIMALTD
 70
     2
  9
$DIMALTF
 40
0.0394
  9
$DIMLFAC
 40
1.0
  9
$DIMTOFL
 70
     0
  9
$DIMTVP
 40
1.0
  9
$DIMTIX
 70
     0
  9
$DIMSOXD
 70
     0
  9
$DIMSAH
 70
     1
  9
$DIMBLK1
  1
DOTSMALL
  9
$DIMBLK2
  1
DOTSMALL
  9
$DIMSTYLE
  2
物置仕様図40
  9
$DIMCLRD
 70
     4
  9
$DIMCLRE
 70
     4
  9
$DIMCLRT
 70
     7
  9
$DIMTFAC
 40
1.0
  9
$DIMGAP
 40
1.0
  9
$DIMJUST
 70
     0
  9
$DIMSD1
 70
     0
  9
$DIMSD2
 70
     0
  9
$DIMTOLJ
 70
     1
  9
$DIMTZIN
 70
     8
  9
$DIMALTZ
 70
     0
  9
$DIMALTTZ
 70
     0
  9
$DIMUPT
 70
     0
  9
$DIMDEC
 70
     2
  9
$DIMTDEC
 70
     2
  9
$DIMALTU
 70
     2
  9
$DIMALTTD
 70
     2
  9
$DIMTXSTY
  7
STANDARD
  9
$DIMAUNIT
 70
     0
  9
$DIMADEC
 70
     0
  9
$DIMALTRND
 40
0.0
  9
$DIMAZIN
 70
     0
  9
$DIMDSEP
 70
    46
  9
$DIMATFIT
 70
     3
  9
$DIMFRAC
 70
     0
  9
$DIMLDRBLK
  1

  9
$DIMLUNIT
 70
     2
  9
$DIMLWD
 70
    -2
  9
$DIMLWE
 70
    -2
  9
$DIMTMOVE
 70
     2
  9
$LUNITS
 70
     2
  9
$LUPREC
 70
     1
  9
$SKETCHINC
 40
1.0
  9
$FILLETRAD
 40
70.0
  9
$AUNITS
 70
     0
  9
$AUPREC
 70
     1
  9
$MENU
  1
.
  9
$ELEVATION
 40
0.0
  9
$PELEVATION
 40
0.0
  9
$THICKNESS
 40
0.0
  9
$LIMCHECK
 70
     0
  9
$CHAMFERA
 40
400.0
  9
$CHAMFERB
 40
400.0
  9
$CHAMFERC
 40
800.0
  9
$CHAMFERD
 40
0.0
  9
$SKPOLY
 70
     0
  9
$TDCREATE
 40
2450696.487780324
  9
$TDUCREATE
 40
2450696.112780324
  9
$TDUPDATE
 40
2455579.593777303
  9
$TDUUPDATE
 40
2455579.218777304
  9
$TDINDWG
 40
0.7176838310
  9
$TDUSRTIMER
 40
0.7176838310
  9
$USRTIMER
 70
     1
  9
$ANGBASE
 50
0.0
  9
$ANGDIR
 70
     0
  9
$PDMODE
 70
     0
  9
$PDSIZE
 40
0.0
  9
$PLINEWID
 40
0.0
  9
$SPLFRAME
 70
     0
  9
$SPLINETYPE
 70
     6
  9
$SPLINESEGS
 70
     8
  9
$HANDSEED
  5
2E58
  9
$SURFTAB1
 70
     6
  9
$SURFTAB2
 70
     6
  9
$SURFTYPE
 70
     6
  9
$SURFU
 70
     6
  9
$SURFV
 70
     6
  9
$UCSBASE
  2

  9
$UCSNAME
  2

  9
$UCSORG
 10
0.0
 20
0.0
 30
0.0
  9
$UCSXDIR
 10
1.0
 20
0.0
 30
0.0
  9
$UCSYDIR
 10
0.0
 20
1.0
 30
0.0
  9
$UCSORTHOREF
  2

  9
$UCSORTHOVIEW
 70
     0
  9
$UCSORGTOP
 10
0.0
 20
0.0
 30
0.0
  9
$UCSORGBOTTOM
 10
0.0
 20
0.0
 30
0.0
  9
$UCSORGLEFT
 10
0.0
 20
0.0
 30
0.0
  9
$UCSORGRIGHT
 10
0.0
 20
0.0
 30
0.0
  9
$UCSORGFRONT
 10
0.0
 20
0.0
 30
0.0
  9
$UCSORGBACK
 10
0.0
 20
0.0
 30
0.0
  9
$PUCSBASE
  2

  9
$PUCSNAME
  2

  9
$PUCSORG
 10
0.0
 20
0.0
 30
0.0
  9
$PUCSXDIR
 10
1.0
 20
0.0
 30
0.0
  9
$PUCSYDIR
 10
0.0
 20
1.0
 30
0.0
  9
$PUCSORTHOREF
  2

  9
$PUCSORTHOVIEW
 70
     0
  9
$PUCSORGTOP
 10
0.0
 20
0.0
 30
0.0
  9
$PUCSORGBOTTOM
 10
0.0
 20
0.0
 30
0.0
  9
$PUCSORGLEFT
 10
0.0
 20
0.0
 30
0.0
  9
$PUCSORGRIGHT
 10
0.0
 20
0.0
 30
0.0
  9
$PUCSORGFRONT
 10
0.0
 20
0.0
 30
0.0
  9
$PUCSORGBACK
 10
0.0
 20
0.0
 30
0.0
  9
$USERI1
 70
     0
  9
$USERI2
 70
     0
  9
$USERI3
 70
     0
  9
$USERI4
 70
     0
  9
$USERI5
 70
     0
  9
$USERR1
 40
0.0
  9
$USERR2
 40
0.0
  9
$USERR3
 40
0.0
  9
$USERR4
 40
0.0
  9
$USERR5
 40
0.0
  9
$WORLDVIEW
 70
     1
  9
$SHADEDGE
 70
     3
  9
$SHADEDIF
 70
    70
  9
$TILEMODE
 70
     1
  9
$MAXACTVP
 70
    16
  9
$PINSBASE
 10
0.0
 20
0.0
 30
0.0
  9
$PLIMCHECK
 70
     0
  9
$PEXTMIN
 10
1.000000000000000E+20
 20
1.000000000000000E+20
 30
1.000000000000000E+20
  9
$PEXTMAX
 10
-1.000000000000000E+20
 20
-1.000000000000000E+20
 30
-1.000000000000000E+20
  9
$PLIMMIN
 10
0.0
 20
0.0
  9
$PLIMMAX
 10
420.0
 20
297.0
  9
$UNITMODE
 70
     0
  9
$VISRETAIN
 70
     0
  9
$PLINEGEN
 70
     0
  9
$PSLTSCALE
 70
     1
  9
$TREEDEPTH
 70
  3020
  9
$CMLSTYLE
  2
STANDARD
  9
$CMLJUST
 70
     0
  9
$CMLSCALE
 40
1.0
  9
$PROXYGRAPHICS
 70
     1
  9
$MEASUREMENT
 70
     1
  9
$CELWEIGHT
370
    -1
  9
$ENDCAPS
280
     0
  9
$JOINSTYLE
280
     0
  9
$LWDISPLAY
290
     0
  9
$INSUNITS
 70
     0
  9
$HYPERLINKBASE
  1

  9
$STYLESHEET
  1
inaba.ctb
  9
$XEDIT
290
     1
  9
$CEPSNTYPE
380
     0
  9
$PSTYLEMODE
290
     1
  9
$FINGERPRINTGUID
  2
{3E7DBE64-0C8B-4A38-AEEF-CDB144859C6F}
  9
$VERSIONGUID
  2
{C091D33C-1124-46A2-A02B-AA306294A88A}
  9
$EXTNAMES
290
     1
  9
$PSVPSCALE
 40
0.0
  9
$OLESTARTUP
290
     0
  0
ENDSEC
  0
SECTION
  2
CLASSES
  0
CLASS
  1
ACDBDICTIONARYWDFLT
  2
AcDbDictionaryWithDefault
  3
ObjectDBX Classes
 90
        0
280
     0
281
     0
  0
CLASS
  1
DICTIONARYVAR
  2
AcDbDictionaryVar
  3
ObjectDBX Classes
 90
        0
280
     0
281
     0
  0
CLASS
  1
ACDBPLACEHOLDER
  2
AcDbPlaceHolder
  3
ObjectDBX Classes
 90
        0
280
     0
281
     0
  0
CLASS
  1
LAYOUT
  2
AcDbLayout
  3
ObjectDBX Classes
 90
        0
280
     0
281
     0
  0
ENDSEC
  0
SECTION
  2
TABLES
  0
TABLE
  2
VPORT
  5
8
330
0
100
AcDbSymbolTable
 70
     3
  0
VPORT
  5
2E4E
330
8
100
AcDbSymbolTableRecord
100
AcDbViewportTableRecord
  2
*Active
 70
     0
 10
0.0
 20
0.0
 11
1.0
 21
1.0
 12
8212.225380693825
 22
5571.106594613642
 13
0.0
 23
0.0
 14
420.0
 24
420.0
 15
420.0
 25
420.0
 16
0.0
 26
0.0
 36
1.0
 17
0.0
 27
0.0
 37
0.0
 40
13252.7886968784
 41
1.2275
 42
50.0
 43
0.0
 44
0.0
 50
0.0
 51
0.0
 71
     0
 72
   100
 73
     1
 74
     0
 75
     0
 76
     0
 77
     0
 78
     1
281
     0
 65
     1
110
0.0
120
0.0
130
0.0
111
1.0
121
0.0
131
0.0
112
0.0
122
1.0
132
0.0
 79
     0
146
0.0
  0
ENDTAB
  0
TABLE
  2
LTYPE
  5
5
330
0
100
AcDbSymbolTable
 70
     3
  0
LTYPE
  5
14
330
5
100
AcDbSymbolTableRecord
100
AcDbLinetypeTableRecord
  2
BYBLOCK
 70
     0
  3

 72
    65
 73
     0
 40
0.0
  0
LTYPE
  5
15
330
5
100
AcDbSymbolTableRecord
100
AcDbLinetypeTableRecord
  2
BYLAYER
 70
     0
  3

 72
    65
 73
     0
 40
0.0
  0
LTYPE
  5
16
330
5
100
AcDbSymbolTableRecord
100
AcDbLinetypeTableRecord
  2
CONTINUOUS
 70
     0
  3
Solid line
 72
    65
 73
     0
 40
0.0
  0
LTYPE
  5
61
330
5
100
AcDbSymbolTableRecord
100
AcDbLinetypeTableRecord
  2
CENTER
 70
     0
  3
____ _ ____ _ ____ _ ____ _ ____ _ ____ _ ____ 
 72
    65
 73
     4
 40
2.0
 49
1.25
 74
     0
 49
-0.25
 74
     0
 49
0.25
 74
     0
 49
-0.25
 74
     0
  0
LTYPE
  5
62
330
5
100
AcDbSymbolTableRecord
100
AcDbLinetypeTableRecord
  2
HIDDEN
 70
     0
  3
__ __ __ __ __ __ __ __ __ __ __ __ __ __ __ __
 72
    65
 73
     2
 40
0.375
 49
0.25
 74
     0
 49
-0.125
 74
     0
  0
ENDTAB
  0
TABLE
  2
LAYER
  5
2
102
{ACAD_XDICTIONARY
360
210C
102
}
330
0
100
AcDbSymbolTable
 70
    10
  0
LAYER
  5
F
330
2
100
AcDbSymbolTableRecord
100
AcDbLayerTableRecord
  2
0
 70
     0
 62
     7
  6
CONTINUOUS
370
    -3
390
20DF
  0
LAYER
  5
63
330
2
100
AcDbSymbolTableRecord
100
AcDbLayerTableRecord
  2
細線
 70
     0
 62
     5
  6
CONTINUOUS
370
    -3
390
20DF
  0
LAYER
  5
64
330
2
100
AcDbSymbolTableRecord
100
AcDbLayerTableRecord
  2
寸法
 70
     0
 62
     4
  6
CONTINUOUS
370
    -3
390
20DF
  0
LAYER
  5
65
330
2
100
AcDbSymbolTableRecord
100
AcDbLayerTableRecord
  2
センター
 70
     0
 62
     3
  6
CENTER
370
    -3
390
20DF
  0
LAYER
  5
92A
330
2
100
AcDbSymbolTableRecord
100
AcDbLayerTableRecord
  2
DEFPOINTS
 70
     0
 62
     7
  6
CONTINUOUS
290
     0
370
    -3
390
20DF
  0
LAYER
  5
1813
330
2
100
AcDbSymbolTableRecord
100
AcDbLayerTableRecord
  2
Ｇ．Ｌ
 70
     0
 62
    30
  6
CONTINUOUS
370
    -3
390
20DF
  0
LAYER
  5
183D
330
2
100
AcDbSymbolTableRecord
100
AcDbLayerTableRecord
  2
文字
 70
     0
 62
     7
  6
CONTINUOUS
370
    -3
390
20DF
  0
LAYER
  5
183E
330
2
100
AcDbSymbolTableRecord
100
AcDbLayerTableRecord
  2
仕様書枠
 70
     0
 62
   230
  6
CONTINUOUS
370
    -3
390
20DF
  0
LAYER
  5
20B1
330
2
100
AcDbSymbolTableRecord
100
AcDbLayerTableRecord
  2
部品1
 70
     0
 62
     7
  6
CONTINUOUS
370
    -3
390
20DF
  0
LAYER
  5
21A8
330
2
100
AcDbSymbolTableRecord
100
AcDbLayerTableRecord
  2
点線
 70
     0
 62
     2
  6
HIDDEN
370
    -3
390
20DF
  0
ENDTAB
  0
TABLE
  2
STYLE
  5
3
330
0
100
AcDbSymbolTable
 70
     6
  0
STYLE
  5
10
330
3
100
AcDbSymbolTableRecord
100
AcDbTextStyleTableRecord
  2
STANDARD
 70
     0
 40
0.0
 41
1.0
 50
0.0
 71
     0
 42
120.0
  3
ISOCP
  4
C:\Program Files\AutoCAD LT\bigfont.shx
  0
STYLE
  5
373
330
3
100
AcDbSymbolTableRecord
100
AcDbTextStyleTableRecord
  2
MSGOTHIC
 70
     0
 40
0.0
 41
1.0
 50
0.0
 71
     0
 42
3.5
  3
MS PGothic.ttf
  4

1001
ACAD
1000
MS PGothic
1071
    32818
  0
STYLE
  5
374
330
3
100
AcDbSymbolTableRecord
100
AcDbTextStyleTableRecord
  2
MSMINCHO
 70
     0
 40
0.0
 41
1.0
 50
0.0
 71
     0
 42
1.199999999999999
  3
msminch2.TTF
  4

  0
STYLE
  5
183F
330
3
100
AcDbSymbolTableRecord
100
AcDbTextStyleTableRecord
  2
STYLE2
 70
     0
 40
0.0
 41
1.0
 50
0.0
 71
     0
 42
100.0
  3
MS PGothic.ttf
  4

1001
ACAD
1000
MS PGothic
1071
    32818
  0
STYLE
  5
210A
330
3
100
AcDbSymbolTableRecord
100
AcDbTextStyleTableRecord
  2
STYLE1
 70
     0
 40
0.0
 41
1.0
 50
0.0
 71
     0
 42
4.0
  3
isocp.shx
  4
bigfont.shx
  0
STYLE
  5
229C
330
3
100
AcDbSymbolTableRecord
100
AcDbTextStyleTableRecord
  2

 70
     1
 40
0.0
 41
1.0
 50
0.0
 71
     0
 42
120.0
  3
ltypeshp.shx
  4

  0
ENDTAB
  0
TABLE
  2
VIEW
  5
6
330
0
100
AcDbSymbolTable
 70
     0
  0
ENDTAB
  0
TABLE
  2
UCS
  5
7
330
0
100
AcDbSymbolTable
 70
     0
  0
ENDTAB
  0
TABLE
  2
APPID
  5
9
330
0
100
AcDbSymbolTable
 70
     1
  0
APPID
  5
11
330
9
100
AcDbSymbolTableRecord
100
AcDbRegAppTableRecord
  2
ACAD
 70
     0
  0
ENDTAB
  0
TABLE
  2
DIMSTYLE
  5
A
330
0
100
AcDbSymbolTable
 70
     2
100
AcDbDimStyleTable
 71
     1
340
92
  0
DIMSTYLE
105
1D
330
A
100
AcDbSymbolTableRecord
100
AcDbDimStyleTableRecord
  2
STANDARD
 70
     0
340
10
  0
DIMSTYLE
105
92
102
{ACAD_REACTORS
330
28E5
330
28E6
330
28E7
330
28E8
330
28EC
330
28ED
330
28EE
330
28EF
330
28F0
330
28F1
330
28F2
330
28F3
330
28F4
330
28F5
330
28F6
330
28F7
330
28F8
330
28F9
330
28FA
330
28FB
330
27AE
330
27AF
330
27B0
330
27B1
330
27B2
330
27B3
330
27B4
330
27B5
330
27B6
330
27B7
102
}
330
A
100
AcDbSymbolTableRecord
100
AcDbDimStyleTableRecord
  2
物置仕様図40
 70
     0
 40
40.0
 41
2.5
 42
1.0
 43
7.0
 44
1.0
 73
     0
 74
     0
 77
     3
 78
     8
140
3.0
141
2.5
143
0.0394
145
1.0
147
1.0
173
     1
176
     4
177
     4
178
     7
271
     2
272
     2
279
     2
284
     8
340
10
341
14F1
343
14F1
344
14F1
  0
ENDTAB
  0
TABLE
  2
BLOCK_RECORD
  5
1
330
0
100
AcDbSymbolTable
 70
    92
  0
BLOCK_RECORD
  5
1A
330
1
100
AcDbSymbolTableRecord
100
AcDbBlockTableRecord
  2
*MODEL_SPACE
340
20E4
  0
BLOCK_RECORD
  5
17
330
1
100
AcDbSymbolTableRecord
100
AcDbBlockTableRecord
  2
*PAPER_SPACE
340
20E5
  0
BLOCK_RECORD
  5
14F1
330
1
100
AcDbSymbolTableRecord
100
AcDbBlockTableRecord
  2
_DOTSMALL
340
0
102
{BLKREFS
331
17B9
331
17BA
331
1750
331
1751
331
16FF
331
1700
331
205D
331
205E
331
173C
331
173D
331
2067
331
2068
331
1713
331
1714
331
171D
331
171E
331
17A3
331
17A4
331
16C8
331
16C9
331
16F5
331
16F6
331
16EB
331
16EC
331
16BD
331
16BE
331
2082
331
2083
331
2073
331
2074
331
1732
331
1733
331
15AA
331
15AB
331
15B5
331
15B6
331
15BE
331
15BF
331
15CA
331
15CB
331
15D5
331
15D6
331
15DE
331
15DF
331
15E9
331
15EA
331
15F3
331
15F4
331
15FE
331
15FF
331
1652
331
1653
331
1627
331
1628
331
1632
331
1633
331
2283
331
2284
331
228B
331
228C
331
238C
331
238D
331
237F
331
2380
331
2375
331
2376
331
2369
331
236A
331
235B
331
235C
331
2350
331
2351
331
2343
331
2344
331
2335
331
2336
331
232B
331
232C
331
231D
331
231E
331
2311
331
2312
331
2306
331
2307
331
22FA
331
22FB
331
22EF
331
22F0
331
22E5
331
22E6
331
22DA
331
22DB
331
22CF
331
22D0
331
22C3
331
22C4
331
22B8
331
22B9
331
22AE
331
22AF
331
240A
331
240B
331
240C
331
240D
331
23FE
331
23FF
331
23F2
331
23F3
331
23E6
331
23E7
331
23DB
331
23DC
331
23D0
331
23D1
331
23C5
331
23C6
331
23B9
331
23BA
331
23AE
331
23AF
331
23A2
331
23A3
331
2398
331
2399
331
2D27
331
2D28
331
2D2E
331
2D2F
331
2D36
331
2D37
331
2D48
331
2D49
331
2D50
331
2D51
331
2D57
331
2D58
331
2D5F
331
2D60
331
2D68
331
2D69
331
2D70
331
2D71
331
2D79
331
2D7A
331
2D83
331
2D84
331
2D8A
331
2D8B
331
2D94
331
2D95
331
2D9D
331
2D9E
331
2DA5
331
2DA6
331
2DAF
331
2DB0
331
2DB8
331
2DB9
331
2DBF
331
2DC0
331
2DC9
331
2DCA
331
2DD2
331
2DD3
331
2DD9
331
2DDA
331
2DE2
331
2DE3
331
2DEA
331
2DEB
331
2DF3
331
2DF4
331
2DFB
331
2DFC
331
2E14
331
2E15
331
2E1D
331
2E1E
331
2E27
331
2E28
331
2E2F
331
2E30
331
2E45
331
2E46
102
}
  0
BLOCK_RECORD
  5
2405
330
1
100
AcDbSymbolTableRecord
100
AcDbBlockTableRecord
  2
A$C384156AA
340
0
102
{BLKREFS
331
2771
102
}
  0
BLOCK_RECORD
  5
29C8
330
1
100
AcDbSymbolTableRecord
100
AcDbBlockTableRecord
  2
*D62
340
0
  0
BLOCK_RECORD
  5
29D4
330
1
100
AcDbSymbolTableRecord
100
AcDbBlockTableRecord
  2
*D63
340
0
  0
BLOCK_RECORD
  5
29DF
330
1
100
AcDbSymbolTableRecord
100
AcDbBlockTableRecord
  2
*D64
340
0
  0
BLOCK_RECORD
  5
29EB
330
1
100
AcDbSymbolTableRecord
100
AcDbBlockTableRecord
  2
*D65
340
0
  0
BLOCK_RECORD
  5
29F8
330
1
100
AcDbSymbolTableRecord
100
AcDbBlockTableRecord
  2
*D66
340
0
  0
BLOCK_RECORD
  5
2A03
330
1
100
AcDbSymbolTableRecord
100
AcDbBlockTableRecord
  2
*D67
340
0
  0
BLOCK_RECORD
  5
2A0F
330
1
100
AcDbSymbolTableRecord
100
AcDbBlockTableRecord
  2
*D68
340
0
  0
BLOCK_RECORD
  5
2A1B
330
1
100
AcDbSymbolTableRecord
100
AcDbBlockTableRecord
  2
*D69
340
0
  0
BLOCK_RECORD
  5
2A26
330
1
100
AcDbSymbolTableRecord
100
AcDbBlockTableRecord
  2
*D70
340
0
  0
BLOCK_RECORD
  5
2A32
330
1
100
AcDbSymbolTableRecord
100
AcDbBlockTableRecord
  2
*D71
340
0
  0
BLOCK_RECORD
  5
2A3E
330
1
100
AcDbSymbolTableRecord
100
AcDbBlockTableRecord
  2
*D72
340
0
  0
BLOCK_RECORD
  5
2A4A
330
1
100
AcDbSymbolTableRecord
100
AcDbBlockTableRecord
  2
*D73
340
0
  0
BLOCK_RECORD
  5
2A55
330
1
100
AcDbSymbolTableRecord
100
AcDbBlockTableRecord
  2
*D74
340
0
  0
BLOCK_RECORD
  5
2A60
330
1
100
AcDbSymbolTableRecord
100
AcDbBlockTableRecord
  2
*D75
340
0
  0
BLOCK_RECORD
  5
2A6B
330
1
100
AcDbSymbolTableRecord
100
AcDbBlockTableRecord
  2
*D76
340
0
  0
BLOCK_RECORD
  5
2A76
330
1
100
AcDbSymbolTableRecord
100
AcDbBlockTableRecord
  2
*D77
340
0
  0
BLOCK_RECORD
  5
2A81
330
1
100
AcDbSymbolTableRecord
100
AcDbBlockTableRecord
  2
*D78
340
0
  0
BLOCK_RECORD
  5
2A8D
330
1
100
AcDbSymbolTableRecord
100
AcDbBlockTableRecord
  2
*D79
340
0
  0
BLOCK_RECORD
  5
2A98
330
1
100
AcDbSymbolTableRecord
100
AcDbBlockTableRecord
  2
*D80
340
0
  0
BLOCK_RECORD
  5
2AA3
330
1
100
AcDbSymbolTableRecord
100
AcDbBlockTableRecord
  2
*D81
340
0
  0
BLOCK_RECORD
  5
2AAF
330
1
100
AcDbSymbolTableRecord
100
AcDbBlockTableRecord
  2
*D82
340
0
  0
BLOCK_RECORD
  5
2ABB
330
1
100
AcDbSymbolTableRecord
100
AcDbBlockTableRecord
  2
*D83
340
0
  0
BLOCK_RECORD
  5
2AC7
330
1
100
AcDbSymbolTableRecord
100
AcDbBlockTableRecord
  2
*D84
340
0
  0
BLOCK_RECORD
  5
2AD2
330
1
100
AcDbSymbolTableRecord
100
AcDbBlockTableRecord
  2
*D85
340
0
  0
BLOCK_RECORD
  5
2ADD
330
1
100
AcDbSymbolTableRecord
100
AcDbBlockTableRecord
  2
*D86
340
0
  0
BLOCK_RECORD
  5
2AE8
330
1
100
AcDbSymbolTableRecord
100
AcDbBlockTableRecord
  2
*D87
340
0
  0
BLOCK_RECORD
  5
2AF4
330
1
100
AcDbSymbolTableRecord
100
AcDbBlockTableRecord
  2
*D88
340
0
  0
BLOCK_RECORD
  5
2B00
330
1
100
AcDbSymbolTableRecord
100
AcDbBlockTableRecord
  2
*D89
340
0
  0
BLOCK_RECORD
  5
2B0B
330
1
100
AcDbSymbolTableRecord
100
AcDbBlockTableRecord
  2
*D90
340
0
  0
BLOCK_RECORD
  5
2B16
330
1
100
AcDbSymbolTableRecord
100
AcDbBlockTableRecord
  2
*D91
340
0
  0
ENDTAB
  0
ENDSEC
  0
SECTION
  2
BLOCKS
  0
BLOCK
  5
1B
330
1A
100
AcDbEntity
  8
0
100
AcDbBlockBegin
  2
*MODEL_SPACE
 70
     0
 10
0.0
 20
0.0
 30
0.0
  3
*MODEL_SPACE
  1

  0
ENDBLK
  5
1C
330
1A
100
AcDbEntity
  8
0
100
AcDbBlockEnd
  0
BLOCK
  5
18
330
17
100
AcDbEntity
 67
     1
  8
0
100
AcDbBlockBegin
  2
*PAPER_SPACE
 70
     0
 10
0.0
 20
0.0
 30
0.0
  3
*PAPER_SPACE
  1

  0
ENDBLK
  5
19
330
17
100
AcDbEntity
 67
     1
  8
0
100
AcDbBlockEnd
  0
BLOCK
  5
14F2
330
14F1
100
AcDbEntity
  8
0
100
AcDbBlockBegin
  2
_DOTSMALL
 70
     0
 10
0.0
 20
0.0
 30
0.0
  3
_DOTSMALL
  1

  0
LWPOLYLINE
  5
14F3
330
14F1
100
AcDbEntity
  8
0
  6
ByBlock
 62
     0
100
AcDbPolyline
 90
        2
 70
     1
 43
0.5
 10
-0.0625
 20
0.0
 42
1.0
 10
0.0625
 20
0.0
 42
1.0
  0
ENDBLK
  5
14F7
330
14F1
100
AcDbEntity
  8
0
100
AcDbBlockEnd
  0
BLOCK
  5
2406
330
2405
100
AcDbEntity
  8
0
100
AcDbBlockBegin
  2
A$C384156AA
 70
     0
 10
0.0
 20
0.0
 30
0.0
  3
A$C384156AA
  1

  0
MTEXT
  5
2407
330
2405
100
AcDbEntity
  8
0
  6
ByBlock
 62
     7
100
AcDbMText
 10
409.7120416811085
 20
87.80591370448382
 30
0.0
 40
120.0
 41
0.0
 71
     5
 72
     1
  1
\A1;115
 11
-0.0472388712606029
 21
0.9988836213703898
 31
0.0
 73
     1
 44
1.0
1001
ACAD
1000
MTEXTBEGIN
1070
    73
1070
     1
1070
    44
1040
1.0
1070
    74
1070
     0
1000
MTEXTEND
  0
LINE
  5
2408
330
2405
100
AcDbEntity
  8
0
  6
ByBlock
 62
     4
100
AcDbLine
 10
286.0978144950022
 20
134.6431942205436
 30
0.0
 11
291.5302846899722
 21
19.77157776295098
 31
0.0
  0
LINE
  5
2409
330
2405
100
AcDbEntity
  8
0
  6
ByBlock
 62
     4
100
AcDbLine
 10
286.0978144950041
 20
134.6431942205427
 30
0.0
 11
291.530284689974
 21
19.77157776295007
 31
0.0
  0
INSERT
  5
240A
330
2405
100
AcDbEntity
  8
0
  6
ByBlock
 62
     4
100
AcDbBlockReference
  2
_DOTSMALL
 10
291.5302846899722
 20
19.77157776295098
 30
0.0
 41
100.0
 42
100.0
 43
100.0
 50
272.7075955944895
  0
INSERT
  5
240B
330
2405
100
AcDbEntity
  8
0
  6
ByBlock
 62
     4
100
AcDbBlockReference
  2
_DOTSMALL
 10
291.530284689974
 20
19.77157776295007
 30
0.0
 41
100.0
 42
100.0
 43
100.0
 50
272.7075955944895
  0
INSERT
  5
240C
330
2405
100
AcDbEntity
  8
0
  6
ByBlock
 62
     4
100
AcDbBlockReference
  2
_DOTSMALL
 10
286.0978144950022
 20
134.6431942205436
 30
0.0
 41
100.0
 42
100.0
 43
100.0
 50
92.70759559448954
  0
INSERT
  5
240D
330
2405
100
AcDbEntity
  8
0
  6
ByBlock
 62
     4
100
AcDbBlockReference
  2
_DOTSMALL
 10
286.0978144950041
 20
134.6431942205427
 30
0.0
 41
100.0
 42
100.0
 43
100.0
 50
92.70759559448954
  0
POINT
  5
240E
330
2405
100
AcDbEntity
  8
DEFPOINTS
  6
ByBlock
 62
     0
100
AcDbPoint
 10
291.5302846899722
 20
19.77157776295098
 30
0.0
  0
POINT
  5
240F
330
2405
100
AcDbEntity
  8
DEFPOINTS
  6
ByBlock
 62
     0
100
AcDbPoint
 10
291.530284689974
 20
19.77157776295007
 30
0.0
  0
LINE
  5
2410
330
2405
100
AcDbEntity
  8
0
  6
ByBlock
 62
     4
100
AcDbLine
 10
5.432492406376695
 20
6.241536336215176
 30
0.0
 11
331.485629544788
 21
21.66113261337523
 31
0.0
  0
LINE
  5
2411
330
2405
100
AcDbEntity
  8
0
  6
ByBlock
 62
     4
100
AcDbLine
 10
0.0000222114085773
 20
121.1131527938078
 30
0.0
 11
326.0531593498181
 21
136.5327490709678
 31
0.0
  0
ENDBLK
  5
2412
330
2405
100
AcDbEntity
  8
0
100
AcDbBlockEnd
  0
BLOCK
  5
29D2
330
29C8
100
AcDbEntity
  8
0
 48
50.0
100
AcDbBlockBegin
  2
*D62
 70
     1
 10
0.0
 20
0.0
 30
0.0
  3
*D62
  1

  0
LINE
  5
2DC5
330
29C8
100
AcDbEntity
  8
寸法
 62
     4
 48
50.0
370
    -2
100
AcDbLine
 10
6128.08479127592
 20
1979.894328662096
 30
0.0
 11
6594.602443373149
 21
1979.894328662096
 31
0.0
  0
LINE
  5
2DC6
330
29C8
100
AcDbEntity
  8
寸法
 62
     4
 48
50.0
370
    -2
100
AcDbLine
 10
6728.266128291223
 20
2249.894328662096
 30
0.0
 11
6514.602443373151
 21
2249.894328662096
 31
0.0
  0
LINE
  5
2DC7
330
29C8
100
AcDbEntity
  8
寸法
 62
     4
 48
50.0
370
    -2
100
AcDbLine
 10
6554.60244337315
 20
1979.894328662096
 30
0.0
 11
6554.60244337315
 21
2249.894328662096
 31
0.0
  0
MTEXT
  5
2DC8
330
29C8
100
AcDbEntity
  8
寸法
 62
     7
 48
50.0
100
AcDbMText
 10
6274.567010302284
 20
2114.894328662097
 30
0.0
 40
120.0
 41
0.0
 71
     5
 72
     1
  1
\A1;270
 11
0.0000000000000001
 21
1.0
 31
0.0
 73
     1
 44
1.0
1001
ACAD
1000
MTEXTBEGIN
1070
    73
1070
     1
1070
    44
1040
1.0
1070
    74
1070
     0
1000
MTEXTEND
  0
INSERT
  5
2DC9
330
29C8
100
AcDbEntity
  8
寸法
 62
     4
 48
50.0
370
    -2
100
AcDbBlockReference
  2
_DOTSMALL
 10
6554.60244337315
 20
1979.894328662096
 30
0.0
 41
100.0
 42
100.0
 43
100.0
 50
270.0
  0
INSERT
  5
2DCA
330
29C8
100
AcDbEntity
  8
寸法
 62
     4
 48
50.0
370
    -2
100
AcDbBlockReference
  2
_DOTSMALL
 10
6554.60244337315
 20
2249.894328662096
 30
0.0
 41
100.0
 42
100.0
 43
100.0
 50
90.0
  0
POINT
  5
2DCB
330
29C8
100
AcDbEntity
  8
DEFPOINTS
 62
     0
 48
50.0
100
AcDbPoint
 10
6088.08479127592
 20
1979.894328662096
 30
0.0
  0
POINT
  5
2DCC
330
29C8
100
AcDbEntity
  8
DEFPOINTS
 62
     0
 48
50.0
100
AcDbPoint
 10
6768.266128291223
 20
2249.894328662096
 30
0.0
  0
POINT
  5
2DCD
330
29C8
100
AcDbEntity
  8
DEFPOINTS
 62
     0
 48
50.0
100
AcDbPoint
 10
6554.60244337315
 20
2249.894328662096
 30
0.0
  0
ENDBLK
  5
29D3
330
29C8
100
AcDbEntity
  8
0
 48
50.0
100
AcDbBlockEnd
  0
BLOCK
  5
29DD
330
29D4
100
AcDbEntity
  8
0
 48
50.0
100
AcDbBlockBegin
  2
*D63
 70
     1
 10
0.0
 20
0.0
 30
0.0
  3
*D63
  1

  0
LINE
  5
2DBD
330
29D4
100
AcDbEntity
  8
寸法
 62
     4
 48
50.0
370
    -2
100
AcDbLine
 10
8906.327550881036
 20
3399.894328662096
 30
0.0
 11
8038.354899444726
 21
3399.894328662096
 31
0.0
  0
LINE
  5
2DBE
330
29D4
100
AcDbEntity
  8
寸法
 62
     4
 48
50.0
370
    -2
100
AcDbLine
 10
8078.354899444727
 20
2499.894328662096
 30
0.0
 11
8078.354899444727
 21
3399.894328662096
 31
0.0
  0
INSERT
  5
2DBF
330
29D4
100
AcDbEntity
  8
寸法
 62
     4
 48
50.0
370
    -2
100
AcDbBlockReference
  2
_DOTSMALL
 10
8078.354899444727
 20
2499.894328662096
 30
0.0
 41
100.0
 42
100.0
 43
100.0
 50
270.0
  0
INSERT
  5
2DC0
330
29D4
100
AcDbEntity
  8
寸法
 62
     4
 48
50.0
370
    -2
100
AcDbBlockReference
  2
_DOTSMALL
 10
8078.354899444727
 20
3399.894328662096
 30
0.0
 41
100.0
 42
100.0
 43
100.0
 50
90.0
  0
MTEXT
  5
2DC1
330
29D4
100
AcDbEntity
  8
寸法
 62
     7
 48
50.0
100
AcDbMText
 10
7978.354899444726
 20
2949.894328662097
 30
0.0
 40
120.0
 41
0.0
 71
     5
 72
     1
  1
\A1;900
 11
0.0000000000000001
 21
1.0
 31
0.0
 73
     1
 44
1.0
1001
ACAD
1000
MTEXTBEGIN
1070
    73
1070
     1
1070
    44
1040
1.0
1070
    74
1070
     0
1000
MTEXTEND
  0
POINT
  5
2DC2
330
29D4
100
AcDbEntity
  8
DEFPOINTS
 62
     0
 48
50.0
100
AcDbPoint
 10
8946.327550881035
 20
2499.894328662096
 30
0.0
  0
POINT
  5
2DC3
330
29D4
100
AcDbEntity
  8
DEFPOINTS
 62
     0
 48
50.0
100
AcDbPoint
 10
8946.327550881035
 20
3399.894328662096
 30
0.0
  0
POINT
  5
2DC4
330
29D4
100
AcDbEntity
  8
DEFPOINTS
 62
     0
 48
50.0
100
AcDbPoint
 10
8078.354899444727
 20
3399.894328662096
 30
0.0
  0
ENDBLK
  5
29DE
330
29D4
100
AcDbEntity
  8
0
 48
50.0
100
AcDbBlockEnd
  0
BLOCK
  5
29E9
330
29DF
100
AcDbEntity
  8
0
 48
50.0
100
AcDbBlockBegin
  2
*D64
 70
     1
 10
0.0
 20
0.0
 30
0.0
  3
*D64
  1

  0
LINE
  5
2DB4
330
29DF
100
AcDbEntity
  8
寸法
 62
     4
 48
50.0
370
    -2
100
AcDbLine
 10
8102.254670437178
 20
2249.894328662096
 30
0.0
 11
8118.354899444726
 21
2249.894328662096
 31
0.0
  0
LINE
  5
2DB5
330
29DF
100
AcDbEntity
  8
寸法
 62
     4
 48
50.0
370
    -2
100
AcDbLine
 10
8906.327550881036
 20
2499.894328662096
 30
0.0
 11
8038.354899444726
 21
2499.894328662096
 31
0.0
  0
LINE
  5
2DB6
330
29DF
100
AcDbEntity
  8
寸法
 62
     4
 48
50.0
370
    -2
100
AcDbLine
 10
8078.354899444727
 20
2249.894328662096
 30
0.0
 11
8078.354899444727
 21
2499.894328662096
 31
0.0
  0
MTEXT
  5
2DB7
330
29DF
100
AcDbEntity
  8
寸法
 62
     7
 48
50.0
100
AcDbMText
 10
7967.79826238547
 20
2374.894328662096
 30
0.0
 40
120.0
 41
0.0
 71
     5
 72
     1
  1
\A1;250
 11
0.0000000000000001
 21
1.0
 31
0.0
 73
     1
 44
1.0
1001
ACAD
1000
MTEXTBEGIN
1070
    73
1070
     1
1070
    44
1040
1.0
1070
    74
1070
     0
1000
MTEXTEND
  0
INSERT
  5
2DB8
330
29DF
100
AcDbEntity
  8
寸法
 62
     4
 48
50.0
370
    -2
100
AcDbBlockReference
  2
_DOTSMALL
 10
8078.354899444727
 20
2249.894328662096
 30
0.0
 41
100.0
 42
100.0
 43
100.0
 50
270.0
  0
INSERT
  5
2DB9
330
29DF
100
AcDbEntity
  8
寸法
 62
     4
 48
50.0
370
    -2
100
AcDbBlockReference
  2
_DOTSMALL
 10
8078.354899444727
 20
2499.894328662096
 30
0.0
 41
100.0
 42
100.0
 43
100.0
 50
90.0
  0
POINT
  5
2DBA
330
29DF
100
AcDbEntity
  8
DEFPOINTS
 62
     0
 48
50.0
100
AcDbPoint
 10
8062.254670437178
 20
2249.894328662096
 30
0.0
  0
POINT
  5
2DBB
330
29DF
100
AcDbEntity
  8
DEFPOINTS
 62
     0
 48
50.0
100
AcDbPoint
 10
8946.327550881035
 20
2499.894328662096
 30
0.0
  0
POINT
  5
2DBC
330
29DF
100
AcDbEntity
  8
DEFPOINTS
 62
     0
 48
50.0
100
AcDbPoint
 10
8078.354899444727
 20
2499.894328662096
 30
0.0
  0
ENDBLK
  5
29EA
330
29DF
100
AcDbEntity
  8
0
 48
50.0
100
AcDbBlockEnd
  0
BLOCK
  5
29F6
330
29EB
100
AcDbEntity
  8
0
 48
50.0
100
AcDbBlockBegin
  2
*D65
 70
     1
 10
0.0
 20
0.0
 30
0.0
  3
*D65
  1

  0
LINE
  5
2DAA
330
29EB
100
AcDbEntity
  8
寸法
 62
     4
 48
50.0
370
    -2
100
AcDbLine
 10
13006.32755088103
 20
2299.894328662096
 30
0.0
 11
13523.45611201606
 21
2299.894328662096
 31
0.0
  0
LINE
  5
2DAB
330
29EB
100
AcDbEntity
  8
寸法
 62
     4
 48
50.0
370
    -2
100
AcDbLine
 10
13455.59992105415
 20
2249.894328662096
 30
0.0
 11
13443.45611201606
 21
2249.894328662096
 31
0.0
  0
LINE
  5
2DAC
330
29EB
100
AcDbEntity
  8
寸法
 62
     4
 48
50.0
370
    -2
100
AcDbLine
 10
13483.45611201606
 20
2299.894328662096
 30
0.0
 11
13483.45611201606
 21
2399.894328662096
 31
0.0
  0
LINE
  5
2DAD
330
29EB
100
AcDbEntity
  8
寸法
 62
     4
 48
50.0
370
    -2
100
AcDbLine
 10
13483.45611201606
 20
2249.894328662096
 30
0.0
 11
13483.45611201606
 21
2149.894328662096
 31
0.0
  0
MTEXT
  5
2DAE
330
29EB
100
AcDbEntity
  8
寸法
 62
     7
 48
50.0
100
AcDbMText
 10
13362.01802163522
 20
2430.297375140057
 30
0.0
 40
120.0
 41
0.0
 71
     5
 72
     1
  1
\A1;50
 11
0.0000000000000001
 21
1.0
 31
0.0
 73
     1
 44
1.0
1001
ACAD
1000
MTEXTBEGIN
1070
    73
1070
     1
1070
    44
1040
1.0
1070
    74
1070
     0
1000
MTEXTEND
  0
INSERT
  5
2DAF
330
29EB
100
AcDbEntity
  8
寸法
 62
     4
 48
50.0
370
    -2
100
AcDbBlockReference
  2
_DOTSMALL
 10
13483.45611201606
 20
2299.894328662096
 30
0.0
 41
100.0
 42
100.0
 43
100.0
 50
270.0
  0
INSERT
  5
2DB0
330
29EB
100
AcDbEntity
  8
寸法
 62
     4
 48
50.0
370
    -2
100
AcDbBlockReference
  2
_DOTSMALL
 10
13483.45611201606
 20
2249.894328662096
 30
0.0
 41
100.0
 42
100.0
 43
100.0
 50
90.0
  0
POINT
  5
2DB1
330
29EB
100
AcDbEntity
  8
DEFPOINTS
 62
     0
 48
50.0
100
AcDbPoint
 10
12966.32755088103
 20
2299.894328662096
 30
0.0
  0
POINT
  5
2DB2
330
29EB
100
AcDbEntity
  8
DEFPOINTS
 62
     0
 48
50.0
100
AcDbPoint
 10
13495.59992105415
 20
2249.894328662096
 30
0.0
  0
POINT
  5
2DB3
330
29EB
100
AcDbEntity
  8
DEFPOINTS
 62
     0
 48
50.0
100
AcDbPoint
 10
13483.45611201606
 20
2249.894328662096
 30
0.0
  0
ENDBLK
  5
29F7
330
29EB
100
AcDbEntity
  8
0
 48
50.0
100
AcDbBlockEnd
  0
BLOCK
  5
2A01
330
29F8
100
AcDbEntity
  8
0
 48
50.0
100
AcDbBlockBegin
  2
*D66
 70
     1
 10
0.0
 20
0.0
 30
0.0
  3
*D66
  1

  0
LINE
  5
2DA2
330
29F8
100
AcDbEntity
  8
寸法
 62
     4
 48
50.0
370
    -2
100
AcDbLine
 10
2968.08479127592
 20
7956.099787121853
 30
0.0
 11
2394.415140076315
 21
7956.099787121853
 31
0.0
  0
LINE
  5
2DA3
330
29F8
100
AcDbEntity
  8
寸法
 62
     4
 48
50.0
370
    -2
100
AcDbLine
 10
2434.415140076315
 20
8216.199787121851
 30
0.0
 11
2434.415140076315
 21
7956.099787121853
 31
0.0
  0
MTEXT
  5
2DA4
330
29F8
100
AcDbEntity
  8
寸法
 62
     7
 48
50.0
100
AcDbMText
 10
2274.403329052693
 20
7998.164696165517
 30
0.0
 40
120.0
 41
0.0
 71
     5
 72
     1
  1
\A1;260.1
 11
0.0000000000000001
 21
1.0
 31
0.0
 73
     1
 44
1.0
1001
ACAD
1000
MTEXTBEGIN
1070
    73
1070
     1
1070
    44
1040
1.0
1070
    74
1070
     0
1000
MTEXTEND
  0
INSERT
  5
2DA5
330
29F8
100
AcDbEntity
  8
寸法
 62
     4
 48
50.0
370
    -2
100
AcDbBlockReference
  2
_DOTSMALL
 10
2434.415140076315
 20
8216.199787121851
 30
0.0
 41
100.0
 42
100.0
 43
100.0
 50
90.0
  0
INSERT
  5
2DA6
330
29F8
100
AcDbEntity
  8
寸法
 62
     4
 48
50.0
370
    -2
100
AcDbBlockReference
  2
_DOTSMALL
 10
2434.415140076315
 20
7956.099787121853
 30
0.0
 41
100.0
 42
100.0
 43
100.0
 50
270.0
  0
POINT
  5
2DA7
330
29F8
100
AcDbEntity
  8
DEFPOINTS
 62
     0
 48
50.0
100
AcDbPoint
 10
3008.08479127592
 20
8216.199787121851
 30
0.0
  0
POINT
  5
2DA8
330
29F8
100
AcDbEntity
  8
DEFPOINTS
 62
     0
 48
50.0
100
AcDbPoint
 10
3008.08479127592
 20
7956.099787121853
 30
0.0
  0
POINT
  5
2DA9
330
29F8
100
AcDbEntity
  8
DEFPOINTS
 62
     0
 48
50.0
100
AcDbPoint
 10
2434.415140076315
 20
7956.099787121853
 30
0.0
  0
ENDBLK
  5
2A02
330
29F8
100
AcDbEntity
  8
0
 48
50.0
100
AcDbBlockEnd
  0
BLOCK
  5
2A0D
330
2A03
100
AcDbEntity
  8
0
 48
50.0
100
AcDbBlockBegin
  2
*D67
 70
     1
 10
0.0
 20
0.0
 30
0.0
  3
*D67
  1

  0
LINE
  5
2D99
330
2A03
100
AcDbEntity
  8
寸法
 62
     4
 48
50.0
370
    -2
100
AcDbLine
 10
6338.084791275919
 20
10616.19978712185
 30
0.0
 11
6963.53771446304
 21
10616.19978712185
 31
0.0
  0
LINE
  5
2D9A
330
2A03
100
AcDbEntity
  8
寸法
 62
     4
 48
50.0
370
    -2
100
AcDbLine
 10
6923.537714463041
 20
10546.19978712185
 30
0.0
 11
6923.537714463041
 21
10446.19978712185
 31
0.0
  0
LINE
  5
2D9B
330
2A03
100
AcDbEntity
  8
寸法
 62
     4
 48
50.0
370
    -2
100
AcDbLine
 10
6923.537714463041
 20
10616.19978712185
 30
0.0
 11
6923.537714463041
 21
10716.19978712185
 31
0.0
  0
MTEXT
  5
2D9C
330
2A03
100
AcDbEntity
  8
寸法
 62
     7
 48
50.0
100
AcDbMText
 10
6847.982309800565
 20
10711.82972903684
 30
0.0
 40
120.0
 41
0.0
 71
     5
 72
     1
  1
\A1;70
 11
0.0000000000000001
 21
1.0
 31
0.0
 73
     1
 44
1.0
1001
ACAD
1000
MTEXTBEGIN
1070
    73
1070
     1
1070
    44
1040
1.0
1070
    74
1070
     0
1000
MTEXTEND
  0
INSERT
  5
2D9D
330
2A03
100
AcDbEntity
  8
寸法
 62
     4
 48
50.0
370
    -2
100
AcDbBlockReference
  2
_DOTSMALL
 10
6923.537714463041
 20
10546.19978712185
 30
0.0
 41
100.0
 42
100.0
 43
100.0
 50
90.0
  0
INSERT
  5
2D9E
330
2A03
100
AcDbEntity
  8
寸法
 62
     4
 48
50.0
370
    -2
100
AcDbBlockReference
  2
_DOTSMALL
 10
6923.537714463041
 20
10616.19978712185
 30
0.0
 41
100.0
 42
100.0
 43
100.0
 50
270.0
  0
POINT
  5
2D9F
330
2A03
100
AcDbEntity
  8
DEFPOINTS
 62
     0
 48
50.0
100
AcDbPoint
 10
6263.084791275918
 20
10546.19978712185
 30
0.0
  0
POINT
  5
2DA0
330
2A03
100
AcDbEntity
  8
DEFPOINTS
 62
     0
 48
50.0
100
AcDbPoint
 10
6298.084791275919
 20
10616.19978712185
 30
0.0
  0
POINT
  5
2DA1
330
2A03
100
AcDbEntity
  8
DEFPOINTS
 62
     0
 48
50.0
100
AcDbPoint
 10
6923.537714463041
 20
10616.19978712185
 30
0.0
  0
ENDBLK
  5
2A0E
330
2A03
100
AcDbEntity
  8
0
 48
50.0
100
AcDbBlockEnd
  0
BLOCK
  5
2A19
330
2A0F
100
AcDbEntity
  8
0
 48
50.0
100
AcDbBlockBegin
  2
*D68
 70
     1
 10
0.0
 20
0.0
 30
0.0
  3
*D68
  1

  0
LINE
  5
2D90
330
2A0F
100
AcDbEntity
  8
寸法
 62
     4
 48
50.0
370
    -2
100
AcDbLine
 10
6338.08479127592
 20
5816.199787121852
 30
0.0
 11
6963.53771446304
 21
5816.199787121852
 31
0.0
  0
LINE
  5
2D91
330
2A0F
100
AcDbEntity
  8
寸法
 62
     4
 48
50.0
370
    -2
100
AcDbLine
 10
6923.537714463041
 20
5886.199787121853
 30
0.0
 11
6923.537714463041
 21
5986.199787121853
 31
0.0
  0
LINE
  5
2D92
330
2A0F
100
AcDbEntity
  8
寸法
 62
     4
 48
50.0
370
    -2
100
AcDbLine
 10
6923.537714463041
 20
5816.199787121852
 30
0.0
 11
6923.537714463041
 21
5716.199787121851
 31
0.0
  0
MTEXT
  5
2D93
330
2A0F
100
AcDbEntity
  8
寸法
 62
     7
 48
50.0
100
AcDbMText
 10
6847.655814112157
 20
5723.494403845278
 30
0.0
 40
120.0
 41
0.0
 71
     5
 72
     1
  1
\A1;70
 11
0.0000000000000001
 21
1.0
 31
0.0
 73
     1
 44
1.0
1001
ACAD
1000
MTEXTBEGIN
1070
    73
1070
     1
1070
    44
1040
1.0
1070
    74
1070
     0
1000
MTEXTEND
  0
INSERT
  5
2D94
330
2A0F
100
AcDbEntity
  8
寸法
 62
     4
 48
50.0
370
    -2
100
AcDbBlockReference
  2
_DOTSMALL
 10
6923.537714463041
 20
5886.199787121853
 30
0.0
 41
100.0
 42
100.0
 43
100.0
 50
270.0
  0
INSERT
  5
2D95
330
2A0F
100
AcDbEntity
  8
寸法
 62
     4
 48
50.0
370
    -2
100
AcDbBlockReference
  2
_DOTSMALL
 10
6923.537714463041
 20
5816.199787121852
 30
0.0
 41
100.0
 42
100.0
 43
100.0
 50
90.0
  0
POINT
  5
2D96
330
2A0F
100
AcDbEntity
  8
DEFPOINTS
 62
     0
 48
50.0
100
AcDbPoint
 10
6263.084791275918
 20
5886.199787121853
 30
0.0
  0
POINT
  5
2D97
330
2A0F
100
AcDbEntity
  8
DEFPOINTS
 62
     0
 48
50.0
100
AcDbPoint
 10
6298.08479127592
 20
5816.199787121852
 30
0.0
  0
POINT
  5
2D98
330
2A0F
100
AcDbEntity
  8
DEFPOINTS
 62
     0
 48
50.0
100
AcDbPoint
 10
6923.537714463041
 20
5816.199787121852
 30
0.0
  0
ENDBLK
  5
2A1A
330
2A0F
100
AcDbEntity
  8
0
 48
50.0
100
AcDbBlockEnd
  0
BLOCK
  5
2A24
330
2A1B
100
AcDbEntity
  8
0
 48
50.0
100
AcDbBlockBegin
  2
*D69
 70
     1
 10
0.0
 20
0.0
 30
0.0
  3
*D69
  1

  0
LINE
  5
2D88
330
2A1B
100
AcDbEntity
  8
寸法
 62
     4
 48
50.0
370
    -2
100
AcDbLine
 10
6303.084791275918
 20
5886.199787121853
 30
0.0
 11
6963.53771446304
 21
5886.199787121853
 31
0.0
  0
LINE
  5
2D89
330
2A1B
100
AcDbEntity
  8
寸法
 62
     4
 48
50.0
370
    -2
100
AcDbLine
 10
6923.537714463042
 20
8181.199787121853
 30
0.0
 11
6923.537714463041
 21
5886.199787121853
 31
0.0
  0
INSERT
  5
2D8A
330
2A1B
100
AcDbEntity
  8
寸法
 62
     4
 48
50.0
370
    -2
100
AcDbBlockReference
  2
_DOTSMALL
 10
6923.537714463042
 20
8181.199787121853
 30
0.0
 41
100.0
 42
100.0
 43
100.0
 50
90.0
  0
INSERT
  5
2D8B
330
2A1B
100
AcDbEntity
  8
寸法
 62
     4
 48
50.0
370
    -2
100
AcDbBlockReference
  2
_DOTSMALL
 10
6923.537714463041
 20
5886.199787121853
 30
0.0
 41
100.0
 42
100.0
 43
100.0
 50
270.0
  0
MTEXT
  5
2D8C
330
2A1B
100
AcDbEntity
  8
寸法
 62
     7
 48
50.0
100
AcDbMText
 10
6823.525903439417
 20
7033.699787121854
 30
0.0
 40
120.0
 41
0.0
 71
     5
 72
     1
  1
\A1;2295
 11
0.0000000000000001
 21
1.0
 31
0.0
 73
     1
 44
1.0
1001
ACAD
1000
MTEXTBEGIN
1070
    73
1070
     1
1070
    44
1040
1.0
1070
    74
1070
     0
1000
MTEXTEND
  0
POINT
  5
2D8D
330
2A1B
100
AcDbEntity
  8
DEFPOINTS
 62
     0
 48
50.0
100
AcDbPoint
 10
6263.08479127592
 20
8181.199787121853
 30
0.0
  0
POINT
  5
2D8E
330
2A1B
100
AcDbEntity
  8
DEFPOINTS
 62
     0
 48
50.0
100
AcDbPoint
 10
6263.084791275918
 20
5886.199787121853
 30
0.0
  0
POINT
  5
2D8F
330
2A1B
100
AcDbEntity
  8
DEFPOINTS
 62
     0
 48
50.0
100
AcDbPoint
 10
6923.537714463041
 20
5886.199787121853
 30
0.0
  0
ENDBLK
  5
2A25
330
2A1B
100
AcDbEntity
  8
0
 48
50.0
100
AcDbBlockEnd
  0
BLOCK
  5
2A30
330
2A26
100
AcDbEntity
  8
0
 48
50.0
100
AcDbBlockBegin
  2
*D70
 70
     1
 10
0.0
 20
0.0
 30
0.0
  3
*D70
  1

  0
LINE
  5
2D7F
330
2A26
100
AcDbEntity
  8
寸法
 62
     4
 48
50.0
370
    -2
100
AcDbLine
 10
6303.08479127592
 20
8181.199787121853
 30
0.0
 11
6963.53771446304
 21
8181.199787121853
 31
0.0
  0
LINE
  5
2D80
330
2A26
100
AcDbEntity
  8
寸法
 62
     4
 48
50.0
370
    -2
100
AcDbLine
 10
6923.537714463041
 20
8251.199787121853
 30
0.0
 11
6923.537714463041
 21
8351.199787121855
 31
0.0
  0
LINE
  5
2D81
330
2A26
100
AcDbEntity
  8
寸法
 62
     4
 48
50.0
370
    -2
100
AcDbLine
 10
6923.537714463041
 20
8181.199787121853
 30
0.0
 11
6923.537714463041
 21
8081.199787121851
 31
0.0
  0
MTEXT
  5
2D82
330
2A26
100
AcDbEntity
  8
寸法
 62
     7
 48
50.0
100
AcDbMText
 10
7203.537714463038
 20
8216.199787121857
 30
0.0
 40
120.0
 41
0.0
 71
     5
 72
     1
  1
\A1;70
 11
0.0000000000000001
 21
1.0
 31
0.0
 73
     1
 44
1.0
1001
ACAD
1000
MTEXTBEGIN
1070
    73
1070
     1
1070
    44
1040
1.0
1070
    74
1070
     0
1000
MTEXTEND
  0
INSERT
  5
2D83
330
2A26
100
AcDbEntity
  8
寸法
 62
     4
 48
50.0
370
    -2
100
AcDbBlockReference
  2
_DOTSMALL
 10
6923.537714463041
 20
8251.199787121853
 30
0.0
 41
100.0
 42
100.0
 43
100.0
 50
270.0
  0
INSERT
  5
2D84
330
2A26
100
AcDbEntity
  8
寸法
 62
     4
 48
50.0
370
    -2
100
AcDbBlockReference
  2
_DOTSMALL
 10
6923.537714463041
 20
8181.199787121853
 30
0.0
 41
100.0
 42
100.0
 43
100.0
 50
90.0
  0
POINT
  5
2D85
330
2A26
100
AcDbEntity
  8
DEFPOINTS
 62
     0
 48
50.0
100
AcDbPoint
 10
6263.084791275919
 20
8251.199787121853
 30
0.0
  0
POINT
  5
2D86
330
2A26
100
AcDbEntity
  8
DEFPOINTS
 62
     0
 48
50.0
100
AcDbPoint
 10
6263.08479127592
 20
8181.199787121853
 30
0.0
  0
POINT
  5
2D87
330
2A26
100
AcDbEntity
  8
DEFPOINTS
 62
     0
 48
50.0
100
AcDbPoint
 10
6923.537714463041
 20
8181.199787121853
 30
0.0
  0
ENDBLK
  5
2A31
330
2A26
100
AcDbEntity
  8
0
 48
50.0
100
AcDbBlockEnd
  0
BLOCK
  5
2A3C
330
2A32
100
AcDbEntity
  8
0
 48
50.0
100
AcDbBlockBegin
  2
*D71
 70
     1
 10
0.0
 20
0.0
 30
0.0
  3
*D71
  1

  0
LINE
  5
2D76
330
2A32
100
AcDbEntity
  8
寸法
 62
     4
 48
50.0
370
    -2
100
AcDbLine
 10
6303.084791275918
 20
10546.19978712185
 30
0.0
 11
6963.537714463041
 21
10546.19978712185
 31
0.0
  0
LINE
  5
2D77
330
2A32
100
AcDbEntity
  8
寸法
 62
     4
 48
50.0
370
    -2
100
AcDbLine
 10
6303.084791275919
 20
8251.199787121853
 30
0.0
 11
6963.53771446304
 21
8251.199787121853
 31
0.0
  0
LINE
  5
2D78
330
2A32
100
AcDbEntity
  8
寸法
 62
     4
 48
50.0
370
    -2
100
AcDbLine
 10
6923.537714463042
 20
10546.19978712185
 30
0.0
 11
6923.537714463041
 21
8251.199787121853
 31
0.0
  0
INSERT
  5
2D79
330
2A32
100
AcDbEntity
  8
寸法
 62
     4
 48
50.0
370
    -2
100
AcDbBlockReference
  2
_DOTSMALL
 10
6923.537714463042
 20
10546.19978712185
 30
0.0
 41
100.0
 42
100.0
 43
100.0
 50
90.0
  0
INSERT
  5
2D7A
330
2A32
100
AcDbEntity
  8
寸法
 62
     4
 48
50.0
370
    -2
100
AcDbBlockReference
  2
_DOTSMALL
 10
6923.537714463041
 20
8251.199787121853
 30
0.0
 41
100.0
 42
100.0
 43
100.0
 50
270.0
  0
MTEXT
  5
2D7B
330
2A32
100
AcDbEntity
  8
寸法
 62
     7
 48
50.0
100
AcDbMText
 10
6823.525903439417
 20
9398.699787121854
 30
0.0
 40
120.0
 41
0.0
 71
     5
 72
     1
  1
\A1;2295
 11
0.0000000000000001
 21
1.0
 31
0.0
 73
     1
 44
1.0
1001
ACAD
1000
MTEXTBEGIN
1070
    73
1070
     1
1070
    44
1040
1.0
1070
    74
1070
     0
1000
MTEXTEND
  0
POINT
  5
2D7C
330
2A32
100
AcDbEntity
  8
DEFPOINTS
 62
     0
 48
50.0
100
AcDbPoint
 10
6263.084791275918
 20
10546.19978712185
 30
0.0
  0
POINT
  5
2D7D
330
2A32
100
AcDbEntity
  8
DEFPOINTS
 62
     0
 48
50.0
100
AcDbPoint
 10
6263.084791275919
 20
8251.199787121853
 30
0.0
  0
POINT
  5
2D7E
330
2A32
100
AcDbEntity
  8
DEFPOINTS
 62
     0
 48
50.0
100
AcDbPoint
 10
6923.537714463041
 20
8251.199787121853
 30
0.0
  0
ENDBLK
  5
2A3D
330
2A32
100
AcDbEntity
  8
0
 48
50.0
100
AcDbBlockEnd
  0
BLOCK
  5
2A48
330
2A3E
100
AcDbEntity
  8
0
 48
50.0
100
AcDbBlockBegin
  2
*D72
 70
     1
 10
0.0
 20
0.0
 30
0.0
  3
*D72
  1

  0
LINE
  5
2D6D
330
2A3E
100
AcDbEntity
  8
寸法
 62
     4
 48
50.0
370
    -2
100
AcDbLine
 10
2978.08479127592
 20
10616.19978712185
 30
0.0
 11
1918.966968675668
 21
10616.19978712185
 31
0.0
  0
LINE
  5
2D6E
330
2A3E
100
AcDbEntity
  8
寸法
 62
     4
 48
50.0
370
    -2
100
AcDbLine
 10
2978.08479127592
 20
5816.199787121852
 30
0.0
 11
1918.966968675668
 21
5816.199787121853
 31
0.0
  0
LINE
  5
2D6F
330
2A3E
100
AcDbEntity
  8
寸法
 62
     4
 48
50.0
370
    -2
100
AcDbLine
 10
1958.966968675669
 20
10616.19978712185
 30
0.0
 11
1958.966968675668
 21
5816.199787121853
 31
0.0
  0
INSERT
  5
2D70
330
2A3E
100
AcDbEntity
  8
寸法
 62
     4
 48
50.0
370
    -2
100
AcDbBlockReference
  2
_DOTSMALL
 10
1958.966968675669
 20
10616.19978712185
 30
0.0
 41
100.0
 42
100.0
 43
100.0
 50
90.0
  0
INSERT
  5
2D71
330
2A3E
100
AcDbEntity
  8
寸法
 62
     4
 48
50.0
370
    -2
100
AcDbBlockReference
  2
_DOTSMALL
 10
1958.966968675668
 20
5816.199787121853
 30
0.0
 41
100.0
 42
100.0
 43
100.0
 50
270.0
  0
MTEXT
  5
2D72
330
2A3E
100
AcDbEntity
  8
寸法
 62
     7
 48
50.0
100
AcDbMText
 10
1858.966968675667
 20
8216.199787121851
 30
0.0
 40
120.0
 41
0.0
 71
     5
 72
     1
  1
\A1;4800
 11
0.0000000000000001
 21
1.0
 31
0.0
 73
     1
 44
1.0
1001
ACAD
1000
MTEXTBEGIN
1070
    73
1070
     1
1070
    44
1040
1.0
1070
    74
1070
     0
1000
MTEXTEND
  0
POINT
  5
2D73
330
2A3E
100
AcDbEntity
  8
DEFPOINTS
 62
     0
 48
50.0
100
AcDbPoint
 10
3018.08479127592
 20
10616.19978712185
 30
0.0
  0
POINT
  5
2D74
330
2A3E
100
AcDbEntity
  8
DEFPOINTS
 62
     0
 48
50.0
100
AcDbPoint
 10
3018.08479127592
 20
5816.199787121852
 30
0.0
  0
POINT
  5
2D75
330
2A3E
100
AcDbEntity
  8
DEFPOINTS
 62
     0
 48
50.0
100
AcDbPoint
 10
1958.966968675668
 20
5816.199787121853
 30
0.0
  0
ENDBLK
  5
2A49
330
2A3E
100
AcDbEntity
  8
0
 48
50.0
100
AcDbBlockEnd
  0
BLOCK
  5
2A53
330
2A4A
100
AcDbEntity
  8
0
 48
50.0
100
AcDbBlockBegin
  2
*D73
 70
     1
 10
0.0
 20
0.0
 30
0.0
  3
*D73
  1

  0
LINE
  5
2D65
330
2A4A
100
AcDbEntity
  8
寸法
 62
     4
 48
50.0
370
    -2
100
AcDbLine
 10
2978.08479127592
 20
5816.199787121852
 30
0.0
 11
2394.415140076315
 21
5816.199787121852
 31
0.0
  0
LINE
  5
2D66
330
2A4A
100
AcDbEntity
  8
寸法
 62
     4
 48
50.0
370
    -2
100
AcDbLine
 10
2434.415140076315
 20
6053.199787121852
 30
0.0
 11
2434.415140076315
 21
5816.199787121852
 31
0.0
  0
MTEXT
  5
2D67
330
2A4A
100
AcDbEntity
  8
寸法
 62
     7
 48
50.0
100
AcDbMText
 10
2333.694554790083
 20
5934.699787121852
 30
0.0
 40
120.0
 41
0.0
 71
     5
 72
     1
  1
\A1;237
 11
0.0000000000000001
 21
1.0
 31
0.0
 73
     1
 44
1.0
1001
ACAD
1000
MTEXTBEGIN
1070
    73
1070
     1
1070
    44
1040
1.0
1070
    74
1070
     0
1000
MTEXTEND
  0
INSERT
  5
2D68
330
2A4A
100
AcDbEntity
  8
寸法
 62
     4
 48
50.0
370
    -2
100
AcDbBlockReference
  2
_DOTSMALL
 10
2434.415140076315
 20
6053.199787121852
 30
0.0
 41
100.0
 42
100.0
 43
100.0
 50
90.0
  0
INSERT
  5
2D69
330
2A4A
100
AcDbEntity
  8
寸法
 62
     4
 48
50.0
370
    -2
100
AcDbBlockReference
  2
_DOTSMALL
 10
2434.415140076315
 20
5816.199787121852
 30
0.0
 41
100.0
 42
100.0
 43
100.0
 50
270.0
  0
POINT
  5
2D6A
330
2A4A
100
AcDbEntity
  8
DEFPOINTS
 62
     0
 48
50.0
100
AcDbPoint
 10
3008.08479127592
 20
6053.199787121852
 30
0.0
  0
POINT
  5
2D6B
330
2A4A
100
AcDbEntity
  8
DEFPOINTS
 62
     0
 48
50.0
100
AcDbPoint
 10
3018.08479127592
 20
5816.199787121852
 30
0.0
  0
POINT
  5
2D6C
330
2A4A
100
AcDbEntity
  8
DEFPOINTS
 62
     0
 48
50.0
100
AcDbPoint
 10
2434.415140076315
 20
5816.199787121852
 30
0.0
  0
ENDBLK
  5
2A54
330
2A4A
100
AcDbEntity
  8
0
 48
50.0
100
AcDbBlockEnd
  0
BLOCK
  5
2A5E
330
2A55
100
AcDbEntity
  8
0
 48
50.0
100
AcDbBlockBegin
  2
*D74
 70
     1
 10
0.0
 20
0.0
 30
0.0
  3
*D74
  1

  0
LINE
  5
2D5D
330
2A55
100
AcDbEntity
  8
寸法
 62
     4
 48
50.0
370
    -2
100
AcDbLine
 10
2968.08479127592
 20
6053.199787121852
 30
0.0
 11
2394.415140076315
 21
6053.199787121852
 31
0.0
  0
LINE
  5
2D5E
330
2A55
100
AcDbEntity
  8
寸法
 62
     4
 48
50.0
370
    -2
100
AcDbLine
 10
2434.415140076315
 20
6687.499787121851
 30
0.0
 11
2434.415140076315
 21
6053.199787121852
 31
0.0
  0
INSERT
  5
2D5F
330
2A55
100
AcDbEntity
  8
寸法
 62
     4
 48
50.0
370
    -2
100
AcDbBlockReference
  2
_DOTSMALL
 10
2434.415140076315
 20
6687.499787121851
 30
0.0
 41
100.0
 42
100.0
 43
100.0
 50
90.0
  0
INSERT
  5
2D60
330
2A55
100
AcDbEntity
  8
寸法
 62
     4
 48
50.0
370
    -2
100
AcDbBlockReference
  2
_DOTSMALL
 10
2434.415140076315
 20
6053.199787121852
 30
0.0
 41
100.0
 42
100.0
 43
100.0
 50
270.0
  0
MTEXT
  5
2D61
330
2A55
100
AcDbEntity
  8
寸法
 62
     7
 48
50.0
100
AcDbMText
 10
2334.415140076314
 20
6370.349787121853
 30
0.0
 40
120.0
 41
0.0
 71
     5
 72
     1
  1
\A1;634.3
 11
0.0000000000000001
 21
1.0
 31
0.0
 73
     1
 44
1.0
1001
ACAD
1000
MTEXTBEGIN
1070
    73
1070
     1
1070
    44
1040
1.0
1070
    74
1070
     0
1000
MTEXTEND
  0
POINT
  5
2D62
330
2A55
100
AcDbEntity
  8
DEFPOINTS
 62
     0
 48
50.0
100
AcDbPoint
 10
3008.08479127592
 20
6687.499787121851
 30
0.0
  0
POINT
  5
2D63
330
2A55
100
AcDbEntity
  8
DEFPOINTS
 62
     0
 48
50.0
100
AcDbPoint
 10
3008.08479127592
 20
6053.199787121852
 30
0.0
  0
POINT
  5
2D64
330
2A55
100
AcDbEntity
  8
DEFPOINTS
 62
     0
 48
50.0
100
AcDbPoint
 10
2434.415140076315
 20
6053.199787121852
 30
0.0
  0
ENDBLK
  5
2A5F
330
2A55
100
AcDbEntity
  8
0
 48
50.0
100
AcDbBlockEnd
  0
BLOCK
  5
2A69
330
2A60
100
AcDbEntity
  8
0
 48
50.0
100
AcDbBlockBegin
  2
*D75
 70
     1
 10
0.0
 20
0.0
 30
0.0
  3
*D75
  1

  0
LINE
  5
2D55
330
2A60
100
AcDbEntity
  8
寸法
 62
     4
 48
50.0
370
    -2
100
AcDbLine
 10
2968.08479127592
 20
6687.499787121851
 30
0.0
 11
2394.415140076315
 21
6687.499787121851
 31
0.0
  0
LINE
  5
2D56
330
2A60
100
AcDbEntity
  8
寸法
 62
     4
 48
50.0
370
    -2
100
AcDbLine
 10
2434.415140076315
 20
7321.79978712185
 30
0.0
 11
2434.415140076315
 21
6687.499787121851
 31
0.0
  0
INSERT
  5
2D57
330
2A60
100
AcDbEntity
  8
寸法
 62
     4
 48
50.0
370
    -2
100
AcDbBlockReference
  2
_DOTSMALL
 10
2434.415140076315
 20
7321.79978712185
 30
0.0
 41
100.0
 42
100.0
 43
100.0
 50
90.0
  0
INSERT
  5
2D58
330
2A60
100
AcDbEntity
  8
寸法
 62
     4
 48
50.0
370
    -2
100
AcDbBlockReference
  2
_DOTSMALL
 10
2434.415140076315
 20
6687.499787121851
 30
0.0
 41
100.0
 42
100.0
 43
100.0
 50
270.0
  0
MTEXT
  5
2D59
330
2A60
100
AcDbEntity
  8
寸法
 62
     7
 48
50.0
100
AcDbMText
 10
2334.415140076314
 20
7004.649787121852
 30
0.0
 40
120.0
 41
0.0
 71
     5
 72
     1
  1
\A1;634.3
 11
0.0000000000000001
 21
1.0
 31
0.0
 73
     1
 44
1.0
1001
ACAD
1000
MTEXTBEGIN
1070
    73
1070
     1
1070
    44
1040
1.0
1070
    74
1070
     0
1000
MTEXTEND
  0
POINT
  5
2D5A
330
2A60
100
AcDbEntity
  8
DEFPOINTS
 62
     0
 48
50.0
100
AcDbPoint
 10
3008.08479127592
 20
7321.79978712185
 30
0.0
  0
POINT
  5
2D5B
330
2A60
100
AcDbEntity
  8
DEFPOINTS
 62
     0
 48
50.0
100
AcDbPoint
 10
3008.08479127592
 20
6687.499787121851
 30
0.0
  0
POINT
  5
2D5C
330
2A60
100
AcDbEntity
  8
DEFPOINTS
 62
     0
 48
50.0
100
AcDbPoint
 10
2434.415140076315
 20
6687.499787121851
 30
0.0
  0
ENDBLK
  5
2A6A
330
2A60
100
AcDbEntity
  8
0
 48
50.0
100
AcDbBlockEnd
  0
BLOCK
  5
2A74
330
2A6B
100
AcDbEntity
  8
0
 48
50.0
100
AcDbBlockBegin
  2
*D76
 70
     1
 10
0.0
 20
0.0
 30
0.0
  3
*D76
  1

  0
LINE
  5
2D4D
330
2A6B
100
AcDbEntity
  8
寸法
 62
     4
 48
50.0
370
    -2
100
AcDbLine
 10
2968.08479127592
 20
7321.79978712185
 30
0.0
 11
2394.415140076315
 21
7321.79978712185
 31
0.0
  0
LINE
  5
2D4E
330
2A6B
100
AcDbEntity
  8
寸法
 62
     4
 48
50.0
370
    -2
100
AcDbLine
 10
2434.415140076315
 20
7956.099787121853
 30
0.0
 11
2434.415140076315
 21
7321.79978712185
 31
0.0
  0
MTEXT
  5
2D4F
330
2A6B
100
AcDbEntity
  8
寸法
 62
     7
 48
50.0
100
AcDbMText
 10
2324.939703023505
 20
7524.23983661491
 30
0.0
 40
120.0
 41
0.0
 71
     5
 72
     1
  1
\A1;634.3
 11
0.0000000000000001
 21
1.0
 31
0.0
 73
     1
 44
1.0
1001
ACAD
1000
MTEXTBEGIN
1070
    73
1070
     1
1070
    44
1040
1.0
1070
    74
1070
     0
1000
MTEXTEND
  0
INSERT
  5
2D50
330
2A6B
100
AcDbEntity
  8
寸法
 62
     4
 48
50.0
370
    -2
100
AcDbBlockReference
  2
_DOTSMALL
 10
2434.415140076315
 20
7956.099787121853
 30
0.0
 41
100.0
 42
100.0
 43
100.0
 50
90.0
  0
INSERT
  5
2D51
330
2A6B
100
AcDbEntity
  8
寸法
 62
     4
 48
50.0
370
    -2
100
AcDbBlockReference
  2
_DOTSMALL
 10
2434.415140076315
 20
7321.79978712185
 30
0.0
 41
100.0
 42
100.0
 43
100.0
 50
270.0
  0
POINT
  5
2D52
330
2A6B
100
AcDbEntity
  8
DEFPOINTS
 62
     0
 48
50.0
100
AcDbPoint
 10
3008.08479127592
 20
7956.099787121853
 30
0.0
  0
POINT
  5
2D53
330
2A6B
100
AcDbEntity
  8
DEFPOINTS
 62
     0
 48
50.0
100
AcDbPoint
 10
3008.08479127592
 20
7321.79978712185
 30
0.0
  0
POINT
  5
2D54
330
2A6B
100
AcDbEntity
  8
DEFPOINTS
 62
     0
 48
50.0
100
AcDbPoint
 10
2434.415140076315
 20
7321.79978712185
 30
0.0
  0
ENDBLK
  5
2A75
330
2A6B
100
AcDbEntity
  8
0
 48
50.0
100
AcDbBlockEnd
  0
BLOCK
  5
2A7F
330
2A76
100
AcDbEntity
  8
0
 48
50.0
100
AcDbBlockBegin
  2
*D77
 70
     1
 10
0.0
 20
0.0
 30
0.0
  3
*D77
  1

  0
LINE
  5
2D45
330
2A76
100
AcDbEntity
  8
寸法
 62
     4
 48
50.0
370
    -2
100
AcDbLine
 10
2968.08479127592
 20
8216.199787121851
 30
0.0
 11
2394.415140076315
 21
8216.199787121851
 31
0.0
  0
LINE
  5
2D46
330
2A76
100
AcDbEntity
  8
寸法
 62
     4
 48
50.0
370
    -2
100
AcDbLine
 10
2434.415140076315
 20
8476.299787121847
 30
0.0
 11
2434.415140076315
 21
8216.199787121851
 31
0.0
  0
MTEXT
  5
2D47
330
2A76
100
AcDbEntity
  8
寸法
 62
     7
 48
50.0
100
AcDbMText
 10
2274.403329052693
 20
8401.617056612504
 30
0.0
 40
120.0
 41
0.0
 71
     5
 72
     1
  1
\A1;260.1
 11
0.0000000000000001
 21
1.0
 31
0.0
 73
     1
 44
1.0
1001
ACAD
1000
MTEXTBEGIN
1070
    73
1070
     1
1070
    44
1040
1.0
1070
    74
1070
     0
1000
MTEXTEND
  0
INSERT
  5
2D48
330
2A76
100
AcDbEntity
  8
寸法
 62
     4
 48
50.0
370
    -2
100
AcDbBlockReference
  2
_DOTSMALL
 10
2434.415140076315
 20
8476.299787121847
 30
0.0
 41
100.0
 42
100.0
 43
100.0
 50
90.0
  0
INSERT
  5
2D49
330
2A76
100
AcDbEntity
  8
寸法
 62
     4
 48
50.0
370
    -2
100
AcDbBlockReference
  2
_DOTSMALL
 10
2434.415140076315
 20
8216.199787121851
 30
0.0
 41
100.0
 42
100.0
 43
100.0
 50
270.0
  0
POINT
  5
2D4A
330
2A76
100
AcDbEntity
  8
DEFPOINTS
 62
     0
 48
50.0
100
AcDbPoint
 10
3008.08479127592
 20
8476.299787121847
 30
0.0
  0
POINT
  5
2D4B
330
2A76
100
AcDbEntity
  8
DEFPOINTS
 62
     0
 48
50.0
100
AcDbPoint
 10
3008.08479127592
 20
8216.199787121851
 30
0.0
  0
POINT
  5
2D4C
330
2A76
100
AcDbEntity
  8
DEFPOINTS
 62
     0
 48
50.0
100
AcDbPoint
 10
2434.415140076315
 20
8216.199787121851
 30
0.0
  0
ENDBLK
  5
2A80
330
2A76
100
AcDbEntity
  8
0
 48
50.0
100
AcDbBlockEnd
  0
BLOCK
  5
2A8B
330
2A81
100
AcDbEntity
  8
0
 48
50.0
100
AcDbBlockBegin
  2
*D78
 70
     1
 10
0.0
 20
0.0
 30
0.0
  3
*D78
  1

  0
LINE
  5
2E40
330
2A81
100
AcDbEntity
  8
寸法
 62
     4
 48
50.0
370
    -2
100
AcDbLine
 10
2968.08479127592
 20
8476.299787121847
 30
0.0
 11
2394.415140076315
 21
8476.299787121847
 31
0.0
  0
LINE
  5
2E41
330
2A81
100
AcDbEntity
  8
寸法
 62
     4
 48
50.0
370
    -2
100
AcDbLine
 10
2434.415140076315
 20
9110.599787121849
 30
0.0
 11
2434.415140076315
 21
9210.599787121848
 31
0.0
  0
LINE
  5
2E42
330
2A81
100
AcDbEntity
  8
寸法
 62
     4
 48
50.0
370
    -2
100
AcDbLine
 10
2434.415140076315
 20
8476.299787121847
 30
0.0
 11
2434.415140076315
 21
8376.299787121848
 31
0.0
  0
MTEXT
  5
2E43
330
2A81
100
AcDbEntity
  8
寸法
 62
     7
 48
50.0
100
AcDbMText
 10
2336.185042107951
 20
8900.033492550695
 30
0.0
 40
120.0
 41
0.0
 71
     5
 72
     1
  1
\A1;634.3
 11
0.0000000000000001
 21
1.0
 31
0.0
 73
     1
 44
1.0
1001
ACAD
1000
MTEXTBEGIN
1070
    73
1070
     1
1070
    44
1040
1.0
1070
    74
1070
     0
1000
MTEXTEND
  0
LINE
  5
2E44
330
2A81
100
AcDbEntity
  8
寸法
 62
     4
 48
50.0
370
    -2
100
AcDbLine
 10
2434.415140076315
 20
9110.599787121849
 30
0.0
 11
2434.415140076315
 21
8476.299787121847
 31
0.0
  0
INSERT
  5
2E45
330
2A81
100
AcDbEntity
  8
寸法
 62
     4
 48
50.0
370
    -2
100
AcDbBlockReference
  2
_DOTSMALL
 10
2434.415140076315
 20
9110.599787121849
 30
0.0
 41
100.0
 42
100.0
 43
100.0
 50
270.0
  0
INSERT
  5
2E46
330
2A81
100
AcDbEntity
  8
寸法
 62
     4
 48
50.0
370
    -2
100
AcDbBlockReference
  2
_DOTSMALL
 10
2434.415140076315
 20
8476.299787121847
 30
0.0
 41
100.0
 42
100.0
 43
100.0
 50
90.0
  0
POINT
  5
2E47
330
2A81
100
AcDbEntity
  8
DEFPOINTS
 62
     0
 48
50.0
100
AcDbPoint
 10
3008.08479127592
 20
9110.599787121849
 30
0.0
  0
POINT
  5
2E48
330
2A81
100
AcDbEntity
  8
DEFPOINTS
 62
     0
 48
50.0
100
AcDbPoint
 10
3008.08479127592
 20
8476.299787121847
 30
0.0
  0
POINT
  5
2E49
330
2A81
100
AcDbEntity
  8
DEFPOINTS
 62
     0
 48
50.0
100
AcDbPoint
 10
2434.415140076315
 20
8476.299787121847
 30
0.0
  0
ENDBLK
  5
2A8C
330
2A81
100
AcDbEntity
  8
0
 48
50.0
100
AcDbBlockEnd
  0
BLOCK
  5
2A96
330
2A8D
100
AcDbEntity
  8
0
 48
50.0
100
AcDbBlockBegin
  2
*D79
 70
     1
 10
0.0
 20
0.0
 30
0.0
  3
*D79
  1

  0
LINE
  5
2D34
330
2A8D
100
AcDbEntity
  8
寸法
 62
     4
 48
50.0
370
    -2
100
AcDbLine
 10
2968.08479127592
 20
9110.599787121849
 30
0.0
 11
2394.415140076315
 21
9110.599787121849
 31
0.0
  0
LINE
  5
2D35
330
2A8D
100
AcDbEntity
  8
寸法
 62
     4
 48
50.0
370
    -2
100
AcDbLine
 10
2434.415140076315
 20
9744.899787121852
 30
0.0
 11
2434.415140076315
 21
9110.599787121849
 31
0.0
  0
INSERT
  5
2D36
330
2A8D
100
AcDbEntity
  8
寸法
 62
     4
 48
50.0
370
    -2
100
AcDbBlockReference
  2
_DOTSMALL
 10
2434.415140076315
 20
9744.899787121852
 30
0.0
 41
100.0
 42
100.0
 43
100.0
 50
90.0
  0
INSERT
  5
2D37
330
2A8D
100
AcDbEntity
  8
寸法
 62
     4
 48
50.0
370
    -2
100
AcDbBlockReference
  2
_DOTSMALL
 10
2434.415140076315
 20
9110.599787121849
 30
0.0
 41
100.0
 42
100.0
 43
100.0
 50
270.0
  0
MTEXT
  5
2D38
330
2A8D
100
AcDbEntity
  8
寸法
 62
     7
 48
50.0
100
AcDbMText
 10
2334.415140076314
 20
9427.749787121852
 30
0.0
 40
120.0
 41
0.0
 71
     5
 72
     1
  1
\A1;634.3
 11
0.0000000000000001
 21
1.0
 31
0.0
 73
     1
 44
1.0
1001
ACAD
1000
MTEXTBEGIN
1070
    73
1070
     1
1070
    44
1040
1.0
1070
    74
1070
     0
1000
MTEXTEND
  0
POINT
  5
2D39
330
2A8D
100
AcDbEntity
  8
DEFPOINTS
 62
     0
 48
50.0
100
AcDbPoint
 10
3008.08479127592
 20
9744.899787121852
 30
0.0
  0
POINT
  5
2D3A
330
2A8D
100
AcDbEntity
  8
DEFPOINTS
 62
     0
 48
50.0
100
AcDbPoint
 10
3008.08479127592
 20
9110.599787121849
 30
0.0
  0
POINT
  5
2D3B
330
2A8D
100
AcDbEntity
  8
DEFPOINTS
 62
     0
 48
50.0
100
AcDbPoint
 10
2434.415140076315
 20
9110.599787121849
 30
0.0
  0
ENDBLK
  5
2A97
330
2A8D
100
AcDbEntity
  8
0
 48
50.0
100
AcDbBlockEnd
  0
BLOCK
  5
2AA1
330
2A98
100
AcDbEntity
  8
0
 48
50.0
100
AcDbBlockBegin
  2
*D80
 70
     1
 10
0.0
 20
0.0
 30
0.0
  3
*D80
  1

  0
LINE
  5
2D2C
330
2A98
100
AcDbEntity
  8
寸法
 62
     4
 48
50.0
370
    -2
100
AcDbLine
 10
2968.08479127592
 20
9744.899787121852
 30
0.0
 11
2394.415140076315
 21
9744.899787121852
 31
0.0
  0
LINE
  5
2D2D
330
2A98
100
AcDbEntity
  8
寸法
 62
     4
 48
50.0
370
    -2
100
AcDbLine
 10
2434.415140076315
 20
10379.19978712185
 30
0.0
 11
2434.415140076315
 21
9744.899787121852
 31
0.0
  0
INSERT
  5
2D2E
330
2A98
100
AcDbEntity
  8
寸法
 62
     4
 48
50.0
370
    -2
100
AcDbBlockReference
  2
_DOTSMALL
 10
2434.415140076315
 20
10379.19978712185
 30
0.0
 41
100.0
 42
100.0
 43
100.0
 50
90.0
  0
INSERT
  5
2D2F
330
2A98
100
AcDbEntity
  8
寸法
 62
     4
 48
50.0
370
    -2
100
AcDbBlockReference
  2
_DOTSMALL
 10
2434.415140076315
 20
9744.899787121852
 30
0.0
 41
100.0
 42
100.0
 43
100.0
 50
270.0
  0
MTEXT
  5
2D30
330
2A98
100
AcDbEntity
  8
寸法
 62
     7
 48
50.0
100
AcDbMText
 10
2334.415140076313
 20
10062.04978712185
 30
0.0
 40
120.0
 41
0.0
 71
     5
 72
     1
  1
\A1;634.3
 11
0.0000000000000001
 21
1.0
 31
0.0
 73
     1
 44
1.0
1001
ACAD
1000
MTEXTBEGIN
1070
    73
1070
     1
1070
    44
1040
1.0
1070
    74
1070
     0
1000
MTEXTEND
  0
POINT
  5
2D31
330
2A98
100
AcDbEntity
  8
DEFPOINTS
 62
     0
 48
50.0
100
AcDbPoint
 10
3008.08479127592
 20
10379.19978712185
 30
0.0
  0
POINT
  5
2D32
330
2A98
100
AcDbEntity
  8
DEFPOINTS
 62
     0
 48
50.0
100
AcDbPoint
 10
3008.08479127592
 20
9744.899787121852
 30
0.0
  0
POINT
  5
2D33
330
2A98
100
AcDbEntity
  8
DEFPOINTS
 62
     0
 48
50.0
100
AcDbPoint
 10
2434.415140076315
 20
9744.899787121852
 30
0.0
  0
ENDBLK
  5
2AA2
330
2A98
100
AcDbEntity
  8
0
 48
50.0
100
AcDbBlockEnd
  0
BLOCK
  5
2AAD
330
2AA3
100
AcDbEntity
  8
0
 48
50.0
100
AcDbBlockBegin
  2
*D81
 70
     1
 10
0.0
 20
0.0
 30
0.0
  3
*D81
  1

  0
LINE
  5
2D23
330
2AA3
100
AcDbEntity
  8
寸法
 62
     4
 48
50.0
370
    -2
100
AcDbLine
 10
2978.08479127592
 20
10616.19978712185
 30
0.0
 11
2394.415140076315
 21
10616.19978712185
 31
0.0
  0
LINE
  5
2D24
330
2AA3
100
AcDbEntity
  8
寸法
 62
     4
 48
50.0
370
    -2
100
AcDbLine
 10
2968.08479127592
 20
10379.19978712185
 30
0.0
 11
2394.415140076315
 21
10379.19978712185
 31
0.0
  0
LINE
  5
2D25
330
2AA3
100
AcDbEntity
  8
寸法
 62
     4
 48
50.0
370
    -2
100
AcDbLine
 10
2434.415140076315
 20
10616.19978712185
 30
0.0
 11
2434.415140076315
 21
10379.19978712185
 31
0.0
  0
MTEXT
  5
2D26
330
2AA3
100
AcDbEntity
  8
寸法
 62
     7
 48
50.0
100
AcDbMText
 10
2323.307086662579
 20
10497.69978712185
 30
0.0
 40
120.0
 41
0.0
 71
     5
 72
     1
  1
\A1;237
 11
0.0000000000000001
 21
1.0
 31
0.0
 73
     1
 44
1.0
1001
ACAD
1000
MTEXTBEGIN
1070
    73
1070
     1
1070
    44
1040
1.0
1070
    74
1070
     0
1000
MTEXTEND
  0
INSERT
  5
2D27
330
2AA3
100
AcDbEntity
  8
寸法
 62
     4
 48
50.0
370
    -2
100
AcDbBlockReference
  2
_DOTSMALL
 10
2434.415140076315
 20
10616.19978712185
 30
0.0
 41
100.0
 42
100.0
 43
100.0
 50
90.0
  0
INSERT
  5
2D28
330
2AA3
100
AcDbEntity
  8
寸法
 62
     4
 48
50.0
370
    -2
100
AcDbBlockReference
  2
_DOTSMALL
 10
2434.415140076315
 20
10379.19978712185
 30
0.0
 41
100.0
 42
100.0
 43
100.0
 50
270.0
  0
POINT
  5
2D29
330
2AA3
100
AcDbEntity
  8
DEFPOINTS
 62
     0
 48
50.0
100
AcDbPoint
 10
3018.08479127592
 20
10616.19978712185
 30
0.0
  0
POINT
  5
2D2A
330
2AA3
100
AcDbEntity
  8
DEFPOINTS
 62
     0
 48
50.0
100
AcDbPoint
 10
3008.08479127592
 20
10379.19978712185
 30
0.0
  0
POINT
  5
2D2B
330
2AA3
100
AcDbEntity
  8
DEFPOINTS
 62
     0
 48
50.0
100
AcDbPoint
 10
2434.415140076315
 20
10379.19978712185
 30
0.0
  0
ENDBLK
  5
2AAE
330
2AA3
100
AcDbEntity
  8
0
 48
50.0
100
AcDbBlockEnd
  0
BLOCK
  5
2AB9
330
2AAF
100
AcDbEntity
  8
0
 48
50.0
100
AcDbBlockBegin
  2
*D82
 70
     1
 10
0.0
 20
0.0
 30
0.0
  3
*D82
  1

  0
LINE
  5
2E1A
330
2AAF
100
AcDbEntity
  8
寸法
 62
     4
 48
50.0
370
    -2
100
AcDbLine
 10
8126.327550881034
 20
4360.894328662096
 30
0.0
 11
7431.797351915797
 21
4360.894328662096
 31
0.0
  0
LINE
  5
2E1B
330
2AAF
100
AcDbEntity
  8
寸法
 62
     4
 48
50.0
370
    -2
100
AcDbLine
 10
7469.042633282217
 20
2249.894328662096
 30
0.0
 11
7431.797351915797
 21
2249.894328662096
 31
0.0
  0
LINE
  5
2E1C
330
2AAF
100
AcDbEntity
  8
寸法
 62
     4
 48
50.0
370
    -2
100
AcDbLine
 10
7471.797351915796
 20
4360.894328662096
 30
0.0
 11
7471.797351915796
 21
2249.894328662096
 31
0.0
  0
INSERT
  5
2E1D
330
2AAF
100
AcDbEntity
  8
寸法
 62
     4
 48
50.0
370
    -2
100
AcDbBlockReference
  2
_DOTSMALL
 10
7471.797351915796
 20
4360.894328662096
 30
0.0
 41
100.0
 42
100.0
 43
100.0
 50
90.0
  0
INSERT
  5
2E1E
330
2AAF
100
AcDbEntity
  8
寸法
 62
     4
 48
50.0
370
    -2
100
AcDbBlockReference
  2
_DOTSMALL
 10
7471.797351915796
 20
2249.894328662096
 30
0.0
 41
100.0
 42
100.0
 43
100.0
 50
270.0
  0
MTEXT
  5
2E1F
330
2AAF
100
AcDbEntity
  8
寸法
 62
     7
 48
50.0
100
AcDbMText
 10
7371.785540892175
 20
3305.394328662098
 30
0.0
 40
120.0
 41
0.0
 71
     5
 72
     1
  1
\A1;2111
 11
0.0000000000000001
 21
1.0
 31
0.0
 73
     1
 44
1.0
1001
ACAD
1000
MTEXTBEGIN
1070
    73
1070
     1
1070
    44
1040
1.0
1070
    74
1070
     0
1000
MTEXTEND
  0
POINT
  5
2E20
330
2AAF
100
AcDbEntity
  8
DEFPOINTS
 62
     0
 48
50.0
100
AcDbPoint
 10
8166.327550881035
 20
4360.894328662096
 30
0.0
  0
POINT
  5
2E21
330
2AAF
100
AcDbEntity
  8
DEFPOINTS
 62
     0
 48
50.0
100
AcDbPoint
 10
7509.042633282217
 20
2249.894328662096
 30
0.0
  0
POINT
  5
2E22
330
2AAF
100
AcDbEntity
  8
DEFPOINTS
 62
     0
 48
50.0
100
AcDbPoint
 10
7471.797351915796
 20
2249.894328662096
 30
0.0
  0
ENDBLK
  5
2ABA
330
2AAF
100
AcDbEntity
  8
0
 48
50.0
100
AcDbBlockEnd
  0
BLOCK
  5
2AC5
330
2ABB
100
AcDbEntity
  8
0
 48
50.0
100
AcDbBlockBegin
  2
*D83
 70
     1
 10
0.0
 20
0.0
 30
0.0
  3
*D83
  1

  0
LINE
  5
2E11
330
2ABB
100
AcDbEntity
  8
寸法
 62
     4
 48
50.0
370
    -2
100
AcDbLine
 10
8166.327550881035
 20
4400.894328662096
 30
0.0
 11
8166.327550881035
 21
4994.334180987681
 31
0.0
  0
LINE
  5
2E12
330
2ABB
100
AcDbEntity
  8
寸法
 62
     4
 48
50.0
370
    -2
100
AcDbLine
 10
12966.32755088103
 20
4400.894328662096
 30
0.0
 11
12966.32755088103
 21
4994.334180987681
 31
0.0
  0
LINE
  5
2E13
330
2ABB
100
AcDbEntity
  8
寸法
 62
     4
 48
50.0
370
    -2
100
AcDbLine
 10
8166.327550881035
 20
4954.33418098768
 30
0.0
 11
12966.32755088103
 21
4954.33418098768
 31
0.0
  0
INSERT
  5
2E14
330
2ABB
100
AcDbEntity
  8
寸法
 62
     4
 48
50.0
370
    -2
100
AcDbBlockReference
  2
_DOTSMALL
 10
8166.327550881035
 20
4954.33418098768
 30
0.0
 41
100.0
 42
100.0
 43
100.0
 50
180.0
  0
INSERT
  5
2E15
330
2ABB
100
AcDbEntity
  8
寸法
 62
     4
 48
50.0
370
    -2
100
AcDbBlockReference
  2
_DOTSMALL
 10
12966.32755088103
 20
4954.33418098768
 30
0.0
 41
100.0
 42
100.0
 43
100.0
  0
MTEXT
  5
2E16
330
2ABB
100
AcDbEntity
  8
寸法
 62
     7
 48
50.0
100
AcDbMText
 10
10566.32755088103
 20
5054.33418098768
 30
0.0
 40
120.0
 41
0.0
 71
     5
 72
     1
  1
\A1;4800
 73
     1
 44
1.0
1001
ACAD
1000
MTEXTBEGIN
1070
    73
1070
     1
1070
    44
1040
1.0
1070
    74
1070
     0
1000
MTEXTEND
  0
POINT
  5
2E17
330
2ABB
100
AcDbEntity
  8
DEFPOINTS
 62
     0
 48
50.0
100
AcDbPoint
 10
8166.327550881035
 20
4360.894328662096
 30
0.0
  0
POINT
  5
2E18
330
2ABB
100
AcDbEntity
  8
DEFPOINTS
 62
     0
 48
50.0
100
AcDbPoint
 10
12966.32755088103
 20
4360.894328662096
 30
0.0
  0
POINT
  5
2E19
330
2ABB
100
AcDbEntity
  8
DEFPOINTS
 62
     0
 48
50.0
100
AcDbPoint
 10
12966.32755088103
 20
4954.33418098768
 30
0.0
  0
ENDBLK
  5
2AC6
330
2ABB
100
AcDbEntity
  8
0
 48
50.0
100
AcDbBlockEnd
  0
BLOCK
  5
2AD0
330
2AC7
100
AcDbEntity
  8
0
 48
50.0
100
AcDbBlockBegin
  2
*D84
 70
     1
 10
0.0
 20
0.0
 30
0.0
  3
*D84
  1

  0
LINE
  5
2E2D
330
2AC7
100
AcDbEntity
  8
細線
 62
     4
 48
50.0
370
    -2
100
AcDbLine
 10
12966.32755088103
 20
4400.894328662096
 30
0.0
 11
12966.32755088103
 21
4714.334180987679
 31
0.0
  0
LINE
  5
2E2E
330
2AC7
100
AcDbEntity
  8
細線
 62
     4
 48
50.0
370
    -2
100
AcDbLine
 10
12216.32755088103
 20
4674.33418098768
 30
0.0
 11
12966.32755088103
 21
4674.33418098768
 31
0.0
  0
INSERT
  5
2E2F
330
2AC7
100
AcDbEntity
  8
細線
 62
     4
 48
50.0
370
    -2
100
AcDbBlockReference
  2
_DOTSMALL
 10
12216.32755088103
 20
4674.33418098768
 30
0.0
 41
100.0
 42
100.0
 43
100.0
 50
180.0
  0
INSERT
  5
2E30
330
2AC7
100
AcDbEntity
  8
細線
 62
     4
 48
50.0
370
    -2
100
AcDbBlockReference
  2
_DOTSMALL
 10
12966.32755088103
 20
4674.33418098768
 30
0.0
 41
100.0
 42
100.0
 43
100.0
  0
MTEXT
  5
2E31
330
2AC7
100
AcDbEntity
  8
細線
 62
     7
 48
50.0
100
AcDbMText
 10
12591.32755088103
 20
4774.33418098768
 30
0.0
 40
120.0
 41
0.0
 71
     5
 72
     1
  1
\A1;750
 73
     1
 44
1.0
1001
ACAD
1000
MTEXTBEGIN
1070
    73
1070
     1
1070
    44
1040
1.0
1070
    74
1070
     0
1000
MTEXTEND
  0
POINT
  5
2E32
330
2AC7
100
AcDbEntity
  8
DEFPOINTS
 62
     0
 48
50.0
100
AcDbPoint
 10
12216.32755088103
 20
4063.913661418743
 30
0.0
  0
POINT
  5
2E33
330
2AC7
100
AcDbEntity
  8
DEFPOINTS
 62
     0
 48
50.0
100
AcDbPoint
 10
12966.32755088103
 20
4360.894328662096
 30
0.0
  0
POINT
  5
2E34
330
2AC7
100
AcDbEntity
  8
DEFPOINTS
 62
     0
 48
50.0
100
AcDbPoint
 10
12966.32755088103
 20
4674.33418098768
 30
0.0
  0
ENDBLK
  5
2AD1
330
2AC7
100
AcDbEntity
  8
0
 48
50.0
100
AcDbBlockEnd
  0
BLOCK
  5
2ADB
330
2AD2
100
AcDbEntity
  8
0
 48
50.0
100
AcDbBlockBegin
  2
*D85
 70
     1
 10
0.0
 20
0.0
 30
0.0
  3
*D85
  1

  0
LINE
  5
2E25
330
2AD2
100
AcDbEntity
  8
寸法
 62
     4
 48
50.0
370
    -2
100
AcDbLine
 10
12216.32755088103
 20
4103.913661418743
 30
0.0
 11
12216.32755088103
 21
4714.334180987679
 31
0.0
  0
LINE
  5
2E26
330
2AD2
100
AcDbEntity
  8
寸法
 62
     4
 48
50.0
370
    -2
100
AcDbLine
 10
10566.32755088103
 20
4674.33418098768
 30
0.0
 11
12216.32755088103
 21
4674.33418098768
 31
0.0
  0
INSERT
  5
2E27
330
2AD2
100
AcDbEntity
  8
寸法
 62
     4
 48
50.0
370
    -2
100
AcDbBlockReference
  2
_DOTSMALL
 10
10566.32755088103
 20
4674.33418098768
 30
0.0
 41
100.0
 42
100.0
 43
100.0
 50
180.0
  0
INSERT
  5
2E28
330
2AD2
100
AcDbEntity
  8
寸法
 62
     4
 48
50.0
370
    -2
100
AcDbBlockReference
  2
_DOTSMALL
 10
12216.32755088103
 20
4674.33418098768
 30
0.0
 41
100.0
 42
100.0
 43
100.0
  0
MTEXT
  5
2E29
330
2AD2
100
AcDbEntity
  8
寸法
 62
     7
 48
50.0
100
AcDbMText
 10
11391.32755088103
 20
4774.33418098768
 30
0.0
 40
120.0
 41
0.0
 71
     5
 72
     1
  1
\A1;1650
 73
     1
 44
1.0
1001
ACAD
1000
MTEXTBEGIN
1070
    73
1070
     1
1070
    44
1040
1.0
1070
    74
1070
     0
1000
MTEXTEND
  0
POINT
  5
2E2A
330
2AD2
100
AcDbEntity
  8
DEFPOINTS
 62
     0
 48
50.0
100
AcDbPoint
 10
10566.32755088103
 20
4360.894328662096
 30
0.0
  0
POINT
  5
2E2B
330
2AD2
100
AcDbEntity
  8
DEFPOINTS
 62
     0
 48
50.0
100
AcDbPoint
 10
12216.32755088103
 20
4063.913661418743
 30
0.0
  0
POINT
  5
2E2C
330
2AD2
100
AcDbEntity
  8
DEFPOINTS
 62
     0
 48
50.0
100
AcDbPoint
 10
12216.32755088103
 20
4674.33418098768
 30
0.0
  0
ENDBLK
  5
2ADC
330
2AD2
100
AcDbEntity
  8
0
 48
50.0
100
AcDbBlockEnd
  0
BLOCK
  5
2AE6
330
2ADD
100
AcDbEntity
  8
0
 48
50.0
100
AcDbBlockBegin
  2
*D86
 70
     1
 10
0.0
 20
0.0
 30
0.0
  3
*D86
  1

  0
LINE
  5
2DF9
330
2ADD
100
AcDbEntity
  8
寸法
 62
     4
 48
50.0
370
    -2
100
AcDbLine
 10
10566.32755088103
 20
4400.894328662096
 30
0.0
 11
10566.32755088103
 21
4714.334180987679
 31
0.0
  0
LINE
  5
2DFA
330
2ADD
100
AcDbEntity
  8
寸法
 62
     4
 48
50.0
370
    -2
100
AcDbLine
 10
8916.327550881034
 20
4674.33418098768
 30
0.0
 11
10566.32755088103
 21
4674.33418098768
 31
0.0
  0
INSERT
  5
2DFB
330
2ADD
100
AcDbEntity
  8
寸法
 62
     4
 48
50.0
370
    -2
100
AcDbBlockReference
  2
_DOTSMALL
 10
8916.327550881034
 20
4674.33418098768
 30
0.0
 41
100.0
 42
100.0
 43
100.0
 50
180.0
  0
INSERT
  5
2DFC
330
2ADD
100
AcDbEntity
  8
寸法
 62
     4
 48
50.0
370
    -2
100
AcDbBlockReference
  2
_DOTSMALL
 10
10566.32755088103
 20
4674.33418098768
 30
0.0
 41
100.0
 42
100.0
 43
100.0
  0
MTEXT
  5
2DFD
330
2ADD
100
AcDbEntity
  8
寸法
 62
     7
 48
50.0
100
AcDbMText
 10
9741.327550881033
 20
4774.33418098768
 30
0.0
 40
120.0
 41
0.0
 71
     5
 72
     1
  1
\A1;1650
 73
     1
 44
1.0
1001
ACAD
1000
MTEXTBEGIN
1070
    73
1070
     1
1070
    44
1040
1.0
1070
    74
1070
     0
1000
MTEXTEND
  0
POINT
  5
2DFE
330
2ADD
100
AcDbEntity
  8
DEFPOINTS
 62
     0
 48
50.0
100
AcDbPoint
 10
8916.327550881034
 20
4063.913661418744
 30
0.0
  0
POINT
  5
2DFF
330
2ADD
100
AcDbEntity
  8
DEFPOINTS
 62
     0
 48
50.0
100
AcDbPoint
 10
10566.32755088103
 20
4360.894328662096
 30
0.0
  0
POINT
  5
2E00
330
2ADD
100
AcDbEntity
  8
DEFPOINTS
 62
     0
 48
50.0
100
AcDbPoint
 10
10566.32755088103
 20
4674.33418098768
 30
0.0
  0
ENDBLK
  5
2AE7
330
2ADD
100
AcDbEntity
  8
0
 48
50.0
100
AcDbBlockEnd
  0
BLOCK
  5
2AF2
330
2AE8
100
AcDbEntity
  8
0
 48
50.0
100
AcDbBlockBegin
  2
*D87
 70
     1
 10
0.0
 20
0.0
 30
0.0
  3
*D87
  1

  0
LINE
  5
2DF0
330
2AE8
100
AcDbEntity
  8
寸法
 62
     4
 48
50.0
370
    -2
100
AcDbLine
 10
8166.327550881035
 20
4400.894328662096
 30
0.0
 11
8166.327550881035
 21
4714.334180987679
 31
0.0
  0
LINE
  5
2DF1
330
2AE8
100
AcDbEntity
  8
寸法
 62
     4
 48
50.0
370
    -2
100
AcDbLine
 10
8916.327550881034
 20
4103.913661418745
 30
0.0
 11
8916.327550881034
 21
4714.334180987679
 31
0.0
  0
LINE
  5
2DF2
330
2AE8
100
AcDbEntity
  8
寸法
 62
     4
 48
50.0
370
    -2
100
AcDbLine
 10
8166.327550881035
 20
4674.33418098768
 30
0.0
 11
8916.327550881034
 21
4674.33418098768
 31
0.0
  0
INSERT
  5
2DF3
330
2AE8
100
AcDbEntity
  8
寸法
 62
     4
 48
50.0
370
    -2
100
AcDbBlockReference
  2
_DOTSMALL
 10
8166.327550881035
 20
4674.33418098768
 30
0.0
 41
100.0
 42
100.0
 43
100.0
 50
180.0
  0
INSERT
  5
2DF4
330
2AE8
100
AcDbEntity
  8
寸法
 62
     4
 48
50.0
370
    -2
100
AcDbBlockReference
  2
_DOTSMALL
 10
8916.327550881034
 20
4674.33418098768
 30
0.0
 41
100.0
 42
100.0
 43
100.0
  0
MTEXT
  5
2DF5
330
2AE8
100
AcDbEntity
  8
寸法
 62
     7
 48
50.0
100
AcDbMText
 10
8541.327550881034
 20
4774.33418098768
 30
0.0
 40
120.0
 41
0.0
 71
     5
 72
     1
  1
\A1;750
 73
     1
 44
1.0
1001
ACAD
1000
MTEXTBEGIN
1070
    73
1070
     1
1070
    44
1040
1.0
1070
    74
1070
     0
1000
MTEXTEND
  0
POINT
  5
2DF6
330
2AE8
100
AcDbEntity
  8
DEFPOINTS
 62
     0
 48
50.0
100
AcDbPoint
 10
8166.327550881035
 20
4360.894328662096
 30
0.0
  0
POINT
  5
2DF7
330
2AE8
100
AcDbEntity
  8
DEFPOINTS
 62
     0
 48
50.0
100
AcDbPoint
 10
8916.327550881034
 20
4063.913661418744
 30
0.0
  0
POINT
  5
2DF8
330
2AE8
100
AcDbEntity
  8
DEFPOINTS
 62
     0
 48
50.0
100
AcDbPoint
 10
8916.327550881034
 20
4674.33418098768
 30
0.0
  0
ENDBLK
  5
2AF3
330
2AE8
100
AcDbEntity
  8
0
 48
50.0
100
AcDbBlockEnd
  0
BLOCK
  5
2AFE
330
2AF4
100
AcDbEntity
  8
0
 48
50.0
100
AcDbBlockBegin
  2
*D88
 70
     1
 10
0.0
 20
0.0
 30
0.0
  3
*D88
  1

  0
LINE
  5
2DE7
330
2AF4
100
AcDbEntity
  8
寸法
 62
     4
 48
50.0
370
    -2
100
AcDbLine
 10
3008.08479127592
 20
4400.894328662096
 30
0.0
 11
3008.08479127592
 21
4997.110116486521
 31
0.0
  0
LINE
  5
2DE8
330
2AF4
100
AcDbEntity
  8
寸法
 62
     4
 48
50.0
370
    -2
100
AcDbLine
 10
6308.08479127592
 20
4400.894328662096
 30
0.0
 11
6308.08479127592
 21
4997.110116486521
 31
0.0
  0
LINE
  5
2DE9
330
2AF4
100
AcDbEntity
  8
寸法
 62
     4
 48
50.0
370
    -2
100
AcDbLine
 10
3008.08479127592
 20
4957.110116486521
 30
0.0
 11
6308.08479127592
 21
4957.110116486521
 31
0.0
  0
INSERT
  5
2DEA
330
2AF4
100
AcDbEntity
  8
寸法
 62
     4
 48
50.0
370
    -2
100
AcDbBlockReference
  2
_DOTSMALL
 10
3008.08479127592
 20
4957.110116486521
 30
0.0
 41
100.0
 42
100.0
 43
100.0
 50
180.0
  0
INSERT
  5
2DEB
330
2AF4
100
AcDbEntity
  8
寸法
 62
     4
 48
50.0
370
    -2
100
AcDbBlockReference
  2
_DOTSMALL
 10
6308.08479127592
 20
4957.110116486521
 30
0.0
 41
100.0
 42
100.0
 43
100.0
  0
MTEXT
  5
2DEC
330
2AF4
100
AcDbEntity
  8
寸法
 62
     7
 48
50.0
100
AcDbMText
 10
4658.08479127592
 20
5057.110116486521
 30
0.0
 40
120.0
 41
0.0
 71
     5
 72
     1
  1
\A1;3300
 73
     1
 44
1.0
1001
ACAD
1000
MTEXTBEGIN
1070
    73
1070
     1
1070
    44
1040
1.0
1070
    74
1070
     0
1000
MTEXTEND
  0
POINT
  5
2DED
330
2AF4
100
AcDbEntity
  8
DEFPOINTS
 62
     0
 48
50.0
100
AcDbPoint
 10
3008.08479127592
 20
4360.894328662096
 30
0.0
  0
POINT
  5
2DEE
330
2AF4
100
AcDbEntity
  8
DEFPOINTS
 62
     0
 48
50.0
100
AcDbPoint
 10
6308.08479127592
 20
4360.894328662096
 30
0.0
  0
POINT
  5
2DEF
330
2AF4
100
AcDbEntity
  8
DEFPOINTS
 62
     0
 48
50.0
100
AcDbPoint
 10
6308.08479127592
 20
4957.110116486521
 30
0.0
  0
ENDBLK
  5
2AFF
330
2AF4
100
AcDbEntity
  8
0
 48
50.0
100
AcDbBlockEnd
  0
BLOCK
  5
2B09
330
2B00
100
AcDbEntity
  8
0
 48
50.0
100
AcDbBlockBegin
  2
*D89
 70
     1
 10
0.0
 20
0.0
 30
0.0
  3
*D89
  1

  0
LINE
  5
2DDF
330
2B00
100
AcDbEntity
  8
寸法
 62
     4
 48
50.0
370
    -2
100
AcDbLine
 10
6308.08479127592
 20
4400.894328662096
 30
0.0
 11
6308.08479127592
 21
4717.110116486521
 31
0.0
  0
LINE
  5
2DE0
330
2B00
100
AcDbEntity
  8
寸法
 62
     4
 48
50.0
370
    -2
100
AcDbLine
 10
6058.08479127592
 20
4677.110116486521
 30
0.0
 11
6308.08479127592
 21
4677.110116486521
 31
0.0
  0
MTEXT
  5
2DE1
330
2B00
100
AcDbEntity
  8
寸法
 62
     7
 48
50.0
100
AcDbMText
 10
6169.820471908192
 20
4805.110519351536
 30
0.0
 40
120.0
 41
0.0
 71
     5
 72
     1
  1
\A1;250
 73
     1
 44
1.0
1001
ACAD
1000
MTEXTBEGIN
1070
    73
1070
     1
1070
    44
1040
1.0
1070
    74
1070
     0
1000
MTEXTEND
  0
INSERT
  5
2DE2
330
2B00
100
AcDbEntity
  8
寸法
 62
     4
 48
50.0
370
    -2
100
AcDbBlockReference
  2
_DOTSMALL
 10
6058.08479127592
 20
4677.110116486521
 30
0.0
 41
100.0
 42
100.0
 43
100.0
 50
180.0
  0
INSERT
  5
2DE3
330
2B00
100
AcDbEntity
  8
寸法
 62
     4
 48
50.0
370
    -2
100
AcDbBlockReference
  2
_DOTSMALL
 10
6308.08479127592
 20
4677.110116486521
 30
0.0
 41
100.0
 42
100.0
 43
100.0
  0
POINT
  5
2DE4
330
2B00
100
AcDbEntity
  8
DEFPOINTS
 62
     0
 48
50.0
100
AcDbPoint
 10
6058.08479127592
 20
4332.209710363466
 30
0.0
  0
POINT
  5
2DE5
330
2B00
100
AcDbEntity
  8
DEFPOINTS
 62
     0
 48
50.0
100
AcDbPoint
 10
6308.08479127592
 20
4360.894328662096
 30
0.0
  0
POINT
  5
2DE6
330
2B00
100
AcDbEntity
  8
DEFPOINTS
 62
     0
 48
50.0
100
AcDbPoint
 10
6308.08479127592
 20
4677.110116486521
 30
0.0
  0
ENDBLK
  5
2B0A
330
2B00
100
AcDbEntity
  8
0
 48
50.0
100
AcDbBlockEnd
  0
BLOCK
  5
2B14
330
2B0B
100
AcDbEntity
  8
0
 48
50.0
100
AcDbBlockBegin
  2
*D90
 70
     1
 10
0.0
 20
0.0
 30
0.0
  3
*D90
  1

  0
LINE
  5
2DD7
330
2B0B
100
AcDbEntity
  8
寸法
 62
     4
 48
50.0
370
    -2
100
AcDbLine
 10
6058.08479127592
 20
4372.209710363466
 30
0.0
 11
6058.08479127592
 21
4717.110116486521
 31
0.0
  0
LINE
  5
2DD8
330
2B0B
100
AcDbEntity
  8
寸法
 62
     4
 48
50.0
370
    -2
100
AcDbLine
 10
3258.08479127592
 20
4677.110116486521
 30
0.0
 11
6058.08479127592
 21
4677.110116486521
 31
0.0
  0
INSERT
  5
2DD9
330
2B0B
100
AcDbEntity
  8
寸法
 62
     4
 48
50.0
370
    -2
100
AcDbBlockReference
  2
_DOTSMALL
 10
3258.08479127592
 20
4677.110116486521
 30
0.0
 41
100.0
 42
100.0
 43
100.0
 50
180.0
  0
INSERT
  5
2DDA
330
2B0B
100
AcDbEntity
  8
寸法
 62
     4
 48
50.0
370
    -2
100
AcDbBlockReference
  2
_DOTSMALL
 10
6058.08479127592
 20
4677.110116486521
 30
0.0
 41
100.0
 42
100.0
 43
100.0
  0
MTEXT
  5
2DDB
330
2B0B
100
AcDbEntity
  8
寸法
 62
     7
 48
50.0
100
AcDbMText
 10
4658.08479127592
 20
4777.121927510143
 30
0.0
 40
120.0
 41
0.0
 71
     5
 72
     1
  1
\A1;2800
 73
     1
 44
1.0
1001
ACAD
1000
MTEXTBEGIN
1070
    73
1070
     1
1070
    44
1040
1.0
1070
    74
1070
     0
1000
MTEXTEND
  0
POINT
  5
2DDC
330
2B0B
100
AcDbEntity
  8
DEFPOINTS
 62
     0
 48
50.0
100
AcDbPoint
 10
3258.08479127592
 20
4332.209710363466
 30
0.0
  0
POINT
  5
2DDD
330
2B0B
100
AcDbEntity
  8
DEFPOINTS
 62
     0
 48
50.0
100
AcDbPoint
 10
6058.08479127592
 20
4332.209710363466
 30
0.0
  0
POINT
  5
2DDE
330
2B0B
100
AcDbEntity
  8
DEFPOINTS
 62
     0
 48
50.0
100
AcDbPoint
 10
6058.08479127592
 20
4677.110116486521
 30
0.0
  0
ENDBLK
  5
2B15
330
2B0B
100
AcDbEntity
  8
0
 48
50.0
100
AcDbBlockEnd
  0
BLOCK
  5
2B20
330
2B16
100
AcDbEntity
  8
0
 48
50.0
100
AcDbBlockBegin
  2
*D91
 70
     1
 10
0.0
 20
0.0
 30
0.0
  3
*D91
  1

  0
LINE
  5
2DCE
330
2B16
100
AcDbEntity
  8
寸法
 62
     4
 48
50.0
370
    -2
100
AcDbLine
 10
3008.08479127592
 20
4400.894328662096
 30
0.0
 11
3008.08479127592
 21
4717.110116486521
 31
0.0
  0
LINE
  5
2DCF
330
2B16
100
AcDbEntity
  8
寸法
 62
     4
 48
50.0
370
    -2
100
AcDbLine
 10
3258.08479127592
 20
4372.209710363466
 30
0.0
 11
3258.08479127592
 21
4717.110116486521
 31
0.0
  0
LINE
  5
2DD0
330
2B16
100
AcDbEntity
  8
寸法
 62
     4
 48
50.0
370
    -2
100
AcDbLine
 10
3008.08479127592
 20
4677.110116486521
 30
0.0
 11
3258.08479127592
 21
4677.110116486521
 31
0.0
  0
MTEXT
  5
2DD1
330
2B16
100
AcDbEntity
  8
寸法
 62
     7
 48
50.0
100
AcDbMText
 10
3139.012682419911
 20
4787.02060836555
 30
0.0
 40
120.0
 41
0.0
 71
     5
 72
     1
  1
\A1;250
 73
     1
 44
1.0
1001
ACAD
1000
MTEXTBEGIN
1070
    73
1070
     1
1070
    44
1040
1.0
1070
    74
1070
     0
1000
MTEXTEND
  0
INSERT
  5
2DD2
330
2B16
100
AcDbEntity
  8
寸法
 62
     4
 48
50.0
370
    -2
100
AcDbBlockReference
  2
_DOTSMALL
 10
3008.08479127592
 20
4677.110116486521
 30
0.0
 41
100.0
 42
100.0
 43
100.0
 50
180.0
  0
INSERT
  5
2DD3
330
2B16
100
AcDbEntity
  8
寸法
 62
     4
 48
50.0
370
    -2
100
AcDbBlockReference
  2
_DOTSMALL
 10
3258.08479127592
 20
4677.110116486521
 30
0.0
 41
100.0
 42
100.0
 43
100.0
  0
POINT
  5
2DD4
330
2B16
100
AcDbEntity
  8
DEFPOINTS
 62
     0
 48
50.0
100
AcDbPoint
 10
3008.08479127592
 20
4360.894328662096
 30
0.0
  0
POINT
  5
2DD5
330
2B16
100
AcDbEntity
  8
DEFPOINTS
 62
     0
 48
50.0
100
AcDbPoint
 10
3258.08479127592
 20
4332.209710363466
 30
0.0
  0
POINT
  5
2DD6
330
2B16
100
AcDbEntity
  8
DEFPOINTS
 62
     0
 48
50.0
100
AcDbPoint
 10
3258.08479127592
 20
4677.110116486521
 30
0.0
  0
ENDBLK
  5
2B21
330
2B16
100
AcDbEntity
  8
0
 48
50.0
100
AcDbBlockEnd
  0
ENDSEC
  0
SECTION
  2
ENTITIES
  0
MTEXT
  5
1C51
330
1A
100
AcDbEntity
  8
0
100
AcDbMText
 10
12113.85383347236
 20
11207.9349056396
 30
0.0
 40
140.0
 41
212.9488506697089
 71
     1
 72
     5
  1

  7
MSMINCHO
 73
     1
 44
1.0
1001
ACAD
1000
MTEXTBEGIN
1070
    73
1070
     1
1070
    44
1040
1.0
1070
    74
1070
     0
1000
MTEXTEND
  0
LINE
  5
26F0
330
1A
100
AcDbEntity
  8
点線
 48
6.0
100
AcDbLine
 10
6278.084791275916
 20
6095.699787121851
 30
0.0
 11
6278.084791275916
 21
6030.69978712185
 31
0.0
  0
LINE
  5
26F1
330
1A
100
AcDbEntity
  8
点線
 48
6.0
100
AcDbLine
 10
6278.084791275919
 20
6729.999787121854
 30
0.0
 11
6278.084791275919
 21
6664.999787121852
 31
0.0
  0
LINE
  5
26F2
330
1A
100
AcDbEntity
  8
点線
 48
6.0
100
AcDbLine
 10
6278.084791275919
 20
7364.299787121854
 30
0.0
 11
6278.084791275919
 21
7299.29978712185
 31
0.0
  0
LINE
  5
26F3
330
1A
100
AcDbEntity
  8
点線
 48
6.0
100
AcDbLine
 10
6278.084791275919
 20
7998.599787121857
 30
0.0
 11
6278.084791275919
 21
7933.599787121855
 31
0.0
  0
LINE
  5
26F4
330
1A
100
AcDbEntity
  8
点線
 48
6.0
100
AcDbLine
 10
6278.084791275919
 20
8498.799787121852
 30
0.0
 11
6278.084791275919
 21
8433.799787121849
 31
0.0
  0
LINE
  5
26F5
330
1A
100
AcDbEntity
  8
点線
 48
6.0
100
AcDbLine
 10
6278.084791275919
 20
9133.099787121851
 30
0.0
 11
6278.084791275919
 21
9068.099787121852
 31
0.0
  0
LINE
  5
26F6
330
1A
100
AcDbEntity
  8
点線
 48
6.0
100
AcDbLine
 10
6278.084791275919
 20
9767.399787121853
 30
0.0
 11
6278.084791275919
 21
9702.39978712185
 31
0.0
  0
LINE
  5
26F7
330
1A
100
AcDbEntity
  8
点線
 48
6.0
100
AcDbLine
 10
6278.084791275919
 20
10401.69978712185
 30
0.0
 11
6278.084791275916
 21
10336.69978712185
 31
0.0
  0
LINE
  5
26F8
330
1A
100
AcDbEntity
  8
点線
 48
6.0
100
AcDbLine
 10
3078.08479127592
 20
6075.699787121852
 30
0.0
 11
3038.084791275919
 21
6075.699787121852
 31
0.0
  0
LINE
  5
26F9
330
1A
100
AcDbEntity
  8
点線
 48
6.0
100
AcDbLine
 10
3078.08479127592
 20
6709.999787121851
 30
0.0
 11
3038.08479127592
 21
6709.999787121851
 31
0.0
  0
LINE
  5
26FA
330
1A
100
AcDbEntity
  8
点線
 48
6.0
100
AcDbLine
 10
3078.08479127592
 20
7344.299787121852
 30
0.0
 11
3038.08479127592
 21
7344.299787121852
 31
0.0
  0
LINE
  5
26FB
330
1A
100
AcDbEntity
  8
点線
 48
6.0
100
AcDbLine
 10
3078.08479127592
 20
7978.599787121857
 30
0.0
 11
3038.08479127592
 21
7978.599787121857
 31
0.0
  0
LINE
  5
26FC
330
1A
100
AcDbEntity
  8
点線
 48
6.0
100
AcDbLine
 10
3078.08479127592
 20
8453.79978712185
 30
0.0
 11
3038.08479127592
 21
8453.79978712185
 31
0.0
  0
LINE
  5
26FD
330
1A
100
AcDbEntity
  8
点線
 48
6.0
100
AcDbLine
 10
3078.08479127592
 20
9088.099787121851
 30
0.0
 11
3038.08479127592
 21
9088.099787121851
 31
0.0
  0
LINE
  5
26FE
330
1A
100
AcDbEntity
  8
点線
 48
6.0
100
AcDbLine
 10
3078.08479127592
 20
9722.399787121851
 30
0.0
 11
3038.08479127592
 21
9722.399787121851
 31
0.0
  0
LINE
  5
26FF
330
1A
100
AcDbEntity
  8
点線
 48
6.0
100
AcDbLine
 10
3078.084791275922
 20
10356.69978712185
 30
0.0
 11
3038.08479127592
 21
10356.69978712185
 31
0.0
  0
LINE
  5
2700
330
1A
100
AcDbEntity
  8
点線
 48
6.0
100
AcDbLine
 10
3038.084791275919
 20
6030.699787121852
 30
0.0
 11
3038.084791275919
 21
6095.699787121851
 31
0.0
  0
LINE
  5
2701
330
1A
100
AcDbEntity
  8
点線
 48
6.0
100
AcDbLine
 10
3078.08479127592
 20
6030.699787121852
 30
0.0
 11
3038.084791275919
 21
6030.699787121852
 31
0.0
  0
LINE
  5
2702
330
1A
100
AcDbEntity
  8
点線
 48
6.0
100
AcDbLine
 10
3078.08479127592
 20
6095.699787121851
 30
0.0
 11
3038.084791275919
 21
6095.699787121851
 31
0.0
  0
LINE
  5
2703
330
1A
100
AcDbEntity
  8
点線
 48
6.0
100
AcDbLine
 10
3038.08479127592
 20
6664.999787121852
 30
0.0
 11
3038.08479127592
 21
6729.999787121854
 31
0.0
  0
LINE
  5
2704
330
1A
100
AcDbEntity
  8
点線
 48
6.0
100
AcDbLine
 10
3078.08479127592
 20
6664.999787121852
 30
0.0
 11
3038.08479127592
 21
6664.999787121852
 31
0.0
  0
LINE
  5
2705
330
1A
100
AcDbEntity
  8
点線
 48
6.0
100
AcDbLine
 10
3078.08479127592
 20
6729.999787121851
 30
0.0
 11
3038.08479127592
 21
6729.999787121854
 31
0.0
  0
LINE
  5
2706
330
1A
100
AcDbEntity
  8
点線
 48
6.0
100
AcDbLine
 10
3038.08479127592
 20
7299.29978712185
 30
0.0
 11
3038.08479127592
 21
7364.299787121851
 31
0.0
  0
LINE
  5
2707
330
1A
100
AcDbEntity
  8
点線
 48
6.0
100
AcDbLine
 10
3078.08479127592
 20
7299.29978712185
 30
0.0
 11
3038.08479127592
 21
7299.29978712185
 31
0.0
  0
LINE
  5
2708
330
1A
100
AcDbEntity
  8
点線
 48
6.0
100
AcDbLine
 10
3078.08479127592
 20
7364.299787121851
 30
0.0
 11
3038.08479127592
 21
7364.299787121851
 31
0.0
  0
LINE
  5
2709
330
1A
100
AcDbEntity
  8
点線
 48
6.0
100
AcDbLine
 10
3038.08479127592
 20
7933.599787121856
 30
0.0
 11
3038.08479127592
 21
7998.599787121853
 31
0.0
  0
LINE
  5
270A
330
1A
100
AcDbEntity
  8
点線
 48
6.0
100
AcDbLine
 10
3078.08479127592
 20
7933.599787121856
 30
0.0
 11
3038.08479127592
 21
7933.599787121856
 31
0.0
  0
LINE
  5
270B
330
1A
100
AcDbEntity
  8
点線
 48
6.0
100
AcDbLine
 10
3078.08479127592
 20
7998.599787121853
 30
0.0
 11
3038.08479127592
 21
7998.599787121853
 31
0.0
  0
LINE
  5
270C
330
1A
100
AcDbEntity
  8
点線
 48
6.0
100
AcDbLine
 10
3038.08479127592
 20
8433.799787121845
 30
0.0
 11
3038.08479127592
 21
8498.799787121845
 31
0.0
  0
LINE
  5
270D
330
1A
100
AcDbEntity
  8
点線
 48
6.0
100
AcDbLine
 10
3078.08479127592
 20
8433.799787121845
 30
0.0
 11
3038.08479127592
 21
8433.799787121845
 31
0.0
  0
LINE
  5
270E
330
1A
100
AcDbEntity
  8
点線
 48
6.0
100
AcDbLine
 10
3078.08479127592
 20
8498.799787121845
 30
0.0
 11
3038.08479127592
 21
8498.799787121845
 31
0.0
  0
LINE
  5
270F
330
1A
100
AcDbEntity
  8
点線
 48
6.0
100
AcDbLine
 10
3038.08479127592
 20
9068.099787121846
 30
0.0
 11
3038.08479127592
 21
9133.099787121851
 31
0.0
  0
LINE
  5
2710
330
1A
100
AcDbEntity
  8
点線
 48
6.0
100
AcDbLine
 10
3078.08479127592
 20
9068.099787121846
 30
0.0
 11
3038.08479127592
 21
9068.099787121846
 31
0.0
  0
LINE
  5
2711
330
1A
100
AcDbEntity
  8
点線
 48
6.0
100
AcDbLine
 10
3078.08479127592
 20
9133.099787121851
 30
0.0
 11
3038.08479127592
 21
9133.099787121851
 31
0.0
  0
LINE
  5
2712
330
1A
100
AcDbEntity
  8
点線
 48
6.0
100
AcDbLine
 10
3038.08479127592
 20
9702.39978712185
 30
0.0
 11
3038.08479127592
 21
9767.399787121849
 31
0.0
  0
LINE
  5
2713
330
1A
100
AcDbEntity
  8
点線
 48
6.0
100
AcDbLine
 10
3078.08479127592
 20
9702.39978712185
 30
0.0
 11
3038.08479127592
 21
9702.39978712185
 31
0.0
  0
LINE
  5
2714
330
1A
100
AcDbEntity
  8
点線
 48
6.0
100
AcDbLine
 10
3078.08479127592
 20
9767.399787121849
 30
0.0
 11
3038.08479127592
 21
9767.399787121849
 31
0.0
  0
LINE
  5
2715
330
1A
100
AcDbEntity
  8
点線
 48
6.0
100
AcDbLine
 10
3038.08479127592
 20
10336.69978712185
 30
0.0
 11
3038.08479127592
 21
10401.69978712185
 31
0.0
  0
LINE
  5
2716
330
1A
100
AcDbEntity
  8
点線
 48
6.0
100
AcDbLine
 10
3078.084791275922
 20
10336.69978712185
 30
0.0
 11
3038.08479127592
 21
10336.69978712185
 31
0.0
  0
LINE
  5
2717
330
1A
100
AcDbEntity
  8
点線
 48
6.0
100
AcDbLine
 10
3078.084791275922
 20
10401.69978712185
 30
0.0
 11
3038.08479127592
 21
10401.69978712185
 31
0.0
  0
LINE
  5
2718
330
1A
100
AcDbEntity
  8
点線
 48
6.0
100
AcDbLine
 10
3288.084791275926
 20
6095.699787121851
 30
0.0
 11
3288.084791275926
 21
6030.699787121852
 31
0.0
  0
LINE
  5
2719
330
1A
100
AcDbEntity
  8
点線
 48
6.0
100
AcDbLine
 10
3228.084791275924
 20
6095.699787121851
 30
0.0
 11
3228.084791275924
 21
6030.699787121852
 31
0.0
  0
LINE
  5
271A
330
1A
100
AcDbEntity
  8
点線
 48
6.0
100
AcDbLine
 10
3288.08479127592
 20
6729.999787121851
 30
0.0
 11
3288.08479127592
 21
6664.999787121852
 31
0.0
  0
LINE
  5
271B
330
1A
100
AcDbEntity
  8
点線
 48
6.0
100
AcDbLine
 10
3228.08479127592
 20
6729.999787121851
 30
0.0
 11
3228.08479127592
 21
6664.999787121852
 31
0.0
  0
LINE
  5
271C
330
1A
100
AcDbEntity
  8
点線
 48
6.0
100
AcDbLine
 10
3288.08479127592
 20
7364.299787121851
 30
0.0
 11
3288.084791275918
 21
7299.299787121852
 31
0.0
  0
LINE
  5
271D
330
1A
100
AcDbEntity
  8
点線
 48
6.0
100
AcDbLine
 10
3228.08479127592
 20
7364.299787121851
 30
0.0
 11
3228.08479127592
 21
7299.29978712185
 31
0.0
  0
LINE
  5
271E
330
1A
100
AcDbEntity
  8
点線
 48
6.0
100
AcDbLine
 10
3288.08479127592
 20
7998.599787121853
 30
0.0
 11
3288.08479127592
 21
7933.599787121856
 31
0.0
  0
LINE
  5
271F
330
1A
100
AcDbEntity
  8
点線
 48
6.0
100
AcDbLine
 10
3228.084791275918
 20
7998.599787121853
 30
0.0
 11
3228.084791275918
 21
7933.599787121856
 31
0.0
  0
LINE
  5
2720
330
1A
100
AcDbEntity
  8
点線
 48
6.0
100
AcDbLine
 10
3288.08479127592
 20
8498.799787121848
 30
0.0
 11
3288.084791275923
 21
8433.799787121845
 31
0.0
  0
LINE
  5
2721
330
1A
100
AcDbEntity
  8
点線
 48
6.0
100
AcDbLine
 10
3228.08479127592
 20
8498.799787121845
 30
0.0
 11
3228.084791275922
 21
8433.799787121845
 31
0.0
  0
LINE
  5
2722
330
1A
100
AcDbEntity
  8
点線
 48
6.0
100
AcDbLine
 10
3288.08479127592
 20
9133.099787121851
 30
0.0
 11
3288.08479127592
 21
9068.099787121846
 31
0.0
  0
LINE
  5
2723
330
1A
100
AcDbEntity
  8
点線
 48
6.0
100
AcDbLine
 10
3228.084791275918
 20
9133.099787121851
 30
0.0
 11
3228.08479127592
 21
9068.099787121846
 31
0.0
  0
LINE
  5
2724
330
1A
100
AcDbEntity
  8
点線
 48
6.0
100
AcDbLine
 10
3288.08479127592
 20
9767.399787121849
 30
0.0
 11
3288.08479127592
 21
9702.399787121851
 31
0.0
  0
LINE
  5
2725
330
1A
100
AcDbEntity
  8
点線
 48
6.0
100
AcDbLine
 10
3228.08479127592
 20
9767.399787121849
 30
0.0
 11
3228.08479127592
 21
9702.39978712185
 31
0.0
  0
LINE
  5
2726
330
1A
100
AcDbEntity
  8
点線
 48
6.0
100
AcDbLine
 10
3288.08479127592
 20
10401.69978712185
 30
0.0
 11
3288.08479127592
 21
10336.69978712185
 31
0.0
  0
LINE
  5
2727
330
1A
100
AcDbEntity
  8
点線
 48
6.0
100
AcDbLine
 10
3228.08479127592
 20
10401.69978712185
 30
0.0
 11
3228.08479127592
 21
10336.69978712185
 31
0.0
  0
LINE
  5
2728
330
1A
100
AcDbEntity
  8
点線
 48
10.0
100
AcDbLine
 10
5958.084791275918
 20
1994.894328662092
 30
0.0
 11
6028.08479127592
 21
1994.894328662092
 31
0.0
  0
LINE
  5
2729
330
1A
100
AcDbEntity
  8
点線
 48
10.0
100
AcDbLine
 10
6088.08479127592
 20
1994.894328662096
 30
0.0
 11
6158.08479127592
 21
1994.894328662096
 31
0.0
  0
LINE
  5
272A
330
1A
100
AcDbEntity
  8
点線
 48
10.0
100
AcDbLine
 10
6088.08479127592
 20
2004.894328662096
 30
0.0
 11
6158.08479127592
 21
2004.894328662096
 31
0.0
  0
LINE
  5
272B
330
1A
100
AcDbEntity
  8
点線
 48
10.0
100
AcDbLine
 10
5958.084791275918
 20
2004.894328662093
 30
0.0
 11
6028.08479127592
 21
2004.894328662093
 31
0.0
  0
LINE
  5
272C
330
1A
100
AcDbEntity
  8
点線
 48
10.0
100
AcDbLine
 10
6158.08479127592
 20
2004.894328662096
 30
0.0
 11
6158.08479127592
 21
1994.894328662096
 31
0.0
  0
LINE
  5
272D
330
1A
100
AcDbEntity
  8
点線
 48
10.0
100
AcDbLine
 10
5958.084791275918
 20
2004.894328662093
 30
0.0
 11
5958.084791275918
 21
1994.894328662092
 31
0.0
  0
LINE
  5
272E
330
1A
100
AcDbEntity
  8
点線
 48
50.0
100
AcDbLine
 10
6088.08479127592
 20
1979.894328662096
 30
0.0
 11
6028.08479127592
 21
1979.894328662096
 31
0.0
  0
LINE
  5
272F
330
1A
100
AcDbEntity
  8
点線
 48
50.0
100
AcDbLine
 10
3288.08479127592
 20
1979.894328662096
 30
0.0
 11
3228.08479127592
 21
1979.894328662096
 31
0.0
  0
LINE
  5
2730
330
1A
100
AcDbEntity
  8
点線
 48
10.0
100
AcDbLine
 10
3158.084791275918
 20
2004.894328662093
 30
0.0
 11
3158.084791275918
 21
1994.894328662092
 31
0.0
  0
LINE
  5
2731
330
1A
100
AcDbEntity
  8
点線
 48
10.0
100
AcDbLine
 10
3358.084791275921
 20
2004.894328662096
 30
0.0
 11
3358.084791275921
 21
1994.894328662096
 31
0.0
  0
LINE
  5
2732
330
1A
100
AcDbEntity
  8
点線
 48
10.0
100
AcDbLine
 10
3158.084791275918
 20
2004.894328662093
 30
0.0
 11
3228.08479127592
 21
2004.894328662093
 31
0.0
  0
LINE
  5
2733
330
1A
100
AcDbEntity
  8
点線
 48
10.0
100
AcDbLine
 10
3288.08479127592
 20
2004.894328662096
 30
0.0
 11
3358.084791275921
 21
2004.894328662096
 31
0.0
  0
LINE
  5
2734
330
1A
100
AcDbEntity
  8
点線
 48
10.0
100
AcDbLine
 10
3288.08479127592
 20
1994.894328662096
 30
0.0
 11
3358.084791275921
 21
1994.894328662096
 31
0.0
  0
LINE
  5
2735
330
1A
100
AcDbEntity
  8
点線
 48
10.0
100
AcDbLine
 10
3158.084791275918
 20
1994.894328662092
 30
0.0
 11
3228.08479127592
 21
1994.894328662092
 31
0.0
  0
TEXT
  5
2736
330
1A
100
AcDbEntity
  8
部品1
 48
50.0
100
AcDbText
 10
2308.247349989355
 20
2289.285629092425
 30
0.0
 40
100.0
  1
▽G.L
  7
STYLE2
100
AcDbText
  0
TEXT
  5
2737
330
1A
100
AcDbEntity
  8
文字
 62
     7
 48
50.0
100
AcDbText
 10
14493.33312801876
 20
9256.520124098763
 30
0.0
 40
108.152
  1
F12            2.3
  7
STYLE1
100
AcDbText
  0
TEXT
  5
2738
330
1A
100
AcDbEntity
  8
文字
 62
     7
 48
50.0
100
AcDbText
 10
14471.88658856491
 20
9440.378524098766
 30
0.0
 40
108.152
  1
Y10            0.7
  7
STYLE1
100
AcDbText
  0
TEXT
  5
2739
330
1A
100
AcDbEntity
  8
文字
 62
     7
 48
50.0
100
AcDbText
 10
14471.88658856491
 20
9624.236924098765
 30
0.0
 40
108.152
  1
Y10            0.7
  7
STYLE1
100
AcDbText
  0
TEXT
  5
273A
330
1A
100
AcDbEntity
  8
文字
 62
     7
 48
50.0
100
AcDbText
 10
14471.88658856491
 20
9808.095324098765
 30
0.0
 40
108.152
  1
Y10            0.5
  7
STYLE1
100
AcDbText
  0
TEXT
  5
273B
330
1A
100
AcDbEntity
  8
文字
 62
     7
 48
50.0
100
AcDbText
 10
14471.88658856491
 20
9991.953724098763
 30
0.0
 40
108.152
  1
Y10            0.6
  7
STYLE1
100
AcDbText
  0
TEXT
  5
273C
330
1A
100
AcDbEntity
  8
文字
 62
     7
 48
50.0
100
AcDbText
 10
14493.33312801875
 20
10359.67052409876
 30
0.0
 40
108.152
  1
PZ            2.3
  7
STYLE1
100
AcDbText
  0
TEXT
  5
273D
330
1A
100
AcDbEntity
  8
文字
 62
     7
 48
50.0
100
AcDbText
 10
12973.42535402033
 20
10175.81212409876
 30
0.0
 40
108.152
  1
母屋
  7
STYLE1
100
AcDbText
  0
TEXT
  5
273E
330
1A
100
AcDbEntity
  8
文字
 62
     7
 48
50.0
100
AcDbText
 10
14493.33312801877
 20
10175.81212409876
 30
0.0
 40
108.152
  1
F12            1.6
  7
STYLE1
100
AcDbText
  0
LINE
  5
273F
330
1A
100
AcDbEntity
  8
部品1
100
AcDbLine
 10
12482.61083261876
 20
10878.35264965059
 30
0.0
 11
12482.61083261876
 21
8304.335049650598
 31
0.0
  0
TEXT
  5
2740
330
1A
100
AcDbEntity
  8
文字
 62
     7
 48
50.0
100
AcDbText
 10
14493.33312801877
 20
8888.803324098764
 30
0.0
 40
108.152
  1
硬質塩化ビニール
  7
STYLE1
100
AcDbText
  0
TEXT
  5
2741
330
1A
100
AcDbEntity
  8
文字
 62
     7
 48
50.0
100
AcDbText
 10
14493.33312801876
 20
10543.52892409876
 30
0.0
 40
108.152
  1
PZ            2.3
  7
STYLE1
100
AcDbText
  0
LINE
  5
2742
330
1A
100
AcDbEntity
  8
部品1
100
AcDbLine
 10
15882.61083261876
 20
8304.335049650594
 30
0.0
 11
12482.61083261876
 21
8304.335049650598
 31
0.0
  0
LINE
  5
2743
330
1A
100
AcDbEntity
  8
部品1
100
AcDbLine
 10
15882.61083261876
 20
9039.768649650595
 30
0.0
 11
12482.61083261876
 21
9039.768649650595
 31
0.0
  0
LINE
  5
2744
330
1A
100
AcDbEntity
  8
部品1
100
AcDbLine
 10
15882.61083261876
 20
9591.343849650595
 30
0.0
 11
12482.61083261875
 21
9591.343849650595
 31
0.0
  0
LINE
  5
2745
330
1A
100
AcDbEntity
  8
部品1
100
AcDbLine
 10
15882.61083261876
 20
8672.051849650594
 30
0.0
 11
12482.61083261876
 21
8672.051849650594
 31
0.0
  0
LINE
  5
2746
330
1A
100
AcDbEntity
  8
部品1
100
AcDbLine
 10
15882.61083261876
 20
8488.193449650594
 30
0.0
 11
12482.61083261876
 21
8488.193449650596
 31
0.0
  0
LINE
  5
2747
330
1A
100
AcDbEntity
  8
部品1
100
AcDbLine
 10
15882.61083261876
 20
8855.910249650591
 30
0.0
 11
12482.61083261875
 21
8855.910249650591
 31
0.0
  0
TEXT
  5
2748
330
1A
100
AcDbEntity
  8
文字
 62
     7
 48
50.0
100
AcDbText
 10
12636.0691265262
 20
9624.236924098763
 30
0.0
 40
108.152
  1
6
  7
STYLE1
100
AcDbText
  0
TEXT
  5
2749
330
1A
100
AcDbEntity
  8
文字
 62
     7
 48
50.0
100
AcDbText
 10
12636.06912652619
 20
9440.378524098763
 30
0.0
 40
108.152
  1
7
  7
STYLE1
100
AcDbText
  0
TEXT
  5
274A
330
1A
100
AcDbEntity
  8
文字
 62
     7
 48
50.0
100
AcDbText
 10
12636.06912652619
 20
9072.661724098763
 30
0.0
 40
108.152
  1
9
  7
STYLE1
100
AcDbText
  0
TEXT
  5
274B
330
1A
100
AcDbEntity
  8
文字
 62
     7
 48
50.0
100
AcDbText
 10
12636.06912652619
 20
9256.520124098763
 30
0.0
 40
108.152
  1
8
  7
STYLE1
100
AcDbText
  0
TEXT
  5
274C
330
1A
100
AcDbEntity
  8
文字
 62
     7
 48
50.0
100
AcDbText
 10
12611.82918230992
 20
8888.803324098761
 30
0.0
 40
108.152
  1
10
  7
STYLE1
100
AcDbText
  0
TEXT
  5
274D
330
1A
100
AcDbEntity
  8
文字
 62
     7
 48
50.0
100
AcDbText
 10
12636.0691265262
 20
9808.09532409876
 30
0.0
 40
108.152
  1
5
  7
STYLE1
100
AcDbText
  0
TEXT
  5
274E
330
1A
100
AcDbEntity
  8
文字
 62
     7
 48
50.0
100
AcDbText
 10
12973.42535402033
 20
9440.378524098766
 30
0.0
 40
108.152
  1
鼻隠シ
  7
STYLE1
100
AcDbText
  0
TEXT
  5
274F
330
1A
100
AcDbEntity
  8
文字
 62
     7
 48
50.0
100
AcDbText
 10
12973.42535402033
 20
10359.67052409876
 30
0.0
 40
108.152
  1
梁
  7
STYLE1
100
AcDbText
  0
TEXT
  5
2750
330
1A
100
AcDbEntity
  8
文字
 62
     7
 48
50.0
100
AcDbText
 10
12973.42535402032
 20
10543.52892409876
 30
0.0
 40
108.152
  1
柱
  7
STYLE1
100
AcDbText
  0
TEXT
  5
2751
330
1A
100
AcDbEntity
  8
文字
 62
     7
 48
50.0
100
AcDbText
 10
14317.21634702931
 20
10727.38732409876
 30
0.0
 40
108.152
  1
材料（材質）　　単位mm
  7
STYLE1
100
AcDbText
  0
TEXT
  5
2752
330
1A
100
AcDbEntity
  8
文字
 62
     7
 48
50.0
100
AcDbText
 10
13160.25863994906
 20
10727.38732409876
 30
0.0
 40
108.152
  1
部　　品　　名
  7
STYLE1
100
AcDbText
  0
TEXT
  5
2753
330
1A
100
AcDbEntity
  8
文字
 62
     7
 48
50.0
100
AcDbText
 10
12636.0691265262
 20
10175.81212409876
 30
0.0
 40
108.152
  1
3
  7
STYLE1
100
AcDbText
  0
TEXT
  5
2754
330
1A
100
AcDbEntity
  8
文字
 62
     7
 48
50.0
100
AcDbText
 10
12636.0691265262
 20
9991.953724098763
 30
0.0
 40
108.152
  1
4
  7
STYLE1
100
AcDbText
  0
TEXT
  5
2755
330
1A
100
AcDbEntity
  8
文字
 62
     7
 48
50.0
100
AcDbText
 10
12636.0691265262
 20
10359.67052409876
 30
0.0
 40
108.152
  1
2
  7
STYLE1
100
AcDbText
  0
TEXT
  5
2756
330
1A
100
AcDbEntity
  8
文字
 62
     7
 48
50.0
100
AcDbText
 10
12636.0691265262
 20
10543.52892409876
 30
0.0
 40
108.152
  1
1
  7
STYLE1
100
AcDbText
  0
TEXT
  5
2757
330
1A
100
AcDbEntity
  8
文字
 62
     7
 48
50.0
100
AcDbText
 10
12556.29065572683
 20
10727.38732409876
 30
0.0
 40
108.152
  1
品番
  7
STYLE1
100
AcDbText
  0
LINE
  5
2758
330
1A
100
AcDbEntity
  8
部品1
100
AcDbLine
 10
15882.61083261876
 20
10142.91904965059
 30
0.0
 11
12482.61083261876
 21
10142.91904965059
 31
0.0
  0
LINE
  5
2759
330
1A
100
AcDbEntity
  8
部品1
100
AcDbLine
 10
15882.61083261876
 20
9775.202249650597
 30
0.0
 11
12482.61083261876
 21
9775.202249650597
 31
0.0
  0
LINE
  5
275A
330
1A
100
AcDbEntity
  8
部品1
100
AcDbLine
 10
15882.61083261876
 20
9959.060649650595
 30
0.0
 11
12482.61083261876
 21
9959.060649650595
 31
0.0
  0
LINE
  5
275B
330
1A
100
AcDbEntity
  8
部品1
100
AcDbLine
 10
15882.61083261876
 20
10510.63584965059
 30
0.0
 11
12482.61083261875
 21
10510.63584965059
 31
0.0
  0
LINE
  5
275C
330
1A
100
AcDbEntity
  8
部品1
100
AcDbLine
 10
15882.61083261876
 20
10326.77744965059
 30
0.0
 11
12482.61083261875
 21
10326.77744965059
 31
0.0
  0
LINE
  5
275D
330
1A
100
AcDbEntity
  8
部品1
100
AcDbLine
 10
15882.61083261876
 20
10694.49424965059
 30
0.0
 11
12482.61083261875
 21
10694.49424965059
 31
0.0
  0
LINE
  5
275E
330
1A
100
AcDbEntity
  8
部品1
100
AcDbLine
 10
12872.93247299232
 20
10878.35264965059
 30
0.0
 11
12872.93247299234
 21
8855.910249650591
 31
0.0
  0
LINE
  5
275F
330
1A
100
AcDbEntity
  8
部品1
100
AcDbLine
 10
14236.53739261876
 20
10878.35264965059
 30
0.0
 11
14236.53739261876
 21
8855.910249650591
 31
0.0
  0
LINE
  5
2760
330
1A
100
AcDbEntity
  8
部品1
100
AcDbLine
 10
15882.61083261876
 20
8304.335049650594
 30
0.0
 11
15882.61083261876
 21
10878.35264965059
 31
0.0
  0
LINE
  5
2761
330
1A
100
AcDbEntity
  8
部品1
100
AcDbLine
 10
15882.61083261876
 20
10878.35264965059
 30
0.0
 11
12482.61083261875
 21
10878.35264965059
 31
0.0
  0
LINE
  5
2762
330
1A
100
AcDbEntity
  8
部品1
100
AcDbLine
 10
15882.61083261876
 20
9223.627049650596
 30
0.0
 11
12482.61083261876
 21
9223.627049650598
 31
0.0
  0
TEXT
  5
2763
330
1A
100
AcDbEntity
  8
文字
 62
     7
 48
50.0
100
AcDbText
 10
12973.42535402033
 20
9991.953724098763
 30
0.0
 40
108.152
  1
腰パネル
  7
STYLE1
100
AcDbText
  0
TEXT
  5
2764
330
1A
100
AcDbEntity
  8
文字
 62
     7
 48
50.0
100
AcDbText
 10
12973.42535402033
 20
9808.095324098765
 30
0.0
 40
108.152
  1
屋根パネル
  7
STYLE1
100
AcDbText
  0
TEXT
  5
2765
330
1A
100
AcDbEntity
  8
文字
 62
     7
 48
50.0
100
AcDbText
 10
12973.42535402033
 20
9256.520124098763
 30
0.0
 40
108.152
  1
プレート
  7
STYLE1
100
AcDbText
  0
TEXT
  5
2766
330
1A
100
AcDbEntity
  8
文字
 62
     7
 48
50.0
100
AcDbText
 10
12973.42535402033
 20
9072.661724098763
 30
0.0
 40
108.152
  1
車止メ棒
  7
STYLE1
100
AcDbText
  0
TEXT
  5
2767
330
1A
100
AcDbEntity
  8
文字
 62
     7
 48
50.0
100
AcDbText
 10
12973.42535402033
 20
8888.803324098768
 30
0.0
 40
108.152
  1
雨とい
  7
STYLE1
100
AcDbText
  0
TEXT
  5
2768
330
1A
100
AcDbEntity
  8
文字
 62
     7
 48
50.0
100
AcDbText
 10
12591.33799372426
 20
8521.086524098762
 30
0.0
 40
108.152
  1
F12→溶融亜鉛めっき鋼板(JIS G 3302)
  7
STYLE1
100
AcDbText
  0
TEXT
  5
2769
330
1A
100
AcDbEntity
  8
文字
 62
     7
 48
50.0
100
AcDbText
 10
12591.33799372425
 20
8337.228124098759
 30
0.0
 40
108.152
  1
Y10→溶融亜鉛-5％アルミニウム合金めっき鋼板(JIS G 3317)
 41
0.9
  7
STYLE1
100
AcDbText
  0
TEXT
  5
276A
330
1A
100
AcDbEntity
  8
文字
 62
     7
 48
50.0
100
AcDbText
 10
12591.33799372447
 20
8704.944924098761
 30
0.0
 40
108.152
  1
PZ→一般構造用角形鋼管(JIS G 3466)
 41
0.9
  7
STYLE1
100
AcDbText
  0
LINE
  5
276B
330
1A
100
AcDbEntity
  8
部品1
100
AcDbLine
 10
15882.61083261876
 20
9407.485449650597
 30
0.0
 11
12482.61083261875
 21
9407.485449650597
 31
0.0
  0
TEXT
  5
276C
330
1A
100
AcDbEntity
  8
文字
 62
     7
 48
50.0
100
AcDbText
 10
12973.42535402033
 20
9624.236924098765
 30
0.0
 40
108.152
  1
妻板
  7
STYLE1
100
AcDbText
  0
TEXT
  5
276D
330
1A
100
AcDbEntity
  8
文字
 62
     7
 48
50.0
100
AcDbText
 10
14493.33312801878
 20
9072.661724098763
 30
0.0
 40
108.152
  1
F12            1.2
  7
STYLE1
100
AcDbText
  0
LINE
  5
276E
330
1A
100
AcDbEntity
  8
寸法
100
AcDbLine
 10
6923.537714463041
 20
5816.199787121852
 30
0.0
 11
6923.537714463041
 21
5616.199787121852
 31
0.0
  0
LINE
  5
276F
330
1A
100
AcDbEntity
  8
寸法
100
AcDbLine
 10
6923.537714463041
 20
10616.19978712185
 30
0.0
 11
6923.537714463041
 21
10816.19978712185
 31
0.0
  0
TEXT
  5
2770
330
1A
100
AcDbEntity
  8
仕様書枠
 62
     7
 48
50.0
100
AcDbText
 10
14507.17944936723
 20
1295.557706291227
 30
0.0
 40
100.0
  1
NO.02     <縮尺> S=1/40
  7
STYLE2
100
AcDbText
  0
INSERT
  5
2771
330
1A
100
AcDbEntity
  8
Ｇ．Ｌ
100
AcDbBlockReference
  2
A$C384156AA
 10
12966.32752866962
 20
4239.781175868287
 30
0.0
  0
LINE
  5
2772
330
1A
100
AcDbEntity
  8
仕様書枠
 48
50.0
100
AcDbLine
 10
16296.0
 20
1464.0
 30
0.0
 11
16296.0
 21
264.0
 31
0.0
  0
LINE
  5
2773
330
1A
100
AcDbEntity
  8
仕様書枠
  6
Continuous
 48
50.0
100
AcDbLine
 10
14240.0
 20
1464.0
 30
0.0
 11
14240.0
 21
1064.0
 31
0.0
  0
TEXT
  5
2774
330
1A
100
AcDbEntity
  8
文字
 62
     7
 48
50.0
100
AcDbText
 10
14586.99162497293
 20
747.8967129911434
 30
0.0
 40
160.0
  1
BF-２８V
  7
MSGOTHIC
100
AcDbText
  0
TEXT
  5
2775
330
1A
100
AcDbEntity
  8
文字
 62
     7
 48
50.0
100
AcDbText
 10
14840.42318972916
 20
1102.252727072919
 30
0.0
 40
100.0
  1
～一般型～
  7
STYLE2
100
AcDbText
  0
LINE
  5
2776
330
1A
100
AcDbEntity
  8
仕様書枠
  6
Continuous
 48
50.0
100
AcDbLine
 10
13096.0
 20
1464.0
 30
0.0
 11
13096.0
 21
264.0
 31
0.0
  0
LINE
  5
2777
330
1A
100
AcDbEntity
  8
仕様書枠
 48
50.0
100
AcDbLine
 10
13096.0
 20
1464.0
 30
0.0
 11
16296.0
 21
1464.0
 31
0.0
  0
LINE
  5
2778
330
1A
100
AcDbEntity
  8
文字
 62
     7
 48
50.0
100
AcDbLine
 10
13176.0
 20
664.0
 30
0.0
 11
16216.0
 21
664.0
 31
0.0
  0
TEXT
  5
2779
330
1A
100
AcDbEntity
  8
文字
 62
     7
 48
50.0
100
AcDbText
 10
13151.7790565769
 20
1159.090607429942
 30
0.0
 40
200.0
  1
外 形 図
  7
STYLE2
100
AcDbText
  0
TEXT
  5
277A
330
1A
100
AcDbEntity
  8
文字
 62
     7
 48
50.0
100
AcDbText
 10
13190.23669998441
 20
741.2740661031238
 30
0.0
 40
160.0
  1
機種名
  7
STYLE2
100
AcDbText
  0
TEXT
  5
277B
330
1A
100
AcDbEntity
  8
文字
 62
     7
 48
50.0
100
AcDbText
 10
13198.2053442172
 20
492.5435242569001
 30
0.0
 40
100.0
  1
○間口奥行寸法は柱芯寸法です。    
  7
STYLE2
100
AcDbText
  0
LINE
  5
277C
330
1A
100
AcDbEntity
  8
仕様書枠
 48
50.0
100
AcDbLine
 10
13096.0
 20
1064.0
 30
0.0
 11
14240.0
 21
1064.0
 31
0.0
  0
LINE
  5
277D
330
1A
100
AcDbEntity
  8
仕様書枠
 48
50.0
100
AcDbLine
 10
128.8000000000011
 20
264.0
 30
0.0
 11
16296.0
 21
264.0
 31
0.0
  0
LINE
  5
277E
330
1A
100
AcDbEntity
  8
部品1
100
AcDbLine
 10
4016.08479127592
 20
10546.19978712185
 30
0.0
 11
4016.084791275917
 21
9965.469335027307
 31
0.0
  0
LINE
  5
277F
330
1A
100
AcDbEntity
  8
部品1
100
AcDbLine
 10
3971.08479127592
 20
10546.19978712185
 30
0.0
 11
3971.08479127592
 21
10114.62116334562
 31
0.0
  0
LINE
  5
2780
330
1A
100
AcDbEntity
  8
部品1
100
AcDbLine
 10
3943.08479127592
 20
10546.19978712185
 30
0.0
 11
3943.08479127592
 21
10207.42674541035
 31
0.0
  0
LINE
  5
2781
330
1A
100
AcDbEntity
  8
部品1
100
AcDbLine
 10
3898.08479127592
 20
10546.19978712185
 30
0.0
 11
3898.08479127592
 21
10356.57857372865
 31
0.0
  0
LINE
  5
2782
330
1A
100
AcDbEntity
  8
部品1
100
AcDbLine
 10
4516.084791275921
 20
10546.19978712185
 30
0.0
 11
4516.084791275921
 21
8308.226798157134
 31
0.0
  0
LINE
  5
2783
330
1A
100
AcDbEntity
  8
部品1
100
AcDbLine
 10
4471.084791275922
 20
10546.19978712185
 30
0.0
 11
4471.084791275919
 21
8453.799787121852
 31
0.0
  0
LINE
  5
2784
330
1A
100
AcDbEntity
  8
部品1
100
AcDbLine
 10
4443.084791275921
 20
10546.19978712185
 30
0.0
 11
4443.08479127592
 21
8550.184208540185
 31
0.0
  0
LINE
  5
2785
330
1A
100
AcDbEntity
  8
部品1
100
AcDbLine
 10
4398.08479127592
 20
10546.19978712185
 30
0.0
 11
4398.08479127592
 21
8699.336036858499
 31
0.0
  0
LINE
  5
2786
330
1A
100
AcDbEntity
  8
部品1
100
AcDbLine
 10
4261.084791275919
 20
10546.19978712185
 30
0.0
 11
4261.084791275919
 21
9153.420491960924
 31
0.0
  0
LINE
  5
2787
330
1A
100
AcDbEntity
  8
部品1
100
AcDbLine
 10
4226.584791275918
 20
10546.19978712185
 30
0.0
 11
4226.584791275918
 21
9267.770227004971
 31
0.0
  0
LINE
  5
2788
330
1A
100
AcDbEntity
  8
部品1
100
AcDbLine
 10
4669.584791275918
 20
7799.453339338004
 30
0.0
 11
4669.584791275918
 21
8181.199787121851
 31
0.0
  0
LINE
  5
2789
330
1A
100
AcDbEntity
  8
部品1
100
AcDbLine
 10
4635.084791275918
 20
7913.803074382045
 30
0.0
 11
4635.084791275918
 21
8181.199787121851
 31
0.0
  0
LINE
  5
278A
330
1A
100
AcDbEntity
  8
細線
100
AcDbLine
 10
12544.20240990224
 20
2249.894328662096
 30
0.0
 11
12594.20240990225
 21
2299.894328662096
 31
0.0
  0
LINE
  5
278B
330
1A
100
AcDbEntity
  8
細線
100
AcDbLine
 10
12476.85048899423
 20
2249.894328662096
 30
0.0
 11
12526.85048899423
 21
2299.894328662096
 31
0.0
  0
LINE
  5
278C
330
1A
100
AcDbEntity
  8
細線
100
AcDbLine
 10
12510.52644944824
 20
2249.894328662096
 30
0.0
 11
12560.52644944824
 21
2299.894328662096
 31
0.0
  0
LINE
  5
278D
330
1A
100
AcDbEntity
  8
細線
100
AcDbLine
 10
11399.21975446593
 20
2249.894328662096
 30
0.0
 11
11449.21975446593
 21
2299.894328662096
 31
0.0
  0
LINE
  5
278E
330
1A
100
AcDbEntity
  8
細線
100
AcDbLine
 10
11432.89571491994
 20
2249.894328662096
 30
0.0
 11
11482.89571491994
 21
2299.894328662096
 31
0.0
  0
LINE
  5
278F
330
1A
100
AcDbEntity
  8
細線
100
AcDbLine
 10
11466.57167537395
 20
2249.894328662096
 30
0.0
 11
11516.57167537395
 21
2299.894328662096
 31
0.0
  0
LINE
  5
2790
330
1A
100
AcDbEntity
  8
細線
100
AcDbLine
 10
10388.94094084565
 20
2249.894328662096
 30
0.0
 11
10438.94094084565
 21
2299.894328662096
 31
0.0
  0
LINE
  5
2791
330
1A
100
AcDbEntity
  8
細線
100
AcDbLine
 10
10321.58901993763
 20
2249.894328662096
 30
0.0
 11
10371.58901993763
 21
2299.894328662096
 31
0.0
  0
LINE
  5
2792
330
1A
100
AcDbEntity
  8
細線
100
AcDbLine
 10
10355.26498039164
 20
2249.894328662096
 30
0.0
 11
10405.26498039164
 21
2299.894328662096
 31
0.0
  0
LINE
  5
2793
330
1A
100
AcDbEntity
  8
細線
100
AcDbLine
 10
9277.634245863342
 20
2249.894328662096
 30
0.0
 11
9327.634245863341
 21
2299.894328662096
 31
0.0
  0
LINE
  5
2794
330
1A
100
AcDbEntity
  8
細線
100
AcDbLine
 10
9243.958285409332
 20
2249.894328662096
 30
0.0
 11
9293.958285409333
 21
2299.894328662096
 31
0.0
  0
LINE
  5
2795
330
1A
100
AcDbEntity
  8
細線
100
AcDbLine
 10
9311.310206317351
 20
2249.894328662096
 30
0.0
 11
9361.310206317352
 21
2299.894328662096
 31
0.0
  0
LINE
  5
2796
330
1A
100
AcDbEntity
  8
細線
100
AcDbLine
 10
8166.327550881034
 20
2249.894328662096
 30
0.0
 11
8216.327550881034
 21
2299.894328662096
 31
0.0
  0
LINE
  5
2797
330
1A
100
AcDbEntity
  8
細線
100
AcDbLine
 10
8200.003511335046
 20
2249.894328662096
 30
0.0
 11
8250.003511335044
 21
2299.894328662096
 31
0.0
  0
LINE
  5
2798
330
1A
100
AcDbEntity
  8
細線
100
AcDbLine
 10
8233.679471789054
 20
2249.894328662096
 30
0.0
 11
8283.679471789055
 21
2299.894328662096
 31
0.0
  0
LINE
  5
2799
330
1A
100
AcDbEntity
  8
細線
100
AcDbLine
 10
5663.590384825432
 20
2249.894328662096
 30
0.0
 11
5713.590384825433
 21
2299.894328662096
 31
0.0
  0
LINE
  5
279A
330
1A
100
AcDbEntity
  8
細線
100
AcDbLine
 10
5629.914424371424
 20
2249.894328662096
 30
0.0
 11
5679.914424371424
 21
2299.894328662096
 31
0.0
  0
LINE
  5
279B
330
1A
100
AcDbEntity
  8
細線
100
AcDbLine
 10
5596.238463917415
 20
2249.894328662096
 30
0.0
 11
5646.238463917418
 21
2299.894328662096
 31
0.0
  0
LINE
  5
279C
330
1A
100
AcDbEntity
  8
細線
100
AcDbLine
 10
4518.607729389116
 20
2249.894328662096
 30
0.0
 11
4568.607729389116
 21
2299.894328662096
 31
0.0
  0
LINE
  5
279D
330
1A
100
AcDbEntity
  8
細線
100
AcDbLine
 10
4585.959650297134
 20
2249.894328662096
 30
0.0
 11
4635.959650297134
 21
2299.894328662096
 31
0.0
  0
LINE
  5
279E
330
1A
100
AcDbEntity
  8
細線
100
AcDbLine
 10
4552.283689843124
 20
2249.894328662096
 30
0.0
 11
4602.283689843125
 21
2299.894328662096
 31
0.0
  0
LINE
  5
279F
330
1A
100
AcDbEntity
  8
細線
100
AcDbLine
 10
3508.328915768836
 20
2249.894328662096
 30
0.0
 11
3558.328915768836
 21
2299.894328662096
 31
0.0
  0
LINE
  5
27A0
330
1A
100
AcDbEntity
  8
細線
100
AcDbLine
 10
3474.652955314827
 20
2249.894328662096
 30
0.0
 11
3524.652955314826
 21
2299.894328662096
 31
0.0
  0
LINE
  5
27A1
330
1A
100
AcDbEntity
  8
細線
100
AcDbLine
 10
3440.976994860817
 20
2249.894328662096
 30
0.0
 11
3490.976994860818
 21
2299.894328662096
 31
0.0
  0
ARC
  5
27A2
330
1A
100
AcDbEntity
  8
部品1
100
AcDbCircle
 10
6290.638331381173
 20
4145.265801634865
 30
0.0
 40
13.0
100
AcDbArc
 50
270.0
 51
357.5076681947367
  0
LINE
  5
27A3
330
1A
100
AcDbEntity
  8
部品1
100
AcDbLine
 10
6307.506633194893
 20
4233.854627425362
 30
0.0
 11
6303.62603403697
 21
4144.700487806422
 31
0.0
  0
LINE
  5
27A4
330
1A
100
AcDbEntity
  8
部品1
100
AcDbLine
 10
3008.662949356946
 20
4233.854627425389
 30
0.0
 11
3012.54354851487
 21
4144.700487806423
 31
0.0
  0
ARC
  5
27A5
330
1A
100
AcDbEntity
  8
部品1
100
AcDbCircle
 10
3025.531251170667
 20
4145.265801634865
 30
0.0
 40
13.0
100
AcDbArc
 50
182.4923318052633
 51
270.0
  0
LWPOLYLINE
  5
27A6
330
1A
100
AcDbEntity
  8
部品1
100
AcDbPolyline
 90
        4
 70
     1
 43
0.0
 10
10250.6492307777
 20
1835.787997662202
 10
10250.6492307777
 20
1614.203738621935
 10
10887.66156353746
 20
1614.203738621935
 10
10887.66156353746
 20
1835.787997662202
  0
TEXT
  5
27A7
330
1A
100
AcDbEntity
  8
部品1
100
AcDbText
 10
10293.11671623383
 20
1661.349320935722
 30
0.0
 40
120.0
  1
側面図
  7
MSGOTHIC
100
AcDbText
  0
TEXT
  5
27A8
330
1A
100
AcDbEntity
  8
部品1
100
AcDbText
 10
4396.718737657258
 20
1661.349320935722
 30
0.0
 40
120.0
  1
正面図
  7
MSGOTHIC
100
AcDbText
  0
LWPOLYLINE
  5
27A9
330
1A
100
AcDbEntity
  8
部品1
100
AcDbPolyline
 90
        4
 70
     1
 43
0.0
 10
4339.57862489604
 20
1835.787997662202
 10
4339.57862489604
 20
1614.203738621935
 10
4976.590957655801
 20
1614.203738621935
 10
4976.590957655801
 20
1835.787997662202
  0
TEXT
  5
27AA
330
1A
100
AcDbEntity
  8
部品1
100
AcDbText
 10
4398.166807110047
 20
5481.891425078031
 30
0.0
 40
120.0
  1
平面図
  7
MSGOTHIC
100
AcDbText
  0
LWPOLYLINE
  5
27AB
330
1A
100
AcDbEntity
  8
部品1
100
AcDbPolyline
 90
        4
 70
     1
 43
0.0
 10
4339.57862489604
 20
5656.330101804512
 10
4339.57862489604
 20
5434.745842764243
 10
4976.590957655801
 20
5434.745842764243
 10
4976.590957655801
 20
5656.330101804512
  0
LINE
  5
27AC
330
1A
100
AcDbEntity
  8
部品1
100
AcDbLine
 10
6229.584791275922
 20
8251.199787121853
 30
0.0
 11
6229.584791275918
 21
10546.19978712185
 31
0.0
  0
LINE
  5
27AD
330
1A
100
AcDbEntity
  8
部品1
100
AcDbLine
 10
6246.584791275922
 20
8251.199787121853
 30
0.0
 11
6246.584791275918
 21
10546.19978712185
 31
0.0
  0
DIMENSION
  5
27AE
330
1A
100
AcDbEntity
  8
寸法
100
AcDbDimension
  2
*D82
 10
7471.797351915796
 20
2249.894328662096
 30
0.0
 11
7371.785540892175
 21
3305.394328662098
 31
0.0
 70
    32
 71
     5
 42
2111.0
  3
物置仕様図40
100
AcDbAlignedDimension
 13
8166.327550881035
 23
4360.894328662096
 33
0.0
 14
7509.042633282217
 24
2249.894328662096
 34
0.0
 50
90.0
100
AcDbRotatedDimension
  0
DIMENSION
  5
27AF
330
1A
100
AcDbEntity
  8
寸法
100
AcDbDimension
  2
*D83
 10
12966.32755088103
 20
4954.33418098768
 30
0.0
 11
10566.32755088103
 21
5054.33418098768
 31
0.0
 70
    32
 71
     5
 42
4799.999999999993
  3
物置仕様図40
100
AcDbAlignedDimension
 13
8166.327550881035
 23
4360.894328662096
 33
0.0
 14
12966.32755088103
 24
4360.894328662096
 34
0.0
100
AcDbRotatedDimension
  0
DIMENSION
  5
27B0
330
1A
100
AcDbEntity
  8
細線
100
AcDbDimension
  2
*D84
 10
12966.32755088103
 20
4674.33418098768
 30
0.0
 11
12591.32755088103
 21
4774.33418098768
 31
0.0
 70
    32
 71
     5
 42
749.9999999999982
  3
物置仕様図40
100
AcDbAlignedDimension
 13
12216.32755088103
 23
4063.913661418743
 33
0.0
 14
12966.32755088103
 24
4360.894328662096
 34
0.0
100
AcDbRotatedDimension
1001
ACAD
1000
DSTYLE
1002
{
1070
    75
1070
     1
1002
}
  0
DIMENSION
  5
27B1
330
1A
100
AcDbEntity
  8
寸法
100
AcDbDimension
  2
*D85
 10
12216.32755088103
 20
4674.33418098768
 30
0.0
 11
11391.32755088103
 21
4774.33418098768
 31
0.0
 70
    32
 71
     5
 42
1649.999999999998
  3
物置仕様図40
100
AcDbAlignedDimension
 13
10566.32755088103
 23
4360.894328662096
 33
0.0
 14
12216.32755088103
 24
4063.913661418743
 34
0.0
100
AcDbRotatedDimension
1001
ACAD
1000
DSTYLE
1002
{
1070
    75
1070
     1
1002
}
  0
DIMENSION
  5
27B2
330
1A
100
AcDbEntity
  8
寸法
100
AcDbDimension
  2
*D86
 10
10566.32755088103
 20
4674.33418098768
 30
0.0
 11
9741.327550881033
 21
4774.33418098768
 31
0.0
 70
    32
 71
     5
 42
1650.0
  3
物置仕様図40
100
AcDbAlignedDimension
 13
8916.327550881034
 23
4063.913661418744
 33
0.0
 14
10566.32755088103
 24
4360.894328662096
 34
0.0
100
AcDbRotatedDimension
1001
ACAD
1000
DSTYLE
1002
{
1070
    75
1070
     1
1002
}
  0
DIMENSION
  5
27B3
330
1A
100
AcDbEntity
  8
寸法
100
AcDbDimension
  2
*D87
 10
8916.327550881034
 20
4674.33418098768
 30
0.0
 11
8541.327550881034
 21
4774.33418098768
 31
0.0
 70
    32
 71
     5
 42
749.9999999999972
  3
物置仕様図40
100
AcDbAlignedDimension
 13
8166.327550881035
 23
4360.894328662096
 33
0.0
 14
8916.327550881034
 24
4063.913661418744
 34
0.0
100
AcDbRotatedDimension
  0
DIMENSION
  5
27B4
330
1A
100
AcDbEntity
  8
寸法
100
AcDbDimension
  2
*D88
 10
6308.08479127592
 20
4957.110116486521
 30
0.0
 11
4658.08479127592
 21
5057.110116486521
 31
0.0
 70
    32
 71
     5
 42
3300.0
  3
物置仕様図40
100
AcDbAlignedDimension
 13
3008.08479127592
 23
4360.894328662096
 33
0.0
 14
6308.08479127592
 24
4360.894328662096
 34
0.0
100
AcDbRotatedDimension
  0
DIMENSION
  5
27B5
330
1A
100
AcDbEntity
  8
寸法
100
AcDbDimension
  2
*D89
 10
6308.08479127592
 20
4677.110116486521
 30
0.0
 11
6169.820471908192
 21
4805.110519351536
 31
0.0
 70
   160
 71
     5
 42
250.0
  3
物置仕様図40
100
AcDbAlignedDimension
 13
6058.08479127592
 23
4332.209710363466
 33
0.0
 14
6308.08479127592
 24
4360.894328662096
 34
0.0
100
AcDbRotatedDimension
1001
ACAD
1000
DSTYLE
1002
{
1070
    75
1070
     1
1002
}
  0
DIMENSION
  5
27B6
330
1A
100
AcDbEntity
  8
寸法
100
AcDbDimension
  2
*D90
 10
6058.08479127592
 20
4677.110116486521
 30
0.0
 11
4658.08479127592
 21
4777.121927510143
 31
0.0
 70
    32
 71
     5
 42
2800.0
  3
物置仕様図40
100
AcDbAlignedDimension
 13
3258.08479127592
 23
4332.209710363466
 33
0.0
 14
6058.08479127592
 24
4332.209710363466
 34
0.0
100
AcDbRotatedDimension
1001
ACAD
1000
DSTYLE
1002
{
1070
    75
1070
     1
1002
}
  0
DIMENSION
  5
27B7
330
1A
100
AcDbEntity
  8
寸法
100
AcDbDimension
  2
*D91
 10
3258.08479127592
 20
4677.110116486521
 30
0.0
 11
3139.012682419911
 21
4787.02060836555
 31
0.0
 70
   160
 71
     5
 42
250.0
  3
物置仕様図40
100
AcDbAlignedDimension
 13
3008.08479127592
 23
4360.894328662096
 33
0.0
 14
3258.08479127592
 24
4332.209710363466
 34
0.0
100
AcDbRotatedDimension
  0
LINE
  5
27B8
330
1A
100
AcDbEntity
  8
部品1
100
AcDbLine
 10
6025.084791275922
 20
4094.264684008542
 30
0.0
 11
3291.08479127592
 21
4094.26468400854
 31
0.0
  0
ARC
  5
27B9
330
1A
100
AcDbEntity
  8
部品1
100
AcDbCircle
 10
3123.08479127592
 20
2399.894328662096
 30
0.0
 40
70.0
100
AcDbArc
 50
270.0
 51
0.0
  0
LINE
  5
27BA
330
1A
100
AcDbEntity
  8
部品1
100
AcDbLine
 10
3083.08479127592
 20
2399.894328662096
 30
0.0
 11
3083.08479127592
 21
2329.894328662096
 31
0.0
  0
LINE
  5
27BB
330
1A
100
AcDbEntity
  8
部品1
100
AcDbLine
 10
3083.08479127592
 20
2399.894328662096
 30
0.0
 11
3123.08479127592
 21
2399.894328662096
 31
0.0
  0
LINE
  5
27BC
330
1A
100
AcDbEntity
  8
部品1
100
AcDbLine
 10
3083.08479127592
 20
2329.894328662096
 30
0.0
 11
3123.08479127592
 21
2329.894328662096
 31
0.0
  0
LINE
  5
27BD
330
1A
100
AcDbEntity
  8
部品1
100
AcDbLine
 10
3228.08479127592
 20
2438.49437965022
 30
0.0
 11
3123.08479127592
 21
2438.49437965022
 31
0.0
  0
LINE
  5
27BE
330
1A
100
AcDbEntity
  8
部品1
100
AcDbLine
 10
3228.08479127592
 20
2463.49437965022
 30
0.0
 11
3123.08479127592
 21
2463.49437965022
 31
0.0
  0
LINE
  5
27BF
330
1A
100
AcDbEntity
  8
部品1
100
AcDbLine
 10
3228.08479127592
 20
3957.255508802793
 30
0.0
 11
3123.08479127592
 21
3957.255508802793
 31
0.0
  0
LINE
  5
27C0
330
1A
100
AcDbEntity
  8
部品1
100
AcDbLine
 10
3225.084791275918
 20
3982.255508802793
 30
0.0
 11
3123.08479127592
 21
3982.255508802793
 31
0.0
  0
LINE
  5
27C1
330
1A
100
AcDbEntity
  8
部品1
100
AcDbLine
 10
3193.08479127592
 20
4094.26468400854
 30
0.0
 11
3193.08479127592
 21
2399.894328662096
 31
0.0
  0
LINE
  5
27C2
330
1A
100
AcDbEntity
  8
部品1
100
AcDbLine
 10
3123.08479127592
 20
4094.26468400854
 30
0.0
 11
3123.08479127592
 21
2399.894328662096
 31
0.0
  0
LINE
  5
27C3
330
1A
100
AcDbEntity
  8
部品1
100
AcDbLine
 10
6237.506633194893
 20
4143.767589266856
 30
0.0
 11
6237.506633194893
 21
4094.264684008542
 31
0.0
  0
LINE
  5
27C4
330
1A
100
AcDbEntity
  8
部品1
100
AcDbLine
 10
3078.662949356945
 20
4143.767589266857
 30
0.0
 11
3078.662949356947
 21
4094.26468400854
 31
0.0
  0
LINE
  5
27C5
330
1A
100
AcDbEntity
  8
部品1
100
AcDbLine
 10
3225.08479127592
 20
4094.26468400854
 30
0.0
 11
3068.662949356947
 21
4094.26468400854
 31
0.0
  0
LINE
  5
27C6
330
1A
100
AcDbEntity
  8
部品1
100
AcDbLine
 10
3225.08479127592
 20
4143.767589266857
 30
0.0
 11
3063.662949356948
 21
4143.767589266857
 31
0.0
  0
LINE
  5
27C7
330
1A
100
AcDbEntity
  8
部品1
100
AcDbLine
 10
3225.08479127592
 20
4173.764693433525
 30
0.0
 11
3063.662949356946
 21
4173.764693433525
 31
0.0
  0
LINE
  5
27C8
330
1A
100
AcDbEntity
  8
部品1
100
AcDbLine
 10
3225.08479127592
 20
4203.761797600191
 30
0.0
 11
3063.662949356946
 21
4203.761797600191
 31
0.0
  0
LINE
  5
27C9
330
1A
100
AcDbEntity
  8
部品1
100
AcDbLine
 10
3225.084791275922
 20
4233.758901766857
 30
0.0
 11
3063.662949356946
 21
4233.758901766857
 31
0.0
  0
LINE
  5
27CA
330
1A
100
AcDbEntity
  8
部品1
100
AcDbLine
 10
6025.084791275922
 20
4143.767589266857
 30
0.0
 11
3291.08479127592
 21
4143.767589266857
 31
0.0
  0
LINE
  5
27CB
330
1A
100
AcDbEntity
  8
部品1
100
AcDbLine
 10
6025.084791275922
 20
4173.764693433525
 30
0.0
 11
3291.08479127592
 21
4173.764693433525
 31
0.0
  0
LINE
  5
27CC
330
1A
100
AcDbEntity
  8
部品1
100
AcDbLine
 10
6025.084791275922
 20
4203.761797600191
 30
0.0
 11
3291.08479127592
 21
4203.761797600191
 31
0.0
  0
LINE
  5
27CD
330
1A
100
AcDbEntity
  8
部品1
100
AcDbLine
 10
6025.084791275922
 20
4233.758901766857
 30
0.0
 11
3291.084791275918
 21
4233.758901766857
 31
0.0
  0
LINE
  5
27CE
330
1A
100
AcDbEntity
  8
部品1
100
AcDbLine
 10
6252.506633194895
 20
4233.758901766857
 30
0.0
 11
6091.084791275918
 21
4233.758901766857
 31
0.0
  0
LINE
  5
27CF
330
1A
100
AcDbEntity
  8
部品1
100
AcDbLine
 10
6252.506633194895
 20
4203.761797600189
 30
0.0
 11
6091.084791275918
 21
4203.761797600189
 31
0.0
  0
LINE
  5
27D0
330
1A
100
AcDbEntity
  8
部品1
100
AcDbLine
 10
6252.506633194893
 20
4173.764693433525
 30
0.0
 11
6091.084791275918
 21
4173.764693433525
 31
0.0
  0
LINE
  5
27D1
330
1A
100
AcDbEntity
  8
部品1
100
AcDbLine
 10
6252.506633194893
 20
4143.767589266857
 30
0.0
 11
6091.084791275921
 21
4143.767589266857
 31
0.0
  0
LINE
  5
27D2
330
1A
100
AcDbEntity
  8
部品1
100
AcDbLine
 10
6247.506633194893
 20
4143.767589266856
 30
0.0
 11
6247.506633194893
 21
4094.264684008542
 31
0.0
  0
LINE
  5
27D3
330
1A
100
AcDbEntity
  8
部品1
100
AcDbLine
 10
3068.662949356946
 20
4143.767589266857
 30
0.0
 11
3068.662949356947
 21
4094.26468400854
 31
0.0
  0
LINE
  5
27D4
330
1A
100
AcDbEntity
  8
部品1
100
AcDbLine
 10
6247.506633194893
 20
4094.264684008542
 30
0.0
 11
6091.084791275918
 21
4094.26468400854
 31
0.0
  0
LINE
  5
27D5
330
1A
100
AcDbEntity
  8
部品1
100
AcDbLine
 10
3068.662949356947
 20
4132.265801634865
 30
0.0
 11
3025.531251170667
 21
4132.265801634865
 31
0.0
  0
LINE
  5
27D6
330
1A
100
AcDbEntity
  8
部品1
100
AcDbLine
 10
6252.506633194895
 20
4246.022712204503
 30
0.0
 11
6252.506633194893
 21
4132.265801634865
 31
0.0
  0
LINE
  5
27D7
330
1A
100
AcDbEntity
  8
部品1
100
AcDbLine
 10
6307.506633194894
 20
4347.894328662095
 30
0.0
 11
6307.506633194894
 21
4233.854627425369
 31
0.0
  0
LINE
  5
27D8
330
1A
100
AcDbEntity
  8
部品1
100
AcDbLine
 10
3063.662949356946
 20
4246.022712204503
 30
0.0
 11
3063.662949356948
 21
4132.265801634865
 31
0.0
  0
LINE
  5
27D9
330
1A
100
AcDbEntity
  8
部品1
100
AcDbLine
 10
3008.662949356946
 20
4347.894328662095
 30
0.0
 11
3008.662949356946
 21
4233.854627425388
 31
0.0
  0
LINE
  5
27DA
330
1A
100
AcDbEntity
  8
部品1
100
AcDbLine
 10
6290.638331381173
 20
4132.265801634865
 30
0.0
 11
6247.506633194893
 21
4132.265801634865
 31
0.0
  0
LINE
  5
27DB
330
1A
100
AcDbEntity
  8
部品1
100
AcDbLine
 10
6025.08479127592
 20
4157.705008802792
 30
0.0
 11
6091.08479127592
 21
4157.705008802792
 31
0.0
  0
ARC
  5
27DC
330
1A
100
AcDbEntity
  8
部品1
100
AcDbCircle
 10
6088.084791275917
 20
4234.880323646386
 30
0.0
 40
3.0
100
AcDbArc
 50
0.0
 51
90.0
  0
LINE
  5
27DD
330
1A
100
AcDbEntity
  8
部品1
100
AcDbLine
 10
6028.084791275922
 20
4237.880323646386
 30
0.0
 11
6088.084791275917
 21
4237.880323646386
 31
0.0
  0
ARC
  5
27DE
330
1A
100
AcDbEntity
  8
部品1
100
AcDbCircle
 10
6028.084791275922
 20
4234.880323646386
 30
0.0
 40
3.0
100
AcDbArc
 50
90.0
 51
180.0
  0
ARC
  5
27DF
330
1A
100
AcDbEntity
  8
部品1
100
AcDbCircle
 10
6028.08479127592
 20
4178.710028715442
 30
0.0
 40
3.0
100
AcDbArc
 50
180.0
 51
270.0
  0
LINE
  5
27E0
330
1A
100
AcDbEntity
  8
部品1
100
AcDbLine
 10
6028.08479127592
 20
4175.710028715442
 30
0.0
 11
6088.08479127592
 21
4175.710028715442
 31
0.0
  0
ARC
  5
27E1
330
1A
100
AcDbEntity
  8
部品1
100
AcDbCircle
 10
6088.08479127592
 20
4178.710028715442
 30
0.0
 40
3.0
100
AcDbArc
 50
270.0
 51
0.0
  0
LINE
  5
27E2
330
1A
100
AcDbEntity
  8
部品1
100
AcDbLine
 10
6025.08479127592
 20
3982.255508802793
 30
0.0
 11
6091.08479127592
 21
3982.255508802793
 31
0.0
  0
LINE
  5
27E3
330
1A
100
AcDbEntity
  8
部品1
100
AcDbLine
 10
6076.084791275921
 20
4157.705008802792
 30
0.0
 11
6076.084791275921
 21
3982.255508802795
 31
0.0
  0
LINE
  5
27E4
330
1A
100
AcDbEntity
  8
部品1
100
AcDbLine
 10
6071.08479127592
 20
4157.705008802792
 30
0.0
 11
6071.08479127592
 21
3982.255508802795
 31
0.0
  0
LINE
  5
27E5
330
1A
100
AcDbEntity
  8
部品1
100
AcDbLine
 10
6045.084791275922
 20
4157.705008802792
 30
0.0
 11
6045.08479127592
 21
3982.255508802795
 31
0.0
  0
LINE
  5
27E6
330
1A
100
AcDbEntity
  8
部品1
100
AcDbLine
 10
6040.084791275922
 20
4157.705008802792
 30
0.0
 11
6040.08479127592
 21
3982.255508802795
 31
0.0
  0
LINE
  5
27E7
330
1A
100
AcDbEntity
  8
部品1
100
AcDbLine
 10
6091.084791275918
 20
4234.880323646386
 30
0.0
 11
6091.084791275921
 21
3982.255508802793
 31
0.0
  0
LINE
  5
27E8
330
1A
100
AcDbEntity
  8
部品1
100
AcDbLine
 10
6025.084791275922
 20
4234.880323646386
 30
0.0
 11
6025.084791275919
 21
3982.255508802793
 31
0.0
  0
ARC
  5
27E9
330
1A
100
AcDbEntity
  8
部品1
100
AcDbCircle
 10
3228.08479127592
 20
4178.710028715442
 30
0.0
 40
3.0
100
AcDbArc
 50
180.0
 51
270.0
  0
ARC
  5
27EA
330
1A
100
AcDbEntity
  8
部品1
100
AcDbCircle
 10
3288.08479127592
 20
4178.710028715442
 30
0.0
 40
3.0
100
AcDbArc
 50
270.0
 51
0.0
  0
ARC
  5
27EB
330
1A
100
AcDbEntity
  8
部品1
100
AcDbCircle
 10
3288.084791275918
 20
4234.880323646386
 30
0.0
 40
3.0
100
AcDbArc
 50
0.0
 51
90.0
  0
ARC
  5
27EC
330
1A
100
AcDbEntity
  8
部品1
100
AcDbCircle
 10
3228.084791275922
 20
4234.880323646386
 30
0.0
 40
3.0
100
AcDbArc
 50
90.0
 51
180.0
  0
LINE
  5
27ED
330
1A
100
AcDbEntity
  8
部品1
100
AcDbLine
 10
3271.084791275919
 20
4157.705008802792
 30
0.0
 11
3271.08479127592
 21
3982.255508802795
 31
0.0
  0
LINE
  5
27EE
330
1A
100
AcDbEntity
  8
部品1
100
AcDbLine
 10
3245.08479127592
 20
4157.705008802792
 30
0.0
 11
3245.08479127592
 21
3982.255508802795
 31
0.0
  0
LINE
  5
27EF
330
1A
100
AcDbEntity
  8
部品1
100
AcDbLine
 10
3276.084791275919
 20
4157.705008802792
 30
0.0
 11
3276.08479127592
 21
3982.255508802795
 31
0.0
  0
LINE
  5
27F0
330
1A
100
AcDbEntity
  8
部品1
100
AcDbLine
 10
3240.084791275921
 20
4157.705008802792
 30
0.0
 11
3240.084791275921
 21
3982.255508802795
 31
0.0
  0
LINE
  5
27F1
330
1A
100
AcDbEntity
  8
部品1
100
AcDbLine
 10
3288.084791275918
 20
4237.880323646386
 30
0.0
 11
3228.084791275922
 21
4237.880323646386
 31
0.0
  0
LINE
  5
27F2
330
1A
100
AcDbEntity
  8
部品1
100
AcDbLine
 10
3291.084791275918
 20
4234.880323646386
 30
0.0
 11
3291.084791275922
 21
3982.255508802793
 31
0.0
  0
LINE
  5
27F3
330
1A
100
AcDbEntity
  8
部品1
100
AcDbLine
 10
3225.084791275922
 20
4234.880323646386
 30
0.0
 11
3225.084791275918
 21
3982.255508802793
 31
0.0
  0
LINE
  5
27F4
330
1A
100
AcDbEntity
  8
部品1
100
AcDbLine
 10
3291.08479127592
 20
4157.705008802792
 30
0.0
 11
3225.08479127592
 21
4157.705008802792
 31
0.0
  0
LINE
  5
27F5
330
1A
100
AcDbEntity
  8
部品1
100
AcDbLine
 10
3288.08479127592
 20
4175.710028715442
 30
0.0
 11
3228.08479127592
 21
4175.710028715442
 31
0.0
  0
LINE
  5
27F6
330
1A
100
AcDbEntity
  8
部品1
100
AcDbLine
 10
3291.08479127592
 20
3982.255508802793
 30
0.0
 11
3225.08479127592
 21
3982.255508802793
 31
0.0
  0
LINE
  5
27F7
330
1A
100
AcDbEntity
  8
部品1
100
AcDbLine
 10
6285.08479127592
 20
4360.894328662096
 30
0.0
 11
6285.08479127592
 21
4246.022712204503
 31
0.0
  0
LINE
  5
27F8
330
1A
100
AcDbEntity
  8
部品1
100
AcDbLine
 10
3031.08479127592
 20
4360.894328662096
 30
0.0
 11
3031.08479127592
 21
4246.022712204503
 31
0.0
  0
LINE
  5
27F9
330
1A
100
AcDbEntity
  8
細線
100
AcDbLine
 10
6305.261133941842
 20
4296.022712204503
 30
0.0
 11
3010.908448609999
 21
4296.022712204503
 31
0.0
  0
LINE
  5
27FA
330
1A
100
AcDbEntity
  8
細線
100
AcDbLine
 10
6304.738811702018
 20
4284.022712204503
 30
0.0
 11
3011.43077084982
 21
4284.022712204503
 31
0.0
  0
ARC
  5
27FB
330
1A
100
AcDbEntity
  8
部品1
100
AcDbCircle
 10
6294.506633194895
 20
4347.894328662095
 30
0.0
 40
13.0
100
AcDbArc
 50
357.5076681947367
 51
90.0
  0
ARC
  5
27FC
330
1A
100
AcDbEntity
  8
部品1
100
AcDbCircle
 10
6290.638331381173
 20
4259.022712204504
 30
0.0
 40
13.0
100
AcDbArc
 50
270.0
 51
357.5076681947367
  0
LINE
  5
27FD
330
1A
100
AcDbEntity
  8
部品1
100
AcDbLine
 10
6307.494335850692
 20
4347.329014833654
 30
0.0
 11
6303.62603403697
 21
4258.457398376061
 31
0.0
  0
ARC
  5
27FE
330
1A
100
AcDbEntity
  8
部品1
100
AcDbCircle
 10
3025.531251170667
 20
4259.022712204504
 30
0.0
 40
13.0
100
AcDbArc
 50
182.4923318052633
 51
270.0
  0
ARC
  5
27FF
330
1A
100
AcDbEntity
  8
部品1
100
AcDbCircle
 10
3021.662949356946
 20
4347.894328662095
 30
0.0
 40
13.0
100
AcDbArc
 50
90.0
 51
182.4923318052633
  0
LINE
  5
2800
330
1A
100
AcDbEntity
  8
部品1
100
AcDbLine
 10
3008.675246701149
 20
4347.329014833654
 30
0.0
 11
3012.54354851487
 21
4258.457398376061
 31
0.0
  0
LINE
  5
2801
330
1A
100
AcDbEntity
  8
部品1
100
AcDbLine
 10
6290.638331381173
 20
4246.022712204503
 30
0.0
 11
3025.531251170667
 21
4246.022712204503
 31
0.0
  0
LINE
  5
2802
330
1A
100
AcDbEntity
  8
部品1
100
AcDbLine
 10
6294.506633194895
 20
4360.894328662096
 30
0.0
 11
3021.662949356946
 21
4360.894328662096
 31
0.0
  0
CIRCLE
  5
2803
330
1A
100
AcDbEntity
  8
細線
100
AcDbCircle
 10
10674.89575980879
 20
4108.868320831844
 30
0.0
 40
6.0
  0
LWPOLYLINE
  5
2804
330
1A
100
AcDbEntity
  8
細線
100
AcDbPolyline
 90
        6
 70
     1
 43
0.0
 10
10668.39575980879
 20
4112.621097581577
 10
10674.89575980879
 20
4116.373874331309
 10
10681.39575980879
 20
4112.621097581577
 10
10681.39575980879
 20
4105.115544082113
 10
10674.89575980879
 20
4101.362767332381
 10
10668.39575980879
 20
4105.115544082113
  0
CIRCLE
  5
2805
330
1A
100
AcDbEntity
  8
細線
100
AcDbCircle
 10
10674.89575980879
 20
4108.868320831844
 30
0.0
 40
8.0
  0
ARC
  5
2806
330
1A
100
AcDbEntity
  8
部品1
100
AcDbCircle
 10
10626.56841396403
 20
4099.26468400854
 30
0.0
 40
5.0
100
AcDbArc
 50
270.0
 51
350.8505326377247
  0
LINE
  5
2807
330
1A
100
AcDbEntity
  8
部品1
100
AcDbLine
 10
10631.50479841447
 20
4098.46963145841
 30
0.0
 11
10637.49002812939
 21
4135.631193788067
 31
0.0
  0
LINE
  5
2808
330
1A
100
AcDbEntity
  8
部品1
100
AcDbLine
 10
10626.56841396403
 20
4099.264684008542
 30
0.0
 11
10632.38672199545
 21
4135.389849935483
 31
0.0
  0
LINE
  5
2809
330
1A
100
AcDbEntity
  8
部品1
100
AcDbLine
 10
10566.32755088103
 20
4094.26468400854
 30
0.0
 11
10626.56841396403
 21
4094.26468400854
 31
0.0
  0
LINE
  5
280A
330
1A
100
AcDbEntity
  8
部品1
100
AcDbLine
 10
10566.32755088103
 20
4099.26468400854
 30
0.0
 11
10626.56841396403
 21
4099.26468400854
 31
0.0
  0
CIRCLE
  5
280B
330
1A
100
AcDbEntity
  8
細線
100
AcDbCircle
 10
10566.32755088103
 20
3916.782967136125
 30
0.0
 40
6.0
  0
LWPOLYLINE
  5
280C
330
1A
100
AcDbEntity
  8
細線
100
AcDbPolyline
 90
        6
 70
     1
 43
0.0
 10
10559.82755088103
 20
3920.535743885858
 10
10566.32755088103
 20
3924.28852063559
 10
10572.82755088103
 20
3920.535743885858
 10
10572.82755088103
 20
3913.030190386393
 10
10566.32755088103
 20
3909.277413636661
 10
10559.82755088103
 20
3913.030190386393
  0
CIRCLE
  5
280D
330
1A
100
AcDbEntity
  8
細線
100
AcDbCircle
 10
10566.32755088103
 20
3916.782967136125
 30
0.0
 40
8.0
  0
CIRCLE
  5
280E
330
1A
100
AcDbEntity
  8
細線
100
AcDbCircle
 10
10566.32755088103
 20
4018.782967136124
 30
0.0
 40
6.0
  0
LWPOLYLINE
  5
280F
330
1A
100
AcDbEntity
  8
細線
100
AcDbPolyline
 90
        6
 70
     1
 43
0.0
 10
10559.82755088103
 20
4022.535743885857
 10
10566.32755088103
 20
4026.288520635589
 10
10572.82755088103
 20
4022.535743885857
 10
10572.82755088103
 20
4015.030190386393
 10
10566.32755088103
 20
4011.277413636661
 10
10559.82755088103
 20
4015.030190386393
  0
CIRCLE
  5
2810
330
1A
100
AcDbEntity
  8
細線
100
AcDbCircle
 10
10566.32755088103
 20
4018.782967136124
 30
0.0
 40
8.0
  0
LINE
  5
2811
330
1A
100
AcDbEntity
  8
部品1
100
AcDbLine
 10
10600.32755088103
 20
3883.782967136125
 30
0.0
 11
10566.32755088103
 21
3883.782967136125
 31
0.0
  0
LINE
  5
2812
330
1A
100
AcDbEntity
  8
部品1
100
AcDbLine
 10
10854.32932545662
 20
4085.718716215442
 30
0.0
 11
10812.37621335906
 21
4083.734683622497
 31
0.0
  0
LINE
  5
2813
330
1A
100
AcDbEntity
  8
部品1
100
AcDbLine
 10
10851.49026929385
 20
4145.751621859803
 30
0.0
 11
10854.32932545662
 21
4085.718716215442
 31
0.0
  0
LINE
  5
2814
330
1A
100
AcDbEntity
  8
部品1
100
AcDbLine
 10
10809.5371571963
 20
4143.767589266857
 30
0.0
 11
10812.37621335906
 21
4083.734683622495
 31
0.0
  0
LINE
  5
2815
330
1A
100
AcDbEntity
  8
部品1
100
AcDbLine
 10
10811.32755088103
 20
4081.782967136125
 30
0.0
 11
10808.91836844674
 21
4132.726031826014
 31
0.0
  0
ARC
  5
2816
330
1A
100
AcDbEntity
  8
部品1
100
AcDbCircle
 10
10798.92953223303
 20
4132.253643113407
 30
0.0
 40
10.0
100
AcDbArc
 50
2.707595594590257
 51
92.70759559448615
  0
LINE
  5
2817
330
1A
100
AcDbEntity
  8
部品1
100
AcDbLine
 10
10811.32755088103
 20
4081.782967136125
 30
0.0
 11
10790.8609433364
 21
4080.815067154326
 31
0.0
  0
LINE
  5
2818
330
1A
100
AcDbEntity
  8
部品1
100
AcDbLine
 10
10812.30063116505
 20
4085.33289741669
 30
0.0
 11
10811.16221483162
 21
4085.27905981092
 31
0.0
  0
ARC
  5
2819
330
1A
100
AcDbEntity
  8
部品1
100
AcDbCircle
 10
10800.30871758853
 20
3881.038342880249
 30
0.0
 40
200.0
100
AcDbArc
 50
92.70759559448615
 51
179.2136983877133
  0
CIRCLE
  5
281A
330
1A
100
AcDbEntity
  8
細線
100
AcDbCircle
 10
10776.78188918857
 20
4113.686685700431
 30
0.0
 40
6.0
  0
LWPOLYLINE
  5
281B
330
1A
100
AcDbEntity
  8
細線
100
AcDbPolyline
 90
        6
 70
     1
 43
0.0
 10
10770.28188918857
 20
4117.439462450163
 10
10776.78188918857
 20
4121.192239199896
 10
10783.28188918857
 20
4117.439462450163
 10
10783.28188918857
 20
4109.933908950699
 10
10776.78188918857
 20
4106.181132200967
 10
10770.28188918857
 20
4109.933908950699
  0
CIRCLE
  5
281C
330
1A
100
AcDbEntity
  8
細線
100
AcDbCircle
 10
10776.78188918857
 20
4113.686685700431
 30
0.0
 40
8.0
  0
LINE
  5
281D
330
1A
100
AcDbEntity
  8
部品1
100
AcDbLine
 10
10798.45714352043
 20
4142.242479327111
 30
0.0
 11
10637.32755088103
 21
4134.622392341873
 31
0.0
  0
LINE
  5
281E
330
1A
100
AcDbEntity
  8
部品1
100
AcDbLine
 10
11488.62932545662
 20
4115.715820382109
 30
0.0
 11
11446.67621335906
 21
4113.731787789162
 31
0.0
  0
LINE
  5
281F
330
1A
100
AcDbEntity
  8
部品1
100
AcDbLine
 10
11485.79026929386
 20
4175.748726026472
 30
0.0
 11
11488.62932545662
 21
4115.715820382109
 31
0.0
  0
LINE
  5
2820
330
1A
100
AcDbEntity
  8
部品1
100
AcDbLine
 10
11443.8371571963
 20
4173.764693433525
 30
0.0
 11
11446.67621335906
 21
4113.731787789162
 31
0.0
  0
LINE
  5
2821
330
1A
100
AcDbEntity
  8
部品1
100
AcDbLine
 10
12029.12755088103
 20
4139.455508802793
 30
0.0
 11
12026.72895805778
 21
4190.399073189943
 31
0.0
  0
CIRCLE
  5
2822
330
1A
100
AcDbEntity
  8
細線
100
AcDbCircle
 10
12057.54816048534
 20
4174.33075735679
 30
0.0
 40
8.0
  0
LWPOLYLINE
  5
2823
330
1A
100
AcDbEntity
  8
細線
100
AcDbPolyline
 90
        6
 70
     1
 43
0.0
 10
12051.04816048534
 20
4178.083534106523
 10
12057.54816048534
 20
4181.836310856255
 10
12064.04816048534
 20
4178.083534106523
 10
12064.04816048534
 20
4170.577980607059
 10
12057.54816048534
 20
4166.825203857326
 10
12051.04816048534
 20
4170.577980607059
  0
CIRCLE
  5
2824
330
1A
100
AcDbEntity
  8
細線
100
AcDbCircle
 10
12057.54816048534
 20
4174.33075735679
 30
0.0
 40
6.0
  0
LINE
  5
2825
330
1A
100
AcDbEntity
  8
部品1
100
AcDbLine
 10
12029.12755088103
 20
4139.455508802793
 30
0.0
 11
12072.38927153909
 21
4141.49241481711
 31
0.0
  0
ARC
  5
2826
330
1A
100
AcDbEntity
  8
部品1
100
AcDbCircle
 10
12036.71789225134
 20
4190.869385508228
 30
0.0
 40
10.0
100
AcDbArc
 50
92.69568549357122
 51
182.6956854935736
  0
LINE
  5
2827
330
1A
100
AcDbEntity
  8
部品1
100
AcDbLine
 10
12078.1371571963
 20
4203.761797600191
 30
0.0
 11
12079.99984195087
 21
4164.374630983618
 31
0.0
  0
ARC
  5
2828
330
1A
100
AcDbEntity
  8
部品1
100
AcDbCircle
 10
12084.99426005772
 20
4164.610825339922
 30
0.0
 40
5.0
100
AcDbArc
 50
182.7075955945903
 51
272.6956854935712
  0
LINE
  5
2829
330
1A
100
AcDbEntity
  8
部品1
100
AcDbLine
 10
12028.96673509837
 20
4142.871065248537
 30
0.0
 11
11488.5537432626
 21
4117.314034176303
 31
0.0
  0
CIRCLE
  5
282A
330
1A
100
AcDbEntity
  8
細線
100
AcDbCircle
 10
12216.32755088103
 20
4097.255508802795
 30
0.0
 40
6.0
  0
LWPOLYLINE
  5
282B
330
1A
100
AcDbEntity
  8
細線
100
AcDbPolyline
 90
        6
 70
     1
 43
0.0
 10
12209.82755088103
 20
4101.008285552526
 10
12216.32755088103
 20
4104.761062302259
 10
12222.82755088103
 20
4101.008285552526
 10
12222.82755088103
 20
4093.502732053063
 10
12216.32755088103
 20
4089.74995530333
 10
12209.82755088103
 20
4093.502732053063
  0
CIRCLE
  5
282C
330
1A
100
AcDbEntity
  8
細線
100
AcDbCircle
 10
12216.32755088103
 20
4097.255508802795
 30
0.0
 40
8.0
  0
CIRCLE
  5
282D
330
1A
100
AcDbEntity
  8
細線
100
AcDbCircle
 10
12163.43086293708
 20
4179.316067930558
 30
0.0
 40
6.0
  0
LWPOLYLINE
  5
282E
330
1A
100
AcDbEntity
  8
細線
100
AcDbPolyline
 90
        6
 70
     1
 43
0.0
 10
12156.93086293708
 20
4183.068844680291
 10
12163.43086293708
 20
4186.821621430023
 10
12169.93086293708
 20
4183.068844680291
 10
12169.93086293708
 20
4175.563291180826
 10
12163.43086293708
 20
4171.810514431093
 10
12156.93086293708
 20
4175.563291180826
  0
CIRCLE
  5
282F
330
1A
100
AcDbEntity
  8
細線
100
AcDbCircle
 10
12163.43086293708
 20
4179.316067930558
 30
0.0
 40
8.0
  0
LINE
  5
2830
330
1A
100
AcDbEntity
  8
部品1
100
AcDbLine
 10
12120.09026929385
 20
4205.745830193136
 30
0.0
 11
12121.95326827457
 21
4166.352019147238
 31
0.0
  0
ARC
  5
2831
330
1A
100
AcDbEntity
  8
部品1
100
AcDbCircle
 10
12116.95885016771
 20
4166.115824790935
 30
0.0
 40
5.0
100
AcDbArc
 50
272.6956854935712
 51
2.707595594590257
  0
CIRCLE
  5
2832
330
1A
100
AcDbEntity
  8
細線
100
AcDbCircle
 10
12100.45921156261
 20
4176.351152678344
 30
0.0
 40
8.0
  0
LWPOLYLINE
  5
2833
330
1A
100
AcDbEntity
  8
細線
100
AcDbPolyline
 90
        6
 70
     1
 43
0.0
 10
12093.95921156261
 20
4180.103929428078
 10
12100.45921156261
 20
4183.856706177809
 10
12106.95921156261
 20
4180.103929428078
 10
12106.95921156261
 20
4172.598375928614
 10
12100.45921156261
 20
4168.845599178879
 10
12093.95921156261
 20
4172.598375928614
  0
CIRCLE
  5
2834
330
1A
100
AcDbEntity
  8
細線
100
AcDbCircle
 10
12100.45921156261
 20
4176.351152678344
 30
0.0
 40
6.0
  0
CIRCLE
  5
2835
330
1A
100
AcDbEntity
  8
細線
100
AcDbCircle
 10
12375.19626784055
 20
4189.286689078095
 30
0.0
 40
6.0
  0
LWPOLYLINE
  5
2836
330
1A
100
AcDbEntity
  8
細線
100
AcDbPolyline
 90
        6
 70
     1
 43
0.0
 10
12368.69626784055
 20
4193.039465827827
 10
12375.19626784055
 20
4196.79224257756
 10
12381.69626784055
 20
4193.039465827827
 10
12381.69626784055
 20
4185.533912328362
 10
12375.19626784055
 20
4181.78113557863
 10
12368.69626784055
 20
4185.533912328362
  0
CIRCLE
  5
2837
330
1A
100
AcDbEntity
  8
細線
100
AcDbCircle
 10
12375.19626784055
 20
4189.286689078095
 30
0.0
 40
8.0
  0
CIRCLE
  5
2838
330
1A
100
AcDbEntity
  8
細線
100
AcDbCircle
 10
12269.31356538882
 20
4184.301378504327
 30
0.0
 40
6.0
  0
LWPOLYLINE
  5
2839
330
1A
100
AcDbEntity
  8
細線
100
AcDbPolyline
 90
        6
 70
     1
 43
0.0
 10
12262.81356538882
 20
4188.05415525406
 10
12269.31356538882
 20
4191.806932003792
 10
12275.81356538882
 20
4188.05415525406
 10
12275.81356538882
 20
4180.548601754595
 10
12269.31356538882
 20
4176.795825004863
 10
12262.81356538882
 20
4180.548601754595
  0
CIRCLE
  5
283A
330
1A
100
AcDbEntity
  8
細線
100
AcDbCircle
 10
12269.31356538882
 20
4184.301378504327
 30
0.0
 40
8.0
  0
ARC
  5
283B
330
1A
100
AcDbEntity
  8
部品1
100
AcDbCircle
 10
12370.32755088103
 20
4035.387405353577
 30
0.0
 40
120.0
100
AcDbArc
 50
92.69568549357122
 51
180.0
  0
CIRCLE
  5
283C
330
1A
100
AcDbEntity
  8
細線
100
AcDbCircle
 10
12216.32755088103
 20
4012.255508802795
 30
0.0
 40
6.0
  0
LWPOLYLINE
  5
283D
330
1A
100
AcDbEntity
  8
細線
100
AcDbPolyline
 90
        6
 70
     1
 43
0.0
 10
12209.82755088103
 20
4016.008285552525
 10
12216.32755088103
 20
4019.761062302259
 10
12222.82755088103
 20
4016.008285552525
 10
12222.82755088103
 20
4008.50273205306
 10
12216.32755088103
 20
4004.74995530333
 10
12209.82755088103
 20
4008.50273205306
  0
CIRCLE
  5
283E
330
1A
100
AcDbEntity
  8
細線
100
AcDbCircle
 10
12216.32755088103
 20
4012.255508802795
 30
0.0
 40
8.0
  0
LINE
  5
283F
330
1A
100
AcDbEntity
  8
部品1
100
AcDbLine
 10
12182.32755088103
 20
3982.255508802795
 30
0.0
 11
12250.32755088103
 21
3982.255508802793
 31
0.0
  0
LINE
  5
2840
330
1A
100
AcDbEntity
  8
部品1
100
AcDbLine
 10
12182.32755088103
 20
4036.60860578473
 30
0.0
 11
12182.32755088103
 21
3982.255508802795
 31
0.0
  0
LINE
  5
2841
330
1A
100
AcDbEntity
  8
部品1
100
AcDbLine
 10
12250.32755088103
 20
4035.387405353577
 30
0.0
 11
12250.32755088103
 21
3982.255508802793
 31
0.0
  0
LINE
  5
2842
330
1A
100
AcDbEntity
  8
部品1
100
AcDbLine
 10
12416.72755088103
 20
4157.705008802794
 30
0.0
 11
12414.3289580578
 21
4208.648573189946
 31
0.0
  0
LINE
  5
2843
330
1A
100
AcDbEntity
  8
部品1
100
AcDbLine
 10
12712.4371571963
 20
4233.758901766857
 30
0.0
 11
12715.27621335906
 21
4173.725996122495
 31
0.0
  0
LINE
  5
2844
330
1A
100
AcDbEntity
  8
部品1
100
AcDbLine
 10
12715.20063116504
 20
4175.324209916689
 30
0.0
 11
12416.56294156608
 21
4161.201135846073
 31
0.0
  0
ARC
  5
2845
330
1A
100
AcDbEntity
  8
部品1
100
AcDbCircle
 10
12404.34002386424
 20
4208.178260871665
 30
0.0
 40
10.0
100
AcDbArc
 50
2.695685493573654
 51
92.69568549357122
  0
LINE
  5
2846
330
1A
100
AcDbEntity
  8
部品1
100
AcDbLine
 10
12364.68380306167
 20
4155.254615676298
 30
0.0
 11
12416.72755088103
 21
4157.705008802792
 31
0.0
  0
LINE
  5
2847
330
1A
100
AcDbEntity
  8
部品1
100
AcDbLine
 10
12036.24757993306
 20
4200.858319701789
 30
0.0
 11
12403.86971154596
 21
4218.167195065227
 31
0.0
  0
ARC
  5
2848
330
1A
100
AcDbEntity
  8
部品1
100
AcDbCircle
 10
12077.32755088103
 20
4036.60860578473
 30
0.0
 40
105.0
100
AcDbArc
 50
0.0
 51
92.69568549357122
  0
LINE
  5
2849
330
1A
100
AcDbEntity
  8
部品1
100
AcDbLine
 10
12117.19400632685
 20
4161.121357694155
 30
0.0
 11
12085.22941621686
 21
4159.616358243141
 31
0.0
  0
LINE
  5
284A
330
1A
100
AcDbEntity
  8
部品1
100
AcDbLine
 10
11446.60063116504
 20
4115.330001583357
 30
0.0
 11
10854.2537432626
 21
4087.316930009637
 31
0.0
  0
ARC
  5
284B
330
1A
100
AcDbEntity
  8
部品1
100
AcDbCircle
 10
12952.90020780357
 20
4347.244798086849
 30
0.0
 40
13.0
100
AcDbArc
 50
358.2326990882403
 51
92.70759559448615
  0
LINE
  5
284C
330
1A
100
AcDbEntity
  8
部品1
100
AcDbLine
 10
12754.39026929385
 20
4235.742934359804
 30
0.0
 11
12757.22932545662
 21
4175.710028715442
 31
0.0
  0
LINE
  5
284D
330
1A
100
AcDbEntity
  8
部品1
100
AcDbLine
 10
12758.15262688397
 20
4177.355481380899
 30
0.0
 11
12757.1537432626
 21
4177.308242509636
 31
0.0
  0
LINE
  5
284E
330
1A
100
AcDbEntity
  8
部品1
100
AcDbLine
 10
12755.38915291522
 20
4235.790173231063
 30
0.0
 11
12758.24710462649
 21
4175.357714138157
 31
0.0
  0
ARC
  5
284F
330
1A
100
AcDbEntity
  8
部品1
100
AcDbCircle
 10
12794.89265318914
 20
4236.1566831587
 30
0.0
 40
5.0
100
AcDbArc
 50
348.7828223739907
 51
20.16519871825012
  0
LINE
  5
2850
330
1A
100
AcDbEntity
  8
部品1
100
AcDbLine
 10
12780.39891352901
 20
4176.405310100838
 30
0.0
 11
12758.24710462649
 21
4175.357714138157
 31
0.0
  0
ARC
  5
2851
330
1A
100
AcDbEntity
  8
部品1
100
AcDbCircle
 10
12779.9265248164
 20
4186.394146314542
 30
0.0
 40
10.0
100
AcDbArc
 50
272.7075955944861
 51
348.7828223739907
  0
LINE
  5
2852
330
1A
100
AcDbEntity
  8
部品1
100
AcDbLine
 10
12799.79713758221
 20
4235.184040964425
 30
0.0
 11
12789.73549360256
 21
4184.448861925989
 31
0.0
  0
ARC
  5
2853
330
1A
100
AcDbEntity
  8
部品1
100
AcDbCircle
 10
12950.14702577431
 20
4258.015126777234
 30
0.0
 40
13.0
100
AcDbArc
 50
272.7075955944861
 51
358.2326990882403
  0
LINE
  5
2854
330
1A
100
AcDbEntity
  8
部品1
100
AcDbLine
 10
12965.89402401458
 20
4346.843873811788
 30
0.0
 11
12963.14084198532
 21
4257.614202502173
 31
0.0
  0
LINE
  5
2855
330
1A
100
AcDbEntity
  8
部品1
100
AcDbLine
 10
12943.28297883884
 20
4359.804512442603
 30
0.0
 11
12939.72549644148
 21
4244.507746143661
 31
0.0
  0
LINE
  5
2856
330
1A
100
AcDbEntity
  8
部品1
100
AcDbLine
 10
12952.28610247718
 20
4360.230285164663
 30
0.0
 11
10566.32755088103
 21
4247.394328662095
 31
0.0
  0
LINE
  5
2857
330
1A
100
AcDbEntity
  8
部品1
100
AcDbLine
 10
12757.22932545662
 20
4175.710028715442
 30
0.0
 11
12715.27621335906
 21
4173.725996122497
 31
0.0
  0
LINE
  5
2858
330
1A
100
AcDbEntity
  8
細線
100
AcDbLine
 10
12964.31679996078
 20
4295.72659118878
 30
0.0
 11
10566.32755088103
 21
4182.321682951052
 31
0.0
  0
LINE
  5
2859
330
1A
100
AcDbEntity
  8
細線
100
AcDbLine
 10
12963.94558440628
 20
4283.695624270631
 30
0.0
 11
10566.32755088103
 21
4170.308271435168
 31
0.0
  0
LINE
  5
285A
330
1A
100
AcDbEntity
  8
部品1
100
AcDbLine
 10
12950.76113110069
 20
4245.02963969942
 30
0.0
 11
10566.32755088103
 21
4132.265801634865
 31
0.0
  0
LINE
  5
285B
330
1A
100
AcDbEntity
  8
部品1
100
AcDbLine
 10
10566.32755088103
 20
4099.26468400854
 30
0.0
 11
10506.08668779803
 21
4099.26468400854
 31
0.0
  0
LINE
  5
285C
330
1A
100
AcDbEntity
  8
部品1
100
AcDbLine
 10
10506.08668779803
 20
4099.264684008542
 30
0.0
 11
10500.26837976661
 21
4135.389849935483
 31
0.0
  0
ARC
  5
285D
330
1A
100
AcDbEntity
  8
部品1
100
AcDbCircle
 10
10506.08668779803
 20
4099.26468400854
 30
0.0
 40
5.0
100
AcDbArc
 50
189.1494673622753
 51
270.0
  0
LINE
  5
285E
330
1A
100
AcDbEntity
  8
部品1
100
AcDbLine
 10
10501.15030334759
 20
4098.46963145841
 30
0.0
 11
10495.16507363267
 21
4135.631193788067
 31
0.0
  0
LINE
  5
285F
330
1A
100
AcDbEntity
  8
部品1
100
AcDbLine
 10
10566.32755088103
 20
4094.26468400854
 30
0.0
 11
10506.08668779803
 21
4094.26468400854
 31
0.0
  0
CIRCLE
  5
2860
330
1A
100
AcDbEntity
  8
細線
100
AcDbCircle
 10
10566.32755088103
 20
4018.782967136124
 30
0.0
 40
8.0
  0
LWPOLYLINE
  5
2861
330
1A
100
AcDbEntity
  8
細線
100
AcDbPolyline
 90
        6
 70
     1
 43
0.0
 10
10572.82755088103
 20
4022.535743885857
 10
10566.32755088103
 20
4026.288520635589
 10
10559.82755088103
 20
4022.535743885857
 10
10559.82755088103
 20
4015.030190386393
 10
10566.32755088103
 20
4011.277413636661
 10
10572.82755088103
 20
4015.030190386393
  0
CIRCLE
  5
2862
330
1A
100
AcDbEntity
  8
細線
100
AcDbCircle
 10
10566.32755088103
 20
4018.782967136124
 30
0.0
 40
6.0
  0
CIRCLE
  5
2863
330
1A
100
AcDbEntity
  8
細線
100
AcDbCircle
 10
10566.32755088103
 20
3916.782967136125
 30
0.0
 40
8.0
  0
LWPOLYLINE
  5
2864
330
1A
100
AcDbEntity
  8
細線
100
AcDbPolyline
 90
        6
 70
     1
 43
0.0
 10
10572.82755088103
 20
3920.535743885858
 10
10566.32755088103
 20
3924.28852063559
 10
10559.82755088103
 20
3920.535743885858
 10
10559.82755088103
 20
3913.030190386393
 10
10566.32755088103
 20
3909.277413636661
 10
10572.82755088103
 20
3913.030190386393
  0
CIRCLE
  5
2865
330
1A
100
AcDbEntity
  8
細線
100
AcDbCircle
 10
10566.32755088103
 20
3916.782967136125
 30
0.0
 40
6.0
  0
CIRCLE
  5
2866
330
1A
100
AcDbEntity
  8
細線
100
AcDbCircle
 10
10457.75934195327
 20
4108.868320831844
 30
0.0
 40
8.0
  0
LWPOLYLINE
  5
2867
330
1A
100
AcDbEntity
  8
細線
100
AcDbPolyline
 90
        6
 70
     1
 43
0.0
 10
10464.25934195327
 20
4112.621097581577
 10
10457.75934195327
 20
4116.373874331309
 10
10451.25934195327
 20
4112.621097581577
 10
10451.25934195327
 20
4105.115544082113
 10
10457.75934195327
 20
4101.362767332381
 10
10464.25934195327
 20
4105.115544082113
  0
CIRCLE
  5
2868
330
1A
100
AcDbEntity
  8
細線
100
AcDbCircle
 10
10457.75934195327
 20
4108.868320831844
 30
0.0
 40
6.0
  0
CIRCLE
  5
2869
330
1A
100
AcDbEntity
  8
細線
100
AcDbCircle
 10
10355.87321257349
 20
4113.686685700431
 30
0.0
 40
8.0
  0
LWPOLYLINE
  5
286A
330
1A
100
AcDbEntity
  8
細線
100
AcDbPolyline
 90
        6
 70
     1
 43
0.0
 10
10362.37321257349
 20
4117.439462450163
 10
10355.87321257349
 20
4121.192239199896
 10
10349.37321257349
 20
4117.439462450163
 10
10349.37321257349
 20
4109.933908950699
 10
10355.87321257349
 20
4106.181132200967
 10
10362.37321257349
 20
4109.933908950699
  0
CIRCLE
  5
286B
330
1A
100
AcDbEntity
  8
細線
100
AcDbCircle
 10
10355.87321257349
 20
4113.686685700431
 30
0.0
 40
6.0
  0
ARC
  5
286C
330
1A
100
AcDbEntity
  8
部品1
100
AcDbCircle
 10
10333.72556952903
 20
4132.253643113407
 30
0.0
 40
10.0
100
AcDbArc
 50
87.29240440551384
 51
177.2924044054097
  0
LINE
  5
286D
330
1A
100
AcDbEntity
  8
部品1
100
AcDbLine
 10
10321.32755088103
 20
4081.782967136125
 30
0.0
 11
10323.73673331533
 21
4132.726031826014
 31
0.0
  0
ARC
  5
286E
330
1A
100
AcDbEntity
  8
部品1
100
AcDbCircle
 10
10332.34638417353
 20
3881.038342880249
 30
0.0
 40
200.0
100
AcDbArc
 50
0.7863016122866425
 51
87.29240440551384
  0
LINE
  5
286F
330
1A
100
AcDbEntity
  8
部品1
100
AcDbLine
 10
10532.32755088103
 20
3883.782967136125
 30
0.0
 11
10566.32755088103
 21
3883.782967136125
 31
0.0
  0
LINE
  5
2870
330
1A
100
AcDbEntity
  8
部品1
100
AcDbLine
 10
10334.19795824164
 20
4142.242479327111
 30
0.0
 11
10495.32755088103
 21
4134.622392341873
 31
0.0
  0
LINE
  5
2871
330
1A
100
AcDbEntity
  8
部品1
100
AcDbLine
 10
10321.32755088103
 20
4081.782967136125
 30
0.0
 11
10341.79415842566
 21
4080.815067154326
 31
0.0
  0
CIRCLE
  5
2872
330
1A
100
AcDbEntity
  8
細線
100
AcDbCircle
 10
9032.195890199453
 20
4176.351152678344
 30
0.0
 40
6.0
  0
LWPOLYLINE
  5
2873
330
1A
100
AcDbEntity
  8
細線
100
AcDbPolyline
 90
        6
 70
     1
 43
0.0
 10
9038.695890199454
 20
4180.103929428078
 10
9032.195890199453
 20
4183.856706177809
 10
9025.695890199454
 20
4180.103929428078
 10
9025.695890199454
 20
4172.598375928614
 10
9032.195890199453
 20
4168.845599178879
 10
9038.695890199454
 20
4172.598375928614
  0
CIRCLE
  5
2874
330
1A
100
AcDbEntity
  8
細線
100
AcDbCircle
 10
9032.195890199453
 20
4176.351152678344
 30
0.0
 40
8.0
  0
ARC
  5
2875
330
1A
100
AcDbEntity
  8
部品1
100
AcDbCircle
 10
9047.66084170434
 20
4164.610825339922
 30
0.0
 40
5.0
100
AcDbArc
 50
267.3043145064287
 51
357.2924044054098
  0
ARC
  5
2876
330
1A
100
AcDbEntity
  8
部品1
100
AcDbCircle
 10
9015.69625159435
 20
4166.115824790935
 30
0.0
 40
5.0
100
AcDbArc
 50
177.2924044054097
 51
267.3043145064287
  0
LINE
  5
2877
330
1A
100
AcDbEntity
  8
部品1
100
AcDbLine
 10
9015.461095435211
 20
4161.121357694155
 30
0.0
 11
9047.425685545201
 21
4159.616358243141
 31
0.0
  0
CIRCLE
  5
2878
330
1A
100
AcDbEntity
  8
細線
100
AcDbCircle
 10
8757.458833921511
 20
4189.286689078095
 30
0.0
 40
8.0
  0
LWPOLYLINE
  5
2879
330
1A
100
AcDbEntity
  8
細線
100
AcDbPolyline
 90
        6
 70
     1
 43
0.0
 10
8763.958833921511
 20
4193.039465827827
 10
8757.458833921511
 20
4196.79224257756
 10
8750.958833921512
 20
4193.039465827827
 10
8750.958833921512
 20
4185.533912328362
 10
8757.458833921511
 20
4181.78113557863
 10
8763.958833921511
 20
4185.533912328362
  0
CIRCLE
  5
287A
330
1A
100
AcDbEntity
  8
細線
100
AcDbCircle
 10
8757.458833921511
 20
4189.286689078095
 30
0.0
 40
6.0
  0
ARC
  5
287B
330
1A
100
AcDbEntity
  8
部品1
100
AcDbCircle
 10
8728.31507789782
 20
4208.178260871665
 30
0.0
 40
10.0
100
AcDbArc
 50
87.3043145064288
 51
177.3043145064263
  0
ARC
  5
287C
330
1A
100
AcDbEntity
  8
部品1
100
AcDbCircle
 10
9095.937209510724
 20
4190.869385508228
 30
0.0
 40
10.0
100
AcDbArc
 50
357.3043145064263
 51
87.3043145064288
  0
LINE
  5
287D
330
1A
100
AcDbEntity
  8
部品1
100
AcDbLine
 10
9096.407521829005
 20
4200.858319701789
 30
0.0
 11
8728.785390216101
 21
4218.167195065227
 31
0.0
  0
LINE
  5
287E
330
1A
100
AcDbEntity
  8
部品1
100
AcDbLine
 10
8767.971298700393
 20
4155.254615676298
 30
0.0
 11
8715.927550881032
 21
4157.705008802792
 31
0.0
  0
CIRCLE
  5
287F
330
1A
100
AcDbEntity
  8
細線
100
AcDbCircle
 10
8916.327550881034
 20
4012.255508802795
 30
0.0
 40
8.0
  0
LWPOLYLINE
  5
2880
330
1A
100
AcDbEntity
  8
細線
100
AcDbPolyline
 90
        6
 70
     1
 43
0.0
 10
8922.827550881036
 20
4016.008285552525
 10
8916.327550881034
 20
4019.761062302259
 10
8909.827550881034
 20
4016.008285552525
 10
8909.827550881034
 20
4008.50273205306
 10
8916.327550881034
 20
4004.74995530333
 10
8922.827550881036
 20
4008.50273205306
  0
CIRCLE
  5
2881
330
1A
100
AcDbEntity
  8
細線
100
AcDbCircle
 10
8916.327550881034
 20
4012.255508802795
 30
0.0
 40
6.0
  0
LINE
  5
2882
330
1A
100
AcDbEntity
  8
部品1
100
AcDbLine
 10
8882.327550881033
 20
4035.387405353577
 30
0.0
 11
8882.327550881033
 21
3982.255508802793
 31
0.0
  0
CIRCLE
  5
2883
330
1A
100
AcDbEntity
  8
細線
100
AcDbCircle
 10
8916.327550881034
 20
4097.255508802795
 30
0.0
 40
8.0
  0
LWPOLYLINE
  5
2884
330
1A
100
AcDbEntity
  8
細線
100
AcDbPolyline
 90
        6
 70
     1
 43
0.0
 10
8922.827550881036
 20
4101.008285552526
 10
8916.327550881034
 20
4104.761062302259
 10
8909.827550881034
 20
4101.008285552526
 10
8909.827550881034
 20
4093.502732053063
 10
8916.327550881034
 20
4089.74995530333
 10
8922.827550881036
 20
4093.502732053063
  0
CIRCLE
  5
2885
330
1A
100
AcDbEntity
  8
細線
100
AcDbCircle
 10
8916.327550881034
 20
4097.255508802795
 30
0.0
 40
6.0
  0
LINE
  5
2886
330
1A
100
AcDbEntity
  8
部品1
100
AcDbLine
 10
8950.327550881032
 20
4036.60860578473
 30
0.0
 11
8950.327550881032
 21
3982.255508802795
 31
0.0
  0
LINE
  5
2887
330
1A
100
AcDbEntity
  8
部品1
100
AcDbLine
 10
9103.527550881036
 20
4139.455508802793
 30
0.0
 11
9060.265830222974
 21
4141.49241481711
 31
0.0
  0
ARC
  5
2888
330
1A
100
AcDbEntity
  8
部品1
100
AcDbCircle
 10
9055.327550881033
 20
4036.60860578473
 30
0.0
 40
105.0
100
AcDbArc
 50
87.3043145064288
 51
180.0
  0
LINE
  5
2889
330
1A
100
AcDbEntity
  8
部品1
100
AcDbLine
 10
8950.327550881032
 20
3982.255508802795
 30
0.0
 11
8882.327550881031
 21
3982.255508802793
 31
0.0
  0
ARC
  5
288A
330
1A
100
AcDbEntity
  8
部品1
100
AcDbCircle
 10
8762.327550881034
 20
4035.387405353577
 30
0.0
 40
120.0
100
AcDbArc
 50
0.0
 51
87.3043145064288
  0
LINE
  5
288B
330
1A
100
AcDbEntity
  8
部品1
100
AcDbLine
 10
8715.927550881033
 20
4157.705008802794
 30
0.0
 11
8718.32614370426
 21
4208.648573189946
 31
0.0
  0
CIRCLE
  5
288C
330
1A
100
AcDbEntity
  8
細線
100
AcDbCircle
 10
8969.224238824985
 20
4179.316067930558
 30
0.0
 40
8.0
  0
LWPOLYLINE
  5
288D
330
1A
100
AcDbEntity
  8
細線
100
AcDbPolyline
 90
        6
 70
     1
 43
0.0
 10
8975.724238824986
 20
4183.068844680291
 10
8969.224238824985
 20
4186.821621430023
 10
8962.724238824986
 20
4183.068844680291
 10
8962.724238824986
 20
4175.563291180826
 10
8969.224238824985
 20
4171.810514431093
 10
8975.724238824986
 20
4175.563291180826
  0
CIRCLE
  5
288E
330
1A
100
AcDbEntity
  8
細線
100
AcDbCircle
 10
8969.224238824985
 20
4179.316067930558
 30
0.0
 40
6.0
  0
CIRCLE
  5
288F
330
1A
100
AcDbEntity
  8
細線
100
AcDbCircle
 10
8863.341536373248
 20
4184.301378504327
 30
0.0
 40
8.0
  0
LWPOLYLINE
  5
2890
330
1A
100
AcDbEntity
  8
細線
100
AcDbPolyline
 90
        6
 70
     1
 43
0.0
 10
8869.841536373249
 20
4188.05415525406
 10
8863.341536373248
 20
4191.806932003792
 10
8856.841536373247
 20
4188.05415525406
 10
8856.841536373247
 20
4180.548601754595
 10
8863.341536373248
 20
4176.795825004863
 10
8869.841536373249
 20
4180.548601754595
  0
CIRCLE
  5
2891
330
1A
100
AcDbEntity
  8
細線
100
AcDbCircle
 10
8863.341536373248
 20
4184.301378504327
 30
0.0
 40
6.0
  0
CIRCLE
  5
2892
330
1A
100
AcDbEntity
  8
細線
100
AcDbCircle
 10
9075.106941276725
 20
4174.33075735679
 30
0.0
 40
6.0
  0
LWPOLYLINE
  5
2893
330
1A
100
AcDbEntity
  8
細線
100
AcDbPolyline
 90
        6
 70
     1
 43
0.0
 10
9081.606941276724
 20
4178.083534106523
 10
9075.106941276725
 20
4181.836310856255
 10
9068.606941276724
 20
4178.083534106523
 10
9068.606941276724
 20
4170.577980607059
 10
9075.106941276725
 20
4166.825203857326
 10
9081.606941276724
 20
4170.577980607059
  0
CIRCLE
  5
2894
330
1A
100
AcDbEntity
  8
細線
100
AcDbCircle
 10
9075.106941276725
 20
4174.33075735679
 30
0.0
 40
8.0
  0
LINE
  5
2895
330
1A
100
AcDbEntity
  8
部品1
100
AcDbLine
 10
9103.527550881034
 20
4139.455508802793
 30
0.0
 11
9105.926143704285
 21
4190.399073189943
 31
0.0
  0
ARC
  5
2896
330
1A
100
AcDbEntity
  8
部品1
100
AcDbCircle
 10
8352.728576945661
 20
4186.394146314542
 30
0.0
 40
10.0
100
AcDbArc
 50
191.2171776260093
 51
267.2924044055139
  0
ARC
  5
2897
330
1A
100
AcDbEntity
  8
部品1
100
AcDbCircle
 10
8337.762448572929
 20
4236.1566831587
 30
0.0
 40
5.0
100
AcDbArc
 50
159.8348012817499
 51
191.2171776260093
  0
LINE
  5
2898
330
1A
100
AcDbEntity
  8
部品1
100
AcDbLine
 10
8332.857964179854
 20
4235.184040964425
 30
0.0
 11
8342.919608159501
 21
4184.448861925989
 31
0.0
  0
LINE
  5
2899
330
1A
100
AcDbEntity
  8
部品1
100
AcDbLine
 10
8352.256188233056
 20
4176.405310100838
 30
0.0
 11
8374.407997135575
 21
4175.357714138157
 31
0.0
  0
LINE
  5
289A
330
1A
100
AcDbEntity
  8
部品1
100
AcDbLine
 10
8377.265948846842
 20
4235.790173231063
 30
0.0
 11
8374.407997135575
 21
4175.357714138157
 31
0.0
  0
LINE
  5
289B
330
1A
100
AcDbEntity
  8
部品1
100
AcDbLine
 10
9644.025776305445
 20
4115.715820382109
 30
0.0
 11
9685.978888403003
 21
4113.731787789162
 31
0.0
  0
LINE
  5
289C
330
1A
100
AcDbEntity
  8
部品1
100
AcDbLine
 10
10278.32577630544
 20
4085.718716215442
 30
0.0
 11
10320.278888403
 21
4083.734683622497
 31
0.0
  0
LINE
  5
289D
330
1A
100
AcDbEntity
  8
部品1
100
AcDbLine
 10
8417.45447059702
 20
4175.324209916689
 30
0.0
 11
8716.092160195985
 21
4161.201135846073
 31
0.0
  0
LINE
  5
289E
330
1A
100
AcDbEntity
  8
部品1
100
AcDbLine
 10
9103.688366663689
 20
4142.871065248537
 30
0.0
 11
9644.101358499465
 21
4117.314034176303
 31
0.0
  0
LINE
  5
289F
330
1A
100
AcDbEntity
  8
部品1
100
AcDbLine
 10
9686.054470597021
 20
4115.330001583357
 30
0.0
 11
10278.40135849946
 21
4087.316930009637
 31
0.0
  0
LINE
  5
28A0
330
1A
100
AcDbEntity
  8
部品1
100
AcDbLine
 10
10320.35447059702
 20
4085.33289741669
 30
0.0
 11
10321.49288693044
 21
4085.27905981092
 31
0.0
  0
LINE
  5
28A1
330
1A
100
AcDbEntity
  8
部品1
100
AcDbLine
 10
8375.425776305448
 20
4175.710028715442
 30
0.0
 11
8417.378888403003
 21
4173.725996122497
 31
0.0
  0
LINE
  5
28A2
330
1A
100
AcDbEntity
  8
部品1
100
AcDbLine
 10
10323.11794456576
 20
4143.767589266857
 30
0.0
 11
10320.278888403
 21
4083.734683622495
 31
0.0
  0
LINE
  5
28A3
330
1A
100
AcDbEntity
  8
部品1
100
AcDbLine
 10
10281.16483246821
 20
4145.751621859803
 30
0.0
 11
10278.32577630544
 21
4085.718716215442
 31
0.0
  0
LINE
  5
28A4
330
1A
100
AcDbEntity
  8
部品1
100
AcDbLine
 10
9688.817944565768
 20
4173.764693433525
 30
0.0
 11
9685.978888403003
 21
4113.731787789162
 31
0.0
  0
LINE
  5
28A5
330
1A
100
AcDbEntity
  8
部品1
100
AcDbLine
 10
9646.86483246821
 20
4175.748726026472
 30
0.0
 11
9644.025776305447
 21
4115.715820382109
 31
0.0
  0
LINE
  5
28A6
330
1A
100
AcDbEntity
  8
部品1
100
AcDbLine
 10
9054.517944565766
 20
4203.761797600191
 30
0.0
 11
9052.655259811192
 21
4164.374630983618
 31
0.0
  0
LINE
  5
28A7
330
1A
100
AcDbEntity
  8
部品1
100
AcDbLine
 10
9012.564832468212
 20
4205.745830193136
 30
0.0
 11
9010.7018334875
 21
4166.352019147238
 31
0.0
  0
LINE
  5
28A8
330
1A
100
AcDbEntity
  8
部品1
100
AcDbLine
 10
8420.217944565768
 20
4233.758901766857
 30
0.0
 11
8417.378888403003
 21
4173.725996122495
 31
0.0
  0
LINE
  5
28A9
330
1A
100
AcDbEntity
  8
部品1
100
AcDbLine
 10
8378.264832468213
 20
4235.742934359804
 30
0.0
 11
8375.425776305448
 21
4175.710028715442
 31
0.0
  0
LINE
  5
28AA
330
1A
100
AcDbEntity
  8
部品1
100
AcDbLine
 10
8374.502474878097
 20
4177.355481380899
 30
0.0
 11
8375.501358499466
 21
4177.308242509636
 31
0.0
  0
LINE
  5
28AB
330
1A
100
AcDbEntity
  8
部品1
100
AcDbLine
 10
8189.372122923222
 20
4359.804512442603
 30
0.0
 11
8192.929605320586
 21
4244.507746143661
 31
0.0
  0
ARC
  5
28AC
330
1A
100
AcDbEntity
  8
部品1
100
AcDbCircle
 10
8182.508075987758
 20
4258.015126777234
 30
0.0
 40
13.0
100
AcDbArc
 50
181.7673009117597
 51
267.2924044055139
  0
ARC
  5
28AD
330
1A
100
AcDbEntity
  8
部品1
100
AcDbCircle
 10
8179.754893958495
 20
4347.244798086849
 30
0.0
 40
13.0
100
AcDbArc
 50
87.29240440551384
 51
181.7673009117597
  0
LINE
  5
28AE
330
1A
100
AcDbEntity
  8
部品1
100
AcDbLine
 10
8166.761077747478
 20
4346.843873811788
 30
0.0
 11
8169.514259776741
 21
4257.614202502173
 31
0.0
  0
LINE
  5
28AF
330
1A
100
AcDbEntity
  8
細線
100
AcDbLine
 10
8168.338301801281
 20
4295.72659118878
 30
0.0
 11
10566.32755088103
 21
4182.321682951052
 31
0.0
  0
LINE
  5
28B0
330
1A
100
AcDbEntity
  8
細線
100
AcDbLine
 10
8168.709517355788
 20
4283.695624270631
 30
0.0
 11
10566.32755088103
 21
4170.308271435168
 31
0.0
  0
LINE
  5
28B1
330
1A
100
AcDbEntity
  8
部品1
100
AcDbLine
 10
8181.893970661368
 20
4245.02963969942
 30
0.0
 11
10566.32755088103
 21
4132.265801634865
 31
0.0
  0
LINE
  5
28B2
330
1A
100
AcDbEntity
  8
部品1
100
AcDbLine
 10
8180.368999284885
 20
4360.230285164663
 30
0.0
 11
10566.32755088103
 21
4247.394328662095
 31
0.0
  0
LINE
  5
28B3
330
1A
100
AcDbEntity
  8
点線
 48
50.0
100
AcDbLine
 10
5183.617443199586
 20
6095.699787121855
 30
0.0
 11
6278.084791275916
 21
6095.699787121851
 31
0.0
  0
LINE
  5
28B4
330
1A
100
AcDbEntity
  8
点線
 48
50.0
100
AcDbLine
 10
4992.24533384077
 20
6729.999787121851
 30
0.0
 11
6278.084791275919
 21
6729.999787121854
 31
0.0
  0
LINE
  5
28B5
330
1A
100
AcDbEntity
  8
点線
 48
50.0
100
AcDbLine
 10
4800.873224481954
 20
7364.299787121852
 30
0.0
 11
6278.084791275919
 21
7364.299787121854
 31
0.0
  0
LINE
  5
28B6
330
1A
100
AcDbEntity
  8
点線
 48
50.0
100
AcDbLine
 10
4609.501115123135
 20
7998.599787121856
 30
0.0
 11
6278.084791275919
 21
7998.599787121857
 31
0.0
  0
LINE
  5
28B7
330
1A
100
AcDbEntity
  8
点線
 48
50.0
100
AcDbLine
 10
6278.084791275919
 20
8433.799787121849
 30
0.0
 11
4478.1986683425
 21
8433.799787121849
 31
0.0
  0
LINE
  5
28B8
330
1A
100
AcDbEntity
  8
点線
 48
50.0
100
AcDbLine
 10
6278.084791275919
 20
9068.099787121852
 30
0.0
 11
4286.826558983682
 21
9068.099787121852
 31
0.0
  0
LINE
  5
28B9
330
1A
100
AcDbEntity
  8
点線
 48
50.0
100
AcDbLine
 10
6278.084791275919
 20
9702.39978712185
 30
0.0
 11
4095.454449624866
 21
9702.399787121851
 31
0.0
  0
LINE
  5
28BA
330
1A
100
AcDbEntity
  8
点線
 48
50.0
100
AcDbLine
 10
6278.084791275916
 20
10336.69978712185
 30
0.0
 11
3904.08234026605
 21
10336.69978712185
 31
0.0
  0
LINE
  5
28BB
330
1A
100
AcDbEntity
  8
部品1
100
AcDbLine
 10
4095.454449624866
 20
9702.39978712185
 30
0.0
 11
3078.08479127592
 21
9702.39978712185
 31
0.0
  0
LINE
  5
28BC
330
1A
100
AcDbEntity
  8
部品1
100
AcDbLine
 10
3904.082340266048
 20
10336.69978712185
 30
0.0
 11
3078.084791275922
 21
10336.69978712185
 31
0.0
  0
LINE
  5
28BD
330
1A
100
AcDbEntity
  8
部品1
100
AcDbLine
 10
4478.198668342503
 20
8433.799787121843
 30
0.0
 11
3078.08479127592
 21
8433.799787121845
 31
0.0
  0
LINE
  5
28BE
330
1A
100
AcDbEntity
  8
部品1
100
AcDbLine
 10
4286.826558983684
 20
9068.099787121846
 30
0.0
 11
3078.08479127592
 21
9068.099787121846
 31
0.0
  0
LINE
  5
28BF
330
1A
100
AcDbEntity
  8
部品1
100
AcDbLine
 10
4800.873224481954
 20
7364.299787121851
 30
0.0
 11
3078.08479127592
 21
7364.299787121851
 31
0.0
  0
LINE
  5
28C0
330
1A
100
AcDbEntity
  8
部品1
100
AcDbLine
 10
4609.501115123135
 20
7998.599787121853
 30
0.0
 11
3078.08479127592
 21
7998.599787121853
 31
0.0
  0
LINE
  5
28C1
330
1A
100
AcDbEntity
  8
点線
 48
6.0
100
AcDbLine
 10
3288.08479127592
 20
8297.699787121851
 30
0.0
 11
3288.08479127592
 21
8134.699787121851
 31
0.0
  0
LINE
  5
28C2
330
1A
100
AcDbEntity
  8
点線
 48
6.0
100
AcDbLine
 10
3228.08479127592
 20
8297.699787121851
 30
0.0
 11
3228.08479127592
 21
8134.699787121851
 31
0.0
  0
LINE
  5
28C3
330
1A
100
AcDbEntity
  8
点線
 48
50.0
100
AcDbLine
 10
4568.438929905203
 20
8134.699787121851
 30
0.0
 11
6263.08479127592
 21
8134.699787121851
 31
0.0
  0
LINE
  5
28C4
330
1A
100
AcDbEntity
  8
点線
 48
50.0
100
AcDbLine
 10
4519.260853560432
 20
8297.699787121851
 30
0.0
 11
6263.08479127592
 21
8297.699787121851
 31
0.0
  0
LINE
  5
28C5
330
1A
100
AcDbEntity
  8
部品1
100
AcDbLine
 10
3053.08479127592
 20
8181.199787121853
 30
0.0
 11
3078.08479127592
 21
8181.199787121853
 31
0.0
  0
LINE
  5
28C6
330
1A
100
AcDbEntity
  8
部品1
100
AcDbLine
 10
3053.08479127592
 20
8251.199787121853
 30
0.0
 11
3078.08479127592
 21
8251.199787121853
 31
0.0
  0
LINE
  5
28C7
330
1A
100
AcDbEntity
  8
細線
100
AcDbLine
 10
3078.08479127592
 20
8144.699787121851
 30
0.0
 11
4565.42187000675
 21
8144.699787121849
 31
0.0
  0
LINE
  5
28C8
330
1A
100
AcDbEntity
  8
細線
100
AcDbLine
 10
3078.08479127592
 20
8287.699787121852
 30
0.0
 11
4522.277913458884
 21
8287.699787121852
 31
0.0
  0
LINE
  5
28C9
330
1A
100
AcDbEntity
  8
部品1
100
AcDbLine
 10
3078.08479127592
 20
8134.699787121851
 30
0.0
 11
4568.438929905203
 21
8134.699787121851
 31
0.0
  0
LINE
  5
28CA
330
1A
100
AcDbEntity
  8
部品1
100
AcDbLine
 10
3078.08479127592
 20
8297.699787121855
 30
0.0
 11
4519.260853560434
 21
8297.69978712185
 31
0.0
  0
LINE
  5
28CB
330
1A
100
AcDbEntity
  8
部品1
100
AcDbLine
 10
4554.409601377401
 20
8181.199787121853
 30
0.0
 11
6263.08479127592
 21
8181.199787121853
 31
0.0
  0
LINE
  5
28CC
330
1A
100
AcDbEntity
  8
部品1
100
AcDbLine
 10
4533.290182088236
 20
8251.199787121853
 30
0.0
 11
6263.084791275918
 21
8251.199787121853
 31
0.0
  0
LINE
  5
28CD
330
1A
100
AcDbEntity
  8
部品1
100
AcDbLine
 10
6263.084791275918
 20
5886.199787121853
 30
0.0
 11
3053.08479127592
 21
5886.199787121849
 31
0.0
  0
LINE
  5
28CE
330
1A
100
AcDbEntity
  8
部品1
100
AcDbLine
 10
3030.58479127592
 20
5816.199787121852
 30
0.0
 11
3030.58479127592
 21
5861.199787121852
 31
0.0
  0
ARC
  5
28CF
330
1A
100
AcDbEntity
  8
部品1
100
AcDbCircle
 10
3035.58479127592
 20
5861.199787121852
 30
0.0
 40
5.0
100
AcDbArc
 50
90.0
 51
180.0
  0
LINE
  5
28D0
330
1A
100
AcDbEntity
  8
部品1
100
AcDbLine
 10
3053.08479127592
 20
5866.19978712185
 30
0.0
 11
3035.58479127592
 21
5866.199787121852
 31
0.0
  0
LINE
  5
28D1
330
1A
100
AcDbEntity
  8
部品1
100
AcDbLine
 10
6285.584791275918
 20
5861.19978712185
 30
0.0
 11
6285.58479127592
 21
5816.199787121852
 31
0.0
  0
LINE
  5
28D2
330
1A
100
AcDbEntity
  8
部品1
100
AcDbLine
 10
6280.584791275918
 20
5866.19978712185
 30
0.0
 11
6263.084791275918
 21
5866.19978712185
 31
0.0
  0
ARC
  5
28D3
330
1A
100
AcDbEntity
  8
部品1
100
AcDbCircle
 10
6280.584791275918
 20
5861.19978712185
 30
0.0
 40
5.0
100
AcDbArc
 50
0.0
 51
90.0
  0
ARC
  5
28D4
330
1A
100
AcDbEntity
  8
部品1
100
AcDbCircle
 10
6280.584791275918
 20
10571.19978712185
 30
0.0
 40
5.0
100
AcDbArc
 50
270.0
 51
0.0
  0
LINE
  5
28D5
330
1A
100
AcDbEntity
  8
部品1
100
AcDbLine
 10
6280.584791275918
 20
10566.19978712185
 30
0.0
 11
6263.084791275918
 21
10566.19978712185
 31
0.0
  0
ARC
  5
28D6
330
1A
100
AcDbEntity
  8
部品1
100
AcDbCircle
 10
3035.58479127592
 20
10571.19978712185
 30
0.0
 40
5.0
100
AcDbArc
 50
180.0
 51
270.0
  0
LINE
  5
28D7
330
1A
100
AcDbEntity
  8
部品1
100
AcDbLine
 10
3053.08479127592
 20
10566.19978712185
 30
0.0
 11
3035.58479127592
 21
10566.19978712185
 31
0.0
  0
LINE
  5
28D8
330
1A
100
AcDbEntity
  8
部品1
100
AcDbLine
 10
6263.084791275918
 20
10546.19978712185
 30
0.0
 11
3053.08479127592
 21
10546.19978712185
 31
0.0
  0
LINE
  5
28D9
330
1A
100
AcDbEntity
  8
部品1
100
AcDbLine
 10
4029.755516104312
 20
10616.19978712185
 30
0.0
 11
3018.08479127592
 21
10616.19978712185
 31
0.0
  0
LINE
  5
28DD
330
1A
100
AcDbEntity
  8
部品1
100
AcDbLine
 10
5477.944267361325
 20
5816.199787121852
 30
0.0
 11
6298.08479127592
 21
5816.199787121852
 31
0.0
  0
LINE
  5
28DE
330
1A
100
AcDbEntity
  8
センター
 48
10.0
100
AcDbLine
 10
3038.08479127592
 20
6053.199787121852
 30
0.0
 11
6278.084791275919
 21
6053.199787121852
 31
0.0
  0
LINE
  5
28DF
330
1A
100
AcDbEntity
  8
センター
 48
10.0
100
AcDbLine
 10
3038.084791275919
 20
6687.499787121852
 30
0.0
 11
6278.084791275919
 21
6687.499787121851
 31
0.0
  0
LINE
  5
28E0
330
1A
100
AcDbEntity
  8
センター
 48
10.0
100
AcDbLine
 10
3038.084791275919
 20
7321.799787121847
 30
0.0
 11
6278.084791275919
 21
7321.799787121853
 31
0.0
  0
LINE
  5
28E1
330
1A
100
AcDbEntity
  8
センター
 48
10.0
100
AcDbLine
 10
3038.08479127592
 20
7956.099787121854
 30
0.0
 11
6278.084791275916
 21
7956.099787121853
 31
0.0
  0
LINE
  5
28E2
330
1A
100
AcDbEntity
  8
部品1
100
AcDbLine
 10
6263.084791275918
 20
8216.199787121851
 30
0.0
 11
6308.08479127592
 21
8216.199787121851
 31
0.0
  0
LINE
  5
28E3
330
1A
100
AcDbEntity
  8
部品1
100
AcDbLine
 10
3053.08479127592
 20
8216.199787121851
 30
0.0
 11
3008.08479127592
 21
8216.199787121851
 31
0.0
  0
DIMENSION
  5
28E5
330
1A
100
AcDbEntity
  8
寸法
100
AcDbDimension
  2
*D62
 10
6554.60244337315
 20
2249.894328662096
 30
0.0
 11
6274.567010302284
 21
2114.894328662097
 31
0.0
 70
    32
 71
     5
 42
270.0
  3
物置仕様図40
100
AcDbAlignedDimension
 13
6088.08479127592
 23
1979.894328662096
 33
0.0
 14
6768.266128291223
 24
2249.894328662096
 34
0.0
 50
90.0
100
AcDbRotatedDimension
  0
DIMENSION
  5
28E6
330
1A
100
AcDbEntity
  8
寸法
100
AcDbDimension
  2
*D63
 10
8078.354899444727
 20
3399.894328662096
 30
0.0
 11
7978.354899444726
 21
2949.894328662097
 31
0.0
 70
    32
 71
     5
 42
900.0
  3
物置仕様図40
100
AcDbAlignedDimension
 13
8946.327550881035
 23
2499.894328662096
 33
0.0
 14
8946.327550881035
 24
3399.894328662096
 34
0.0
 50
90.0
100
AcDbRotatedDimension
1001
ACAD
1000
DSTYLE
1002
{
1070
    75
1070
     1
1002
}
  0
DIMENSION
  5
28E7
330
1A
100
AcDbEntity
  8
寸法
100
AcDbDimension
  2
*D64
 10
8078.354899444727
 20
2499.894328662096
 30
0.0
 11
7967.79826238547
 21
2374.894328662096
 31
0.0
 70
   160
 71
     5
 42
250.0
  3
物置仕様図40
100
AcDbAlignedDimension
 13
8062.254670437178
 23
2249.894328662096
 33
0.0
 14
8946.327550881035
 24
2499.894328662096
 34
0.0
 50
90.0
100
AcDbRotatedDimension
  0
DIMENSION
  5
28E8
330
1A
100
AcDbEntity
  8
寸法
100
AcDbDimension
  2
*D65
 10
13483.45611201606
 20
2249.894328662096
 30
0.0
 11
13362.01802163522
 21
2430.297375140057
 31
0.0
 70
   160
 71
     5
 42
49.99999999999954
  3
物置仕様図40
100
AcDbAlignedDimension
 13
12966.32755088103
 23
2299.894328662096
 33
0.0
 14
13495.59992105415
 24
2249.894328662096
 34
0.0
 50
90.0
100
AcDbRotatedDimension
  0
LINE
  5
28E9
330
1A
100
AcDbEntity
  8
センター
 48
10.0
100
AcDbLine
 10
12216.32755088103
 20
4063.913661418743
 30
0.0
 11
12216.32755088103
 21
2299.894328662096
 31
0.0
  0
LINE
  5
28EA
330
1A
100
AcDbEntity
  8
センター
 48
10.0
100
AcDbLine
 10
10566.32755088103
 20
4360.894328662096
 30
0.0
 11
10566.32755088103
 21
2299.894328662096
 31
0.0
  0
LINE
  5
28EB
330
1A
100
AcDbEntity
  8
センター
 48
10.0
100
AcDbLine
 10
8916.327550881034
 20
4063.913661418744
 30
0.0
 11
8916.327550881034
 21
2299.894328662096
 31
0.0
  0
DIMENSION
  5
28EC
330
1A
100
AcDbEntity
  8
寸法
100
AcDbDimension
  2
*D66
 10
2434.415140076315
 20
7956.099787121853
 30
0.0
 11
2274.403329052693
 21
7998.164696165517
 31
0.0
 70
   160
 71
     5
 42
260.0999999999976
  3
物置仕様図40
100
AcDbAlignedDimension
 13
3008.08479127592
 23
8216.199787121851
 33
0.0
 14
3008.08479127592
 24
7956.099787121853
 34
0.0
 50
90.0
100
AcDbRotatedDimension
1001
ACAD
1000
DSTYLE
1002
{
1070
    75
1070
     1
1002
}
  0
DIMENSION
  5
28ED
330
1A
100
AcDbEntity
  8
寸法
100
AcDbDimension
  2
*D67
 10
6923.537714463041
 20
10616.19978712185
 30
0.0
 11
6847.982309800565
 21
10711.82972903684
 31
0.0
 70
   160
 71
     5
 42
70.00000000000182
  3
物置仕様図40
100
AcDbAlignedDimension
 13
6263.084791275918
 23
10546.19978712185
 33
0.0
 14
6298.084791275919
 24
10616.19978712185
 34
0.0
 50
90.0
100
AcDbRotatedDimension
1001
ACAD
1000
DSTYLE
1002
{
1070
    75
1070
     1
1002
}
  0
DIMENSION
  5
28EE
330
1A
100
AcDbEntity
  8
寸法
100
AcDbDimension
  2
*D68
 10
6923.537714463041
 20
5816.199787121852
 30
0.0
 11
6847.655814112157
 21
5723.494403845278
 31
0.0
 70
   160
 71
     5
 42
70.00000000000182
  3
物置仕様図40
100
AcDbAlignedDimension
 13
6263.084791275918
 23
5886.199787121853
 33
0.0
 14
6298.08479127592
 24
5816.199787121852
 34
0.0
 50
90.0
100
AcDbRotatedDimension
1001
ACAD
1000
DSTYLE
1002
{
1070
    75
1070
     1
1002
}
  0
DIMENSION
  5
28EF
330
1A
100
AcDbEntity
  8
寸法
100
AcDbDimension
  2
*D69
 10
6923.537714463041
 20
5886.199787121853
 30
0.0
 11
6823.525903439417
 21
7033.699787121854
 31
0.0
 70
    32
 71
     5
 42
2294.999999999998
  3
物置仕様図40
100
AcDbAlignedDimension
 13
6263.08479127592
 23
8181.199787121853
 33
0.0
 14
6263.084791275918
 24
5886.199787121853
 34
0.0
 50
90.0
100
AcDbRotatedDimension
1001
ACAD
1000
DSTYLE
1002
{
1070
    75
1070
     1
1002
}
  0
DIMENSION
  5
28F0
330
1A
100
AcDbEntity
  8
寸法
100
AcDbDimension
  2
*D70
 10
6923.537714463041
 20
8181.199787121853
 30
0.0
 11
7203.537714463038
 21
8216.199787121857
 31
0.0
 70
    32
 71
     5
 42
70.00000000000182
  3
物置仕様図40
100
AcDbAlignedDimension
 13
6263.084791275919
 23
8251.199787121853
 33
0.0
 14
6263.08479127592
 24
8181.199787121853
 34
0.0
 50
90.0
100
AcDbRotatedDimension
1001
ACAD
1000
DSTYLE
1002
{
1070
    75
1070
     1
1002
}
  0
DIMENSION
  5
28F1
330
1A
100
AcDbEntity
  8
寸法
100
AcDbDimension
  2
*D71
 10
6923.537714463041
 20
8251.199787121853
 30
0.0
 11
6823.525903439417
 21
9398.699787121854
 31
0.0
 70
    32
 71
     5
 42
2294.999999999996
  3
物置仕様図40
100
AcDbAlignedDimension
 13
6263.084791275918
 23
10546.19978712185
 33
0.0
 14
6263.084791275919
 24
8251.199787121853
 34
0.0
 50
90.0
100
AcDbRotatedDimension
  0
DIMENSION
  5
28F2
330
1A
100
AcDbEntity
  8
寸法
100
AcDbDimension
  2
*D72
 10
1958.966968675668
 20
5816.199787121853
 30
0.0
 11
1858.966968675667
 21
8216.199787121851
 31
0.0
 70
    32
 71
     5
 42
4799.999999999999
  3
物置仕様図40
100
AcDbAlignedDimension
 13
3018.08479127592
 23
10616.19978712185
 33
0.0
 14
3018.08479127592
 24
5816.199787121852
 34
0.0
 50
90.0
100
AcDbRotatedDimension
  0
DIMENSION
  5
28F3
330
1A
100
AcDbEntity
  8
寸法
100
AcDbDimension
  2
*D73
 10
2434.415140076315
 20
5816.199787121852
 30
0.0
 11
2333.694554790083
 21
5934.699787121852
 31
0.0
 70
   160
 71
     5
 42
237.0
  3
物置仕様図40
100
AcDbAlignedDimension
 13
3008.08479127592
 23
6053.199787121852
 33
0.0
 14
3018.08479127592
 24
5816.199787121852
 34
0.0
 50
90.0
100
AcDbRotatedDimension
1001
ACAD
1000
DSTYLE
1002
{
1070
    75
1070
     1
1002
}
  0
DIMENSION
  5
28F4
330
1A
100
AcDbEntity
  8
寸法
100
AcDbDimension
  2
*D74
 10
2434.415140076315
 20
6053.199787121852
 30
0.0
 11
2334.415140076314
 21
6370.349787121853
 31
0.0
 70
    32
 71
     5
 42
634.2999999999992
  3
物置仕様図40
100
AcDbAlignedDimension
 13
3008.08479127592
 23
6687.499787121851
 33
0.0
 14
3008.08479127592
 24
6053.199787121852
 34
0.0
 50
90.0
100
AcDbRotatedDimension
1001
ACAD
1000
DSTYLE
1002
{
1070
    75
1070
     1
1002
}
  0
DIMENSION
  5
28F5
330
1A
100
AcDbEntity
  8
寸法
100
AcDbDimension
  2
*D75
 10
2434.415140076315
 20
6687.499787121851
 30
0.0
 11
2334.415140076314
 21
7004.649787121852
 31
0.0
 70
    32
 71
     5
 42
634.2999999999992
  3
物置仕様図40
100
AcDbAlignedDimension
 13
3008.08479127592
 23
7321.79978712185
 33
0.0
 14
3008.08479127592
 24
6687.499787121851
 34
0.0
 50
90.0
100
AcDbRotatedDimension
1001
ACAD
1000
DSTYLE
1002
{
1070
    75
1070
     1
1002
}
  0
DIMENSION
  5
28F6
330
1A
100
AcDbEntity
  8
寸法
100
AcDbDimension
  2
*D76
 10
2434.415140076315
 20
7321.79978712185
 30
0.0
 11
2324.939703023505
 21
7524.23983661491
 31
0.0
 70
   160
 71
     5
 42
634.3000000000029
  3
物置仕様図40
100
AcDbAlignedDimension
 13
3008.08479127592
 23
7956.099787121853
 33
0.0
 14
3008.08479127592
 24
7321.79978712185
 34
0.0
 50
90.0
100
AcDbRotatedDimension
1001
ACAD
1000
DSTYLE
1002
{
1070
    75
1070
     1
1002
}
  0
DIMENSION
  5
28F7
330
1A
100
AcDbEntity
  8
寸法
100
AcDbDimension
  2
*D77
 10
2434.415140076315
 20
8216.199787121851
 30
0.0
 11
2274.403329052693
 21
8401.617056612504
 31
0.0
 70
   160
 71
     5
 42
260.0999999999949
  3
物置仕様図40
100
AcDbAlignedDimension
 13
3008.08479127592
 23
8476.299787121847
 33
0.0
 14
3008.08479127592
 24
8216.199787121851
 34
0.0
 50
90.0
100
AcDbRotatedDimension
1001
ACAD
1000
DSTYLE
1002
{
1070
    75
1070
     1
1002
}
  0
DIMENSION
  5
28F8
330
1A
100
AcDbEntity
  8
寸法
100
AcDbDimension
  2
*D78
 10
2434.415140076315
 20
8476.299787121847
 30
0.0
 11
2336.185042107951
 21
8900.033492550695
 31
0.0
 70
   160
 71
     5
 42
634.3000000000029
  3
物置仕様図40
100
AcDbAlignedDimension
 13
3008.08479127592
 23
9110.599787121849
 33
0.0
 14
3008.08479127592
 24
8476.299787121847
 34
0.0
 50
90.0
100
AcDbRotatedDimension
1001
ACAD
1000
DSTYLE
1002
{
1070
   172
1070
     1
1070
    75
1070
     1
1002
}
  0
DIMENSION
  5
28F9
330
1A
100
AcDbEntity
  8
寸法
100
AcDbDimension
  2
*D79
 10
2434.415140076315
 20
9110.599787121849
 30
0.0
 11
2334.415140076314
 21
9427.749787121852
 31
0.0
 70
    32
 71
     5
 42
634.300000000001
  3
物置仕様図40
100
AcDbAlignedDimension
 13
3008.08479127592
 23
9744.899787121852
 33
0.0
 14
3008.08479127592
 24
9110.599787121849
 34
0.0
 50
90.0
100
AcDbRotatedDimension
1001
ACAD
1000
DSTYLE
1002
{
1070
    75
1070
     1
1002
}
  0
DIMENSION
  5
28FA
330
1A
100
AcDbEntity
  8
寸法
100
AcDbDimension
  2
*D80
 10
2434.415140076315
 20
9744.899787121852
 30
0.0
 11
2334.415140076313
 21
10062.04978712185
 31
0.0
 70
    32
 71
     5
 42
634.300000000001
  3
物置仕様図40
100
AcDbAlignedDimension
 13
3008.08479127592
 23
10379.19978712185
 33
0.0
 14
3008.08479127592
 24
9744.899787121852
 34
0.0
 50
90.0
100
AcDbRotatedDimension
1001
ACAD
1000
DSTYLE
1002
{
1070
    75
1070
     1
1002
}
  0
DIMENSION
  5
28FB
330
1A
100
AcDbEntity
  8
寸法
100
AcDbDimension
  2
*D81
 10
2434.415140076315
 20
10379.19978712185
 30
0.0
 11
2323.307086662579
 21
10497.69978712185
 31
0.0
 70
   160
 71
     5
 42
237.0
  3
物置仕様図40
100
AcDbAlignedDimension
 13
3018.08479127592
 23
10616.19978712185
 33
0.0
 14
3008.08479127592
 24
10379.19978712185
 34
0.0
 50
90.0
100
AcDbRotatedDimension
  0
LINE
  5
28FC
330
1A
100
AcDbEntity
  8
点線
 48
50.0
100
AcDbLine
 10
6088.084791275917
 20
2299.894328662096
 30
0.0
 11
6088.08479127592
 21
1979.894328662096
 31
0.0
  0
LINE
  5
28FD
330
1A
100
AcDbEntity
  8
点線
 48
50.0
100
AcDbLine
 10
6028.08479127592
 20
2299.894328662096
 30
0.0
 11
6028.08479127592
 21
1979.894328662096
 31
0.0
  0
LINE
  5
28FE
330
1A
100
AcDbEntity
  8
点線
 48
50.0
100
AcDbLine
 10
3288.08479127592
 20
2299.894328662096
 30
0.0
 11
3288.08479127592
 21
1979.894328662096
 31
0.0
  0
LINE
  5
28FF
330
1A
100
AcDbEntity
  8
点線
 48
50.0
100
AcDbLine
 10
3228.08479127592
 20
2299.894328662096
 30
0.0
 11
3228.08479127592
 21
1979.894328662096
 31
0.0
  0
LINE
  5
2900
330
1A
100
AcDbEntity
  8
部品1
100
AcDbLine
 10
6308.084791275922
 20
2299.894328662096
 30
0.0
 11
6308.084791275922
 21
2249.894328662096
 31
0.0
  0
LINE
  5
2901
330
1A
100
AcDbEntity
  8
部品1
100
AcDbLine
 10
3008.08479127592
 20
2299.894328662096
 30
0.0
 11
3008.08479127592
 21
2249.894328662096
 31
0.0
  0
LINE
  5
2902
330
1A
100
AcDbEntity
  8
部品1
100
AcDbLine
 10
3008.08479127592
 20
2299.894328662096
 30
0.0
 11
6308.08479127592
 21
2299.894328662096
 31
0.0
  0
LINE
  5
2903
330
1A
100
AcDbEntity
  8
部品1
100
AcDbLine
 10
4675.58479127592
 20
2609.8943286621
 30
0.0
 11
4675.58479127592
 21
2544.8943286621
 31
0.0
  0
LINE
  5
2904
330
1A
100
AcDbEntity
  8
部品1
100
AcDbLine
 10
4640.584791275919
 20
2609.8943286621
 30
0.0
 11
4640.584791275919
 21
2544.8943286621
 31
0.0
  0
LINE
  5
2905
330
1A
100
AcDbEntity
  8
部品1
100
AcDbLine
 10
6028.08479127592
 20
2649.8943286621
 30
0.0
 11
3288.08479127592
 21
2649.8943286621
 31
0.0
  0
LINE
  5
2906
330
1A
100
AcDbEntity
  8
部品1
100
AcDbLine
 10
6028.08479127592
 20
2609.8943286621
 30
0.0
 11
3288.08479127592
 21
2609.8943286621
 31
0.0
  0
LINE
  5
2907
330
1A
100
AcDbEntity
  8
部品1
100
AcDbLine
 10
6028.08479127592
 20
2979.8943286621
 30
0.0
 11
3288.08479127592
 21
2979.8943286621
 31
0.0
  0
LINE
  5
2908
330
1A
100
AcDbEntity
  8
部品1
100
AcDbLine
 10
6028.08479127592
 20
2949.8943286621
 30
0.0
 11
3288.08479127592
 21
2949.8943286621
 31
0.0
  0
LINE
  5
2909
330
1A
100
AcDbEntity
  8
部品1
100
AcDbLine
 10
6028.08479127592
 20
2544.8943286621
 30
0.0
 11
3288.08479127592
 21
2544.8943286621
 31
0.0
  0
LINE
  5
290A
330
1A
100
AcDbEntity
  8
部品1
100
AcDbLine
 10
6028.08479127592
 20
3354.894328662098
 30
0.0
 11
3288.08479127592
 21
3354.894328662098
 31
0.0
  0
LINE
  5
290B
330
1A
100
AcDbEntity
  8
部品1
100
AcDbLine
 10
12966.32755088103
 20
2299.894328662096
 30
0.0
 11
12966.32755088103
 21
2249.894328662096
 31
0.0
  0
LINE
  5
290C
330
1A
100
AcDbEntity
  8
部品1
100
AcDbLine
 10
8166.327550881034
 20
2299.894328662096
 30
0.0
 11
8166.327550881034
 21
2249.894328662096
 31
0.0
  0
LINE
  5
290D
330
1A
100
AcDbEntity
  8
点線
 48
50.0
100
AcDbLine
 10
12186.32755088103
 20
1979.894328662096
 30
0.0
 11
12246.32755088103
 21
1979.894328662096
 31
0.0
  0
LINE
  5
290E
330
1A
100
AcDbEntity
  8
点線
 48
50.0
100
AcDbLine
 10
12246.32755088103
 20
2299.894328662096
 30
0.0
 11
12246.32755088103
 21
1979.894328662096
 31
0.0
  0
LINE
  5
290F
330
1A
100
AcDbEntity
  8
点線
 48
50.0
100
AcDbLine
 10
12186.32755088103
 20
2299.894328662096
 30
0.0
 11
12186.32755088103
 21
1979.894328662096
 31
0.0
  0
LINE
  5
2910
330
1A
100
AcDbEntity
  8
点線
 48
50.0
100
AcDbLine
 10
10536.32755088103
 20
1979.894328662096
 30
0.0
 11
10596.32755088103
 21
1979.894328662096
 31
0.0
  0
LINE
  5
2911
330
1A
100
AcDbEntity
  8
点線
 48
50.0
100
AcDbLine
 10
10596.32755088103
 20
2299.894328662096
 30
0.0
 11
10596.32755088103
 21
1979.894328662096
 31
0.0
  0
LINE
  5
2912
330
1A
100
AcDbEntity
  8
点線
 48
50.0
100
AcDbLine
 10
10536.32755088103
 20
2299.894328662096
 30
0.0
 11
10536.32755088103
 21
1979.894328662096
 31
0.0
  0
LINE
  5
2913
330
1A
100
AcDbEntity
  8
部品1
100
AcDbLine
 10
8166.327550881034
 20
2299.894328662096
 30
0.0
 11
12966.32755088103
 21
2299.894328662096
 31
0.0
  0
LINE
  5
2914
330
1A
100
AcDbEntity
  8
点線
 48
50.0
100
AcDbLine
 10
8946.327550881036
 20
2299.894328662096
 30
0.0
 11
8946.327550881033
 21
1979.894328662096
 31
0.0
  0
LINE
  5
2915
330
1A
100
AcDbEntity
  8
点線
 48
50.0
100
AcDbLine
 10
8886.327550881032
 20
2299.894328662096
 30
0.0
 11
8886.327550881032
 21
1979.894328662096
 31
0.0
  0
LINE
  5
2916
330
1A
100
AcDbEntity
  8
部品1
100
AcDbLine
 10
12186.32755088103
 20
1979.894328662096
 30
0.0
 11
12246.32755088103
 21
1979.894328662096
 31
0.0
  0
LINE
  5
2917
330
1A
100
AcDbEntity
  8
部品1
100
AcDbLine
 10
10536.32755088103
 20
1979.894328662096
 30
0.0
 11
10596.32755088103
 21
1979.894328662096
 31
0.0
  0
LINE
  5
2918
330
1A
100
AcDbEntity
  8
部品1
100
AcDbLine
 10
8946.327550881033
 20
2499.894328662096
 30
0.0
 11
10536.32755088103
 21
2499.8943286621
 31
0.0
  0
LINE
  5
2919
330
1A
100
AcDbEntity
  8
細線
100
AcDbLine
 10
8946.327550881033
 20
2602.894328662096
 30
0.0
 11
10536.32755088103
 21
2602.8943286621
 31
0.0
  0
LINE
  5
291A
330
1A
100
AcDbEntity
  8
細線
100
AcDbLine
 10
8946.327550881033
 20
2614.894328662096
 30
0.0
 11
10536.32755088103
 21
2614.8943286621
 31
0.0
  0
LINE
  5
291B
330
1A
100
AcDbEntity
  8
細線
100
AcDbLine
 10
8946.327550881033
 20
2943.894328662096
 30
0.0
 11
10536.32755088103
 21
2943.8943286621
 31
0.0
  0
LINE
  5
291C
330
1A
100
AcDbEntity
  8
細線
100
AcDbLine
 10
8946.327550881033
 20
2937.894328662097
 30
0.0
 11
10536.32755088103
 21
2937.8943286621
 31
0.0
  0
LINE
  5
291D
330
1A
100
AcDbEntity
  8
部品1
100
AcDbLine
 10
8946.327550881033
 20
3399.894328662096
 30
0.0
 11
10536.32755088103
 21
3399.894328662098
 31
0.0
  0
LINE
  5
291E
330
1A
100
AcDbEntity
  8
細線
100
AcDbLine
 10
8946.327550881033
 20
3296.894328662097
 30
0.0
 11
10536.32755088103
 21
3296.894328662098
 31
0.0
  0
LINE
  5
291F
330
1A
100
AcDbEntity
  8
細線
100
AcDbLine
 10
8946.327550881033
 20
3284.894328662096
 30
0.0
 11
10536.32755088103
 21
3284.894328662098
 31
0.0
  0
LINE
  5
2920
330
1A
100
AcDbEntity
  8
部品1
100
AcDbLine
 10
8946.327550881035
 20
3982.255508802793
 30
0.0
 11
8946.327550881035
 21
2299.894328662096
 31
0.0
  0
LINE
  5
2921
330
1A
100
AcDbEntity
  8
部品1
100
AcDbLine
 10
8886.327550881032
 20
3982.255508802793
 30
0.0
 11
8886.327550881032
 21
2299.894328662096
 31
0.0
  0
LINE
  5
2922
330
1A
100
AcDbEntity
  8
部品1
100
AcDbLine
 10
10536.32755088103
 20
3883.782967136125
 30
0.0
 11
10536.32755088103
 21
2299.894328662096
 31
0.0
  0
LINE
  5
2923
330
1A
100
AcDbEntity
  8
部品1
100
AcDbLine
 10
6028.08479127592
 20
2499.8943286621
 30
0.0
 11
3288.08479127592
 21
2499.8943286621
 31
0.0
  0
LINE
  5
2924
330
1A
100
AcDbEntity
  8
部品1
100
AcDbLine
 10
6028.08479127592
 20
3399.894328662098
 30
0.0
 11
3288.08479127592
 21
3399.894328662098
 31
0.0
  0
LINE
  5
2925
330
1A
100
AcDbEntity
  8
点線
 48
50.0
100
AcDbLine
 10
8886.327550881032
 20
1979.894328662096
 30
0.0
 11
8946.327550881033
 21
1979.894328662096
 31
0.0
  0
LINE
  5
2926
330
1A
100
AcDbEntity
  8
細線
100
AcDbLine
 10
12186.32755088103
 20
2937.894328662097
 30
0.0
 11
10596.32755088103
 21
2937.8943286621
 31
0.0
  0
LINE
  5
2927
330
1A
100
AcDbEntity
  8
細線
100
AcDbLine
 10
12186.32755088103
 20
2943.894328662096
 30
0.0
 11
10596.32755088103
 21
2943.8943286621
 31
0.0
  0
LINE
  5
2928
330
1A
100
AcDbEntity
  8
細線
100
AcDbLine
 10
12186.32755088103
 20
2614.894328662096
 30
0.0
 11
10596.32755088103
 21
2614.8943286621
 31
0.0
  0
LINE
  5
2929
330
1A
100
AcDbEntity
  8
細線
100
AcDbLine
 10
12186.32755088103
 20
2602.894328662096
 30
0.0
 11
10596.32755088103
 21
2602.8943286621
 31
0.0
  0
LINE
  5
292A
330
1A
100
AcDbEntity
  8
細線
100
AcDbLine
 10
12186.32755088103
 20
3284.894328662096
 30
0.0
 11
10596.32755088103
 21
3284.894328662098
 31
0.0
  0
LINE
  5
292B
330
1A
100
AcDbEntity
  8
細線
100
AcDbLine
 10
12186.32755088103
 20
3296.894328662097
 30
0.0
 11
10596.32755088103
 21
3296.894328662098
 31
0.0
  0
LINE
  5
292C
330
1A
100
AcDbEntity
  8
部品1
100
AcDbLine
 10
12186.32755088103
 20
3399.894328662096
 30
0.0
 11
10596.32755088103
 21
3399.894328662098
 31
0.0
  0
LINE
  5
292D
330
1A
100
AcDbEntity
  8
部品1
100
AcDbLine
 10
12186.32755088103
 20
2499.894328662096
 30
0.0
 11
10596.32755088103
 21
2499.8943286621
 31
0.0
  0
LINE
  5
292E
330
1A
100
AcDbEntity
  8
部品1
100
AcDbLine
 10
10596.32755088103
 20
3883.782967136125
 30
0.0
 11
10596.32755088103
 21
2299.894328662096
 31
0.0
  0
LINE
  5
292F
330
1A
100
AcDbEntity
  8
部品1
100
AcDbLine
 10
12186.32755088103
 20
3982.255508802795
 30
0.0
 11
12186.32755088103
 21
2299.894328662096
 31
0.0
  0
LINE
  5
2930
330
1A
100
AcDbEntity
  8
部品1
100
AcDbLine
 10
12246.32755088103
 20
3982.255508802793
 30
0.0
 11
12246.32755088103
 21
2299.894328662096
 31
0.0
  0
LINE
  5
2931
330
1A
100
AcDbEntity
  8
部品1
100
AcDbLine
 10
6088.08479127592
 20
3982.255508802793
 30
0.0
 11
6088.084791275917
 21
2299.894328662096
 31
0.0
  0
LINE
  5
2932
330
1A
100
AcDbEntity
  8
部品1
100
AcDbLine
 10
6028.08479127592
 20
3982.255508802793
 30
0.0
 11
6028.08479127592
 21
2299.894328662096
 31
0.0
  0
LINE
  5
2933
330
1A
100
AcDbEntity
  8
部品1
100
AcDbLine
 10
3288.08479127592
 20
3982.255508802795
 30
0.0
 11
3288.08479127592
 21
2299.894328662096
 31
0.0
  0
LINE
  5
2934
330
1A
100
AcDbEntity
  8
部品1
100
AcDbLine
 10
3228.08479127592
 20
3982.255508802795
 30
0.0
 11
3228.08479127592
 21
2299.894328662096
 31
0.0
  0
LINE
  5
2935
330
1A
100
AcDbEntity
  8
センター
 48
10.0
100
AcDbLine
 10
6058.08479127592
 20
4332.209710363466
 30
0.0
 11
6058.08479127592
 21
1986.582976767408
 31
0.0
  0
LINE
  5
2936
330
1A
100
AcDbEntity
  8
センター
 48
10.0
100
AcDbLine
 10
3258.08479127592
 20
4332.209710363466
 30
0.0
 11
3258.08479127592
 21
1986.582976767408
 31
0.0
  0
LINE
  5
2937
330
1A
100
AcDbEntity
  8
Ｇ．Ｌ
100
AcDbLine
 10
2302.38837409934
 20
2249.894328662096
 30
0.0
 11
13943.42636519888
 21
2249.894328662096
 31
0.0
  0
ARC
  5
2938
330
1A
100
AcDbEntity
  8
部品1
100
AcDbCircle
 10
3018.08479127592
 20
10606.19978712185
 30
0.0
 40
10.0
100
AcDbArc
 50
90.0
 51
180.0
  0
ARC
  5
2939
330
1A
100
AcDbEntity
  8
部品1
100
AcDbCircle
 10
6298.08479127592
 20
5826.199787121852
 30
0.0
 40
10.0
100
AcDbArc
 50
270.0
 51
0.0
  0
LINE
  5
293A
330
1A
100
AcDbEntity
  8
点線
 48
50.0
100
AcDbLine
 10
6028.08479127592
 20
6729.999787121854
 30
0.0
 11
6028.08479127592
 21
7299.29978712185
 31
0.0
  0
LINE
  5
293B
330
1A
100
AcDbEntity
  8
点線
 48
50.0
100
AcDbLine
 10
6088.08479127592
 20
6729.999787121854
 30
0.0
 11
6088.08479127592
 21
7299.29978712185
 31
0.0
  0
LINE
  5
293C
330
1A
100
AcDbEntity
  8
点線
 48
50.0
100
AcDbLine
 10
6088.084791275917
 20
6095.699787121851
 30
0.0
 11
6088.084791275917
 21
6664.999787121852
 31
0.0
  0
LINE
  5
293D
330
1A
100
AcDbEntity
  8
点線
 48
50.0
100
AcDbLine
 10
6028.08479127592
 20
6095.699787121851
 30
0.0
 11
6028.08479127592
 21
6664.999787121852
 31
0.0
  0
LINE
  5
293E
330
1A
100
AcDbEntity
  8
点線
 48
50.0
100
AcDbLine
 10
6088.08479127592
 20
7364.299787121851
 30
0.0
 11
6088.084791275922
 21
7933.599787121856
 31
0.0
  0
LINE
  5
293F
330
1A
100
AcDbEntity
  8
点線
 48
50.0
100
AcDbLine
 10
6028.08479127592
 20
7364.299787121851
 30
0.0
 11
6028.084791275922
 21
7933.599787121856
 31
0.0
  0
LINE
  5
2940
330
1A
100
AcDbEntity
  8
点線
 48
50.0
100
AcDbLine
 10
6028.08479127592
 20
7998.599787121857
 30
0.0
 11
6028.08479127592
 21
8134.699787121853
 31
0.0
  0
LINE
  5
2941
330
1A
100
AcDbEntity
  8
点線
 48
50.0
100
AcDbLine
 10
6088.08479127592
 20
7998.599787121857
 30
0.0
 11
6088.08479127592
 21
8134.699787121853
 31
0.0
  0
LINE
  5
2942
330
1A
100
AcDbEntity
  8
部品1
100
AcDbLine
 10
5183.617443199588
 20
6095.699787121851
 30
0.0
 11
3078.08479127592
 21
6095.699787121851
 31
0.0
  0
LINE
  5
2943
330
1A
100
AcDbEntity
  8
部品1
100
AcDbLine
 10
5203.228332539525
 20
6030.699787121852
 30
0.0
 11
3078.08479127592
 21
6030.699787121852
 31
0.0
  0
LINE
  5
2944
330
1A
100
AcDbEntity
  8
部品1
100
AcDbLine
 10
5189.651562996491
 20
6075.699787121852
 30
0.0
 11
3078.08479127592
 21
6075.699787121852
 31
0.0
  0
LINE
  5
2945
330
1A
100
AcDbEntity
  8
部品1
100
AcDbLine
 10
4992.24533384077
 20
6729.999787121854
 30
0.0
 11
3078.08479127592
 21
6729.999787121851
 31
0.0
  0
LINE
  5
2946
330
1A
100
AcDbEntity
  8
部品1
100
AcDbLine
 10
5011.856223180711
 20
6664.999787121852
 30
0.0
 11
3078.08479127592
 21
6664.999787121852
 31
0.0
  0
LINE
  5
2947
330
1A
100
AcDbEntity
  8
部品1
100
AcDbLine
 10
4998.279453637677
 20
6709.999787121851
 30
0.0
 11
3078.08479127592
 21
6709.999787121851
 31
0.0
  0
LINE
  5
2948
330
1A
100
AcDbEntity
  8
部品1
100
AcDbLine
 10
4820.484113821891
 20
7299.29978712185
 30
0.0
 11
3078.08479127592
 21
7299.29978712185
 31
0.0
  0
LINE
  5
2949
330
1A
100
AcDbEntity
  8
部品1
100
AcDbLine
 10
4806.907344278855
 20
7344.299787121854
 30
0.0
 11
3078.08479127592
 21
7344.299787121852
 31
0.0
  0
LINE
  5
294A
330
1A
100
AcDbEntity
  8
部品1
100
AcDbLine
 10
4615.535234920041
 20
7978.599787121854
 30
0.0
 11
3078.08479127592
 21
7978.599787121857
 31
0.0
  0
LINE
  5
294B
330
1A
100
AcDbEntity
  8
部品1
100
AcDbLine
 10
4629.112004463073
 20
7933.599787121853
 30
0.0
 11
3078.08479127592
 21
7933.599787121856
 31
0.0
  0
LINE
  5
294C
330
1A
100
AcDbEntity
  8
部品1
100
AcDbLine
 10
3078.08479127592
 20
8181.199787121853
 30
0.0
 11
3078.08479127592
 21
5886.199787121848
 31
0.0
  0
LINE
  5
294D
330
1A
100
AcDbEntity
  8
部品1
100
AcDbLine
 10
3228.084791275922
 20
8433.799787121845
 30
0.0
 11
3228.08479127592
 21
8297.699787121851
 31
0.0
  0
LINE
  5
294E
330
1A
100
AcDbEntity
  8
部品1
100
AcDbLine
 10
3288.084791275923
 20
8433.799787121845
 30
0.0
 11
3288.08479127592
 21
8297.699787121851
 31
0.0
  0
LINE
  5
294F
330
1A
100
AcDbEntity
  8
部品1
100
AcDbLine
 10
3288.08479127592
 20
9068.099787121848
 30
0.0
 11
3288.08479127592
 21
8498.799787121848
 31
0.0
  0
LINE
  5
2950
330
1A
100
AcDbEntity
  8
部品1
100
AcDbLine
 10
3228.08479127592
 20
9068.099787121848
 30
0.0
 11
3228.08479127592
 21
8498.799787121848
 31
0.0
  0
LINE
  5
2951
330
1A
100
AcDbEntity
  8
部品1
100
AcDbLine
 10
3228.084791275922
 20
9702.39978712185
 30
0.0
 11
3228.084791275918
 21
9133.099787121851
 31
0.0
  0
LINE
  5
2952
330
1A
100
AcDbEntity
  8
部品1
100
AcDbLine
 10
3288.08479127592
 20
9702.399787121851
 30
0.0
 11
3288.08479127592
 21
9133.099787121851
 31
0.0
  0
LINE
  5
2953
330
1A
100
AcDbEntity
  8
部品1
100
AcDbLine
 10
3288.084791275918
 20
10336.69978712185
 30
0.0
 11
3288.08479127592
 21
9767.399787121851
 31
0.0
  0
LINE
  5
2954
330
1A
100
AcDbEntity
  8
部品1
100
AcDbLine
 10
3228.08479127592
 20
10336.69978712185
 30
0.0
 11
3228.08479127592
 21
9767.399787121851
 31
0.0
  0
LINE
  5
2955
330
1A
100
AcDbEntity
  8
部品1
100
AcDbLine
 10
4458.587779002562
 20
8498.799787121852
 30
0.0
 11
3078.08479127592
 21
8498.799787121845
 31
0.0
  0
LINE
  5
2956
330
1A
100
AcDbEntity
  8
部品1
100
AcDbLine
 10
4472.164548545595
 20
8453.79978712185
 30
0.0
 11
3078.08479127592
 21
8453.79978712185
 31
0.0
  0
LINE
  5
2957
330
1A
100
AcDbEntity
  8
部品1
100
AcDbLine
 10
4267.215669643743
 20
9133.099787121855
 30
0.0
 11
3078.08479127592
 21
9133.099787121851
 31
0.0
  0
LINE
  5
2958
330
1A
100
AcDbEntity
  8
部品1
100
AcDbLine
 10
4280.79243918678
 20
9088.099787121853
 30
0.0
 11
3078.084791275922
 21
9088.099787121851
 31
0.0
  0
LINE
  5
2959
330
1A
100
AcDbEntity
  8
部品1
100
AcDbLine
 10
4089.420329827962
 20
9722.399787121851
 30
0.0
 11
3078.08479127592
 21
9722.399787121851
 31
0.0
  0
LINE
  5
295A
330
1A
100
AcDbEntity
  8
部品1
100
AcDbLine
 10
4075.843560284925
 20
9767.399787121851
 30
0.0
 11
3078.08479127592
 21
9767.399787121849
 31
0.0
  0
LINE
  5
295B
330
1A
100
AcDbEntity
  8
部品1
100
AcDbLine
 10
3898.048220469146
 20
10356.69978712185
 30
0.0
 11
3078.084791275922
 21
10356.69978712185
 31
0.0
  0
LINE
  5
295C
330
1A
100
AcDbEntity
  8
部品1
100
AcDbLine
 10
3884.47145092611
 20
10401.69978712185
 30
0.0
 11
3078.084791275922
 21
10401.69978712185
 31
0.0
  0
LINE
  5
295D
330
1A
100
AcDbEntity
  8
部品1
100
AcDbLine
 10
3078.084791275922
 20
10546.19978712185
 30
0.0
 11
3078.08479127592
 21
8251.199787121853
 31
0.0
  0
LINE
  5
295E
330
1A
100
AcDbEntity
  8
部品1
100
AcDbLine
 10
3789.584917119792
 20
10716.19978712185
 30
0.0
 11
5298.114866345844
 21
5716.199787121851
 31
0.0
  0
ARC
  5
295F
330
1A
100
AcDbEntity
  8
部品1
100
AcDbCircle
 10
3018.08479127592
 20
5826.199787121852
 30
0.0
 40
10.0
100
AcDbArc
 50
180.0
 51
270.0
  0
LINE
  5
2960
330
1A
100
AcDbEntity
  8
部品1
100
AcDbLine
 10
3228.084791275922
 20
5974.699787121852
 30
0.0
 11
3288.084791275923
 21
5974.699787121852
 31
0.0
  0
LINE
  5
2961
330
1A
100
AcDbEntity
  8
部品1
100
AcDbLine
 10
3228.084791275924
 20
6030.699787121852
 30
0.0
 11
3228.084791275922
 21
5974.699787121852
 31
0.0
  0
LINE
  5
2962
330
1A
100
AcDbEntity
  8
部品1
100
AcDbLine
 10
3288.084791275926
 20
6030.699787121852
 30
0.0
 11
3288.084791275923
 21
5974.699787121852
 31
0.0
  0
LINE
  5
2963
330
1A
100
AcDbEntity
  8
部品1
100
AcDbLine
 10
3228.08479127592
 20
7299.299787121852
 30
0.0
 11
3228.08479127592
 21
6729.999787121854
 31
0.0
  0
LINE
  5
2964
330
1A
100
AcDbEntity
  8
部品1
100
AcDbLine
 10
3288.084791275918
 20
7299.299787121852
 30
0.0
 11
3288.08479127592
 21
6729.999787121854
 31
0.0
  0
LINE
  5
2965
330
1A
100
AcDbEntity
  8
部品1
100
AcDbLine
 10
3228.08479127592
 20
8134.699787121851
 30
0.0
 11
3228.084791275918
 21
7998.599787121853
 31
0.0
  0
LINE
  5
2966
330
1A
100
AcDbEntity
  8
部品1
100
AcDbLine
 10
3288.08479127592
 20
8134.699787121851
 30
0.0
 11
3288.08479127592
 21
7998.599787121853
 31
0.0
  0
LINE
  5
2967
330
1A
100
AcDbEntity
  8
部品1
100
AcDbLine
 10
3228.08479127592
 20
7933.599787121855
 30
0.0
 11
3228.08479127592
 21
7364.299787121851
 31
0.0
  0
LINE
  5
2968
330
1A
100
AcDbEntity
  8
部品1
100
AcDbLine
 10
3288.084791275918
 20
7933.599787121855
 30
0.0
 11
3288.08479127592
 21
7364.299787121851
 31
0.0
  0
LINE
  5
2969
330
1A
100
AcDbEntity
  8
部品1
100
AcDbLine
 10
3008.08479127592
 20
8216.199787121851
 30
0.0
 11
3008.08479127592
 21
5826.199787121852
 31
0.0
  0
LINE
  5
296A
330
1A
100
AcDbEntity
  8
部品1
100
AcDbLine
 10
3053.08479127592
 20
8216.199787121851
 30
0.0
 11
3053.08479127592
 21
5866.19978712185
 31
0.0
  0
LINE
  5
296B
330
1A
100
AcDbEntity
  8
部品1
100
AcDbLine
 10
4800.08479127592
 20
8062.95490270036
 30
0.0
 11
4800.08479127592
 21
8181.199787121851
 31
0.0
  0
LINE
  5
296C
330
1A
100
AcDbEntity
  8
部品1
100
AcDbLine
 10
3228.08479127592
 20
6664.999787121852
 30
0.0
 11
3228.084791275924
 21
6095.699787121851
 31
0.0
  0
LINE
  5
296D
330
1A
100
AcDbEntity
  8
部品1
100
AcDbLine
 10
3288.08479127592
 20
6664.999787121852
 30
0.0
 11
3288.084791275926
 21
6095.699787121851
 31
0.0
  0
LINE
  5
296E
330
1A
100
AcDbEntity
  8
点線
 48
50.0
100
AcDbLine
 10
6028.08479127592
 20
5974.699787121852
 30
0.0
 11
6088.08479127592
 21
5974.699787121852
 31
0.0
  0
LINE
  5
296F
330
1A
100
AcDbEntity
  8
部品1
100
AcDbLine
 10
6308.08479127592
 20
5826.199787121852
 30
0.0
 11
6308.08479127592
 21
8216.199787121851
 31
0.0
  0
LINE
  5
2970
330
1A
100
AcDbEntity
  8
部品1
100
AcDbLine
 10
6263.08479127592
 20
5866.19978712185
 30
0.0
 11
6263.08479127592
 21
8216.199787121851
 31
0.0
  0
LINE
  5
2971
330
1A
100
AcDbEntity
  8
部品1
100
AcDbLine
 10
6249.58479127592
 20
5886.199787121853
 30
0.0
 11
6249.58479127592
 21
8181.199787121853
 31
0.0
  0
LINE
  5
2972
330
1A
100
AcDbEntity
  8
部品1
100
AcDbLine
 10
6215.08479127592
 20
5886.199787121853
 30
0.0
 11
6215.08479127592
 21
8181.199787121853
 31
0.0
  0
LINE
  5
2973
330
1A
100
AcDbEntity
  8
部品1
100
AcDbLine
 10
5669.584791275919
 20
5886.199787121853
 30
0.0
 11
5669.584791275919
 21
8181.199787121853
 31
0.0
  0
LINE
  5
2974
330
1A
100
AcDbEntity
  8
部品1
100
AcDbLine
 10
5635.08479127592
 20
5886.199787121853
 30
0.0
 11
5635.084791275918
 21
8181.199787121853
 31
0.0
  0
LINE
  5
2975
330
1A
100
AcDbEntity
  8
部品1
100
AcDbLine
 10
5089.584791275922
 20
6407.369608367066
 30
0.0
 11
5089.584791275918
 21
8181.199787121853
 31
0.0
  0
LINE
  5
2976
330
1A
100
AcDbEntity
  8
部品1
100
AcDbLine
 10
5055.084791275922
 20
6521.719343411104
 30
0.0
 11
5055.08479127592
 21
8181.199787121851
 31
0.0
  0
LINE
  5
2977
330
1A
100
AcDbEntity
  8
部品1
100
AcDbLine
 10
5880.08479127592
 20
5886.199787121853
 30
0.0
 11
5880.084791275922
 21
8181.199787121853
 31
0.0
  0
LINE
  5
2978
330
1A
100
AcDbEntity
  8
部品1
100
AcDbLine
 10
5925.08479127592
 20
5886.199787121853
 30
0.0
 11
5925.08479127592
 21
8181.199787121853
 31
0.0
  0
LINE
  5
2979
330
1A
100
AcDbEntity
  8
部品1
100
AcDbLine
 10
5953.084791275919
 20
5886.199787121853
 30
0.0
 11
5953.084791275919
 21
8181.199787121853
 31
0.0
  0
LINE
  5
297A
330
1A
100
AcDbEntity
  8
部品1
100
AcDbLine
 10
5998.08479127592
 20
5886.199787121853
 30
0.0
 11
5998.08479127592
 21
8181.199787121853
 31
0.0
  0
LINE
  5
297B
330
1A
100
AcDbEntity
  8
部品1
100
AcDbLine
 10
5418.084791275919
 20
5886.199787121852
 30
0.0
 11
5418.084791275919
 21
8181.199787121853
 31
0.0
  0
LINE
  5
297C
330
1A
100
AcDbEntity
  8
部品1
100
AcDbLine
 10
5373.084791275918
 20
5886.199787121852
 30
0.0
 11
5373.084791275921
 21
8181.199787121853
 31
0.0
  0
LINE
  5
297D
330
1A
100
AcDbEntity
  8
部品1
100
AcDbLine
 10
5345.08479127592
 20
5886.199787121852
 30
0.0
 11
5345.08479127592
 21
8181.199787121853
 31
0.0
  0
LINE
  5
297E
330
1A
100
AcDbEntity
  8
部品1
100
AcDbLine
 10
5300.084791275922
 20
5886.199787121852
 30
0.0
 11
5300.08479127592
 21
8181.199787121853
 31
0.0
  0
LINE
  5
297F
330
1A
100
AcDbEntity
  8
部品1
100
AcDbLine
 10
4918.084791275918
 20
6975.803798513533
 30
0.0
 11
4918.084791275922
 21
8181.199787121853
 31
0.0
  0
LINE
  5
2980
330
1A
100
AcDbEntity
  8
部品1
100
AcDbLine
 10
4873.08479127592
 20
7124.955626831848
 30
0.0
 11
4873.08479127592
 21
8181.199787121853
 31
0.0
  0
LINE
  5
2981
330
1A
100
AcDbEntity
  8
部品1
100
AcDbLine
 10
4845.084791275926
 20
7217.761208896554
 30
0.0
 11
4845.084791275918
 21
8181.199787121851
 31
0.0
  0
LINE
  5
2982
330
1A
100
AcDbEntity
  8
部品1
100
AcDbLine
 10
4800.084791275916
 20
7366.913037214901
 30
0.0
 11
4800.08479127592
 21
8134.699787121851
 31
0.0
  0
LINE
  5
2983
330
1A
100
AcDbEntity
  8
点線
 48
50.0
100
AcDbLine
 10
6088.08479127592
 20
5974.699787121852
 30
0.0
 11
6088.08479127592
 21
6030.699787121852
 31
0.0
  0
LINE
  5
2984
330
1A
100
AcDbEntity
  8
点線
 48
50.0
100
AcDbLine
 10
6028.08479127592
 20
5974.699787121852
 30
0.0
 11
6028.08479127592
 21
6030.699787121852
 31
0.0
  0
LINE
  5
2985
330
1A
100
AcDbEntity
  8
部品1
100
AcDbLine
 10
3018.08479127592
 20
5816.199787121852
 30
0.0
 11
5477.944267361325
 21
5816.199787121852
 31
0.0
  0
LINE
  5
2986
330
1A
100
AcDbEntity
  8
部品1
100
AcDbLine
 10
6308.08479127592
 20
8216.199787121851
 30
0.0
 11
6263.084791275918
 21
8216.199787121851
 31
0.0
  0
LINE
  5
298B
330
1A
100
AcDbEntity
  8
点線
 48
50.0
100
AcDbLine
 10
5203.228332539527
 20
6030.699787121852
 30
0.0
 11
6278.084791275916
 21
6030.69978712185
 31
0.0
  0
LINE
  5
298C
330
1A
100
AcDbEntity
  8
点線
 48
50.0
100
AcDbLine
 10
5189.651562996491
 20
6075.699787121852
 30
0.0
 11
6278.084791275919
 21
6075.699787121852
 31
0.0
  0
LINE
  5
298D
330
1A
100
AcDbEntity
  8
点線
 48
50.0
100
AcDbLine
 10
5011.856223180711
 20
6664.999787121852
 30
0.0
 11
6278.084791275919
 21
6664.999787121852
 31
0.0
  0
LINE
  5
298E
330
1A
100
AcDbEntity
  8
点線
 48
50.0
100
AcDbLine
 10
4998.279453637673
 20
6709.999787121853
 30
0.0
 11
6278.084791275919
 21
6709.999787121851
 31
0.0
  0
LINE
  5
298F
330
1A
100
AcDbEntity
  8
点線
 48
50.0
100
AcDbLine
 10
4820.484113821892
 20
7299.299787121852
 30
0.0
 11
6278.084791275919
 21
7299.29978712185
 31
0.0
  0
LINE
  5
2990
330
1A
100
AcDbEntity
  8
点線
 48
50.0
100
AcDbLine
 10
4806.907344278858
 20
7344.299787121851
 30
0.0
 11
6278.084791275919
 21
7344.299787121854
 31
0.0
  0
LINE
  5
2991
330
1A
100
AcDbEntity
  8
点線
 48
50.0
100
AcDbLine
 10
4629.112004463073
 20
7933.599787121855
 30
0.0
 11
6278.084791275919
 21
7933.599787121855
 31
0.0
  0
LINE
  5
2992
330
1A
100
AcDbEntity
  8
点線
 48
50.0
100
AcDbLine
 10
4615.535234920038
 20
7978.599787121855
 30
0.0
 11
6278.084791275919
 21
7978.599787121854
 31
0.0
  0
LINE
  5
2993
330
1A
100
AcDbEntity
  8
点線
 48
50.0
100
AcDbLine
 10
6028.084791275916
 20
10401.69978712185
 30
0.0
 11
6028.084791275919
 21
10457.69978712185
 31
0.0
  0
LINE
  5
2994
330
1A
100
AcDbEntity
  8
点線
 48
50.0
100
AcDbLine
 10
6088.084791275917
 20
10401.69978712185
 30
0.0
 11
6088.084791275917
 21
10457.69978712185
 31
0.0
  0
LINE
  5
2995
330
1A
100
AcDbEntity
  8
点線
 48
50.0
100
AcDbLine
 10
6028.084791275919
 20
9767.399787121851
 30
0.0
 11
6028.084791275919
 21
10336.69978712185
 31
0.0
  0
LINE
  5
2996
330
1A
100
AcDbEntity
  8
点線
 48
50.0
100
AcDbLine
 10
6088.084791275917
 20
9767.399787121851
 30
0.0
 11
6088.084791275917
 21
10336.69978712185
 31
0.0
  0
LINE
  5
2997
330
1A
100
AcDbEntity
  8
点線
 48
50.0
100
AcDbLine
 10
6028.08479127592
 20
9133.099787121849
 30
0.0
 11
6028.084791275919
 21
9702.399787121853
 31
0.0
  0
LINE
  5
2998
330
1A
100
AcDbEntity
  8
点線
 48
50.0
100
AcDbLine
 10
6088.08479127592
 20
9133.099787121849
 30
0.0
 11
6088.084791275917
 21
9702.399787121853
 31
0.0
  0
LINE
  5
2999
330
1A
100
AcDbEntity
  8
点線
 48
50.0
100
AcDbLine
 10
6028.084791275919
 20
8498.799787121852
 30
0.0
 11
6028.084791275919
 21
9068.099787121852
 31
0.0
  0
LINE
  5
299A
330
1A
100
AcDbEntity
  8
点線
 48
50.0
100
AcDbLine
 10
6088.084791275917
 20
8498.799787121852
 30
0.0
 11
6088.084791275917
 21
9068.099787121852
 31
0.0
  0
LINE
  5
299B
330
1A
100
AcDbEntity
  8
点線
 48
50.0
100
AcDbLine
 10
6088.084791275917
 20
10457.69978712185
 30
0.0
 11
6028.084791275919
 21
10457.69978712185
 31
0.0
  0
LINE
  5
299C
330
1A
100
AcDbEntity
  8
部品1
100
AcDbLine
 10
3288.08479127592
 20
10457.69978712185
 30
0.0
 11
3228.08479127592
 21
10457.69978712185
 31
0.0
  0
LINE
  5
299D
330
1A
100
AcDbEntity
  8
点線
 48
50.0
100
AcDbLine
 10
6088.08479127592
 20
8297.699787121851
 30
0.0
 11
6088.084791275917
 21
8433.799787121849
 31
0.0
  0
LINE
  5
299E
330
1A
100
AcDbEntity
  8
点線
 48
50.0
100
AcDbLine
 10
6028.084791275919
 20
8297.699787121851
 30
0.0
 11
6028.084791275919
 21
8433.799787121849
 31
0.0
  0
LINE
  5
299F
330
1A
100
AcDbEntity
  8
部品1
100
AcDbLine
 10
3288.08479127592
 20
10457.69978712185
 30
0.0
 11
3288.08479127592
 21
10401.69978712185
 31
0.0
  0
LINE
  5
29A0
330
1A
100
AcDbEntity
  8
部品1
100
AcDbLine
 10
3228.08479127592
 20
10457.69978712185
 30
0.0
 11
3228.08479127592
 21
10401.69978712185
 31
0.0
  0
LINE
  5
29A1
330
1A
100
AcDbEntity
  8
点線
 48
50.0
100
AcDbLine
 10
6278.084791275919
 20
8498.799787121852
 30
0.0
 11
4458.587779002562
 21
8498.799787121848
 31
0.0
  0
LINE
  5
29A2
330
1A
100
AcDbEntity
  8
点線
 48
50.0
100
AcDbLine
 10
6278.084791275919
 20
8453.79978712185
 30
0.0
 11
4472.164548545597
 21
8453.79978712185
 31
0.0
  0
LINE
  5
29A3
330
1A
100
AcDbEntity
  8
点線
 48
50.0
100
AcDbLine
 10
6278.084791275919
 20
9088.09978712185
 30
0.0
 11
4280.792439186778
 21
9088.099787121851
 31
0.0
  0
LINE
  5
29A4
330
1A
100
AcDbEntity
  8
点線
 48
50.0
100
AcDbLine
 10
6278.084791275919
 20
9133.099787121851
 30
0.0
 11
4267.215669643746
 21
9133.099787121851
 31
0.0
  0
LINE
  5
29A5
330
1A
100
AcDbEntity
  8
点線
 48
50.0
100
AcDbLine
 10
6278.084791275916
 20
9722.399787121849
 30
0.0
 11
4089.420329827962
 21
9722.399787121851
 31
0.0
  0
LINE
  5
29A6
330
1A
100
AcDbEntity
  8
点線
 48
50.0
100
AcDbLine
 10
6278.084791275919
 20
9767.399787121853
 30
0.0
 11
4075.843560284927
 21
9767.399787121851
 31
0.0
  0
LINE
  5
29A7
330
1A
100
AcDbEntity
  8
点線
 48
50.0
100
AcDbLine
 10
6278.084791275919
 20
10356.69978712185
 30
0.0
 11
3898.08479127592
 21
10356.69978712185
 31
0.0
  0
LINE
  5
29A8
330
1A
100
AcDbEntity
  8
点線
 48
50.0
100
AcDbLine
 10
6278.084791275919
 20
10401.69978712185
 30
0.0
 11
3884.47145092611
 21
10401.69978712185
 31
0.0
  0
LINE
  5
29A9
330
1A
100
AcDbEntity
  8
センター
 48
10.0
100
AcDbLine
 10
6278.084791275919
 20
8476.299787121849
 30
0.0
 11
3038.084791275919
 21
8476.299787121844
 31
0.0
  0
LINE
  5
29AA
330
1A
100
AcDbEntity
  8
センター
 48
10.0
100
AcDbLine
 10
6278.084791275919
 20
9110.599787121852
 30
0.0
 11
3038.08479127592
 21
9110.599787121852
 31
0.0
  0
LINE
  5
29AB
330
1A
100
AcDbEntity
  8
センター
 48
10.0
100
AcDbLine
 10
6278.084791275916
 20
9744.89978712185
 30
0.0
 11
3038.08479127592
 21
9744.89978712185
 31
0.0
  0
LINE
  5
29AC
330
1A
100
AcDbEntity
  8
センター
 48
10.0
100
AcDbLine
 10
6278.084791275916
 20
10379.19978712185
 30
0.0
 11
3038.08479127592
 21
10379.19978712185
 31
0.0
  0
LINE
  5
29AD
330
1A
100
AcDbEntity
  8
部品1
100
AcDbLine
 10
6016.084791275922
 20
10546.19978712185
 30
0.0
 11
6016.08479127592
 21
8251.199787121853
 31
0.0
  0
LINE
  5
29AE
330
1A
100
AcDbEntity
  8
部品1
100
AcDbLine
 10
5971.084791275922
 20
10546.19978712185
 30
0.0
 11
5971.084791275922
 21
8251.199787121853
 31
0.0
  0
LINE
  5
29AF
330
1A
100
AcDbEntity
  8
部品1
100
AcDbLine
 10
5943.084791275921
 20
10546.19978712185
 30
0.0
 11
5943.08479127592
 21
8251.199787121853
 31
0.0
  0
LINE
  5
29B0
330
1A
100
AcDbEntity
  8
部品1
100
AcDbLine
 10
5898.084791275922
 20
10546.19978712185
 30
0.0
 11
5898.08479127592
 21
8251.199787121853
 31
0.0
  0
LINE
  5
29B1
330
1A
100
AcDbEntity
  8
部品1
100
AcDbLine
 10
5436.08479127592
 20
10546.19978712185
 30
0.0
 11
5436.084791275918
 21
8251.199787121853
 31
0.0
  0
LINE
  5
29B2
330
1A
100
AcDbEntity
  8
部品1
100
AcDbLine
 10
5391.08479127592
 20
10546.19978712185
 30
0.0
 11
5391.08479127592
 21
8251.199787121853
 31
0.0
  0
LINE
  5
29B3
330
1A
100
AcDbEntity
  8
部品1
100
AcDbLine
 10
5363.08479127592
 20
10546.19978712185
 30
0.0
 11
5363.08479127592
 21
8251.199787121853
 31
0.0
  0
LINE
  5
29B4
330
1A
100
AcDbEntity
  8
部品1
100
AcDbLine
 10
5318.08479127592
 20
10546.19978712185
 30
0.0
 11
5318.08479127592
 21
8251.199787121853
 31
0.0
  0
LINE
  5
29B5
330
1A
100
AcDbEntity
  8
部品1
100
AcDbLine
 10
4936.084791275922
 20
10546.19978712185
 30
0.0
 11
4936.08479127592
 21
8251.199787121853
 31
0.0
  0
LINE
  5
29B6
330
1A
100
AcDbEntity
  8
部品1
100
AcDbLine
 10
4891.084791275922
 20
10546.19978712185
 30
0.0
 11
4891.08479127592
 21
8251.199787121853
 31
0.0
  0
LINE
  5
29B7
330
1A
100
AcDbEntity
  8
部品1
100
AcDbLine
 10
4863.084791275922
 20
10546.19978712185
 30
0.0
 11
4863.08479127592
 21
8251.199787121853
 31
0.0
  0
LINE
  5
29B8
330
1A
100
AcDbEntity
  8
部品1
100
AcDbLine
 10
4818.08479127592
 20
10546.19978712185
 30
0.0
 11
4818.08479127592
 21
8251.199787121853
 31
0.0
  0
LINE
  5
29B9
330
1A
100
AcDbEntity
  8
部品1
100
AcDbLine
 10
5681.084791275918
 20
8251.199787121853
 30
0.0
 11
5681.084791275918
 21
10546.19978712185
 31
0.0
  0
LINE
  5
29BA
330
1A
100
AcDbEntity
  8
部品1
100
AcDbLine
 10
5646.584791275918
 20
8251.199787121853
 30
0.0
 11
5646.584791275918
 21
10546.19978712185
 31
0.0
  0
LINE
  5
29BB
330
1A
100
AcDbEntity
  8
部品1
100
AcDbLine
 10
5101.08479127592
 20
8251.199787121853
 30
0.0
 11
5101.08479127592
 21
10546.19978712185
 31
0.0
  0
LINE
  5
29BC
330
1A
100
AcDbEntity
  8
部品1
100
AcDbLine
 10
5066.58479127592
 20
8251.199787121853
 30
0.0
 11
5066.58479127592
 21
10546.19978712185
 31
0.0
  0
LINE
  5
29BD
330
1A
100
AcDbEntity
  8
部品1
100
AcDbLine
 10
4681.08479127592
 20
10546.19978712185
 30
0.0
 11
4681.08479127592
 21
8251.199787121853
 31
0.0
  0
LINE
  5
29BE
330
1A
100
AcDbEntity
  8
部品1
100
AcDbLine
 10
4646.584791275918
 20
10546.19978712185
 30
0.0
 11
4646.584791275921
 21
8251.199787121853
 31
0.0
  0
ARC
  5
29BF
330
1A
100
AcDbEntity
  8
部品1
100
AcDbCircle
 10
6298.084791275918
 20
10606.19978712185
 30
0.0
 40
10.0
100
AcDbArc
 50
0.0
 51
90.0
  0
LINE
  5
29C0
330
1A
100
AcDbEntity
  8
部品1
100
AcDbLine
 10
6285.584791275918
 20
10571.19978712185
 30
0.0
 11
6285.58479127592
 21
10616.19978712185
 31
0.0
  0
LINE
  5
29C1
330
1A
100
AcDbEntity
  8
部品1
100
AcDbLine
 10
3030.58479127592
 20
10616.19978712185
 30
0.0
 11
3030.58479127592
 21
10571.19978712185
 31
0.0
  0
LINE
  5
29C2
330
1A
100
AcDbEntity
  8
部品1
100
AcDbLine
 10
6263.084791275918
 20
8216.199787121851
 30
0.0
 11
6263.084791275918
 21
10566.19978712185
 31
0.0
  0
LINE
  5
29C3
330
1A
100
AcDbEntity
  8
部品1
100
AcDbLine
 10
3053.08479127592
 20
10566.19978712185
 30
0.0
 11
3053.08479127592
 21
8216.199787121851
 31
0.0
  0
LINE
  5
29C4
330
1A
100
AcDbEntity
  8
部品1
100
AcDbLine
 10
3008.08479127592
 20
8216.199787121851
 30
0.0
 11
3053.08479127592
 21
8216.199787121851
 31
0.0
  0
LINE
  5
29C5
330
1A
100
AcDbEntity
  8
部品1
100
AcDbLine
 10
6298.084791275918
 20
10616.19978712185
 30
0.0
 11
4029.755516104312
 21
10616.19978712185
 31
0.0
  0
LINE
  5
29C6
330
1A
100
AcDbEntity
  8
部品1
100
AcDbLine
 10
6308.084791275918
 20
8216.199787121851
 30
0.0
 11
6308.084791275918
 21
10606.19978712185
 31
0.0
  0
LINE
  5
29C7
330
1A
100
AcDbEntity
  8
部品1
100
AcDbLine
 10
3008.08479127592
 20
10606.19978712185
 30
0.0
 11
3008.08479127592
 21
8216.199787121851
 31
0.0
  0
VIEWPORT
  5
22
102
{ACAD_XDICTIONARY
360
2E52
102
}
330
17
100
AcDbEntity
 67
     1
  8
0
100
AcDbViewport
 10
261.5176991150442
 20
154.7242978687078
 30
0.0
 40
523.0353982300885
 41
309.4485957374157
 68
     1
 69
     1
 12
261.5176991150442
 22
154.7242978687078
 13
0.0
 23
0.0
 14
1.0
 24
1.0
 15
10.0
 25
10.0
 16
0.0
 26
0.0
 36
1.0
 17
0.0
 27
0.0
 37
0.0
 42
50.0
 43
0.0
 44
0.0
 45
309.4485957374157
 50
0.0
 51
0.0
 72
   100
 90
    32768
  1

281
     0
 71
     1
 74
     0
110
0.0
120
0.0
130
0.0
111
1.0
121
0.0
131
0.0
112
0.0
122
1.0
132
0.0
 79
     0
146
0.0
  0
ENDSEC
  0
SECTION
  2
OBJECTS
  0
DICTIONARY
  5
C
330
0
100
AcDbDictionary
281
     1
  3
ACAD_COLOR
350
20E1
  3
ACAD_GROUP
350
D
  3
ACAD_LAYOUT
350
20E2
  3
ACAD_MATERIAL
350
20E0
  3
ACAD_MLINESTYLE
350
E
  3
ACAD_PLOTSETTINGS
350
20E3
  3
ACAD_PLOTSTYLENAME
350
20DE
  3
ACDBHEADERROUNDTRIPXREC
350
2E4F
  3
AcDbVariableDictionary
350
2E4B
  0
DICTIONARY
  5
210C
330
2
100
AcDbDictionary
280
     1
281
     1
  3
ACAD_LAYERFILTERS
360
21CD
  3
ACAD_LAYERSTATES
360
210D
  0
DICTIONARY
  5
2E52
330
22
100
AcDbDictionary
280
     1
281
     1
  3
ACAD_XREC_ROUNDTRIP
360
2E53
  0
DICTIONARY
  5
20E1
102
{ACAD_REACTORS
330
C
102
}
330
C
100
AcDbDictionary
281
     1
  0
DICTIONARY
  5
D
102
{ACAD_REACTORS
330
C
102
}
330
C
100
AcDbDictionary
281
     1
  0
DICTIONARY
  5
20E2
102
{ACAD_REACTORS
330
C
102
}
330
C
100
AcDbDictionary
281
     1
  3
Model
350
20E4
  3
レイアウト1
350
20E5
  0
DICTIONARY
  5
20E0
102
{ACAD_REACTORS
330
C
102
}
330
C
100
AcDbDictionary
281
     1
  0
DICTIONARY
  5
E
102
{ACAD_REACTORS
330
C
102
}
330
C
100
AcDbDictionary
281
     1
  3
STANDARD
350
13
  0
DICTIONARY
  5
20E3
102
{ACAD_REACTORS
330
C
102
}
330
C
100
AcDbDictionary
281
     1
  0
ACDBDICTIONARYWDFLT
  5
20DE
102
{ACAD_REACTORS
330
C
102
}
330
C
100
AcDbDictionary
281
     1
  3
Normal
350
20DF
100
AcDbDictionaryWithDefault
340
20DF
  0
DICTIONARY
  5
2E4F
102
{ACAD_REACTORS
330
C
102
}
330
C
100
AcDbDictionary
281
     1
  3
COLORDICT
350
2E51
  3
MATERIALDICT
350
2E50
  0
DICTIONARY
  5
2E4B
102
{ACAD_REACTORS
330
C
102
}
330
C
100
AcDbDictionary
281
     1
  3
DIMASSOC
350
2E4C
  3
PROJECTNAME
350
2E4D
  0
DICTIONARY
  5
21CD
102
{ACAD_REACTORS
330
210C
102
}
330
210C
100
AcDbDictionary
281
     1
  0
DICTIONARY
  5
210D
102
{ACAD_REACTORS
330
210C
102
}
330
210C
100
AcDbDictionary
281
     1
  0
XRECORD
  5
2E53
102
{ACAD_REACTORS
330
2E52
102
}
330
2E52
100
AcDbXrecord
280
     1
102
SHADEPLOT
 70
     0
  0
LAYOUT
  5
20E4
102
{ACAD_XDICTIONARY
360
2E54
102
}
102
{ACAD_REACTORS
330
20E2
102
}
330
20E2
100
AcDbPlotSettings
  1

  2
iR C3880
  4
A3
  6

 40
5.873749732971191
 41
5.873747825622558
 42
5.873748779296875
 43
5.873748779296875
 44
296.9259948730469
 45
419.9466552734374
 46
0.0
 47
0.0
 48
0.0
 49
0.0
140
0.0
141
0.0
142
1.0
143
40.0
 70
 11952
 72
     1
 73
     1
 74
     2
  7
inaba.ctb
 75
    24
147
0.025
148
0.0
149
0.0
100
AcDbLayout
  1
Model
 70
     1
 71
     0
 10
0.0
 20
0.0
 11
12.0
 21
9.0
 12
0.0
 22
0.0
 32
0.0
 14
0.0
 24
0.0
 34
0.0
 15
0.0
 25
0.0
 35
0.0
146
0.0
 13
0.0
 23
0.0
 33
0.0
 16
1.0
 26
0.0
 36
0.0
 17
0.0
 27
1.0
 37
0.0
 76
     0
330
1A
  0
LAYOUT
  5
20E5
102
{ACAD_XDICTIONARY
360
2E56
102
}
102
{ACAD_REACTORS
330
20E2
102
}
330
20E2
100
AcDbPlotSettings
  1

  2
自動 EPSON LP-8400FX (TATENO 上)
  4

  6

 40
0.0
 41
0.0
 42
0.0
 43
0.0
 44
0.0
 45
0.0
 46
0.0
 47
0.0
 48
0.0
 49
0.0
140
0.0
141
0.0
142
1.0
143
1.0
 70
   688
 72
     0
 73
     0
 74
     5
  7
inaba.ctb
 75
    16
147
1.0
148
0.0
149
0.0
100
AcDbLayout
  1
レイアウト1
 70
     1
 71
     1
 10
0.0
 20
0.0
 11
420.0
 21
297.0
 12
0.0
 22
0.0
 32
0.0
 14
1.000000000000000E+20
 24
1.000000000000000E+20
 34
1.000000000000000E+20
 15
-1.000000000000000E+20
 25
-1.000000000000000E+20
 35
-1.000000000000000E+20
146
0.0
 13
0.0
 23
0.0
 33
0.0
 16
1.0
 26
0.0
 36
0.0
 17
0.0
 27
1.0
 37
0.0
 76
     0
330
17
331
22
  0
MLINESTYLE
  5
13
102
{ACAD_REACTORS
330
E
102
}
330
E
100
AcDbMlineStyle
  2
STANDARD
 70
     0
  3

 62
     0
 51
90.0
 52
90.0
 71
     2
 49
0.5
 62
   256
  6
BYLAYER
 49
-0.5
 62
   256
  6
BYLAYER
  0
ACDBPLACEHOLDER
  5
20DF
102
{ACAD_REACTORS
330
20DE
102
}
330
20DE
  0
XRECORD
  5
2E51
102
{ACAD_REACTORS
330
2E4F
102
}
330
2E4F
100
AcDbXrecord
280
     1
340
20E1
  0
XRECORD
  5
2E50
102
{ACAD_REACTORS
330
2E4F
102
}
330
2E4F
100
AcDbXrecord
280
     1
340
20E0
  0
DICTIONARYVAR
  5
2E4C
102
{ACAD_REACTORS
330
2E4B
102
}
330
2E4B
100
DictionaryVariables
280
     0
  1
1
  0
DICTIONARYVAR
  5
2E4D
102
{ACAD_REACTORS
330
2E4B
102
}
330
2E4B
100
DictionaryVariables
280
     0
  1

  0
DICTIONARY
  5
2E54
330
20E4
100
AcDbDictionary
280
     1
281
     1
  3
ACAD_XREC_ROUNDTRIP
360
2E55
  0
DICTIONARY
  5
2E56
330
20E5
100
AcDbDictionary
280
     1
281
     1
  3
ACAD_XREC_ROUNDTRIP
360
2E57
  0
XRECORD
  5
2E55
102
{ACAD_REACTORS
330
2E54
102
}
330
2E54
100
AcDbXrecord
280
     1
102
SHADEPLOT
 70
     0
102
SHADEPLOTRESLEVEL
 70
     2
102
SHADEPLOTCUSTOMDPI
 70
   300
  0
XRECORD
  5
2E57
102
{ACAD_REACTORS
330
2E56
102
}
330
2E56
100
AcDbXrecord
280
     1
102
SHADEPLOT
 70
     0
102
SHADEPLOTRESLEVEL
 70
     2
102
SHADEPLOTCUSTOMDPI
 70
   300
  0
ENDSEC
  0
EOF
