  0
SECTION
  2
HEADER
  9
$ACADVER
  1
AC1015
  9
$ACADMAINTVER
 70
    20
  9
$DWGCODEPAGE
  3
ANSI_932
  9
$INSBASE
 10
0.0
 20
0.0
 30
0.0
  9
$EXTMIN
 10
104.3976124660112
 20
-0.5436551967941341
 30
-0.000000000000013
  9
$EXTMAX
 10
12231.24392539175
 20
8557.455851277504
 30
0.0000000000000023
  9
$LIMMIN
 10
0.0
 20
0.0
  9
$LIMMAX
 10
12600.0
 20
8910.0
  9
$ORTHOMODE
 70
     0
  9
$REGENMODE
 70
     1
  9
$FILLMODE
 70
     1
  9
$QTEXTMODE
 70
     0
  9
$MIRRTEXT
 70
     1
  9
$LTSCALE
 40
7.0
  9
$ATTMODE
 70
     1
  9
$TEXTSIZE
 40
100.0
  9
$TRACEWID
 40
1.0
  9
$TEXTSTYLE
  7
STYLE3
  9
$CLAYER
  8
点線
  9
$CELTYPE
  6
BYLAYER
  9
$CECOLOR
 62
   256
  9
$CELTSCALE
 40
50.0
  9
$DISPSILH
 70
     0
  9
$DIMSCALE
 40
30.0
  9
$DIMASZ
 40
2.5
  9
$DIMEXO
 40
0.5
  9
$DIMDLI
 40
7.0
  9
$DIMRND
 40
0.0
  9
$DIMDLE
 40
0.0
  9
$DIMEXE
 40
1.5
  9
$DIMTP
 40
0.0
  9
$DIMTM
 40
0.0
  9
$DIMTXT
 40
3.0
  9
$DIMCEN
 40
0.0
  9
$DIMTSZ
 40
0.0
  9
$DIMTOL
 70
     0
  9
$DIMLIM
 70
     0
  9
$DIMTIH
 70
     0
  9
$DIMTOH
 70
     0
  9
$DIMSE1
 70
     0
  9
$DIMSE2
 70
     0
  9
$DIMTAD
 70
     3
  9
$DIMZIN
 70
     8
  9
$DIMBLK
  1

  9
$DIMASO
 70
     1
  9
$DIMSHO
 70
     1
  9
$DIMPOST
  1

  9
$DIMAPOST
  1

  9
$DIMALT
 70
     0
  9
$DIMALTD
 70
     2
  9
$DIMALTF
 40
0.0394
  9
$DIMLFAC
 40
1.0
  9
$DIMTOFL
 70
     1
  9
$DIMTVP
 40
0.0
  9
$DIMTIX
 70
     1
  9
$DIMSOXD
 70
     1
  9
$DIMSAH
 70
     1
  9
$DIMBLK1
  1
DOTSMALL
  9
$DIMBLK2
  1
DOTSMALL
  9
$DIMSTYLE
  2
INABA_S30G
  9
$DIMCLRD
 70
     0
  9
$DIMCLRE
 70
     0
  9
$DIMCLRT
 70
     7
  9
$DIMTFAC
 40
1.0
  9
$DIMGAP
 40
1.0
  9
$DIMJUST
 70
     0
  9
$DIMSD1
 70
     0
  9
$DIMSD2
 70
     0
  9
$DIMTOLJ
 70
     1
  9
$DIMTZIN
 70
     0
  9
$DIMALTZ
 70
     0
  9
$DIMALTTZ
 70
     0
  9
$DIMUPT
 70
     0
  9
$DIMDEC
 70
     1
  9
$DIMTDEC
 70
     4
  9
$DIMALTU
 70
     2
  9
$DIMALTTD
 70
     2
  9
$DIMTXSTY
  7
STYLE1
  9
$DIMAUNIT
 70
     0
  9
$DIMADEC
 70
     0
  9
$DIMALTRND
 40
0.0
  9
$DIMAZIN
 70
     0
  9
$DIMDSEP
 70
    46
  9
$DIMATFIT
 70
     3
  9
$DIMFRAC
 70
     0
  9
$DIMLDRBLK
  1

  9
$DIMLUNIT
 70
     2
  9
$DIMLWD
 70
    -2
  9
$DIMLWE
 70
    -2
  9
$DIMTMOVE
 70
     0
  9
$LUNITS
 70
     2
  9
$LUPREC
 70
     1
  9
$SKETCHINC
 40
1.0
  9
$FILLETRAD
 40
5.0
  9
$AUNITS
 70
     0
  9
$AUPREC
 70
     0
  9
$MENU
  1
acad
  9
$ELEVATION
 40
0.0
  9
$PELEVATION
 40
0.0
  9
$THICKNESS
 40
0.0
  9
$LIMCHECK
 70
     0
  9
$CHAMFERA
 40
0.0
  9
$CHAMFERB
 40
0.0
  9
$CHAMFERC
 40
0.0
  9
$CHAMFERD
 40
0.0
  9
$SKPOLY
 70
     0
  9
$TDCREATE
 40
2451074.411873148
  9
$TDUCREATE
 40
2451074.036873148
  9
$TDUPDATE
 40
2456139.560238530
  9
$TDUUPDATE
 40
2456139.185238530
  9
$TDINDWG
 40
0.1888931134
  9
$TDUSRTIMER
 40
0.1888931134
  9
$USRTIMER
 70
     1
  9
$ANGBASE
 50
0.0
  9
$ANGDIR
 70
     0
  9
$PDMODE
 70
     3
  9
$PDSIZE
 40
2.0
  9
$PLINEWID
 40
0.0
  9
$SPLFRAME
 70
     0
  9
$SPLINETYPE
 70
     6
  9
$SPLINESEGS
 70
     8
  9
$HANDSEED
  5
135D3
  9
$SURFTAB1
 70
     6
  9
$SURFTAB2
 70
     6
  9
$SURFTYPE
 70
     6
  9
$SURFU
 70
     6
  9
$SURFV
 70
     6
  9
$UCSBASE
  2

  9
$UCSNAME
  2

  9
$UCSORG
 10
0.0
 20
0.0
 30
0.0
  9
$UCSXDIR
 10
1.0
 20
0.0
 30
0.0
  9
$UCSYDIR
 10
0.0
 20
1.0
 30
0.0
  9
$UCSORTHOREF
  2

  9
$UCSORTHOVIEW
 70
     0
  9
$UCSORGTOP
 10
0.0
 20
0.0
 30
0.0
  9
$UCSORGBOTTOM
 10
0.0
 20
0.0
 30
0.0
  9
$UCSORGLEFT
 10
0.0
 20
0.0
 30
0.0
  9
$UCSORGRIGHT
 10
0.0
 20
0.0
 30
0.0
  9
$UCSORGFRONT
 10
0.0
 20
0.0
 30
0.0
  9
$UCSORGBACK
 10
0.0
 20
0.0
 30
0.0
  9
$PUCSBASE
  2

  9
$PUCSNAME
  2

  9
$PUCSORG
 10
0.0
 20
0.0
 30
0.0
  9
$PUCSXDIR
 10
1.0
 20
0.0
 30
0.0
  9
$PUCSYDIR
 10
0.0
 20
1.0
 30
0.0
  9
$PUCSORTHOREF
  2

  9
$PUCSORTHOVIEW
 70
     0
  9
$PUCSORGTOP
 10
0.0
 20
0.0
 30
0.0
  9
$PUCSORGBOTTOM
 10
0.0
 20
0.0
 30
0.0
  9
$PUCSORGLEFT
 10
0.0
 20
0.0
 30
0.0
  9
$PUCSORGRIGHT
 10
0.0
 20
0.0
 30
0.0
  9
$PUCSORGFRONT
 10
0.0
 20
0.0
 30
0.0
  9
$PUCSORGBACK
 10
0.0
 20
0.0
 30
0.0
  9
$USERI1
 70
     0
  9
$USERI2
 70
     0
  9
$USERI3
 70
     0
  9
$USERI4
 70
     0
  9
$USERI5
 70
     0
  9
$USERR1
 40
0.0
  9
$USERR2
 40
0.0
  9
$USERR3
 40
0.0
  9
$USERR4
 40
0.0
  9
$USERR5
 40
0.0
  9
$WORLDVIEW
 70
     1
  9
$SHADEDGE
 70
     3
  9
$SHADEDIF
 70
    70
  9
$TILEMODE
 70
     1
  9
$MAXACTVP
 70
    16
  9
$PINSBASE
 10
0.0
 20
0.0
 30
0.0
  9
$PLIMCHECK
 70
     0
  9
$PEXTMIN
 10
1.000000000000000E+20
 20
1.000000000000000E+20
 30
1.000000000000000E+20
  9
$PEXTMAX
 10
-1.000000000000000E+20
 20
-1.000000000000000E+20
 30
-1.000000000000000E+20
  9
$PLIMMIN
 10
0.0
 20
0.0
  9
$PLIMMAX
 10
420.0
 20
297.0
  9
$UNITMODE
 70
     0
  9
$VISRETAIN
 70
     0
  9
$PLINEGEN
 70
     0
  9
$PSLTSCALE
 70
     0
  9
$TREEDEPTH
 70
  3020
  9
$CMLSTYLE
  2
STANDARD
  9
$CMLJUST
 70
     0
  9
$CMLSCALE
 40
1.0
  9
$PROXYGRAPHICS
 70
     1
  9
$MEASUREMENT
 70
     1
  9
$CELWEIGHT
370
    -1
  9
$ENDCAPS
280
     0
  9
$JOINSTYLE
280
     0
  9
$LWDISPLAY
290
     0
  9
$INSUNITS
 70
     0
  9
$HYPERLINKBASE
  1

  9
$STYLESHEET
  1
inaba.ctb
  9
$XEDIT
290
     1
  9
$CEPSNTYPE
380
     0
  9
$PSTYLEMODE
290
     1
  9
$FINGERPRINTGUID
  2
{AA631757-D900-4651-8DD1-1B5F9FAF0A38}
  9
$VERSIONGUID
  2
{88429568-F0AF-41C5-AAE0-50273002A0B2}
  9
$EXTNAMES
290
     1
  9
$PSVPSCALE
 40
0.0
  9
$OLESTARTUP
290
     0
  0
ENDSEC
  0
SECTION
  2
CLASSES
  0
CLASS
  1
ACDBDICTIONARYWDFLT
  2
AcDbDictionaryWithDefault
  3
ObjectDBX Classes
 90
        0
280
     0
281
     0
  0
CLASS
  1
DICTIONARYVAR
  2
AcDbDictionaryVar
  3
ObjectDBX Classes
 90
        0
280
     0
281
     0
  0
CLASS
  1
ACDBPLACEHOLDER
  2
AcDbPlaceHolder
  3
ObjectDBX Classes
 90
        0
280
     0
281
     0
  0
CLASS
  1
LAYOUT
  2
AcDbLayout
  3
ObjectDBX Classes
 90
        0
280
     0
281
     0
  0
ENDSEC
  0
SECTION
  2
TABLES
  0
TABLE
  2
VPORT
  5
746D
330
0
100
AcDbSymbolTable
 70
     2
  0
VPORT
  5
135CB
330
746D
100
AcDbSymbolTableRecord
100
AcDbViewportTableRecord
  2
*Active
 70
     0
 10
0.0
 20
0.0
 11
1.0
 21
1.0
 12
6167.820768928883
 22
4278.456098040353
 13
0.0
 23
0.0
 14
10.0
 24
10.0
 15
10.0
 25
10.0
 16
0.0
 26
0.0
 36
1.0
 17
0.0
 27
0.0
 37
0.0
 40
8627.015631526509
 41
1.62314939434724
 42
50.0
 43
0.0
 44
0.0
 50
0.0
 51
0.0
 71
     0
 72
     0
 73
     1
 74
     0
 75
     0
 76
     0
 77
     0
 78
     0
281
     0
 65
     1
110
0.0
120
0.0
130
0.0
111
1.0
121
0.0
131
0.0
112
0.0
122
1.0
132
0.0
 79
     0
146
0.0
  0
ENDTAB
  0
TABLE
  2
LTYPE
  5
746A
330
0
100
AcDbSymbolTable
 70
     4
  0
LTYPE
  5
7477
330
746A
100
AcDbSymbolTableRecord
100
AcDbLinetypeTableRecord
  2
BYBLOCK
 70
     0
  3

 72
    65
 73
     0
 40
0.0
  0
LTYPE
  5
7478
330
746A
100
AcDbSymbolTableRecord
100
AcDbLinetypeTableRecord
  2
BYLAYER
 70
     0
  3

 72
    65
 73
     0
 40
0.0
  0
LTYPE
  5
7479
330
746A
100
AcDbSymbolTableRecord
100
AcDbLinetypeTableRecord
  2
CONTINUOUS
 70
     0
  3
Solid line
 72
    65
 73
     0
 40
0.0
  0
LTYPE
  5
781A
330
746A
100
AcDbSymbolTableRecord
100
AcDbLinetypeTableRecord
  2
HIDDEN
 70
     0
  3
__ __ __ __ __ __ __ __ __ __ __ __ __ __ __ __
 72
    65
 73
     2
 40
0.375
 49
0.25
 74
     0
 49
-0.125
 74
     0
  0
LTYPE
  5
781B
330
746A
100
AcDbSymbolTableRecord
100
AcDbLinetypeTableRecord
  2
PHANTOM
 70
     0
  3
______  __  __  ______  __  __  ______  __  __ 
 72
    65
 73
     6
 40
2.5
 49
1.25
 74
     0
 49
-0.25
 74
     0
 49
0.25
 74
     0
 49
-0.25
 74
     0
 49
0.25
 74
     0
 49
-0.25
 74
     0
  0
LTYPE
  5
134D0
330
746A
100
AcDbSymbolTableRecord
100
AcDbLinetypeTableRecord
  2
CENTER
 70
     0
  3
Center ____ _ ____ _ ____ _ ____ _ ____ _ ____
 72
    65
 73
     4
 40
50.8
 49
31.75
 74
     0
 49
-6.349999999999999
 74
     0
 49
6.349999999999999
 74
     0
 49
-6.349999999999999
 74
     0
  0
ENDTAB
  0
TABLE
  2
LAYER
  5
7467
102
{ACAD_XDICTIONARY
360
13406
102
}
330
0
100
AcDbSymbolTable
 70
    11
  0
LAYER
  5
7474
330
7467
100
AcDbSymbolTableRecord
100
AcDbLayerTableRecord
  2
0
 70
     0
 62
     7
  6
CONTINUOUS
370
    -3
390
133E4
  0
LAYER
  5
DEB3
330
7467
100
AcDbSymbolTableRecord
100
AcDbLayerTableRecord
  2
寸法
 70
     0
 62
     4
  6
CONTINUOUS
370
    -3
390
133E4
  0
LAYER
  5
DEB4
330
7467
100
AcDbSymbolTableRecord
100
AcDbLayerTableRecord
  2
部品1
 70
     0
 62
     7
  6
CONTINUOUS
370
    -3
390
133E4
  0
LAYER
  5
DEB5
330
7467
100
AcDbSymbolTableRecord
100
AcDbLayerTableRecord
  2
補助
 70
     0
 62
    -1
  6
CONTINUOUS
370
    -3
390
133E4
  0
LAYER
  5
DEB6
330
7467
100
AcDbSymbolTableRecord
100
AcDbLayerTableRecord
  2
文字
 70
     0
 62
     7
  6
CONTINUOUS
370
    -3
390
133E4
  0
LAYER
  5
F255
330
7467
100
AcDbSymbolTableRecord
100
AcDbLayerTableRecord
  2
DEFPOINTS
 70
     0
 62
     7
  6
CONTINUOUS
290
     0
370
    -3
390
133E4
  0
LAYER
  5
10B54
330
7467
100
AcDbSymbolTableRecord
100
AcDbLayerTableRecord
  2
仕様書枠
 70
     0
 62
   230
  6
CONTINUOUS
370
    -3
390
133E4
  0
LAYER
  5
11729
330
7467
100
AcDbSymbolTableRecord
100
AcDbLayerTableRecord
  2
Ｇ．Ｌ
 70
     0
 62
    30
  6
CONTINUOUS
370
    -3
390
133E4
  0
LAYER
  5
1173F
330
7467
100
AcDbSymbolTableRecord
100
AcDbLayerTableRecord
  2
細線
 70
     0
 62
     5
  6
CONTINUOUS
370
    -3
390
133E4
  0
LAYER
  5
11740
330
7467
100
AcDbSymbolTableRecord
100
AcDbLayerTableRecord
  2
点線
 70
     0
 62
     2
  6
HIDDEN
370
    -3
390
133E4
  0
LAYER
  5
134D1
330
7467
100
AcDbSymbolTableRecord
100
AcDbLayerTableRecord
  2
センター
 70
     0
 62
     3
  6
CENTER
370
    -3
390
133E4
  0
ENDTAB
  0
TABLE
  2
STYLE
  5
7468
330
0
100
AcDbSymbolTable
 70
     6
  0
STYLE
  5
7475
330
7468
100
AcDbSymbolTableRecord
100
AcDbTextStyleTableRecord
  2
STANDARD
 70
     0
 40
0.0
 41
1.0
 50
0.0
 71
     0
 42
4.0
  3
txt
  4
C:\AutoCAD LT\bigfont.shx
  0
STYLE
  5
763C
330
7468
100
AcDbSymbolTableRecord
100
AcDbTextStyleTableRecord
  2
MSMINCHO
 70
     0
 40
0.0
 41
1.0
 50
0.0
 71
     0
 42
1.199999999999999
  3
C:\AutoCAD LT\msminch2.TTF
  4

  0
STYLE
  5
F706
330
7468
100
AcDbSymbolTableRecord
100
AcDbTextStyleTableRecord
  2
STYLE1
 70
     0
 40
0.0
 41
1.0
 50
0.0
 71
     0
 42
4.0
  3
isocp.shx
  4
bigfont.shx
  0
STYLE
  5
103BF
330
7468
100
AcDbSymbolTableRecord
100
AcDbTextStyleTableRecord
  2
STYLE2
 70
     0
 40
0.0
 41
1.0
 50
0.0
 71
     0
 42
100.0
  3
MS PGothic.ttf
  4

1001
ACAD
1000
MS PGothic
1071
    32818
  0
STYLE
  5
10BAA
330
7468
100
AcDbSymbolTableRecord
100
AcDbTextStyleTableRecord
  2
STYLE3
 70
     0
 40
0.0
 41
1.0
 50
0.0
 71
     0
 42
100.0
  3
MS PGothic.ttf
  4

1001
ACAD
1000
MS PGothic
1071
    32818
  0
STYLE
  5
134CF
330
7468
100
AcDbSymbolTableRecord
100
AcDbTextStyleTableRecord
  2

 70
     1
 40
0.0
 41
1.0
 50
0.0
 71
     0
 42
100.0
  3
ltypeshp.shx
  4

  0
ENDTAB
  0
TABLE
  2
VIEW
  5
746B
330
0
100
AcDbSymbolTable
 70
     0
  0
ENDTAB
  0
TABLE
  2
UCS
  5
746C
330
0
100
AcDbSymbolTable
 70
     0
  0
ENDTAB
  0
TABLE
  2
APPID
  5
746E
330
0
100
AcDbSymbolTable
 70
     6
  0
APPID
  5
7476
330
746E
100
AcDbSymbolTableRecord
100
AcDbRegAppTableRecord
  2
ACAD
 70
     0
  0
APPID
  5
DEA9
330
746E
100
AcDbSymbolTableRecord
100
AcDbRegAppTableRecord
  2
CONTENTBLOCKICON
 70
     0
  0
APPID
  5
DEAA
330
746E
100
AcDbSymbolTableRecord
100
AcDbRegAppTableRecord
  2
CONTENTBLOCKDESCRIPTION
 70
     0
  0
APPID
  5
E71D
330
746E
100
AcDbSymbolTableRecord
100
AcDbRegAppTableRecord
  2
CONTENTTABDATA
 70
     0
  0
APPID
  5
E71E
330
746E
100
AcDbSymbolTableRecord
100
AcDbRegAppTableRecord
  2
CONTENTCURRENTTAB
 70
     0
  0
APPID
  5
F3BA
330
746E
100
AcDbSymbolTableRecord
100
AcDbRegAppTableRecord
  2
DRAWINGVARIABLESXDATA
 70
     0
  0
ENDTAB
  0
TABLE
  2
DIMSTYLE
  5
746F
330
0
100
AcDbSymbolTable
 70
     2
100
AcDbDimStyleTable
 71
     1
340
F71F
  0
DIMSTYLE
105
F71F
102
{ACAD_REACTORS
330
12577
330
1257A
330
12579
330
12578
330
12390
330
125D5
330
12391
330
1238F
330
1238E
330
1238D
330
123DC
330
123DD
330
123F7
330
124CD
330
12447
330
124E7
330
12394
330
12521
330
12426
330
12393
330
12522
330
12523
330
12CE2
330
131D8
330
131F9
330
13203
102
}
330
746F
100
AcDbSymbolTableRecord
100
AcDbDimStyleTableRecord
  2
INABA_S30G
 70
     0
 40
30.0
 41
2.5
 42
0.5
 43
7.0
 44
1.5
 73
     0
 74
     0
 77
     3
 78
     8
140
3.0
141
0.0
143
0.0394
147
1.0
172
     1
173
     1
174
     1
175
     1
178
     7
271
     1
340
F706
341
F770
343
F770
344
F770
  0
DIMSTYLE
105
13569
330
746F
100
AcDbSymbolTableRecord
100
AcDbDimStyleTableRecord
  2
INABA_S40G
 70
     0
 40
40.0
 41
2.5
 42
0.5
 43
7.0
 44
1.5
 73
     0
 74
     0
 77
     3
 78
     8
140
3.0
141
0.0
143
0.0394
147
1.0
172
     1
173
     1
174
     1
178
     7
271
     1
340
F706
341
F770
343
F770
344
F770
  0
ENDTAB
  0
TABLE
  2
BLOCK_RECORD
  5
7466
330
0
100
AcDbSymbolTable
 70
    29
  0
BLOCK_RECORD
  5
747D
330
7466
100
AcDbSymbolTableRecord
100
AcDbBlockTableRecord
  2
*MODEL_SPACE
340
133E9
  0
BLOCK_RECORD
  5
747A
330
7466
100
AcDbSymbolTableRecord
100
AcDbBlockTableRecord
  2
*PAPER_SPACE
340
133EA
  0
BLOCK_RECORD
  5
F770
330
7466
100
AcDbSymbolTableRecord
100
AcDbBlockTableRecord
  2
_DOTSMALL
340
0
102
{BLKREFS
331
13320
331
131BA
331
131BB
331
13199
331
1319A
331
131A4
331
131A5
331
13010
331
13011
331
131AF
331
131B0
331
13220
331
13221
331
132D0
331
132D1
331
1305D
331
1305E
331
13073
331
13074
331
1307E
331
1307F
331
1338D
331
1338E
331
130C1
331
130C2
331
130CC
331
130CD
331
130D7
331
130D8
331
130E2
331
130E3
331
131C5
331
131C6
331
130F8
331
130F9
331
13237
331
13238
331
13243
331
13244
331
13511
331
13512
331
13523
331
13524
331
13535
331
13536
331
1353E
331
1353F
331
13547
331
13548
331
1355D
331
1355E
331
1358F
331
13590
102
}
  0
BLOCK_RECORD
  5
11FE5
330
7466
100
AcDbSymbolTableRecord
100
AcDbBlockTableRecord
  2
A$C644A28E3
340
0
102
{BLKREFS
331
12430
331
124C6
102
}
  0
BLOCK_RECORD
  5
11FED
330
7466
100
AcDbSymbolTableRecord
100
AcDbBlockTableRecord
  2
A$C0EDA5930
340
0
102
{BLKREFS
331
1257C
331
125AD
331
125AE
331
125BF
331
125C3
331
125C4
331
125C5
331
125CD
331
125E2
331
125EC
331
125ED
102
}
  0
BLOCK_RECORD
  5
125F7
330
7466
100
AcDbSymbolTableRecord
100
AcDbBlockTableRecord
  2
*D3
340
0
  0
BLOCK_RECORD
  5
12602
330
7466
100
AcDbSymbolTableRecord
100
AcDbBlockTableRecord
  2
*D4
340
0
  0
BLOCK_RECORD
  5
1260D
330
7466
100
AcDbSymbolTableRecord
100
AcDbBlockTableRecord
  2
*D5
340
0
  0
BLOCK_RECORD
  5
12619
330
7466
100
AcDbSymbolTableRecord
100
AcDbBlockTableRecord
  2
*D6
340
0
  0
BLOCK_RECORD
  5
12627
330
7466
100
AcDbSymbolTableRecord
100
AcDbBlockTableRecord
  2
*D7
340
0
  0
BLOCK_RECORD
  5
12633
330
7466
100
AcDbSymbolTableRecord
100
AcDbBlockTableRecord
  2
*D8
340
0
  0
BLOCK_RECORD
  5
1263E
330
7466
100
AcDbSymbolTableRecord
100
AcDbBlockTableRecord
  2
*D9
340
0
  0
BLOCK_RECORD
  5
12656
330
7466
100
AcDbSymbolTableRecord
100
AcDbBlockTableRecord
  2
*D10
340
0
  0
BLOCK_RECORD
  5
12662
330
7466
100
AcDbSymbolTableRecord
100
AcDbBlockTableRecord
  2
*D11
340
0
  0
BLOCK_RECORD
  5
1266D
330
7466
100
AcDbSymbolTableRecord
100
AcDbBlockTableRecord
  2
*D12
340
0
  0
BLOCK_RECORD
  5
1267A
330
7466
100
AcDbSymbolTableRecord
100
AcDbBlockTableRecord
  2
*D13
340
0
  0
BLOCK_RECORD
  5
12690
330
7466
100
AcDbSymbolTableRecord
100
AcDbBlockTableRecord
  2
*D14
340
0
  0
BLOCK_RECORD
  5
1269B
330
7466
100
AcDbSymbolTableRecord
100
AcDbBlockTableRecord
  2
*D15
340
0
  0
BLOCK_RECORD
  5
126A6
330
7466
100
AcDbSymbolTableRecord
100
AcDbBlockTableRecord
  2
*D16
340
0
  0
BLOCK_RECORD
  5
126C0
330
7466
100
AcDbSymbolTableRecord
100
AcDbBlockTableRecord
  2
*D17
340
0
  0
BLOCK_RECORD
  5
126CD
330
7466
100
AcDbSymbolTableRecord
100
AcDbBlockTableRecord
  2
*D18
340
0
  0
BLOCK_RECORD
  5
126D8
330
7466
100
AcDbSymbolTableRecord
100
AcDbBlockTableRecord
  2
*D19
340
0
  0
BLOCK_RECORD
  5
126E3
330
7466
100
AcDbSymbolTableRecord
100
AcDbBlockTableRecord
  2
*D20
340
0
  0
BLOCK_RECORD
  5
126EF
330
7466
100
AcDbSymbolTableRecord
100
AcDbBlockTableRecord
  2
*D21
340
0
  0
BLOCK_RECORD
  5
126FA
330
7466
100
AcDbSymbolTableRecord
100
AcDbBlockTableRecord
  2
*D22
340
0
  0
BLOCK_RECORD
  5
12705
330
7466
100
AcDbSymbolTableRecord
100
AcDbBlockTableRecord
  2
*D23
340
0
  0
BLOCK_RECORD
  5
12711
330
7466
100
AcDbSymbolTableRecord
100
AcDbBlockTableRecord
  2
*D24
340
0
  0
BLOCK_RECORD
  5
12CD6
330
7466
100
AcDbSymbolTableRecord
100
AcDbBlockTableRecord
  2
*D25
340
0
  0
BLOCK_RECORD
  5
131CF
330
7466
100
AcDbSymbolTableRecord
100
AcDbBlockTableRecord
  2
*D26
340
0
  0
BLOCK_RECORD
  5
131ED
330
7466
100
AcDbSymbolTableRecord
100
AcDbBlockTableRecord
  2
*D27
340
0
  0
BLOCK_RECORD
  5
131FA
330
7466
100
AcDbSymbolTableRecord
100
AcDbBlockTableRecord
  2
*D28
340
0
  0
ENDTAB
  0
ENDSEC
  0
SECTION
  2
BLOCKS
  0
BLOCK
  5
7489
330
747D
100
AcDbEntity
  8
0
100
AcDbBlockBegin
  2
*MODEL_SPACE
 70
     0
 10
0.0
 20
0.0
 30
0.0
  3
*MODEL_SPACE
  1

  0
ENDBLK
  5
748A
330
747D
100
AcDbEntity
  8
0
100
AcDbBlockEnd
  0
BLOCK
  5
7487
330
747A
100
AcDbEntity
 67
     1
  8
0
100
AcDbBlockBegin
  2
*PAPER_SPACE
 70
     0
 10
0.0
 20
0.0
 30
0.0
  3
*PAPER_SPACE
  1

  0
ENDBLK
  5
7488
330
747A
100
AcDbEntity
 67
     1
  8
0
100
AcDbBlockEnd
  0
BLOCK
  5
F771
330
F770
100
AcDbEntity
  8
0
 48
50.0
100
AcDbBlockBegin
  2
_DOTSMALL
 70
     0
 10
0.0
 20
0.0
 30
0.0
  3
_DOTSMALL
  1

  0
LWPOLYLINE
  5
F772
330
F770
100
AcDbEntity
  8
0
  6
ByBlock
 62
     0
 48
50.0
100
AcDbPolyline
 90
        2
 70
     1
 43
0.5
 10
-0.0625
 20
0.0
 42
1.0
 10
0.0625
 20
0.0
 42
1.0
  0
ENDBLK
  5
F776
330
F770
100
AcDbEntity
  8
0
 48
50.0
100
AcDbBlockEnd
  0
BLOCK
  5
11FEB
330
11FE5
100
AcDbEntity
  8
0
 48
50.0
100
AcDbBlockBegin
  2
A$C644A28E3
 70
     0
 10
0.0
 20
0.0
 30
0.0
  3
A$C644A28E3
  1

  0
ARC
  5
11FE6
330
11FE5
100
AcDbEntity
  8
部品1
 48
50.0
100
AcDbCircle
 10
53.99999260842742
 20
10.0000017156417
 30
0.0
 40
10.0
100
AcDbArc
 50
270.0000000000021
 51
0.0
  0
ARC
  5
11FE7
330
11FE5
100
AcDbEntity
  8
部品1
 48
50.0
100
AcDbCircle
 10
9.999992608427419
 20
10.00000171563806
 30
0.0
 40
10.0
100
AcDbArc
 50
180.0
 51
270.0000000000009
  0
LINE
  5
11FE8
330
11FE5
100
AcDbEntity
  8
部品1
 48
50.0
100
AcDbLine
 10
9.999992608427419
 20
0.0000017156380636
 30
0.0
 11
53.99999260842742
 21
0.0000017156417016
 31
0.0
  0
LINE
  5
11FE9
330
11FE5
100
AcDbEntity
  8
部品1
 48
50.0
100
AcDbLine
 10
63.99999260842742
 20
45.00000171563806
 30
0.0
 11
63.99999260842742
 21
10.0000017156417
 31
0.0
  0
LINE
  5
11FEA
330
11FE5
100
AcDbEntity
  8
部品1
 48
50.0
100
AcDbLine
 10
-0.0000073915725807
 20
45.00000171563806
 30
0.0
 11
-0.0000073915725807
 21
10.00000171563806
 31
0.0
  0
ENDBLK
  5
11FEC
330
11FE5
100
AcDbEntity
  8
0
 48
50.0
100
AcDbBlockEnd
  0
BLOCK
  5
11FF0
330
11FED
100
AcDbEntity
  8
0
 48
50.0
100
AcDbBlockBegin
  2
A$C0EDA5930
 70
     0
 10
0.0
 20
0.0
 30
0.0
  3
A$C0EDA5930
  1

  0
LWPOLYLINE
  5
11FEE
330
11FED
100
AcDbEntity
  8
細線
 48
50.0
100
AcDbPolyline
 90
        6
 70
     1
 43
0.0
 10
2.499964582253596
 20
5.24718422294427
 10
8.999964582253596
 20
1.494407473212049
 10
15.4999645822536
 20
5.24718422294427
 10
15.4999645822536
 20
12.75273772240871
 10
8.999964582253596
 20
16.50551447214093
 10
2.499964582253596
 20
12.75273772240871
  0
CIRCLE
  5
11FEF
330
11FED
100
AcDbEntity
  8
部品1
 48
50.0
100
AcDbCircle
 10
8.999964582253596
 20
8.99996097267649
 30
0.0
 40
9.0
  0
ENDBLK
  5
11FF1
330
11FED
100
AcDbEntity
  8
0
 48
50.0
100
AcDbBlockEnd
  0
BLOCK
  5
131B6
330
125F7
100
AcDbEntity
  8
0
 48
50.0
100
AcDbBlockBegin
  2
*D3
 70
     1
 10
0.0
 20
0.0
 30
0.0
  3
*D3
  1

  0
LINE
  5
131B7
330
125F7
100
AcDbEntity
  8
0
  6
ByBlock
 62
     0
 48
50.0
100
AcDbLine
 10
8404.210680973712
 20
1758.019021987513
 30
0.0
 11
8032.693688665771
 21
1758.019021987513
 31
0.0
  0
LINE
  5
131B8
330
125F7
100
AcDbEntity
  8
0
  6
ByBlock
 62
     0
 48
50.0
100
AcDbLine
 10
9557.014730540791
 20
1488.019021987513
 30
0.0
 11
8032.693688665771
 21
1488.019021987513
 31
0.0
  0
LINE
  5
131B9
330
125F7
100
AcDbEntity
  8
0
  6
ByBlock
 62
     0
 48
50.0
100
AcDbLine
 10
8077.693688665773
 20
1758.019021987513
 30
0.0
 11
8077.693688665773
 21
1488.019021987513
 31
0.0
  0
INSERT
  5
131BA
330
125F7
100
AcDbEntity
  8
0
  6
ByBlock
 62
     0
 48
50.0
100
AcDbBlockReference
  2
_DOTSMALL
 10
8077.693688665773
 20
1758.019021987513
 30
0.0
 41
75.0
 42
75.0
 43
75.0
 50
90.0
  0
INSERT
  5
131BB
330
125F7
100
AcDbEntity
  8
0
  6
ByBlock
 62
     0
 48
50.0
100
AcDbBlockReference
  2
_DOTSMALL
 10
8077.693688665773
 20
1488.019021987513
 30
0.0
 41
75.0
 42
75.0
 43
75.0
 50
270.0
  0
MTEXT
  5
131BC
330
125F7
100
AcDbEntity
  8
0
  6
ByBlock
 62
     7
 48
50.0
100
AcDbMText
 10
8002.684830398056
 20
1623.019021987512
 30
0.0
 40
90.0
 41
0.0
 71
     5
 72
     1
  1
\A1;270
  7
STYLE1
 11
0.0000000000000001
 21
1.0
 31
0.0
 73
     1
 44
1.0
1001
ACAD
1000
MTEXTBEGIN
1070
    73
1070
     1
1070
    44
1040
1.0
1070
    74
1070
     0
1000
MTEXTEND
  0
POINT
  5
131BD
330
125F7
100
AcDbEntity
  8
DEFPOINTS
  6
ByBlock
 62
     0
 48
50.0
100
AcDbPoint
 10
8419.210680973712
 20
1758.019021987513
 30
0.0
  0
POINT
  5
131BE
330
125F7
100
AcDbEntity
  8
DEFPOINTS
  6
ByBlock
 62
     0
 48
50.0
100
AcDbPoint
 10
9572.014730540791
 20
1488.019021987513
 30
0.0
  0
POINT
  5
131BF
330
125F7
100
AcDbEntity
  8
DEFPOINTS
  6
ByBlock
 62
     0
 48
50.0
100
AcDbPoint
 10
8077.693688665773
 20
1488.019021987513
 30
0.0
  0
ENDBLK
  5
131C0
330
125F7
100
AcDbEntity
  8
0
 48
50.0
100
AcDbBlockEnd
  0
BLOCK
  5
13195
330
12602
100
AcDbEntity
  8
0
 48
50.0
100
AcDbBlockBegin
  2
*D4
 70
     1
 10
0.0
 20
0.0
 30
0.0
  3
*D4
  1

  0
LINE
  5
13196
330
12602
100
AcDbEntity
  8
0
  6
ByBlock
 62
     0
 48
50.0
100
AcDbLine
 10
9617.0147305408
 20
2008.019021987513
 30
0.0
 11
8397.519972478155
 21
2008.019021987513
 31
0.0
  0
LINE
  5
13197
330
12602
100
AcDbEntity
  8
0
  6
ByBlock
 62
     0
 48
50.0
100
AcDbLine
 10
8361.037228464029
 20
1758.019021987513
 30
0.0
 11
8487.519972478157
 21
1758.019021987513
 31
0.0
  0
LINE
  5
13198
330
12602
100
AcDbEntity
  8
0
  6
ByBlock
 62
     0
 48
50.0
100
AcDbLine
 10
8442.519972478157
 20
2008.019021987513
 30
0.0
 11
8442.519972478157
 21
1758.019021987513
 31
0.0
  0
INSERT
  5
13199
330
12602
100
AcDbEntity
  8
0
  6
ByBlock
 62
     0
 48
50.0
100
AcDbBlockReference
  2
_DOTSMALL
 10
8442.519972478157
 20
2008.019021987513
 30
0.0
 41
75.0
 42
75.0
 43
75.0
 50
90.0
  0
INSERT
  5
1319A
330
12602
100
AcDbEntity
  8
0
  6
ByBlock
 62
     0
 48
50.0
100
AcDbBlockReference
  2
_DOTSMALL
 10
8442.519972478157
 20
1758.019021987513
 30
0.0
 41
75.0
 42
75.0
 43
75.0
 50
270.0
  0
MTEXT
  5
1319B
330
12602
100
AcDbEntity
  8
0
  6
ByBlock
 62
     7
 48
50.0
100
AcDbMText
 10
8367.51111421044
 20
1883.019021987513
 30
0.0
 40
90.0
 41
0.0
 71
     5
 72
     1
  1
\A1;250
  7
STYLE1
 11
0.0000000000000001
 21
1.0
 31
0.0
 73
     1
 44
1.0
1001
ACAD
1000
MTEXTBEGIN
1070
    73
1070
     1
1070
    44
1040
1.0
1070
    74
1070
     0
1000
MTEXTEND
  0
POINT
  5
1319C
330
12602
100
AcDbEntity
  8
DEFPOINTS
  6
ByBlock
 62
     0
 48
50.0
100
AcDbPoint
 10
9632.014730540801
 20
2008.019021987513
 30
0.0
  0
POINT
  5
1319D
330
12602
100
AcDbEntity
  8
DEFPOINTS
  6
ByBlock
 62
     0
 48
50.0
100
AcDbPoint
 10
8346.037228464028
 20
1758.019021987513
 30
0.0
  0
POINT
  5
1319E
330
12602
100
AcDbEntity
  8
DEFPOINTS
  6
ByBlock
 62
     0
 48
50.0
100
AcDbPoint
 10
8442.519972478157
 20
1758.019021987513
 30
0.0
  0
ENDBLK
  5
1319F
330
12602
100
AcDbEntity
  8
0
 48
50.0
100
AcDbBlockEnd
  0
BLOCK
  5
131A0
330
1260D
100
AcDbEntity
  8
0
 48
50.0
100
AcDbBlockBegin
  2
*D5
 70
     1
 10
0.0
 20
0.0
 30
0.0
  3
*D5
  1

  0
LINE
  5
131A1
330
1260D
100
AcDbEntity
  8
0
  6
ByBlock
 62
     0
 48
50.0
100
AcDbLine
 10
9617.014730540802
 20
2908.019021987513
 30
0.0
 11
8397.519972478155
 21
2908.019021987513
 31
0.0
  0
LINE
  5
131A2
330
1260D
100
AcDbEntity
  8
0
  6
ByBlock
 62
     0
 48
50.0
100
AcDbLine
 10
9617.0147305408
 20
2008.019021987513
 30
0.0
 11
8397.519972478155
 21
2008.019021987513
 31
0.0
  0
LINE
  5
131A3
330
1260D
100
AcDbEntity
  8
0
  6
ByBlock
 62
     0
 48
50.0
100
AcDbLine
 10
8442.519972478157
 20
2908.019021987513
 30
0.0
 11
8442.519972478157
 21
2008.019021987513
 31
0.0
  0
INSERT
  5
131A4
330
1260D
100
AcDbEntity
  8
0
  6
ByBlock
 62
     0
 48
50.0
100
AcDbBlockReference
  2
_DOTSMALL
 10
8442.519972478157
 20
2908.019021987513
 30
0.0
 41
75.0
 42
75.0
 43
75.0
 50
90.0
  0
INSERT
  5
131A5
330
1260D
100
AcDbEntity
  8
0
  6
ByBlock
 62
     0
 48
50.0
100
AcDbBlockReference
  2
_DOTSMALL
 10
8442.519972478157
 20
2008.019021987513
 30
0.0
 41
75.0
 42
75.0
 43
75.0
 50
270.0
  0
MTEXT
  5
131A6
330
1260D
100
AcDbEntity
  8
0
  6
ByBlock
 62
     7
 48
50.0
100
AcDbMText
 10
8367.519972478156
 20
2458.019021987513
 30
0.0
 40
90.0
 41
0.0
 71
     5
 72
     1
  1
\A1;900
  7
STYLE1
 11
0.0000000000000001
 21
1.0
 31
0.0
 73
     1
 44
1.0
1001
ACAD
1000
MTEXTBEGIN
1070
    73
1070
     1
1070
    44
1040
1.0
1070
    74
1070
     0
1000
MTEXTEND
  0
POINT
  5
131A7
330
1260D
100
AcDbEntity
  8
DEFPOINTS
  6
ByBlock
 62
     0
 48
50.0
100
AcDbPoint
 10
9632.014730540802
 20
2908.019021987513
 30
0.0
  0
POINT
  5
131A8
330
1260D
100
AcDbEntity
  8
DEFPOINTS
  6
ByBlock
 62
     0
 48
50.0
100
AcDbPoint
 10
9632.014730540801
 20
2008.019021987513
 30
0.0
  0
POINT
  5
131A9
330
1260D
100
AcDbEntity
  8
DEFPOINTS
  6
ByBlock
 62
     0
 48
50.0
100
AcDbPoint
 10
8442.519972478157
 20
2008.019021987513
 30
0.0
  0
ENDBLK
  5
131AA
330
1260D
100
AcDbEntity
  8
0
 48
50.0
100
AcDbBlockEnd
  0
BLOCK
  5
1300B
330
12619
100
AcDbEntity
  8
0
 48
50.0
100
AcDbBlockBegin
  2
*D6
 70
     1
 10
0.0
 20
0.0
 30
0.0
  3
*D6
  1

  0
LINE
  5
1300C
330
12619
100
AcDbEntity
  8
0
  6
ByBlock
 62
     0
 48
50.0
100
AcDbLine
 10
8851.072929773875
 20
3869.063670320162
 30
0.0
 11
8414.79416475661
 21
3889.746515476537
 31
0.0
  0
LINE
  5
1300D
330
12619
100
AcDbEntity
  8
0
  6
ByBlock
 62
     0
 48
50.0
100
AcDbLine
 10
8852.584597558545
 20
3753.862849516587
 30
0.0
 11
8409.348429013084
 21
3774.875527136521
 31
0.0
  0
LINE
  5
1300E
330
12619
100
AcDbEntity
  8
0
  6
ByBlock
 62
     0
 48
50.0
100
AcDbLine
 10
8454.29794618961
 20
3772.744587062967
 30
0.0
 11
8459.743681933138
 21
3887.615575402983
 31
0.0
  0
LINE
  5
1300F
330
12619
100
AcDbEntity
  8
0
  6
ByBlock
 62
     0
 48
50.0
100
AcDbLine
 10
8459.743681933138
 20
3887.615575402983
 30
0.0
 11
8475.831234004822
 21
4226.962376915047
 31
0.0
  0
INSERT
  5
13010
330
12619
100
AcDbEntity
  8
0
  6
ByBlock
 62
     0
 48
50.0
100
AcDbBlockReference
  2
_DOTSMALL
 10
8454.29794618961
 20
3772.744587062967
 30
0.0
 41
75.0
 42
75.0
 43
75.0
 50
267.2857877838782
  0
INSERT
  5
13011
330
12619
100
AcDbEntity
  8
0
  6
ByBlock
 62
     0
 48
50.0
100
AcDbBlockReference
  2
_DOTSMALL
 10
8459.743681933138
 20
3887.615575402983
 30
0.0
 41
75.0
 42
75.0
 43
75.0
 50
87.28578778387817
  0
MTEXT
  5
13012
330
12619
100
AcDbEntity
  8
0
  6
ByBlock
 62
     7
 48
50.0
100
AcDbMText
 10
8396.423162797358
 20
4135.756404909151
 30
0.0
 40
90.0
 41
0.0
 71
     5
 72
     1
  1
\A1;115
  7
STYLE1
 11
0.0473542238567545
 21
0.9988781594783841
 31
0.0
 73
     1
 44
1.0
1001
ACAD
1000
MTEXTBEGIN
1070
    73
1070
     1
1070
    44
1040
1.0
1070
    74
1070
     0
1000
MTEXTEND
  0
POINT
  5
13013
330
12619
100
AcDbEntity
  8
DEFPOINTS
  6
ByBlock
 62
     0
 48
50.0
100
AcDbPoint
 10
8866.056102166051
 20
3868.353356962311
 30
0.0
 50
2.714212216121843
  0
POINT
  5
13014
330
12619
100
AcDbEntity
  8
DEFPOINTS
  6
ByBlock
 62
     0
 48
50.0
100
AcDbPoint
 10
8867.567769950717
 20
3753.152536158737
 30
0.0
 50
2.714212216121843
  0
POINT
  5
13015
330
12619
100
AcDbEntity
  8
DEFPOINTS
  6
ByBlock
 62
     0
 48
50.0
100
AcDbPoint
 10
8454.29794618961
 20
3772.744587062967
 30
0.0
 50
2.714212216121843
  0
ENDBLK
  5
13016
330
12619
100
AcDbEntity
  8
0
 48
50.0
100
AcDbBlockEnd
  0
BLOCK
  5
131AB
330
12627
100
AcDbEntity
  8
0
 48
50.0
100
AcDbBlockBegin
  2
*D7
 70
     1
 10
0.0
 20
0.0
 30
0.0
  3
*D7
  1

  0
LINE
  5
131AC
330
12627
100
AcDbEntity
  8
0
  6
ByBlock
 62
     0
 48
50.0
100
AcDbLine
 10
8837.014730540799
 20
3869.019021987513
 30
0.0
 11
8032.693688665771
 21
3869.019021987513
 31
0.0
  0
LINE
  5
131AD
330
12627
100
AcDbEntity
  8
0
  6
ByBlock
 62
     0
 48
50.0
100
AcDbLine
 10
8404.210680973712
 20
1758.019021987513
 30
0.0
 11
8032.693688665771
 21
1758.019021987513
 31
0.0
  0
LINE
  5
131AE
330
12627
100
AcDbEntity
  8
0
  6
ByBlock
 62
     0
 48
50.0
100
AcDbLine
 10
8077.693688665771
 20
3869.019021987513
 30
0.0
 11
8077.693688665771
 21
1758.019021987513
 31
0.0
  0
INSERT
  5
131AF
330
12627
100
AcDbEntity
  8
0
  6
ByBlock
 62
     0
 48
50.0
100
AcDbBlockReference
  2
_DOTSMALL
 10
8077.693688665771
 20
3869.019021987513
 30
0.0
 41
75.0
 42
75.0
 43
75.0
 50
90.0
  0
INSERT
  5
131B0
330
12627
100
AcDbEntity
  8
0
  6
ByBlock
 62
     0
 48
50.0
100
AcDbBlockReference
  2
_DOTSMALL
 10
8077.693688665771
 20
1758.019021987513
 30
0.0
 41
75.0
 42
75.0
 43
75.0
 50
270.0
  0
MTEXT
  5
131B1
330
12627
100
AcDbEntity
  8
0
  6
ByBlock
 62
     7
 48
50.0
100
AcDbMText
 10
8002.684830398056
 20
2813.519021987513
 30
0.0
 40
90.0
 41
0.0
 71
     5
 72
     1
  1
\A1;2111
  7
STYLE1
 11
0.0000000000000001
 21
1.0
 31
0.0
 73
     1
 44
1.0
1001
ACAD
1000
MTEXTBEGIN
1070
    73
1070
     1
1070
    44
1040
1.0
1070
    74
1070
     0
1000
MTEXTEND
  0
POINT
  5
131B2
330
12627
100
AcDbEntity
  8
DEFPOINTS
  6
ByBlock
 62
     0
 48
50.0
100
AcDbPoint
 10
8852.014730540799
 20
3869.019021987513
 30
0.0
  0
POINT
  5
131B3
330
12627
100
AcDbEntity
  8
DEFPOINTS
  6
ByBlock
 62
     0
 48
50.0
100
AcDbPoint
 10
8419.210680973712
 20
1758.019021987513
 30
0.0
  0
POINT
  5
131B4
330
12627
100
AcDbEntity
  8
DEFPOINTS
  6
ByBlock
 62
     0
 48
50.0
100
AcDbPoint
 10
8077.693688665771
 20
1758.019021987513
 30
0.0
  0
ENDBLK
  5
131B5
330
12627
100
AcDbEntity
  8
0
 48
50.0
100
AcDbBlockEnd
  0
BLOCK
  5
13022
330
12633
100
AcDbEntity
  8
0
 48
50.0
100
AcDbBlockBegin
  2
*D8
 70
     1
 10
0.0
 20
0.0
 30
0.0
  3
*D8
  1

  0
LINE
  5
13544
330
12633
100
AcDbEntity
  8
寸法
 62
     0
 48
50.0
370
    -2
100
AcDbLine
 10
738.9327756645116
 20
6088.606999670108
 30
0.0
 11
458.2608318319708
 21
6088.606999670108
 31
0.0
  0
LINE
  5
13545
330
12633
100
AcDbEntity
  8
寸法
 62
     0
 48
50.0
370
    -2
100
AcDbLine
 10
738.9327756645116
 20
5346.606999670107
 30
0.0
 11
458.2608318319707
 21
5346.606999670107
 31
0.0
  0
LINE
  5
13546
330
12633
100
AcDbEntity
  8
寸法
 62
     0
 48
50.0
370
    -2
100
AcDbLine
 10
503.2608318319709
 20
6088.606999670108
 30
0.0
 11
503.2608318319707
 21
5346.606999670107
 31
0.0
  0
INSERT
  5
13547
330
12633
100
AcDbEntity
  8
寸法
 62
     0
 48
50.0
370
    -2
100
AcDbBlockReference
  2
_DOTSMALL
 10
503.2608318319709
 20
6088.606999670108
 30
0.0
 41
75.0
 42
75.0
 43
75.0
 50
90.0
  0
INSERT
  5
13548
330
12633
100
AcDbEntity
  8
寸法
 62
     0
 48
50.0
370
    -2
100
AcDbBlockReference
  2
_DOTSMALL
 10
503.2608318319707
 20
5346.606999670107
 30
0.0
 41
75.0
 42
75.0
 43
75.0
 50
270.0
  0
MTEXT
  5
13549
330
12633
100
AcDbEntity
  8
寸法
 62
     7
 48
50.0
100
AcDbMText
 10
428.2519735642534
 20
5717.606999670108
 30
0.0
 40
90.0
 41
0.0
 71
     5
 72
     1
  1
\A1;742
  7
STYLE1
 11
0.0000000000000001
 21
1.0
 31
0.0
 73
     1
 44
1.0
1001
ACAD
1000
MTEXTBEGIN
1070
    73
1070
     1
1070
    44
1040
1.0
1070
    74
1070
     0
1000
MTEXTEND
  0
POINT
  5
1354A
330
12633
100
AcDbEntity
  8
DEFPOINTS
 62
     0
 48
50.0
100
AcDbPoint
 10
753.9327756645116
 20
6088.606999670108
 30
0.0
  0
POINT
  5
1354B
330
12633
100
AcDbEntity
  8
DEFPOINTS
 62
     0
 48
50.0
100
AcDbPoint
 10
753.9327756645116
 20
5346.606999670107
 30
0.0
  0
POINT
  5
1354C
330
12633
100
AcDbEntity
  8
DEFPOINTS
 62
     0
 48
50.0
100
AcDbPoint
 10
503.2608318319707
 20
5346.606999670107
 30
0.0
  0
ENDBLK
  5
1302C
330
12633
100
AcDbEntity
  8
0
 48
50.0
100
AcDbBlockEnd
  0
BLOCK
  5
1321C
330
1263E
100
AcDbEntity
  8
0
 48
50.0
100
AcDbBlockBegin
  2
*D9
 70
     1
 10
0.0
 20
0.0
 30
0.0
  3
*D9
  1

  0
LINE
  5
1321D
330
1263E
100
AcDbEntity
  8
0
  6
ByBlock
 62
     0
 48
50.0
100
AcDbLine
 10
6955.714829237159
 20
7809.606999670106
 30
0.0
 11
7720.014808822745
 21
7809.606999670105
 31
0.0
  0
LINE
  5
1321E
330
1263E
100
AcDbEntity
  8
0
  6
ByBlock
 62
     0
 48
50.0
100
AcDbLine
 10
6955.714829237156
 20
5109.606999670103
 30
0.0
 11
7720.014808822743
 21
5109.606999670102
 31
0.0
  0
LINE
  5
1321F
330
1263E
100
AcDbEntity
  8
0
  6
ByBlock
 62
     0
 48
50.0
100
AcDbLine
 10
7675.014808822744
 20
7809.606999670105
 30
0.0
 11
7675.014808822743
 21
5109.606999670102
 31
0.0
  0
INSERT
  5
13220
330
1263E
100
AcDbEntity
  8
0
  6
ByBlock
 62
     0
 48
50.0
100
AcDbBlockReference
  2
_DOTSMALL
 10
7675.014808822744
 20
7809.606999670105
 30
0.0
 41
75.0
 42
75.0
 43
75.0
 50
90.0
  0
INSERT
  5
13221
330
1263E
100
AcDbEntity
  8
0
  6
ByBlock
 62
     0
 48
50.0
100
AcDbBlockReference
  2
_DOTSMALL
 10
7675.014808822743
 20
5109.606999670102
 30
0.0
 41
75.0
 42
75.0
 43
75.0
 50
270.0
  0
MTEXT
  5
13222
330
1263E
100
AcDbEntity
  8
0
  6
ByBlock
 62
     7
 48
50.0
100
AcDbMText
 10
7600.005950555027
 20
6459.606999670104
 30
0.0
 40
90.0
 41
0.0
 71
     5
 72
     1
  1
\A1;2700
  7
STYLE1
 11
0.0000000000000001
 21
1.0
 31
0.0
 73
     1
 44
1.0
1001
ACAD
1000
MTEXTBEGIN
1070
    73
1070
     1
1070
    44
1040
1.0
1070
    74
1070
     0
1000
MTEXTEND
  0
POINT
  5
13223
330
1263E
100
AcDbEntity
  8
DEFPOINTS
  6
ByBlock
 62
     0
 48
50.0
100
AcDbPoint
 10
6940.714829237158
 20
7809.606999670106
 30
0.0
  0
POINT
  5
13224
330
1263E
100
AcDbEntity
  8
DEFPOINTS
  6
ByBlock
 62
     0
 48
50.0
100
AcDbPoint
 10
6940.714829237157
 20
5109.606999670103
 30
0.0
  0
POINT
  5
13225
330
1263E
100
AcDbEntity
  8
DEFPOINTS
  6
ByBlock
 62
     0
 48
50.0
100
AcDbPoint
 10
7675.014808822743
 20
5109.606999670102
 30
0.0
  0
ENDBLK
  5
13226
330
1263E
100
AcDbEntity
  8
0
 48
50.0
100
AcDbBlockEnd
  0
BLOCK
  5
132CC
330
12656
100
AcDbEntity
  8
0
 48
50.0
100
AcDbBlockBegin
  2
*D10
 70
     1
 10
0.0
 20
0.0
 30
0.0
  3
*D10
  1

  0
LINE
  5
132CD
330
12656
100
AcDbEntity
  8
0
  6
ByBlock
 62
     0
 48
50.0
100
AcDbLine
 10
823.9327756645115
 20
3883.367940889094
 30
0.0
 11
823.9327756645115
 21
4476.252285394898
 31
0.0
  0
LINE
  5
132CE
330
12656
100
AcDbEntity
  8
0
  6
ByBlock
 62
     0
 48
50.0
100
AcDbLine
 10
6923.932775664511
 20
3883.367940889097
 30
0.0
 11
6923.932775664511
 21
4476.252285394898
 31
0.0
  0
LINE
  5
132CF
330
12656
100
AcDbEntity
  8
0
  6
ByBlock
 62
     0
 48
50.0
100
AcDbLine
 10
823.9327756645115
 20
4431.252285394897
 30
0.0
 11
6923.932775664511
 21
4431.252285394897
 31
0.0
  0
INSERT
  5
132D0
330
12656
100
AcDbEntity
  8
0
  6
ByBlock
 62
     0
 48
50.0
100
AcDbBlockReference
  2
_DOTSMALL
 10
823.9327756645115
 20
4431.252285394897
 30
0.0
 41
75.0
 42
75.0
 43
75.0
 50
180.0
  0
INSERT
  5
132D1
330
12656
100
AcDbEntity
  8
0
  6
ByBlock
 62
     0
 48
50.0
100
AcDbBlockReference
  2
_DOTSMALL
 10
6923.932775664511
 20
4431.252285394897
 30
0.0
 41
75.0
 42
75.0
 43
75.0
  0
MTEXT
  5
132D2
330
12656
100
AcDbEntity
  8
0
  6
ByBlock
 62
     7
 48
50.0
100
AcDbMText
 10
3873.932775664511
 20
4506.261143662614
 30
0.0
 40
90.0
 41
0.0
 71
     5
 72
     1
  1
\A1;N X 2800 + 500
  7
STYLE1
 73
     1
 44
1.0
1001
ACAD
1000
MTEXTBEGIN
1070
    73
1070
     1
1070
    44
1040
1.0
1070
    74
1070
     0
1000
MTEXTEND
  0
POINT
  5
132D3
330
12656
100
AcDbEntity
  8
DEFPOINTS
  6
ByBlock
 62
     0
 48
50.0
100
AcDbPoint
 10
823.9327756645115
 20
3868.367940889094
 30
0.0
  0
POINT
  5
132D4
330
12656
100
AcDbEntity
  8
DEFPOINTS
  6
ByBlock
 62
     0
 48
50.0
100
AcDbPoint
 10
6923.932775664511
 20
3868.367940889097
 30
0.0
  0
POINT
  5
132D5
330
12656
100
AcDbEntity
  8
DEFPOINTS
  6
ByBlock
 62
     0
 48
50.0
100
AcDbPoint
 10
6923.932775664511
 20
4431.252285394897
 30
0.0
  0
ENDBLK
  5
132D6
330
12656
100
AcDbEntity
  8
0
 48
50.0
100
AcDbBlockEnd
  0
BLOCK
  5
132D7
330
12662
100
AcDbEntity
  8
0
 48
50.0
100
AcDbBlockBegin
  2
*D11
 70
     1
 10
0.0
 20
0.0
 30
0.0
  3
*D11
  1

  0
LINE
  5
1358C
330
12662
100
AcDbEntity
  8
寸法
 62
     0
 48
50.0
370
    -2
100
AcDbLine
 10
1073.932775664511
 20
3760.698835700877
 30
0.0
 11
1073.932775664511
 21
4157.026764312721
 31
0.0
  0
LINE
  5
1358D
330
12662
100
AcDbEntity
  8
寸法
 62
     0
 48
50.0
370
    -2
100
AcDbLine
 10
6673.932775664511
 20
3760.698835700877
 30
0.0
 11
6673.932775664511
 21
4157.026764312721
 31
0.0
  0
LINE
  5
1358E
330
12662
100
AcDbEntity
  8
寸法
 62
     0
 48
50.0
370
    -2
100
AcDbLine
 10
1073.932775664511
 20
4112.026764312722
 30
0.0
 11
6673.932775664511
 21
4112.026764312722
 31
0.0
  0
INSERT
  5
1358F
330
12662
100
AcDbEntity
  8
寸法
 62
     0
 48
50.0
370
    -2
100
AcDbBlockReference
  2
_DOTSMALL
 10
1073.932775664511
 20
4112.026764312722
 30
0.0
 41
75.0
 42
75.0
 43
75.0
 50
180.0
  0
INSERT
  5
13590
330
12662
100
AcDbEntity
  8
寸法
 62
     0
 48
50.0
370
    -2
100
AcDbBlockReference
  2
_DOTSMALL
 10
6673.932775664511
 20
4112.026764312722
 30
0.0
 41
75.0
 42
75.0
 43
75.0
  0
MTEXT
  5
13591
330
12662
100
AcDbEntity
  8
寸法
 62
     7
 48
50.0
100
AcDbMText
 10
3873.932775664511
 20
4187.035622580437
 30
0.0
 40
90.0
 41
0.0
 71
     5
 72
     1
  1
\A1;N X 2800
  7
STYLE1
 73
     1
 44
1.0
1001
ACAD
1000
MTEXTBEGIN
1070
    73
1070
     1
1070
    44
1040
1.0
1070
    74
1070
     0
1000
MTEXTEND
  0
POINT
  5
13592
330
12662
100
AcDbEntity
  8
DEFPOINTS
 62
     0
 48
50.0
100
AcDbPoint
 10
1073.932775664511
 20
3745.698835700877
 30
0.0
  0
POINT
  5
13593
330
12662
100
AcDbEntity
  8
DEFPOINTS
 62
     0
 48
50.0
100
AcDbPoint
 10
6673.932775664511
 20
3745.698835700877
 30
0.0
  0
POINT
  5
13594
330
12662
100
AcDbEntity
  8
DEFPOINTS
 62
     0
 48
50.0
100
AcDbPoint
 10
6673.932775664511
 20
4112.026764312722
 30
0.0
  0
ENDBLK
  5
132E1
330
12662
100
AcDbEntity
  8
0
 48
50.0
100
AcDbBlockEnd
  0
BLOCK
  5
13059
330
1266D
100
AcDbEntity
  8
0
 48
50.0
100
AcDbBlockBegin
  2
*D12
 70
     1
 10
0.0
 20
0.0
 30
0.0
  3
*D12
  1

  0
LINE
  5
1305A
330
1266D
100
AcDbEntity
  8
0
  6
ByBlock
 62
     0
 48
50.0
100
AcDbLine
 10
823.9327756645115
 20
3883.367940889094
 30
0.0
 11
823.9327756645115
 21
4157.026764312721
 31
0.0
  0
LINE
  5
1305B
330
1266D
100
AcDbEntity
  8
0
  6
ByBlock
 62
     0
 48
50.0
100
AcDbLine
 10
1073.932775664511
 20
3760.698835700877
 30
0.0
 11
1073.932775664511
 21
4157.026764312721
 31
0.0
  0
LINE
  5
1305C
330
1266D
100
AcDbEntity
  8
0
  6
ByBlock
 62
     0
 48
50.0
100
AcDbLine
 10
823.9327756645115
 20
4112.026764312722
 30
0.0
 11
1073.932775664511
 21
4112.026764312722
 31
0.0
  0
INSERT
  5
1305D
330
1266D
100
AcDbEntity
  8
0
  6
ByBlock
 62
     0
 48
50.0
100
AcDbBlockReference
  2
_DOTSMALL
 10
823.9327756645115
 20
4112.026764312722
 30
0.0
 41
75.0
 42
75.0
 43
75.0
 50
180.0
  0
INSERT
  5
1305E
330
1266D
100
AcDbEntity
  8
0
  6
ByBlock
 62
     0
 48
50.0
100
AcDbBlockReference
  2
_DOTSMALL
 10
1073.932775664511
 20
4112.026764312722
 30
0.0
 41
75.0
 42
75.0
 43
75.0
  0
MTEXT
  5
1305F
330
1266D
100
AcDbEntity
  8
0
  6
ByBlock
 62
     7
 48
50.0
100
AcDbMText
 10
948.9327756645115
 20
4187.035622580437
 30
0.0
 40
90.0
 41
0.0
 71
     5
 72
     1
  1
\A1;250
  7
STYLE1
 73
     1
 44
1.0
1001
ACAD
1000
MTEXTBEGIN
1070
    73
1070
     1
1070
    44
1040
1.0
1070
    74
1070
     0
1000
MTEXTEND
  0
POINT
  5
13060
330
1266D
100
AcDbEntity
  8
DEFPOINTS
  6
ByBlock
 62
     0
 48
50.0
100
AcDbPoint
 10
823.9327756645115
 20
3868.367940889094
 30
0.0
  0
POINT
  5
13061
330
1266D
100
AcDbEntity
  8
DEFPOINTS
  6
ByBlock
 62
     0
 48
50.0
100
AcDbPoint
 10
1073.932775664511
 20
3745.698835700877
 30
0.0
  0
POINT
  5
13062
330
1266D
100
AcDbEntity
  8
DEFPOINTS
  6
ByBlock
 62
     0
 48
50.0
100
AcDbPoint
 10
1073.932775664511
 20
4112.026764312722
 30
0.0
  0
ENDBLK
  5
13063
330
1266D
100
AcDbEntity
  8
0
 48
50.0
100
AcDbBlockEnd
  0
BLOCK
  5
13064
330
1267A
100
AcDbEntity
  8
0
 48
50.0
100
AcDbBlockBegin
  2
*D13
 70
     1
 10
0.0
 20
0.0
 30
0.0
  3
*D13
  1

  0
LINE
  5
1353B
330
1267A
100
AcDbEntity
  8
寸法
 62
     0
 48
50.0
370
    -2
100
AcDbLine
 10
738.9327756645116
 20
5346.606999670107
 30
0.0
 11
458.2608318319707
 21
5346.606999670107
 31
0.0
  0
LINE
  5
1353C
330
1267A
100
AcDbEntity
  8
寸法
 62
     0
 48
50.0
370
    -2
100
AcDbLine
 10
823.9327756645115
 20
5109.606999670109
 30
0.0
 11
458.2608318319707
 21
5109.606999670109
 31
0.0
  0
LINE
  5
1353D
330
1267A
100
AcDbEntity
  8
寸法
 62
     0
 48
50.0
370
    -2
100
AcDbLine
 10
503.2608318319707
 20
5346.606999670107
 30
0.0
 11
503.2608318319707
 21
5109.606999670109
 31
0.0
  0
INSERT
  5
1353E
330
1267A
100
AcDbEntity
  8
寸法
 62
     0
 48
50.0
370
    -2
100
AcDbBlockReference
  2
_DOTSMALL
 10
503.2608318319707
 20
5346.606999670107
 30
0.0
 41
75.0
 42
75.0
 43
75.0
 50
90.0
  0
INSERT
  5
1353F
330
1267A
100
AcDbEntity
  8
寸法
 62
     0
 48
50.0
370
    -2
100
AcDbBlockReference
  2
_DOTSMALL
 10
503.2608318319707
 20
5109.606999670109
 30
0.0
 41
75.0
 42
75.0
 43
75.0
 50
270.0
  0
MTEXT
  5
13540
330
1267A
100
AcDbEntity
  8
寸法
 62
     7
 48
50.0
100
AcDbMText
 10
428.2519735642534
 20
5228.106999670108
 30
0.0
 40
90.0
 41
0.0
 71
     5
 72
     1
  1
\A1;237
  7
STYLE1
 11
0.0000000000000001
 21
1.0
 31
0.0
 73
     1
 44
1.0
1001
ACAD
1000
MTEXTBEGIN
1070
    73
1070
     1
1070
    44
1040
1.0
1070
    74
1070
     0
1000
MTEXTEND
  0
POINT
  5
13541
330
1267A
100
AcDbEntity
  8
DEFPOINTS
 62
     0
 48
50.0
100
AcDbPoint
 10
753.9327756645116
 20
5346.606999670107
 30
0.0
  0
POINT
  5
13542
330
1267A
100
AcDbEntity
  8
DEFPOINTS
 62
     0
 48
50.0
100
AcDbPoint
 10
838.9327756645116
 20
5109.606999670109
 30
0.0
  0
POINT
  5
13543
330
1267A
100
AcDbEntity
  8
DEFPOINTS
 62
     0
 48
50.0
100
AcDbPoint
 10
503.2608318319707
 20
5109.606999670109
 30
0.0
  0
ENDBLK
  5
1306E
330
1267A
100
AcDbEntity
  8
0
 48
50.0
100
AcDbBlockEnd
  0
BLOCK
  5
1306F
330
12690
100
AcDbEntity
  8
0
 48
50.0
100
AcDbBlockBegin
  2
*D14
 70
     1
 10
0.0
 20
0.0
 30
0.0
  3
*D14
  1

  0
LINE
  5
13070
330
12690
100
AcDbEntity
  8
0
  6
ByBlock
 62
     0
 48
50.0
100
AcDbLine
 10
3873.932775664503
 20
1473.019021987513
 30
0.0
 11
3873.932775664503
 21
1282.19399530658
 31
0.0
  0
LINE
  5
13071
330
12690
100
AcDbEntity
  8
0
  6
ByBlock
 62
     0
 48
50.0
100
AcDbLine
 10
6673.932775664503
 20
1473.019021987513
 30
0.0
 11
6673.932775664503
 21
1282.19399530658
 31
0.0
  0
LINE
  5
13072
330
12690
100
AcDbEntity
  8
0
  6
ByBlock
 62
     0
 48
50.0
100
AcDbLine
 10
3873.932775664503
 20
1327.19399530658
 30
0.0
 11
6673.932775664503
 21
1327.19399530658
 31
0.0
  0
INSERT
  5
13073
330
12690
100
AcDbEntity
  8
0
  6
ByBlock
 62
     0
 48
50.0
100
AcDbBlockReference
  2
_DOTSMALL
 10
3873.932775664503
 20
1327.19399530658
 30
0.0
 41
75.0
 42
75.0
 43
75.0
 50
180.0
  0
INSERT
  5
13074
330
12690
100
AcDbEntity
  8
0
  6
ByBlock
 62
     0
 48
50.0
100
AcDbBlockReference
  2
_DOTSMALL
 10
6673.932775664503
 20
1327.19399530658
 30
0.0
 41
75.0
 42
75.0
 43
75.0
  0
MTEXT
  5
13075
330
12690
100
AcDbEntity
  8
0
  6
ByBlock
 62
     7
 48
50.0
100
AcDbMText
 10
5273.932775664503
 20
1402.202853574297
 30
0.0
 40
90.0
 41
0.0
 71
     5
 72
     1
  1
\A1;2800
  7
STYLE1
 73
     1
 44
1.0
1001
ACAD
1000
MTEXTBEGIN
1070
    73
1070
     1
1070
    44
1040
1.0
1070
    74
1070
     0
1000
MTEXTEND
  0
POINT
  5
13076
330
12690
100
AcDbEntity
  8
DEFPOINTS
  6
ByBlock
 62
     0
 48
50.0
100
AcDbPoint
 10
3873.932775664503
 20
1488.019021987513
 30
0.0
  0
POINT
  5
13077
330
12690
100
AcDbEntity
  8
DEFPOINTS
  6
ByBlock
 62
     0
 48
50.0
100
AcDbPoint
 10
6673.932775664503
 20
1488.019021987513
 30
0.0
  0
POINT
  5
13078
330
12690
100
AcDbEntity
  8
DEFPOINTS
  6
ByBlock
 62
     0
 48
50.0
100
AcDbPoint
 10
6673.932775664503
 20
1327.19399530658
 30
0.0
  0
ENDBLK
  5
13079
330
12690
100
AcDbEntity
  8
0
 48
50.0
100
AcDbBlockEnd
  0
BLOCK
  5
1307A
330
1269B
100
AcDbEntity
  8
0
 48
50.0
100
AcDbBlockBegin
  2
*D15
 70
     1
 10
0.0
 20
0.0
 30
0.0
  3
*D15
  1

  0
LINE
  5
1307B
330
1269B
100
AcDbEntity
  8
0
  6
ByBlock
 62
     0
 48
50.0
100
AcDbLine
 10
6673.932775664511
 20
3760.698835700877
 30
0.0
 11
6673.932775664511
 21
4157.026764312721
 31
0.0
  0
LINE
  5
1307C
330
1269B
100
AcDbEntity
  8
0
  6
ByBlock
 62
     0
 48
50.0
100
AcDbLine
 10
6923.932775664511
 20
3883.367940889097
 30
0.0
 11
6923.932775664511
 21
4157.026764312721
 31
0.0
  0
LINE
  5
1307D
330
1269B
100
AcDbEntity
  8
0
  6
ByBlock
 62
     0
 48
50.0
100
AcDbLine
 10
6673.932775664511
 20
4112.026764312722
 30
0.0
 11
6923.932775664511
 21
4112.026764312722
 31
0.0
  0
INSERT
  5
1307E
330
1269B
100
AcDbEntity
  8
0
  6
ByBlock
 62
     0
 48
50.0
100
AcDbBlockReference
  2
_DOTSMALL
 10
6673.932775664511
 20
4112.026764312722
 30
0.0
 41
75.0
 42
75.0
 43
75.0
 50
180.0
  0
INSERT
  5
1307F
330
1269B
100
AcDbEntity
  8
0
  6
ByBlock
 62
     0
 48
50.0
100
AcDbBlockReference
  2
_DOTSMALL
 10
6923.932775664511
 20
4112.026764312722
 30
0.0
 41
75.0
 42
75.0
 43
75.0
  0
MTEXT
  5
13080
330
1269B
100
AcDbEntity
  8
0
  6
ByBlock
 62
     7
 48
50.0
100
AcDbMText
 10
6798.932775664511
 20
4187.035622580437
 30
0.0
 40
90.0
 41
0.0
 71
     5
 72
     1
  1
\A1;250
  7
STYLE1
 73
     1
 44
1.0
1001
ACAD
1000
MTEXTBEGIN
1070
    73
1070
     1
1070
    44
1040
1.0
1070
    74
1070
     0
1000
MTEXTEND
  0
POINT
  5
13081
330
1269B
100
AcDbEntity
  8
DEFPOINTS
  6
ByBlock
 62
     0
 48
50.0
100
AcDbPoint
 10
6673.932775664511
 20
3745.698835700877
 30
0.0
  0
POINT
  5
13082
330
1269B
100
AcDbEntity
  8
DEFPOINTS
  6
ByBlock
 62
     0
 48
50.0
100
AcDbPoint
 10
6923.932775664511
 20
3868.367940889097
 30
0.0
  0
POINT
  5
13083
330
1269B
100
AcDbEntity
  8
DEFPOINTS
  6
ByBlock
 62
     0
 48
50.0
100
AcDbPoint
 10
6923.932775664511
 20
4112.026764312722
 30
0.0
  0
ENDBLK
  5
13084
330
1269B
100
AcDbEntity
  8
0
 48
50.0
100
AcDbBlockEnd
  0
BLOCK
  5
13387
330
126A6
100
AcDbEntity
  8
0
 48
50.0
100
AcDbBlockBegin
  2
*D16
 70
     1
 10
0.0
 20
0.0
 30
0.0
  3
*D16
  1

  0
LINE
  5
13388
330
126A6
100
AcDbEntity
  8
0
  6
ByBlock
 62
     0
 48
50.0
100
AcDbLine
 10
6878.932775664498
 20
1808.019021987511
 30
0.0
 11
7083.665956742084
 21
1808.019021987511
 31
0.0
  0
LINE
  5
13389
330
126A6
100
AcDbEntity
  8
0
  6
ByBlock
 62
     0
 48
50.0
100
AcDbLine
 10
6888.932775664503
 20
1758.019021987513
 30
0.0
 11
7083.665956742084
 21
1758.019021987513
 31
0.0
  0
LINE
  5
1338A
330
126A6
100
AcDbEntity
  8
0
  6
ByBlock
 62
     0
 48
50.0
100
AcDbLine
 10
7038.665956742083
 20
1758.019021987513
 30
0.0
 11
7038.665956742083
 21
1683.019021987513
 31
0.0
  0
LINE
  5
1338B
330
126A6
100
AcDbEntity
  8
0
  6
ByBlock
 62
     0
 48
50.0
100
AcDbLine
 10
7038.665956742083
 20
1808.019021987511
 30
0.0
 11
7038.665956742083
 21
2117.089888129243
 31
0.0
  0
LINE
  5
1338C
330
126A6
100
AcDbEntity
  8
0
  6
ByBlock
 62
     0
 48
50.0
100
AcDbLine
 10
7038.665956742083
 20
1758.019021987513
 30
0.0
 11
7038.665956742083
 21
1808.019021987511
 31
0.0
  0
INSERT
  5
1338D
330
126A6
100
AcDbEntity
  8
0
  6
ByBlock
 62
     0
 48
50.0
100
AcDbBlockReference
  2
_DOTSMALL
 10
7038.665956742083
 20
1758.019021987513
 30
0.0
 41
75.0
 42
75.0
 43
75.0
 50
90.0
  0
INSERT
  5
1338E
330
126A6
100
AcDbEntity
  8
0
  6
ByBlock
 62
     0
 48
50.0
100
AcDbBlockReference
  2
_DOTSMALL
 10
7038.665956742083
 20
1808.019021987511
 30
0.0
 41
75.0
 42
75.0
 43
75.0
 50
270.0
  0
MTEXT
  5
1338F
330
126A6
100
AcDbEntity
  8
0
  6
ByBlock
 62
     7
 48
50.0
100
AcDbMText
 10
6963.665956742083
 20
2037.554455058377
 30
0.0
 40
90.0
 41
0.0
 71
     5
 72
     1
  1
\A1;50
  7
STYLE1
 11
0.0000000000000001
 21
1.0
 31
0.0
 73
     1
 44
1.0
1001
ACAD
1000
MTEXTBEGIN
1070
    73
1070
     1
1070
    44
1040
1.0
1070
    74
1070
     0
1000
MTEXTEND
  0
POINT
  5
13390
330
126A6
100
AcDbEntity
  8
DEFPOINTS
  6
ByBlock
 62
     0
 48
50.0
100
AcDbPoint
 10
6863.932775664498
 20
1808.019021987511
 30
0.0
  0
POINT
  5
13391
330
126A6
100
AcDbEntity
  8
DEFPOINTS
  6
ByBlock
 62
     0
 48
50.0
100
AcDbPoint
 10
6873.932775664504
 20
1758.019021987513
 30
0.0
  0
POINT
  5
13392
330
126A6
100
AcDbEntity
  8
DEFPOINTS
  6
ByBlock
 62
     0
 48
50.0
100
AcDbPoint
 10
7038.665956742083
 20
1758.019021987513
 30
0.0
  0
ENDBLK
  5
13393
330
126A6
100
AcDbEntity
  8
0
 48
50.0
100
AcDbBlockEnd
  0
BLOCK
  5
1309C
330
126C0
100
AcDbEntity
  8
0
 48
50.0
100
AcDbBlockBegin
  2
*D17
 70
     1
 10
0.0
 20
0.0
 30
0.0
  3
*D17
  1

  0
LINE
  5
1350E
330
126C0
100
AcDbEntity
  8
寸法
 62
     0
 48
50.0
370
    -2
100
AcDbLine
 10
823.9327756645115
 20
7809.606999670101
 30
0.0
 11
458.2608318319712
 21
7809.606999670101
 31
0.0
  0
LINE
  5
1350F
330
126C0
100
AcDbEntity
  8
寸法
 62
     0
 48
50.0
370
    -2
100
AcDbLine
 10
738.9327756645152
 20
7572.606999670106
 30
0.0
 11
458.2608318319711
 21
7572.606999670106
 31
0.0
  0
LINE
  5
13510
330
126C0
100
AcDbEntity
  8
寸法
 62
     0
 48
50.0
370
    -2
100
AcDbLine
 10
503.2608318319711
 20
7809.606999670101
 30
0.0
 11
503.2608318319711
 21
7572.606999670106
 31
0.0
  0
INSERT
  5
13511
330
126C0
100
AcDbEntity
  8
寸法
 62
     0
 48
50.0
370
    -2
100
AcDbBlockReference
  2
_DOTSMALL
 10
503.2608318319711
 20
7809.606999670101
 30
0.0
 41
75.0
 42
75.0
 43
75.0
 50
90.0
  0
INSERT
  5
13512
330
126C0
100
AcDbEntity
  8
寸法
 62
     0
 48
50.0
370
    -2
100
AcDbBlockReference
  2
_DOTSMALL
 10
503.2608318319711
 20
7572.606999670106
 30
0.0
 41
75.0
 42
75.0
 43
75.0
 50
270.0
  0
MTEXT
  5
13513
330
126C0
100
AcDbEntity
  8
寸法
 62
     7
 48
50.0
100
AcDbMText
 10
428.2519735642534
 20
7691.106999670103
 30
0.0
 40
90.0
 41
0.0
 71
     5
 72
     1
  1
\A1;237
  7
STYLE1
 11
0.0000000000000001
 21
1.0
 31
0.0
 73
     1
 44
1.0
1001
ACAD
1000
MTEXTBEGIN
1070
    73
1070
     1
1070
    44
1040
1.0
1070
    74
1070
     0
1000
MTEXTEND
  0
POINT
  5
13514
330
126C0
100
AcDbEntity
  8
DEFPOINTS
 62
     0
 48
50.0
100
AcDbPoint
 10
838.9327756645116
 20
7809.606999670101
 30
0.0
  0
POINT
  5
13515
330
126C0
100
AcDbEntity
  8
DEFPOINTS
 62
     0
 48
50.0
100
AcDbPoint
 10
753.9327756645152
 20
7572.606999670106
 30
0.0
  0
POINT
  5
13516
330
126C0
100
AcDbEntity
  8
DEFPOINTS
 62
     0
 48
50.0
100
AcDbPoint
 10
503.2608318319711
 20
7572.606999670106
 30
0.0
  0
ENDBLK
  5
130A6
330
126C0
100
AcDbEntity
  8
0
 48
50.0
100
AcDbBlockEnd
  0
BLOCK
  5
130A7
330
126CD
100
AcDbEntity
  8
0
 48
50.0
100
AcDbBlockBegin
  2
*D18
 70
     1
 10
0.0
 20
0.0
 30
0.0
  3
*D18
  1

  0
LINE
  5
13532
330
126CD
100
AcDbEntity
  8
寸法
 62
     0
 48
50.0
370
    -2
100
AcDbLine
 10
738.9327756645152
 20
6830.606999670109
 30
0.0
 11
458.260831831971
 21
6830.606999670109
 31
0.0
  0
LINE
  5
13533
330
126CD
100
AcDbEntity
  8
寸法
 62
     0
 48
50.0
370
    -2
100
AcDbLine
 10
738.9327756645116
 20
6088.606999670108
 30
0.0
 11
458.2608318319708
 21
6088.606999670108
 31
0.0
  0
LINE
  5
13534
330
126CD
100
AcDbEntity
  8
寸法
 62
     0
 48
50.0
370
    -2
100
AcDbLine
 10
503.260831831971
 20
6830.606999670109
 30
0.0
 11
503.2608318319709
 21
6088.606999670108
 31
0.0
  0
INSERT
  5
13535
330
126CD
100
AcDbEntity
  8
寸法
 62
     0
 48
50.0
370
    -2
100
AcDbBlockReference
  2
_DOTSMALL
 10
503.260831831971
 20
6830.606999670109
 30
0.0
 41
75.0
 42
75.0
 43
75.0
 50
90.0
  0
INSERT
  5
13536
330
126CD
100
AcDbEntity
  8
寸法
 62
     0
 48
50.0
370
    -2
100
AcDbBlockReference
  2
_DOTSMALL
 10
503.2608318319709
 20
6088.606999670108
 30
0.0
 41
75.0
 42
75.0
 43
75.0
 50
270.0
  0
MTEXT
  5
13537
330
126CD
100
AcDbEntity
  8
寸法
 62
     7
 48
50.0
100
AcDbMText
 10
428.2519735642534
 20
6459.606999670109
 30
0.0
 40
90.0
 41
0.0
 71
     5
 72
     1
  1
\A1;742
  7
STYLE1
 11
0.0000000000000001
 21
1.0
 31
0.0
 73
     1
 44
1.0
1001
ACAD
1000
MTEXTBEGIN
1070
    73
1070
     1
1070
    44
1040
1.0
1070
    74
1070
     0
1000
MTEXTEND
  0
POINT
  5
13538
330
126CD
100
AcDbEntity
  8
DEFPOINTS
 62
     0
 48
50.0
100
AcDbPoint
 10
753.9327756645152
 20
6830.606999670109
 30
0.0
  0
POINT
  5
13539
330
126CD
100
AcDbEntity
  8
DEFPOINTS
 62
     0
 48
50.0
100
AcDbPoint
 10
753.9327756645116
 20
6088.606999670108
 30
0.0
  0
POINT
  5
1353A
330
126CD
100
AcDbEntity
  8
DEFPOINTS
 62
     0
 48
50.0
100
AcDbPoint
 10
503.2608318319709
 20
6088.606999670108
 30
0.0
  0
ENDBLK
  5
130B1
330
126CD
100
AcDbEntity
  8
0
 48
50.0
100
AcDbBlockEnd
  0
BLOCK
  5
130B2
330
126D8
100
AcDbEntity
  8
0
 48
50.0
100
AcDbBlockBegin
  2
*D19
 70
     1
 10
0.0
 20
0.0
 30
0.0
  3
*D19
  1

  0
LINE
  5
13520
330
126D8
100
AcDbEntity
  8
寸法
 62
     0
 48
50.0
370
    -2
100
AcDbLine
 10
738.9327756645152
 20
7572.606999670106
 30
0.0
 11
458.2608318319711
 21
7572.606999670106
 31
0.0
  0
LINE
  5
13521
330
126D8
100
AcDbEntity
  8
寸法
 62
     0
 48
50.0
370
    -2
100
AcDbLine
 10
738.9327756645152
 20
6830.606999670109
 30
0.0
 11
458.2608318319709
 21
6830.606999670109
 31
0.0
  0
LINE
  5
13522
330
126D8
100
AcDbEntity
  8
寸法
 62
     0
 48
50.0
370
    -2
100
AcDbLine
 10
503.2608318319711
 20
7572.606999670106
 30
0.0
 11
503.2608318319709
 21
6830.606999670109
 31
0.0
  0
INSERT
  5
13523
330
126D8
100
AcDbEntity
  8
寸法
 62
     0
 48
50.0
370
    -2
100
AcDbBlockReference
  2
_DOTSMALL
 10
503.2608318319711
 20
7572.606999670106
 30
0.0
 41
75.0
 42
75.0
 43
75.0
 50
90.0
  0
INSERT
  5
13524
330
126D8
100
AcDbEntity
  8
寸法
 62
     0
 48
50.0
370
    -2
100
AcDbBlockReference
  2
_DOTSMALL
 10
503.2608318319709
 20
6830.606999670109
 30
0.0
 41
75.0
 42
75.0
 43
75.0
 50
270.0
  0
MTEXT
  5
13525
330
126D8
100
AcDbEntity
  8
寸法
 62
     7
 48
50.0
100
AcDbMText
 10
428.2519735642534
 20
7201.606999670108
 30
0.0
 40
90.0
 41
0.0
 71
     5
 72
     1
  1
\A1;742
  7
STYLE1
 11
0.0000000000000001
 21
1.0
 31
0.0
 73
     1
 44
1.0
1001
ACAD
1000
MTEXTBEGIN
1070
    73
1070
     1
1070
    44
1040
1.0
1070
    74
1070
     0
1000
MTEXTEND
  0
POINT
  5
13526
330
126D8
100
AcDbEntity
  8
DEFPOINTS
 62
     0
 48
50.0
100
AcDbPoint
 10
753.9327756645152
 20
7572.606999670106
 30
0.0
  0
POINT
  5
13527
330
126D8
100
AcDbEntity
  8
DEFPOINTS
 62
     0
 48
50.0
100
AcDbPoint
 10
753.9327756645152
 20
6830.606999670109
 30
0.0
  0
POINT
  5
13528
330
126D8
100
AcDbEntity
  8
DEFPOINTS
 62
     0
 48
50.0
100
AcDbPoint
 10
503.2608318319709
 20
6830.606999670109
 30
0.0
  0
ENDBLK
  5
130BC
330
126D8
100
AcDbEntity
  8
0
 48
50.0
100
AcDbBlockEnd
  0
BLOCK
  5
130BD
330
126E3
100
AcDbEntity
  8
0
 48
50.0
100
AcDbBlockBegin
  2
*D20
 70
     1
 10
0.0
 20
0.0
 30
0.0
  3
*D20
  1

  0
LINE
  5
130BE
330
126E3
100
AcDbEntity
  8
0
  6
ByBlock
 62
     0
 48
50.0
100
AcDbLine
 10
8852.014730540799
 20
3884.019021987512
 30
0.0
 11
8852.014730540799
 21
4485.627285394897
 31
0.0
  0
LINE
  5
130BF
330
126E3
100
AcDbEntity
  8
0
  6
ByBlock
 62
     0
 48
50.0
100
AcDbLine
 10
11552.0147305408
 20
3756.019021987512
 30
0.0
 11
11552.0147305408
 21
4485.627285394897
 31
0.0
  0
LINE
  5
130C0
330
126E3
100
AcDbEntity
  8
0
  6
ByBlock
 62
     0
 48
50.0
100
AcDbLine
 10
8852.014730540799
 20
4440.627285394898
 30
0.0
 11
11552.0147305408
 21
4440.627285394898
 31
0.0
  0
INSERT
  5
130C1
330
126E3
100
AcDbEntity
  8
0
  6
ByBlock
 62
     0
 48
50.0
100
AcDbBlockReference
  2
_DOTSMALL
 10
8852.014730540799
 20
4440.627285394898
 30
0.0
 41
75.0
 42
75.0
 43
75.0
 50
180.0
  0
INSERT
  5
130C2
330
126E3
100
AcDbEntity
  8
0
  6
ByBlock
 62
     0
 48
50.0
100
AcDbBlockReference
  2
_DOTSMALL
 10
11552.0147305408
 20
4440.627285394898
 30
0.0
 41
75.0
 42
75.0
 43
75.0
  0
MTEXT
  5
130C3
330
126E3
100
AcDbEntity
  8
0
  6
ByBlock
 62
     7
 48
50.0
100
AcDbMText
 10
10202.0147305408
 20
4515.636143662614
 30
0.0
 40
90.0
 41
0.0
 71
     5
 72
     1
  1
\A1;2700
  7
STYLE1
 73
     1
 44
1.0
1001
ACAD
1000
MTEXTBEGIN
1070
    73
1070
     1
1070
    44
1040
1.0
1070
    74
1070
     0
1000
MTEXTEND
  0
POINT
  5
130C4
330
126E3
100
AcDbEntity
  8
DEFPOINTS
  6
ByBlock
 62
     0
 48
50.0
100
AcDbPoint
 10
8852.014730540799
 20
3869.019021987513
 30
0.0
  0
POINT
  5
130C5
330
126E3
100
AcDbEntity
  8
DEFPOINTS
  6
ByBlock
 62
     0
 48
50.0
100
AcDbPoint
 10
11552.0147305408
 20
3741.019021987512
 30
0.0
  0
POINT
  5
130C6
330
126E3
100
AcDbEntity
  8
DEFPOINTS
  6
ByBlock
 62
     0
 48
50.0
100
AcDbPoint
 10
11552.0147305408
 20
4440.627285394898
 30
0.0
  0
ENDBLK
  5
130C7
330
126E3
100
AcDbEntity
  8
0
 48
50.0
100
AcDbBlockEnd
  0
BLOCK
  5
130C8
330
126EF
100
AcDbEntity
  8
0
 48
50.0
100
AcDbBlockBegin
  2
*D21
 70
     1
 10
0.0
 20
0.0
 30
0.0
  3
*D21
  1

  0
LINE
  5
130C9
330
126EF
100
AcDbEntity
  8
0
  6
ByBlock
 62
     0
 48
50.0
100
AcDbLine
 10
11252.0147305408
 20
3632.583948142319
 30
0.0
 11
11252.0147305408
 21
4157.026764312723
 31
0.0
  0
LINE
  5
130CA
330
126EF
100
AcDbEntity
  8
0
  6
ByBlock
 62
     0
 48
50.0
100
AcDbLine
 10
11552.0147305408
 20
3756.019021987512
 30
0.0
 11
11552.0147305408
 21
4157.026764312723
 31
0.0
  0
LINE
  5
130CB
330
126EF
100
AcDbEntity
  8
0
  6
ByBlock
 62
     0
 48
50.0
100
AcDbLine
 10
11252.0147305408
 20
4112.026764312722
 30
0.0
 11
11552.0147305408
 21
4112.026764312722
 31
0.0
  0
INSERT
  5
130CC
330
126EF
100
AcDbEntity
  8
0
  6
ByBlock
 62
     0
 48
50.0
100
AcDbBlockReference
  2
_DOTSMALL
 10
11252.0147305408
 20
4112.026764312722
 30
0.0
 41
75.0
 42
75.0
 43
75.0
 50
180.0
  0
INSERT
  5
130CD
330
126EF
100
AcDbEntity
  8
0
  6
ByBlock
 62
     0
 48
50.0
100
AcDbBlockReference
  2
_DOTSMALL
 10
11552.0147305408
 20
4112.026764312722
 30
0.0
 41
75.0
 42
75.0
 43
75.0
  0
MTEXT
  5
130CE
330
126EF
100
AcDbEntity
  8
0
  6
ByBlock
 62
     7
 48
50.0
100
AcDbMText
 10
11402.0147305408
 20
4187.026764312722
 30
0.0
 40
90.0
 41
0.0
 71
     5
 72
     1
  1
\A1;300
  7
STYLE1
 73
     1
 44
1.0
1001
ACAD
1000
MTEXTBEGIN
1070
    73
1070
     1
1070
    44
1040
1.0
1070
    74
1070
     0
1000
MTEXTEND
  0
POINT
  5
130CF
330
126EF
100
AcDbEntity
  8
DEFPOINTS
  6
ByBlock
 62
     0
 48
50.0
100
AcDbPoint
 10
11252.0147305408
 20
3617.583948142319
 30
0.0
  0
POINT
  5
130D0
330
126EF
100
AcDbEntity
  8
DEFPOINTS
  6
ByBlock
 62
     0
 48
50.0
100
AcDbPoint
 10
11552.0147305408
 20
3741.019021987512
 30
0.0
  0
POINT
  5
130D1
330
126EF
100
AcDbEntity
  8
DEFPOINTS
  6
ByBlock
 62
     0
 48
50.0
100
AcDbPoint
 10
11552.0147305408
 20
4112.026764312722
 30
0.0
  0
ENDBLK
  5
130D2
330
126EF
100
AcDbEntity
  8
0
 48
50.0
100
AcDbBlockEnd
  0
BLOCK
  5
130D3
330
126FA
100
AcDbEntity
  8
0
 48
50.0
100
AcDbBlockBegin
  2
*D22
 70
     1
 10
0.0
 20
0.0
 30
0.0
  3
*D22
  1

  0
LINE
  5
130D4
330
126FA
100
AcDbEntity
  8
0
  6
ByBlock
 62
     0
 48
50.0
100
AcDbLine
 10
9602.014730540796
 20
3626.268990943539
 30
0.0
 11
9602.014730540796
 21
4157.026764312723
 31
0.0
  0
LINE
  5
130D5
330
126FA
100
AcDbEntity
  8
0
  6
ByBlock
 62
     0
 48
50.0
100
AcDbLine
 10
11252.0147305408
 20
3632.583948142319
 30
0.0
 11
11252.0147305408
 21
4157.026764312723
 31
0.0
  0
LINE
  5
130D6
330
126FA
100
AcDbEntity
  8
0
  6
ByBlock
 62
     0
 48
50.0
100
AcDbLine
 10
9602.014730540796
 20
4112.026764312722
 30
0.0
 11
11252.0147305408
 21
4112.026764312722
 31
0.0
  0
INSERT
  5
130D7
330
126FA
100
AcDbEntity
  8
0
  6
ByBlock
 62
     0
 48
50.0
100
AcDbBlockReference
  2
_DOTSMALL
 10
9602.014730540796
 20
4112.026764312722
 30
0.0
 41
75.0
 42
75.0
 43
75.0
 50
180.0
  0
INSERT
  5
130D8
330
126FA
100
AcDbEntity
  8
0
  6
ByBlock
 62
     0
 48
50.0
100
AcDbBlockReference
  2
_DOTSMALL
 10
11252.0147305408
 20
4112.026764312722
 30
0.0
 41
75.0
 42
75.0
 43
75.0
  0
MTEXT
  5
130D9
330
126FA
100
AcDbEntity
  8
0
  6
ByBlock
 62
     7
 48
50.0
100
AcDbMText
 10
10427.0147305408
 20
4187.026764312722
 30
0.0
 40
90.0
 41
0.0
 71
     5
 72
     1
  1
\A1;1650
  7
STYLE1
 73
     1
 44
1.0
1001
ACAD
1000
MTEXTBEGIN
1070
    73
1070
     1
1070
    44
1040
1.0
1070
    74
1070
     0
1000
MTEXTEND
  0
POINT
  5
130DA
330
126FA
100
AcDbEntity
  8
DEFPOINTS
  6
ByBlock
 62
     0
 48
50.0
100
AcDbPoint
 10
9602.014730540796
 20
3611.268990943539
 30
0.0
  0
POINT
  5
130DB
330
126FA
100
AcDbEntity
  8
DEFPOINTS
  6
ByBlock
 62
     0
 48
50.0
100
AcDbPoint
 10
11252.0147305408
 20
3617.583948142319
 30
0.0
  0
POINT
  5
130DC
330
126FA
100
AcDbEntity
  8
DEFPOINTS
  6
ByBlock
 62
     0
 48
50.0
100
AcDbPoint
 10
11252.0147305408
 20
4112.026764312722
 30
0.0
  0
ENDBLK
  5
130DD
330
126FA
100
AcDbEntity
  8
0
 48
50.0
100
AcDbBlockEnd
  0
BLOCK
  5
130DE
330
12705
100
AcDbEntity
  8
0
 48
50.0
100
AcDbBlockBegin
  2
*D23
 70
     1
 10
0.0
 20
0.0
 30
0.0
  3
*D23
  1

  0
LINE
  5
130DF
330
12705
100
AcDbEntity
  8
0
  6
ByBlock
 62
     0
 48
50.0
100
AcDbLine
 10
8852.014730540799
 20
3884.019021987512
 30
0.0
 11
8852.014730540799
 21
4157.026764312723
 31
0.0
  0
LINE
  5
130E0
330
12705
100
AcDbEntity
  8
0
  6
ByBlock
 62
     0
 48
50.0
100
AcDbLine
 10
9602.014730540796
 20
3626.268990943539
 30
0.0
 11
9602.014730540796
 21
4157.026764312723
 31
0.0
  0
LINE
  5
130E1
330
12705
100
AcDbEntity
  8
0
  6
ByBlock
 62
     0
 48
50.0
100
AcDbLine
 10
8852.014730540799
 20
4112.026764312722
 30
0.0
 11
9602.014730540796
 21
4112.026764312722
 31
0.0
  0
INSERT
  5
130E2
330
12705
100
AcDbEntity
  8
0
  6
ByBlock
 62
     0
 48
50.0
100
AcDbBlockReference
  2
_DOTSMALL
 10
8852.014730540799
 20
4112.026764312722
 30
0.0
 41
75.0
 42
75.0
 43
75.0
 50
180.0
  0
INSERT
  5
130E3
330
12705
100
AcDbEntity
  8
0
  6
ByBlock
 62
     0
 48
50.0
100
AcDbBlockReference
  2
_DOTSMALL
 10
9602.014730540796
 20
4112.026764312722
 30
0.0
 41
75.0
 42
75.0
 43
75.0
  0
MTEXT
  5
130E4
330
12705
100
AcDbEntity
  8
0
  6
ByBlock
 62
     7
 48
50.0
100
AcDbMText
 10
9227.014730540798
 20
4187.026764312722
 30
0.0
 40
90.0
 41
0.0
 71
     5
 72
     1
  1
\A1;750
  7
STYLE1
 73
     1
 44
1.0
1001
ACAD
1000
MTEXTBEGIN
1070
    73
1070
     1
1070
    44
1040
1.0
1070
    74
1070
     0
1000
MTEXTEND
  0
POINT
  5
130E5
330
12705
100
AcDbEntity
  8
DEFPOINTS
  6
ByBlock
 62
     0
 48
50.0
100
AcDbPoint
 10
8852.014730540799
 20
3869.019021987513
 30
0.0
  0
POINT
  5
130E6
330
12705
100
AcDbEntity
  8
DEFPOINTS
  6
ByBlock
 62
     0
 48
50.0
100
AcDbPoint
 10
9602.014730540796
 20
3611.268990943539
 30
0.0
  0
POINT
  5
130E7
330
12705
100
AcDbEntity
  8
DEFPOINTS
  6
ByBlock
 62
     0
 48
50.0
100
AcDbPoint
 10
9602.014730540796
 20
4112.026764312722
 30
0.0
  0
ENDBLK
  5
130E8
330
12705
100
AcDbEntity
  8
0
 48
50.0
100
AcDbBlockEnd
  0
BLOCK
  5
131C1
330
12711
100
AcDbEntity
  8
0
 48
50.0
100
AcDbBlockBegin
  2
*D24
 70
     1
 10
0.0
 20
0.0
 30
0.0
  3
*D24
  1

  0
LINE
  5
131C2
330
12711
100
AcDbEntity
  8
0
  6
ByBlock
 62
     0
 48
50.0
100
AcDbLine
 10
11567.0147305408
 20
3741.019021987512
 30
0.0
 11
11965.2319373948
 21
3741.019021987512
 31
0.0
  0
LINE
  5
131C3
330
12711
100
AcDbEntity
  8
0
  6
ByBlock
 62
     0
 48
50.0
100
AcDbLine
 10
11681.24260819717
 20
1758.019021987513
 30
0.0
 11
11965.2319373948
 21
1758.019021987513
 31
0.0
  0
LINE
  5
131C4
330
12711
100
AcDbEntity
  8
0
  6
ByBlock
 62
     0
 48
50.0
100
AcDbLine
 10
11920.2319373948
 20
3741.019021987512
 30
0.0
 11
11920.2319373948
 21
1758.019021987513
 31
0.0
  0
INSERT
  5
131C5
330
12711
100
AcDbEntity
  8
0
  6
ByBlock
 62
     0
 48
50.0
100
AcDbBlockReference
  2
_DOTSMALL
 10
11920.2319373948
 20
3741.019021987512
 30
0.0
 41
75.0
 42
75.0
 43
75.0
 50
90.0
  0
INSERT
  5
131C6
330
12711
100
AcDbEntity
  8
0
  6
ByBlock
 62
     0
 48
50.0
100
AcDbBlockReference
  2
_DOTSMALL
 10
11920.2319373948
 20
1758.019021987513
 30
0.0
 41
75.0
 42
75.0
 43
75.0
 50
270.0
  0
MTEXT
  5
131C7
330
12711
100
AcDbEntity
  8
0
  6
ByBlock
 62
     7
 48
50.0
100
AcDbMText
 10
11845.2319373948
 20
2686.541844016541
 30
0.0
 40
90.0
 41
0.0
 71
     5
 72
     1
  1
\A1;1983
  7
STYLE1
 11
0.0000000000000001
 21
1.0
 31
0.0
 73
     1
 44
1.0
1001
ACAD
1000
MTEXTBEGIN
1070
    73
1070
     1
1070
    44
1040
1.0
1070
    74
1070
     0
1000
MTEXTEND
  0
POINT
  5
131C8
330
12711
100
AcDbEntity
  8
DEFPOINTS
  6
ByBlock
 62
     0
 48
50.0
100
AcDbPoint
 10
11552.0147305408
 20
3741.019021987512
 30
0.0
  0
POINT
  5
131C9
330
12711
100
AcDbEntity
  8
DEFPOINTS
  6
ByBlock
 62
     0
 48
50.0
100
AcDbPoint
 10
11666.24260819717
 20
1758.019021987513
 30
0.0
  0
POINT
  5
131CA
330
12711
100
AcDbEntity
  8
DEFPOINTS
  6
ByBlock
 62
     0
 48
50.0
100
AcDbPoint
 10
11920.2319373948
 20
1758.019021987513
 30
0.0
  0
ENDBLK
  5
131CB
330
12711
100
AcDbEntity
  8
0
 48
50.0
100
AcDbBlockEnd
  0
BLOCK
  5
130F4
330
12CD6
100
AcDbEntity
  8
0
 48
50.0
100
AcDbBlockBegin
  2
*D25
 70
     1
 10
0.0
 20
0.0
 30
0.0
  3
*D25
  1

  0
LINE
  5
130F5
330
12CD6
100
AcDbEntity
  8
0
  6
ByBlock
 62
     0
 48
50.0
100
AcDbLine
 10
9602.014730540792
 20
1473.019021987513
 30
0.0
 11
9602.014730540792
 21
1272.818995306581
 31
0.0
  0
LINE
  5
130F6
330
12CD6
100
AcDbEntity
  8
0
  6
ByBlock
 62
     0
 48
50.0
100
AcDbLine
 10
11252.0147305408
 20
1473.019021987514
 30
0.0
 11
11252.0147305408
 21
1272.818995306581
 31
0.0
  0
LINE
  5
130F7
330
12CD6
100
AcDbEntity
  8
0
  6
ByBlock
 62
     0
 48
50.0
100
AcDbLine
 10
9602.014730540792
 20
1317.818995306581
 30
0.0
 11
11252.0147305408
 21
1317.818995306581
 31
0.0
  0
INSERT
  5
130F8
330
12CD6
100
AcDbEntity
  8
0
  6
ByBlock
 62
     0
 48
50.0
100
AcDbBlockReference
  2
_DOTSMALL
 10
9602.014730540792
 20
1317.818995306581
 30
0.0
 41
75.0
 42
75.0
 43
75.0
 50
180.0
  0
INSERT
  5
130F9
330
12CD6
100
AcDbEntity
  8
0
  6
ByBlock
 62
     0
 48
50.0
100
AcDbBlockReference
  2
_DOTSMALL
 10
11252.0147305408
 20
1317.818995306581
 30
0.0
 41
75.0
 42
75.0
 43
75.0
  0
MTEXT
  5
130FA
330
12CD6
100
AcDbEntity
  8
0
  6
ByBlock
 62
     7
 48
50.0
100
AcDbMText
 10
10427.01473054079
 20
1392.818995306581
 30
0.0
 40
90.0
 41
0.0
 71
     5
 72
     1
  1
\A1;1650
  7
STYLE1
 73
     1
 44
1.0
1001
ACAD
1000
MTEXTBEGIN
1070
    73
1070
     1
1070
    44
1040
1.0
1070
    74
1070
     0
1000
MTEXTEND
  0
POINT
  5
130FB
330
12CD6
100
AcDbEntity
  8
DEFPOINTS
  6
ByBlock
 62
     0
 48
50.0
100
AcDbPoint
 10
9602.014730540792
 20
1488.019021987513
 30
0.0
  0
POINT
  5
130FC
330
12CD6
100
AcDbEntity
  8
DEFPOINTS
  6
ByBlock
 62
     0
 48
50.0
100
AcDbPoint
 10
11252.0147305408
 20
1488.019021987514
 30
0.0
  0
POINT
  5
130FD
330
12CD6
100
AcDbEntity
  8
DEFPOINTS
  6
ByBlock
 62
     0
 48
50.0
100
AcDbPoint
 10
11252.0147305408
 20
1317.818995306581
 30
0.0
  0
ENDBLK
  5
130FE
330
12CD6
100
AcDbEntity
  8
0
 48
50.0
100
AcDbBlockEnd
  0
BLOCK
  5
13227
330
131CF
100
AcDbEntity
  8
0
 48
50.0
100
AcDbBlockBegin
  2
*D26
 70
     1
 10
0.0
 20
0.0
 30
0.0
  3
*D26
  1

  0
LINE
  5
13559
330
131CF
100
AcDbEntity
  8
寸法
 62
     0
 48
50.0
370
    -2
100
AcDbLine
 10
6923.93277566451
 20
7809.606999670106
 30
0.0
 11
7332.585557518375
 21
7809.606999670106
 31
0.0
  0
LINE
  5
1355A
330
131CF
100
AcDbEntity
  8
寸法
 62
     0
 48
50.0
370
    -2
100
AcDbLine
 10
6893.932775664511
 20
7685.606999670105
 30
0.0
 11
7332.585557518375
 21
7685.606999670105
 31
0.0
  0
LINE
  5
1355B
330
131CF
100
AcDbEntity
  8
寸法
 62
     0
 48
50.0
370
    -2
100
AcDbLine
 10
7287.585557518375
 20
7685.606999670105
 30
0.0
 11
7287.585557518375
 21
7809.606999670106
 31
0.0
  0
LINE
  5
1355C
330
131CF
100
AcDbEntity
  8
寸法
 62
     0
 48
50.0
370
    -2
100
AcDbLine
 10
7287.585557518375
 20
7809.606999670106
 30
0.0
 11
7287.585557518375
 21
8097.606999670105
 31
0.0
  0
INSERT
  5
1355D
330
131CF
100
AcDbEntity
  8
寸法
 62
     0
 48
50.0
370
    -2
100
AcDbBlockReference
  2
_DOTSMALL
 10
7287.585557518375
 20
7685.606999670105
 30
0.0
 41
75.0
 42
75.0
 43
75.0
 50
270.0
  0
INSERT
  5
1355E
330
131CF
100
AcDbEntity
  8
寸法
 62
     0
 48
50.0
370
    -2
100
AcDbBlockReference
  2
_DOTSMALL
 10
7287.585557518375
 20
7809.606999670106
 30
0.0
 41
75.0
 42
75.0
 43
75.0
 50
90.0
  0
MTEXT
  5
1355F
330
131CF
100
AcDbEntity
  8
寸法
 62
     7
 48
50.0
100
AcDbMText
 10
7212.576699250658
 20
7991.106999670107
 30
0.0
 40
90.0
 41
0.0
 71
     5
 72
     1
  1
\A1;124
  7
STYLE1
 11
0.0000000000000001
 21
1.0
 31
0.0
 73
     1
 44
1.0
1001
ACAD
1000
MTEXTBEGIN
1070
    73
1070
     1
1070
    44
1040
1.0
1070
    74
1070
     0
1000
MTEXTEND
  0
POINT
  5
13560
330
131CF
100
AcDbEntity
  8
DEFPOINTS
 62
     0
 48
50.0
100
AcDbPoint
 10
6908.932775664509
 20
7809.606999670106
 30
0.0
  0
POINT
  5
13561
330
131CF
100
AcDbEntity
  8
DEFPOINTS
 62
     0
 48
50.0
100
AcDbPoint
 10
6878.932775664511
 20
7685.606999670105
 30
0.0
  0
POINT
  5
13562
330
131CF
100
AcDbEntity
  8
DEFPOINTS
 62
     0
 48
50.0
100
AcDbPoint
 10
7287.585557518375
 20
7685.606999670105
 30
0.0
  0
ENDBLK
  5
13232
330
131CF
100
AcDbEntity
  8
0
 48
50.0
100
AcDbBlockEnd
  0
BLOCK
  5
13233
330
131ED
100
AcDbEntity
  8
0
 48
50.0
100
AcDbBlockBegin
  2
*D27
 70
     1
 10
0.0
 20
0.0
 30
0.0
  3
*D27
  1

  0
LINE
  5
13234
330
131ED
100
AcDbEntity
  8
0
  6
ByBlock
 62
     0
 48
50.0
100
AcDbLine
 10
6925.714829237161
 20
7685.606999670105
 30
0.0
 11
7364.367611091025
 21
7685.606999670105
 31
0.0
  0
LINE
  5
13235
330
131ED
100
AcDbEntity
  8
0
  6
ByBlock
 62
     0
 48
50.0
100
AcDbLine
 10
6925.714829237159
 20
5179.606999670102
 30
0.0
 11
7364.367611091023
 21
5179.606999670102
 31
0.0
  0
LINE
  5
13236
330
131ED
100
AcDbEntity
  8
0
  6
ByBlock
 62
     0
 48
50.0
100
AcDbLine
 10
7319.367611091024
 20
7685.606999670105
 30
0.0
 11
7319.367611091023
 21
5179.606999670102
 31
0.0
  0
INSERT
  5
13237
330
131ED
100
AcDbEntity
  8
0
  6
ByBlock
 62
     0
 48
50.0
100
AcDbBlockReference
  2
_DOTSMALL
 10
7319.367611091024
 20
7685.606999670105
 30
0.0
 41
75.0
 42
75.0
 43
75.0
 50
90.0
  0
INSERT
  5
13238
330
131ED
100
AcDbEntity
  8
0
  6
ByBlock
 62
     0
 48
50.0
100
AcDbBlockReference
  2
_DOTSMALL
 10
7319.367611091023
 20
5179.606999670102
 30
0.0
 41
75.0
 42
75.0
 43
75.0
 50
270.0
  0
MTEXT
  5
13239
330
131ED
100
AcDbEntity
  8
0
  6
ByBlock
 62
     7
 48
50.0
100
AcDbMText
 10
7244.358752823308
 20
6432.606999670103
 30
0.0
 40
90.0
 41
0.0
 71
     5
 72
     1
  1
\A1;2506
  7
STYLE1
 11
0.0000000000000001
 21
1.0
 31
0.0
 73
     1
 44
1.0
1001
ACAD
1000
MTEXTBEGIN
1070
    73
1070
     1
1070
    44
1040
1.0
1070
    74
1070
     0
1000
MTEXTEND
  0
POINT
  5
1323A
330
131ED
100
AcDbEntity
  8
DEFPOINTS
  6
ByBlock
 62
     0
 48
50.0
100
AcDbPoint
 10
6910.714829237161
 20
7685.606999670105
 30
0.0
  0
POINT
  5
1323B
330
131ED
100
AcDbEntity
  8
DEFPOINTS
  6
ByBlock
 62
     0
 48
50.0
100
AcDbPoint
 10
6910.714829237159
 20
5179.606999670102
 30
0.0
  0
POINT
  5
1323C
330
131ED
100
AcDbEntity
  8
DEFPOINTS
  6
ByBlock
 62
     0
 48
50.0
100
AcDbPoint
 10
7319.367611091023
 20
5179.606999670102
 30
0.0
  0
ENDBLK
  5
1323D
330
131ED
100
AcDbEntity
  8
0
 48
50.0
100
AcDbBlockEnd
  0
BLOCK
  5
1323E
330
131FA
100
AcDbEntity
  8
0
 48
50.0
100
AcDbBlockBegin
  2
*D28
 70
     1
 10
0.0
 20
0.0
 30
0.0
  3
*D28
  1

  0
LINE
  5
1323F
330
131FA
100
AcDbEntity
  8
0
  6
ByBlock
 62
     0
 48
50.0
100
AcDbLine
 10
6925.714829237159
 20
5179.606999670102
 30
0.0
 11
7364.367611091023
 21
5179.606999670102
 31
0.0
  0
LINE
  5
13240
330
131FA
100
AcDbEntity
  8
0
  6
ByBlock
 62
     0
 48
50.0
100
AcDbLine
 10
6955.714829237162
 20
5109.606999670103
 30
0.0
 11
7364.367611091023
 21
5109.606999670103
 31
0.0
  0
LINE
  5
13241
330
131FA
100
AcDbEntity
  8
0
  6
ByBlock
 62
     0
 48
50.0
100
AcDbLine
 10
7319.367611091023
 20
5179.606999670102
 30
0.0
 11
7319.367611091023
 21
5109.606999670103
 31
0.0
  0
LINE
  5
13242
330
131FA
100
AcDbEntity
  8
0
  6
ByBlock
 62
     0
 48
50.0
100
AcDbLine
 10
7319.367611091023
 20
5109.606999670103
 30
0.0
 11
7319.367611091023
 21
4875.536133528371
 31
0.0
  0
INSERT
  5
13243
330
131FA
100
AcDbEntity
  8
0
  6
ByBlock
 62
     0
 48
50.0
100
AcDbBlockReference
  2
_DOTSMALL
 10
7319.367611091023
 20
5179.606999670102
 30
0.0
 41
75.0
 42
75.0
 43
75.0
 50
90.0
  0
INSERT
  5
13244
330
131FA
100
AcDbEntity
  8
0
  6
ByBlock
 62
     0
 48
50.0
100
AcDbBlockReference
  2
_DOTSMALL
 10
7319.367611091023
 20
5109.606999670103
 30
0.0
 41
75.0
 42
75.0
 43
75.0
 50
270.0
  0
MTEXT
  5
13245
330
131FA
100
AcDbEntity
  8
0
  6
ByBlock
 62
     7
 48
50.0
100
AcDbMText
 10
7244.367611091023
 20
4955.071566599237
 30
0.0
 40
90.0
 41
0.0
 71
     5
 72
     1
  1
\A1;70
  7
STYLE1
 11
0.0000000000000001
 21
1.0
 31
0.0
 73
     1
 44
1.0
1001
ACAD
1000
MTEXTBEGIN
1070
    73
1070
     1
1070
    44
1040
1.0
1070
    74
1070
     0
1000
MTEXTEND
  0
POINT
  5
13246
330
131FA
100
AcDbEntity
  8
DEFPOINTS
  6
ByBlock
 62
     0
 48
50.0
100
AcDbPoint
 10
6910.714829237159
 20
5179.606999670102
 30
0.0
  0
POINT
  5
13247
330
131FA
100
AcDbEntity
  8
DEFPOINTS
  6
ByBlock
 62
     0
 48
50.0
100
AcDbPoint
 10
6940.714829237162
 20
5109.606999670103
 30
0.0
  0
POINT
  5
13248
330
131FA
100
AcDbEntity
  8
DEFPOINTS
  6
ByBlock
 62
     0
 48
50.0
100
AcDbPoint
 10
7319.367611091023
 20
5109.606999670103
 30
0.0
  0
ENDBLK
  5
13249
330
131FA
100
AcDbEntity
  8
0
 48
50.0
100
AcDbBlockEnd
  0
ENDSEC
  0
SECTION
  2
ENTITIES
  0
MTEXT
  5
763F
330
747D
100
AcDbEntity
  8
0
100
AcDbMText
 10
302.846345836809
 20
280.1983726409901
 30
0.0
 40
3.5
 41
5.323721266742722
 71
     1
 72
     5
  1

  7
MSMINCHO
 73
     1
 44
1.0
1001
ACAD
1000
MTEXTBEGIN
1070
    73
1070
     1
1070
    44
1040
1.0
1070
    74
1070
     0
1000
MTEXTEND
  0
LINE
  5
10B56
330
747D
100
AcDbEntity
  8
補助
  6
PHANTOM
 62
   230
 48
50.0
100
AcDbLine
 10
105.0
 20
0.0
 30
0.0
 11
104.9999999999996
 21
8557.199999999999
 31
0.0
  0
LINE
  5
10B57
330
747D
100
AcDbEntity
  8
補助
  6
PHANTOM
 62
   230
 48
50.0
100
AcDbLine
 10
104.9999999999996
 20
8557.199999999999
 30
0.0
 11
12230.4
 21
8557.199999999999
 31
0.0
  0
LINE
  5
10B59
330
747D
100
AcDbEntity
  8
仕様書枠
  6
Continuous
 48
50.0
100
AcDbLine
 10
9830.400000000002
 20
900.0
 30
0.0
 11
9830.400000000002
 21
-0.0000000000000547
 31
0.0
  0
LINE
  5
10B5C
330
747D
100
AcDbEntity
  8
仕様書枠
 48
50.0
100
AcDbLine
 10
12230.4
 20
900.0
 30
0.0
 11
12230.4
 21
-0.0000000000000682
 31
0.0
  0
LINE
  5
10B5D
330
747D
100
AcDbEntity
  8
仕様書枠
 48
50.0
100
AcDbLine
 10
105.0
 20
0.0
 30
0.0
 11
12230.4
 21
-0.0000000000000682
 31
0.0
  0
LINE
  5
10B5E
330
747D
100
AcDbEntity
  8
補助
  6
PHANTOM
 62
   230
 48
50.0
100
AcDbLine
 10
12230.4
 20
8557.199999999999
 30
0.0
 11
12230.4
 21
900.0
 31
0.0
  0
LINE
  5
10B6C
330
747D
100
AcDbEntity
  8
仕様書枠
 48
50.0
100
AcDbLine
 10
9830.400000000002
 20
900.0
 30
0.0
 11
12230.4
 21
900.0
 31
0.0
  0
LINE
  5
10B6D
330
747D
100
AcDbEntity
  8
補助
  6
PHANTOM
 62
   230
 48
50.0
100
AcDbLine
 10
9830.400000000002
 20
8557.199999999999
 30
0.0
 11
9830.400000000002
 21
3600.0
 31
0.0
  0
LINE
  5
10B6F
330
747D
100
AcDbEntity
  8
補助
  6
PHANTOM
 62
   230
 48
50.0
100
AcDbLine
 10
9830.400000000002
 20
3110.960973647383
 30
0.0
 11
12230.4
 21
3110.960973647383
 31
0.0
  0
LINE
  5
10B72
330
747D
100
AcDbEntity
  8
文字
 62
     7
 48
50.0
100
AcDbLine
 10
9890.400000000001
 20
300.0
 30
0.0
 11
12170.4
 21
300.0
 31
0.0
  0
TEXT
  5
10B73
330
747D
100
AcDbEntity
  8
文字
 62
     7
 48
50.0
100
AcDbText
 10
9872.234292432677
 20
671.3179555724553
 30
0.0
 40
150.0
  1
外 形 図
  7
STYLE2
100
AcDbText
  0
TEXT
  5
10B74
330
747D
100
AcDbEntity
  8
文字
 62
     7
 48
50.0
100
AcDbText
 10
9901.077524988313
 20
357.9555495773441
 30
0.0
 40
120.0
  1
機種名
  7
STYLE2
100
AcDbText
  0
TEXT
  5
10B79
330
747D
100
AcDbEntity
  8
文字
 62
     7
 48
50.0
100
AcDbText
 10
10893.0988779165
 20
773.6682797184214
 30
0.0
 40
75.0
  1
NO.11     <縮尺> S=1/30
  7
STYLE2
100
AcDbText
  0
LINE
  5
10B7B
330
747D
100
AcDbEntity
  8
仕様書枠
 48
50.0
100
AcDbLine
 10
9830.400000000002
 20
600.0
 30
0.0
 11
10688.4
 21
600.0
 31
0.0
  0
LINE
  5
10B88
330
747D
100
AcDbEntity
  8
仕様書枠
  6
Continuous
 48
50.0
100
AcDbLine
 10
10688.4
 20
900.0
 30
0.0
 11
10688.4
 21
600.0
 31
0.0
  0
TEXT
  5
10BB0
330
747D
100
AcDbEntity
  8
文字
 62
     7
 48
50.0
100
AcDbText
 10
11064.75854483094
 20
362.922534743356
 30
0.0
 40
120.0
  1
BF-２８L
  7
STYLE3
100
AcDbText
  0
TEXT
  5
10EA8
330
747D
100
AcDbEntity
  8
文字
 62
     7
 48
50.0
100
AcDbText
 10
11138.71739229687
 20
628.6895453046891
 30
0.0
 40
75.0
  1
～一般型～
  7
STYLE2
100
AcDbText
  0
DIMENSION
  5
1238D
330
747D
100
AcDbEntity
  8
寸法
 48
50.0
100
AcDbDimension
  2
*D3
 10
7771.139026612388
 20
1488.019021987513
 30
0.0
 11
7771.139026612388
 21
1623.019021987512
 31
0.0
 12
-306.5546620533841
 22
0.0
 32
0.0
 70
   160
 71
     5
 42
-1.0
  3
INABA_S30G
100
AcDbAlignedDimension
 13
8112.656018920329
 23
1758.019021987513
 33
0.0
 14
9265.460068487408
 24
1488.019021987513
 34
0.0
 50
90.0
100
AcDbRotatedDimension
  0
DIMENSION
  5
1238E
330
747D
100
AcDbEntity
  8
寸法
 48
50.0
100
AcDbDimension
  2
*D4
 10
8135.965310424772
 20
1758.019021987513
 30
0.0
 11
8135.965310424772
 21
1883.019021987513
 31
0.0
 12
-306.5546620533841
 22
0.0
 32
0.0
 70
   160
 71
     5
 42
-1.0
  3
INABA_S30G
100
AcDbAlignedDimension
 13
9325.460068487414
 23
2008.019021987513
 33
0.0
 14
8039.482566410645
 24
1758.019021987513
 34
0.0
 50
90.0
100
AcDbRotatedDimension
  0
DIMENSION
  5
1238F
330
747D
100
AcDbEntity
  8
寸法
 48
50.0
100
AcDbDimension
  2
*D5
 10
8135.965310424772
 20
2008.019021987513
 30
0.0
 11
8060.965310424773
 21
2458.019021987513
 31
0.0
 12
-306.5546620533841
 22
0.0
 32
0.0
 70
    32
 71
     5
 42
-1.0
  3
INABA_S30G
100
AcDbAlignedDimension
 13
9325.460068487419
 23
2908.019021987513
 33
0.0
 14
9325.460068487414
 24
2008.019021987513
 34
0.0
 50
90.0
100
AcDbRotatedDimension
  0
DIMENSION
  5
12390
330
747D
100
AcDbEntity
  8
寸法
 48
50.0
100
AcDbDimension
  2
*D6
 10
8147.743284136225
 20
3772.744587062967
 30
0.0
 11
8164.784362704851
 21
4132.204838119894
 31
0.0
 12
-306.5546620533841
 22
0.0
 32
0.0
 70
   160
 71
     5
 42
-1.0
 51
2.714212216121843
  3
INABA_S30G
100
AcDbAlignedDimension
 13
8559.501440112667
 23
3868.353356962312
 33
0.0
 14
8561.013107897334
 24
3753.152536158737
 34
0.0
 50
87.28578778387817
100
AcDbRotatedDimension
  0
DIMENSION
  5
12391
330
747D
100
AcDbEntity
  8
寸法
 48
50.0
100
AcDbDimension
  2
*D7
 10
7771.139026612387
 20
1758.019021987513
 30
0.0
 11
7771.139026612387
 21
2813.519021987513
 31
0.0
 12
-306.5546620533841
 22
0.0
 32
0.0
 70
   160
 71
     5
 42
-1.0
  3
INABA_S30G
100
AcDbAlignedDimension
 13
8545.460068487415
 23
3869.019021987513
 33
0.0
 14
8112.656018920329
 24
1758.019021987513
 34
0.0
 50
90.0
100
AcDbRotatedDimension
  0
DIMENSION
  5
12393
330
747D
100
AcDbEntity
  8
寸法
 48
50.0
100
AcDbDimension
  2
*D8
 10
503.2608318319707
 20
5346.606999670107
 30
0.0
 11
503.2608318319699
 21
5717.606999670108
 31
0.0
 70
   160
 71
     5
 42
742.0000000000018
  3
INABA_S30G
100
AcDbAlignedDimension
 13
753.9327756645116
 23
6088.606999670108
 33
0.0
 14
753.9327756645116
 24
5346.606999670107
 34
0.0
 50
90.0
100
AcDbRotatedDimension
  0
DIMENSION
  5
12394
330
747D
100
AcDbEntity
  8
寸法
 48
50.0
100
AcDbDimension
  2
*D9
 10
7643.232755250093
 20
5109.606999670102
 30
0.0
 11
7643.232755250093
 21
6459.606999670104
 31
0.0
 12
-31.7820535726496
 22
0.0
 32
0.0
 70
   160
 71
     5
 42
-1.0
  3
INABA_S30G
100
AcDbAlignedDimension
 13
6908.932775664509
 23
7809.606999670106
 33
0.0
 14
6908.932775664507
 24
5109.606999670103
 34
0.0
 50
90.0
100
AcDbRotatedDimension
  0
LINE
  5
12395
330
747D
100
AcDbEntity
  8
点線
 48
50.0
100
AcDbLine
 10
6703.932775664511
 20
6066.106999670105
 30
0.0
 11
6703.932775664511
 21
5389.106999670103
 31
0.0
  0
LINE
  5
12396
330
747D
100
AcDbEntity
  8
点線
 48
50.0
100
AcDbLine
 10
6643.932775664511
 20
6066.106999670105
 30
0.0
 11
6643.932775664511
 21
5389.106999670103
 31
0.0
  0
LINE
  5
12397
330
747D
100
AcDbEntity
  8
部品1
 48
50.0
100
AcDbLine
 10
3843.932775664513
 20
6066.106999670105
 30
0.0
 11
3843.932775664513
 21
5389.106999670103
 31
0.0
  0
LINE
  5
12398
330
747D
100
AcDbEntity
  8
部品1
 48
50.0
100
AcDbLine
 10
3903.932775664515
 20
6066.106999670105
 30
0.0
 11
3903.932775664511
 21
5389.106999670103
 31
0.0
  0
LINE
  5
12399
330
747D
100
AcDbEntity
  8
部品1
 48
50.0
100
AcDbLine
 10
1043.932775664512
 20
6066.106999670105
 30
0.0
 11
1043.932775664512
 21
5389.106999670103
 31
0.0
  0
LINE
  5
1239A
330
747D
100
AcDbEntity
  8
部品1
 48
50.0
100
AcDbLine
 10
1103.932775664511
 20
6066.106999670105
 30
0.0
 11
1103.932775664511
 21
5389.106999670103
 31
0.0
  0
LINE
  5
1239B
330
747D
100
AcDbEntity
  8
部品1
 48
50.0
100
AcDbLine
 10
893.9327756645116
 20
7685.606999670105
 30
0.0
 11
893.9327756645116
 21
5179.606999670103
 31
0.0
  0
LINE
  5
1239C
330
747D
100
AcDbEntity
  8
部品1
 48
50.0
100
AcDbLine
 10
3898.801004420533
 20
6438.699205605776
 30
0.0
 11
4295.122566532165
 21
4959.606999670103
 31
0.0
  0
LINE
  5
123A6
330
747D
100
AcDbEntity
  8
部品1
 48
50.0
100
AcDbLine
 10
6631.932775664511
 20
7685.606999670105
 30
0.0
 11
6631.932775664511
 21
5179.606999670106
 31
0.0
  0
LINE
  5
123A7
330
747D
100
AcDbEntity
  8
部品1
 48
50.0
100
AcDbLine
 10
6586.932775664511
 20
7685.606999670105
 30
0.0
 11
6586.932775664511
 21
5179.606999670106
 31
0.0
  0
LINE
  5
123A8
330
747D
100
AcDbEntity
  8
部品1
 48
50.0
100
AcDbLine
 10
6558.93277566451
 20
7685.606999670105
 30
0.0
 11
6558.93277566451
 21
5179.606999670106
 31
0.0
  0
LINE
  5
123A9
330
747D
100
AcDbEntity
  8
部品1
 48
50.0
100
AcDbLine
 10
6513.93277566451
 20
7685.606999670105
 30
0.0
 11
6513.93277566451
 21
5179.606999670106
 31
0.0
  0
LINE
  5
123AA
330
747D
100
AcDbEntity
  8
部品1
 48
50.0
100
AcDbLine
 10
5978.93277566451
 20
7685.606999670105
 30
0.0
 11
5978.93277566451
 21
5179.606999670106
 31
0.0
  0
LINE
  5
123AB
330
747D
100
AcDbEntity
  8
部品1
 48
50.0
100
AcDbLine
 10
6051.932775664511
 20
7685.606999670105
 30
0.0
 11
6051.932775664511
 21
5179.606999670106
 31
0.0
  0
LINE
  5
123AC
330
747D
100
AcDbEntity
  8
部品1
 48
50.0
100
AcDbLine
 10
5933.93277566451
 20
7685.606999670105
 30
0.0
 11
5933.93277566451
 21
5179.606999670106
 31
0.0
  0
LINE
  5
123AD
330
747D
100
AcDbEntity
  8
部品1
 48
50.0
100
AcDbLine
 10
6006.932775664511
 20
7685.606999670105
 30
0.0
 11
6006.932775664511
 21
5179.606999670106
 31
0.0
  0
LINE
  5
123AE
330
747D
100
AcDbEntity
  8
部品1
 48
50.0
100
AcDbLine
 10
6842.432775664511
 20
7685.606999670105
 30
0.0
 11
6842.432775664511
 21
5179.606999670107
 31
0.0
  0
LINE
  5
123AF
330
747D
100
AcDbEntity
  8
部品1
 48
50.0
100
AcDbLine
 10
6865.43277566451
 20
7685.606999670105
 30
0.0
 11
6865.43277566451
 21
5179.606999670107
 31
0.0
  0
LINE
  5
123B0
330
747D
100
AcDbEntity
  8
部品1
 48
50.0
100
AcDbLine
 10
6285.43277566451
 20
7685.606999670105
 30
0.0
 11
6285.43277566451
 21
5179.606999670107
 31
0.0
  0
LINE
  5
123B1
330
747D
100
AcDbEntity
  8
部品1
 48
50.0
100
AcDbLine
 10
6262.43277566451
 20
7685.606999670105
 30
0.0
 11
6262.43277566451
 21
5179.606999670107
 31
0.0
  0
LINE
  5
123B2
330
747D
100
AcDbEntity
  8
部品1
 48
50.0
100
AcDbLine
 10
5682.432775664511
 20
7685.606999670105
 30
0.0
 11
5682.432775664511
 21
5179.606999670107
 31
0.0
  0
LINE
  5
123B3
330
747D
100
AcDbEntity
  8
部品1
 48
50.0
100
AcDbLine
 10
5705.432775664511
 20
7685.606999670105
 30
0.0
 11
5705.432775664511
 21
5179.606999670107
 31
0.0
  0
LINE
  5
123B8
330
747D
100
AcDbEntity
  8
部品1
 48
50.0
100
AcDbLine
 10
4173.932775664511
 20
7685.606999670105
 30
0.0
 11
4173.932775664511
 21
5411.89345654684
 31
0.0
  0
LINE
  5
123B9
330
747D
100
AcDbEntity
  8
部品1
 48
50.0
100
AcDbLine
 10
4218.93277566451
 20
7685.606999670105
 30
0.0
 11
4218.93277566451
 21
5243.951170206242
 31
0.0
  0
LINE
  5
123BA
330
747D
100
AcDbEntity
  8
部品1
 48
50.0
100
AcDbLine
 10
4246.93277566451
 20
7685.606999670105
 30
0.0
 11
4246.93277566451
 21
5179.606999670106
 31
0.0
  0
LINE
  5
123BB
330
747D
100
AcDbEntity
  8
部品1
 48
50.0
100
AcDbLine
 10
4291.932775664511
 20
7685.606999670105
 30
0.0
 11
4291.932775664511
 21
5179.606999670106
 31
0.0
  0
LINE
  5
123BC
330
747D
100
AcDbEntity
  8
部品1
 48
50.0
100
AcDbLine
 10
4593.93277566451
 20
7685.606999670105
 30
0.0
 11
4593.93277566451
 21
5179.606999670106
 31
0.0
  0
LINE
  5
123BD
330
747D
100
AcDbEntity
  8
部品1
 48
50.0
100
AcDbLine
 10
4638.93277566451
 20
7685.606999670105
 30
0.0
 11
4638.93277566451
 21
5179.606999670106
 31
0.0
  0
LINE
  5
123BE
330
747D
100
AcDbEntity
  8
部品1
 48
50.0
100
AcDbLine
 10
4666.932775664511
 20
7685.606999670105
 30
0.0
 11
4666.932775664511
 21
5179.606999670106
 31
0.0
  0
LINE
  5
123BF
330
747D
100
AcDbEntity
  8
部品1
 48
50.0
100
AcDbLine
 10
4711.93277566451
 20
7685.606999670105
 30
0.0
 11
4711.93277566451
 21
5179.606999670106
 31
0.0
  0
LINE
  5
123C0
330
747D
100
AcDbEntity
  8
部品1
 48
50.0
100
AcDbLine
 10
5013.93277566451
 20
7685.606999670105
 30
0.0
 11
5013.93277566451
 21
5179.606999670106
 31
0.0
  0
LINE
  5
123C1
330
747D
100
AcDbEntity
  8
部品1
 48
50.0
100
AcDbLine
 10
5058.93277566451
 20
7685.606999670105
 30
0.0
 11
5058.93277566451
 21
5179.606999670106
 31
0.0
  0
LINE
  5
123C2
330
747D
100
AcDbEntity
  8
部品1
 48
50.0
100
AcDbLine
 10
5086.932775664511
 20
7685.606999670105
 30
0.0
 11
5086.932775664511
 21
5179.606999670106
 31
0.0
  0
LINE
  5
123C3
330
747D
100
AcDbEntity
  8
部品1
 48
50.0
100
AcDbLine
 10
5131.932775664511
 20
7685.606999670105
 30
0.0
 11
5131.932775664511
 21
5179.606999670106
 31
0.0
  0
LINE
  5
123C4
330
747D
100
AcDbEntity
  8
部品1
 48
50.0
100
AcDbLine
 10
5433.93277566451
 20
7685.606999670105
 30
0.0
 11
5433.93277566451
 21
5179.606999670106
 31
0.0
  0
LINE
  5
123C5
330
747D
100
AcDbEntity
  8
部品1
 48
50.0
100
AcDbLine
 10
5478.93277566451
 20
7685.606999670105
 30
0.0
 11
5478.93277566451
 21
5179.606999670106
 31
0.0
  0
LINE
  5
123C6
330
747D
100
AcDbEntity
  8
部品1
 48
50.0
100
AcDbLine
 10
5506.932775664511
 20
7685.606999670105
 30
0.0
 11
5506.932775664511
 21
5179.606999670106
 31
0.0
  0
LINE
  5
123C7
330
747D
100
AcDbEntity
  8
部品1
 48
50.0
100
AcDbLine
 10
5551.932775664511
 20
7685.606999670105
 30
0.0
 11
5551.932775664511
 21
5179.606999670106
 31
0.0
  0
LINE
  5
123CE
330
747D
100
AcDbEntity
  8
部品1
 48
50.0
100
AcDbLine
 10
5285.43277566451
 20
7685.606999670105
 30
0.0
 11
5285.43277566451
 21
5179.606999670107
 31
0.0
  0
LINE
  5
123CF
330
747D
100
AcDbEntity
  8
部品1
 48
50.0
100
AcDbLine
 10
4865.432775664511
 20
7685.606999670105
 30
0.0
 11
4865.432775664511
 21
5179.606999670107
 31
0.0
  0
LINE
  5
123D0
330
747D
100
AcDbEntity
  8
部品1
 48
50.0
100
AcDbLine
 10
4445.432775664513
 20
7685.606999670105
 30
0.0
 11
4445.432775664513
 21
5179.606999670107
 31
0.0
  0
LINE
  5
123D2
330
747D
100
AcDbEntity
  8
部品1
 48
50.0
100
AcDbLine
 10
5262.43277566451
 20
7685.606999670105
 30
0.0
 11
5262.43277566451
 21
5179.606999670107
 31
0.0
  0
LINE
  5
123D3
330
747D
100
AcDbEntity
  8
部品1
 48
50.0
100
AcDbLine
 10
4842.43277566451
 20
7685.606999670105
 30
0.0
 11
4842.43277566451
 21
5179.606999670107
 31
0.0
  0
LINE
  5
123D4
330
747D
100
AcDbEntity
  8
部品1
 48
50.0
100
AcDbLine
 10
4422.432775664512
 20
7685.606999670105
 30
0.0
 11
4422.432775664512
 21
5179.606999670107
 31
0.0
  0
LINE
  5
123D6
330
747D
100
AcDbEntity
  8
部品1
 48
50.0
100
AcDbLine
 10
6878.932775664511
 20
7790.106999670098
 30
0.0
 11
6878.932775664511
 21
5159.606999670103
 31
0.0
  0
LINE
  5
123D7
330
747D
100
AcDbEntity
  8
部品1
 48
50.0
100
AcDbLine
 10
868.9327756645116
 20
7790.106999670102
 30
0.0
 11
868.9327756645116
 21
5159.606999670107
 31
0.0
  0
LINE
  5
123D8
330
747D
100
AcDbEntity
  8
部品1
 48
50.0
100
AcDbLine
 10
6923.93277566451
 20
7794.606999670105
 30
0.0
 11
6923.932775664512
 21
5124.606999670104
 31
0.0
  0
LINE
  5
123DA
330
747D
100
AcDbEntity
  8
部品1
 48
50.0
100
AcDbLine
 10
823.9327756645115
 20
7794.606999670101
 30
0.0
 11
823.9327756645115
 21
5124.606999670109
 31
0.0
  0
DIMENSION
  5
123DC
330
747D
100
AcDbEntity
  8
寸法
 48
50.0
100
AcDbDimension
  2
*D10
 10
6923.932775664511
 20
4431.252285394897
 30
0.0
 11
3873.932775664511
 21
4506.261143662614
 31
0.0
 70
    32
  1
N X 2800 + 500
 71
     5
 42
-1.0
  3
INABA_S30G
100
AcDbAlignedDimension
 13
823.9327756645115
 23
3868.367940889094
 33
0.0
 14
6923.932775664511
 24
3868.367940889097
 34
0.0
100
AcDbRotatedDimension
  0
DIMENSION
  5
123DD
330
747D
100
AcDbEntity
  8
寸法
 48
50.0
100
AcDbDimension
  2
*D11
 10
6673.932775664511
 20
4112.026764312722
 30
0.0
 11
3873.932775664511
 21
4112.026764312722
 31
0.0
 70
   160
  1
N X 2800
 71
     5
 42
5599.999999999999
  3
INABA_S30G
100
AcDbAlignedDimension
 13
1073.932775664511
 23
3745.698835700877
 33
0.0
 14
6673.932775664511
 24
3745.698835700877
 34
0.0
100
AcDbRotatedDimension
  0
LINE
  5
123DE
330
747D
100
AcDbEntity
  8
部品1
 48
50.0
100
AcDbLine
 10
6863.932775664498
 20
1808.019021987511
 30
0.0
 11
883.9327756645056
 21
1808.019021987514
 31
0.0
  0
LINE
  5
123DF
330
747D
100
AcDbEntity
  8
部品1
 48
50.0
100
AcDbLine
 10
3843.932775664511
 20
2118.019021987513
 30
0.0
 11
1103.932775664512
 21
2118.019021987516
 31
0.0
  0
LINE
  5
123E0
330
747D
100
AcDbEntity
  8
部品1
 48
50.0
100
AcDbLine
 10
3843.932775664511
 20
2158.019021987513
 30
0.0
 11
1103.932775664511
 21
2158.019021987515
 31
0.0
  0
LINE
  5
123E1
330
747D
100
AcDbEntity
  8
部品1
 48
50.0
100
AcDbLine
 10
3843.01438141235
 20
3743.804666746607
 30
0.0
 11
1104.851169916673
 21
3743.804666746607
 31
0.0
  0
LINE
  5
123E2
330
747D
100
AcDbEntity
  8
部品1
 48
50.0
100
AcDbLine
 10
3841.932775664511
 20
3708.62837045031
 30
0.0
 11
1105.932775664512
 21
3708.62837045031
 31
0.0
  0
LINE
  5
123E3
330
747D
100
AcDbEntity
  8
部品1
 48
50.0
100
AcDbLine
 10
3841.932775664511
 20
3673.452074154014
 30
0.0
 11
1105.932775664514
 21
3673.452074154012
 31
0.0
  0
LINE
  5
123E4
330
747D
100
AcDbEntity
  8
部品1
 48
50.0
100
AcDbLine
 10
3841.932775664511
 20
3638.275777857715
 30
0.0
 11
1105.932775664514
 21
3638.275777857717
 31
0.0
  0
LINE
  5
123E5
330
747D
100
AcDbEntity
  8
部品1
 48
50.0
100
AcDbLine
 10
3841.932775664511
 20
3626.91743145762
 30
0.0
 11
1105.932775664515
 21
3626.917431457621
 31
0.0
  0
LINE
  5
123E6
330
747D
100
AcDbEntity
  8
部品1
 48
50.0
100
AcDbLine
 10
3843.932775664511
 20
2488.019021987514
 30
0.0
 11
1103.932775664511
 21
2488.019021987514
 31
0.0
  0
LINE
  5
123E7
330
747D
100
AcDbEntity
  8
部品1
 48
50.0
100
AcDbLine
 10
3843.932775664511
 20
2053.019021987514
 30
0.0
 11
1103.932775664511
 21
2053.019021987513
 31
0.0
  0
LINE
  5
123E8
330
747D
100
AcDbEntity
  8
部品1
 48
50.0
100
AcDbLine
 10
3843.932775664511
 20
2863.019021987514
 30
0.0
 11
1103.932775664511
 21
2863.019021987512
 31
0.0
  0
LINE
  5
123E9
330
747D
100
AcDbEntity
  8
部品1
 48
50.0
100
AcDbLine
 10
3843.932775664511
 20
2008.019021987514
 30
0.0
 11
1103.932775664511
 21
2008.019021987513
 31
0.0
  0
LINE
  5
123EA
330
747D
100
AcDbEntity
  8
部品1
 48
50.0
100
AcDbLine
 10
3843.932775664511
 20
2908.019021987514
 30
0.0
 11
1103.932775664511
 21
2908.019021987512
 31
0.0
  0
LINE
  5
123ED
330
747D
100
AcDbEntity
  8
部品1
 48
50.0
100
AcDbLine
 10
3843.932775664511
 20
2458.019021987513
 30
0.0
 11
1103.932775664512
 21
2458.019021987514
 31
0.0
  0
LINE
  5
123EE
330
747D
100
AcDbEntity
  8
細線
 48
50.0
100
AcDbLine
 10
6920.610828480829
 20
3791.820043036955
 30
0.0
 11
827.2547228481947
 21
3791.820043036956
 31
0.0
  0
LINE
  5
123EF
330
747D
100
AcDbEntity
  8
細線
 48
50.0
100
AcDbLine
 10
6921.13293790425
 20
3803.851052743537
 30
0.0
 11
826.7326134247738
 21
3803.851052743535
 31
0.0
  0
LINE
  5
123F0
330
747D
100
AcDbEntity
  8
部品1
 48
50.0
100
AcDbLine
 10
6906.484700660126
 20
3753.152536158741
 30
0.0
 11
841.3808506688992
 21
3753.152536158739
 31
0.0
  0
LINE
  5
123F1
330
747D
100
AcDbEntity
  8
部品1
 48
50.0
100
AcDbLine
 10
6910.356379318857
 20
3868.367940889097
 30
0.0
 11
837.5091720101673
 21
3868.367940889094
 31
0.0
  0
LINE
  5
123F2
330
747D
100
AcDbEntity
  8
部品1
 48
50.0
100
AcDbLine
 10
893.9327756645116
 20
5389.106999670103
 30
0.0
 11
4180.038388382998
 21
5389.106999670104
 31
0.0
  0
LINE
  5
123F3
330
747D
100
AcDbEntity
  8
部品1
 48
50.0
100
AcDbLine
 10
893.9327756645116
 20
5324.106999670107
 30
0.0
 11
4197.455085891021
 21
5324.106999670104
 31
0.0
  0
LINE
  5
123F4
330
747D
100
AcDbEntity
  8
部品1
 48
50.0
100
AcDbLine
 10
893.9327756645116
 20
5369.106999670105
 30
0.0
 11
4185.397372231621
 21
5369.106999670101
 31
0.0
  0
DIMENSION
  5
123F7
330
747D
100
AcDbEntity
  8
寸法
 48
50.0
100
AcDbDimension
  2
*D12
 10
1073.932775664511
 20
4112.026764312722
 30
0.0
 11
948.9327756645115
 21
4112.026764312722
 31
0.0
 70
   160
 71
     5
 42
-1.0
  3
INABA_S30G
100
AcDbAlignedDimension
 13
823.9327756645115
 23
3868.367940889094
 33
0.0
 14
1073.932775664511
 24
3745.698835700877
 34
0.0
100
AcDbRotatedDimension
  0
LINE
  5
123F8
330
747D
100
AcDbEntity
  8
部品1
 48
50.0
100
AcDbLine
 10
1103.932775664511
 20
3488.763437444073
 30
0.0
 11
1103.932775664511
 21
1808.019021987512
 31
0.0
  0
LINE
  5
123F9
330
747D
100
AcDbEntity
  8
部品1
 48
50.0
100
AcDbLine
 10
1043.932775664512
 20
3488.763437444074
 30
0.0
 11
1043.932775664512
 21
1808.019021987512
 31
0.0
  0
TEXT
  5
123FA
330
747D
100
AcDbEntity
  8
寸法
 62
     7
 48
50.0
100
AcDbText
 10
510.9673234543126
 20
1781.19475287362
 30
0.0
 40
78.4
  1
▽G.L
100
AcDbText
  0
LINE
  5
123FB
330
747D
100
AcDbEntity
  8
点線
 48
50.0
100
AcDbLine
 10
1043.932775664504
 20
1808.019021987513
 30
0.0
 11
1043.932775664504
 21
1488.019021987513
 31
0.0
  0
LINE
  5
123FC
330
747D
100
AcDbEntity
  8
点線
 48
50.0
100
AcDbLine
 10
1103.932775664511
 20
1808.019021987513
 30
0.0
 11
1103.932775664504
 21
1488.019021987513
 31
0.0
  0
LINE
  5
12403
330
747D
100
AcDbEntity
  8
点線
 48
50.0
100
AcDbLine
 10
1043.932775664504
 20
1488.019021987513
 30
0.0
 11
1103.932775664504
 21
1488.019021987514
 31
0.0
  0
LINE
  5
12404
330
747D
100
AcDbEntity
  8
部品1
 48
50.0
100
AcDbLine
 10
883.9327756645044
 20
1808.019021987512
 30
0.0
 11
873.9327756645042
 21
1798.019021987512
 31
0.0
  0
LINE
  5
12405
330
747D
100
AcDbEntity
  8
部品1
 48
50.0
100
AcDbLine
 10
873.9327756645042
 20
1798.019021987512
 30
0.0
 11
873.9327756645042
 21
1758.019021987513
 31
0.0
  0
LINE
  5
12406
330
747D
100
AcDbEntity
  8
細線
 48
50.0
100
AcDbLine
 10
944.7066653971713
 20
1758.019021987513
 30
0.0
 11
994.7066653971697
 21
1808.019021987512
 31
0.0
  0
LINE
  5
12407
330
747D
100
AcDbEntity
  8
細線
 48
50.0
100
AcDbLine
 10
917.7658853971703
 20
1758.019021987513
 30
0.0
 11
967.765885397169
 21
1808.019021987512
 31
0.0
  0
LINE
  5
12408
330
747D
100
AcDbEntity
  8
細線
 48
50.0
100
AcDbLine
 10
890.8251053971678
 20
1758.019021987513
 30
0.0
 11
940.8251053971671
 21
1808.019021987512
 31
0.0
  0
LINE
  5
12409
330
747D
100
AcDbEntity
  8
細線
 48
50.0
100
AcDbLine
 10
1085.632775664516
 20
3664.263437444074
 30
0.0
 11
1085.632775664516
 21
3488.763437444074
 31
0.0
  0
LINE
  5
1240A
330
747D
100
AcDbEntity
  8
細線
 48
50.0
100
AcDbLine
 10
1062.232775664511
 20
3664.263437444074
 30
0.0
 11
1062.232775664507
 21
3488.763437444074
 31
0.0
  0
LINE
  5
1240B
330
747D
100
AcDbEntity
  8
細線
 48
50.0
100
AcDbLine
 10
1090.932775664515
 20
3664.263437444074
 30
0.0
 11
1090.932775664519
 21
3488.763437444074
 31
0.0
  0
LINE
  5
1240C
330
747D
100
AcDbEntity
  8
細線
 48
50.0
100
AcDbLine
 10
1056.932775664511
 20
3664.263437444074
 30
0.0
 11
1056.932775664508
 21
3488.763437444074
 31
0.0
  0
LINE
  5
1240D
330
747D
100
AcDbEntity
  8
部品1
 48
50.0
100
AcDbLine
 10
1105.932775664511
 20
3740.698835700876
 30
0.0
 11
1105.932775664519
 21
3488.763437444073
 31
0.0
  0
LINE
  5
1240E
330
747D
100
AcDbEntity
  8
部品1
 48
50.0
100
AcDbLine
 10
1041.932775664511
 20
3740.698835700877
 30
0.0
 11
1041.932775664508
 21
3488.763437444074
 31
0.0
  0
LINE
  5
1240F
330
747D
100
AcDbEntity
  8
部品1
 48
50.0
100
AcDbLine
 10
1105.932775664511
 20
3488.763437444073
 30
0.0
 11
1041.932775664511
 21
3488.763437444074
 31
0.0
  0
LINE
  5
12410
330
747D
100
AcDbEntity
  8
部品1
 48
50.0
100
AcDbLine
 10
1041.932775664511
 20
3638.275777857717
 30
0.0
 11
879.5301010156007
 21
3638.275777857717
 31
0.0
  0
LINE
  5
12411
330
747D
100
AcDbEntity
  8
部品1
 48
50.0
100
AcDbLine
 10
1041.932775664511
 20
3673.452074154014
 30
0.0
 11
879.5267098066043
 21
3673.452074154015
 31
0.0
  0
LINE
  5
12412
330
747D
100
AcDbEntity
  8
部品1
 48
50.0
100
AcDbLine
 10
1041.932775664511
 20
3708.62837045031
 30
0.0
 11
879.5233185976076
 21
3708.62837045031
 31
0.0
  0
LINE
  5
12413
330
747D
100
AcDbEntity
  8
部品1
 48
50.0
100
AcDbLine
 10
1043.014381412348
 20
3743.804666746607
 30
0.0
 11
879.519927388611
 21
3743.804666746607
 31
0.0
  0
LINE
  5
12414
330
747D
100
AcDbEntity
  8
部品1
 48
50.0
100
AcDbLine
 10
1041.932775664511
 20
3626.917431457621
 30
0.0
 11
841.3808506688992
 21
3626.917431457621
 31
0.0
  0
LINE
  5
12415
330
747D
100
AcDbEntity
  8
部品1
 48
50.0
100
AcDbLine
 10
846.9327756645116
 20
3868.367940889094
 30
0.0
 11
846.9327756645116
 21
3753.152536158741
 31
0.0
  0
LINE
  5
12416
330
747D
100
AcDbEntity
  8
部品1
 48
50.0
100
AcDbLine
 10
879.5190261971228
 20
3753.152536158741
 30
0.0
 11
879.5311960293046
 21
3626.91743145762
 31
0.0
  0
LINE
  5
12417
330
747D
100
AcDbEntity
  8
部品1
 48
50.0
100
AcDbLine
 10
824.5091720101672
 20
3855.367940889094
 30
0.0
 11
824.5213961797281
 21
3728.569206009317
 31
0.0
  0
LINE
  5
12418
330
747D
100
AcDbEntity
  8
部品1
 48
50.0
100
AcDbLine
 10
824.5213961797281
 20
3728.569206009317
 30
0.0
 11
828.3930748384637
 21
3639.353801278964
 31
0.0
  0
ARC
  5
12419
330
747D
100
AcDbEntity
  8
部品1
 48
50.0
100
AcDbCircle
 10
841.3808506688992
 20
3639.917431457622
 30
0.0
 40
13.0
100
AcDbArc
 50
182.4849043365733
 51
270.0
  0
ARC
  5
1241A
330
747D
100
AcDbEntity
  8
部品1
 48
50.0
100
AcDbCircle
 10
841.3808506688992
 20
3766.152536158741
 30
0.0
 40
13.0
100
AcDbArc
 50
182.4849043365733
 51
270.0
  0
ARC
  5
1241B
330
747D
100
AcDbEntity
  8
部品1
 48
50.0
100
AcDbCircle
 10
837.5091720101673
 20
3855.367940889094
 30
0.0
 40
13.0
100
AcDbArc
 50
90.00000000000003
 51
182.484904336573
  0
LINE
  5
1241C
330
747D
100
AcDbEntity
  8
部品1
 48
50.0
100
AcDbLine
 10
824.5213961797281
 20
3854.804310710437
 30
0.0
 11
828.3930748384637
 21
3765.588905980084
 31
0.0
  0
ARC
  5
1241D
330
747D
100
AcDbEntity
  8
部品1
 48
50.0
100
AcDbCircle
 10
1100.932775664515
 20
3669.263437444073
 30
0.0
 40
5.0
100
AcDbArc
 50
269.9999999999991
 51
0.0000000000010305
  0
ARC
  5
1241E
330
747D
100
AcDbEntity
  8
部品1
 48
50.0
100
AcDbCircle
 10
1046.932775664511
 20
3669.263437444075
 30
0.0
 40
5.0
100
AcDbArc
 50
179.9999999999992
 51
269.9999999999992
  0
LINE
  5
1241F
330
747D
100
AcDbEntity
  8
部品1
 48
50.0
100
AcDbLine
 10
1100.932775664515
 20
3664.263437444073
 30
0.0
 11
1046.932775664511
 21
3664.263437444074
 31
0.0
  0
ARC
  5
12420
330
747D
100
AcDbEntity
  8
部品1
 48
50.0
100
AcDbCircle
 10
1046.932775664511
 20
3686.874220858927
 30
0.0
 40
5.0
100
AcDbArc
 50
179.9999999999998
 51
269.9999999999991
  0
ARC
  5
12421
330
747D
100
AcDbEntity
  8
部品1
 48
50.0
100
AcDbCircle
 10
1100.932775664515
 20
3686.874220858925
 30
0.0
 40
5.0
100
AcDbArc
 50
270.0
 51
359.9999999999996
  0
ARC
  5
12422
330
747D
100
AcDbEntity
  8
部品1
 48
50.0
100
AcDbCircle
 10
1100.932775664511
 20
3740.698835700876
 30
0.0
 40
5.0
100
AcDbArc
 50
359.9999999999996
 51
89.99999999999911
  0
ARC
  5
12423
330
747D
100
AcDbEntity
  8
部品1
 48
50.0
100
AcDbCircle
 10
1046.932775664511
 20
3740.698835700877
 30
0.0
 40
5.0
100
AcDbArc
 50
90.0
 51
180.0
  0
LINE
  5
12424
330
747D
100
AcDbEntity
  8
部品1
 48
50.0
100
AcDbLine
 10
1100.932775664515
 20
3681.874220858926
 30
0.0
 11
1046.932775664511
 21
3681.874220858926
 31
0.0
  0
LINE
  5
12425
330
747D
100
AcDbEntity
  8
部品1
 48
50.0
100
AcDbLine
 10
1100.932775664511
 20
3745.698835700876
 30
0.0
 11
1046.932775664511
 21
3745.698835700877
 31
0.0
  0
DIMENSION
  5
12426
330
747D
100
AcDbEntity
  8
寸法
 48
50.0
100
AcDbDimension
  2
*D13
 10
503.2608318319707
 20
5109.606999670109
 30
0.0
 11
503.2608318319699
 21
5228.106999670108
 31
0.0
 70
   160
 71
     5
 42
236.9999999999982
  3
INABA_S30G
100
AcDbAlignedDimension
 13
753.9327756645116
 23
5346.606999670107
 33
0.0
 14
838.9327756645116
 24
5109.606999670109
 34
0.0
 50
90.0
100
AcDbRotatedDimension
  0
LINE
  5
12427
330
747D
100
AcDbEntity
  8
部品1
 48
50.0
100
AcDbLine
 10
846.9327756645116
 20
5154.606999670104
 30
0.0
 11
846.9327756645116
 21
5109.606999670103
 31
0.0
  0
ARC
  5
12428
330
747D
100
AcDbEntity
  8
部品1
 48
50.0
100
AcDbCircle
 10
851.9327756645116
 20
5154.606999670104
 30
0.0
 40
5.0
100
AcDbArc
 50
90.00000000000003
 51
180.0
  0
LINE
  5
12429
330
747D
100
AcDbEntity
  8
部品1
 48
50.0
100
AcDbLine
 10
868.9327756645116
 20
5159.606999670103
 30
0.0
 11
851.9327756645116
 21
5159.606999670103
 31
0.0
  0
LINE
  5
1242A
330
747D
100
AcDbEntity
  8
部品1
 48
50.0
100
AcDbLine
 10
846.9327756645116
 20
5132.606999670107
 30
0.0
 11
823.9327756645115
 21
5132.606999670104
 31
0.0
  0
ARC
  5
1242B
330
747D
100
AcDbEntity
  8
部品1
 48
50.0
100
AcDbCircle
 10
838.9327756645116
 20
5124.606999670109
 30
0.0
 40
15.0
100
AcDbArc
 50
180.0
 51
270.0
  0
LINE
  5
1242D
330
747D
100
AcDbEntity
  8
点線
 48
6.0
100
AcDbLine
 10
853.9327756645151
 20
5324.106999670107
 30
0.0
 11
893.9327756645116
 21
5324.106999670107
 31
0.0
  0
LINE
  5
1242E
330
747D
100
AcDbEntity
  8
点線
 48
6.0
100
AcDbLine
 10
853.9327756645151
 20
5389.106999670103
 30
0.0
 11
893.9327756645116
 21
5389.106999670103
 31
0.0
  0
LINE
  5
1242F
330
747D
100
AcDbEntity
  8
点線
 48
6.0
100
AcDbLine
 10
853.9327756645116
 20
5389.106999670107
 30
0.0
 11
853.9327756645116
 21
5324.106999670103
 31
0.0
  0
INSERT
  5
12430
330
747D
100
AcDbEntity
  8
部品1
 48
50.0
100
AcDbBlockReference
  2
A$C644A28E3
 10
1041.932783056084
 20
5279.106997954469
 30
0.0
  0
LINE
  5
12431
330
747D
100
AcDbEntity
  8
点線
 48
6.0
100
AcDbLine
 10
1103.932775664511
 20
5389.106999670103
 30
0.0
 11
1103.932775664511
 21
5324.106999670107
 31
0.0
  0
LINE
  5
12432
330
747D
100
AcDbEntity
  8
点線
 48
6.0
100
AcDbLine
 10
1043.932775664512
 20
5389.106999670103
 30
0.0
 11
1043.932775664512
 21
5324.106999670107
 31
0.0
  0
LWPOLYLINE
  5
12433
330
747D
100
AcDbEntity
  8
部品1
100
AcDbPolyline
 90
        4
 70
     1
 43
0.0
 10
3583.169436317851
 20
1221.730838815043
 10
4230.200811598375
 20
1221.730838815043
 10
4230.200811598375
 20
1029.210682997903
 10
3583.169436317851
 20
1029.210682997903
  0
TEXT
  5
12434
330
747D
100
AcDbEntity
  8
仕様書枠
 62
     7
 48
50.0
100
AcDbText
 10
3614.58451307938
 20
1067.866114464862
 30
0.0
 40
112.0
  1
正 面 図
  7
STYLE2
100
AcDbText
  0
LINE
  5
12445
330
747D
100
AcDbEntity
  8
点線
 48
50.0
100
AcDbLine
 10
4197.455085891021
 20
5324.106999670103
 30
0.0
 11
6893.932775664509
 21
5324.1069996701
 31
0.0
  0
LINE
  5
12446
330
747D
100
AcDbEntity
  8
点線
 48
50.0
100
AcDbLine
 10
4180.038388382998
 20
5389.106999670103
 30
0.0
 11
6893.932775664513
 21
5389.106999670102
 31
0.0
  0
DIMENSION
  5
12447
330
747D
100
AcDbEntity
  8
寸法
 48
50.0
100
AcDbDimension
  2
*D14
 10
6673.932775664503
 20
1327.19399530658
 30
0.0
 11
5273.932775664503
 21
1402.202853574297
 31
0.0
 70
    32
 71
     5
 42
-1.0
  3
INABA_S30G
100
AcDbAlignedDimension
 13
3873.932775664503
 23
1488.019021987513
 33
0.0
 14
6673.932775664503
 24
1488.019021987513
 34
0.0
100
AcDbRotatedDimension
  0
LINE
  5
12448
330
747D
100
AcDbEntity
  8
部品1
 48
50.0
100
AcDbLine
 10
6643.932775664511
 20
2158.019021987513
 30
0.0
 11
3903.932775664511
 21
2158.019021987514
 31
0.0
  0
LINE
  5
12449
330
747D
100
AcDbEntity
  8
部品1
 48
50.0
100
AcDbLine
 10
6643.932775664511
 20
2118.019021987514
 30
0.0
 11
3903.932775664511
 21
2118.019021987514
 31
0.0
  0
LINE
  5
1244A
330
747D
100
AcDbEntity
  8
部品1
 48
50.0
100
AcDbLine
 10
6641.932775664511
 20
3638.275777857715
 30
0.0
 11
3905.932775664515
 21
3638.275777857715
 31
0.0
  0
LINE
  5
1244B
330
747D
100
AcDbEntity
  8
部品1
 48
50.0
100
AcDbLine
 10
6641.932775664511
 20
3673.452074154017
 30
0.0
 11
3905.932775664515
 21
3673.452074154014
 31
0.0
  0
LINE
  5
1244C
330
747D
100
AcDbEntity
  8
部品1
 48
50.0
100
AcDbLine
 10
6641.932775664511
 20
3708.628370450309
 30
0.0
 11
3905.932775664515
 21
3708.62837045031
 31
0.0
  0
LINE
  5
1244D
330
747D
100
AcDbEntity
  8
部品1
 48
50.0
100
AcDbLine
 10
6643.014381412348
 20
3743.804666746607
 30
0.0
 11
3904.851169916674
 21
3743.804666746607
 31
0.0
  0
LINE
  5
1244E
330
747D
100
AcDbEntity
  8
部品1
 48
50.0
100
AcDbLine
 10
6641.932775664511
 20
3626.91743145762
 30
0.0
 11
3905.932775664515
 21
3626.91743145762
 31
0.0
  0
LINE
  5
1244F
330
747D
100
AcDbEntity
  8
部品1
 48
50.0
100
AcDbLine
 10
6643.932775664511
 20
2488.019021987512
 30
0.0
 11
3903.932775664511
 21
2488.019021987514
 31
0.0
  0
LINE
  5
12450
330
747D
100
AcDbEntity
  8
部品1
 48
50.0
100
AcDbLine
 10
6643.932775664511
 20
2053.019021987513
 30
0.0
 11
3903.932775664511
 21
2053.019021987514
 31
0.0
  0
LINE
  5
12451
330
747D
100
AcDbEntity
  8
部品1
 48
50.0
100
AcDbLine
 10
6643.932775664511
 20
2863.019021987513
 30
0.0
 11
3903.932775664511
 21
2863.019021987514
 31
0.0
  0
LINE
  5
12452
330
747D
100
AcDbEntity
  8
部品1
 48
50.0
100
AcDbLine
 10
6643.932775664511
 20
2008.019021987513
 30
0.0
 11
3903.932775664511
 21
2008.019021987514
 31
0.0
  0
LINE
  5
12453
330
747D
100
AcDbEntity
  8
部品1
 48
50.0
100
AcDbLine
 10
6643.932775664511
 20
2458.019021987511
 30
0.0
 11
3903.932775664511
 21
2458.019021987513
 31
0.0
  0
LINE
  5
12456
330
747D
100
AcDbEntity
  8
部品1
 48
50.0
100
AcDbLine
 10
6643.932775664511
 20
2908.019021987514
 30
0.0
 11
3903.932775664511
 21
2908.019021987514
 31
0.0
  0
LINE
  5
12457
330
747D
100
AcDbEntity
  8
部品1
 48
50.0
100
AcDbLine
 10
3903.932775664511
 20
3488.763437444074
 30
0.0
 11
3903.932775664511
 21
1808.019021987511
 31
0.0
  0
LINE
  5
12458
330
747D
100
AcDbEntity
  8
部品1
 48
50.0
100
AcDbLine
 10
3843.932775664511
 20
3488.763437444074
 30
0.0
 11
3843.932775664511
 21
1808.019021987511
 31
0.0
  0
LINE
  5
1245F
330
747D
100
AcDbEntity
  8
部品1
 48
50.0
100
AcDbLine
 10
2491.432775664512
 20
2118.019021987514
 30
0.0
 11
2491.432775664512
 21
2053.019021987513
 31
0.0
  0
LINE
  5
12460
330
747D
100
AcDbEntity
  8
部品1
 48
50.0
100
AcDbLine
 10
2456.432775664512
 20
2118.019021987514
 30
0.0
 11
2456.432775664512
 21
2053.019021987513
 31
0.0
  0
LINE
  5
12467
330
747D
100
AcDbEntity
  8
点線
 48
50.0
100
AcDbLine
 10
3843.932775664505
 20
1808.019021987512
 30
0.0
 11
3843.932775664504
 21
1488.019021987512
 31
0.0
  0
LINE
  5
12468
330
747D
100
AcDbEntity
  8
点線
 48
50.0
100
AcDbLine
 10
3903.932775664511
 20
1808.019021987512
 30
0.0
 11
3903.932775664502
 21
1488.019021987512
 31
0.0
  0
LINE
  5
1246E
330
747D
100
AcDbEntity
  8
点線
 48
50.0
100
AcDbLine
 10
3843.932775664505
 20
1488.019021987512
 30
0.0
 11
3903.932775664504
 21
1488.019021987513
 31
0.0
  0
LINE
  5
1247C
330
747D
100
AcDbEntity
  8
部品1
 48
50.0
100
AcDbLine
 10
3841.932775664511
 20
3740.698835700877
 30
0.0
 11
3841.932775664508
 21
3488.763437444074
 31
0.0
  0
LINE
  5
1247D
330
747D
100
AcDbEntity
  8
部品1
 48
50.0
100
AcDbLine
 10
3905.932775664513
 20
3740.698835700876
 30
0.0
 11
3905.932775664518
 21
3488.763437444073
 31
0.0
  0
LINE
  5
1247E
330
747D
100
AcDbEntity
  8
細線
 48
50.0
100
AcDbLine
 10
3885.632775664515
 20
3664.263437444074
 30
0.0
 11
3885.632775664517
 21
3488.763437444074
 31
0.0
  0
LINE
  5
1247F
330
747D
100
AcDbEntity
  8
細線
 48
50.0
100
AcDbLine
 10
3890.932775664515
 20
3664.263437444074
 30
0.0
 11
3890.932775664519
 21
3488.763437444074
 31
0.0
  0
LINE
  5
12480
330
747D
100
AcDbEntity
  8
細線
 48
50.0
100
AcDbLine
 10
3856.932775664511
 20
3664.263437444074
 30
0.0
 11
3856.932775664507
 21
3488.763437444074
 31
0.0
  0
LINE
  5
12481
330
747D
100
AcDbEntity
  8
細線
 48
50.0
100
AcDbLine
 10
3862.23277566451
 20
3664.263437444074
 30
0.0
 11
3862.232775664509
 21
3488.763437444074
 31
0.0
  0
LINE
  5
12482
330
747D
100
AcDbEntity
  8
部品1
 48
50.0
100
AcDbLine
 10
3905.932775664511
 20
3488.763437444073
 30
0.0
 11
3841.932775664511
 21
3488.763437444074
 31
0.0
  0
LINE
  5
12483
330
747D
100
AcDbEntity
  8
部品1
 48
50.0
100
AcDbLine
 10
3863.932775664512
 20
3753.152536158741
 30
0.0
 11
3863.932775664512
 21
3868.367940889096
 31
0.0
  0
ARC
  5
12484
330
747D
100
AcDbEntity
  8
部品1
 48
50.0
100
AcDbCircle
 10
3846.932775664511
 20
3740.698835700877
 30
0.0
 40
5.0
100
AcDbArc
 50
90.0
 51
180.0
  0
LINE
  5
12485
330
747D
100
AcDbEntity
  8
部品1
 48
50.0
100
AcDbLine
 10
3900.932775664513
 20
3745.698835700876
 30
0.0
 11
3846.932775664511
 21
3745.698835700877
 31
0.0
  0
ARC
  5
12486
330
747D
100
AcDbEntity
  8
部品1
 48
50.0
100
AcDbCircle
 10
3900.932775664513
 20
3740.698835700876
 30
0.0
 40
5.0
100
AcDbArc
 50
359.9999999999996
 51
89.99999999999911
  0
ARC
  5
12487
330
747D
100
AcDbEntity
  8
部品1
 48
50.0
100
AcDbCircle
 10
3900.932775664514
 20
3686.874220858925
 30
0.0
 40
5.0
100
AcDbArc
 50
270.0
 51
359.9999999999996
  0
LINE
  5
12488
330
747D
100
AcDbEntity
  8
部品1
 48
50.0
100
AcDbLine
 10
3900.932775664514
 20
3681.874220858926
 30
0.0
 11
3846.932775664511
 21
3681.874220858926
 31
0.0
  0
ARC
  5
12489
330
747D
100
AcDbEntity
  8
部品1
 48
50.0
100
AcDbCircle
 10
3846.932775664511
 20
3686.874220858927
 30
0.0
 40
5.0
100
AcDbArc
 50
179.9999999999998
 51
269.9999999999991
  0
ARC
  5
1248A
330
747D
100
AcDbEntity
  8
部品1
 48
50.0
100
AcDbCircle
 10
3846.932775664511
 20
3669.263437444075
 30
0.0
 40
5.0
100
AcDbArc
 50
179.9999999999992
 51
269.9999999999992
  0
ARC
  5
1248B
330
747D
100
AcDbEntity
  8
部品1
 48
50.0
100
AcDbCircle
 10
3900.932775664514
 20
3669.263437444073
 30
0.0
 40
5.0
100
AcDbArc
 50
269.9999999999991
 51
0.0000000000010305
  0
LINE
  5
1248C
330
747D
100
AcDbEntity
  8
部品1
 48
50.0
100
AcDbLine
 10
3900.932775664514
 20
3664.263437444073
 30
0.0
 11
3846.932775664511
 21
3664.263437444074
 31
0.0
  0
LINE
  5
12496
330
747D
100
AcDbEntity
  8
部品1
 48
50.0
100
AcDbLine
 10
5256.43277566451
 20
2118.019021987514
 30
0.0
 11
5256.43277566451
 21
2053.019021987513
 31
0.0
  0
LINE
  5
12497
330
747D
100
AcDbEntity
  8
部品1
 48
50.0
100
AcDbLine
 10
5291.43277566451
 20
2118.019021987514
 30
0.0
 11
5291.43277566451
 21
2053.019021987513
 31
0.0
  0
LWPOLYLINE
  5
124C3
330
747D
100
AcDbEntity
  8
部品1
100
AcDbPolyline
 90
        4
 70
     1
 43
0.0
 10
3553.214656746351
 20
4910.29411185841
 10
4200.246032026876
 20
4910.29411185841
 10
4200.246032026876
 20
4717.773956041271
 10
3553.214656746351
 20
4717.773956041271
  0
LINE
  5
124C4
330
747D
100
AcDbEntity
  8
点線
 48
6.0
100
AcDbLine
 10
3903.932775664511
 20
5389.106999670103
 30
0.0
 11
3903.932775664513
 21
5324.106999670103
 31
0.0
  0
LINE
  5
124C5
330
747D
100
AcDbEntity
  8
点線
 48
6.0
100
AcDbLine
 10
3843.932775664513
 20
5389.106999670103
 30
0.0
 11
3843.932775664513
 21
5324.106999670103
 31
0.0
  0
INSERT
  5
124C6
330
747D
100
AcDbEntity
  8
部品1
 48
50.0
100
AcDbBlockReference
  2
A$C644A28E3
 10
3841.932783056083
 20
5279.106997954469
 30
0.0
  0
TEXT
  5
124C7
330
747D
100
AcDbEntity
  8
仕様書枠
 62
     7
 48
50.0
100
AcDbText
 10
3584.62973350788
 20
4756.429387508228
 30
0.0
 40
112.0
  1
平 面 図
  7
STYLE2
100
AcDbText
  0
DIMENSION
  5
124CD
330
747D
100
AcDbEntity
  8
寸法
 48
50.0
100
AcDbDimension
  2
*D15
 10
6923.932775664511
 20
4112.026764312722
 30
0.0
 11
6798.932775664511
 21
4112.026764312722
 31
0.0
 70
   160
 71
     5
 42
-1.0
  3
INABA_S30G
100
AcDbAlignedDimension
 13
6673.932775664511
 23
3745.698835700877
 33
0.0
 14
6923.932775664511
 24
3868.367940889097
 34
0.0
100
AcDbRotatedDimension
  0
LINE
  5
124CE
330
747D
100
AcDbEntity
  8
部品1
 48
50.0
100
AcDbLine
 10
6703.932775664511
 20
3488.763437444074
 30
0.0
 11
6703.932775664511
 21
1808.019021987509
 31
0.0
  0
LINE
  5
124CF
330
747D
100
AcDbEntity
  8
部品1
 48
50.0
100
AcDbLine
 10
6643.932775664511
 20
3488.763437444074
 30
0.0
 11
6643.932775664511
 21
1808.019021987509
 31
0.0
  0
LINE
  5
124D0
330
747D
100
AcDbEntity
  8
点線
 48
50.0
100
AcDbLine
 10
6643.932775664506
 20
1488.019021987512
 30
0.0
 11
6703.932775664504
 21
1488.019021987513
 31
0.0
  0
LINE
  5
124D1
330
747D
100
AcDbEntity
  8
点線
 48
50.0
100
AcDbLine
 10
6643.932775664506
 20
1808.019021987512
 30
0.0
 11
6643.932775664504
 21
1488.019021987512
 31
0.0
  0
LINE
  5
124E3
330
747D
100
AcDbEntity
  8
点線
 48
50.0
100
AcDbLine
 10
6703.932775664511
 20
1808.019021987512
 30
0.0
 11
6703.932775664502
 21
1488.019021987512
 31
0.0
  0
DIMENSION
  5
124E7
330
747D
100
AcDbEntity
  8
寸法
 48
50.0
100
AcDbDimension
  2
*D16
 10
7038.665956742083
 20
1758.019021987513
 30
0.0
 11
7038.665956742083
 21
2037.554455058377
 31
0.0
 70
   160
 71
     5
 42
-1.0
  3
INABA_S30G
100
AcDbAlignedDimension
 13
6863.932775664498
 23
1808.019021987511
 33
0.0
 14
6873.932775664504
 24
1758.019021987513
 34
0.0
 50
90.0
100
AcDbRotatedDimension
  0
LINE
  5
124EB
330
747D
100
AcDbEntity
  8
部品1
 48
50.0
100
AcDbLine
 10
6863.932775664498
 20
1808.019021987511
 30
0.0
 11
6873.932775664498
 21
1798.01902198751
 31
0.0
  0
LINE
  5
124EC
330
747D
100
AcDbEntity
  8
部品1
 48
50.0
100
AcDbLine
 10
6873.932775664498
 20
1798.01902198751
 30
0.0
 11
6873.932775664504
 21
1758.019021987513
 31
0.0
  0
LINE
  5
124ED
330
747D
100
AcDbEntity
  8
部品1
 48
50.0
100
AcDbLine
 10
6700.932775664512
 20
3745.698835700876
 30
0.0
 11
6646.932775664511
 21
3745.698835700877
 31
0.0
  0
LINE
  5
124EE
330
747D
100
AcDbEntity
  8
部品1
 48
50.0
100
AcDbLine
 10
6700.932775664515
 20
3681.874220858926
 30
0.0
 11
6646.932775664511
 21
3681.874220858926
 31
0.0
  0
LINE
  5
124EF
330
747D
100
AcDbEntity
  8
部品1
 48
50.0
100
AcDbLine
 10
6700.932775664515
 20
3664.263437444073
 30
0.0
 11
6646.932775664511
 21
3664.263437444074
 31
0.0
  0
LINE
  5
124F0
330
747D
100
AcDbEntity
  8
部品1
 48
50.0
100
AcDbLine
 10
6705.932775664511
 20
3488.763437444073
 30
0.0
 11
6641.932775664511
 21
3488.763437444074
 31
0.0
  0
LINE
  5
124F1
330
747D
100
AcDbEntity
  8
部品1
 48
50.0
100
AcDbLine
 10
6641.932775664511
 20
3740.698835700877
 30
0.0
 11
6641.932775664507
 21
3488.763437444074
 31
0.0
  0
ARC
  5
124F2
330
747D
100
AcDbEntity
  8
部品1
 48
50.0
100
AcDbCircle
 10
6646.932775664511
 20
3740.698835700877
 30
0.0
 40
5.0
100
AcDbArc
 50
90.0
 51
180.0
  0
ARC
  5
124F3
330
747D
100
AcDbEntity
  8
部品1
 48
50.0
100
AcDbCircle
 10
6646.932775664511
 20
3686.874220858927
 30
0.0
 40
5.0
100
AcDbArc
 50
179.9999999999998
 51
269.9999999999991
  0
ARC
  5
124F4
330
747D
100
AcDbEntity
  8
部品1
 48
50.0
100
AcDbCircle
 10
6646.932775664511
 20
3669.263437444075
 30
0.0
 40
5.0
100
AcDbArc
 50
179.9999999999992
 51
269.9999999999992
  0
LINE
  5
124F5
330
747D
100
AcDbEntity
  8
部品1
 48
50.0
100
AcDbLine
 10
6705.932775664513
 20
3740.698835700876
 30
0.0
 11
6705.932775664518
 21
3488.763437444073
 31
0.0
  0
LINE
  5
124F6
330
747D
100
AcDbEntity
  8
細線
 48
50.0
100
AcDbLine
 10
6685.632775664515
 20
3664.263437444074
 30
0.0
 11
6685.632775664517
 21
3488.763437444074
 31
0.0
  0
LINE
  5
124F7
330
747D
100
AcDbEntity
  8
細線
 48
50.0
100
AcDbLine
 10
6690.932775664514
 20
3664.263437444074
 30
0.0
 11
6690.932775664518
 21
3488.763437444074
 31
0.0
  0
LINE
  5
124F8
330
747D
100
AcDbEntity
  8
細線
 48
50.0
100
AcDbLine
 10
6656.932775664511
 20
3664.263437444074
 30
0.0
 11
6656.932775664507
 21
3488.763437444074
 31
0.0
  0
LINE
  5
124F9
330
747D
100
AcDbEntity
  8
細線
 48
50.0
100
AcDbLine
 10
6662.23277566451
 20
3664.263437444074
 30
0.0
 11
6662.232775664508
 21
3488.763437444074
 31
0.0
  0
LINE
  5
124FA
330
747D
100
AcDbEntity
  8
部品1
 48
50.0
100
AcDbLine
 10
6900.932775664511
 20
3868.367940889094
 30
0.0
 11
6900.932775664511
 21
3753.152536158741
 31
0.0
  0
LINE
  5
124FB
330
747D
100
AcDbEntity
  8
部品1
 48
50.0
100
AcDbLine
 10
6868.346525131897
 20
3753.15253615874
 30
0.0
 11
6868.334355299715
 21
3626.91743145762
 31
0.0
  0
LINE
  5
124FC
330
747D
100
AcDbEntity
  8
部品1
 48
50.0
100
AcDbLine
 10
6868.335450313421
 20
3638.275777857717
 30
0.0
 11
6705.932775664514
 21
3638.275777857717
 31
0.0
  0
LINE
  5
124FD
330
747D
100
AcDbEntity
  8
部品1
 48
50.0
100
AcDbLine
 10
6868.338841522415
 20
3673.452074154016
 30
0.0
 11
6705.932775664514
 21
3673.452074154016
 31
0.0
  0
LINE
  5
124FE
330
747D
100
AcDbEntity
  8
部品1
 48
50.0
100
AcDbLine
 10
6868.342232731413
 20
3708.628370450311
 30
0.0
 11
6705.932775664514
 21
3708.62837045031
 31
0.0
  0
LINE
  5
124FF
330
747D
100
AcDbEntity
  8
部品1
 48
50.0
100
AcDbLine
 10
6868.34562394041
 20
3743.804666746607
 30
0.0
 11
6704.851169916674
 21
3743.804666746606
 31
0.0
  0
ARC
  5
12500
330
747D
100
AcDbEntity
  8
部品1
 48
50.0
100
AcDbCircle
 10
6700.932775664512
 20
3740.698835700876
 30
0.0
 40
5.0
100
AcDbArc
 50
359.9999999999996
 51
89.99999999999911
  0
ARC
  5
12501
330
747D
100
AcDbEntity
  8
部品1
 48
50.0
100
AcDbCircle
 10
6700.932775664515
 20
3686.874220858925
 30
0.0
 40
5.0
100
AcDbArc
 50
270.0
 51
359.9999999999996
  0
ARC
  5
12502
330
747D
100
AcDbEntity
  8
部品1
 48
50.0
100
AcDbCircle
 10
6700.932775664515
 20
3669.263437444073
 30
0.0
 40
5.0
100
AcDbArc
 50
269.9999999999991
 51
0.0000000000010305
  0
LINE
  5
12503
330
747D
100
AcDbEntity
  8
部品1
 48
50.0
100
AcDbLine
 10
6923.356379318857
 20
3855.367940889097
 30
0.0
 11
6923.344155149294
 21
3728.56920600932
 31
0.0
  0
LINE
  5
12504
330
747D
100
AcDbEntity
  8
部品1
 48
50.0
100
AcDbLine
 10
6923.344155149294
 20
3728.56920600932
 30
0.0
 11
6919.472476490563
 21
3639.353801278965
 31
0.0
  0
ARC
  5
12505
330
747D
100
AcDbEntity
  8
部品1
 48
50.0
100
AcDbCircle
 10
6906.484700660126
 20
3639.917431457622
 30
0.0
 40
13.0
100
AcDbArc
 50
270.0
 51
357.5150956634288
  0
LINE
  5
12506
330
747D
100
AcDbEntity
  8
部品1
 48
50.0
100
AcDbLine
 10
6906.484700660126
 20
3626.917431457621
 30
0.0
 11
6705.932775664516
 21
3626.91743145762
 31
0.0
  0
ARC
  5
12507
330
747D
100
AcDbEntity
  8
部品1
 48
50.0
100
AcDbCircle
 10
6906.484700660126
 20
3766.152536158741
 30
0.0
 40
13.0
100
AcDbArc
 50
270.0
 51
357.5150956634288
  0
ARC
  5
12508
330
747D
100
AcDbEntity
  8
部品1
 48
50.0
100
AcDbCircle
 10
6910.356379318857
 20
3855.367940889097
 30
0.0
 40
13.0
100
AcDbArc
 50
357.515095663427
 51
90.0
  0
LINE
  5
12509
330
747D
100
AcDbEntity
  8
部品1
 48
50.0
100
AcDbLine
 10
6923.344155149294
 20
3854.80431071044
 30
0.0
 11
6919.472476490563
 21
3765.588905980085
 31
0.0
  0
ARC
  5
1250A
330
747D
100
AcDbEntity
  8
点線
 48
50.0
100
AcDbCircle
 10
6651.932775664511
 20
5289.106999670107
 30
0.0
 40
10.0
100
AcDbArc
 50
180.0
 51
270.0000000000009
  0
LINE
  5
1250B
330
747D
100
AcDbEntity
  8
点線
 48
50.0
100
AcDbLine
 10
6641.932775664511
 20
5324.106999670107
 30
0.0
 11
6641.932775664511
 21
5289.106999670107
 31
0.0
  0
LINE
  5
1250C
330
747D
100
AcDbEntity
  8
部品1
 48
50.0
100
AcDbLine
 10
6900.932775664512
 20
5132.606999670107
 30
0.0
 11
6923.932775664512
 21
5132.606999670104
 31
0.0
  0
ARC
  5
1250D
330
747D
100
AcDbEntity
  8
部品1
 48
50.0
100
AcDbCircle
 10
6908.932775664514
 20
5124.606999670104
 30
0.0
 40
15.0
100
AcDbArc
 50
270.0
 51
0.0000000000000763
  0
ARC
  5
1250E
330
747D
100
AcDbEntity
  8
部品1
 48
50.0
100
AcDbCircle
 10
6895.932775664511
 20
5154.606999670104
 30
0.0
 40
5.0
100
AcDbArc
 50
0.0
 51
89.99999999999998
  0
LINE
  5
1250F
330
747D
100
AcDbEntity
  8
部品1
 48
50.0
100
AcDbLine
 10
6878.932775664511
 20
5159.606999670103
 30
0.0
 11
6895.932775664511
 21
5159.606999670103
 31
0.0
  0
LINE
  5
12510
330
747D
100
AcDbEntity
  8
部品1
 48
50.0
100
AcDbLine
 10
6900.932775664511
 20
5154.606999670104
 30
0.0
 11
6900.932775664512
 21
5109.606999670103
 31
0.0
  0
LINE
  5
12511
330
747D
100
AcDbEntity
  8
点線
 48
50.0
100
AcDbLine
 10
6705.932775664511
 20
5324.106999670107
 30
0.0
 11
6705.932775664511
 21
5289.10699967011
 31
0.0
  0
LINE
  5
12512
330
747D
100
AcDbEntity
  8
点線
 48
50.0
100
AcDbLine
 10
6651.932775664511
 20
5279.106999670108
 30
0.0
 11
6695.932775664511
 21
5279.106999670111
 31
0.0
  0
ARC
  5
12513
330
747D
100
AcDbEntity
  8
点線
 48
50.0
100
AcDbCircle
 10
6695.932775664511
 20
5289.10699967011
 30
0.0
 40
10.0
100
AcDbArc
 50
270.0000000000021
 51
0.0
  0
LINE
  5
12514
330
747D
100
AcDbEntity
  8
点線
 48
6.0
100
AcDbLine
 10
6893.932775664513
 20
5389.106999670107
 30
0.0
 11
6893.932775664511
 21
5324.106999670103
 31
0.0
  0
LINE
  5
12518
330
747D
100
AcDbEntity
  8
部品1
 48
50.0
100
AcDbLine
 10
893.9327756645116
 20
6131.106999670105
 30
0.0
 11
3981.220087599105
 21
6131.106999670106
 31
0.0
  0
LINE
  5
12519
330
747D
100
AcDbEntity
  8
部品1
 48
50.0
100
AcDbLine
 10
893.9327756645116
 20
6111.106999670106
 30
0.0
 11
3986.579071447728
 21
6111.106999670103
 31
0.0
  0
LINE
  5
1251A
330
747D
100
AcDbEntity
  8
部品1
 48
50.0
100
AcDbLine
 10
893.9327756645116
 20
6066.106999670105
 30
0.0
 11
3998.636785107127
 21
6066.106999670105
 31
0.0
  0
LINE
  5
1251B
330
747D
100
AcDbEntity
  8
部品1
 48
50.0
100
AcDbLine
 10
893.9327756645116
 20
6808.106999670101
 30
0.0
 11
3799.818484323235
 21
6808.106999670108
 31
0.0
  0
LINE
  5
1251C
330
747D
100
AcDbEntity
  8
部品1
 48
50.0
100
AcDbLine
 10
893.9327756645116
 20
6853.106999670105
 30
0.0
 11
3787.760770663834
 21
6853.106999670109
 31
0.0
  0
LINE
  5
1251D
330
747D
100
AcDbEntity
  8
部品1
 48
50.0
100
AcDbLine
 10
893.9327756645116
 20
6873.106999670105
 30
0.0
 11
3782.401786815212
 21
6873.106999670106
 31
0.0
  0
DIMENSION
  5
12521
330
747D
100
AcDbEntity
  8
寸法
 48
50.0
100
AcDbDimension
  2
*D17
 10
503.2608318319711
 20
7572.606999670106
 30
0.0
 11
503.2608318319699
 21
7691.106999670103
 31
0.0
 70
   160
 71
     5
 42
236.9999999999964
  3
INABA_S30G
100
AcDbAlignedDimension
 13
838.9327756645116
 23
7809.606999670101
 33
0.0
 14
753.9327756645152
 24
7572.606999670106
 34
0.0
 50
90.0
100
AcDbRotatedDimension
  0
DIMENSION
  5
12522
330
747D
100
AcDbEntity
  8
寸法
 48
50.0
100
AcDbDimension
  2
*D18
 10
503.2608318319709
 20
6088.606999670108
 30
0.0
 11
503.2608318319699
 21
6459.606999670109
 31
0.0
 70
   160
 71
     5
 42
742.0
  3
INABA_S30G
100
AcDbAlignedDimension
 13
753.9327756645152
 23
6830.606999670109
 33
0.0
 14
753.9327756645116
 24
6088.606999670108
 34
0.0
 50
90.0
100
AcDbRotatedDimension
  0
DIMENSION
  5
12523
330
747D
100
AcDbEntity
  8
寸法
 48
50.0
100
AcDbDimension
  2
*D19
 10
503.2608318319709
 20
6830.606999670109
 30
0.0
 11
503.2608318319699
 21
7201.606999670108
 31
0.0
 70
   160
 71
     5
 42
741.9999999999963
  3
INABA_S30G
100
AcDbAlignedDimension
 13
753.9327756645152
 23
7572.606999670106
 33
0.0
 14
753.9327756645152
 24
6830.606999670109
 34
0.0
 50
90.0
100
AcDbRotatedDimension
  0
LINE
  5
12524
330
747D
100
AcDbEntity
  8
点線
 48
6.0
100
AcDbLine
 10
1103.932775664511
 20
6873.106999670105
 30
0.0
 11
1103.932775664511
 21
6808.106999670101
 31
0.0
  0
LINE
  5
12525
330
747D
100
AcDbEntity
  8
点線
 48
6.0
100
AcDbLine
 10
1043.932775664512
 20
6873.106999670105
 30
0.0
 11
1043.932775664512
 21
6808.106999670101
 31
0.0
  0
LINE
  5
12526
330
747D
100
AcDbEntity
  8
点線
 48
6.0
100
AcDbLine
 10
853.9327756645151
 20
6873.106999670103
 30
0.0
 11
853.9327756645116
 21
6808.106999670106
 31
0.0
  0
LINE
  5
12527
330
747D
100
AcDbEntity
  8
部品1
 48
50.0
100
AcDbLine
 10
1103.932775664511
 20
6808.106999670101
 30
0.0
 11
1103.932775664511
 21
6131.106999670105
 31
0.0
  0
LINE
  5
12528
330
747D
100
AcDbEntity
  8
部品1
 48
50.0
100
AcDbLine
 10
1043.932775664512
 20
6808.106999670101
 30
0.0
 11
1043.932775664512
 21
6131.106999670105
 31
0.0
  0
LINE
  5
1252A
330
747D
100
AcDbEntity
  8
点線
 48
6.0
100
AcDbLine
 10
853.9327756645151
 20
6066.106999670108
 30
0.0
 11
893.9327756645116
 21
6066.106999670108
 31
0.0
  0
LINE
  5
1252B
330
747D
100
AcDbEntity
  8
点線
 48
6.0
100
AcDbLine
 10
853.9327756645151
 20
6131.106999670105
 30
0.0
 11
893.9327756645116
 21
6131.106999670105
 31
0.0
  0
LINE
  5
1252C
330
747D
100
AcDbEntity
  8
点線
 48
6.0
100
AcDbLine
 10
853.9327756645116
 20
6131.106999670109
 30
0.0
 11
853.9327756645116
 21
6066.106999670105
 31
0.0
  0
LINE
  5
1252D
330
747D
100
AcDbEntity
  8
点線
 48
6.0
100
AcDbLine
 10
1103.932775664511
 20
6131.106999670105
 30
0.0
 11
1103.932775664511
 21
6066.106999670105
 31
0.0
  0
LINE
  5
1252E
330
747D
100
AcDbEntity
  8
点線
 48
6.0
100
AcDbLine
 10
1043.932775664512
 20
6131.106999670105
 30
0.0
 11
1043.932775664512
 21
6066.106999670105
 31
0.0
  0
LINE
  5
1252F
330
747D
100
AcDbEntity
  8
点線
 48
6.0
100
AcDbLine
 10
853.9327756645151
 20
6808.106999670108
 30
0.0
 11
893.9327756645116
 21
6808.106999670108
 31
0.0
  0
LINE
  5
12530
330
747D
100
AcDbEntity
  8
部品1
 48
50.0
100
AcDbLine
 10
1043.932775664512
 20
7550.106999670105
 30
0.0
 11
1043.932775664512
 21
6873.106999670105
 31
0.0
  0
LINE
  5
12531
330
747D
100
AcDbEntity
  8
部品1
 48
50.0
100
AcDbLine
 10
1103.932775664511
 20
7550.106999670105
 30
0.0
 11
1103.932775664511
 21
6873.106999670105
 31
0.0
  0
LINE
  5
12533
330
747D
100
AcDbEntity
  8
点線
 48
6.0
100
AcDbLine
 10
853.9327756645151
 20
6873.106999670105
 30
0.0
 11
893.9327756645116
 21
6873.106999670105
 31
0.0
  0
LINE
  5
12535
330
747D
100
AcDbEntity
  8
点線
 48
6.0
100
AcDbLine
 10
853.9327756645151
 20
7615.106999670103
 30
0.0
 11
893.9327756645116
 21
7615.106999670103
 31
0.0
  0
LINE
  5
12536
330
747D
100
AcDbEntity
  8
点線
 48
6.0
100
AcDbLine
 10
853.9327756645151
 20
7550.106999670105
 30
0.0
 11
893.9327756645116
 21
7550.106999670105
 31
0.0
  0
LINE
  5
12537
330
747D
100
AcDbEntity
  8
部品1
 48
50.0
100
AcDbLine
 10
823.9327756645115
 20
7786.606999670102
 30
0.0
 11
868.9327756645116
 21
7786.606999670105
 31
0.0
  0
LINE
  5
12538
330
747D
100
AcDbEntity
  8
部品1
 48
50.0
100
AcDbLine
 10
846.9327756645116
 20
7809.606999670101
 30
0.0
 11
846.9327756645116
 21
7786.606999670105
 31
0.0
  0
LINE
  5
12539
330
747D
100
AcDbEntity
  8
部品1
 48
50.0
100
AcDbLine
 10
846.9327756645116
 20
7790.106999670102
 30
0.0
 11
868.9327756645116
 21
7790.106999670102
 31
0.0
  0
ARC
  5
1253A
330
747D
100
AcDbEntity
  8
部品1
 48
50.0
100
AcDbCircle
 10
838.9327756645116
 20
7794.606999670101
 30
0.0
 40
15.0
100
AcDbArc
 50
90.0
 51
180.0
  0
LINE
  5
1253B
330
747D
100
AcDbEntity
  8
点線
 48
6.0
100
AcDbLine
 10
853.9327756645151
 20
7550.106999670105
 30
0.0
 11
853.9327756645151
 21
7615.106999670105
 31
0.0
  0
LINE
  5
1253C
330
747D
100
AcDbEntity
  8
部品1
 48
50.0
100
AcDbLine
 10
1041.932775664511
 20
7615.106999670103
 30
0.0
 11
1041.932775664511
 21
7630.106999670101
 31
0.0
  0
LINE
  5
1253D
330
747D
100
AcDbEntity
  8
部品1
 48
50.0
100
AcDbLine
 10
1105.932775664511
 20
7615.106999670103
 30
0.0
 11
1105.932775664511
 21
7630.106999670099
 31
0.0
  0
LINE
  5
1253E
330
747D
100
AcDbEntity
  8
点線
 48
6.0
100
AcDbLine
 10
1041.932775664511
 20
7595.106999670102
 30
0.0
 11
1041.932775664511
 21
7615.106999670103
 31
0.0
  0
LINE
  5
1253F
330
747D
100
AcDbEntity
  8
点線
 48
6.0
100
AcDbLine
 10
1105.932775664511
 20
7595.106999670102
 30
0.0
 11
1105.932775664511
 21
7615.106999670103
 31
0.0
  0
LINE
  5
12540
330
747D
100
AcDbEntity
  8
部品1
 48
50.0
100
AcDbLine
 10
1051.932775664512
 20
7640.106999670102
 30
0.0
 11
1095.932775664511
 21
7640.106999670098
 31
0.0
  0
ARC
  5
12541
330
747D
100
AcDbEntity
  8
部品1
 48
50.0
100
AcDbCircle
 10
1051.932775664512
 20
7630.106999670101
 30
0.0
 40
10.0
100
AcDbArc
 50
90.0
 51
180.0
  0
ARC
  5
12542
330
747D
100
AcDbEntity
  8
部品1
 48
50.0
100
AcDbCircle
 10
1095.932775664511
 20
7630.106999670099
 30
0.0
 40
10.0
100
AcDbArc
 50
0.0
 51
90.0
  0
LINE
  5
12543
330
747D
100
AcDbEntity
  8
点線
 48
6.0
100
AcDbLine
 10
1103.932775664511
 20
7595.106999670105
 30
0.0
 11
1103.932775664511
 21
7550.106999670105
 31
0.0
  0
LINE
  5
12544
330
747D
100
AcDbEntity
  8
点線
 48
6.0
100
AcDbLine
 10
1043.932775664512
 20
7595.106999670105
 30
0.0
 11
1043.932775664512
 21
7550.106999670105
 31
0.0
  0
LINE
  5
12545
330
747D
100
AcDbEntity
  8
点線
 48
50.0
100
AcDbLine
 10
3998.636785107127
 20
6066.106999670105
 30
0.0
 11
6893.932775664509
 21
6066.106999670105
 31
0.0
  0
LINE
  5
12546
330
747D
100
AcDbEntity
  8
点線
 48
50.0
100
AcDbLine
 10
3981.220087599104
 20
6131.106999670105
 30
0.0
 11
6893.932775664511
 21
6131.106999670109
 31
0.0
  0
LINE
  5
12547
330
747D
100
AcDbEntity
  8
点線
 48
50.0
100
AcDbLine
 10
3799.818484323234
 20
6808.106999670106
 30
0.0
 11
6893.932775664509
 21
6808.106999670106
 31
0.0
  0
LINE
  5
12548
330
747D
100
AcDbEntity
  8
点線
 48
50.0
100
AcDbLine
 10
3782.401786815211
 20
6873.106999670105
 30
0.0
 11
6893.932775664506
 21
6873.106999670103
 31
0.0
  0
LINE
  5
12549
330
747D
100
AcDbEntity
  8
点線
 48
50.0
100
AcDbLine
 10
3601.00018353934
 20
7550.106999670105
 30
0.0
 11
6893.932775664507
 21
7550.106999670105
 31
0.0
  0
LINE
  5
1254A
330
747D
100
AcDbEntity
  8
点線
 48
50.0
100
AcDbLine
 10
3583.583486031316
 20
7615.106999670105
 30
0.0
 11
6893.932775664509
 21
7615.106999670105
 31
0.0
  0
LINE
  5
1254B
330
747D
100
AcDbEntity
  8
部品1
 48
50.0
100
AcDbLine
 10
3491.274989238795
 20
7959.606999670102
 30
0.0
 11
3868.415195785405
 21
6552.100587261151
 31
0.0
  0
LINE
  5
1254C
330
747D
100
AcDbEntity
  8
部品1
 48
50.0
100
AcDbLine
 10
3903.932775664513
 20
7685.606999670105
 30
0.0
 11
3903.932775664515
 21
6498.209906351222
 31
0.0
  0
LINE
  5
1254D
330
747D
100
AcDbEntity
  8
部品1
 48
50.0
100
AcDbLine
 10
4025.432775664511
 20
7685.606999670105
 30
0.0
 11
4025.432775664511
 21
5966.103001470813
 31
0.0
  0
LINE
  5
1254E
330
747D
100
AcDbEntity
  8
部品1
 48
50.0
100
AcDbLine
 10
4002.432775664511
 20
7685.606999670105
 30
0.0
 11
4002.432775664511
 21
6051.940170044895
 31
0.0
  0
LINE
  5
1254F
330
747D
100
AcDbEntity
  8
部品1
 48
50.0
100
AcDbLine
 10
3843.932775664513
 20
7685.606999670105
 30
0.0
 11
3843.932775664511
 21
6643.470223044571
 31
0.0
  0
LINE
  5
12550
330
747D
100
AcDbEntity
  8
部品1
 48
50.0
100
AcDbLine
 10
3903.932775664515
 20
6498.209906351222
 30
0.0
 11
3903.932775664515
 21
6131.106999670105
 31
0.0
  0
LINE
  5
12551
330
747D
100
AcDbEntity
  8
部品1
 48
50.0
100
AcDbLine
 10
3843.932775664513
 20
6498.209906351219
 30
0.0
 11
3843.932775664513
 21
6131.106999670105
 31
0.0
  0
LINE
  5
12552
330
747D
100
AcDbEntity
  8
点線
 48
6.0
100
AcDbLine
 10
3903.932775664515
 20
6131.106999670105
 30
0.0
 11
3903.932775664515
 21
6066.106999670105
 31
0.0
  0
LINE
  5
12553
330
747D
100
AcDbEntity
  8
点線
 48
6.0
100
AcDbLine
 10
3843.932775664513
 20
6131.106999670105
 30
0.0
 11
3843.932775664513
 21
6066.106999670105
 31
0.0
  0
LINE
  5
12554
330
747D
100
AcDbEntity
  8
部品1
 48
50.0
100
AcDbLine
 10
3898.801004420533
 20
6438.699205605772
 30
0.0
 11
4001.876561705677
 21
6498.209906351222
 31
0.0
  0
LINE
  5
12555
330
747D
100
AcDbEntity
  8
部品1
 48
50.0
100
AcDbLine
 10
3775.07379839493
 20
6498.209906351219
 30
0.0
 11
4001.876561705677
 21
6498.209906351222
 31
0.0
  0
LINE
  5
12556
330
747D
100
AcDbEntity
  8
部品1
 48
50.0
100
AcDbLine
 10
3903.932775664513
 20
6441.662035114903
 30
0.0
 11
3903.932775664513
 21
6419.54717459043
 31
0.0
  0
LINE
  5
12557
330
747D
100
AcDbEntity
  8
部品1
 48
50.0
100
AcDbLine
 10
3843.932775664511
 20
6643.470223044571
 30
0.0
 11
3843.932775664513
 21
6498.209906351219
 31
0.0
  0
LINE
  5
12558
330
747D
100
AcDbEntity
  8
部品1
 48
50.0
100
AcDbLine
 10
3775.073798394926
 20
6498.209906351222
 30
0.0
 11
3868.415195785405
 21
6552.100587261151
 31
0.0
  0
LINE
  5
12559
330
747D
100
AcDbEntity
  8
部品1
 48
50.0
100
AcDbLine
 10
3722.432775664511
 20
7685.606999670105
 30
0.0
 11
3722.432775664511
 21
7096.914396164184
 31
0.0
  0
LINE
  5
1255A
330
747D
100
AcDbEntity
  8
部品1
 48
50.0
100
AcDbLine
 10
3745.432775664511
 20
7685.606999670105
 30
0.0
 11
3745.432775664511
 21
7011.077227590101
 31
0.0
  0
ARC
  5
1255B
330
747D
100
AcDbEntity
  8
点線
 48
50.0
100
AcDbCircle
 10
3895.932775664511
 20
7630.106999670099
 30
0.0
 40
10.0
100
AcDbArc
 50
0.0
 51
90.0
  0
ARC
  5
1255C
330
747D
100
AcDbEntity
  8
点線
 48
50.0
100
AcDbCircle
 10
3851.93277566451
 20
7630.106999670101
 30
0.0
 40
10.0
100
AcDbArc
 50
90.0
 51
180.0
  0
LINE
  5
1255D
330
747D
100
AcDbEntity
  8
点線
 48
50.0
100
AcDbLine
 10
3851.93277566451
 20
7640.106999670102
 30
0.0
 11
3895.932775664511
 21
7640.106999670098
 31
0.0
  0
LINE
  5
1255E
330
747D
100
AcDbEntity
  8
点線
 48
50.0
100
AcDbLine
 10
3905.932775664511
 20
7615.106999670103
 30
0.0
 11
3905.932775664511
 21
7630.106999670099
 31
0.0
  0
LINE
  5
1255F
330
747D
100
AcDbEntity
  8
点線
 48
50.0
100
AcDbLine
 10
3841.932775664511
 20
7615.106999670103
 30
0.0
 11
3841.932775664511
 21
7630.106999670101
 31
0.0
  0
ARC
  5
12565
330
747D
100
AcDbEntity
  8
点線
 48
50.0
100
AcDbCircle
 10
6651.932775664511
 20
7630.106999670101
 30
0.0
 40
10.0
100
AcDbArc
 50
90.0
 51
180.0
  0
LINE
  5
12566
330
747D
100
AcDbEntity
  8
点線
 48
50.0
100
AcDbLine
 10
6643.932775664511
 20
6808.106999670101
 30
0.0
 11
6643.932775664511
 21
6131.106999670105
 31
0.0
  0
LINE
  5
12567
330
747D
100
AcDbEntity
  8
点線
 48
50.0
100
AcDbLine
 10
6643.932775664511
 20
7550.106999670105
 30
0.0
 11
6643.932775664511
 21
6873.106999670105
 31
0.0
  0
LINE
  5
12568
330
747D
100
AcDbEntity
  8
点線
 48
50.0
100
AcDbLine
 10
6641.932775664511
 20
7615.106999670103
 30
0.0
 11
6641.932775664511
 21
7630.106999670101
 31
0.0
  0
LINE
  5
12569
330
747D
100
AcDbEntity
  8
点線
 48
6.0
100
AcDbLine
 10
6893.932775664507
 20
6873.106999670103
 30
0.0
 11
6893.932775664509
 21
6808.106999670106
 31
0.0
  0
LINE
  5
1256A
330
747D
100
AcDbEntity
  8
点線
 48
50.0
100
AcDbLine
 10
6703.932775664511
 20
6808.106999670101
 30
0.0
 11
6703.932775664511
 21
6131.106999670105
 31
0.0
  0
LINE
  5
1256B
330
747D
100
AcDbEntity
  8
点線
 48
6.0
100
AcDbLine
 10
6893.932775664511
 20
6131.106999670109
 30
0.0
 11
6893.932775664511
 21
6066.106999670105
 31
0.0
  0
LINE
  5
1256C
330
747D
100
AcDbEntity
  8
点線
 48
50.0
100
AcDbLine
 10
6703.932775664511
 20
7550.106999670105
 30
0.0
 11
6703.932775664511
 21
6873.106999670105
 31
0.0
  0
LINE
  5
1256D
330
747D
100
AcDbEntity
  8
部品1
 48
50.0
100
AcDbLine
 10
6923.932775664511
 20
7786.606999670102
 30
0.0
 11
6878.932775664511
 21
7786.606999670105
 31
0.0
  0
LINE
  5
1256E
330
747D
100
AcDbEntity
  8
部品1
 48
50.0
100
AcDbLine
 10
6900.932775664511
 20
7790.106999670102
 30
0.0
 11
6878.932775664509
 21
7790.106999670102
 31
0.0
  0
LINE
  5
1256F
330
747D
100
AcDbEntity
  8
部品1
 48
50.0
100
AcDbLine
 10
6900.932775664509
 20
7809.606999670101
 30
0.0
 11
6900.932775664509
 21
7786.606999670105
 31
0.0
  0
ARC
  5
12570
330
747D
100
AcDbEntity
  8
部品1
 48
50.0
100
AcDbCircle
 10
6908.932775664509
 20
7794.606999670105
 30
0.0
 40
15.0
100
AcDbArc
 50
0.0000000000001018
 51
90.0
  0
LINE
  5
12571
330
747D
100
AcDbEntity
  8
点線
 48
50.0
100
AcDbLine
 10
6705.932775664511
 20
7615.106999670103
 30
0.0
 11
6705.932775664511
 21
7630.106999670099
 31
0.0
  0
LINE
  5
12572
330
747D
100
AcDbEntity
  8
点線
 48
50.0
100
AcDbLine
 10
6651.932775664511
 20
7640.106999670102
 30
0.0
 11
6695.932775664511
 21
7640.106999670098
 31
0.0
  0
ARC
  5
12573
330
747D
100
AcDbEntity
  8
点線
 48
50.0
100
AcDbCircle
 10
6695.932775664511
 20
7630.106999670099
 30
0.0
 40
10.0
100
AcDbArc
 50
0.0
 51
90.0
  0
LINE
  5
12574
330
747D
100
AcDbEntity
  8
点線
 48
6.0
100
AcDbLine
 10
6893.932775664507
 20
7550.106999670105
 30
0.0
 11
6893.932775664507
 21
7615.106999670105
 31
0.0
  0
LWPOLYLINE
  5
12575
330
747D
100
AcDbEntity
  8
部品1
100
AcDbPolyline
 90
        4
 70
     1
 43
0.0
 10
9817.314885125966
 20
1220.978460792061
 10
10464.34626040649
 20
1220.978460792061
 10
10464.34626040649
 20
1028.458304974921
 10
9817.314885125966
 20
1028.458304974921
  0
TEXT
  5
12576
330
747D
100
AcDbEntity
  8
仕様書枠
 62
     7
 48
50.0
100
AcDbText
 10
9848.729961887498
 20
1067.113736441879
 30
0.0
 40
112.0
  1
側 面 図
  7
STYLE2
100
AcDbText
  0
DIMENSION
  5
12577
330
747D
100
AcDbEntity
  8
寸法
 48
50.0
100
AcDbDimension
  2
*D20
 10
11245.46006848741
 20
4440.627285394898
 30
0.0
 11
9895.460068487416
 21
4515.636143662614
 31
0.0
 12
-306.5546620533841
 22
0.0
 32
0.0
 70
    32
 71
     5
 42
-1.0
  3
INABA_S30G
100
AcDbAlignedDimension
 13
8545.460068487415
 23
3869.019021987513
 33
0.0
 14
11245.46006848741
 24
3741.019021987512
 34
0.0
100
AcDbRotatedDimension
  0
DIMENSION
  5
12578
330
747D
100
AcDbEntity
  8
寸法
 48
50.0
100
AcDbDimension
  2
*D21
 10
11245.46006848741
 20
4112.026764312722
 30
0.0
 11
11095.46006848742
 21
4112.026764312722
 31
0.0
 12
-306.5546620533841
 22
0.0
 32
0.0
 70
   160
 71
     5
 42
-1.0
  3
INABA_S30G
100
AcDbAlignedDimension
 13
10945.46006848742
 23
3617.583948142319
 33
0.0
 14
11245.46006848741
 24
3741.019021987512
 34
0.0
100
AcDbRotatedDimension
  0
DIMENSION
  5
12579
330
747D
100
AcDbEntity
  8
寸法
 48
50.0
100
AcDbDimension
  2
*D22
 10
10945.46006848742
 20
4112.026764312722
 30
0.0
 11
10120.46006848742
 21
4187.026764312722
 31
0.0
 12
-306.5546620533841
 22
0.0
 32
0.0
 70
    32
 71
     5
 42
-1.0
  3
INABA_S30G
100
AcDbAlignedDimension
 13
9295.460068487411
 23
3611.268990943539
 33
0.0
 14
10945.46006848742
 24
3617.583948142319
 34
0.0
100
AcDbRotatedDimension
  0
DIMENSION
  5
1257A
330
747D
100
AcDbEntity
  8
寸法
 48
50.0
100
AcDbDimension
  2
*D23
 10
9295.460068487411
 20
4112.026764312722
 30
0.0
 11
8920.460068487413
 21
4187.026764312722
 31
0.0
 12
-306.5546620533841
 22
0.0
 32
0.0
 70
    32
 71
     5
 42
-1.0
  3
INABA_S30G
100
AcDbAlignedDimension
 13
8545.460068487415
 23
3869.019021987513
 33
0.0
 14
9295.460068487411
 24
3611.268990943539
 34
0.0
100
AcDbRotatedDimension
  0
INSERT
  5
1257C
330
747D
100
AcDbEntity
  8
部品1
 48
50.0
100
AcDbBlockReference
  2
A$C0EDA5930
 10
10856.5498511469
 20
3604.86677157872
 30
0.0
  0
LINE
  5
1257D
330
747D
100
AcDbEntity
  8
部品1
 48
50.0
100
AcDbLine
 10
10757.93745773746
 20
3646.499240711463
 30
0.0
 11
10967.4364153273
 21
3636.567438277572
 31
0.0
  0
ARC
  5
1257E
330
747D
100
AcDbEntity
  8
部品1
 48
50.0
100
AcDbCircle
 10
10791.46006848743
 20
3463.7067394628
 30
0.0
 40
120.0
100
AcDbArc
 50
0.0
 51
87.28578778387857
  0
LINE
  5
1257F
330
747D
100
AcDbEntity
  8
細線
 48
50.0
100
AcDbLine
 10
8547.463293704508
 20
3803.851052743537
 30
0.0
 11
11240.1237107066
 21
3676.199003344918
 31
0.0
  0
LINE
  5
12580
330
747D
100
AcDbEntity
  8
細線
 48
50.0
100
AcDbLine
 10
8547.833119898433
 20
3791.820043036957
 30
0.0
 11
11239.13853696245
 21
3664.232230672439
 31
0.0
  0
LINE
  5
12581
330
747D
100
AcDbEntity
  8
細線
 48
50.0
100
AcDbLine
 10
9325.460068487414
 20
2452.019021987513
 30
0.0
 11
10915.46006848741
 21
2452.019021987513
 31
0.0
  0
LINE
  5
12582
330
747D
100
AcDbEntity
  8
細線
 48
50.0
100
AcDbLine
 10
9325.460068487414
 20
2458.019021987513
 30
0.0
 11
10915.46006848741
 21
2458.019021987513
 31
0.0
  0
LINE
  5
12583
330
747D
100
AcDbEntity
  8
細線
 48
50.0
100
AcDbLine
 10
9325.460068487414
 20
2122.019021987513
 30
0.0
 11
10915.46006848741
 21
2122.019021987512
 31
0.0
  0
LINE
  5
12584
330
747D
100
AcDbEntity
  8
細線
 48
50.0
100
AcDbLine
 10
9325.460068487414
 20
2111.019021987512
 30
0.0
 11
10915.46006848741
 21
2111.019021987512
 31
0.0
  0
LINE
  5
12585
330
747D
100
AcDbEntity
  8
細線
 48
50.0
100
AcDbLine
 10
9325.460068487414
 20
2794.019021987513
 30
0.0
 11
10915.46006848741
 21
2794.019021987513
 31
0.0
  0
LINE
  5
12586
330
747D
100
AcDbEntity
  8
細線
 48
50.0
100
AcDbLine
 10
9325.460068487414
 20
2805.019021987513
 30
0.0
 11
10915.46006848741
 21
2805.019021987513
 31
0.0
  0
LINE
  5
12587
330
747D
100
AcDbEntity
  8
部品1
 48
50.0
100
AcDbLine
 10
9325.460068487414
 20
2908.019021987513
 30
0.0
 11
10915.46006848741
 21
2908.019021987513
 31
0.0
  0
LINE
  5
12588
330
747D
100
AcDbEntity
  8
部品1
 48
50.0
100
AcDbLine
 10
9325.460068487414
 20
2008.019021987513
 30
0.0
 11
10915.46006848741
 21
2008.019021987512
 31
0.0
  0
LINE
  5
12589
330
747D
100
AcDbEntity
  8
部品1
 48
50.0
100
AcDbLine
 10
8561.013107897341
 20
3753.152536158741
 30
0.0
 11
11223.47721798106
 21
3626.932015384401
 31
0.0
  0
LINE
  5
1258A
330
747D
100
AcDbEntity
  8
部品1
 48
50.0
100
AcDbLine
 10
8559.501440112674
 20
3868.353356962316
 30
0.0
 11
11232.01513307045
 21
3741.65641151839
 31
0.0
  0
LINE
  5
1258B
330
747D
100
AcDbEntity
  8
部品1
 48
50.0
100
AcDbLine
 10
9325.460068487419
 20
3488.763437444074
 30
0.0
 11
9325.460068487414
 21
1808.019021987513
 31
0.0
  0
LINE
  5
1258C
330
747D
100
AcDbEntity
  8
部品1
 48
50.0
100
AcDbLine
 10
9265.460068487412
 20
3488.763437444074
 30
0.0
 11
9265.460068487412
 21
1808.019021987513
 31
0.0
  0
LINE
  5
1258D
330
747D
100
AcDbEntity
  8
点線
 48
50.0
100
AcDbLine
 10
9265.460068487412
 20
1808.019021987513
 30
0.0
 11
9265.460068487408
 21
1488.019021987513
 31
0.0
  0
LINE
  5
1258E
330
747D
100
AcDbEntity
  8
点線
 48
50.0
100
AcDbLine
 10
9325.460068487414
 20
1808.019021987513
 30
0.0
 11
9325.460068487407
 21
1488.019021987513
 31
0.0
  0
LINE
  5
1258F
330
747D
100
AcDbEntity
  8
点線
 48
50.0
100
AcDbLine
 10
9265.460068487412
 20
1488.019021987513
 30
0.0
 11
9325.460068487407
 21
1488.019021987514
 31
0.0
  0
LINE
  5
12590
330
747D
100
AcDbEntity
  8
細線
 48
50.0
100
AcDbLine
 10
8429.341628487405
 20
1758.019021987513
 30
0.0
 11
8479.341628487405
 21
1808.019021987512
 31
0.0
  0
LINE
  5
12591
330
747D
100
AcDbEntity
  8
細線
 48
50.0
100
AcDbLine
 10
8402.400848487408
 20
1758.019021987513
 30
0.0
 11
8452.400848487409
 21
1808.019021987512
 31
0.0
  0
LINE
  5
12592
330
747D
100
AcDbEntity
  8
細線
 48
50.0
100
AcDbLine
 10
8375.460068487408
 20
1758.019021987513
 30
0.0
 11
8425.460068487403
 21
1808.019021987512
 31
0.0
  0
LINE
  5
12593
330
747D
100
AcDbEntity
  8
部品1
 48
50.0
100
AcDbLine
 10
8388.59317125777
 20
1808.019021987512
 30
0.0
 11
8375.460068487404
 21
1794.885919217147
 31
0.0
  0
LINE
  5
12594
330
747D
100
AcDbEntity
  8
部品1
 48
50.0
100
AcDbLine
 10
8375.460068487404
 20
1794.885919217147
 30
0.0
 11
8375.460068487408
 21
1758.019021987512
 31
0.0
  0
LINE
  5
125AA
330
747D
100
AcDbEntity
  8
部品1
 48
50.0
100
AcDbLine
 10
9538.307479416777
 20
3646.75415770348
 30
0.0
 11
10239.35347487816
 21
3613.519384585312
 31
0.0
  0
ARC
  5
125AB
330
747D
100
AcDbEntity
  8
部品1
 48
50.0
100
AcDbCircle
 10
9434.460068487416
 20
3543.055437821569
 30
0.0
 40
105.0
100
AcDbArc
 50
87.28578778387767
 51
180.0
  0
ARC
  5
125AC
330
747D
100
AcDbEntity
  8
部品1
 48
50.0
100
AcDbCircle
 10
9141.460068487418
 20
3541.928961685025
 30
0.0
 40
120.0
100
AcDbArc
 50
0.0
 51
87.28578778387857
  0
INSERT
  5
125AD
330
747D
100
AcDbEntity
  8
部品1
 48
50.0
100
AcDbBlockReference
  2
A$C0EDA5930
 10
9286.460103905158
 20
3509.763476471398
 30
0.0
  0
INSERT
  5
125AE
330
747D
100
AcDbEntity
  8
部品1
 48
50.0
100
AcDbBlockReference
  2
A$C0EDA5930
 10
9286.460103905158
 20
3594.763476471398
 30
0.0
  0
LINE
  5
125AF
330
747D
100
AcDbEntity
  8
部品1
 48
50.0
100
AcDbLine
 10
9261.460068487412
 20
3488.763437444074
 30
0.0
 11
9329.460068487412
 21
3488.763437444074
 31
0.0
  0
LINE
  5
125B0
330
747D
100
AcDbEntity
  8
部品1
 48
50.0
100
AcDbLine
 10
9329.460068487412
 20
3488.763437444074
 30
0.0
 11
9329.460068487415
 21
3543.055437821569
 31
0.0
  0
LINE
  5
125B1
330
747D
100
AcDbEntity
  8
部品1
 48
50.0
100
AcDbLine
 10
9261.460068487412
 20
3488.763437444074
 30
0.0
 11
9261.460068487412
 21
3541.928961685025
 31
0.0
  0
LINE
  5
125B2
330
747D
100
AcDbEntity
  8
部品1
 48
50.0
100
AcDbLine
 10
8796.307479416782
 20
3681.930453999779
 30
0.0
 11
9095.225808270907
 21
3667.75951100225
 31
0.0
  0
LINE
  5
125B3
330
747D
100
AcDbEntity
  8
部品1
 48
50.0
100
AcDbLine
 10
8568.504514521972
 20
3867.926544545876
 30
0.0
 11
8572.048682213749
 21
3752.629368191148
 31
0.0
  0
ARC
  5
125B4
330
747D
100
AcDbEntity
  8
部品1
 48
50.0
100
AcDbCircle
 10
8561.628712807479
 20
3766.137952231961
 30
0.0
 40
13.0
100
AcDbArc
 50
181.7606842901233
 51
267.2857877838783
  0
ARC
  5
125B5
330
747D
100
AcDbEntity
  8
部品1
 48
50.0
100
AcDbCircle
 10
8558.885835202536
 20
3855.367940889097
 30
0.0
 40
13.0
100
AcDbArc
 50
87.28578778387824
 51
181.760684290123
  0
LINE
  5
125B6
330
747D
100
AcDbEntity
  8
部品1
 48
50.0
100
AcDbLine
 10
8545.891972778695
 20
3854.968517166417
 30
0.0
 11
8548.634850383637
 21
3765.738528509282
 31
0.0
  0
LINE
  5
125B7
330
747D
100
AcDbEntity
  8
部品1
 48
50.0
100
AcDbLine
 10
8713.115621080339
 20
3739.648423574561
 30
0.0
 11
8723.669073596445
 21
3690.807614758217
 31
0.0
  0
ARC
  5
125B8
330
747D
100
AcDbEntity
  8
部品1
 48
50.0
100
AcDbCircle
 10
8733.44349305807
 20
3692.919657416001
 30
0.0
 40
10.0
100
AcDbArc
 50
192.1929346278251
 51
267.2857877839036
  0
ARC
  5
125B9
330
747D
100
AcDbEntity
  8
部品1
 48
50.0
100
AcDbCircle
 10
8718.002830811153
 20
3740.704444903454
 30
0.0
 40
5.0
100
AcDbArc
 50
87.28578778390007
 51
192.1929346278247
  0
LINE
  5
125BA
330
747D
100
AcDbEntity
  8
部品1
 48
50.0
100
AcDbLine
 10
8732.969950819503
 20
3682.930875821215
 30
0.0
 11
8755.258766430472
 21
3681.874220858926
 31
0.0
  0
LINE
  5
125BB
330
747D
100
AcDbEntity
  8
部品1
 48
50.0
100
AcDbLine
 10
8755.282443542382
 20
3682.373659938684
 30
0.0
 11
8796.236448080994
 21
3680.432136760557
 31
0.0
  0
LINE
  5
125BC
330
747D
100
AcDbEntity
  8
部品1
 48
50.0
100
AcDbLine
 10
8799.148732848184
 20
3741.86314356848
 30
0.0
 11
8796.236448080994
 21
3680.43213676056
 31
0.0
  0
LINE
  5
125BD
330
747D
100
AcDbEntity
  8
部品1
 48
50.0
100
AcDbLine
 10
8758.194728309566
 20
3743.804666746605
 30
0.0
 11
8755.258766430454
 21
3681.874220858927
 31
0.0
  0
LINE
  5
125BE
330
747D
100
AcDbEntity
  8
部品1
 48
50.0
100
AcDbLine
 10
9107.937457737456
 20
3724.721462933688
 30
0.0
 11
9475.559894547886
 21
3707.29343629971
 31
0.0
  0
INSERT
  5
125BF
330
747D
100
AcDbEntity
  8
部品1
 48
50.0
100
AcDbBlockReference
  2
A$C0EDA5930
 10
9127.63687090589
 20
3686.830053604963
 30
0.0
  0
ARC
  5
125C0
330
747D
100
AcDbEntity
  8
部品1
 48
50.0
100
AcDbCircle
 10
9107.463915498888
 20
3714.732681338904
 30
0.0
 40
10.0
100
AcDbArc
 50
87.28578778387824
 51
177.2857877838809
  0
LINE
  5
125C1
330
747D
100
AcDbEntity
  8
部品1
 48
50.0
100
AcDbLine
 10
9095.060068487411
 20
3664.263437444075
 30
0.0
 11
9097.475133904104
 21
3715.206223577471
 31
0.0
  0
LINE
  5
125C2
330
747D
100
AcDbEntity
  8
部品1
 48
50.0
100
AcDbLine
 10
9095.060068487411
 20
3664.263437444075
 30
0.0
 11
9147.142575350228
 21
3661.79434082243
 31
0.0
  0
INSERT
  5
125C3
330
747D
100
AcDbEntity
  8
部品1
 48
50.0
100
AcDbBlockReference
  2
A$C0EDA5930
 10
9445.280125620007
 20
3671.771410418513
 30
0.0
  0
INSERT
  5
125C4
330
747D
100
AcDbEntity
  8
部品1
 48
50.0
100
AcDbBlockReference
  2
A$C0EDA5930
 10
9339.399040715301
 20
3676.790958147329
 30
0.0
  0
INSERT
  5
125C5
330
747D
100
AcDbEntity
  8
部品1
 48
50.0
100
AcDbBlockReference
  2
A$C0EDA5930
 10
9233.517955810597
 20
3681.810505876146
 30
0.0
  0
ARC
  5
125C6
330
747D
100
AcDbEntity
  8
部品1
 48
50.0
100
AcDbCircle
 10
9475.08635230932
 20
3697.304654704926
 30
0.0
 40
10.0
100
AcDbArc
 50
357.2857877838801
 51
87.28578778387818
  0
LINE
  5
125C7
330
747D
100
AcDbEntity
  8
部品1
 48
50.0
100
AcDbLine
 10
9439.432261992376
 20
3647.937644566801
 30
0.0
 11
9482.660068487412
 21
3645.888326332961
 31
0.0
  0
LINE
  5
125C8
330
747D
100
AcDbEntity
  8
部品1
 48
50.0
100
AcDbLine
 10
9482.825808270913
 20
3649.384399891137
 30
0.0
 11
9497.353474878165
 21
3648.695680881608
 31
0.0
  0
LINE
  5
125C9
330
747D
100
AcDbEntity
  8
部品1
 48
50.0
100
AcDbLine
 10
9482.660068487412
 20
3645.888326332963
 30
0.0
 11
9485.075133904103
 21
3696.831112466359
 31
0.0
  0
LINE
  5
125CA
330
747D
100
AcDbEntity
  8
部品1
 48
50.0
100
AcDbLine
 10
9500.194728309567
 20
3708.62837045031
 30
0.0
 11
9497.282443542381
 21
3647.197363642391
 31
0.0
  0
LINE
  5
125CB
330
747D
100
AcDbEntity
  8
部品1
 48
50.0
100
AcDbLine
 10
9541.148732848183
 20
3706.686847272184
 30
0.0
 11
9538.236448080994
 21
3645.255840464264
 31
0.0
  0
LINE
  5
125CC
330
747D
100
AcDbEntity
  8
部品1
 48
50.0
100
AcDbLine
 10
9497.282443542381
 20
3647.197363642389
 30
0.0
 11
9538.236448080994
 21
3645.255840464261
 31
0.0
  0
INSERT
  5
125CD
330
747D
100
AcDbEntity
  8
部品1
 48
50.0
100
AcDbBlockReference
  2
A$C0EDA5930
 10
10776.63959838863
 20
3608.655109487261
 30
0.0
  0
LINE
  5
125CE
330
747D
100
AcDbEntity
  8
部品1
 48
50.0
100
AcDbLine
 10
10745.06006848742
 20
3586.041215221849
 30
0.0
 11
10747.47513390411
 21
3636.984001355247
 31
0.0
  0
LINE
  5
125CF
330
747D
100
AcDbEntity
  8
部品1
 48
50.0
100
AcDbLine
 10
10242.19472830956
 20
3673.452074154013
 30
0.0
 11
10239.28244354237
 21
3612.021067346095
 31
0.0
  0
LINE
  5
125D0
330
747D
100
AcDbEntity
  8
部品1
 48
50.0
100
AcDbLine
 10
10283.14873284818
 20
3671.510550975887
 30
0.0
 11
10280.23644808099
 21
3610.079544167968
 31
0.0
  0
LINE
  5
125D1
330
747D
100
AcDbEntity
  8
部品1
 48
50.0
100
AcDbLine
 10
10280.30747941677
 20
3611.577861407183
 30
0.0
 11
10745.22580827092
 21
3589.537288780024
 31
0.0
  0
LINE
  5
125D2
330
747D
100
AcDbEntity
  8
部品1
 48
50.0
100
AcDbLine
 10
10239.28244354237
 20
3612.021067346092
 30
0.0
 11
10280.23644808099
 21
3610.079544167965
 31
0.0
  0
LINE
  5
125D3
330
747D
100
AcDbEntity
  8
部品1
 48
50.0
100
AcDbLine
 10
10745.06006848742
 20
3586.041215221849
 30
0.0
 11
10797.14257535024
 21
3583.572118600204
 31
0.0
  0
ARC
  5
125D4
330
747D
100
AcDbEntity
  8
部品1
 48
50.0
100
AcDbCircle
 10
10757.4639154989
 20
3636.510459116679
 30
0.0
 40
10.0
100
AcDbArc
 50
87.28578778387824
 51
177.2857877838809
  0
DIMENSION
  5
125D5
330
747D
100
AcDbEntity
  8
寸法
 48
50.0
100
AcDbDimension
  2
*D24
 10
11613.67727534142
 20
1758.019021987513
 30
0.0
 11
11613.67727534142
 21
2686.541844016541
 31
0.0
 12
-306.5546620533841
 22
0.0
 32
0.0
 70
   160
 71
     5
 42
-1.0
  3
INABA_S30G
100
AcDbAlignedDimension
 13
11245.46006848741
 23
3741.019021987512
 33
0.0
 14
11359.68794614379
 24
1758.019021987513
 34
0.0
 50
90.0
100
AcDbRotatedDimension
  0
LINE
  5
125D6
330
747D
100
AcDbEntity
  8
部品1
 48
50.0
100
AcDbLine
 10
10975.46006848741
 20
3410.54121522185
 30
0.0
 11
10975.46006848741
 21
1808.019021987512
 31
0.0
  0
LINE
  5
125D7
330
747D
100
AcDbEntity
  8
部品1
 48
50.0
100
AcDbLine
 10
10915.46006848742
 20
3410.54121522185
 30
0.0
 11
10915.46006848742
 21
1808.019021987512
 31
0.0
  0
LINE
  5
125D8
330
747D
100
AcDbEntity
  8
点線
 48
50.0
100
AcDbLine
 10
10975.46006848741
 20
1808.019021987512
 30
0.0
 11
10975.46006848741
 21
1488.019021987512
 31
0.0
  0
LINE
  5
125D9
330
747D
100
AcDbEntity
  8
点線
 48
50.0
100
AcDbLine
 10
10915.46006848742
 20
1808.019021987512
 30
0.0
 11
10915.46006848739
 21
1488.019021987512
 31
0.0
  0
LINE
  5
125DA
330
747D
100
AcDbEntity
  8
点線
 48
50.0
100
AcDbLine
 10
10915.46006848739
 20
1488.019021987514
 30
0.0
 11
10975.46006848741
 21
1488.019021987514
 31
0.0
  0
LINE
  5
125DF
330
747D
100
AcDbEntity
  8
部品1
 48
50.0
100
AcDbLine
 10
11135.46006848742
 20
1808.019021987512
 30
0.0
 11
11145.46006848742
 21
1798.019021987511
 31
0.0
  0
LINE
  5
125E0
330
747D
100
AcDbEntity
  8
部品1
 48
50.0
100
AcDbLine
 10
11145.46006848742
 20
1798.019021987511
 30
0.0
 11
11145.46006848741
 21
1758.019021987512
 31
0.0
  0
LINE
  5
125E1
330
747D
100
AcDbEntity
  8
部品1
 48
50.0
100
AcDbLine
 10
10976.96287308873
 20
3578.432849777168
 30
0.0
 11
10976.96287308874
 21
3626.578656682787
 31
0.0
  0
INSERT
  5
125E2
330
747D
100
AcDbEntity
  8
部品1
 48
50.0
100
AcDbBlockReference
  2
A$C0EDA5930
 10
10936.46010390517
 20
3601.078433670178
 30
0.0
  0
LINE
  5
125E3
330
747D
100
AcDbEntity
  8
部品1
 48
50.0
100
AcDbLine
 10
11069.63247751964
 20
3627.932068898874
 30
0.0
 11
11054.50590764181
 21
3580.308683366392
 31
0.0
  0
LINE
  5
125E4
330
747D
100
AcDbEntity
  8
部品1
 48
50.0
100
AcDbLine
 10
11025.14873284818
 20
3636.334254679547
 30
0.0
 11
11022.21277096905
 21
3574.40380879187
 31
0.0
  0
LINE
  5
125E5
330
747D
100
AcDbEntity
  8
部品1
 48
50.0
100
AcDbLine
 10
10984.19472830956
 20
3638.275777857717
 30
0.0
 11
10981.28244354238
 21
3576.844771049799
 31
0.0
  0
LINE
  5
125E6
330
747D
100
AcDbEntity
  8
部品1
 48
50.0
100
AcDbLine
 10
11025.14873284818
 20
3636.334254679592
 30
0.0
 11
11022.23644808099
 21
3574.903247871672
 31
0.0
  0
LINE
  5
125E7
330
747D
100
AcDbEntity
  8
部品1
 48
50.0
100
AcDbLine
 10
10979.46006848743
 20
3578.432849777168
 30
0.0
 11
10976.96287308873
 21
3578.432849777168
 31
0.0
  0
LINE
  5
125E8
330
747D
100
AcDbEntity
  8
部品1
 48
50.0
100
AcDbLine
 10
10976.96287308873
 20
3578.55123533681
 30
0.0
 11
10981.35347487816
 21
3578.343088289015
 31
0.0
  0
LINE
  5
125E9
330
747D
100
AcDbEntity
  8
部品1
 48
50.0
100
AcDbLine
 10
10911.46006848742
 20
3410.541215221849
 30
0.0
 11
10979.46006848742
 21
3410.541215221849
 31
0.0
  0
LINE
  5
125EA
330
747D
100
AcDbEntity
  8
部品1
 48
50.0
100
AcDbLine
 10
10979.46006848742
 20
3410.541215221849
 30
0.0
 11
10979.46006848743
 21
3578.432849777168
 31
0.0
  0
LINE
  5
125EB
330
747D
100
AcDbEntity
  8
部品1
 48
50.0
100
AcDbLine
 10
10911.46006848742
 20
3410.541215221849
 30
0.0
 11
10911.46006848742
 21
3463.7067394628
 31
0.0
  0
INSERT
  5
125EC
330
747D
100
AcDbEntity
  8
部品1
 48
50.0
100
AcDbBlockReference
  2
A$C0EDA5930
 10
10936.46010390517
 20
3431.541254249173
 30
0.0
  0
INSERT
  5
125ED
330
747D
100
AcDbEntity
  8
部品1
 48
50.0
100
AcDbBlockReference
  2
A$C0EDA5930
 10
10936.46010390517
 20
3516.541254249173
 30
0.0
  0
LINE
  5
125EE
330
747D
100
AcDbEntity
  8
部品1
 48
50.0
100
AcDbLine
 10
11044.50158657999
 20
3573.347153829562
 30
0.0
 11
11022.21277096903
 21
3574.40380879187
 31
0.0
  0
ARC
  5
125EF
330
747D
100
AcDbEntity
  8
部品1
 48
50.0
100
AcDbCircle
 10
11044.97512881856
 20
3583.335935424346
 30
0.0
 40
10.0
100
AcDbArc
 50
267.2857877838496
 51
342.378640939928
  0
LINE
  5
125F0
330
747D
100
AcDbEntity
  8
部品1
 48
50.0
100
AcDbLine
 10
10981.28244354238
 20
3576.844771049797
 30
0.0
 11
11022.23644808099
 21
3574.903247871669
 31
0.0
  0
ARC
  5
125F1
330
747D
100
AcDbEntity
  8
部品1
 48
50.0
100
AcDbCircle
 10
10966.96287308874
 20
3626.578656682788
 30
0.0
 40
10.0
100
AcDbArc
 50
359.9999999999964
 51
87.28578778387785
  0
ARC
  5
125F2
330
747D
100
AcDbEntity
  8
部品1
 48
50.0
100
AcDbCircle
 10
11064.86708810802
 20
3629.445694927853
 30
0.0
 40
5.0
100
AcDbArc
 50
342.3786409399284
 51
87.28578778385307
  0
LINE
  5
125F3
330
747D
100
AcDbEntity
  8
部品1
 48
50.0
100
AcDbLine
 10
11222.471977585
 20
3742.108827778441
 30
0.0
 11
11213.03072920355
 21
3627.427256333854
 31
0.0
  0
ARC
  5
125F4
330
747D
100
AcDbEntity
  8
部品1
 48
50.0
100
AcDbCircle
 10
11231.39952816032
 20
3728.67099544517
 30
0.0
 40
13.0
100
AcDbArc
 50
355.2936942109123
 51
87.28578778387824
  0
ARC
  5
125F5
330
747D
100
AcDbEntity
  8
部品1
 48
50.0
100
AcDbCircle
 10
11224.0928228912
 20
3639.917431457621
 30
0.0
 40
13.0
100
AcDbArc
 50
267.2857877838783
 51
355.2936942109112
  0
LINE
  5
125F6
330
747D
100
AcDbEntity
  8
部品1
 48
50.0
100
AcDbLine
 10
11244.35569687793
 20
3727.604368912293
 30
0.0
 11
11237.04899160882
 21
3638.850804924743
 31
0.0
  0
DIMENSION
  5
12CE2
330
747D
100
AcDbEntity
  8
寸法
 48
50.0
100
AcDbDimension
  2
*D25
 10
10945.46006848741
 20
1317.818995306581
 30
0.0
 11
10120.46006848741
 21
1392.818995306581
 31
0.0
 12
-306.5546620533841
 22
0.0
 32
0.0
 70
    32
 71
     5
 42
-1.0
  3
INABA_S30G
100
AcDbAlignedDimension
 13
9295.460068487408
 23
1488.019021987513
 33
0.0
 14
10945.46006848741
 24
1488.019021987514
 34
0.0
100
AcDbRotatedDimension
  0
LINE
  5
13125
330
747D
100
AcDbEntity
  8
補助
  6
PHANTOM
 62
   230
 48
50.0
100
AcDbLine
 10
11930.4
 20
8182.200000000003
 30
0.0
 11
11930.4
 21
6457.2
 31
0.0
  0
LINE
  5
13126
330
747D
100
AcDbEntity
  8
補助
  6
PHANTOM
 62
   230
 48
50.0
100
AcDbLine
 10
9380.400000000003
 20
8182.199999999999
 30
0.0
 11
9380.400000000003
 21
6457.2
 31
0.0
  0
LINE
  5
13127
330
747D
100
AcDbEntity
  8
補助
  6
PHANTOM
 62
   230
 48
50.0
100
AcDbLine
 10
9380.400000000003
 20
6457.2
 30
0.0
 11
11930.4
 21
6457.2
 31
0.0
  0
LINE
  5
13128
330
747D
100
AcDbEntity
  8
補助
  6
PHANTOM
 62
   230
 48
50.0
100
AcDbLine
 10
9380.400000000003
 20
8182.199999999999
 30
0.0
 11
11930.4
 21
8182.200000000003
 31
0.0
  0
LINE
  5
13157
330
747D
100
AcDbEntity
  8
部品1
 48
50.0
100
AcDbLine
 10
11105.16006848742
 20
3632.778161730766
 30
0.0
 11
11127.66006848743
 21
3563.543985165076
 31
0.0
  0
LINE
  5
13158
330
747D
100
AcDbEntity
  8
部品1
 48
50.0
100
AcDbLine
 10
11187.66006848742
 20
3563.543985165077
 30
0.0
 11
11210.16006848743
 21
3627.563346915952
 31
0.0
  0
LINE
  5
13159
330
747D
100
AcDbEntity
  8
部品1
 48
50.0
100
AcDbLine
 10
11187.66006848742
 20
3541.543985165076
 30
0.0
 11
11187.66006848742
 21
3563.543985165077
 31
0.0
  0
LINE
  5
1315A
330
747D
100
AcDbEntity
  8
部品1
 48
50.0
100
AcDbLine
 10
11187.66006848742
 20
3541.543985165077
 30
0.0
 11
11187.66006848742
 21
3528.358968509798
 31
0.0
  0
LINE
  5
1315B
330
747D
100
AcDbEntity
  8
仕様書枠
 48
50.0
100
AcDbLine
 10
11127.66006848743
 20
3555.809243145465
 30
0.0
 11
11127.66006848743
 21
3555.809243145465
 31
0.0
  0
LINE
  5
1315C
330
747D
100
AcDbEntity
  8
部品1
 48
50.0
100
AcDbLine
 10
11127.66006848742
 20
3541.543985165077
 30
0.0
 11
11127.66006848743
 21
3563.543985165076
 31
0.0
  0
LINE
  5
1315D
330
747D
100
AcDbEntity
  8
部品1
 48
50.0
100
AcDbLine
 10
11173.70373105099
 20
3495.338720173549
 30
0.0
 11
11173.70373105099
 21
3495.338720173549
 31
0.0
  0
LINE
  5
1315E
330
747D
100
AcDbEntity
  8
部品1
 48
50.0
100
AcDbLine
 10
11157.66006848742
 20
3495.33872017355
 30
0.0
 11
11157.66006848742
 21
3495.338720173549
 31
0.0
  0
LINE
  5
1315F
330
747D
100
AcDbEntity
  8
細線
 48
50.0
100
AcDbLine
 10
11169.04083991445
 20
3500.311998645044
 30
0.0
 11
11127.66006848742
 21
3541.543985165077
 31
0.0
  0
ARC
  5
13160
330
747D
100
AcDbEntity
  8
部品1
 48
50.0
100
AcDbCircle
 10
11157.66006848742
 20
3528.358968509801
 30
0.0
 40
30.0
100
AcDbArc
 50
296.7694582856564
 51
359.9999999999946
  0
LINE
  5
13161
330
747D
100
AcDbEntity
  8
細線
 48
50.0
100
AcDbLine
 10
11127.66006848742
 20
3563.543985165077
 30
0.0
 11
11187.66006848742
 21
3563.543985165076
 31
0.0
  0
LINE
  5
13162
330
747D
100
AcDbEntity
  8
部品1
 48
50.0
100
AcDbLine
 10
11127.66006848742
 20
3541.543985165077
 30
0.0
 11
11038.47908240457
 21
3488.729103787413
 31
0.0
  0
LINE
  5
13163
330
747D
100
AcDbEntity
  8
部品1
 48
50.0
100
AcDbLine
 10
11173.70373105099
 20
3503.07346219316
 30
0.0
 11
11079.85985383159
 21
3447.497117267384
 31
0.0
  0
LINE
  5
13164
330
747D
100
AcDbEntity
  8
部品1
 48
50.0
100
AcDbLine
 10
11037.01592171149
 20
3490.187003674079
 30
0.0
 11
11017.07743077798
 21
3478.379004236572
 31
0.0
  0
ARC
  5
13165
330
747D
100
AcDbEntity
  8
部品1
 48
50.0
100
AcDbCircle
 10
11037.46006848742
 20
3443.961739964036
 30
0.0
 40
40.0
100
AcDbArc
 50
120.6349217313126
 51
179.9999999999936
  0
LINE
  5
13166
330
747D
100
AcDbEntity
  8
細線
 48
50.0
100
AcDbLine
 10
11081.32301452467
 20
3446.039217380714
 30
0.0
 11
11037.01592171149
 21
3490.18700367408
 31
0.0
  0
LINE
  5
13167
330
747D
100
AcDbEntity
  8
部品1
 48
50.0
100
AcDbLine
 10
11061.46006848742
 20
3418.27595724146
 30
0.0
 11
11061.46006848742
 21
3434.275957241459
 31
0.0
  0
LINE
  5
13168
330
747D
100
AcDbEntity
  8
部品1
 48
50.0
100
AcDbLine
 10
10997.46006848742
 20
3418.275957241458
 30
0.0
 11
10997.46006848742
 21
3443.961739964036
 31
0.0
  0
LINE
  5
13169
330
747D
100
AcDbEntity
  8
細線
 48
50.0
100
AcDbLine
 10
11061.46006848742
 20
3418.27595724146
 30
0.0
 11
10997.46006848742
 21
3418.275957241458
 31
0.0
  0
LINE
  5
1316A
330
747D
100
AcDbEntity
  8
部品1
 48
50.0
100
AcDbLine
 10
11081.32301452467
 20
3446.039217380714
 30
0.0
 11
11061.46006848743
 21
3434.275957241462
 31
0.0
  0
LINE
  5
1316B
330
747D
100
AcDbEntity
  8
部品1
 48
50.0
100
AcDbLine
 10
10997.46006848742
 20
3426.541215221847
 30
0.0
 11
10997.46006848742
 21
3436.226997944429
 31
0.0
  0
LINE
  5
1316C
330
747D
100
AcDbEntity
  8
部品1
 48
50.0
100
AcDbLine
 10
11059.46006848722
 20
1898.121183408821
 30
0.0
 11
11059.46006848743
 21
3418.27595724146
 31
0.0
  0
LINE
  5
1316D
330
747D
100
AcDbEntity
  8
部品1
 48
50.0
100
AcDbLine
 10
10999.46006848736
 20
1898.121183408819
 30
0.0
 11
10999.46006848742
 21
3418.275957241458
 31
0.0
  0
LINE
  5
1316E
330
747D
100
AcDbEntity
  8
部品1
 48
50.0
100
AcDbLine
 10
10979.46006848742
 20
3410.541215221849
 30
0.0
 11
11059.46006848742
 21
3410.541215221844
 31
0.0
  0
LINE
  5
1316F
330
747D
100
AcDbEntity
  8
部品1
 48
50.0
100
AcDbLine
 10
10975.46006848741
 20
3394.541215221849
 30
0.0
 11
11059.46006848742
 21
3394.541215221844
 31
0.0
  0
LINE
  5
13171
330
747D
100
AcDbEntity
  8
部品1
 48
50.0
100
AcDbLine
 10
11061.46006848742
 20
1898.121183408821
 30
0.0
 11
10997.46006848742
 21
1898.12118340882
 31
0.0
  0
LINE
  5
13172
330
747D
100
AcDbEntity
  8
部品1
 48
50.0
100
AcDbLine
 10
11061.46006848741
 20
1898.121183408821
 30
0.0
 11
11061.46006848742
 21
1876.121183408821
 31
0.0
  0
ARC
  5
13173
330
747D
100
AcDbEntity
  8
部品1
 48
50.0
100
AcDbCircle
 10
11037.46006848742
 20
1866.435400686245
 30
0.0
 40
40.0
100
AcDbArc
 50
180.000000000008
 51
239.365078268689
  0
LINE
  5
13174
330
747D
100
AcDbEntity
  8
部品1
 48
50.0
100
AcDbLine
 10
10997.46006848741
 20
1898.12118340882
 30
0.0
 11
10997.46006848741
 21
1866.435400686245
 31
0.0
  0
LINE
  5
13175
330
747D
100
AcDbEntity
  8
部品1
 48
50.0
100
AcDbLine
 10
11017.15297567424
 20
1831.973397115454
 30
0.0
 11
11017.07743077797
 21
1832.018136413708
 31
0.0
  0
LINE
  5
13176
330
747D
100
AcDbEntity
  8
部品1
 48
50.0
100
AcDbLine
 10
10999.46006848736
 20
1898.12118340882
 30
0.0
 11
11059.46006848723
 21
1898.12118340882
 31
0.0
  0
LINE
  5
13177
330
747D
100
AcDbEntity
  8
部品1
 48
50.0
100
AcDbLine
 10
10975.46006848722
 20
1898.121183408825
 30
0.0
 11
11059.46006848723
 21
1898.12118340882
 31
0.0
  0
LINE
  5
13178
330
747D
100
AcDbEntity
  8
部品1
 48
50.0
100
AcDbLine
 10
10975.46006848741
 20
1914.121183408826
 30
0.0
 11
11059.46006848723
 21
1914.12118340882
 31
0.0
  0
LINE
  5
13179
330
747D
100
AcDbEntity
  8
細線
 48
50.0
100
AcDbLine
 10
11061.46006848742
 20
1876.121183408818
 30
0.0
 11
11017.15297567424
 21
1831.973397115451
 31
0.0
  0
LINE
  5
1317A
330
747D
100
AcDbEntity
  8
細線
 48
50.0
100
AcDbLine
 10
11068.84538485982
 20
1869.423026746434
 30
0.0
 11
11031.73745547319
 21
1825.660572069203
 31
0.0
  0
LINE
  5
1317B
330
747D
100
AcDbEntity
  8
細線
 48
50.0
100
AcDbLine
 10
11068.84538485983
 20
1869.423026746434
 30
0.0
 11
11059.99690779435
 21
1874.663283522153
 31
0.0
  0
LINE
  5
1317C
330
747D
100
AcDbEntity
  8
細線
 48
50.0
100
AcDbLine
 10
11031.73745547319
 20
1825.660572069204
 30
0.0
 11
11018.61613636732
 21
1833.431297002121
 31
0.0
  0
LINE
  5
13194
330
747D
100
AcDbEntity
  8
部品1
 48
50.0
100
AcDbLine
 10
8388.593171257767
 20
1808.019021987512
 30
0.0
 11
11135.46006848742
 21
1808.019021987512
 31
0.0
  0
DIMENSION
  5
131D8
330
747D
100
AcDbEntity
  8
寸法
 48
50.0
100
AcDbDimension
  2
*D26
 10
7287.585557518375
 20
7685.606999670105
 30
0.0
 11
7287.585557518375
 21
7991.106999670107
 31
0.0
 70
   160
 71
     5
 42
124.0
  3
INABA_S30G
100
AcDbAlignedDimension
 13
6908.932775664509
 23
7809.606999670106
 33
0.0
 14
6878.932775664511
 24
7685.606999670105
 34
0.0
 50
90.0
100
AcDbRotatedDimension
  0
DIMENSION
  5
131F9
330
747D
100
AcDbEntity
  8
寸法
 48
50.0
100
AcDbDimension
  2
*D27
 10
7287.585557518375
 20
5179.606999670102
 30
0.0
 11
7212.576699250658
 21
6432.606999670103
 31
0.0
 12
-31.7820535726496
 22
0.0
 32
0.0
 70
    32
 71
     5
 42
-1.0
  3
INABA_S30G
100
AcDbAlignedDimension
 13
6878.932775664511
 23
7685.606999670105
 33
0.0
 14
6878.932775664509
 24
5179.606999670102
 34
0.0
 50
90.0
100
AcDbRotatedDimension
  0
DIMENSION
  5
13203
330
747D
100
AcDbEntity
  8
寸法
 48
50.0
100
AcDbDimension
  2
*D28
 10
7287.585557518375
 20
5109.606999670103
 30
0.0
 11
7287.585557518375
 21
4955.071566599237
 31
0.0
 12
-31.7820535726496
 22
0.0
 32
0.0
 70
   160
 71
     5
 42
-1.0
  3
INABA_S30G
100
AcDbAlignedDimension
 13
6878.932775664509
 23
5179.606999670102
 33
0.0
 14
6908.932775664514
 24
5109.606999670103
 34
0.0
 50
90.0
100
AcDbRotatedDimension
  0
LINE
  5
1329F
330
747D
100
AcDbEntity
  8
Ｇ．Ｌ
 48
50.0
100
AcDbLine
 10
432.7338315156518
 20
1758.019021987513
 30
0.0
 11
11746.20496767243
 21
1758.019021987512
 31
0.0
  0
LINE
  5
132A5
330
747D
100
AcDbEntity
  8
部品1
 48
50.0
100
AcDbLine
 10
838.9327756645116
 20
7809.606999670103
 30
0.0
 11
6908.932775664509
 21
7809.606999670106
 31
0.0
  0
LINE
  5
132A6
330
747D
100
AcDbEntity
  8
部品1
 48
50.0
100
AcDbLine
 10
868.9327756645116
 20
7685.606999670106
 30
0.0
 11
6878.932775664511
 21
7685.606999670105
 31
0.0
  0
LINE
  5
132A7
330
747D
100
AcDbEntity
  8
部品1
 48
50.0
100
AcDbLine
 10
893.9327756645116
 20
7615.106999670103
 30
0.0
 11
3583.583486031316
 21
7615.106999670105
 31
0.0
  0
LINE
  5
132A8
330
747D
100
AcDbEntity
  8
部品1
 48
50.0
100
AcDbLine
 10
893.9327756645116
 20
7595.106999670099
 30
0.0
 11
3588.942469879937
 21
7595.106999670105
 31
0.0
  0
LINE
  5
132A9
330
747D
100
AcDbEntity
  8
部品1
 48
50.0
100
AcDbLine
 10
893.9327756645116
 20
7550.106999670105
 30
0.0
 11
3601.00018353934
 21
7550.106999670105
 31
0.0
  0
LINE
  5
132B0
330
747D
100
AcDbEntity
  8
部品1
 48
50.0
100
AcDbLine
 10
838.9327756645116
 20
5109.606999670111
 30
0.0
 11
6908.932775664514
 21
5109.606999670103
 31
0.0
  0
LINE
  5
132B1
330
747D
100
AcDbEntity
  8
部品1
 48
50.0
100
AcDbLine
 10
868.9327756645116
 20
5179.606999670102
 30
0.0
 11
6878.932775664509
 21
5179.606999670102
 31
0.0
  0
MTEXT
  5
1331C
330
747D
100
AcDbEntity
  8
部品1
 48
50.0
100
AcDbMText
 10
2088.674300863163
 20
1402.202853574297
 30
0.0
 40
90.0
 41
0.0
 71
     5
 72
     1
  1
\A1;2800
  7
STYLE1
 73
     1
 44
1.0
1001
ACAD
1000
MTEXTBEGIN
1070
    73
1070
     1
1070
    44
1040
1.0
1070
    74
1070
     0
1000
MTEXTEND
  0
MTEXT
  5
1331D
330
747D
100
AcDbEntity
  8
部品1
 48
50.0
100
AcDbMText
 10
2890.248972557386
 20
1402.202853574297
 30
0.0
 40
90.0
 41
0.0
 71
     5
 72
     1
  1
\A1;2800
  7
STYLE1
 73
     1
 44
1.0
1001
ACAD
1000
MTEXTBEGIN
1070
    73
1070
     1
1070
    44
1040
1.0
1070
    74
1070
     0
1000
MTEXTEND
  0
LINE
  5
1331E
330
747D
100
AcDbEntity
  8
寸法
 48
50.0
100
AcDbLine
 10
2673.932775664512
 20
1327.19399530658
 30
0.0
 11
3873.932775664503
 21
1327.19399530658
 31
0.0
  0
LINE
  5
1331F
330
747D
100
AcDbEntity
  8
寸法
 48
50.0
100
AcDbLine
 10
1073.932775664503
 20
1327.19399530658
 30
0.0
 11
2273.932775664512
 21
1327.19399530658
 31
0.0
  0
INSERT
  5
13320
330
747D
100
AcDbEntity
  8
寸法
 48
50.0
100
AcDbBlockReference
  2
_DOTSMALL
 10
1073.932775664503
 20
1327.19399530658
 30
0.0
 41
75.0
 42
75.0
 43
75.0
 50
180.0
  0
LINE
  5
13321
330
747D
100
AcDbEntity
  8
寸法
 48
50.0
100
AcDbLine
 10
1073.932775664503
 20
1473.019021987514
 30
0.0
 11
1073.932775664503
 21
1282.19399530658
 31
0.0
  0
LINE
  5
13350
330
747D
100
AcDbEntity
  8
細線
 48
50.0
100
AcDbLine
 10
9694.000838848102
 20
1758.019013315835
 30
0.0
 11
9744.000838848101
 21
1808.019013315834
 31
0.0
  0
LINE
  5
13351
330
747D
100
AcDbEntity
  8
細線
 48
50.0
100
AcDbLine
 10
9667.0600588481
 20
1758.019013315834
 30
0.0
 11
9717.060058848097
 21
1808.019013315834
 31
0.0
  0
LINE
  5
13352
330
747D
100
AcDbEntity
  8
細線
 48
50.0
100
AcDbLine
 10
9720.941618848097
 20
1758.019013315835
 30
0.0
 11
9770.941618848098
 21
1808.019013315834
 31
0.0
  0
LINE
  5
13353
330
747D
100
AcDbEntity
  8
細線
 48
50.0
100
AcDbLine
 10
10958.64071894566
 20
1758.019013315834
 30
0.0
 11
11008.64071894565
 21
1808.019013315833
 31
0.0
  0
LINE
  5
13354
330
747D
100
AcDbEntity
  8
細線
 48
50.0
100
AcDbLine
 10
10985.58149894566
 20
1758.019013315834
 30
0.0
 11
11035.58149894565
 21
1808.019013315833
 31
0.0
  0
LINE
  5
13355
330
747D
100
AcDbEntity
  8
細線
 48
50.0
100
AcDbLine
 10
11012.52227894566
 20
1758.019013315833
 30
0.0
 11
11062.52227894565
 21
1808.019013315834
 31
0.0
  0
LINE
  5
1335C
330
747D
100
AcDbEntity
  8
細線
 48
50.0
100
AcDbLine
 10
2397.011270872937
 20
1758.019021987513
 30
0.0
 11
2447.011270872934
 21
1808.019021987513
 31
0.0
  0
LINE
  5
1335D
330
747D
100
AcDbEntity
  8
細線
 48
50.0
100
AcDbLine
 10
2423.952050872939
 20
1758.019021987513
 30
0.0
 11
2473.952050872938
 21
1808.019021987513
 31
0.0
  0
LINE
  5
1335E
330
747D
100
AcDbEntity
  8
細線
 48
50.0
100
AcDbLine
 10
2450.892830872934
 20
1758.019021987513
 30
0.0
 11
2500.892830872936
 21
1808.019021987513
 31
0.0
  0
LINE
  5
1335F
330
747D
100
AcDbEntity
  8
細線
 48
50.0
100
AcDbLine
 10
3957.078996348702
 20
1758.019021987513
 30
0.0
 11
4007.078996348704
 21
1808.019021987513
 31
0.0
  0
LINE
  5
13360
330
747D
100
AcDbEntity
  8
細線
 48
50.0
100
AcDbLine
 10
3903.197436348706
 20
1758.019021987513
 30
0.0
 11
3953.197436348702
 21
1808.019021987513
 31
0.0
  0
LINE
  5
13361
330
747D
100
AcDbEntity
  8
細線
 48
50.0
100
AcDbLine
 10
3930.138216348707
 20
1758.019021987513
 30
0.0
 11
3980.138216348707
 21
1808.019021987513
 31
0.0
  0
LINE
  5
13362
330
747D
100
AcDbEntity
  8
細線
 48
50.0
100
AcDbLine
 10
5463.265161824464
 20
1758.019021987514
 30
0.0
 11
5513.265161824467
 21
1808.019021987513
 31
0.0
  0
LINE
  5
13363
330
747D
100
AcDbEntity
  8
細線
 48
50.0
100
AcDbLine
 10
5436.324381824469
 20
1758.019021987514
 30
0.0
 11
5486.324381824469
 21
1808.019021987513
 31
0.0
  0
LINE
  5
13364
330
747D
100
AcDbEntity
  8
細線
 48
50.0
100
AcDbLine
 10
5409.383601824469
 20
1758.019021987513
 30
0.0
 11
5459.383601824464
 21
1808.019021987513
 31
0.0
  0
TEXT
  5
1337A
330
747D
100
AcDbEntity
  8
文字
 62
     7
 48
50.0
100
AcDbText
 10
9907.054008162901
 20
171.407643192676
 30
0.0
 40
75.0
  1
○間口奥行寸法は柱芯寸法です。    N : 連続数
  7
STYLE2
100
AcDbText
  0
TEXT
  5
13447
330
747D
100
AcDbEntity
  8
文字
 62
     7
 48
50.0
100
AcDbText
 10
10888.44172155001
 20
6690.038005836128
 30
0.0
 40
81.11400000000001
  1
F12            1.2
  7
STYLE1
100
AcDbText
  0
TEXT
  5
13448
330
747D
100
AcDbEntity
  8
文字
 62
     7
 48
50.0
100
AcDbText
 10
9748.510891051182
 20
7103.719405836129
 30
0.0
 40
81.11400000000001
  1
妻板
  7
STYLE1
100
AcDbText
  0
LINE
  5
13449
330
747D
100
AcDbEntity
  8
部品1
100
AcDbLine
 10
11930.4
 20
7079.049600000004
 30
0.0
 11
9380.400000000001
 21
7079.049600000004
 31
0.0
  0
TEXT
  5
1344A
330
747D
100
AcDbEntity
  8
文字
 62
     7
 48
50.0
100
AcDbText
 10
9461.94537082929
 20
6414.25040583613
 30
0.0
 40
81.11400000000001
  1
PZ→一般構造用角形鋼管(JIS G 3466)
 41
0.9
  7
STYLE1
100
AcDbText
  0
TEXT
  5
1344B
330
747D
100
AcDbEntity
  8
文字
 62
     7
 48
50.0
100
AcDbText
 10
9461.945370829125
 20
6138.462805836129
 30
0.0
 40
81.11400000000001
  1
Y10→溶融亜鉛-5％アルミニウム合金めっき鋼板(JIS G 3317)
 41
0.9
  7
STYLE1
100
AcDbText
  0
TEXT
  5
1344C
330
747D
100
AcDbEntity
  8
文字
 62
     7
 48
50.0
100
AcDbText
 10
9461.945370829134
 20
6276.356605836131
 30
0.0
 40
81.11400000000001
  1
F12→溶融亜鉛めっき鋼板(JIS G 3302)
  7
STYLE1
100
AcDbText
  0
TEXT
  5
1344D
330
747D
100
AcDbEntity
  8
文字
 62
     7
 48
50.0
100
AcDbText
 10
9748.510891051182
 20
6552.144205836132
 30
0.0
 40
81.11400000000001
  1
雨とい(別売)
  7
STYLE1
100
AcDbText
  0
TEXT
  5
1344E
330
747D
100
AcDbEntity
  8
文字
 62
     7
 48
50.0
100
AcDbText
 10
9748.510891051182
 20
6690.038005836128
 30
0.0
 40
81.11400000000001
  1
車止メ棒
  7
STYLE1
100
AcDbText
  0
TEXT
  5
1344F
330
747D
100
AcDbEntity
  8
文字
 62
     7
 48
50.0
100
AcDbText
 10
9748.510891051182
 20
6827.931805836128
 30
0.0
 40
81.11400000000001
  1
プレート
  7
STYLE1
100
AcDbText
  0
TEXT
  5
13450
330
747D
100
AcDbEntity
  8
文字
 62
     7
 48
50.0
100
AcDbText
 10
9748.510891051182
 20
7241.61320583613
 30
0.0
 40
81.11400000000001
  1
屋根パネル
  7
STYLE1
100
AcDbText
  0
TEXT
  5
13451
330
747D
100
AcDbEntity
  8
文字
 62
     7
 48
50.0
100
AcDbText
 10
9748.510891051184
 20
7379.507005836128
 30
0.0
 40
81.11400000000001
  1
腰パネル
  7
STYLE1
100
AcDbText
  0
TEXT
  5
13452
330
747D
100
AcDbEntity
  8
文字
 62
     7
 48
50.0
100
AcDbText
 10
10872.35681695962
 20
7517.400805836129
 30
0.0
 40
81.11400000000001
  1
Y10            1.0
  7
STYLE1
100
AcDbText
  0
TEXT
  5
13453
330
747D
100
AcDbEntity
  8
文字
 62
     7
 48
50.0
100
AcDbText
 10
9748.510891051184
 20
7517.400805836129
 30
0.0
 40
81.11400000000001
  1
梁中屋根板
  7
STYLE1
100
AcDbText
  0
LINE
  5
13454
330
747D
100
AcDbEntity
  8
部品1
100
AcDbLine
 10
11930.4
 20
6941.155800000004
 30
0.0
 11
9380.400000000003
 21
6941.155800000005
 31
0.0
  0
LINE
  5
13455
330
747D
100
AcDbEntity
  8
部品1
100
AcDbLine
 10
11930.4
 20
8182.200000000003
 30
0.0
 11
9380.400000000001
 21
8182.200000000003
 31
0.0
  0
LINE
  5
13456
330
747D
100
AcDbEntity
  8
部品1
100
AcDbLine
 10
11930.4
 20
6113.793000000003
 30
0.0
 11
11930.4
 21
8182.200000000003
 31
0.0
  0
LINE
  5
13457
330
747D
100
AcDbEntity
  8
部品1
100
AcDbLine
 10
10695.84492000001
 20
8182.199999999999
 30
0.0
 11
10695.84492000001
 21
6527.474400000001
 31
0.0
  0
LINE
  5
13458
330
747D
100
AcDbEntity
  8
部品1
100
AcDbLine
 10
9673.141230280178
 20
8182.200000000003
 30
0.0
 11
9673.141230280192
 21
6527.474400000002
 31
0.0
  0
LINE
  5
13459
330
747D
100
AcDbEntity
  8
部品1
100
AcDbLine
 10
11930.4
 20
8044.306200000001
 30
0.0
 11
9380.400000000001
 21
8044.306200000002
 31
0.0
  0
LINE
  5
1345A
330
747D
100
AcDbEntity
  8
部品1
100
AcDbLine
 10
11930.4
 20
7768.518600000004
 30
0.0
 11
9380.400000000001
 21
7768.518600000003
 31
0.0
  0
LINE
  5
1345B
330
747D
100
AcDbEntity
  8
部品1
100
AcDbLine
 10
11930.4
 20
7906.412400000004
 30
0.0
 11
9380.400000000001
 21
7906.412400000004
 31
0.0
  0
LINE
  5
1345C
330
747D
100
AcDbEntity
  8
部品1
100
AcDbLine
 10
11930.4
 20
7492.731000000002
 30
0.0
 11
9380.400000000003
 21
7492.731000000002
 31
0.0
  0
LINE
  5
1345D
330
747D
100
AcDbEntity
  8
部品1
100
AcDbLine
 10
11930.4
 20
7354.837200000004
 30
0.0
 11
9380.400000000003
 21
7354.837200000004
 31
0.0
  0
LINE
  5
1345E
330
747D
100
AcDbEntity
  8
部品1
100
AcDbLine
 10
11930.4
 20
7630.624800000004
 30
0.0
 11
9380.400000000003
 21
7630.624800000004
 31
0.0
  0
TEXT
  5
1345F
330
747D
100
AcDbEntity
  8
文字
 62
     7
 48
50.0
100
AcDbText
 10
9435.659867331061
 20
8068.976005836129
 30
0.0
 40
81.11400000000001
  1
品番
  7
STYLE1
100
AcDbText
  0
TEXT
  5
13460
330
747D
100
AcDbEntity
  8
文字
 62
     7
 48
50.0
100
AcDbText
 10
9495.493720430586
 20
7931.082205836128
 30
0.0
 40
81.11400000000001
  1
1
  7
STYLE1
100
AcDbText
  0
TEXT
  5
13461
330
747D
100
AcDbEntity
  8
文字
 62
     7
 48
50.0
100
AcDbText
 10
9495.493720430586
 20
7793.18840583613
 30
0.0
 40
81.11400000000001
  1
2
  7
STYLE1
100
AcDbText
  0
TEXT
  5
13462
330
747D
100
AcDbEntity
  8
文字
 62
     7
 48
50.0
100
AcDbText
 10
9495.493720430586
 20
7517.400805836129
 30
0.0
 40
81.11400000000001
  1
4
  7
STYLE1
100
AcDbText
  0
TEXT
  5
13463
330
747D
100
AcDbEntity
  8
文字
 62
     7
 48
50.0
100
AcDbText
 10
9495.493720430586
 20
7655.294605836129
 30
0.0
 40
81.11400000000001
  1
3
  7
STYLE1
100
AcDbText
  0
TEXT
  5
13464
330
747D
100
AcDbEntity
  8
文字
 62
     7
 48
50.0
100
AcDbText
 10
9888.635855497732
 20
8068.976005836129
 30
0.0
 40
81.11400000000001
  1
部　　品　　名
  7
STYLE1
100
AcDbText
  0
TEXT
  5
13465
330
747D
100
AcDbEntity
  8
文字
 62
     7
 48
50.0
100
AcDbText
 10
10756.35413580791
 20
8068.976005836129
 30
0.0
 40
81.11400000000001
  1
材料（材質）　　単位mm
  7
STYLE1
100
AcDbText
  0
TEXT
  5
13466
330
747D
100
AcDbEntity
  8
文字
 62
     7
 48
50.0
100
AcDbText
 10
9748.510891051177
 20
7931.082205836128
 30
0.0
 40
81.11400000000001
  1
柱
  7
STYLE1
100
AcDbText
  0
TEXT
  5
13467
330
747D
100
AcDbEntity
  8
文字
 62
     7
 48
50.0
100
AcDbText
 10
9748.510891051182
 20
7793.18840583613
 30
0.0
 40
81.11400000000001
  1
梁
  7
STYLE1
100
AcDbText
  0
TEXT
  5
13468
330
747D
100
AcDbEntity
  8
文字
 62
     7
 48
50.0
100
AcDbText
 10
9748.510891051182
 20
6965.825605836129
 30
0.0
 40
81.11400000000001
  1
鼻隠シ
  7
STYLE1
100
AcDbText
  0
TEXT
  5
13469
330
747D
100
AcDbEntity
  8
文字
 62
     7
 48
50.0
100
AcDbText
 10
9495.493720430586
 20
7379.507005836128
 30
0.0
 40
81.11400000000001
  1
5
  7
STYLE1
100
AcDbText
  0
TEXT
  5
1346A
330
747D
100
AcDbEntity
  8
文字
 62
     7
 48
50.0
100
AcDbText
 10
9477.313762268375
 20
6690.038005836128
 30
0.0
 40
81.11400000000001
  1
10
  7
STYLE1
100
AcDbText
  0
TEXT
  5
1346B
330
747D
100
AcDbEntity
  8
文字
 62
     7
 48
50.0
100
AcDbText
 10
9495.493720430578
 20
6965.825605836129
 30
0.0
 40
81.11400000000001
  1
8
  7
STYLE1
100
AcDbText
  0
TEXT
  5
1346C
330
747D
100
AcDbEntity
  8
文字
 62
     7
 48
50.0
100
AcDbText
 10
9495.493720430578
 20
6827.931805836128
 30
0.0
 40
81.11400000000001
  1
9
  7
STYLE1
100
AcDbText
  0
TEXT
  5
1346D
330
747D
100
AcDbEntity
  8
文字
 62
     7
 48
50.0
100
AcDbText
 10
9495.493720430578
 20
7103.719405836129
 30
0.0
 40
81.11400000000001
  1
7
  7
STYLE1
100
AcDbText
  0
TEXT
  5
1346E
330
747D
100
AcDbEntity
  8
文字
 62
     7
 48
50.0
100
AcDbText
 10
9495.493720430586
 20
7241.61320583613
 30
0.0
 40
81.11400000000001
  1
6
  7
STYLE1
100
AcDbText
  0
LINE
  5
1346F
330
747D
100
AcDbEntity
  8
部品1
100
AcDbLine
 10
11930.4
 20
6665.3682
 30
0.0
 11
9380.400000000001
 21
6665.3682
 31
0.0
  0
LINE
  5
13470
330
747D
100
AcDbEntity
  8
部品1
100
AcDbLine
 10
11930.4
 20
6389.580600000003
 30
0.0
 11
9380.400000000003
 21
6389.580600000005
 31
0.0
  0
LINE
  5
13471
330
747D
100
AcDbEntity
  8
部品1
100
AcDbLine
 10
11930.4
 20
6527.474400000002
 30
0.0
 11
9380.400000000003
 21
6527.474400000002
 31
0.0
  0
LINE
  5
13472
330
747D
100
AcDbEntity
  8
部品1
100
AcDbLine
 10
11930.4
 20
7216.943400000004
 30
0.0
 11
9380.400000000001
 21
7216.943400000004
 31
0.0
  0
LINE
  5
13473
330
747D
100
AcDbEntity
  8
部品1
100
AcDbLine
 10
11930.4
 20
6803.262000000002
 30
0.0
 11
9380.400000000003
 21
6803.262000000003
 31
0.0
  0
TEXT
  5
13474
330
747D
100
AcDbEntity
  8
文字
 62
     7
 48
50.0
100
AcDbText
 10
9477.313762268375
 20
6552.144205836128
 30
0.0
 40
81.11400000000001
  1
11
  7
STYLE1
100
AcDbText
  0
LINE
  5
13475
330
747D
100
AcDbEntity
  8
部品1
100
AcDbLine
 10
11930.4
 20
6251.686800000003
 30
0.0
 11
9380.400000000003
 21
6251.686800000005
 31
0.0
  0
TEXT
  5
13476
330
747D
100
AcDbEntity
  8
文字
 62
     7
 48
50.0
100
AcDbText
 10
10888.44172155
 20
7931.082205836128
 30
0.0
 40
81.11400000000001
  1
PZ            2.3
  7
STYLE1
100
AcDbText
  0
TEXT
  5
13477
330
747D
100
AcDbEntity
  8
文字
 62
     7
 48
50.0
100
AcDbText
 10
10888.44172155001
 20
6552.144205836128
 30
0.0
 40
81.11400000000001
  1
硬質塩化ビニール
  7
STYLE1
100
AcDbText
  0
LINE
  5
13478
330
747D
100
AcDbEntity
  8
部品1
100
AcDbLine
 10
9380.400000000003
 20
8182.200000000003
 30
0.0
 11
9380.400000000003
 21
6113.793000000003
 31
0.0
  0
LINE
  5
13479
330
747D
100
AcDbEntity
  8
部品1
100
AcDbLine
 10
11930.4
 20
6113.793000000003
 30
0.0
 11
9380.400000000003
 21
6113.793000000003
 31
0.0
  0
TEXT
  5
1347A
330
747D
100
AcDbEntity
  8
文字
 62
     7
 48
50.0
100
AcDbText
 10
10888.44172155001
 20
7655.294605836129
 30
0.0
 40
81.11400000000001
  1
F12            1.6
  7
STYLE1
100
AcDbText
  0
TEXT
  5
1347B
330
747D
100
AcDbEntity
  8
文字
 62
     7
 48
50.0
100
AcDbText
 10
9748.510891051182
 20
7655.294605836129
 30
0.0
 40
81.11400000000001
  1
母屋
  7
STYLE1
100
AcDbText
  0
TEXT
  5
1347C
330
747D
100
AcDbEntity
  8
文字
 62
     7
 48
50.0
100
AcDbText
 10
10888.44172155
 20
7793.18840583613
 30
0.0
 40
81.11400000000001
  1
PZ            2.3
  7
STYLE1
100
AcDbText
  0
TEXT
  5
1347D
330
747D
100
AcDbEntity
  8
文字
 62
     7
 48
50.0
100
AcDbText
 10
10872.35681695962
 20
7379.507005836128
 30
0.0
 40
81.11400000000001
  1
Y10            0.6
  7
STYLE1
100
AcDbText
  0
TEXT
  5
1347E
330
747D
100
AcDbEntity
  8
文字
 62
     7
 48
50.0
100
AcDbText
 10
10872.35681695962
 20
7241.61320583613
 30
0.0
 40
81.11400000000001
  1
Y10            0.5
  7
STYLE1
100
AcDbText
  0
TEXT
  5
1347F
330
747D
100
AcDbEntity
  8
文字
 62
     7
 48
50.0
100
AcDbText
 10
10872.35681695962
 20
7103.719405836129
 30
0.0
 40
81.11400000000001
  1
Y10            0.7
  7
STYLE1
100
AcDbText
  0
TEXT
  5
13480
330
747D
100
AcDbEntity
  8
文字
 62
     7
 48
50.0
100
AcDbText
 10
10872.35681695962
 20
6965.825605836129
 30
0.0
 40
81.11400000000001
  1
Y10            0.7
  7
STYLE1
100
AcDbText
  0
TEXT
  5
13481
330
747D
100
AcDbEntity
  8
文字
 62
     7
 48
50.0
100
AcDbText
 10
10888.44172155001
 20
6827.931805836128
 30
0.0
 40
81.11400000000001
  1
F12            2.3
  7
STYLE1
100
AcDbText
  0
LINE
  5
134A8
330
747D
100
AcDbEntity
  8
点線
 48
10.0
100
AcDbLine
 10
973.9327756645034
 20
1503.019021987513
 30
0.0
 11
1043.932775664504
 21
1503.019021987513
 31
0.0
  0
LINE
  5
134A9
330
747D
100
AcDbEntity
  8
点線
 48
10.0
100
AcDbLine
 10
1103.932775664504
 20
1503.019021987515
 30
0.0
 11
1173.932775664504
 21
1503.019021987515
 31
0.0
  0
LINE
  5
134AA
330
747D
100
AcDbEntity
  8
点線
 48
10.0
100
AcDbLine
 10
1103.932775664504
 20
1513.019021987515
 30
0.0
 11
1173.932775664504
 21
1513.019021987515
 31
0.0
  0
LINE
  5
134AB
330
747D
100
AcDbEntity
  8
点線
 48
10.0
100
AcDbLine
 10
973.9327756645034
 20
1513.019021987513
 30
0.0
 11
1043.932775664504
 21
1513.019021987513
 31
0.0
  0
LINE
  5
134AC
330
747D
100
AcDbEntity
  8
点線
 48
10.0
100
AcDbLine
 10
1173.932775664504
 20
1513.019021987515
 30
0.0
 11
1173.932775664504
 21
1503.019021987514
 31
0.0
  0
LINE
  5
134AD
330
747D
100
AcDbEntity
  8
点線
 48
10.0
100
AcDbLine
 10
973.9327756645034
 20
1513.019021987513
 30
0.0
 11
973.9327756645034
 21
1503.019021987513
 31
0.0
  0
LINE
  5
134AF
330
747D
100
AcDbEntity
  8
点線
 48
10.0
100
AcDbLine
 10
3773.932775664504
 20
1513.019021987512
 30
0.0
 11
3773.932775664504
 21
1503.019021987512
 31
0.0
  0
LINE
  5
134B0
330
747D
100
AcDbEntity
  8
点線
 48
10.0
100
AcDbLine
 10
3973.932775664505
 20
1513.019021987514
 30
0.0
 11
3973.932775664505
 21
1503.019021987513
 31
0.0
  0
LINE
  5
134B1
330
747D
100
AcDbEntity
  8
点線
 48
10.0
100
AcDbLine
 10
3773.932775664504
 20
1513.019021987512
 30
0.0
 11
3843.932775664504
 21
1513.019021987512
 31
0.0
  0
LINE
  5
134B2
330
747D
100
AcDbEntity
  8
点線
 48
10.0
100
AcDbLine
 10
3903.932775664504
 20
1513.019021987514
 30
0.0
 11
3973.932775664505
 21
1513.019021987514
 31
0.0
  0
LINE
  5
134B3
330
747D
100
AcDbEntity
  8
点線
 48
10.0
100
AcDbLine
 10
3903.932775664504
 20
1503.019021987514
 30
0.0
 11
3973.932775664505
 21
1503.019021987514
 31
0.0
  0
LINE
  5
134B4
330
747D
100
AcDbEntity
  8
点線
 48
10.0
100
AcDbLine
 10
3773.932775664504
 20
1503.019021987512
 30
0.0
 11
3843.932775664504
 21
1503.019021987512
 31
0.0
  0
LINE
  5
134B5
330
747D
100
AcDbEntity
  8
点線
 48
10.0
100
AcDbLine
 10
6573.932775664504
 20
1503.019021987512
 30
0.0
 11
6643.932775664504
 21
1503.019021987512
 31
0.0
  0
LINE
  5
134B6
330
747D
100
AcDbEntity
  8
点線
 48
10.0
100
AcDbLine
 10
6703.932775664505
 20
1503.019021987514
 30
0.0
 11
6773.932775664504
 21
1503.019021987514
 31
0.0
  0
LINE
  5
134B7
330
747D
100
AcDbEntity
  8
点線
 48
10.0
100
AcDbLine
 10
6703.932775664505
 20
1513.019021987514
 30
0.0
 11
6773.932775664504
 21
1513.019021987514
 31
0.0
  0
LINE
  5
134B8
330
747D
100
AcDbEntity
  8
点線
 48
10.0
100
AcDbLine
 10
6573.932775664504
 20
1513.019021987512
 30
0.0
 11
6643.932775664504
 21
1513.019021987512
 31
0.0
  0
LINE
  5
134B9
330
747D
100
AcDbEntity
  8
点線
 48
10.0
100
AcDbLine
 10
6773.932775664504
 20
1513.019021987514
 30
0.0
 11
6773.932775664504
 21
1503.019021987513
 31
0.0
  0
LINE
  5
134BA
330
747D
100
AcDbEntity
  8
点線
 48
10.0
100
AcDbLine
 10
6573.932775664504
 20
1513.019021987512
 30
0.0
 11
6573.932775664504
 21
1503.019021987512
 31
0.0
  0
LINE
  5
134D7
330
747D
100
AcDbEntity
  8
センター
 48
0.5
100
AcDbLine
 10
753.9327756645152
 20
7572.606999670106
 30
0.0
 11
953.9327756645151
 21
7572.606999670106
 31
0.0
  0
LINE
  5
134DD
330
747D
100
AcDbEntity
  8
センター
 48
0.5
100
AcDbLine
 10
753.9327756645152
 20
6830.606999670109
 30
0.0
 11
953.9327756645151
 21
6830.606999670109
 31
0.0
  0
LINE
  5
134E3
330
747D
100
AcDbEntity
  8
センター
 48
0.5
100
AcDbLine
 10
753.9327756645116
 20
6088.606999670108
 30
0.0
 11
953.9327756645116
 21
6088.606999670108
 31
0.0
  0
LINE
  5
134E9
330
747D
100
AcDbEntity
  8
センター
 48
0.5
100
AcDbLine
 10
753.9327756645116
 20
5346.606999670107
 30
0.0
 11
953.9327756645116
 21
5346.606999670107
 31
0.0
  0
LINE
  5
1354D
330
747D
100
AcDbEntity
  8
点線
 48
6.0
100
AcDbLine
 10
893.9327756645116
 20
7595.106999670099
 30
0.0
 11
853.9327756645151
 21
7595.106999670099
 31
0.0
  0
LINE
  5
1354E
330
747D
100
AcDbEntity
  8
点線
 48
6.0
100
AcDbLine
 10
893.9327756645116
 20
6853.106999670105
 30
0.0
 11
853.9327756645141
 21
6853.106999670105
 31
0.0
  0
LINE
  5
1354F
330
747D
100
AcDbEntity
  8
点線
 48
6.0
100
AcDbLine
 10
893.9327756645116
 20
6111.106999670106
 30
0.0
 11
853.9327756645116
 21
6111.106999670106
 31
0.0
  0
LINE
  5
13550
330
747D
100
AcDbEntity
  8
点線
 48
6.0
100
AcDbLine
 10
893.9327756645116
 20
5369.106999670105
 30
0.0
 11
853.9327756645116
 21
5369.106999670105
 31
0.0
  0
LINE
  5
13551
330
747D
100
AcDbEntity
  8
点線
 48
50.0
100
AcDbLine
 10
3588.942469879937
 20
7595.106999670105
 30
0.0
 11
6893.932775664507
 21
7595.106999670105
 31
0.0
  0
LINE
  5
13552
330
747D
100
AcDbEntity
  8
点線
 48
50.0
100
AcDbLine
 10
3787.760770663834
 20
6853.106999670109
 30
0.0
 11
6893.932775664509
 21
6853.106999670109
 31
0.0
  0
LINE
  5
13553
330
747D
100
AcDbEntity
  8
点線
 48
50.0
100
AcDbLine
 10
3986.579071447728
 20
6111.106999670103
 30
0.0
 11
6893.932775664511
 21
6111.106999670103
 31
0.0
  0
LINE
  5
13554
330
747D
100
AcDbEntity
  8
点線
 48
50.0
100
AcDbLine
 10
4185.39737223162
 20
5369.106999670101
 30
0.0
 11
6893.932775664511
 21
5369.106999670101
 31
0.0
  0
LINE
  5
13555
330
747D
100
AcDbEntity
  8
部品1
 48
50.0
100
AcDbLine
 10
3873.932775664511
 20
6066.106999670107
 30
0.0
 11
3873.93277566451
 21
6131.106999670106
 31
0.0
  0
LINE
  5
13556
330
747D
100
AcDbEntity
  8
点線
 48
6.0
100
AcDbLine
 10
3873.93277566451
 20
7550.106999670105
 30
0.0
 11
3873.932775664511
 21
7615.106999670103
 31
0.0
  0
LINE
  5
13557
330
747D
100
AcDbEntity
  8
点線
 48
6.0
100
AcDbLine
 10
3873.932775664511
 20
6808.106999670106
 30
0.0
 11
3873.932775664511
 21
6873.106999670106
 31
0.0
  0
LINE
  5
13558
330
747D
100
AcDbEntity
  8
部品1
 48
50.0
100
AcDbLine
 10
3873.93277566451
 20
5324.106999670104
 30
0.0
 11
3873.93277566451
 21
5389.106999670103
 31
0.0
  0
LINE
  5
13565
330
747D
100
AcDbEntity
  8
部品1
 48
50.0
100
AcDbLine
 10
3863.932775664512
 20
5109.606999670106
 30
0.0
 11
3863.932775664512
 21
5179.606999670101
 31
0.0
  0
LINE
  5
13567
330
747D
100
AcDbEntity
  8
部品1
 48
50.0
100
AcDbLine
 10
3883.932775664513
 20
7685.606999670105
 30
0.0
 11
3883.932775664513
 21
7809.606999670106
 31
0.0
  0
MTEXT
  5
13570
102
{ACAD_REACTORS
330
13571
102
}
330
747D
100
AcDbEntity
  8
寸法
 62
     7
 48
50.0
100
AcDbMText
 10
11188.6950414512
 20
2112.488719613669
 30
0.0
 40
100.0
 41
1.0
 71
     4
 72
     1
  1
別売
 73
     1
 44
1.0
1001
ACAD
1000
MTEXTBEGIN
1070
    73
1070
     1
1070
    44
1040
1.0
1070
    74
1070
     0
1000
MTEXTEND
  0
LEADER
  5
13571
330
747D
100
AcDbEntity
  8
寸法
 48
50.0
100
AcDbLeader
  3
INABA_S40G
 71
     0
 73
     0
 74
     0
 75
     1
 40
100.0
 41
240.0
 76
     3
 10
11029.46006848732
 20
2208.19857032514
 30
0.0
 10
11153.7637215369
 20
2037.512538153052
 30
0.0
 10
11178.76372153689
 20
2037.512538153052
 30
0.0
340
13570
213
0.068680085692904
223
-14.97618146061723
233
0.0
1001
ACAD
1000
DSTYLE
1002
{
1070
    40
1040
10.0
1070
    77
1070
     3
1002
}
  0
LINE
  5
13578
330
747D
100
AcDbEntity
  8
部品1
 48
50.0
100
AcDbLine
 10
1978.275906004476
 20
7909.606999670103
 30
0.0
 11
2755.328564054733
 21
5009.606999670104
 31
0.0
  0
SPLINE
  5
13579
330
747D
100
AcDbEntity
  8
部品1
 48
50.0
100
AcDbSpline
210
0.0
220
0.0
230
1.0
 70
     8
 71
     3
 72
    10
 73
     6
 74
     4
 42
0.0000000001
 43
0.0000000001
 44
0.0000000001
 40
0.0
 40
0.0
 40
0.0
 40
0.0
 40
147.8767566010009
 40
301.8091093202477
 40
466.5049223087734
 40
466.5049223087734
 40
466.5049223087734
 40
466.5049223087734
 10
2286.777560424551
 20
6587.328407497295
 30
0.0
 10
2363.659242919386
 20
6578.423973839457
 30
0.0
 10
2520.570935129514
 20
6560.250467380125
 30
0.0
 10
2197.757525185171
 20
6457.729882740783
 30
0.0
 10
2367.600144854545
 20
6439.09479402858
 30
0.0
 10
2455.390150061438
 20
6429.46249715127
 30
0.0
 11
2286.777560424551
 21
6587.328407497295
 31
0.0
 11
2429.615538733321
 21
6549.055086560966
 31
0.0
 11
2296.306210814147
 21
6472.088910201343
 31
0.0
 11
2455.390150061438
 21
6429.46249715127
 31
0.0
  0
LINE
  5
13580
330
747D
100
AcDbEntity
  8
部品1
 48
50.0
100
AcDbLine
 10
2171.172092409166
 20
3951.329545782523
 30
0.0
 11
2790.228219462964
 21
1640.98062688094
 31
0.0
  0
SPLINE
  5
13581
330
747D
100
AcDbEntity
  8
部品1
 48
50.0
100
AcDbSpline
210
0.0
220
0.0
230
1.0
 70
     8
 71
     3
 72
    10
 73
     6
 74
     4
 42
0.0000000001
 43
0.0000000001
 44
0.0000000001
 40
0.0
 40
0.0
 40
0.0
 40
0.0
 40
147.8767566010009
 40
301.8091093202477
 40
466.5049223087734
 40
466.5049223087734
 40
466.5049223087734
 40
466.5049223087734
 10
2431.766547543996
 20
2807.843055390584
 30
0.0
 10
2508.64823003883
 20
2798.938621732746
 30
0.0
 10
2665.559922248956
 20
2780.765115273414
 30
0.0
 10
2342.746512304616
 20
2678.244530634071
 30
0.0
 10
2512.589131973988
 20
2659.609441921868
 30
0.0
 10
2600.379137180882
 20
2649.977145044559
 30
0.0
 11
2431.766547543996
 21
2807.843055390584
 31
0.0
 11
2574.604525852765
 21
2769.569734454255
 31
0.0
 11
2441.295197933591
 21
2692.603558094632
 31
0.0
 11
2600.379137180882
 21
2649.977145044559
 31
0.0
  0
LINE
  5
135A9
330
747D
100
AcDbEntity
  8
部品1
 48
50.0
100
AcDbLine
 10
3873.932775664512
 20
3745.698835700876
 30
0.0
 11
3873.932775664512
 21
3753.15253615874
 31
0.0
  0
ENDSEC
  0
SECTION
  2
OBJECTS
  0
DICTIONARY
  5
7471
330
0
100
AcDbDictionary
281
     1
  3
ACAD_COLOR
350
133E6
  3
ACAD_GROUP
350
7472
  3
ACAD_LAYOUT
350
133E7
  3
ACAD_MATERIAL
350
133E5
  3
ACAD_MLINESTYLE
350
7473
  3
ACAD_PLOTSETTINGS
350
133E8
  3
ACAD_PLOTSTYLENAME
350
133E3
  3
ACDBHEADERROUNDTRIPXREC
350
135CC
  3
AcDbVariableDictionary
350
135C8
  3
CONTENTDICTIONARY
350
E71C
  3
DRAWINGVARIABLESDICT
350
F3B9
  0
DICTIONARY
  5
13406
330
7467
100
AcDbDictionary
280
     1
281
     1
  3
ACAD_LAYERFILTERS
360
134CD
  3
ACAD_LAYERSTATES
360
13407
  0
DICTIONARY
  5
133E6
102
{ACAD_REACTORS
330
7471
102
}
330
7471
100
AcDbDictionary
281
     1
  0
DICTIONARY
  5
7472
102
{ACAD_REACTORS
330
7471
102
}
330
7471
100
AcDbDictionary
281
     1
  0
DICTIONARY
  5
133E7
102
{ACAD_REACTORS
330
7471
102
}
330
7471
100
AcDbDictionary
281
     1
  3
Model
350
133E9
  3
レイアウト1
350
133EA
  0
DICTIONARY
  5
133E5
102
{ACAD_REACTORS
330
7471
102
}
330
7471
100
AcDbDictionary
281
     1
  0
DICTIONARY
  5
7473
102
{ACAD_REACTORS
330
7471
102
}
330
7471
100
AcDbDictionary
281
     1
  3
STANDARD
350
7480
  0
DICTIONARY
  5
133E8
102
{ACAD_REACTORS
330
7471
102
}
330
7471
100
AcDbDictionary
281
     1
  0
ACDBDICTIONARYWDFLT
  5
133E3
102
{ACAD_REACTORS
330
7471
102
}
330
7471
100
AcDbDictionary
281
     1
  3
Normal
350
133E4
100
AcDbDictionaryWithDefault
340
133E4
  0
DICTIONARY
  5
135CC
102
{ACAD_REACTORS
330
7471
102
}
330
7471
100
AcDbDictionary
281
     1
  3
COLORDICT
350
135CE
  3
MATERIALDICT
350
135CD
  0
DICTIONARY
  5
135C8
102
{ACAD_REACTORS
330
7471
102
}
330
7471
100
AcDbDictionary
281
     1
  3
DIMASSOC
350
135C9
  3
PROJECTNAME
350
135CA
  0
DICTIONARY
  5
E71C
102
{ACAD_REACTORS
330
7471
102
}
330
7471
100
AcDbDictionary
281
     1
  0
DICTIONARY
  5
F3B9
102
{ACAD_REACTORS
330
7471
102
}
330
7471
100
AcDbDictionary
281
     1
1001
DRAWINGVARIABLESXDATA
1000
POLARMODE
1000
1
  0
DICTIONARY
  5
134CD
102
{ACAD_REACTORS
330
13406
102
}
330
13406
100
AcDbDictionary
281
     1
  0
DICTIONARY
  5
13407
102
{ACAD_REACTORS
330
13406
102
}
330
13406
100
AcDbDictionary
281
     1
  0
LAYOUT
  5
133E9
102
{ACAD_XDICTIONARY
360
135CF
102
}
102
{ACAD_REACTORS
330
133E7
102
}
330
133E7
100
AcDbPlotSettings
  1

  2
iR C3880
  4
A3
  6

 40
5.873749732971191
 41
5.873747825622558
 42
5.873748779296875
 43
5.873748779296875
 44
296.9259948730469
 45
419.9466552734374
 46
0.0
 47
0.0
 48
0.0
 49
0.0
140
0.0
141
0.0
142
1.0
143
30.0
 70
 11952
 72
     1
 73
     1
 74
     2
  7
inaba.ctb
 75
    23
147
0.0333333333333333
148
0.0
149
0.0
100
AcDbLayout
  1
Model
 70
     1
 71
     0
 10
0.0
 20
0.0
 11
12.0
 21
9.0
 12
0.0
 22
0.0
 32
0.0
 14
0.0
 24
0.0
 34
0.0
 15
0.0
 25
0.0
 35
0.0
146
0.0
 13
0.0
 23
0.0
 33
0.0
 16
1.0
 26
0.0
 36
0.0
 17
0.0
 27
1.0
 37
0.0
 76
     0
330
747D
  0
LAYOUT
  5
133EA
102
{ACAD_XDICTIONARY
360
135D1
102
}
102
{ACAD_REACTORS
330
133E7
102
}
330
133E7
100
AcDbPlotSettings
  1

  2
自動 EPSON LP-8400FX (TATENO 上)
  4

  6

 40
0.0
 41
0.0
 42
0.0
 43
0.0
 44
0.0
 45
0.0
 46
0.0
 47
0.0
 48
0.0
 49
0.0
140
0.0
141
0.0
142
1.0
143
1.0
 70
   688
 72
     0
 73
     0
 74
     5
  7
inaba.ctb
 75
    16
147
1.0
148
0.0
149
0.0
100
AcDbLayout
  1
レイアウト1
 70
     0
 71
     1
 10
0.0
 20
0.0
 11
420.0
 21
297.0
 12
0.0
 22
0.0
 32
0.0
 14
1.000000000000000E+20
 24
1.000000000000000E+20
 34
1.000000000000000E+20
 15
-1.000000000000000E+20
 25
-1.000000000000000E+20
 35
-1.000000000000000E+20
146
0.0
 13
0.0
 23
0.0
 33
0.0
 16
1.0
 26
0.0
 36
0.0
 17
0.0
 27
1.0
 37
0.0
 76
     0
330
747A
  0
MLINESTYLE
  5
7480
102
{ACAD_REACTORS
330
7473
102
}
330
7473
100
AcDbMlineStyle
  2
STANDARD
 70
     0
  3

 62
     0
 51
90.0
 52
90.0
 71
     2
 49
0.5
 62
   256
  6
BYLAYER
 49
-0.5
 62
   256
  6
BYLAYER
  0
ACDBPLACEHOLDER
  5
133E4
102
{ACAD_REACTORS
330
133E3
102
}
330
133E3
  0
XRECORD
  5
135CE
102
{ACAD_REACTORS
330
135CC
102
}
330
135CC
100
AcDbXrecord
280
     1
340
133E6
  0
XRECORD
  5
135CD
102
{ACAD_REACTORS
330
135CC
102
}
330
135CC
100
AcDbXrecord
280
     1
340
133E5
  0
DICTIONARYVAR
  5
135C9
102
{ACAD_REACTORS
330
135C8
102
}
330
135C8
100
DictionaryVariables
280
     0
  1
1
  0
DICTIONARYVAR
  5
135CA
102
{ACAD_REACTORS
330
135C8
102
}
330
135C8
100
DictionaryVariables
280
     0
  1

  0
DICTIONARY
  5
135CF
330
133E9
100
AcDbDictionary
280
     1
281
     1
  3
ACAD_XREC_ROUNDTRIP
360
135D0
  0
DICTIONARY
  5
135D1
330
133EA
100
AcDbDictionary
280
     1
281
     1
  3
ACAD_XREC_ROUNDTRIP
360
135D2
  0
XRECORD
  5
135D0
102
{ACAD_REACTORS
330
135CF
102
}
330
135CF
100
AcDbXrecord
280
     1
102
SHADEPLOT
 70
     0
102
SHADEPLOTRESLEVEL
 70
     2
102
SHADEPLOTCUSTOMDPI
 70
   300
  0
XRECORD
  5
135D2
102
{ACAD_REACTORS
330
135D1
102
}
330
135D1
100
AcDbXrecord
280
     1
102
SHADEPLOT
 70
     0
102
SHADEPLOTRESLEVEL
 70
     2
102
SHADEPLOTCUSTOMDPI
 70
   300
  0
ENDSEC
  0
EOF
