  0
SECTION
  2
HEADER
  9
$ACADVER
  1
AC1018
  9
$ACADMAINTVER
 70
     0
  9
$DWGCODEPAGE
  3
ANSI_932
  9
$INSBASE
 10
0.0
 20
0.0
 30
0.0
  9
$EXTMIN
 10
104.3976124660112
 20
-0.5436551967941341
 30
-0.000000000000013
  9
$EXTMAX
 10
12231.24392539175
 20
8557.455851277504
 30
0.0000000000000023
  9
$LIMMIN
 10
0.0
 20
0.0
  9
$LIMMAX
 10
12600.0
 20
8910.0
  9
$ORTHOMODE
 70
     0
  9
$REGENMODE
 70
     1
  9
$FILLMODE
 70
     1
  9
$QTEXTMODE
 70
     0
  9
$MIRRTEXT
 70
     1
  9
$LTSCALE
 40
7.0
  9
$ATTMODE
 70
     1
  9
$TEXTSIZE
 40
100.0
  9
$TRACEWID
 40
1.0
  9
$TEXTSTYLE
  7
STYLE3
  9
$CLAYER
  8
点線
  9
$CELTYPE
  6
BYLAYER
  9
$CECOLOR
 62
   256
  9
$CELTSCALE
 40
50.0
  9
$DISPSILH
 70
     0
  9
$DIMSCALE
 40
30.0
  9
$DIMASZ
 40
2.5
  9
$DIMEXO
 40
0.5
  9
$DIMDLI
 40
7.0
  9
$DIMRND
 40
0.0
  9
$DIMDLE
 40
0.0
  9
$DIMEXE
 40
1.5
  9
$DIMTP
 40
0.0
  9
$DIMTM
 40
0.0
  9
$DIMTXT
 40
3.0
  9
$DIMCEN
 40
0.0
  9
$DIMTSZ
 40
0.0
  9
$DIMTOL
 70
     0
  9
$DIMLIM
 70
     0
  9
$DIMTIH
 70
     0
  9
$DIMTOH
 70
     0
  9
$DIMSE1
 70
     0
  9
$DIMSE2
 70
     0
  9
$DIMTAD
 70
     3
  9
$DIMZIN
 70
     8
  9
$DIMBLK
  1

  9
$DIMASO
 70
     1
  9
$DIMSHO
 70
     1
  9
$DIMPOST
  1

  9
$DIMAPOST
  1

  9
$DIMALT
 70
     0
  9
$DIMALTD
 70
     2
  9
$DIMALTF
 40
0.0394
  9
$DIMLFAC
 40
1.0
  9
$DIMTOFL
 70
     1
  9
$DIMTVP
 40
0.0
  9
$DIMTIX
 70
     1
  9
$DIMSOXD
 70
     1
  9
$DIMSAH
 70
     1
  9
$DIMBLK1
  1
DOTSMALL
  9
$DIMBLK2
  1
DOTSMALL
  9
$DIMSTYLE
  2
INABA_S30G
  9
$DIMCLRD
 70
     0
  9
$DIMCLRE
 70
     0
  9
$DIMCLRT
 70
     7
  9
$DIMTFAC
 40
1.0
  9
$DIMGAP
 40
1.0
  9
$DIMJUST
 70
     0
  9
$DIMSD1
 70
     0
  9
$DIMSD2
 70
     0
  9
$DIMTOLJ
 70
     1
  9
$DIMTZIN
 70
     0
  9
$DIMALTZ
 70
     0
  9
$DIMALTTZ
 70
     0
  9
$DIMUPT
 70
     0
  9
$DIMDEC
 70
     1
  9
$DIMTDEC
 70
     4
  9
$DIMALTU
 70
     2
  9
$DIMALTTD
 70
     2
  9
$DIMTXSTY
  7
STYLE1
  9
$DIMAUNIT
 70
     0
  9
$DIMADEC
 70
     0
  9
$DIMALTRND
 40
0.0
  9
$DIMAZIN
 70
     0
  9
$DIMDSEP
 70
    46
  9
$DIMATFIT
 70
     3
  9
$DIMFRAC
 70
     0
  9
$DIMLDRBLK
  1

  9
$DIMLUNIT
 70
     2
  9
$DIMLWD
 70
    -2
  9
$DIMLWE
 70
    -2
  9
$DIMTMOVE
 70
     0
  9
$LUNITS
 70
     2
  9
$LUPREC
 70
     1
  9
$SKETCHINC
 40
1.0
  9
$FILLETRAD
 40
5.0
  9
$AUNITS
 70
     0
  9
$AUPREC
 70
     0
  9
$MENU
  1
acad
  9
$ELEVATION
 40
0.0
  9
$PELEVATION
 40
0.0
  9
$THICKNESS
 40
0.0
  9
$LIMCHECK
 70
     0
  9
$CHAMFERA
 40
0.0
  9
$CHAMFERB
 40
0.0
  9
$CHAMFERC
 40
0.0
  9
$CHAMFERD
 40
0.0
  9
$SKPOLY
 70
     0
  9
$TDCREATE
 40
2451074.411873148
  9
$TDUCREATE
 40
2451074.036873148
  9
$TDUPDATE
 40
2455971.720261493
  9
$TDUUPDATE
 40
2455971.345261493
  9
$TDINDWG
 40
0.2538933912
  9
$TDUSRTIMER
 40
0.2538933912
  9
$USRTIMER
 70
     1
  9
$ANGBASE
 50
0.0
  9
$ANGDIR
 70
     0
  9
$PDMODE
 70
     3
  9
$PDSIZE
 40
2.0
  9
$PLINEWID
 40
0.0
  9
$SPLFRAME
 70
     0
  9
$SPLINETYPE
 70
     6
  9
$SPLINESEGS
 70
     8
  9
$HANDSEED
  5
14043
  9
$SURFTAB1
 70
     6
  9
$SURFTAB2
 70
     6
  9
$SURFTYPE
 70
     6
  9
$SURFU
 70
     6
  9
$SURFV
 70
     6
  9
$UCSBASE
  2

  9
$UCSNAME
  2

  9
$UCSORG
 10
0.0
 20
0.0
 30
0.0
  9
$UCSXDIR
 10
1.0
 20
0.0
 30
0.0
  9
$UCSYDIR
 10
0.0
 20
1.0
 30
0.0
  9
$UCSORTHOREF
  2

  9
$UCSORTHOVIEW
 70
     0
  9
$UCSORGTOP
 10
0.0
 20
0.0
 30
0.0
  9
$UCSORGBOTTOM
 10
0.0
 20
0.0
 30
0.0
  9
$UCSORGLEFT
 10
0.0
 20
0.0
 30
0.0
  9
$UCSORGRIGHT
 10
0.0
 20
0.0
 30
0.0
  9
$UCSORGFRONT
 10
0.0
 20
0.0
 30
0.0
  9
$UCSORGBACK
 10
0.0
 20
0.0
 30
0.0
  9
$PUCSBASE
  2

  9
$PUCSNAME
  2

  9
$PUCSORG
 10
0.0
 20
0.0
 30
0.0
  9
$PUCSXDIR
 10
1.0
 20
0.0
 30
0.0
  9
$PUCSYDIR
 10
0.0
 20
1.0
 30
0.0
  9
$PUCSORTHOREF
  2

  9
$PUCSORTHOVIEW
 70
     0
  9
$PUCSORGTOP
 10
0.0
 20
0.0
 30
0.0
  9
$PUCSORGBOTTOM
 10
0.0
 20
0.0
 30
0.0
  9
$PUCSORGLEFT
 10
0.0
 20
0.0
 30
0.0
  9
$PUCSORGRIGHT
 10
0.0
 20
0.0
 30
0.0
  9
$PUCSORGFRONT
 10
0.0
 20
0.0
 30
0.0
  9
$PUCSORGBACK
 10
0.0
 20
0.0
 30
0.0
  9
$USERI1
 70
     0
  9
$USERI2
 70
     0
  9
$USERI3
 70
     0
  9
$USERI4
 70
     0
  9
$USERI5
 70
     0
  9
$USERR1
 40
0.0
  9
$USERR2
 40
0.0
  9
$USERR3
 40
0.0
  9
$USERR4
 40
0.0
  9
$USERR5
 40
0.0
  9
$WORLDVIEW
 70
     1
  9
$SHADEDGE
 70
     3
  9
$SHADEDIF
 70
    70
  9
$TILEMODE
 70
     1
  9
$MAXACTVP
 70
    16
  9
$PINSBASE
 10
0.0
 20
0.0
 30
0.0
  9
$PLIMCHECK
 70
     0
  9
$PEXTMIN
 10
1.000000000000000E+20
 20
1.000000000000000E+20
 30
1.000000000000000E+20
  9
$PEXTMAX
 10
-1.000000000000000E+20
 20
-1.000000000000000E+20
 30
-1.000000000000000E+20
  9
$PLIMMIN
 10
0.0
 20
0.0
  9
$PLIMMAX
 10
420.0
 20
297.0
  9
$UNITMODE
 70
     0
  9
$VISRETAIN
 70
     0
  9
$PLINEGEN
 70
     0
  9
$PSLTSCALE
 70
     0
  9
$TREEDEPTH
 70
  3020
  9
$CMLSTYLE
  2
STANDARD
  9
$CMLJUST
 70
     0
  9
$CMLSCALE
 40
1.0
  9
$PROXYGRAPHICS
 70
     1
  9
$MEASUREMENT
 70
     1
  9
$CELWEIGHT
370
    -1
  9
$ENDCAPS
280
     0
  9
$JOINSTYLE
280
     0
  9
$LWDISPLAY
290
     0
  9
$INSUNITS
 70
     0
  9
$HYPERLINKBASE
  1

  9
$STYLESHEET
  1
inaba.ctb
  9
$XEDIT
290
     1
  9
$CEPSNTYPE
380
     0
  9
$PSTYLEMODE
290
     1
  9
$FINGERPRINTGUID
  2
{0F44700C-CC32-457F-8D5E-55DDF703BD4F}
  9
$VERSIONGUID
  2
{3198B682-FDB8-40BD-86D2-86B6140D7DF7}
  9
$EXTNAMES
290
     1
  9
$PSVPSCALE
 40
0.0
  9
$OLESTARTUP
290
     0
  9
$SORTENTS
280
   127
  9
$INDEXCTL
280
     0
  9
$HIDETEXT
280
     0
  9
$XCLIPFRAME
290
     0
  9
$HALOGAP
280
     0
  9
$OBSCOLOR
 70
   257
  9
$OBSLTYPE
280
     0
  9
$INTERSECTIONDISPLAY
280
     0
  9
$INTERSECTIONCOLOR
 70
   257
  9
$DIMASSOC
280
     1
  9
$PROJECTNAME
  1

  0
ENDSEC
  0
SECTION
  2
CLASSES
  0
CLASS
  1
ACDBDICTIONARYWDFLT
  2
AcDbDictionaryWithDefault
  3
ObjectDBX Classes
 90
        0
 91
        1
280
     0
281
     0
  0
ENDSEC
  0
SECTION
  2
TABLES
  0
TABLE
  2
VPORT
  5
746D
330
0
100
AcDbSymbolTable
 70
     2
  0
VPORT
  5
14042
330
746D
100
AcDbSymbolTableRecord
100
AcDbViewportTableRecord
  2
*Active
 70
     0
 10
0.0
 20
0.0
 11
1.0
 21
1.0
 12
6167.820768928883
 22
4278.456098040354
 13
0.0
 23
0.0
 14
10.0
 24
10.0
 15
10.0
 25
10.0
 16
0.0
 26
0.0
 36
1.0
 17
0.0
 27
0.0
 37
0.0
 40
8642.732174855231
 41
1.434710743801652
 42
50.0
 43
0.0
 44
0.0
 50
0.0
 51
0.0
 71
     0
 72
     0
 73
     1
 74
     0
 75
     0
 76
     0
 77
     0
 78
     0
281
     0
 65
     1
110
0.0
120
0.0
130
0.0
111
1.0
121
0.0
131
0.0
112
0.0
122
1.0
132
0.0
 79
     0
146
0.0
  0
ENDTAB
  0
TABLE
  2
LTYPE
  5
746A
330
0
100
AcDbSymbolTable
 70
     4
  0
LTYPE
  5
7477
330
746A
100
AcDbSymbolTableRecord
100
AcDbLinetypeTableRecord
  2
BYBLOCK
 70
     0
  3

 72
    65
 73
     0
 40
0.0
  0
LTYPE
  5
7478
330
746A
100
AcDbSymbolTableRecord
100
AcDbLinetypeTableRecord
  2
BYLAYER
 70
     0
  3

 72
    65
 73
     0
 40
0.0
  0
LTYPE
  5
7479
330
746A
100
AcDbSymbolTableRecord
100
AcDbLinetypeTableRecord
  2
CONTINUOUS
 70
     0
  3
Solid line
 72
    65
 73
     0
 40
0.0
  0
LTYPE
  5
781A
330
746A
100
AcDbSymbolTableRecord
100
AcDbLinetypeTableRecord
  2
HIDDEN
 70
     0
  3
__ __ __ __ __ __ __ __ __ __ __ __ __ __ __ __
 72
    65
 73
     2
 40
0.375
 49
0.25
 74
     0
 49
-0.125
 74
     0
  0
LTYPE
  5
781B
330
746A
100
AcDbSymbolTableRecord
100
AcDbLinetypeTableRecord
  2
PHANTOM
 70
     0
  3
______  __  __  ______  __  __  ______  __  __ 
 72
    65
 73
     6
 40
2.5
 49
1.25
 74
     0
 49
-0.25
 74
     0
 49
0.25
 74
     0
 49
-0.25
 74
     0
 49
0.25
 74
     0
 49
-0.25
 74
     0
  0
LTYPE
  5
13E6F
330
746A
100
AcDbSymbolTableRecord
100
AcDbLinetypeTableRecord
  2
CENTER
 70
     0
  3
Center ____ _ ____ _ ____ _ ____ _ ____ _ ____
 72
    65
 73
     4
 40
50.8
 49
31.75
 74
     0
 49
-6.349999999999999
 74
     0
 49
6.349999999999999
 74
     0
 49
-6.349999999999999
 74
     0
  0
ENDTAB
  0
TABLE
  2
LAYER
  5
7467
102
{ACAD_XDICTIONARY
360
13D78
102
}
330
0
100
AcDbSymbolTable
 70
    11
  0
LAYER
  5
7474
330
7467
100
AcDbSymbolTableRecord
100
AcDbLayerTableRecord
  2
0
 70
     0
 62
     7
  6
CONTINUOUS
370
    -3
390
13D56
  0
LAYER
  5
DEB3
330
7467
100
AcDbSymbolTableRecord
100
AcDbLayerTableRecord
  2
寸法
 70
     0
 62
     4
  6
CONTINUOUS
370
    -3
390
13D56
  0
LAYER
  5
DEB4
330
7467
100
AcDbSymbolTableRecord
100
AcDbLayerTableRecord
  2
部品1
 70
     0
 62
     7
  6
CONTINUOUS
370
    -3
390
13D56
  0
LAYER
  5
DEB5
330
7467
100
AcDbSymbolTableRecord
100
AcDbLayerTableRecord
  2
補助
 70
     0
 62
    -1
  6
CONTINUOUS
370
    -3
390
13D56
  0
LAYER
  5
DEB6
330
7467
100
AcDbSymbolTableRecord
100
AcDbLayerTableRecord
  2
文字
 70
     0
 62
     7
  6
CONTINUOUS
370
    -3
390
13D56
  0
LAYER
  5
F255
330
7467
100
AcDbSymbolTableRecord
100
AcDbLayerTableRecord
  2
DEFPOINTS
 70
     0
 62
     7
  6
CONTINUOUS
290
     0
370
    -3
390
13D56
  0
LAYER
  5
10B54
330
7467
100
AcDbSymbolTableRecord
100
AcDbLayerTableRecord
  2
仕様書枠
 70
     0
 62
   230
  6
CONTINUOUS
370
    -3
390
13D56
  0
LAYER
  5
11729
330
7467
100
AcDbSymbolTableRecord
100
AcDbLayerTableRecord
  2
Ｇ．Ｌ
 70
     0
 62
    30
  6
CONTINUOUS
370
    -3
390
13D56
  0
LAYER
  5
1173F
330
7467
100
AcDbSymbolTableRecord
100
AcDbLayerTableRecord
  2
細線
 70
     0
 62
     5
  6
CONTINUOUS
370
    -3
390
13D56
  0
LAYER
  5
11740
330
7467
100
AcDbSymbolTableRecord
100
AcDbLayerTableRecord
  2
点線
 70
     0
 62
     2
  6
HIDDEN
370
    -3
390
13D56
  0
LAYER
  5
13E70
330
7467
100
AcDbSymbolTableRecord
100
AcDbLayerTableRecord
  2
センター
 70
     0
 62
     3
  6
CENTER
370
    -3
390
13D56
  0
ENDTAB
  0
TABLE
  2
STYLE
  5
7468
330
0
100
AcDbSymbolTable
 70
     6
  0
STYLE
  5
7475
330
7468
100
AcDbSymbolTableRecord
100
AcDbTextStyleTableRecord
  2
STANDARD
 70
     0
 40
0.0
 41
1.0
 50
0.0
 71
     0
 42
4.0
  3
txt
  4
C:\AutoCAD LT\bigfont.shx
  0
STYLE
  5
763C
330
7468
100
AcDbSymbolTableRecord
100
AcDbTextStyleTableRecord
  2
MSMINCHO
 70
     0
 40
0.0
 41
1.0
 50
0.0
 71
     0
 42
1.199999999999999
  3
C:\AutoCAD LT\msminch2.TTF
  4

  0
STYLE
  5
F706
330
7468
100
AcDbSymbolTableRecord
100
AcDbTextStyleTableRecord
  2
STYLE1
 70
     0
 40
0.0
 41
1.0
 50
0.0
 71
     0
 42
4.0
  3
isocp.shx
  4
bigfont.shx
  0
STYLE
  5
103BF
330
7468
100
AcDbSymbolTableRecord
100
AcDbTextStyleTableRecord
  2
STYLE2
 70
     0
 40
0.0
 41
1.0
 50
0.0
 71
     0
 42
100.0
  3
MS PGothic.ttf
  4

1001
ACAD
1000
MS PGothic
1071
    32818
  0
STYLE
  5
10BAA
330
7468
100
AcDbSymbolTableRecord
100
AcDbTextStyleTableRecord
  2
STYLE3
 70
     0
 40
0.0
 41
1.0
 50
0.0
 71
     0
 42
100.0
  3
MS PGothic.ttf
  4

1001
ACAD
1000
MS PGothic
1071
    32818
  0
STYLE
  5
13E6E
330
7468
100
AcDbSymbolTableRecord
100
AcDbTextStyleTableRecord
  2

 70
     1
 40
0.0
 41
1.0
 50
0.0
 71
     0
 42
100.0
  3
ltypeshp.shx
  4

  0
ENDTAB
  0
TABLE
  2
VIEW
  5
746B
330
0
100
AcDbSymbolTable
 70
     0
  0
ENDTAB
  0
TABLE
  2
UCS
  5
746C
330
0
100
AcDbSymbolTable
 70
     0
  0
ENDTAB
  0
TABLE
  2
APPID
  5
746E
330
0
100
AcDbSymbolTable
 70
     6
  0
APPID
  5
7476
330
746E
100
AcDbSymbolTableRecord
100
AcDbRegAppTableRecord
  2
ACAD
 70
     0
  0
APPID
  5
DEA9
330
746E
100
AcDbSymbolTableRecord
100
AcDbRegAppTableRecord
  2
CONTENTBLOCKICON
 70
     0
  0
APPID
  5
DEAA
330
746E
100
AcDbSymbolTableRecord
100
AcDbRegAppTableRecord
  2
CONTENTBLOCKDESCRIPTION
 70
     0
  0
APPID
  5
E71D
330
746E
100
AcDbSymbolTableRecord
100
AcDbRegAppTableRecord
  2
CONTENTTABDATA
 70
     0
  0
APPID
  5
E71E
330
746E
100
AcDbSymbolTableRecord
100
AcDbRegAppTableRecord
  2
CONTENTCURRENTTAB
 70
     0
  0
APPID
  5
F3BA
330
746E
100
AcDbSymbolTableRecord
100
AcDbRegAppTableRecord
  2
DRAWINGVARIABLESXDATA
 70
     0
  0
ENDTAB
  0
TABLE
  2
DIMSTYLE
  5
746F
330
0
100
AcDbSymbolTable
 70
     2
100
AcDbDimStyleTable
 71
     1
340
F71F
  0
DIMSTYLE
105
F71F
102
{ACAD_REACTORS
330
13652
330
13658
330
1365B
330
1366E
330
13672
330
136D6
330
136FE
330
13700
330
13703
330
13704
330
13705
330
137B1
330
137B2
330
137BB
330
137BE
330
137BF
330
137C0
330
137CD
330
137CE
330
137F5
330
13814
330
13BF5
330
13BF6
330
13BF7
330
13BF8
330
13BF9
330
13DF7
102
}
330
746F
100
AcDbSymbolTableRecord
100
AcDbDimStyleTableRecord
  2
INABA_S30G
 70
     0
 40
30.0
 41
2.5
 42
0.5
 43
7.0
 44
1.5
 73
     0
 74
     0
 77
     3
 78
     8
140
3.0
141
0.0
143
0.0394
147
1.0
172
     1
173
     1
174
     1
175
     1
178
     7
271
     1
340
F706
341
F770
343
F770
344
F770
  0
DIMSTYLE
105
13FCB
330
746F
100
AcDbSymbolTableRecord
100
AcDbDimStyleTableRecord
  2
INABA_S40G
 70
     0
 40
40.0
 41
2.5
 42
0.5
 43
7.0
 44
1.5
 73
     0
 74
     0
 77
     3
 78
     8
140
3.0
141
0.0
143
0.0394
147
1.0
172
     1
173
     1
174
     1
178
     7
271
     1
340
F706
341
F770
343
F770
344
F770
  0
ENDTAB
  0
TABLE
  2
BLOCK_RECORD
  5
7466
330
0
100
AcDbSymbolTable
 70
    31
  0
BLOCK_RECORD
  5
747D
330
7466
100
AcDbSymbolTableRecord
100
AcDbBlockTableRecord
  2
*MODEL_SPACE
340
13D5B
  0
BLOCK_RECORD
  5
747A
330
7466
100
AcDbSymbolTableRecord
100
AcDbBlockTableRecord
  2
*PAPER_SPACE
340
13D5C
  0
BLOCK_RECORD
  5
F770
330
7466
100
AcDbSymbolTableRecord
100
AcDbBlockTableRecord
  2
_DOTSMALL
340
0
102
{BLKREFS
331
13B60
331
13C77
331
13C78
331
1399F
331
139A0
331
13A0D
331
13A0E
331
13A18
331
13A19
331
13A23
331
13A24
331
13A95
331
13A96
331
13A7F
331
13A80
331
13A8A
331
13A8B
331
13A50
331
13A51
331
13A5B
331
13A5C
331
13ABF
331
13AC0
331
13A71
331
13A72
331
13C3C
331
13C3D
331
13DFC
331
13DFD
331
13E10
331
13E11
331
13E95
331
13E96
331
13EA7
331
13EA8
331
13EB9
331
13EBA
331
13EC2
331
13EC3
331
13ECB
331
13ECC
331
13EF1
331
13EF2
331
13F04
331
13F05
331
13F0D
331
13F0E
331
13F17
331
13F18
331
13FF6
331
13FF7
331
13FFF
331
14000
331
14008
331
14009
102
}
  0
BLOCK_RECORD
  5
11FE5
330
7466
100
AcDbSymbolTableRecord
100
AcDbBlockTableRecord
  2
A$C644A28E3
340
0
102
{BLKREFS
331
1372A
331
13737
102
}
  0
BLOCK_RECORD
  5
11FED
330
7466
100
AcDbSymbolTableRecord
100
AcDbBlockTableRecord
  2
A$C0EDA5930
340
0
102
{BLKREFS
331
137DE
331
137E4
331
137E5
331
137E6
331
137E8
331
137E9
331
13815
331
13819
331
13835
331
13836
331
13838
102
}
  0
BLOCK_RECORD
  5
1384A
330
7466
100
AcDbSymbolTableRecord
100
AcDbBlockTableRecord
  2
*D3
340
0
  0
BLOCK_RECORD
  5
13864
330
7466
100
AcDbSymbolTableRecord
100
AcDbBlockTableRecord
  2
*D4
340
0
  0
BLOCK_RECORD
  5
13870
330
7466
100
AcDbSymbolTableRecord
100
AcDbBlockTableRecord
  2
*D5
340
0
  0
BLOCK_RECORD
  5
1387C
330
7466
100
AcDbSymbolTableRecord
100
AcDbBlockTableRecord
  2
*D6
340
0
  0
BLOCK_RECORD
  5
13888
330
7466
100
AcDbSymbolTableRecord
100
AcDbBlockTableRecord
  2
*D7
340
0
  0
BLOCK_RECORD
  5
138A0
330
7466
100
AcDbSymbolTableRecord
100
AcDbBlockTableRecord
  2
*D8
340
0
  0
BLOCK_RECORD
  5
138AC
330
7466
100
AcDbSymbolTableRecord
100
AcDbBlockTableRecord
  2
*D9
340
0
  0
BLOCK_RECORD
  5
138C4
330
7466
100
AcDbSymbolTableRecord
100
AcDbBlockTableRecord
  2
*D10
340
0
  0
BLOCK_RECORD
  5
138D0
330
7466
100
AcDbSymbolTableRecord
100
AcDbBlockTableRecord
  2
*D11
340
0
  0
BLOCK_RECORD
  5
138DC
330
7466
100
AcDbSymbolTableRecord
100
AcDbBlockTableRecord
  2
*D12
340
0
  0
BLOCK_RECORD
  5
138E8
330
7466
100
AcDbSymbolTableRecord
100
AcDbBlockTableRecord
  2
*D13
340
0
  0
BLOCK_RECORD
  5
138F4
330
7466
100
AcDbSymbolTableRecord
100
AcDbBlockTableRecord
  2
*D14
340
0
  0
BLOCK_RECORD
  5
13900
330
7466
100
AcDbSymbolTableRecord
100
AcDbBlockTableRecord
  2
*D15
340
0
  0
BLOCK_RECORD
  5
1390C
330
7466
100
AcDbSymbolTableRecord
100
AcDbBlockTableRecord
  2
*D16
340
0
  0
BLOCK_RECORD
  5
13918
330
7466
100
AcDbSymbolTableRecord
100
AcDbBlockTableRecord
  2
*D17
340
0
  0
BLOCK_RECORD
  5
13924
330
7466
100
AcDbSymbolTableRecord
100
AcDbBlockTableRecord
  2
*D18
340
0
  0
BLOCK_RECORD
  5
13930
330
7466
100
AcDbSymbolTableRecord
100
AcDbBlockTableRecord
  2
*D19
340
0
  0
BLOCK_RECORD
  5
1393C
330
7466
100
AcDbSymbolTableRecord
100
AcDbBlockTableRecord
  2
*D20
340
0
  0
BLOCK_RECORD
  5
13949
330
7466
100
AcDbSymbolTableRecord
100
AcDbBlockTableRecord
  2
*D21
340
0
  0
BLOCK_RECORD
  5
13955
330
7466
100
AcDbSymbolTableRecord
100
AcDbBlockTableRecord
  2
*D22
340
0
  0
BLOCK_RECORD
  5
13961
330
7466
100
AcDbSymbolTableRecord
100
AcDbBlockTableRecord
  2
*D23
340
0
  0
BLOCK_RECORD
  5
13B77
330
7466
100
AcDbSymbolTableRecord
100
AcDbBlockTableRecord
  2
A$C1AD6672A
340
0
102
{BLKREFS
331
13B8F
102
}
  0
BLOCK_RECORD
  5
13BFA
330
7466
100
AcDbSymbolTableRecord
100
AcDbBlockTableRecord
  2
*D25
340
0
  0
BLOCK_RECORD
  5
13C06
330
7466
100
AcDbSymbolTableRecord
100
AcDbBlockTableRecord
  2
*D26
340
0
  0
BLOCK_RECORD
  5
13C13
330
7466
100
AcDbSymbolTableRecord
100
AcDbBlockTableRecord
  2
*D27
340
0
  0
BLOCK_RECORD
  5
13C1F
330
7466
100
AcDbSymbolTableRecord
100
AcDbBlockTableRecord
  2
*D28
340
0
  0
BLOCK_RECORD
  5
13C2B
330
7466
100
AcDbSymbolTableRecord
100
AcDbBlockTableRecord
  2
*D29
340
0
  0
BLOCK_RECORD
  5
13DF8
330
7466
100
AcDbSymbolTableRecord
100
AcDbBlockTableRecord
  2
*D30
340
0
  0
ENDTAB
  0
ENDSEC
  0
SECTION
  2
BLOCKS
  0
BLOCK
  5
7489
330
747D
100
AcDbEntity
  8
0
100
AcDbBlockBegin
  2
*MODEL_SPACE
 70
     0
 10
0.0
 20
0.0
 30
0.0
  3
*MODEL_SPACE
  1

  0
ENDBLK
  5
748A
330
747D
100
AcDbEntity
  8
0
100
AcDbBlockEnd
  0
BLOCK
  5
7487
330
747A
100
AcDbEntity
 67
     1
  8
0
100
AcDbBlockBegin
  2
*PAPER_SPACE
 70
     0
 10
0.0
 20
0.0
 30
0.0
  3
*PAPER_SPACE
  1

  0
ENDBLK
  5
7488
330
747A
100
AcDbEntity
 67
     1
  8
0
100
AcDbBlockEnd
  0
BLOCK
  5
F771
330
F770
100
AcDbEntity
  8
0
 48
50.0
100
AcDbBlockBegin
  2
_DOTSMALL
 70
     0
 10
0.0
 20
0.0
 30
0.0
  3
_DOTSMALL
  1

  0
LWPOLYLINE
  5
F772
330
F770
100
AcDbEntity
  8
0
  6
ByBlock
 62
     0
 48
50.0
100
AcDbPolyline
 90
        2
 70
     1
 43
0.5
 10
-0.0625
 20
0.0
 42
1.0
 10
0.0625
 20
0.0
 42
1.0
  0
ENDBLK
  5
F776
330
F770
100
AcDbEntity
  8
0
 48
50.0
100
AcDbBlockEnd
  0
BLOCK
  5
11FEB
330
11FE5
100
AcDbEntity
  8
0
 48
50.0
100
AcDbBlockBegin
  2
A$C644A28E3
 70
     0
 10
0.0
 20
0.0
 30
0.0
  3
A$C644A28E3
  1

  0
ARC
  5
11FE6
330
11FE5
100
AcDbEntity
  8
部品1
 48
50.0
100
AcDbCircle
 10
53.99999260842742
 20
10.0000017156417
 30
0.0
 40
10.0
100
AcDbArc
 50
270.0000000000021
 51
0.0
  0
ARC
  5
11FE7
330
11FE5
100
AcDbEntity
  8
部品1
 48
50.0
100
AcDbCircle
 10
9.999992608427419
 20
10.00000171563806
 30
0.0
 40
10.0
100
AcDbArc
 50
180.0
 51
270.0000000000009
  0
LINE
  5
11FE8
330
11FE5
100
AcDbEntity
  8
部品1
 48
50.0
100
AcDbLine
 10
9.999992608427419
 20
0.0000017156380636
 30
0.0
 11
53.99999260842742
 21
0.0000017156417016
 31
0.0
  0
LINE
  5
11FE9
330
11FE5
100
AcDbEntity
  8
部品1
 48
50.0
100
AcDbLine
 10
63.99999260842742
 20
45.00000171563806
 30
0.0
 11
63.99999260842742
 21
10.0000017156417
 31
0.0
  0
LINE
  5
11FEA
330
11FE5
100
AcDbEntity
  8
部品1
 48
50.0
100
AcDbLine
 10
-0.0000073915725807
 20
45.00000171563806
 30
0.0
 11
-0.0000073915725807
 21
10.00000171563806
 31
0.0
  0
ENDBLK
  5
11FEC
330
11FE5
100
AcDbEntity
  8
0
 48
50.0
100
AcDbBlockEnd
  0
BLOCK
  5
11FF0
330
11FED
100
AcDbEntity
  8
0
 48
50.0
100
AcDbBlockBegin
  2
A$C0EDA5930
 70
     0
 10
0.0
 20
0.0
 30
0.0
  3
A$C0EDA5930
  1

  0
LWPOLYLINE
  5
11FEE
330
11FED
100
AcDbEntity
  8
細線
 48
50.0
100
AcDbPolyline
 90
        6
 70
     1
 43
0.0
 10
2.499964582253596
 20
5.24718422294427
 10
8.999964582253596
 20
1.494407473212049
 10
15.4999645822536
 20
5.24718422294427
 10
15.4999645822536
 20
12.75273772240871
 10
8.999964582253596
 20
16.50551447214093
 10
2.499964582253596
 20
12.75273772240871
  0
CIRCLE
  5
11FEF
330
11FED
100
AcDbEntity
  8
部品1
 48
50.0
100
AcDbCircle
 10
8.999964582253596
 20
8.99996097267649
 30
0.0
 40
9.0
  0
ENDBLK
  5
11FF1
330
11FED
100
AcDbEntity
  8
0
 48
50.0
100
AcDbBlockEnd
  0
BLOCK
  5
13C71
330
1384A
100
AcDbEntity
  8
0
 48
50.0
100
AcDbBlockBegin
  2
*D3
 70
     1
 10
0.0
 20
0.0
 30
0.0
  3
*D3
  1

  0
LINE
  5
13C72
330
1384A
100
AcDbEntity
  8
0
  6
ByBlock
 62
     0
 48
50.0
100
AcDbLine
 10
6817.252486199246
 20
1807.978531432178
 30
0.0
 11
7319.337677265095
 21
1807.978531432178
 31
0.0
  0
LINE
  5
13C73
330
1384A
100
AcDbEntity
  8
0
  6
ByBlock
 62
     0
 48
50.0
100
AcDbLine
 10
6827.252486199253
 20
1757.97853143218
 30
0.0
 11
7319.337677265095
 21
1757.97853143218
 31
0.0
  0
LINE
  5
13C74
330
1384A
100
AcDbEntity
  8
0
  6
ByBlock
 62
     0
 48
50.0
100
AcDbLine
 10
7274.337677265096
 20
1757.97853143218
 30
0.0
 11
7274.337677265096
 21
1682.97853143218
 31
0.0
  0
LINE
  5
13C75
330
1384A
100
AcDbEntity
  8
0
  6
ByBlock
 62
     0
 48
50.0
100
AcDbLine
 10
7274.337677265096
 20
1807.978531432178
 30
0.0
 11
7274.337677265096
 21
2118.561208597532
 31
0.0
  0
LINE
  5
13C76
330
1384A
100
AcDbEntity
  8
0
  6
ByBlock
 62
     0
 48
50.0
100
AcDbLine
 10
7274.337677265096
 20
1757.97853143218
 30
0.0
 11
7274.337677265096
 21
1807.978531432178
 31
0.0
  0
INSERT
  5
13C77
330
1384A
100
AcDbEntity
  8
0
  6
ByBlock
 62
     0
 48
50.0
100
AcDbBlockReference
  2
_DOTSMALL
 10
7274.337677265096
 20
1757.97853143218
 30
0.0
 41
75.0
 42
75.0
 43
75.0
 50
90.0
  0
INSERT
  5
13C78
330
1384A
100
AcDbEntity
  8
0
  6
ByBlock
 62
     0
 48
50.0
100
AcDbBlockReference
  2
_DOTSMALL
 10
7274.337677265096
 20
1807.978531432178
 30
0.0
 41
75.0
 42
75.0
 43
75.0
 50
270.0
  0
MTEXT
  5
13C79
330
1384A
100
AcDbEntity
  8
0
  6
ByBlock
 62
     7
 48
50.0
100
AcDbMText
 10
7199.337677265096
 20
2039.025775526666
 30
0.0
 40
90.0
 41
0.0
 71
     5
 72
     1
  1
\A1;50
  7
STYLE1
 11
0.0000000000000001
 21
1.0
 31
0.0
 73
     1
 44
1.0
  0
POINT
  5
13C7A
330
1384A
100
AcDbEntity
  8
DEFPOINTS
  6
ByBlock
 62
     0
 48
50.0
100
AcDbPoint
 10
6802.252486199247
 20
1807.978531432178
 30
0.0
  0
POINT
  5
13C7B
330
1384A
100
AcDbEntity
  8
DEFPOINTS
  6
ByBlock
 62
     0
 48
50.0
100
AcDbPoint
 10
6812.252486199253
 20
1757.97853143218
 30
0.0
  0
POINT
  5
13C7C
330
1384A
100
AcDbEntity
  8
DEFPOINTS
  6
ByBlock
 62
     0
 48
50.0
100
AcDbPoint
 10
7274.337677265096
 20
1757.97853143218
 30
0.0
  0
ENDBLK
  5
13C7D
330
1384A
100
AcDbEntity
  8
0
 48
50.0
100
AcDbBlockEnd
  0
BLOCK
  5
13985
330
13864
100
AcDbEntity
  8
0
 48
50.0
100
AcDbBlockBegin
  2
*D4
 70
     1
 10
0.0
 20
0.0
 30
0.0
  3
*D4
  1

  0
LINE
  5
13FF3
330
13864
100
AcDbEntity
  8
寸法
 62
     0
 48
50.0
370
    -2
100
AcDbLine
 10
762.252488151018
 20
3948.367940889062
 30
0.0
 11
762.252488151018
 21
4222.02676431269
 31
0.0
  0
LINE
  5
13FF4
330
13864
100
AcDbEntity
  8
寸法
 62
     0
 48
50.0
370
    -2
100
AcDbLine
 10
1012.252488151018
 20
3800.698835700844
 30
0.0
 11
1012.252488151018
 21
4222.02676431269
 31
0.0
  0
LINE
  5
13FF5
330
13864
100
AcDbEntity
  8
寸法
 62
     0
 48
50.0
370
    -2
100
AcDbLine
 10
762.252488151018
 20
4177.02676431269
 30
0.0
 11
1012.252488151018
 21
4177.02676431269
 31
0.0
  0
INSERT
  5
13FF6
330
13864
100
AcDbEntity
  8
寸法
 62
     0
 48
50.0
370
    -2
100
AcDbBlockReference
  2
_DOTSMALL
 10
762.252488151018
 20
4177.02676431269
 30
0.0
 41
75.0
 42
75.0
 43
75.0
 50
180.0
  0
INSERT
  5
13FF7
330
13864
100
AcDbEntity
  8
寸法
 62
     0
 48
50.0
370
    -2
100
AcDbBlockReference
  2
_DOTSMALL
 10
1012.252488151018
 20
4177.02676431269
 30
0.0
 41
75.0
 42
75.0
 43
75.0
  0
MTEXT
  5
13FF8
330
13864
100
AcDbEntity
  8
寸法
 62
     7
 48
50.0
100
AcDbMText
 10
887.252488151018
 20
4252.035622580407
 30
0.0
 40
90.0
 41
0.0
 71
     5
 72
     1
  1
\A1;250
  7
STYLE1
 73
     1
 44
1.0
  0
POINT
  5
13FF9
330
13864
100
AcDbEntity
  8
DEFPOINTS
 62
     0
 48
50.0
100
AcDbPoint
 10
762.252488151018
 20
3933.367940889063
 30
0.0
  0
POINT
  5
13FFA
330
13864
100
AcDbEntity
  8
DEFPOINTS
 62
     0
 48
50.0
100
AcDbPoint
 10
1012.252488151018
 20
3785.698835700844
 30
0.0
  0
POINT
  5
13FFB
330
13864
100
AcDbEntity
  8
DEFPOINTS
 62
     0
 48
50.0
100
AcDbPoint
 10
1012.252488151018
 20
4177.02676431269
 30
0.0
  0
ENDBLK
  5
1398F
330
13864
100
AcDbEntity
  8
0
 48
50.0
100
AcDbBlockEnd
  0
BLOCK
  5
13B50
330
13870
100
AcDbEntity
  8
0
 48
50.0
100
AcDbBlockBegin
  2
*D5
 70
     1
 10
0.0
 20
0.0
 30
0.0
  3
*D5
  1

  0
LINE
  5
13E0D
330
13870
100
AcDbEntity
  8
寸法
 62
     0
 48
50.0
370
    -2
100
AcDbLine
 10
762.252488151018
 20
3948.367940889062
 30
0.0
 11
762.252488151018
 21
4541.211794839526
 31
0.0
  0
LINE
  5
13E0E
330
13870
100
AcDbEntity
  8
寸法
 62
     0
 48
50.0
370
    -2
100
AcDbLine
 10
6862.25248619925
 20
3948.327450333766
 30
0.0
 11
6862.25248619925
 21
4541.211794839526
 31
0.0
  0
LINE
  5
13E0F
330
13870
100
AcDbEntity
  8
寸法
 62
     0
 48
50.0
370
    -2
100
AcDbLine
 10
762.252488151018
 20
4496.211794839526
 30
0.0
 11
6862.25248619925
 21
4496.211794839526
 31
0.0
  0
INSERT
  5
13E10
330
13870
100
AcDbEntity
  8
寸法
 62
     0
 48
50.0
370
    -2
100
AcDbBlockReference
  2
_DOTSMALL
 10
762.252488151018
 20
4496.211794839526
 30
0.0
 41
75.0
 42
75.0
 43
75.0
 50
180.0
  0
INSERT
  5
13E11
330
13870
100
AcDbEntity
  8
寸法
 62
     0
 48
50.0
370
    -2
100
AcDbBlockReference
  2
_DOTSMALL
 10
6862.25248619925
 20
4496.211794839526
 30
0.0
 41
75.0
 42
75.0
 43
75.0
  0
MTEXT
  5
13E12
330
13870
100
AcDbEntity
  8
寸法
 62
     7
 48
50.0
100
AcDbMText
 10
3812.252487175134
 20
4571.211794839526
 30
0.0
 40
90.0
 41
0.0
 71
     5
 72
     1
  1
\A1;6100
  7
STYLE1
 73
     1
 44
1.0
  0
POINT
  5
13E13
330
13870
100
AcDbEntity
  8
DEFPOINTS
 62
     0
 48
50.0
100
AcDbPoint
 10
762.252488151018
 20
3933.367940889063
 30
0.0
  0
POINT
  5
13E14
330
13870
100
AcDbEntity
  8
DEFPOINTS
 62
     0
 48
50.0
100
AcDbPoint
 10
6862.25248619925
 20
3933.327450333766
 30
0.0
  0
POINT
  5
13E15
330
13870
100
AcDbEntity
  8
DEFPOINTS
 62
     0
 48
50.0
100
AcDbPoint
 10
6862.25248619925
 20
4496.211794839526
 30
0.0
  0
ENDBLK
  5
13B5A
330
13870
100
AcDbEntity
  8
0
 48
50.0
100
AcDbBlockEnd
  0
BLOCK
  5
1399B
330
1387C
100
AcDbEntity
  8
0
 48
50.0
100
AcDbBlockBegin
  2
*D6
 70
     1
 10
0.0
 20
0.0
 30
0.0
  3
*D6
  1

  0
LINE
  5
1399C
330
1387C
100
AcDbEntity
  8
0
  6
ByBlock
 62
     0
 48
50.0
100
AcDbLine
 10
4203.818282808025
 20
-8392.176548581552
 30
0.0
 11
4203.818282808025
 21
-8583.042065817826
 31
0.0
  0
LINE
  5
1399D
330
1387C
100
AcDbEntity
  8
0
  6
ByBlock
 62
     0
 48
50.0
100
AcDbLine
 10
7003.818280856257
 20
-8392.217039136887
 30
0.0
 11
7003.818280856257
 21
-8583.042065817826
 31
0.0
  0
LINE
  5
1399E
330
1387C
100
AcDbEntity
  8
0
  6
ByBlock
 62
     0
 48
50.0
100
AcDbLine
 10
4203.818282808025
 20
-8538.042065817826
 30
0.0
 11
7003.818280856257
 21
-8538.042065817826
 31
0.0
  0
INSERT
  5
1399F
330
1387C
100
AcDbEntity
  8
0
  6
ByBlock
 62
     0
 48
50.0
100
AcDbBlockReference
  2
_DOTSMALL
 10
4203.818282808025
 20
-8538.042065817826
 30
0.0
 41
75.0
 42
75.0
 43
75.0
 50
180.0
  0
INSERT
  5
139A0
330
1387C
100
AcDbEntity
  8
0
  6
ByBlock
 62
     0
 48
50.0
100
AcDbBlockReference
  2
_DOTSMALL
 10
7003.818280856257
 20
-8538.042065817826
 30
0.0
 41
75.0
 42
75.0
 43
75.0
  0
MTEXT
  5
139A1
330
1387C
100
AcDbEntity
  8
0
  6
ByBlock
 62
     7
 48
50.0
100
AcDbMText
 10
5603.81828183214
 20
-8463.033207550109
 30
0.0
 40
90.0
 41
0.0
 71
     5
 72
     1
  1
\A1;2800
  7
STYLE1
 73
     1
 44
1.0
  0
POINT
  5
139A2
330
1387C
100
AcDbEntity
  8
DEFPOINTS
  6
ByBlock
 62
     0
 48
50.0
100
AcDbPoint
 10
4203.818282808025
 20
-8377.176548581552
 30
0.0
  0
POINT
  5
139A3
330
1387C
100
AcDbEntity
  8
DEFPOINTS
  6
ByBlock
 62
     0
 48
50.0
100
AcDbPoint
 10
7003.818280856257
 20
-8377.217039136887
 30
0.0
  0
POINT
  5
139A4
330
1387C
100
AcDbEntity
  8
DEFPOINTS
  6
ByBlock
 62
     0
 48
50.0
100
AcDbPoint
 10
7003.818280856257
 20
-8538.042065817826
 30
0.0
  0
ENDBLK
  5
139A5
330
1387C
100
AcDbEntity
  8
0
 48
50.0
100
AcDbBlockEnd
  0
BLOCK
  5
13B45
330
13888
100
AcDbEntity
  8
0
 48
50.0
100
AcDbBlockBegin
  2
*D7
 70
     1
 10
0.0
 20
0.0
 30
0.0
  3
*D7
  1

  0
LINE
  5
14005
330
13888
100
AcDbEntity
  8
寸法
 62
     0
 48
50.0
370
    -2
100
AcDbLine
 10
1012.252488151018
 20
3800.698835700844
 30
0.0
 11
1012.252488151018
 21
4221.986273757351
 31
0.0
  0
LINE
  5
14006
330
13888
100
AcDbEntity
  8
寸法
 62
     0
 48
50.0
370
    -2
100
AcDbLine
 10
6612.25248619925
 20
3800.658345145546
 30
0.0
 11
6612.25248619925
 21
4221.986273757351
 31
0.0
  0
LINE
  5
14007
330
13888
100
AcDbEntity
  8
寸法
 62
     0
 48
50.0
370
    -2
100
AcDbLine
 10
1012.252488151018
 20
4176.986273757351
 30
0.0
 11
6612.25248619925
 21
4176.986273757351
 31
0.0
  0
INSERT
  5
14008
330
13888
100
AcDbEntity
  8
寸法
 62
     0
 48
50.0
370
    -2
100
AcDbBlockReference
  2
_DOTSMALL
 10
1012.252488151018
 20
4176.986273757351
 30
0.0
 41
75.0
 42
75.0
 43
75.0
 50
180.0
  0
INSERT
  5
14009
330
13888
100
AcDbEntity
  8
寸法
 62
     0
 48
50.0
370
    -2
100
AcDbBlockReference
  2
_DOTSMALL
 10
6612.25248619925
 20
4176.986273757351
 30
0.0
 41
75.0
 42
75.0
 43
75.0
  0
MTEXT
  5
1400A
330
13888
100
AcDbEntity
  8
寸法
 62
     7
 48
50.0
100
AcDbMText
 10
3812.252487175134
 20
4251.986273757351
 30
0.0
 40
90.0
 41
0.0
 71
     5
 72
     1
  1
\A1;5600
  7
STYLE1
 73
     1
 44
1.0
  0
POINT
  5
1400B
330
13888
100
AcDbEntity
  8
DEFPOINTS
 62
     0
 48
50.0
100
AcDbPoint
 10
1012.252488151018
 20
3785.698835700844
 30
0.0
  0
POINT
  5
1400C
330
13888
100
AcDbEntity
  8
DEFPOINTS
 62
     0
 48
50.0
100
AcDbPoint
 10
6612.25248619925
 20
3785.658345145546
 30
0.0
  0
POINT
  5
1400D
330
13888
100
AcDbEntity
  8
DEFPOINTS
 62
     0
 48
50.0
100
AcDbPoint
 10
6612.25248619925
 20
4176.986273757351
 30
0.0
  0
ENDBLK
  5
13B4F
330
13888
100
AcDbEntity
  8
0
 48
50.0
100
AcDbBlockEnd
  0
BLOCK
  5
139BC
330
138A0
100
AcDbEntity
  8
0
 48
50.0
100
AcDbBlockBegin
  2
*D8
 70
     1
 10
0.0
 20
0.0
 30
0.0
  3
*D8
  1

  0
LINE
  5
13FFC
330
138A0
100
AcDbEntity
  8
寸法
 62
     0
 48
50.0
370
    -2
100
AcDbLine
 10
6612.25248619925
 20
3800.658345145546
 30
0.0
 11
6612.25248619925
 21
4221.986273757391
 31
0.0
  0
LINE
  5
13FFD
330
138A0
100
AcDbEntity
  8
寸法
 62
     0
 48
50.0
370
    -2
100
AcDbLine
 10
6862.25248619925
 20
3948.327450333766
 30
0.0
 11
6862.25248619925
 21
4221.986273757391
 31
0.0
  0
LINE
  5
13FFE
330
138A0
100
AcDbEntity
  8
寸法
 62
     0
 48
50.0
370
    -2
100
AcDbLine
 10
6612.25248619925
 20
4176.986273757392
 30
0.0
 11
6862.25248619925
 21
4176.986273757392
 31
0.0
  0
INSERT
  5
13FFF
330
138A0
100
AcDbEntity
  8
寸法
 62
     0
 48
50.0
370
    -2
100
AcDbBlockReference
  2
_DOTSMALL
 10
6612.25248619925
 20
4176.986273757392
 30
0.0
 41
75.0
 42
75.0
 43
75.0
 50
180.0
  0
INSERT
  5
14000
330
138A0
100
AcDbEntity
  8
寸法
 62
     0
 48
50.0
370
    -2
100
AcDbBlockReference
  2
_DOTSMALL
 10
6862.25248619925
 20
4176.986273757392
 30
0.0
 41
75.0
 42
75.0
 43
75.0
  0
MTEXT
  5
14001
330
138A0
100
AcDbEntity
  8
寸法
 62
     7
 48
50.0
100
AcDbMText
 10
6737.25248619925
 20
4251.995132025107
 30
0.0
 40
90.0
 41
0.0
 71
     5
 72
     1
  1
\A1;250
  7
STYLE1
 73
     1
 44
1.0
  0
POINT
  5
14002
330
138A0
100
AcDbEntity
  8
DEFPOINTS
 62
     0
 48
50.0
100
AcDbPoint
 10
6612.25248619925
 20
3785.658345145546
 30
0.0
  0
POINT
  5
14003
330
138A0
100
AcDbEntity
  8
DEFPOINTS
 62
     0
 48
50.0
100
AcDbPoint
 10
6862.25248619925
 20
3933.327450333766
 30
0.0
  0
POINT
  5
14004
330
138A0
100
AcDbEntity
  8
DEFPOINTS
 62
     0
 48
50.0
100
AcDbPoint
 10
6862.25248619925
 20
4176.986273757392
 30
0.0
  0
ENDBLK
  5
139C6
330
138A0
100
AcDbEntity
  8
0
 48
50.0
100
AcDbBlockEnd
  0
BLOCK
  5
139C7
330
138AC
100
AcDbEntity
  8
0
 48
50.0
100
AcDbBlockBegin
  2
*D9
 70
     1
 10
0.0
 20
0.0
 30
0.0
  3
*D9
  1

  0
LINE
  5
13E92
330
138AC
100
AcDbEntity
  8
寸法
 62
     0
 48
50.0
370
    -2
100
AcDbLine
 10
762.2524881510162
 20
7809.606999670108
 30
0.0
 11
396.5805443184758
 21
7809.606999670108
 31
0.0
  0
LINE
  5
13E93
330
138AC
100
AcDbEntity
  8
寸法
 62
     0
 48
50.0
370
    -2
100
AcDbLine
 10
677.2524881510198
 20
7572.60699967011
 30
0.0
 11
396.5805443184757
 21
7572.60699967011
 31
0.0
  0
LINE
  5
13E94
330
138AC
100
AcDbEntity
  8
寸法
 62
     0
 48
50.0
370
    -2
100
AcDbLine
 10
441.5805443184757
 20
7809.606999670108
 30
0.0
 11
441.5805443184757
 21
7572.60699967011
 31
0.0
  0
INSERT
  5
13E95
330
138AC
100
AcDbEntity
  8
寸法
 62
     0
 48
50.0
370
    -2
100
AcDbBlockReference
  2
_DOTSMALL
 10
441.5805443184757
 20
7809.606999670108
 30
0.0
 41
75.0
 42
75.0
 43
75.0
 50
90.0
  0
INSERT
  5
13E96
330
138AC
100
AcDbEntity
  8
寸法
 62
     0
 48
50.0
370
    -2
100
AcDbBlockReference
  2
_DOTSMALL
 10
441.5805443184757
 20
7572.60699967011
 30
0.0
 41
75.0
 42
75.0
 43
75.0
 50
270.0
  0
MTEXT
  5
13E97
330
138AC
100
AcDbEntity
  8
寸法
 62
     7
 48
50.0
100
AcDbMText
 10
366.571686050758
 20
7691.106999670108
 30
0.0
 40
90.0
 41
0.0
 71
     5
 72
     1
  1
\A1;237
  7
STYLE1
 11
0.0000000000000001
 21
1.0
 31
0.0
 73
     1
 44
1.0
  0
POINT
  5
13E98
330
138AC
100
AcDbEntity
  8
DEFPOINTS
 62
     0
 48
50.0
100
AcDbPoint
 10
777.2524881510162
 20
7809.606999670108
 30
0.0
  0
POINT
  5
13E99
330
138AC
100
AcDbEntity
  8
DEFPOINTS
 62
     0
 48
50.0
100
AcDbPoint
 10
692.2524881510199
 20
7572.60699967011
 30
0.0
  0
POINT
  5
13E9A
330
138AC
100
AcDbEntity
  8
DEFPOINTS
 62
     0
 48
50.0
100
AcDbPoint
 10
441.5805443184757
 20
7572.60699967011
 30
0.0
  0
ENDBLK
  5
139D1
330
138AC
100
AcDbEntity
  8
0
 48
50.0
100
AcDbBlockEnd
  0
BLOCK
  5
139DD
330
138C4
100
AcDbEntity
  8
0
 48
50.0
100
AcDbBlockBegin
  2
*D10
 70
     1
 10
0.0
 20
0.0
 30
0.0
  3
*D10
  1

  0
LINE
  5
13EB6
330
138C4
100
AcDbEntity
  8
寸法
 62
     0
 48
50.0
370
    -2
100
AcDbLine
 10
677.2524881510198
 20
6830.606999670114
 30
0.0
 11
396.5805443184747
 21
6830.606999670114
 31
0.0
  0
LINE
  5
13EB7
330
138C4
100
AcDbEntity
  8
寸法
 62
     0
 48
50.0
370
    -2
100
AcDbLine
 10
677.2524881510198
 20
6088.606999670115
 30
0.0
 11
396.5805443184745
 21
6088.606999670115
 31
0.0
  0
LINE
  5
13EB8
330
138C4
100
AcDbEntity
  8
寸法
 62
     0
 48
50.0
370
    -2
100
AcDbLine
 10
441.5805443184746
 20
6830.606999670114
 30
0.0
 11
441.5805443184744
 21
6088.606999670115
 31
0.0
  0
INSERT
  5
13EB9
330
138C4
100
AcDbEntity
  8
寸法
 62
     0
 48
50.0
370
    -2
100
AcDbBlockReference
  2
_DOTSMALL
 10
441.5805443184746
 20
6830.606999670114
 30
0.0
 41
75.0
 42
75.0
 43
75.0
 50
90.0
  0
INSERT
  5
13EBA
330
138C4
100
AcDbEntity
  8
寸法
 62
     0
 48
50.0
370
    -2
100
AcDbBlockReference
  2
_DOTSMALL
 10
441.5805443184744
 20
6088.606999670115
 30
0.0
 41
75.0
 42
75.0
 43
75.0
 50
270.0
  0
MTEXT
  5
13EBB
330
138C4
100
AcDbEntity
  8
寸法
 62
     7
 48
50.0
100
AcDbMText
 10
366.571686050757
 20
6459.606999670114
 30
0.0
 40
90.0
 41
0.0
 71
     5
 72
     1
  1
\A1;742
  7
STYLE1
 11
0.0000000000000001
 21
1.0
 31
0.0
 73
     1
 44
1.0
  0
POINT
  5
13EBC
330
138C4
100
AcDbEntity
  8
DEFPOINTS
 62
     0
 48
50.0
100
AcDbPoint
 10
692.2524881510199
 20
6830.606999670114
 30
0.0
  0
POINT
  5
13EBD
330
138C4
100
AcDbEntity
  8
DEFPOINTS
 62
     0
 48
50.0
100
AcDbPoint
 10
692.2524881510199
 20
6088.606999670115
 30
0.0
  0
POINT
  5
13EBE
330
138C4
100
AcDbEntity
  8
DEFPOINTS
 62
     0
 48
50.0
100
AcDbPoint
 10
441.5805443184744
 20
6088.606999670115
 30
0.0
  0
ENDBLK
  5
139E7
330
138C4
100
AcDbEntity
  8
0
 48
50.0
100
AcDbBlockEnd
  0
BLOCK
  5
139E8
330
138D0
100
AcDbEntity
  8
0
 48
50.0
100
AcDbBlockBegin
  2
*D11
 70
     1
 10
0.0
 20
0.0
 30
0.0
  3
*D11
  1

  0
LINE
  5
13EBF
330
138D0
100
AcDbEntity
  8
寸法
 62
     0
 48
50.0
370
    -2
100
AcDbLine
 10
677.2524881510162
 20
5346.606999670118
 30
0.0
 11
396.5805443184753
 21
5346.606999670118
 31
0.0
  0
LINE
  5
13EC0
330
138D0
100
AcDbEntity
  8
寸法
 62
     0
 48
50.0
370
    -2
100
AcDbLine
 10
762.2524881510162
 20
5109.606999670115
 30
0.0
 11
396.5805443184753
 21
5109.606999670115
 31
0.0
  0
LINE
  5
13EC1
330
138D0
100
AcDbEntity
  8
寸法
 62
     0
 48
50.0
370
    -2
100
AcDbLine
 10
441.5805443184753
 20
5346.606999670118
 30
0.0
 11
441.5805443184752
 21
5109.606999670115
 31
0.0
  0
INSERT
  5
13EC2
330
138D0
100
AcDbEntity
  8
寸法
 62
     0
 48
50.0
370
    -2
100
AcDbBlockReference
  2
_DOTSMALL
 10
441.5805443184753
 20
5346.606999670118
 30
0.0
 41
75.0
 42
75.0
 43
75.0
 50
90.0
  0
INSERT
  5
13EC3
330
138D0
100
AcDbEntity
  8
寸法
 62
     0
 48
50.0
370
    -2
100
AcDbBlockReference
  2
_DOTSMALL
 10
441.5805443184752
 20
5109.606999670115
 30
0.0
 41
75.0
 42
75.0
 43
75.0
 50
270.0
  0
MTEXT
  5
13EC4
330
138D0
100
AcDbEntity
  8
寸法
 62
     7
 48
50.0
100
AcDbMText
 10
366.571686050758
 20
5228.106999670115
 30
0.0
 40
90.0
 41
0.0
 71
     5
 72
     1
  1
\A1;237
  7
STYLE1
 11
0.0000000000000001
 21
1.0
 31
0.0
 73
     1
 44
1.0
  0
POINT
  5
13EC5
330
138D0
100
AcDbEntity
  8
DEFPOINTS
 62
     0
 48
50.0
100
AcDbPoint
 10
692.2524881510162
 20
5346.606999670118
 30
0.0
  0
POINT
  5
13EC6
330
138D0
100
AcDbEntity
  8
DEFPOINTS
 62
     0
 48
50.0
100
AcDbPoint
 10
777.2524881510162
 20
5109.606999670115
 30
0.0
  0
POINT
  5
13EC7
330
138D0
100
AcDbEntity
  8
DEFPOINTS
 62
     0
 48
50.0
100
AcDbPoint
 10
441.5805443184752
 20
5109.606999670115
 30
0.0
  0
ENDBLK
  5
139F2
330
138D0
100
AcDbEntity
  8
0
 48
50.0
100
AcDbBlockEnd
  0
BLOCK
  5
139F3
330
138DC
100
AcDbEntity
  8
0
 48
50.0
100
AcDbBlockBegin
  2
*D12
 70
     1
 10
0.0
 20
0.0
 30
0.0
  3
*D12
  1

  0
LINE
  5
13EC8
330
138DC
100
AcDbEntity
  8
寸法
 62
     0
 48
50.0
370
    -2
100
AcDbLine
 10
677.2524881510198
 20
6088.606999670115
 30
0.0
 11
396.5805443184747
 21
6088.606999670115
 31
0.0
  0
LINE
  5
13EC9
330
138DC
100
AcDbEntity
  8
寸法
 62
     0
 48
50.0
370
    -2
100
AcDbLine
 10
677.2524881510162
 20
5346.606999670118
 30
0.0
 11
396.5805443184745
 21
5346.606999670118
 31
0.0
  0
LINE
  5
13ECA
330
138DC
100
AcDbEntity
  8
寸法
 62
     0
 48
50.0
370
    -2
100
AcDbLine
 10
441.5805443184746
 20
6088.606999670115
 30
0.0
 11
441.5805443184744
 21
5346.606999670118
 31
0.0
  0
INSERT
  5
13ECB
330
138DC
100
AcDbEntity
  8
寸法
 62
     0
 48
50.0
370
    -2
100
AcDbBlockReference
  2
_DOTSMALL
 10
441.5805443184746
 20
6088.606999670115
 30
0.0
 41
75.0
 42
75.0
 43
75.0
 50
90.0
  0
INSERT
  5
13ECC
330
138DC
100
AcDbEntity
  8
寸法
 62
     0
 48
50.0
370
    -2
100
AcDbBlockReference
  2
_DOTSMALL
 10
441.5805443184744
 20
5346.606999670118
 30
0.0
 41
75.0
 42
75.0
 43
75.0
 50
270.0
  0
MTEXT
  5
13ECD
330
138DC
100
AcDbEntity
  8
寸法
 62
     7
 48
50.0
100
AcDbMText
 10
366.5716860507571
 20
5717.606999670117
 30
0.0
 40
90.0
 41
0.0
 71
     5
 72
     1
  1
\A1;742
  7
STYLE1
 11
0.0000000000000001
 21
1.0
 31
0.0
 73
     1
 44
1.0
  0
POINT
  5
13ECE
330
138DC
100
AcDbEntity
  8
DEFPOINTS
 62
     0
 48
50.0
100
AcDbPoint
 10
692.2524881510199
 20
6088.606999670115
 30
0.0
  0
POINT
  5
13ECF
330
138DC
100
AcDbEntity
  8
DEFPOINTS
 62
     0
 48
50.0
100
AcDbPoint
 10
692.2524881510162
 20
5346.606999670118
 30
0.0
  0
POINT
  5
13ED0
330
138DC
100
AcDbEntity
  8
DEFPOINTS
 62
     0
 48
50.0
100
AcDbPoint
 10
441.5805443184744
 20
5346.606999670118
 30
0.0
  0
ENDBLK
  5
139FD
330
138DC
100
AcDbEntity
  8
0
 48
50.0
100
AcDbBlockEnd
  0
BLOCK
  5
139FE
330
138E8
100
AcDbEntity
  8
0
 48
50.0
100
AcDbBlockBegin
  2
*D13
 70
     1
 10
0.0
 20
0.0
 30
0.0
  3
*D13
  1

  0
LINE
  5
13EA4
330
138E8
100
AcDbEntity
  8
寸法
 62
     0
 48
50.0
370
    -2
100
AcDbLine
 10
677.2524881510198
 20
7572.60699967011
 30
0.0
 11
396.5805443184747
 21
7572.60699967011
 31
0.0
  0
LINE
  5
13EA5
330
138E8
100
AcDbEntity
  8
寸法
 62
     0
 48
50.0
370
    -2
100
AcDbLine
 10
677.2524881510198
 20
6830.606999670114
 30
0.0
 11
396.5805443184745
 21
6830.606999670114
 31
0.0
  0
LINE
  5
13EA6
330
138E8
100
AcDbEntity
  8
寸法
 62
     0
 48
50.0
370
    -2
100
AcDbLine
 10
441.5805443184746
 20
7572.60699967011
 30
0.0
 11
441.5805443184744
 21
6830.606999670114
 31
0.0
  0
INSERT
  5
13EA7
330
138E8
100
AcDbEntity
  8
寸法
 62
     0
 48
50.0
370
    -2
100
AcDbBlockReference
  2
_DOTSMALL
 10
441.5805443184746
 20
7572.60699967011
 30
0.0
 41
75.0
 42
75.0
 43
75.0
 50
90.0
  0
INSERT
  5
13EA8
330
138E8
100
AcDbEntity
  8
寸法
 62
     0
 48
50.0
370
    -2
100
AcDbBlockReference
  2
_DOTSMALL
 10
441.5805443184744
 20
6830.606999670114
 30
0.0
 41
75.0
 42
75.0
 43
75.0
 50
270.0
  0
MTEXT
  5
13EA9
330
138E8
100
AcDbEntity
  8
寸法
 62
     7
 48
50.0
100
AcDbMText
 10
366.5716860507568
 20
7201.606999670111
 30
0.0
 40
90.0
 41
0.0
 71
     5
 72
     1
  1
\A1;742
  7
STYLE1
 11
0.0000000000000001
 21
1.0
 31
0.0
 73
     1
 44
1.0
  0
POINT
  5
13EAA
330
138E8
100
AcDbEntity
  8
DEFPOINTS
 62
     0
 48
50.0
100
AcDbPoint
 10
692.2524881510199
 20
7572.60699967011
 30
0.0
  0
POINT
  5
13EAB
330
138E8
100
AcDbEntity
  8
DEFPOINTS
 62
     0
 48
50.0
100
AcDbPoint
 10
692.2524881510199
 20
6830.606999670114
 30
0.0
  0
POINT
  5
13EAC
330
138E8
100
AcDbEntity
  8
DEFPOINTS
 62
     0
 48
50.0
100
AcDbPoint
 10
441.5805443184744
 20
6830.606999670114
 30
0.0
  0
ENDBLK
  5
13A08
330
138E8
100
AcDbEntity
  8
0
 48
50.0
100
AcDbBlockEnd
  0
BLOCK
  5
13A09
330
138F4
100
AcDbEntity
  8
0
 48
50.0
100
AcDbBlockBegin
  2
*D14
 70
     1
 10
0.0
 20
0.0
 30
0.0
  3
*D14
  1

  0
LINE
  5
13A0A
330
138F4
100
AcDbEntity
  8
0
  6
ByBlock
 62
     0
 48
50.0
100
AcDbLine
 10
9911.510704177789
 20
-5916.183737412082
 30
0.0
 11
9911.510704177789
 21
-5314.575474004698
 31
0.0
  0
LINE
  5
13A0B
330
138F4
100
AcDbEntity
  8
0
  6
ByBlock
 62
     0
 48
50.0
100
AcDbLine
 10
12611.51070417779
 20
-6044.183737412084
 30
0.0
 11
12611.51070417779
 21
-5314.575474004698
 31
0.0
  0
LINE
  5
13A0C
330
138F4
100
AcDbEntity
  8
0
  6
ByBlock
 62
     0
 48
50.0
100
AcDbLine
 10
9911.510704177789
 20
-5359.575474004698
 30
0.0
 11
12611.51070417779
 21
-5359.575474004698
 31
0.0
  0
INSERT
  5
13A0D
330
138F4
100
AcDbEntity
  8
0
  6
ByBlock
 62
     0
 48
50.0
100
AcDbBlockReference
  2
_DOTSMALL
 10
9911.510704177789
 20
-5359.575474004698
 30
0.0
 41
75.0
 42
75.0
 43
75.0
 50
180.0
  0
INSERT
  5
13A0E
330
138F4
100
AcDbEntity
  8
0
  6
ByBlock
 62
     0
 48
50.0
100
AcDbBlockReference
  2
_DOTSMALL
 10
12611.51070417779
 20
-5359.575474004698
 30
0.0
 41
75.0
 42
75.0
 43
75.0
  0
MTEXT
  5
13A0F
330
138F4
100
AcDbEntity
  8
0
  6
ByBlock
 62
     7
 48
50.0
100
AcDbMText
 10
11261.51070417779
 20
-5284.566615736981
 30
0.0
 40
90.0
 41
0.0
 71
     5
 72
     1
  1
\A1;2700
  7
STYLE1
 73
     1
 44
1.0
  0
POINT
  5
13A10
330
138F4
100
AcDbEntity
  8
DEFPOINTS
  6
ByBlock
 62
     0
 48
50.0
100
AcDbPoint
 10
9911.510704177789
 20
-5931.183737412083
 30
0.0
  0
POINT
  5
13A11
330
138F4
100
AcDbEntity
  8
DEFPOINTS
  6
ByBlock
 62
     0
 48
50.0
100
AcDbPoint
 10
12611.51070417779
 20
-6059.183737412084
 30
0.0
  0
POINT
  5
13A12
330
138F4
100
AcDbEntity
  8
DEFPOINTS
  6
ByBlock
 62
     0
 48
50.0
100
AcDbPoint
 10
12611.51070417779
 20
-5359.575474004698
 30
0.0
  0
ENDBLK
  5
13A13
330
138F4
100
AcDbEntity
  8
0
 48
50.0
100
AcDbBlockEnd
  0
BLOCK
  5
13A14
330
13900
100
AcDbEntity
  8
0
 48
50.0
100
AcDbBlockBegin
  2
*D15
 70
     1
 10
0.0
 20
0.0
 30
0.0
  3
*D15
  1

  0
LINE
  5
13A15
330
13900
100
AcDbEntity
  8
0
  6
ByBlock
 62
     0
 48
50.0
100
AcDbLine
 10
10661.51070417778
 20
-6173.933768456056
 30
0.0
 11
10661.51070417778
 21
-5643.175995086873
 31
0.0
  0
LINE
  5
13A16
330
13900
100
AcDbEntity
  8
0
  6
ByBlock
 62
     0
 48
50.0
100
AcDbLine
 10
12311.51070417779
 20
-6167.618811257277
 30
0.0
 11
12311.51070417779
 21
-5643.175995086873
 31
0.0
  0
LINE
  5
13A17
330
13900
100
AcDbEntity
  8
0
  6
ByBlock
 62
     0
 48
50.0
100
AcDbLine
 10
10661.51070417778
 20
-5688.175995086872
 30
0.0
 11
12311.51070417779
 21
-5688.175995086872
 31
0.0
  0
INSERT
  5
13A18
330
13900
100
AcDbEntity
  8
0
  6
ByBlock
 62
     0
 48
50.0
100
AcDbBlockReference
  2
_DOTSMALL
 10
10661.51070417778
 20
-5688.175995086872
 30
0.0
 41
75.0
 42
75.0
 43
75.0
 50
180.0
  0
INSERT
  5
13A19
330
13900
100
AcDbEntity
  8
0
  6
ByBlock
 62
     0
 48
50.0
100
AcDbBlockReference
  2
_DOTSMALL
 10
12311.51070417779
 20
-5688.175995086872
 30
0.0
 41
75.0
 42
75.0
 43
75.0
  0
MTEXT
  5
13A1A
330
13900
100
AcDbEntity
  8
0
  6
ByBlock
 62
     7
 48
50.0
100
AcDbMText
 10
11486.51070417779
 20
-5613.175995086873
 30
0.0
 40
90.0
 41
0.0
 71
     5
 72
     1
  1
\A1;1650
  7
STYLE1
 73
     1
 44
1.0
  0
POINT
  5
13A1B
330
13900
100
AcDbEntity
  8
DEFPOINTS
  6
ByBlock
 62
     0
 48
50.0
100
AcDbPoint
 10
10661.51070417778
 20
-6188.933768456056
 30
0.0
  0
POINT
  5
13A1C
330
13900
100
AcDbEntity
  8
DEFPOINTS
  6
ByBlock
 62
     0
 48
50.0
100
AcDbPoint
 10
12311.51070417779
 20
-6182.618811257277
 30
0.0
  0
POINT
  5
13A1D
330
13900
100
AcDbEntity
  8
DEFPOINTS
  6
ByBlock
 62
     0
 48
50.0
100
AcDbPoint
 10
12311.51070417779
 20
-5688.175995086872
 30
0.0
  0
ENDBLK
  5
13A1E
330
13900
100
AcDbEntity
  8
0
 48
50.0
100
AcDbBlockEnd
  0
BLOCK
  5
13A1F
330
1390C
100
AcDbEntity
  8
0
 48
50.0
100
AcDbBlockBegin
  2
*D16
 70
     1
 10
0.0
 20
0.0
 30
0.0
  3
*D16
  1

  0
LINE
  5
13A20
330
1390C
100
AcDbEntity
  8
0
  6
ByBlock
 62
     0
 48
50.0
100
AcDbLine
 10
10662.47739766093
 20
-8392.176548581547
 30
0.0
 11
10662.47739766093
 21
-8592.376575262479
 31
0.0
  0
LINE
  5
13A21
330
1390C
100
AcDbEntity
  8
0
  6
ByBlock
 62
     0
 48
50.0
100
AcDbLine
 10
12312.47739766094
 20
-8392.176548581545
 30
0.0
 11
12312.47739766094
 21
-8592.376575262479
 31
0.0
  0
LINE
  5
13A22
330
1390C
100
AcDbEntity
  8
0
  6
ByBlock
 62
     0
 48
50.0
100
AcDbLine
 10
10662.47739766093
 20
-8547.376575262479
 30
0.0
 11
12312.47739766094
 21
-8547.376575262479
 31
0.0
  0
INSERT
  5
13A23
330
1390C
100
AcDbEntity
  8
0
  6
ByBlock
 62
     0
 48
50.0
100
AcDbBlockReference
  2
_DOTSMALL
 10
10662.47739766093
 20
-8547.376575262479
 30
0.0
 41
75.0
 42
75.0
 43
75.0
 50
180.0
  0
INSERT
  5
13A24
330
1390C
100
AcDbEntity
  8
0
  6
ByBlock
 62
     0
 48
50.0
100
AcDbBlockReference
  2
_DOTSMALL
 10
12312.47739766094
 20
-8547.376575262479
 30
0.0
 41
75.0
 42
75.0
 43
75.0
  0
MTEXT
  5
13A25
330
1390C
100
AcDbEntity
  8
0
  6
ByBlock
 62
     7
 48
50.0
100
AcDbMText
 10
11487.47739766093
 20
-8472.376575262478
 30
0.0
 40
90.0
 41
0.0
 71
     5
 72
     1
  1
\A1;1650
  7
STYLE1
 73
     1
 44
1.0
  0
POINT
  5
13A26
330
1390C
100
AcDbEntity
  8
DEFPOINTS
  6
ByBlock
 62
     0
 48
50.0
100
AcDbPoint
 10
10662.47739766093
 20
-8377.176548581546
 30
0.0
  0
POINT
  5
13A27
330
1390C
100
AcDbEntity
  8
DEFPOINTS
  6
ByBlock
 62
     0
 48
50.0
100
AcDbPoint
 10
12312.47739766094
 20
-8377.176548581545
 30
0.0
  0
POINT
  5
13A28
330
1390C
100
AcDbEntity
  8
DEFPOINTS
  6
ByBlock
 62
     0
 48
50.0
100
AcDbPoint
 10
12312.47739766094
 20
-8547.376575262479
 30
0.0
  0
ENDBLK
  5
13A29
330
1390C
100
AcDbEntity
  8
0
 48
50.0
100
AcDbBlockEnd
  0
BLOCK
  5
13A91
330
13918
100
AcDbEntity
  8
0
 48
50.0
100
AcDbBlockBegin
  2
*D17
 70
     1
 10
0.0
 20
0.0
 30
0.0
  3
*D17
  1

  0
LINE
  5
13A92
330
13918
100
AcDbEntity
  8
0
  6
ByBlock
 62
     0
 48
50.0
100
AcDbLine
 10
8529.493375004262
 20
-5931.183737412086
 30
0.0
 11
7726.13902661239
 21
-5931.183737412086
 31
0.0
  0
LINE
  5
13A93
330
13918
100
AcDbEntity
  8
0
  6
ByBlock
 62
     0
 48
50.0
100
AcDbLine
 10
8097.656018920327
 20
-8107.17654858155
 30
0.0
 11
7726.139026612388
 21
-8107.17654858155
 31
0.0
  0
LINE
  5
13A94
330
13918
100
AcDbEntity
  8
0
  6
ByBlock
 62
     0
 48
50.0
100
AcDbLine
 10
7771.139026612388
 20
-5931.183737412086
 30
0.0
 11
7771.139026612388
 21
-8107.17654858155
 31
0.0
  0
INSERT
  5
13A95
330
13918
100
AcDbEntity
  8
0
  6
ByBlock
 62
     0
 48
50.0
100
AcDbBlockReference
  2
_DOTSMALL
 10
7771.139026612388
 20
-5931.183737412086
 30
0.0
 41
75.0
 42
75.0
 43
75.0
 50
90.0
  0
INSERT
  5
13A96
330
13918
100
AcDbEntity
  8
0
  6
ByBlock
 62
     0
 48
50.0
100
AcDbBlockReference
  2
_DOTSMALL
 10
7771.139026612388
 20
-8107.17654858155
 30
0.0
 41
75.0
 42
75.0
 43
75.0
 50
270.0
  0
MTEXT
  5
13A97
330
13918
100
AcDbEntity
  8
0
  6
ByBlock
 62
     7
 48
50.0
100
AcDbMText
 10
7696.130168344673
 20
-7019.180142996818
 30
0.0
 40
90.0
 41
0.0
 71
     5
 72
     1
  1
\A1;2176
  7
STYLE1
 11
0.0000000000000001
 21
1.0
 31
0.0
 73
     1
 44
1.0
  0
POINT
  5
13A98
330
13918
100
AcDbEntity
  8
DEFPOINTS
  6
ByBlock
 62
     0
 48
50.0
100
AcDbPoint
 10
8544.493375004263
 20
-5931.183737412086
 30
0.0
  0
POINT
  5
13A99
330
13918
100
AcDbEntity
  8
DEFPOINTS
  6
ByBlock
 62
     0
 48
50.0
100
AcDbPoint
 10
8112.656018920326
 20
-8107.17654858155
 30
0.0
  0
POINT
  5
13A9A
330
13918
100
AcDbEntity
  8
DEFPOINTS
  6
ByBlock
 62
     0
 48
50.0
100
AcDbPoint
 10
7771.139026612388
 20
-8107.17654858155
 30
0.0
  0
ENDBLK
  5
13A9B
330
13918
100
AcDbEntity
  8
0
 48
50.0
100
AcDbBlockEnd
  0
BLOCK
  5
13A7B
330
13924
100
AcDbEntity
  8
0
 48
50.0
100
AcDbBlockBegin
  2
*D18
 70
     1
 10
0.0
 20
0.0
 30
0.0
  3
*D18
  1

  0
LINE
  5
13A7C
330
13924
100
AcDbEntity
  8
0
  6
ByBlock
 62
     0
 48
50.0
100
AcDbLine
 10
9310.460068487413
 20
-6957.17654858155
 30
0.0
 11
8095.652810424772
 21
-6957.17654858155
 31
0.0
  0
LINE
  5
13A7D
330
13924
100
AcDbEntity
  8
0
  6
ByBlock
 62
     0
 48
50.0
100
AcDbLine
 10
9310.460068487413
 20
-7857.17654858155
 30
0.0
 11
8095.652810424772
 21
-7857.17654858155
 31
0.0
  0
LINE
  5
13A7E
330
13924
100
AcDbEntity
  8
0
  6
ByBlock
 62
     0
 48
50.0
100
AcDbLine
 10
8140.652810424773
 20
-6957.17654858155
 30
0.0
 11
8140.652810424773
 21
-7857.17654858155
 31
0.0
  0
INSERT
  5
13A7F
330
13924
100
AcDbEntity
  8
0
  6
ByBlock
 62
     0
 48
50.0
100
AcDbBlockReference
  2
_DOTSMALL
 10
8140.652810424773
 20
-6957.17654858155
 30
0.0
 41
75.0
 42
75.0
 43
75.0
 50
90.0
  0
INSERT
  5
13A80
330
13924
100
AcDbEntity
  8
0
  6
ByBlock
 62
     0
 48
50.0
100
AcDbBlockReference
  2
_DOTSMALL
 10
8140.652810424773
 20
-7857.17654858155
 30
0.0
 41
75.0
 42
75.0
 43
75.0
 50
270.0
  0
MTEXT
  5
13A81
330
13924
100
AcDbEntity
  8
0
  6
ByBlock
 62
     7
 48
50.0
100
AcDbMText
 10
8065.652810424772
 20
-7407.17654858155
 30
0.0
 40
90.0
 41
0.0
 71
     5
 72
     1
  1
\A1;900
  7
STYLE1
 11
0.0000000000000001
 21
1.0
 31
0.0
 73
     1
 44
1.0
  0
POINT
  5
13A82
330
13924
100
AcDbEntity
  8
DEFPOINTS
  6
ByBlock
 62
     0
 48
50.0
100
AcDbPoint
 10
9325.460068487414
 20
-6957.17654858155
 30
0.0
  0
POINT
  5
13A83
330
13924
100
AcDbEntity
  8
DEFPOINTS
  6
ByBlock
 62
     0
 48
50.0
100
AcDbPoint
 10
9325.460068487414
 20
-7857.17654858155
 30
0.0
  0
POINT
  5
13A84
330
13924
100
AcDbEntity
  8
DEFPOINTS
  6
ByBlock
 62
     0
 48
50.0
100
AcDbPoint
 10
8140.652810424773
 20
-7857.17654858155
 30
0.0
  0
ENDBLK
  5
13A85
330
13924
100
AcDbEntity
  8
0
 48
50.0
100
AcDbBlockEnd
  0
BLOCK
  5
13A86
330
13930
100
AcDbEntity
  8
0
 48
50.0
100
AcDbBlockBegin
  2
*D19
 70
     1
 10
0.0
 20
0.0
 30
0.0
  3
*D19
  1

  0
LINE
  5
13A87
330
13930
100
AcDbEntity
  8
0
  6
ByBlock
 62
     0
 48
50.0
100
AcDbLine
 10
9310.460068487413
 20
-7857.17654858155
 30
0.0
 11
8095.652810424772
 21
-7857.17654858155
 31
0.0
  0
LINE
  5
13A88
330
13930
100
AcDbEntity
  8
0
  6
ByBlock
 62
     0
 48
50.0
100
AcDbLine
 10
8054.482566410642
 20
-8107.17654858155
 30
0.0
 11
8185.652810424771
 21
-8107.17654858155
 31
0.0
  0
LINE
  5
13A89
330
13930
100
AcDbEntity
  8
0
  6
ByBlock
 62
     0
 48
50.0
100
AcDbLine
 10
8140.652810424773
 20
-7857.17654858155
 30
0.0
 11
8140.652810424773
 21
-8107.17654858155
 31
0.0
  0
INSERT
  5
13A8A
330
13930
100
AcDbEntity
  8
0
  6
ByBlock
 62
     0
 48
50.0
100
AcDbBlockReference
  2
_DOTSMALL
 10
8140.652810424773
 20
-7857.17654858155
 30
0.0
 41
75.0
 42
75.0
 43
75.0
 50
90.0
  0
INSERT
  5
13A8B
330
13930
100
AcDbEntity
  8
0
  6
ByBlock
 62
     0
 48
50.0
100
AcDbBlockReference
  2
_DOTSMALL
 10
8140.652810424773
 20
-8107.17654858155
 30
0.0
 41
75.0
 42
75.0
 43
75.0
 50
270.0
  0
MTEXT
  5
13A8C
330
13930
100
AcDbEntity
  8
0
  6
ByBlock
 62
     7
 48
50.0
100
AcDbMText
 10
8065.643952157056
 20
-7982.17654858155
 30
0.0
 40
90.0
 41
0.0
 71
     5
 72
     1
  1
\A1;250
  7
STYLE1
 11
0.0000000000000001
 21
1.0
 31
0.0
 73
     1
 44
1.0
  0
POINT
  5
13A8D
330
13930
100
AcDbEntity
  8
DEFPOINTS
  6
ByBlock
 62
     0
 48
50.0
100
AcDbPoint
 10
9325.460068487414
 20
-7857.17654858155
 30
0.0
  0
POINT
  5
13A8E
330
13930
100
AcDbEntity
  8
DEFPOINTS
  6
ByBlock
 62
     0
 48
50.0
100
AcDbPoint
 10
8039.482566410644
 20
-8107.17654858155
 30
0.0
  0
POINT
  5
13A8F
330
13930
100
AcDbEntity
  8
DEFPOINTS
  6
ByBlock
 62
     0
 48
50.0
100
AcDbPoint
 10
8140.652810424773
 20
-8107.17654858155
 30
0.0
  0
ENDBLK
  5
13A90
330
13930
100
AcDbEntity
  8
0
 48
50.0
100
AcDbBlockEnd
  0
BLOCK
  5
13A4B
330
1393C
100
AcDbEntity
  8
0
 48
50.0
100
AcDbBlockBegin
  2
*D20
 70
     1
 10
0.0
 20
0.0
 30
0.0
  3
*D20
  1

  0
LINE
  5
13A4C
330
1393C
100
AcDbEntity
  8
0
  6
ByBlock
 62
     0
 48
50.0
100
AcDbLine
 10
9910.568903410863
 20
-5931.139089079432
 30
0.0
 11
9474.290138393598
 21
-5910.456243923057
 31
0.0
  0
LINE
  5
13A4D
330
1393C
100
AcDbEntity
  8
0
  6
ByBlock
 62
     0
 48
50.0
100
AcDbLine
 10
9912.080571195531
 20
-6046.339909883009
 30
0.0
 11
9468.844402650072
 21
-6025.327232263075
 31
0.0
  0
LINE
  5
13A4E
330
1393C
100
AcDbEntity
  8
0
  6
ByBlock
 62
     0
 48
50.0
100
AcDbLine
 10
9513.7939198266
 20
-6027.458172336628
 30
0.0
 11
9519.239655570128
 21
-5912.587183996611
 31
0.0
  0
LINE
  5
13A4F
330
1393C
100
AcDbEntity
  8
0
  6
ByBlock
 62
     0
 48
50.0
100
AcDbLine
 10
9519.239655570128
 20
-5912.587183996611
 30
0.0
 11
9537.138158209783
 21
-5535.040643941403
 31
0.0
  0
INSERT
  5
13A50
330
1393C
100
AcDbEntity
  8
0
  6
ByBlock
 62
     0
 48
50.0
100
AcDbBlockReference
  2
_DOTSMALL
 10
9513.7939198266
 20
-6027.458172336628
 30
0.0
 41
75.0
 42
75.0
 43
75.0
 50
267.2857877838782
  0
INSERT
  5
13A51
330
1393C
100
AcDbEntity
  8
0
  6
ByBlock
 62
     0
 48
50.0
100
AcDbBlockReference
  2
_DOTSMALL
 10
9519.239655570128
 20
-5912.587183996611
 30
0.0
 41
75.0
 42
75.0
 43
75.0
 50
87.28578778387817
  0
MTEXT
  5
13A52
330
1393C
100
AcDbEntity
  8
0
  6
ByBlock
 62
     7
 48
50.0
100
AcDbMText
 10
9457.730087002317
 20
-5626.246615947302
 30
0.0
 40
90.0
 41
0.0
 71
     5
 72
     1
  1
\A1;115
  7
STYLE1
 11
0.0473542238567545
 21
0.9988781594783841
 31
0.0
 73
     1
 44
1.0
  0
POINT
  5
13A53
330
1393C
100
AcDbEntity
  8
DEFPOINTS
  6
ByBlock
 62
     0
 48
50.0
100
AcDbPoint
 10
9925.552075803039
 20
-5931.849402437283
 30
0.0
 50
2.714212216121843
  0
POINT
  5
13A54
330
1393C
100
AcDbEntity
  8
DEFPOINTS
  6
ByBlock
 62
     0
 48
50.0
100
AcDbPoint
 10
9927.063743587709
 20
-6047.05022324086
 30
0.0
 50
2.714212216121843
  0
POINT
  5
13A55
330
1393C
100
AcDbEntity
  8
DEFPOINTS
  6
ByBlock
 62
     0
 48
50.0
100
AcDbPoint
 10
9513.7939198266
 20
-6027.458172336628
 30
0.0
 50
2.714212216121843
  0
ENDBLK
  5
13A56
330
1393C
100
AcDbEntity
  8
0
 48
50.0
100
AcDbBlockEnd
  0
BLOCK
  5
13A57
330
13949
100
AcDbEntity
  8
0
 48
50.0
100
AcDbBlockBegin
  2
*D21
 70
     1
 10
0.0
 20
0.0
 30
0.0
  3
*D21
  1

  0
LINE
  5
13A58
330
13949
100
AcDbEntity
  8
0
  6
ByBlock
 62
     0
 48
50.0
100
AcDbLine
 10
9911.510704177789
 20
-5916.183737412082
 30
0.0
 11
9911.510704177789
 21
-5643.175995086873
 31
0.0
  0
LINE
  5
13A59
330
13949
100
AcDbEntity
  8
0
  6
ByBlock
 62
     0
 48
50.0
100
AcDbLine
 10
10661.51070417778
 20
-6173.933768456056
 30
0.0
 11
10661.51070417778
 21
-5643.175995086873
 31
0.0
  0
LINE
  5
13A5A
330
13949
100
AcDbEntity
  8
0
  6
ByBlock
 62
     0
 48
50.0
100
AcDbLine
 10
9911.510704177789
 20
-5688.175995086872
 30
0.0
 11
10661.51070417778
 21
-5688.175995086872
 31
0.0
  0
INSERT
  5
13A5B
330
13949
100
AcDbEntity
  8
0
  6
ByBlock
 62
     0
 48
50.0
100
AcDbBlockReference
  2
_DOTSMALL
 10
9911.510704177789
 20
-5688.175995086872
 30
0.0
 41
75.0
 42
75.0
 43
75.0
 50
180.0
  0
INSERT
  5
13A5C
330
13949
100
AcDbEntity
  8
0
  6
ByBlock
 62
     0
 48
50.0
100
AcDbBlockReference
  2
_DOTSMALL
 10
10661.51070417778
 20
-5688.175995086872
 30
0.0
 41
75.0
 42
75.0
 43
75.0
  0
MTEXT
  5
13A5D
330
13949
100
AcDbEntity
  8
0
  6
ByBlock
 62
     7
 48
50.0
100
AcDbMText
 10
10286.51070417778
 20
-5613.175995086873
 30
0.0
 40
90.0
 41
0.0
 71
     5
 72
     1
  1
\A1;750
  7
STYLE1
 73
     1
 44
1.0
  0
POINT
  5
13A5E
330
13949
100
AcDbEntity
  8
DEFPOINTS
  6
ByBlock
 62
     0
 48
50.0
100
AcDbPoint
 10
9911.510704177789
 20
-5931.183737412083
 30
0.0
  0
POINT
  5
13A5F
330
13949
100
AcDbEntity
  8
DEFPOINTS
  6
ByBlock
 62
     0
 48
50.0
100
AcDbPoint
 10
10661.51070417778
 20
-6188.933768456056
 30
0.0
  0
POINT
  5
13A60
330
13949
100
AcDbEntity
  8
DEFPOINTS
  6
ByBlock
 62
     0
 48
50.0
100
AcDbPoint
 10
10661.51070417778
 20
-5688.175995086872
 30
0.0
  0
ENDBLK
  5
13A61
330
13949
100
AcDbEntity
  8
0
 48
50.0
100
AcDbBlockEnd
  0
BLOCK
  5
13ABB
330
13955
100
AcDbEntity
  8
0
 48
50.0
100
AcDbBlockBegin
  2
*D22
 70
     1
 10
0.0
 20
0.0
 30
0.0
  3
*D22
  1

  0
LINE
  5
13ABC
330
13955
100
AcDbEntity
  8
0
  6
ByBlock
 62
     0
 48
50.0
100
AcDbLine
 10
11197.81308553901
 20
-11653.11454715797
 30
0.0
 11
11658.67727534142
 21
-11653.11454715797
 31
0.0
  0
LINE
  5
13ABD
330
13955
100
AcDbEntity
  8
0
  6
ByBlock
 62
     0
 48
50.0
100
AcDbLine
 10
11313.00765667853
 20
-13701.10735832744
 30
0.0
 11
11658.67727534142
 21
-13701.10735832744
 31
0.0
  0
LINE
  5
13ABE
330
13955
100
AcDbEntity
  8
0
  6
ByBlock
 62
     0
 48
50.0
100
AcDbLine
 10
11613.67727534142
 20
-11653.11454715797
 30
0.0
 11
11613.67727534142
 21
-13701.10735832744
 31
0.0
  0
INSERT
  5
13ABF
330
13955
100
AcDbEntity
  8
0
  6
ByBlock
 62
     0
 48
50.0
100
AcDbBlockReference
  2
_DOTSMALL
 10
11613.67727534142
 20
-11653.11454715797
 30
0.0
 41
75.0
 42
75.0
 43
75.0
 50
90.0
  0
INSERT
  5
13AC0
330
13955
100
AcDbEntity
  8
0
  6
ByBlock
 62
     0
 48
50.0
100
AcDbBlockReference
  2
_DOTSMALL
 10
11613.67727534142
 20
-13701.10735832744
 30
0.0
 41
75.0
 42
75.0
 43
75.0
 50
270.0
  0
MTEXT
  5
13AC1
330
13955
100
AcDbEntity
  8
0
  6
ByBlock
 62
     7
 48
50.0
100
AcDbMText
 10
11538.6684170737
 20
-12677.1109527427
 30
0.0
 40
90.0
 41
0.0
 71
     5
 72
     1
  1
\A1;2048
  7
STYLE1
 11
0.0000000000000001
 21
1.0
 31
0.0
 73
     1
 44
1.0
  0
POINT
  5
13AC2
330
13955
100
AcDbEntity
  8
DEFPOINTS
  6
ByBlock
 62
     0
 48
50.0
100
AcDbPoint
 10
11182.813085539
 20
-11653.11454715797
 30
0.0
  0
POINT
  5
13AC3
330
13955
100
AcDbEntity
  8
DEFPOINTS
  6
ByBlock
 62
     0
 48
50.0
100
AcDbPoint
 10
11298.00765667853
 20
-13701.10735832744
 30
0.0
  0
POINT
  5
13AC4
330
13955
100
AcDbEntity
  8
DEFPOINTS
  6
ByBlock
 62
     0
 48
50.0
100
AcDbPoint
 10
11613.67727534142
 20
-13701.10735832744
 30
0.0
  0
ENDBLK
  5
13AC5
330
13955
100
AcDbEntity
  8
0
 48
50.0
100
AcDbBlockEnd
  0
BLOCK
  5
13A6D
330
13961
100
AcDbEntity
  8
0
 48
50.0
100
AcDbBlockBegin
  2
*D23
 70
     1
 10
0.0
 20
0.0
 30
0.0
  3
*D23
  1

  0
LINE
  5
13A6E
330
13961
100
AcDbEntity
  8
0
  6
ByBlock
 62
     0
 48
50.0
100
AcDbLine
 10
12311.51070417779
 20
-6167.618811257277
 30
0.0
 11
12311.51070417779
 21
-5643.175995086873
 31
0.0
  0
LINE
  5
13A6F
330
13961
100
AcDbEntity
  8
0
  6
ByBlock
 62
     0
 48
50.0
100
AcDbLine
 10
12611.51070417779
 20
-6044.183737412084
 30
0.0
 11
12611.51070417779
 21
-5643.175995086873
 31
0.0
  0
LINE
  5
13A70
330
13961
100
AcDbEntity
  8
0
  6
ByBlock
 62
     0
 48
50.0
100
AcDbLine
 10
12311.51070417779
 20
-5688.175995086872
 30
0.0
 11
12611.51070417779
 21
-5688.175995086872
 31
0.0
  0
INSERT
  5
13A71
330
13961
100
AcDbEntity
  8
0
  6
ByBlock
 62
     0
 48
50.0
100
AcDbBlockReference
  2
_DOTSMALL
 10
12311.51070417779
 20
-5688.175995086872
 30
0.0
 41
75.0
 42
75.0
 43
75.0
 50
180.0
  0
INSERT
  5
13A72
330
13961
100
AcDbEntity
  8
0
  6
ByBlock
 62
     0
 48
50.0
100
AcDbBlockReference
  2
_DOTSMALL
 10
12611.51070417779
 20
-5688.175995086872
 30
0.0
 41
75.0
 42
75.0
 43
75.0
  0
MTEXT
  5
13A73
330
13961
100
AcDbEntity
  8
0
  6
ByBlock
 62
     7
 48
50.0
100
AcDbMText
 10
12461.51070417779
 20
-5613.175995086873
 30
0.0
 40
90.0
 41
0.0
 71
     5
 72
     1
  1
\A1;300
  7
STYLE1
 73
     1
 44
1.0
  0
POINT
  5
13A74
330
13961
100
AcDbEntity
  8
DEFPOINTS
  6
ByBlock
 62
     0
 48
50.0
100
AcDbPoint
 10
12311.51070417779
 20
-6182.618811257277
 30
0.0
  0
POINT
  5
13A75
330
13961
100
AcDbEntity
  8
DEFPOINTS
  6
ByBlock
 62
     0
 48
50.0
100
AcDbPoint
 10
12611.51070417779
 20
-6059.183737412084
 30
0.0
  0
POINT
  5
13A76
330
13961
100
AcDbEntity
  8
DEFPOINTS
  6
ByBlock
 62
     0
 48
50.0
100
AcDbPoint
 10
12611.51070417779
 20
-5688.175995086872
 30
0.0
  0
ENDBLK
  5
13A77
330
13961
100
AcDbEntity
  8
0
 48
50.0
100
AcDbBlockEnd
  0
BLOCK
  5
13B8D
330
13B77
100
AcDbEntity
  8
0
 48
50.0
100
AcDbBlockBegin
  2
A$C1AD6672A
 70
     0
 10
0.0
 20
0.0
 30
0.0
  3
A$C1AD6672A
  1

  0
LINE
  5
13B78
330
13B77
100
AcDbEntity
  8
細線
 48
50.0
100
AcDbLine
 10
-0.0000001716700808
 20
-0.0000044595892632
 30
0.0
 11
49.99999982832924
 21
49.99999554041005
 31
0.0
  0
LINE
  5
13B79
330
13B77
100
AcDbEntity
  8
細線
 48
50.0
100
AcDbLine
 10
26.94077982833233
 20
-0.0000044595890358
 30
0.0
 11
76.94077982833107
 21
49.99999554041005
 31
0.0
  0
LINE
  5
13B7A
330
13B77
100
AcDbEntity
  8
細線
 48
50.0
100
AcDbLine
 10
53.88155982833336
 20
-0.0000044595890358
 30
0.0
 11
103.8815598283318
 21
49.99999554041005
 31
0.0
  0
LINE
  5
13B7B
330
13B77
100
AcDbEntity
  8
細線
 48
50.0
100
AcDbLine
 10
1560.067725304096
 20
-0.0000044595888085
 30
0.0
 11
1610.067725304098
 21
49.99999554041074
 31
0.0
  0
LINE
  5
13B7C
330
13B77
100
AcDbEntity
  8
細線
 48
50.0
100
AcDbLine
 10
1533.1269453041
 20
-0.0000044595888085
 30
0.0
 11
1583.1269453041
 21
49.99999554041074
 31
0.0
  0
LINE
  5
13B7D
330
13B77
100
AcDbEntity
  8
細線
 48
50.0
100
AcDbLine
 10
1506.186165304099
 20
-0.0000044595890358
 30
0.0
 11
1556.186165304096
 21
49.99999554041074
 31
0.0
  0
LINE
  5
13B7E
330
13B77
100
AcDbEntity
  8
細線
 48
50.0
100
AcDbLine
 10
3012.372330779868
 20
-0.0000044595888085
 30
0.0
 11
3062.372330779865
 21
49.99999554041096
 31
0.0
  0
LINE
  5
13B7F
330
13B77
100
AcDbEntity
  8
細線
 48
50.0
100
AcDbLine
 10
3039.313110779869
 20
-0.0000044595885811
 30
0.0
 11
3089.313110779869
 21
49.99999554041096
 31
0.0
  0
LINE
  5
13B80
330
13B77
100
AcDbEntity
  8
細線
 48
50.0
100
AcDbLine
 10
3066.253890779865
 20
-0.0000044595885811
 30
0.0
 11
3116.253890779866
 21
49.99999554041096
 31
0.0
  0
LINE
  5
13B81
330
13B77
100
AcDbEntity
  8
細線
 48
50.0
100
AcDbLine
 10
4518.55849625563
 20
-0.0000044595885811
 30
0.0
 11
4568.558496255627
 21
49.99999554041119
 31
0.0
  0
LINE
  5
13B82
330
13B77
100
AcDbEntity
  8
細線
 48
50.0
100
AcDbLine
 10
4545.499276255632
 20
-0.0000044595883537
 30
0.0
 11
4595.499276255631
 21
49.99999554041119
 31
0.0
  0
LINE
  5
13B83
330
13B77
100
AcDbEntity
  8
細線
 48
50.0
100
AcDbLine
 10
4572.440056255627
 20
-0.0000044595883537
 30
0.0
 11
4622.440056255628
 21
49.99999554041119
 31
0.0
  0
LINE
  5
13B84
330
13B77
100
AcDbEntity
  8
細線
 48
50.0
100
AcDbLine
 10
7484.634962918569
 20
-0.0000044595894906
 30
0.0
 11
7534.634962918566
 21
49.99999554041028
 31
0.0
  0
LINE
  5
13B85
330
13B77
100
AcDbEntity
  8
細線
 48
50.0
100
AcDbLine
 10
7511.57574291857
 20
-0.0000044595892632
 30
0.0
 11
7561.57574291857
 21
49.99999554041028
 31
0.0
  0
LINE
  5
13B86
330
13B77
100
AcDbEntity
  8
細線
 48
50.0
100
AcDbLine
 10
7538.516522918566
 20
-0.0000044595892632
 30
0.0
 11
7588.516522918567
 21
49.99999554041028
 31
0.0
  0
LINE
  5
13B87
330
13B77
100
AcDbEntity
  8
細線
 48
50.0
100
AcDbLine
 10
8830.116513279259
 20
-0.0000131312672238
 30
0.0
 11
8880.116513279261
 21
49.99998686873232
 31
0.0
  0
LINE
  5
13B88
330
13B77
100
AcDbEntity
  8
細線
 48
50.0
100
AcDbLine
 10
8776.234953279264
 20
-0.0000131312674512
 30
0.0
 11
8826.234953279259
 21
49.99998686873232
 31
0.0
  0
LINE
  5
13B89
330
13B77
100
AcDbEntity
  8
細線
 48
50.0
100
AcDbLine
 10
8803.175733279264
 20
-0.0000131312672238
 30
0.0
 11
8853.175733279263
 21
49.99998686873232
 31
0.0
  0
LINE
  5
13B8A
330
13B77
100
AcDbEntity
  8
細線
 48
50.0
100
AcDbLine
 10
10067.81561337682
 20
-0.0000131312681333
 30
0.0
 11
10117.81561337681
 21
49.99998686873164
 31
0.0
  0
LINE
  5
13B8B
330
13B77
100
AcDbEntity
  8
細線
 48
50.0
100
AcDbLine
 10
10094.75639337682
 20
-0.0000131312681333
 30
0.0
 11
10144.75639337682
 21
49.99998686873164
 31
0.0
  0
LINE
  5
13B8C
330
13B77
100
AcDbEntity
  8
細線
 48
50.0
100
AcDbLine
 10
10121.69717337682
 20
-0.0000131312683607
 30
0.0
 11
10171.69717337682
 21
49.99998686873187
 31
0.0
  0
ENDBLK
  5
13B8E
330
13B77
100
AcDbEntity
  8
0
 48
50.0
100
AcDbBlockEnd
  0
BLOCK
  5
13C38
330
13BFA
100
AcDbEntity
  8
0
 48
50.0
100
AcDbBlockBegin
  2
*D25
 70
     1
 10
0.0
 20
0.0
 30
0.0
  3
*D25
  1

  0
LINE
  5
13C39
330
13BFA
100
AcDbEntity
  8
0
  6
ByBlock
 62
     0
 48
50.0
100
AcDbLine
 10
17316.76044399501
 20
2339.465290672271
 30
0.0
 11
16945.24345168707
 21
2339.465290672271
 31
0.0
  0
LINE
  5
13C3A
330
13BFA
100
AcDbEntity
  8
0
  6
ByBlock
 62
     0
 48
50.0
100
AcDbLine
 10
18469.56449356209
 20
2069.465290672271
 30
0.0
 11
16945.24345168707
 21
2069.465290672271
 31
0.0
  0
LINE
  5
13C3B
330
13BFA
100
AcDbEntity
  8
0
  6
ByBlock
 62
     0
 48
50.0
100
AcDbLine
 10
16990.24345168707
 20
2339.465290672271
 30
0.0
 11
16990.24345168707
 21
2069.465290672271
 31
0.0
  0
INSERT
  5
13C3C
330
13BFA
100
AcDbEntity
  8
0
  6
ByBlock
 62
     0
 48
50.0
100
AcDbBlockReference
  2
_DOTSMALL
 10
16990.24345168707
 20
2339.465290672271
 30
0.0
 41
75.0
 42
75.0
 43
75.0
 50
90.0
  0
INSERT
  5
13C3D
330
13BFA
100
AcDbEntity
  8
0
  6
ByBlock
 62
     0
 48
50.0
100
AcDbBlockReference
  2
_DOTSMALL
 10
16990.24345168707
 20
2069.465290672271
 30
0.0
 41
75.0
 42
75.0
 43
75.0
 50
270.0
  0
MTEXT
  5
13C3E
330
13BFA
100
AcDbEntity
  8
0
  6
ByBlock
 62
     7
 48
50.0
100
AcDbMText
 10
16915.23459341935
 20
2204.465290672271
 30
0.0
 40
90.0
 41
0.0
 71
     5
 72
     1
  1
\A1;270
  7
STYLE1
 11
0.0000000000000001
 21
1.0
 31
0.0
 73
     1
 44
1.0
  0
POINT
  5
13C3F
330
13BFA
100
AcDbEntity
  8
DEFPOINTS
  6
ByBlock
 62
     0
 48
50.0
100
AcDbPoint
 10
17331.76044399501
 20
2339.465290672271
 30
0.0
  0
POINT
  5
13C40
330
13BFA
100
AcDbEntity
  8
DEFPOINTS
  6
ByBlock
 62
     0
 48
50.0
100
AcDbPoint
 10
18484.56449356208
 20
2069.465290672271
 30
0.0
  0
POINT
  5
13C41
330
13BFA
100
AcDbEntity
  8
DEFPOINTS
  6
ByBlock
 62
     0
 48
50.0
100
AcDbPoint
 10
16990.24345168707
 20
2069.465290672271
 30
0.0
  0
ENDBLK
  5
13C42
330
13BFA
100
AcDbEntity
  8
0
 48
50.0
100
AcDbBlockEnd
  0
BLOCK
  5
13C43
330
13C06
100
AcDbEntity
  8
0
 48
50.0
100
AcDbBlockBegin
  2
*D26
 70
     1
 10
0.0
 20
0.0
 30
0.0
  3
*D26
  1

  0
LINE
  5
13F13
330
13C06
100
AcDbEntity
  8
寸法
 62
     0
 48
50.0
370
    -2
100
AcDbLine
 10
6832.252488151017
 20
5179.606999670106
 30
0.0
 11
7280.905270004883
 21
5179.606999670106
 31
0.0
  0
LINE
  5
13F14
330
13C06
100
AcDbEntity
  8
寸法
 62
     0
 48
50.0
370
    -2
100
AcDbLine
 10
6862.252488151027
 20
5109.606999670108
 30
0.0
 11
7280.905270004883
 21
5109.606999670108
 31
0.0
  0
LINE
  5
13F15
330
13C06
100
AcDbEntity
  8
寸法
 62
     0
 48
50.0
370
    -2
100
AcDbLine
 10
7235.905270004882
 20
5179.606999670106
 30
0.0
 11
7235.905270004882
 21
5109.606999670108
 31
0.0
  0
LINE
  5
13F16
330
13C06
100
AcDbEntity
  8
寸法
 62
     0
 48
50.0
370
    -2
100
AcDbLine
 10
7235.905270004882
 20
5109.606999670108
 30
0.0
 11
7235.905270004882
 21
4875.536133528374
 31
0.0
  0
INSERT
  5
13F17
330
13C06
100
AcDbEntity
  8
寸法
 62
     0
 48
50.0
370
    -2
100
AcDbBlockReference
  2
_DOTSMALL
 10
7235.905270004882
 20
5179.606999670106
 30
0.0
 41
75.0
 42
75.0
 43
75.0
 50
90.0
  0
INSERT
  5
13F18
330
13C06
100
AcDbEntity
  8
寸法
 62
     0
 48
50.0
370
    -2
100
AcDbBlockReference
  2
_DOTSMALL
 10
7235.905270004882
 20
5109.606999670108
 30
0.0
 41
75.0
 42
75.0
 43
75.0
 50
270.0
  0
MTEXT
  5
13F19
330
13C06
100
AcDbEntity
  8
寸法
 62
     7
 48
50.0
100
AcDbMText
 10
7160.905270004882
 20
4955.071566599242
 30
0.0
 40
90.0
 41
0.0
 71
     5
 72
     1
  1
\A1;70
  7
STYLE1
 11
0.0000000000000001
 21
1.0
 31
0.0
 73
     1
 44
1.0
  0
POINT
  5
13F1A
330
13C06
100
AcDbEntity
  8
DEFPOINTS
 62
     0
 48
50.0
100
AcDbPoint
 10
6817.252488151019
 20
5179.606999670106
 30
0.0
  0
POINT
  5
13F1B
330
13C06
100
AcDbEntity
  8
DEFPOINTS
 62
     0
 48
50.0
100
AcDbPoint
 10
6847.252488151027
 20
5109.606999670108
 30
0.0
  0
POINT
  5
13F1C
330
13C06
100
AcDbEntity
  8
DEFPOINTS
 62
     0
 48
50.0
100
AcDbPoint
 10
7235.905270004882
 20
5109.606999670108
 30
0.0
  0
ENDBLK
  5
13C4E
330
13C06
100
AcDbEntity
  8
0
 48
50.0
100
AcDbBlockEnd
  0
BLOCK
  5
13C4F
330
13C13
100
AcDbEntity
  8
0
 48
50.0
100
AcDbBlockBegin
  2
*D27
 70
     1
 10
0.0
 20
0.0
 30
0.0
  3
*D27
  1

  0
LINE
  5
13F0A
330
13C13
100
AcDbEntity
  8
寸法
 62
     0
 48
50.0
370
    -2
100
AcDbLine
 10
6862.252488151014
 20
7809.606999670108
 30
0.0
 11
7636.552467736603
 21
7809.606999670108
 31
0.0
  0
LINE
  5
13F0B
330
13C13
100
AcDbEntity
  8
寸法
 62
     0
 48
50.0
370
    -2
100
AcDbLine
 10
6862.252488151021
 20
5109.606999670108
 30
0.0
 11
7636.552467736603
 21
5109.606999670108
 31
0.0
  0
LINE
  5
13F0C
330
13C13
100
AcDbEntity
  8
寸法
 62
     0
 48
50.0
370
    -2
100
AcDbLine
 10
7591.552467736604
 20
7809.606999670108
 30
0.0
 11
7591.552467736602
 21
5109.606999670108
 31
0.0
  0
INSERT
  5
13F0D
330
13C13
100
AcDbEntity
  8
寸法
 62
     0
 48
50.0
370
    -2
100
AcDbBlockReference
  2
_DOTSMALL
 10
7591.552467736604
 20
7809.606999670108
 30
0.0
 41
75.0
 42
75.0
 43
75.0
 50
90.0
  0
INSERT
  5
13F0E
330
13C13
100
AcDbEntity
  8
寸法
 62
     0
 48
50.0
370
    -2
100
AcDbBlockReference
  2
_DOTSMALL
 10
7591.552467736602
 20
5109.606999670108
 30
0.0
 41
75.0
 42
75.0
 43
75.0
 50
270.0
  0
MTEXT
  5
13F0F
330
13C13
100
AcDbEntity
  8
寸法
 62
     7
 48
50.0
100
AcDbMText
 10
7516.543609468884
 20
6459.606999670109
 30
0.0
 40
90.0
 41
0.0
 71
     5
 72
     1
  1
\A1;2700
  7
STYLE1
 11
0.0000000000000001
 21
1.0
 31
0.0
 73
     1
 44
1.0
  0
POINT
  5
13F10
330
13C13
100
AcDbEntity
  8
DEFPOINTS
 62
     0
 48
50.0
100
AcDbPoint
 10
6847.252488151013
 20
7809.606999670108
 30
0.0
  0
POINT
  5
13F11
330
13C13
100
AcDbEntity
  8
DEFPOINTS
 62
     0
 48
50.0
100
AcDbPoint
 10
6847.252488151022
 20
5109.606999670108
 30
0.0
  0
POINT
  5
13F12
330
13C13
100
AcDbEntity
  8
DEFPOINTS
 62
     0
 48
50.0
100
AcDbPoint
 10
7591.552467736602
 20
5109.606999670108
 30
0.0
  0
ENDBLK
  5
13C59
330
13C13
100
AcDbEntity
  8
0
 48
50.0
100
AcDbBlockEnd
  0
BLOCK
  5
13C5A
330
13C1F
100
AcDbEntity
  8
0
 48
50.0
100
AcDbBlockBegin
  2
*D28
 70
     1
 10
0.0
 20
0.0
 30
0.0
  3
*D28
  1

  0
LINE
  5
13F01
330
13C1F
100
AcDbEntity
  8
寸法
 62
     0
 48
50.0
370
    -2
100
AcDbLine
 10
6832.252488151017
 20
7685.606999670111
 30
0.0
 11
7280.905270004883
 21
7685.606999670111
 31
0.0
  0
LINE
  5
13F02
330
13C1F
100
AcDbEntity
  8
寸法
 62
     0
 48
50.0
370
    -2
100
AcDbLine
 10
6832.252488151017
 20
5179.606999670106
 30
0.0
 11
7280.905270004881
 21
5179.606999670106
 31
0.0
  0
LINE
  5
13F03
330
13C1F
100
AcDbEntity
  8
寸法
 62
     0
 48
50.0
370
    -2
100
AcDbLine
 10
7235.905270004882
 20
7685.606999670111
 30
0.0
 11
7235.905270004882
 21
5179.606999670106
 31
0.0
  0
INSERT
  5
13F04
330
13C1F
100
AcDbEntity
  8
寸法
 62
     0
 48
50.0
370
    -2
100
AcDbBlockReference
  2
_DOTSMALL
 10
7235.905270004882
 20
7685.606999670111
 30
0.0
 41
75.0
 42
75.0
 43
75.0
 50
90.0
  0
INSERT
  5
13F05
330
13C1F
100
AcDbEntity
  8
寸法
 62
     0
 48
50.0
370
    -2
100
AcDbBlockReference
  2
_DOTSMALL
 10
7235.905270004882
 20
5179.606999670106
 30
0.0
 41
75.0
 42
75.0
 43
75.0
 50
270.0
  0
MTEXT
  5
13F06
330
13C1F
100
AcDbEntity
  8
寸法
 62
     7
 48
50.0
100
AcDbMText
 10
7160.896411737164
 20
6432.60699967011
 30
0.0
 40
90.0
 41
0.0
 71
     5
 72
     1
  1
\A1;2506
  7
STYLE1
 11
0.0000000000000001
 21
1.0
 31
0.0
 73
     1
 44
1.0
  0
POINT
  5
13F07
330
13C1F
100
AcDbEntity
  8
DEFPOINTS
 62
     0
 48
50.0
100
AcDbPoint
 10
6817.252488151019
 20
7685.606999670111
 30
0.0
  0
POINT
  5
13F08
330
13C1F
100
AcDbEntity
  8
DEFPOINTS
 62
     0
 48
50.0
100
AcDbPoint
 10
6817.252488151019
 20
5179.606999670106
 30
0.0
  0
POINT
  5
13F09
330
13C1F
100
AcDbEntity
  8
DEFPOINTS
 62
     0
 48
50.0
100
AcDbPoint
 10
7235.905270004882
 20
5179.606999670106
 30
0.0
  0
ENDBLK
  5
13C64
330
13C1F
100
AcDbEntity
  8
0
 48
50.0
100
AcDbBlockEnd
  0
BLOCK
  5
13C65
330
13C2B
100
AcDbEntity
  8
0
 48
50.0
100
AcDbBlockBegin
  2
*D29
 70
     1
 10
0.0
 20
0.0
 30
0.0
  3
*D29
  1

  0
LINE
  5
13EED
330
13C2B
100
AcDbEntity
  8
寸法
 62
     0
 48
50.0
370
    -2
100
AcDbLine
 10
6862.252488151014
 20
7809.60699967011
 30
0.0
 11
7280.905270004883
 21
7809.60699967011
 31
0.0
  0
LINE
  5
13EEE
330
13C2B
100
AcDbEntity
  8
寸法
 62
     0
 48
50.0
370
    -2
100
AcDbLine
 10
6832.252488151017
 20
7685.606999670111
 30
0.0
 11
7280.905270004883
 21
7685.606999670111
 31
0.0
  0
LINE
  5
13EEF
330
13C2B
100
AcDbEntity
  8
寸法
 62
     0
 48
50.0
370
    -2
100
AcDbLine
 10
7235.905270004882
 20
7685.606999670111
 30
0.0
 11
7235.905270004882
 21
7809.60699967011
 31
0.0
  0
LINE
  5
13EF0
330
13C2B
100
AcDbEntity
  8
寸法
 62
     0
 48
50.0
370
    -2
100
AcDbLine
 10
7235.905270004882
 20
7809.60699967011
 30
0.0
 11
7235.905270004882
 21
8097.60699967011
 31
0.0
  0
INSERT
  5
13EF1
330
13C2B
100
AcDbEntity
  8
寸法
 62
     0
 48
50.0
370
    -2
100
AcDbBlockReference
  2
_DOTSMALL
 10
7235.905270004882
 20
7685.606999670111
 30
0.0
 41
75.0
 42
75.0
 43
75.0
 50
270.0
  0
INSERT
  5
13EF2
330
13C2B
100
AcDbEntity
  8
寸法
 62
     0
 48
50.0
370
    -2
100
AcDbBlockReference
  2
_DOTSMALL
 10
7235.905270004882
 20
7809.60699967011
 30
0.0
 41
75.0
 42
75.0
 43
75.0
 50
90.0
  0
MTEXT
  5
13EF3
330
13C2B
100
AcDbEntity
  8
寸法
 62
     7
 48
50.0
100
AcDbMText
 10
7160.896411737166
 20
7991.106999670113
 30
0.0
 40
90.0
 41
0.0
 71
     5
 72
     1
  1
\A1;124
  7
STYLE1
 11
0.0000000000000001
 21
1.0
 31
0.0
 73
     1
 44
1.0
  0
POINT
  5
13EF4
330
13C2B
100
AcDbEntity
  8
DEFPOINTS
 62
     0
 48
50.0
100
AcDbPoint
 10
6847.252488151013
 20
7809.60699967011
 30
0.0
  0
POINT
  5
13EF5
330
13C2B
100
AcDbEntity
  8
DEFPOINTS
 62
     0
 48
50.0
100
AcDbPoint
 10
6817.252488151019
 20
7685.606999670111
 30
0.0
  0
POINT
  5
13EF6
330
13C2B
100
AcDbEntity
  8
DEFPOINTS
 62
     0
 48
50.0
100
AcDbPoint
 10
7235.905270004882
 20
7685.606999670111
 30
0.0
  0
ENDBLK
  5
13C70
330
13C2B
100
AcDbEntity
  8
0
 48
50.0
100
AcDbBlockEnd
  0
BLOCK
  5
13E02
330
13DF8
100
AcDbEntity
  8
0
 48
50.0
100
AcDbBlockBegin
  2
*D30
 70
     1
 10
0.0
 20
0.0
 30
0.0
  3
*D30
  1

  0
LINE
  5
13DF9
330
13DF8
100
AcDbEntity
  8
寸法
 62
     0
 48
50.0
370
    -2
100
AcDbLine
 10
1012.252488151036
 20
1473.01902198748
 30
0.0
 11
1012.252488151036
 21
1282.153504751242
 31
0.0
  0
LINE
  5
13DFA
330
13DF8
100
AcDbEntity
  8
寸法
 62
     0
 48
50.0
370
    -2
100
AcDbLine
 10
3812.252488151033
 20
1473.019021987515
 30
0.0
 11
3812.252488151033
 21
1282.153504751242
 31
0.0
  0
LINE
  5
13DFB
330
13DF8
100
AcDbEntity
  8
寸法
 62
     0
 48
50.0
370
    -2
100
AcDbLine
 10
1012.252488151036
 20
1327.153504751242
 30
0.0
 11
3812.252488151033
 21
1327.153504751242
 31
0.0
  0
INSERT
  5
13DFC
330
13DF8
100
AcDbEntity
  8
寸法
 62
     0
 48
50.0
370
    -2
100
AcDbBlockReference
  2
_DOTSMALL
 10
1012.252488151036
 20
1327.153504751242
 30
0.0
 41
75.0
 42
75.0
 43
75.0
 50
180.0
  0
INSERT
  5
13DFD
330
13DF8
100
AcDbEntity
  8
寸法
 62
     0
 48
50.0
370
    -2
100
AcDbBlockReference
  2
_DOTSMALL
 10
3812.252488151033
 20
1327.153504751242
 30
0.0
 41
75.0
 42
75.0
 43
75.0
  0
MTEXT
  5
13DFE
330
13DF8
100
AcDbEntity
  8
寸法
 62
     7
 48
50.0
100
AcDbMText
 10
2412.252488151035
 20
1402.162363018959
 30
0.0
 40
90.0
 41
0.0
 71
     5
 72
     1
  1
\A1;2800
  7
STYLE1
 73
     1
 44
1.0
  0
POINT
  5
13DFF
330
13DF8
100
AcDbEntity
  8
DEFPOINTS
 62
     0
 48
50.0
100
AcDbPoint
 10
1012.252488151036
 20
1488.01902198748
 30
0.0
  0
POINT
  5
13E00
330
13DF8
100
AcDbEntity
  8
DEFPOINTS
 62
     0
 48
50.0
100
AcDbPoint
 10
3812.252488151033
 20
1488.019021987515
 30
0.0
  0
POINT
  5
13E01
330
13DF8
100
AcDbEntity
  8
DEFPOINTS
 62
     0
 48
50.0
100
AcDbPoint
 10
3812.252488151033
 20
1327.153504751242
 30
0.0
  0
ENDBLK
  5
13E03
330
13DF8
100
AcDbEntity
  8
0
 48
50.0
100
AcDbBlockEnd
  0
ENDSEC
  0
SECTION
  2
ENTITIES
  0
MTEXT
  5
763F
330
747D
100
AcDbEntity
  8
0
100
AcDbMText
 10
302.846345836809
 20
280.1983726409901
 30
0.0
 40
3.5
 41
5.323721266742722
 71
     1
 72
     5
  1

  7
MSMINCHO
 73
     1
 44
1.0
  0
LINE
  5
10B56
330
747D
100
AcDbEntity
  8
補助
  6
PHANTOM
 62
   230
 48
50.0
100
AcDbLine
 10
105.0
 20
0.0
 30
0.0
 11
104.9999999999996
 21
8557.199999999999
 31
0.0
  0
LINE
  5
10B57
330
747D
100
AcDbEntity
  8
補助
  6
PHANTOM
 62
   230
 48
50.0
100
AcDbLine
 10
104.9999999999996
 20
8557.199999999999
 30
0.0
 11
12230.4
 21
8557.199999999999
 31
0.0
  0
LINE
  5
10B59
330
747D
100
AcDbEntity
  8
仕様書枠
  6
Continuous
 48
50.0
100
AcDbLine
 10
9830.400000000002
 20
900.0
 30
0.0
 11
9830.400000000002
 21
-0.0000000000000547
 31
0.0
  0
LINE
  5
10B5C
330
747D
100
AcDbEntity
  8
仕様書枠
 48
50.0
100
AcDbLine
 10
12230.4
 20
900.0
 30
0.0
 11
12230.4
 21
-0.0000000000000682
 31
0.0
  0
LINE
  5
10B5D
330
747D
100
AcDbEntity
  8
仕様書枠
 48
50.0
100
AcDbLine
 10
105.0
 20
0.0
 30
0.0
 11
12230.4
 21
-0.0000000000000682
 31
0.0
  0
LINE
  5
10B5E
330
747D
100
AcDbEntity
  8
補助
  6
PHANTOM
 62
   230
 48
50.0
100
AcDbLine
 10
12230.4
 20
8557.199999999999
 30
0.0
 11
12230.4
 21
900.0
 31
0.0
  0
LINE
  5
10B6C
330
747D
100
AcDbEntity
  8
仕様書枠
 48
50.0
100
AcDbLine
 10
9830.400000000002
 20
900.0
 30
0.0
 11
12230.4
 21
900.0
 31
0.0
  0
LINE
  5
10B6D
330
747D
100
AcDbEntity
  8
補助
  6
PHANTOM
 62
   230
 48
50.0
100
AcDbLine
 10
9830.400000000002
 20
8557.199999999999
 30
0.0
 11
9830.400000000002
 21
3600.0
 31
0.0
  0
LINE
  5
10B6F
330
747D
100
AcDbEntity
  8
補助
  6
PHANTOM
 62
   230
 48
50.0
100
AcDbLine
 10
9830.400000000002
 20
3110.960973647383
 30
0.0
 11
12230.4
 21
3110.960973647383
 31
0.0
  0
LINE
  5
10B72
330
747D
100
AcDbEntity
  8
文字
 62
     7
 48
50.0
100
AcDbLine
 10
9890.400000000001
 20
300.0
 30
0.0
 11
12170.4
 21
300.0
 31
0.0
  0
TEXT
  5
10B73
330
747D
100
AcDbEntity
  8
文字
 62
     7
 48
50.0
100
AcDbText
 10
9872.234292432677
 20
671.3179555724553
 30
0.0
 40
150.0
  1
外 形 図
  7
STYLE2
100
AcDbText
  0
TEXT
  5
10B74
330
747D
100
AcDbEntity
  8
文字
 62
     7
 48
50.0
100
AcDbText
 10
9901.077524988313
 20
357.9555495773441
 30
0.0
 40
120.0
  1
機種名
  7
STYLE2
100
AcDbText
  0
TEXT
  5
10B79
330
747D
100
AcDbEntity
  8
文字
 62
     7
 48
50.0
100
AcDbText
 10
10893.0988779165
 20
773.6682797184214
 30
0.0
 40
75.0
  1
NO.08     <縮尺> S=1/30
  7
STYLE2
100
AcDbText
  0
LINE
  5
10B7B
330
747D
100
AcDbEntity
  8
仕様書枠
 48
50.0
100
AcDbLine
 10
9830.400000000002
 20
600.0
 30
0.0
 11
10688.4
 21
600.0
 31
0.0
  0
LINE
  5
10B88
330
747D
100
AcDbEntity
  8
仕様書枠
  6
Continuous
 48
50.0
100
AcDbLine
 10
10688.4
 20
900.0
 30
0.0
 11
10688.4
 21
600.0
 31
0.0
  0
TEXT
  5
10BB0
330
747D
100
AcDbEntity
  8
文字
 62
     7
 48
50.0
100
AcDbText
 10
11056.78382293299
 20
362.922534743356
 30
0.0
 40
120.0
  1
BF-２８L-２
  7
STYLE3
100
AcDbText
  0
TEXT
  5
10EA8
330
747D
100
AcDbEntity
  8
文字
 62
     7
 48
50.0
100
AcDbText
 10
11138.71739229687
 20
628.6895453046891
 30
0.0
 40
75.0
  1
～多雪地型～
  7
STYLE2
100
AcDbText
  0
LINE
  5
13125
330
747D
100
AcDbEntity
  8
補助
  6
PHANTOM
 62
   230
 48
50.0
100
AcDbLine
 10
11930.4
 20
8182.200000000003
 30
0.0
 11
11930.4
 21
6457.2
 31
0.0
  0
LINE
  5
13126
330
747D
100
AcDbEntity
  8
補助
  6
PHANTOM
 62
   230
 48
50.0
100
AcDbLine
 10
9380.400000000003
 20
8182.199999999999
 30
0.0
 11
9380.400000000003
 21
6457.2
 31
0.0
  0
LINE
  5
13127
330
747D
100
AcDbEntity
  8
補助
  6
PHANTOM
 62
   230
 48
50.0
100
AcDbLine
 10
9380.400000000003
 20
6457.2
 30
0.0
 11
11930.4
 21
6457.2
 31
0.0
  0
LINE
  5
13128
330
747D
100
AcDbEntity
  8
補助
  6
PHANTOM
 62
   230
 48
50.0
100
AcDbLine
 10
9380.400000000003
 20
8182.199999999999
 30
0.0
 11
11930.4
 21
8182.200000000003
 31
0.0
  0
DIMENSION
  5
13652
330
747D
100
AcDbEntity
  8
寸法
 48
50.0
100
AcDbDimension
  2
*D3
 10
7274.337677265096
 20
1757.97853143218
 30
0.0
 11
7274.337677265096
 21
2039.025775526666
 31
0.0
 70
   160
 71
     5
 42
-1.0
  3
INABA_S30G
100
AcDbAlignedDimension
 13
6802.252486199247
 23
1807.978531432178
 33
0.0
 14
6812.252486199253
 24
1757.97853143218
 34
0.0
 50
90.0
100
AcDbRotatedDimension
  0
ARC
  5
13655
330
747D
100
AcDbEntity
  8
部品1
 48
50.0
100
AcDbCircle
 10
779.7005631554057
 20
3704.917431457589
 30
0.0
 40
13.0
100
AcDbArc
 50
182.4849043365733
 51
270.0
  0
ARC
  5
13656
330
747D
100
AcDbEntity
  8
部品1
 48
50.0
100
AcDbCircle
 10
779.7005631554057
 20
3831.15253615871
 30
0.0
 40
13.0
100
AcDbArc
 50
182.4849043365733
 51
270.0
  0
ARC
  5
13657
330
747D
100
AcDbEntity
  8
部品1
 48
50.0
100
AcDbCircle
 10
775.8288844966736
 20
3920.367940889062
 30
0.0
 40
13.0
100
AcDbArc
 50
90.00000000000003
 51
182.484904336573
  0
DIMENSION
  5
13658
330
747D
100
AcDbEntity
  8
寸法
 48
50.0
100
AcDbDimension
  2
*D4
 10
1012.252488151018
 20
4177.02676431269
 30
0.0
 11
887.252488151018
 21
4177.02676431269
 31
0.0
 70
   160
 71
     5
 42
250.0
  3
INABA_S30G
100
AcDbAlignedDimension
 13
762.252488151018
 23
3933.367940889063
 33
0.0
 14
1012.252488151018
 24
3785.698835700844
 34
0.0
100
AcDbRotatedDimension
  0
LINE
  5
13659
330
747D
100
AcDbEntity
  8
細線
 48
50.0
100
AcDbLine
 10
6859.45264843899
 20
3868.810562188205
 30
0.0
 11
765.0523259112803
 21
3868.851052743504
 31
0.0
  0
LINE
  5
1365A
330
747D
100
AcDbEntity
  8
細線
 48
50.0
100
AcDbLine
 10
6858.930539015567
 20
3856.779552481622
 30
0.0
 11
765.574435334701
 21
3856.820043036925
 31
0.0
  0
DIMENSION
  5
1365B
330
747D
100
AcDbEntity
  8
寸法
 48
50.0
100
AcDbDimension
  2
*D5
 10
6862.25248619925
 20
4496.211794839526
 30
0.0
 11
3812.252487175134
 21
4571.211794839526
 31
0.0
 70
    32
 71
     5
 42
6099.999998048232
  3
INABA_S30G
100
AcDbAlignedDimension
 13
762.252488151018
 23
3933.367940889063
 33
0.0
 14
6862.25248619925
 24
3933.327450333766
 34
0.0
100
AcDbRotatedDimension
  0
TEXT
  5
1365C
330
747D
100
AcDbEntity
  8
寸法
 62
     7
 48
50.0
100
AcDbText
 10
449.2870359408225
 20
1781.194752873589
 30
0.0
 40
78.4
  1
▽G.L
100
AcDbText
  0
LINE
  5
1365D
330
747D
100
AcDbEntity
  8
部品1
 48
50.0
100
AcDbLine
 10
762.8411086662345
 20
3793.569206009286
 30
0.0
 11
766.7127873249701
 21
3704.353801278932
 31
0.0
  0
LINE
  5
1365E
330
747D
100
AcDbEntity
  8
部品1
 48
50.0
100
AcDbLine
 10
762.8288844966736
 20
3920.367940889062
 30
0.0
 11
762.8411086662345
 21
3793.569206009286
 31
0.0
  0
LINE
  5
1365F
330
747D
100
AcDbEntity
  8
部品1
 48
50.0
100
AcDbLine
 10
762.8411086662345
 20
3919.804310710404
 30
0.0
 11
766.7127873249701
 21
3830.588905980052
 31
0.0
  0
TEXT
  5
13660
330
747D
100
AcDbEntity
  8
仕様書枠
 62
     7
 48
50.0
100
AcDbText
 10
3528.355435142632
 20
1067.866114464865
 30
0.0
 40
112.0
  1
正 面 図
  7
STYLE2
100
AcDbText
  0
LWPOLYLINE
  5
13661
330
747D
100
AcDbEntity
  8
部品1
100
AcDbPolyline
 90
        4
 70
     1
 43
0.0
 10
3496.940358381104
 20
1221.730838815047
 10
4143.97173366163
 20
1221.730838815047
 10
4143.97173366163
 20
1029.210682997905
 10
3496.940358381104
 20
1029.210682997905
  0
LINE
  5
13662
330
747D
100
AcDbEntity
  8
部品1
 48
50.0
100
AcDbLine
 10
6582.252486199249
 20
2007.97853143218
 30
0.0
 11
3842.252488151018
 21
2008.019021987517
 31
0.0
  0
LINE
  5
13663
330
747D
100
AcDbEntity
  8
部品1
 48
50.0
100
AcDbLine
 10
6582.252486199249
 20
2052.978531432182
 30
0.0
 11
3842.252488151018
 21
2053.019021987517
 31
0.0
  0
LINE
  5
13664
330
747D
100
AcDbEntity
  8
部品1
 48
50.0
100
AcDbLine
 10
6585.252486199249
 20
3785.658345145546
 30
0.0
 11
3839.252488151018
 21
3785.69883570088
 31
0.0
  0
LINE
  5
13665
330
747D
100
AcDbEntity
  8
部品1
 48
50.0
100
AcDbLine
 10
6582.252486199249
 20
2907.978531432183
 30
0.0
 11
3842.252488151018
 21
2908.019021987517
 31
0.0
  0
LINE
  5
13666
330
747D
100
AcDbEntity
  8
部品1
 48
50.0
100
AcDbLine
 10
6582.252486199249
 20
2457.97853143218
 30
0.0
 11
3842.252488151018
 21
2458.019021987517
 31
0.0
  0
LINE
  5
13667
330
747D
100
AcDbEntity
  8
部品1
 48
50.0
100
AcDbLine
 10
6582.252486199249
 20
2862.978531432182
 30
0.0
 11
3842.252488151018
 21
2863.019021987517
 31
0.0
  0
LINE
  5
13668
330
747D
100
AcDbEntity
  8
部品1
 48
50.0
100
AcDbLine
 10
6582.252486199249
 20
2487.97853143218
 30
0.0
 11
3842.252488151018
 21
2488.019021987517
 31
0.0
  0
LINE
  5
13669
330
747D
100
AcDbEntity
  8
部品1
 48
50.0
100
AcDbLine
 10
6582.252486199249
 20
2117.978531432183
 30
0.0
 11
3842.252488151018
 21
2118.019021987517
 31
0.0
  0
LINE
  5
1366A
330
747D
100
AcDbEntity
  8
部品1
 48
50.0
100
AcDbLine
 10
6582.252486199249
 20
2157.978531432182
 30
0.0
 11
3842.252488151018
 21
2158.019021987517
 31
0.0
  0
LINE
  5
1366B
330
747D
100
AcDbEntity
  8
部品1
 48
50.0
100
AcDbLine
 10
6580.252486199249
 20
3678.180525919243
 30
0.0
 11
3844.252488151022
 21
3678.221016474579
 31
0.0
  0
LINE
  5
1366C
330
747D
100
AcDbEntity
  8
部品1
 48
50.0
100
AcDbLine
 10
6580.252486199249
 20
3713.366709977756
 30
0.0
 11
3844.252488151018
 21
3713.407200533051
 31
0.0
  0
LINE
  5
1366D
330
747D
100
AcDbEntity
  8
部品1
 48
50.0
100
AcDbLine
 10
6580.252486199249
 20
3748.543006274069
 30
0.0
 11
3844.252488151018
 21
3748.583496829402
 31
0.0
  0
DIMENSION
  5
1366E
330
747D
100
AcDbEntity
  8
寸法
 48
50.0
100
AcDbDimension
  2
*D6
 10
6612.252486199243
 20
1327.153504751242
 30
0.0
 11
5542.137992366884
 21
1402.162363018961
 31
0.0
 12
-391.5657946570136
 22
9865.195570569071
 32
0.0
 70
    32
 71
     5
 42
-1.0
  3
INABA_S30G
100
AcDbAlignedDimension
 13
3812.252488151011
 23
1488.019021987517
 33
0.0
 14
6612.252486199243
 24
1487.978531432182
 34
0.0
100
AcDbRotatedDimension
  0
LINE
  5
1366F
330
747D
100
AcDbEntity
  8
部品1
 48
50.0
100
AcDbLine
 10
6848.676089853597
 20
3933.327450333766
 30
0.0
 11
775.828884579837
 21
3933.367940889063
 31
0.0
  0
LINE
  5
13670
330
747D
100
AcDbEntity
  8
部品1
 48
50.0
100
AcDbLine
 10
6844.804411194866
 20
3818.11204560341
 30
0.0
 11
779.7005630330037
 21
3818.15253615871
 31
0.0
  0
LINE
  5
13671
330
747D
100
AcDbEntity
  8
部品1
 48
50.0
100
AcDbLine
 10
6802.252486199247
 20
1807.978531432178
 30
0.0
 11
822.2524881510107
 21
1808.01902198748
 31
0.0
  0
DIMENSION
  5
13672
330
747D
100
AcDbEntity
  8
寸法
 48
50.0
100
AcDbDimension
  2
*D7
 10
6612.25248619925
 20
4176.986273757351
 30
0.0
 11
3812.252487175134
 21
4176.986273757351
 31
0.0
 70
   160
 71
     5
 42
5599.999998048232
  3
INABA_S30G
100
AcDbAlignedDimension
 13
1012.252488151018
 23
3785.698835700844
 33
0.0
 14
6612.25248619925
 24
3785.658345145546
 34
0.0
100
AcDbRotatedDimension
  0
LINE
  5
13673
330
747D
100
AcDbEntity
  8
部品1
 48
50.0
100
AcDbLine
 10
3842.252488151018
 20
3488.763437444077
 30
0.0
 11
3842.252488151018
 21
1808.019021987513
 31
0.0
  0
LINE
  5
13674
330
747D
100
AcDbEntity
  8
部品1
 48
50.0
100
AcDbLine
 10
3782.252488151018
 20
3488.763437444077
 30
0.0
 11
3782.252488151018
 21
1808.019021987513
 31
0.0
  0
LINE
  5
13675
330
747D
100
AcDbEntity
  8
部品1
 48
50.0
100
AcDbLine
 10
982.2524881510179
 20
3488.763437444042
 30
0.0
 11
982.2524881510179
 21
1808.01902198748
 31
0.0
  0
LINE
  5
13676
330
747D
100
AcDbEntity
  8
部品1
 48
50.0
100
AcDbLine
 10
1042.252488151018
 20
3488.763437444041
 30
0.0
 11
1042.252488151018
 21
1808.01902198748
 31
0.0
  0
LINE
  5
13677
330
747D
100
AcDbEntity
  8
部品1
 48
50.0
100
AcDbLine
 10
3782.25248815102
 20
2008.019021987482
 30
0.0
 11
1042.252488151018
 21
2008.019021987482
 31
0.0
  0
LINE
  5
13678
330
747D
100
AcDbEntity
  8
部品1
 48
50.0
100
AcDbLine
 10
3782.25248815102
 20
2053.019021987482
 30
0.0
 11
1042.252488151018
 21
2053.019021987481
 31
0.0
  0
LINE
  5
13679
330
747D
100
AcDbEntity
  8
部品1
 48
50.0
100
AcDbLine
 10
3782.25248815102
 20
2458.01902198748
 30
0.0
 11
1042.252488151018
 21
2458.019021987481
 31
0.0
  0
LINE
  5
1367A
330
747D
100
AcDbEntity
  8
部品1
 48
50.0
100
AcDbLine
 10
3782.25248815102
 20
2908.019021987482
 30
0.0
 11
1042.252488151018
 21
2908.019021987481
 31
0.0
  0
LINE
  5
1367B
330
747D
100
AcDbEntity
  8
部品1
 48
50.0
100
AcDbLine
 10
3782.25248815102
 20
2863.019021987483
 30
0.0
 11
1042.252488151018
 21
2863.019021987481
 31
0.0
  0
LINE
  5
1367C
330
747D
100
AcDbEntity
  8
部品1
 48
50.0
100
AcDbLine
 10
3782.25248815102
 20
2488.019021987481
 30
0.0
 11
1042.252488151018
 21
2488.019021987481
 31
0.0
  0
LINE
  5
1367D
330
747D
100
AcDbEntity
  8
部品1
 48
50.0
100
AcDbLine
 10
3782.25248815102
 20
2158.019021987481
 30
0.0
 11
1042.252488151018
 21
2158.019021987481
 31
0.0
  0
LINE
  5
1367E
330
747D
100
AcDbEntity
  8
部品1
 48
50.0
100
AcDbLine
 10
3782.25248815102
 20
2118.01902198748
 30
0.0
 11
1042.252488151018
 21
2118.019021987481
 31
0.0
  0
LINE
  5
13680
330
747D
100
AcDbEntity
  8
点線
 48
50.0
100
AcDbLine
 10
1042.252488151018
 20
1808.01902198748
 30
0.0
 11
1042.252488151025
 21
1488.01902198748
 31
0.0
  0
LINE
  5
13681
330
747D
100
AcDbEntity
  8
点線
 48
50.0
100
AcDbLine
 10
982.2524881510107
 20
1808.01902198748
 30
0.0
 11
982.2524881510471
 21
1488.01902198748
 31
0.0
  0
LINE
  5
13682
330
747D
100
AcDbEntity
  8
点線
 48
50.0
100
AcDbLine
 10
982.2524881510471
 20
1488.01902198748
 30
0.0
 11
1042.252488151025
 21
1488.01902198748
 31
0.0
  0
LINE
  5
13684
330
747D
100
AcDbEntity
  8
部品1
 48
50.0
100
AcDbLine
 10
822.2524881510107
 20
1808.01902198748
 30
0.0
 11
812.2524881510107
 21
1798.01902198748
 31
0.0
  0
LINE
  5
13686
330
747D
100
AcDbEntity
  8
部品1
 48
50.0
100
AcDbLine
 10
812.2524881510107
 20
1798.01902198748
 30
0.0
 11
812.2524881510107
 21
1758.01902198748
 31
0.0
  0
LINE
  5
1368B
330
747D
100
AcDbEntity
  8
部品1
 48
50.0
100
AcDbLine
 10
2394.75248815102
 20
2118.019021987482
 30
0.0
 11
2394.75248815102
 21
2053.019021987481
 31
0.0
  0
LINE
  5
1368C
330
747D
100
AcDbEntity
  8
部品1
 48
50.0
100
AcDbLine
 10
2429.75248815102
 20
2118.019021987482
 30
0.0
 11
2429.75248815102
 21
2053.019021987481
 31
0.0
  0
LINE
  5
1368D
330
747D
100
AcDbEntity
  8
点線
 48
50.0
100
AcDbLine
 10
3782.252488151015
 20
1808.019021987515
 30
0.0
 11
3782.252488151036
 21
1488.019021987515
 31
0.0
  0
LINE
  5
1368E
330
747D
100
AcDbEntity
  8
点線
 48
50.0
100
AcDbLine
 10
3842.252488151018
 20
1808.019021987515
 30
0.0
 11
3842.252488151025
 21
1488.019021987515
 31
0.0
  0
LINE
  5
1368F
330
747D
100
AcDbEntity
  8
点線
 48
50.0
100
AcDbLine
 10
3782.252488151038
 20
1488.019021987515
 30
0.0
 11
3842.252488151027
 21
1488.019021987515
 31
0.0
  0
LINE
  5
13693
330
747D
100
AcDbEntity
  8
部品1
 48
50.0
100
AcDbLine
 10
3780.252488151017
 20
3678.221016474543
 30
0.0
 11
1044.25248815102
 21
3678.221016474545
 31
0.0
  0
LINE
  5
13694
330
747D
100
AcDbEntity
  8
部品1
 48
50.0
100
AcDbLine
 10
3780.25248815102
 20
3713.407200533018
 30
0.0
 11
1044.25248815102
 21
3713.407200533015
 31
0.0
  0
LINE
  5
13695
330
747D
100
AcDbEntity
  8
部品1
 48
50.0
100
AcDbLine
 10
3780.25248815102
 20
3748.583496829366
 30
0.0
 11
1044.252488151019
 21
3748.583496829367
 31
0.0
  0
LINE
  5
13696
330
747D
100
AcDbEntity
  8
部品1
 48
50.0
100
AcDbLine
 10
3785.252488151019
 20
3785.69883570088
 30
0.0
 11
1039.252488151018
 21
3785.698835700842
 31
0.0
  0
LINE
  5
13697
330
747D
100
AcDbEntity
  8
部品1
 48
50.0
100
AcDbLine
 10
917.852227515592
 20
3678.240544845162
 30
0.0
 11
857.8498180140668
 21
3703.230904236747
 31
0.0
  0
LINE
  5
13698
330
747D
100
AcDbEntity
  8
部品1
 48
50.0
100
AcDbLine
 10
980.252488151018
 20
3780.698835700845
 30
0.0
 11
980.2524881510144
 21
3488.763437444042
 31
0.0
  0
LINE
  5
13699
330
747D
100
AcDbEntity
  8
部品1
 48
50.0
100
AcDbLine
 10
1044.252488151018
 20
3780.698835700843
 30
0.0
 11
1044.252488151025
 21
3488.763437444041
 31
0.0
  0
LINE
  5
1369A
330
747D
100
AcDbEntity
  8
部品1
 48
50.0
100
AcDbLine
 10
917.852227515592
 20
3678.240544845162
 30
0.0
 11
980.2524881509999
 21
3678.230904236747
 31
0.0
  0
LINE
  5
1369B
330
747D
100
AcDbEntity
  8
部品1
 48
50.0
100
AcDbLine
 10
1039.252488151022
 20
3681.874220858894
 30
0.0
 11
985.2524881510181
 21
3681.874220858894
 31
0.0
  0
LINE
  5
1369C
330
747D
100
AcDbEntity
  8
部品1
 48
50.0
100
AcDbLine
 10
1039.252488151022
 20
3664.263437444041
 30
0.0
 11
985.2524881510181
 21
3664.263437444043
 31
0.0
  0
ARC
  5
1369D
330
747D
100
AcDbEntity
  8
部品1
 48
50.0
100
AcDbCircle
 10
1039.252488151022
 20
3686.874220858894
 30
0.0
 40
5.0
100
AcDbArc
 50
270.0
 51
359.9999999999996
  0
ARC
  5
1369E
330
747D
100
AcDbEntity
  8
部品1
 48
50.0
100
AcDbCircle
 10
1039.252488151022
 20
3669.26343744404
 30
0.0
 40
5.0
100
AcDbArc
 50
269.9999999999991
 51
0.0000000000010305
  0
ARC
  5
1369F
330
747D
100
AcDbEntity
  8
部品1
 48
50.0
100
AcDbCircle
 10
985.2524881510181
 20
3686.874220858894
 30
0.0
 40
5.0
100
AcDbArc
 50
179.9999999999998
 51
269.9999999999991
  0
ARC
  5
136A0
330
747D
100
AcDbEntity
  8
部品1
 48
50.0
100
AcDbCircle
 10
985.2524881510181
 20
3669.263437444043
 30
0.0
 40
5.0
100
AcDbArc
 50
179.9999999999992
 51
269.9999999999992
  0
LINE
  5
136A1
330
747D
100
AcDbEntity
  8
部品1
 48
50.0
100
AcDbLine
 10
1044.252488151018
 20
3488.763437444041
 30
0.0
 11
980.252488151018
 21
3488.763437444042
 31
0.0
  0
LINE
  5
136A2
330
747D
100
AcDbEntity
  8
細線
 48
50.0
100
AcDbLine
 10
995.252488151018
 20
3664.263437444043
 30
0.0
 11
995.2524881510143
 21
3488.763437444042
 31
0.0
  0
LINE
  5
136A3
330
747D
100
AcDbEntity
  8
細線
 48
50.0
100
AcDbLine
 10
1000.552488151017
 20
3664.263437444043
 30
0.0
 11
1000.552488151013
 21
3488.763437444042
 31
0.0
  0
LINE
  5
136A4
330
747D
100
AcDbEntity
  8
細線
 48
50.0
100
AcDbLine
 10
1029.252488151021
 20
3664.263437444043
 30
0.0
 11
1029.252488151025
 21
3488.763437444042
 31
0.0
  0
LINE
  5
136A5
330
747D
100
AcDbEntity
  8
細線
 48
50.0
100
AcDbLine
 10
1023.952488151022
 20
3664.263437444043
 30
0.0
 11
1023.952488151022
 21
3488.763437444042
 31
0.0
  0
LINE
  5
136A6
330
747D
100
AcDbEntity
  8
部品1
 48
50.0
100
AcDbLine
 10
917.8454460270149
 20
3748.583496829367
 30
0.0
 11
980.2524881509999
 21
3748.583496829367
 31
0.0
  0
LINE
  5
136A7
330
747D
100
AcDbEntity
  8
部品1
 48
50.0
100
AcDbLine
 10
917.848837236008
 20
3713.407200533058
 30
0.0
 11
980.2524881509999
 21
3713.407200533055
 31
0.0
  0
LINE
  5
136A8
330
747D
100
AcDbEntity
  8
部品1
 48
50.0
100
AcDbLine
 10
985.2524881509998
 20
3785.698835700844
 30
0.0
 11
917.841867882511
 21
3785.698835700844
 31
0.0
  0
LINE
  5
136A9
330
747D
100
AcDbEntity
  8
部品1
 48
50.0
100
AcDbLine
 10
817.8387386836293
 20
3818.15253615871
 30
0.0
 11
817.8509085158111
 21
3691.917431457588
 31
0.0
  0
LINE
  5
136AA
330
747D
100
AcDbEntity
  8
部品1
 48
50.0
100
AcDbLine
 10
917.8454460270149
 20
3748.583496829367
 30
0.0
 11
857.8430365254899
 21
3773.573856220953
 31
0.0
  0
LINE
  5
136AB
330
747D
100
AcDbEntity
  8
部品1
 48
50.0
100
AcDbLine
 10
817.8509085158111
 20
3691.917431457588
 30
0.0
 11
779.7005631554057
 21
3691.917431457588
 31
0.0
  0
LINE
  5
136AC
330
747D
100
AcDbEntity
  8
部品1
 48
50.0
100
AcDbLine
 10
817.8522279803001
 20
3703.230904236747
 30
0.0
 11
857.8498180140668
 21
3703.230904236747
 31
0.0
  0
LINE
  5
136AD
330
747D
100
AcDbEntity
  8
部品1
 48
50.0
100
AcDbLine
 10
817.8488377007161
 20
3738.397559924643
 30
0.0
 11
857.8464277344828
 21
3738.397559924643
 31
0.0
  0
LINE
  5
136AE
330
747D
100
AcDbEntity
  8
部品1
 48
50.0
100
AcDbLine
 10
917.848837236008
 20
3713.407200533057
 30
0.0
 11
857.8464277344828
 21
3738.397559924643
 31
0.0
  0
LINE
  5
136AF
330
747D
100
AcDbEntity
  8
部品1
 48
50.0
100
AcDbLine
 10
817.8418683472191
 20
3810.689195092429
 30
0.0
 11
857.8394583809895
 21
3810.689195092431
 31
0.0
  0
LINE
  5
136B0
330
747D
100
AcDbEntity
  8
部品1
 48
50.0
100
AcDbLine
 10
817.8454464917194
 20
3773.573856220953
 30
0.0
 11
857.8430365254899
 21
3773.573856220953
 31
0.0
  0
LINE
  5
136B1
330
747D
100
AcDbEntity
  8
部品1
 48
50.0
100
AcDbLine
 10
917.8418678825146
 20
3785.698835700844
 30
0.0
 11
857.8394583809895
 21
3810.689195092429
 31
0.0
  0
LINE
  5
136B2
330
747D
100
AcDbEntity
  8
部品1
 48
50.0
100
AcDbLine
 10
785.252488151018
 20
3933.367940889063
 30
0.0
 11
785.252488151018
 21
3818.15253615871
 31
0.0
  0
LINE
  5
136B3
330
747D
100
AcDbEntity
  8
部品1
 48
50.0
100
AcDbLine
 10
1039.252488151018
 20
3785.698835700844
 30
0.0
 11
985.2524881510181
 21
3785.698835700845
 31
0.0
  0
ARC
  5
136B4
330
747D
100
AcDbEntity
  8
部品1
 48
50.0
100
AcDbCircle
 10
1039.252488151018
 20
3780.698835700843
 30
0.0
 40
5.0
100
AcDbArc
 50
359.9999999999996
 51
89.99999999999911
  0
ARC
  5
136B5
330
747D
100
AcDbEntity
  8
部品1
 48
50.0
100
AcDbCircle
 10
985.2524881510181
 20
3780.698835700845
 30
0.0
 40
5.0
100
AcDbArc
 50
90.0
 51
180.0
  0
LINE
  5
136B6
330
747D
100
AcDbEntity
  8
部品1
 48
50.0
100
AcDbLine
 10
3780.252488151018
 20
3780.69883570088
 30
0.0
 11
3780.252488151015
 21
3488.763437444077
 31
0.0
  0
LINE
  5
136B7
330
747D
100
AcDbEntity
  8
部品1
 48
50.0
100
AcDbLine
 10
3844.252488151018
 20
3780.69883570088
 30
0.0
 11
3844.252488151025
 21
3488.763437444077
 31
0.0
  0
LINE
  5
136B8
330
747D
100
AcDbEntity
  8
部品1
 48
50.0
100
AcDbLine
 10
3839.252488151022
 20
3681.874220858929
 30
0.0
 11
3785.252488151019
 21
3681.87422085893
 31
0.0
  0
LINE
  5
136B9
330
747D
100
AcDbEntity
  8
部品1
 48
50.0
100
AcDbLine
 10
3839.252488151022
 20
3664.263437444077
 30
0.0
 11
3785.252488151019
 21
3664.263437444077
 31
0.0
  0
ARC
  5
136BA
330
747D
100
AcDbEntity
  8
部品1
 48
50.0
100
AcDbCircle
 10
3785.252488151019
 20
3686.874220858931
 30
0.0
 40
5.0
100
AcDbArc
 50
179.9999999999998
 51
269.9999999999991
  0
ARC
  5
136BB
330
747D
100
AcDbEntity
  8
部品1
 48
50.0
100
AcDbCircle
 10
3785.252488151019
 20
3669.263437444077
 30
0.0
 40
5.0
100
AcDbArc
 50
179.9999999999992
 51
269.9999999999992
  0
ARC
  5
136BC
330
747D
100
AcDbEntity
  8
部品1
 48
50.0
100
AcDbCircle
 10
3839.252488151022
 20
3686.874220858928
 30
0.0
 40
5.0
100
AcDbArc
 50
270.0
 51
359.9999999999996
  0
ARC
  5
136BD
330
747D
100
AcDbEntity
  8
部品1
 48
50.0
100
AcDbCircle
 10
3839.252488151022
 20
3669.263437444077
 30
0.0
 40
5.0
100
AcDbArc
 50
269.9999999999991
 51
0.0000000000010305
  0
LINE
  5
136BE
330
747D
100
AcDbEntity
  8
部品1
 48
50.0
100
AcDbLine
 10
3844.252488151018
 20
3488.763437444077
 30
0.0
 11
3780.252488151018
 21
3488.763437444077
 31
0.0
  0
LINE
  5
136BF
330
747D
100
AcDbEntity
  8
細線
 48
50.0
100
AcDbLine
 10
3795.252488151018
 20
3664.263437444077
 30
0.0
 11
3795.252488151014
 21
3488.763437444077
 31
0.0
  0
LINE
  5
136C0
330
747D
100
AcDbEntity
  8
細線
 48
50.0
100
AcDbLine
 10
3800.552488151018
 20
3664.263437444077
 30
0.0
 11
3800.552488151018
 21
3488.763437444077
 31
0.0
  0
LINE
  5
136C1
330
747D
100
AcDbEntity
  8
細線
 48
50.0
100
AcDbLine
 10
3823.952488151023
 20
3664.263437444077
 30
0.0
 11
3823.952488151027
 21
3488.763437444077
 31
0.0
  0
LINE
  5
136C2
330
747D
100
AcDbEntity
  8
細線
 48
50.0
100
AcDbLine
 10
3829.252488151022
 20
3664.263437444077
 30
0.0
 11
3829.252488151026
 21
3488.763437444077
 31
0.0
  0
LINE
  5
136C3
330
747D
100
AcDbEntity
  8
部品1
 48
50.0
100
AcDbLine
 10
3839.252488151018
 20
3785.69883570088
 30
0.0
 11
3785.252488151019
 21
3785.69883570088
 31
0.0
  0
ARC
  5
136C4
330
747D
100
AcDbEntity
  8
部品1
 48
50.0
100
AcDbCircle
 10
3785.252488151019
 20
3780.69883570088
 30
0.0
 40
5.0
100
AcDbArc
 50
90.0
 51
180.0
  0
ARC
  5
136C5
330
747D
100
AcDbEntity
  8
部品1
 48
50.0
100
AcDbCircle
 10
3839.252488151018
 20
3780.69883570088
 30
0.0
 40
5.0
100
AcDbArc
 50
359.9999999999996
 51
89.99999999999911
  0
LINE
  5
136C6
330
747D
100
AcDbEntity
  8
部品1
 48
50.0
100
AcDbLine
 10
3802.252488151022
 20
3818.152536158743
 30
0.0
 11
3802.252488151022
 21
3933.367940889099
 31
0.0
  0
LINE
  5
136C7
330
747D
100
AcDbEntity
  8
部品1
 48
50.0
100
AcDbLine
 10
6582.252486199249
 20
3488.722946888743
 30
0.0
 11
6582.252486199249
 21
1807.978531432178
 31
0.0
  0
LINE
  5
136C8
330
747D
100
AcDbEntity
  8
部品1
 48
50.0
100
AcDbLine
 10
6642.25248619925
 20
3488.722946888743
 30
0.0
 11
6642.25248619925
 21
1807.978531432178
 31
0.0
  0
LINE
  5
136CA
330
747D
100
AcDbEntity
  8
部品1
 48
50.0
100
AcDbLine
 10
5194.752486989635
 20
2117.996936230071
 30
0.0
 11
5194.752486989635
 21
2052.996936230071
 31
0.0
  0
LINE
  5
136CB
330
747D
100
AcDbEntity
  8
部品1
 48
50.0
100
AcDbLine
 10
5229.752486989635
 20
2117.996936230071
 30
0.0
 11
5229.752486989635
 21
2052.996936230071
 31
0.0
  0
LINE
  5
136CE
330
747D
100
AcDbEntity
  8
点線
 48
50.0
100
AcDbLine
 10
6642.25248619925
 20
1807.97853143218
 30
0.0
 11
6642.25248619924
 21
1487.978531432182
 31
0.0
  0
LINE
  5
136CF
330
747D
100
AcDbEntity
  8
点線
 48
50.0
100
AcDbLine
 10
6582.252486199246
 20
1807.97853143218
 30
0.0
 11
6582.252486199267
 21
1487.978531432182
 31
0.0
  0
LINE
  5
136D0
330
747D
100
AcDbEntity
  8
点線
 48
50.0
100
AcDbLine
 10
6582.252486199267
 20
1487.978531432182
 30
0.0
 11
6642.252486199239
 21
1487.978531432182
 31
0.0
  0
LINE
  5
136D4
330
747D
100
AcDbEntity
  8
部品1
 48
50.0
100
AcDbLine
 10
6802.252486199247
 20
1807.978531432178
 30
0.0
 11
6812.252486199246
 21
1797.978531432178
 31
0.0
  0
LINE
  5
136D5
330
747D
100
AcDbEntity
  8
部品1
 48
50.0
100
AcDbLine
 10
6812.252486199246
 20
1797.978531432178
 30
0.0
 11
6812.252486199253
 21
1757.978531432182
 31
0.0
  0
DIMENSION
  5
136D6
330
747D
100
AcDbEntity
  8
寸法
 48
50.0
100
AcDbDimension
  2
*D8
 10
6862.25248619925
 20
4176.986273757392
 30
0.0
 11
6737.25248619925
 21
4176.986273757392
 31
0.0
 70
   160
 71
     5
 42
250.0
  3
INABA_S30G
100
AcDbAlignedDimension
 13
6612.25248619925
 23
3785.658345145546
 33
0.0
 14
6862.25248619925
 24
3933.327450333766
 34
0.0
100
AcDbRotatedDimension
  0
LINE
  5
136D7
330
747D
100
AcDbEntity
  8
部品1
 48
50.0
100
AcDbLine
 10
6706.65274683466
 20
3678.200054289862
 30
0.0
 11
6766.655156336186
 21
3703.190413681447
 31
0.0
  0
LINE
  5
136D8
330
747D
100
AcDbEntity
  8
部品1
 48
50.0
100
AcDbLine
 10
6644.252486199254
 20
3780.658345145545
 30
0.0
 11
6644.252486199256
 21
3488.722946888742
 31
0.0
  0
LINE
  5
136D9
330
747D
100
AcDbEntity
  8
部品1
 48
50.0
100
AcDbLine
 10
6580.252486199249
 20
3780.658345145547
 30
0.0
 11
6580.252486199246
 21
3488.722946888743
 31
0.0
  0
ARC
  5
136DA
330
747D
100
AcDbEntity
  8
部品1
 48
50.0
100
AcDbCircle
 10
6639.252486199254
 20
3669.222946888742
 30
0.0
 40
5.0
100
AcDbArc
 50
269.9999999999991
 51
0.0000000000010305
  0
ARC
  5
136DB
330
747D
100
AcDbEntity
  8
部品1
 48
50.0
100
AcDbCircle
 10
6639.252486199254
 20
3686.833730303594
 30
0.0
 40
5.0
100
AcDbArc
 50
270.0
 51
359.9999999999996
  0
ARC
  5
136DC
330
747D
100
AcDbEntity
  8
部品1
 48
50.0
100
AcDbCircle
 10
6585.252486199249
 20
3669.222946888743
 30
0.0
 40
5.0
100
AcDbArc
 50
179.9999999999992
 51
269.9999999999992
  0
ARC
  5
136DD
330
747D
100
AcDbEntity
  8
部品1
 48
50.0
100
AcDbCircle
 10
6585.252486199249
 20
3686.833730303595
 30
0.0
 40
5.0
100
AcDbArc
 50
179.9999999999998
 51
269.9999999999991
  0
LINE
  5
136DE
330
747D
100
AcDbEntity
  8
部品1
 48
50.0
100
AcDbLine
 10
6639.252486199254
 20
3664.222946888742
 30
0.0
 11
6585.252486199249
 21
3664.222946888744
 31
0.0
  0
LINE
  5
136DF
330
747D
100
AcDbEntity
  8
部品1
 48
50.0
100
AcDbLine
 10
6639.252486199254
 20
3681.833730303593
 30
0.0
 11
6585.252486199249
 21
3681.833730303595
 31
0.0
  0
LINE
  5
136E0
330
747D
100
AcDbEntity
  8
部品1
 48
50.0
100
AcDbLine
 10
6706.65274683466
 20
3678.200054289862
 30
0.0
 11
6644.252486199256
 21
3678.190413681447
 31
0.0
  0
LINE
  5
136E1
330
747D
100
AcDbEntity
  8
部品1
 48
50.0
100
AcDbLine
 10
6644.252486199249
 20
3488.722946888742
 30
0.0
 11
6580.252486199249
 21
3488.722946888743
 31
0.0
  0
LINE
  5
136E2
330
747D
100
AcDbEntity
  8
細線
 48
50.0
100
AcDbLine
 10
6629.252486199253
 20
3664.222946888744
 30
0.0
 11
6629.252486199257
 21
3488.722946888743
 31
0.0
  0
LINE
  5
136E3
330
747D
100
AcDbEntity
  8
細線
 48
50.0
100
AcDbLine
 10
6623.952486199254
 20
3664.222946888744
 30
0.0
 11
6623.952486199257
 21
3488.722946888743
 31
0.0
  0
LINE
  5
136E4
330
747D
100
AcDbEntity
  8
細線
 48
50.0
100
AcDbLine
 10
6600.552486199248
 20
3664.222946888744
 30
0.0
 11
6600.552486199248
 21
3488.722946888743
 31
0.0
  0
LINE
  5
136E5
330
747D
100
AcDbEntity
  8
細線
 48
50.0
100
AcDbLine
 10
6595.25248619925
 20
3664.222946888744
 30
0.0
 11
6595.252486199246
 21
3488.722946888743
 31
0.0
  0
LINE
  5
136E6
330
747D
100
AcDbEntity
  8
部品1
 48
50.0
100
AcDbLine
 10
6706.659528323242
 20
3748.543006274069
 30
0.0
 11
6766.661937824768
 21
3773.533365665653
 31
0.0
  0
LINE
  5
136E7
330
747D
100
AcDbEntity
  8
部品1
 48
50.0
100
AcDbLine
 10
6706.656137114245
 20
3713.366709977758
 30
0.0
 11
6766.65854661577
 21
3738.357069369342
 31
0.0
  0
LINE
  5
136E8
330
747D
100
AcDbEntity
  8
部品1
 48
50.0
100
AcDbLine
 10
6706.663106467742
 20
3785.658345145544
 30
0.0
 11
6766.665515969268
 21
3810.64870453713
 31
0.0
  0
ARC
  5
136E9
330
747D
100
AcDbEntity
  8
部品1
 48
50.0
100
AcDbCircle
 10
6639.252486199254
 20
3780.658345145545
 30
0.0
 40
5.0
100
AcDbArc
 50
359.9999999999996
 51
89.99999999999911
  0
ARC
  5
136EA
330
747D
100
AcDbEntity
  8
部品1
 48
50.0
100
AcDbCircle
 10
6585.252486199249
 20
3780.658345145547
 30
0.0
 40
5.0
100
AcDbArc
 50
90.0
 51
180.0
  0
LINE
  5
136EB
330
747D
100
AcDbEntity
  8
部品1
 48
50.0
100
AcDbLine
 10
6639.252486199254
 20
3785.658345145544
 30
0.0
 11
6585.252486199249
 21
3785.658345145546
 31
0.0
  0
LINE
  5
136EC
330
747D
100
AcDbEntity
  8
部品1
 48
50.0
100
AcDbLine
 10
6706.659528323242
 20
3748.543006274069
 30
0.0
 11
6644.252486199256
 21
3748.543006274069
 31
0.0
  0
LINE
  5
136ED
330
747D
100
AcDbEntity
  8
部品1
 48
50.0
100
AcDbLine
 10
6706.656137114248
 20
3713.366709977758
 30
0.0
 11
6644.252486199256
 21
3713.366709977756
 31
0.0
  0
LINE
  5
136EE
330
747D
100
AcDbEntity
  8
部品1
 48
50.0
100
AcDbLine
 10
6639.252486199254
 20
3785.658345145544
 30
0.0
 11
6706.663106467742
 21
3785.658345145544
 31
0.0
  0
LINE
  5
136EF
330
747D
100
AcDbEntity
  8
部品1
 48
50.0
100
AcDbLine
 10
6806.666235666638
 20
3818.11204560341
 30
0.0
 11
6806.654065834456
 21
3691.876940902288
 31
0.0
  0
LINE
  5
136F0
330
747D
100
AcDbEntity
  8
部品1
 48
50.0
100
AcDbLine
 10
6861.663865684033
 20
3793.52871545399
 30
0.0
 11
6857.7921870253
 21
3704.313310723634
 31
0.0
  0
LINE
  5
136F1
330
747D
100
AcDbEntity
  8
部品1
 48
50.0
100
AcDbLine
 10
6844.804411194866
 20
3691.87694090229
 30
0.0
 11
6806.654065834456
 21
3691.87694090229
 31
0.0
  0
ARC
  5
136F2
330
747D
100
AcDbEntity
  8
部品1
 48
50.0
100
AcDbCircle
 10
6844.804411194866
 20
3704.87694090229
 30
0.0
 40
13.0
100
AcDbArc
 50
270.0
 51
357.5150956634288
  0
LINE
  5
136F3
330
747D
100
AcDbEntity
  8
部品1
 48
50.0
100
AcDbLine
 10
6806.652746369957
 20
3703.190413681447
 30
0.0
 11
6766.655156336186
 21
3703.190413681447
 31
0.0
  0
LINE
  5
136F4
330
747D
100
AcDbEntity
  8
部品1
 48
50.0
100
AcDbLine
 10
6806.65613664954
 20
3738.357069369342
 30
0.0
 11
6766.65854661577
 21
3738.357069369342
 31
0.0
  0
ARC
  5
136F5
330
747D
100
AcDbEntity
  8
部品1
 48
50.0
100
AcDbCircle
 10
6844.804411194866
 20
3831.11204560341
 30
0.0
 40
13.0
100
AcDbArc
 50
270.0
 51
357.5150956634288
  0
LINE
  5
136F6
330
747D
100
AcDbEntity
  8
部品1
 48
50.0
100
AcDbLine
 10
6861.676089853597
 20
3920.327450333765
 30
0.0
 11
6861.663865684033
 21
3793.52871545399
 31
0.0
  0
LINE
  5
136F7
330
747D
100
AcDbEntity
  8
部品1
 48
50.0
100
AcDbLine
 10
6861.663865684033
 20
3919.763820155107
 30
0.0
 11
6857.7921870253
 21
3830.548415424754
 31
0.0
  0
LINE
  5
136F8
330
747D
100
AcDbEntity
  8
部品1
 48
50.0
100
AcDbLine
 10
6806.659527858534
 20
3773.533365665653
 30
0.0
 11
6766.661937824768
 21
3773.533365665653
 31
0.0
  0
LINE
  5
136F9
330
747D
100
AcDbEntity
  8
部品1
 48
50.0
100
AcDbLine
 10
6806.663106003035
 20
3810.64870453713
 30
0.0
 11
6766.665515969268
 21
3810.64870453713
 31
0.0
  0
LINE
  5
136FA
330
747D
100
AcDbEntity
  8
部品1
 48
50.0
100
AcDbLine
 10
6839.252486199249
 20
3933.327450333762
 30
0.0
 11
6839.252486199249
 21
3818.11204560341
 31
0.0
  0
ARC
  5
136FB
330
747D
100
AcDbEntity
  8
部品1
 48
50.0
100
AcDbCircle
 10
6848.676089853597
 20
3920.327450333765
 30
0.0
 40
13.0
100
AcDbArc
 50
357.515095663427
 51
90.0
  0
ARC
  5
136FC
330
747D
100
AcDbEntity
  8
部品1
 48
50.0
100
AcDbCircle
 10
777.2524881510162
 20
7794.606999670107
 30
0.0
 40
15.0
100
AcDbArc
 50
90.0
 51
180.0
  0
LINE
  5
136FD
330
747D
100
AcDbEntity
  8
部品1
 48
50.0
100
AcDbLine
 10
762.2524881510162
 20
7786.606999670107
 30
0.0
 11
807.2524881510162
 21
7786.606999670111
 31
0.0
  0
DIMENSION
  5
136FE
330
747D
100
AcDbEntity
  8
寸法
 48
50.0
100
AcDbDimension
  2
*D9
 10
441.5805443184757
 20
7572.60699967011
 30
0.0
 11
441.5805443184744
 21
7691.106999670108
 31
0.0
 70
   160
 71
     5
 42
236.9999999999973
  3
INABA_S30G
100
AcDbAlignedDimension
 13
777.2524881510162
 23
7809.606999670108
 33
0.0
 14
692.2524881510199
 24
7572.60699967011
 34
0.0
 50
90.0
100
AcDbRotatedDimension
  0
DIMENSION
  5
13700
330
747D
100
AcDbEntity
  8
寸法
 48
50.0
100
AcDbDimension
  2
*D10
 10
441.5805443184744
 20
6088.606999670115
 30
0.0
 11
366.571686050757
 21
6459.606999670114
 31
0.0
 70
    32
 71
     5
 42
742.0
  3
INABA_S30G
100
AcDbAlignedDimension
 13
692.2524881510199
 23
6830.606999670114
 33
0.0
 14
692.2524881510199
 24
6088.606999670115
 34
0.0
 50
90.0
100
AcDbRotatedDimension
  0
LINE
  5
13701
330
747D
100
AcDbEntity
  8
部品1
 48
50.0
100
AcDbLine
 10
785.2524881510162
 20
5132.606999670116
 30
0.0
 11
762.2524881510162
 21
5132.606999670112
 31
0.0
  0
ARC
  5
13702
330
747D
100
AcDbEntity
  8
部品1
 48
50.0
100
AcDbCircle
 10
777.2524881510162
 20
5124.606999670115
 30
0.0
 40
15.0
100
AcDbArc
 50
180.0
 51
270.0
  0
DIMENSION
  5
13703
330
747D
100
AcDbEntity
  8
寸法
 48
50.0
100
AcDbDimension
  2
*D11
 10
441.5805443184752
 20
5109.606999670115
 30
0.0
 11
441.5805443184744
 21
5228.106999670115
 31
0.0
 70
   160
 71
     5
 42
237.0000000000027
  3
INABA_S30G
100
AcDbAlignedDimension
 13
692.2524881510162
 23
5346.606999670118
 33
0.0
 14
777.2524881510162
 24
5109.606999670115
 34
0.0
 50
90.0
100
AcDbRotatedDimension
  0
DIMENSION
  5
13704
330
747D
100
AcDbEntity
  8
寸法
 48
50.0
100
AcDbDimension
  2
*D12
 10
441.5805443184744
 20
5346.606999670118
 30
0.0
 11
366.5716860507571
 21
5717.606999670117
 31
0.0
 70
    32
 71
     5
 42
741.9999999999963
  3
INABA_S30G
100
AcDbAlignedDimension
 13
692.2524881510199
 23
6088.606999670115
 33
0.0
 14
692.2524881510162
 24
5346.606999670118
 34
0.0
 50
90.0
100
AcDbRotatedDimension
  0
DIMENSION
  5
13705
330
747D
100
AcDbEntity
  8
寸法
 48
50.0
100
AcDbDimension
  2
*D13
 10
441.5805443184744
 20
6830.606999670114
 30
0.0
 11
366.5716860507568
 21
7201.606999670111
 31
0.0
 70
    32
 71
     5
 42
741.9999999999954
  3
INABA_S30G
100
AcDbAlignedDimension
 13
692.2524881510199
 23
7572.60699967011
 33
0.0
 14
692.2524881510199
 24
6830.606999670114
 34
0.0
 50
90.0
100
AcDbRotatedDimension
  0
LINE
  5
13706
330
747D
100
AcDbEntity
  8
部品1
 48
50.0
100
AcDbLine
 10
762.2524881510162
 20
7794.606999670107
 30
0.0
 11
762.2524881510162
 21
5124.606999670115
 31
0.0
  0
LINE
  5
13707
330
747D
100
AcDbEntity
  8
点線
 48
50.0
100
AcDbLine
 10
3531.903198517821
 20
7615.106999670118
 30
0.0
 11
6832.252488151015
 21
7615.106999670111
 31
0.0
  0
LINE
  5
13708
330
747D
100
AcDbEntity
  8
点線
 48
50.0
100
AcDbLine
 10
3549.319896025847
 20
7550.106999670117
 30
0.0
 11
6832.252488151015
 21
7550.10699967011
 31
0.0
  0
TEXT
  5
1370B
330
747D
100
AcDbEntity
  8
仕様書枠
 62
     7
 48
50.0
100
AcDbText
 10
3514.917921307971
 20
4756.429387508238
 30
0.0
 40
112.0
  1
平 面 図
  7
STYLE2
100
AcDbText
  0
LWPOLYLINE
  5
1370C
330
747D
100
AcDbEntity
  8
部品1
100
AcDbPolyline
 90
        4
 70
     1
 43
0.0
 10
3483.502844546439
 20
4910.29411185842
 10
4130.534219826965
 20
4910.29411185842
 10
4130.534219826965
 20
4717.77395604128
 10
3483.502844546439
 20
4717.77395604128
  0
LINE
  5
1370D
330
747D
100
AcDbEntity
  8
部品1
 48
50.0
100
AcDbLine
 10
3847.120716907039
 20
6438.699205605789
 30
0.0
 11
4243.442279018672
 21
4959.606999670115
 31
0.0
  0
LINE
  5
1370E
330
747D
100
AcDbEntity
  8
点線
 48
50.0
100
AcDbLine
 10
3730.721499301717
 20
6873.106999670119
 30
0.0
 11
6832.252488151015
 21
6873.106999670108
 31
0.0
  0
LINE
  5
1370F
330
747D
100
AcDbEntity
  8
点線
 48
50.0
100
AcDbLine
 10
3748.13819680974
 20
6808.106999670119
 30
0.0
 11
6832.252488151015
 21
6808.106999670112
 31
0.0
  0
LINE
  5
13710
330
747D
100
AcDbEntity
  8
点線
 48
50.0
100
AcDbLine
 10
3929.53980008561
 20
6131.106999670119
 30
0.0
 11
6832.252488151017
 21
6131.106999670116
 31
0.0
  0
LINE
  5
13711
330
747D
100
AcDbEntity
  8
点線
 48
50.0
100
AcDbLine
 10
3946.956497593632
 20
6066.106999670119
 30
0.0
 11
6832.252488151015
 21
6066.106999670111
 31
0.0
  0
LINE
  5
13714
330
747D
100
AcDbEntity
  8
部品1
 48
50.0
100
AcDbLine
 10
832.2524881510162
 20
5369.106999670115
 30
0.0
 11
4133.717084718126
 21
5369.106999670118
 31
0.0
  0
LINE
  5
13715
330
747D
100
AcDbEntity
  8
部品1
 48
50.0
100
AcDbLine
 10
832.2524881510162
 20
5324.106999670116
 30
0.0
 11
4145.774798377527
 21
5324.106999670118
 31
0.0
  0
LINE
  5
13716
330
747D
100
AcDbEntity
  8
部品1
 48
50.0
100
AcDbLine
 10
832.2524881510162
 20
5389.106999670111
 30
0.0
 11
4128.358100869504
 21
5389.106999670116
 31
0.0
  0
LINE
  5
13717
330
747D
100
AcDbEntity
  8
部品1
 48
50.0
100
AcDbLine
 10
982.2524881510183
 20
6808.106999670108
 30
0.0
 11
982.2524881510183
 21
6131.106999670112
 31
0.0
  0
LINE
  5
13718
330
747D
100
AcDbEntity
  8
部品1
 48
50.0
100
AcDbLine
 10
1042.252488151018
 20
6808.106999670108
 30
0.0
 11
1042.252488151018
 21
6131.106999670112
 31
0.0
  0
LINE
  5
13719
330
747D
100
AcDbEntity
  8
部品1
 48
50.0
100
AcDbLine
 10
807.2524881510162
 20
7790.106999670107
 30
0.0
 11
807.2524881510162
 21
5159.606999670115
 31
0.0
  0
LINE
  5
1371A
330
747D
100
AcDbEntity
  8
部品1
 48
50.0
100
AcDbLine
 10
832.2524881510162
 20
7685.606999670111
 30
0.0
 11
832.2524881510162
 21
5179.606999670112
 31
0.0
  0
LINE
  5
1371B
330
747D
100
AcDbEntity
  8
部品1
 48
50.0
100
AcDbLine
 10
3782.25248815102
 20
7685.606999670118
 30
0.0
 11
3782.252488151016
 21
6643.470223044584
 31
0.0
  0
LINE
  5
1371C
330
747D
100
AcDbEntity
  8
部品1
 48
50.0
100
AcDbLine
 10
3950.752488151016
 20
7685.606999670118
 30
0.0
 11
3950.752488151016
 21
6051.940170044908
 31
0.0
  0
LINE
  5
1371D
330
747D
100
AcDbEntity
  8
部品1
 48
50.0
100
AcDbLine
 10
3973.752488151016
 20
7685.606999670118
 30
0.0
 11
3973.752488151016
 21
5966.103001470827
 31
0.0
  0
LINE
  5
1371E
330
747D
100
AcDbEntity
  8
部品1
 48
50.0
100
AcDbLine
 10
3842.25248815102
 20
7685.606999670118
 30
0.0
 11
3842.25248815102
 21
6498.209906351236
 31
0.0
  0
LINE
  5
1371F
330
747D
100
AcDbEntity
  8
部品1
 48
50.0
100
AcDbLine
 10
3439.5947017253
 20
7959.606999670114
 30
0.0
 11
3816.734908271911
 21
6552.100587261164
 31
0.0
  0
LINE
  5
13720
330
747D
100
AcDbEntity
  8
部品1
 48
50.0
100
AcDbLine
 10
3950.752488151016
 20
7685.606999670111
 30
0.0
 11
3950.752488151016
 21
6051.940170044908
 31
0.0
  0
LINE
  5
13721
330
747D
100
AcDbEntity
  8
部品1
 48
50.0
100
AcDbLine
 10
3973.752488151016
 20
7685.606999670111
 30
0.0
 11
3973.752488151016
 21
5966.103001470823
 31
0.0
  0
LINE
  5
13722
330
747D
100
AcDbEntity
  8
部品1
 48
50.0
100
AcDbLine
 10
832.2524881510162
 20
6066.106999670115
 30
0.0
 11
3946.956497593632
 21
6066.106999670123
 31
0.0
  0
LINE
  5
13723
330
747D
100
AcDbEntity
  8
部品1
 48
50.0
100
AcDbLine
 10
832.2524881510162
 20
6111.106999670112
 30
0.0
 11
3934.898783934232
 21
6111.106999670119
 31
0.0
  0
LINE
  5
13724
330
747D
100
AcDbEntity
  8
部品1
 48
50.0
100
AcDbLine
 10
832.2524881510162
 20
6131.106999670112
 30
0.0
 11
3929.53980008561
 21
6131.106999670119
 31
0.0
  0
LINE
  5
13725
330
747D
100
AcDbEntity
  8
部品1
 48
50.0
100
AcDbLine
 10
1042.252488151018
 20
6066.106999670111
 30
0.0
 11
1042.252488151018
 21
5389.106999670111
 31
0.0
  0
LINE
  5
13726
330
747D
100
AcDbEntity
  8
部品1
 48
50.0
100
AcDbLine
 10
982.2524881510183
 20
6066.106999670111
 30
0.0
 11
982.2524881510183
 21
5389.106999670111
 31
0.0
  0
LINE
  5
13727
330
747D
100
AcDbEntity
  8
部品1
 48
50.0
100
AcDbLine
 10
807.2524881510162
 20
5159.606999670112
 30
0.0
 11
790.2524881510162
 21
5159.606999670112
 31
0.0
  0
ARC
  5
13728
330
747D
100
AcDbEntity
  8
部品1
 48
50.0
100
AcDbCircle
 10
790.2524881510162
 20
5154.606999670112
 30
0.0
 40
5.0
100
AcDbArc
 50
90.00000000000003
 51
180.0
  0
LINE
  5
13729
330
747D
100
AcDbEntity
  8
部品1
 48
50.0
100
AcDbLine
 10
785.2524881510162
 20
5154.606999670112
 30
0.0
 11
785.2524881510162
 21
5109.606999670108
 31
0.0
  0
INSERT
  5
1372A
330
747D
100
AcDbEntity
  8
部品1
 48
50.0
100
AcDbBlockReference
  2
A$C644A28E3
 10
980.2524955425909
 20
5279.106997954477
 30
0.0
  0
LINE
  5
1372B
330
747D
100
AcDbEntity
  8
点線
 48
6.0
100
AcDbLine
 10
792.2524881510162
 20
5389.106999670115
 30
0.0
 11
792.2524881510162
 21
5324.106999670112
 31
0.0
  0
LINE
  5
1372C
330
747D
100
AcDbEntity
  8
点線
 48
6.0
100
AcDbLine
 10
792.2524881510199
 20
5324.106999670116
 30
0.0
 11
832.2524881510162
 21
5324.106999670116
 31
0.0
  0
LINE
  5
1372D
330
747D
100
AcDbEntity
  8
点線
 48
6.0
100
AcDbLine
 10
792.2524881510199
 20
5389.106999670111
 30
0.0
 11
832.2524881510162
 21
5389.106999670111
 31
0.0
  0
LINE
  5
13730
330
747D
100
AcDbEntity
  8
点線
 48
6.0
100
AcDbLine
 10
792.2524881510162
 20
6131.106999670116
 30
0.0
 11
792.2524881510162
 21
6066.106999670111
 31
0.0
  0
LINE
  5
13731
330
747D
100
AcDbEntity
  8
点線
 48
6.0
100
AcDbLine
 10
792.2524881510199
 20
6066.106999670115
 30
0.0
 11
832.2524881510162
 21
6066.106999670115
 31
0.0
  0
LINE
  5
13732
330
747D
100
AcDbEntity
  8
点線
 48
6.0
100
AcDbLine
 10
792.2524881510199
 20
6131.106999670112
 30
0.0
 11
832.2524881510162
 21
6131.106999670112
 31
0.0
  0
LINE
  5
13733
330
747D
100
AcDbEntity
  8
部品1
 48
50.0
100
AcDbLine
 10
3842.25248815102
 20
6066.106999670119
 30
0.0
 11
3842.252488151017
 21
5389.106999670119
 31
0.0
  0
LINE
  5
13734
330
747D
100
AcDbEntity
  8
部品1
 48
50.0
100
AcDbLine
 10
3782.25248815102
 20
6066.106999670119
 30
0.0
 11
3782.25248815102
 21
5389.106999670119
 31
0.0
  0
LINE
  5
13735
330
747D
100
AcDbEntity
  8
部品1
 48
50.0
100
AcDbLine
 10
3802.252488151017
 20
5109.606999670109
 30
0.0
 11
3802.252488151017
 21
5179.606999670108
 31
0.0
  0
LINE
  5
13736
330
747D
100
AcDbEntity
  8
部品1
 48
50.0
100
AcDbLine
 10
3802.252488151017
 20
5109.606999670115
 30
0.0
 11
3802.252488151017
 21
5179.606999670112
 31
0.0
  0
INSERT
  5
13737
330
747D
100
AcDbEntity
  8
部品1
 48
50.0
100
AcDbBlockReference
  2
A$C644A28E3
 10
3780.252495542589
 20
5279.106997954484
 30
0.0
  0
LINE
  5
13738
330
747D
100
AcDbEntity
  8
点線
 48
6.0
100
AcDbLine
 10
3782.25248815102
 20
5389.106999670119
 30
0.0
 11
3782.25248815102
 21
5324.106999670119
 31
0.0
  0
LINE
  5
13739
330
747D
100
AcDbEntity
  8
点線
 48
6.0
100
AcDbLine
 10
3842.252488151017
 20
5389.106999670119
 30
0.0
 11
3842.25248815102
 21
5324.106999670119
 31
0.0
  0
LINE
  5
1373A
330
747D
100
AcDbEntity
  8
点線
 48
6.0
100
AcDbLine
 10
3782.25248815102
 20
6131.106999670119
 30
0.0
 11
3782.25248815102
 21
6066.106999670119
 31
0.0
  0
LINE
  5
1373B
330
747D
100
AcDbEntity
  8
点線
 48
6.0
100
AcDbLine
 10
3842.25248815102
 20
6131.106999670119
 30
0.0
 11
3842.25248815102
 21
6066.106999670119
 31
0.0
  0
LINE
  5
1373C
330
747D
100
AcDbEntity
  8
部品1
 48
50.0
100
AcDbLine
 10
3782.25248815102
 20
6498.209906351232
 30
0.0
 11
3782.25248815102
 21
6131.106999670119
 31
0.0
  0
LINE
  5
1373D
330
747D
100
AcDbEntity
  8
部品1
 48
50.0
100
AcDbLine
 10
3842.25248815102
 20
6498.209906351236
 30
0.0
 11
3842.25248815102
 21
6131.106999670119
 31
0.0
  0
LINE
  5
1373E
330
747D
100
AcDbEntity
  8
部品1
 48
50.0
100
AcDbLine
 10
3723.393510881435
 20
6498.209906351232
 30
0.0
 11
3950.196274192184
 21
6498.209906351236
 31
0.0
  0
LINE
  5
1373F
330
747D
100
AcDbEntity
  8
部品1
 48
50.0
100
AcDbLine
 10
3847.120716907039
 20
6438.699205605786
 30
0.0
 11
3950.196274192184
 21
6498.209906351236
 31
0.0
  0
LINE
  5
13740
330
747D
100
AcDbEntity
  8
部品1
 48
50.0
100
AcDbLine
 10
3723.393510881432
 20
6498.209906351236
 30
0.0
 11
3816.734908271911
 21
6552.100587261164
 31
0.0
  0
LINE
  5
13741
330
747D
100
AcDbEntity
  8
部品1
 48
50.0
100
AcDbLine
 10
3782.252488151016
 20
6643.470223044584
 30
0.0
 11
3782.25248815102
 21
6498.209906351232
 31
0.0
  0
LINE
  5
13742
330
747D
100
AcDbEntity
  8
部品1
 48
50.0
100
AcDbLine
 10
3842.25248815102
 20
6441.662035114918
 30
0.0
 11
3842.25248815102
 21
6419.547174590443
 31
0.0
  0
LINE
  5
13743
330
747D
100
AcDbEntity
  8
部品1
 48
50.0
100
AcDbLine
 10
832.2524881510162
 20
7595.106999670115
 30
0.0
 11
3537.262182366443
 21
7595.106999670122
 31
0.0
  0
LINE
  5
13744
330
747D
100
AcDbEntity
  8
部品1
 48
50.0
100
AcDbLine
 10
832.2524881510162
 20
7615.106999670107
 30
0.0
 11
3531.903198517821
 21
7615.106999670122
 31
0.0
  0
LINE
  5
13745
330
747D
100
AcDbEntity
  8
部品1
 48
50.0
100
AcDbLine
 10
832.2524881510162
 20
7550.10699967011
 30
0.0
 11
3549.319896025846
 21
7550.106999670115
 31
0.0
  0
LINE
  5
13746
330
747D
100
AcDbEntity
  8
部品1
 48
50.0
100
AcDbLine
 10
832.2524881510162
 20
6873.106999670112
 30
0.0
 11
3730.721499301719
 21
6873.106999670113
 31
0.0
  0
LINE
  5
13747
330
747D
100
AcDbEntity
  8
部品1
 48
50.0
100
AcDbLine
 10
832.2524881510162
 20
6853.106999670115
 30
0.0
 11
3736.08048315034
 21
6853.106999670117
 31
0.0
  0
LINE
  5
13748
330
747D
100
AcDbEntity
  8
部品1
 48
50.0
100
AcDbLine
 10
832.2524881510162
 20
6808.106999670116
 30
0.0
 11
3748.138196809742
 21
6808.106999670117
 31
0.0
  0
LINE
  5
13749
330
747D
100
AcDbEntity
  8
部品1
 48
50.0
100
AcDbLine
 10
1042.252488151018
 20
7550.10699967011
 30
0.0
 11
1042.252488151018
 21
6873.106999670112
 31
0.0
  0
LINE
  5
1374A
330
747D
100
AcDbEntity
  8
部品1
 48
50.0
100
AcDbLine
 10
982.2524881510183
 20
7550.10699967011
 30
0.0
 11
982.2524881510183
 21
6873.106999670112
 31
0.0
  0
LINE
  5
1374B
330
747D
100
AcDbEntity
  8
点線
 48
6.0
100
AcDbLine
 10
792.2524881510199
 20
6873.106999670112
 30
0.0
 11
832.2524881510162
 21
6873.106999670112
 31
0.0
  0
LINE
  5
1374C
330
747D
100
AcDbEntity
  8
点線
 48
6.0
100
AcDbLine
 10
792.2524881510199
 20
6808.106999670116
 30
0.0
 11
832.2524881510162
 21
6808.106999670116
 31
0.0
  0
LINE
  5
1374D
330
747D
100
AcDbEntity
  8
点線
 48
6.0
100
AcDbLine
 10
792.2524881510199
 20
6873.106999670108
 30
0.0
 11
792.2524881510162
 21
6808.106999670112
 31
0.0
  0
LINE
  5
13750
330
747D
100
AcDbEntity
  8
点線
 48
6.0
100
AcDbLine
 10
792.2524881510199
 20
7550.10699967011
 30
0.0
 11
792.2524881510199
 21
7615.106999670111
 31
0.0
  0
LINE
  5
13751
330
747D
100
AcDbEntity
  8
点線
 48
6.0
100
AcDbLine
 10
792.2524881510199
 20
7550.10699967011
 30
0.0
 11
832.2524881510162
 21
7550.10699967011
 31
0.0
  0
LINE
  5
13752
330
747D
100
AcDbEntity
  8
部品1
 48
50.0
100
AcDbLine
 10
990.2524881510183
 20
7640.106999670106
 30
0.0
 11
1034.252488151018
 21
7640.106999670104
 31
0.0
  0
LINE
  5
13753
330
747D
100
AcDbEntity
  8
部品1
 48
50.0
100
AcDbLine
 10
785.2524881510162
 20
7790.106999670107
 30
0.0
 11
807.2524881510162
 21
7790.106999670107
 31
0.0
  0
LINE
  5
13754
330
747D
100
AcDbEntity
  8
部品1
 48
50.0
100
AcDbLine
 10
785.2524881510162
 20
7809.606999670108
 30
0.0
 11
785.2524881510162
 21
7786.606999670111
 31
0.0
  0
LINE
  5
13755
330
747D
100
AcDbEntity
  8
部品1
 48
50.0
100
AcDbLine
 10
980.2524881510182
 20
7615.106999670107
 30
0.0
 11
980.2524881510182
 21
7630.106999670108
 31
0.0
  0
LINE
  5
13756
330
747D
100
AcDbEntity
  8
点線
 48
6.0
100
AcDbLine
 10
792.2524881510199
 20
7615.106999670107
 30
0.0
 11
832.2524881510162
 21
7615.106999670107
 31
0.0
  0
ARC
  5
13757
330
747D
100
AcDbEntity
  8
部品1
 48
50.0
100
AcDbCircle
 10
990.2524881510183
 20
7630.106999670108
 30
0.0
 40
10.0
100
AcDbArc
 50
90.0
 51
180.0
  0
ARC
  5
13758
330
747D
100
AcDbEntity
  8
部品1
 48
50.0
100
AcDbCircle
 10
1034.252488151018
 20
7630.106999670103
 30
0.0
 40
10.0
100
AcDbArc
 50
0.0
 51
90.0
  0
LINE
  5
13759
330
747D
100
AcDbEntity
  8
部品1
 48
50.0
100
AcDbLine
 10
1044.252488151018
 20
7615.106999670107
 30
0.0
 11
1044.252488151018
 21
7630.106999670103
 31
0.0
  0
LINE
  5
1375A
330
747D
100
AcDbEntity
  8
部品1
 48
50.0
100
AcDbLine
 10
3693.752488151016
 20
7685.606999670118
 30
0.0
 11
3693.752488151016
 21
7011.077227590114
 31
0.0
  0
LINE
  5
1375B
330
747D
100
AcDbEntity
  8
部品1
 48
50.0
100
AcDbLine
 10
3670.752488151016
 20
7685.606999670118
 30
0.0
 11
3670.752488151016
 21
7096.914396164196
 31
0.0
  0
ARC
  5
1375C
330
747D
100
AcDbEntity
  8
点線
 48
50.0
100
AcDbCircle
 10
3834.252488151017
 20
7630.106999670111
 30
0.0
 40
10.0
100
AcDbArc
 50
0.0
 51
90.0
  0
LINE
  5
1375D
330
747D
100
AcDbEntity
  8
部品1
 48
50.0
100
AcDbLine
 10
3822.252488151016
 20
7685.606999670106
 30
0.0
 11
3822.252488151016
 21
7809.606999670103
 31
0.0
  0
LINE
  5
1375E
330
747D
100
AcDbEntity
  8
部品1
 48
50.0
100
AcDbLine
 10
3822.252488151016
 20
7685.606999670111
 30
0.0
 11
3822.252488151016
 21
7809.60699967011
 31
0.0
  0
LINE
  5
1375F
330
747D
100
AcDbEntity
  8
点線
 48
50.0
100
AcDbLine
 10
3790.252488151016
 20
7640.106999670114
 30
0.0
 11
3834.252488151017
 21
7640.106999670111
 31
0.0
  0
LINE
  5
13760
330
747D
100
AcDbEntity
  8
点線
 48
50.0
100
AcDbLine
 10
3780.252488151017
 20
7615.106999670114
 30
0.0
 11
3780.252488151017
 21
7630.106999670115
 31
0.0
  0
ARC
  5
13761
330
747D
100
AcDbEntity
  8
点線
 48
50.0
100
AcDbCircle
 10
3790.252488151016
 20
7630.106999670115
 30
0.0
 40
10.0
100
AcDbArc
 50
90.0
 51
180.0
  0
LINE
  5
13762
330
747D
100
AcDbEntity
  8
点線
 48
50.0
100
AcDbLine
 10
3844.252488151016
 20
7615.106999670114
 30
0.0
 11
3844.252488151016
 21
7630.106999670111
 31
0.0
  0
LINE
  5
13763
330
747D
100
AcDbEntity
  8
部品1
 48
50.0
100
AcDbLine
 10
5210.752488151014
 20
7685.606999670111
 30
0.0
 11
5210.752488151014
 21
5179.606999670116
 31
0.0
  0
LINE
  5
13764
330
747D
100
AcDbEntity
  8
部品1
 48
50.0
100
AcDbLine
 10
5233.752488151015
 20
7685.606999670111
 30
0.0
 11
5233.752488151015
 21
5179.606999670116
 31
0.0
  0
LINE
  5
13765
330
747D
100
AcDbEntity
  8
部品1
 48
50.0
100
AcDbLine
 10
5500.252488151015
 20
7685.606999670111
 30
0.0
 11
5500.252488151015
 21
5179.606999670112
 31
0.0
  0
LINE
  5
13766
330
747D
100
AcDbEntity
  8
部品1
 48
50.0
100
AcDbLine
 10
5455.252488151014
 20
7685.606999670111
 30
0.0
 11
5455.252488151014
 21
5179.606999670112
 31
0.0
  0
LINE
  5
13767
330
747D
100
AcDbEntity
  8
部品1
 48
50.0
100
AcDbLine
 10
5427.252488151014
 20
7685.606999670111
 30
0.0
 11
5427.252488151014
 21
5179.606999670112
 31
0.0
  0
LINE
  5
13768
330
747D
100
AcDbEntity
  8
部品1
 48
50.0
100
AcDbLine
 10
5382.252488151014
 20
7685.606999670111
 30
0.0
 11
5382.252488151014
 21
5179.606999670112
 31
0.0
  0
LINE
  5
13769
330
747D
100
AcDbEntity
  8
点線
 48
50.0
100
AcDbLine
 10
6642.252488151019
 20
6808.106999670108
 30
0.0
 11
6642.252488151019
 21
6131.106999670112
 31
0.0
  0
LINE
  5
1376A
330
747D
100
AcDbEntity
  8
点線
 48
50.0
100
AcDbLine
 10
6582.252488151017
 20
6808.106999670108
 30
0.0
 11
6582.252488151017
 21
6131.106999670112
 31
0.0
  0
LINE
  5
1376B
330
747D
100
AcDbEntity
  8
部品1
 48
50.0
100
AcDbLine
 10
6862.252488151014
 20
7794.606999670111
 30
0.0
 11
6862.252488151021
 21
5124.606999670108
 31
0.0
  0
LINE
  5
1376C
330
747D
100
AcDbEntity
  8
部品1
 48
50.0
100
AcDbLine
 10
6817.252488151019
 20
7790.106999670104
 30
0.0
 11
6817.252488151019
 21
5159.606999670112
 31
0.0
  0
LINE
  5
1376D
330
747D
100
AcDbEntity
  8
部品1
 48
50.0
100
AcDbLine
 10
6210.752488151018
 20
7685.606999670111
 30
0.0
 11
6210.752488151018
 21
5179.606999670116
 31
0.0
  0
LINE
  5
1376E
330
747D
100
AcDbEntity
  8
部品1
 48
50.0
100
AcDbLine
 10
6233.752488151019
 20
7685.606999670111
 30
0.0
 11
6233.752488151019
 21
5179.606999670116
 31
0.0
  0
LINE
  5
1376F
330
747D
100
AcDbEntity
  8
部品1
 48
50.0
100
AcDbLine
 10
6803.752488151018
 20
7685.606999670111
 30
0.0
 11
6803.752488151018
 21
5179.606999670116
 31
0.0
  0
LINE
  5
13770
330
747D
100
AcDbEntity
  8
部品1
 48
50.0
100
AcDbLine
 10
6780.752488151017
 20
7685.606999670111
 30
0.0
 11
6780.752488151017
 21
5179.606999670116
 31
0.0
  0
LINE
  5
13771
330
747D
100
AcDbEntity
  8
部品1
 48
50.0
100
AcDbLine
 10
6462.252488151019
 20
7685.606999670111
 30
0.0
 11
6462.252488151019
 21
5179.606999670112
 31
0.0
  0
LINE
  5
13772
330
747D
100
AcDbEntity
  8
部品1
 48
50.0
100
AcDbLine
 10
6507.252488151017
 20
7685.606999670111
 30
0.0
 11
6507.252488151017
 21
5179.606999670112
 31
0.0
  0
LINE
  5
13773
330
747D
100
AcDbEntity
  8
部品1
 48
50.0
100
AcDbLine
 10
6535.252488151018
 20
7685.606999670111
 30
0.0
 11
6535.252488151018
 21
5179.606999670112
 31
0.0
  0
LINE
  5
13774
330
747D
100
AcDbEntity
  8
部品1
 48
50.0
100
AcDbLine
 10
6580.252488151018
 20
7685.606999670111
 30
0.0
 11
6580.252488151018
 21
5179.606999670112
 31
0.0
  0
LINE
  5
13775
330
747D
100
AcDbEntity
  8
部品1
 48
50.0
100
AcDbLine
 10
5927.252488151018
 20
7685.606999670111
 30
0.0
 11
5927.252488151018
 21
5179.606999670112
 31
0.0
  0
LINE
  5
13776
330
747D
100
AcDbEntity
  8
部品1
 48
50.0
100
AcDbLine
 10
6000.252488151018
 20
7685.606999670111
 30
0.0
 11
6000.252488151018
 21
5179.606999670112
 31
0.0
  0
LINE
  5
13777
330
747D
100
AcDbEntity
  8
部品1
 48
50.0
100
AcDbLine
 10
5882.252488151018
 20
7685.606999670111
 30
0.0
 11
5882.252488151018
 21
5179.606999670112
 31
0.0
  0
LINE
  5
13778
330
747D
100
AcDbEntity
  8
部品1
 48
50.0
100
AcDbLine
 10
5955.252488151018
 20
7685.606999670111
 30
0.0
 11
5955.252488151018
 21
5179.606999670112
 31
0.0
  0
LINE
  5
13779
330
747D
100
AcDbEntity
  8
部品1
 48
50.0
100
AcDbLine
 10
5630.752488151018
 20
7685.606999670111
 30
0.0
 11
5630.752488151018
 21
5179.606999670116
 31
0.0
  0
LINE
  5
1377A
330
747D
100
AcDbEntity
  8
部品1
 48
50.0
100
AcDbLine
 10
5653.752488151018
 20
7685.606999670111
 30
0.0
 11
5653.752488151018
 21
5179.606999670116
 31
0.0
  0
LINE
  5
1377B
330
747D
100
AcDbEntity
  8
部品1
 48
50.0
100
AcDbLine
 10
4542.252488151016
 20
7685.606999670111
 30
0.0
 11
4542.252488151016
 21
5179.606999670112
 31
0.0
  0
LINE
  5
1377C
330
747D
100
AcDbEntity
  8
部品1
 48
50.0
100
AcDbLine
 10
4587.252488151017
 20
7685.606999670111
 30
0.0
 11
4587.252488151017
 21
5179.606999670112
 31
0.0
  0
LINE
  5
1377D
330
747D
100
AcDbEntity
  8
部品1
 48
50.0
100
AcDbLine
 10
4615.252488151017
 20
7685.606999670111
 30
0.0
 11
4615.252488151017
 21
5179.606999670112
 31
0.0
  0
LINE
  5
1377E
330
747D
100
AcDbEntity
  8
部品1
 48
50.0
100
AcDbLine
 10
4660.252488151017
 20
7685.606999670111
 30
0.0
 11
4660.252488151017
 21
5179.606999670112
 31
0.0
  0
LINE
  5
1377F
330
747D
100
AcDbEntity
  8
部品1
 48
50.0
100
AcDbLine
 10
4962.252488151017
 20
7685.606999670111
 30
0.0
 11
4962.252488151017
 21
5179.606999670112
 31
0.0
  0
LINE
  5
13780
330
747D
100
AcDbEntity
  8
部品1
 48
50.0
100
AcDbLine
 10
5007.252488151017
 20
7685.606999670111
 30
0.0
 11
5007.252488151017
 21
5179.606999670112
 31
0.0
  0
LINE
  5
13781
330
747D
100
AcDbEntity
  8
部品1
 48
50.0
100
AcDbLine
 10
5035.252488151019
 20
7685.606999670111
 30
0.0
 11
5035.252488151019
 21
5179.606999670112
 31
0.0
  0
LINE
  5
13782
330
747D
100
AcDbEntity
  8
部品1
 48
50.0
100
AcDbLine
 10
5080.252488151018
 20
7685.606999670111
 30
0.0
 11
5080.252488151018
 21
5179.606999670112
 31
0.0
  0
LINE
  5
13783
330
747D
100
AcDbEntity
  8
部品1
 48
50.0
100
AcDbLine
 10
4813.752488151017
 20
7685.606999670111
 30
0.0
 11
4813.752488151017
 21
5179.606999670116
 31
0.0
  0
LINE
  5
13784
330
747D
100
AcDbEntity
  8
部品1
 48
50.0
100
AcDbLine
 10
4393.752488151021
 20
7685.606999670111
 30
0.0
 11
4393.752488151021
 21
5179.606999670116
 31
0.0
  0
LINE
  5
13785
330
747D
100
AcDbEntity
  8
部品1
 48
50.0
100
AcDbLine
 10
4790.752488151016
 20
7685.606999670111
 30
0.0
 11
4790.752488151016
 21
5179.606999670116
 31
0.0
  0
LINE
  5
13786
330
747D
100
AcDbEntity
  8
部品1
 48
50.0
100
AcDbLine
 10
4370.752488151021
 20
7685.606999670111
 30
0.0
 11
4370.752488151021
 21
5179.606999670116
 31
0.0
  0
LINE
  5
13787
330
747D
100
AcDbEntity
  8
部品1
 48
50.0
100
AcDbLine
 10
4122.252488151017
 20
7685.606999670111
 30
0.0
 11
4122.252488151017
 21
5411.893456546848
 31
0.0
  0
LINE
  5
13788
330
747D
100
AcDbEntity
  8
部品1
 48
50.0
100
AcDbLine
 10
4167.252488151016
 20
7685.606999670111
 30
0.0
 11
4167.25248815102
 21
5243.951170206241
 31
0.0
  0
LINE
  5
13789
330
747D
100
AcDbEntity
  8
部品1
 48
50.0
100
AcDbLine
 10
4195.252488151017
 20
7685.606999670111
 30
0.0
 11
4195.252488151017
 21
5179.606999670112
 31
0.0
  0
LINE
  5
1378A
330
747D
100
AcDbEntity
  8
部品1
 48
50.0
100
AcDbLine
 10
4240.252488151017
 20
7685.606999670111
 30
0.0
 11
4240.252488151017
 21
5179.606999670112
 31
0.0
  0
LINE
  5
1378B
330
747D
100
AcDbEntity
  8
点線
 48
50.0
100
AcDbLine
 10
4128.358100869506
 20
5389.106999670119
 30
0.0
 11
6832.252488151022
 21
5389.106999670108
 31
0.0
  0
LINE
  5
1378C
330
747D
100
AcDbEntity
  8
点線
 48
50.0
100
AcDbLine
 10
4145.774798377529
 20
5324.106999670119
 30
0.0
 11
6832.252488151015
 21
5324.106999670108
 31
0.0
  0
LINE
  5
1378D
330
747D
100
AcDbEntity
  8
点線
 48
50.0
100
AcDbLine
 10
6582.252488151017
 20
6066.106999670111
 30
0.0
 11
6582.252488151017
 21
5389.106999670111
 31
0.0
  0
LINE
  5
1378E
330
747D
100
AcDbEntity
  8
点線
 48
50.0
100
AcDbLine
 10
6642.252488151019
 20
6066.106999670111
 30
0.0
 11
6642.252488151019
 21
5389.106999670111
 31
0.0
  0
LINE
  5
1378F
330
747D
100
AcDbEntity
  8
部品1
 48
50.0
100
AcDbLine
 10
6839.252488151021
 20
5132.606999670116
 30
0.0
 11
6862.252488151021
 21
5132.606999670112
 31
0.0
  0
LINE
  5
13790
330
747D
100
AcDbEntity
  8
部品1
 48
50.0
100
AcDbLine
 10
6817.252488151019
 20
5159.606999670112
 30
0.0
 11
6834.252488151019
 21
5159.606999670112
 31
0.0
  0
ARC
  5
13791
330
747D
100
AcDbEntity
  8
部品1
 48
50.0
100
AcDbCircle
 10
6834.252488151019
 20
5154.606999670112
 30
0.0
 40
5.0
100
AcDbArc
 50
0.0
 51
89.99999999999998
  0
ARC
  5
13792
330
747D
100
AcDbEntity
  8
部品1
 48
50.0
100
AcDbCircle
 10
6847.252488151022
 20
5124.606999670108
 30
0.0
 40
15.0
100
AcDbArc
 50
270.0
 51
0.0000000000000763
  0
LINE
  5
13793
330
747D
100
AcDbEntity
  8
部品1
 48
50.0
100
AcDbLine
 10
6839.252488151018
 20
5154.606999670112
 30
0.0
 11
6839.252488151021
 21
5109.606999670108
 31
0.0
  0
ARC
  5
13794
330
747D
100
AcDbEntity
  8
点線
 48
50.0
100
AcDbCircle
 10
6634.252488151019
 20
5289.106999670119
 30
0.0
 40
10.0
100
AcDbArc
 50
270.0000000000021
 51
0.0
  0
LINE
  5
13795
330
747D
100
AcDbEntity
  8
点線
 48
50.0
100
AcDbLine
 10
6644.252488151018
 20
5324.106999670116
 30
0.0
 11
6644.252488151018
 21
5289.106999670119
 31
0.0
  0
LINE
  5
13796
330
747D
100
AcDbEntity
  8
点線
 48
50.0
100
AcDbLine
 10
6580.252488151018
 20
5324.106999670116
 30
0.0
 11
6580.252488151018
 21
5289.106999670115
 31
0.0
  0
ARC
  5
13797
330
747D
100
AcDbEntity
  8
点線
 48
50.0
100
AcDbCircle
 10
6590.252488151017
 20
5289.106999670115
 30
0.0
 40
10.0
100
AcDbArc
 50
180.0
 51
270.0000000000009
  0
LINE
  5
13798
330
747D
100
AcDbEntity
  8
点線
 48
50.0
100
AcDbLine
 10
6590.252488151017
 20
5279.106999670116
 30
0.0
 11
6634.252488151019
 21
5279.106999670119
 31
0.0
  0
LINE
  5
13799
330
747D
100
AcDbEntity
  8
点線
 48
6.0
100
AcDbLine
 10
6832.252488151022
 20
5389.106999670115
 30
0.0
 11
6832.252488151017
 21
5324.106999670112
 31
0.0
  0
LINE
  5
1379A
330
747D
100
AcDbEntity
  8
点線
 48
6.0
100
AcDbLine
 10
6832.252488151017
 20
6131.106999670116
 30
0.0
 11
6832.252488151017
 21
6066.106999670111
 31
0.0
  0
LINE
  5
1379B
330
747D
100
AcDbEntity
  8
点線
 48
50.0
100
AcDbLine
 10
6642.252488151019
 20
7550.10699967011
 30
0.0
 11
6642.252488151019
 21
6873.106999670112
 31
0.0
  0
LINE
  5
1379C
330
747D
100
AcDbEntity
  8
点線
 48
50.0
100
AcDbLine
 10
6582.252488151017
 20
7550.10699967011
 30
0.0
 11
6582.252488151017
 21
6873.106999670112
 31
0.0
  0
LINE
  5
1379D
330
747D
100
AcDbEntity
  8
点線
 48
6.0
100
AcDbLine
 10
6832.252488151015
 20
6873.106999670108
 30
0.0
 11
6832.252488151015
 21
6808.106999670112
 31
0.0
  0
LINE
  5
1379E
330
747D
100
AcDbEntity
  8
点線
 48
6.0
100
AcDbLine
 10
6832.252488151015
 20
7550.10699967011
 30
0.0
 11
6832.252488151015
 21
7615.106999670111
 31
0.0
  0
ARC
  5
1379F
330
747D
100
AcDbEntity
  8
点線
 48
50.0
100
AcDbCircle
 10
6634.252488151019
 20
7630.106999670103
 30
0.0
 40
10.0
100
AcDbArc
 50
0.0
 51
90.0
  0
LINE
  5
137A0
330
747D
100
AcDbEntity
  8
点線
 48
50.0
100
AcDbLine
 10
6644.252488151018
 20
7615.106999670107
 30
0.0
 11
6644.252488151018
 21
7630.106999670103
 31
0.0
  0
LINE
  5
137A1
330
747D
100
AcDbEntity
  8
点線
 48
50.0
100
AcDbLine
 10
6580.252488151018
 20
7615.106999670107
 30
0.0
 11
6580.252488151018
 21
7630.106999670108
 31
0.0
  0
ARC
  5
137A2
330
747D
100
AcDbEntity
  8
点線
 48
50.0
100
AcDbCircle
 10
6590.252488151017
 20
7630.106999670108
 30
0.0
 40
10.0
100
AcDbArc
 50
90.0
 51
180.0
  0
LINE
  5
137A3
330
747D
100
AcDbEntity
  8
点線
 48
50.0
100
AcDbLine
 10
6590.252488151017
 20
7640.106999670106
 30
0.0
 11
6634.252488151019
 21
7640.106999670104
 31
0.0
  0
ARC
  5
137A4
330
747D
100
AcDbEntity
  8
部品1
 48
50.0
100
AcDbCircle
 10
6847.252488151013
 20
7794.606999670111
 30
0.0
 40
15.0
100
AcDbArc
 50
0.0000000000001018
 51
90.0
  0
LINE
  5
137A5
330
747D
100
AcDbEntity
  8
部品1
 48
50.0
100
AcDbLine
 10
6839.252488151014
 20
7809.606999670108
 30
0.0
 11
6839.252488151014
 21
7786.606999670111
 31
0.0
  0
LINE
  5
137A6
330
747D
100
AcDbEntity
  8
部品1
 48
50.0
100
AcDbLine
 10
6839.252488151018
 20
7790.106999670107
 30
0.0
 11
6817.252488151014
 21
7790.106999670107
 31
0.0
  0
LINE
  5
137A7
330
747D
100
AcDbEntity
  8
部品1
 48
50.0
100
AcDbLine
 10
6862.252488151018
 20
7786.606999670107
 30
0.0
 11
6817.252488151019
 21
7786.606999670111
 31
0.0
  0
TEXT
  5
137A8
330
747D
100
AcDbEntity
  8
仕様書枠
 62
     7
 48
50.0
100
AcDbText
 10
9804.010698009117
 20
1067.113736441886
 30
0.0
 40
112.0
  1
側 面 図
  7
STYLE2
100
AcDbText
  0
LWPOLYLINE
  5
137A9
330
747D
100
AcDbEntity
  8
部品1
100
AcDbPolyline
 90
        4
 70
     1
 43
0.0
 10
9772.595621247589
 20
1220.978460792068
 10
10419.62699652811
 20
1220.978460792068
 10
10419.62699652811
 20
1028.458304974927
 10
9772.595621247589
 20
1028.458304974927
  0
LINE
  5
137AA
330
747D
100
AcDbEntity
  8
部品1
 48
50.0
100
AcDbLine
 10
9476.627189951521
 20
3646.754157703488
 30
0.0
 11
10177.6731854129
 21
3613.51938458532
 31
0.0
  0
LINE
  5
137AB
330
747D
100
AcDbEntity
  8
部品1
 48
50.0
100
AcDbLine
 10
8323.779779022117
 20
1808.019021987518
 30
0.0
 11
11073.77977902211
 21
1808.01902198752
 31
0.0
  0
LINE
  5
137AC
330
747D
100
AcDbEntity
  8
部品1
 48
50.0
100
AcDbLine
 10
9263.779779022158
 20
2008.01902198752
 30
0.0
 11
10853.77977902216
 21
2008.01902198752
 31
0.0
  0
LINE
  5
137AD
330
747D
100
AcDbEntity
  8
部品1
 48
50.0
100
AcDbLine
 10
8496.854457164266
 20
3933.346168131788
 30
0.0
 11
11169.36815012204
 21
3806.649222687862
 31
0.0
  0
LINE
  5
137AE
330
747D
100
AcDbEntity
  8
部品1
 48
50.0
100
AcDbLine
 10
8498.366124948933
 20
3818.145347328213
 30
0.0
 11
11160.83023503265
 21
3691.924826553873
 31
0.0
  0
LINE
  5
137AF
330
747D
100
AcDbEntity
  8
細線
 48
50.0
100
AcDbLine
 10
8485.186136950025
 20
3856.812854206428
 30
0.0
 11
11176.49155401404
 21
3729.22504184191
 31
0.0
  0
LINE
  5
137B0
330
747D
100
AcDbEntity
  8
細線
 48
50.0
100
AcDbLine
 10
8484.8163107561
 20
3868.843863913009
 30
0.0
 11
11177.47672775819
 21
3741.19181451439
 31
0.0
  0
DIMENSION
  5
137B1
330
747D
100
AcDbEntity
  8
寸法
 48
50.0
100
AcDbDimension
  2
*D14
 10
11182.813085539
 20
4505.62009656437
 30
0.0
 11
11199.83041471253
 21
4580.628954832088
 31
0.0
 12
-1428.697618638782
 22
9865.195570569067
 32
0.0
 70
    32
 71
     5
 42
-1.0
  3
INABA_S30G
100
AcDbAlignedDimension
 13
8482.813085539007
 23
3934.011833156985
 33
0.0
 14
11182.813085539
 24
3806.011833156983
 34
0.0
100
AcDbRotatedDimension
  0
DIMENSION
  5
137B2
330
747D
100
AcDbEntity
  8
寸法
 48
50.0
100
AcDbDimension
  2
*D15
 10
10882.81308553901
 20
4177.019575482193
 30
0.0
 11
11424.83041471253
 21
4252.019575482198
 31
0.0
 12
-1428.697618638782
 22
9865.195570569067
 32
0.0
 70
    32
 71
     5
 42
-1.0
  3
INABA_S30G
100
AcDbAlignedDimension
 13
9232.813085539003
 23
3676.261802113011
 33
0.0
 14
10882.81308553901
 24
3682.576759311791
 34
0.0
100
AcDbRotatedDimension
  0
LINE
  5
137B3
330
747D
100
AcDbEntity
  8
部品1
 48
50.0
100
AcDbLine
 10
8658.453481419442
 20
3785.653962079987
 30
0.0
 11
11005.31773871631
 21
3674.395212104386
 31
0.0
  0
LINE
  5
137B4
330
747D
100
AcDbEntity
  8
部品1
 48
50.0
100
AcDbLine
 10
9263.779779022158
 20
2908.01902198752
 30
0.0
 11
10853.77977902216
 21
2908.01902198752
 31
0.0
  0
LINE
  5
137B5
330
747D
100
AcDbEntity
  8
細線
 48
50.0
100
AcDbLine
 10
9263.779779022158
 20
2805.019021987521
 30
0.0
 11
10853.77977902216
 21
2805.019021987521
 31
0.0
  0
LINE
  5
137B6
330
747D
100
AcDbEntity
  8
細線
 48
50.0
100
AcDbLine
 10
9263.779779022158
 20
2794.019021987521
 30
0.0
 11
10853.77977902216
 21
2794.019021987521
 31
0.0
  0
LINE
  5
137B7
330
747D
100
AcDbEntity
  8
細線
 48
50.0
100
AcDbLine
 10
9263.779779022158
 20
2111.01902198752
 30
0.0
 11
10853.77977902216
 21
2111.019021987519
 31
0.0
  0
LINE
  5
137B8
330
747D
100
AcDbEntity
  8
細線
 48
50.0
100
AcDbLine
 10
9263.779779022158
 20
2122.019021987521
 30
0.0
 11
10853.77977902216
 21
2122.019021987519
 31
0.0
  0
LINE
  5
137B9
330
747D
100
AcDbEntity
  8
細線
 48
50.0
100
AcDbLine
 10
9263.779779022158
 20
2458.01902198752
 30
0.0
 11
10853.77977902216
 21
2458.01902198752
 31
0.0
  0
LINE
  5
137BA
330
747D
100
AcDbEntity
  8
細線
 48
50.0
100
AcDbLine
 10
9263.779779022158
 20
2452.019021987521
 30
0.0
 11
10853.77977902216
 21
2452.019021987521
 31
0.0
  0
DIMENSION
  5
137BB
330
747D
100
AcDbEntity
  8
寸法
 48
50.0
100
AcDbDimension
  2
*D16
 10
10883.77977902216
 20
1317.818995306588
 30
0.0
 11
11425.79710819568
 21
1392.818995306592
 31
0.0
 12
-1428.697618638782
 22
9865.195570569067
 32
0.0
 70
    32
 71
     5
 42
-1.0
  3
INABA_S30G
100
AcDbAlignedDimension
 13
9233.77977902215
 23
1488.01902198752
 33
0.0
 14
10883.77977902216
 24
1488.019021987522
 34
0.0
100
AcDbRotatedDimension
  0
LINE
  5
137BC
330
747D
100
AcDbEntity
  8
部品1
 48
50.0
100
AcDbLine
 10
9203.779779022154
 20
3488.763437444082
 30
0.0
 11
9203.779779022154
 21
1808.01902198752
 31
0.0
  0
LINE
  5
137BD
330
747D
100
AcDbEntity
  8
部品1
 48
50.0
100
AcDbLine
 10
9263.779779022161
 20
3488.763437444082
 30
0.0
 11
9263.779779022158
 21
1808.01902198752
 31
0.0
  0
DIMENSION
  5
137BE
330
747D
100
AcDbEntity
  8
寸法
 48
50.0
100
AcDbDimension
  2
*D17
 10
7709.458737147132
 20
1758.01902198752
 30
0.0
 11
7634.449878879417
 21
2846.015427572253
 31
0.0
 12
-61.68028946525556
 22
9865.195570569071
 32
0.0
 70
    32
 71
     5
 42
-1.0
  3
INABA_S30G
100
AcDbAlignedDimension
 13
8482.813085539007
 23
3934.011833156985
 33
0.0
 14
8050.975729455071
 24
1758.01902198752
 34
0.0
 50
90.0
100
AcDbRotatedDimension
  0
DIMENSION
  5
137BF
330
747D
100
AcDbEntity
  8
寸法
 48
50.0
100
AcDbDimension
  2
*D18
 10
8078.972520959515
 20
2008.01902198752
 30
0.0
 11
8003.972520959518
 21
2458.01902198752
 31
0.0
 12
-61.68028946525556
 22
9865.195570569071
 32
0.0
 70
    32
 71
     5
 42
-1.0
  3
INABA_S30G
100
AcDbAlignedDimension
 13
9263.779779022158
 23
2908.01902198752
 33
0.0
 14
9263.779779022158
 24
2008.01902198752
 34
0.0
 50
90.0
100
AcDbRotatedDimension
  0
DIMENSION
  5
137C0
330
747D
100
AcDbEntity
  8
寸法
 48
50.0
100
AcDbDimension
  2
*D19
 10
8078.972520959515
 20
1758.01902198752
 30
0.0
 11
8078.972520959515
 21
1883.01902198752
 31
0.0
 12
-61.68028946525556
 22
9865.195570569071
 32
0.0
 70
   160
 71
     5
 42
-1.0
  3
INABA_S30G
100
AcDbAlignedDimension
 13
9263.779779022158
 23
2008.01902198752
 33
0.0
 14
7977.802276945387
 24
1758.01902198752
 34
0.0
 50
90.0
100
AcDbRotatedDimension
  0
LINE
  5
137C3
330
747D
100
AcDbEntity
  8
部品1
 48
50.0
100
AcDbLine
 10
8323.779779022117
 20
1808.019021987518
 30
0.0
 11
8313.779779022118
 21
1798.019021987518
 31
0.0
  0
LINE
  5
137C4
330
747D
100
AcDbEntity
  8
部品1
 48
50.0
100
AcDbLine
 10
8313.779779022118
 20
1798.019021987518
 30
0.0
 11
8313.779779022132
 21
1758.01902198752
 31
0.0
  0
LINE
  5
137C6
330
747D
100
AcDbEntity
  8
点線
 48
50.0
100
AcDbLine
 10
9263.779779022158
 20
1808.01902198752
 30
0.0
 11
9263.779779022128
 21
1488.019021987518
 31
0.0
  0
LINE
  5
137C7
330
747D
100
AcDbEntity
  8
点線
 48
50.0
100
AcDbLine
 10
9203.779779022154
 20
1808.01902198752
 30
0.0
 11
9203.779779022136
 21
1488.019021987518
 31
0.0
  0
LINE
  5
137C8
330
747D
100
AcDbEntity
  8
点線
 48
50.0
100
AcDbLine
 10
9203.779779022136
 20
1488.019021987518
 30
0.0
 11
9263.779779022128
 21
1488.019021987518
 31
0.0
  0
DIMENSION
  5
137CD
330
747D
100
AcDbEntity
  8
寸法
 48
50.0
100
AcDbDimension
  2
*D20
 10
8085.096301187817
 20
3837.73739823244
 30
0.0
 11
8103.948330324413
 21
4235.397387832509
 31
0.0
 12
-1428.697618638782
 22
9865.195570569067
 32
0.0
 70
   160
 71
     5
 42
-1.0
 51
2.714212216121843
  3
INABA_S30G
100
AcDbAlignedDimension
 13
8496.854457164259
 23
3933.346168131784
 33
0.0
 14
8498.366124948926
 24
3818.145347328208
 34
0.0
 50
87.28578778387817
100
AcDbRotatedDimension
  0
DIMENSION
  5
137CE
330
747D
100
AcDbEntity
  8
寸法
 48
50.0
100
AcDbDimension
  2
*D21
 10
9232.813085539003
 20
4177.019575482193
 30
0.0
 11
10224.83041471253
 21
4252.019575482198
 31
0.0
 12
-1428.697618638782
 22
9865.195570569067
 32
0.0
 70
    32
 71
     5
 42
-1.0
  3
INABA_S30G
100
AcDbAlignedDimension
 13
8482.813085539007
 23
3934.011833156985
 33
0.0
 14
9232.813085539003
 24
3676.261802113011
 34
0.0
100
AcDbRotatedDimension
  0
LINE
  5
137CF
330
747D
100
AcDbEntity
  8
部品1
 48
50.0
100
AcDbLine
 10
8734.627189951526
 20
3681.930453999787
 30
0.0
 11
9033.545518805651
 21
3667.759511002258
 31
0.0
  0
LINE
  5
137D0
330
747D
100
AcDbEntity
  8
部品1
 48
50.0
100
AcDbLine
 10
8699.586502567496
 20
3808.606010907777
 30
0.0
 11
8693.578476965196
 21
3681.874220858934
 31
0.0
  0
LINE
  5
137D1
330
747D
100
AcDbEntity
  8
部品1
 48
50.0
100
AcDbLine
 10
8740.540507106123
 20
3806.664487729651
 30
0.0
 11
8734.556158615736
 21
3680.432136760568
 31
0.0
  0
ARC
  5
137D2
330
747D
100
AcDbEntity
  8
部品1
 48
50.0
100
AcDbCircle
 10
8671.763203592814
 20
3692.919657416007
 30
0.0
 40
10.0
100
AcDbArc
 50
192.1929346278251
 51
267.2857877839036
  0
LINE
  5
137D3
330
747D
100
AcDbEntity
  8
部品1
 48
50.0
100
AcDbLine
 10
8693.602154077124
 20
3682.373659938692
 30
0.0
 11
8734.556158615736
 21
3680.432136760565
 31
0.0
  0
LINE
  5
137D4
330
747D
100
AcDbEntity
  8
部品1
 48
50.0
100
AcDbLine
 10
8671.289661354245
 20
3682.930875821223
 30
0.0
 11
8693.578476965214
 21
3681.874220858934
 31
0.0
  0
ARC
  5
137D5
330
747D
100
AcDbEntity
  8
部品1
 48
50.0
100
AcDbCircle
 10
8498.981729859069
 20
3831.130763401432
 30
0.0
 40
13.0
100
AcDbArc
 50
181.7606842901233
 51
267.2857877838783
  0
LINE
  5
137D6
330
747D
100
AcDbEntity
  8
部品1
 48
50.0
100
AcDbLine
 10
8483.244989830286
 20
3919.961328335889
 30
0.0
 11
8485.987867435227
 21
3830.731339678754
 31
0.0
  0
LINE
  5
137D7
330
747D
100
AcDbEntity
  8
部品1
 48
50.0
100
AcDbLine
 10
8505.857531573564
 20
3932.919355715347
 30
0.0
 11
8509.401699265339
 21
3817.622179360621
 31
0.0
  0
ARC
  5
137D8
330
747D
100
AcDbEntity
  8
部品1
 48
50.0
100
AcDbCircle
 10
8496.238852254128
 20
3920.360752058569
 30
0.0
 40
13.0
100
AcDbArc
 50
87.28578778387824
 51
181.760684290123
  0
LINE
  5
137D9
330
747D
100
AcDbEntity
  8
部品1
 48
50.0
100
AcDbLine
 10
8653.329500569354
 20
3779.603549953705
 30
0.0
 11
8661.988784131187
 21
3690.807614758224
 31
0.0
  0
ARC
  5
137DA
330
747D
100
AcDbEntity
  8
部品1
 48
50.0
100
AcDbCircle
 10
8658.216710300161
 20
3780.659571282597
 30
0.0
 40
5.0
100
AcDbArc
 50
87.28578778390007
 51
192.1929346278247
  0
ARC
  5
137DB
330
747D
100
AcDbEntity
  8
部品1
 48
50.0
100
AcDbCircle
 10
9079.77977902216
 20
3541.928961685033
 30
0.0
 40
120.0
100
AcDbArc
 50
0.0
 51
87.28578778387857
  0
LINE
  5
137DC
330
747D
100
AcDbEntity
  8
部品1
 48
50.0
100
AcDbLine
 10
9046.257168272198
 20
3724.721462933696
 30
0.0
 11
9413.87960508263
 21
3707.293436299717
 31
0.0
  0
LINE
  5
137DD
330
747D
100
AcDbEntity
  8
部品1
 48
50.0
100
AcDbLine
 10
9033.379779022153
 20
3664.263437444083
 30
0.0
 11
9035.794844438848
 21
3715.206223577479
 31
0.0
  0
INSERT
  5
137DE
330
747D
100
AcDbEntity
  8
部品1
 48
50.0
100
AcDbBlockReference
  2
A$C0EDA5930
 10
9065.956581440632
 20
3686.83005360497
 30
0.0
  0
LINE
  5
137DF
330
747D
100
AcDbEntity
  8
部品1
 48
50.0
100
AcDbLine
 10
9033.379779022153
 20
3664.263437444083
 30
0.0
 11
9085.46228588497
 21
3661.794340822436
 31
0.0
  0
ARC
  5
137E0
330
747D
100
AcDbEntity
  8
部品1
 48
50.0
100
AcDbCircle
 10
9045.783626033632
 20
3714.732681338912
 30
0.0
 40
10.0
100
AcDbArc
 50
87.28578778387824
 51
177.2857877838809
  0
LINE
  5
137E1
330
747D
100
AcDbEntity
  8
部品1
 48
50.0
100
AcDbLine
 10
9482.540507106115
 20
3771.488191433353
 30
0.0
 11
9476.556158615736
 21
3645.255840464272
 31
0.0
  0
LINE
  5
137E2
330
747D
100
AcDbEntity
  8
部品1
 48
50.0
100
AcDbLine
 10
9441.586502567496
 20
3773.429714611481
 30
0.0
 11
9435.602154077123
 21
3647.197363642399
 31
0.0
  0
LINE
  5
137E3
330
747D
100
AcDbEntity
  8
部品1
 48
50.0
100
AcDbLine
 10
9420.979779022154
 20
3645.888326332971
 30
0.0
 11
9423.394844438846
 21
3696.831112466365
 31
0.0
  0
INSERT
  5
137E4
330
747D
100
AcDbEntity
  8
部品1
 48
50.0
100
AcDbBlockReference
  2
A$C0EDA5930
 10
9383.599836154749
 20
3671.77141041852
 30
0.0
  0
INSERT
  5
137E5
330
747D
100
AcDbEntity
  8
部品1
 48
50.0
100
AcDbBlockReference
  2
A$C0EDA5930
 10
9171.837666345339
 20
3681.810505876154
 30
0.0
  0
INSERT
  5
137E6
330
747D
100
AcDbEntity
  8
部品1
 48
50.0
100
AcDbBlockReference
  2
A$C0EDA5930
 10
9277.718751250045
 20
3676.790958147336
 30
0.0
  0
ARC
  5
137E7
330
747D
100
AcDbEntity
  8
部品1
 48
50.0
100
AcDbCircle
 10
9372.779779022158
 20
3543.055437821577
 30
0.0
 40
105.0
100
AcDbArc
 50
87.28578778387767
 51
180.0
  0
INSERT
  5
137E8
330
747D
100
AcDbEntity
  8
部品1
 48
50.0
100
AcDbBlockReference
  2
A$C0EDA5930
 10
9224.7798144399
 20
3509.763476471406
 30
0.0
  0
INSERT
  5
137E9
330
747D
100
AcDbEntity
  8
部品1
 48
50.0
100
AcDbBlockReference
  2
A$C0EDA5930
 10
9224.7798144399
 20
3594.763476471406
 30
0.0
  0
LINE
  5
137EA
330
747D
100
AcDbEntity
  8
部品1
 48
50.0
100
AcDbLine
 10
9199.779779022154
 20
3488.763437444082
 30
0.0
 11
9267.779779022154
 21
3488.763437444082
 31
0.0
  0
LINE
  5
137EB
330
747D
100
AcDbEntity
  8
部品1
 48
50.0
100
AcDbLine
 10
9199.779779022154
 20
3488.763437444082
 30
0.0
 11
9199.779779022154
 21
3541.928961685033
 31
0.0
  0
LINE
  5
137EC
330
747D
100
AcDbEntity
  8
部品1
 48
50.0
100
AcDbLine
 10
9267.779779022154
 20
3488.763437444082
 30
0.0
 11
9267.779779022157
 21
3543.055437821577
 31
0.0
  0
LINE
  5
137ED
330
747D
100
AcDbEntity
  8
部品1
 48
50.0
100
AcDbLine
 10
9435.602154077123
 20
3647.197363642395
 30
0.0
 11
9476.556158615736
 21
3645.255840464268
 31
0.0
  0
LINE
  5
137EE
330
747D
100
AcDbEntity
  8
部品1
 48
50.0
100
AcDbLine
 10
9421.145518805655
 20
3649.384399891145
 30
0.0
 11
9435.673185412907
 21
3648.695680881614
 31
0.0
  0
LINE
  5
137EF
330
747D
100
AcDbEntity
  8
部品1
 48
50.0
100
AcDbLine
 10
9377.751972527118
 20
3647.937644566808
 30
0.0
 11
9420.979779022154
 21
3645.888326332968
 31
0.0
  0
ARC
  5
137F0
330
747D
100
AcDbEntity
  8
部品1
 48
50.0
100
AcDbCircle
 10
9413.406062844062
 20
3697.304654704933
 30
0.0
 40
10.0
100
AcDbArc
 50
357.2857877838801
 51
87.28578778387818
  0
LINE
  5
137F1
330
747D
100
AcDbEntity
  8
部品1
 48
50.0
100
AcDbLine
 10
10937.77977902211
 20
1900.479633327135
 30
0.0
 11
10937.77977902217
 21
3482.985902942101
 31
0.0
  0
LINE
  5
137F2
330
747D
100
AcDbEntity
  8
部品1
 48
50.0
100
AcDbLine
 10
10997.77977902198
 20
1900.479633327135
 30
0.0
 11
10997.77977902217
 21
3482.985902942101
 31
0.0
  0
LINE
  5
137F3
330
747D
100
AcDbEntity
  8
部品1
 48
50.0
100
AcDbLine
 10
10853.77977902216
 20
3410.541215221858
 30
0.0
 11
10853.77977902216
 21
1808.01902198752
 31
0.0
  0
LINE
  5
137F4
330
747D
100
AcDbEntity
  8
部品1
 48
50.0
100
AcDbLine
 10
10913.77977902216
 20
3410.541215221858
 30
0.0
 11
10913.77977902216
 21
1808.01902198752
 31
0.0
  0
DIMENSION
  5
137F5
330
747D
100
AcDbEntity
  8
寸法
 48
50.0
100
AcDbDimension
  2
*D22
 10
11613.67727534142
 20
1758.01902198752
 30
0.0
 11
11613.67727534142
 21
2782.015427572253
 31
0.0
 12
0.0
 22
15459.12638031496
 32
0.0
 70
   160
 71
     5
 42
-1.0
  3
INABA_S30G
100
AcDbAlignedDimension
 13
11182.813085539
 23
3806.011833156983
 33
0.0
 14
11298.00765667853
 24
1758.01902198752
 34
0.0
 50
90.0
100
AcDbRotatedDimension
  0
LINE
  5
137F9
330
747D
100
AcDbEntity
  8
点線
 48
50.0
100
AcDbLine
 10
10913.77977902216
 20
1808.01902198752
 30
0.0
 11
10913.77977902216
 21
1488.019021987518
 31
0.0
  0
LINE
  5
137FA
330
747D
100
AcDbEntity
  8
点線
 48
50.0
100
AcDbLine
 10
10853.77977902216
 20
1808.01902198752
 30
0.0
 11
10853.77977902206
 21
1488.019021987518
 31
0.0
  0
LINE
  5
137FB
330
747D
100
AcDbEntity
  8
点線
 48
50.0
100
AcDbLine
 10
10853.77977902206
 20
1488.019021987518
 30
0.0
 11
10913.77977902216
 21
1488.019021987518
 31
0.0
  0
LINE
  5
137FF
330
747D
100
AcDbEntity
  8
部品1
 48
50.0
100
AcDbLine
 10
10999.77977902216
 20
1900.479633327135
 30
0.0
 11
10935.77977902216
 21
1900.479633327135
 31
0.0
  0
LINE
  5
13800
330
747D
100
AcDbEntity
  8
部品1
 48
50.0
100
AcDbLine
 10
10999.77977902215
 20
1900.479633327135
 30
0.0
 11
10999.77977902216
 21
1878.479633327135
 31
0.0
  0
ARC
  5
13801
330
747D
100
AcDbEntity
  8
部品1
 48
50.0
100
AcDbCircle
 10
10975.77977902216
 20
1868.793850604559
 30
0.0
 40
40.0
100
AcDbArc
 50
180.000000000008
 51
239.365078268689
  0
LINE
  5
13802
330
747D
100
AcDbEntity
  8
部品1
 48
50.0
100
AcDbLine
 10
10935.77977902216
 20
1900.479633327135
 30
0.0
 11
10935.77977902216
 21
1868.793850604559
 31
0.0
  0
LINE
  5
13803
330
747D
100
AcDbEntity
  8
部品1
 48
50.0
100
AcDbLine
 10
10955.47268620899
 20
1834.331847033771
 30
0.0
 11
10955.39714131272
 21
1834.376586332024
 31
0.0
  0
LINE
  5
13804
330
747D
100
AcDbEntity
  8
部品1
 48
50.0
100
AcDbLine
 10
10937.7797790221
 20
1900.479633327135
 30
0.0
 11
10997.77977902197
 21
1900.479633327135
 31
0.0
  0
LINE
  5
13805
330
747D
100
AcDbEntity
  8
部品1
 48
50.0
100
AcDbLine
 10
10913.77977902196
 20
1900.47963332714
 30
0.0
 11
10997.77977902197
 21
1900.479633327135
 31
0.0
  0
LINE
  5
13806
330
747D
100
AcDbEntity
  8
部品1
 48
50.0
100
AcDbLine
 10
10913.77977902215
 20
1916.479633327142
 30
0.0
 11
10997.77977902197
 21
1916.479633327135
 31
0.0
  0
LINE
  5
13807
330
747D
100
AcDbEntity
  8
細線
 48
50.0
100
AcDbLine
 10
10999.77977902216
 20
1878.479633327133
 30
0.0
 11
10955.47268620898
 21
1834.331847033767
 31
0.0
  0
LINE
  5
13808
330
747D
100
AcDbEntity
  8
細線
 48
50.0
100
AcDbLine
 10
11007.16509539456
 20
1871.78147666475
 30
0.0
 11
10970.05716600793
 21
1828.019021987518
 31
0.0
  0
LINE
  5
13809
330
747D
100
AcDbEntity
  8
細線
 48
50.0
100
AcDbLine
 10
11007.16509539457
 20
1871.78147666475
 30
0.0
 11
10998.31661832909
 21
1877.021733440468
 31
0.0
  0
LINE
  5
1380A
330
747D
100
AcDbEntity
  8
細線
 48
50.0
100
AcDbLine
 10
10970.05716600793
 20
1828.01902198752
 30
0.0
 11
10956.93584690206
 21
1835.789746920436
 31
0.0
  0
LINE
  5
1380B
330
747D
100
AcDbEntity
  8
細線
 48
50.0
100
AcDbLine
 10
10913.77977902215
 20
1805.660572069217
 30
0.0
 11
10916.13822894046
 21
1808.019021987518
 31
0.0
  0
LINE
  5
1380D
330
747D
100
AcDbEntity
  8
部品1
 48
50.0
100
AcDbLine
 10
11073.77977902211
 20
1808.01902198752
 30
0.0
 11
11083.77977902211
 21
1798.01902198752
 31
0.0
  0
LINE
  5
1380E
330
747D
100
AcDbEntity
  8
部品1
 48
50.0
100
AcDbLine
 10
11083.77977902211
 20
1798.01902198752
 30
0.0
 11
11083.77977902211
 21
1758.01902198752
 31
0.0
  0
LINE
  5
1380F
330
747D
100
AcDbEntity
  8
部品1
 48
50.0
100
AcDbLine
 10
10913.77977902215
 20
3394.541215221856
 30
0.0
 11
10997.77977902216
 21
3394.541215221851
 31
0.0
  0
LINE
  5
13810
330
747D
100
AcDbEntity
  8
部品1
 48
50.0
100
AcDbLine
 10
10218.62718995152
 20
3611.57786140719
 30
0.0
 11
10683.54551880566
 21
3589.537288780031
 31
0.0
  0
LINE
  5
13811
330
747D
100
AcDbEntity
  8
部品1
 48
50.0
100
AcDbLine
 10
10224.54050710611
 20
3736.311895137056
 30
0.0
 11
10218.55615861573
 21
3610.079544167975
 31
0.0
  0
LINE
  5
13812
330
747D
100
AcDbEntity
  8
部品1
 48
50.0
100
AcDbLine
 10
10183.58650256749
 20
3738.253418315185
 30
0.0
 11
10177.60215407712
 21
3612.021067346102
 31
0.0
  0
LINE
  5
13813
330
747D
100
AcDbEntity
  8
部品1
 48
50.0
100
AcDbLine
 10
10177.60215407712
 20
3612.021067346099
 30
0.0
 11
10218.55615861573
 21
3610.079544167972
 31
0.0
  0
DIMENSION
  5
13814
330
747D
100
AcDbEntity
  8
寸法
 48
50.0
100
AcDbDimension
  2
*D23
 10
11182.813085539
 20
4177.019575482193
 30
0.0
 11
11032.81308553901
 21
4177.019575482193
 31
0.0
 12
-1428.697618638782
 22
9865.195570569067
 32
0.0
 70
   160
 71
     5
 42
-1.0
  3
INABA_S30G
100
AcDbAlignedDimension
 13
10882.81308553901
 23
3682.576759311791
 33
0.0
 14
11182.813085539
 24
3806.011833156983
 34
0.0
100
AcDbRotatedDimension
  0
INSERT
  5
13815
330
747D
100
AcDbEntity
  8
部品1
 48
50.0
100
AcDbBlockReference
  2
A$C0EDA5930
 10
10794.86956168164
 20
3604.866771578727
 30
0.0
  0
LINE
  5
13816
330
747D
100
AcDbEntity
  8
部品1
 48
50.0
100
AcDbLine
 10
10696.25716827221
 20
3646.49924071147
 30
0.0
 11
10905.75612586205
 21
3636.56743827758
 31
0.0
  0
ARC
  5
13817
330
747D
100
AcDbEntity
  8
部品1
 48
50.0
100
AcDbCircle
 10
10729.77977902217
 20
3463.706739462807
 30
0.0
 40
120.0
100
AcDbArc
 50
0.0
 51
87.28578778387857
  0
LINE
  5
13818
330
747D
100
AcDbEntity
  8
部品1
 48
50.0
100
AcDbLine
 10
10683.37977902216
 20
3586.041215221856
 30
0.0
 11
10735.46228588498
 21
3583.572118600212
 31
0.0
  0
INSERT
  5
13819
330
747D
100
AcDbEntity
  8
部品1
 48
50.0
100
AcDbBlockReference
  2
A$C0EDA5930
 10
10714.95930892337
 20
3608.655109487268
 30
0.0
  0
ARC
  5
1381A
330
747D
100
AcDbEntity
  8
部品1
 48
50.0
100
AcDbCircle
 10
10695.78362603364
 20
3636.510459116685
 30
0.0
 40
10.0
100
AcDbArc
 50
87.28578778387824
 51
177.2857877838809
  0
LINE
  5
1381B
330
747D
100
AcDbEntity
  8
部品1
 48
50.0
100
AcDbLine
 10
10683.37977902216
 20
3586.041215221856
 30
0.0
 11
10685.79484443886
 21
3636.984001355254
 31
0.0
  0
LINE
  5
1381C
330
747D
100
AcDbEntity
  8
部品1
 48
50.0
100
AcDbLine
 10
11125.97977902217
 20
3628.25393086572
 30
0.0
 11
11148.47977902218
 21
3692.273292616594
 31
0.0
  0
LINE
  5
1381D
330
747D
100
AcDbEntity
  8
部品1
 48
50.0
100
AcDbLine
 10
11043.47977902217
 20
3697.488107431409
 30
0.0
 11
11065.97977902217
 21
3628.253930865718
 31
0.0
  0
ARC
  5
1381E
330
747D
100
AcDbEntity
  8
部品1
 48
50.0
100
AcDbCircle
 10
11161.44583994279
 20
3704.910242627093
 30
0.0
 40
13.0
100
AcDbArc
 50
267.2857877838783
 51
355.2936942109112
  0
LINE
  5
1381F
330
747D
100
AcDbEntity
  8
部品1
 48
50.0
100
AcDbLine
 10
10925.58650256749
 20
3703.077122018889
 30
0.0
 11
10919.60215407712
 21
3576.844771049806
 31
0.0
  0
LINE
  5
13820
330
747D
100
AcDbEntity
  8
部品1
 48
50.0
100
AcDbLine
 10
10966.54050710613
 20
3701.135598840759
 30
0.0
 11
10960.53248150379
 21
3574.403808791876
 31
0.0
  0
LINE
  5
13821
330
747D
100
AcDbEntity
  8
細線
 48
50.0
100
AcDbLine
 10
11019.64272505942
 20
3510.749163081355
 30
0.0
 11
10975.33563224623
 21
3554.896949374723
 31
0.0
  0
LINE
  5
13822
330
747D
100
AcDbEntity
  8
部品1
 48
50.0
100
AcDbLine
 10
11019.64272505942
 20
3510.749163081355
 30
0.0
 11
10999.77977902217
 21
3498.985902942104
 31
0.0
  0
LINE
  5
13823
330
747D
100
AcDbEntity
  8
部品1
 48
50.0
100
AcDbLine
 10
11065.97977902217
 20
3606.25393086572
 30
0.0
 11
10976.79879293931
 21
3553.439049488055
 31
0.0
  0
LINE
  5
13824
330
747D
100
AcDbEntity
  8
部品1
 48
50.0
100
AcDbLine
 10
10975.33563224623
 20
3554.896949374721
 30
0.0
 11
10955.39714131273
 21
3543.088949937214
 31
0.0
  0
ARC
  5
13825
330
747D
100
AcDbEntity
  8
部品1
 48
50.0
100
AcDbCircle
 10
10975.77977902217
 20
3508.671685664677
 30
0.0
 40
40.0
100
AcDbArc
 50
120.6349217313126
 51
179.9999999999936
  0
LINE
  5
13826
330
747D
100
AcDbEntity
  8
部品1
 48
50.0
100
AcDbLine
 10
10935.77977902217
 20
3498.985902942101
 30
0.0
 11
10935.77977902217
 21
3508.671685664682
 31
0.0
  0
LINE
  5
13827
330
747D
100
AcDbEntity
  8
細線
 48
50.0
100
AcDbLine
 10
10999.77977902217
 20
3482.985902942101
 30
0.0
 11
10935.77977902217
 21
3482.985902942101
 31
0.0
  0
LINE
  5
13828
330
747D
100
AcDbEntity
  8
部品1
 48
50.0
100
AcDbLine
 10
10917.77977902216
 20
3410.541215221857
 30
0.0
 11
10997.77977902216
 21
3410.541215221851
 31
0.0
  0
LINE
  5
13829
330
747D
100
AcDbEntity
  8
部品1
 48
50.0
100
AcDbLine
 10
10999.77977902217
 20
3482.985902942101
 30
0.0
 11
10999.77977902217
 21
3498.985902942101
 31
0.0
  0
LINE
  5
1382A
330
747D
100
AcDbEntity
  8
部品1
 48
50.0
100
AcDbLine
 10
10935.77977902217
 20
3482.985902942101
 30
0.0
 11
10935.77977902217
 21
3498.985902942101
 31
0.0
  0
LINE
  5
1382B
330
747D
100
AcDbEntity
  8
部品1
 48
50.0
100
AcDbLine
 10
10963.46844338292
 20
3636.334254679599
 30
0.0
 11
10960.55615861573
 21
3574.90324787168
 31
0.0
  0
LINE
  5
1382C
330
747D
100
AcDbEntity
  8
部品1
 48
50.0
100
AcDbLine
 10
11009.84635700865
 20
3667.887195278018
 30
0.0
 11
10992.82561817655
 21
3580.308683366399
 31
0.0
  0
LINE
  5
1382D
330
747D
100
AcDbEntity
  8
部品1
 48
50.0
100
AcDbLine
 10
10915.28258362348
 20
3578.432849777175
 30
0.0
 11
10915.28258362348
 21
3626.578656682794
 31
0.0
  0
LINE
  5
1382E
330
747D
100
AcDbEntity
  8
部品1
 48
50.0
100
AcDbLine
 10
10982.82129711474
 20
3573.347153829569
 30
0.0
 11
10960.53248150377
 21
3574.403808791876
 31
0.0
  0
LINE
  5
1382F
330
747D
100
AcDbEntity
  8
部品1
 48
50.0
100
AcDbLine
 10
10919.60215407712
 20
3576.844771049804
 30
0.0
 11
10960.55615861573
 21
3574.903247871676
 31
0.0
  0
LINE
  5
13830
330
747D
100
AcDbEntity
  8
部品1
 48
50.0
100
AcDbLine
 10
10915.28258362348
 20
3578.551235336818
 30
0.0
 11
10919.67318541291
 21
3578.343088289023
 31
0.0
  0
LINE
  5
13831
330
747D
100
AcDbEntity
  8
部品1
 48
50.0
100
AcDbLine
 10
10917.77977902217
 20
3578.432849777175
 30
0.0
 11
10915.28258362348
 21
3578.432849777175
 31
0.0
  0
ARC
  5
13832
330
747D
100
AcDbEntity
  8
部品1
 48
50.0
100
AcDbCircle
 10
10983.2948393533
 20
3583.335935424353
 30
0.0
 40
10.0
100
AcDbArc
 50
267.2857877838496
 51
342.378640939928
  0
ARC
  5
13833
330
747D
100
AcDbEntity
  8
部品1
 48
50.0
100
AcDbCircle
 10
10905.28258362348
 20
3626.578656682795
 30
0.0
 40
10.0
100
AcDbArc
 50
359.9999999999964
 51
87.28578778387785
  0
ARC
  5
13834
330
747D
100
AcDbEntity
  8
部品1
 48
50.0
100
AcDbCircle
 10
11005.08096759703
 20
3669.400821306996
 30
0.0
 40
5.0
100
AcDbArc
 50
342.3786409399284
 51
87.28578778385307
  0
INSERT
  5
13835
330
747D
100
AcDbEntity
  8
部品1
 48
50.0
100
AcDbBlockReference
  2
A$C0EDA5930
 10
10874.77981443991
 20
3516.54125424918
 30
0.0
  0
INSERT
  5
13836
330
747D
100
AcDbEntity
  8
部品1
 48
50.0
100
AcDbBlockReference
  2
A$C0EDA5930
 10
10874.77981443991
 20
3601.078433670185
 30
0.0
  0
LINE
  5
13837
330
747D
100
AcDbEntity
  8
部品1
 48
50.0
100
AcDbLine
 10
10849.77977902216
 20
3410.541215221857
 30
0.0
 11
10849.77977902216
 21
3463.706739462807
 31
0.0
  0
INSERT
  5
13838
330
747D
100
AcDbEntity
  8
部品1
 48
50.0
100
AcDbBlockReference
  2
A$C0EDA5930
 10
10874.77981443991
 20
3431.541254249179
 30
0.0
  0
LINE
  5
13839
330
747D
100
AcDbEntity
  8
部品1
 48
50.0
100
AcDbLine
 10
10849.77977902216
 20
3410.541215221857
 30
0.0
 11
10917.77977902216
 21
3410.541215221857
 31
0.0
  0
LINE
  5
1383A
330
747D
100
AcDbEntity
  8
部品1
 48
50.0
100
AcDbLine
 10
10917.77977902216
 20
3410.541215221857
 30
0.0
 11
10917.77977902217
 21
3578.432849777175
 31
0.0
  0
LINE
  5
1383B
330
747D
100
AcDbEntity
  8
部品1
 48
50.0
100
AcDbLine
 10
11112.02344158573
 20
3567.783407893801
 30
0.0
 11
11018.17956436634
 21
3512.207062968026
 31
0.0
  0
LINE
  5
1383C
330
747D
100
AcDbEntity
  8
細線
 48
50.0
100
AcDbLine
 10
11107.3605504492
 20
3565.021944345686
 30
0.0
 11
11065.97977902217
 21
3606.25393086572
 31
0.0
  0
LINE
  5
1383D
330
747D
100
AcDbEntity
  8
部品1
 48
50.0
100
AcDbLine
 10
11125.97977902217
 20
3606.253930865718
 30
0.0
 11
11125.97977902217
 21
3628.25393086572
 31
0.0
  0
LINE
  5
1383E
330
747D
100
AcDbEntity
  8
部品1
 48
50.0
100
AcDbLine
 10
11125.97977902217
 20
3606.25393086572
 30
0.0
 11
11125.97977902217
 21
3593.068914210441
 31
0.0
  0
LINE
  5
1383F
330
747D
100
AcDbEntity
  8
仕様書枠
 48
50.0
100
AcDbLine
 10
11065.97977902217
 20
3628.253930865718
 30
0.0
 11
11065.97977902217
 21
3628.253930865718
 31
0.0
  0
LINE
  5
13840
330
747D
100
AcDbEntity
  8
部品1
 48
50.0
100
AcDbLine
 10
11065.97977902217
 20
3606.25393086572
 30
0.0
 11
11065.97977902217
 21
3628.253930865718
 31
0.0
  0
LINE
  5
13841
330
747D
100
AcDbEntity
  8
部品1
 48
50.0
100
AcDbLine
 10
11112.02344158573
 20
3567.783407893801
 30
0.0
 11
11112.02344158573
 21
3567.783407893801
 31
0.0
  0
LINE
  5
13842
330
747D
100
AcDbEntity
  8
部品1
 48
50.0
100
AcDbLine
 10
11095.97977902217
 20
3567.783407893803
 30
0.0
 11
11095.97977902217
 21
3567.783407893801
 31
0.0
  0
ARC
  5
13843
330
747D
100
AcDbEntity
  8
部品1
 48
50.0
100
AcDbCircle
 10
11095.97977902217
 20
3593.068914210444
 30
0.0
 40
30.0
100
AcDbArc
 50
296.7694582856564
 51
359.9999999999946
  0
LINE
  5
13844
330
747D
100
AcDbEntity
  8
細線
 48
50.0
100
AcDbLine
 10
11065.97977902217
 20
3628.25393086572
 30
0.0
 11
11125.97977902217
 21
3628.253930865718
 31
0.0
  0
LINE
  5
13845
330
747D
100
AcDbEntity
  8
仕様書枠
 48
50.0
100
AcDbLine
 10
11065.97977902217
 20
3628.253930865718
 30
0.0
 11
11065.97977902217
 21
3628.253930865718
 31
0.0
  0
LINE
  5
13846
330
747D
100
AcDbEntity
  8
部品1
 48
50.0
100
AcDbLine
 10
11095.97977902217
 20
3567.783407893803
 30
0.0
 11
11095.97977902217
 21
3567.783407893801
 31
0.0
  0
LINE
  5
13847
330
747D
100
AcDbEntity
  8
部品1
 48
50.0
100
AcDbLine
 10
11181.70871392953
 20
3792.597180081764
 30
0.0
 11
11174.40200866041
 21
3703.843616094215
 31
0.0
  0
LINE
  5
13848
330
747D
100
AcDbEntity
  8
部品1
 48
50.0
100
AcDbLine
 10
11159.82499463659
 20
3807.101638947912
 30
0.0
 11
11150.38374625514
 21
3692.420067503325
 31
0.0
  0
ARC
  5
13849
330
747D
100
AcDbEntity
  8
部品1
 48
50.0
100
AcDbCircle
 10
11168.75254521191
 20
3793.663806614642
 30
0.0
 40
13.0
100
AcDbArc
 50
355.2936942109123
 51
87.28578778387824
  0
LINE
  5
13B23
330
747D
100
AcDbEntity
  8
Ｇ．Ｌ
 48
50.0
100
AcDbLine
 10
432.7338315156521
 20
1758.01902198748
 30
0.0
 11
11746.20496767243
 21
1758.019021987513
 31
0.0
  0
LINE
  5
13B35
330
747D
100
AcDbEntity
  8
部品1
 48
50.0
100
AcDbLine
 10
777.2524881510162
 20
5109.606999670115
 30
0.0
 11
6847.252488151022
 21
5109.606999670109
 31
0.0
  0
LINE
  5
13B36
330
747D
100
AcDbEntity
  8
部品1
 48
50.0
100
AcDbLine
 10
807.2524881510162
 20
5179.606999670113
 30
0.0
 11
6817.252488151014
 21
5179.606999670108
 31
0.0
  0
LINE
  5
13B40
330
747D
100
AcDbEntity
  8
部品1
 48
50.0
100
AcDbLine
 10
777.2524881510162
 20
7809.606999670108
 30
0.0
 11
6847.252488151013
 21
7809.60699967011
 31
0.0
  0
LINE
  5
13B41
330
747D
100
AcDbEntity
  8
部品1
 48
50.0
100
AcDbLine
 10
807.2524881510162
 20
7685.60699967011
 30
0.0
 11
6817.252488151019
 21
7685.606999670111
 31
0.0
  0
LINE
  5
13B5D
330
747D
100
AcDbEntity
  8
寸法
 48
50.0
100
AcDbLine
 10
3812.252488151012
 20
1473.01902198748
 30
0.0
 11
3812.252488151012
 21
1282.193995306548
 31
0.0
  0
INSERT
  5
13B60
330
747D
100
AcDbEntity
  8
寸法
 48
50.0
100
AcDbBlockReference
  2
_DOTSMALL
 10
3812.252488151012
 20
1327.193995306548
 30
0.0
 41
75.0
 42
75.0
 43
75.0
  0
POINT
  5
13B64
330
747D
100
AcDbEntity
  8
寸法
 48
50.0
100
AcDbPoint
 10
3812.252488151012
 20
1327.193995306548
 30
0.0
  0
INSERT
  5
13B8F
330
747D
100
AcDbEntity
  8
寸法
 48
50.0
100
AcDbBlockReference
  2
A$C1AD6672A
 10
829.1448178836786
 20
1758.019021987481
 30
0.0
  0
TEXT
  5
13BA1
330
747D
100
AcDbEntity
  8
文字
 62
     7
 48
50.0
100
AcDbText
 10
9907.054008162901
 20
171.407643192676
 30
0.0
 40
75.0
  1
○間口奥行寸法は柱芯寸法です。
  7
STYLE2
100
AcDbText
  0
DIMENSION
  5
13BF5
330
747D
100
AcDbEntity
  8
寸法
 48
50.0
100
AcDbDimension
  2
*D25
 10
7709.458737147115
 20
1488.019021987518
 30
0.0
 11
7709.458737147115
 21
1623.019021987518
 31
0.0
 12
-9280.784714539953
 22
-581.4462686847527
 32
0.0
 70
   160
 71
     5
 42
-1.0
  3
INABA_S30G
100
AcDbAlignedDimension
 13
8050.975729455057
 23
1758.019021987518
 33
0.0
 14
9203.779779022136
 24
1488.019021987518
 34
0.0
 50
90.0
100
AcDbRotatedDimension
  0
DIMENSION
  5
13BF6
330
747D
100
AcDbEntity
  8
寸法
 48
50.0
100
AcDbDimension
  2
*D26
 10
7235.905270004882
 20
5109.606999670108
 30
0.0
 11
7235.905270004882
 21
4955.071566599242
 31
0.0
 70
   160
 71
     5
 42
69.99999999999818
  3
INABA_S30G
100
AcDbAlignedDimension
 13
6817.252488151019
 23
5179.606999670106
 33
0.0
 14
6847.252488151027
 24
5109.606999670108
 34
0.0
 50
90.0
100
AcDbRotatedDimension
  0
DIMENSION
  5
13BF7
330
747D
100
AcDbEntity
  8
寸法
 48
50.0
100
AcDbDimension
  2
*D27
 10
7591.552467736602
 20
5109.606999670108
 30
0.0
 11
7591.552467736601
 21
6459.606999670109
 31
0.0
 70
   160
 71
     5
 42
2700.000000000001
  3
INABA_S30G
100
AcDbAlignedDimension
 13
6847.252488151013
 23
7809.606999670108
 33
0.0
 14
6847.252488151022
 24
5109.606999670108
 34
0.0
 50
90.0
100
AcDbRotatedDimension
  0
DIMENSION
  5
13BF8
330
747D
100
AcDbEntity
  8
寸法
 48
50.0
100
AcDbDimension
  2
*D28
 10
7235.905270004882
 20
5179.606999670106
 30
0.0
 11
7160.896411737164
 21
6432.60699967011
 31
0.0
 70
    32
 71
     5
 42
2506.000000000005
  3
INABA_S30G
100
AcDbAlignedDimension
 13
6817.252488151019
 23
7685.606999670111
 33
0.0
 14
6817.252488151019
 24
5179.606999670106
 34
0.0
 50
90.0
100
AcDbRotatedDimension
  0
DIMENSION
  5
13BF9
330
747D
100
AcDbEntity
  8
寸法
 48
50.0
100
AcDbDimension
  2
*D29
 10
7235.905270004882
 20
7685.606999670111
 30
0.0
 11
7235.905270004882
 21
7991.106999670113
 31
0.0
 70
   160
 71
     5
 42
124.0
  3
INABA_S30G
100
AcDbAlignedDimension
 13
6847.252488151013
 23
7809.60699967011
 33
0.0
 14
6817.252488151019
 24
7685.606999670111
 34
0.0
 50
90.0
100
AcDbRotatedDimension
  0
TEXT
  5
13DB9
330
747D
100
AcDbEntity
  8
文字
 62
     7
 48
50.0
100
AcDbText
 10
10888.44172155001
 20
6827.931805836128
 30
0.0
 40
81.11400000000001
  1
F12            2.3
  7
STYLE1
100
AcDbText
  0
TEXT
  5
13DBA
330
747D
100
AcDbEntity
  8
文字
 62
     7
 48
50.0
100
AcDbText
 10
10872.35681695962
 20
6965.825605836129
 30
0.0
 40
81.11400000000001
  1
Y10            0.7
  7
STYLE1
100
AcDbText
  0
TEXT
  5
13DBB
330
747D
100
AcDbEntity
  8
文字
 62
     7
 48
50.0
100
AcDbText
 10
10872.35681695962
 20
7103.719405836129
 30
0.0
 40
81.11400000000001
  1
Y10            0.7
  7
STYLE1
100
AcDbText
  0
TEXT
  5
13DBC
330
747D
100
AcDbEntity
  8
文字
 62
     7
 48
50.0
100
AcDbText
 10
10872.35681695962
 20
7241.61320583613
 30
0.0
 40
81.11400000000001
  1
Y10            0.5
  7
STYLE1
100
AcDbText
  0
TEXT
  5
13DBD
330
747D
100
AcDbEntity
  8
文字
 62
     7
 48
50.0
100
AcDbText
 10
10872.35681695962
 20
7379.507005836128
 30
0.0
 40
81.11400000000001
  1
F12            0.6
  7
STYLE1
100
AcDbText
  0
TEXT
  5
13DBE
330
747D
100
AcDbEntity
  8
文字
 62
     7
 48
50.0
100
AcDbText
 10
10888.44172155
 20
7793.18840583613
 30
0.0
 40
81.11400000000001
  1
F12            2.3
  7
STYLE1
100
AcDbText
  0
TEXT
  5
13DBF
330
747D
100
AcDbEntity
  8
文字
 62
     7
 48
50.0
100
AcDbText
 10
9748.510891051182
 20
7655.294605836129
 30
0.0
 40
81.11400000000001
  1
母屋
  7
STYLE1
100
AcDbText
  0
TEXT
  5
13DC0
330
747D
100
AcDbEntity
  8
文字
 62
     7
 48
50.0
100
AcDbText
 10
10888.44172155001
 20
7655.294605836129
 30
0.0
 40
81.11400000000001
  1
F12            2.3
  7
STYLE1
100
AcDbText
  0
LINE
  5
13DC1
330
747D
100
AcDbEntity
  8
部品1
100
AcDbLine
 10
11930.4
 20
6113.793000000003
 30
0.0
 11
9380.400000000003
 21
6113.793000000003
 31
0.0
  0
LINE
  5
13DC2
330
747D
100
AcDbEntity
  8
部品1
100
AcDbLine
 10
9380.400000000003
 20
8182.200000000003
 30
0.0
 11
9380.400000000003
 21
6113.793000000003
 31
0.0
  0
TEXT
  5
13DC3
330
747D
100
AcDbEntity
  8
文字
 62
     7
 48
50.0
100
AcDbText
 10
10888.44172155001
 20
6552.144205836128
 30
0.0
 40
81.11400000000001
  1
硬質塩化ビニール
  7
STYLE1
100
AcDbText
  0
TEXT
  5
13DC4
330
747D
100
AcDbEntity
  8
文字
 62
     7
 48
50.0
100
AcDbText
 10
10888.44172155
 20
7931.082205836128
 30
0.0
 40
81.11400000000001
  1
PZ            2.3
  7
STYLE1
100
AcDbText
  0
LINE
  5
13DC5
330
747D
100
AcDbEntity
  8
部品1
100
AcDbLine
 10
11930.4
 20
6251.686800000003
 30
0.0
 11
9380.400000000003
 21
6251.686800000005
 31
0.0
  0
TEXT
  5
13DC6
330
747D
100
AcDbEntity
  8
文字
 62
     7
 48
50.0
100
AcDbText
 10
9477.313762268375
 20
6552.144205836128
 30
0.0
 40
81.11400000000001
  1
11
  7
STYLE1
100
AcDbText
  0
LINE
  5
13DC7
330
747D
100
AcDbEntity
  8
部品1
100
AcDbLine
 10
11930.4
 20
6803.262000000002
 30
0.0
 11
9380.400000000003
 21
6803.262000000003
 31
0.0
  0
LINE
  5
13DC8
330
747D
100
AcDbEntity
  8
部品1
100
AcDbLine
 10
11930.4
 20
7216.943400000004
 30
0.0
 11
9380.400000000001
 21
7216.943400000004
 31
0.0
  0
LINE
  5
13DC9
330
747D
100
AcDbEntity
  8
部品1
100
AcDbLine
 10
11930.4
 20
6527.474400000002
 30
0.0
 11
9380.400000000003
 21
6527.474400000002
 31
0.0
  0
LINE
  5
13DCA
330
747D
100
AcDbEntity
  8
部品1
100
AcDbLine
 10
11930.4
 20
6389.580600000003
 30
0.0
 11
9380.400000000003
 21
6389.580600000005
 31
0.0
  0
LINE
  5
13DCB
330
747D
100
AcDbEntity
  8
部品1
100
AcDbLine
 10
11930.4
 20
6665.3682
 30
0.0
 11
9380.400000000001
 21
6665.3682
 31
0.0
  0
TEXT
  5
13DCC
330
747D
100
AcDbEntity
  8
文字
 62
     7
 48
50.0
100
AcDbText
 10
9495.493720430586
 20
7241.61320583613
 30
0.0
 40
81.11400000000001
  1
6
  7
STYLE1
100
AcDbText
  0
TEXT
  5
13DCD
330
747D
100
AcDbEntity
  8
文字
 62
     7
 48
50.0
100
AcDbText
 10
9495.493720430578
 20
7103.719405836129
 30
0.0
 40
81.11400000000001
  1
7
  7
STYLE1
100
AcDbText
  0
TEXT
  5
13DCE
330
747D
100
AcDbEntity
  8
文字
 62
     7
 48
50.0
100
AcDbText
 10
9495.493720430578
 20
6827.931805836128
 30
0.0
 40
81.11400000000001
  1
9
  7
STYLE1
100
AcDbText
  0
TEXT
  5
13DCF
330
747D
100
AcDbEntity
  8
文字
 62
     7
 48
50.0
100
AcDbText
 10
9495.493720430578
 20
6965.825605836129
 30
0.0
 40
81.11400000000001
  1
8
  7
STYLE1
100
AcDbText
  0
TEXT
  5
13DD0
330
747D
100
AcDbEntity
  8
文字
 62
     7
 48
50.0
100
AcDbText
 10
9477.313762268375
 20
6690.038005836128
 30
0.0
 40
81.11400000000001
  1
10
  7
STYLE1
100
AcDbText
  0
TEXT
  5
13DD1
330
747D
100
AcDbEntity
  8
文字
 62
     7
 48
50.0
100
AcDbText
 10
9495.493720430586
 20
7379.507005836128
 30
0.0
 40
81.11400000000001
  1
5
  7
STYLE1
100
AcDbText
  0
TEXT
  5
13DD2
330
747D
100
AcDbEntity
  8
文字
 62
     7
 48
50.0
100
AcDbText
 10
9748.510891051182
 20
6965.825605836129
 30
0.0
 40
81.11400000000001
  1
鼻隠シ
  7
STYLE1
100
AcDbText
  0
TEXT
  5
13DD3
330
747D
100
AcDbEntity
  8
文字
 62
     7
 48
50.0
100
AcDbText
 10
9748.510891051182
 20
7793.18840583613
 30
0.0
 40
81.11400000000001
  1
梁
  7
STYLE1
100
AcDbText
  0
TEXT
  5
13DD4
330
747D
100
AcDbEntity
  8
文字
 62
     7
 48
50.0
100
AcDbText
 10
9748.510891051177
 20
7931.082205836128
 30
0.0
 40
81.11400000000001
  1
柱
  7
STYLE1
100
AcDbText
  0
TEXT
  5
13DD5
330
747D
100
AcDbEntity
  8
文字
 62
     7
 48
50.0
100
AcDbText
 10
10756.35413580791
 20
8068.976005836129
 30
0.0
 40
81.11400000000001
  1
材料（材質）　　単位mm
  7
STYLE1
100
AcDbText
  0
TEXT
  5
13DD6
330
747D
100
AcDbEntity
  8
文字
 62
     7
 48
50.0
100
AcDbText
 10
9888.635855497732
 20
8068.976005836129
 30
0.0
 40
81.11400000000001
  1
部　　品　　名
  7
STYLE1
100
AcDbText
  0
TEXT
  5
13DD7
330
747D
100
AcDbEntity
  8
文字
 62
     7
 48
50.0
100
AcDbText
 10
9495.493720430586
 20
7655.294605836129
 30
0.0
 40
81.11400000000001
  1
3
  7
STYLE1
100
AcDbText
  0
TEXT
  5
13DD8
330
747D
100
AcDbEntity
  8
文字
 62
     7
 48
50.0
100
AcDbText
 10
9495.493720430586
 20
7517.400805836129
 30
0.0
 40
81.11400000000001
  1
4
  7
STYLE1
100
AcDbText
  0
TEXT
  5
13DD9
330
747D
100
AcDbEntity
  8
文字
 62
     7
 48
50.0
100
AcDbText
 10
9495.493720430586
 20
7793.18840583613
 30
0.0
 40
81.11400000000001
  1
2
  7
STYLE1
100
AcDbText
  0
TEXT
  5
13DDA
330
747D
100
AcDbEntity
  8
文字
 62
     7
 48
50.0
100
AcDbText
 10
9495.493720430586
 20
7931.082205836128
 30
0.0
 40
81.11400000000001
  1
1
  7
STYLE1
100
AcDbText
  0
TEXT
  5
13DDB
330
747D
100
AcDbEntity
  8
文字
 62
     7
 48
50.0
100
AcDbText
 10
9435.659867331061
 20
8068.976005836129
 30
0.0
 40
81.11400000000001
  1
品番
  7
STYLE1
100
AcDbText
  0
LINE
  5
13DDC
330
747D
100
AcDbEntity
  8
部品1
100
AcDbLine
 10
11930.4
 20
7630.624800000004
 30
0.0
 11
9380.400000000003
 21
7630.624800000004
 31
0.0
  0
LINE
  5
13DDD
330
747D
100
AcDbEntity
  8
部品1
100
AcDbLine
 10
11930.4
 20
7354.837200000004
 30
0.0
 11
9380.400000000003
 21
7354.837200000004
 31
0.0
  0
LINE
  5
13DDE
330
747D
100
AcDbEntity
  8
部品1
100
AcDbLine
 10
11930.4
 20
7492.731000000002
 30
0.0
 11
9380.400000000003
 21
7492.731000000002
 31
0.0
  0
LINE
  5
13DDF
330
747D
100
AcDbEntity
  8
部品1
100
AcDbLine
 10
11930.4
 20
7906.412400000004
 30
0.0
 11
9380.400000000001
 21
7906.412400000004
 31
0.0
  0
LINE
  5
13DE0
330
747D
100
AcDbEntity
  8
部品1
100
AcDbLine
 10
11930.4
 20
7768.518600000004
 30
0.0
 11
9380.400000000001
 21
7768.518600000003
 31
0.0
  0
LINE
  5
13DE1
330
747D
100
AcDbEntity
  8
部品1
100
AcDbLine
 10
11930.4
 20
8044.306200000001
 30
0.0
 11
9380.400000000001
 21
8044.306200000002
 31
0.0
  0
LINE
  5
13DE2
330
747D
100
AcDbEntity
  8
部品1
100
AcDbLine
 10
9673.141230280178
 20
8182.200000000003
 30
0.0
 11
9673.141230280192
 21
6527.474400000002
 31
0.0
  0
LINE
  5
13DE3
330
747D
100
AcDbEntity
  8
部品1
100
AcDbLine
 10
10695.84492000001
 20
8182.199999999999
 30
0.0
 11
10695.84492000001
 21
6527.474400000001
 31
0.0
  0
LINE
  5
13DE4
330
747D
100
AcDbEntity
  8
部品1
100
AcDbLine
 10
11930.4
 20
6113.793000000003
 30
0.0
 11
11930.4
 21
8182.200000000003
 31
0.0
  0
LINE
  5
13DE5
330
747D
100
AcDbEntity
  8
部品1
100
AcDbLine
 10
11930.4
 20
8182.200000000003
 30
0.0
 11
9380.400000000001
 21
8182.200000000003
 31
0.0
  0
LINE
  5
13DE6
330
747D
100
AcDbEntity
  8
部品1
100
AcDbLine
 10
11930.4
 20
6941.155800000004
 30
0.0
 11
9380.400000000003
 21
6941.155800000005
 31
0.0
  0
TEXT
  5
13DE7
330
747D
100
AcDbEntity
  8
文字
 62
     7
 48
50.0
100
AcDbText
 10
9748.510891051184
 20
7517.400805836129
 30
0.0
 40
81.11400000000001
  1
梁中屋根板
  7
STYLE1
100
AcDbText
  0
TEXT
  5
13DE8
330
747D
100
AcDbEntity
  8
文字
 62
     7
 48
50.0
100
AcDbText
 10
10872.35681695962
 20
7517.400805836129
 30
0.0
 40
81.11400000000001
  1
Y10            1.0
  7
STYLE1
100
AcDbText
  0
TEXT
  5
13DE9
330
747D
100
AcDbEntity
  8
文字
 62
     7
 48
50.0
100
AcDbText
 10
9748.510891051184
 20
7379.507005836128
 30
0.0
 40
81.11400000000001
  1
腰パネル
  7
STYLE1
100
AcDbText
  0
TEXT
  5
13DEA
330
747D
100
AcDbEntity
  8
文字
 62
     7
 48
50.0
100
AcDbText
 10
9748.510891051182
 20
7241.61320583613
 30
0.0
 40
81.11400000000001
  1
屋根パネル
  7
STYLE1
100
AcDbText
  0
TEXT
  5
13DEB
330
747D
100
AcDbEntity
  8
文字
 62
     7
 48
50.0
100
AcDbText
 10
9748.510891051182
 20
6827.931805836128
 30
0.0
 40
81.11400000000001
  1
プレート
  7
STYLE1
100
AcDbText
  0
TEXT
  5
13DEC
330
747D
100
AcDbEntity
  8
文字
 62
     7
 48
50.0
100
AcDbText
 10
9748.510891051182
 20
6690.038005836128
 30
0.0
 40
81.11400000000001
  1
車止メ棒
  7
STYLE1
100
AcDbText
  0
TEXT
  5
13DED
330
747D
100
AcDbEntity
  8
文字
 62
     7
 48
50.0
100
AcDbText
 10
9748.510891051182
 20
6552.144205836132
 30
0.0
 40
81.11400000000001
  1
雨とい(別売)
  7
STYLE1
100
AcDbText
  0
TEXT
  5
13DEE
330
747D
100
AcDbEntity
  8
文字
 62
     7
 48
50.0
100
AcDbText
 10
9461.945370829134
 20
6276.356605836131
 30
0.0
 40
81.11400000000001
  1
F12→溶融亜鉛めっき鋼板(JIS G 3302)
  7
STYLE1
100
AcDbText
  0
TEXT
  5
13DEF
330
747D
100
AcDbEntity
  8
文字
 62
     7
 48
50.0
100
AcDbText
 10
9461.945370829125
 20
6138.462805836129
 30
0.0
 40
81.11400000000001
  1
Y10→溶融亜鉛-5％アルミニウム合金めっき鋼板(JIS G 3317)
 41
0.9
  7
STYLE1
100
AcDbText
  0
TEXT
  5
13DF0
330
747D
100
AcDbEntity
  8
文字
 62
     7
 48
50.0
100
AcDbText
 10
9461.94537082929
 20
6414.25040583613
 30
0.0
 40
81.11400000000001
  1
PZ→一般構造用角形鋼管(JIS G 3466)
 41
0.9
  7
STYLE1
100
AcDbText
  0
LINE
  5
13DF1
330
747D
100
AcDbEntity
  8
部品1
100
AcDbLine
 10
11930.4
 20
7079.049600000004
 30
0.0
 11
9380.400000000001
 21
7079.049600000004
 31
0.0
  0
TEXT
  5
13DF2
330
747D
100
AcDbEntity
  8
文字
 62
     7
 48
50.0
100
AcDbText
 10
9748.510891051182
 20
7103.719405836129
 30
0.0
 40
81.11400000000001
  1
妻板
  7
STYLE1
100
AcDbText
  0
TEXT
  5
13DF3
330
747D
100
AcDbEntity
  8
文字
 62
     7
 48
50.0
100
AcDbText
 10
10888.44172155001
 20
6690.038005836128
 30
0.0
 40
81.11400000000001
  1
F12            1.2
  7
STYLE1
100
AcDbText
  0
DIMENSION
  5
13DF7
330
747D
100
AcDbEntity
  8
寸法
 48
50.0
100
AcDbDimension
  2
*D30
 10
3812.252488151033
 20
1327.153504751242
 30
0.0
 11
2412.252488151035
 21
1402.162363018959
 31
0.0
 70
    32
 71
     5
 42
2799.999999999997
  3
INABA_S30G
100
AcDbAlignedDimension
 13
1012.252488151036
 23
1488.01902198748
 33
0.0
 14
3812.252488151033
 24
1488.019021987515
 34
0.0
100
AcDbRotatedDimension
1001
ACAD
1000
DSTYLE
1002
{
1070
   341
1005
0
1002
}
  0
LINE
  5
13E47
330
747D
100
AcDbEntity
  8
点線
 48
10.0
100
AcDbLine
 10
912.2524881510353
 20
1503.01902198748
 30
0.0
 11
982.2524881510362
 21
1503.01902198748
 31
0.0
  0
LINE
  5
13E48
330
747D
100
AcDbEntity
  8
点線
 48
10.0
100
AcDbLine
 10
1042.252488151036
 20
1503.019021987481
 30
0.0
 11
1112.252488151036
 21
1503.019021987481
 31
0.0
  0
LINE
  5
13E49
330
747D
100
AcDbEntity
  8
点線
 48
10.0
100
AcDbLine
 10
1042.252488151036
 20
1513.019021987482
 30
0.0
 11
1112.252488151036
 21
1513.019021987482
 31
0.0
  0
LINE
  5
13E4A
330
747D
100
AcDbEntity
  8
点線
 48
10.0
100
AcDbLine
 10
912.2524881510353
 20
1513.01902198748
 30
0.0
 11
982.2524881510362
 21
1513.01902198748
 31
0.0
  0
LINE
  5
13E4B
330
747D
100
AcDbEntity
  8
点線
 48
10.0
100
AcDbLine
 10
1112.252488151036
 20
1513.019021987482
 30
0.0
 11
1112.252488151036
 21
1503.019021987481
 31
0.0
  0
LINE
  5
13E4C
330
747D
100
AcDbEntity
  8
点線
 48
10.0
100
AcDbLine
 10
912.2524881510353
 20
1513.01902198748
 30
0.0
 11
912.2524881510353
 21
1503.01902198748
 31
0.0
  0
LINE
  5
13E4E
330
747D
100
AcDbEntity
  8
点線
 48
10.0
100
AcDbLine
 10
3712.252488151032
 20
1513.019021987514
 30
0.0
 11
3712.252488151032
 21
1503.019021987514
 31
0.0
  0
LINE
  5
13E4F
330
747D
100
AcDbEntity
  8
点線
 48
10.0
100
AcDbLine
 10
3912.252488151033
 20
1513.019021987516
 30
0.0
 11
3912.252488151033
 21
1503.019021987515
 31
0.0
  0
LINE
  5
13E50
330
747D
100
AcDbEntity
  8
点線
 48
10.0
100
AcDbLine
 10
3712.252488151032
 20
1513.019021987514
 30
0.0
 11
3782.252488151033
 21
1513.019021987514
 31
0.0
  0
LINE
  5
13E51
330
747D
100
AcDbEntity
  8
点線
 48
10.0
100
AcDbLine
 10
3842.252488151033
 20
1513.019021987516
 30
0.0
 11
3912.252488151033
 21
1513.019021987516
 31
0.0
  0
LINE
  5
13E52
330
747D
100
AcDbEntity
  8
点線
 48
10.0
100
AcDbLine
 10
3842.252488151033
 20
1503.019021987516
 30
0.0
 11
3912.252488151033
 21
1503.019021987516
 31
0.0
  0
LINE
  5
13E53
330
747D
100
AcDbEntity
  8
点線
 48
10.0
100
AcDbLine
 10
3712.252488151032
 20
1503.019021987514
 30
0.0
 11
3782.252488151033
 21
1503.019021987514
 31
0.0
  0
LINE
  5
13E54
330
747D
100
AcDbEntity
  8
点線
 48
10.0
100
AcDbLine
 10
6512.252486199253
 20
1502.978531432181
 30
0.0
 11
6582.252486199253
 21
1502.978531432181
 31
0.0
  0
LINE
  5
13E55
330
747D
100
AcDbEntity
  8
点線
 48
10.0
100
AcDbLine
 10
6642.252486199253
 20
1502.978531432183
 30
0.0
 11
6712.252486199253
 21
1502.978531432183
 31
0.0
  0
LINE
  5
13E56
330
747D
100
AcDbEntity
  8
点線
 48
10.0
100
AcDbLine
 10
6642.252486199253
 20
1512.978531432183
 30
0.0
 11
6712.252486199253
 21
1512.978531432183
 31
0.0
  0
LINE
  5
13E57
330
747D
100
AcDbEntity
  8
点線
 48
10.0
100
AcDbLine
 10
6512.252486199253
 20
1512.978531432181
 30
0.0
 11
6582.252486199253
 21
1512.978531432181
 31
0.0
  0
LINE
  5
13E58
330
747D
100
AcDbEntity
  8
点線
 48
10.0
100
AcDbLine
 10
6712.252486199253
 20
1512.978531432183
 30
0.0
 11
6712.252486199253
 21
1502.978531432182
 31
0.0
  0
LINE
  5
13E59
330
747D
100
AcDbEntity
  8
点線
 48
10.0
100
AcDbLine
 10
6512.252486199253
 20
1512.978531432181
 30
0.0
 11
6512.252486199253
 21
1502.978531432181
 31
0.0
  0
LINE
  5
13E76
330
747D
100
AcDbEntity
  8
センター
 48
0.5
100
AcDbLine
 10
692.2524881510199
 20
7572.60699967011
 30
0.0
 11
892.2524881510199
 21
7572.60699967011
 31
0.0
  0
LINE
  5
13E7C
330
747D
100
AcDbEntity
  8
センター
 48
0.5
100
AcDbLine
 10
692.2524881510199
 20
6830.606999670114
 30
0.0
 11
892.2524881510199
 21
6830.606999670114
 31
0.0
  0
LINE
  5
13E82
330
747D
100
AcDbEntity
  8
センター
 48
0.5
100
AcDbLine
 10
692.2524881510199
 20
6088.606999670115
 30
0.0
 11
892.2524881510199
 21
6088.606999670115
 31
0.0
  0
LINE
  5
13E88
330
747D
100
AcDbEntity
  8
センター
 48
0.5
100
AcDbLine
 10
692.2524881510162
 20
5346.606999670118
 30
0.0
 11
892.2524881510161
 21
5346.606999670118
 31
0.0
  0
LINE
  5
13F1D
330
747D
100
AcDbEntity
  8
点線
 48
6.0
100
AcDbLine
 10
832.2524881510162
 20
7595.106999670115
 30
0.0
 11
792.2524881510199
 21
7595.106999670115
 31
0.0
  0
LINE
  5
13F1E
330
747D
100
AcDbEntity
  8
点線
 48
6.0
100
AcDbLine
 10
832.2524881510162
 20
6853.106999670115
 30
0.0
 11
792.2524881510187
 21
6853.106999670115
 31
0.0
  0
LINE
  5
13F1F
330
747D
100
AcDbEntity
  8
点線
 48
6.0
100
AcDbLine
 10
832.2524881510162
 20
6111.106999670112
 30
0.0
 11
792.2524881510162
 21
6111.106999670112
 31
0.0
  0
LINE
  5
13F20
330
747D
100
AcDbEntity
  8
点線
 48
6.0
100
AcDbLine
 10
832.2524881510162
 20
5369.106999670115
 30
0.0
 11
792.2524881510162
 21
5369.106999670115
 31
0.0
  0
LINE
  5
13F21
330
747D
100
AcDbEntity
  8
点線
 48
6.0
100
AcDbLine
 10
980.2524881510182
 20
7615.106999670107
 30
0.0
 11
980.2524881510182
 21
7595.106999670115
 31
0.0
  0
LINE
  5
13F22
330
747D
100
AcDbEntity
  8
点線
 48
6.0
100
AcDbLine
 10
1044.252488151018
 20
7615.106999670107
 30
0.0
 11
1044.252488151018
 21
7595.106999670115
 31
0.0
  0
LINE
  5
13F23
330
747D
100
AcDbEntity
  8
点線
 48
6.0
100
AcDbLine
 10
982.2524881510183
 20
7550.10699967011
 30
0.0
 11
982.2524881510183
 21
7595.106999670115
 31
0.0
  0
LINE
  5
13F24
330
747D
100
AcDbEntity
  8
点線
 48
6.0
100
AcDbLine
 10
1042.252488151018
 20
7550.10699967011
 30
0.0
 11
1042.252488151018
 21
7595.106999670115
 31
0.0
  0
LINE
  5
13F25
330
747D
100
AcDbEntity
  8
点線
 48
6.0
100
AcDbLine
 10
982.2524881510183
 20
6873.106999670112
 30
0.0
 11
982.2524881510183
 21
6808.106999670116
 31
0.0
  0
LINE
  5
13F26
330
747D
100
AcDbEntity
  8
点線
 48
6.0
100
AcDbLine
 10
1042.252488151018
 20
6873.106999670112
 30
0.0
 11
1042.252488151018
 21
6808.106999670116
 31
0.0
  0
LINE
  5
13F27
330
747D
100
AcDbEntity
  8
点線
 48
6.0
100
AcDbLine
 10
982.2524881510183
 20
6131.106999670112
 30
0.0
 11
982.2524881510183
 21
6066.106999670115
 31
0.0
  0
LINE
  5
13F28
330
747D
100
AcDbEntity
  8
点線
 48
6.0
100
AcDbLine
 10
1042.252488151018
 20
6131.106999670112
 30
0.0
 11
1042.252488151018
 21
6066.106999670115
 31
0.0
  0
LINE
  5
13F29
330
747D
100
AcDbEntity
  8
点線
 48
6.0
100
AcDbLine
 10
982.2524881510183
 20
5389.106999670111
 30
0.0
 11
982.2524881510183
 21
5324.106999670116
 31
0.0
  0
LINE
  5
13F2A
330
747D
100
AcDbEntity
  8
点線
 48
6.0
100
AcDbLine
 10
1042.252488151018
 20
5389.106999670111
 30
0.0
 11
1042.252488151018
 21
5324.106999670116
 31
0.0
  0
LINE
  5
13F2B
330
747D
100
AcDbEntity
  8
点線
 48
50.0
100
AcDbLine
 10
3537.262182366443
 20
7595.106999670122
 30
0.0
 11
6832.252488151015
 21
7595.106999670122
 31
0.0
  0
LINE
  5
13F2C
330
747D
100
AcDbEntity
  8
点線
 48
50.0
100
AcDbLine
 10
3736.080483150341
 20
6853.106999670117
 30
0.0
 11
6832.252488151015
 21
6853.106999670117
 31
0.0
  0
LINE
  5
13F2D
330
747D
100
AcDbEntity
  8
点線
 48
50.0
100
AcDbLine
 10
3934.898783934232
 20
6111.106999670119
 30
0.0
 11
6832.252488151017
 21
6111.106999670119
 31
0.0
  0
LINE
  5
13F2E
330
747D
100
AcDbEntity
  8
点線
 48
50.0
100
AcDbLine
 10
4133.717084718126
 20
5369.106999670118
 30
0.0
 11
6832.25248815102
 21
5369.106999670118
 31
0.0
  0
LINE
  5
13FB0
330
747D
100
AcDbEntity
  8
部品1
 48
50.0
100
AcDbLine
 10
3812.252488151017
 20
6066.106999670122
 30
0.0
 11
3812.252488151017
 21
6131.106999670118
 31
0.0
  0
LINE
  5
13FB1
330
747D
100
AcDbEntity
  8
点線
 48
6.0
100
AcDbLine
 10
3812.252488151015
 20
7550.106999670117
 30
0.0
 11
3812.252488151015
 21
7615.106999670117
 31
0.0
  0
LINE
  5
13FB2
330
747D
100
AcDbEntity
  8
部品1
 48
50.0
100
AcDbLine
 10
3812.252488151017
 20
5389.106999670116
 30
0.0
 11
3812.252488151017
 21
5324.106999670118
 31
0.0
  0
LINE
  5
13FB4
330
747D
100
AcDbEntity
  8
点線
 48
6.0
100
AcDbLine
 10
3812.252488151017
 20
6808.106999670119
 30
0.0
 11
3812.252488151017
 21
6873.106999670118
 31
0.0
  0
LEADER
  5
13FD2
330
747D
100
AcDbEntity
  8
寸法
 48
50.0
100
AcDbLeader
  3
INABA_S40G
 71
     0
 73
     0
 74
     0
 75
     1
 40
100.0
 41
240.0
 76
     3
 10
10967.77977902207
 20
2241.732768134618
 30
0.0
 10
11092.08343207165
 20
2071.04673596253
 30
0.0
 10
11117.08343207165
 20
2071.04673596253
 30
0.0
340
13FD3
213
0.068680085692904
223
-14.97618146061723
233
0.0
1001
ACAD
1000
DSTYLE
1002
{
1070
    40
1040
10.0
1070
    77
1070
     3
1002
}
  0
MTEXT
  5
13FD3
102
{ACAD_REACTORS
330
13FD2
102
}
330
747D
100
AcDbEntity
  8
寸法
 62
     7
 48
50.0
100
AcDbMText
 10
11127.01475198595
 20
2146.022917423147
 30
0.0
 40
100.0
 41
1.0
 71
     4
 72
     1
  1
別売
 73
     1
 44
1.0
  0
LINE
  5
14018
330
747D
100
AcDbEntity
  8
部品1
 48
50.0
100
AcDbLine
 10
3812.252488151018
 20
3785.69883570088
 30
0.0
 11
3812.252488151018
 21
3818.132290881052
 31
0.0
  0
ENDSEC
  0
SECTION
  2
OBJECTS
  0
DICTIONARY
  5
7471
330
0
100
AcDbDictionary
281
     1
  3
ACAD_COLOR
350
13D58
  3
ACAD_GROUP
350
7472
  3
ACAD_LAYOUT
350
13D59
  3
ACAD_MATERIAL
350
13D57
  3
ACAD_MLINESTYLE
350
7473
  3
ACAD_PLOTSETTINGS
350
13D5A
  3
ACAD_PLOTSTYLENAME
350
13D55
  3
CONTENTDICTIONARY
350
E71C
  3
DRAWINGVARIABLESDICT
350
F3B9
  0
DICTIONARY
  5
13D78
330
7467
100
AcDbDictionary
280
     1
281
     1
  3
ACAD_LAYERFILTERS
360
13E6C
  3
ACAD_LAYERSTATES
360
13D79
  0
DICTIONARY
  5
13D58
102
{ACAD_REACTORS
330
7471
102
}
330
7471
100
AcDbDictionary
281
     1
  0
DICTIONARY
  5
7472
102
{ACAD_REACTORS
330
7471
102
}
330
7471
100
AcDbDictionary
281
     1
  0
DICTIONARY
  5
13D59
102
{ACAD_REACTORS
330
7471
102
}
330
7471
100
AcDbDictionary
281
     1
  3
Model
350
13D5B
  3
レイアウト1
350
13D5C
  0
DICTIONARY
  5
13D57
102
{ACAD_REACTORS
330
7471
102
}
330
7471
100
AcDbDictionary
281
     1
  0
DICTIONARY
  5
7473
102
{ACAD_REACTORS
330
7471
102
}
330
7471
100
AcDbDictionary
281
     1
  3
STANDARD
350
7480
  0
DICTIONARY
  5
13D5A
102
{ACAD_REACTORS
330
7471
102
}
330
7471
100
AcDbDictionary
281
     1
  0
ACDBDICTIONARYWDFLT
  5
13D55
102
{ACAD_REACTORS
330
7471
102
}
330
7471
100
AcDbDictionary
281
     1
  3
Normal
350
13D56
100
AcDbDictionaryWithDefault
340
13D56
  0
DICTIONARY
  5
E71C
102
{ACAD_REACTORS
330
7471
102
}
330
7471
100
AcDbDictionary
281
     1
  0
DICTIONARY
  5
F3B9
102
{ACAD_REACTORS
330
7471
102
}
330
7471
100
AcDbDictionary
281
     1
1001
DRAWINGVARIABLESXDATA
1000
POLARMODE
1000
1
  0
DICTIONARY
  5
13E6C
102
{ACAD_REACTORS
330
13D78
102
}
330
13D78
100
AcDbDictionary
281
     1
  0
DICTIONARY
  5
13D79
102
{ACAD_REACTORS
330
13D78
102
}
330
13D78
100
AcDbDictionary
281
     1
  0
LAYOUT
  5
13D5B
102
{ACAD_REACTORS
330
13D59
102
}
330
13D59
100
AcDbPlotSettings
  1

  2
iR C3880
  4
A3
  6

 40
5.873749732971191
 41
5.873747825622558
 42
5.873748779296875
 43
5.873748779296875
 44
296.9259948730469
 45
419.9466552734374
 46
0.0
 47
0.0
 48
0.0
 49
0.0
140
0.0
141
0.0
142
1.0
143
30.0
 70
 11952
 72
     1
 73
     1
 74
     2
  7
inaba.ctb
 75
    23
147
0.0333333333333333
 76
     0
 77
     2
 78
   300
148
0.0
149
0.0
100
AcDbLayout
  1
Model
 70
     1
 71
     0
 10
0.0
 20
0.0
 11
12.0
 21
9.0
 12
0.0
 22
0.0
 32
0.0
 14
0.0
 24
0.0
 34
0.0
 15
0.0
 25
0.0
 35
0.0
146
0.0
 13
0.0
 23
0.0
 33
0.0
 16
1.0
 26
0.0
 36
0.0
 17
0.0
 27
1.0
 37
0.0
 76
     0
330
747D
  0
LAYOUT
  5
13D5C
102
{ACAD_REACTORS
330
13D59
102
}
330
13D59
100
AcDbPlotSettings
  1

  2
自動 EPSON LP-8400FX (TATENO 上)
  4

  6

 40
0.0
 41
0.0
 42
0.0
 43
0.0
 44
0.0
 45
0.0
 46
0.0
 47
0.0
 48
0.0
 49
0.0
140
0.0
141
0.0
142
1.0
143
1.0
 70
   688
 72
     0
 73
     0
 74
     5
  7
inaba.ctb
 75
    16
147
1.0
 76
     0
 77
     2
 78
   300
148
0.0
149
0.0
100
AcDbLayout
  1
レイアウト1
 70
     0
 71
     1
 10
0.0
 20
0.0
 11
420.0
 21
297.0
 12
0.0
 22
0.0
 32
0.0
 14
1.000000000000000E+20
 24
1.000000000000000E+20
 34
1.000000000000000E+20
 15
-1.000000000000000E+20
 25
-1.000000000000000E+20
 35
-1.000000000000000E+20
146
0.0
 13
0.0
 23
0.0
 33
0.0
 16
1.0
 26
0.0
 36
0.0
 17
0.0
 27
1.0
 37
0.0
 76
     0
330
747A
  0
MLINESTYLE
  5
7480
102
{ACAD_REACTORS
330
7473
102
}
330
7473
100
AcDbMlineStyle
  2
STANDARD
 70
     0
  3

 62
     0
 51
90.0
 52
90.0
 71
     2
 49
0.5
 62
   256
  6
BYLAYER
 49
-0.5
 62
   256
  6
BYLAYER
  0
ACDBPLACEHOLDER
  5
13D56
102
{ACAD_REACTORS
330
13D55
102
}
330
13D55
  0
ENDSEC
  0
EOF
