  0
SECTION
  2
HEADER
  9
$ACADVER
  1
AC1015
  9
$ACADMAINTVER
 70
    20
  9
$DWGCODEPAGE
  3
ANSI_932
  9
$INSBASE
 10
0.0
 20
0.0
 30
0.0
  9
$EXTMIN
 10
128.8000000000011
 20
264.0
 30
0.0
  9
$EXTMAX
 10
16296.0
 20
11070.70309759782
 30
0.0
  9
$LIMMIN
 10
0.0
 20
0.0
  9
$LIMMAX
 10
16800.0
 20
11880.0
  9
$ORTHOMODE
 70
     0
  9
$REGENMODE
 70
     1
  9
$FILLMODE
 70
     1
  9
$QTEXTMODE
 70
     0
  9
$MIRRTEXT
 70
     1
  9
$LTSCALE
 40
7.0
  9
$ATTMODE
 70
     1
  9
$TEXTSIZE
 40
3.5
  9
$TRACEWID
 40
1.0
  9
$TEXTSTYLE
  7
MSGOTHIC
  9
$CLAYER
  8
仕様書枠
  9
$CELTYPE
  6
BYLAYER
  9
$CECOLOR
 62
   256
  9
$CELTSCALE
 40
50.0
  9
$DISPSILH
 70
     0
  9
$DIMSCALE
 40
40.0
  9
$DIMASZ
 40
2.5
  9
$DIMEXO
 40
1.0
  9
$DIMDLI
 40
7.0
  9
$DIMRND
 40
0.0
  9
$DIMDLE
 40
0.0
  9
$DIMEXE
 40
1.0
  9
$DIMTP
 40
0.0
  9
$DIMTM
 40
0.0
  9
$DIMTXT
 40
3.0
  9
$DIMCEN
 40
2.5
  9
$DIMTSZ
 40
0.0
  9
$DIMTOL
 70
     0
  9
$DIMLIM
 70
     0
  9
$DIMTIH
 70
     0
  9
$DIMTOH
 70
     0
  9
$DIMSE1
 70
     0
  9
$DIMSE2
 70
     0
  9
$DIMTAD
 70
     3
  9
$DIMZIN
 70
     8
  9
$DIMBLK
  1

  9
$DIMASO
 70
     1
  9
$DIMSHO
 70
     1
  9
$DIMPOST
  1

  9
$DIMAPOST
  1

  9
$DIMALT
 70
     0
  9
$DIMALTD
 70
     2
  9
$DIMALTF
 40
0.0394
  9
$DIMLFAC
 40
1.0
  9
$DIMTOFL
 70
     0
  9
$DIMTVP
 40
1.0
  9
$DIMTIX
 70
     0
  9
$DIMSOXD
 70
     0
  9
$DIMSAH
 70
     1
  9
$DIMBLK1
  1
DOTSMALL
  9
$DIMBLK2
  1
DOTSMALL
  9
$DIMSTYLE
  2
物置仕様図40
  9
$DIMCLRD
 70
     4
  9
$DIMCLRE
 70
     4
  9
$DIMCLRT
 70
     7
  9
$DIMTFAC
 40
1.0
  9
$DIMGAP
 40
1.0
  9
$DIMJUST
 70
     0
  9
$DIMSD1
 70
     0
  9
$DIMSD2
 70
     0
  9
$DIMTOLJ
 70
     1
  9
$DIMTZIN
 70
     8
  9
$DIMALTZ
 70
     0
  9
$DIMALTTZ
 70
     0
  9
$DIMUPT
 70
     0
  9
$DIMDEC
 70
     2
  9
$DIMTDEC
 70
     2
  9
$DIMALTU
 70
     2
  9
$DIMALTTD
 70
     2
  9
$DIMTXSTY
  7
STANDARD
  9
$DIMAUNIT
 70
     0
  9
$DIMADEC
 70
     0
  9
$DIMALTRND
 40
0.0
  9
$DIMAZIN
 70
     0
  9
$DIMDSEP
 70
    46
  9
$DIMATFIT
 70
     3
  9
$DIMFRAC
 70
     0
  9
$DIMLDRBLK
  1

  9
$DIMLUNIT
 70
     2
  9
$DIMLWD
 70
    -2
  9
$DIMLWE
 70
    -2
  9
$DIMTMOVE
 70
     2
  9
$LUNITS
 70
     2
  9
$LUPREC
 70
     1
  9
$SKETCHINC
 40
1.0
  9
$FILLETRAD
 40
5.0
  9
$AUNITS
 70
     0
  9
$AUPREC
 70
     1
  9
$MENU
  1
.
  9
$ELEVATION
 40
0.0
  9
$PELEVATION
 40
0.0
  9
$THICKNESS
 40
0.0
  9
$LIMCHECK
 70
     0
  9
$CHAMFERA
 40
400.0
  9
$CHAMFERB
 40
400.0
  9
$CHAMFERC
 40
800.0
  9
$CHAMFERD
 40
0.0
  9
$SKPOLY
 70
     0
  9
$TDCREATE
 40
2450696.487780324
  9
$TDUCREATE
 40
2450696.112780324
  9
$TDUPDATE
 40
2455579.570460972
  9
$TDUUPDATE
 40
2455579.195460972
  9
$TDINDWG
 40
0.4356309259
  9
$TDUSRTIMER
 40
0.4356309259
  9
$USRTIMER
 70
     1
  9
$ANGBASE
 50
0.0
  9
$ANGDIR
 70
     0
  9
$PDMODE
 70
     0
  9
$PDSIZE
 40
0.0
  9
$PLINEWID
 40
0.0
  9
$SPLFRAME
 70
     0
  9
$SPLINETYPE
 70
     6
  9
$SPLINESEGS
 70
     8
  9
$HANDSEED
  5
262E
  9
$SURFTAB1
 70
     6
  9
$SURFTAB2
 70
     6
  9
$SURFTYPE
 70
     6
  9
$SURFU
 70
     6
  9
$SURFV
 70
     6
  9
$UCSBASE
  2

  9
$UCSNAME
  2

  9
$UCSORG
 10
0.0
 20
0.0
 30
0.0
  9
$UCSXDIR
 10
1.0
 20
0.0
 30
0.0
  9
$UCSYDIR
 10
0.0
 20
1.0
 30
0.0
  9
$UCSORTHOREF
  2

  9
$UCSORTHOVIEW
 70
     0
  9
$UCSORGTOP
 10
0.0
 20
0.0
 30
0.0
  9
$UCSORGBOTTOM
 10
0.0
 20
0.0
 30
0.0
  9
$UCSORGLEFT
 10
0.0
 20
0.0
 30
0.0
  9
$UCSORGRIGHT
 10
0.0
 20
0.0
 30
0.0
  9
$UCSORGFRONT
 10
0.0
 20
0.0
 30
0.0
  9
$UCSORGBACK
 10
0.0
 20
0.0
 30
0.0
  9
$PUCSBASE
  2

  9
$PUCSNAME
  2

  9
$PUCSORG
 10
0.0
 20
0.0
 30
0.0
  9
$PUCSXDIR
 10
1.0
 20
0.0
 30
0.0
  9
$PUCSYDIR
 10
0.0
 20
1.0
 30
0.0
  9
$PUCSORTHOREF
  2

  9
$PUCSORTHOVIEW
 70
     0
  9
$PUCSORGTOP
 10
0.0
 20
0.0
 30
0.0
  9
$PUCSORGBOTTOM
 10
0.0
 20
0.0
 30
0.0
  9
$PUCSORGLEFT
 10
0.0
 20
0.0
 30
0.0
  9
$PUCSORGRIGHT
 10
0.0
 20
0.0
 30
0.0
  9
$PUCSORGFRONT
 10
0.0
 20
0.0
 30
0.0
  9
$PUCSORGBACK
 10
0.0
 20
0.0
 30
0.0
  9
$USERI1
 70
     0
  9
$USERI2
 70
     0
  9
$USERI3
 70
     0
  9
$USERI4
 70
     0
  9
$USERI5
 70
     0
  9
$USERR1
 40
0.0
  9
$USERR2
 40
0.0
  9
$USERR3
 40
0.0
  9
$USERR4
 40
0.0
  9
$USERR5
 40
0.0
  9
$WORLDVIEW
 70
     1
  9
$SHADEDGE
 70
     3
  9
$SHADEDIF
 70
    70
  9
$TILEMODE
 70
     1
  9
$MAXACTVP
 70
    16
  9
$PINSBASE
 10
0.0
 20
0.0
 30
0.0
  9
$PLIMCHECK
 70
     0
  9
$PEXTMIN
 10
1.000000000000000E+20
 20
1.000000000000000E+20
 30
1.000000000000000E+20
  9
$PEXTMAX
 10
-1.000000000000000E+20
 20
-1.000000000000000E+20
 30
-1.000000000000000E+20
  9
$PLIMMIN
 10
0.0
 20
0.0
  9
$PLIMMAX
 10
420.0
 20
297.0
  9
$UNITMODE
 70
     0
  9
$VISRETAIN
 70
     0
  9
$PLINEGEN
 70
     0
  9
$PSLTSCALE
 70
     1
  9
$TREEDEPTH
 70
  3020
  9
$CMLSTYLE
  2
STANDARD
  9
$CMLJUST
 70
     0
  9
$CMLSCALE
 40
1.0
  9
$PROXYGRAPHICS
 70
     1
  9
$MEASUREMENT
 70
     1
  9
$CELWEIGHT
370
    -1
  9
$ENDCAPS
280
     0
  9
$JOINSTYLE
280
     0
  9
$LWDISPLAY
290
     0
  9
$INSUNITS
 70
     0
  9
$HYPERLINKBASE
  1

  9
$STYLESHEET
  1
inaba.ctb
  9
$XEDIT
290
     1
  9
$CEPSNTYPE
380
     0
  9
$PSTYLEMODE
290
     1
  9
$FINGERPRINTGUID
  2
{79BAF060-0357-455F-9BB3-0AEA31AB33DF}
  9
$VERSIONGUID
  2
{541C42CA-4B1C-4613-8862-1CE20721FD63}
  9
$EXTNAMES
290
     1
  9
$PSVPSCALE
 40
0.0
  9
$OLESTARTUP
290
     0
  0
ENDSEC
  0
SECTION
  2
CLASSES
  0
CLASS
  1
ACDBDICTIONARYWDFLT
  2
AcDbDictionaryWithDefault
  3
ObjectDBX Classes
 90
        0
280
     0
281
     0
  0
CLASS
  1
DICTIONARYVAR
  2
AcDbDictionaryVar
  3
ObjectDBX Classes
 90
        0
280
     0
281
     0
  0
CLASS
  1
ACDBPLACEHOLDER
  2
AcDbPlaceHolder
  3
ObjectDBX Classes
 90
        0
280
     0
281
     0
  0
CLASS
  1
LAYOUT
  2
AcDbLayout
  3
ObjectDBX Classes
 90
        0
280
     0
281
     0
  0
ENDSEC
  0
SECTION
  2
TABLES
  0
TABLE
  2
VPORT
  5
8
330
0
100
AcDbSymbolTable
 70
     2
  0
VPORT
  5
2624
330
8
100
AcDbSymbolTableRecord
100
AcDbViewportTableRecord
  2
*Active
 70
     0
 10
0.0
 20
0.0
 11
1.0
 21
1.0
 12
10067.6157982568
 22
5667.182034178612
 13
0.0
 23
0.0
 14
420.0
 24
420.0
 15
420.0
 25
420.0
 16
0.0
 26
0.0
 36
1.0
 17
0.0
 27
0.0
 37
0.0
 40
13252.7886968784
 41
1.5075
 42
50.0
 43
0.0
 44
0.0
 50
0.0
 51
0.0
 71
     0
 72
   100
 73
     1
 74
     0
 75
     0
 76
     0
 77
     0
 78
     1
281
     0
 65
     1
110
0.0
120
0.0
130
0.0
111
1.0
121
0.0
131
0.0
112
0.0
122
1.0
132
0.0
 79
     0
146
0.0
  0
ENDTAB
  0
TABLE
  2
LTYPE
  5
5
330
0
100
AcDbSymbolTable
 70
     3
  0
LTYPE
  5
14
330
5
100
AcDbSymbolTableRecord
100
AcDbLinetypeTableRecord
  2
BYBLOCK
 70
     0
  3

 72
    65
 73
     0
 40
0.0
  0
LTYPE
  5
15
330
5
100
AcDbSymbolTableRecord
100
AcDbLinetypeTableRecord
  2
BYLAYER
 70
     0
  3

 72
    65
 73
     0
 40
0.0
  0
LTYPE
  5
16
330
5
100
AcDbSymbolTableRecord
100
AcDbLinetypeTableRecord
  2
CONTINUOUS
 70
     0
  3
Solid line
 72
    65
 73
     0
 40
0.0
  0
LTYPE
  5
61
330
5
100
AcDbSymbolTableRecord
100
AcDbLinetypeTableRecord
  2
CENTER
 70
     0
  3
____ _ ____ _ ____ _ ____ _ ____ _ ____ _ ____ 
 72
    65
 73
     4
 40
2.0
 49
1.25
 74
     0
 49
-0.25
 74
     0
 49
0.25
 74
     0
 49
-0.25
 74
     0
  0
LTYPE
  5
62
330
5
100
AcDbSymbolTableRecord
100
AcDbLinetypeTableRecord
  2
HIDDEN
 70
     0
  3
__ __ __ __ __ __ __ __ __ __ __ __ __ __ __ __
 72
    65
 73
     2
 40
0.375
 49
0.25
 74
     0
 49
-0.125
 74
     0
  0
ENDTAB
  0
TABLE
  2
LAYER
  5
2
102
{ACAD_XDICTIONARY
360
17DD
102
}
330
0
100
AcDbSymbolTable
 70
    10
  0
LAYER
  5
F
330
2
100
AcDbSymbolTableRecord
100
AcDbLayerTableRecord
  2
0
 70
     0
 62
     7
  6
CONTINUOUS
370
    -3
390
17B1
  0
LAYER
  5
63
330
2
100
AcDbSymbolTableRecord
100
AcDbLayerTableRecord
  2
細線
 70
     0
 62
     5
  6
CONTINUOUS
370
    -3
390
17B1
  0
LAYER
  5
64
330
2
100
AcDbSymbolTableRecord
100
AcDbLayerTableRecord
  2
寸法
 70
     0
 62
     4
  6
CONTINUOUS
370
    -3
390
17B1
  0
LAYER
  5
65
330
2
100
AcDbSymbolTableRecord
100
AcDbLayerTableRecord
  2
センター
 70
     0
 62
     3
  6
CENTER
370
    -3
390
17B1
  0
LAYER
  5
92A
330
2
100
AcDbSymbolTableRecord
100
AcDbLayerTableRecord
  2
DEFPOINTS
 70
     0
 62
     7
  6
CONTINUOUS
290
     0
370
    -3
390
17B1
  0
LAYER
  5
118B
330
2
100
AcDbSymbolTableRecord
100
AcDbLayerTableRecord
  2
Ｇ．Ｌ
 70
     0
 62
    30
  6
CONTINUOUS
370
    -3
390
17B1
  0
LAYER
  5
13EC
330
2
100
AcDbSymbolTableRecord
100
AcDbLayerTableRecord
  2
文字
 70
     0
 62
     7
  6
CONTINUOUS
370
    -3
390
17B1
  0
LAYER
  5
13ED
330
2
100
AcDbSymbolTableRecord
100
AcDbLayerTableRecord
  2
仕様書枠
 70
     0
 62
   230
  6
CONTINUOUS
370
    -3
390
17B1
  0
LAYER
  5
1748
330
2
100
AcDbSymbolTableRecord
100
AcDbLayerTableRecord
  2
部品1
 70
     0
 62
     7
  6
CONTINUOUS
370
    -3
390
17B1
  0
LAYER
  5
187A
330
2
100
AcDbSymbolTableRecord
100
AcDbLayerTableRecord
  2
点線
 70
     0
 62
     2
  6
HIDDEN
370
    -3
390
17B1
  0
ENDTAB
  0
TABLE
  2
STYLE
  5
3
330
0
100
AcDbSymbolTable
 70
     7
  0
STYLE
  5
10
330
3
100
AcDbSymbolTableRecord
100
AcDbTextStyleTableRecord
  2
STANDARD
 70
     0
 40
0.0
 41
1.0
 50
0.0
 71
     0
 42
100.0
  3
ISOCP
  4
C:\Program Files\AutoCAD LT\bigfont.shx
  0
STYLE
  5
373
330
3
100
AcDbSymbolTableRecord
100
AcDbTextStyleTableRecord
  2
MSGOTHIC
 70
     0
 40
0.0
 41
1.0
 50
0.0
 71
     0
 42
3.5
  3
MS PGothic.ttf
  4

1001
ACAD
1000
MS PGothic
1071
    32818
  0
STYLE
  5
374
330
3
100
AcDbSymbolTableRecord
100
AcDbTextStyleTableRecord
  2
MSMINCHO
 70
     0
 40
0.0
 41
1.0
 50
0.0
 71
     0
 42
1.199999999999999
  3
msminch2.TTF
  4

  0
STYLE
  5
13EE
330
3
100
AcDbSymbolTableRecord
100
AcDbTextStyleTableRecord
  2
STYLE2
 70
     0
 40
0.0
 41
1.0
 50
0.0
 71
     0
 42
100.0
  3
MS PGothic.ttf
  4

1001
ACAD
1000
MS PGothic
1071
    32818
  0
STYLE
  5
17DC
330
3
100
AcDbSymbolTableRecord
100
AcDbTextStyleTableRecord
  2
STYLE1
 70
     0
 40
0.0
 41
1.0
 50
0.0
 71
     0
 42
4.0
  3
isocp.shx
  4
bigfont.shx
  0
STYLE
  5
19E4
330
3
100
AcDbSymbolTableRecord
100
AcDbTextStyleTableRecord
  2

 70
     1
 40
0.0
 41
1.0
 50
0.0
 71
     0
 42
100.0
  3
ltypeshp.shx
  4

  0
STYLE
  5
19E5
330
3
100
AcDbSymbolTableRecord
100
AcDbTextStyleTableRecord
  2
STYLE3
 70
     0
 40
0.0
 41
1.0
 50
0.0
 71
     0
 42
100.0
  3
MS PGothic.ttf
  4

1001
ACAD
1000
MS PGothic
1071
    32818
  0
ENDTAB
  0
TABLE
  2
VIEW
  5
6
330
0
100
AcDbSymbolTable
 70
     0
  0
ENDTAB
  0
TABLE
  2
UCS
  5
7
330
0
100
AcDbSymbolTable
 70
     0
  0
ENDTAB
  0
TABLE
  2
APPID
  5
9
330
0
100
AcDbSymbolTable
 70
     1
  0
APPID
  5
11
330
9
100
AcDbSymbolTableRecord
100
AcDbRegAppTableRecord
  2
ACAD
 70
     0
  0
ENDTAB
  0
TABLE
  2
DIMSTYLE
  5
A
330
0
100
AcDbSymbolTable
 70
     3
100
AcDbDimStyleTable
 71
     1
340
92
  0
DIMSTYLE
105
1D
330
A
100
AcDbSymbolTableRecord
100
AcDbDimStyleTableRecord
  2
STANDARD
 70
     0
340
10
  0
DIMSTYLE
105
92
102
{ACAD_REACTORS
330
1F57
330
1F58
330
1F59
330
1F5A
330
1F5B
330
1F5C
330
1F5D
330
1F5E
330
1F5F
330
1F60
330
1F61
330
1F62
330
1F63
330
1F67
330
1F68
330
1F69
330
1F6A
330
1F6B
330
1F6C
330
1F6D
330
1F6E
330
1F6F
330
1F70
330
1F71
330
1F72
330
1F73
330
1F74
330
1F75
330
1F76
330
1F77
330
1F78
330
1F79
330
1F7A
102
}
330
A
100
AcDbSymbolTableRecord
100
AcDbDimStyleTableRecord
  2
物置仕様図40
 70
     0
 40
40.0
 41
2.5
 42
1.0
 43
7.0
 44
1.0
 73
     0
 74
     0
 77
     3
 78
     8
140
3.0
141
2.5
143
0.0394
145
1.0
147
1.0
173
     1
176
     4
177
     4
178
     7
271
     2
272
     2
279
     2
284
     8
340
10
341
E5C
343
E5C
344
E5C
  0
DIMSTYLE
105
19E6
330
A
100
AcDbSymbolTableRecord
100
AcDbDimStyleTableRecord
  2
INABA_S30G
 70
     0
 40
30.0
 41
2.5
 42
0.5
 43
7.0
 44
1.5
 73
     0
 74
     0
 77
     3
 78
     8
140
3.0
141
0.0
143
0.0394
147
1.0
172
     1
173
     1
174
     1
175
     1
178
     7
271
     1
340
17DC
341
E5C
343
E5C
344
E5C
  0
ENDTAB
  0
TABLE
  2
BLOCK_RECORD
  5
1
330
0
100
AcDbSymbolTable
 70
   101
  0
BLOCK_RECORD
  5
1A
330
1
100
AcDbSymbolTableRecord
100
AcDbBlockTableRecord
  2
*MODEL_SPACE
340
17B6
  0
BLOCK_RECORD
  5
17
330
1
100
AcDbSymbolTableRecord
100
AcDbBlockTableRecord
  2
*PAPER_SPACE
340
17B7
  0
BLOCK_RECORD
  5
E5C
330
1
100
AcDbSymbolTableRecord
100
AcDbBlockTableRecord
  2
_DOTSMALL
340
0
102
{BLKREFS
331
E68
331
E69
331
E71
331
E72
331
E7B
331
E7C
331
E86
331
E87
331
E90
331
E91
331
E9A
331
E9B
331
EA3
331
EA4
331
EAD
331
EAE
331
EB8
331
EB9
331
EC2
331
EC3
331
ECD
331
ECE
331
13B9
331
13BA
331
EE1
331
EE2
331
EEC
331
EED
331
EF6
331
EF7
331
F00
331
F01
331
F29
331
F2A
331
FB6
331
FB7
331
132F
331
1330
331
133B
331
133C
331
1345
331
1346
331
16A1
331
16A2
331
1359
331
135A
331
1363
331
1364
331
136F
331
1370
331
1379
331
137A
331
1383
331
1384
331
1391
331
1392
331
139A
331
139B
331
13A6
331
13A7
331
18DA
331
18DB
331
18F5
331
18F6
331
190F
331
1910
331
1B6D
331
1B6E
331
1B60
331
1B61
331
1B54
331
1B55
331
1B4A
331
1B4B
331
1B3D
331
1B3E
331
1B33
331
1B34
331
1B27
331
1B28
331
1B19
331
1B1A
331
1B0C
331
1B0D
331
1B00
331
1B01
331
1AF5
331
1AF6
331
1AEA
331
1AEB
331
1ADF
331
1AE0
331
1AD3
331
1AD4
331
1AC7
331
1AC8
331
1ABC
331
1ABD
331
1AB1
331
1AB2
331
1AA6
331
1AA7
331
1A9B
331
1A9C
331
1A90
331
1A91
331
1A84
331
1A85
331
1A7A
331
1A7B
331
1A6E
331
1A6F
331
1A62
331
1A63
331
1A57
331
1A58
331
1A4B
331
1A4C
331
1A40
331
1A41
331
1A36
331
1A37
331
1A2B
331
1A2C
331
1A20
331
1A21
331
1A14
331
1A15
331
1A09
331
1A0A
331
19FF
331
1A00
331
2503
331
2504
331
250A
331
250B
331
2512
331
2513
331
251B
331
251C
331
2523
331
2524
331
252B
331
252C
331
2532
331
2533
331
253A
331
253B
331
2543
331
2544
331
254B
331
254C
331
2554
331
2555
331
255D
331
255E
331
2564
331
2565
331
256D
331
256E
331
2575
331
2576
331
257D
331
257E
331
2585
331
2586
331
258D
331
258E
331
2595
331
2596
331
259E
331
259F
331
25A7
331
25A8
331
25AF
331
25B0
331
25B7
331
25B8
331
25BF
331
25C0
331
25C8
331
25C9
331
25D2
331
25D3
331
25DC
331
25DD
331
25E5
331
25E6
331
25EC
331
25ED
331
25F6
331
25F7
331
25FD
331
25FE
331
2606
331
2607
331
2610
331
2611
102
}
  0
BLOCK_RECORD
  5
1B73
330
1
100
AcDbSymbolTableRecord
100
AcDbBlockTableRecord
  2
A$C31C65A96
340
0
102
{BLKREFS
331
1F56
102
}
  0
BLOCK_RECORD
  5
2159
330
1
100
AcDbSymbolTableRecord
100
AcDbBlockTableRecord
  2
*D68
340
0
  0
BLOCK_RECORD
  5
2165
330
1
100
AcDbSymbolTableRecord
100
AcDbBlockTableRecord
  2
*D69
340
0
  0
BLOCK_RECORD
  5
2171
330
1
100
AcDbSymbolTableRecord
100
AcDbBlockTableRecord
  2
*D70
340
0
  0
BLOCK_RECORD
  5
217C
330
1
100
AcDbSymbolTableRecord
100
AcDbBlockTableRecord
  2
*D71
340
0
  0
BLOCK_RECORD
  5
2188
330
1
100
AcDbSymbolTableRecord
100
AcDbBlockTableRecord
  2
*D72
340
0
  0
BLOCK_RECORD
  5
2193
330
1
100
AcDbSymbolTableRecord
100
AcDbBlockTableRecord
  2
*D73
340
0
  0
BLOCK_RECORD
  5
219F
330
1
100
AcDbSymbolTableRecord
100
AcDbBlockTableRecord
  2
*D74
340
0
  0
BLOCK_RECORD
  5
21AC
330
1
100
AcDbSymbolTableRecord
100
AcDbBlockTableRecord
  2
*D75
340
0
  0
BLOCK_RECORD
  5
21B8
330
1
100
AcDbSymbolTableRecord
100
AcDbBlockTableRecord
  2
*D76
340
0
  0
BLOCK_RECORD
  5
21C4
330
1
100
AcDbSymbolTableRecord
100
AcDbBlockTableRecord
  2
*D77
340
0
  0
BLOCK_RECORD
  5
21CF
330
1
100
AcDbSymbolTableRecord
100
AcDbBlockTableRecord
  2
*D78
340
0
  0
BLOCK_RECORD
  5
21DA
330
1
100
AcDbSymbolTableRecord
100
AcDbBlockTableRecord
  2
*D79
340
0
  0
BLOCK_RECORD
  5
21E5
330
1
100
AcDbSymbolTableRecord
100
AcDbBlockTableRecord
  2
*D80
340
0
  0
BLOCK_RECORD
  5
21F1
330
1
100
AcDbSymbolTableRecord
100
AcDbBlockTableRecord
  2
*D81
340
0
  0
BLOCK_RECORD
  5
21FD
330
1
100
AcDbSymbolTableRecord
100
AcDbBlockTableRecord
  2
*D82
340
0
  0
BLOCK_RECORD
  5
2208
330
1
100
AcDbSymbolTableRecord
100
AcDbBlockTableRecord
  2
*D83
340
0
  0
BLOCK_RECORD
  5
2213
330
1
100
AcDbSymbolTableRecord
100
AcDbBlockTableRecord
  2
*D84
340
0
  0
BLOCK_RECORD
  5
221F
330
1
100
AcDbSymbolTableRecord
100
AcDbBlockTableRecord
  2
*D85
340
0
  0
BLOCK_RECORD
  5
222A
330
1
100
AcDbSymbolTableRecord
100
AcDbBlockTableRecord
  2
*D86
340
0
  0
BLOCK_RECORD
  5
2235
330
1
100
AcDbSymbolTableRecord
100
AcDbBlockTableRecord
  2
*D87
340
0
  0
BLOCK_RECORD
  5
2240
330
1
100
AcDbSymbolTableRecord
100
AcDbBlockTableRecord
  2
*D88
340
0
  0
BLOCK_RECORD
  5
224B
330
1
100
AcDbSymbolTableRecord
100
AcDbBlockTableRecord
  2
*D89
340
0
  0
BLOCK_RECORD
  5
2256
330
1
100
AcDbSymbolTableRecord
100
AcDbBlockTableRecord
  2
*D90
340
0
  0
BLOCK_RECORD
  5
2262
330
1
100
AcDbSymbolTableRecord
100
AcDbBlockTableRecord
  2
*D91
340
0
  0
BLOCK_RECORD
  5
226E
330
1
100
AcDbSymbolTableRecord
100
AcDbBlockTableRecord
  2
*D92
340
0
  0
BLOCK_RECORD
  5
2279
330
1
100
AcDbSymbolTableRecord
100
AcDbBlockTableRecord
  2
*D93
340
0
  0
BLOCK_RECORD
  5
2284
330
1
100
AcDbSymbolTableRecord
100
AcDbBlockTableRecord
  2
*D94
340
0
  0
BLOCK_RECORD
  5
228F
330
1
100
AcDbSymbolTableRecord
100
AcDbBlockTableRecord
  2
*D95
340
0
  0
BLOCK_RECORD
  5
229A
330
1
100
AcDbSymbolTableRecord
100
AcDbBlockTableRecord
  2
*D96
340
0
  0
BLOCK_RECORD
  5
22A5
330
1
100
AcDbSymbolTableRecord
100
AcDbBlockTableRecord
  2
*D97
340
0
  0
BLOCK_RECORD
  5
22B0
330
1
100
AcDbSymbolTableRecord
100
AcDbBlockTableRecord
  2
*D98
340
0
  0
BLOCK_RECORD
  5
22BB
330
1
100
AcDbSymbolTableRecord
100
AcDbBlockTableRecord
  2
*D99
340
0
  0
BLOCK_RECORD
  5
22C6
330
1
100
AcDbSymbolTableRecord
100
AcDbBlockTableRecord
  2
*D100
340
0
  0
ENDTAB
  0
ENDSEC
  0
SECTION
  2
BLOCKS
  0
BLOCK
  5
1B
330
1A
100
AcDbEntity
  8
0
100
AcDbBlockBegin
  2
*MODEL_SPACE
 70
     0
 10
0.0
 20
0.0
 30
0.0
  3
*MODEL_SPACE
  1

  0
ENDBLK
  5
1C
330
1A
100
AcDbEntity
  8
0
100
AcDbBlockEnd
  0
BLOCK
  5
18
330
17
100
AcDbEntity
 67
     1
  8
0
100
AcDbBlockBegin
  2
*PAPER_SPACE
 70
     0
 10
0.0
 20
0.0
 30
0.0
  3
*PAPER_SPACE
  1

  0
ENDBLK
  5
19
330
17
100
AcDbEntity
 67
     1
  8
0
100
AcDbBlockEnd
  0
BLOCK
  5
E5D
330
E5C
100
AcDbEntity
  8
0
100
AcDbBlockBegin
  2
_DOTSMALL
 70
     0
 10
0.0
 20
0.0
 30
0.0
  3
_DOTSMALL
  1

  0
LWPOLYLINE
  5
E5E
330
E5C
100
AcDbEntity
  8
0
  6
ByBlock
 62
     0
100
AcDbPolyline
 90
        2
 70
     1
 43
0.5
 10
-0.0625
 20
0.0
 42
1.0
 10
0.0625
 20
0.0
 42
1.0
  0
ENDBLK
  5
E62
330
E5C
100
AcDbEntity
  8
0
100
AcDbBlockEnd
  0
BLOCK
  5
1B74
330
1B73
100
AcDbEntity
  8
0
100
AcDbBlockBegin
  2
A$C31C65A96
 70
     0
 10
0.0
 20
0.0
 30
0.0
  3
A$C31C65A96
  1

  0
LINE
  5
1B75
330
1B73
100
AcDbEntity
  8
細線
100
AcDbLine
 10
67.35191366796243
 20
-0.000018728260784
 30
0.0
 11
117.3519136679624
 21
49.99998127173967
 31
0.0
  0
LINE
  5
1B76
330
1B73
100
AcDbEntity
  8
細線
100
AcDbLine
 10
33.67595321395311
 20
-0.000018728260784
 30
0.0
 11
83.67595321395311
 21
49.99998127173967
 31
0.0
  0
LINE
  5
1B77
330
1B73
100
AcDbEntity
  8
細線
100
AcDbLine
 10
-0.0000072400562203
 20
-0.000018728260784
 30
0.0
 11
49.99999275994378
 21
49.99998127173967
 31
0.0
  0
LINE
  5
1B78
330
1B73
100
AcDbEntity
  8
細線
100
AcDbLine
 10
1077.630727288242
 20
-0.0000187282603292
 30
0.0
 11
1127.630727288242
 21
49.99998127173967
 31
0.0
  0
LINE
  5
1B79
330
1B73
100
AcDbEntity
  8
細線
100
AcDbLine
 10
1144.982648196261
 20
-0.0000187282603292
 30
0.0
 11
1194.982648196261
 21
49.99998127173967
 31
0.0
  0
LINE
  5
1B7A
330
1B73
100
AcDbEntity
  8
細線
100
AcDbLine
 10
1111.306687742251
 20
-0.0000187282603292
 30
0.0
 11
1161.306687742251
 21
49.99998127173967
 31
0.0
  0
LINE
  5
1B7B
330
1B73
100
AcDbEntity
  8
細線
100
AcDbLine
 10
2155.261461816541
 20
-0.0000187282603292
 30
0.0
 11
2205.261461816545
 21
49.99998127174058
 31
0.0
  0
LINE
  5
1B7C
330
1B73
100
AcDbEntity
  8
細線
100
AcDbLine
 10
2222.613382724559
 20
-0.0000187282603292
 30
0.0
 11
2272.613382724559
 21
49.99998127173967
 31
0.0
  0
LINE
  5
1B7D
330
1B73
100
AcDbEntity
  8
細線
100
AcDbLine
 10
2188.93742227055
 20
-0.0000187282603292
 30
0.0
 11
2238.93742227055
 21
49.99998127174058
 31
0.0
  0
LINE
  5
1B7E
330
1B73
100
AcDbEntity
  8
細線
100
AcDbLine
 10
4759.02650923417
 20
-0.0000187282603292
 30
0.0
 11
4809.026509234171
 21
49.99998127173967
 31
0.0
  0
LINE
  5
1B7F
330
1B73
100
AcDbEntity
  8
細線
100
AcDbLine
 10
4792.70246968818
 20
-0.000018728260784
 30
0.0
 11
4842.70246968818
 21
49.99998127173967
 31
0.0
  0
LINE
  5
1B80
330
1B73
100
AcDbEntity
  8
細線
100
AcDbLine
 10
4725.350548780161
 20
-0.0000187282603292
 30
0.0
 11
4775.350548780161
 21
49.99998127173967
 31
0.0
  0
LINE
  5
1B81
330
1B73
100
AcDbEntity
  8
細線
100
AcDbLine
 10
5836.657243762469
 20
-0.0000187282603292
 30
0.0
 11
5886.657243762469
 21
49.99998127173967
 31
0.0
  0
LINE
  5
1B82
330
1B73
100
AcDbEntity
  8
細線
100
AcDbLine
 10
5802.98128330846
 20
-0.0000187282603292
 30
0.0
 11
5852.98128330846
 21
49.99998127173967
 31
0.0
  0
LINE
  5
1B83
330
1B73
100
AcDbEntity
  8
細線
100
AcDbLine
 10
5870.333204216478
 20
-0.0000187282603292
 30
0.0
 11
5920.333204216479
 21
49.99998127173967
 31
0.0
  0
LINE
  5
1B84
330
1B73
100
AcDbEntity
  8
細線
100
AcDbLine
 10
6880.612017836758
 20
-0.000018728260784
 30
0.0
 11
6930.612017836757
 21
49.99998127173967
 31
0.0
  0
LINE
  5
1B85
330
1B73
100
AcDbEntity
  8
細線
100
AcDbLine
 10
6947.963938744777
 20
-0.000018728260784
 30
0.0
 11
6997.963938744778
 21
49.99998127173967
 31
0.0
  0
LINE
  5
1B86
330
1B73
100
AcDbEntity
  8
細線
100
AcDbLine
 10
6914.287978290769
 20
-0.000018728260784
 30
0.0
 11
6964.287978290768
 21
49.99998127173967
 31
0.0
  0
LINE
  5
1B87
330
1B73
100
AcDbEntity
  8
細線
100
AcDbLine
 10
7958.242752365056
 20
-0.000018728260784
 30
0.0
 11
8008.242752365056
 21
49.99998127173967
 31
0.0
  0
LINE
  5
1B88
330
1B73
100
AcDbEntity
  8
細線
100
AcDbLine
 10
7991.918712819066
 20
-0.000018728260784
 30
0.0
 11
8041.918712819066
 21
49.99998127173967
 31
0.0
  0
LINE
  5
1B89
330
1B73
100
AcDbEntity
  8
細線
100
AcDbLine
 10
8025.594673273074
 20
-0.000018728260784
 30
0.0
 11
8075.594673273075
 21
49.99998127173967
 31
0.0
  0
LINE
  5
1B8A
330
1B73
100
AcDbEntity
  8
細線
100
AcDbLine
 10
9103.225407801373
 20
-0.0000187282603292
 30
0.0
 11
9153.225407801373
 21
49.99998127173967
 31
0.0
  0
LINE
  5
1B8B
330
1B73
100
AcDbEntity
  8
細線
100
AcDbLine
 10
9069.549447347364
 20
-0.0000187282603292
 30
0.0
 11
9119.549447347365
 21
49.99998127173967
 31
0.0
  0
LINE
  5
1B8C
330
1B73
100
AcDbEntity
  8
細線
100
AcDbLine
 10
9035.873486893356
 20
-0.0000187282603292
 30
0.0
 11
9085.873486893355
 21
49.99998127173967
 31
0.0
  0
ENDBLK
  5
1B8D
330
1B73
100
AcDbEntity
  8
0
100
AcDbBlockEnd
  0
BLOCK
  5
2163
330
2159
100
AcDbEntity
  8
0
 48
50.0
100
AcDbBlockBegin
  2
*D68
 70
     1
 10
0.0
 20
0.0
 30
0.0
  3
*D68
  1

  0
LINE
  5
260C
330
2159
100
AcDbEntity
  8
寸法
 62
     4
 48
50.0
370
    -2
100
AcDbLine
 10
6128.08479127592
 20
2038.900949614034
 30
0.0
 11
6594.602443373149
 21
2038.900949614034
 31
0.0
  0
LINE
  5
260D
330
2159
100
AcDbEntity
  8
寸法
 62
     4
 48
50.0
370
    -2
100
AcDbLine
 10
6728.266128291223
 20
2308.900949614034
 30
0.0
 11
6514.602443373151
 21
2308.900949614034
 31
0.0
  0
LINE
  5
260E
330
2159
100
AcDbEntity
  8
寸法
 62
     4
 48
50.0
370
    -2
100
AcDbLine
 10
6554.60244337315
 20
2038.900949614034
 30
0.0
 11
6554.60244337315
 21
2308.900949614034
 31
0.0
  0
MTEXT
  5
260F
330
2159
100
AcDbEntity
  8
寸法
 62
     7
 48
50.0
100
AcDbMText
 10
6274.567010302284
 20
2173.900949614035
 30
0.0
 40
120.0
 41
0.0
 71
     5
 72
     1
  1
\A1;270
 11
0.0000000000000001
 21
1.0
 31
0.0
 73
     1
 44
1.0
1001
ACAD
1000
MTEXTBEGIN
1070
    73
1070
     1
1070
    44
1040
1.0
1070
    74
1070
     0
1000
MTEXTEND
  0
INSERT
  5
2610
330
2159
100
AcDbEntity
  8
寸法
 62
     4
 48
50.0
370
    -2
100
AcDbBlockReference
  2
_DOTSMALL
 10
6554.60244337315
 20
2038.900949614034
 30
0.0
 41
100.0
 42
100.0
 43
100.0
 50
270.0
  0
INSERT
  5
2611
330
2159
100
AcDbEntity
  8
寸法
 62
     4
 48
50.0
370
    -2
100
AcDbBlockReference
  2
_DOTSMALL
 10
6554.60244337315
 20
2308.900949614034
 30
0.0
 41
100.0
 42
100.0
 43
100.0
 50
90.0
  0
POINT
  5
2612
330
2159
100
AcDbEntity
  8
DEFPOINTS
 62
     0
 48
50.0
100
AcDbPoint
 10
6088.08479127592
 20
2038.900949614034
 30
0.0
  0
POINT
  5
2613
330
2159
100
AcDbEntity
  8
DEFPOINTS
 62
     0
 48
50.0
100
AcDbPoint
 10
6768.266128291223
 20
2308.900949614034
 30
0.0
  0
POINT
  5
2614
330
2159
100
AcDbEntity
  8
DEFPOINTS
 62
     0
 48
50.0
100
AcDbPoint
 10
6554.60244337315
 20
2308.900949614034
 30
0.0
  0
ENDBLK
  5
2164
330
2159
100
AcDbEntity
  8
0
 48
50.0
100
AcDbBlockEnd
  0
BLOCK
  5
216F
330
2165
100
AcDbEntity
  8
0
 48
50.0
100
AcDbBlockBegin
  2
*D69
 70
     1
 10
0.0
 20
0.0
 30
0.0
  3
*D69
  1

  0
LINE
  5
2603
330
2165
100
AcDbEntity
  8
寸法
 62
     4
 48
50.0
370
    -2
100
AcDbLine
 10
10526.32755088103
 20
4618.900949614033
 30
0.0
 11
7252.756801734111
 21
4618.900949614034
 31
0.0
  0
LINE
  5
2604
330
2165
100
AcDbEntity
  8
寸法
 62
     4
 48
50.0
370
    -2
100
AcDbLine
 10
7315.84789518988
 20
2308.900949614034
 30
0.0
 11
7332.75680173411
 21
2308.900949614034
 31
0.0
  0
LINE
  5
2605
330
2165
100
AcDbEntity
  8
寸法
 62
     4
 48
50.0
370
    -2
100
AcDbLine
 10
7292.756801734111
 20
4618.900949614034
 30
0.0
 11
7292.756801734111
 21
2308.900949614034
 31
0.0
  0
INSERT
  5
2606
330
2165
100
AcDbEntity
  8
寸法
 62
     4
 48
50.0
370
    -2
100
AcDbBlockReference
  2
_DOTSMALL
 10
7292.756801734111
 20
4618.900949614034
 30
0.0
 41
100.0
 42
100.0
 43
100.0
 50
90.0
  0
INSERT
  5
2607
330
2165
100
AcDbEntity
  8
寸法
 62
     4
 48
50.0
370
    -2
100
AcDbBlockReference
  2
_DOTSMALL
 10
7292.756801734111
 20
2308.900949614034
 30
0.0
 41
100.0
 42
100.0
 43
100.0
 50
270.0
  0
MTEXT
  5
2608
330
2165
100
AcDbEntity
  8
寸法
 62
     7
 48
50.0
100
AcDbMText
 10
7192.744990710489
 20
3463.900949614036
 30
0.0
 40
120.0
 41
0.0
 71
     5
 72
     1
  1
\A1;2310
 11
0.0000000000000001
 21
1.0
 31
0.0
 73
     1
 44
1.0
1001
ACAD
1000
MTEXTBEGIN
1070
    73
1070
     1
1070
    44
1040
1.0
1070
    74
1070
     0
1000
MTEXTEND
  0
POINT
  5
2609
330
2165
100
AcDbEntity
  8
DEFPOINTS
 62
     0
 48
50.0
100
AcDbPoint
 10
10566.32755088103
 20
4618.900949614033
 30
0.0
  0
POINT
  5
260A
330
2165
100
AcDbEntity
  8
DEFPOINTS
 62
     0
 48
50.0
100
AcDbPoint
 10
7275.84789518988
 20
2308.900949614034
 30
0.0
  0
POINT
  5
260B
330
2165
100
AcDbEntity
  8
DEFPOINTS
 62
     0
 48
50.0
100
AcDbPoint
 10
7292.756801734111
 20
2308.900949614034
 30
0.0
  0
ENDBLK
  5
2170
330
2165
100
AcDbEntity
  8
0
 48
50.0
100
AcDbBlockEnd
  0
BLOCK
  5
217A
330
2171
100
AcDbEntity
  8
0
 48
50.0
100
AcDbBlockBegin
  2
*D70
 70
     1
 10
0.0
 20
0.0
 30
0.0
  3
*D70
  1

  0
LINE
  5
25FB
330
2171
100
AcDbEntity
  8
寸法
 62
     4
 48
50.0
370
    -2
100
AcDbLine
 10
7575.652178531019
 20
2308.900949614034
 30
0.0
 11
7626.483483459029
 21
2308.900949614034
 31
0.0
  0
LINE
  5
25FC
330
2171
100
AcDbEntity
  8
寸法
 62
     4
 48
50.0
370
    -2
100
AcDbLine
 10
7586.48348345903
 20
4505.900949614033
 30
0.0
 11
7586.48348345903
 21
2308.900949614034
 31
0.0
  0
INSERT
  5
25FD
330
2171
100
AcDbEntity
  8
寸法
 62
     4
 48
50.0
370
    -2
100
AcDbBlockReference
  2
_DOTSMALL
 10
7586.48348345903
 20
4505.900949614033
 30
0.0
 41
100.0
 42
100.0
 43
100.0
 50
90.0
  0
INSERT
  5
25FE
330
2171
100
AcDbEntity
  8
寸法
 62
     4
 48
50.0
370
    -2
100
AcDbBlockReference
  2
_DOTSMALL
 10
7586.48348345903
 20
2308.900949614034
 30
0.0
 41
100.0
 42
100.0
 43
100.0
 50
270.0
  0
MTEXT
  5
25FF
330
2171
100
AcDbEntity
  8
寸法
 62
     7
 48
50.0
100
AcDbMText
 10
7486.471672435406
 20
3407.400949614035
 30
0.0
 40
120.0
 41
0.0
 71
     5
 72
     1
  1
\A1;2197
 11
0.0000000000000001
 21
1.0
 31
0.0
 73
     1
 44
1.0
1001
ACAD
1000
MTEXTBEGIN
1070
    73
1070
     1
1070
    44
1040
1.0
1070
    74
1070
     0
1000
MTEXTEND
  0
POINT
  5
2600
330
2171
100
AcDbEntity
  8
DEFPOINTS
 62
     0
 48
50.0
100
AcDbPoint
 10
8166.327550881034
 20
4505.900949614033
 30
0.0
  0
POINT
  5
2601
330
2171
100
AcDbEntity
  8
DEFPOINTS
 62
     0
 48
50.0
100
AcDbPoint
 10
7535.652178531018
 20
2308.900949614034
 30
0.0
  0
POINT
  5
2602
330
2171
100
AcDbEntity
  8
DEFPOINTS
 62
     0
 48
50.0
100
AcDbPoint
 10
7586.48348345903
 20
2308.900949614034
 30
0.0
  0
ENDBLK
  5
217B
330
2171
100
AcDbEntity
  8
0
 48
50.0
100
AcDbBlockEnd
  0
BLOCK
  5
2186
330
217C
100
AcDbEntity
  8
0
 48
50.0
100
AcDbBlockBegin
  2
*D71
 70
     1
 10
0.0
 20
0.0
 30
0.0
  3
*D71
  1

  0
LINE
  5
25F2
330
217C
100
AcDbEntity
  8
寸法
 62
     4
 48
50.0
370
    -2
100
AcDbLine
 10
10526.32755088103
 20
4618.900949614033
 30
0.0
 11
7546.483483459029
 21
4618.900949614034
 31
0.0
  0
LINE
  5
25F3
330
217C
100
AcDbEntity
  8
寸法
 62
     4
 48
50.0
370
    -2
100
AcDbLine
 10
8126.327550881034
 20
4505.900949614033
 30
0.0
 11
7546.483483459029
 21
4505.900949614033
 31
0.0
  0
LINE
  5
25F4
330
217C
100
AcDbEntity
  8
寸法
 62
     4
 48
50.0
370
    -2
100
AcDbLine
 10
7586.48348345903
 20
4618.900949614034
 30
0.0
 11
7586.48348345903
 21
4505.900949614033
 31
0.0
  0
MTEXT
  5
25F5
330
217C
100
AcDbEntity
  8
寸法
 62
     7
 48
50.0
100
AcDbMText
 10
7467.842311419059
 20
4754.328483500829
 30
0.0
 40
120.0
 41
0.0
 71
     5
 72
     1
  1
\A1;113
 11
0.0000000000000001
 21
1.0
 31
0.0
 73
     1
 44
1.0
1001
ACAD
1000
MTEXTBEGIN
1070
    73
1070
     1
1070
    44
1040
1.0
1070
    74
1070
     0
1000
MTEXTEND
  0
INSERT
  5
25F6
330
217C
100
AcDbEntity
  8
寸法
 62
     4
 48
50.0
370
    -2
100
AcDbBlockReference
  2
_DOTSMALL
 10
7586.48348345903
 20
4618.900949614034
 30
0.0
 41
100.0
 42
100.0
 43
100.0
 50
90.0
  0
INSERT
  5
25F7
330
217C
100
AcDbEntity
  8
寸法
 62
     4
 48
50.0
370
    -2
100
AcDbBlockReference
  2
_DOTSMALL
 10
7586.48348345903
 20
4505.900949614033
 30
0.0
 41
100.0
 42
100.0
 43
100.0
 50
270.0
  0
POINT
  5
25F8
330
217C
100
AcDbEntity
  8
DEFPOINTS
 62
     0
 48
50.0
100
AcDbPoint
 10
10566.32755088103
 20
4618.900949614033
 30
0.0
  0
POINT
  5
25F9
330
217C
100
AcDbEntity
  8
DEFPOINTS
 62
     0
 48
50.0
100
AcDbPoint
 10
8166.327550881034
 20
4505.900949614033
 30
0.0
  0
POINT
  5
25FA
330
217C
100
AcDbEntity
  8
DEFPOINTS
 62
     0
 48
50.0
100
AcDbPoint
 10
7586.48348345903
 20
4505.900949614033
 30
0.0
  0
ENDBLK
  5
2187
330
217C
100
AcDbEntity
  8
0
 48
50.0
100
AcDbBlockEnd
  0
BLOCK
  5
2191
330
2188
100
AcDbEntity
  8
0
 48
50.0
100
AcDbBlockBegin
  2
*D72
 70
     1
 10
0.0
 20
0.0
 30
0.0
  3
*D72
  1

  0
LINE
  5
25EA
330
2188
100
AcDbEntity
  8
寸法
 62
     4
 48
50.0
370
    -2
100
AcDbLine
 10
8906.327550881036
 20
3458.900949614033
 30
0.0
 11
8038.354899444726
 21
3458.900949614033
 31
0.0
  0
LINE
  5
25EB
330
2188
100
AcDbEntity
  8
寸法
 62
     4
 48
50.0
370
    -2
100
AcDbLine
 10
8078.354899444727
 20
2558.900949614034
 30
0.0
 11
8078.354899444727
 21
3458.900949614033
 31
0.0
  0
INSERT
  5
25EC
330
2188
100
AcDbEntity
  8
寸法
 62
     4
 48
50.0
370
    -2
100
AcDbBlockReference
  2
_DOTSMALL
 10
8078.354899444727
 20
2558.900949614034
 30
0.0
 41
100.0
 42
100.0
 43
100.0
 50
270.0
  0
INSERT
  5
25ED
330
2188
100
AcDbEntity
  8
寸法
 62
     4
 48
50.0
370
    -2
100
AcDbBlockReference
  2
_DOTSMALL
 10
8078.354899444727
 20
3458.900949614033
 30
0.0
 41
100.0
 42
100.0
 43
100.0
 50
90.0
  0
MTEXT
  5
25EE
330
2188
100
AcDbEntity
  8
寸法
 62
     7
 48
50.0
100
AcDbMText
 10
7978.354899444726
 20
3008.900949614035
 30
0.0
 40
120.0
 41
0.0
 71
     5
 72
     1
  1
\A1;900
 11
0.0000000000000001
 21
1.0
 31
0.0
 73
     1
 44
1.0
1001
ACAD
1000
MTEXTBEGIN
1070
    73
1070
     1
1070
    44
1040
1.0
1070
    74
1070
     0
1000
MTEXTEND
  0
POINT
  5
25EF
330
2188
100
AcDbEntity
  8
DEFPOINTS
 62
     0
 48
50.0
100
AcDbPoint
 10
8946.327550881035
 20
2558.900949614034
 30
0.0
  0
POINT
  5
25F0
330
2188
100
AcDbEntity
  8
DEFPOINTS
 62
     0
 48
50.0
100
AcDbPoint
 10
8946.327550881035
 20
3458.900949614033
 30
0.0
  0
POINT
  5
25F1
330
2188
100
AcDbEntity
  8
DEFPOINTS
 62
     0
 48
50.0
100
AcDbPoint
 10
8078.354899444727
 20
3458.900949614033
 30
0.0
  0
ENDBLK
  5
2192
330
2188
100
AcDbEntity
  8
0
 48
50.0
100
AcDbBlockEnd
  0
BLOCK
  5
219D
330
2193
100
AcDbEntity
  8
0
 48
50.0
100
AcDbBlockBegin
  2
*D73
 70
     1
 10
0.0
 20
0.0
 30
0.0
  3
*D73
  1

  0
LINE
  5
25E1
330
2193
100
AcDbEntity
  8
寸法
 62
     4
 48
50.0
370
    -2
100
AcDbLine
 10
8102.254670437178
 20
2308.900949614034
 30
0.0
 11
8118.354899444726
 21
2308.900949614034
 31
0.0
  0
LINE
  5
25E2
330
2193
100
AcDbEntity
  8
寸法
 62
     4
 48
50.0
370
    -2
100
AcDbLine
 10
8906.327550881036
 20
2558.900949614034
 30
0.0
 11
8038.354899444726
 21
2558.900949614034
 31
0.0
  0
LINE
  5
25E3
330
2193
100
AcDbEntity
  8
寸法
 62
     4
 48
50.0
370
    -2
100
AcDbLine
 10
8078.354899444727
 20
2308.900949614034
 30
0.0
 11
8078.354899444727
 21
2558.900949614034
 31
0.0
  0
MTEXT
  5
25E4
330
2193
100
AcDbEntity
  8
寸法
 62
     7
 48
50.0
100
AcDbMText
 10
7967.79826238547
 20
2433.900949614034
 30
0.0
 40
120.0
 41
0.0
 71
     5
 72
     1
  1
\A1;250
 11
0.0000000000000001
 21
1.0
 31
0.0
 73
     1
 44
1.0
1001
ACAD
1000
MTEXTBEGIN
1070
    73
1070
     1
1070
    44
1040
1.0
1070
    74
1070
     0
1000
MTEXTEND
  0
INSERT
  5
25E5
330
2193
100
AcDbEntity
  8
寸法
 62
     4
 48
50.0
370
    -2
100
AcDbBlockReference
  2
_DOTSMALL
 10
8078.354899444727
 20
2308.900949614034
 30
0.0
 41
100.0
 42
100.0
 43
100.0
 50
270.0
  0
INSERT
  5
25E6
330
2193
100
AcDbEntity
  8
寸法
 62
     4
 48
50.0
370
    -2
100
AcDbBlockReference
  2
_DOTSMALL
 10
8078.354899444727
 20
2558.900949614034
 30
0.0
 41
100.0
 42
100.0
 43
100.0
 50
90.0
  0
POINT
  5
25E7
330
2193
100
AcDbEntity
  8
DEFPOINTS
 62
     0
 48
50.0
100
AcDbPoint
 10
8062.254670437178
 20
2308.900949614034
 30
0.0
  0
POINT
  5
25E8
330
2193
100
AcDbEntity
  8
DEFPOINTS
 62
     0
 48
50.0
100
AcDbPoint
 10
8946.327550881035
 20
2558.900949614034
 30
0.0
  0
POINT
  5
25E9
330
2193
100
AcDbEntity
  8
DEFPOINTS
 62
     0
 48
50.0
100
AcDbPoint
 10
8078.354899444727
 20
2558.900949614034
 30
0.0
  0
ENDBLK
  5
219E
330
2193
100
AcDbEntity
  8
0
 48
50.0
100
AcDbBlockEnd
  0
BLOCK
  5
21AA
330
219F
100
AcDbEntity
  8
0
 48
50.0
100
AcDbBlockBegin
  2
*D74
 70
     1
 10
0.0
 20
0.0
 30
0.0
  3
*D74
  1

  0
LINE
  5
25D7
330
219F
100
AcDbEntity
  8
寸法
 62
     4
 48
50.0
370
    -2
100
AcDbLine
 10
13006.32755088103
 20
2358.900949614033
 30
0.0
 11
13523.45611201606
 21
2358.900949614033
 31
0.0
  0
LINE
  5
25D8
330
219F
100
AcDbEntity
  8
寸法
 62
     4
 48
50.0
370
    -2
100
AcDbLine
 10
13455.59992105415
 20
2308.900949614034
 30
0.0
 11
13443.45611201606
 21
2308.900949614034
 31
0.0
  0
LINE
  5
25D9
330
219F
100
AcDbEntity
  8
寸法
 62
     4
 48
50.0
370
    -2
100
AcDbLine
 10
13483.45611201606
 20
2358.900949614033
 30
0.0
 11
13483.45611201606
 21
2458.900949614033
 31
0.0
  0
LINE
  5
25DA
330
219F
100
AcDbEntity
  8
寸法
 62
     4
 48
50.0
370
    -2
100
AcDbLine
 10
13483.45611201606
 20
2308.900949614034
 30
0.0
 11
13483.45611201606
 21
2208.900949614033
 31
0.0
  0
MTEXT
  5
25DB
330
219F
100
AcDbEntity
  8
寸法
 62
     7
 48
50.0
100
AcDbMText
 10
13362.01802163522
 20
2489.303996091994
 30
0.0
 40
120.0
 41
0.0
 71
     5
 72
     1
  1
\A1;50
 11
0.0000000000000001
 21
1.0
 31
0.0
 73
     1
 44
1.0
1001
ACAD
1000
MTEXTBEGIN
1070
    73
1070
     1
1070
    44
1040
1.0
1070
    74
1070
     0
1000
MTEXTEND
  0
INSERT
  5
25DC
330
219F
100
AcDbEntity
  8
寸法
 62
     4
 48
50.0
370
    -2
100
AcDbBlockReference
  2
_DOTSMALL
 10
13483.45611201606
 20
2358.900949614033
 30
0.0
 41
100.0
 42
100.0
 43
100.0
 50
270.0
  0
INSERT
  5
25DD
330
219F
100
AcDbEntity
  8
寸法
 62
     4
 48
50.0
370
    -2
100
AcDbBlockReference
  2
_DOTSMALL
 10
13483.45611201606
 20
2308.900949614034
 30
0.0
 41
100.0
 42
100.0
 43
100.0
 50
90.0
  0
POINT
  5
25DE
330
219F
100
AcDbEntity
  8
DEFPOINTS
 62
     0
 48
50.0
100
AcDbPoint
 10
12966.32755088103
 20
2358.900949614033
 30
0.0
  0
POINT
  5
25DF
330
219F
100
AcDbEntity
  8
DEFPOINTS
 62
     0
 48
50.0
100
AcDbPoint
 10
13495.59992105415
 20
2308.900949614034
 30
0.0
  0
POINT
  5
25E0
330
219F
100
AcDbEntity
  8
DEFPOINTS
 62
     0
 48
50.0
100
AcDbPoint
 10
13483.45611201606
 20
2308.900949614034
 30
0.0
  0
ENDBLK
  5
21AB
330
219F
100
AcDbEntity
  8
0
 48
50.0
100
AcDbBlockEnd
  0
BLOCK
  5
21B6
330
21AC
100
AcDbEntity
  8
0
 48
50.0
100
AcDbBlockBegin
  2
*D75
 70
     1
 10
0.0
 20
0.0
 30
0.0
  3
*D75
  1

  0
LINE
  5
25CE
330
21AC
100
AcDbEntity
  8
寸法
 62
     4
 48
50.0
370
    -2
100
AcDbLine
 10
12970.33206907486
 20
4505.712403549074
 30
0.0
 11
13535.09745646966
 21
4479.121366559244
 31
0.0
  0
LINE
  5
25CF
330
21AC
100
AcDbEntity
  8
寸法
 62
     4
 48
50.0
370
    -2
100
AcDbLine
 10
12964.92347741464
 20
4390.839660323133
 30
0.0
 11
13529.68886480943
 21
4364.248623333303
 31
0.0
  0
LINE
  5
25D0
330
21AC
100
AcDbEntity
  8
寸法
 62
     4
 48
50.0
370
    -2
100
AcDbLine
 10
13495.14171969542
 20
4481.002615832363
 30
0.0
 11
13489.73312803519
 21
4366.129872606422
 31
0.0
  0
MTEXT
  5
25D1
330
21AC
100
AcDbEntity
  8
寸法
 62
     7
 48
50.0
100
AcDbMText
 10
13642.67085374331
 20
4417.392130951813
 30
0.0
 40
120.0
 41
0.0
 71
     5
 72
     1
  1
\A1;115
 11
0.0470312318279986
 21
0.9988934193560098
 31
0.0
 73
     1
 44
1.0
1001
ACAD
1000
MTEXTBEGIN
1070
    73
1070
     1
1070
    44
1040
1.0
1070
    74
1070
     0
1000
MTEXTEND
  0
INSERT
  5
25D2
330
21AC
100
AcDbEntity
  8
寸法
 62
     4
 48
50.0
370
    -2
100
AcDbBlockReference
  2
_DOTSMALL
 10
13495.14171969542
 20
4481.002615832363
 30
0.0
 41
100.0
 42
100.0
 43
100.0
 50
87.30431450645136
  0
INSERT
  5
25D3
330
21AC
100
AcDbEntity
  8
寸法
 62
     4
 48
50.0
370
    -2
100
AcDbBlockReference
  2
_DOTSMALL
 10
13489.73312803519
 20
4366.129872606422
 30
0.0
 41
100.0
 42
100.0
 43
100.0
 50
267.3043145064514
  0
POINT
  5
25D4
330
21AC
100
AcDbEntity
  8
DEFPOINTS
 62
     0
 48
50.0
100
AcDbPoint
 10
12930.37633230062
 20
4507.593652822194
 30
0.0
  0
POINT
  5
25D5
330
21AC
100
AcDbEntity
  8
DEFPOINTS
 62
     0
 48
50.0
100
AcDbPoint
 10
12924.9677406404
 20
4392.720909596254
 30
0.0
  0
POINT
  5
25D6
330
21AC
100
AcDbEntity
  8
DEFPOINTS
 62
     0
 48
50.0
100
AcDbPoint
 10
13489.73312803519
 20
4366.129872606422
 30
0.0
  0
ENDBLK
  5
21B7
330
21AC
100
AcDbEntity
  8
0
 48
50.0
100
AcDbBlockEnd
  0
BLOCK
  5
21C2
330
21B8
100
AcDbEntity
  8
0
 48
50.0
100
AcDbBlockBegin
  2
*D76
 70
     1
 10
0.0
 20
0.0
 30
0.0
  3
*D76
  1

  0
LINE
  5
25C5
330
21B8
100
AcDbEntity
  8
寸法
 62
     4
 48
50.0
370
    -2
100
AcDbLine
 10
8166.327550881034
 20
4545.900949614033
 30
0.0
 11
8166.327550881034
 21
5233.668646643566
 31
0.0
  0
LINE
  5
25C6
330
21B8
100
AcDbEntity
  8
寸法
 62
     4
 48
50.0
370
    -2
100
AcDbLine
 10
12966.32755088103
 20
4545.900949614033
 30
0.0
 11
12966.32755088103
 21
5233.668646643566
 31
0.0
  0
LINE
  5
25C7
330
21B8
100
AcDbEntity
  8
寸法
 62
     4
 48
50.0
370
    -2
100
AcDbLine
 10
8166.327550881034
 20
5193.668646643565
 30
0.0
 11
12966.32755088103
 21
5193.668646643565
 31
0.0
  0
INSERT
  5
25C8
330
21B8
100
AcDbEntity
  8
寸法
 62
     4
 48
50.0
370
    -2
100
AcDbBlockReference
  2
_DOTSMALL
 10
8166.327550881034
 20
5193.668646643565
 30
0.0
 41
100.0
 42
100.0
 43
100.0
 50
180.0
  0
INSERT
  5
25C9
330
21B8
100
AcDbEntity
  8
寸法
 62
     4
 48
50.0
370
    -2
100
AcDbBlockReference
  2
_DOTSMALL
 10
12966.32755088103
 20
5193.668646643565
 30
0.0
 41
100.0
 42
100.0
 43
100.0
  0
MTEXT
  5
25CA
330
21B8
100
AcDbEntity
  8
寸法
 62
     7
 48
50.0
100
AcDbMText
 10
10566.32755088103
 20
5293.668646643566
 30
0.0
 40
120.0
 41
0.0
 71
     5
 72
     1
  1
\A1;4800
 73
     1
 44
1.0
1001
ACAD
1000
MTEXTBEGIN
1070
    73
1070
     1
1070
    44
1040
1.0
1070
    74
1070
     0
1000
MTEXTEND
  0
POINT
  5
25CB
330
21B8
100
AcDbEntity
  8
DEFPOINTS
 62
     0
 48
50.0
100
AcDbPoint
 10
8166.327550881034
 20
4505.900949614033
 30
0.0
  0
POINT
  5
25CC
330
21B8
100
AcDbEntity
  8
DEFPOINTS
 62
     0
 48
50.0
100
AcDbPoint
 10
12966.32755088103
 20
4505.900949614033
 30
0.0
  0
POINT
  5
25CD
330
21B8
100
AcDbEntity
  8
DEFPOINTS
 62
     0
 48
50.0
100
AcDbPoint
 10
12966.32755088103
 20
5193.668646643565
 30
0.0
  0
ENDBLK
  5
21C3
330
21B8
100
AcDbEntity
  8
0
 48
50.0
100
AcDbBlockEnd
  0
BLOCK
  5
21CD
330
21C4
100
AcDbEntity
  8
0
 48
50.0
100
AcDbBlockBegin
  2
*D77
 70
     1
 10
0.0
 20
0.0
 30
0.0
  3
*D77
  1

  0
LINE
  5
25BD
330
21C4
100
AcDbEntity
  8
寸法
 62
     4
 48
50.0
370
    -2
100
AcDbLine
 10
12966.32755088103
 20
4545.900949614033
 30
0.0
 11
12966.32755088103
 21
4953.668646643566
 31
0.0
  0
LINE
  5
25BE
330
21C4
100
AcDbEntity
  8
寸法
 62
     4
 48
50.0
370
    -2
100
AcDbLine
 10
12216.32755088103
 20
4913.668646643566
 30
0.0
 11
12966.32755088103
 21
4913.668646643566
 31
0.0
  0
INSERT
  5
25BF
330
21C4
100
AcDbEntity
  8
寸法
 62
     4
 48
50.0
370
    -2
100
AcDbBlockReference
  2
_DOTSMALL
 10
12216.32755088103
 20
4913.668646643566
 30
0.0
 41
100.0
 42
100.0
 43
100.0
 50
180.0
  0
INSERT
  5
25C0
330
21C4
100
AcDbEntity
  8
寸法
 62
     4
 48
50.0
370
    -2
100
AcDbBlockReference
  2
_DOTSMALL
 10
12966.32755088103
 20
4913.668646643566
 30
0.0
 41
100.0
 42
100.0
 43
100.0
  0
MTEXT
  5
25C1
330
21C4
100
AcDbEntity
  8
寸法
 62
     7
 48
50.0
100
AcDbMText
 10
12591.32755088103
 20
5013.668646643566
 30
0.0
 40
120.0
 41
0.0
 71
     5
 72
     1
  1
\A1;750
 73
     1
 44
1.0
1001
ACAD
1000
MTEXTBEGIN
1070
    73
1070
     1
1070
    44
1040
1.0
1070
    74
1070
     0
1000
MTEXTEND
  0
POINT
  5
25C2
330
21C4
100
AcDbEntity
  8
DEFPOINTS
 62
     0
 48
50.0
100
AcDbPoint
 10
12216.32755088103
 20
4122.92028237068
 30
0.0
  0
POINT
  5
25C3
330
21C4
100
AcDbEntity
  8
DEFPOINTS
 62
     0
 48
50.0
100
AcDbPoint
 10
12966.32755088103
 20
4505.900949614033
 30
0.0
  0
POINT
  5
25C4
330
21C4
100
AcDbEntity
  8
DEFPOINTS
 62
     0
 48
50.0
100
AcDbPoint
 10
12966.32755088103
 20
4913.668646643566
 30
0.0
  0
ENDBLK
  5
21CE
330
21C4
100
AcDbEntity
  8
0
 48
50.0
100
AcDbBlockEnd
  0
BLOCK
  5
21D8
330
21CF
100
AcDbEntity
  8
0
 48
50.0
100
AcDbBlockBegin
  2
*D78
 70
     1
 10
0.0
 20
0.0
 30
0.0
  3
*D78
  1

  0
LINE
  5
25B5
330
21CF
100
AcDbEntity
  8
寸法
 62
     4
 48
50.0
370
    -2
100
AcDbLine
 10
12216.32755088103
 20
4162.92028237068
 30
0.0
 11
12216.32755088103
 21
4953.668646643566
 31
0.0
  0
LINE
  5
25B6
330
21CF
100
AcDbEntity
  8
寸法
 62
     4
 48
50.0
370
    -2
100
AcDbLine
 10
10566.32755088103
 20
4913.668646643566
 30
0.0
 11
12216.32755088103
 21
4913.668646643566
 31
0.0
  0
INSERT
  5
25B7
330
21CF
100
AcDbEntity
  8
寸法
 62
     4
 48
50.0
370
    -2
100
AcDbBlockReference
  2
_DOTSMALL
 10
10566.32755088103
 20
4913.668646643566
 30
0.0
 41
100.0
 42
100.0
 43
100.0
 50
180.0
  0
INSERT
  5
25B8
330
21CF
100
AcDbEntity
  8
寸法
 62
     4
 48
50.0
370
    -2
100
AcDbBlockReference
  2
_DOTSMALL
 10
12216.32755088103
 20
4913.668646643566
 30
0.0
 41
100.0
 42
100.0
 43
100.0
  0
MTEXT
  5
25B9
330
21CF
100
AcDbEntity
  8
寸法
 62
     7
 48
50.0
100
AcDbMText
 10
11391.32755088103
 20
5013.668646643566
 30
0.0
 40
120.0
 41
0.0
 71
     5
 72
     1
  1
\A1;1650
 73
     1
 44
1.0
1001
ACAD
1000
MTEXTBEGIN
1070
    73
1070
     1
1070
    44
1040
1.0
1070
    74
1070
     0
1000
MTEXTEND
  0
POINT
  5
25BA
330
21CF
100
AcDbEntity
  8
DEFPOINTS
 62
     0
 48
50.0
100
AcDbPoint
 10
10566.32755088103
 20
4157.086365704013
 30
0.0
  0
POINT
  5
25BB
330
21CF
100
AcDbEntity
  8
DEFPOINTS
 62
     0
 48
50.0
100
AcDbPoint
 10
12216.32755088103
 20
4122.92028237068
 30
0.0
  0
POINT
  5
25BC
330
21CF
100
AcDbEntity
  8
DEFPOINTS
 62
     0
 48
50.0
100
AcDbPoint
 10
12216.32755088103
 20
4913.668646643566
 30
0.0
  0
ENDBLK
  5
21D9
330
21CF
100
AcDbEntity
  8
0
 48
50.0
100
AcDbBlockEnd
  0
BLOCK
  5
21E3
330
21DA
100
AcDbEntity
  8
0
 48
50.0
100
AcDbBlockBegin
  2
*D79
 70
     1
 10
0.0
 20
0.0
 30
0.0
  3
*D79
  1

  0
LINE
  5
25AD
330
21DA
100
AcDbEntity
  8
寸法
 62
     4
 48
50.0
370
    -2
100
AcDbLine
 10
10566.32755088103
 20
4658.900949614033
 30
0.0
 11
10566.32755088103
 21
4953.668646643566
 31
0.0
  0
LINE
  5
25AE
330
21DA
100
AcDbEntity
  8
寸法
 62
     4
 48
50.0
370
    -2
100
AcDbLine
 10
8916.327550881034
 20
4913.668646643566
 30
0.0
 11
10566.32755088103
 21
4913.668646643566
 31
0.0
  0
INSERT
  5
25AF
330
21DA
100
AcDbEntity
  8
寸法
 62
     4
 48
50.0
370
    -2
100
AcDbBlockReference
  2
_DOTSMALL
 10
8916.327550881034
 20
4913.668646643566
 30
0.0
 41
100.0
 42
100.0
 43
100.0
 50
180.0
  0
INSERT
  5
25B0
330
21DA
100
AcDbEntity
  8
寸法
 62
     4
 48
50.0
370
    -2
100
AcDbBlockReference
  2
_DOTSMALL
 10
10566.32755088103
 20
4913.668646643566
 30
0.0
 41
100.0
 42
100.0
 43
100.0
  0
MTEXT
  5
25B1
330
21DA
100
AcDbEntity
  8
寸法
 62
     7
 48
50.0
100
AcDbMText
 10
9741.327550881033
 20
5013.668646643566
 30
0.0
 40
120.0
 41
0.0
 71
     5
 72
     1
  1
\A1;1650
 73
     1
 44
1.0
1001
ACAD
1000
MTEXTBEGIN
1070
    73
1070
     1
1070
    44
1040
1.0
1070
    74
1070
     0
1000
MTEXTEND
  0
POINT
  5
25B2
330
21DA
100
AcDbEntity
  8
DEFPOINTS
 62
     0
 48
50.0
100
AcDbPoint
 10
8916.327550881034
 20
4122.920282370682
 30
0.0
  0
POINT
  5
25B3
330
21DA
100
AcDbEntity
  8
DEFPOINTS
 62
     0
 48
50.0
100
AcDbPoint
 10
10566.32755088103
 20
4618.900949614033
 30
0.0
  0
POINT
  5
25B4
330
21DA
100
AcDbEntity
  8
DEFPOINTS
 62
     0
 48
50.0
100
AcDbPoint
 10
10566.32755088103
 20
4913.668646643566
 30
0.0
  0
ENDBLK
  5
21E4
330
21DA
100
AcDbEntity
  8
0
 48
50.0
100
AcDbBlockEnd
  0
BLOCK
  5
21EF
330
21E5
100
AcDbEntity
  8
0
 48
50.0
100
AcDbBlockBegin
  2
*D80
 70
     1
 10
0.0
 20
0.0
 30
0.0
  3
*D80
  1

  0
LINE
  5
25A4
330
21E5
100
AcDbEntity
  8
寸法
 62
     4
 48
50.0
370
    -2
100
AcDbLine
 10
8166.327550881034
 20
4545.900949614033
 30
0.0
 11
8166.327550881034
 21
4953.668646643566
 31
0.0
  0
LINE
  5
25A5
330
21E5
100
AcDbEntity
  8
寸法
 62
     4
 48
50.0
370
    -2
100
AcDbLine
 10
8916.327550881034
 20
4162.920282370682
 30
0.0
 11
8916.327550881034
 21
4953.668646643566
 31
0.0
  0
LINE
  5
25A6
330
21E5
100
AcDbEntity
  8
寸法
 62
     4
 48
50.0
370
    -2
100
AcDbLine
 10
8166.327550881034
 20
4913.668646643566
 30
0.0
 11
8916.327550881034
 21
4913.668646643566
 31
0.0
  0
INSERT
  5
25A7
330
21E5
100
AcDbEntity
  8
寸法
 62
     4
 48
50.0
370
    -2
100
AcDbBlockReference
  2
_DOTSMALL
 10
8166.327550881034
 20
4913.668646643566
 30
0.0
 41
100.0
 42
100.0
 43
100.0
 50
180.0
  0
INSERT
  5
25A8
330
21E5
100
AcDbEntity
  8
寸法
 62
     4
 48
50.0
370
    -2
100
AcDbBlockReference
  2
_DOTSMALL
 10
8916.327550881034
 20
4913.668646643566
 30
0.0
 41
100.0
 42
100.0
 43
100.0
  0
MTEXT
  5
25A9
330
21E5
100
AcDbEntity
  8
寸法
 62
     7
 48
50.0
100
AcDbMText
 10
8541.327550881034
 20
5013.668646643566
 30
0.0
 40
120.0
 41
0.0
 71
     5
 72
     1
  1
\A1;750
 73
     1
 44
1.0
1001
ACAD
1000
MTEXTBEGIN
1070
    73
1070
     1
1070
    44
1040
1.0
1070
    74
1070
     0
1000
MTEXTEND
  0
POINT
  5
25AA
330
21E5
100
AcDbEntity
  8
DEFPOINTS
 62
     0
 48
50.0
100
AcDbPoint
 10
8166.327550881034
 20
4505.900949614033
 30
0.0
  0
POINT
  5
25AB
330
21E5
100
AcDbEntity
  8
DEFPOINTS
 62
     0
 48
50.0
100
AcDbPoint
 10
8916.327550881034
 20
4122.920282370682
 30
0.0
  0
POINT
  5
25AC
330
21E5
100
AcDbEntity
  8
DEFPOINTS
 62
     0
 48
50.0
100
AcDbPoint
 10
8916.327550881034
 20
4913.668646643566
 30
0.0
  0
ENDBLK
  5
21F0
330
21E5
100
AcDbEntity
  8
0
 48
50.0
100
AcDbBlockEnd
  0
BLOCK
  5
21FB
330
21F1
100
AcDbEntity
  8
0
 48
50.0
100
AcDbBlockBegin
  2
*D81
 70
     1
 10
0.0
 20
0.0
 30
0.0
  3
*D81
  1

  0
LINE
  5
259B
330
21F1
100
AcDbEntity
  8
寸法
 62
     4
 48
50.0
370
    -2
100
AcDbLine
 10
3008.08479127592
 20
4658.900949614035
 30
0.0
 11
3008.08479127592
 21
5234.459815648815
 31
0.0
  0
LINE
  5
259C
330
21F1
100
AcDbEntity
  8
寸法
 62
     4
 48
50.0
370
    -2
100
AcDbLine
 10
6308.08479127592
 20
4658.900949614035
 30
0.0
 11
6308.08479127592
 21
5234.459815648815
 31
0.0
  0
LINE
  5
259D
330
21F1
100
AcDbEntity
  8
寸法
 62
     4
 48
50.0
370
    -2
100
AcDbLine
 10
3008.08479127592
 20
5194.459815648816
 30
0.0
 11
6308.08479127592
 21
5194.459815648816
 31
0.0
  0
INSERT
  5
259E
330
21F1
100
AcDbEntity
  8
寸法
 62
     4
 48
50.0
370
    -2
100
AcDbBlockReference
  2
_DOTSMALL
 10
3008.08479127592
 20
5194.459815648816
 30
0.0
 41
100.0
 42
100.0
 43
100.0
 50
180.0
  0
INSERT
  5
259F
330
21F1
100
AcDbEntity
  8
寸法
 62
     4
 48
50.0
370
    -2
100
AcDbBlockReference
  2
_DOTSMALL
 10
6308.08479127592
 20
5194.459815648816
 30
0.0
 41
100.0
 42
100.0
 43
100.0
  0
MTEXT
  5
25A0
330
21F1
100
AcDbEntity
  8
寸法
 62
     7
 48
50.0
100
AcDbMText
 10
4658.08479127592
 20
5294.459815648815
 30
0.0
 40
120.0
 41
0.0
 71
     5
 72
     1
  1
\A1;3300
 73
     1
 44
1.0
1001
ACAD
1000
MTEXTBEGIN
1070
    73
1070
     1
1070
    44
1040
1.0
1070
    74
1070
     0
1000
MTEXTEND
  0
POINT
  5
25A1
330
21F1
100
AcDbEntity
  8
DEFPOINTS
 62
     0
 48
50.0
100
AcDbPoint
 10
3008.08479127592
 20
4618.900949614035
 30
0.0
  0
POINT
  5
25A2
330
21F1
100
AcDbEntity
  8
DEFPOINTS
 62
     0
 48
50.0
100
AcDbPoint
 10
6308.08479127592
 20
4618.900949614035
 30
0.0
  0
POINT
  5
25A3
330
21F1
100
AcDbEntity
  8
DEFPOINTS
 62
     0
 48
50.0
100
AcDbPoint
 10
6308.08479127592
 20
5194.459815648816
 30
0.0
  0
ENDBLK
  5
21FC
330
21F1
100
AcDbEntity
  8
0
 48
50.0
100
AcDbBlockEnd
  0
BLOCK
  5
2206
330
21FD
100
AcDbEntity
  8
0
 48
50.0
100
AcDbBlockBegin
  2
*D82
 70
     1
 10
0.0
 20
0.0
 30
0.0
  3
*D82
  1

  0
LINE
  5
2593
330
21FD
100
AcDbEntity
  8
寸法
 62
     4
 48
50.0
370
    -2
100
AcDbLine
 10
6308.08479127592
 20
4658.900949614035
 30
0.0
 11
6308.08479127592
 21
4954.459815648815
 31
0.0
  0
LINE
  5
2594
330
21FD
100
AcDbEntity
  8
寸法
 62
     4
 48
50.0
370
    -2
100
AcDbLine
 10
6058.08479127592
 20
4914.459815648815
 30
0.0
 11
6308.08479127592
 21
4914.459815648815
 31
0.0
  0
INSERT
  5
2595
330
21FD
100
AcDbEntity
  8
寸法
 62
     4
 48
50.0
370
    -2
100
AcDbBlockReference
  2
_DOTSMALL
 10
6058.08479127592
 20
4914.459815648815
 30
0.0
 41
100.0
 42
100.0
 43
100.0
 50
180.0
  0
INSERT
  5
2596
330
21FD
100
AcDbEntity
  8
寸法
 62
     4
 48
50.0
370
    -2
100
AcDbBlockReference
  2
_DOTSMALL
 10
6308.08479127592
 20
4914.459815648815
 30
0.0
 41
100.0
 42
100.0
 43
100.0
  0
MTEXT
  5
2597
330
21FD
100
AcDbEntity
  8
寸法
 62
     7
 48
50.0
100
AcDbMText
 10
6183.08479127592
 20
5014.471626672437
 30
0.0
 40
120.0
 41
0.0
 71
     5
 72
     1
  1
\A1;250
 73
     1
 44
1.0
1001
ACAD
1000
MTEXTBEGIN
1070
    73
1070
     1
1070
    44
1040
1.0
1070
    74
1070
     0
1000
MTEXTEND
  0
POINT
  5
2598
330
21FD
100
AcDbEntity
  8
DEFPOINTS
 62
     0
 48
50.0
100
AcDbPoint
 10
6058.08479127592
 20
4391.216331315403
 30
0.0
  0
POINT
  5
2599
330
21FD
100
AcDbEntity
  8
DEFPOINTS
 62
     0
 48
50.0
100
AcDbPoint
 10
6308.08479127592
 20
4618.900949614035
 30
0.0
  0
POINT
  5
259A
330
21FD
100
AcDbEntity
  8
DEFPOINTS
 62
     0
 48
50.0
100
AcDbPoint
 10
6308.08479127592
 20
4914.459815648815
 30
0.0
  0
ENDBLK
  5
2207
330
21FD
100
AcDbEntity
  8
0
 48
50.0
100
AcDbBlockEnd
  0
BLOCK
  5
2211
330
2208
100
AcDbEntity
  8
0
 48
50.0
100
AcDbBlockBegin
  2
*D83
 70
     1
 10
0.0
 20
0.0
 30
0.0
  3
*D83
  1

  0
LINE
  5
258B
330
2208
100
AcDbEntity
  8
寸法
 62
     4
 48
50.0
370
    -2
100
AcDbLine
 10
6058.08479127592
 20
4431.216331315403
 30
0.0
 11
6058.08479127592
 21
4954.459815648815
 31
0.0
  0
LINE
  5
258C
330
2208
100
AcDbEntity
  8
寸法
 62
     4
 48
50.0
370
    -2
100
AcDbLine
 10
3258.08479127592
 20
4914.459815648815
 30
0.0
 11
6058.08479127592
 21
4914.459815648815
 31
0.0
  0
INSERT
  5
258D
330
2208
100
AcDbEntity
  8
寸法
 62
     4
 48
50.0
370
    -2
100
AcDbBlockReference
  2
_DOTSMALL
 10
3258.08479127592
 20
4914.459815648815
 30
0.0
 41
100.0
 42
100.0
 43
100.0
 50
180.0
  0
INSERT
  5
258E
330
2208
100
AcDbEntity
  8
寸法
 62
     4
 48
50.0
370
    -2
100
AcDbBlockReference
  2
_DOTSMALL
 10
6058.08479127592
 20
4914.459815648815
 30
0.0
 41
100.0
 42
100.0
 43
100.0
  0
MTEXT
  5
258F
330
2208
100
AcDbEntity
  8
寸法
 62
     7
 48
50.0
100
AcDbMText
 10
4658.08479127592
 20
5014.471626672437
 30
0.0
 40
120.0
 41
0.0
 71
     5
 72
     1
  1
\A1;2800
 73
     1
 44
1.0
1001
ACAD
1000
MTEXTBEGIN
1070
    73
1070
     1
1070
    44
1040
1.0
1070
    74
1070
     0
1000
MTEXTEND
  0
POINT
  5
2590
330
2208
100
AcDbEntity
  8
DEFPOINTS
 62
     0
 48
50.0
100
AcDbPoint
 10
3258.08479127592
 20
4391.216331315403
 30
0.0
  0
POINT
  5
2591
330
2208
100
AcDbEntity
  8
DEFPOINTS
 62
     0
 48
50.0
100
AcDbPoint
 10
6058.08479127592
 20
4391.216331315403
 30
0.0
  0
POINT
  5
2592
330
2208
100
AcDbEntity
  8
DEFPOINTS
 62
     0
 48
50.0
100
AcDbPoint
 10
6058.08479127592
 20
4914.459815648815
 30
0.0
  0
ENDBLK
  5
2212
330
2208
100
AcDbEntity
  8
0
 48
50.0
100
AcDbBlockEnd
  0
BLOCK
  5
221D
330
2213
100
AcDbEntity
  8
0
 48
50.0
100
AcDbBlockBegin
  2
*D84
 70
     1
 10
0.0
 20
0.0
 30
0.0
  3
*D84
  1

  0
LINE
  5
2582
330
2213
100
AcDbEntity
  8
寸法
 62
     4
 48
50.0
370
    -2
100
AcDbLine
 10
3008.08479127592
 20
4658.900949614035
 30
0.0
 11
3008.08479127592
 21
4954.459815648815
 31
0.0
  0
LINE
  5
2583
330
2213
100
AcDbEntity
  8
寸法
 62
     4
 48
50.0
370
    -2
100
AcDbLine
 10
3258.08479127592
 20
4431.216331315403
 30
0.0
 11
3258.08479127592
 21
4954.459815648815
 31
0.0
  0
LINE
  5
2584
330
2213
100
AcDbEntity
  8
寸法
 62
     4
 48
50.0
370
    -2
100
AcDbLine
 10
3008.08479127592
 20
4914.459815648815
 30
0.0
 11
3258.08479127592
 21
4914.459815648815
 31
0.0
  0
INSERT
  5
2585
330
2213
100
AcDbEntity
  8
寸法
 62
     4
 48
50.0
370
    -2
100
AcDbBlockReference
  2
_DOTSMALL
 10
3008.08479127592
 20
4914.459815648815
 30
0.0
 41
100.0
 42
100.0
 43
100.0
 50
180.0
  0
INSERT
  5
2586
330
2213
100
AcDbEntity
  8
寸法
 62
     4
 48
50.0
370
    -2
100
AcDbBlockReference
  2
_DOTSMALL
 10
3258.08479127592
 20
4914.459815648815
 30
0.0
 41
100.0
 42
100.0
 43
100.0
  0
MTEXT
  5
2587
330
2213
100
AcDbEntity
  8
寸法
 62
     7
 48
50.0
100
AcDbMText
 10
3133.08479127592
 20
5014.471626672437
 30
0.0
 40
120.0
 41
0.0
 71
     5
 72
     1
  1
\A1;250
 73
     1
 44
1.0
1001
ACAD
1000
MTEXTBEGIN
1070
    73
1070
     1
1070
    44
1040
1.0
1070
    74
1070
     0
1000
MTEXTEND
  0
POINT
  5
2588
330
2213
100
AcDbEntity
  8
DEFPOINTS
 62
     0
 48
50.0
100
AcDbPoint
 10
3008.08479127592
 20
4618.900949614035
 30
0.0
  0
POINT
  5
2589
330
2213
100
AcDbEntity
  8
DEFPOINTS
 62
     0
 48
50.0
100
AcDbPoint
 10
3258.08479127592
 20
4391.216331315403
 30
0.0
  0
POINT
  5
258A
330
2213
100
AcDbEntity
  8
DEFPOINTS
 62
     0
 48
50.0
100
AcDbPoint
 10
3258.08479127592
 20
4914.459815648815
 30
0.0
  0
ENDBLK
  5
221E
330
2213
100
AcDbEntity
  8
0
 48
50.0
100
AcDbBlockEnd
  0
BLOCK
  5
2228
330
221F
100
AcDbEntity
  8
0
 48
50.0
100
AcDbBlockBegin
  2
*D85
 70
     1
 10
0.0
 20
0.0
 30
0.0
  3
*D85
  1

  0
LINE
  5
257A
330
221F
100
AcDbEntity
  8
寸法
 62
     4
 48
50.0
370
    -2
100
AcDbLine
 10
2968.08479127592
 20
8093.503097597819
 30
0.0
 11
2394.415140076315
 21
8093.503097597819
 31
0.0
  0
LINE
  5
257B
330
221F
100
AcDbEntity
  8
寸法
 62
     4
 48
50.0
370
    -2
100
AcDbLine
 10
2434.415140076315
 20
8370.703097597818
 30
0.0
 11
2434.415140076315
 21
8093.503097597819
 31
0.0
  0
MTEXT
  5
257C
330
221F
100
AcDbEntity
  8
寸法
 62
     7
 48
50.0
100
AcDbMText
 10
2274.403329052693
 20
8146.731066668165
 30
0.0
 40
120.0
 41
0.0
 71
     5
 72
     1
  1
\A1;277.2
 11
0.0000000000000001
 21
1.0
 31
0.0
 73
     1
 44
1.0
1001
ACAD
1000
MTEXTBEGIN
1070
    73
1070
     1
1070
    44
1040
1.0
1070
    74
1070
     0
1000
MTEXTEND
  0
INSERT
  5
257D
330
221F
100
AcDbEntity
  8
寸法
 62
     4
 48
50.0
370
    -2
100
AcDbBlockReference
  2
_DOTSMALL
 10
2434.415140076315
 20
8370.703097597818
 30
0.0
 41
100.0
 42
100.0
 43
100.0
 50
90.0
  0
INSERT
  5
257E
330
221F
100
AcDbEntity
  8
寸法
 62
     4
 48
50.0
370
    -2
100
AcDbBlockReference
  2
_DOTSMALL
 10
2434.415140076315
 20
8093.503097597819
 30
0.0
 41
100.0
 42
100.0
 43
100.0
 50
270.0
  0
POINT
  5
257F
330
221F
100
AcDbEntity
  8
DEFPOINTS
 62
     0
 48
50.0
100
AcDbPoint
 10
3008.08479127592
 20
8370.703097597818
 30
0.0
  0
POINT
  5
2580
330
221F
100
AcDbEntity
  8
DEFPOINTS
 62
     0
 48
50.0
100
AcDbPoint
 10
3008.08479127592
 20
8093.503097597819
 30
0.0
  0
POINT
  5
2581
330
221F
100
AcDbEntity
  8
DEFPOINTS
 62
     0
 48
50.0
100
AcDbPoint
 10
2434.415140076315
 20
8093.503097597819
 30
0.0
  0
ENDBLK
  5
2229
330
221F
100
AcDbEntity
  8
0
 48
50.0
100
AcDbBlockEnd
  0
BLOCK
  5
2233
330
222A
100
AcDbEntity
  8
0
 48
50.0
100
AcDbBlockBegin
  2
*D86
 70
     1
 10
0.0
 20
0.0
 30
0.0
  3
*D86
  1

  0
LINE
  5
2572
330
222A
100
AcDbEntity
  8
寸法
 62
     4
 48
50.0
370
    -2
100
AcDbLine
 10
6338.084791275919
 20
10770.70309759782
 30
0.0
 11
6963.53771446304
 21
10770.70309759782
 31
0.0
  0
LINE
  5
2573
330
222A
100
AcDbEntity
  8
寸法
 62
     4
 48
50.0
370
    -2
100
AcDbLine
 10
6923.537714463041
 20
10646.70309759782
 30
0.0
 11
6923.537714463041
 21
10770.70309759782
 31
0.0
  0
MTEXT
  5
2574
330
222A
100
AcDbEntity
  8
寸法
 62
     7
 48
50.0
100
AcDbMText
 10
6816.120316553067
 20
10907.7018745455
 30
0.0
 40
120.0
 41
0.0
 71
     5
 72
     1
  1
\A1;124
 11
0.0000000000000001
 21
1.0
 31
0.0
 73
     1
 44
1.0
1001
ACAD
1000
MTEXTBEGIN
1070
    73
1070
     1
1070
    44
1040
1.0
1070
    74
1070
     0
1000
MTEXTEND
  0
INSERT
  5
2575
330
222A
100
AcDbEntity
  8
寸法
 62
     4
 48
50.0
370
    -2
100
AcDbBlockReference
  2
_DOTSMALL
 10
6923.537714463041
 20
10646.70309759782
 30
0.0
 41
100.0
 42
100.0
 43
100.0
 50
270.0
  0
INSERT
  5
2576
330
222A
100
AcDbEntity
  8
寸法
 62
     4
 48
50.0
370
    -2
100
AcDbBlockReference
  2
_DOTSMALL
 10
6923.537714463041
 20
10770.70309759782
 30
0.0
 41
100.0
 42
100.0
 43
100.0
 50
90.0
  0
POINT
  5
2577
330
222A
100
AcDbEntity
  8
DEFPOINTS
 62
     0
 48
50.0
100
AcDbPoint
 10
6259.584791275912
 20
10646.70309759782
 30
0.0
  0
POINT
  5
2578
330
222A
100
AcDbEntity
  8
DEFPOINTS
 62
     0
 48
50.0
100
AcDbPoint
 10
6298.084791275919
 20
10770.70309759782
 30
0.0
  0
POINT
  5
2579
330
222A
100
AcDbEntity
  8
DEFPOINTS
 62
     0
 48
50.0
100
AcDbPoint
 10
6923.537714463041
 20
10770.70309759782
 30
0.0
  0
ENDBLK
  5
2234
330
222A
100
AcDbEntity
  8
0
 48
50.0
100
AcDbBlockEnd
  0
BLOCK
  5
223E
330
2235
100
AcDbEntity
  8
0
 48
50.0
100
AcDbBlockBegin
  2
*D87
 70
     1
 10
0.0
 20
0.0
 30
0.0
  3
*D87
  1

  0
LINE
  5
256A
330
2235
100
AcDbEntity
  8
寸法
 62
     4
 48
50.0
370
    -2
100
AcDbLine
 10
6338.08479127592
 20
5970.703097597816
 30
0.0
 11
6963.53771446304
 21
5970.703097597816
 31
0.0
  0
LINE
  5
256B
330
2235
100
AcDbEntity
  8
寸法
 62
     4
 48
50.0
370
    -2
100
AcDbLine
 10
6923.537714463041
 20
6094.703097597822
 30
0.0
 11
6923.537714463041
 21
5970.703097597816
 31
0.0
  0
MTEXT
  5
256C
330
2235
100
AcDbEntity
  8
寸法
 62
     7
 48
50.0
100
AcDbMText
 10
6813.207916493695
 20
5835.652535875009
 30
0.0
 40
120.0
 41
0.0
 71
     5
 72
     1
  1
\A1;124
 11
0.0000000000000001
 21
1.0
 31
0.0
 73
     1
 44
1.0
1001
ACAD
1000
MTEXTBEGIN
1070
    73
1070
     1
1070
    44
1040
1.0
1070
    74
1070
     0
1000
MTEXTEND
  0
INSERT
  5
256D
330
2235
100
AcDbEntity
  8
寸法
 62
     4
 48
50.0
370
    -2
100
AcDbBlockReference
  2
_DOTSMALL
 10
6923.537714463041
 20
6094.703097597822
 30
0.0
 41
100.0
 42
100.0
 43
100.0
 50
90.0
  0
INSERT
  5
256E
330
2235
100
AcDbEntity
  8
寸法
 62
     4
 48
50.0
370
    -2
100
AcDbBlockReference
  2
_DOTSMALL
 10
6923.537714463041
 20
5970.703097597816
 30
0.0
 41
100.0
 42
100.0
 43
100.0
 50
270.0
  0
POINT
  5
256F
330
2235
100
AcDbEntity
  8
DEFPOINTS
 62
     0
 48
50.0
100
AcDbPoint
 10
6259.58479127592
 20
6094.703097597822
 30
0.0
  0
POINT
  5
2570
330
2235
100
AcDbEntity
  8
DEFPOINTS
 62
     0
 48
50.0
100
AcDbPoint
 10
6298.08479127592
 20
5970.703097597816
 30
0.0
  0
POINT
  5
2571
330
2235
100
AcDbEntity
  8
DEFPOINTS
 62
     0
 48
50.0
100
AcDbPoint
 10
6923.537714463041
 20
5970.703097597816
 30
0.0
  0
ENDBLK
  5
223F
330
2235
100
AcDbEntity
  8
0
 48
50.0
100
AcDbBlockEnd
  0
BLOCK
  5
2249
330
2240
100
AcDbEntity
  8
0
 48
50.0
100
AcDbBlockBegin
  2
*D88
 70
     1
 10
0.0
 20
0.0
 30
0.0
  3
*D88
  1

  0
LINE
  5
2562
330
2240
100
AcDbEntity
  8
寸法
 62
     4
 48
50.0
370
    -2
100
AcDbLine
 10
6299.58479127592
 20
6094.703097597822
 30
0.0
 11
6963.53771446304
 21
6094.703097597822
 31
0.0
  0
LINE
  5
2563
330
2240
100
AcDbEntity
  8
寸法
 62
     4
 48
50.0
370
    -2
100
AcDbLine
 10
6923.537714463042
 20
8230.703097597817
 30
0.0
 11
6923.537714463041
 21
6094.703097597822
 31
0.0
  0
INSERT
  5
2564
330
2240
100
AcDbEntity
  8
寸法
 62
     4
 48
50.0
370
    -2
100
AcDbBlockReference
  2
_DOTSMALL
 10
6923.537714463042
 20
8230.703097597817
 30
0.0
 41
100.0
 42
100.0
 43
100.0
 50
90.0
  0
INSERT
  5
2565
330
2240
100
AcDbEntity
  8
寸法
 62
     4
 48
50.0
370
    -2
100
AcDbBlockReference
  2
_DOTSMALL
 10
6923.537714463041
 20
6094.703097597822
 30
0.0
 41
100.0
 42
100.0
 43
100.0
 50
270.0
  0
MTEXT
  5
2566
330
2240
100
AcDbEntity
  8
寸法
 62
     7
 48
50.0
100
AcDbMText
 10
6823.525903439417
 20
7162.703097597821
 30
0.0
 40
120.0
 41
0.0
 71
     5
 72
     1
  1
\A1;2136
 11
0.0000000000000001
 21
1.0
 31
0.0
 73
     1
 44
1.0
1001
ACAD
1000
MTEXTBEGIN
1070
    73
1070
     1
1070
    44
1040
1.0
1070
    74
1070
     0
1000
MTEXTEND
  0
POINT
  5
2567
330
2240
100
AcDbEntity
  8
DEFPOINTS
 62
     0
 48
50.0
100
AcDbPoint
 10
6263.08479127592
 20
8230.703097597817
 30
0.0
  0
POINT
  5
2568
330
2240
100
AcDbEntity
  8
DEFPOINTS
 62
     0
 48
50.0
100
AcDbPoint
 10
6259.58479127592
 20
6094.703097597822
 30
0.0
  0
POINT
  5
2569
330
2240
100
AcDbEntity
  8
DEFPOINTS
 62
     0
 48
50.0
100
AcDbPoint
 10
6923.537714463041
 20
6094.703097597822
 30
0.0
  0
ENDBLK
  5
224A
330
2240
100
AcDbEntity
  8
0
 48
50.0
100
AcDbBlockEnd
  0
BLOCK
  5
2254
330
224B
100
AcDbEntity
  8
0
 48
50.0
100
AcDbBlockBegin
  2
*D89
 70
     1
 10
0.0
 20
0.0
 30
0.0
  3
*D89
  1

  0
LINE
  5
255A
330
224B
100
AcDbEntity
  8
寸法
 62
     4
 48
50.0
370
    -2
100
AcDbLine
 10
6303.08479127592
 20
8230.703097597817
 30
0.0
 11
6963.53771446304
 21
8230.703097597817
 31
0.0
  0
LINE
  5
255B
330
224B
100
AcDbEntity
  8
寸法
 62
     4
 48
50.0
370
    -2
100
AcDbLine
 10
6923.537714463041
 20
8510.703097597817
 30
0.0
 11
6923.537714463041
 21
8230.703097597817
 31
0.0
  0
MTEXT
  5
255C
330
224B
100
AcDbEntity
  8
寸法
 62
     7
 48
50.0
100
AcDbMText
 10
6828.977802946297
 20
8370.703097597818
 30
0.0
 40
120.0
 41
0.0
 71
     5
 72
     1
  1
\A1;280
 11
0.0000000000000001
 21
1.0
 31
0.0
 73
     1
 44
1.0
1001
ACAD
1000
MTEXTBEGIN
1070
    73
1070
     1
1070
    44
1040
1.0
1070
    74
1070
     0
1000
MTEXTEND
  0
INSERT
  5
255D
330
224B
100
AcDbEntity
  8
寸法
 62
     4
 48
50.0
370
    -2
100
AcDbBlockReference
  2
_DOTSMALL
 10
6923.537714463041
 20
8510.703097597817
 30
0.0
 41
100.0
 42
100.0
 43
100.0
 50
90.0
  0
INSERT
  5
255E
330
224B
100
AcDbEntity
  8
寸法
 62
     4
 48
50.0
370
    -2
100
AcDbBlockReference
  2
_DOTSMALL
 10
6923.537714463041
 20
8230.703097597817
 30
0.0
 41
100.0
 42
100.0
 43
100.0
 50
270.0
  0
POINT
  5
255F
330
224B
100
AcDbEntity
  8
DEFPOINTS
 62
     0
 48
50.0
100
AcDbPoint
 10
6263.084791275919
 20
8510.703097597817
 30
0.0
  0
POINT
  5
2560
330
224B
100
AcDbEntity
  8
DEFPOINTS
 62
     0
 48
50.0
100
AcDbPoint
 10
6263.08479127592
 20
8230.703097597817
 30
0.0
  0
POINT
  5
2561
330
224B
100
AcDbEntity
  8
DEFPOINTS
 62
     0
 48
50.0
100
AcDbPoint
 10
6923.537714463041
 20
8230.703097597817
 30
0.0
  0
ENDBLK
  5
2255
330
224B
100
AcDbEntity
  8
0
 48
50.0
100
AcDbBlockEnd
  0
BLOCK
  5
2260
330
2256
100
AcDbEntity
  8
0
 48
50.0
100
AcDbBlockBegin
  2
*D90
 70
     1
 10
0.0
 20
0.0
 30
0.0
  3
*D90
  1

  0
LINE
  5
2551
330
2256
100
AcDbEntity
  8
寸法
 62
     4
 48
50.0
370
    -2
100
AcDbLine
 10
6299.584791275913
 20
10646.70309759782
 30
0.0
 11
6963.537714463041
 21
10646.70309759782
 31
0.0
  0
LINE
  5
2552
330
2256
100
AcDbEntity
  8
寸法
 62
     4
 48
50.0
370
    -2
100
AcDbLine
 10
6303.084791275919
 20
8510.703097597817
 30
0.0
 11
6963.53771446304
 21
8510.703097597817
 31
0.0
  0
LINE
  5
2553
330
2256
100
AcDbEntity
  8
寸法
 62
     4
 48
50.0
370
    -2
100
AcDbLine
 10
6923.537714463042
 20
10646.70309759782
 30
0.0
 11
6923.537714463041
 21
8510.703097597817
 31
0.0
  0
INSERT
  5
2554
330
2256
100
AcDbEntity
  8
寸法
 62
     4
 48
50.0
370
    -2
100
AcDbBlockReference
  2
_DOTSMALL
 10
6923.537714463042
 20
10646.70309759782
 30
0.0
 41
100.0
 42
100.0
 43
100.0
 50
90.0
  0
INSERT
  5
2555
330
2256
100
AcDbEntity
  8
寸法
 62
     4
 48
50.0
370
    -2
100
AcDbBlockReference
  2
_DOTSMALL
 10
6923.537714463041
 20
8510.703097597817
 30
0.0
 41
100.0
 42
100.0
 43
100.0
 50
270.0
  0
MTEXT
  5
2556
330
2256
100
AcDbEntity
  8
寸法
 62
     7
 48
50.0
100
AcDbMText
 10
6823.525903439417
 20
9578.70309759782
 30
0.0
 40
120.0
 41
0.0
 71
     5
 72
     1
  1
\A1;2136
 11
0.0000000000000001
 21
1.0
 31
0.0
 73
     1
 44
1.0
1001
ACAD
1000
MTEXTBEGIN
1070
    73
1070
     1
1070
    44
1040
1.0
1070
    74
1070
     0
1000
MTEXTEND
  0
POINT
  5
2557
330
2256
100
AcDbEntity
  8
DEFPOINTS
 62
     0
 48
50.0
100
AcDbPoint
 10
6259.584791275912
 20
10646.70309759782
 30
0.0
  0
POINT
  5
2558
330
2256
100
AcDbEntity
  8
DEFPOINTS
 62
     0
 48
50.0
100
AcDbPoint
 10
6263.084791275919
 20
8510.703097597817
 30
0.0
  0
POINT
  5
2559
330
2256
100
AcDbEntity
  8
DEFPOINTS
 62
     0
 48
50.0
100
AcDbPoint
 10
6923.537714463041
 20
8510.703097597817
 30
0.0
  0
ENDBLK
  5
2261
330
2256
100
AcDbEntity
  8
0
 48
50.0
100
AcDbBlockEnd
  0
BLOCK
  5
226C
330
2262
100
AcDbEntity
  8
0
 48
50.0
100
AcDbBlockBegin
  2
*D91
 70
     1
 10
0.0
 20
0.0
 30
0.0
  3
*D91
  1

  0
LINE
  5
2548
330
2262
100
AcDbEntity
  8
寸法
 62
     4
 48
50.0
370
    -2
100
AcDbLine
 10
2978.08479127592
 20
10770.70309759782
 30
0.0
 11
2114.415140076316
 21
10770.70309759782
 31
0.0
  0
LINE
  5
2549
330
2262
100
AcDbEntity
  8
寸法
 62
     4
 48
50.0
370
    -2
100
AcDbLine
 10
2978.08479127592
 20
5970.703097597818
 30
0.0
 11
2114.415140076315
 21
5970.703097597818
 31
0.0
  0
LINE
  5
254A
330
2262
100
AcDbEntity
  8
寸法
 62
     4
 48
50.0
370
    -2
100
AcDbLine
 10
2154.415140076316
 20
10770.70309759782
 30
0.0
 11
2154.415140076315
 21
5970.703097597818
 31
0.0
  0
INSERT
  5
254B
330
2262
100
AcDbEntity
  8
寸法
 62
     4
 48
50.0
370
    -2
100
AcDbBlockReference
  2
_DOTSMALL
 10
2154.415140076316
 20
10770.70309759782
 30
0.0
 41
100.0
 42
100.0
 43
100.0
 50
90.0
  0
INSERT
  5
254C
330
2262
100
AcDbEntity
  8
寸法
 62
     4
 48
50.0
370
    -2
100
AcDbBlockReference
  2
_DOTSMALL
 10
2154.415140076315
 20
5970.703097597818
 30
0.0
 41
100.0
 42
100.0
 43
100.0
 50
270.0
  0
MTEXT
  5
254D
330
2262
100
AcDbEntity
  8
寸法
 62
     7
 48
50.0
100
AcDbMText
 10
2054.415140076314
 20
8370.703097597818
 30
0.0
 40
120.0
 41
0.0
 71
     5
 72
     1
  1
\A1;4800
 11
0.0000000000000001
 21
1.0
 31
0.0
 73
     1
 44
1.0
1001
ACAD
1000
MTEXTBEGIN
1070
    73
1070
     1
1070
    44
1040
1.0
1070
    74
1070
     0
1000
MTEXTEND
  0
POINT
  5
254E
330
2262
100
AcDbEntity
  8
DEFPOINTS
 62
     0
 48
50.0
100
AcDbPoint
 10
3018.08479127592
 20
10770.70309759782
 30
0.0
  0
POINT
  5
254F
330
2262
100
AcDbEntity
  8
DEFPOINTS
 62
     0
 48
50.0
100
AcDbPoint
 10
3018.08479127592
 20
5970.703097597818
 30
0.0
  0
POINT
  5
2550
330
2262
100
AcDbEntity
  8
DEFPOINTS
 62
     0
 48
50.0
100
AcDbPoint
 10
2154.415140076315
 20
5970.703097597818
 30
0.0
  0
ENDBLK
  5
226D
330
2262
100
AcDbEntity
  8
0
 48
50.0
100
AcDbBlockEnd
  0
BLOCK
  5
2277
330
226E
100
AcDbEntity
  8
0
 48
50.0
100
AcDbBlockBegin
  2
*D92
 70
     1
 10
0.0
 20
0.0
 30
0.0
  3
*D92
  1

  0
LINE
  5
2540
330
226E
100
AcDbEntity
  8
寸法
 62
     4
 48
50.0
370
    -2
100
AcDbLine
 10
2978.08479127592
 20
5970.703097597818
 30
0.0
 11
2394.415140076315
 21
5970.703097597818
 31
0.0
  0
LINE
  5
2541
330
226E
100
AcDbEntity
  8
寸法
 62
     4
 48
50.0
370
    -2
100
AcDbLine
 10
2434.415140076315
 20
6207.703097597816
 30
0.0
 11
2434.415140076315
 21
5970.703097597818
 31
0.0
  0
MTEXT
  5
2542
330
226E
100
AcDbEntity
  8
寸法
 62
     7
 48
50.0
100
AcDbMText
 10
2274.403329052692
 20
6089.203097597818
 30
0.0
 40
120.0
 41
0.0
 71
     5
 72
     1
  1
\A1;237
 11
0.0000000000000001
 21
1.0
 31
0.0
 73
     1
 44
1.0
1001
ACAD
1000
MTEXTBEGIN
1070
    73
1070
     1
1070
    44
1040
1.0
1070
    74
1070
     0
1000
MTEXTEND
  0
INSERT
  5
2543
330
226E
100
AcDbEntity
  8
寸法
 62
     4
 48
50.0
370
    -2
100
AcDbBlockReference
  2
_DOTSMALL
 10
2434.415140076315
 20
6207.703097597816
 30
0.0
 41
100.0
 42
100.0
 43
100.0
 50
90.0
  0
INSERT
  5
2544
330
226E
100
AcDbEntity
  8
寸法
 62
     4
 48
50.0
370
    -2
100
AcDbBlockReference
  2
_DOTSMALL
 10
2434.415140076315
 20
5970.703097597818
 30
0.0
 41
100.0
 42
100.0
 43
100.0
 50
270.0
  0
POINT
  5
2545
330
226E
100
AcDbEntity
  8
DEFPOINTS
 62
     0
 48
50.0
100
AcDbPoint
 10
3008.08479127592
 20
6207.703097597816
 30
0.0
  0
POINT
  5
2546
330
226E
100
AcDbEntity
  8
DEFPOINTS
 62
     0
 48
50.0
100
AcDbPoint
 10
3018.08479127592
 20
5970.703097597818
 30
0.0
  0
POINT
  5
2547
330
226E
100
AcDbEntity
  8
DEFPOINTS
 62
     0
 48
50.0
100
AcDbPoint
 10
2434.415140076315
 20
5970.703097597818
 30
0.0
  0
ENDBLK
  5
2278
330
226E
100
AcDbEntity
  8
0
 48
50.0
100
AcDbBlockEnd
  0
BLOCK
  5
2282
330
2279
100
AcDbEntity
  8
0
 48
50.0
100
AcDbBlockBegin
  2
*D93
 70
     1
 10
0.0
 20
0.0
 30
0.0
  3
*D93
  1

  0
LINE
  5
2538
330
2279
100
AcDbEntity
  8
寸法
 62
     4
 48
50.0
370
    -2
100
AcDbLine
 10
2968.08479127592
 20
6207.703097597816
 30
0.0
 11
2394.415140076315
 21
6207.703097597816
 31
0.0
  0
LINE
  5
2539
330
2279
100
AcDbEntity
  8
寸法
 62
     4
 48
50.0
370
    -2
100
AcDbLine
 10
2434.415140076315
 20
6836.303097597817
 30
0.0
 11
2434.415140076315
 21
6207.703097597816
 31
0.0
  0
INSERT
  5
253A
330
2279
100
AcDbEntity
  8
寸法
 62
     4
 48
50.0
370
    -2
100
AcDbBlockReference
  2
_DOTSMALL
 10
2434.415140076315
 20
6836.303097597817
 30
0.0
 41
100.0
 42
100.0
 43
100.0
 50
90.0
  0
INSERT
  5
253B
330
2279
100
AcDbEntity
  8
寸法
 62
     4
 48
50.0
370
    -2
100
AcDbBlockReference
  2
_DOTSMALL
 10
2434.415140076315
 20
6207.703097597816
 30
0.0
 41
100.0
 42
100.0
 43
100.0
 50
270.0
  0
MTEXT
  5
253C
330
2279
100
AcDbEntity
  8
寸法
 62
     7
 48
50.0
100
AcDbMText
 10
2334.403329052692
 20
6522.003097597817
 30
0.0
 40
120.0
 41
0.0
 71
     5
 72
     1
  1
\A1;628.6
 11
0.0000000000000001
 21
1.0
 31
0.0
 73
     1
 44
1.0
1001
ACAD
1000
MTEXTBEGIN
1070
    73
1070
     1
1070
    44
1040
1.0
1070
    74
1070
     0
1000
MTEXTEND
  0
POINT
  5
253D
330
2279
100
AcDbEntity
  8
DEFPOINTS
 62
     0
 48
50.0
100
AcDbPoint
 10
3008.08479127592
 20
6836.303097597817
 30
0.0
  0
POINT
  5
253E
330
2279
100
AcDbEntity
  8
DEFPOINTS
 62
     0
 48
50.0
100
AcDbPoint
 10
3008.08479127592
 20
6207.703097597816
 30
0.0
  0
POINT
  5
253F
330
2279
100
AcDbEntity
  8
DEFPOINTS
 62
     0
 48
50.0
100
AcDbPoint
 10
2434.415140076315
 20
6207.703097597816
 30
0.0
  0
ENDBLK
  5
2283
330
2279
100
AcDbEntity
  8
0
 48
50.0
100
AcDbBlockEnd
  0
BLOCK
  5
228D
330
2284
100
AcDbEntity
  8
0
 48
50.0
100
AcDbBlockBegin
  2
*D94
 70
     1
 10
0.0
 20
0.0
 30
0.0
  3
*D94
  1

  0
LINE
  5
2530
330
2284
100
AcDbEntity
  8
寸法
 62
     4
 48
50.0
370
    -2
100
AcDbLine
 10
2968.08479127592
 20
6836.303097597817
 30
0.0
 11
2394.415140076315
 21
6836.303097597817
 31
0.0
  0
LINE
  5
2531
330
2284
100
AcDbEntity
  8
寸法
 62
     4
 48
50.0
370
    -2
100
AcDbLine
 10
2434.415140076315
 20
7464.903097597818
 30
0.0
 11
2434.415140076315
 21
6836.303097597817
 31
0.0
  0
INSERT
  5
2532
330
2284
100
AcDbEntity
  8
寸法
 62
     4
 48
50.0
370
    -2
100
AcDbBlockReference
  2
_DOTSMALL
 10
2434.415140076315
 20
7464.903097597818
 30
0.0
 41
100.0
 42
100.0
 43
100.0
 50
90.0
  0
INSERT
  5
2533
330
2284
100
AcDbEntity
  8
寸法
 62
     4
 48
50.0
370
    -2
100
AcDbBlockReference
  2
_DOTSMALL
 10
2434.415140076315
 20
6836.303097597817
 30
0.0
 41
100.0
 42
100.0
 43
100.0
 50
270.0
  0
MTEXT
  5
2534
330
2284
100
AcDbEntity
  8
寸法
 62
     7
 48
50.0
100
AcDbMText
 10
2334.403329052692
 20
7150.603097597819
 30
0.0
 40
120.0
 41
0.0
 71
     5
 72
     1
  1
\A1;628.6
 11
0.0000000000000001
 21
1.0
 31
0.0
 73
     1
 44
1.0
1001
ACAD
1000
MTEXTBEGIN
1070
    73
1070
     1
1070
    44
1040
1.0
1070
    74
1070
     0
1000
MTEXTEND
  0
POINT
  5
2535
330
2284
100
AcDbEntity
  8
DEFPOINTS
 62
     0
 48
50.0
100
AcDbPoint
 10
3008.08479127592
 20
7464.903097597818
 30
0.0
  0
POINT
  5
2536
330
2284
100
AcDbEntity
  8
DEFPOINTS
 62
     0
 48
50.0
100
AcDbPoint
 10
3008.08479127592
 20
6836.303097597817
 30
0.0
  0
POINT
  5
2537
330
2284
100
AcDbEntity
  8
DEFPOINTS
 62
     0
 48
50.0
100
AcDbPoint
 10
2434.415140076315
 20
6836.303097597817
 30
0.0
  0
ENDBLK
  5
228E
330
2284
100
AcDbEntity
  8
0
 48
50.0
100
AcDbBlockEnd
  0
BLOCK
  5
2298
330
228F
100
AcDbEntity
  8
0
 48
50.0
100
AcDbBlockBegin
  2
*D95
 70
     1
 10
0.0
 20
0.0
 30
0.0
  3
*D95
  1

  0
LINE
  5
2528
330
228F
100
AcDbEntity
  8
寸法
 62
     4
 48
50.0
370
    -2
100
AcDbLine
 10
2968.08479127592
 20
7464.903097597818
 30
0.0
 11
2394.415140076315
 21
7464.903097597818
 31
0.0
  0
LINE
  5
2529
330
228F
100
AcDbEntity
  8
寸法
 62
     4
 48
50.0
370
    -2
100
AcDbLine
 10
2434.415140076315
 20
8093.503097597819
 30
0.0
 11
2434.415140076315
 21
7464.903097597818
 31
0.0
  0
MTEXT
  5
252A
330
228F
100
AcDbEntity
  8
寸法
 62
     7
 48
50.0
100
AcDbMText
 10
2274.415140076315
 20
7690.534124342296
 30
0.0
 40
120.0
 41
0.0
 71
     5
 72
     1
  1
\A1;628.6
 11
0.0000000000000001
 21
1.0
 31
0.0
 73
     1
 44
1.0
1001
ACAD
1000
MTEXTBEGIN
1070
    73
1070
     1
1070
    44
1040
1.0
1070
    74
1070
     0
1000
MTEXTEND
  0
INSERT
  5
252B
330
228F
100
AcDbEntity
  8
寸法
 62
     4
 48
50.0
370
    -2
100
AcDbBlockReference
  2
_DOTSMALL
 10
2434.415140076315
 20
8093.503097597819
 30
0.0
 41
100.0
 42
100.0
 43
100.0
 50
90.0
  0
INSERT
  5
252C
330
228F
100
AcDbEntity
  8
寸法
 62
     4
 48
50.0
370
    -2
100
AcDbBlockReference
  2
_DOTSMALL
 10
2434.415140076315
 20
7464.903097597818
 30
0.0
 41
100.0
 42
100.0
 43
100.0
 50
270.0
  0
POINT
  5
252D
330
228F
100
AcDbEntity
  8
DEFPOINTS
 62
     0
 48
50.0
100
AcDbPoint
 10
3008.08479127592
 20
8093.503097597819
 30
0.0
  0
POINT
  5
252E
330
228F
100
AcDbEntity
  8
DEFPOINTS
 62
     0
 48
50.0
100
AcDbPoint
 10
3008.08479127592
 20
7464.903097597818
 30
0.0
  0
POINT
  5
252F
330
228F
100
AcDbEntity
  8
DEFPOINTS
 62
     0
 48
50.0
100
AcDbPoint
 10
2434.415140076315
 20
7464.903097597818
 30
0.0
  0
ENDBLK
  5
2299
330
228F
100
AcDbEntity
  8
0
 48
50.0
100
AcDbBlockEnd
  0
BLOCK
  5
22A3
330
229A
100
AcDbEntity
  8
0
 48
50.0
100
AcDbBlockBegin
  2
*D96
 70
     1
 10
0.0
 20
0.0
 30
0.0
  3
*D96
  1

  0
LINE
  5
2520
330
229A
100
AcDbEntity
  8
寸法
 62
     4
 48
50.0
370
    -2
100
AcDbLine
 10
2968.08479127592
 20
8370.703097597818
 30
0.0
 11
2394.415140076315
 21
8370.703097597818
 31
0.0
  0
LINE
  5
2521
330
229A
100
AcDbEntity
  8
寸法
 62
     4
 48
50.0
370
    -2
100
AcDbLine
 10
2434.415140076315
 20
8647.903097597813
 30
0.0
 11
2434.415140076315
 21
8370.703097597818
 31
0.0
  0
MTEXT
  5
2522
330
229A
100
AcDbEntity
  8
寸法
 62
     7
 48
50.0
100
AcDbMText
 10
2274.403329052693
 20
8607.235149128589
 30
0.0
 40
120.0
 41
0.0
 71
     5
 72
     1
  1
\A1;277.2
 11
0.0000000000000001
 21
1.0
 31
0.0
 73
     1
 44
1.0
1001
ACAD
1000
MTEXTBEGIN
1070
    73
1070
     1
1070
    44
1040
1.0
1070
    74
1070
     0
1000
MTEXTEND
  0
INSERT
  5
2523
330
229A
100
AcDbEntity
  8
寸法
 62
     4
 48
50.0
370
    -2
100
AcDbBlockReference
  2
_DOTSMALL
 10
2434.415140076315
 20
8647.903097597813
 30
0.0
 41
100.0
 42
100.0
 43
100.0
 50
90.0
  0
INSERT
  5
2524
330
229A
100
AcDbEntity
  8
寸法
 62
     4
 48
50.0
370
    -2
100
AcDbBlockReference
  2
_DOTSMALL
 10
2434.415140076315
 20
8370.703097597818
 30
0.0
 41
100.0
 42
100.0
 43
100.0
 50
270.0
  0
POINT
  5
2525
330
229A
100
AcDbEntity
  8
DEFPOINTS
 62
     0
 48
50.0
100
AcDbPoint
 10
3008.08479127592
 20
8647.903097597813
 30
0.0
  0
POINT
  5
2526
330
229A
100
AcDbEntity
  8
DEFPOINTS
 62
     0
 48
50.0
100
AcDbPoint
 10
3008.08479127592
 20
8370.703097597818
 30
0.0
  0
POINT
  5
2527
330
229A
100
AcDbEntity
  8
DEFPOINTS
 62
     0
 48
50.0
100
AcDbPoint
 10
2434.415140076315
 20
8370.703097597818
 30
0.0
  0
ENDBLK
  5
22A4
330
229A
100
AcDbEntity
  8
0
 48
50.0
100
AcDbBlockEnd
  0
BLOCK
  5
22AE
330
22A5
100
AcDbEntity
  8
0
 48
50.0
100
AcDbBlockBegin
  2
*D97
 70
     1
 10
0.0
 20
0.0
 30
0.0
  3
*D97
  1

  0
LINE
  5
2518
330
22A5
100
AcDbEntity
  8
寸法
 62
     4
 48
50.0
370
    -2
100
AcDbLine
 10
2968.08479127592
 20
8647.903097597813
 30
0.0
 11
2394.415140076315
 21
8647.903097597813
 31
0.0
  0
LINE
  5
2519
330
22A5
100
AcDbEntity
  8
寸法
 62
     4
 48
50.0
370
    -2
100
AcDbLine
 10
2434.415140076315
 20
9276.503097597815
 30
0.0
 11
2434.415140076315
 21
8647.903097597813
 31
0.0
  0
MTEXT
  5
251A
330
22A5
100
AcDbEntity
  8
寸法
 62
     7
 48
50.0
100
AcDbMText
 10
2274.415140076315
 20
9056.683617943612
 30
0.0
 40
120.0
 41
0.0
 71
     5
 72
     1
  1
\A1;628.6
 11
0.0000000000000001
 21
1.0
 31
0.0
 73
     1
 44
1.0
1001
ACAD
1000
MTEXTBEGIN
1070
    73
1070
     1
1070
    44
1040
1.0
1070
    74
1070
     0
1000
MTEXTEND
  0
INSERT
  5
251B
330
22A5
100
AcDbEntity
  8
寸法
 62
     4
 48
50.0
370
    -2
100
AcDbBlockReference
  2
_DOTSMALL
 10
2434.415140076315
 20
9276.503097597815
 30
0.0
 41
100.0
 42
100.0
 43
100.0
 50
90.0
  0
INSERT
  5
251C
330
22A5
100
AcDbEntity
  8
寸法
 62
     4
 48
50.0
370
    -2
100
AcDbBlockReference
  2
_DOTSMALL
 10
2434.415140076315
 20
8647.903097597813
 30
0.0
 41
100.0
 42
100.0
 43
100.0
 50
270.0
  0
POINT
  5
251D
330
22A5
100
AcDbEntity
  8
DEFPOINTS
 62
     0
 48
50.0
100
AcDbPoint
 10
3008.08479127592
 20
9276.503097597815
 30
0.0
  0
POINT
  5
251E
330
22A5
100
AcDbEntity
  8
DEFPOINTS
 62
     0
 48
50.0
100
AcDbPoint
 10
3008.08479127592
 20
8647.903097597813
 30
0.0
  0
POINT
  5
251F
330
22A5
100
AcDbEntity
  8
DEFPOINTS
 62
     0
 48
50.0
100
AcDbPoint
 10
2434.415140076315
 20
8647.903097597813
 30
0.0
  0
ENDBLK
  5
22AF
330
22A5
100
AcDbEntity
  8
0
 48
50.0
100
AcDbBlockEnd
  0
BLOCK
  5
22B9
330
22B0
100
AcDbEntity
  8
0
 48
50.0
100
AcDbBlockBegin
  2
*D98
 70
     1
 10
0.0
 20
0.0
 30
0.0
  3
*D98
  1

  0
LINE
  5
2510
330
22B0
100
AcDbEntity
  8
寸法
 62
     4
 48
50.0
370
    -2
100
AcDbLine
 10
2968.08479127592
 20
9276.503097597815
 30
0.0
 11
2394.415140076315
 21
9276.503097597815
 31
0.0
  0
LINE
  5
2511
330
22B0
100
AcDbEntity
  8
寸法
 62
     4
 48
50.0
370
    -2
100
AcDbLine
 10
2434.415140076315
 20
9905.103097597818
 30
0.0
 11
2434.415140076315
 21
9276.503097597815
 31
0.0
  0
INSERT
  5
2512
330
22B0
100
AcDbEntity
  8
寸法
 62
     4
 48
50.0
370
    -2
100
AcDbBlockReference
  2
_DOTSMALL
 10
2434.415140076315
 20
9905.103097597818
 30
0.0
 41
100.0
 42
100.0
 43
100.0
 50
90.0
  0
INSERT
  5
2513
330
22B0
100
AcDbEntity
  8
寸法
 62
     4
 48
50.0
370
    -2
100
AcDbBlockReference
  2
_DOTSMALL
 10
2434.415140076315
 20
9276.503097597815
 30
0.0
 41
100.0
 42
100.0
 43
100.0
 50
270.0
  0
MTEXT
  5
2514
330
22B0
100
AcDbEntity
  8
寸法
 62
     7
 48
50.0
100
AcDbMText
 10
2334.403329052691
 20
9590.803097597817
 30
0.0
 40
120.0
 41
0.0
 71
     5
 72
     1
  1
\A1;628.6
 11
0.0000000000000001
 21
1.0
 31
0.0
 73
     1
 44
1.0
1001
ACAD
1000
MTEXTBEGIN
1070
    73
1070
     1
1070
    44
1040
1.0
1070
    74
1070
     0
1000
MTEXTEND
  0
POINT
  5
2515
330
22B0
100
AcDbEntity
  8
DEFPOINTS
 62
     0
 48
50.0
100
AcDbPoint
 10
3008.08479127592
 20
9905.103097597818
 30
0.0
  0
POINT
  5
2516
330
22B0
100
AcDbEntity
  8
DEFPOINTS
 62
     0
 48
50.0
100
AcDbPoint
 10
3008.08479127592
 20
9276.503097597815
 30
0.0
  0
POINT
  5
2517
330
22B0
100
AcDbEntity
  8
DEFPOINTS
 62
     0
 48
50.0
100
AcDbPoint
 10
2434.415140076315
 20
9276.503097597815
 30
0.0
  0
ENDBLK
  5
22BA
330
22B0
100
AcDbEntity
  8
0
 48
50.0
100
AcDbBlockEnd
  0
BLOCK
  5
22C4
330
22BB
100
AcDbEntity
  8
0
 48
50.0
100
AcDbBlockBegin
  2
*D99
 70
     1
 10
0.0
 20
0.0
 30
0.0
  3
*D99
  1

  0
LINE
  5
2508
330
22BB
100
AcDbEntity
  8
寸法
 62
     4
 48
50.0
370
    -2
100
AcDbLine
 10
2968.08479127592
 20
9905.103097597818
 30
0.0
 11
2394.415140076315
 21
9905.103097597818
 31
0.0
  0
LINE
  5
2509
330
22BB
100
AcDbEntity
  8
寸法
 62
     4
 48
50.0
370
    -2
100
AcDbLine
 10
2434.415140076315
 20
10533.70309759781
 30
0.0
 11
2434.415140076315
 21
9905.103097597818
 31
0.0
  0
INSERT
  5
250A
330
22BB
100
AcDbEntity
  8
寸法
 62
     4
 48
50.0
370
    -2
100
AcDbBlockReference
  2
_DOTSMALL
 10
2434.415140076315
 20
10533.70309759781
 30
0.0
 41
100.0
 42
100.0
 43
100.0
 50
90.0
  0
INSERT
  5
250B
330
22BB
100
AcDbEntity
  8
寸法
 62
     4
 48
50.0
370
    -2
100
AcDbBlockReference
  2
_DOTSMALL
 10
2434.415140076315
 20
9905.103097597818
 30
0.0
 41
100.0
 42
100.0
 43
100.0
 50
270.0
  0
MTEXT
  5
250C
330
22BB
100
AcDbEntity
  8
寸法
 62
     7
 48
50.0
100
AcDbMText
 10
2334.403329052691
 20
10219.40309759781
 30
0.0
 40
120.0
 41
0.0
 71
     5
 72
     1
  1
\A1;628.6
 11
0.0000000000000001
 21
1.0
 31
0.0
 73
     1
 44
1.0
1001
ACAD
1000
MTEXTBEGIN
1070
    73
1070
     1
1070
    44
1040
1.0
1070
    74
1070
     0
1000
MTEXTEND
  0
POINT
  5
250D
330
22BB
100
AcDbEntity
  8
DEFPOINTS
 62
     0
 48
50.0
100
AcDbPoint
 10
3008.08479127592
 20
10533.70309759781
 30
0.0
  0
POINT
  5
250E
330
22BB
100
AcDbEntity
  8
DEFPOINTS
 62
     0
 48
50.0
100
AcDbPoint
 10
3008.08479127592
 20
9905.103097597818
 30
0.0
  0
POINT
  5
250F
330
22BB
100
AcDbEntity
  8
DEFPOINTS
 62
     0
 48
50.0
100
AcDbPoint
 10
2434.415140076315
 20
9905.103097597818
 30
0.0
  0
ENDBLK
  5
22C5
330
22BB
100
AcDbEntity
  8
0
 48
50.0
100
AcDbBlockEnd
  0
BLOCK
  5
22D0
330
22C6
100
AcDbEntity
  8
0
 48
50.0
100
AcDbBlockBegin
  2
*D100
 70
     1
 10
0.0
 20
0.0
 30
0.0
  3
*D100
  1

  0
LINE
  5
24FF
330
22C6
100
AcDbEntity
  8
寸法
 62
     4
 48
50.0
370
    -2
100
AcDbLine
 10
2978.08479127592
 20
10770.70309759782
 30
0.0
 11
2394.415140076315
 21
10770.70309759782
 31
0.0
  0
LINE
  5
2500
330
22C6
100
AcDbEntity
  8
寸法
 62
     4
 48
50.0
370
    -2
100
AcDbLine
 10
2968.08479127592
 20
10533.70309759781
 30
0.0
 11
2394.415140076315
 21
10533.70309759781
 31
0.0
  0
LINE
  5
2501
330
22C6
100
AcDbEntity
  8
寸法
 62
     4
 48
50.0
370
    -2
100
AcDbLine
 10
2434.415140076315
 20
10770.70309759782
 30
0.0
 11
2434.415140076315
 21
10533.70309759781
 31
0.0
  0
MTEXT
  5
2502
330
22C6
100
AcDbEntity
  8
寸法
 62
     7
 48
50.0
100
AcDbMText
 10
2274.403329052691
 20
10652.20309759782
 30
0.0
 40
120.0
 41
0.0
 71
     5
 72
     1
  1
\A1;237
 11
0.0000000000000001
 21
1.0
 31
0.0
 73
     1
 44
1.0
1001
ACAD
1000
MTEXTBEGIN
1070
    73
1070
     1
1070
    44
1040
1.0
1070
    74
1070
     0
1000
MTEXTEND
  0
INSERT
  5
2503
330
22C6
100
AcDbEntity
  8
寸法
 62
     4
 48
50.0
370
    -2
100
AcDbBlockReference
  2
_DOTSMALL
 10
2434.415140076315
 20
10770.70309759782
 30
0.0
 41
100.0
 42
100.0
 43
100.0
 50
90.0
  0
INSERT
  5
2504
330
22C6
100
AcDbEntity
  8
寸法
 62
     4
 48
50.0
370
    -2
100
AcDbBlockReference
  2
_DOTSMALL
 10
2434.415140076315
 20
10533.70309759781
 30
0.0
 41
100.0
 42
100.0
 43
100.0
 50
270.0
  0
POINT
  5
2505
330
22C6
100
AcDbEntity
  8
DEFPOINTS
 62
     0
 48
50.0
100
AcDbPoint
 10
3018.08479127592
 20
10770.70309759782
 30
0.0
  0
POINT
  5
2506
330
22C6
100
AcDbEntity
  8
DEFPOINTS
 62
     0
 48
50.0
100
AcDbPoint
 10
3008.08479127592
 20
10533.70309759781
 30
0.0
  0
POINT
  5
2507
330
22C6
100
AcDbEntity
  8
DEFPOINTS
 62
     0
 48
50.0
100
AcDbPoint
 10
2434.415140076315
 20
10533.70309759781
 30
0.0
  0
ENDBLK
  5
22D1
330
22C6
100
AcDbEntity
  8
0
 48
50.0
100
AcDbBlockEnd
  0
ENDSEC
  0
SECTION
  2
ENTITIES
  0
MTEXT
  5
1411
330
1A
100
AcDbEntity
  8
0
100
AcDbMText
 10
12113.85383347236
 20
11207.9349056396
 30
0.0
 40
140.0
 41
212.9488506697089
 71
     1
 72
     5
  1

  7
MSMINCHO
 73
     1
 44
1.0
1001
ACAD
1000
MTEXTBEGIN
1070
    73
1070
     1
1070
    44
1040
1.0
1070
    74
1070
     0
1000
MTEXTEND
  0
LINE
  5
1E76
330
1A
100
AcDbEntity
  8
点線
 48
6.0
100
AcDbLine
 10
6278.084791275919
 20
6230.203097597819
 30
0.0
 11
6278.084791275919
 21
6165.203097597817
 31
0.0
  0
LINE
  5
1E77
330
1A
100
AcDbEntity
  8
点線
 48
6.0
100
AcDbLine
 10
6278.084791275919
 20
6858.803097597818
 30
0.0
 11
6278.084791275919
 21
6793.80309759782
 31
0.0
  0
LINE
  5
1E78
330
1A
100
AcDbEntity
  8
点線
 48
6.0
100
AcDbLine
 10
6278.084791275919
 20
7487.403097597816
 30
0.0
 11
6278.084791275919
 21
7422.403097597818
 31
0.0
  0
LINE
  5
1E79
330
1A
100
AcDbEntity
  8
点線
 48
6.0
100
AcDbLine
 10
6278.084791275919
 20
8116.003097597822
 30
0.0
 11
6278.084791275919
 21
8051.003097597821
 31
0.0
  0
LINE
  5
1E7A
330
1A
100
AcDbEntity
  8
点線
 48
6.0
100
AcDbLine
 10
6278.084791275919
 20
8690.403097597819
 30
0.0
 11
6278.084791275919
 21
8625.403097597816
 31
0.0
  0
LINE
  5
1E7B
330
1A
100
AcDbEntity
  8
点線
 48
6.0
100
AcDbLine
 10
6278.084791275919
 20
9319.003097597818
 30
0.0
 11
6278.084791275919
 21
9254.003097597816
 31
0.0
  0
LINE
  5
1E7C
330
1A
100
AcDbEntity
  8
点線
 48
6.0
100
AcDbLine
 10
6278.084791275919
 20
9947.603097597818
 30
0.0
 11
6278.084791275919
 21
9882.603097597817
 31
0.0
  0
LINE
  5
1E7D
330
1A
100
AcDbEntity
  8
点線
 48
6.0
100
AcDbLine
 10
3288.084791275924
 20
6230.203097597818
 30
0.0
 11
3288.084791275924
 21
6165.203097597817
 31
0.0
  0
LINE
  5
1E7E
330
1A
100
AcDbEntity
  8
点線
 48
6.0
100
AcDbLine
 10
3228.084791275924
 20
6230.203097597818
 30
0.0
 11
3228.084791275924
 21
6165.203097597817
 31
0.0
  0
LINE
  5
1E7F
330
1A
100
AcDbEntity
  8
点線
 48
6.0
100
AcDbLine
 10
3288.08479127592
 20
6858.803097597818
 30
0.0
 11
3288.08479127592
 21
6793.803097597818
 31
0.0
  0
LINE
  5
1E80
330
1A
100
AcDbEntity
  8
点線
 48
6.0
100
AcDbLine
 10
3228.08479127592
 20
6858.803097597818
 30
0.0
 11
3228.08479127592
 21
6793.803097597818
 31
0.0
  0
LINE
  5
1E81
330
1A
100
AcDbEntity
  8
点線
 48
6.0
100
AcDbLine
 10
3288.08479127592
 20
7487.403097597819
 30
0.0
 11
3288.08479127592
 21
7422.403097597818
 31
0.0
  0
LINE
  5
1E82
330
1A
100
AcDbEntity
  8
点線
 48
6.0
100
AcDbLine
 10
3228.08479127592
 20
7487.403097597819
 30
0.0
 11
3228.08479127592
 21
7422.403097597818
 31
0.0
  0
LINE
  5
1E83
330
1A
100
AcDbEntity
  8
点線
 48
6.0
100
AcDbLine
 10
3288.08479127592
 20
8116.00309759782
 30
0.0
 11
3288.08479127592
 21
8051.003097597821
 31
0.0
  0
LINE
  5
1E84
330
1A
100
AcDbEntity
  8
点線
 48
6.0
100
AcDbLine
 10
3228.08479127592
 20
8116.00309759782
 30
0.0
 11
3228.08479127592
 21
8051.003097597821
 31
0.0
  0
LINE
  5
1E85
330
1A
100
AcDbEntity
  8
点線
 48
6.0
100
AcDbLine
 10
3288.08479127592
 20
8690.403097597817
 30
0.0
 11
3288.08479127592
 21
8625.403097597816
 31
0.0
  0
LINE
  5
1E86
330
1A
100
AcDbEntity
  8
点線
 48
6.0
100
AcDbLine
 10
3228.08479127592
 20
8690.403097597817
 30
0.0
 11
3228.08479127592
 21
8625.403097597816
 31
0.0
  0
LINE
  5
1E87
330
1A
100
AcDbEntity
  8
点線
 48
6.0
100
AcDbLine
 10
3288.08479127592
 20
9319.003097597818
 30
0.0
 11
3288.08479127592
 21
9254.003097597816
 31
0.0
  0
LINE
  5
1E88
330
1A
100
AcDbEntity
  8
点線
 48
6.0
100
AcDbLine
 10
3228.08479127592
 20
9319.003097597816
 30
0.0
 11
3228.08479127592
 21
9254.003097597816
 31
0.0
  0
LINE
  5
1E89
330
1A
100
AcDbEntity
  8
点線
 48
6.0
100
AcDbLine
 10
3288.08479127592
 20
9947.603097597818
 30
0.0
 11
3288.08479127592
 21
9882.603097597817
 31
0.0
  0
LINE
  5
1E8A
330
1A
100
AcDbEntity
  8
点線
 48
6.0
100
AcDbLine
 10
3228.08479127592
 20
9947.603097597818
 30
0.0
 11
3228.08479127592
 21
9882.603097597817
 31
0.0
  0
LINE
  5
1E8B
330
1A
100
AcDbEntity
  8
点線
 48
6.0
100
AcDbLine
 10
3288.08479127592
 20
10576.20309759782
 30
0.0
 11
3288.08479127592
 21
10511.20309759782
 31
0.0
  0
LINE
  5
1E8C
330
1A
100
AcDbEntity
  8
点線
 48
6.0
100
AcDbLine
 10
3228.08479127592
 20
10576.20309759782
 30
0.0
 11
3228.08479127592
 21
10511.20309759782
 31
0.0
  0
LINE
  5
1E8D
330
1A
100
AcDbEntity
  8
点線
 48
6.0
100
AcDbLine
 10
3038.084791275919
 20
6230.203097597819
 30
0.0
 11
3038.08479127592
 21
6165.20309759782
 31
0.0
  0
LINE
  5
1E8E
330
1A
100
AcDbEntity
  8
点線
 48
6.0
100
AcDbLine
 10
3038.08479127592
 20
6858.803097597818
 30
0.0
 11
3038.084791275919
 21
6793.803097597818
 31
0.0
  0
LINE
  5
1E8F
330
1A
100
AcDbEntity
  8
点線
 48
6.0
100
AcDbLine
 10
3038.084791275919
 20
7487.403097597817
 30
0.0
 11
3038.084791275919
 21
7422.403097597818
 31
0.0
  0
LINE
  5
1E90
330
1A
100
AcDbEntity
  8
点線
 48
6.0
100
AcDbLine
 10
3038.084791275919
 20
8116.003097597822
 30
0.0
 11
3038.084791275919
 21
8051.003097597821
 31
0.0
  0
LINE
  5
1E91
330
1A
100
AcDbEntity
  8
点線
 48
6.0
100
AcDbLine
 10
3038.08479127592
 20
8690.403097597814
 30
0.0
 11
3038.08479127592
 21
8625.403097597816
 31
0.0
  0
LINE
  5
1E92
330
1A
100
AcDbEntity
  8
点線
 48
6.0
100
AcDbLine
 10
3038.08479127592
 20
9319.003097597816
 30
0.0
 11
3038.08479127592
 21
9254.003097597816
 31
0.0
  0
LINE
  5
1E93
330
1A
100
AcDbEntity
  8
点線
 48
6.0
100
AcDbLine
 10
3038.08479127592
 20
9947.603097597818
 30
0.0
 11
3038.08479127592
 21
9882.603097597817
 31
0.0
  0
LINE
  5
1E94
330
1A
100
AcDbEntity
  8
点線
 48
6.0
100
AcDbLine
 10
3078.08479127592
 20
6230.203097597818
 30
0.0
 11
3038.08479127592
 21
6230.203097597818
 31
0.0
  0
LINE
  5
1E95
330
1A
100
AcDbEntity
  8
点線
 48
6.0
100
AcDbLine
 10
3078.08479127592
 20
6185.203097597818
 30
0.0
 11
3038.08479127592
 21
6185.203097597818
 31
0.0
  0
LINE
  5
1E96
330
1A
100
AcDbEntity
  8
点線
 48
6.0
100
AcDbLine
 10
3078.08479127592
 20
6165.203097597817
 30
0.0
 11
3038.08479127592
 21
6165.203097597817
 31
0.0
  0
LINE
  5
1E97
330
1A
100
AcDbEntity
  8
点線
 48
6.0
100
AcDbLine
 10
3078.08479127592
 20
6858.803097597818
 30
0.0
 11
3038.08479127592
 21
6858.803097597818
 31
0.0
  0
LINE
  5
1E98
330
1A
100
AcDbEntity
  8
点線
 48
6.0
100
AcDbLine
 10
3078.08479127592
 20
6813.803097597818
 30
0.0
 11
3038.08479127592
 21
6813.803097597818
 31
0.0
  0
LINE
  5
1E99
330
1A
100
AcDbEntity
  8
点線
 48
6.0
100
AcDbLine
 10
3078.08479127592
 20
6793.803097597818
 30
0.0
 11
3038.08479127592
 21
6793.803097597818
 31
0.0
  0
LINE
  5
1E9A
330
1A
100
AcDbEntity
  8
点線
 48
6.0
100
AcDbLine
 10
3078.08479127592
 20
7487.403097597819
 30
0.0
 11
3038.08479127592
 21
7487.403097597819
 31
0.0
  0
LINE
  5
1E9B
330
1A
100
AcDbEntity
  8
点線
 48
6.0
100
AcDbLine
 10
3078.08479127592
 20
7442.403097597818
 30
0.0
 11
3038.08479127592
 21
7442.403097597818
 31
0.0
  0
LINE
  5
1E9C
330
1A
100
AcDbEntity
  8
点線
 48
6.0
100
AcDbLine
 10
3078.08479127592
 20
7422.403097597818
 30
0.0
 11
3038.08479127592
 21
7422.403097597818
 31
0.0
  0
LINE
  5
1E9D
330
1A
100
AcDbEntity
  8
点線
 48
6.0
100
AcDbLine
 10
3078.08479127592
 20
8051.003097597821
 30
0.0
 11
3038.08479127592
 21
8051.003097597821
 31
0.0
  0
LINE
  5
1E9E
330
1A
100
AcDbEntity
  8
点線
 48
6.0
100
AcDbLine
 10
3078.08479127592
 20
8071.003097597822
 30
0.0
 11
3038.08479127592
 21
8071.003097597822
 31
0.0
  0
LINE
  5
1E9F
330
1A
100
AcDbEntity
  8
点線
 48
6.0
100
AcDbLine
 10
3078.08479127592
 20
8116.00309759782
 30
0.0
 11
3038.08479127592
 21
8116.00309759782
 31
0.0
  0
LINE
  5
1EA0
330
1A
100
AcDbEntity
  8
点線
 48
6.0
100
AcDbLine
 10
3078.08479127592
 20
8690.403097597814
 30
0.0
 11
3038.08479127592
 21
8690.403097597814
 31
0.0
  0
LINE
  5
1EA1
330
1A
100
AcDbEntity
  8
点線
 48
6.0
100
AcDbLine
 10
3078.08479127592
 20
8670.403097597816
 30
0.0
 11
3038.08479127592
 21
8670.403097597816
 31
0.0
  0
LINE
  5
1EA2
330
1A
100
AcDbEntity
  8
点線
 48
6.0
100
AcDbLine
 10
3078.08479127592
 20
8625.403097597816
 30
0.0
 11
3038.08479127592
 21
8625.403097597816
 31
0.0
  0
LINE
  5
1EA3
330
1A
100
AcDbEntity
  8
点線
 48
6.0
100
AcDbLine
 10
3078.08479127592
 20
9319.003097597818
 30
0.0
 11
3038.08479127592
 21
9319.003097597818
 31
0.0
  0
LINE
  5
1EA4
330
1A
100
AcDbEntity
  8
点線
 48
6.0
100
AcDbLine
 10
3078.08479127592
 20
9299.003097597816
 30
0.0
 11
3038.08479127592
 21
9299.003097597816
 31
0.0
  0
LINE
  5
1EA5
330
1A
100
AcDbEntity
  8
点線
 48
6.0
100
AcDbLine
 10
3078.08479127592
 20
9254.003097597816
 30
0.0
 11
3038.08479127592
 21
9254.003097597816
 31
0.0
  0
LINE
  5
1EA6
330
1A
100
AcDbEntity
  8
点線
 48
6.0
100
AcDbLine
 10
3078.08479127592
 20
9947.603097597818
 30
0.0
 11
3038.08479127592
 21
9947.603097597818
 31
0.0
  0
LINE
  5
1EA7
330
1A
100
AcDbEntity
  8
点線
 48
6.0
100
AcDbLine
 10
3078.08479127592
 20
9927.603097597817
 30
0.0
 11
3038.08479127592
 21
9927.603097597817
 31
0.0
  0
LINE
  5
1EA8
330
1A
100
AcDbEntity
  8
点線
 48
6.0
100
AcDbLine
 10
3078.08479127592
 20
9882.603097597817
 30
0.0
 11
3038.08479127592
 21
9882.603097597817
 31
0.0
  0
LINE
  5
1EA9
330
1A
100
AcDbEntity
  8
点線
 48
6.0
100
AcDbLine
 10
3078.08479127592
 20
10511.20309759782
 30
0.0
 11
3038.08479127592
 21
10511.20309759782
 31
0.0
  0
LINE
  5
1EAA
330
1A
100
AcDbEntity
  8
点線
 48
6.0
100
AcDbLine
 10
3078.08479127592
 20
10556.20309759782
 30
0.0
 11
3038.08479127592
 21
10556.20309759782
 31
0.0
  0
LINE
  5
1EAB
330
1A
100
AcDbEntity
  8
点線
 48
6.0
100
AcDbLine
 10
3078.08479127592
 20
10576.20309759782
 30
0.0
 11
3038.08479127592
 21
10576.20309759782
 31
0.0
  0
LINE
  5
1EAC
330
1A
100
AcDbEntity
  8
点線
 48
6.0
100
AcDbLine
 10
6278.084791275919
 20
10576.20309759782
 30
0.0
 11
6278.084791275919
 21
10511.20309759781
 31
0.0
  0
LINE
  5
1EAD
330
1A
100
AcDbEntity
  8
点線
 48
6.0
100
AcDbLine
 10
3038.08479127592
 20
10576.20309759782
 30
0.0
 11
3038.08479127592
 21
10511.20309759782
 31
0.0
  0
LINE
  5
1EAE
330
1A
100
AcDbEntity
  8
点線
 48
10.0
100
AcDbLine
 10
6158.08479127592
 20
2063.900949614033
 30
0.0
 11
6158.08479127592
 21
2053.900949614034
 31
0.0
  0
LINE
  5
1EAF
330
1A
100
AcDbEntity
  8
点線
 48
10.0
100
AcDbLine
 10
6088.08479127592
 20
2063.900949614033
 30
0.0
 11
6158.08479127592
 21
2063.900949614033
 31
0.0
  0
LINE
  5
1EB0
330
1A
100
AcDbEntity
  8
点線
 48
10.0
100
AcDbLine
 10
6088.08479127592
 20
2053.900949614034
 30
0.0
 11
6158.08479127592
 21
2053.900949614034
 31
0.0
  0
LINE
  5
1EB1
330
1A
100
AcDbEntity
  8
点線
 48
10.0
100
AcDbLine
 10
5958.084791275918
 20
2063.900949614032
 30
0.0
 11
5958.084791275918
 21
2053.900949614032
 31
0.0
  0
LINE
  5
1EB2
330
1A
100
AcDbEntity
  8
点線
 48
10.0
100
AcDbLine
 10
5958.084791275918
 20
2063.900949614032
 30
0.0
 11
6028.08479127592
 21
2063.900949614032
 31
0.0
  0
LINE
  5
1EB3
330
1A
100
AcDbEntity
  8
点線
 48
10.0
100
AcDbLine
 10
5958.084791275918
 20
2053.900949614032
 30
0.0
 11
6028.08479127592
 21
2053.900949614032
 31
0.0
  0
LINE
  5
1EB4
330
1A
100
AcDbEntity
  8
点線
 48
10.0
100
AcDbLine
 10
3158.084791275918
 20
2053.900949614032
 30
0.0
 11
3228.08479127592
 21
2053.900949614032
 31
0.0
  0
LINE
  5
1EB5
330
1A
100
AcDbEntity
  8
点線
 48
10.0
100
AcDbLine
 10
3288.08479127592
 20
2053.900949614034
 30
0.0
 11
3358.084791275921
 21
2053.900949614034
 31
0.0
  0
LINE
  5
1EB6
330
1A
100
AcDbEntity
  8
点線
 48
10.0
100
AcDbLine
 10
3288.08479127592
 20
2063.900949614033
 30
0.0
 11
3358.084791275921
 21
2063.900949614033
 31
0.0
  0
LINE
  5
1EB7
330
1A
100
AcDbEntity
  8
点線
 48
10.0
100
AcDbLine
 10
3158.084791275918
 20
2063.900949614032
 30
0.0
 11
3228.08479127592
 21
2063.900949614032
 31
0.0
  0
LINE
  5
1EB8
330
1A
100
AcDbEntity
  8
点線
 48
10.0
100
AcDbLine
 10
3358.084791275921
 20
2063.900949614033
 30
0.0
 11
3358.084791275921
 21
2053.900949614034
 31
0.0
  0
LINE
  5
1EB9
330
1A
100
AcDbEntity
  8
点線
 48
10.0
100
AcDbLine
 10
3158.084791275918
 20
2063.900949614032
 30
0.0
 11
3158.084791275918
 21
2053.900949614032
 31
0.0
  0
TEXT
  5
1EBA
330
1A
100
AcDbEntity
  8
部品1
 48
50.0
100
AcDbText
 10
2308.247349989355
 20
2348.292250044362
 30
0.0
 40
100.0
  1
▽G.L
  7
STYLE2
100
AcDbText
  0
TEXT
  5
1EBB
330
1A
100
AcDbEntity
  8
文字
 62
     7
 48
50.0
100
AcDbText
 10
14496.37116688393
 20
9063.954458604769
 30
0.0
 40
108.152
  1
F12            1.2
  7
STYLE1
100
AcDbText
  0
TEXT
  5
1EBC
330
1A
100
AcDbEntity
  8
文字
 62
     7
 48
50.0
100
AcDbText
 10
12976.46339288548
 20
9615.529658604771
 30
0.0
 40
108.152
  1
妻板
  7
STYLE1
100
AcDbText
  0
LINE
  5
1EBD
330
1A
100
AcDbEntity
  8
部品1
100
AcDbLine
 10
15885.64887148391
 20
9398.778184156602
 30
0.0
 11
12485.64887148391
 21
9398.778184156602
 31
0.0
  0
TEXT
  5
1EBE
330
1A
100
AcDbEntity
  8
文字
 62
     7
 48
50.0
100
AcDbText
 10
12594.37603258962
 20
8696.237658604767
 30
0.0
 40
108.152
  1
PZ→一般構造用角形鋼管(JIS G 3466)
 41
0.9
  7
STYLE1
100
AcDbText
  0
TEXT
  5
1EBF
330
1A
100
AcDbEntity
  8
文字
 62
     7
 48
50.0
100
AcDbText
 10
12594.3760325894
 20
8328.520858604765
 30
0.0
 40
108.152
  1
Y10→溶融亜鉛-5％アルミニウム合金めっき鋼板(JIS G 3317)
 41
0.9
  7
STYLE1
100
AcDbText
  0
TEXT
  5
1EC0
330
1A
100
AcDbEntity
  8
文字
 62
     7
 48
50.0
100
AcDbText
 10
12594.37603258942
 20
8512.379258604767
 30
0.0
 40
108.152
  1
F12→溶融亜鉛めっき鋼板(JIS G 3302)
  7
STYLE1
100
AcDbText
  0
TEXT
  5
1EC1
330
1A
100
AcDbEntity
  8
文字
 62
     7
 48
50.0
100
AcDbText
 10
12976.46339288548
 20
8880.096058604774
 30
0.0
 40
108.152
  1
棟板
  7
STYLE1
100
AcDbText
  0
TEXT
  5
1EC2
330
1A
100
AcDbEntity
  8
文字
 62
     7
 48
50.0
100
AcDbText
 10
12976.46339288548
 20
9063.954458604769
 30
0.0
 40
108.152
  1
車止メ棒
  7
STYLE1
100
AcDbText
  0
TEXT
  5
1EC3
330
1A
100
AcDbEntity
  8
文字
 62
     7
 48
50.0
100
AcDbText
 10
12976.46339288548
 20
9247.812858604767
 30
0.0
 40
108.152
  1
プレート
  7
STYLE1
100
AcDbText
  0
TEXT
  5
1EC4
330
1A
100
AcDbEntity
  8
文字
 62
     7
 48
50.0
100
AcDbText
 10
12976.46339288548
 20
9799.388058604771
 30
0.0
 40
108.152
  1
屋根パネル
  7
STYLE1
100
AcDbText
  0
TEXT
  5
1EC5
330
1A
100
AcDbEntity
  8
文字
 62
     7
 48
50.0
100
AcDbText
 10
12976.46339288549
 20
9983.246458604767
 30
0.0
 40
108.152
  1
腰パネル
  7
STYLE1
100
AcDbText
  0
LINE
  5
1EC6
330
1A
100
AcDbEntity
  8
部品1
100
AcDbLine
 10
15885.64887148391
 20
9214.919784156602
 30
0.0
 11
12485.64887148391
 21
9214.919784156604
 31
0.0
  0
LINE
  5
1EC7
330
1A
100
AcDbEntity
  8
部品1
100
AcDbLine
 10
15885.64887148391
 20
10869.6453841566
 30
0.0
 11
12485.64887148391
 21
10869.6453841566
 31
0.0
  0
LINE
  5
1EC8
330
1A
100
AcDbEntity
  8
部品1
100
AcDbLine
 10
15885.64887148391
 20
8295.6277841566
 30
0.0
 11
15885.64887148391
 21
10869.6453841566
 31
0.0
  0
LINE
  5
1EC9
330
1A
100
AcDbEntity
  8
部品1
100
AcDbLine
 10
14239.57543148391
 20
10869.64538415659
 30
0.0
 11
14239.57543148391
 21
8847.202984156597
 31
0.0
  0
LINE
  5
1ECA
330
1A
100
AcDbEntity
  8
部品1
100
AcDbLine
 10
12875.97051185748
 20
10869.6453841566
 30
0.0
 11
12875.9705118575
 21
8847.202984156597
 31
0.0
  0
LINE
  5
1ECB
330
1A
100
AcDbEntity
  8
部品1
100
AcDbLine
 10
15885.64887148391
 20
10685.78698415659
 30
0.0
 11
12485.64887148391
 21
10685.7869841566
 31
0.0
  0
LINE
  5
1ECC
330
1A
100
AcDbEntity
  8
部品1
100
AcDbLine
 10
15885.64887148391
 20
10318.0701841566
 30
0.0
 11
12485.64887148391
 21
10318.0701841566
 31
0.0
  0
LINE
  5
1ECD
330
1A
100
AcDbEntity
  8
部品1
100
AcDbLine
 10
15885.64887148391
 20
10501.9285841566
 30
0.0
 11
12485.64887148391
 21
10501.9285841566
 31
0.0
  0
LINE
  5
1ECE
330
1A
100
AcDbEntity
  8
部品1
100
AcDbLine
 10
15885.64887148391
 20
9950.353384156599
 30
0.0
 11
12485.64887148391
 21
9950.353384156599
 31
0.0
  0
LINE
  5
1ECF
330
1A
100
AcDbEntity
  8
部品1
100
AcDbLine
 10
15885.64887148391
 20
9766.494984156601
 30
0.0
 11
12485.64887148391
 21
9766.494984156601
 31
0.0
  0
LINE
  5
1ED0
330
1A
100
AcDbEntity
  8
部品1
100
AcDbLine
 10
15885.64887148391
 20
10134.2117841566
 30
0.0
 11
12485.64887148391
 21
10134.2117841566
 31
0.0
  0
TEXT
  5
1ED1
330
1A
100
AcDbEntity
  8
文字
 62
     7
 48
50.0
100
AcDbText
 10
12559.32869459199
 20
10718.68005860477
 30
0.0
 40
108.152
  1
品番
  7
STYLE1
100
AcDbText
  0
TEXT
  5
1ED2
330
1A
100
AcDbEntity
  8
文字
 62
     7
 48
50.0
100
AcDbText
 10
12639.10716539135
 20
10534.82165860476
 30
0.0
 40
108.152
  1
1
  7
STYLE1
100
AcDbText
  0
TEXT
  5
1ED3
330
1A
100
AcDbEntity
  8
文字
 62
     7
 48
50.0
100
AcDbText
 10
12639.10716539135
 20
10350.96325860477
 30
0.0
 40
108.152
  1
2
  7
STYLE1
100
AcDbText
  0
TEXT
  5
1ED4
330
1A
100
AcDbEntity
  8
文字
 62
     7
 48
50.0
100
AcDbText
 10
12639.10716539135
 20
9983.246458604767
 30
0.0
 40
108.152
  1
4
  7
STYLE1
100
AcDbText
  0
TEXT
  5
1ED5
330
1A
100
AcDbEntity
  8
文字
 62
     7
 48
50.0
100
AcDbText
 10
12639.10716539135
 20
10167.10485860476
 30
0.0
 40
108.152
  1
3
  7
STYLE1
100
AcDbText
  0
TEXT
  5
1ED6
330
1A
100
AcDbEntity
  8
文字
 62
     7
 48
50.0
100
AcDbText
 10
13163.29667881421
 20
10718.68005860477
 30
0.0
 40
108.152
  1
部　　品　　名
  7
STYLE1
100
AcDbText
  0
TEXT
  5
1ED7
330
1A
100
AcDbEntity
  8
文字
 62
     7
 48
50.0
100
AcDbText
 10
14320.25438589446
 20
10718.68005860477
 30
0.0
 40
108.152
  1
材料（材質）　　単位mm
  7
STYLE1
100
AcDbText
  0
TEXT
  5
1ED8
330
1A
100
AcDbEntity
  8
文字
 62
     7
 48
50.0
100
AcDbText
 10
12976.46339288547
 20
10534.82165860476
 30
0.0
 40
108.152
  1
柱
  7
STYLE1
100
AcDbText
  0
TEXT
  5
1ED9
330
1A
100
AcDbEntity
  8
文字
 62
     7
 48
50.0
100
AcDbText
 10
12976.46339288548
 20
10350.96325860477
 30
0.0
 40
108.152
  1
梁
  7
STYLE1
100
AcDbText
  0
TEXT
  5
1EDA
330
1A
100
AcDbEntity
  8
文字
 62
     7
 48
50.0
100
AcDbText
 10
12976.46339288548
 20
9431.671258604771
 30
0.0
 40
108.152
  1
鼻隠シ
  7
STYLE1
100
AcDbText
  0
TEXT
  5
1EDB
330
1A
100
AcDbEntity
  8
文字
 62
     7
 48
50.0
100
AcDbText
 10
12639.10716539135
 20
9799.388058604765
 30
0.0
 40
108.152
  1
5
  7
STYLE1
100
AcDbText
  0
TEXT
  5
1EDC
330
1A
100
AcDbEntity
  8
文字
 62
     7
 48
50.0
100
AcDbText
 10
12614.86722117507
 20
8880.096058604767
 30
0.0
 40
108.152
  1
10
  7
STYLE1
100
AcDbText
  0
TEXT
  5
1EDD
330
1A
100
AcDbEntity
  8
文字
 62
     7
 48
50.0
100
AcDbText
 10
12639.10716539134
 20
9247.812858604767
 30
0.0
 40
108.152
  1
8
  7
STYLE1
100
AcDbText
  0
TEXT
  5
1EDE
330
1A
100
AcDbEntity
  8
文字
 62
     7
 48
50.0
100
AcDbText
 10
12639.10716539134
 20
9063.954458604767
 30
0.0
 40
108.152
  1
9
  7
STYLE1
100
AcDbText
  0
TEXT
  5
1EDF
330
1A
100
AcDbEntity
  8
文字
 62
     7
 48
50.0
100
AcDbText
 10
12639.10716539134
 20
9431.671258604769
 30
0.0
 40
108.152
  1
7
  7
STYLE1
100
AcDbText
  0
TEXT
  5
1EE0
330
1A
100
AcDbEntity
  8
文字
 62
     7
 48
50.0
100
AcDbText
 10
12639.10716539135
 20
9615.529658604769
 30
0.0
 40
108.152
  1
6
  7
STYLE1
100
AcDbText
  0
LINE
  5
1EE1
330
1A
100
AcDbEntity
  8
部品1
100
AcDbLine
 10
15885.64887148391
 20
8847.202984156597
 30
0.0
 11
12485.64887148391
 21
8847.202984156597
 31
0.0
  0
LINE
  5
1EE2
330
1A
100
AcDbEntity
  8
部品1
100
AcDbLine
 10
15885.64887148391
 20
8479.4861841566
 30
0.0
 11
12485.64887148391
 21
8479.486184156602
 31
0.0
  0
LINE
  5
1EE3
330
1A
100
AcDbEntity
  8
部品1
100
AcDbLine
 10
15885.64887148391
 20
8663.344584156599
 30
0.0
 11
12485.64887148391
 21
8663.344584156599
 31
0.0
  0
LINE
  5
1EE4
330
1A
100
AcDbEntity
  8
部品1
100
AcDbLine
 10
15885.64887148391
 20
9582.636584156601
 30
0.0
 11
12485.64887148391
 21
9582.636584156601
 31
0.0
  0
LINE
  5
1EE5
330
1A
100
AcDbEntity
  8
部品1
100
AcDbLine
 10
15885.64887148391
 20
9031.061384156599
 30
0.0
 11
12485.64887148391
 21
9031.0613841566
 31
0.0
  0
LINE
  5
1EE6
330
1A
100
AcDbEntity
  8
部品1
100
AcDbLine
 10
15885.64887148391
 20
8295.6277841566
 30
0.0
 11
12485.64887148391
 21
8295.627784156602
 31
0.0
  0
TEXT
  5
1EE7
330
1A
100
AcDbEntity
  8
文字
 62
     7
 48
50.0
100
AcDbText
 10
14496.37116688391
 20
10534.82165860476
 30
0.0
 40
108.152
  1
PZ            2.3
  7
STYLE1
100
AcDbText
  0
LINE
  5
1EE8
330
1A
100
AcDbEntity
  8
部品1
100
AcDbLine
 10
12485.64887148391
 20
10869.6453841566
 30
0.0
 11
12485.64887148391
 21
8295.627784156602
 31
0.0
  0
TEXT
  5
1EE9
330
1A
100
AcDbEntity
  8
文字
 62
     7
 48
50.0
100
AcDbText
 10
14496.37116688392
 20
10167.10485860476
 30
0.0
 40
108.152
  1
F12            2.3
  7
STYLE1
100
AcDbText
  0
TEXT
  5
1EEA
330
1A
100
AcDbEntity
  8
文字
 62
     7
 48
50.0
100
AcDbText
 10
12976.46339288548
 20
10167.10485860476
 30
0.0
 40
108.152
  1
母屋
  7
STYLE1
100
AcDbText
  0
TEXT
  5
1EEB
330
1A
100
AcDbEntity
  8
文字
 62
     7
 48
50.0
100
AcDbText
 10
14496.3711668839
 20
10350.96325860477
 30
0.0
 40
108.152
  1
F12            2.3
  7
STYLE1
100
AcDbText
  0
TEXT
  5
1EEC
330
1A
100
AcDbEntity
  8
文字
 62
     7
 48
50.0
100
AcDbText
 10
14474.92462743007
 20
9983.246458604767
 30
0.0
 40
108.152
  1
Y10            0.6
  7
STYLE1
100
AcDbText
  0
TEXT
  5
1EED
330
1A
100
AcDbEntity
  8
文字
 62
     7
 48
50.0
100
AcDbText
 10
14474.92462743007
 20
9799.388058604771
 30
0.0
 40
108.152
  1
Y10            0.5
  7
STYLE1
100
AcDbText
  0
TEXT
  5
1EEE
330
1A
100
AcDbEntity
  8
文字
 62
     7
 48
50.0
100
AcDbText
 10
14474.92462743007
 20
9615.529658604771
 30
0.0
 40
108.152
  1
Y10            0.7
  7
STYLE1
100
AcDbText
  0
TEXT
  5
1EEF
330
1A
100
AcDbEntity
  8
文字
 62
     7
 48
50.0
100
AcDbText
 10
14474.92462743007
 20
9431.671258604771
 30
0.0
 40
108.152
  1
Y10            0.7
  7
STYLE1
100
AcDbText
  0
TEXT
  5
1EF0
330
1A
100
AcDbEntity
  8
文字
 62
     7
 48
50.0
100
AcDbText
 10
14496.37116688391
 20
9247.812858604767
 30
0.0
 40
108.152
  1
F12            2.3
  7
STYLE1
100
AcDbText
  0
TEXT
  5
1EF1
330
1A
100
AcDbEntity
  8
文字
 62
     7
 48
50.0
100
AcDbText
 10
14474.92462743007
 20
8880.09605860477
 30
0.0
 40
108.152
  1
Y10            1.0
  7
STYLE1
100
AcDbText
  0
TEXT
  5
1EF2
330
1A
100
AcDbEntity
  8
仕様書枠
 62
     7
 48
50.0
100
AcDbText
 10
14507.17944936723
 20
1295.557706291229
 30
0.0
 40
100.0
  1
NO.04     <縮尺> S=1/40
  7
STYLE2
100
AcDbText
  0
LINE
  5
1EF3
330
1A
100
AcDbEntity
  8
部品1
100
AcDbLine
 10
6249.58479127592
 20
4590.934067956793
 30
0.0
 11
6263.08479127592
 21
4590.934067956793
 31
0.0
  0
LINE
  5
1EF4
330
1A
100
AcDbEntity
  8
部品1
100
AcDbLine
 10
6249.58479127592
 20
4608.934067956794
 30
0.0
 11
6249.58479127592
 21
4505.900949614033
 31
0.0
  0
LINE
  5
1EF5
330
1A
100
AcDbEntity
  8
部品1
100
AcDbLine
 10
6215.084791275918
 20
4608.934067956794
 30
0.0
 11
6249.584791275921
 21
4608.934067956794
 31
0.0
  0
LINE
  5
1EF6
330
1A
100
AcDbEntity
  8
部品1
100
AcDbLine
 10
6215.084791275918
 20
4608.934067956794
 30
0.0
 11
6215.084791275918
 21
4505.900949614033
 31
0.0
  0
LINE
  5
1EF7
330
1A
100
AcDbEntity
  8
部品1
100
AcDbLine
 10
5998.084791275918
 20
4590.934067956793
 30
0.0
 11
6215.084791275918
 21
4590.934067956793
 31
0.0
  0
LINE
  5
1EF8
330
1A
100
AcDbEntity
  8
部品1
100
AcDbLine
 10
5998.084791275918
 20
4608.934067956794
 30
0.0
 11
5998.084791275918
 21
4505.900949614033
 31
0.0
  0
LINE
  5
1EF9
330
1A
100
AcDbEntity
  8
部品1
100
AcDbLine
 10
5953.084791275919
 20
4608.934067956794
 30
0.0
 11
5953.084791275919
 21
4505.900949614033
 31
0.0
  0
LINE
  5
1EFA
330
1A
100
AcDbEntity
  8
部品1
100
AcDbLine
 10
5953.084791275919
 20
4608.934067956794
 30
0.0
 11
5998.084791275918
 21
4608.934067956794
 31
0.0
  0
LINE
  5
1EFB
330
1A
100
AcDbEntity
  8
部品1
100
AcDbLine
 10
5925.084791275918
 20
4608.934067956794
 30
0.0
 11
5925.084791275918
 21
4505.900949614033
 31
0.0
  0
LINE
  5
1EFC
330
1A
100
AcDbEntity
  8
部品1
100
AcDbLine
 10
5880.08479127592
 20
4608.934067956794
 30
0.0
 11
5880.084791275918
 21
4505.900949614033
 31
0.0
  0
LINE
  5
1EFD
330
1A
100
AcDbEntity
  8
部品1
100
AcDbLine
 10
5880.08479127592
 20
4608.934067956794
 30
0.0
 11
5925.084791275918
 21
4608.934067956794
 31
0.0
  0
LINE
  5
1EFE
330
1A
100
AcDbEntity
  8
部品1
100
AcDbLine
 10
5925.084791275918
 20
4590.934067956793
 30
0.0
 11
5953.084791275919
 21
4590.934067956793
 31
0.0
  0
LINE
  5
1EFF
330
1A
100
AcDbEntity
  8
部品1
100
AcDbLine
 10
5669.584791275918
 20
4590.934067956793
 30
0.0
 11
5880.084791275922
 21
4590.934067956793
 31
0.0
  0
LINE
  5
1F00
330
1A
100
AcDbEntity
  8
部品1
100
AcDbLine
 10
5635.08479127592
 20
4608.934067956794
 30
0.0
 11
5635.084791275918
 21
4505.900949614033
 31
0.0
  0
LINE
  5
1F01
330
1A
100
AcDbEntity
  8
部品1
100
AcDbLine
 10
5669.584791275918
 20
4608.934067956794
 30
0.0
 11
5669.584791275918
 21
4505.900949614033
 31
0.0
  0
LINE
  5
1F02
330
1A
100
AcDbEntity
  8
部品1
100
AcDbLine
 10
5635.08479127592
 20
4608.934067956794
 30
0.0
 11
5669.584791275918
 21
4608.934067956794
 31
0.0
  0
LINE
  5
1F03
330
1A
100
AcDbEntity
  8
部品1
100
AcDbLine
 10
5345.084791275918
 20
4590.934067956796
 30
0.0
 11
5373.08479127592
 21
4590.934067956796
 31
0.0
  0
LINE
  5
1F04
330
1A
100
AcDbEntity
  8
部品1
100
AcDbLine
 10
5418.084791275918
 20
4608.934067956794
 30
0.0
 11
5418.084791275918
 21
4505.900949614033
 31
0.0
  0
LINE
  5
1F05
330
1A
100
AcDbEntity
  8
部品1
100
AcDbLine
 10
5373.08479127592
 20
4608.934067956794
 30
0.0
 11
5373.084791275918
 21
4505.900949614033
 31
0.0
  0
LINE
  5
1F06
330
1A
100
AcDbEntity
  8
部品1
100
AcDbLine
 10
5373.084791275921
 20
4608.934067956794
 30
0.0
 11
5418.084791275918
 21
4608.934067956794
 31
0.0
  0
LINE
  5
1F07
330
1A
100
AcDbEntity
  8
部品1
100
AcDbLine
 10
5345.084791275918
 20
4608.934067956794
 30
0.0
 11
5345.084791275918
 21
4505.900949614033
 31
0.0
  0
LINE
  5
1F08
330
1A
100
AcDbEntity
  8
部品1
100
AcDbLine
 10
5300.084791275918
 20
4608.934067956794
 30
0.0
 11
5300.084791275918
 21
4505.900949614033
 31
0.0
  0
LINE
  5
1F09
330
1A
100
AcDbEntity
  8
部品1
100
AcDbLine
 10
5300.084791275918
 20
4608.934067956794
 30
0.0
 11
5345.084791275918
 21
4608.934067956794
 31
0.0
  0
LINE
  5
1F0A
330
1A
100
AcDbEntity
  8
部品1
100
AcDbLine
 10
5418.084791275918
 20
4590.934067956796
 30
0.0
 11
5635.08479127592
 21
4590.934067956793
 31
0.0
  0
LINE
  5
1F0B
330
1A
100
AcDbEntity
  8
部品1
100
AcDbLine
 10
5089.58479127592
 20
4590.934067956797
 30
0.0
 11
5300.084791275918
 21
4590.934067956796
 31
0.0
  0
LINE
  5
1F0C
330
1A
100
AcDbEntity
  8
部品1
100
AcDbLine
 10
5055.08479127592
 20
4608.934067956794
 30
0.0
 11
5055.08479127592
 21
4505.900949614033
 31
0.0
  0
LINE
  5
1F0D
330
1A
100
AcDbEntity
  8
部品1
100
AcDbLine
 10
5089.58479127592
 20
4608.934067956794
 30
0.0
 11
5089.584791275918
 21
4505.900949614033
 31
0.0
  0
LINE
  5
1F0E
330
1A
100
AcDbEntity
  8
部品1
100
AcDbLine
 10
5055.08479127592
 20
4608.934067956794
 30
0.0
 11
5089.58479127592
 21
4608.934067956794
 31
0.0
  0
LINE
  5
1F0F
330
1A
100
AcDbEntity
  8
部品1
100
AcDbLine
 10
4845.08479127592
 20
4590.934067956796
 30
0.0
 11
4873.084791275918
 21
4590.934067956796
 31
0.0
  0
LINE
  5
1F10
330
1A
100
AcDbEntity
  8
部品1
100
AcDbLine
 10
4918.084791275918
 20
4608.934067956794
 30
0.0
 11
4918.084791275918
 21
4505.900949614033
 31
0.0
  0
LINE
  5
1F11
330
1A
100
AcDbEntity
  8
部品1
100
AcDbLine
 10
4873.084791275918
 20
4608.934067956794
 30
0.0
 11
4873.084791275918
 21
4505.900949614033
 31
0.0
  0
LINE
  5
1F12
330
1A
100
AcDbEntity
  8
部品1
100
AcDbLine
 10
4873.084791275918
 20
4608.934067956794
 30
0.0
 11
4918.084791275919
 21
4608.934067956794
 31
0.0
  0
LINE
  5
1F13
330
1A
100
AcDbEntity
  8
部品1
100
AcDbLine
 10
4845.08479127592
 20
4608.934067956794
 30
0.0
 11
4845.084791275918
 21
4505.900949614033
 31
0.0
  0
LINE
  5
1F14
330
1A
100
AcDbEntity
  8
部品1
100
AcDbLine
 10
4800.08479127592
 20
4608.934067956794
 30
0.0
 11
4800.084791275918
 21
4505.900949614033
 31
0.0
  0
LINE
  5
1F15
330
1A
100
AcDbEntity
  8
部品1
100
AcDbLine
 10
4800.084791275918
 20
4608.934067956794
 30
0.0
 11
4845.084791275918
 21
4608.934067956794
 31
0.0
  0
LINE
  5
1F16
330
1A
100
AcDbEntity
  8
部品1
100
AcDbLine
 10
4918.084791275919
 20
4590.934067956797
 30
0.0
 11
5055.08479127592
 21
4590.934067956797
 31
0.0
  0
LINE
  5
1F17
330
1A
100
AcDbEntity
  8
部品1
100
AcDbLine
 10
4669.584791275919
 20
4590.934067956796
 30
0.0
 11
4800.084791275922
 21
4590.934067956796
 31
0.0
  0
LINE
  5
1F18
330
1A
100
AcDbEntity
  8
部品1
100
AcDbLine
 10
4669.584791275922
 20
4608.934067956794
 30
0.0
 11
4635.084791275922
 21
4608.934067956794
 31
0.0
  0
LINE
  5
1F19
330
1A
100
AcDbEntity
  8
部品1
100
AcDbLine
 10
4635.08479127592
 20
4608.934067956794
 30
0.0
 11
4635.084791275922
 21
4505.900949614033
 31
0.0
  0
LINE
  5
1F1A
330
1A
100
AcDbEntity
  8
部品1
100
AcDbLine
 10
4669.584791275922
 20
4608.934067956794
 30
0.0
 11
4669.584791275919
 21
4505.900949614035
 31
0.0
  0
LINE
  5
1F1B
330
1A
100
AcDbEntity
  8
部品1
100
AcDbLine
 10
4509.584791275911
 20
4608.934067956794
 30
0.0
 11
4464.58479127591
 21
4608.934067956794
 31
0.0
  0
LINE
  5
1F1C
330
1A
100
AcDbEntity
  8
部品1
100
AcDbLine
 10
4509.584791275911
 20
4608.934067956794
 30
0.0
 11
4509.584791275911
 21
4505.900949614035
 31
0.0
  0
LINE
  5
1F1D
330
1A
100
AcDbEntity
  8
部品1
100
AcDbLine
 10
4464.58479127591
 20
4608.934067956794
 30
0.0
 11
4464.58479127591
 21
4505.900949614035
 31
0.0
  0
LINE
  5
1F1E
330
1A
100
AcDbEntity
  8
部品1
100
AcDbLine
 10
4635.084791275922
 20
4590.934067956796
 30
0.0
 11
4509.584791275911
 21
4590.934067956796
 31
0.0
  0
LINE
  5
1F1F
330
1A
100
AcDbEntity
  8
部品1
100
AcDbLine
 10
4436.584791275913
 20
4608.934067956792
 30
0.0
 11
4391.584791275907
 21
4608.934067956794
 31
0.0
  0
LINE
  5
1F20
330
1A
100
AcDbEntity
  8
部品1
100
AcDbLine
 10
4436.584791275913
 20
4608.934067956794
 30
0.0
 11
4436.584791275911
 21
4505.900949614035
 31
0.0
  0
LINE
  5
1F21
330
1A
100
AcDbEntity
  8
部品1
100
AcDbLine
 10
4391.584791275907
 20
4608.934067956796
 30
0.0
 11
4391.584791275907
 21
4505.900949614039
 31
0.0
  0
LINE
  5
1F22
330
1A
100
AcDbEntity
  8
部品1
100
AcDbLine
 10
4261.084791275918
 20
4608.934067956794
 30
0.0
 11
4226.584791275918
 21
4608.934067956794
 31
0.0
  0
LINE
  5
1F23
330
1A
100
AcDbEntity
  8
部品1
100
AcDbLine
 10
4261.084791275919
 20
4608.934067956794
 30
0.0
 11
4261.084791275919
 21
4505.900949614033
 31
0.0
  0
LINE
  5
1F24
330
1A
100
AcDbEntity
  8
部品1
100
AcDbLine
 10
4226.584791275918
 20
4608.934067956794
 30
0.0
 11
4226.584791275918
 21
4505.900949614033
 31
0.0
  0
LINE
  5
1F25
330
1A
100
AcDbEntity
  8
部品1
100
AcDbLine
 10
4391.584791275907
 20
4590.934067956796
 30
0.0
 11
4261.084791275919
 21
4590.934067956796
 31
0.0
  0
LINE
  5
1F26
330
1A
100
AcDbEntity
  8
部品1
100
AcDbLine
 10
3971.08479127592
 20
4608.934067956796
 30
0.0
 11
3971.084791275922
 21
4505.900949614032
 31
0.0
  0
LINE
  5
1F27
330
1A
100
AcDbEntity
  8
部品1
100
AcDbLine
 10
4016.08479127592
 20
4608.934067956796
 30
0.0
 11
4016.084791275921
 21
4505.900949614032
 31
0.0
  0
LINE
  5
1F28
330
1A
100
AcDbEntity
  8
部品1
100
AcDbLine
 10
4016.08479127592
 20
4608.934067956792
 30
0.0
 11
3971.084791275922
 21
4608.934067956794
 31
0.0
  0
LINE
  5
1F29
330
1A
100
AcDbEntity
  8
部品1
100
AcDbLine
 10
3898.08479127592
 20
4608.934067956794
 30
0.0
 11
3898.084791275922
 21
4505.900949614033
 31
0.0
  0
LINE
  5
1F2A
330
1A
100
AcDbEntity
  8
部品1
100
AcDbLine
 10
3943.084791275922
 20
4608.934067956794
 30
0.0
 11
3943.084791275922
 21
4505.900949614033
 31
0.0
  0
LINE
  5
1F2B
330
1A
100
AcDbEntity
  8
部品1
100
AcDbLine
 10
3943.084791275922
 20
4608.934067956792
 30
0.0
 11
3898.084791275918
 21
4608.934067956792
 31
0.0
  0
LINE
  5
1F2C
330
1A
100
AcDbEntity
  8
部品1
100
AcDbLine
 10
3943.084791275922
 20
4590.934067956796
 30
0.0
 11
3971.084791275922
 21
4590.934067956797
 31
0.0
  0
LINE
  5
1F2D
330
1A
100
AcDbEntity
  8
部品1
100
AcDbLine
 10
4016.084791275921
 20
4590.934067956797
 30
0.0
 11
4226.584791275922
 21
4590.934067956797
 31
0.0
  0
LINE
  5
1F2E
330
1A
100
AcDbEntity
  8
部品1
100
AcDbLine
 10
4464.58479127591
 20
4590.934067956796
 30
0.0
 11
4436.584791275911
 21
4590.934067956796
 31
0.0
  0
LINE
  5
1F2F
330
1A
100
AcDbEntity
  8
部品1
100
AcDbLine
 10
3681.084791275922
 20
4590.934067956796
 30
0.0
 11
3898.084791275922
 21
4590.934067956796
 31
0.0
  0
LINE
  5
1F30
330
1A
100
AcDbEntity
  8
部品1
100
AcDbLine
 10
3646.58479127592
 20
4608.934067956794
 30
0.0
 11
3646.584791275922
 21
4505.900949614033
 31
0.0
  0
LINE
  5
1F31
330
1A
100
AcDbEntity
  8
部品1
100
AcDbLine
 10
3681.084791275922
 20
4608.934067956794
 30
0.0
 11
3681.084791275922
 21
4505.900949614033
 31
0.0
  0
LINE
  5
1F32
330
1A
100
AcDbEntity
  8
部品1
100
AcDbLine
 10
3681.084791275922
 20
4608.934067956792
 30
0.0
 11
3646.584791275918
 21
4608.934067956794
 31
0.0
  0
LINE
  5
1F33
330
1A
100
AcDbEntity
  8
部品1
100
AcDbLine
 10
3436.08479127592
 20
4590.934067956796
 30
0.0
 11
3646.58479127592
 21
4590.934067956796
 31
0.0
  0
LINE
  5
1F34
330
1A
100
AcDbEntity
  8
部品1
100
AcDbLine
 10
3391.084791275922
 20
4608.934067956796
 30
0.0
 11
3391.084791275922
 21
4505.900949614033
 31
0.0
  0
LINE
  5
1F35
330
1A
100
AcDbEntity
  8
部品1
100
AcDbLine
 10
3436.08479127592
 20
4608.934067956794
 30
0.0
 11
3436.084791275922
 21
4505.900949614033
 31
0.0
  0
LINE
  5
1F36
330
1A
100
AcDbEntity
  8
部品1
100
AcDbLine
 10
3436.08479127592
 20
4608.934067956794
 30
0.0
 11
3391.084791275922
 21
4608.934067956794
 31
0.0
  0
LINE
  5
1F37
330
1A
100
AcDbEntity
  8
部品1
100
AcDbLine
 10
3318.084791275918
 20
4608.934067956796
 30
0.0
 11
3318.084791275922
 21
4505.900949614033
 31
0.0
  0
LINE
  5
1F38
330
1A
100
AcDbEntity
  8
部品1
100
AcDbLine
 10
3363.084791275922
 20
4608.934067956796
 30
0.0
 11
3363.084791275922
 21
4505.900949614033
 31
0.0
  0
LINE
  5
1F39
330
1A
100
AcDbEntity
  8
部品1
100
AcDbLine
 10
3363.084791275922
 20
4608.934067956794
 30
0.0
 11
3318.084791275918
 21
4608.934067956794
 31
0.0
  0
LINE
  5
1F3A
330
1A
100
AcDbEntity
  8
部品1
100
AcDbLine
 10
3363.084791275922
 20
4590.934067956797
 30
0.0
 11
3391.084791275922
 21
4590.934067956797
 31
0.0
  0
LINE
  5
1F3B
330
1A
100
AcDbEntity
  8
部品1
100
AcDbLine
 10
3101.084791275918
 20
4590.934067956797
 30
0.0
 11
3318.08479127592
 21
4590.934067956797
 31
0.0
  0
LINE
  5
1F3C
330
1A
100
AcDbEntity
  8
部品1
100
AcDbLine
 10
3066.58479127592
 20
4608.934067956796
 30
0.0
 11
3066.58479127592
 21
4505.900949614033
 31
0.0
  0
LINE
  5
1F3D
330
1A
100
AcDbEntity
  8
部品1
100
AcDbLine
 10
3101.08479127592
 20
4608.934067956796
 30
0.0
 11
3101.084791275922
 21
4505.900949614033
 31
0.0
  0
LINE
  5
1F3E
330
1A
100
AcDbEntity
  8
部品1
100
AcDbLine
 10
3101.08479127592
 20
4608.934067956794
 30
0.0
 11
3066.584791275922
 21
4608.934067956794
 31
0.0
  0
LINE
  5
1F3F
330
1A
100
AcDbEntity
  8
部品1
100
AcDbLine
 10
3053.084791275922
 20
4590.934067956796
 30
0.0
 11
3066.584791275918
 21
4590.934067956797
 31
0.0
  0
LINE
  5
1F40
330
1A
100
AcDbEntity
  8
仕様書枠
  6
Continuous
 48
50.0
100
AcDbLine
 10
14240.0
 20
1464.0
 30
0.0
 11
14240.0
 21
1064.0
 31
0.0
  0
TEXT
  5
1F41
330
1A
100
AcDbEntity
  8
文字
 62
     7
 48
50.0
100
AcDbText
 10
14840.42318972916
 20
1102.252727072919
 30
0.0
 40
100.0
  1
～多雪地型～
  7
STYLE2
100
AcDbText
  0
TEXT
  5
1F42
330
1A
100
AcDbEntity
  8
文字
 62
     7
 48
50.0
100
AcDbText
 10
14732.0603426082
 20
747.8967129911416
 30
0.0
 40
160.0
  1
BF-２８A 
  7
MSGOTHIC
100
AcDbText
  0
LINE
  5
1F43
330
1A
100
AcDbEntity
  8
仕様書枠
 48
50.0
100
AcDbLine
 10
16296.0
 20
1464.0
 30
0.0
 11
16296.0
 21
264.0
 31
0.0
  0
LINE
  5
1F44
330
1A
100
AcDbEntity
  8
仕様書枠
  6
Continuous
 48
50.0
100
AcDbLine
 10
13096.0
 20
1464.0
 30
0.0
 11
13096.0
 21
264.0
 31
0.0
  0
LINE
  5
1F45
330
1A
100
AcDbEntity
  8
仕様書枠
 48
50.0
100
AcDbLine
 10
13096.0
 20
1064.0
 30
0.0
 11
14240.0
 21
1064.0
 31
0.0
  0
TEXT
  5
1F46
330
1A
100
AcDbEntity
  8
文字
 62
     7
 48
50.0
100
AcDbText
 10
13198.2053442172
 20
492.5435242569019
 30
0.0
 40
100.0
  1
○間口奥行寸法は柱芯寸法です。    
  7
STYLE2
100
AcDbText
  0
TEXT
  5
1F47
330
1A
100
AcDbEntity
  8
文字
 62
     7
 48
50.0
100
AcDbText
 10
13190.23669998441
 20
741.2740661031257
 30
0.0
 40
160.0
  1
機種名
  7
STYLE2
100
AcDbText
  0
TEXT
  5
1F48
330
1A
100
AcDbEntity
  8
文字
 62
     7
 48
50.0
100
AcDbText
 10
13151.7790565769
 20
1159.09060742994
 30
0.0
 40
200.0
  1
外 形 図
  7
STYLE2
100
AcDbText
  0
LINE
  5
1F49
330
1A
100
AcDbEntity
  8
文字
 62
     7
 48
50.0
100
AcDbLine
 10
13176.0
 20
664.0
 30
0.0
 11
16216.0
 21
664.0
 31
0.0
  0
LINE
  5
1F4A
330
1A
100
AcDbEntity
  8
仕様書枠
 48
50.0
100
AcDbLine
 10
13096.0
 20
1464.0
 30
0.0
 11
16296.0
 21
1464.0
 31
0.0
  0
LINE
  5
1F4B
330
1A
100
AcDbEntity
  8
仕様書枠
 48
50.0
100
AcDbLine
 10
128.8000000000011
 20
264.0
 30
0.0
 11
16296.0
 21
264.0
 31
0.0
  0
LINE
  5
1F4C
330
1A
100
AcDbEntity
  8
寸法
100
AcDbLine
 10
6923.537714463041
 20
10770.70309759782
 30
0.0
 11
6923.537714463041
 21
11070.70309759782
 31
0.0
  0
LINE
  5
1F4D
330
1A
100
AcDbEntity
  8
寸法
100
AcDbLine
 10
6923.537714463041
 20
5970.703097597816
 30
0.0
 11
6923.537714463041
 21
5670.703097597816
 31
0.0
  0
LINE
  5
1F4E
330
1A
100
AcDbEntity
  8
寸法
100
AcDbLine
 10
7586.48348345903
 20
4618.900949614033
 30
0.0
 11
7586.48348345903
 21
4918.900949614034
 31
0.0
  0
LINE
  5
1F4F
330
1A
100
AcDbEntity
  8
部品1
100
AcDbLine
 10
3008.08479127592
 20
2358.900949614033
 30
0.0
 11
3008.08479127592
 21
2308.900949614034
 31
0.0
  0
TEXT
  5
1F50
330
1A
100
AcDbEntity
  8
部品1
100
AcDbText
 10
10289.81820799253
 20
1454.547359309656
 30
0.0
 40
120.0
  1
側面図
  7
MSGOTHIC
100
AcDbText
  0
LWPOLYLINE
  5
1F51
330
1A
100
AcDbEntity
  8
部品1
100
AcDbPolyline
 90
        4
 70
     1
 43
0.0
 10
10247.3507225364
 20
1628.986036036136
 10
10247.3507225364
 20
1407.401776995868
 10
10884.36305529616
 20
1407.401776995868
 10
10884.36305529616
 20
1628.986036036136
  0
TEXT
  5
1F52
330
1A
100
AcDbEntity
  8
部品1
100
AcDbText
 10
4438.661316970835
 20
1454.547359309656
 30
0.0
 40
120.0
  1
正面図
  7
MSGOTHIC
100
AcDbText
  0
LWPOLYLINE
  5
1F53
330
1A
100
AcDbEntity
  8
部品1
100
AcDbPolyline
 90
        4
 70
     1
 43
0.0
 10
4396.193831514705
 20
1628.986036036136
 10
4396.193831514705
 20
1407.401776995868
 10
5033.206164274467
 20
1407.401776995868
 10
5033.206164274467
 20
1628.986036036136
  0
LWPOLYLINE
  5
1F54
330
1A
100
AcDbEntity
  8
部品1
100
AcDbPolyline
 90
        4
 70
     1
 43
0.0
 10
4403.578324854617
 20
5751.275754106599
 10
4403.578324854617
 20
5529.69149506633
 10
5040.590657614379
 20
5529.69149506633
 10
5040.590657614379
 20
5751.275754106599
  0
TEXT
  5
1F55
330
1A
100
AcDbEntity
  8
部品1
100
AcDbText
 10
4446.045810310748
 20
5576.837077380118
 30
0.0
 40
120.0
  1
平面図
  7
MSGOTHIC
100
AcDbText
  0
INSERT
  5
1F56
330
1A
100
AcDbEntity
  8
0
100
AcDbBlockReference
  2
A$C31C65A96
 10
3496.225513873491
 20
2308.900949614034
 30
0.0
  0
DIMENSION
  5
1F57
330
1A
100
AcDbEntity
  8
寸法
100
AcDbDimension
  2
*D68
 10
6554.60244337315
 20
2308.900949614034
 30
0.0
 11
6274.567010302284
 21
2173.900949614035
 31
0.0
 70
    32
 71
     5
 42
270.0
  3
物置仕様図40
100
AcDbAlignedDimension
 13
6088.08479127592
 23
2038.900949614034
 33
0.0
 14
6768.266128291223
 24
2308.900949614034
 34
0.0
 50
90.0
100
AcDbRotatedDimension
  0
DIMENSION
  5
1F58
330
1A
100
AcDbEntity
  8
寸法
100
AcDbDimension
  2
*D69
 10
7292.756801734111
 20
2308.900949614034
 30
0.0
 11
7192.744990710489
 21
3463.900949614036
 31
0.0
 70
    32
 71
     5
 42
2310.000000000001
  3
物置仕様図40
100
AcDbAlignedDimension
 13
10566.32755088103
 23
4618.900949614033
 33
0.0
 14
7275.84789518988
 24
2308.900949614034
 34
0.0
 50
90.0
100
AcDbRotatedDimension
  0
DIMENSION
  5
1F59
330
1A
100
AcDbEntity
  8
寸法
100
AcDbDimension
  2
*D70
 10
7586.48348345903
 20
2308.900949614034
 30
0.0
 11
7486.471672435406
 21
3407.400949614035
 31
0.0
 70
    32
 71
     5
 42
2197.0
  3
物置仕様図40
100
AcDbAlignedDimension
 13
8166.327550881034
 23
4505.900949614033
 33
0.0
 14
7535.652178531018
 24
2308.900949614034
 34
0.0
 50
90.0
100
AcDbRotatedDimension
1001
ACAD
1000
DSTYLE
1002
{
1070
    75
1070
     1
1002
}
  0
DIMENSION
  5
1F5A
330
1A
100
AcDbEntity
  8
寸法
100
AcDbDimension
  2
*D71
 10
7586.48348345903
 20
4505.900949614033
 30
0.0
 11
7467.842311419059
 21
4754.328483500829
 31
0.0
 70
   160
 71
     5
 42
113.0000000000009
  3
物置仕様図40
100
AcDbAlignedDimension
 13
10566.32755088103
 23
4618.900949614033
 33
0.0
 14
8166.327550881034
 24
4505.900949614033
 34
0.0
 50
90.0
100
AcDbRotatedDimension
  0
DIMENSION
  5
1F5B
330
1A
100
AcDbEntity
  8
寸法
100
AcDbDimension
  2
*D72
 10
8078.354899444727
 20
3458.900949614033
 30
0.0
 11
7978.354899444726
 21
3008.900949614035
 31
0.0
 70
    32
 71
     5
 42
900.0
  3
物置仕様図40
100
AcDbAlignedDimension
 13
8946.327550881035
 23
2558.900949614034
 33
0.0
 14
8946.327550881035
 24
3458.900949614033
 34
0.0
 50
90.0
100
AcDbRotatedDimension
1001
ACAD
1000
DSTYLE
1002
{
1070
    75
1070
     1
1002
}
  0
DIMENSION
  5
1F5C
330
1A
100
AcDbEntity
  8
寸法
100
AcDbDimension
  2
*D73
 10
8078.354899444727
 20
2558.900949614034
 30
0.0
 11
7967.79826238547
 21
2433.900949614034
 31
0.0
 70
   160
 71
     5
 42
250.0
  3
物置仕様図40
100
AcDbAlignedDimension
 13
8062.254670437178
 23
2308.900949614034
 33
0.0
 14
8946.327550881035
 24
2558.900949614034
 34
0.0
 50
90.0
100
AcDbRotatedDimension
  0
DIMENSION
  5
1F5D
330
1A
100
AcDbEntity
  8
寸法
100
AcDbDimension
  2
*D74
 10
13483.45611201606
 20
2308.900949614034
 30
0.0
 11
13362.01802163522
 21
2489.303996091994
 31
0.0
 70
   160
 71
     5
 42
49.99999999999954
  3
物置仕様図40
100
AcDbAlignedDimension
 13
12966.32755088103
 23
2358.900949614033
 33
0.0
 14
13495.59992105415
 24
2308.900949614034
 34
0.0
 50
90.0
100
AcDbRotatedDimension
  0
DIMENSION
  5
1F5E
330
1A
100
AcDbEntity
  8
寸法
100
AcDbDimension
  2
*D75
 10
13489.73312803519
 20
4366.129872606422
 30
0.0
 11
13642.67085374331
 21
4417.392130951813
 31
0.0
 70
   161
 71
     5
 42
115.0
  3
物置仕様図40
100
AcDbAlignedDimension
 13
12930.37633230061
 23
4507.593652822193
 33
0.0
 14
12924.9677406404
 24
4392.720909596254
 34
0.0
  0
DIMENSION
  5
1F5F
330
1A
100
AcDbEntity
  8
寸法
100
AcDbDimension
  2
*D76
 10
12966.32755088103
 20
5193.668646643565
 30
0.0
 11
10566.32755088103
 21
5293.668646643566
 31
0.0
 70
    32
 71
     5
 42
4800.0
  3
物置仕様図40
100
AcDbAlignedDimension
 13
8166.327550881034
 23
4505.900949614033
 33
0.0
 14
12966.32755088103
 24
4505.900949614033
 34
0.0
100
AcDbRotatedDimension
  0
DIMENSION
  5
1F60
330
1A
100
AcDbEntity
  8
寸法
100
AcDbDimension
  2
*D77
 10
12966.32755088103
 20
4913.668646643566
 30
0.0
 11
12591.32755088103
 21
5013.668646643566
 31
0.0
 70
    32
 71
     5
 42
750.0000000000018
  3
物置仕様図40
100
AcDbAlignedDimension
 13
12216.32755088103
 23
4122.92028237068
 33
0.0
 14
12966.32755088103
 24
4505.900949614033
 34
0.0
100
AcDbRotatedDimension
1001
ACAD
1000
DSTYLE
1002
{
1070
    75
1070
     1
1002
}
  0
DIMENSION
  5
1F61
330
1A
100
AcDbEntity
  8
寸法
100
AcDbDimension
  2
*D78
 10
12216.32755088103
 20
4913.668646643566
 30
0.0
 11
11391.32755088103
 21
5013.668646643566
 31
0.0
 70
    32
 71
     5
 42
1649.999999999998
  3
物置仕様図40
100
AcDbAlignedDimension
 13
10566.32755088103
 23
4157.086365704013
 33
0.0
 14
12216.32755088103
 24
4122.92028237068
 34
0.0
100
AcDbRotatedDimension
1001
ACAD
1000
DSTYLE
1002
{
1070
    75
1070
     1
1002
}
  0
DIMENSION
  5
1F62
330
1A
100
AcDbEntity
  8
寸法
100
AcDbDimension
  2
*D79
 10
10566.32755088103
 20
4913.668646643566
 30
0.0
 11
9741.327550881033
 21
5013.668646643566
 31
0.0
 70
    32
 71
     5
 42
1650.0
  3
物置仕様図40
100
AcDbAlignedDimension
 13
8916.327550881034
 23
4122.920282370682
 33
0.0
 14
10566.32755088103
 24
4618.900949614033
 34
0.0
100
AcDbRotatedDimension
1001
ACAD
1000
DSTYLE
1002
{
1070
    75
1070
     1
1002
}
  0
DIMENSION
  5
1F63
330
1A
100
AcDbEntity
  8
寸法
100
AcDbDimension
  2
*D80
 10
8916.327550881034
 20
4913.668646643566
 30
0.0
 11
8541.327550881034
 21
5013.668646643566
 31
0.0
 70
    32
 71
     5
 42
750.0
  3
物置仕様図40
100
AcDbAlignedDimension
 13
8166.327550881034
 23
4505.900949614033
 33
0.0
 14
8916.327550881034
 24
4122.920282370682
 34
0.0
100
AcDbRotatedDimension
  0
LINE
  5
1F64
330
1A
100
AcDbEntity
  8
センター
 48
10.0
100
AcDbLine
 10
12216.32755088103
 20
4122.92028237068
 30
0.0
 11
12216.32755088103
 21
2358.900949614033
 31
0.0
  0
LINE
  5
1F65
330
1A
100
AcDbEntity
  8
センター
 48
10.0
100
AcDbLine
 10
10566.32755088103
 20
4157.086365704013
 30
0.0
 11
10566.32755088103
 21
2358.900949614033
 31
0.0
  0
LINE
  5
1F66
330
1A
100
AcDbEntity
  8
センター
 48
10.0
100
AcDbLine
 10
8916.327550881034
 20
4122.920282370682
 30
0.0
 11
8916.327550881034
 21
2358.900949614033
 31
0.0
  0
DIMENSION
  5
1F67
330
1A
100
AcDbEntity
  8
寸法
100
AcDbDimension
  2
*D81
 10
6308.08479127592
 20
5194.459815648816
 30
0.0
 11
4658.08479127592
 21
5294.459815648815
 31
0.0
 70
    32
 71
     5
 42
3300.0
  3
物置仕様図40
100
AcDbAlignedDimension
 13
3008.08479127592
 23
4618.900949614035
 33
0.0
 14
6308.08479127592
 24
4618.900949614035
 34
0.0
100
AcDbRotatedDimension
  0
DIMENSION
  5
1F68
330
1A
100
AcDbEntity
  8
寸法
100
AcDbDimension
  2
*D82
 10
6308.08479127592
 20
4914.459815648815
 30
0.0
 11
6183.08479127592
 21
4914.459815648815
 31
0.0
 70
   160
 71
     5
 42
250.0
  3
物置仕様図40
100
AcDbAlignedDimension
 13
6058.08479127592
 23
4391.216331315403
 33
0.0
 14
6308.08479127592
 24
4618.900949614035
 34
0.0
100
AcDbRotatedDimension
1001
ACAD
1000
DSTYLE
1002
{
1070
   279
1070
     0
1070
    75
1070
     1
1002
}
  0
DIMENSION
  5
1F69
330
1A
100
AcDbEntity
  8
寸法
100
AcDbDimension
  2
*D83
 10
6058.08479127592
 20
4914.459815648815
 30
0.0
 11
4658.08479127592
 21
5014.471626672437
 31
0.0
 70
    32
 71
     5
 42
2800.0
  3
物置仕様図40
100
AcDbAlignedDimension
 13
3258.08479127592
 23
4391.216331315403
 33
0.0
 14
6058.08479127592
 24
4391.216331315403
 34
0.0
100
AcDbRotatedDimension
1001
ACAD
1000
DSTYLE
1002
{
1070
    75
1070
     1
1002
}
  0
DIMENSION
  5
1F6A
330
1A
100
AcDbEntity
  8
寸法
100
AcDbDimension
  2
*D84
 10
3258.08479127592
 20
4914.459815648815
 30
0.0
 11
3133.08479127592
 21
4914.459815648815
 31
0.0
 70
   160
 71
     5
 42
250.0
  3
物置仕様図40
100
AcDbAlignedDimension
 13
3008.08479127592
 23
4618.900949614035
 33
0.0
 14
3258.08479127592
 24
4391.216331315403
 34
0.0
100
AcDbRotatedDimension
1001
ACAD
1000
DSTYLE
1002
{
1070
   279
1070
     0
1002
}
  0
DIMENSION
  5
1F6B
330
1A
100
AcDbEntity
  8
寸法
100
AcDbDimension
  2
*D85
 10
2434.415140076315
 20
8093.503097597819
 30
0.0
 11
2274.403329052693
 21
8146.731066668165
 31
0.0
 70
   160
 71
     5
 42
277.1999999999971
  3
物置仕様図40
100
AcDbAlignedDimension
 13
3008.08479127592
 23
8370.703097597818
 33
0.0
 14
3008.08479127592
 24
8093.503097597819
 34
0.0
 50
90.0
100
AcDbRotatedDimension
1001
ACAD
1000
DSTYLE
1002
{
1070
    75
1070
     1
1002
}
  0
DIMENSION
  5
1F6C
330
1A
100
AcDbEntity
  8
寸法
100
AcDbDimension
  2
*D86
 10
6923.537714463041
 20
10770.70309759782
 30
0.0
 11
6816.120316553067
 21
10907.7018745455
 31
0.0
 70
   160
 71
     5
 42
123.9999999999982
  3
物置仕様図40
100
AcDbAlignedDimension
 13
6259.584791275912
 23
10646.70309759782
 33
0.0
 14
6298.084791275919
 24
10770.70309759782
 34
0.0
 50
90.0
100
AcDbRotatedDimension
1001
ACAD
1000
DSTYLE
1002
{
1070
    75
1070
     1
1002
}
  0
DIMENSION
  5
1F6D
330
1A
100
AcDbEntity
  8
寸法
100
AcDbDimension
  2
*D87
 10
6923.537714463041
 20
5970.703097597816
 30
0.0
 11
6813.207916493695
 21
5835.652535875009
 31
0.0
 70
   160
 71
     5
 42
124.0000000000054
  3
物置仕様図40
100
AcDbAlignedDimension
 13
6259.58479127592
 23
6094.703097597822
 33
0.0
 14
6298.08479127592
 24
5970.703097597816
 34
0.0
 50
90.0
100
AcDbRotatedDimension
1001
ACAD
1000
DSTYLE
1002
{
1070
    75
1070
     1
1002
}
  0
DIMENSION
  5
1F6E
330
1A
100
AcDbEntity
  8
寸法
100
AcDbDimension
  2
*D88
 10
6923.537714463041
 20
6094.703097597822
 30
0.0
 11
6823.525903439417
 21
7162.703097597821
 31
0.0
 70
    32
 71
     5
 42
2135.999999999997
  3
物置仕様図40
100
AcDbAlignedDimension
 13
6263.08479127592
 23
8230.703097597817
 33
0.0
 14
6259.58479127592
 24
6094.703097597822
 34
0.0
 50
90.0
100
AcDbRotatedDimension
1001
ACAD
1000
DSTYLE
1002
{
1070
    75
1070
     1
1002
}
  0
DIMENSION
  5
1F6F
330
1A
100
AcDbEntity
  8
寸法
100
AcDbDimension
  2
*D89
 10
6923.537714463041
 20
8230.703097597817
 30
0.0
 11
6828.977802946297
 21
8370.703097597818
 31
0.0
 70
   160
 71
     5
 42
280.0
  3
物置仕様図40
100
AcDbAlignedDimension
 13
6263.084791275919
 23
8510.703097597817
 33
0.0
 14
6263.08479127592
 24
8230.703097597817
 34
0.0
 50
90.0
100
AcDbRotatedDimension
1001
ACAD
1000
DSTYLE
1002
{
1070
    75
1070
     1
1002
}
  0
DIMENSION
  5
1F70
330
1A
100
AcDbEntity
  8
寸法
100
AcDbDimension
  2
*D90
 10
6923.537714463041
 20
8510.703097597817
 30
0.0
 11
6823.525903439417
 21
9578.70309759782
 31
0.0
 70
    32
 71
     5
 42
2136.000000000002
  3
物置仕様図40
100
AcDbAlignedDimension
 13
6259.584791275912
 23
10646.70309759782
 33
0.0
 14
6263.084791275919
 24
8510.703097597817
 34
0.0
 50
90.0
100
AcDbRotatedDimension
  0
DIMENSION
  5
1F71
330
1A
100
AcDbEntity
  8
寸法
100
AcDbDimension
  2
*D91
 10
2154.415140076315
 20
5970.703097597818
 30
0.0
 11
2054.415140076314
 21
8370.703097597818
 31
0.0
 70
    32
 71
     5
 42
4799.999999999999
  3
物置仕様図40
100
AcDbAlignedDimension
 13
3018.08479127592
 23
10770.70309759782
 33
0.0
 14
3018.08479127592
 24
5970.703097597818
 34
0.0
 50
90.0
100
AcDbRotatedDimension
  0
DIMENSION
  5
1F72
330
1A
100
AcDbEntity
  8
寸法
100
AcDbDimension
  2
*D92
 10
2434.415140076315
 20
5970.703097597818
 30
0.0
 11
2274.403329052692
 21
6089.203097597818
 31
0.0
 70
    32
 71
     5
 42
236.9999999999982
  3
物置仕様図40
100
AcDbAlignedDimension
 13
3008.08479127592
 23
6207.703097597816
 33
0.0
 14
3018.08479127592
 24
5970.703097597818
 34
0.0
 50
90.0
100
AcDbRotatedDimension
1001
ACAD
1000
DSTYLE
1002
{
1070
    75
1070
     1
1002
}
  0
DIMENSION
  5
1F73
330
1A
100
AcDbEntity
  8
寸法
100
AcDbDimension
  2
*D93
 10
2434.415140076315
 20
6207.703097597816
 30
0.0
 11
2334.403329052692
 21
6522.003097597817
 31
0.0
 70
    32
 71
     5
 42
628.6000000000021
  3
物置仕様図40
100
AcDbAlignedDimension
 13
3008.08479127592
 23
6836.303097597817
 33
0.0
 14
3008.08479127592
 24
6207.703097597816
 34
0.0
 50
90.0
100
AcDbRotatedDimension
1001
ACAD
1000
DSTYLE
1002
{
1070
    75
1070
     1
1002
}
  0
DIMENSION
  5
1F74
330
1A
100
AcDbEntity
  8
寸法
100
AcDbDimension
  2
*D94
 10
2434.415140076315
 20
6836.303097597817
 30
0.0
 11
2334.403329052692
 21
7150.603097597819
 31
0.0
 70
    32
 71
     5
 42
628.5999999999994
  3
物置仕様図40
100
AcDbAlignedDimension
 13
3008.08479127592
 23
7464.903097597818
 33
0.0
 14
3008.08479127592
 24
6836.303097597817
 34
0.0
 50
90.0
100
AcDbRotatedDimension
1001
ACAD
1000
DSTYLE
1002
{
1070
    75
1070
     1
1002
}
  0
DIMENSION
  5
1F75
330
1A
100
AcDbEntity
  8
寸法
100
AcDbDimension
  2
*D95
 10
2434.415140076315
 20
7464.903097597818
 30
0.0
 11
2274.415140076315
 21
7690.534124342296
 31
0.0
 70
   160
 71
     5
 42
628.6000000000021
  3
物置仕様図40
100
AcDbAlignedDimension
 13
3008.08479127592
 23
8093.503097597819
 33
0.0
 14
3008.08479127592
 24
7464.903097597818
 34
0.0
 50
90.0
100
AcDbRotatedDimension
1001
ACAD
1000
DSTYLE
1002
{
1070
    75
1070
     1
1002
}
  0
DIMENSION
  5
1F76
330
1A
100
AcDbEntity
  8
寸法
100
AcDbDimension
  2
*D96
 10
2434.415140076315
 20
8370.703097597818
 30
0.0
 11
2274.403329052693
 21
8607.235149128589
 31
0.0
 70
   160
 71
     5
 42
277.1999999999953
  3
物置仕様図40
100
AcDbAlignedDimension
 13
3008.08479127592
 23
8647.903097597813
 33
0.0
 14
3008.08479127592
 24
8370.703097597818
 34
0.0
 50
90.0
100
AcDbRotatedDimension
1001
ACAD
1000
DSTYLE
1002
{
1070
    75
1070
     1
1002
}
  0
DIMENSION
  5
1F77
330
1A
100
AcDbEntity
  8
寸法
100
AcDbDimension
  2
*D97
 10
2434.415140076315
 20
8647.903097597813
 30
0.0
 11
2274.415140076315
 21
9056.683617943612
 31
0.0
 70
   160
 71
     5
 42
628.6000000000021
  3
物置仕様図40
100
AcDbAlignedDimension
 13
3008.08479127592
 23
9276.503097597815
 33
0.0
 14
3008.08479127592
 24
8647.903097597813
 34
0.0
 50
90.0
100
AcDbRotatedDimension
1001
ACAD
1000
DSTYLE
1002
{
1070
    75
1070
     1
1002
}
  0
DIMENSION
  5
1F78
330
1A
100
AcDbEntity
  8
寸法
100
AcDbDimension
  2
*D98
 10
2434.415140076315
 20
9276.503097597815
 30
0.0
 11
2334.403329052691
 21
9590.803097597817
 31
0.0
 70
    32
 71
     5
 42
628.6000000000021
  3
物置仕様図40
100
AcDbAlignedDimension
 13
3008.08479127592
 23
9905.103097597818
 33
0.0
 14
3008.08479127592
 24
9276.503097597815
 34
0.0
 50
90.0
100
AcDbRotatedDimension
1001
ACAD
1000
DSTYLE
1002
{
1070
    75
1070
     1
1002
}
  0
DIMENSION
  5
1F79
330
1A
100
AcDbEntity
  8
寸法
100
AcDbDimension
  2
*D99
 10
2434.415140076315
 20
9905.103097597818
 30
0.0
 11
2334.403329052691
 21
10219.40309759781
 31
0.0
 70
    32
 71
     5
 42
628.6000000000004
  3
物置仕様図40
100
AcDbAlignedDimension
 13
3008.08479127592
 23
10533.70309759781
 33
0.0
 14
3008.08479127592
 24
9905.103097597818
 34
0.0
 50
90.0
100
AcDbRotatedDimension
1001
ACAD
1000
DSTYLE
1002
{
1070
    75
1070
     1
1002
}
  0
DIMENSION
  5
1F7A
330
1A
100
AcDbEntity
  8
寸法
100
AcDbDimension
  2
*D100
 10
2434.415140076315
 20
10533.70309759781
 30
0.0
 11
2274.403329052691
 21
10652.20309759782
 31
0.0
 70
    32
 71
     5
 42
237.0
  3
物置仕様図40
100
AcDbAlignedDimension
 13
3018.08479127592
 23
10770.70309759782
 33
0.0
 14
3008.08479127592
 24
10533.70309759781
 34
0.0
 50
90.0
100
AcDbRotatedDimension
  0
LINE
  5
1F7B
330
1A
100
AcDbEntity
  8
部品1
100
AcDbLine
 10
10566.32755088103
 20
4618.900949614033
 30
0.0
 11
10566.32755088103
 21
4503.773551864092
 31
0.0
  0
LINE
  5
1F7C
330
1A
100
AcDbEntity
  8
点線
 48
50.0
100
AcDbLine
 10
6088.084791275917
 20
2358.900949614033
 30
0.0
 11
6088.08479127592
 21
2038.900949614034
 31
0.0
  0
LINE
  5
1F7D
330
1A
100
AcDbEntity
  8
点線
 48
50.0
100
AcDbLine
 10
6028.08479127592
 20
2358.900949614033
 30
0.0
 11
6028.08479127592
 21
2038.900949614034
 31
0.0
  0
LINE
  5
1F7E
330
1A
100
AcDbEntity
  8
点線
 48
50.0
100
AcDbLine
 10
3288.08479127592
 20
2358.900949614033
 30
0.0
 11
3288.08479127592
 21
2038.900949614034
 31
0.0
  0
LINE
  5
1F7F
330
1A
100
AcDbEntity
  8
点線
 48
50.0
100
AcDbLine
 10
3228.08479127592
 20
2358.900949614033
 30
0.0
 11
3228.08479127592
 21
2038.900949614034
 31
0.0
  0
LINE
  5
1F80
330
1A
100
AcDbEntity
  8
部品1
100
AcDbLine
 10
6308.084791275922
 20
2358.900949614033
 30
0.0
 11
6308.084791275922
 21
2308.900949614034
 31
0.0
  0
LINE
  5
1F81
330
1A
100
AcDbEntity
  8
部品1
100
AcDbLine
 10
3008.08479127592
 20
2358.900949614033
 30
0.0
 11
3008.08479127592
 21
2308.900949614034
 31
0.0
  0
LINE
  5
1F82
330
1A
100
AcDbEntity
  8
部品1
100
AcDbLine
 10
3008.08479127592
 20
2358.900949614033
 30
0.0
 11
6308.08479127592
 21
2358.900949614033
 31
0.0
  0
LINE
  5
1F83
330
1A
100
AcDbEntity
  8
点線
 48
50.0
100
AcDbLine
 10
3288.08479127592
 20
2038.900949614034
 30
0.0
 11
3228.08479127592
 21
2038.900949614034
 31
0.0
  0
LINE
  5
1F84
330
1A
100
AcDbEntity
  8
点線
 48
50.0
100
AcDbLine
 10
6088.084791275917
 20
2038.900949614034
 30
0.0
 11
6028.08479127592
 21
2038.900949614034
 31
0.0
  0
LINE
  5
1F85
330
1A
100
AcDbEntity
  8
部品1
100
AcDbLine
 10
4675.58479127592
 20
2668.900949614036
 30
0.0
 11
4675.58479127592
 21
2603.900949614035
 31
0.0
  0
LINE
  5
1F86
330
1A
100
AcDbEntity
  8
部品1
100
AcDbLine
 10
4640.584791275919
 20
2668.900949614036
 30
0.0
 11
4640.584791275919
 21
2603.900949614035
 31
0.0
  0
LINE
  5
1F87
330
1A
100
AcDbEntity
  8
部品1
100
AcDbLine
 10
6028.08479127592
 20
2708.900949614035
 30
0.0
 11
3288.08479127592
 21
2708.900949614035
 31
0.0
  0
LINE
  5
1F88
330
1A
100
AcDbEntity
  8
部品1
100
AcDbLine
 10
6028.08479127592
 20
2668.900949614036
 30
0.0
 11
3288.08479127592
 21
2668.900949614036
 31
0.0
  0
LINE
  5
1F89
330
1A
100
AcDbEntity
  8
部品1
100
AcDbLine
 10
6028.08479127592
 20
3038.900949614035
 30
0.0
 11
3288.08479127592
 21
3038.900949614035
 31
0.0
  0
LINE
  5
1F8A
330
1A
100
AcDbEntity
  8
部品1
100
AcDbLine
 10
6028.08479127592
 20
3008.900949614035
 30
0.0
 11
3288.08479127592
 21
3008.900949614035
 31
0.0
  0
LINE
  5
1F8B
330
1A
100
AcDbEntity
  8
部品1
100
AcDbLine
 10
6028.08479127592
 20
2603.900949614035
 30
0.0
 11
3288.08479127592
 21
2603.900949614035
 31
0.0
  0
LINE
  5
1F8C
330
1A
100
AcDbEntity
  8
部品1
100
AcDbLine
 10
6028.08479127592
 20
3413.900949614035
 30
0.0
 11
3288.08479127592
 21
3413.900949614035
 31
0.0
  0
LINE
  5
1F8D
330
1A
100
AcDbEntity
  8
細線
100
AcDbLine
 10
6070.084791275922
 20
4263.583593652213
 30
0.0
 11
6070.08479127592
 21
4122.920282370682
 31
0.0
  0
LINE
  5
1F8E
330
1A
100
AcDbEntity
  8
細線
100
AcDbLine
 10
6046.084791275919
 20
4263.58359365221
 30
0.0
 11
6046.084791275919
 21
4122.920282370682
 31
0.0
  0
LINE
  5
1F8F
330
1A
100
AcDbEntity
  8
細線
100
AcDbLine
 10
6076.084791275921
 20
4263.583593652213
 30
0.0
 11
6076.084791275921
 21
4122.920282370682
 31
0.0
  0
LINE
  5
1F90
330
1A
100
AcDbEntity
  8
細線
100
AcDbLine
 10
6040.08479127592
 20
4263.58359365221
 30
0.0
 11
6040.08479127592
 21
4122.920282370682
 31
0.0
  0
LINE
  5
1F91
330
1A
100
AcDbEntity
  8
細線
100
AcDbLine
 10
3270.08479127592
 20
4263.58359365221
 30
0.0
 11
3270.08479127592
 21
4122.920282370682
 31
0.0
  0
LINE
  5
1F92
330
1A
100
AcDbEntity
  8
細線
100
AcDbLine
 10
3246.08479127592
 20
4263.58359365221
 30
0.0
 11
3246.08479127592
 21
4122.920282370682
 31
0.0
  0
LINE
  5
1F93
330
1A
100
AcDbEntity
  8
細線
100
AcDbLine
 10
3276.08479127592
 20
4263.58359365221
 30
0.0
 11
3276.08479127592
 21
4122.920282370682
 31
0.0
  0
LINE
  5
1F94
330
1A
100
AcDbEntity
  8
細線
100
AcDbLine
 10
3240.084791275921
 20
4263.583593652209
 30
0.0
 11
3240.084791275921
 21
4122.920282370682
 31
0.0
  0
ARC
  5
1F95
330
1A
100
AcDbEntity
  8
部品1
100
AcDbCircle
 10
6086.084791275919
 20
4268.583593652212
 30
0.0
 40
5.0
100
AcDbArc
 50
270.0
 51
0.0
  0
ARC
  5
1F96
330
1A
100
AcDbEntity
  8
部品1
100
AcDbCircle
 10
6030.08479127592
 20
4268.583593652211
 30
0.0
 40
5.0
100
AcDbArc
 50
180.0
 51
270.0
  0
ARC
  5
1F97
330
1A
100
AcDbEntity
  8
部品1
100
AcDbCircle
 10
3286.08479127592
 20
4268.583593652212
 30
0.0
 40
5.0
100
AcDbArc
 50
270.0
 51
0.0
  0
ARC
  5
1F98
330
1A
100
AcDbEntity
  8
部品1
100
AcDbCircle
 10
3230.08479127592
 20
4268.583593652211
 30
0.0
 40
5.0
100
AcDbArc
 50
180.0
 51
270.0
  0
LINE
  5
1F99
330
1A
100
AcDbEntity
  8
部品1
100
AcDbLine
 10
3225.08479127592
 20
4268.583593652211
 30
0.0
 11
3225.08479127592
 21
4122.920282370682
 31
0.0
  0
LINE
  5
1F9A
330
1A
100
AcDbEntity
  8
部品1
100
AcDbLine
 10
3291.08479127592
 20
4122.920282370682
 30
0.0
 11
3225.08479127592
 21
4122.920282370682
 31
0.0
  0
LINE
  5
1F9B
330
1A
100
AcDbEntity
  8
部品1
100
AcDbLine
 10
3286.08479127592
 20
4263.583593652213
 30
0.0
 11
3230.08479127592
 21
4263.58359365221
 31
0.0
  0
LINE
  5
1F9C
330
1A
100
AcDbEntity
  8
部品1
100
AcDbLine
 10
3291.08479127592
 20
4391.216331315403
 30
0.0
 11
3291.08479127592
 21
4122.920282370682
 31
0.0
  0
LINE
  5
1F9D
330
1A
100
AcDbEntity
  8
部品1
100
AcDbLine
 10
3225.08479127592
 20
4391.216331315403
 30
0.0
 11
3225.08479127592
 21
4268.583593652211
 31
0.0
  0
LINE
  5
1F9E
330
1A
100
AcDbEntity
  8
部品1
100
AcDbLine
 10
6091.084791275921
 20
4122.920282370682
 30
0.0
 11
6025.08479127592
 21
4122.920282370682
 31
0.0
  0
LINE
  5
1F9F
330
1A
100
AcDbEntity
  8
部品1
100
AcDbLine
 10
6091.08479127592
 20
4391.216331315403
 30
0.0
 11
6091.08479127592
 21
4122.920282370682
 31
0.0
  0
LINE
  5
1FA0
330
1A
100
AcDbEntity
  8
部品1
100
AcDbLine
 10
6025.08479127592
 20
4391.216331315403
 30
0.0
 11
6025.08479127592
 21
4122.920282370682
 31
0.0
  0
LINE
  5
1FA1
330
1A
100
AcDbEntity
  8
部品1
100
AcDbLine
 10
6086.084791275919
 20
4263.583593652213
 30
0.0
 11
6030.08479127592
 21
4263.58359365221
 31
0.0
  0
LINE
  5
1FA2
330
1A
100
AcDbEntity
  8
部品1
100
AcDbLine
 10
6263.08479127592
 20
4618.900949614033
 30
0.0
 11
6263.08479127592
 21
4505.900949614035
 31
0.0
  0
ARC
  5
1FA3
330
1A
100
AcDbEntity
  8
部品1
100
AcDbCircle
 10
6294.505670399505
 20
4492.900949614035
 30
0.0
 40
13.0
100
AcDbArc
 50
357.5036094784615
 51
90.0
  0
LINE
  5
1FA4
330
1A
100
AcDbEntity
  8
部品1
100
AcDbLine
 10
6307.505670399505
 20
4492.900949614035
 30
0.0
 11
6307.505670399505
 21
4605.900949614035
 31
0.0
  0
ARC
  5
1FA5
330
1A
100
AcDbEntity
  8
部品1
100
AcDbCircle
 10
6294.505670399505
 20
4605.900949614035
 30
0.0
 40
13.0
100
AcDbArc
 50
0.0
 51
90.0
  0
ARC
  5
1FA6
330
1A
100
AcDbEntity
  8
部品1
100
AcDbCircle
 10
6290.63921386792
 20
4404.216331315405
 30
0.0
 40
13.0
100
AcDbArc
 50
270.0
 51
357.5036094784615
  0
LINE
  5
1FA7
330
1A
100
AcDbEntity
  8
部品1
100
AcDbLine
 10
6285.08479127592
 20
4505.900949614035
 30
0.0
 11
6285.08479127592
 21
4391.216331315405
 31
0.0
  0
LINE
  5
1FA8
330
1A
100
AcDbEntity
  8
部品1
100
AcDbLine
 10
6307.493332977036
 20
4492.33471576462
 30
0.0
 11
6303.626876445451
 21
4403.65009746599
 31
0.0
  0
ARC
  5
1FA9
330
1A
100
AcDbEntity
  8
部品1
100
AcDbCircle
 10
3021.663912152335
 20
4605.900949614035
 30
0.0
 40
13.0
100
AcDbArc
 50
90.0
 51
180.0
  0
LINE
  5
1FAA
330
1A
100
AcDbEntity
  8
部品1
100
AcDbLine
 10
3008.663912152335
 20
4492.900949614035
 30
0.0
 11
3008.663912152335
 21
4605.900949614035
 31
0.0
  0
ARC
  5
1FAB
330
1A
100
AcDbEntity
  8
部品1
100
AcDbCircle
 10
3025.53036868392
 20
4404.216331315405
 30
0.0
 40
13.0
100
AcDbArc
 50
182.4963905215386
 51
270.0
  0
ARC
  5
1FAC
330
1A
100
AcDbEntity
  8
部品1
100
AcDbCircle
 10
3021.663912152335
 20
4492.900949614035
 30
0.0
 40
13.0
100
AcDbArc
 50
90.0
 51
182.4963905215386
  0
LINE
  5
1FAD
330
1A
100
AcDbEntity
  8
部品1
100
AcDbLine
 10
3031.08479127592
 20
4505.900949614035
 30
0.0
 11
3031.08479127592
 21
4391.216331315405
 31
0.0
  0
LINE
  5
1FAE
330
1A
100
AcDbEntity
  8
部品1
100
AcDbLine
 10
3008.676249574805
 20
4492.33471576462
 30
0.0
 11
3012.542706106389
 21
4403.65009746599
 31
0.0
  0
LINE
  5
1FAF
330
1A
100
AcDbEntity
  8
部品1
100
AcDbLine
 10
3053.08479127592
 20
4618.900949614033
 30
0.0
 11
3053.08479127592
 21
4505.900949614035
 31
0.0
  0
LINE
  5
1FB0
330
1A
100
AcDbEntity
  8
細線
100
AcDbLine
 10
6305.258704319398
 20
4441.079208836545
 30
0.0
 11
3010.910878232442
 21
4441.079208836545
 31
0.0
  0
LINE
  5
1FB1
330
1A
100
AcDbEntity
  8
細線
100
AcDbLine
 10
6304.736965188962
 20
4429.112118231475
 30
0.0
 11
3011.432617362878
 21
4429.112118231475
 31
0.0
  0
LINE
  5
1FB2
330
1A
100
AcDbEntity
  8
部品1
100
AcDbLine
 10
6290.63921386792
 20
4391.216331315405
 30
0.0
 11
3025.53036868392
 21
4391.216331315405
 31
0.0
  0
LINE
  5
1FB3
330
1A
100
AcDbEntity
  8
部品1
100
AcDbLine
 10
12966.32755088103
 20
2358.900949614033
 30
0.0
 11
12966.32755088103
 21
2308.900949614034
 31
0.0
  0
LINE
  5
1FB4
330
1A
100
AcDbEntity
  8
部品1
100
AcDbLine
 10
8166.327550881034
 20
2358.900949614033
 30
0.0
 11
8166.327550881034
 21
2308.900949614034
 31
0.0
  0
LINE
  5
1FB5
330
1A
100
AcDbEntity
  8
点線
 48
50.0
100
AcDbLine
 10
12186.32755088103
 20
2038.900949614034
 30
0.0
 11
12246.32755088103
 21
2038.900949614034
 31
0.0
  0
LINE
  5
1FB6
330
1A
100
AcDbEntity
  8
点線
 48
50.0
100
AcDbLine
 10
12246.32755088103
 20
2358.900949614033
 30
0.0
 11
12246.32755088103
 21
2038.900949614034
 31
0.0
  0
LINE
  5
1FB7
330
1A
100
AcDbEntity
  8
点線
 48
50.0
100
AcDbLine
 10
12186.32755088103
 20
2358.900949614033
 30
0.0
 11
12186.32755088103
 21
2038.900949614034
 31
0.0
  0
LINE
  5
1FB8
330
1A
100
AcDbEntity
  8
点線
 48
50.0
100
AcDbLine
 10
10536.32755088103
 20
2038.900949614034
 30
0.0
 11
10596.32755088103
 21
2038.900949614034
 31
0.0
  0
LINE
  5
1FB9
330
1A
100
AcDbEntity
  8
点線
 48
50.0
100
AcDbLine
 10
10596.32755088103
 20
2358.900949614033
 30
0.0
 11
10596.32755088103
 21
2038.900949614034
 31
0.0
  0
LINE
  5
1FBA
330
1A
100
AcDbEntity
  8
点線
 48
50.0
100
AcDbLine
 10
10536.32755088103
 20
2358.900949614033
 30
0.0
 11
10536.32755088103
 21
2038.900949614034
 31
0.0
  0
LINE
  5
1FBB
330
1A
100
AcDbEntity
  8
部品1
100
AcDbLine
 10
8166.327550881034
 20
2358.900949614033
 30
0.0
 11
12966.32755088103
 21
2358.900949614033
 31
0.0
  0
LINE
  5
1FBC
330
1A
100
AcDbEntity
  8
点線
 48
50.0
100
AcDbLine
 10
8946.327550881036
 20
2358.900949614033
 30
0.0
 11
8946.327550881033
 21
2038.900949614034
 31
0.0
  0
LINE
  5
1FBD
330
1A
100
AcDbEntity
  8
点線
 48
50.0
100
AcDbLine
 10
8886.327550881032
 20
2358.900949614033
 30
0.0
 11
8886.327550881032
 21
2038.900949614034
 31
0.0
  0
ARC
  5
1FBE
330
1A
100
AcDbEntity
  8
部品1
100
AcDbCircle
 10
8180.384097710248
 20
4493.548377209133
 30
0.0
 40
13.0
100
AcDbArc
 50
92.69568549355007
 51
184.687779066474
  0
ARC
  5
1FBF
330
1A
100
AcDbEntity
  8
部品1
100
AcDbCircle
 10
8187.662103928083
 20
4404.792455221497
 30
0.0
 40
13.0
100
AcDbArc
 50
184.687779066474
 51
272.69568549355
  0
ARC
  5
1FC0
330
1A
100
AcDbEntity
  8
部品1
100
AcDbCircle
 10
8336.315497464473
 20
4373.248901949437
 30
0.0
 40
5.0
100
AcDbArc
 50
92.69568549355007
 51
194.3850546689469
  0
LINE
  5
1FC1
330
1A
100
AcDbEntity
  8
部品1
100
AcDbLine
 10
8357.352843924223
 20
4271.099221368149
 30
0.0
 11
8331.472257475731
 21
4372.006715807407
 31
0.0
  0
ARC
  5
1FC2
330
1A
100
AcDbEntity
  8
部品1
100
AcDbCircle
 10
8367.039323901707
 20
4273.583593652211
 30
0.0
 40
10.0
100
AcDbArc
 50
194.3850546689469
 51
272.69568549355
  0
LINE
  5
1FC3
330
1A
100
AcDbEntity
  8
部品1
100
AcDbLine
 10
8167.427584773811
 20
4492.485940139009
 30
0.0
 11
8175.731716218681
 21
4391.216331315405
 31
0.0
  0
LINE
  5
1FC4
330
1A
100
AcDbEntity
  8
部品1
100
AcDbLine
 10
8189.315992972884
 20
4506.983322095859
 30
0.0
 11
8198.720158310537
 21
4392.29870379723
 31
0.0
  0
LINE
  5
1FC5
330
1A
100
AcDbEntity
  8
部品1
100
AcDbLine
 10
8431.868641208378
 20
4403.27611153367
 30
0.0
 11
8432.973875156337
 21
4379.802116178804
 31
0.0
  0
LINE
  5
1FC6
330
1A
100
AcDbEntity
  8
部品1
100
AcDbLine
 10
8382.623195634122
 20
4400.95747180455
 30
0.0
 11
8383.728429582085
 21
4377.483476449684
 31
0.0
  0
LINE
  5
1FC7
330
1A
100
AcDbEntity
  8
部品1
100
AcDbLine
 10
8428.978301478913
 20
4379.613991251491
 30
0.0
 11
8434.259908813201
 21
4267.438260257812
 31
0.0
  0
LINE
  5
1FC8
330
1A
100
AcDbEntity
  8
部品1
100
AcDbLine
 10
8388.023671285319
 20
4377.685710746543
 30
0.0
 11
8393.305278619605
 21
4265.509979752863
 31
0.0
  0
LINE
  5
1FC9
330
1A
100
AcDbEntity
  8
部品1
100
AcDbLine
 10
8393.305278619607
 20
4265.509979752863
 30
0.0
 11
8434.259908813201
 21
4267.438260257812
 31
0.0
  0
LINE
  5
1FCA
330
1A
100
AcDbEntity
  8
部品1
100
AcDbLine
 10
8391.199319947691
 20
4267.713372153728
 30
0.0
 11
8393.1971067864
 21
4267.807434617384
 31
0.0
  0
LINE
  5
1FCB
330
1A
100
AcDbEntity
  8
部品1
100
AcDbLine
 10
8386.025884446606
 20
4377.591648282886
 30
0.0
 11
8391.340413643176
 21
4264.71669189566
 31
0.0
  0
LINE
  5
1FCC
330
1A
100
AcDbEntity
  8
部品1
100
AcDbLine
 10
8336.080341305333
 20
4378.243369046217
 30
0.0
 11
8383.5873358866
 21
4380.480156707752
 31
0.0
  0
LINE
  5
1FCD
330
1A
100
AcDbEntity
  8
部品1
100
AcDbLine
 10
8367.509636219988
 20
4263.594659458649
 30
0.0
 11
8391.340413643176
 21
4264.716691895659
 31
0.0
  0
LINE
  5
1FCE
330
1A
100
AcDbEntity
  8
部品1
100
AcDbLine
 10
8729.127550881029
 20
4280.12028237068
 30
0.0
 11
8772.389271539092
 21
4282.157188384998
 31
0.0
  0
LINE
  5
1FCF
330
1A
100
AcDbEntity
  8
部品1
100
AcDbLine
 10
8729.127550881033
 20
4280.12028237068
 30
0.0
 11
8726.728958057782
 21
4331.063846757832
 31
0.0
  0
ARC
  5
1FD0
330
1A
100
AcDbEntity
  8
部品1
100
AcDbCircle
 10
8736.717892251341
 20
4331.534159076116
 30
0.0
 40
10.0
100
AcDbArc
 50
92.69568549355007
 51
182.6956854935742
  0
CIRCLE
  5
1FD1
330
1A
100
AcDbEntity
  8
細線
100
AcDbCircle
 10
8757.54816048534
 20
4314.995530924678
 30
0.0
 40
8.0
  0
LWPOLYLINE
  5
1FD2
330
1A
100
AcDbEntity
  8
細線
100
AcDbPolyline
 90
        6
 70
     1
 43
0.0
 10
8751.048160485341
 20
4318.74830767441
 10
8757.54816048534
 20
4322.501084424142
 10
8764.048160485343
 20
4318.74830767441
 10
8764.048160485343
 20
4311.242754174946
 10
8757.54816048534
 20
4307.489977425214
 10
8751.048160485341
 20
4311.242754174946
  0
CIRCLE
  5
1FD3
330
1A
100
AcDbEntity
  8
細線
100
AcDbCircle
 10
8757.54816048534
 20
4314.995530924678
 30
0.0
 40
6.0
  0
LINE
  5
1FD4
330
1A
100
AcDbEntity
  8
部品1
100
AcDbLine
 10
9016.623671285319
 20
4407.282294079876
 30
0.0
 11
9018.763592333495
 21
4361.832643499176
 31
0.0
  0
ARC
  5
1FD5
330
1A
100
AcDbEntity
  8
部品1
100
AcDbCircle
 10
9023.758059430274
 20
4362.067799658318
 30
0.0
 40
5.0
100
AcDbArc
 50
182.6956854935742
 51
272.69568549355
  0
CIRCLE
  5
1FD6
330
1A
100
AcDbEntity
  8
細線
100
AcDbCircle
 10
8969.313565388819
 20
4324.966152072215
 30
0.0
 40
6.0
  0
LWPOLYLINE
  5
1FD7
330
1A
100
AcDbEntity
  8
細線
100
AcDbPolyline
 90
        6
 70
     1
 43
0.0
 10
8962.813565388819
 20
4328.718928821947
 10
8969.313565388819
 20
4332.47170557168
 10
8975.813565388818
 20
4328.718928821947
 10
8975.813565388818
 20
4321.213375322482
 10
8969.313565388819
 20
4317.46059857275
 10
8962.813565388819
 20
4321.213375322482
  0
CIRCLE
  5
1FD8
330
1A
100
AcDbEntity
  8
細線
100
AcDbCircle
 10
8969.313565388819
 20
4324.966152072215
 30
0.0
 40
8.0
  0
CIRCLE
  5
1FD9
330
1A
100
AcDbEntity
  8
細線
100
AcDbCircle
 10
8916.327550881032
 20
4237.920282370682
 30
0.0
 40
6.0
  0
LWPOLYLINE
  5
1FDA
330
1A
100
AcDbEntity
  8
細線
100
AcDbPolyline
 90
        6
 70
     1
 43
0.0
 10
8909.827550881031
 20
4241.673059120414
 10
8916.327550881032
 20
4245.425835870146
 10
8922.827550881031
 20
4241.673059120414
 10
8922.827550881031
 20
4234.167505620949
 10
8916.327550881032
 20
4230.414728871217
 10
8909.827550881031
 20
4234.167505620949
  0
CIRCLE
  5
1FDB
330
1A
100
AcDbEntity
  8
細線
100
AcDbCircle
 10
8916.327550881032
 20
4237.920282370682
 30
0.0
 40
8.0
  0
CIRCLE
  5
1FDC
330
1A
100
AcDbEntity
  8
細線
100
AcDbCircle
 10
8863.430862937081
 20
4319.980841498447
 30
0.0
 40
6.0
  0
LWPOLYLINE
  5
1FDD
330
1A
100
AcDbEntity
  8
細線
100
AcDbPolyline
 90
        6
 70
     1
 43
0.0
 10
8856.930862937081
 20
4323.733618248177
 10
8863.430862937081
 20
4327.486394997912
 10
8869.93086293708
 20
4323.733618248177
 10
8869.93086293708
 20
4316.228064748712
 10
8863.430862937081
 20
4312.475287998982
 10
8856.930862937081
 20
4316.228064748712
  0
CIRCLE
  5
1FDE
330
1A
100
AcDbEntity
  8
細線
100
AcDbCircle
 10
8863.430862937081
 20
4319.980841498447
 30
0.0
 40
8.0
  0
LINE
  5
1FDF
330
1A
100
AcDbEntity
  8
部品1
100
AcDbLine
 10
9011.223195634123
 20
4430.554055137883
 30
0.0
 11
9012.328429582085
 21
4407.080059783016
 31
0.0
  0
LINE
  5
1FE0
330
1A
100
AcDbEntity
  8
部品1
100
AcDbLine
 10
9064.683803061674
 20
4295.919389244187
 30
0.0
 11
9116.727550881035
 21
4298.369782370679
 31
0.0
  0
LINE
  5
1FE1
330
1A
100
AcDbEntity
  8
部品1
100
AcDbLine
 10
9116.727550881034
 20
4298.36978237068
 30
0.0
 11
9114.328958057805
 21
4349.313346757834
 31
0.0
  0
ARC
  5
1FE2
330
1A
100
AcDbEntity
  8
部品1
100
AcDbCircle
 10
9104.340023864246
 20
4348.843034439553
 30
0.0
 40
10.0
100
AcDbArc
 50
2.695685493574268
 51
92.69568549355007
  0
LINE
  5
1FE3
330
1A
100
AcDbEntity
  8
部品1
100
AcDbLine
 10
9057.578301478914
 20
4409.210574584825
 30
0.0
 11
9059.718222527088
 21
4363.760924004125
 31
0.0
  0
ARC
  5
1FE4
330
1A
100
AcDbEntity
  8
部品1
100
AcDbCircle
 10
9054.723755430307
 20
4363.525767844985
 30
0.0
 40
5.0
100
AcDbArc
 50
272.69568549355
 51
2.695685493574268
  0
CIRCLE
  5
1FE5
330
1A
100
AcDbEntity
  8
細線
100
AcDbCircle
 10
9075.196267840555
 20
4329.951462645982
 30
0.0
 40
6.0
  0
LWPOLYLINE
  5
1FE6
330
1A
100
AcDbEntity
  8
細線
100
AcDbPolyline
 90
        6
 70
     1
 43
0.0
 10
9068.696267840556
 20
4333.704239395716
 10
9075.196267840555
 20
4337.457016145446
 10
9081.696267840554
 20
4333.704239395716
 10
9081.696267840554
 20
4326.198685896252
 10
9075.196267840555
 20
4322.445909146518
 10
9068.696267840556
 20
4326.198685896252
  0
CIRCLE
  5
1FE7
330
1A
100
AcDbEntity
  8
細線
100
AcDbCircle
 10
9075.196267840555
 20
4329.951462645982
 30
0.0
 40
8.0
  0
LINE
  5
1FE8
330
1A
100
AcDbEntity
  8
部品1
100
AcDbLine
 10
9060.468641208379
 20
4432.872694867004
 30
0.0
 11
9061.573875156337
 21
4409.398699512137
 31
0.0
  0
LINE
  5
1FE9
330
1A
100
AcDbEntity
  8
部品1
100
AcDbLine
 10
9023.993215589415
 20
4357.073332561536
 30
0.0
 11
9054.95891158945
 21
4358.531300748206
 31
0.0
  0
LINE
  5
1FEA
330
1A
100
AcDbEntity
  8
部品1
100
AcDbLine
 10
8736.247579933062
 20
4341.523093269676
 30
0.0
 11
9103.869711545966
 21
4358.831968633114
 31
0.0
  0
LINE
  5
1FEB
330
1A
100
AcDbEntity
  8
部品1
100
AcDbLine
 10
9639.823195634125
 20
4460.150638471215
 30
0.0
 11
9640.928429582086
 21
4436.67664311635
 31
0.0
  0
LINE
  5
1FEC
330
1A
100
AcDbEntity
  8
部品1
100
AcDbLine
 10
9645.22367128532
 20
4436.878877413208
 30
0.0
 11
9650.505278619608
 21
4324.703146419529
 31
0.0
  0
LINE
  5
1FED
330
1A
100
AcDbEntity
  8
部品1
100
AcDbLine
 10
9689.068641208379
 20
4462.469278200337
 30
0.0
 11
9690.173875156338
 21
4438.995282845469
 31
0.0
  0
LINE
  5
1FEE
330
1A
100
AcDbEntity
  8
部品1
100
AcDbLine
 10
9686.178301478914
 20
4438.80715791816
 30
0.0
 11
9691.459908813202
 21
4326.631426924477
 31
0.0
  0
LINE
  5
1FEF
330
1A
100
AcDbEntity
  8
部品1
100
AcDbLine
 10
9650.505278619609
 20
4324.703146419529
 30
0.0
 11
9691.459908813202
 21
4326.631426924477
 31
0.0
  0
LINE
  5
1FF0
330
1A
100
AcDbEntity
  8
部品1
100
AcDbLine
 10
9116.562941569638
 20
4301.865909338427
 30
0.0
 11
9650.397106786405
 21
4327.00060128405
 31
0.0
  0
LINE
  5
1FF1
330
1A
100
AcDbEntity
  8
部品1
100
AcDbLine
 10
10268.42319563412
 20
4489.747221804549
 30
0.0
 11
10269.52842958208
 21
4466.273226449684
 31
0.0
  0
LINE
  5
1FF2
330
1A
100
AcDbEntity
  8
部品1
100
AcDbLine
 10
10317.66864120837
 20
4492.06586153367
 30
0.0
 11
10318.77387515633
 21
4468.591866178804
 31
0.0
  0
LINE
  5
1FF3
330
1A
100
AcDbEntity
  8
部品1
100
AcDbLine
 10
10279.1052786196
 20
4354.299729752863
 30
0.0
 11
10320.0599088132
 21
4356.228010257811
 31
0.0
  0
LINE
  5
1FF4
330
1A
100
AcDbEntity
  8
部品1
100
AcDbLine
 10
10321.32755088103
 20
4355.086365704013
 30
0.0
 11
10322.92130451543
 21
4355.161404937633
 31
0.0
  0
LINE
  5
1FF5
330
1A
100
AcDbEntity
  8
部品1
100
AcDbLine
 10
10319.95173697999
 20
4358.525465122331
 30
0.0
 11
10321.16294156963
 21
4358.582492671761
 31
0.0
  0
LINE
  5
1FF6
330
1A
100
AcDbEntity
  8
部品1
100
AcDbLine
 10
10321.32755088103
 20
4355.086365704013
 30
0.0
 11
10318.9289580578
 21
4406.029930091157
 31
0.0
  0
ARC
  5
1FF7
330
1A
100
AcDbEntity
  8
部品1
100
AcDbCircle
 10
10328.91789225136
 20
4406.500242409438
 30
0.0
 40
10.0
100
AcDbArc
 50
92.69568549355007
 51
182.6956854935742
  0
LINE
  5
1FF8
330
1A
100
AcDbEntity
  8
部品1
100
AcDbLine
 10
10314.77830147891
 20
4468.403741251491
 30
0.0
 11
10320.0599088132
 21
4356.228010257811
 31
0.0
  0
LINE
  5
1FF9
330
1A
100
AcDbEntity
  8
部品1
100
AcDbLine
 10
10273.82367128532
 20
4466.475460746544
 30
0.0
 11
10279.1052786196
 21
4354.299729752863
 31
0.0
  0
LINE
  5
1FFA
330
1A
100
AcDbEntity
  8
部品1
100
AcDbLine
 10
10566.32755088103
 20
4427.689358568463
 30
0.0
 11
10563.85841121006
 21
4480.131263084667
 31
0.0
  0
CIRCLE
  5
1FFB
330
1A
100
AcDbEntity
  8
細線
100
AcDbCircle
 10
10443.61478861494
 20
4394.381167999101
 30
0.0
 40
6.0
  0
LWPOLYLINE
  5
1FFC
330
1A
100
AcDbEntity
  8
細線
100
AcDbPolyline
 90
        6
 70
     1
 43
0.0
 10
10437.11478861494
 20
4398.133944748831
 10
10443.61478861494
 20
4401.886721498565
 10
10450.11478861494
 20
4398.133944748831
 10
10450.11478861494
 20
4390.628391249367
 10
10443.61478861494
 20
4386.875614499636
 10
10437.11478861494
 20
4390.628391249367
  0
CIRCLE
  5
1FFD
330
1A
100
AcDbEntity
  8
細線
100
AcDbCircle
 10
10443.61478861494
 20
4394.381167999101
 30
0.0
 40
8.0
  0
CIRCLE
  5
1FFE
330
1A
100
AcDbEntity
  8
細線
100
AcDbCircle
 10
10545.50191738925
 20
4399.178353645557
 30
0.0
 40
6.0
  0
LWPOLYLINE
  5
1FFF
330
1A
100
AcDbEntity
  8
細線
100
AcDbPolyline
 90
        6
 70
     1
 43
0.0
 10
10539.00191738925
 20
4402.931130395289
 10
10545.50191738925
 20
4406.683907145021
 10
10552.00191738925
 20
4402.931130395289
 10
10552.00191738925
 20
4395.425576895824
 10
10545.50191738925
 20
4391.672800146092
 10
10539.00191738925
 20
4395.425576895824
  0
CIRCLE
  5
2000
330
1A
100
AcDbEntity
  8
細線
100
AcDbCircle
 10
10545.50191738925
 20
4399.178353645557
 30
0.0
 40
8.0
  0
CIRCLE
  5
2001
330
1A
100
AcDbEntity
  8
細線
100
AcDbCircle
 10
10566.32755088103
 20
4294.086365704013
 30
0.0
 40
6.0
  0
LWPOLYLINE
  5
2002
330
1A
100
AcDbEntity
  8
細線
100
AcDbPolyline
 90
        6
 70
     1
 43
0.0
 10
10559.82755088103
 20
4297.839142453745
 10
10566.32755088103
 20
4301.591919203477
 10
10572.82755088103
 20
4297.839142453745
 10
10572.82755088103
 20
4290.333588954282
 10
10566.32755088103
 20
4286.580812204549
 10
10559.82755088103
 20
4290.333588954282
  0
CIRCLE
  5
2003
330
1A
100
AcDbEntity
  8
細線
100
AcDbCircle
 10
10566.32755088103
 20
4294.086365704013
 30
0.0
 40
8.0
  0
LINE
  5
2004
330
1A
100
AcDbEntity
  8
部品1
100
AcDbLine
 10
10328.44757993308
 20
4416.489176602998
 30
0.0
 11
10566.32755088103
 21
4427.689358568463
 31
0.0
  0
CIRCLE
  5
2005
330
1A
100
AcDbEntity
  8
細線
100
AcDbCircle
 10
10341.72765984063
 20
4389.583982352643
 30
0.0
 40
6.0
  0
LWPOLYLINE
  5
2006
330
1A
100
AcDbEntity
  8
細線
100
AcDbPolyline
 90
        6
 70
     1
 43
0.0
 10
10335.22765984063
 20
4393.336759102376
 10
10341.72765984063
 20
4397.089535852108
 10
10348.22765984062
 20
4393.336759102376
 10
10348.22765984062
 20
4385.831205602912
 10
10341.72765984063
 20
4382.078428853179
 10
10335.22765984063
 20
4385.831205602912
  0
CIRCLE
  5
2007
330
1A
100
AcDbEntity
  8
細線
100
AcDbCircle
 10
10341.72765984063
 20
4389.583982352643
 30
0.0
 40
8.0
  0
LINE
  5
2008
330
1A
100
AcDbEntity
  8
部品1
100
AcDbLine
 10
9691.351736979999
 20
4328.928881788997
 30
0.0
 11
10278.9971067864
 21
4356.597184617384
 31
0.0
  0
LINE
  5
2009
330
1A
100
AcDbEntity
  8
部品1
100
AcDbLine
 10
8882.327550881033
 20
4122.920282370682
 30
0.0
 11
8950.327550881034
 21
4122.92028237068
 31
0.0
  0
LINE
  5
200A
330
1A
100
AcDbEntity
  8
部品1
100
AcDbLine
 10
8882.327550881033
 20
4177.273379352617
 30
0.0
 11
8882.327550881033
 21
4122.920282370682
 31
0.0
  0
LINE
  5
200B
330
1A
100
AcDbEntity
  8
部品1
100
AcDbLine
 10
8950.327550881032
 20
4176.052178921465
 30
0.0
 11
8950.327550881032
 21
4122.92028237068
 31
0.0
  0
CIRCLE
  5
200C
330
1A
100
AcDbEntity
  8
細線
100
AcDbCircle
 10
8916.327550881032
 20
4152.920282370682
 30
0.0
 40
6.0
  0
LWPOLYLINE
  5
200D
330
1A
100
AcDbEntity
  8
細線
100
AcDbPolyline
 90
        6
 70
     1
 43
0.0
 10
8909.827550881031
 20
4156.673059120413
 10
8916.327550881032
 20
4160.425835870146
 10
8922.827550881031
 20
4156.673059120413
 10
8922.827550881031
 20
4149.167505620949
 10
8916.327550881032
 20
4145.414728871218
 10
8909.827550881031
 20
4149.167505620949
  0
CIRCLE
  5
200E
330
1A
100
AcDbEntity
  8
細線
100
AcDbCircle
 10
8916.327550881032
 20
4152.920282370682
 30
0.0
 40
8.0
  0
LINE
  5
200F
330
1A
100
AcDbEntity
  8
部品1
100
AcDbLine
 10
10532.32029473677
 20
4157.086365704013
 30
0.0
 11
10566.32755088103
 21
4157.086365704013
 31
0.0
  0
LINE
  5
2010
330
1A
100
AcDbEntity
  8
部品1
100
AcDbLine
 10
8946.327550881033
 20
2558.900949614034
 30
0.0
 11
10536.32755088103
 21
2558.900949614035
 31
0.0
  0
LINE
  5
2011
330
1A
100
AcDbEntity
  8
細線
100
AcDbLine
 10
8946.327550881033
 20
2661.900949614034
 30
0.0
 11
10536.32755088103
 21
2661.900949614036
 31
0.0
  0
LINE
  5
2012
330
1A
100
AcDbEntity
  8
細線
100
AcDbLine
 10
8946.327550881033
 20
2673.900949614033
 30
0.0
 11
10536.32755088103
 21
2673.900949614035
 31
0.0
  0
LINE
  5
2013
330
1A
100
AcDbEntity
  8
細線
100
AcDbLine
 10
8946.327550881033
 20
3002.900949614033
 30
0.0
 11
10536.32755088103
 21
3002.900949614036
 31
0.0
  0
LINE
  5
2014
330
1A
100
AcDbEntity
  8
細線
100
AcDbLine
 10
8946.327550881033
 20
2996.900949614034
 30
0.0
 11
10536.32755088103
 21
2996.900949614035
 31
0.0
  0
LINE
  5
2015
330
1A
100
AcDbEntity
  8
部品1
100
AcDbLine
 10
8946.327550881033
 20
3458.900949614033
 30
0.0
 11
10536.32755088103
 21
3458.900949614036
 31
0.0
  0
LINE
  5
2016
330
1A
100
AcDbEntity
  8
細線
100
AcDbLine
 10
8946.327550881033
 20
3355.900949614034
 30
0.0
 11
10536.32755088103
 21
3355.900949614035
 31
0.0
  0
LINE
  5
2017
330
1A
100
AcDbEntity
  8
細線
100
AcDbLine
 10
8946.327550881033
 20
3343.900949614034
 30
0.0
 11
10536.32755088103
 21
3343.900949614035
 31
0.0
  0
ARC
  5
2018
330
1A
100
AcDbEntity
  8
部品1
100
AcDbCircle
 10
8777.327550881032
 20
4177.273379352617
 30
0.0
 40
105.0
100
AcDbArc
 50
0.0
 51
92.69568549355007
  0
ARC
  5
2019
330
1A
100
AcDbEntity
  8
部品1
100
AcDbCircle
 10
9070.327550881033
 20
4176.052178921465
 30
0.0
 40
120.0
100
AcDbArc
 50
92.69568549355007
 51
180.0
  0
ARC
  5
201A
330
1A
100
AcDbEntity
  8
部品1
100
AcDbCircle
 10
10332.32755088103
 20
4155.382721066431
 30
0.0
 40
200.0
100
AcDbArc
 50
0.4880641401187
 51
92.69568549355007
  0
CIRCLE
  5
201B
330
1A
100
AcDbEntity
  8
細線
100
AcDbCircle
 10
10566.32755088103
 20
4192.086365704013
 30
0.0
 40
6.0
  0
LWPOLYLINE
  5
201C
330
1A
100
AcDbEntity
  8
細線
100
AcDbPolyline
 90
        6
 70
     1
 43
0.0
 10
10559.82755088103
 20
4195.839142453746
 10
10566.32755088103
 20
4199.591919203478
 10
10572.82755088103
 20
4195.839142453746
 10
10572.82755088103
 20
4188.333588954281
 10
10566.32755088103
 20
4184.580812204549
 10
10559.82755088103
 20
4188.333588954281
  0
CIRCLE
  5
201D
330
1A
100
AcDbEntity
  8
細線
100
AcDbCircle
 10
10566.32755088103
 20
4192.086365704013
 30
0.0
 40
8.0
  0
LINE
  5
201E
330
1A
100
AcDbEntity
  8
部品1
100
AcDbLine
 10
8434.151736979996
 20
4269.735715122331
 30
0.0
 11
8728.962941569632
 21
4283.616409338427
 31
0.0
  0
LINE
  5
201F
330
1A
100
AcDbEntity
  8
部品1
100
AcDbLine
 10
8179.772691696483
 20
4506.533991660762
 30
0.0
 11
10566.32755088103
 21
4618.900949614033
 31
0.0
  0
LINE
  5
2020
330
1A
100
AcDbEntity
  8
細線
100
AcDbLine
 10
8171.64294868057
 20
4441.079208836547
 30
0.0
 11
10566.32755088103
 21
4553.828942190153
 31
0.0
  0
LINE
  5
2021
330
1A
100
AcDbEntity
  8
細線
100
AcDbLine
 10
8172.624252889715
 20
4429.112118231475
 30
0.0
 11
10566.32755088103
 21
4541.815648511898
 31
0.0
  0
LINE
  5
2022
330
1A
100
AcDbEntity
  8
部品1
100
AcDbLine
 10
8166.327550881034
 20
4390.773551864091
 30
0.0
 11
10566.32755088103
 21
4503.773551864092
 31
0.0
  0
LINE
  5
2023
330
1A
100
AcDbEntity
  8
部品1
100
AcDbLine
 10
8383.728429582086
 20
4377.483476449683
 30
0.0
 11
10563.85841121006
 21
4480.131263084667
 31
0.0
  0
LINE
  5
2024
330
1A
100
AcDbEntity
  8
部品1
100
AcDbLine
 10
8946.327550881035
 20
4122.92028237068
 30
0.0
 11
8946.327550881035
 21
2358.900949614033
 31
0.0
  0
LINE
  5
2025
330
1A
100
AcDbEntity
  8
部品1
100
AcDbLine
 10
8886.327550881032
 20
4122.920282370682
 30
0.0
 11
8886.327550881032
 21
2358.900949614033
 31
0.0
  0
LINE
  5
2026
330
1A
100
AcDbEntity
  8
部品1
100
AcDbLine
 10
10536.32755088103
 20
4157.086365704013
 30
0.0
 11
10536.32755088103
 21
2358.900949614033
 31
0.0
  0
CIRCLE
  5
2027
330
1A
100
AcDbEntity
  8
細線
100
AcDbCircle
 10
10566.32755088103
 20
4192.086365704013
 30
0.0
 40
8.0
  0
LWPOLYLINE
  5
2028
330
1A
100
AcDbEntity
  8
細線
100
AcDbPolyline
 90
        6
 70
     1
 43
0.0
 10
10572.82755088103
 20
4195.839142453746
 10
10566.32755088103
 20
4199.591919203478
 10
10559.82755088103
 20
4195.839142453746
 10
10559.82755088103
 20
4188.333588954281
 10
10566.32755088103
 20
4184.580812204549
 10
10572.82755088103
 20
4188.333588954281
  0
CIRCLE
  5
2029
330
1A
100
AcDbEntity
  8
細線
100
AcDbCircle
 10
10566.32755088103
 20
4192.086365704013
 30
0.0
 40
6.0
  0
CIRCLE
  5
202A
330
1A
100
AcDbEntity
  8
細線
100
AcDbCircle
 10
10566.32755088103
 20
4294.086365704013
 30
0.0
 40
8.0
  0
LWPOLYLINE
  5
202B
330
1A
100
AcDbEntity
  8
細線
100
AcDbPolyline
 90
        6
 70
     1
 43
0.0
 10
10572.82755088103
 20
4297.839142453745
 10
10566.32755088103
 20
4301.591919203477
 10
10559.82755088103
 20
4297.839142453745
 10
10559.82755088103
 20
4290.333588954282
 10
10566.32755088103
 20
4286.580812204549
 10
10572.82755088103
 20
4290.333588954282
  0
CIRCLE
  5
202C
330
1A
100
AcDbEntity
  8
細線
100
AcDbCircle
 10
10566.32755088103
 20
4294.086365704013
 30
0.0
 40
6.0
  0
CIRCLE
  5
202D
330
1A
100
AcDbEntity
  8
細線
100
AcDbCircle
 10
10790.92744192144
 20
4389.583982352643
 30
0.0
 40
8.0
  0
LWPOLYLINE
  5
202E
330
1A
100
AcDbEntity
  8
細線
100
AcDbPolyline
 90
        6
 70
     1
 43
0.0
 10
10797.42744192144
 20
4393.336759102376
 10
10790.92744192144
 20
4397.089535852108
 10
10784.42744192144
 20
4393.336759102376
 10
10784.42744192144
 20
4385.831205602912
 10
10790.92744192144
 20
4382.078428853179
 10
10797.42744192144
 20
4385.831205602912
  0
CIRCLE
  5
202F
330
1A
100
AcDbEntity
  8
細線
100
AcDbCircle
 10
10790.92744192144
 20
4389.583982352643
 30
0.0
 40
6.0
  0
CIRCLE
  5
2030
330
1A
100
AcDbEntity
  8
細線
100
AcDbCircle
 10
10689.04031314712
 20
4394.381167999101
 30
0.0
 40
8.0
  0
LWPOLYLINE
  5
2031
330
1A
100
AcDbEntity
  8
細線
100
AcDbPolyline
 90
        6
 70
     1
 43
0.0
 10
10695.54031314712
 20
4398.133944748831
 10
10689.04031314712
 20
4401.886721498565
 10
10682.54031314712
 20
4398.133944748831
 10
10682.54031314712
 20
4390.628391249367
 10
10689.04031314712
 20
4386.875614499636
 10
10695.54031314712
 20
4390.628391249367
  0
CIRCLE
  5
2032
330
1A
100
AcDbEntity
  8
細線
100
AcDbCircle
 10
10689.04031314712
 20
4394.381167999101
 30
0.0
 40
6.0
  0
CIRCLE
  5
2033
330
1A
100
AcDbEntity
  8
細線
100
AcDbCircle
 10
10587.15318437281
 20
4399.178353645557
 30
0.0
 40
8.0
  0
LWPOLYLINE
  5
2034
330
1A
100
AcDbEntity
  8
細線
100
AcDbPolyline
 90
        6
 70
     1
 43
0.0
 10
10593.65318437281
 20
4402.931130395289
 10
10587.15318437281
 20
4406.683907145021
 10
10580.65318437281
 20
4402.931130395289
 10
10580.65318437281
 20
4395.425576895824
 10
10587.15318437281
 20
4391.672800146092
 10
10593.65318437281
 20
4395.425576895824
  0
CIRCLE
  5
2035
330
1A
100
AcDbEntity
  8
細線
100
AcDbCircle
 10
10587.15318437281
 20
4399.178353645557
 30
0.0
 40
6.0
  0
CIRCLE
  5
2036
330
1A
100
AcDbEntity
  8
細線
100
AcDbCircle
 10
12216.32755088103
 20
4152.920282370682
 30
0.0
 40
8.0
  0
LWPOLYLINE
  5
2037
330
1A
100
AcDbEntity
  8
細線
100
AcDbPolyline
 90
        6
 70
     1
 43
0.0
 10
12222.82755088103
 20
4156.673059120413
 10
12216.32755088103
 20
4160.425835870146
 10
12209.82755088103
 20
4156.673059120413
 10
12209.82755088103
 20
4149.167505620949
 10
12216.32755088103
 20
4145.414728871218
 10
12222.82755088103
 20
4149.167505620949
  0
CIRCLE
  5
2038
330
1A
100
AcDbEntity
  8
細線
100
AcDbCircle
 10
12216.32755088103
 20
4152.920282370682
 30
0.0
 40
6.0
  0
CIRCLE
  5
2039
330
1A
100
AcDbEntity
  8
細線
100
AcDbCircle
 10
12057.45883392151
 20
4329.951462645982
 30
0.0
 40
8.0
  0
LWPOLYLINE
  5
203A
330
1A
100
AcDbEntity
  8
細線
100
AcDbPolyline
 90
        6
 70
     1
 43
0.0
 10
12063.95883392151
 20
4333.704239395716
 10
12057.45883392151
 20
4337.457016145446
 10
12050.95883392151
 20
4333.704239395716
 10
12050.95883392151
 20
4326.198685896252
 10
12057.45883392151
 20
4322.445909146518
 10
12063.95883392151
 20
4326.198685896252
  0
CIRCLE
  5
203B
330
1A
100
AcDbEntity
  8
細線
100
AcDbCircle
 10
12057.45883392151
 20
4329.951462645982
 30
0.0
 40
6.0
  0
CIRCLE
  5
203C
330
1A
100
AcDbEntity
  8
細線
100
AcDbCircle
 10
12216.32755088103
 20
4237.920282370682
 30
0.0
 40
8.0
  0
LWPOLYLINE
  5
203D
330
1A
100
AcDbEntity
  8
細線
100
AcDbPolyline
 90
        6
 70
     1
 43
0.0
 10
12222.82755088103
 20
4241.673059120414
 10
12216.32755088103
 20
4245.425835870146
 10
12209.82755088103
 20
4241.673059120414
 10
12209.82755088103
 20
4234.167505620949
 10
12216.32755088103
 20
4230.414728871217
 10
12222.82755088103
 20
4234.167505620949
  0
CIRCLE
  5
203E
330
1A
100
AcDbEntity
  8
細線
100
AcDbCircle
 10
12216.32755088103
 20
4237.920282370682
 30
0.0
 40
6.0
  0
CIRCLE
  5
203F
330
1A
100
AcDbEntity
  8
細線
100
AcDbCircle
 10
12163.34153637325
 20
4324.966152072215
 30
0.0
 40
8.0
  0
LWPOLYLINE
  5
2040
330
1A
100
AcDbEntity
  8
細線
100
AcDbPolyline
 90
        6
 70
     1
 43
0.0
 10
12169.84153637324
 20
4328.718928821947
 10
12163.34153637325
 20
4332.47170557168
 10
12156.84153637325
 20
4328.718928821947
 10
12156.84153637325
 20
4321.213375322482
 10
12163.34153637325
 20
4317.46059857275
 10
12169.84153637324
 20
4321.213375322482
  0
CIRCLE
  5
2041
330
1A
100
AcDbEntity
  8
細線
100
AcDbCircle
 10
12163.34153637325
 20
4324.966152072215
 30
0.0
 40
6.0
  0
CIRCLE
  5
2042
330
1A
100
AcDbEntity
  8
細線
100
AcDbCircle
 10
12269.22423882498
 20
4319.980841498447
 30
0.0
 40
8.0
  0
LWPOLYLINE
  5
2043
330
1A
100
AcDbEntity
  8
細線
100
AcDbPolyline
 90
        6
 70
     1
 43
0.0
 10
12275.72423882498
 20
4323.733618248177
 10
12269.22423882498
 20
4327.486394997912
 10
12262.72423882498
 20
4323.733618248177
 10
12262.72423882498
 20
4316.228064748712
 10
12269.22423882498
 20
4312.475287998982
 10
12275.72423882498
 20
4316.228064748712
  0
CIRCLE
  5
2044
330
1A
100
AcDbEntity
  8
細線
100
AcDbCircle
 10
12269.22423882498
 20
4319.980841498447
 30
0.0
 40
6.0
  0
CIRCLE
  5
2045
330
1A
100
AcDbEntity
  8
細線
100
AcDbCircle
 10
12375.10694127672
 20
4314.995530924678
 30
0.0
 40
6.0
  0
LWPOLYLINE
  5
2046
330
1A
100
AcDbEntity
  8
細線
100
AcDbPolyline
 90
        6
 70
     1
 43
0.0
 10
12381.60694127672
 20
4318.74830767441
 10
12375.10694127672
 20
4322.501084424142
 10
12368.60694127672
 20
4318.74830767441
 10
12368.60694127672
 20
4311.242754174946
 10
12375.10694127672
 20
4307.489977425214
 10
12381.60694127672
 20
4311.242754174946
  0
CIRCLE
  5
2047
330
1A
100
AcDbEntity
  8
細線
100
AcDbCircle
 10
12375.10694127672
 20
4314.995530924678
 30
0.0
 40
8.0
  0
LINE
  5
2048
330
1A
100
AcDbEntity
  8
部品1
100
AcDbLine
 10
10566.32755088103
 20
4427.689358568463
 30
0.0
 11
10568.796690552
 21
4480.131263084667
 31
0.0
  0
ARC
  5
2049
330
1A
100
AcDbEntity
  8
部品1
100
AcDbCircle
 10
10803.7372095107
 20
4406.500242409438
 30
0.0
 40
10.0
100
AcDbArc
 50
357.3043145064257
 51
87.30431450644992
  0
LINE
  5
204A
330
1A
100
AcDbEntity
  8
部品1
100
AcDbLine
 10
10804.20752182898
 20
4416.489176602998
 30
0.0
 11
10566.32755088103
 21
4427.689358568463
 31
0.0
  0
ARC
  5
204B
330
1A
100
AcDbEntity
  8
部品1
100
AcDbCircle
 10
10800.32755088103
 20
4155.382721066431
 30
0.0
 40
200.0
100
AcDbArc
 50
87.30431450644992
 51
179.5119358598813
  0
LINE
  5
204C
330
1A
100
AcDbEntity
  8
部品1
100
AcDbLine
 10
10600.33480702529
 20
4157.086365704013
 30
0.0
 11
10566.32755088103
 21
4157.086365704013
 31
0.0
  0
LINE
  5
204D
330
1A
100
AcDbEntity
  8
部品1
100
AcDbLine
 10
10811.32755088103
 20
4355.086365704013
 30
0.0
 11
10813.72614370426
 21
4406.029930091157
 31
0.0
  0
LINE
  5
204E
330
1A
100
AcDbEntity
  8
部品1
100
AcDbLine
 10
10811.32755088103
 20
4355.086365704013
 30
0.0
 11
10809.73379724664
 21
4355.161404937633
 31
0.0
  0
LINE
  5
204F
330
1A
100
AcDbEntity
  8
部品1
100
AcDbLine
 10
6028.08479127592
 20
2558.900949614035
 30
0.0
 11
3288.08479127592
 21
2558.900949614035
 31
0.0
  0
LINE
  5
2050
330
1A
100
AcDbEntity
  8
部品1
100
AcDbLine
 10
6028.08479127592
 20
3458.900949614036
 30
0.0
 11
3288.08479127592
 21
3458.900949614036
 31
0.0
  0
LINE
  5
2051
330
1A
100
AcDbEntity
  8
部品1
100
AcDbLine
 10
6294.505670399505
 20
4505.900949614033
 30
0.0
 11
3021.663912152335
 21
4505.900949614035
 31
0.0
  0
LINE
  5
2052
330
1A
100
AcDbEntity
  8
部品1
100
AcDbLine
 10
6294.505670399505
 20
4618.900949614033
 30
0.0
 11
3021.663912152335
 21
4618.900949614035
 31
0.0
  0
LINE
  5
2053
330
1A
100
AcDbEntity
  8
部品1
100
AcDbLine
 10
12943.33910878918
 20
4506.983322095859
 30
0.0
 11
12933.93494345153
 21
4392.29870379723
 31
0.0
  0
ARC
  5
2054
330
1A
100
AcDbEntity
  8
部品1
100
AcDbCircle
 10
12952.27100405182
 20
4493.548377209133
 30
0.0
 40
13.0
100
AcDbArc
 50
355.312220933526
 51
87.30431450644992
  0
ARC
  5
2055
330
1A
100
AcDbEntity
  8
部品1
100
AcDbCircle
 10
12944.99299783398
 20
4404.792455221497
 30
0.0
 40
13.0
100
AcDbArc
 50
267.3043145064499
 51
355.312220933526
  0
LINE
  5
2056
330
1A
100
AcDbEntity
  8
部品1
100
AcDbLine
 10
12965.22751698825
 20
4492.485940139009
 30
0.0
 11
12957.94951077042
 21
4403.730018151373
 31
0.0
  0
ARC
  5
2057
330
1A
100
AcDbEntity
  8
部品1
100
AcDbCircle
 10
12765.61577786036
 20
4273.583593652211
 30
0.0
 40
10.0
100
AcDbArc
 50
267.3043145064499
 51
345.6149453310531
  0
ARC
  5
2058
330
1A
100
AcDbEntity
  8
部品1
100
AcDbCircle
 10
12796.33960429759
 20
4373.248901949437
 30
0.0
 40
5.0
100
AcDbArc
 50
345.6149453310531
 51
87.30431450644992
  0
LINE
  5
2059
330
1A
100
AcDbEntity
  8
部品1
100
AcDbLine
 10
12775.30225783784
 20
4271.099221368149
 30
0.0
 11
12801.18284428633
 21
4372.006715807407
 31
0.0
  0
LINE
  5
205A
330
1A
100
AcDbEntity
  8
部品1
100
AcDbLine
 10
12765.14546554208
 20
4263.594659458649
 30
0.0
 11
12741.31468811889
 21
4264.716691895659
 31
0.0
  0
LINE
  5
205B
330
1A
100
AcDbEntity
  8
部品1
100
AcDbLine
 10
12796.57476045673
 20
4378.243369046217
 30
0.0
 11
12749.06776587546
 21
4380.480156707752
 31
0.0
  0
LINE
  5
205C
330
1A
100
AcDbEntity
  8
部品1
100
AcDbLine
 10
12746.62921731546
 20
4377.591648282886
 30
0.0
 11
12741.31468811889
 21
4264.71669189566
 31
0.0
  0
ARC
  5
205D
330
1A
100
AcDbEntity
  8
部品1
100
AcDbCircle
 10
12108.89704233179
 20
4362.067799658318
 30
0.0
 40
5.0
100
AcDbArc
 50
267.3043145064499
 51
357.3043145064257
  0
ARC
  5
205E
330
1A
100
AcDbEntity
  8
部品1
100
AcDbCircle
 10
12077.93134633176
 20
4363.525767844985
 30
0.0
 40
5.0
100
AcDbArc
 50
177.3043145064257
 51
267.3043145064499
  0
ARC
  5
205F
330
1A
100
AcDbEntity
  8
部品1
100
AcDbCircle
 10
12395.93720951072
 20
4331.534159076116
 30
0.0
 40
10.0
100
AcDbArc
 50
357.3043145064257
 51
87.30431450644992
  0
ARC
  5
2060
330
1A
100
AcDbEntity
  8
部品1
100
AcDbCircle
 10
12028.31507789782
 20
4348.843034439553
 30
0.0
 40
10.0
100
AcDbArc
 50
87.30431450644992
 51
177.3043145064257
  0
LINE
  5
2061
330
1A
100
AcDbEntity
  8
部品1
100
AcDbLine
 10
12108.66188617265
 20
4357.073332561536
 30
0.0
 11
12077.69619017261
 21
4358.531300748206
 31
0.0
  0
LINE
  5
2062
330
1A
100
AcDbEntity
  8
部品1
100
AcDbLine
 10
12015.92755088103
 20
4298.36978237068
 30
0.0
 11
12018.32614370426
 21
4349.313346757834
 31
0.0
  0
ARC
  5
2063
330
1A
100
AcDbEntity
  8
部品1
100
AcDbCircle
 10
12062.32755088103
 20
4176.052178921465
 30
0.0
 40
120.0
100
AcDbArc
 50
0.0
 51
87.30431450644992
  0
LINE
  5
2064
330
1A
100
AcDbEntity
  8
部品1
100
AcDbLine
 10
12396.407521829
 20
4341.523093269676
 30
0.0
 11
12028.7853902161
 21
4358.831968633114
 31
0.0
  0
LINE
  5
2065
330
1A
100
AcDbEntity
  8
部品1
100
AcDbLine
 10
12403.52755088103
 20
4280.12028237068
 30
0.0
 11
12405.92614370428
 21
4331.063846757832
 31
0.0
  0
ARC
  5
2066
330
1A
100
AcDbEntity
  8
部品1
100
AcDbCircle
 10
12355.32755088103
 20
4177.273379352617
 30
0.0
 40
105.0
100
AcDbArc
 50
87.30431450644992
 51
180.0
  0
LINE
  5
2067
330
1A
100
AcDbEntity
  8
部品1
100
AcDbLine
 10
12250.32755088103
 20
4122.920282370682
 30
0.0
 11
12182.32755088103
 21
4122.92028237068
 31
0.0
  0
LINE
  5
2068
330
1A
100
AcDbEntity
  8
部品1
100
AcDbLine
 10
12250.32755088103
 20
4177.273379352617
 30
0.0
 11
12250.32755088103
 21
4122.920282370682
 31
0.0
  0
LINE
  5
2069
330
1A
100
AcDbEntity
  8
部品1
100
AcDbLine
 10
12182.32755088103
 20
4176.052178921465
 30
0.0
 11
12182.32755088103
 21
4122.92028237068
 31
0.0
  0
LINE
  5
206A
330
1A
100
AcDbEntity
  8
部品1
100
AcDbLine
 10
12067.97129870039
 20
4295.919389244187
 30
0.0
 11
12015.92755088103
 21
4298.369782370679
 31
0.0
  0
LINE
  5
206B
330
1A
100
AcDbEntity
  8
部品1
100
AcDbLine
 10
12403.52755088103
 20
4280.12028237068
 30
0.0
 11
12360.26583022297
 21
4282.157188384998
 31
0.0
  0
LINE
  5
206C
330
1A
100
AcDbEntity
  8
部品1
100
AcDbLine
 10
10812.70336478207
 20
4358.525465122331
 30
0.0
 11
10811.49216019243
 21
4358.582492671761
 31
0.0
  0
LINE
  5
206D
330
1A
100
AcDbEntity
  8
部品1
100
AcDbLine
 10
11441.30336478206
 20
4328.928881788997
 30
0.0
 11
10853.65799497566
 21
4356.597184617384
 31
0.0
  0
LINE
  5
206E
330
1A
100
AcDbEntity
  8
部品1
100
AcDbLine
 10
12016.09216019243
 20
4301.865909338427
 30
0.0
 11
11482.25799497566
 21
4327.00060128405
 31
0.0
  0
LINE
  5
206F
330
1A
100
AcDbEntity
  8
部品1
100
AcDbLine
 10
12698.50336478207
 20
4269.735715122331
 30
0.0
 11
12403.69216019243
 21
4283.616409338427
 31
0.0
  0
LINE
  5
2070
330
1A
100
AcDbEntity
  8
部品1
100
AcDbLine
 10
10858.83143047675
 20
4466.475460746544
 30
0.0
 11
10853.54982314246
 21
4354.299729752863
 31
0.0
  0
LINE
  5
2071
330
1A
100
AcDbEntity
  8
部品1
100
AcDbLine
 10
10853.54982314246
 20
4354.299729752863
 30
0.0
 11
10812.59519294886
 21
4356.228010257811
 31
0.0
  0
LINE
  5
2072
330
1A
100
AcDbEntity
  8
部品1
100
AcDbLine
 10
10817.87680028315
 20
4468.403741251491
 30
0.0
 11
10812.59519294886
 21
4356.228010257811
 31
0.0
  0
LINE
  5
2073
330
1A
100
AcDbEntity
  8
部品1
100
AcDbLine
 10
11487.43143047674
 20
4436.878877413208
 30
0.0
 11
11482.14982314246
 21
4324.703146419529
 31
0.0
  0
LINE
  5
2074
330
1A
100
AcDbEntity
  8
部品1
100
AcDbLine
 10
11482.14982314246
 20
4324.703146419529
 30
0.0
 11
11441.19519294886
 21
4326.631426924477
 31
0.0
  0
LINE
  5
2075
330
1A
100
AcDbEntity
  8
部品1
100
AcDbLine
 10
11446.47680028315
 20
4438.80715791816
 30
0.0
 11
11441.19519294886
 21
4326.631426924477
 31
0.0
  0
LINE
  5
2076
330
1A
100
AcDbEntity
  8
部品1
100
AcDbLine
 10
12116.03143047675
 20
4407.282294079876
 30
0.0
 11
12113.89150942857
 21
4361.832643499176
 31
0.0
  0
LINE
  5
2077
330
1A
100
AcDbEntity
  8
部品1
100
AcDbLine
 10
12075.07680028315
 20
4409.210574584825
 30
0.0
 11
12072.93687923498
 21
4363.760924004125
 31
0.0
  0
LINE
  5
2078
330
1A
100
AcDbEntity
  8
部品1
100
AcDbLine
 10
12739.34982314246
 20
4265.509979752863
 30
0.0
 11
12698.39519294886
 21
4267.438260257812
 31
0.0
  0
LINE
  5
2079
330
1A
100
AcDbEntity
  8
部品1
100
AcDbLine
 10
12744.63143047674
 20
4377.685710746543
 30
0.0
 11
12739.34982314246
 21
4265.509979752863
 31
0.0
  0
LINE
  5
207A
330
1A
100
AcDbEntity
  8
部品1
100
AcDbLine
 10
12703.67680028315
 20
4379.613991251491
 30
0.0
 11
12698.39519294886
 21
4267.438260257812
 31
0.0
  0
LINE
  5
207B
330
1A
100
AcDbEntity
  8
部品1
100
AcDbLine
 10
10814.98646055369
 20
4492.06586153367
 30
0.0
 11
10813.88122660573
 21
4468.591866178804
 31
0.0
  0
LINE
  5
207C
330
1A
100
AcDbEntity
  8
部品1
100
AcDbLine
 10
10864.23190612794
 20
4489.747221804549
 30
0.0
 11
10863.12667217998
 21
4466.273226449684
 31
0.0
  0
LINE
  5
207D
330
1A
100
AcDbEntity
  8
部品1
100
AcDbLine
 10
11443.58646055369
 20
4462.469278200337
 30
0.0
 11
11442.48122660573
 21
4438.995282845469
 31
0.0
  0
LINE
  5
207E
330
1A
100
AcDbEntity
  8
部品1
100
AcDbLine
 10
11492.83190612794
 20
4460.150638471215
 30
0.0
 11
11491.72667217998
 21
4436.67664311635
 31
0.0
  0
LINE
  5
207F
330
1A
100
AcDbEntity
  8
部品1
100
AcDbLine
 10
12072.18646055369
 20
4432.872694867004
 30
0.0
 11
12071.08122660573
 21
4409.398699512137
 31
0.0
  0
LINE
  5
2080
330
1A
100
AcDbEntity
  8
部品1
100
AcDbLine
 10
12121.43190612794
 20
4430.554055137883
 30
0.0
 11
12120.32667217998
 21
4407.080059783016
 31
0.0
  0
LINE
  5
2081
330
1A
100
AcDbEntity
  8
部品1
100
AcDbLine
 10
12700.78646055369
 20
4403.27611153367
 30
0.0
 11
12699.68122660573
 21
4379.802116178804
 31
0.0
  0
LINE
  5
2082
330
1A
100
AcDbEntity
  8
部品1
100
AcDbLine
 10
12750.03190612794
 20
4400.95747180455
 30
0.0
 11
12748.92667217998
 21
4377.483476449684
 31
0.0
  0
LINE
  5
2083
330
1A
100
AcDbEntity
  8
部品1
100
AcDbLine
 10
12741.45578181437
 20
4267.713372153728
 30
0.0
 11
12739.45799497566
 21
4267.807434617384
 31
0.0
  0
LINE
  5
2084
330
1A
100
AcDbEntity
  8
部品1
100
AcDbLine
 10
12748.92667217998
 20
4377.483476449683
 30
0.0
 11
10568.796690552
 21
4480.131263084667
 31
0.0
  0
LINE
  5
2085
330
1A
100
AcDbEntity
  8
点線
 48
50.0
100
AcDbLine
 10
8886.327550881032
 20
2038.900949614034
 30
0.0
 11
8946.327550881033
 21
2038.900949614034
 31
0.0
  0
LINE
  5
2086
330
1A
100
AcDbEntity
  8
細線
100
AcDbLine
 10
12186.32755088103
 20
2996.900949614034
 30
0.0
 11
10596.32755088103
 21
2996.900949614035
 31
0.0
  0
LINE
  5
2087
330
1A
100
AcDbEntity
  8
細線
100
AcDbLine
 10
12186.32755088103
 20
3002.900949614033
 30
0.0
 11
10596.32755088103
 21
3002.900949614036
 31
0.0
  0
LINE
  5
2088
330
1A
100
AcDbEntity
  8
細線
100
AcDbLine
 10
12186.32755088103
 20
2673.900949614033
 30
0.0
 11
10596.32755088103
 21
2673.900949614035
 31
0.0
  0
LINE
  5
2089
330
1A
100
AcDbEntity
  8
細線
100
AcDbLine
 10
12186.32755088103
 20
2661.900949614034
 30
0.0
 11
10596.32755088103
 21
2661.900949614036
 31
0.0
  0
LINE
  5
208A
330
1A
100
AcDbEntity
  8
細線
100
AcDbLine
 10
12186.32755088103
 20
3343.900949614034
 30
0.0
 11
10596.32755088103
 21
3343.900949614035
 31
0.0
  0
LINE
  5
208B
330
1A
100
AcDbEntity
  8
細線
100
AcDbLine
 10
12186.32755088103
 20
3355.900949614034
 30
0.0
 11
10596.32755088103
 21
3355.900949614035
 31
0.0
  0
LINE
  5
208C
330
1A
100
AcDbEntity
  8
細線
100
AcDbLine
 10
12961.01215308149
 20
4441.079208836547
 30
0.0
 11
10566.32755088103
 21
4553.828942190153
 31
0.0
  0
LINE
  5
208D
330
1A
100
AcDbEntity
  8
細線
100
AcDbLine
 10
12960.03084887235
 20
4429.112118231475
 30
0.0
 11
10566.32755088103
 21
4541.815648511898
 31
0.0
  0
LINE
  5
208E
330
1A
100
AcDbEntity
  8
部品1
100
AcDbLine
 10
12186.32755088103
 20
3458.900949614033
 30
0.0
 11
10596.32755088103
 21
3458.900949614036
 31
0.0
  0
LINE
  5
208F
330
1A
100
AcDbEntity
  8
部品1
100
AcDbLine
 10
12186.32755088103
 20
2558.900949614034
 30
0.0
 11
10596.32755088103
 21
2558.900949614035
 31
0.0
  0
LINE
  5
2090
330
1A
100
AcDbEntity
  8
部品1
100
AcDbLine
 10
10596.32755088103
 20
4157.086365704013
 30
0.0
 11
10596.32755088103
 21
2358.900949614033
 31
0.0
  0
LINE
  5
2091
330
1A
100
AcDbEntity
  8
部品1
100
AcDbLine
 10
12186.32755088103
 20
4122.92028237068
 30
0.0
 11
12186.32755088103
 21
2358.900949614033
 31
0.0
  0
LINE
  5
2092
330
1A
100
AcDbEntity
  8
部品1
100
AcDbLine
 10
12246.32755088103
 20
4122.920282370682
 30
0.0
 11
12246.32755088103
 21
2358.900949614033
 31
0.0
  0
LINE
  5
2093
330
1A
100
AcDbEntity
  8
部品1
100
AcDbLine
 10
12944.38159182021
 20
4391.80684076987
 30
0.0
 11
10566.32755088103
 21
4503.773551864092
 31
0.0
  0
LINE
  5
2094
330
1A
100
AcDbEntity
  8
部品1
100
AcDbLine
 10
12952.88241006558
 20
4506.533991660762
 30
0.0
 11
10566.32755088103
 21
4618.900949614033
 31
0.0
  0
LINE
  5
2095
330
1A
100
AcDbEntity
  8
部品1
100
AcDbLine
 10
6088.08479127592
 20
4122.920282370682
 30
0.0
 11
6088.084791275917
 21
2358.900949614033
 31
0.0
  0
LINE
  5
2096
330
1A
100
AcDbEntity
  8
部品1
100
AcDbLine
 10
6028.08479127592
 20
4122.920282370682
 30
0.0
 11
6028.08479127592
 21
2358.900949614033
 31
0.0
  0
LINE
  5
2097
330
1A
100
AcDbEntity
  8
部品1
100
AcDbLine
 10
3288.08479127592
 20
4122.920282370682
 30
0.0
 11
3288.08479127592
 21
2358.900949614033
 31
0.0
  0
LINE
  5
2098
330
1A
100
AcDbEntity
  8
部品1
100
AcDbLine
 10
3228.08479127592
 20
4122.920282370682
 30
0.0
 11
3228.08479127592
 21
2358.900949614033
 31
0.0
  0
LINE
  5
2099
330
1A
100
AcDbEntity
  8
センター
 48
10.0
100
AcDbLine
 10
6058.08479127592
 20
4391.216331315403
 30
0.0
 11
6058.08479127592
 21
2045.589597719345
 31
0.0
  0
LINE
  5
209A
330
1A
100
AcDbEntity
  8
センター
 48
10.0
100
AcDbLine
 10
3258.08479127592
 20
4391.216331315403
 30
0.0
 11
3258.08479127592
 21
2045.589597719345
 31
0.0
  0
LINE
  5
209B
330
1A
100
AcDbEntity
  8
Ｇ．Ｌ
100
AcDbLine
 10
2302.38837409934
 20
2308.900949614034
 30
0.0
 11
13943.42636519888
 21
2308.900949614034
 31
0.0
  0
ARC
  5
209C
330
1A
100
AcDbEntity
  8
部品1
100
AcDbCircle
 10
3018.08479127592
 20
10760.70309759782
 30
0.0
 40
10.0
100
AcDbArc
 50
90.0
 51
180.0
  0
ARC
  5
209D
330
1A
100
AcDbEntity
  8
部品1
100
AcDbCircle
 10
6298.08479127592
 20
5980.703097597816
 30
0.0
 40
10.0
100
AcDbArc
 50
270.0
 51
0.0
  0
LINE
  5
209E
330
1A
100
AcDbEntity
  8
点線
 48
50.0
100
AcDbLine
 10
6028.084791275922
 20
6858.80309759782
 30
0.0
 11
6028.08479127592
 21
7422.403097597818
 31
0.0
  0
LINE
  5
209F
330
1A
100
AcDbEntity
  8
点線
 48
50.0
100
AcDbLine
 10
6088.08479127592
 20
6858.80309759782
 30
0.0
 11
6088.08479127592
 21
7422.403097597818
 31
0.0
  0
LINE
  5
20A0
330
1A
100
AcDbEntity
  8
点線
 48
50.0
100
AcDbLine
 10
6088.084791275917
 20
6230.203097597818
 30
0.0
 11
6088.084791275917
 21
6793.803097597818
 31
0.0
  0
LINE
  5
20A1
330
1A
100
AcDbEntity
  8
点線
 48
50.0
100
AcDbLine
 10
6028.08479127592
 20
6230.203097597818
 30
0.0
 11
6028.08479127592
 21
6793.803097597818
 31
0.0
  0
LINE
  5
20A2
330
1A
100
AcDbEntity
  8
点線
 48
50.0
100
AcDbLine
 10
6088.08479127592
 20
7487.403097597819
 30
0.0
 11
6088.084791275922
 21
8051.003097597821
 31
0.0
  0
LINE
  5
20A3
330
1A
100
AcDbEntity
  8
点線
 48
50.0
100
AcDbLine
 10
6028.08479127592
 20
7487.403097597819
 30
0.0
 11
6028.084791275922
 21
8051.003097597821
 31
0.0
  0
LINE
  5
20A4
330
1A
100
AcDbEntity
  8
点線
 48
50.0
100
AcDbLine
 10
6028.08479127592
 20
8116.00309759782
 30
0.0
 11
6028.08479127592
 21
8230.703097597817
 31
0.0
  0
LINE
  5
20A5
330
1A
100
AcDbEntity
  8
点線
 48
50.0
100
AcDbLine
 10
6088.08479127592
 20
8116.00309759782
 30
0.0
 11
6088.08479127592
 21
8230.703097597817
 31
0.0
  0
LINE
  5
20A6
330
1A
100
AcDbEntity
  8
部品1
100
AcDbLine
 10
4999.262452336431
 20
6165.203097597817
 30
0.0
 11
3078.08479127592
 21
6165.203097597817
 31
0.0
  0
LINE
  5
20A7
330
1A
100
AcDbEntity
  8
部品1
100
AcDbLine
 10
4993.228332539525
 20
6185.203097597816
 30
0.0
 11
3078.08479127592
 21
6185.203097597818
 31
0.0
  0
LINE
  5
20A8
330
1A
100
AcDbEntity
  8
部品1
100
AcDbLine
 10
4979.651562996492
 20
6230.203097597816
 30
0.0
 11
3078.08479127592
 21
6230.203097597818
 31
0.0
  0
LINE
  5
20A9
330
1A
100
AcDbEntity
  8
部品1
100
AcDbLine
 10
4809.610067119731
 20
6793.803097597818
 30
0.0
 11
3078.08479127592
 21
6793.803097597818
 31
0.0
  0
LINE
  5
20AA
330
1A
100
AcDbEntity
  8
部品1
100
AcDbLine
 10
4803.575947322826
 20
6813.803097597818
 30
0.0
 11
3078.08479127592
 21
6813.803097597818
 31
0.0
  0
LINE
  5
20AB
330
1A
100
AcDbEntity
  8
部品1
100
AcDbLine
 10
4789.999177779793
 20
6858.803097597818
 30
0.0
 11
3078.08479127592
 21
6858.803097597818
 31
0.0
  0
LINE
  5
20AC
330
1A
100
AcDbEntity
  8
部品1
100
AcDbLine
 10
4619.957681903032
 20
7422.403097597818
 30
0.0
 11
3078.08479127592
 21
7422.403097597818
 31
0.0
  0
LINE
  5
20AD
330
1A
100
AcDbEntity
  8
部品1
100
AcDbLine
 10
4613.923562106127
 20
7442.403097597818
 30
0.0
 11
3078.08479127592
 21
7442.403097597818
 31
0.0
  0
LINE
  5
20AE
330
1A
100
AcDbEntity
  8
部品1
100
AcDbLine
 10
4600.346792563094
 20
7487.403097597819
 30
0.0
 11
3078.08479127592
 21
7487.403097597819
 31
0.0
  0
LINE
  5
20AF
330
1A
100
AcDbEntity
  8
部品1
100
AcDbLine
 10
4410.694407346393
 20
8116.003097597818
 30
0.0
 11
3078.08479127592
 21
8116.00309759782
 31
0.0
  0
LINE
  5
20B0
330
1A
100
AcDbEntity
  8
部品1
100
AcDbLine
 10
4424.271176889428
 20
8071.00309759782
 30
0.0
 11
3078.08479127592
 21
8071.003097597822
 31
0.0
  0
LINE
  5
20B1
330
1A
100
AcDbEntity
  8
部品1
100
AcDbLine
 10
3078.08479127592
 20
8230.703097597817
 30
0.0
 11
3078.08479127592
 21
6094.703097597816
 31
0.0
  0
LINE
  5
20B2
330
1A
100
AcDbEntity
  8
部品1
100
AcDbLine
 10
4430.30529668633
 20
8051.003097597821
 30
0.0
 11
3078.08479127592
 21
8051.003097597821
 31
0.0
  0
LINE
  5
20B3
330
1A
100
AcDbEntity
  8
部品1
100
AcDbLine
 10
3228.08479127592
 20
8625.403097597816
 30
0.0
 11
3228.08479127592
 21
8510.703097597817
 31
0.0
  0
LINE
  5
20B4
330
1A
100
AcDbEntity
  8
部品1
100
AcDbLine
 10
3288.08479127592
 20
8625.403097597816
 30
0.0
 11
3288.08479127592
 21
8510.703097597817
 31
0.0
  0
LINE
  5
20B5
330
1A
100
AcDbEntity
  8
部品1
100
AcDbLine
 10
3288.08479127592
 20
9254.003097597816
 30
0.0
 11
3288.08479127592
 21
8690.403097597817
 31
0.0
  0
LINE
  5
20B6
330
1A
100
AcDbEntity
  8
部品1
100
AcDbLine
 10
3228.08479127592
 20
9254.003097597816
 30
0.0
 11
3228.08479127592
 21
8690.403097597817
 31
0.0
  0
LINE
  5
20B7
330
1A
100
AcDbEntity
  8
部品1
100
AcDbLine
 10
3228.08479127592
 20
9882.603097597817
 30
0.0
 11
3228.08479127592
 21
9319.003097597816
 31
0.0
  0
LINE
  5
20B8
330
1A
100
AcDbEntity
  8
部品1
100
AcDbLine
 10
3288.08479127592
 20
9882.603097597817
 30
0.0
 11
3288.08479127592
 21
9319.003097597818
 31
0.0
  0
LINE
  5
20B9
330
1A
100
AcDbEntity
  8
部品1
100
AcDbLine
 10
3288.08479127592
 20
10511.20309759782
 30
0.0
 11
3288.08479127592
 21
9947.603097597818
 31
0.0
  0
LINE
  5
20BA
330
1A
100
AcDbEntity
  8
部品1
100
AcDbLine
 10
3228.08479127592
 20
10511.20309759782
 30
0.0
 11
3228.08479127592
 21
9947.603097597818
 31
0.0
  0
LINE
  5
20BB
330
1A
100
AcDbEntity
  8
部品1
100
AcDbLine
 10
4237.394486779304
 20
8690.403097597817
 30
0.0
 11
3078.08479127592
 21
8690.403097597814
 31
0.0
  0
LINE
  5
20BC
330
1A
100
AcDbEntity
  8
部品1
100
AcDbLine
 10
4243.42860657621
 20
8670.403097597818
 30
0.0
 11
3078.08479127592
 21
8670.403097597816
 31
0.0
  0
LINE
  5
20BD
330
1A
100
AcDbEntity
  8
部品1
100
AcDbLine
 10
4257.005376119244
 20
8625.403097597816
 30
0.0
 11
3078.08479127592
 21
8625.403097597816
 31
0.0
  0
LINE
  5
20BE
330
1A
100
AcDbEntity
  8
部品1
100
AcDbLine
 10
4047.742101562606
 20
9319.003097597818
 30
0.0
 11
3078.08479127592
 21
9319.003097597818
 31
0.0
  0
LINE
  5
20BF
330
1A
100
AcDbEntity
  8
部品1
100
AcDbLine
 10
4053.776221359511
 20
9299.003097597816
 30
0.0
 11
3078.08479127592
 21
9299.003097597816
 31
0.0
  0
LINE
  5
20C0
330
1A
100
AcDbEntity
  8
部品1
100
AcDbLine
 10
4067.352990902544
 20
9254.003097597816
 30
0.0
 11
3078.08479127592
 21
9254.003097597816
 31
0.0
  0
LINE
  5
20C1
330
1A
100
AcDbEntity
  8
部品1
100
AcDbLine
 10
3877.700605685845
 20
9882.603097597817
 30
0.0
 11
3078.08479127592
 21
9882.603097597817
 31
0.0
  0
LINE
  5
20C2
330
1A
100
AcDbEntity
  8
部品1
100
AcDbLine
 10
3864.123836142809
 20
9927.603097597817
 30
0.0
 11
3078.08479127592
 21
9927.603097597817
 31
0.0
  0
LINE
  5
20C3
330
1A
100
AcDbEntity
  8
部品1
100
AcDbLine
 10
3858.089716345907
 20
9947.603097597818
 30
0.0
 11
3078.08479127592
 21
9947.603097597818
 31
0.0
  0
LINE
  5
20C4
330
1A
100
AcDbEntity
  8
部品1
100
AcDbLine
 10
3688.048220469145
 20
10511.20309759782
 30
0.0
 11
3078.08479127592
 21
10511.20309759782
 31
0.0
  0
LINE
  5
20C5
330
1A
100
AcDbEntity
  8
部品1
100
AcDbLine
 10
3674.47145092611
 20
10556.20309759782
 30
0.0
 11
3078.08479127592
 21
10556.20309759782
 31
0.0
  0
LINE
  5
20C6
330
1A
100
AcDbEntity
  8
部品1
100
AcDbLine
 10
3668.437331129206
 20
10576.20309759782
 30
0.0
 11
3078.08479127592
 21
10576.20309759782
 31
0.0
  0
LINE
  5
20C7
330
1A
100
AcDbEntity
  8
部品1
100
AcDbLine
 10
3078.08479127592
 20
10646.70309759781
 30
0.0
 11
3078.08479127592
 21
8510.703097597817
 31
0.0
  0
LINE
  5
20C8
330
1A
100
AcDbEntity
  8
部品1
100
AcDbLine
 10
3579.584917119792
 20
10870.70309759782
 30
0.0
 11
5088.114866345844
 21
5870.703097597818
 31
0.0
  0
LINE
  5
20C9
330
1A
100
AcDbEntity
  8
部品1
100
AcDbLine
 10
3035.58479127592
 20
5990.203097597817
 30
0.0
 11
3056.58479127592
 21
5990.203097597817
 31
0.0
  0
LINE
  5
20CA
330
1A
100
AcDbEntity
  8
部品1
100
AcDbLine
 10
3030.58479127592
 20
5985.203097597818
 30
0.0
 11
3030.58479127592
 21
5970.703097597818
 31
0.0
  0
ARC
  5
20CB
330
1A
100
AcDbEntity
  8
部品1
100
AcDbCircle
 10
3035.58479127592
 20
5985.203097597818
 30
0.0
 40
5.0
100
AcDbArc
 50
90.0
 51
180.0
  0
LINE
  5
20CC
330
1A
100
AcDbEntity
  8
部品1
100
AcDbLine
 10
3056.584791275927
 20
6094.703097597818
 30
0.0
 11
3056.58479127592
 21
5990.203097597817
 31
0.0
  0
ARC
  5
20CD
330
1A
100
AcDbEntity
  8
部品1
100
AcDbCircle
 10
3018.08479127592
 20
5980.703097597817
 30
0.0
 40
10.0
100
AcDbArc
 50
180.0
 51
270.0
  0
LINE
  5
20CE
330
1A
100
AcDbEntity
  8
部品1
100
AcDbLine
 10
3228.084791275922
 20
6129.203097597818
 30
0.0
 11
3288.084791275923
 21
6129.203097597818
 31
0.0
  0
LINE
  5
20CF
330
1A
100
AcDbEntity
  8
部品1
100
AcDbLine
 10
3228.084791275924
 20
6165.203097597817
 30
0.0
 11
3228.084791275922
 21
6129.203097597818
 31
0.0
  0
LINE
  5
20D0
330
1A
100
AcDbEntity
  8
部品1
100
AcDbLine
 10
3288.084791275924
 20
6165.203097597817
 30
0.0
 11
3288.084791275923
 21
6129.203097597818
 31
0.0
  0
LINE
  5
20D1
330
1A
100
AcDbEntity
  8
部品1
100
AcDbLine
 10
3228.08479127592
 20
7422.403097597817
 30
0.0
 11
3228.08479127592
 21
6858.803097597818
 31
0.0
  0
LINE
  5
20D2
330
1A
100
AcDbEntity
  8
部品1
100
AcDbLine
 10
3288.08479127592
 20
7422.403097597817
 30
0.0
 11
3288.08479127592
 21
6858.803097597818
 31
0.0
  0
LINE
  5
20D3
330
1A
100
AcDbEntity
  8
部品1
100
AcDbLine
 10
3228.08479127592
 20
8230.703097597817
 30
0.0
 11
3228.08479127592
 21
8116.00309759782
 31
0.0
  0
LINE
  5
20D4
330
1A
100
AcDbEntity
  8
部品1
100
AcDbLine
 10
3288.08479127592
 20
8230.703097597817
 30
0.0
 11
3288.08479127592
 21
8116.00309759782
 31
0.0
  0
LINE
  5
20D5
330
1A
100
AcDbEntity
  8
部品1
100
AcDbLine
 10
3228.08479127592
 20
8051.003097597821
 30
0.0
 11
3228.08479127592
 21
7487.403097597819
 31
0.0
  0
LINE
  5
20D6
330
1A
100
AcDbEntity
  8
部品1
100
AcDbLine
 10
3288.08479127592
 20
8051.003097597821
 30
0.0
 11
3288.08479127592
 21
7487.403097597819
 31
0.0
  0
LINE
  5
20D7
330
1A
100
AcDbEntity
  8
部品1
100
AcDbLine
 10
4669.584791275919
 20
7257.914784328502
 30
0.0
 11
4669.584791275919
 21
8230.703097597817
 31
0.0
  0
LINE
  5
20D8
330
1A
100
AcDbEntity
  8
部品1
100
AcDbLine
 10
4635.08479127592
 20
7372.264519372542
 30
0.0
 11
4635.08479127592
 21
8230.703097597817
 31
0.0
  0
LINE
  5
20D9
330
1A
100
AcDbEntity
  8
部品1
100
AcDbLine
 10
4498.08479127592
 20
7826.348974474967
 30
0.0
 11
4498.08479127592
 21
8230.703097597817
 31
0.0
  0
LINE
  5
20DA
330
1A
100
AcDbEntity
  8
部品1
100
AcDbLine
 10
4453.084791275919
 20
7975.500802793281
 30
0.0
 11
4453.084791275919
 21
8230.703097597817
 31
0.0
  0
LINE
  5
20DB
330
1A
100
AcDbEntity
  8
部品1
100
AcDbLine
 10
4425.08479127592
 20
8068.306384858011
 30
0.0
 11
4425.08479127592
 21
8230.703097597817
 31
0.0
  0
LINE
  5
20DC
330
1A
100
AcDbEntity
  8
部品1
100
AcDbLine
 10
4380.08479127592
 20
8217.458213176326
 30
0.0
 11
4380.08479127592
 21
8230.703097597817
 31
0.0
  0
LINE
  5
20DD
330
1A
100
AcDbEntity
  8
部品1
100
AcDbLine
 10
3228.08479127592
 20
6793.803097597818
 30
0.0
 11
3228.084791275924
 21
6230.203097597818
 31
0.0
  0
LINE
  5
20DE
330
1A
100
AcDbEntity
  8
部品1
100
AcDbLine
 10
3288.08479127592
 20
6793.803097597818
 30
0.0
 11
3288.084791275924
 21
6230.203097597818
 31
0.0
  0
LINE
  5
20DF
330
1A
100
AcDbEntity
  8
部品1
100
AcDbLine
 10
6285.58479127592
 20
5970.703097597818
 30
0.0
 11
6285.58479127592
 21
5985.203097597818
 31
0.0
  0
ARC
  5
20E0
330
1A
100
AcDbEntity
  8
部品1
100
AcDbCircle
 10
6280.58479127592
 20
5985.203097597818
 30
0.0
 40
5.0
100
AcDbArc
 50
0.0
 51
90.0
  0
LINE
  5
20E1
330
1A
100
AcDbEntity
  8
部品1
100
AcDbLine
 10
6259.58479127592
 20
5990.203097597817
 30
0.0
 11
6259.58479127592
 21
6094.703097597818
 31
0.0
  0
LINE
  5
20E2
330
1A
100
AcDbEntity
  8
部品1
100
AcDbLine
 10
6259.58479127592
 20
5990.203097597817
 30
0.0
 11
6280.58479127592
 21
5990.203097597817
 31
0.0
  0
LINE
  5
20E3
330
1A
100
AcDbEntity
  8
点線
 48
50.0
100
AcDbLine
 10
6028.08479127592
 20
6129.203097597818
 30
0.0
 11
6088.08479127592
 21
6129.203097597818
 31
0.0
  0
LINE
  5
20E4
330
1A
100
AcDbEntity
  8
部品1
100
AcDbLine
 10
6249.58479127592
 20
6094.703097597818
 30
0.0
 11
6249.58479127592
 21
8230.703097597817
 31
0.0
  0
LINE
  5
20E5
330
1A
100
AcDbEntity
  8
部品1
100
AcDbLine
 10
6215.08479127592
 20
6094.703097597818
 30
0.0
 11
6215.08479127592
 21
8230.703097597817
 31
0.0
  0
LINE
  5
20E6
330
1A
100
AcDbEntity
  8
部品1
100
AcDbLine
 10
5669.584791275919
 20
6094.703097597818
 30
0.0
 11
5669.584791275919
 21
8230.703097597817
 31
0.0
  0
LINE
  5
20E7
330
1A
100
AcDbEntity
  8
部品1
100
AcDbLine
 10
5635.08479127592
 20
6094.703097597818
 30
0.0
 11
5635.08479127592
 21
8230.703097597817
 31
0.0
  0
LINE
  5
20E8
330
1A
100
AcDbEntity
  8
部品1
100
AcDbLine
 10
5089.58479127592
 20
6094.703097597818
 30
0.0
 11
5089.58479127592
 21
8230.703097597817
 31
0.0
  0
LINE
  5
20E9
330
1A
100
AcDbEntity
  8
部品1
100
AcDbLine
 10
5055.08479127592
 20
6094.703097597818
 30
0.0
 11
5055.08479127592
 21
8230.703097597817
 31
0.0
  0
LINE
  5
20EA
330
1A
100
AcDbEntity
  8
部品1
100
AcDbLine
 10
5880.08479127592
 20
6094.703097597819
 30
0.0
 11
5880.08479127592
 21
8230.703097597817
 31
0.0
  0
LINE
  5
20EB
330
1A
100
AcDbEntity
  8
部品1
100
AcDbLine
 10
5925.08479127592
 20
6094.703097597819
 30
0.0
 11
5925.08479127592
 21
8230.703097597817
 31
0.0
  0
LINE
  5
20EC
330
1A
100
AcDbEntity
  8
部品1
100
AcDbLine
 10
5953.084791275919
 20
6094.703097597819
 30
0.0
 11
5953.084791275919
 21
8230.703097597817
 31
0.0
  0
LINE
  5
20ED
330
1A
100
AcDbEntity
  8
部品1
100
AcDbLine
 10
5998.08479127592
 20
6094.703097597819
 30
0.0
 11
5998.08479127592
 21
8230.703097597817
 31
0.0
  0
LINE
  5
20EE
330
1A
100
AcDbEntity
  8
部品1
100
AcDbLine
 10
5418.084791275919
 20
6094.703097597819
 30
0.0
 11
5418.084791275919
 21
8230.703097597817
 31
0.0
  0
LINE
  5
20EF
330
1A
100
AcDbEntity
  8
部品1
100
AcDbLine
 10
5373.08479127592
 20
6094.703097597819
 30
0.0
 11
5373.08479127592
 21
8230.703097597817
 31
0.0
  0
LINE
  5
20F0
330
1A
100
AcDbEntity
  8
部品1
100
AcDbLine
 10
5345.08479127592
 20
6094.703097597819
 30
0.0
 11
5345.08479127592
 21
8230.703097597817
 31
0.0
  0
LINE
  5
20F1
330
1A
100
AcDbEntity
  8
部品1
100
AcDbLine
 10
5300.08479127592
 20
6094.703097597819
 30
0.0
 11
5300.08479127592
 21
8230.703097597817
 31
0.0
  0
LINE
  5
20F2
330
1A
100
AcDbEntity
  8
部品1
100
AcDbLine
 10
4918.084791275919
 20
6434.265243504031
 30
0.0
 11
4918.084791275919
 21
8230.703097597817
 31
0.0
  0
LINE
  5
20F3
330
1A
100
AcDbEntity
  8
部品1
100
AcDbLine
 10
4873.08479127592
 20
6583.417071822345
 30
0.0
 11
4873.08479127592
 21
8230.703097597817
 31
0.0
  0
LINE
  5
20F4
330
1A
100
AcDbEntity
  8
部品1
100
AcDbLine
 10
4845.08479127592
 20
6676.222653887075
 30
0.0
 11
4845.08479127592
 21
8230.703097597817
 31
0.0
  0
LINE
  5
20F5
330
1A
100
AcDbEntity
  8
部品1
100
AcDbLine
 10
4800.08479127592
 20
6825.374482205389
 30
0.0
 11
4800.08479127592
 21
8230.703097597817
 31
0.0
  0
LINE
  5
20F6
330
1A
100
AcDbEntity
  8
点線
 48
50.0
100
AcDbLine
 10
6088.08479127592
 20
6129.203097597818
 30
0.0
 11
6088.08479127592
 21
6165.203097597817
 31
0.0
  0
LINE
  5
20F7
330
1A
100
AcDbEntity
  8
点線
 48
50.0
100
AcDbLine
 10
6028.08479127592
 20
6129.203097597818
 30
0.0
 11
6028.08479127592
 21
6165.203097597817
 31
0.0
  0
LINE
  5
20F8
330
1A
100
AcDbEntity
  8
部品1
100
AcDbLine
 10
3018.08479127592
 20
5970.703097597818
 30
0.0
 11
6298.08479127592
 21
5970.703097597816
 31
0.0
  0
LINE
  5
20F9
330
1A
100
AcDbEntity
  8
部品1
100
AcDbLine
 10
3056.584791275927
 20
6094.703097597816
 30
0.0
 11
6259.58479127592
 21
6094.703097597822
 31
0.0
  0
LINE
  5
20FA
330
1A
100
AcDbEntity
  8
部品1
100
AcDbLine
 10
6308.08479127592
 20
8370.703097597818
 30
0.0
 11
3008.08479127592
 21
8370.703097597818
 31
0.0
  0
LINE
  5
20FB
330
1A
100
AcDbEntity
  8
部品1
100
AcDbLine
 10
6263.08479127592
 20
8230.703097597817
 30
0.0
 11
3053.08479127592
 21
8230.703097597817
 31
0.0
  0
LINE
  5
20FC
330
1A
100
AcDbEntity
  8
センター
 48
10.0
100
AcDbLine
 10
3038.084791275919
 20
6207.703097597816
 30
0.0
 11
6278.084791275919
 21
6207.703097597818
 31
0.0
  0
LINE
  5
20FD
330
1A
100
AcDbEntity
  8
センター
 48
10.0
100
AcDbLine
 10
3038.084791275919
 20
6836.303097597816
 30
0.0
 11
6278.084791275919
 21
6836.303097597817
 31
0.0
  0
LINE
  5
20FE
330
1A
100
AcDbEntity
  8
センター
 48
10.0
100
AcDbLine
 10
3038.084791275919
 20
7464.903097597818
 30
0.0
 11
6278.084791275916
 21
7464.903097597818
 31
0.0
  0
LINE
  5
20FF
330
1A
100
AcDbEntity
  8
センター
 48
10.0
100
AcDbLine
 10
3038.084791275919
 20
8093.503097597823
 30
0.0
 11
6278.084791275919
 21
8093.503097597823
 31
0.0
  0
LINE
  5
2100
330
1A
100
AcDbEntity
  8
点線
 48
50.0
100
AcDbLine
 10
4999.262452336431
 20
6165.203097597817
 30
0.0
 11
6278.084791275919
 21
6165.203097597817
 31
0.0
  0
LINE
  5
2101
330
1A
100
AcDbEntity
  8
点線
 48
50.0
100
AcDbLine
 10
4993.228332539527
 20
6185.203097597818
 30
0.0
 11
6278.084791275916
 21
6185.203097597818
 31
0.0
  0
LINE
  5
2102
330
1A
100
AcDbEntity
  8
点線
 48
50.0
100
AcDbLine
 10
4979.651562996492
 20
6230.203097597818
 30
0.0
 11
6278.084791275919
 21
6230.203097597819
 31
0.0
  0
LINE
  5
2103
330
1A
100
AcDbEntity
  8
点線
 48
50.0
100
AcDbLine
 10
4809.610067119731
 20
6793.803097597818
 30
0.0
 11
6278.084791275916
 21
6793.803097597818
 31
0.0
  0
LINE
  5
2104
330
1A
100
AcDbEntity
  8
点線
 48
50.0
100
AcDbLine
 10
4803.575947322826
 20
6813.803097597818
 30
0.0
 11
6278.084791275919
 21
6813.803097597816
 31
0.0
  0
LINE
  5
2105
330
1A
100
AcDbEntity
  8
点線
 48
50.0
100
AcDbLine
 10
4789.999177779793
 20
6858.803097597818
 30
0.0
 11
6278.084791275916
 21
6858.803097597818
 31
0.0
  0
LINE
  5
2106
330
1A
100
AcDbEntity
  8
点線
 48
50.0
100
AcDbLine
 10
4619.957681903032
 20
7422.403097597818
 30
0.0
 11
6278.084791275919
 21
7422.403097597818
 31
0.0
  0
LINE
  5
2107
330
1A
100
AcDbEntity
  8
点線
 48
50.0
100
AcDbLine
 10
4613.923562106127
 20
7442.403097597818
 30
0.0
 11
6278.084791275919
 21
7442.40309759782
 31
0.0
  0
LINE
  5
2108
330
1A
100
AcDbEntity
  8
点線
 48
50.0
100
AcDbLine
 10
4600.346792563092
 20
7487.403097597819
 30
0.0
 11
6278.084791275915
 21
7487.403097597817
 31
0.0
  0
LINE
  5
2109
330
1A
100
AcDbEntity
  8
点線
 48
50.0
100
AcDbLine
 10
4430.305296686332
 20
8051.003097597821
 30
0.0
 11
6278.084791275919
 21
8051.003097597821
 31
0.0
  0
LINE
  5
210A
330
1A
100
AcDbEntity
  8
点線
 48
50.0
100
AcDbLine
 10
4424.271176889428
 20
8071.003097597822
 30
0.0
 11
6278.084791275919
 21
8071.003097597822
 31
0.0
  0
LINE
  5
210B
330
1A
100
AcDbEntity
  8
点線
 48
50.0
100
AcDbLine
 10
4410.694407346393
 20
8116.00309759782
 30
0.0
 11
6278.084791275919
 21
8116.003097597822
 31
0.0
  0
LINE
  5
210C
330
1A
100
AcDbEntity
  8
点線
 48
50.0
100
AcDbLine
 10
6028.084791275919
 20
10576.20309759782
 30
0.0
 11
6028.084791275919
 21
10612.20309759782
 31
0.0
  0
LINE
  5
210D
330
1A
100
AcDbEntity
  8
点線
 48
50.0
100
AcDbLine
 10
6088.084791275917
 20
10576.20309759782
 30
0.0
 11
6088.084791275917
 21
10612.20309759782
 31
0.0
  0
LINE
  5
210E
330
1A
100
AcDbEntity
  8
点線
 48
50.0
100
AcDbLine
 10
6028.084791275919
 20
9947.603097597818
 30
0.0
 11
6028.084791275919
 21
10511.20309759782
 31
0.0
  0
LINE
  5
210F
330
1A
100
AcDbEntity
  8
点線
 48
50.0
100
AcDbLine
 10
6088.084791275917
 20
9947.603097597818
 30
0.0
 11
6088.084791275917
 21
10511.20309759782
 31
0.0
  0
LINE
  5
2110
330
1A
100
AcDbEntity
  8
点線
 48
50.0
100
AcDbLine
 10
6028.084791275919
 20
9319.003097597819
 30
0.0
 11
6028.084791275919
 21
9882.603097597817
 31
0.0
  0
LINE
  5
2111
330
1A
100
AcDbEntity
  8
点線
 48
50.0
100
AcDbLine
 10
6088.084791275917
 20
9319.003097597819
 30
0.0
 11
6088.084791275917
 21
9882.603097597817
 31
0.0
  0
LINE
  5
2112
330
1A
100
AcDbEntity
  8
点線
 48
50.0
100
AcDbLine
 10
6028.084791275919
 20
8690.403097597814
 30
0.0
 11
6028.084791275919
 21
9254.003097597816
 31
0.0
  0
LINE
  5
2113
330
1A
100
AcDbEntity
  8
点線
 48
50.0
100
AcDbLine
 10
6088.084791275917
 20
8690.403097597814
 30
0.0
 11
6088.084791275917
 21
9254.003097597816
 31
0.0
  0
LINE
  5
2114
330
1A
100
AcDbEntity
  8
点線
 48
50.0
100
AcDbLine
 10
6088.084791275917
 20
10612.20309759782
 30
0.0
 11
6028.084791275919
 21
10612.20309759782
 31
0.0
  0
LINE
  5
2115
330
1A
100
AcDbEntity
  8
部品1
100
AcDbLine
 10
3288.08479127592
 20
10612.20309759782
 30
0.0
 11
3228.08479127592
 21
10612.20309759782
 31
0.0
  0
LINE
  5
2116
330
1A
100
AcDbEntity
  8
点線
 48
50.0
100
AcDbLine
 10
6088.084791275917
 20
8510.703097597817
 30
0.0
 11
6088.084791275917
 21
8625.403097597816
 31
0.0
  0
LINE
  5
2117
330
1A
100
AcDbEntity
  8
点線
 48
50.0
100
AcDbLine
 10
6028.084791275919
 20
8510.703097597817
 30
0.0
 11
6028.084791275919
 21
8625.403097597816
 31
0.0
  0
LINE
  5
2118
330
1A
100
AcDbEntity
  8
部品1
100
AcDbLine
 10
3288.08479127592
 20
10612.20309759782
 30
0.0
 11
3288.08479127592
 21
10576.20309759782
 31
0.0
  0
LINE
  5
2119
330
1A
100
AcDbEntity
  8
部品1
100
AcDbLine
 10
3228.08479127592
 20
10612.20309759782
 30
0.0
 11
3228.08479127592
 21
10576.20309759782
 31
0.0
  0
LINE
  5
211A
330
1A
100
AcDbEntity
  8
点線
 48
50.0
100
AcDbLine
 10
6278.084791275919
 20
8690.403097597817
 30
0.0
 11
4237.394486779304
 21
8690.403097597814
 31
0.0
  0
LINE
  5
211B
330
1A
100
AcDbEntity
  8
点線
 48
50.0
100
AcDbLine
 10
6278.084791275919
 20
9319.003097597818
 30
0.0
 11
4047.742101562604
 21
9319.003097597818
 31
0.0
  0
LINE
  5
211C
330
1A
100
AcDbEntity
  8
点線
 48
50.0
100
AcDbLine
 10
6278.084791275919
 20
9947.603097597818
 30
0.0
 11
3858.089716345907
 21
9947.603097597818
 31
0.0
  0
LINE
  5
211D
330
1A
100
AcDbEntity
  8
点線
 48
50.0
100
AcDbLine
 10
6278.084791275919
 20
10576.20309759782
 30
0.0
 11
3668.437331129206
 21
10576.20309759782
 31
0.0
  0
LINE
  5
211E
330
1A
100
AcDbEntity
  8
点線
 48
50.0
100
AcDbLine
 10
6278.084791275919
 20
8670.403097597812
 30
0.0
 11
4243.42860657621
 21
8670.403097597816
 31
0.0
  0
LINE
  5
211F
330
1A
100
AcDbEntity
  8
点線
 48
50.0
100
AcDbLine
 10
6278.084791275919
 20
8625.403097597816
 30
0.0
 11
4257.005376119244
 21
8625.403097597816
 31
0.0
  0
LINE
  5
2120
330
1A
100
AcDbEntity
  8
点線
 48
50.0
100
AcDbLine
 10
6278.084791275919
 20
9254.003097597816
 30
0.0
 11
4067.352990902544
 21
9254.003097597816
 31
0.0
  0
LINE
  5
2121
330
1A
100
AcDbEntity
  8
点線
 48
50.0
100
AcDbLine
 10
6278.084791275919
 20
9299.003097597816
 30
0.0
 11
4053.776221359508
 21
9299.003097597816
 31
0.0
  0
LINE
  5
2122
330
1A
100
AcDbEntity
  8
点線
 48
50.0
100
AcDbLine
 10
6278.084791275919
 20
9882.603097597817
 30
0.0
 11
3877.700605685845
 21
9882.603097597817
 31
0.0
  0
LINE
  5
2123
330
1A
100
AcDbEntity
  8
点線
 48
50.0
100
AcDbLine
 10
6278.084791275919
 20
9927.603097597817
 30
0.0
 11
3864.123836142809
 21
9927.603097597817
 31
0.0
  0
LINE
  5
2124
330
1A
100
AcDbEntity
  8
点線
 48
50.0
100
AcDbLine
 10
6278.084791275919
 20
10511.20309759781
 30
0.0
 11
3688.048220469145
 21
10511.20309759782
 31
0.0
  0
LINE
  5
2125
330
1A
100
AcDbEntity
  8
点線
 48
50.0
100
AcDbLine
 10
6278.084791275919
 20
10556.20309759782
 30
0.0
 11
3674.47145092611
 21
10556.20309759782
 31
0.0
  0
LINE
  5
2126
330
1A
100
AcDbEntity
  8
センター
 48
10.0
100
AcDbLine
 10
6278.084791275919
 20
8647.903097597813
 30
0.0
 11
3038.084791275919
 21
8647.903097597815
 31
0.0
  0
LINE
  5
2127
330
1A
100
AcDbEntity
  8
センター
 48
10.0
100
AcDbLine
 10
6278.084791275919
 20
9276.503097597817
 30
0.0
 11
3038.08479127592
 21
9276.503097597817
 31
0.0
  0
LINE
  5
2128
330
1A
100
AcDbEntity
  8
センター
 48
10.0
100
AcDbLine
 10
6278.084791275919
 20
9905.103097597818
 30
0.0
 11
3038.08479127592
 21
9905.103097597818
 31
0.0
  0
LINE
  5
2129
330
1A
100
AcDbEntity
  8
センター
 48
10.0
100
AcDbLine
 10
6278.084791275919
 20
10533.70309759782
 30
0.0
 11
3038.08479127592
 21
10533.70309759782
 31
0.0
  0
LINE
  5
212A
330
1A
100
AcDbEntity
  8
部品1
100
AcDbLine
 10
6016.08479127592
 20
10646.70309759781
 30
0.0
 11
6016.08479127592
 21
8510.703097597817
 31
0.0
  0
LINE
  5
212B
330
1A
100
AcDbEntity
  8
部品1
100
AcDbLine
 10
5971.08479127592
 20
10646.70309759781
 30
0.0
 11
5971.08479127592
 21
8510.703097597817
 31
0.0
  0
LINE
  5
212C
330
1A
100
AcDbEntity
  8
部品1
100
AcDbLine
 10
5943.08479127592
 20
10646.70309759781
 30
0.0
 11
5943.08479127592
 21
8510.703097597817
 31
0.0
  0
LINE
  5
212D
330
1A
100
AcDbEntity
  8
部品1
100
AcDbLine
 10
5898.08479127592
 20
10646.70309759781
 30
0.0
 11
5898.08479127592
 21
8510.703097597817
 31
0.0
  0
LINE
  5
212E
330
1A
100
AcDbEntity
  8
部品1
100
AcDbLine
 10
5436.08479127592
 20
10646.70309759781
 30
0.0
 11
5436.08479127592
 21
8510.703097597817
 31
0.0
  0
LINE
  5
212F
330
1A
100
AcDbEntity
  8
部品1
100
AcDbLine
 10
5391.08479127592
 20
10646.70309759781
 30
0.0
 11
5391.08479127592
 21
8510.703097597817
 31
0.0
  0
LINE
  5
2130
330
1A
100
AcDbEntity
  8
部品1
100
AcDbLine
 10
5363.08479127592
 20
10646.70309759781
 30
0.0
 11
5363.08479127592
 21
8510.703097597817
 31
0.0
  0
LINE
  5
2131
330
1A
100
AcDbEntity
  8
部品1
100
AcDbLine
 10
5318.08479127592
 20
10646.70309759781
 30
0.0
 11
5318.08479127592
 21
8510.703097597817
 31
0.0
  0
LINE
  5
2132
330
1A
100
AcDbEntity
  8
部品1
100
AcDbLine
 10
4936.08479127592
 20
10646.70309759781
 30
0.0
 11
4936.08479127592
 21
8510.703097597817
 31
0.0
  0
LINE
  5
2133
330
1A
100
AcDbEntity
  8
部品1
100
AcDbLine
 10
4891.08479127592
 20
10646.70309759781
 30
0.0
 11
4891.08479127592
 21
8510.703097597817
 31
0.0
  0
LINE
  5
2134
330
1A
100
AcDbEntity
  8
部品1
100
AcDbLine
 10
4863.08479127592
 20
10646.70309759781
 30
0.0
 11
4863.08479127592
 21
8510.703097597817
 31
0.0
  0
LINE
  5
2135
330
1A
100
AcDbEntity
  8
部品1
100
AcDbLine
 10
4818.08479127592
 20
10646.70309759781
 30
0.0
 11
4818.08479127592
 21
8510.703097597817
 31
0.0
  0
LINE
  5
2136
330
1A
100
AcDbEntity
  8
部品1
100
AcDbLine
 10
4516.08479127592
 20
10646.70309759781
 30
0.0
 11
4516.08479127592
 21
8510.703097597817
 31
0.0
  0
LINE
  5
2137
330
1A
100
AcDbEntity
  8
部品1
100
AcDbLine
 10
4471.084791275919
 20
10646.70309759781
 30
0.0
 11
4471.084791275919
 21
8510.703097597817
 31
0.0
  0
LINE
  5
2138
330
1A
100
AcDbEntity
  8
部品1
100
AcDbLine
 10
4443.08479127592
 20
10646.70309759781
 30
0.0
 11
4443.08479127592
 21
8510.703097597817
 31
0.0
  0
LINE
  5
2139
330
1A
100
AcDbEntity
  8
部品1
100
AcDbLine
 10
4398.08479127592
 20
10646.70309759781
 30
0.0
 11
4398.08479127592
 21
8510.703097597817
 31
0.0
  0
LINE
  5
213A
330
1A
100
AcDbEntity
  8
部品1
100
AcDbLine
 10
4016.08479127592
 20
10646.70309759781
 30
0.0
 11
4016.08479127592
 21
9423.930780017803
 31
0.0
  0
LINE
  5
213B
330
1A
100
AcDbEntity
  8
部品1
100
AcDbLine
 10
3971.08479127592
 20
10646.70309759781
 30
0.0
 11
3971.08479127592
 21
9573.08260833612
 31
0.0
  0
LINE
  5
213C
330
1A
100
AcDbEntity
  8
部品1
100
AcDbLine
 10
3943.08479127592
 20
10646.70309759781
 30
0.0
 11
3943.08479127592
 21
9665.888190400847
 31
0.0
  0
LINE
  5
213D
330
1A
100
AcDbEntity
  8
部品1
100
AcDbLine
 10
3898.08479127592
 20
10646.70309759781
 30
0.0
 11
3898.08479127592
 21
9815.040018719162
 31
0.0
  0
LINE
  5
213E
330
1A
100
AcDbEntity
  8
部品1
100
AcDbLine
 10
5681.084791275918
 20
8510.703097597817
 30
0.0
 11
5681.084791275918
 21
10646.70309759782
 31
0.0
  0
LINE
  5
213F
330
1A
100
AcDbEntity
  8
部品1
100
AcDbLine
 10
5646.584791275918
 20
8510.703097597817
 30
0.0
 11
5646.584791275918
 21
10646.70309759782
 31
0.0
  0
LINE
  5
2140
330
1A
100
AcDbEntity
  8
部品1
100
AcDbLine
 10
5101.08479127592
 20
8510.703097597817
 30
0.0
 11
5101.08479127592
 21
10646.70309759782
 31
0.0
  0
LINE
  5
2141
330
1A
100
AcDbEntity
  8
部品1
100
AcDbLine
 10
5066.58479127592
 20
8510.703097597817
 30
0.0
 11
5066.58479127592
 21
10646.70309759782
 31
0.0
  0
LINE
  5
2142
330
1A
100
AcDbEntity
  8
部品1
100
AcDbLine
 10
4681.08479127592
 20
10646.70309759782
 30
0.0
 11
4681.08479127592
 21
8510.703097597817
 31
0.0
  0
LINE
  5
2143
330
1A
100
AcDbEntity
  8
部品1
100
AcDbLine
 10
4646.58479127592
 20
10646.70309759782
 30
0.0
 11
4646.58479127592
 21
8510.703097597817
 31
0.0
  0
LINE
  5
2144
330
1A
100
AcDbEntity
  8
部品1
100
AcDbLine
 10
4261.084791275919
 20
10646.70309759782
 30
0.0
 11
4261.084791275919
 21
8611.881936951423
 31
0.0
  0
LINE
  5
2145
330
1A
100
AcDbEntity
  8
部品1
100
AcDbLine
 10
4226.58479127592
 20
10646.70309759782
 30
0.0
 11
4226.584791275922
 21
8726.231671995464
 31
0.0
  0
LINE
  5
2146
330
1A
100
AcDbEntity
  8
部品1
100
AcDbLine
 10
3681.08479127592
 20
10646.70309759782
 30
0.0
 11
3681.08479127592
 21
10534.28327972081
 31
0.0
  0
LINE
  5
2147
330
1A
100
AcDbEntity
  8
部品1
100
AcDbLine
 10
3056.58479127592
 20
10751.20309759782
 30
0.0
 11
3035.58479127592
 21
10751.20309759782
 31
0.0
  0
LINE
  5
2148
330
1A
100
AcDbEntity
  8
部品1
100
AcDbLine
 10
3056.58479127592
 20
10751.20309759782
 30
0.0
 11
3056.58479127592
 21
10646.70309759782
 31
0.0
  0
ARC
  5
2149
330
1A
100
AcDbEntity
  8
部品1
100
AcDbCircle
 10
6298.084791275918
 20
10760.70309759782
 30
0.0
 40
10.0
100
AcDbArc
 50
0.0
 51
90.0
  0
LINE
  5
214A
330
1A
100
AcDbEntity
  8
部品1
100
AcDbLine
 10
6259.584791275912
 20
10646.70309759782
 30
0.0
 11
6259.584791275918
 21
10751.20309759782
 31
0.0
  0
ARC
  5
214B
330
1A
100
AcDbEntity
  8
部品1
100
AcDbCircle
 10
6280.584791275918
 20
10756.20309759782
 30
0.0
 40
5.0
100
AcDbArc
 50
270.0
 51
0.0
  0
LINE
  5
214C
330
1A
100
AcDbEntity
  8
部品1
100
AcDbLine
 10
6285.584791275918
 20
10756.20309759782
 30
0.0
 11
6285.58479127592
 21
10770.70309759782
 31
0.0
  0
ARC
  5
214D
330
1A
100
AcDbEntity
  8
部品1
100
AcDbCircle
 10
3035.58479127592
 20
10756.20309759782
 30
0.0
 40
5.0
100
AcDbArc
 50
180.0
 51
270.0
  0
LINE
  5
214E
330
1A
100
AcDbEntity
  8
部品1
100
AcDbLine
 10
6280.584791275918
 20
10751.20309759782
 30
0.0
 11
6259.58479127592
 21
10751.20309759782
 31
0.0
  0
LINE
  5
214F
330
1A
100
AcDbEntity
  8
部品1
100
AcDbLine
 10
3030.58479127592
 20
10770.70309759782
 30
0.0
 11
3030.58479127592
 21
10756.20309759782
 31
0.0
  0
LINE
  5
2150
330
1A
100
AcDbEntity
  8
部品1
100
AcDbLine
 10
6263.084791275925
 20
5990.203097597817
 30
0.0
 11
6263.084791275918
 21
10751.20309759782
 31
0.0
  0
LINE
  5
2151
330
1A
100
AcDbEntity
  8
部品1
100
AcDbLine
 10
3053.08479127592
 20
10751.20309759782
 30
0.0
 11
3053.08479127592
 21
5990.203097597817
 31
0.0
  0
LINE
  5
2152
330
1A
100
AcDbEntity
  8
部品1
100
AcDbLine
 10
6238.084791275922
 20
8510.703097597817
 30
0.0
 11
6238.08479127592
 21
10646.70309759782
 31
0.0
  0
LINE
  5
2153
330
1A
100
AcDbEntity
  8
部品1
100
AcDbLine
 10
3053.08479127592
 20
8510.703097597817
 30
0.0
 11
6263.084791275918
 21
8510.703097597817
 31
0.0
  0
LINE
  5
2154
330
1A
100
AcDbEntity
  8
部品1
100
AcDbLine
 10
3008.08479127592
 20
8370.703097597818
 30
0.0
 11
6308.08479127592
 21
8370.703097597818
 31
0.0
  0
LINE
  5
2155
330
1A
100
AcDbEntity
  8
部品1
100
AcDbLine
 10
6259.584791275912
 20
10646.70309759782
 30
0.0
 11
3056.58479127592
 21
10646.70309759781
 31
0.0
  0
LINE
  5
2156
330
1A
100
AcDbEntity
  8
部品1
100
AcDbLine
 10
6298.084791275918
 20
10770.70309759782
 30
0.0
 11
3018.08479127592
 21
10770.70309759782
 31
0.0
  0
LINE
  5
2157
330
1A
100
AcDbEntity
  8
部品1
100
AcDbLine
 10
6308.084791275918
 20
5980.703097597816
 30
0.0
 11
6308.084791275918
 21
10760.70309759782
 31
0.0
  0
LINE
  5
2158
330
1A
100
AcDbEntity
  8
部品1
100
AcDbLine
 10
3008.08479127592
 20
10760.70309759782
 30
0.0
 11
3008.08479127592
 21
5980.703097597817
 31
0.0
  0
VIEWPORT
  5
22
102
{ACAD_XDICTIONARY
360
2628
102
}
330
17
100
AcDbEntity
 67
     1
  8
0
100
AcDbViewport
 10
261.5176991150442
 20
154.7242978687078
 30
0.0
 40
523.0353982300885
 41
309.4485957374157
 68
     1
 69
     1
 12
261.5176991150442
 22
154.7242978687078
 13
0.0
 23
0.0
 14
1.0
 24
1.0
 15
10.0
 25
10.0
 16
0.0
 26
0.0
 36
1.0
 17
0.0
 27
0.0
 37
0.0
 42
50.0
 43
0.0
 44
0.0
 45
309.4485957374157
 50
0.0
 51
0.0
 72
   100
 90
    32768
  1

281
     0
 71
     1
 74
     0
110
0.0
120
0.0
130
0.0
111
1.0
121
0.0
131
0.0
112
0.0
122
1.0
132
0.0
 79
     0
146
0.0
  0
ENDSEC
  0
SECTION
  2
OBJECTS
  0
DICTIONARY
  5
C
330
0
100
AcDbDictionary
281
     1
  3
ACAD_COLOR
350
17B3
  3
ACAD_GROUP
350
D
  3
ACAD_LAYOUT
350
17B4
  3
ACAD_MATERIAL
350
17B2
  3
ACAD_MLINESTYLE
350
E
  3
ACAD_PLOTSETTINGS
350
17B5
  3
ACAD_PLOTSTYLENAME
350
17B0
  3
ACDBHEADERROUNDTRIPXREC
350
2625
  3
AcDbVariableDictionary
350
2621
  0
DICTIONARY
  5
17DD
330
2
100
AcDbDictionary
280
     1
281
     1
  3
ACAD_LAYERFILTERS
360
18C5
  3
ACAD_LAYERSTATES
360
17DE
  0
DICTIONARY
  5
2628
330
22
100
AcDbDictionary
280
     1
281
     1
  3
ACAD_XREC_ROUNDTRIP
360
2629
  0
DICTIONARY
  5
17B3
102
{ACAD_REACTORS
330
C
102
}
330
C
100
AcDbDictionary
281
     1
  0
DICTIONARY
  5
D
102
{ACAD_REACTORS
330
C
102
}
330
C
100
AcDbDictionary
281
     1
  0
DICTIONARY
  5
17B4
102
{ACAD_REACTORS
330
C
102
}
330
C
100
AcDbDictionary
281
     1
  3
Model
350
17B6
  3
レイアウト1
350
17B7
  0
DICTIONARY
  5
17B2
102
{ACAD_REACTORS
330
C
102
}
330
C
100
AcDbDictionary
281
     1
  0
DICTIONARY
  5
E
102
{ACAD_REACTORS
330
C
102
}
330
C
100
AcDbDictionary
281
     1
  3
STANDARD
350
13
  0
DICTIONARY
  5
17B5
102
{ACAD_REACTORS
330
C
102
}
330
C
100
AcDbDictionary
281
     1
  0
ACDBDICTIONARYWDFLT
  5
17B0
102
{ACAD_REACTORS
330
C
102
}
330
C
100
AcDbDictionary
281
     1
  3
Normal
350
17B1
100
AcDbDictionaryWithDefault
340
17B1
  0
DICTIONARY
  5
2625
102
{ACAD_REACTORS
330
C
102
}
330
C
100
AcDbDictionary
281
     1
  3
COLORDICT
350
2627
  3
MATERIALDICT
350
2626
  0
DICTIONARY
  5
2621
102
{ACAD_REACTORS
330
C
102
}
330
C
100
AcDbDictionary
281
     1
  3
DIMASSOC
350
2622
  3
PROJECTNAME
350
2623
  0
DICTIONARY
  5
18C5
102
{ACAD_REACTORS
330
17DD
102
}
330
17DD
100
AcDbDictionary
281
     1
  0
DICTIONARY
  5
17DE
102
{ACAD_REACTORS
330
17DD
102
}
330
17DD
100
AcDbDictionary
281
     1
  0
XRECORD
  5
2629
102
{ACAD_REACTORS
330
2628
102
}
330
2628
100
AcDbXrecord
280
     1
102
SHADEPLOT
 70
     0
  0
LAYOUT
  5
17B6
102
{ACAD_XDICTIONARY
360
262A
102
}
102
{ACAD_REACTORS
330
17B4
102
}
330
17B4
100
AcDbPlotSettings
  1

  2
iR C3880
  4
A3
  6

 40
5.873749732971191
 41
5.873747825622558
 42
5.873748779296875
 43
5.873748779296875
 44
296.9259948730469
 45
419.9466552734374
 46
0.0
 47
0.0
 48
0.0
 49
0.0
140
0.0
141
0.0
142
1.0
143
40.0
 70
 11952
 72
     1
 73
     1
 74
     2
  7
inaba.ctb
 75
    24
147
0.025
148
0.0
149
0.0
100
AcDbLayout
  1
Model
 70
     1
 71
     0
 10
0.0
 20
0.0
 11
12.0
 21
9.0
 12
0.0
 22
0.0
 32
0.0
 14
0.0
 24
0.0
 34
0.0
 15
0.0
 25
0.0
 35
0.0
146
0.0
 13
0.0
 23
0.0
 33
0.0
 16
1.0
 26
0.0
 36
0.0
 17
0.0
 27
1.0
 37
0.0
 76
     0
330
1A
  0
LAYOUT
  5
17B7
102
{ACAD_XDICTIONARY
360
262C
102
}
102
{ACAD_REACTORS
330
17B4
102
}
330
17B4
100
AcDbPlotSettings
  1

  2
自動 EPSON LP-8400FX (TATENO 上)
  4

  6

 40
0.0
 41
0.0
 42
0.0
 43
0.0
 44
0.0
 45
0.0
 46
0.0
 47
0.0
 48
0.0
 49
0.0
140
0.0
141
0.0
142
1.0
143
1.0
 70
   688
 72
     0
 73
     0
 74
     5
  7
inaba.ctb
 75
    16
147
1.0
148
0.0
149
0.0
100
AcDbLayout
  1
レイアウト1
 70
     1
 71
     1
 10
0.0
 20
0.0
 11
420.0
 21
297.0
 12
0.0
 22
0.0
 32
0.0
 14
1.000000000000000E+20
 24
1.000000000000000E+20
 34
1.000000000000000E+20
 15
-1.000000000000000E+20
 25
-1.000000000000000E+20
 35
-1.000000000000000E+20
146
0.0
 13
0.0
 23
0.0
 33
0.0
 16
1.0
 26
0.0
 36
0.0
 17
0.0
 27
1.0
 37
0.0
 76
     0
330
17
331
22
  0
MLINESTYLE
  5
13
102
{ACAD_REACTORS
330
E
102
}
330
E
100
AcDbMlineStyle
  2
STANDARD
 70
     0
  3

 62
     0
 51
90.0
 52
90.0
 71
     2
 49
0.5
 62
   256
  6
BYLAYER
 49
-0.5
 62
   256
  6
BYLAYER
  0
ACDBPLACEHOLDER
  5
17B1
102
{ACAD_REACTORS
330
17B0
102
}
330
17B0
  0
XRECORD
  5
2627
102
{ACAD_REACTORS
330
2625
102
}
330
2625
100
AcDbXrecord
280
     1
340
17B3
  0
XRECORD
  5
2626
102
{ACAD_REACTORS
330
2625
102
}
330
2625
100
AcDbXrecord
280
     1
340
17B2
  0
DICTIONARYVAR
  5
2622
102
{ACAD_REACTORS
330
2621
102
}
330
2621
100
DictionaryVariables
280
     0
  1
1
  0
DICTIONARYVAR
  5
2623
102
{ACAD_REACTORS
330
2621
102
}
330
2621
100
DictionaryVariables
280
     0
  1

  0
DICTIONARY
  5
262A
330
17B6
100
AcDbDictionary
280
     1
281
     1
  3
ACAD_XREC_ROUNDTRIP
360
262B
  0
DICTIONARY
  5
262C
330
17B7
100
AcDbDictionary
280
     1
281
     1
  3
ACAD_XREC_ROUNDTRIP
360
262D
  0
XRECORD
  5
262B
102
{ACAD_REACTORS
330
262A
102
}
330
262A
100
AcDbXrecord
280
     1
102
SHADEPLOT
 70
     0
102
SHADEPLOTRESLEVEL
 70
     2
102
SHADEPLOTCUSTOMDPI
 70
   300
  0
XRECORD
  5
262D
102
{ACAD_REACTORS
330
262C
102
}
330
262C
100
AcDbXrecord
280
     1
102
SHADEPLOT
 70
     0
102
SHADEPLOTRESLEVEL
 70
     2
102
SHADEPLOTCUSTOMDPI
 70
   300
  0
ENDSEC
  0
EOF
