  0
SECTION
  2
HEADER
  9
$ACADVER
  1
AC1015
  9
$ACADMAINTVER
 70
    20
  9
$DWGCODEPAGE
  3
ANSI_932
  9
$INSBASE
 10
0.0
 20
0.0
 30
0.0
  9
$EXTMIN
 10
128.8000000000011
 20
264.0
 30
0.0
  9
$EXTMAX
 10
16296.0
 20
11006.70309759781
 30
0.0
  9
$LIMMIN
 10
0.0
 20
0.0
  9
$LIMMAX
 10
16800.0
 20
11880.0
  9
$ORTHOMODE
 70
     0
  9
$REGENMODE
 70
     1
  9
$FILLMODE
 70
     1
  9
$QTEXTMODE
 70
     0
  9
$MIRRTEXT
 70
     1
  9
$LTSCALE
 40
7.0
  9
$ATTMODE
 70
     1
  9
$TEXTSIZE
 40
3.5
  9
$TRACEWID
 40
1.0
  9
$TEXTSTYLE
  7
MSGOTHIC
  9
$CLAYER
  8
仕様書枠
  9
$CELTYPE
  6
BYLAYER
  9
$CECOLOR
 62
   256
  9
$CELTSCALE
 40
50.0
  9
$DISPSILH
 70
     0
  9
$DIMSCALE
 40
40.0
  9
$DIMASZ
 40
2.5
  9
$DIMEXO
 40
1.0
  9
$DIMDLI
 40
7.0
  9
$DIMRND
 40
0.0
  9
$DIMDLE
 40
0.0
  9
$DIMEXE
 40
1.0
  9
$DIMTP
 40
0.0
  9
$DIMTM
 40
0.0
  9
$DIMTXT
 40
3.0
  9
$DIMCEN
 40
2.5
  9
$DIMTSZ
 40
0.0
  9
$DIMTOL
 70
     0
  9
$DIMLIM
 70
     0
  9
$DIMTIH
 70
     0
  9
$DIMTOH
 70
     0
  9
$DIMSE1
 70
     0
  9
$DIMSE2
 70
     0
  9
$DIMTAD
 70
     3
  9
$DIMZIN
 70
     8
  9
$DIMBLK
  1

  9
$DIMASO
 70
     1
  9
$DIMSHO
 70
     1
  9
$DIMPOST
  1

  9
$DIMAPOST
  1

  9
$DIMALT
 70
     0
  9
$DIMALTD
 70
     2
  9
$DIMALTF
 40
0.0394
  9
$DIMLFAC
 40
1.0
  9
$DIMTOFL
 70
     0
  9
$DIMTVP
 40
1.0
  9
$DIMTIX
 70
     0
  9
$DIMSOXD
 70
     0
  9
$DIMSAH
 70
     1
  9
$DIMBLK1
  1
DOTSMALL
  9
$DIMBLK2
  1
DOTSMALL
  9
$DIMSTYLE
  2
物置仕様図40
  9
$DIMCLRD
 70
     4
  9
$DIMCLRE
 70
     4
  9
$DIMCLRT
 70
     7
  9
$DIMTFAC
 40
1.0
  9
$DIMGAP
 40
1.0
  9
$DIMJUST
 70
     0
  9
$DIMSD1
 70
     0
  9
$DIMSD2
 70
     0
  9
$DIMTOLJ
 70
     1
  9
$DIMTZIN
 70
     8
  9
$DIMALTZ
 70
     0
  9
$DIMALTTZ
 70
     0
  9
$DIMUPT
 70
     0
  9
$DIMDEC
 70
     2
  9
$DIMTDEC
 70
     2
  9
$DIMALTU
 70
     2
  9
$DIMALTTD
 70
     2
  9
$DIMTXSTY
  7
STANDARD
  9
$DIMAUNIT
 70
     0
  9
$DIMADEC
 70
     0
  9
$DIMALTRND
 40
0.0
  9
$DIMAZIN
 70
     0
  9
$DIMDSEP
 70
    46
  9
$DIMATFIT
 70
     3
  9
$DIMFRAC
 70
     0
  9
$DIMLDRBLK
  1

  9
$DIMLUNIT
 70
     2
  9
$DIMLWD
 70
    -2
  9
$DIMLWE
 70
    -2
  9
$DIMTMOVE
 70
     2
  9
$LUNITS
 70
     2
  9
$LUPREC
 70
     1
  9
$SKETCHINC
 40
1.0
  9
$FILLETRAD
 40
5.0
  9
$AUNITS
 70
     0
  9
$AUPREC
 70
     1
  9
$MENU
  1
.
  9
$ELEVATION
 40
0.0
  9
$PELEVATION
 40
0.0
  9
$THICKNESS
 40
0.0
  9
$LIMCHECK
 70
     0
  9
$CHAMFERA
 40
400.0
  9
$CHAMFERB
 40
400.0
  9
$CHAMFERC
 40
800.0
  9
$CHAMFERD
 40
0.0
  9
$SKPOLY
 70
     0
  9
$TDCREATE
 40
2450696.487780324
  9
$TDUCREATE
 40
2450696.112780324
  9
$TDUPDATE
 40
2455579.570697871
  9
$TDUUPDATE
 40
2455579.195697870
  9
$TDINDWG
 40
0.4352701505
  9
$TDUSRTIMER
 40
0.4352701505
  9
$USRTIMER
 70
     1
  9
$ANGBASE
 50
0.0
  9
$ANGDIR
 70
     0
  9
$PDMODE
 70
     0
  9
$PDSIZE
 40
0.0
  9
$PLINEWID
 40
0.0
  9
$SPLFRAME
 70
     0
  9
$SPLINETYPE
 70
     6
  9
$SPLINESEGS
 70
     8
  9
$HANDSEED
  5
2884
  9
$SURFTAB1
 70
     6
  9
$SURFTAB2
 70
     6
  9
$SURFTYPE
 70
     6
  9
$SURFU
 70
     6
  9
$SURFV
 70
     6
  9
$UCSBASE
  2

  9
$UCSNAME
  2

  9
$UCSORG
 10
0.0
 20
0.0
 30
0.0
  9
$UCSXDIR
 10
1.0
 20
0.0
 30
0.0
  9
$UCSYDIR
 10
0.0
 20
1.0
 30
0.0
  9
$UCSORTHOREF
  2

  9
$UCSORTHOVIEW
 70
     0
  9
$UCSORGTOP
 10
0.0
 20
0.0
 30
0.0
  9
$UCSORGBOTTOM
 10
0.0
 20
0.0
 30
0.0
  9
$UCSORGLEFT
 10
0.0
 20
0.0
 30
0.0
  9
$UCSORGRIGHT
 10
0.0
 20
0.0
 30
0.0
  9
$UCSORGFRONT
 10
0.0
 20
0.0
 30
0.0
  9
$UCSORGBACK
 10
0.0
 20
0.0
 30
0.0
  9
$PUCSBASE
  2

  9
$PUCSNAME
  2

  9
$PUCSORG
 10
0.0
 20
0.0
 30
0.0
  9
$PUCSXDIR
 10
1.0
 20
0.0
 30
0.0
  9
$PUCSYDIR
 10
0.0
 20
1.0
 30
0.0
  9
$PUCSORTHOREF
  2

  9
$PUCSORTHOVIEW
 70
     0
  9
$PUCSORGTOP
 10
0.0
 20
0.0
 30
0.0
  9
$PUCSORGBOTTOM
 10
0.0
 20
0.0
 30
0.0
  9
$PUCSORGLEFT
 10
0.0
 20
0.0
 30
0.0
  9
$PUCSORGRIGHT
 10
0.0
 20
0.0
 30
0.0
  9
$PUCSORGFRONT
 10
0.0
 20
0.0
 30
0.0
  9
$PUCSORGBACK
 10
0.0
 20
0.0
 30
0.0
  9
$USERI1
 70
     0
  9
$USERI2
 70
     0
  9
$USERI3
 70
     0
  9
$USERI4
 70
     0
  9
$USERI5
 70
     0
  9
$USERR1
 40
0.0
  9
$USERR2
 40
0.0
  9
$USERR3
 40
0.0
  9
$USERR4
 40
0.0
  9
$USERR5
 40
0.0
  9
$WORLDVIEW
 70
     1
  9
$SHADEDGE
 70
     3
  9
$SHADEDIF
 70
    70
  9
$TILEMODE
 70
     1
  9
$MAXACTVP
 70
    16
  9
$PINSBASE
 10
0.0
 20
0.0
 30
0.0
  9
$PLIMCHECK
 70
     0
  9
$PEXTMIN
 10
1.000000000000000E+20
 20
1.000000000000000E+20
 30
1.000000000000000E+20
  9
$PEXTMAX
 10
-1.000000000000000E+20
 20
-1.000000000000000E+20
 30
-1.000000000000000E+20
  9
$PLIMMIN
 10
0.0
 20
0.0
  9
$PLIMMAX
 10
420.0
 20
297.0
  9
$UNITMODE
 70
     0
  9
$VISRETAIN
 70
     0
  9
$PLINEGEN
 70
     0
  9
$PSLTSCALE
 70
     1
  9
$TREEDEPTH
 70
  3020
  9
$CMLSTYLE
  2
STANDARD
  9
$CMLJUST
 70
     0
  9
$CMLSCALE
 40
1.0
  9
$PROXYGRAPHICS
 70
     1
  9
$MEASUREMENT
 70
     1
  9
$CELWEIGHT
370
    -1
  9
$ENDCAPS
280
     0
  9
$JOINSTYLE
280
     0
  9
$LWDISPLAY
290
     0
  9
$INSUNITS
 70
     0
  9
$HYPERLINKBASE
  1

  9
$STYLESHEET
  1
inaba.ctb
  9
$XEDIT
290
     1
  9
$CEPSNTYPE
380
     0
  9
$PSTYLEMODE
290
     1
  9
$FINGERPRINTGUID
  2
{79BAF060-0357-455F-9BB3-0AEA31AB33DF}
  9
$VERSIONGUID
  2
{897A9FDB-D55E-4B66-9861-8B9EAABCB7F6}
  9
$EXTNAMES
290
     1
  9
$PSVPSCALE
 40
0.0
  9
$OLESTARTUP
290
     0
  0
ENDSEC
  0
SECTION
  2
CLASSES
  0
CLASS
  1
ACDBDICTIONARYWDFLT
  2
AcDbDictionaryWithDefault
  3
ObjectDBX Classes
 90
        0
280
     0
281
     0
  0
CLASS
  1
SORTENTSTABLE
  2
AcDbSortentsTable
  3
ObjectDBX Classes
 90
    32768
280
     0
281
     0
  0
CLASS
  1
DICTIONARYVAR
  2
AcDbDictionaryVar
  3
ObjectDBX Classes
 90
        0
280
     0
281
     0
  0
CLASS
  1
ACDBPLACEHOLDER
  2
AcDbPlaceHolder
  3
ObjectDBX Classes
 90
        0
280
     0
281
     0
  0
CLASS
  1
LAYOUT
  2
AcDbLayout
  3
ObjectDBX Classes
 90
        0
280
     0
281
     0
  0
ENDSEC
  0
SECTION
  2
TABLES
  0
TABLE
  2
VPORT
  5
8
330
0
100
AcDbSymbolTable
 70
     2
  0
VPORT
  5
287A
330
8
100
AcDbSymbolTableRecord
100
AcDbViewportTableRecord
  2
*Active
 70
     0
 10
0.0
 20
0.0
 11
1.0
 21
1.0
 12
10067.6157982568
 22
5635.459011680746
 13
0.0
 23
0.0
 14
420.0
 24
420.0
 15
420.0
 25
420.0
 16
0.0
 26
0.0
 36
1.0
 17
0.0
 27
0.0
 37
0.0
 40
13252.7886968784
 41
1.5075
 42
50.0
 43
0.0
 44
0.0
 50
0.0
 51
0.0
 71
     0
 72
   100
 73
     1
 74
     0
 75
     0
 76
     0
 77
     0
 78
     1
281
     0
 65
     1
110
0.0
120
0.0
130
0.0
111
1.0
121
0.0
131
0.0
112
0.0
122
1.0
132
0.0
 79
     0
146
0.0
  0
ENDTAB
  0
TABLE
  2
LTYPE
  5
5
330
0
100
AcDbSymbolTable
 70
     3
  0
LTYPE
  5
14
330
5
100
AcDbSymbolTableRecord
100
AcDbLinetypeTableRecord
  2
BYBLOCK
 70
     0
  3

 72
    65
 73
     0
 40
0.0
  0
LTYPE
  5
15
330
5
100
AcDbSymbolTableRecord
100
AcDbLinetypeTableRecord
  2
BYLAYER
 70
     0
  3

 72
    65
 73
     0
 40
0.0
  0
LTYPE
  5
16
330
5
100
AcDbSymbolTableRecord
100
AcDbLinetypeTableRecord
  2
CONTINUOUS
 70
     0
  3
Solid line
 72
    65
 73
     0
 40
0.0
  0
LTYPE
  5
61
330
5
100
AcDbSymbolTableRecord
100
AcDbLinetypeTableRecord
  2
CENTER
 70
     0
  3
____ _ ____ _ ____ _ ____ _ ____ _ ____ _ ____ 
 72
    65
 73
     4
 40
2.0
 49
1.25
 74
     0
 49
-0.25
 74
     0
 49
0.25
 74
     0
 49
-0.25
 74
     0
  0
LTYPE
  5
62
330
5
100
AcDbSymbolTableRecord
100
AcDbLinetypeTableRecord
  2
HIDDEN
 70
     0
  3
__ __ __ __ __ __ __ __ __ __ __ __ __ __ __ __
 72
    65
 73
     2
 40
0.375
 49
0.25
 74
     0
 49
-0.125
 74
     0
  0
ENDTAB
  0
TABLE
  2
LAYER
  5
2
102
{ACAD_XDICTIONARY
360
17DD
102
}
330
0
100
AcDbSymbolTable
 70
    10
  0
LAYER
  5
F
330
2
100
AcDbSymbolTableRecord
100
AcDbLayerTableRecord
  2
0
 70
     0
 62
     7
  6
CONTINUOUS
370
    -3
390
17B1
  0
LAYER
  5
63
330
2
100
AcDbSymbolTableRecord
100
AcDbLayerTableRecord
  2
細線
 70
     0
 62
     5
  6
CONTINUOUS
370
    -3
390
17B1
  0
LAYER
  5
64
330
2
100
AcDbSymbolTableRecord
100
AcDbLayerTableRecord
  2
寸法
 70
     0
 62
     4
  6
CONTINUOUS
370
    -3
390
17B1
  0
LAYER
  5
65
330
2
100
AcDbSymbolTableRecord
100
AcDbLayerTableRecord
  2
センター
 70
     0
 62
     3
  6
CENTER
370
    -3
390
17B1
  0
LAYER
  5
92A
330
2
100
AcDbSymbolTableRecord
100
AcDbLayerTableRecord
  2
DEFPOINTS
 70
     0
 62
     7
  6
CONTINUOUS
290
     0
370
    -3
390
17B1
  0
LAYER
  5
118B
330
2
100
AcDbSymbolTableRecord
100
AcDbLayerTableRecord
  2
Ｇ．Ｌ
 70
     0
 62
    30
  6
CONTINUOUS
370
    -3
390
17B1
  0
LAYER
  5
13EC
330
2
100
AcDbSymbolTableRecord
100
AcDbLayerTableRecord
  2
文字
 70
     0
 62
     7
  6
CONTINUOUS
370
    -3
390
17B1
  0
LAYER
  5
13ED
330
2
100
AcDbSymbolTableRecord
100
AcDbLayerTableRecord
  2
仕様書枠
 70
     0
 62
   230
  6
CONTINUOUS
370
    -3
390
17B1
  0
LAYER
  5
1748
330
2
100
AcDbSymbolTableRecord
100
AcDbLayerTableRecord
  2
部品1
 70
     0
 62
     7
  6
CONTINUOUS
370
    -3
390
17B1
  0
LAYER
  5
187A
330
2
100
AcDbSymbolTableRecord
100
AcDbLayerTableRecord
  2
点線
 70
     0
 62
     2
  6
HIDDEN
370
    -3
390
17B1
  0
ENDTAB
  0
TABLE
  2
STYLE
  5
3
330
0
100
AcDbSymbolTable
 70
     7
  0
STYLE
  5
10
330
3
100
AcDbSymbolTableRecord
100
AcDbTextStyleTableRecord
  2
STANDARD
 70
     0
 40
0.0
 41
1.0
 50
0.0
 71
     0
 42
100.0
  3
ISOCP
  4
C:\Program Files\AutoCAD LT\bigfont.shx
  0
STYLE
  5
373
330
3
100
AcDbSymbolTableRecord
100
AcDbTextStyleTableRecord
  2
MSGOTHIC
 70
     0
 40
0.0
 41
1.0
 50
0.0
 71
     0
 42
3.5
  3
MS PGothic.ttf
  4

1001
ACAD
1000
MS PGothic
1071
    32818
  0
STYLE
  5
374
330
3
100
AcDbSymbolTableRecord
100
AcDbTextStyleTableRecord
  2
MSMINCHO
 70
     0
 40
0.0
 41
1.0
 50
0.0
 71
     0
 42
1.199999999999999
  3
msminch2.TTF
  4

  0
STYLE
  5
13EE
330
3
100
AcDbSymbolTableRecord
100
AcDbTextStyleTableRecord
  2
STYLE2
 70
     0
 40
0.0
 41
1.0
 50
0.0
 71
     0
 42
100.0
  3
MS PGothic.ttf
  4

1001
ACAD
1000
MS PGothic
1071
    32818
  0
STYLE
  5
17DC
330
3
100
AcDbSymbolTableRecord
100
AcDbTextStyleTableRecord
  2
STYLE1
 70
     0
 40
0.0
 41
1.0
 50
0.0
 71
     0
 42
4.0
  3
isocp.shx
  4
bigfont.shx
  0
STYLE
  5
19E4
330
3
100
AcDbSymbolTableRecord
100
AcDbTextStyleTableRecord
  2

 70
     1
 40
0.0
 41
1.0
 50
0.0
 71
     0
 42
100.0
  3
ltypeshp.shx
  4

  0
STYLE
  5
19E5
330
3
100
AcDbSymbolTableRecord
100
AcDbTextStyleTableRecord
  2
STYLE3
 70
     0
 40
0.0
 41
1.0
 50
0.0
 71
     0
 42
100.0
  3
MS PGothic.ttf
  4

1001
ACAD
1000
MS PGothic
1071
    32818
  0
ENDTAB
  0
TABLE
  2
VIEW
  5
6
330
0
100
AcDbSymbolTable
 70
     0
  0
ENDTAB
  0
TABLE
  2
UCS
  5
7
330
0
100
AcDbSymbolTable
 70
     0
  0
ENDTAB
  0
TABLE
  2
APPID
  5
9
330
0
100
AcDbSymbolTable
 70
     1
  0
APPID
  5
11
330
9
100
AcDbSymbolTableRecord
100
AcDbRegAppTableRecord
  2
ACAD
 70
     0
  0
ENDTAB
  0
TABLE
  2
DIMSTYLE
  5
A
330
0
100
AcDbSymbolTable
 70
     3
100
AcDbDimStyleTable
 71
     1
340
92
  0
DIMSTYLE
105
1D
330
A
100
AcDbSymbolTableRecord
100
AcDbDimStyleTableRecord
  2
STANDARD
 70
     0
340
10
  0
DIMSTYLE
105
92
102
{ACAD_REACTORS
330
2021
330
2022
330
2023
330
2024
330
2025
330
2026
330
2027
330
2028
330
2029
330
202A
330
202B
330
202C
330
202D
330
202E
330
202F
330
2030
330
2031
330
2032
330
2033
330
2034
330
2035
330
20C5
330
20CF
330
20D0
330
20D1
330
20D2
330
20D3
330
20D4
330
20DD
330
20E8
330
20FC
330
210B
330
217E
330
217F
102
}
330
A
100
AcDbSymbolTableRecord
100
AcDbDimStyleTableRecord
  2
物置仕様図40
 70
     0
 40
40.0
 41
2.5
 42
1.0
 43
7.0
 44
1.0
 73
     0
 74
     0
 77
     3
 78
     8
140
3.0
141
2.5
143
0.0394
145
1.0
147
1.0
173
     1
176
     4
177
     4
178
     7
271
     2
272
     2
279
     2
284
     8
340
10
341
E5C
343
E5C
344
E5C
  0
DIMSTYLE
105
19E6
330
A
100
AcDbSymbolTableRecord
100
AcDbDimStyleTableRecord
  2
INABA_S30G
 70
     0
 40
30.0
 41
2.5
 42
0.5
 43
7.0
 44
1.5
 73
     0
 74
     0
 77
     3
 78
     8
140
3.0
141
0.0
143
0.0394
147
1.0
172
     1
173
     1
174
     1
175
     1
178
     7
271
     1
340
17DC
341
E5C
343
E5C
344
E5C
  0
ENDTAB
  0
TABLE
  2
BLOCK_RECORD
  5
1
330
0
100
AcDbSymbolTable
 70
    35
  0
BLOCK_RECORD
  5
1A
330
1
100
AcDbSymbolTableRecord
100
AcDbBlockTableRecord
  2
*MODEL_SPACE
340
17B6
  0
BLOCK_RECORD
  5
17
330
1
100
AcDbSymbolTableRecord
100
AcDbBlockTableRecord
  2
*PAPER_SPACE
340
17B7
  0
BLOCK_RECORD
  5
E5C
330
1
100
AcDbSymbolTableRecord
100
AcDbBlockTableRecord
  2
_DOTSMALL
340
0
102
{BLKREFS
331
20C6
331
26DC
331
26DD
331
26E6
331
26E7
331
26ED
331
26EE
331
2700
331
2701
331
2707
331
2708
331
2710
331
2711
331
2719
331
271A
331
2723
331
2724
331
272A
331
272B
331
2734
331
2735
331
273C
331
273D
331
2745
331
2746
331
274F
331
2750
331
2757
331
2758
331
2779
331
277A
331
2781
331
2782
331
2789
331
278A
331
2790
331
2791
331
2799
331
279A
331
27A1
331
27A2
331
27AA
331
27AB
331
27B3
331
27B4
331
27BA
331
27BB
331
27C2
331
27C3
331
27CB
331
27CC
331
27D3
331
27D4
331
27DB
331
27DC
331
27E2
331
27E3
331
27EA
331
27EB
331
27F4
331
27F5
331
2832
331
2833
331
2856
331
2857
331
285E
331
285F
331
2866
331
2867
102
}
  0
BLOCK_RECORD
  5
2316
330
1
100
AcDbSymbolTableRecord
100
AcDbBlockTableRecord
  2
*D1
340
0
  0
BLOCK_RECORD
  5
2322
330
1
100
AcDbSymbolTableRecord
100
AcDbBlockTableRecord
  2
*D2
340
0
  0
BLOCK_RECORD
  5
232D
330
1
100
AcDbSymbolTableRecord
100
AcDbBlockTableRecord
  2
*D3
340
0
  0
BLOCK_RECORD
  5
2338
330
1
100
AcDbSymbolTableRecord
100
AcDbBlockTableRecord
  2
*D4
340
0
  0
BLOCK_RECORD
  5
2343
330
1
100
AcDbSymbolTableRecord
100
AcDbBlockTableRecord
  2
*D5
340
0
  0
BLOCK_RECORD
  5
234E
330
1
100
AcDbSymbolTableRecord
100
AcDbBlockTableRecord
  2
*D6
340
0
  0
BLOCK_RECORD
  5
2359
330
1
100
AcDbSymbolTableRecord
100
AcDbBlockTableRecord
  2
*D7
340
0
  0
BLOCK_RECORD
  5
2364
330
1
100
AcDbSymbolTableRecord
100
AcDbBlockTableRecord
  2
*D8
340
0
  0
BLOCK_RECORD
  5
236F
330
1
100
AcDbSymbolTableRecord
100
AcDbBlockTableRecord
  2
*D9
340
0
  0
BLOCK_RECORD
  5
237A
330
1
100
AcDbSymbolTableRecord
100
AcDbBlockTableRecord
  2
*D10
340
0
  0
BLOCK_RECORD
  5
2386
330
1
100
AcDbSymbolTableRecord
100
AcDbBlockTableRecord
  2
*D11
340
0
  0
BLOCK_RECORD
  5
2392
330
1
100
AcDbSymbolTableRecord
100
AcDbBlockTableRecord
  2
*D12
340
0
  0
BLOCK_RECORD
  5
239D
330
1
100
AcDbSymbolTableRecord
100
AcDbBlockTableRecord
  2
*D13
340
0
  0
BLOCK_RECORD
  5
23A8
330
1
100
AcDbSymbolTableRecord
100
AcDbBlockTableRecord
  2
*D14
340
0
  0
BLOCK_RECORD
  5
23B3
330
1
100
AcDbSymbolTableRecord
100
AcDbBlockTableRecord
  2
*D15
340
0
  0
BLOCK_RECORD
  5
23BE
330
1
100
AcDbSymbolTableRecord
100
AcDbBlockTableRecord
  2
*D16
340
0
  0
BLOCK_RECORD
  5
23C9
330
1
100
AcDbSymbolTableRecord
100
AcDbBlockTableRecord
  2
*D17
340
0
  0
BLOCK_RECORD
  5
23D5
330
1
100
AcDbSymbolTableRecord
100
AcDbBlockTableRecord
  2
*D18
340
0
  0
BLOCK_RECORD
  5
23E0
330
1
100
AcDbSymbolTableRecord
100
AcDbBlockTableRecord
  2
*D19
340
0
  0
BLOCK_RECORD
  5
23EB
330
1
100
AcDbSymbolTableRecord
100
AcDbBlockTableRecord
  2
*D20
340
0
  0
BLOCK_RECORD
  5
23F7
330
1
100
AcDbSymbolTableRecord
100
AcDbBlockTableRecord
  2
*D21
340
0
  0
BLOCK_RECORD
  5
2403
330
1
100
AcDbSymbolTableRecord
100
AcDbBlockTableRecord
  2
*D22
340
0
  0
BLOCK_RECORD
  5
240F
330
1
100
AcDbSymbolTableRecord
100
AcDbBlockTableRecord
  2
*D23
340
0
  0
BLOCK_RECORD
  5
241B
330
1
100
AcDbSymbolTableRecord
100
AcDbBlockTableRecord
  2
*D24
340
0
  0
BLOCK_RECORD
  5
2427
330
1
100
AcDbSymbolTableRecord
100
AcDbBlockTableRecord
  2
*D25
340
0
  0
BLOCK_RECORD
  5
2432
330
1
100
AcDbSymbolTableRecord
100
AcDbBlockTableRecord
  2
*D26
340
0
  0
BLOCK_RECORD
  5
243E
330
1
100
AcDbSymbolTableRecord
100
AcDbBlockTableRecord
  2
*D27
340
0
  0
BLOCK_RECORD
  5
244A
330
1
100
AcDbSymbolTableRecord
100
AcDbBlockTableRecord
  2
*D28
340
0
  0
BLOCK_RECORD
  5
2456
330
1
100
AcDbSymbolTableRecord
100
AcDbBlockTableRecord
  2
*D29
340
0
  0
BLOCK_RECORD
  5
2461
330
1
100
AcDbSymbolTableRecord
100
AcDbBlockTableRecord
  2
*D30
340
0
  0
BLOCK_RECORD
  5
246E
330
1
100
AcDbSymbolTableRecord
100
AcDbBlockTableRecord
  2
*D31
340
0
  0
BLOCK_RECORD
  5
2479
330
1
100
AcDbSymbolTableRecord
100
AcDbBlockTableRecord
  2
*D32
340
0
  0
BLOCK_RECORD
  5
2484
330
1
100
AcDbSymbolTableRecord
100
AcDbBlockTableRecord
  2
*D33
340
0
  0
BLOCK_RECORD
  5
2490
330
1
100
AcDbSymbolTableRecord
100
AcDbBlockTableRecord
  2
*D34
340
0
  0
ENDTAB
  0
ENDSEC
  0
SECTION
  2
BLOCKS
  0
BLOCK
  5
1B
330
1A
100
AcDbEntity
  8
0
100
AcDbBlockBegin
  2
*MODEL_SPACE
 70
     0
 10
0.0
 20
0.0
 30
0.0
  3
*MODEL_SPACE
  1

  0
ENDBLK
  5
1C
330
1A
100
AcDbEntity
  8
0
100
AcDbBlockEnd
  0
BLOCK
  5
18
330
17
100
AcDbEntity
 67
     1
  8
0
100
AcDbBlockBegin
  2
*PAPER_SPACE
 70
     0
 10
0.0
 20
0.0
 30
0.0
  3
*PAPER_SPACE
  1

  0
ENDBLK
  5
19
330
17
100
AcDbEntity
 67
     1
  8
0
100
AcDbBlockEnd
  0
BLOCK
  5
E5D
330
E5C
100
AcDbEntity
  8
0
100
AcDbBlockBegin
  2
_DOTSMALL
 70
     0
 10
0.0
 20
0.0
 30
0.0
  3
_DOTSMALL
  1

  0
LWPOLYLINE
  5
E5E
330
E5C
100
AcDbEntity
  8
0
  6
ByBlock
 62
     0
100
AcDbPolyline
 90
        2
 70
     1
 43
0.5
 10
-0.0625
 20
0.0
 42
1.0
 10
0.0625
 20
0.0
 42
1.0
  0
ENDBLK
  5
E62
330
E5C
100
AcDbEntity
  8
0
100
AcDbBlockEnd
  0
BLOCK
  5
2320
330
2316
100
AcDbEntity
  8
0
 48
50.0
100
AcDbBlockBegin
  2
*D1
 70
     1
 10
0.0
 20
0.0
 30
0.0
  3
*D1
  1

  0
LINE
  5
27F0
330
2316
100
AcDbEntity
  8
寸法
 62
     4
 48
50.0
370
    -2
100
AcDbLine
 10
1888.084791275922
 20
10706.70309759781
 30
0.0
 11
1304.415140076317
 21
10706.70309759781
 31
0.0
  0
LINE
  5
27F1
330
2316
100
AcDbEntity
  8
寸法
 62
     4
 48
50.0
370
    -2
100
AcDbLine
 10
1878.084791275922
 20
10469.70309759781
 30
0.0
 11
1304.415140076317
 21
10469.70309759781
 31
0.0
  0
LINE
  5
27F2
330
2316
100
AcDbEntity
  8
寸法
 62
     4
 48
50.0
370
    -2
100
AcDbLine
 10
1344.415140076316
 20
10706.70309759781
 30
0.0
 11
1344.415140076316
 21
10469.70309759781
 31
0.0
  0
MTEXT
  5
27F3
330
2316
100
AcDbEntity
  8
寸法
 62
     7
 48
50.0
100
AcDbMText
 10
1184.403329052693
 20
10588.20309759781
 30
0.0
 40
120.0
 41
0.0
 71
     5
 72
     1
  1
\A1;237
 11
0.0000000000000001
 21
1.0
 31
0.0
 73
     1
 44
1.0
1001
ACAD
1000
MTEXTBEGIN
1070
    73
1070
     1
1070
    44
1040
1.0
1070
    74
1070
     0
1000
MTEXTEND
  0
INSERT
  5
27F4
330
2316
100
AcDbEntity
  8
寸法
 62
     4
 48
50.0
370
    -2
100
AcDbBlockReference
  2
_DOTSMALL
 10
1344.415140076316
 20
10706.70309759781
 30
0.0
 41
100.0
 42
100.0
 43
100.0
 50
90.0
  0
INSERT
  5
27F5
330
2316
100
AcDbEntity
  8
寸法
 62
     4
 48
50.0
370
    -2
100
AcDbBlockReference
  2
_DOTSMALL
 10
1344.415140076316
 20
10469.70309759781
 30
0.0
 41
100.0
 42
100.0
 43
100.0
 50
270.0
  0
POINT
  5
27F6
330
2316
100
AcDbEntity
  8
DEFPOINTS
 62
     0
 48
50.0
100
AcDbPoint
 10
1928.084791275922
 20
10706.70309759781
 30
0.0
  0
POINT
  5
27F7
330
2316
100
AcDbEntity
  8
DEFPOINTS
 62
     0
 48
50.0
100
AcDbPoint
 10
1918.084791275922
 20
10469.70309759781
 30
0.0
  0
POINT
  5
27F8
330
2316
100
AcDbEntity
  8
DEFPOINTS
 62
     0
 48
50.0
100
AcDbPoint
 10
1344.415140076316
 20
10469.70309759781
 30
0.0
  0
ENDBLK
  5
2321
330
2316
100
AcDbEntity
  8
0
 48
50.0
100
AcDbBlockEnd
  0
BLOCK
  5
232B
330
2322
100
AcDbEntity
  8
0
 48
50.0
100
AcDbBlockBegin
  2
*D2
 70
     1
 10
0.0
 20
0.0
 30
0.0
  3
*D2
  1

  0
LINE
  5
27E8
330
2322
100
AcDbEntity
  8
寸法
 62
     4
 48
50.0
370
    -2
100
AcDbLine
 10
1878.084791275922
 20
9841.103097597816
 30
0.0
 11
1304.415140076317
 21
9841.103097597816
 31
0.0
  0
LINE
  5
27E9
330
2322
100
AcDbEntity
  8
寸法
 62
     4
 48
50.0
370
    -2
100
AcDbLine
 10
1344.415140076316
 20
10469.70309759781
 30
0.0
 11
1344.415140076316
 21
9841.103097597816
 31
0.0
  0
INSERT
  5
27EA
330
2322
100
AcDbEntity
  8
寸法
 62
     4
 48
50.0
370
    -2
100
AcDbBlockReference
  2
_DOTSMALL
 10
1344.415140076316
 20
10469.70309759781
 30
0.0
 41
100.0
 42
100.0
 43
100.0
 50
90.0
  0
INSERT
  5
27EB
330
2322
100
AcDbEntity
  8
寸法
 62
     4
 48
50.0
370
    -2
100
AcDbBlockReference
  2
_DOTSMALL
 10
1344.415140076316
 20
9841.103097597816
 30
0.0
 41
100.0
 42
100.0
 43
100.0
 50
270.0
  0
MTEXT
  5
27EC
330
2322
100
AcDbEntity
  8
寸法
 62
     7
 48
50.0
100
AcDbMText
 10
1244.403329052693
 20
10155.40309759781
 30
0.0
 40
120.0
 41
0.0
 71
     5
 72
     1
  1
\A1;628.6
 11
0.0000000000000001
 21
1.0
 31
0.0
 73
     1
 44
1.0
1001
ACAD
1000
MTEXTBEGIN
1070
    73
1070
     1
1070
    44
1040
1.0
1070
    74
1070
     0
1000
MTEXTEND
  0
POINT
  5
27ED
330
2322
100
AcDbEntity
  8
DEFPOINTS
 62
     0
 48
50.0
100
AcDbPoint
 10
1918.084791275922
 20
10469.70309759781
 30
0.0
  0
POINT
  5
27EE
330
2322
100
AcDbEntity
  8
DEFPOINTS
 62
     0
 48
50.0
100
AcDbPoint
 10
1918.084791275922
 20
9841.103097597816
 30
0.0
  0
POINT
  5
27EF
330
2322
100
AcDbEntity
  8
DEFPOINTS
 62
     0
 48
50.0
100
AcDbPoint
 10
1344.415140076316
 20
9841.103097597816
 30
0.0
  0
ENDBLK
  5
232C
330
2322
100
AcDbEntity
  8
0
 48
50.0
100
AcDbBlockEnd
  0
BLOCK
  5
2336
330
232D
100
AcDbEntity
  8
0
 48
50.0
100
AcDbBlockBegin
  2
*D3
 70
     1
 10
0.0
 20
0.0
 30
0.0
  3
*D3
  1

  0
LINE
  5
27E0
330
232D
100
AcDbEntity
  8
寸法
 62
     4
 48
50.0
370
    -2
100
AcDbLine
 10
1878.084791275922
 20
9212.503097597814
 30
0.0
 11
1304.415140076317
 21
9212.503097597814
 31
0.0
  0
LINE
  5
27E1
330
232D
100
AcDbEntity
  8
寸法
 62
     4
 48
50.0
370
    -2
100
AcDbLine
 10
1344.415140076317
 20
9841.103097597816
 30
0.0
 11
1344.415140076316
 21
9212.503097597814
 31
0.0
  0
INSERT
  5
27E2
330
232D
100
AcDbEntity
  8
寸法
 62
     4
 48
50.0
370
    -2
100
AcDbBlockReference
  2
_DOTSMALL
 10
1344.415140076317
 20
9841.103097597816
 30
0.0
 41
100.0
 42
100.0
 43
100.0
 50
90.0
  0
INSERT
  5
27E3
330
232D
100
AcDbEntity
  8
寸法
 62
     4
 48
50.0
370
    -2
100
AcDbBlockReference
  2
_DOTSMALL
 10
1344.415140076316
 20
9212.503097597814
 30
0.0
 41
100.0
 42
100.0
 43
100.0
 50
270.0
  0
MTEXT
  5
27E4
330
232D
100
AcDbEntity
  8
寸法
 62
     7
 48
50.0
100
AcDbMText
 10
1244.403329052693
 20
9526.803097597815
 30
0.0
 40
120.0
 41
0.0
 71
     5
 72
     1
  1
\A1;628.6
 11
0.0000000000000001
 21
1.0
 31
0.0
 73
     1
 44
1.0
1001
ACAD
1000
MTEXTBEGIN
1070
    73
1070
     1
1070
    44
1040
1.0
1070
    74
1070
     0
1000
MTEXTEND
  0
POINT
  5
27E5
330
232D
100
AcDbEntity
  8
DEFPOINTS
 62
     0
 48
50.0
100
AcDbPoint
 10
1918.084791275922
 20
9841.103097597816
 30
0.0
  0
POINT
  5
27E6
330
232D
100
AcDbEntity
  8
DEFPOINTS
 62
     0
 48
50.0
100
AcDbPoint
 10
1918.084791275922
 20
9212.503097597814
 30
0.0
  0
POINT
  5
27E7
330
232D
100
AcDbEntity
  8
DEFPOINTS
 62
     0
 48
50.0
100
AcDbPoint
 10
1344.415140076316
 20
9212.503097597814
 30
0.0
  0
ENDBLK
  5
2337
330
232D
100
AcDbEntity
  8
0
 48
50.0
100
AcDbBlockEnd
  0
BLOCK
  5
2341
330
2338
100
AcDbEntity
  8
0
 48
50.0
100
AcDbBlockBegin
  2
*D4
 70
     1
 10
0.0
 20
0.0
 30
0.0
  3
*D4
  1

  0
LINE
  5
27D8
330
2338
100
AcDbEntity
  8
寸法
 62
     4
 48
50.0
370
    -2
100
AcDbLine
 10
1878.084791275922
 20
8583.903097597811
 30
0.0
 11
1304.415140076317
 21
8583.903097597811
 31
0.0
  0
LINE
  5
27D9
330
2338
100
AcDbEntity
  8
寸法
 62
     4
 48
50.0
370
    -2
100
AcDbLine
 10
1344.415140076317
 20
9212.503097597814
 30
0.0
 11
1344.415140076316
 21
8583.903097597811
 31
0.0
  0
MTEXT
  5
27DA
330
2338
100
AcDbEntity
  8
寸法
 62
     7
 48
50.0
100
AcDbMText
 10
1184.415140076316
 20
8992.68361794361
 30
0.0
 40
120.0
 41
0.0
 71
     5
 72
     1
  1
\A1;628.6
 11
0.0000000000000001
 21
1.0
 31
0.0
 73
     1
 44
1.0
1001
ACAD
1000
MTEXTBEGIN
1070
    73
1070
     1
1070
    44
1040
1.0
1070
    74
1070
     0
1000
MTEXTEND
  0
INSERT
  5
27DB
330
2338
100
AcDbEntity
  8
寸法
 62
     4
 48
50.0
370
    -2
100
AcDbBlockReference
  2
_DOTSMALL
 10
1344.415140076317
 20
9212.503097597814
 30
0.0
 41
100.0
 42
100.0
 43
100.0
 50
90.0
  0
INSERT
  5
27DC
330
2338
100
AcDbEntity
  8
寸法
 62
     4
 48
50.0
370
    -2
100
AcDbBlockReference
  2
_DOTSMALL
 10
1344.415140076316
 20
8583.903097597811
 30
0.0
 41
100.0
 42
100.0
 43
100.0
 50
270.0
  0
POINT
  5
27DD
330
2338
100
AcDbEntity
  8
DEFPOINTS
 62
     0
 48
50.0
100
AcDbPoint
 10
1918.084791275922
 20
9212.503097597814
 30
0.0
  0
POINT
  5
27DE
330
2338
100
AcDbEntity
  8
DEFPOINTS
 62
     0
 48
50.0
100
AcDbPoint
 10
1918.084791275922
 20
8583.903097597811
 30
0.0
  0
POINT
  5
27DF
330
2338
100
AcDbEntity
  8
DEFPOINTS
 62
     0
 48
50.0
100
AcDbPoint
 10
1344.415140076316
 20
8583.903097597811
 30
0.0
  0
ENDBLK
  5
2342
330
2338
100
AcDbEntity
  8
0
 48
50.0
100
AcDbBlockEnd
  0
BLOCK
  5
234C
330
2343
100
AcDbEntity
  8
0
 48
50.0
100
AcDbBlockBegin
  2
*D5
 70
     1
 10
0.0
 20
0.0
 30
0.0
  3
*D5
  1

  0
LINE
  5
27D0
330
2343
100
AcDbEntity
  8
寸法
 62
     4
 48
50.0
370
    -2
100
AcDbLine
 10
1878.084791275922
 20
8306.703097597816
 30
0.0
 11
1304.415140076317
 21
8306.703097597816
 31
0.0
  0
LINE
  5
27D1
330
2343
100
AcDbEntity
  8
寸法
 62
     4
 48
50.0
370
    -2
100
AcDbLine
 10
1344.415140076316
 20
8583.903097597811
 30
0.0
 11
1344.415140076316
 21
8306.703097597816
 31
0.0
  0
MTEXT
  5
27D2
330
2343
100
AcDbEntity
  8
寸法
 62
     7
 48
50.0
100
AcDbMText
 10
1184.403329052695
 20
8543.235149128589
 30
0.0
 40
120.0
 41
0.0
 71
     5
 72
     1
  1
\A1;277.2
 11
0.0000000000000001
 21
1.0
 31
0.0
 73
     1
 44
1.0
1001
ACAD
1000
MTEXTBEGIN
1070
    73
1070
     1
1070
    44
1040
1.0
1070
    74
1070
     0
1000
MTEXTEND
  0
INSERT
  5
27D3
330
2343
100
AcDbEntity
  8
寸法
 62
     4
 48
50.0
370
    -2
100
AcDbBlockReference
  2
_DOTSMALL
 10
1344.415140076316
 20
8583.903097597811
 30
0.0
 41
100.0
 42
100.0
 43
100.0
 50
90.0
  0
INSERT
  5
27D4
330
2343
100
AcDbEntity
  8
寸法
 62
     4
 48
50.0
370
    -2
100
AcDbBlockReference
  2
_DOTSMALL
 10
1344.415140076316
 20
8306.703097597816
 30
0.0
 41
100.0
 42
100.0
 43
100.0
 50
270.0
  0
POINT
  5
27D5
330
2343
100
AcDbEntity
  8
DEFPOINTS
 62
     0
 48
50.0
100
AcDbPoint
 10
1918.084791275922
 20
8583.903097597811
 30
0.0
  0
POINT
  5
27D6
330
2343
100
AcDbEntity
  8
DEFPOINTS
 62
     0
 48
50.0
100
AcDbPoint
 10
1918.084791275922
 20
8306.703097597816
 30
0.0
  0
POINT
  5
27D7
330
2343
100
AcDbEntity
  8
DEFPOINTS
 62
     0
 48
50.0
100
AcDbPoint
 10
1344.415140076316
 20
8306.703097597816
 30
0.0
  0
ENDBLK
  5
234D
330
2343
100
AcDbEntity
  8
0
 48
50.0
100
AcDbBlockEnd
  0
BLOCK
  5
2357
330
234E
100
AcDbEntity
  8
0
 48
50.0
100
AcDbBlockBegin
  2
*D6
 70
     1
 10
0.0
 20
0.0
 30
0.0
  3
*D6
  1

  0
LINE
  5
27C8
330
234E
100
AcDbEntity
  8
寸法
 62
     4
 48
50.0
370
    -2
100
AcDbLine
 10
1878.084791275922
 20
7400.903097597816
 30
0.0
 11
1304.415140076317
 21
7400.903097597816
 31
0.0
  0
LINE
  5
27C9
330
234E
100
AcDbEntity
  8
寸法
 62
     4
 48
50.0
370
    -2
100
AcDbLine
 10
1344.415140076317
 20
8029.503097597819
 30
0.0
 11
1344.415140076316
 21
7400.903097597816
 31
0.0
  0
MTEXT
  5
27CA
330
234E
100
AcDbEntity
  8
寸法
 62
     7
 48
50.0
100
AcDbMText
 10
1184.415140076316
 20
7626.534124342295
 30
0.0
 40
120.0
 41
0.0
 71
     5
 72
     1
  1
\A1;628.6
 11
0.0000000000000001
 21
1.0
 31
0.0
 73
     1
 44
1.0
1001
ACAD
1000
MTEXTBEGIN
1070
    73
1070
     1
1070
    44
1040
1.0
1070
    74
1070
     0
1000
MTEXTEND
  0
INSERT
  5
27CB
330
234E
100
AcDbEntity
  8
寸法
 62
     4
 48
50.0
370
    -2
100
AcDbBlockReference
  2
_DOTSMALL
 10
1344.415140076317
 20
8029.503097597819
 30
0.0
 41
100.0
 42
100.0
 43
100.0
 50
90.0
  0
INSERT
  5
27CC
330
234E
100
AcDbEntity
  8
寸法
 62
     4
 48
50.0
370
    -2
100
AcDbBlockReference
  2
_DOTSMALL
 10
1344.415140076316
 20
7400.903097597816
 30
0.0
 41
100.0
 42
100.0
 43
100.0
 50
270.0
  0
POINT
  5
27CD
330
234E
100
AcDbEntity
  8
DEFPOINTS
 62
     0
 48
50.0
100
AcDbPoint
 10
1918.084791275922
 20
8029.503097597819
 30
0.0
  0
POINT
  5
27CE
330
234E
100
AcDbEntity
  8
DEFPOINTS
 62
     0
 48
50.0
100
AcDbPoint
 10
1918.084791275922
 20
7400.903097597816
 30
0.0
  0
POINT
  5
27CF
330
234E
100
AcDbEntity
  8
DEFPOINTS
 62
     0
 48
50.0
100
AcDbPoint
 10
1344.415140076316
 20
7400.903097597816
 30
0.0
  0
ENDBLK
  5
2358
330
234E
100
AcDbEntity
  8
0
 48
50.0
100
AcDbBlockEnd
  0
BLOCK
  5
2362
330
2359
100
AcDbEntity
  8
0
 48
50.0
100
AcDbBlockBegin
  2
*D7
 70
     1
 10
0.0
 20
0.0
 30
0.0
  3
*D7
  1

  0
LINE
  5
27C0
330
2359
100
AcDbEntity
  8
寸法
 62
     4
 48
50.0
370
    -2
100
AcDbLine
 10
1878.084791275922
 20
6772.303097597816
 30
0.0
 11
1304.415140076317
 21
6772.303097597816
 31
0.0
  0
LINE
  5
27C1
330
2359
100
AcDbEntity
  8
寸法
 62
     4
 48
50.0
370
    -2
100
AcDbLine
 10
1344.415140076316
 20
7400.903097597816
 30
0.0
 11
1344.415140076316
 21
6772.303097597816
 31
0.0
  0
INSERT
  5
27C2
330
2359
100
AcDbEntity
  8
寸法
 62
     4
 48
50.0
370
    -2
100
AcDbBlockReference
  2
_DOTSMALL
 10
1344.415140076316
 20
7400.903097597816
 30
0.0
 41
100.0
 42
100.0
 43
100.0
 50
90.0
  0
INSERT
  5
27C3
330
2359
100
AcDbEntity
  8
寸法
 62
     4
 48
50.0
370
    -2
100
AcDbBlockReference
  2
_DOTSMALL
 10
1344.415140076316
 20
6772.303097597816
 30
0.0
 41
100.0
 42
100.0
 43
100.0
 50
270.0
  0
MTEXT
  5
27C4
330
2359
100
AcDbEntity
  8
寸法
 62
     7
 48
50.0
100
AcDbMText
 10
1244.403329052693
 20
7086.603097597816
 30
0.0
 40
120.0
 41
0.0
 71
     5
 72
     1
  1
\A1;628.6
 11
0.0000000000000001
 21
1.0
 31
0.0
 73
     1
 44
1.0
1001
ACAD
1000
MTEXTBEGIN
1070
    73
1070
     1
1070
    44
1040
1.0
1070
    74
1070
     0
1000
MTEXTEND
  0
POINT
  5
27C5
330
2359
100
AcDbEntity
  8
DEFPOINTS
 62
     0
 48
50.0
100
AcDbPoint
 10
1918.084791275922
 20
7400.903097597816
 30
0.0
  0
POINT
  5
27C6
330
2359
100
AcDbEntity
  8
DEFPOINTS
 62
     0
 48
50.0
100
AcDbPoint
 10
1918.084791275922
 20
6772.303097597816
 30
0.0
  0
POINT
  5
27C7
330
2359
100
AcDbEntity
  8
DEFPOINTS
 62
     0
 48
50.0
100
AcDbPoint
 10
1344.415140076316
 20
6772.303097597816
 30
0.0
  0
ENDBLK
  5
2363
330
2359
100
AcDbEntity
  8
0
 48
50.0
100
AcDbBlockEnd
  0
BLOCK
  5
236D
330
2364
100
AcDbEntity
  8
0
 48
50.0
100
AcDbBlockBegin
  2
*D8
 70
     1
 10
0.0
 20
0.0
 30
0.0
  3
*D8
  1

  0
LINE
  5
27B8
330
2364
100
AcDbEntity
  8
寸法
 62
     4
 48
50.0
370
    -2
100
AcDbLine
 10
1878.084791275922
 20
6143.703097597816
 30
0.0
 11
1304.415140076317
 21
6143.703097597816
 31
0.0
  0
LINE
  5
27B9
330
2364
100
AcDbEntity
  8
寸法
 62
     4
 48
50.0
370
    -2
100
AcDbLine
 10
1344.415140076317
 20
6772.303097597816
 30
0.0
 11
1344.415140076316
 21
6143.703097597816
 31
0.0
  0
INSERT
  5
27BA
330
2364
100
AcDbEntity
  8
寸法
 62
     4
 48
50.0
370
    -2
100
AcDbBlockReference
  2
_DOTSMALL
 10
1344.415140076317
 20
6772.303097597816
 30
0.0
 41
100.0
 42
100.0
 43
100.0
 50
90.0
  0
INSERT
  5
27BB
330
2364
100
AcDbEntity
  8
寸法
 62
     4
 48
50.0
370
    -2
100
AcDbBlockReference
  2
_DOTSMALL
 10
1344.415140076316
 20
6143.703097597816
 30
0.0
 41
100.0
 42
100.0
 43
100.0
 50
270.0
  0
MTEXT
  5
27BC
330
2364
100
AcDbEntity
  8
寸法
 62
     7
 48
50.0
100
AcDbMText
 10
1244.403329052693
 20
6458.003097597816
 30
0.0
 40
120.0
 41
0.0
 71
     5
 72
     1
  1
\A1;628.6
 11
0.0000000000000001
 21
1.0
 31
0.0
 73
     1
 44
1.0
1001
ACAD
1000
MTEXTBEGIN
1070
    73
1070
     1
1070
    44
1040
1.0
1070
    74
1070
     0
1000
MTEXTEND
  0
POINT
  5
27BD
330
2364
100
AcDbEntity
  8
DEFPOINTS
 62
     0
 48
50.0
100
AcDbPoint
 10
1918.084791275922
 20
6772.303097597816
 30
0.0
  0
POINT
  5
27BE
330
2364
100
AcDbEntity
  8
DEFPOINTS
 62
     0
 48
50.0
100
AcDbPoint
 10
1918.084791275922
 20
6143.703097597816
 30
0.0
  0
POINT
  5
27BF
330
2364
100
AcDbEntity
  8
DEFPOINTS
 62
     0
 48
50.0
100
AcDbPoint
 10
1344.415140076316
 20
6143.703097597816
 30
0.0
  0
ENDBLK
  5
236E
330
2364
100
AcDbEntity
  8
0
 48
50.0
100
AcDbBlockEnd
  0
BLOCK
  5
2378
330
236F
100
AcDbEntity
  8
0
 48
50.0
100
AcDbBlockBegin
  2
*D9
 70
     1
 10
0.0
 20
0.0
 30
0.0
  3
*D9
  1

  0
LINE
  5
27B0
330
236F
100
AcDbEntity
  8
寸法
 62
     4
 48
50.0
370
    -2
100
AcDbLine
 10
1888.084791275922
 20
5906.703097597816
 30
0.0
 11
1304.415140076317
 21
5906.703097597816
 31
0.0
  0
LINE
  5
27B1
330
236F
100
AcDbEntity
  8
寸法
 62
     4
 48
50.0
370
    -2
100
AcDbLine
 10
1344.415140076316
 20
6143.703097597816
 30
0.0
 11
1344.415140076316
 21
5906.703097597816
 31
0.0
  0
MTEXT
  5
27B2
330
236F
100
AcDbEntity
  8
寸法
 62
     7
 48
50.0
100
AcDbMText
 10
1184.403329052693
 20
6025.203097597816
 30
0.0
 40
120.0
 41
0.0
 71
     5
 72
     1
  1
\A1;237
 11
0.0000000000000001
 21
1.0
 31
0.0
 73
     1
 44
1.0
1001
ACAD
1000
MTEXTBEGIN
1070
    73
1070
     1
1070
    44
1040
1.0
1070
    74
1070
     0
1000
MTEXTEND
  0
INSERT
  5
27B3
330
236F
100
AcDbEntity
  8
寸法
 62
     4
 48
50.0
370
    -2
100
AcDbBlockReference
  2
_DOTSMALL
 10
1344.415140076316
 20
6143.703097597816
 30
0.0
 41
100.0
 42
100.0
 43
100.0
 50
90.0
  0
INSERT
  5
27B4
330
236F
100
AcDbEntity
  8
寸法
 62
     4
 48
50.0
370
    -2
100
AcDbBlockReference
  2
_DOTSMALL
 10
1344.415140076316
 20
5906.703097597816
 30
0.0
 41
100.0
 42
100.0
 43
100.0
 50
270.0
  0
POINT
  5
27B5
330
236F
100
AcDbEntity
  8
DEFPOINTS
 62
     0
 48
50.0
100
AcDbPoint
 10
1918.084791275922
 20
6143.703097597816
 30
0.0
  0
POINT
  5
27B6
330
236F
100
AcDbEntity
  8
DEFPOINTS
 62
     0
 48
50.0
100
AcDbPoint
 10
1928.084791275922
 20
5906.703097597816
 30
0.0
  0
POINT
  5
27B7
330
236F
100
AcDbEntity
  8
DEFPOINTS
 62
     0
 48
50.0
100
AcDbPoint
 10
1344.415140076316
 20
5906.703097597816
 30
0.0
  0
ENDBLK
  5
2379
330
236F
100
AcDbEntity
  8
0
 48
50.0
100
AcDbBlockEnd
  0
BLOCK
  5
2384
330
237A
100
AcDbEntity
  8
0
 48
50.0
100
AcDbBlockBegin
  2
*D10
 70
     1
 10
0.0
 20
0.0
 30
0.0
  3
*D10
  1

  0
LINE
  5
27A7
330
237A
100
AcDbEntity
  8
寸法
 62
     4
 48
50.0
370
    -2
100
AcDbLine
 10
1888.084791275922
 20
10706.70309759781
 30
0.0
 11
1024.415140076317
 21
10706.70309759781
 31
0.0
  0
LINE
  5
27A8
330
237A
100
AcDbEntity
  8
寸法
 62
     4
 48
50.0
370
    -2
100
AcDbLine
 10
1888.084791275922
 20
5906.703097597816
 30
0.0
 11
1024.415140076317
 21
5906.703097597816
 31
0.0
  0
LINE
  5
27A9
330
237A
100
AcDbEntity
  8
寸法
 62
     4
 48
50.0
370
    -2
100
AcDbLine
 10
1064.415140076317
 20
10706.70309759781
 30
0.0
 11
1064.415140076317
 21
5906.703097597816
 31
0.0
  0
INSERT
  5
27AA
330
237A
100
AcDbEntity
  8
寸法
 62
     4
 48
50.0
370
    -2
100
AcDbBlockReference
  2
_DOTSMALL
 10
1064.415140076317
 20
10706.70309759781
 30
0.0
 41
100.0
 42
100.0
 43
100.0
 50
90.0
  0
INSERT
  5
27AB
330
237A
100
AcDbEntity
  8
寸法
 62
     4
 48
50.0
370
    -2
100
AcDbBlockReference
  2
_DOTSMALL
 10
1064.415140076317
 20
5906.703097597816
 30
0.0
 41
100.0
 42
100.0
 43
100.0
 50
270.0
  0
MTEXT
  5
27AC
330
237A
100
AcDbEntity
  8
寸法
 62
     7
 48
50.0
100
AcDbMText
 10
964.4151400763158
 20
8306.703097597816
 30
0.0
 40
120.0
 41
0.0
 71
     5
 72
     1
  1
\A1;4800
 11
0.0000000000000001
 21
1.0
 31
0.0
 73
     1
 44
1.0
1001
ACAD
1000
MTEXTBEGIN
1070
    73
1070
     1
1070
    44
1040
1.0
1070
    74
1070
     0
1000
MTEXTEND
  0
POINT
  5
27AD
330
237A
100
AcDbEntity
  8
DEFPOINTS
 62
     0
 48
50.0
100
AcDbPoint
 10
1928.084791275922
 20
10706.70309759781
 30
0.0
  0
POINT
  5
27AE
330
237A
100
AcDbEntity
  8
DEFPOINTS
 62
     0
 48
50.0
100
AcDbPoint
 10
1928.084791275922
 20
5906.703097597816
 30
0.0
  0
POINT
  5
27AF
330
237A
100
AcDbEntity
  8
DEFPOINTS
 62
     0
 48
50.0
100
AcDbPoint
 10
1064.415140076317
 20
5906.703097597816
 30
0.0
  0
ENDBLK
  5
2385
330
237A
100
AcDbEntity
  8
0
 48
50.0
100
AcDbBlockEnd
  0
BLOCK
  5
2390
330
2386
100
AcDbEntity
  8
0
 48
50.0
100
AcDbBlockBegin
  2
*D11
 70
     1
 10
0.0
 20
0.0
 30
0.0
  3
*D11
  1

  0
LINE
  5
279E
330
2386
100
AcDbEntity
  8
寸法
 62
     4
 48
50.0
370
    -2
100
AcDbLine
 10
8009.584791275914
 20
10582.70309759782
 30
0.0
 11
8673.537714463043
 21
10582.70309759782
 31
0.0
  0
LINE
  5
279F
330
2386
100
AcDbEntity
  8
寸法
 62
     4
 48
50.0
370
    -2
100
AcDbLine
 10
8013.084791275922
 20
8446.703097597817
 30
0.0
 11
8673.537714463043
 21
8446.703097597817
 31
0.0
  0
LINE
  5
27A0
330
2386
100
AcDbEntity
  8
寸法
 62
     4
 48
50.0
370
    -2
100
AcDbLine
 10
8633.537714463043
 20
10582.70309759782
 30
0.0
 11
8633.537714463043
 21
8446.703097597817
 31
0.0
  0
INSERT
  5
27A1
330
2386
100
AcDbEntity
  8
寸法
 62
     4
 48
50.0
370
    -2
100
AcDbBlockReference
  2
_DOTSMALL
 10
8633.537714463043
 20
10582.70309759782
 30
0.0
 41
100.0
 42
100.0
 43
100.0
 50
90.0
  0
INSERT
  5
27A2
330
2386
100
AcDbEntity
  8
寸法
 62
     4
 48
50.0
370
    -2
100
AcDbBlockReference
  2
_DOTSMALL
 10
8633.537714463043
 20
8446.703097597817
 30
0.0
 41
100.0
 42
100.0
 43
100.0
 50
270.0
  0
MTEXT
  5
27A3
330
2386
100
AcDbEntity
  8
寸法
 62
     7
 48
50.0
100
AcDbMText
 10
8533.525903439418
 20
9514.70309759782
 30
0.0
 40
120.0
 41
0.0
 71
     5
 72
     1
  1
\A1;2136
 11
0.0000000000000001
 21
1.0
 31
0.0
 73
     1
 44
1.0
1001
ACAD
1000
MTEXTBEGIN
1070
    73
1070
     1
1070
    44
1040
1.0
1070
    74
1070
     0
1000
MTEXTEND
  0
POINT
  5
27A4
330
2386
100
AcDbEntity
  8
DEFPOINTS
 62
     0
 48
50.0
100
AcDbPoint
 10
7969.584791275915
 20
10582.70309759782
 30
0.0
  0
POINT
  5
27A5
330
2386
100
AcDbEntity
  8
DEFPOINTS
 62
     0
 48
50.0
100
AcDbPoint
 10
7973.084791275922
 20
8446.703097597817
 30
0.0
  0
POINT
  5
27A6
330
2386
100
AcDbEntity
  8
DEFPOINTS
 62
     0
 48
50.0
100
AcDbPoint
 10
8633.537714463043
 20
8446.703097597817
 30
0.0
  0
ENDBLK
  5
2391
330
2386
100
AcDbEntity
  8
0
 48
50.0
100
AcDbBlockEnd
  0
BLOCK
  5
239B
330
2392
100
AcDbEntity
  8
0
 48
50.0
100
AcDbBlockBegin
  2
*D12
 70
     1
 10
0.0
 20
0.0
 30
0.0
  3
*D12
  1

  0
LINE
  5
2796
330
2392
100
AcDbEntity
  8
寸法
 62
     4
 48
50.0
370
    -2
100
AcDbLine
 10
8013.084791275922
 20
8166.703097597816
 30
0.0
 11
8673.537714463043
 21
8166.703097597816
 31
0.0
  0
LINE
  5
2797
330
2392
100
AcDbEntity
  8
寸法
 62
     4
 48
50.0
370
    -2
100
AcDbLine
 10
8633.537714463043
 20
8446.703097597817
 30
0.0
 11
8633.537714463043
 21
8166.703097597816
 31
0.0
  0
MTEXT
  5
2798
330
2392
100
AcDbEntity
  8
寸法
 62
     7
 48
50.0
100
AcDbMText
 10
8532.11973914707
 20
8306.703097597816
 30
0.0
 40
120.0
 41
0.0
 71
     5
 72
     1
  1
\A1;280
 11
0.0000000000000001
 21
1.0
 31
0.0
 73
     1
 44
1.0
1001
ACAD
1000
MTEXTBEGIN
1070
    73
1070
     1
1070
    44
1040
1.0
1070
    74
1070
     0
1000
MTEXTEND
  0
INSERT
  5
2799
330
2392
100
AcDbEntity
  8
寸法
 62
     4
 48
50.0
370
    -2
100
AcDbBlockReference
  2
_DOTSMALL
 10
8633.537714463043
 20
8446.703097597817
 30
0.0
 41
100.0
 42
100.0
 43
100.0
 50
90.0
  0
INSERT
  5
279A
330
2392
100
AcDbEntity
  8
寸法
 62
     4
 48
50.0
370
    -2
100
AcDbBlockReference
  2
_DOTSMALL
 10
8633.537714463043
 20
8166.703097597816
 30
0.0
 41
100.0
 42
100.0
 43
100.0
 50
270.0
  0
POINT
  5
279B
330
2392
100
AcDbEntity
  8
DEFPOINTS
 62
     0
 48
50.0
100
AcDbPoint
 10
7973.084791275922
 20
8446.703097597817
 30
0.0
  0
POINT
  5
279C
330
2392
100
AcDbEntity
  8
DEFPOINTS
 62
     0
 48
50.0
100
AcDbPoint
 10
7973.084791275922
 20
8166.703097597816
 30
0.0
  0
POINT
  5
279D
330
2392
100
AcDbEntity
  8
DEFPOINTS
 62
     0
 48
50.0
100
AcDbPoint
 10
8633.537714463043
 20
8166.703097597816
 30
0.0
  0
ENDBLK
  5
239C
330
2392
100
AcDbEntity
  8
0
 48
50.0
100
AcDbBlockEnd
  0
BLOCK
  5
23A6
330
239D
100
AcDbEntity
  8
0
 48
50.0
100
AcDbBlockBegin
  2
*D13
 70
     1
 10
0.0
 20
0.0
 30
0.0
  3
*D13
  1

  0
LINE
  5
278E
330
239D
100
AcDbEntity
  8
寸法
 62
     4
 48
50.0
370
    -2
100
AcDbLine
 10
8009.584791275923
 20
6030.703097597819
 30
0.0
 11
8673.537714463043
 21
6030.703097597819
 31
0.0
  0
LINE
  5
278F
330
239D
100
AcDbEntity
  8
寸法
 62
     4
 48
50.0
370
    -2
100
AcDbLine
 10
8633.537714463043
 20
8166.703097597816
 30
0.0
 11
8633.537714463043
 21
6030.703097597819
 31
0.0
  0
INSERT
  5
2790
330
239D
100
AcDbEntity
  8
寸法
 62
     4
 48
50.0
370
    -2
100
AcDbBlockReference
  2
_DOTSMALL
 10
8633.537714463043
 20
8166.703097597816
 30
0.0
 41
100.0
 42
100.0
 43
100.0
 50
90.0
  0
INSERT
  5
2791
330
239D
100
AcDbEntity
  8
寸法
 62
     4
 48
50.0
370
    -2
100
AcDbBlockReference
  2
_DOTSMALL
 10
8633.537714463043
 20
6030.703097597819
 30
0.0
 41
100.0
 42
100.0
 43
100.0
 50
270.0
  0
MTEXT
  5
2792
330
239D
100
AcDbEntity
  8
寸法
 62
     7
 48
50.0
100
AcDbMText
 10
8533.525903439418
 20
7098.703097597819
 30
0.0
 40
120.0
 41
0.0
 71
     5
 72
     1
  1
\A1;2136
 11
0.0000000000000001
 21
1.0
 31
0.0
 73
     1
 44
1.0
1001
ACAD
1000
MTEXTBEGIN
1070
    73
1070
     1
1070
    44
1040
1.0
1070
    74
1070
     0
1000
MTEXTEND
  0
POINT
  5
2793
330
239D
100
AcDbEntity
  8
DEFPOINTS
 62
     0
 48
50.0
100
AcDbPoint
 10
7973.084791275922
 20
8166.703097597816
 30
0.0
  0
POINT
  5
2794
330
239D
100
AcDbEntity
  8
DEFPOINTS
 62
     0
 48
50.0
100
AcDbPoint
 10
7969.584791275922
 20
6030.703097597819
 30
0.0
  0
POINT
  5
2795
330
239D
100
AcDbEntity
  8
DEFPOINTS
 62
     0
 48
50.0
100
AcDbPoint
 10
8633.537714463043
 20
6030.703097597819
 30
0.0
  0
ENDBLK
  5
23A7
330
239D
100
AcDbEntity
  8
0
 48
50.0
100
AcDbBlockEnd
  0
BLOCK
  5
23B1
330
23A8
100
AcDbEntity
  8
0
 48
50.0
100
AcDbBlockBegin
  2
*D14
 70
     1
 10
0.0
 20
0.0
 30
0.0
  3
*D14
  1

  0
LINE
  5
2786
330
23A8
100
AcDbEntity
  8
寸法
 62
     4
 48
50.0
370
    -2
100
AcDbLine
 10
8048.084791275922
 20
5906.703097597816
 30
0.0
 11
8673.537714463043
 21
5906.703097597816
 31
0.0
  0
LINE
  5
2787
330
23A8
100
AcDbEntity
  8
寸法
 62
     4
 48
50.0
370
    -2
100
AcDbLine
 10
8633.537714463043
 20
6030.703097597819
 30
0.0
 11
8633.537714463043
 21
5906.703097597816
 31
0.0
  0
MTEXT
  5
2788
330
23A8
100
AcDbEntity
  8
寸法
 62
     7
 48
50.0
100
AcDbMText
 10
8523.207916493696
 20
5771.652535875007
 30
0.0
 40
120.0
 41
0.0
 71
     5
 72
     1
  1
\A1;124
 11
0.0000000000000001
 21
1.0
 31
0.0
 73
     1
 44
1.0
1001
ACAD
1000
MTEXTBEGIN
1070
    73
1070
     1
1070
    44
1040
1.0
1070
    74
1070
     0
1000
MTEXTEND
  0
INSERT
  5
2789
330
23A8
100
AcDbEntity
  8
寸法
 62
     4
 48
50.0
370
    -2
100
AcDbBlockReference
  2
_DOTSMALL
 10
8633.537714463043
 20
6030.703097597819
 30
0.0
 41
100.0
 42
100.0
 43
100.0
 50
90.0
  0
INSERT
  5
278A
330
23A8
100
AcDbEntity
  8
寸法
 62
     4
 48
50.0
370
    -2
100
AcDbBlockReference
  2
_DOTSMALL
 10
8633.537714463043
 20
5906.703097597816
 30
0.0
 41
100.0
 42
100.0
 43
100.0
 50
270.0
  0
POINT
  5
278B
330
23A8
100
AcDbEntity
  8
DEFPOINTS
 62
     0
 48
50.0
100
AcDbPoint
 10
7969.584791275922
 20
6030.703097597819
 30
0.0
  0
POINT
  5
278C
330
23A8
100
AcDbEntity
  8
DEFPOINTS
 62
     0
 48
50.0
100
AcDbPoint
 10
8008.084791275923
 20
5906.703097597816
 30
0.0
  0
POINT
  5
278D
330
23A8
100
AcDbEntity
  8
DEFPOINTS
 62
     0
 48
50.0
100
AcDbPoint
 10
8633.537714463043
 20
5906.703097597816
 30
0.0
  0
ENDBLK
  5
23B2
330
23A8
100
AcDbEntity
  8
0
 48
50.0
100
AcDbBlockEnd
  0
BLOCK
  5
23BC
330
23B3
100
AcDbEntity
  8
0
 48
50.0
100
AcDbBlockBegin
  2
*D15
 70
     1
 10
0.0
 20
0.0
 30
0.0
  3
*D15
  1

  0
LINE
  5
277E
330
23B3
100
AcDbEntity
  8
寸法
 62
     4
 48
50.0
370
    -2
100
AcDbLine
 10
8048.084791275922
 20
10706.70309759781
 30
0.0
 11
8673.537714463043
 21
10706.70309759781
 31
0.0
  0
LINE
  5
277F
330
23B3
100
AcDbEntity
  8
寸法
 62
     4
 48
50.0
370
    -2
100
AcDbLine
 10
8633.537714463043
 20
10582.70309759782
 30
0.0
 11
8633.537714463043
 21
10706.70309759781
 31
0.0
  0
MTEXT
  5
2780
330
23B3
100
AcDbEntity
  8
寸法
 62
     7
 48
50.0
100
AcDbMText
 10
8526.12031655307
 20
10843.7018745455
 30
0.0
 40
120.0
 41
0.0
 71
     5
 72
     1
  1
\A1;124
 11
0.0000000000000001
 21
1.0
 31
0.0
 73
     1
 44
1.0
1001
ACAD
1000
MTEXTBEGIN
1070
    73
1070
     1
1070
    44
1040
1.0
1070
    74
1070
     0
1000
MTEXTEND
  0
INSERT
  5
2781
330
23B3
100
AcDbEntity
  8
寸法
 62
     4
 48
50.0
370
    -2
100
AcDbBlockReference
  2
_DOTSMALL
 10
8633.537714463043
 20
10582.70309759782
 30
0.0
 41
100.0
 42
100.0
 43
100.0
 50
270.0
  0
INSERT
  5
2782
330
23B3
100
AcDbEntity
  8
寸法
 62
     4
 48
50.0
370
    -2
100
AcDbBlockReference
  2
_DOTSMALL
 10
8633.537714463043
 20
10706.70309759781
 30
0.0
 41
100.0
 42
100.0
 43
100.0
 50
90.0
  0
POINT
  5
2783
330
23B3
100
AcDbEntity
  8
DEFPOINTS
 62
     0
 48
50.0
100
AcDbPoint
 10
7969.584791275915
 20
10582.70309759782
 30
0.0
  0
POINT
  5
2784
330
23B3
100
AcDbEntity
  8
DEFPOINTS
 62
     0
 48
50.0
100
AcDbPoint
 10
8008.084791275923
 20
10706.70309759781
 30
0.0
  0
POINT
  5
2785
330
23B3
100
AcDbEntity
  8
DEFPOINTS
 62
     0
 48
50.0
100
AcDbPoint
 10
8633.537714463043
 20
10706.70309759781
 30
0.0
  0
ENDBLK
  5
23BD
330
23B3
100
AcDbEntity
  8
0
 48
50.0
100
AcDbBlockEnd
  0
BLOCK
  5
23C7
330
23BE
100
AcDbEntity
  8
0
 48
50.0
100
AcDbBlockBegin
  2
*D16
 70
     1
 10
0.0
 20
0.0
 30
0.0
  3
*D16
  1

  0
LINE
  5
2776
330
23BE
100
AcDbEntity
  8
寸法
 62
     4
 48
50.0
370
    -2
100
AcDbLine
 10
1878.084791275922
 20
8029.503097597819
 30
0.0
 11
1304.415140076317
 21
8029.503097597819
 31
0.0
  0
LINE
  5
2777
330
23BE
100
AcDbEntity
  8
寸法
 62
     4
 48
50.0
370
    -2
100
AcDbLine
 10
1344.415140076316
 20
8306.703097597816
 30
0.0
 11
1344.415140076316
 21
8029.503097597819
 31
0.0
  0
MTEXT
  5
2778
330
23BE
100
AcDbEntity
  8
寸法
 62
     7
 48
50.0
100
AcDbMText
 10
1184.403329052695
 20
8082.731066668163
 30
0.0
 40
120.0
 41
0.0
 71
     5
 72
     1
  1
\A1;277.2
 11
0.0000000000000001
 21
1.0
 31
0.0
 73
     1
 44
1.0
1001
ACAD
1000
MTEXTBEGIN
1070
    73
1070
     1
1070
    44
1040
1.0
1070
    74
1070
     0
1000
MTEXTEND
  0
INSERT
  5
2779
330
23BE
100
AcDbEntity
  8
寸法
 62
     4
 48
50.0
370
    -2
100
AcDbBlockReference
  2
_DOTSMALL
 10
1344.415140076316
 20
8306.703097597816
 30
0.0
 41
100.0
 42
100.0
 43
100.0
 50
90.0
  0
INSERT
  5
277A
330
23BE
100
AcDbEntity
  8
寸法
 62
     4
 48
50.0
370
    -2
100
AcDbBlockReference
  2
_DOTSMALL
 10
1344.415140076316
 20
8029.503097597819
 30
0.0
 41
100.0
 42
100.0
 43
100.0
 50
270.0
  0
POINT
  5
277B
330
23BE
100
AcDbEntity
  8
DEFPOINTS
 62
     0
 48
50.0
100
AcDbPoint
 10
1918.084791275922
 20
8306.703097597816
 30
0.0
  0
POINT
  5
277C
330
23BE
100
AcDbEntity
  8
DEFPOINTS
 62
     0
 48
50.0
100
AcDbPoint
 10
1918.084791275922
 20
8029.503097597819
 30
0.0
  0
POINT
  5
277D
330
23BE
100
AcDbEntity
  8
DEFPOINTS
 62
     0
 48
50.0
100
AcDbPoint
 10
1344.415140076316
 20
8029.503097597819
 30
0.0
  0
ENDBLK
  5
23C8
330
23BE
100
AcDbEntity
  8
0
 48
50.0
100
AcDbBlockEnd
  0
BLOCK
  5
23D3
330
23C9
100
AcDbEntity
  8
0
 48
50.0
100
AcDbBlockBegin
  2
*D17
 70
     1
 10
0.0
 20
0.0
 30
0.0
  3
*D17
  1

  0
LINE
  5
2853
330
23C9
100
AcDbEntity
  8
寸法
 62
     4
 48
50.0
370
    -2
100
AcDbLine
 10
1918.084791275922
 20
4594.900949614031
 30
0.0
 11
1918.084791275922
 21
4825.459815648813
 31
0.0
  0
LINE
  5
2854
330
23C9
100
AcDbEntity
  8
寸法
 62
     4
 48
50.0
370
    -2
100
AcDbLine
 10
2168.084791275922
 20
4302.216331315402
 30
0.0
 11
2168.084791275922
 21
4825.459815648813
 31
0.0
  0
LINE
  5
2855
330
23C9
100
AcDbEntity
  8
寸法
 62
     4
 48
50.0
370
    -2
100
AcDbLine
 10
1918.084791275922
 20
4785.459815648813
 30
0.0
 11
2168.084791275922
 21
4785.459815648813
 31
0.0
  0
INSERT
  5
2856
330
23C9
100
AcDbEntity
  8
寸法
 62
     4
 48
50.0
370
    -2
100
AcDbBlockReference
  2
_DOTSMALL
 10
1918.084791275922
 20
4785.459815648813
 30
0.0
 41
100.0
 42
100.0
 43
100.0
 50
180.0
  0
INSERT
  5
2857
330
23C9
100
AcDbEntity
  8
寸法
 62
     4
 48
50.0
370
    -2
100
AcDbBlockReference
  2
_DOTSMALL
 10
2168.084791275922
 20
4785.459815648813
 30
0.0
 41
100.0
 42
100.0
 43
100.0
  0
MTEXT
  5
2858
330
23C9
100
AcDbEntity
  8
寸法
 62
     7
 48
50.0
100
AcDbMText
 10
2043.084791275922
 20
4885.471626672435
 30
0.0
 40
120.0
 41
0.0
 71
     5
 72
     1
  1
\A1;250
 73
     1
 44
1.0
1001
ACAD
1000
MTEXTBEGIN
1070
    73
1070
     1
1070
    44
1040
1.0
1070
    74
1070
     0
1000
MTEXTEND
  0
POINT
  5
2859
330
23C9
100
AcDbEntity
  8
DEFPOINTS
 62
     0
 48
50.0
100
AcDbPoint
 10
1918.084791275922
 20
4554.900949614031
 30
0.0
  0
POINT
  5
285A
330
23C9
100
AcDbEntity
  8
DEFPOINTS
 62
     0
 48
50.0
100
AcDbPoint
 10
2168.084791275922
 20
4262.216331315402
 30
0.0
  0
POINT
  5
285B
330
23C9
100
AcDbEntity
  8
DEFPOINTS
 62
     0
 48
50.0
100
AcDbPoint
 10
2168.084791275922
 20
4785.459815648813
 30
0.0
  0
ENDBLK
  5
23D4
330
23C9
100
AcDbEntity
  8
0
 48
50.0
100
AcDbBlockEnd
  0
BLOCK
  5
23DE
330
23D5
100
AcDbEntity
  8
0
 48
50.0
100
AcDbBlockBegin
  2
*D18
 70
     1
 10
0.0
 20
0.0
 30
0.0
  3
*D18
  1

  0
LINE
  5
2864
330
23D5
100
AcDbEntity
  8
寸法
 62
     4
 48
50.0
370
    -2
100
AcDbLine
 10
7768.084791275922
 20
4302.216331315402
 30
0.0
 11
7768.084791275922
 21
4825.459815648813
 31
0.0
  0
LINE
  5
2865
330
23D5
100
AcDbEntity
  8
寸法
 62
     4
 48
50.0
370
    -2
100
AcDbLine
 10
2168.084791275922
 20
4785.459815648813
 30
0.0
 11
7768.084791275922
 21
4785.459815648813
 31
0.0
  0
INSERT
  5
2866
330
23D5
100
AcDbEntity
  8
寸法
 62
     4
 48
50.0
370
    -2
100
AcDbBlockReference
  2
_DOTSMALL
 10
2168.084791275922
 20
4785.459815648813
 30
0.0
 41
100.0
 42
100.0
 43
100.0
 50
180.0
  0
INSERT
  5
2867
330
23D5
100
AcDbEntity
  8
寸法
 62
     4
 48
50.0
370
    -2
100
AcDbBlockReference
  2
_DOTSMALL
 10
7768.084791275922
 20
4785.459815648813
 30
0.0
 41
100.0
 42
100.0
 43
100.0
  0
MTEXT
  5
2868
330
23D5
100
AcDbEntity
  8
寸法
 62
     7
 48
50.0
100
AcDbMText
 10
4968.084791275922
 20
4885.471626672435
 30
0.0
 40
120.0
 41
0.0
 71
     5
 72
     1
  1
\A1;N X 2800
 73
     1
 44
1.0
1001
ACAD
1000
MTEXTBEGIN
1070
    73
1070
     1
1070
    44
1040
1.0
1070
    74
1070
     0
1000
MTEXTEND
  0
POINT
  5
2869
330
23D5
100
AcDbEntity
  8
DEFPOINTS
 62
     0
 48
50.0
100
AcDbPoint
 10
2168.084791275922
 20
4262.216331315402
 30
0.0
  0
POINT
  5
286A
330
23D5
100
AcDbEntity
  8
DEFPOINTS
 62
     0
 48
50.0
100
AcDbPoint
 10
7768.084791275922
 20
4262.216331315402
 30
0.0
  0
POINT
  5
286B
330
23D5
100
AcDbEntity
  8
DEFPOINTS
 62
     0
 48
50.0
100
AcDbPoint
 10
7768.084791275922
 20
4785.459815648813
 30
0.0
  0
ENDBLK
  5
23DF
330
23D5
100
AcDbEntity
  8
0
 48
50.0
100
AcDbBlockEnd
  0
BLOCK
  5
23E9
330
23E0
100
AcDbEntity
  8
0
 48
50.0
100
AcDbBlockBegin
  2
*D19
 70
     1
 10
0.0
 20
0.0
 30
0.0
  3
*D19
  1

  0
LINE
  5
285C
330
23E0
100
AcDbEntity
  8
寸法
 62
     4
 48
50.0
370
    -2
100
AcDbLine
 10
8018.084791275922
 20
4594.900949614031
 30
0.0
 11
8018.084791275922
 21
4825.459815648813
 31
0.0
  0
LINE
  5
285D
330
23E0
100
AcDbEntity
  8
寸法
 62
     4
 48
50.0
370
    -2
100
AcDbLine
 10
7768.084791275922
 20
4785.459815648813
 30
0.0
 11
8018.084791275922
 21
4785.459815648813
 31
0.0
  0
INSERT
  5
285E
330
23E0
100
AcDbEntity
  8
寸法
 62
     4
 48
50.0
370
    -2
100
AcDbBlockReference
  2
_DOTSMALL
 10
7768.084791275922
 20
4785.459815648813
 30
0.0
 41
100.0
 42
100.0
 43
100.0
 50
180.0
  0
INSERT
  5
285F
330
23E0
100
AcDbEntity
  8
寸法
 62
     4
 48
50.0
370
    -2
100
AcDbBlockReference
  2
_DOTSMALL
 10
8018.084791275922
 20
4785.459815648813
 30
0.0
 41
100.0
 42
100.0
 43
100.0
  0
MTEXT
  5
2860
330
23E0
100
AcDbEntity
  8
寸法
 62
     7
 48
50.0
100
AcDbMText
 10
7893.084791275922
 20
4885.471626672435
 30
0.0
 40
120.0
 41
0.0
 71
     5
 72
     1
  1
\A1;250
 73
     1
 44
1.0
1001
ACAD
1000
MTEXTBEGIN
1070
    73
1070
     1
1070
    44
1040
1.0
1070
    74
1070
     0
1000
MTEXTEND
  0
POINT
  5
2861
330
23E0
100
AcDbEntity
  8
DEFPOINTS
 62
     0
 48
50.0
100
AcDbPoint
 10
7768.084791275922
 20
4262.216331315402
 30
0.0
  0
POINT
  5
2862
330
23E0
100
AcDbEntity
  8
DEFPOINTS
 62
     0
 48
50.0
100
AcDbPoint
 10
8018.084791275922
 20
4554.900949614031
 30
0.0
  0
POINT
  5
2863
330
23E0
100
AcDbEntity
  8
DEFPOINTS
 62
     0
 48
50.0
100
AcDbPoint
 10
8018.084791275922
 20
4785.459815648813
 30
0.0
  0
ENDBLK
  5
23EA
330
23E0
100
AcDbEntity
  8
0
 48
50.0
100
AcDbBlockEnd
  0
BLOCK
  5
23F5
330
23EB
100
AcDbEntity
  8
0
 48
50.0
100
AcDbBlockBegin
  2
*D20
 70
     1
 10
0.0
 20
0.0
 30
0.0
  3
*D20
  1

  0
LINE
  5
2754
330
23EB
100
AcDbEntity
  8
寸法
 62
     4
 48
50.0
370
    -2
100
AcDbLine
 10
1918.084791275922
 20
4594.900949614031
 30
0.0
 11
1918.084791275922
 21
5105.459815648814
 31
0.0
  0
LINE
  5
2755
330
23EB
100
AcDbEntity
  8
寸法
 62
     4
 48
50.0
370
    -2
100
AcDbLine
 10
8018.084791275922
 20
4594.900949614031
 30
0.0
 11
8018.084791275922
 21
5105.459815648814
 31
0.0
  0
LINE
  5
2756
330
23EB
100
AcDbEntity
  8
寸法
 62
     4
 48
50.0
370
    -2
100
AcDbLine
 10
1918.084791275922
 20
5065.459815648813
 30
0.0
 11
8018.084791275922
 21
5065.459815648813
 31
0.0
  0
INSERT
  5
2757
330
23EB
100
AcDbEntity
  8
寸法
 62
     4
 48
50.0
370
    -2
100
AcDbBlockReference
  2
_DOTSMALL
 10
1918.084791275922
 20
5065.459815648813
 30
0.0
 41
100.0
 42
100.0
 43
100.0
 50
180.0
  0
INSERT
  5
2758
330
23EB
100
AcDbEntity
  8
寸法
 62
     4
 48
50.0
370
    -2
100
AcDbBlockReference
  2
_DOTSMALL
 10
8018.084791275922
 20
5065.459815648813
 30
0.0
 41
100.0
 42
100.0
 43
100.0
  0
MTEXT
  5
2759
330
23EB
100
AcDbEntity
  8
寸法
 62
     7
 48
50.0
100
AcDbMText
 10
4968.084791275922
 20
5165.471626672435
 30
0.0
 40
120.0
 41
0.0
 71
     5
 72
     1
  1
\A1;N X 2800 + 500
 73
     1
 44
1.0
1001
ACAD
1000
MTEXTBEGIN
1070
    73
1070
     1
1070
    44
1040
1.0
1070
    74
1070
     0
1000
MTEXTEND
  0
POINT
  5
275A
330
23EB
100
AcDbEntity
  8
DEFPOINTS
 62
     0
 48
50.0
100
AcDbPoint
 10
1918.084791275922
 20
4554.900949614031
 30
0.0
  0
POINT
  5
275B
330
23EB
100
AcDbEntity
  8
DEFPOINTS
 62
     0
 48
50.0
100
AcDbPoint
 10
8018.084791275922
 20
4554.900949614031
 30
0.0
  0
POINT
  5
275C
330
23EB
100
AcDbEntity
  8
DEFPOINTS
 62
     0
 48
50.0
100
AcDbPoint
 10
8018.084791275922
 20
5065.459815648813
 30
0.0
  0
ENDBLK
  5
23F6
330
23EB
100
AcDbEntity
  8
0
 48
50.0
100
AcDbBlockEnd
  0
BLOCK
  5
2401
330
23F7
100
AcDbEntity
  8
0
 48
50.0
100
AcDbBlockBegin
  2
*D21
 70
     1
 10
0.0
 20
0.0
 30
0.0
  3
*D21
  1

  0
LINE
  5
274B
330
23F7
100
AcDbEntity
  8
寸法
 62
     4
 48
50.0
370
    -2
100
AcDbLine
 10
7838.084791275922
 20
1974.900949614031
 30
0.0
 11
8304.602443373154
 21
1974.900949614031
 31
0.0
  0
LINE
  5
274C
330
23F7
100
AcDbEntity
  8
寸法
 62
     4
 48
50.0
370
    -2
100
AcDbLine
 10
8438.266128291225
 20
2244.900949614032
 30
0.0
 11
8224.602443373154
 21
2244.900949614032
 31
0.0
  0
LINE
  5
274D
330
23F7
100
AcDbEntity
  8
寸法
 62
     4
 48
50.0
370
    -2
100
AcDbLine
 10
8264.602443373153
 20
1974.900949614031
 30
0.0
 11
8264.602443373153
 21
2244.900949614032
 31
0.0
  0
MTEXT
  5
274E
330
23F7
100
AcDbEntity
  8
寸法
 62
     7
 48
50.0
100
AcDbMText
 10
7984.567010302287
 20
2109.900949614033
 30
0.0
 40
120.0
 41
0.0
 71
     5
 72
     1
  1
\A1;270
 11
0.0000000000000001
 21
1.0
 31
0.0
 73
     1
 44
1.0
1001
ACAD
1000
MTEXTBEGIN
1070
    73
1070
     1
1070
    44
1040
1.0
1070
    74
1070
     0
1000
MTEXTEND
  0
INSERT
  5
274F
330
23F7
100
AcDbEntity
  8
寸法
 62
     4
 48
50.0
370
    -2
100
AcDbBlockReference
  2
_DOTSMALL
 10
8264.602443373153
 20
1974.900949614031
 30
0.0
 41
100.0
 42
100.0
 43
100.0
 50
270.0
  0
INSERT
  5
2750
330
23F7
100
AcDbEntity
  8
寸法
 62
     4
 48
50.0
370
    -2
100
AcDbBlockReference
  2
_DOTSMALL
 10
8264.602443373153
 20
2244.900949614032
 30
0.0
 41
100.0
 42
100.0
 43
100.0
 50
90.0
  0
POINT
  5
2751
330
23F7
100
AcDbEntity
  8
DEFPOINTS
 62
     0
 48
50.0
100
AcDbPoint
 10
7798.084791275922
 20
1974.900949614031
 30
0.0
  0
POINT
  5
2752
330
23F7
100
AcDbEntity
  8
DEFPOINTS
 62
     0
 48
50.0
100
AcDbPoint
 10
8478.266128291226
 20
2244.900949614032
 30
0.0
  0
POINT
  5
2753
330
23F7
100
AcDbEntity
  8
DEFPOINTS
 62
     0
 48
50.0
100
AcDbPoint
 10
8264.602443373153
 20
2244.900949614032
 30
0.0
  0
ENDBLK
  5
2402
330
23F7
100
AcDbEntity
  8
0
 48
50.0
100
AcDbBlockEnd
  0
BLOCK
  5
240D
330
2403
100
AcDbEntity
  8
0
 48
50.0
100
AcDbBlockBegin
  2
*D22
 70
     1
 10
0.0
 20
0.0
 30
0.0
  3
*D22
  1

  0
LINE
  5
2742
330
2403
100
AcDbEntity
  8
寸法
 62
     4
 48
50.0
370
    -2
100
AcDbLine
 10
7768.084791275922
 20
1941.589597719343
 30
0.0
 11
7768.084791275922
 21
1648.824870420445
 31
0.0
  0
LINE
  5
2743
330
2403
100
AcDbEntity
  8
寸法
 62
     4
 48
50.0
370
    -2
100
AcDbLine
 10
4968.084791275922
 20
1941.589597719343
 30
0.0
 11
4968.084791275922
 21
1648.824870420445
 31
0.0
  0
LINE
  5
2744
330
2403
100
AcDbEntity
  8
寸法
 62
     4
 48
50.0
370
    -2
100
AcDbLine
 10
7768.084791275922
 20
1688.824870420445
 30
0.0
 11
4968.084791275922
 21
1688.824870420445
 31
0.0
  0
INSERT
  5
2745
330
2403
100
AcDbEntity
  8
寸法
 62
     4
 48
50.0
370
    -2
100
AcDbBlockReference
  2
_DOTSMALL
 10
7768.084791275922
 20
1688.824870420445
 30
0.0
 41
100.0
 42
100.0
 43
100.0
  0
INSERT
  5
2746
330
2403
100
AcDbEntity
  8
寸法
 62
     4
 48
50.0
370
    -2
100
AcDbBlockReference
  2
_DOTSMALL
 10
4968.084791275922
 20
1688.824870420445
 30
0.0
 41
100.0
 42
100.0
 43
100.0
 50
180.0
  0
MTEXT
  5
2747
330
2403
100
AcDbEntity
  8
寸法
 62
     7
 48
50.0
100
AcDbMText
 10
6368.084791275922
 20
1788.836681444067
 30
0.0
 40
120.0
 41
0.0
 71
     5
 72
     1
  1
\A1;2800
 73
     1
 44
1.0
1001
ACAD
1000
MTEXTBEGIN
1070
    73
1070
     1
1070
    44
1040
1.0
1070
    74
1070
     0
1000
MTEXTEND
  0
POINT
  5
2748
330
2403
100
AcDbEntity
  8
DEFPOINTS
 62
     0
 48
50.0
100
AcDbPoint
 10
7768.084791275922
 20
1981.589597719343
 30
0.0
  0
POINT
  5
2749
330
2403
100
AcDbEntity
  8
DEFPOINTS
 62
     0
 48
50.0
100
AcDbPoint
 10
4968.084791275922
 20
1981.589597719343
 30
0.0
  0
POINT
  5
274A
330
2403
100
AcDbEntity
  8
DEFPOINTS
 62
     0
 48
50.0
100
AcDbPoint
 10
4968.084791275922
 20
1688.824870420445
 30
0.0
  0
ENDBLK
  5
240E
330
2403
100
AcDbEntity
  8
0
 48
50.0
100
AcDbBlockEnd
  0
BLOCK
  5
2419
330
240F
100
AcDbEntity
  8
0
 48
50.0
100
AcDbBlockBegin
  2
*D23
 70
     1
 10
0.0
 20
0.0
 30
0.0
  3
*D23
  1

  0
LINE
  5
2739
330
240F
100
AcDbEntity
  8
寸法
 62
     4
 48
50.0
370
    -2
100
AcDbLine
 10
12236.32755088103
 20
4554.900949614031
 30
0.0
 11
8962.756801734114
 21
4554.900949614032
 31
0.0
  0
LINE
  5
273A
330
240F
100
AcDbEntity
  8
寸法
 62
     4
 48
50.0
370
    -2
100
AcDbLine
 10
9025.84789518988
 20
2244.900949614032
 30
0.0
 11
9042.756801734112
 21
2244.900949614032
 31
0.0
  0
LINE
  5
273B
330
240F
100
AcDbEntity
  8
寸法
 62
     4
 48
50.0
370
    -2
100
AcDbLine
 10
9002.756801734113
 20
4554.900949614032
 30
0.0
 11
9002.756801734111
 21
2244.900949614032
 31
0.0
  0
INSERT
  5
273C
330
240F
100
AcDbEntity
  8
寸法
 62
     4
 48
50.0
370
    -2
100
AcDbBlockReference
  2
_DOTSMALL
 10
9002.756801734113
 20
4554.900949614032
 30
0.0
 41
100.0
 42
100.0
 43
100.0
 50
90.0
  0
INSERT
  5
273D
330
240F
100
AcDbEntity
  8
寸法
 62
     4
 48
50.0
370
    -2
100
AcDbBlockReference
  2
_DOTSMALL
 10
9002.756801734111
 20
2244.900949614032
 30
0.0
 41
100.0
 42
100.0
 43
100.0
 50
270.0
  0
MTEXT
  5
273E
330
240F
100
AcDbEntity
  8
寸法
 62
     7
 48
50.0
100
AcDbMText
 10
8902.744990710489
 20
3399.900949614033
 30
0.0
 40
120.0
 41
0.0
 71
     5
 72
     1
  1
\A1;2310
 11
0.0000000000000001
 21
1.0
 31
0.0
 73
     1
 44
1.0
1001
ACAD
1000
MTEXTBEGIN
1070
    73
1070
     1
1070
    44
1040
1.0
1070
    74
1070
     0
1000
MTEXTEND
  0
POINT
  5
273F
330
240F
100
AcDbEntity
  8
DEFPOINTS
 62
     0
 48
50.0
100
AcDbPoint
 10
12276.32755088103
 20
4554.900949614031
 30
0.0
  0
POINT
  5
2740
330
240F
100
AcDbEntity
  8
DEFPOINTS
 62
     0
 48
50.0
100
AcDbPoint
 10
8985.847895189881
 20
2244.900949614032
 30
0.0
  0
POINT
  5
2741
330
240F
100
AcDbEntity
  8
DEFPOINTS
 62
     0
 48
50.0
100
AcDbPoint
 10
9002.756801734111
 20
2244.900949614032
 30
0.0
  0
ENDBLK
  5
241A
330
240F
100
AcDbEntity
  8
0
 48
50.0
100
AcDbBlockEnd
  0
BLOCK
  5
2425
330
241B
100
AcDbEntity
  8
0
 48
50.0
100
AcDbBlockBegin
  2
*D24
 70
     1
 10
0.0
 20
0.0
 30
0.0
  3
*D24
  1

  0
LINE
  5
2730
330
241B
100
AcDbEntity
  8
寸法
 62
     4
 48
50.0
370
    -2
100
AcDbLine
 10
12236.32755088103
 20
4554.900949614031
 30
0.0
 11
9256.48348345903
 21
4554.900949614032
 31
0.0
  0
LINE
  5
2731
330
241B
100
AcDbEntity
  8
寸法
 62
     4
 48
50.0
370
    -2
100
AcDbLine
 10
9836.327550881033
 20
4441.900949614032
 30
0.0
 11
9256.48348345903
 21
4441.900949614032
 31
0.0
  0
LINE
  5
2732
330
241B
100
AcDbEntity
  8
寸法
 62
     4
 48
50.0
370
    -2
100
AcDbLine
 10
9296.483483459029
 20
4554.900949614032
 30
0.0
 11
9296.483483459029
 21
4441.900949614032
 31
0.0
  0
MTEXT
  5
2733
330
241B
100
AcDbEntity
  8
寸法
 62
     7
 48
50.0
100
AcDbMText
 10
9177.842311419059
 20
4690.328483500826
 30
0.0
 40
120.0
 41
0.0
 71
     5
 72
     1
  1
\A1;113
 11
0.0000000000000001
 21
1.0
 31
0.0
 73
     1
 44
1.0
1001
ACAD
1000
MTEXTBEGIN
1070
    73
1070
     1
1070
    44
1040
1.0
1070
    74
1070
     0
1000
MTEXTEND
  0
INSERT
  5
2734
330
241B
100
AcDbEntity
  8
寸法
 62
     4
 48
50.0
370
    -2
100
AcDbBlockReference
  2
_DOTSMALL
 10
9296.483483459029
 20
4554.900949614032
 30
0.0
 41
100.0
 42
100.0
 43
100.0
 50
90.0
  0
INSERT
  5
2735
330
241B
100
AcDbEntity
  8
寸法
 62
     4
 48
50.0
370
    -2
100
AcDbBlockReference
  2
_DOTSMALL
 10
9296.483483459029
 20
4441.900949614032
 30
0.0
 41
100.0
 42
100.0
 43
100.0
 50
270.0
  0
POINT
  5
2736
330
241B
100
AcDbEntity
  8
DEFPOINTS
 62
     0
 48
50.0
100
AcDbPoint
 10
12276.32755088103
 20
4554.900949614031
 30
0.0
  0
POINT
  5
2737
330
241B
100
AcDbEntity
  8
DEFPOINTS
 62
     0
 48
50.0
100
AcDbPoint
 10
9876.327550881034
 20
4441.900949614032
 30
0.0
  0
POINT
  5
2738
330
241B
100
AcDbEntity
  8
DEFPOINTS
 62
     0
 48
50.0
100
AcDbPoint
 10
9296.483483459029
 20
4441.900949614032
 30
0.0
  0
ENDBLK
  5
2426
330
241B
100
AcDbEntity
  8
0
 48
50.0
100
AcDbBlockEnd
  0
BLOCK
  5
2430
330
2427
100
AcDbEntity
  8
0
 48
50.0
100
AcDbBlockBegin
  2
*D25
 70
     1
 10
0.0
 20
0.0
 30
0.0
  3
*D25
  1

  0
LINE
  5
2728
330
2427
100
AcDbEntity
  8
寸法
 62
     4
 48
50.0
370
    -2
100
AcDbLine
 10
10616.32755088103
 20
3394.900949614032
 30
0.0
 11
9748.354899444727
 21
3394.900949614032
 31
0.0
  0
LINE
  5
2729
330
2427
100
AcDbEntity
  8
寸法
 62
     4
 48
50.0
370
    -2
100
AcDbLine
 10
9788.354899444726
 20
2494.900949614032
 30
0.0
 11
9788.354899444726
 21
3394.900949614032
 31
0.0
  0
INSERT
  5
272A
330
2427
100
AcDbEntity
  8
寸法
 62
     4
 48
50.0
370
    -2
100
AcDbBlockReference
  2
_DOTSMALL
 10
9788.354899444726
 20
2494.900949614032
 30
0.0
 41
100.0
 42
100.0
 43
100.0
 50
270.0
  0
INSERT
  5
272B
330
2427
100
AcDbEntity
  8
寸法
 62
     4
 48
50.0
370
    -2
100
AcDbBlockReference
  2
_DOTSMALL
 10
9788.354899444726
 20
3394.900949614032
 30
0.0
 41
100.0
 42
100.0
 43
100.0
 50
90.0
  0
MTEXT
  5
272C
330
2427
100
AcDbEntity
  8
寸法
 62
     7
 48
50.0
100
AcDbMText
 10
9688.354899444727
 20
2944.900949614034
 30
0.0
 40
120.0
 41
0.0
 71
     5
 72
     1
  1
\A1;900
 11
0.0000000000000001
 21
1.0
 31
0.0
 73
     1
 44
1.0
1001
ACAD
1000
MTEXTBEGIN
1070
    73
1070
     1
1070
    44
1040
1.0
1070
    74
1070
     0
1000
MTEXTEND
  0
POINT
  5
272D
330
2427
100
AcDbEntity
  8
DEFPOINTS
 62
     0
 48
50.0
100
AcDbPoint
 10
10656.32755088103
 20
2494.900949614032
 30
0.0
  0
POINT
  5
272E
330
2427
100
AcDbEntity
  8
DEFPOINTS
 62
     0
 48
50.0
100
AcDbPoint
 10
10656.32755088103
 20
3394.900949614032
 30
0.0
  0
POINT
  5
272F
330
2427
100
AcDbEntity
  8
DEFPOINTS
 62
     0
 48
50.0
100
AcDbPoint
 10
9788.354899444726
 20
3394.900949614032
 30
0.0
  0
ENDBLK
  5
2431
330
2427
100
AcDbEntity
  8
0
 48
50.0
100
AcDbBlockEnd
  0
BLOCK
  5
243C
330
2432
100
AcDbEntity
  8
0
 48
50.0
100
AcDbBlockBegin
  2
*D26
 70
     1
 10
0.0
 20
0.0
 30
0.0
  3
*D26
  1

  0
LINE
  5
271F
330
2432
100
AcDbEntity
  8
寸法
 62
     4
 48
50.0
370
    -2
100
AcDbLine
 10
9812.254670437178
 20
2244.900949614032
 30
0.0
 11
9828.354899444727
 21
2244.900949614032
 31
0.0
  0
LINE
  5
2720
330
2432
100
AcDbEntity
  8
寸法
 62
     4
 48
50.0
370
    -2
100
AcDbLine
 10
10616.32755088103
 20
2494.900949614032
 30
0.0
 11
9748.354899444727
 21
2494.900949614032
 31
0.0
  0
LINE
  5
2721
330
2432
100
AcDbEntity
  8
寸法
 62
     4
 48
50.0
370
    -2
100
AcDbLine
 10
9788.354899444726
 20
2244.900949614032
 30
0.0
 11
9788.354899444726
 21
2494.900949614032
 31
0.0
  0
MTEXT
  5
2722
330
2432
100
AcDbEntity
  8
寸法
 62
     7
 48
50.0
100
AcDbMText
 10
9677.79826238547
 20
2369.900949614032
 30
0.0
 40
120.0
 41
0.0
 71
     5
 72
     1
  1
\A1;250
 11
0.0000000000000001
 21
1.0
 31
0.0
 73
     1
 44
1.0
1001
ACAD
1000
MTEXTBEGIN
1070
    73
1070
     1
1070
    44
1040
1.0
1070
    74
1070
     0
1000
MTEXTEND
  0
INSERT
  5
2723
330
2432
100
AcDbEntity
  8
寸法
 62
     4
 48
50.0
370
    -2
100
AcDbBlockReference
  2
_DOTSMALL
 10
9788.354899444726
 20
2244.900949614032
 30
0.0
 41
100.0
 42
100.0
 43
100.0
 50
270.0
  0
INSERT
  5
2724
330
2432
100
AcDbEntity
  8
寸法
 62
     4
 48
50.0
370
    -2
100
AcDbBlockReference
  2
_DOTSMALL
 10
9788.354899444726
 20
2494.900949614032
 30
0.0
 41
100.0
 42
100.0
 43
100.0
 50
90.0
  0
POINT
  5
2725
330
2432
100
AcDbEntity
  8
DEFPOINTS
 62
     0
 48
50.0
100
AcDbPoint
 10
9772.254670437177
 20
2244.900949614032
 30
0.0
  0
POINT
  5
2726
330
2432
100
AcDbEntity
  8
DEFPOINTS
 62
     0
 48
50.0
100
AcDbPoint
 10
10656.32755088103
 20
2494.900949614032
 30
0.0
  0
POINT
  5
2727
330
2432
100
AcDbEntity
  8
DEFPOINTS
 62
     0
 48
50.0
100
AcDbPoint
 10
9788.354899444726
 20
2494.900949614032
 30
0.0
  0
ENDBLK
  5
243D
330
2432
100
AcDbEntity
  8
0
 48
50.0
100
AcDbBlockEnd
  0
BLOCK
  5
2448
330
243E
100
AcDbEntity
  8
0
 48
50.0
100
AcDbBlockBegin
  2
*D27
 70
     1
 10
0.0
 20
0.0
 30
0.0
  3
*D27
  1

  0
LINE
  5
2716
330
243E
100
AcDbEntity
  8
寸法
 62
     4
 48
50.0
370
    -2
100
AcDbLine
 10
9876.327550881034
 20
4481.900949614032
 30
0.0
 11
9876.327550881034
 21
5169.668646643565
 31
0.0
  0
LINE
  5
2717
330
243E
100
AcDbEntity
  8
寸法
 62
     4
 48
50.0
370
    -2
100
AcDbLine
 10
14676.32755088103
 20
4481.900949614032
 30
0.0
 11
14676.32755088103
 21
5169.668646643565
 31
0.0
  0
LINE
  5
2718
330
243E
100
AcDbEntity
  8
寸法
 62
     4
 48
50.0
370
    -2
100
AcDbLine
 10
9876.327550881034
 20
5129.668646643564
 30
0.0
 11
14676.32755088103
 21
5129.668646643564
 31
0.0
  0
INSERT
  5
2719
330
243E
100
AcDbEntity
  8
寸法
 62
     4
 48
50.0
370
    -2
100
AcDbBlockReference
  2
_DOTSMALL
 10
9876.327550881034
 20
5129.668646643564
 30
0.0
 41
100.0
 42
100.0
 43
100.0
 50
180.0
  0
INSERT
  5
271A
330
243E
100
AcDbEntity
  8
寸法
 62
     4
 48
50.0
370
    -2
100
AcDbBlockReference
  2
_DOTSMALL
 10
14676.32755088103
 20
5129.668646643564
 30
0.0
 41
100.0
 42
100.0
 43
100.0
  0
MTEXT
  5
271B
330
243E
100
AcDbEntity
  8
寸法
 62
     7
 48
50.0
100
AcDbMText
 10
12276.32755088103
 20
5229.668646643563
 30
0.0
 40
120.0
 41
0.0
 71
     5
 72
     1
  1
\A1;4800
 73
     1
 44
1.0
1001
ACAD
1000
MTEXTBEGIN
1070
    73
1070
     1
1070
    44
1040
1.0
1070
    74
1070
     0
1000
MTEXTEND
  0
POINT
  5
271C
330
243E
100
AcDbEntity
  8
DEFPOINTS
 62
     0
 48
50.0
100
AcDbPoint
 10
9876.327550881034
 20
4441.900949614032
 30
0.0
  0
POINT
  5
271D
330
243E
100
AcDbEntity
  8
DEFPOINTS
 62
     0
 48
50.0
100
AcDbPoint
 10
14676.32755088103
 20
4441.900949614032
 30
0.0
  0
POINT
  5
271E
330
243E
100
AcDbEntity
  8
DEFPOINTS
 62
     0
 48
50.0
100
AcDbPoint
 10
14676.32755088103
 20
5129.668646643564
 30
0.0
  0
ENDBLK
  5
2449
330
243E
100
AcDbEntity
  8
0
 48
50.0
100
AcDbBlockEnd
  0
BLOCK
  5
2454
330
244A
100
AcDbEntity
  8
0
 48
50.0
100
AcDbBlockBegin
  2
*D28
 70
     1
 10
0.0
 20
0.0
 30
0.0
  3
*D28
  1

  0
LINE
  5
270D
330
244A
100
AcDbEntity
  8
寸法
 62
     4
 48
50.0
370
    -2
100
AcDbLine
 10
9876.327550881034
 20
4481.900949614032
 30
0.0
 11
9876.327550881034
 21
4889.668646643563
 31
0.0
  0
LINE
  5
270E
330
244A
100
AcDbEntity
  8
寸法
 62
     4
 48
50.0
370
    -2
100
AcDbLine
 10
10626.32755088103
 20
4098.92028237068
 30
0.0
 11
10626.32755088103
 21
4889.668646643563
 31
0.0
  0
LINE
  5
270F
330
244A
100
AcDbEntity
  8
寸法
 62
     4
 48
50.0
370
    -2
100
AcDbLine
 10
9876.327550881034
 20
4849.668646643564
 30
0.0
 11
10626.32755088103
 21
4849.668646643564
 31
0.0
  0
INSERT
  5
2710
330
244A
100
AcDbEntity
  8
寸法
 62
     4
 48
50.0
370
    -2
100
AcDbBlockReference
  2
_DOTSMALL
 10
9876.327550881034
 20
4849.668646643564
 30
0.0
 41
100.0
 42
100.0
 43
100.0
 50
180.0
  0
INSERT
  5
2711
330
244A
100
AcDbEntity
  8
寸法
 62
     4
 48
50.0
370
    -2
100
AcDbBlockReference
  2
_DOTSMALL
 10
10626.32755088103
 20
4849.668646643564
 30
0.0
 41
100.0
 42
100.0
 43
100.0
  0
MTEXT
  5
2712
330
244A
100
AcDbEntity
  8
寸法
 62
     7
 48
50.0
100
AcDbMText
 10
10251.32755088103
 20
4949.668646643564
 30
0.0
 40
120.0
 41
0.0
 71
     5
 72
     1
  1
\A1;750
 73
     1
 44
1.0
1001
ACAD
1000
MTEXTBEGIN
1070
    73
1070
     1
1070
    44
1040
1.0
1070
    74
1070
     0
1000
MTEXTEND
  0
POINT
  5
2713
330
244A
100
AcDbEntity
  8
DEFPOINTS
 62
     0
 48
50.0
100
AcDbPoint
 10
9876.327550881034
 20
4441.900949614032
 30
0.0
  0
POINT
  5
2714
330
244A
100
AcDbEntity
  8
DEFPOINTS
 62
     0
 48
50.0
100
AcDbPoint
 10
10626.32755088103
 20
4058.92028237068
 30
0.0
  0
POINT
  5
2715
330
244A
100
AcDbEntity
  8
DEFPOINTS
 62
     0
 48
50.0
100
AcDbPoint
 10
10626.32755088103
 20
4849.668646643564
 30
0.0
  0
ENDBLK
  5
2455
330
244A
100
AcDbEntity
  8
0
 48
50.0
100
AcDbBlockEnd
  0
BLOCK
  5
245F
330
2456
100
AcDbEntity
  8
0
 48
50.0
100
AcDbBlockBegin
  2
*D29
 70
     1
 10
0.0
 20
0.0
 30
0.0
  3
*D29
  1

  0
LINE
  5
2705
330
2456
100
AcDbEntity
  8
寸法
 62
     4
 48
50.0
370
    -2
100
AcDbLine
 10
9285.652178531018
 20
2244.900949614032
 30
0.0
 11
9336.48348345903
 21
2244.900949614032
 31
0.0
  0
LINE
  5
2706
330
2456
100
AcDbEntity
  8
寸法
 62
     4
 48
50.0
370
    -2
100
AcDbLine
 10
9296.483483459031
 20
4441.900949614032
 30
0.0
 11
9296.483483459029
 21
2244.900949614032
 31
0.0
  0
INSERT
  5
2707
330
2456
100
AcDbEntity
  8
寸法
 62
     4
 48
50.0
370
    -2
100
AcDbBlockReference
  2
_DOTSMALL
 10
9296.483483459031
 20
4441.900949614032
 30
0.0
 41
100.0
 42
100.0
 43
100.0
 50
90.0
  0
INSERT
  5
2708
330
2456
100
AcDbEntity
  8
寸法
 62
     4
 48
50.0
370
    -2
100
AcDbBlockReference
  2
_DOTSMALL
 10
9296.483483459029
 20
2244.900949614032
 30
0.0
 41
100.0
 42
100.0
 43
100.0
 50
270.0
  0
MTEXT
  5
2709
330
2456
100
AcDbEntity
  8
寸法
 62
     7
 48
50.0
100
AcDbMText
 10
9196.471672435407
 20
3343.400949614033
 30
0.0
 40
120.0
 41
0.0
 71
     5
 72
     1
  1
\A1;2197
 11
0.0000000000000001
 21
1.0
 31
0.0
 73
     1
 44
1.0
1001
ACAD
1000
MTEXTBEGIN
1070
    73
1070
     1
1070
    44
1040
1.0
1070
    74
1070
     0
1000
MTEXTEND
  0
POINT
  5
270A
330
2456
100
AcDbEntity
  8
DEFPOINTS
 62
     0
 48
50.0
100
AcDbPoint
 10
9876.327550881034
 20
4441.900949614032
 30
0.0
  0
POINT
  5
270B
330
2456
100
AcDbEntity
  8
DEFPOINTS
 62
     0
 48
50.0
100
AcDbPoint
 10
9245.652178531019
 20
2244.900949614032
 30
0.0
  0
POINT
  5
270C
330
2456
100
AcDbEntity
  8
DEFPOINTS
 62
     0
 48
50.0
100
AcDbPoint
 10
9296.483483459029
 20
2244.900949614032
 30
0.0
  0
ENDBLK
  5
2460
330
2456
100
AcDbEntity
  8
0
 48
50.0
100
AcDbBlockEnd
  0
BLOCK
  5
246C
330
2461
100
AcDbEntity
  8
0
 48
50.0
100
AcDbBlockBegin
  2
*D30
 70
     1
 10
0.0
 20
0.0
 30
0.0
  3
*D30
  1

  0
LINE
  5
26FB
330
2461
100
AcDbEntity
  8
寸法
 62
     4
 48
50.0
370
    -2
100
AcDbLine
 10
14716.32755088103
 20
2294.900949614032
 30
0.0
 11
15233.45611201606
 21
2294.900949614032
 31
0.0
  0
LINE
  5
26FC
330
2461
100
AcDbEntity
  8
寸法
 62
     4
 48
50.0
370
    -2
100
AcDbLine
 10
15165.59992105415
 20
2244.900949614032
 30
0.0
 11
15153.45611201606
 21
2244.900949614032
 31
0.0
  0
LINE
  5
26FD
330
2461
100
AcDbEntity
  8
寸法
 62
     4
 48
50.0
370
    -2
100
AcDbLine
 10
15193.45611201606
 20
2294.900949614032
 30
0.0
 11
15193.45611201606
 21
2394.900949614032
 31
0.0
  0
LINE
  5
26FE
330
2461
100
AcDbEntity
  8
寸法
 62
     4
 48
50.0
370
    -2
100
AcDbLine
 10
15193.45611201606
 20
2244.900949614032
 30
0.0
 11
15193.45611201606
 21
2144.900949614032
 31
0.0
  0
MTEXT
  5
26FF
330
2461
100
AcDbEntity
  8
寸法
 62
     7
 48
50.0
100
AcDbMText
 10
15072.01802163521
 20
2425.303996091992
 30
0.0
 40
120.0
 41
0.0
 71
     5
 72
     1
  1
\A1;50
 11
0.0000000000000001
 21
1.0
 31
0.0
 73
     1
 44
1.0
1001
ACAD
1000
MTEXTBEGIN
1070
    73
1070
     1
1070
    44
1040
1.0
1070
    74
1070
     0
1000
MTEXTEND
  0
INSERT
  5
2700
330
2461
100
AcDbEntity
  8
寸法
 62
     4
 48
50.0
370
    -2
100
AcDbBlockReference
  2
_DOTSMALL
 10
15193.45611201606
 20
2294.900949614032
 30
0.0
 41
100.0
 42
100.0
 43
100.0
 50
270.0
  0
INSERT
  5
2701
330
2461
100
AcDbEntity
  8
寸法
 62
     4
 48
50.0
370
    -2
100
AcDbBlockReference
  2
_DOTSMALL
 10
15193.45611201606
 20
2244.900949614032
 30
0.0
 41
100.0
 42
100.0
 43
100.0
 50
90.0
  0
POINT
  5
2702
330
2461
100
AcDbEntity
  8
DEFPOINTS
 62
     0
 48
50.0
100
AcDbPoint
 10
14676.32755088103
 20
2294.900949614032
 30
0.0
  0
POINT
  5
2703
330
2461
100
AcDbEntity
  8
DEFPOINTS
 62
     0
 48
50.0
100
AcDbPoint
 10
15205.59992105415
 20
2244.900949614032
 30
0.0
  0
POINT
  5
2704
330
2461
100
AcDbEntity
  8
DEFPOINTS
 62
     0
 48
50.0
100
AcDbPoint
 10
15193.45611201606
 20
2244.900949614032
 30
0.0
  0
ENDBLK
  5
246D
330
2461
100
AcDbEntity
  8
0
 48
50.0
100
AcDbBlockEnd
  0
BLOCK
  5
2477
330
246E
100
AcDbEntity
  8
0
 48
50.0
100
AcDbBlockBegin
  2
*D31
 70
     1
 10
0.0
 20
0.0
 30
0.0
  3
*D31
  1

  0
LINE
  5
2830
330
246E
100
AcDbEntity
  8
寸法
 62
     4
 48
50.0
370
    -2
100
AcDbLine
 10
13926.32755088103
 20
4098.920282370678
 30
0.0
 11
13926.32755088103
 21
4889.668646643563
 31
0.0
  0
LINE
  5
2831
330
246E
100
AcDbEntity
  8
寸法
 62
     4
 48
50.0
370
    -2
100
AcDbLine
 10
12276.32755088103
 20
4849.668646643564
 30
0.0
 11
13926.32755088103
 21
4849.668646643564
 31
0.0
  0
INSERT
  5
2832
330
246E
100
AcDbEntity
  8
寸法
 62
     4
 48
50.0
370
    -2
100
AcDbBlockReference
  2
_DOTSMALL
 10
12276.32755088103
 20
4849.668646643564
 30
0.0
 41
100.0
 42
100.0
 43
100.0
 50
180.0
  0
INSERT
  5
2833
330
246E
100
AcDbEntity
  8
寸法
 62
     4
 48
50.0
370
    -2
100
AcDbBlockReference
  2
_DOTSMALL
 10
13926.32755088103
 20
4849.668646643564
 30
0.0
 41
100.0
 42
100.0
 43
100.0
  0
MTEXT
  5
2834
330
246E
100
AcDbEntity
  8
寸法
 62
     7
 48
50.0
100
AcDbMText
 10
13101.32755088103
 20
4949.668646643564
 30
0.0
 40
120.0
 41
0.0
 71
     5
 72
     1
  1
\A1;1650
 73
     1
 44
1.0
1001
ACAD
1000
MTEXTBEGIN
1070
    73
1070
     1
1070
    44
1040
1.0
1070
    74
1070
     0
1000
MTEXTEND
  0
POINT
  5
2835
330
246E
100
AcDbEntity
  8
DEFPOINTS
 62
     0
 48
50.0
100
AcDbPoint
 10
12276.32755088103
 20
4554.900949614031
 30
0.0
  0
POINT
  5
2836
330
246E
100
AcDbEntity
  8
DEFPOINTS
 62
     0
 48
50.0
100
AcDbPoint
 10
13926.32755088103
 20
4058.920282370678
 30
0.0
  0
POINT
  5
2837
330
246E
100
AcDbEntity
  8
DEFPOINTS
 62
     0
 48
50.0
100
AcDbPoint
 10
13926.32755088103
 20
4849.668646643564
 30
0.0
  0
ENDBLK
  5
2478
330
246E
100
AcDbEntity
  8
0
 48
50.0
100
AcDbBlockEnd
  0
BLOCK
  5
2482
330
2479
100
AcDbEntity
  8
0
 48
50.0
100
AcDbBlockBegin
  2
*D32
 70
     1
 10
0.0
 20
0.0
 30
0.0
  3
*D32
  1

  0
LINE
  5
26EB
330
2479
100
AcDbEntity
  8
寸法
 62
     4
 48
50.0
370
    -2
100
AcDbLine
 10
12276.32755088103
 20
4594.900949614031
 30
0.0
 11
12276.32755088103
 21
4889.668646643563
 31
0.0
  0
LINE
  5
26EC
330
2479
100
AcDbEntity
  8
寸法
 62
     4
 48
50.0
370
    -2
100
AcDbLine
 10
10626.32755088103
 20
4849.668646643564
 30
0.0
 11
12276.32755088103
 21
4849.668646643564
 31
0.0
  0
INSERT
  5
26ED
330
2479
100
AcDbEntity
  8
寸法
 62
     4
 48
50.0
370
    -2
100
AcDbBlockReference
  2
_DOTSMALL
 10
10626.32755088103
 20
4849.668646643564
 30
0.0
 41
100.0
 42
100.0
 43
100.0
 50
180.0
  0
INSERT
  5
26EE
330
2479
100
AcDbEntity
  8
寸法
 62
     4
 48
50.0
370
    -2
100
AcDbBlockReference
  2
_DOTSMALL
 10
12276.32755088103
 20
4849.668646643564
 30
0.0
 41
100.0
 42
100.0
 43
100.0
  0
MTEXT
  5
26EF
330
2479
100
AcDbEntity
  8
寸法
 62
     7
 48
50.0
100
AcDbMText
 10
11451.32755088103
 20
4949.668646643564
 30
0.0
 40
120.0
 41
0.0
 71
     5
 72
     1
  1
\A1;1650
 73
     1
 44
1.0
1001
ACAD
1000
MTEXTBEGIN
1070
    73
1070
     1
1070
    44
1040
1.0
1070
    74
1070
     0
1000
MTEXTEND
  0
POINT
  5
26F0
330
2479
100
AcDbEntity
  8
DEFPOINTS
 62
     0
 48
50.0
100
AcDbPoint
 10
10626.32755088103
 20
4058.92028237068
 30
0.0
  0
POINT
  5
26F1
330
2479
100
AcDbEntity
  8
DEFPOINTS
 62
     0
 48
50.0
100
AcDbPoint
 10
12276.32755088103
 20
4554.900949614031
 30
0.0
  0
POINT
  5
26F2
330
2479
100
AcDbEntity
  8
DEFPOINTS
 62
     0
 48
50.0
100
AcDbPoint
 10
12276.32755088103
 20
4849.668646643564
 30
0.0
  0
ENDBLK
  5
2483
330
2479
100
AcDbEntity
  8
0
 48
50.0
100
AcDbBlockEnd
  0
BLOCK
  5
248E
330
2484
100
AcDbEntity
  8
0
 48
50.0
100
AcDbBlockBegin
  2
*D33
 70
     1
 10
0.0
 20
0.0
 30
0.0
  3
*D33
  1

  0
LINE
  5
26E2
330
2484
100
AcDbEntity
  8
寸法
 62
     4
 48
50.0
370
    -2
100
AcDbLine
 10
14680.33206907485
 20
4441.712403549074
 30
0.0
 11
15245.09745646966
 21
4415.121366559244
 31
0.0
  0
LINE
  5
26E3
330
2484
100
AcDbEntity
  8
寸法
 62
     4
 48
50.0
370
    -2
100
AcDbLine
 10
14674.92347741464
 20
4326.83966032313
 30
0.0
 11
15239.68886480943
 21
4300.248623333299
 31
0.0
  0
LINE
  5
26E4
330
2484
100
AcDbEntity
  8
寸法
 62
     4
 48
50.0
370
    -2
100
AcDbLine
 10
15205.14171969542
 20
4417.002615832363
 30
0.0
 11
15199.7331280352
 21
4302.129872606418
 31
0.0
  0
MTEXT
  5
26E5
330
2484
100
AcDbEntity
  8
寸法
 62
     7
 48
50.0
100
AcDbMText
 10
15090.41454453201
 20
4545.841656056089
 30
0.0
 40
120.0
 41
0.0
 71
     5
 72
     1
  1
\A1;115
 11
0.0470312318279977
 21
0.9988934193560099
 31
0.0
 73
     1
 44
1.0
1001
ACAD
1000
MTEXTBEGIN
1070
    73
1070
     1
1070
    44
1040
1.0
1070
    74
1070
     0
1000
MTEXTEND
  0
INSERT
  5
26E6
330
2484
100
AcDbEntity
  8
寸法
 62
     4
 48
50.0
370
    -2
100
AcDbBlockReference
  2
_DOTSMALL
 10
15205.14171969542
 20
4417.002615832363
 30
0.0
 41
100.0
 42
100.0
 43
100.0
 50
87.30431450645136
  0
INSERT
  5
26E7
330
2484
100
AcDbEntity
  8
寸法
 62
     4
 48
50.0
370
    -2
100
AcDbBlockReference
  2
_DOTSMALL
 10
15199.7331280352
 20
4302.129872606418
 30
0.0
 41
100.0
 42
100.0
 43
100.0
 50
267.3043145064514
  0
POINT
  5
26E8
330
2484
100
AcDbEntity
  8
DEFPOINTS
 62
     0
 48
50.0
100
AcDbPoint
 10
14640.37633230061
 20
4443.593652822194
 30
0.0
  0
POINT
  5
26E9
330
2484
100
AcDbEntity
  8
DEFPOINTS
 62
     0
 48
50.0
100
AcDbPoint
 10
14634.96774064039
 20
4328.72090959625
 30
0.0
  0
POINT
  5
26EA
330
2484
100
AcDbEntity
  8
DEFPOINTS
 62
     0
 48
50.0
100
AcDbPoint
 10
15199.7331280352
 20
4302.129872606418
 30
0.0
  0
ENDBLK
  5
248F
330
2484
100
AcDbEntity
  8
0
 48
50.0
100
AcDbBlockEnd
  0
BLOCK
  5
2499
330
2490
100
AcDbEntity
  8
0
 48
50.0
100
AcDbBlockBegin
  2
*D34
 70
     1
 10
0.0
 20
0.0
 30
0.0
  3
*D34
  1

  0
LINE
  5
26DA
330
2490
100
AcDbEntity
  8
寸法
 62
     4
 48
50.0
370
    -2
100
AcDbLine
 10
14676.32755088103
 20
4481.900949614032
 30
0.0
 11
14676.32755088103
 21
4889.668646643563
 31
0.0
  0
LINE
  5
26DB
330
2490
100
AcDbEntity
  8
寸法
 62
     4
 48
50.0
370
    -2
100
AcDbLine
 10
13926.32755088103
 20
4849.668646643564
 30
0.0
 11
14676.32755088103
 21
4849.668646643564
 31
0.0
  0
INSERT
  5
26DC
330
2490
100
AcDbEntity
  8
寸法
 62
     4
 48
50.0
370
    -2
100
AcDbBlockReference
  2
_DOTSMALL
 10
13926.32755088103
 20
4849.668646643564
 30
0.0
 41
100.0
 42
100.0
 43
100.0
 50
180.0
  0
INSERT
  5
26DD
330
2490
100
AcDbEntity
  8
寸法
 62
     4
 48
50.0
370
    -2
100
AcDbBlockReference
  2
_DOTSMALL
 10
14676.32755088103
 20
4849.668646643564
 30
0.0
 41
100.0
 42
100.0
 43
100.0
  0
MTEXT
  5
26DE
330
2490
100
AcDbEntity
  8
寸法
 62
     7
 48
50.0
100
AcDbMText
 10
14301.32755088103
 20
4949.668646643564
 30
0.0
 40
120.0
 41
0.0
 71
     5
 72
     1
  1
\A1;750
 73
     1
 44
1.0
1001
ACAD
1000
MTEXTBEGIN
1070
    73
1070
     1
1070
    44
1040
1.0
1070
    74
1070
     0
1000
MTEXTEND
  0
POINT
  5
26DF
330
2490
100
AcDbEntity
  8
DEFPOINTS
 62
     0
 48
50.0
100
AcDbPoint
 10
13926.32755088103
 20
4058.920282370678
 30
0.0
  0
POINT
  5
26E0
330
2490
100
AcDbEntity
  8
DEFPOINTS
 62
     0
 48
50.0
100
AcDbPoint
 10
14676.32755088103
 20
4441.900949614032
 30
0.0
  0
POINT
  5
26E1
330
2490
100
AcDbEntity
  8
DEFPOINTS
 62
     0
 48
50.0
100
AcDbPoint
 10
14676.32755088103
 20
4849.668646643564
 30
0.0
  0
ENDBLK
  5
249A
330
2490
100
AcDbEntity
  8
0
 48
50.0
100
AcDbBlockEnd
  0
ENDSEC
  0
SECTION
  2
ENTITIES
  0
MTEXT
  5
1411
330
1A
100
AcDbEntity
  8
0
100
AcDbMText
 10
12113.85383347236
 20
11207.9349056396
 30
0.0
 40
140.0
 41
212.9488506697089
 71
     1
 72
     5
  1

  7
MSMINCHO
 73
     1
 44
1.0
1001
ACAD
1000
MTEXTBEGIN
1070
    73
1070
     1
1070
    44
1040
1.0
1070
    74
1070
     0
1000
MTEXTEND
  0
LINE
  5
1F4E
330
1A
100
AcDbEntity
  8
部品1
100
AcDbLine
 10
8008.084791275923
 20
10706.70309759781
 30
0.0
 11
1928.084791275922
 21
10706.70309759781
 31
0.0
  0
LINE
  5
1F4F
330
1A
100
AcDbEntity
  8
部品1
100
AcDbLine
 10
7969.584791275915
 20
10582.70309759782
 30
0.0
 11
1966.584791275922
 21
10582.70309759781
 31
0.0
  0
LINE
  5
1F50
330
1A
100
AcDbEntity
  8
部品1
100
AcDbLine
 10
7948.084791275924
 20
8446.703097597817
 30
0.0
 11
7948.084791275921
 21
10582.70309759781
 31
0.0
  0
LINE
  5
1F51
330
1A
100
AcDbEntity
  8
部品1
100
AcDbLine
 10
1940.584791275922
 20
10706.70309759781
 30
0.0
 11
1940.584791275922
 21
10692.20309759781
 31
0.0
  0
LINE
  5
1F52
330
1A
100
AcDbEntity
  8
部品1
100
AcDbLine
 10
7990.584791275921
 20
10687.20309759781
 30
0.0
 11
7969.584791275922
 21
10687.20309759781
 31
0.0
  0
ARC
  5
1F53
330
1A
100
AcDbEntity
  8
部品1
100
AcDbCircle
 10
1945.584791275922
 20
10692.20309759781
 30
0.0
 40
5.0
100
AcDbArc
 50
180.0
 51
270.0
  0
LINE
  5
1F54
330
1A
100
AcDbEntity
  8
部品1
100
AcDbLine
 10
7995.584791275923
 20
10692.20309759781
 30
0.0
 11
7995.584791275923
 21
10706.70309759781
 31
0.0
  0
ARC
  5
1F55
330
1A
100
AcDbEntity
  8
部品1
100
AcDbCircle
 10
7990.584791275921
 20
10692.20309759781
 30
0.0
 40
5.0
100
AcDbArc
 50
270.0
 51
0.0
  0
LINE
  5
1F56
330
1A
100
AcDbEntity
  8
部品1
100
AcDbLine
 10
7969.584791275915
 20
10582.70309759781
 30
0.0
 11
7969.584791275922
 21
10687.20309759781
 31
0.0
  0
ARC
  5
1F57
330
1A
100
AcDbEntity
  8
部品1
100
AcDbCircle
 10
8008.084791275923
 20
10696.70309759781
 30
0.0
 40
10.0
100
AcDbArc
 50
0.0
 51
90.0
  0
LINE
  5
1F58
330
1A
100
AcDbEntity
  8
部品1
100
AcDbLine
 10
1966.584791275922
 20
10687.20309759781
 30
0.0
 11
1966.584791275922
 21
10582.70309759781
 31
0.0
  0
LINE
  5
1F59
330
1A
100
AcDbEntity
  8
部品1
100
AcDbLine
 10
1966.584791275922
 20
10687.20309759781
 30
0.0
 11
1945.584791275922
 21
10687.20309759781
 31
0.0
  0
LINE
  5
1F5A
330
1A
100
AcDbEntity
  8
部品1
100
AcDbLine
 10
5936.584791275922
 20
10582.70309759781
 30
0.0
 11
5936.58479127592
 21
8446.703097597817
 31
0.0
  0
LINE
  5
1F5B
330
1A
100
AcDbEntity
  8
部品1
100
AcDbLine
 10
5971.084791275922
 20
10582.70309759781
 30
0.0
 11
5971.084791275922
 21
8446.703097597815
 31
0.0
  0
LINE
  5
1F5C
330
1A
100
AcDbEntity
  8
部品1
100
AcDbLine
 10
6356.584791275921
 20
10582.70309759781
 30
0.0
 11
6356.584791275921
 21
8446.703097597817
 31
0.0
  0
LINE
  5
1F5D
330
1A
100
AcDbEntity
  8
部品1
100
AcDbLine
 10
6391.084791275922
 20
10582.70309759781
 30
0.0
 11
6391.084791275922
 21
8446.703097597817
 31
0.0
  0
LINE
  5
1F5E
330
1A
100
AcDbEntity
  8
部品1
100
AcDbLine
 10
6776.584791275921
 20
8446.703097597817
 30
0.0
 11
6776.584791275921
 21
10582.70309759781
 31
0.0
  0
LINE
  5
1F5F
330
1A
100
AcDbEntity
  8
部品1
100
AcDbLine
 10
6811.084791275923
 20
8446.703097597817
 30
0.0
 11
6811.084791275923
 21
10582.70309759781
 31
0.0
  0
LINE
  5
1F60
330
1A
100
AcDbEntity
  8
部品1
100
AcDbLine
 10
7356.584791275922
 20
8446.703097597817
 30
0.0
 11
7356.584791275922
 21
10582.70309759781
 31
0.0
  0
LINE
  5
1F61
330
1A
100
AcDbEntity
  8
部品1
100
AcDbLine
 10
7391.084791275922
 20
8446.703097597817
 30
0.0
 11
7391.084791275922
 21
10582.70309759781
 31
0.0
  0
LINE
  5
1F62
330
1A
100
AcDbEntity
  8
部品1
100
AcDbLine
 10
6108.084791275921
 20
10582.70309759781
 30
0.0
 11
6108.084791275921
 21
8446.703097597817
 31
0.0
  0
LINE
  5
1F63
330
1A
100
AcDbEntity
  8
部品1
100
AcDbLine
 10
6153.084791275922
 20
10582.70309759781
 30
0.0
 11
6153.084791275922
 21
8446.703097597817
 31
0.0
  0
LINE
  5
1F64
330
1A
100
AcDbEntity
  8
部品1
100
AcDbLine
 10
6181.084791275922
 20
10582.70309759781
 30
0.0
 11
6181.084791275922
 21
8446.703097597817
 31
0.0
  0
LINE
  5
1F65
330
1A
100
AcDbEntity
  8
部品1
100
AcDbLine
 10
6226.084791275922
 20
10582.70309759781
 30
0.0
 11
6226.084791275922
 21
8446.703097597817
 31
0.0
  0
LINE
  5
1F66
330
1A
100
AcDbEntity
  8
部品1
100
AcDbLine
 10
6528.084791275921
 20
10582.70309759781
 30
0.0
 11
6528.084791275921
 21
8446.703097597817
 31
0.0
  0
LINE
  5
1F67
330
1A
100
AcDbEntity
  8
部品1
100
AcDbLine
 10
6573.084791275921
 20
10582.70309759781
 30
0.0
 11
6573.084791275921
 21
8446.703097597817
 31
0.0
  0
LINE
  5
1F68
330
1A
100
AcDbEntity
  8
部品1
100
AcDbLine
 10
6601.084791275922
 20
10582.70309759781
 30
0.0
 11
6601.084791275922
 21
8446.703097597817
 31
0.0
  0
LINE
  5
1F69
330
1A
100
AcDbEntity
  8
部品1
100
AcDbLine
 10
6646.084791275922
 20
10582.70309759781
 30
0.0
 11
6646.084791275922
 21
8446.703097597817
 31
0.0
  0
LINE
  5
1F6A
330
1A
100
AcDbEntity
  8
部品1
100
AcDbLine
 10
7028.084791275921
 20
10582.70309759781
 30
0.0
 11
7028.084791275921
 21
8446.703097597817
 31
0.0
  0
LINE
  5
1F6B
330
1A
100
AcDbEntity
  8
部品1
100
AcDbLine
 10
7073.084791275921
 20
10582.70309759781
 30
0.0
 11
7073.084791275921
 21
8446.703097597817
 31
0.0
  0
LINE
  5
1F6C
330
1A
100
AcDbEntity
  8
部品1
100
AcDbLine
 10
7101.084791275922
 20
10582.70309759781
 30
0.0
 11
7101.084791275922
 21
8446.703097597817
 31
0.0
  0
LINE
  5
1F6D
330
1A
100
AcDbEntity
  8
部品1
100
AcDbLine
 10
7146.084791275922
 20
10582.70309759781
 30
0.0
 11
7146.084791275922
 21
8446.703097597817
 31
0.0
  0
LINE
  5
1F6E
330
1A
100
AcDbEntity
  8
部品1
100
AcDbLine
 10
7608.084791275922
 20
10582.70309759781
 30
0.0
 11
7608.084791275922
 21
8446.703097597817
 31
0.0
  0
LINE
  5
1F6F
330
1A
100
AcDbEntity
  8
部品1
100
AcDbLine
 10
7653.084791275921
 20
10582.70309759781
 30
0.0
 11
7653.084791275921
 21
8446.703097597817
 31
0.0
  0
LINE
  5
1F70
330
1A
100
AcDbEntity
  8
部品1
100
AcDbLine
 10
7681.084791275921
 20
10582.70309759781
 30
0.0
 11
7681.084791275921
 21
8446.703097597817
 31
0.0
  0
LINE
  5
1F71
330
1A
100
AcDbEntity
  8
部品1
100
AcDbLine
 10
7726.084791275922
 20
10582.70309759781
 30
0.0
 11
7726.084791275922
 21
8446.703097597817
 31
0.0
  0
LINE
  5
1F72
330
1A
100
AcDbEntity
  8
センター
 48
10.0
100
AcDbLine
 10
7988.08479127592
 20
10469.70309759781
 30
0.0
 11
1948.084791275922
 21
10469.70309759781
 31
0.0
  0
LINE
  5
1F73
330
1A
100
AcDbEntity
  8
センター
 48
10.0
100
AcDbLine
 10
7988.08479127592
 20
9841.103097597814
 30
0.0
 11
1948.084791275922
 21
9841.103097597816
 31
0.0
  0
LINE
  5
1F74
330
1A
100
AcDbEntity
  8
センター
 48
10.0
100
AcDbLine
 10
7988.08479127592
 20
9212.503097597814
 30
0.0
 11
1948.084791275922
 21
9212.503097597814
 31
0.0
  0
LINE
  5
1F75
330
1A
100
AcDbEntity
  8
センター
 48
10.0
100
AcDbLine
 10
7988.08479127592
 20
8583.903097597815
 30
0.0
 11
1948.084791275922
 21
8583.903097597813
 31
0.0
  0
LINE
  5
1F76
330
1A
100
AcDbEntity
  8
点線
 48
50.0
100
AcDbLine
 10
7988.08479127592
 20
10492.20309759781
 30
0.0
 11
4308.706350469209
 21
10492.20309759782
 31
0.0
  0
LINE
  5
1F77
330
1A
100
AcDbEntity
  8
点線
 48
50.0
100
AcDbLine
 10
7988.08479127592
 20
10447.20309759781
 30
0.0
 11
4322.283120012246
 21
10447.20309759781
 31
0.0
  0
LINE
  5
1F78
330
1A
100
AcDbEntity
  8
点線
 48
50.0
100
AcDbLine
 10
7988.08479127592
 20
9863.603097597817
 30
0.0
 11
4498.358735685908
 21
9863.603097597817
 31
0.0
  0
LINE
  5
1F79
330
1A
100
AcDbEntity
  8
点線
 48
50.0
100
AcDbLine
 10
7988.084791275918
 20
9818.603097597815
 30
0.0
 11
4511.935505228945
 21
9818.603097597815
 31
0.0
  0
LINE
  5
1F7A
330
1A
100
AcDbEntity
  8
点線
 48
50.0
100
AcDbLine
 10
7988.084791275922
 20
9235.003097597816
 30
0.0
 11
4688.011120902609
 21
9235.003097597816
 31
0.0
  0
LINE
  5
1F7B
330
1A
100
AcDbEntity
  8
点線
 48
50.0
100
AcDbLine
 10
7988.084791275922
 20
9190.003097597816
 30
0.0
 11
4701.587890445642
 21
9190.003097597816
 31
0.0
  0
LINE
  5
1F7C
330
1A
100
AcDbEntity
  8
点線
 48
50.0
100
AcDbLine
 10
7988.084791275922
 20
8561.403097597814
 30
0.0
 11
4891.240275662344
 21
8561.403097597811
 31
0.0
  0
LINE
  5
1F7D
330
1A
100
AcDbEntity
  8
点線
 48
50.0
100
AcDbLine
 10
7988.08479127592
 20
8606.403097597812
 30
0.0
 11
4877.663506119311
 21
8606.403097597803
 31
0.0
  0
LINE
  5
1F7E
330
1A
100
AcDbEntity
  8
点線
 48
50.0
100
AcDbLine
 10
7988.08479127592
 20
10427.20309759781
 30
0.0
 11
4328.317239809146
 21
10427.20309759781
 31
0.0
  0
LINE
  5
1F7F
330
1A
100
AcDbEntity
  8
点線
 48
50.0
100
AcDbLine
 10
7988.084791275918
 20
9798.603097597816
 30
0.0
 11
4517.969625025849
 21
9798.603097597816
 31
0.0
  0
LINE
  5
1F80
330
1A
100
AcDbEntity
  8
点線
 48
50.0
100
AcDbLine
 10
7988.084791275922
 20
9170.003097597813
 30
0.0
 11
4707.622010242547
 21
9170.003097597813
 31
0.0
  0
LINE
  5
1F81
330
1A
100
AcDbEntity
  8
点線
 48
50.0
100
AcDbLine
 10
7988.084791275922
 20
8541.403097597813
 30
0.0
 11
4897.274395459246
 21
8541.403097597813
 31
0.0
  0
LINE
  5
1F82
330
1A
100
AcDbEntity
  8
部品1
100
AcDbLine
 10
2138.084791275922
 20
10548.20309759781
 30
0.0
 11
2138.084791275922
 21
10492.20309759781
 31
0.0
  0
LINE
  5
1F83
330
1A
100
AcDbEntity
  8
部品1
100
AcDbLine
 10
2198.084791275922
 20
10548.20309759781
 30
0.0
 11
2198.084791275922
 21
10492.20309759781
 31
0.0
  0
LINE
  5
1F84
330
1A
100
AcDbEntity
  8
点線
 48
50.0
100
AcDbLine
 10
7738.084791275922
 20
8446.703097597817
 30
0.0
 11
7738.084791275922
 21
8541.403097597815
 31
0.0
  0
LINE
  5
1F85
330
1A
100
AcDbEntity
  8
点線
 48
50.0
100
AcDbLine
 10
7798.084791275922
 20
8446.703097597817
 30
0.0
 11
7798.084791275922
 21
8541.403097597815
 31
0.0
  0
LINE
  5
1F86
330
1A
100
AcDbEntity
  8
部品1
100
AcDbLine
 10
2198.084791275922
 20
10548.20309759781
 30
0.0
 11
2138.084791275922
 21
10548.20309759781
 31
0.0
  0
LINE
  5
1F87
330
1A
100
AcDbEntity
  8
点線
 48
50.0
100
AcDbLine
 10
7798.08479127592
 20
10548.20309759781
 30
0.0
 11
7738.08479127592
 21
10548.20309759781
 31
0.0
  0
LINE
  5
1F88
330
1A
100
AcDbEntity
  8
点線
 48
50.0
100
AcDbLine
 10
5044.929306889492
 20
8052.003097597818
 30
0.0
 11
7988.084791275918
 21
8052.003097597816
 31
0.0
  0
LINE
  5
1F89
330
1A
100
AcDbEntity
  8
点線
 48
50.0
100
AcDbLine
 10
5058.506076432526
 20
8007.003097597818
 30
0.0
 11
7988.084791275918
 21
8007.003097597818
 31
0.0
  0
LINE
  5
1F8A
330
1A
100
AcDbEntity
  8
点線
 48
50.0
100
AcDbLine
 10
5038.895187092588
 20
8072.003097597812
 30
0.0
 11
7988.08479127592
 21
8072.003097597812
 31
0.0
  0
LINE
  5
1F8B
330
1A
100
AcDbEntity
  8
点線
 48
50.0
100
AcDbLine
 10
5234.58169210619
 20
7423.40309759782
 30
0.0
 11
7988.08479127592
 21
7423.403097597817
 31
0.0
  0
LINE
  5
1F8C
330
1A
100
AcDbEntity
  8
点線
 48
50.0
100
AcDbLine
 10
5250.084791275918
 20
7378.403097597817
 30
0.0
 11
7988.08479127592
 21
7378.403097597817
 31
0.0
  0
LINE
  5
1F8D
330
1A
100
AcDbEntity
  8
点線
 48
50.0
100
AcDbLine
 10
5228.547572309288
 20
7443.403097597817
 30
0.0
 11
7988.084791275918
 21
7443.403097597819
 31
0.0
  0
LINE
  5
1F8E
330
1A
100
AcDbEntity
  8
点線
 48
50.0
100
AcDbLine
 10
5424.234077322889
 20
6794.803097597818
 30
0.0
 11
7988.08479127592
 21
6794.803097597818
 31
0.0
  0
LINE
  5
1F8F
330
1A
100
AcDbEntity
  8
点線
 48
50.0
100
AcDbLine
 10
5437.810846865925
 20
6749.803097597816
 30
0.0
 11
7988.084791275922
 21
6749.803097597816
 31
0.0
  0
LINE
  5
1F90
330
1A
100
AcDbEntity
  8
点線
 48
50.0
100
AcDbLine
 10
5418.199957525987
 20
6814.803097597816
 30
0.0
 11
7988.084791275918
 21
6814.803097597811
 31
0.0
  0
LINE
  5
1F91
330
1A
100
AcDbEntity
  8
点線
 48
50.0
100
AcDbLine
 10
5613.886462539589
 20
6166.203097597819
 30
0.0
 11
7988.084791275918
 21
6166.203097597816
 31
0.0
  0
LINE
  5
1F92
330
1A
100
AcDbEntity
  8
点線
 48
50.0
100
AcDbLine
 10
5627.463232082624
 20
6121.203097597819
 30
0.0
 11
7988.084791275922
 21
6121.203097597816
 31
0.0
  0
LINE
  5
1F93
330
1A
100
AcDbEntity
  8
点線
 48
50.0
100
AcDbLine
 10
5607.852342742685
 20
6186.203097597815
 30
0.0
 11
7988.084791275922
 21
6186.203097597812
 31
0.0
  0
LINE
  5
1F94
330
1A
100
AcDbEntity
  8
部品1
100
AcDbLine
 10
7973.084791275922
 20
8166.703097597816
 30
0.0
 11
1963.084791275922
 21
8166.703097597812
 31
0.0
  0
LINE
  5
1F95
330
1A
100
AcDbEntity
  8
部品1
100
AcDbLine
 10
6510.084791275921
 20
6030.703097597819
 30
0.0
 11
6510.084791275922
 21
8166.703097597816
 31
0.0
  0
LINE
  5
1F96
330
1A
100
AcDbEntity
  8
部品1
100
AcDbLine
 10
6555.084791275923
 20
6030.703097597819
 30
0.0
 11
6555.084791275922
 21
8166.703097597816
 31
0.0
  0
LINE
  5
1F97
330
1A
100
AcDbEntity
  8
部品1
100
AcDbLine
 10
6583.084791275924
 20
6030.703097597819
 30
0.0
 11
6583.084791275922
 21
8166.703097597816
 31
0.0
  0
LINE
  5
1F98
330
1A
100
AcDbEntity
  8
部品1
100
AcDbLine
 10
6628.084791275921
 20
6030.703097597819
 30
0.0
 11
6628.084791275921
 21
8166.703097597816
 31
0.0
  0
LINE
  5
1F99
330
1A
100
AcDbEntity
  8
部品1
100
AcDbLine
 10
7010.084791275922
 20
6030.703097597818
 30
0.0
 11
7010.084791275922
 21
8166.703097597816
 31
0.0
  0
LINE
  5
1F9A
330
1A
100
AcDbEntity
  8
部品1
100
AcDbLine
 10
7055.084791275922
 20
6030.703097597818
 30
0.0
 11
7055.084791275922
 21
8166.703097597816
 31
0.0
  0
LINE
  5
1F9B
330
1A
100
AcDbEntity
  8
部品1
100
AcDbLine
 10
7083.084791275922
 20
6030.703097597818
 30
0.0
 11
7083.084791275922
 21
8166.703097597816
 31
0.0
  0
LINE
  5
1F9C
330
1A
100
AcDbEntity
  8
部品1
100
AcDbLine
 10
7128.084791275921
 20
6030.703097597818
 30
0.0
 11
7128.084791275921
 21
8166.703097597816
 31
0.0
  0
LINE
  5
1F9D
330
1A
100
AcDbEntity
  8
部品1
100
AcDbLine
 10
7708.084791275922
 20
6030.703097597818
 30
0.0
 11
7708.084791275922
 21
8166.703097597816
 31
0.0
  0
LINE
  5
1F9E
330
1A
100
AcDbEntity
  8
部品1
100
AcDbLine
 10
7663.084791275922
 20
6030.703097597818
 30
0.0
 11
7663.084791275922
 21
8166.703097597816
 31
0.0
  0
LINE
  5
1F9F
330
1A
100
AcDbEntity
  8
部品1
100
AcDbLine
 10
7635.084791275922
 20
6030.703097597818
 30
0.0
 11
7635.084791275922
 21
8166.703097597816
 31
0.0
  0
LINE
  5
1FA0
330
1A
100
AcDbEntity
  8
部品1
100
AcDbLine
 10
7590.084791275922
 20
6030.703097597818
 30
0.0
 11
7590.084791275922
 21
8166.703097597816
 31
0.0
  0
LINE
  5
1FA1
330
1A
100
AcDbEntity
  8
部品1
100
AcDbLine
 10
6765.084791275921
 20
6030.703097597815
 30
0.0
 11
6765.084791275921
 21
8166.703097597816
 31
0.0
  0
LINE
  5
1FA2
330
1A
100
AcDbEntity
  8
部品1
100
AcDbLine
 10
6799.584791275922
 20
6030.703097597815
 30
0.0
 11
6799.584791275922
 21
8166.703097597816
 31
0.0
  0
LINE
  5
1FA3
330
1A
100
AcDbEntity
  8
部品1
100
AcDbLine
 10
7345.084791275922
 20
6030.703097597815
 30
0.0
 11
7345.084791275922
 21
8166.703097597816
 31
0.0
  0
LINE
  5
1FA4
330
1A
100
AcDbEntity
  8
部品1
100
AcDbLine
 10
7379.584791275921
 20
6030.703097597815
 30
0.0
 11
7379.584791275921
 21
8166.703097597816
 31
0.0
  0
LINE
  5
1FA5
330
1A
100
AcDbEntity
  8
部品1
100
AcDbLine
 10
7925.084791275923
 20
6030.703097597815
 30
0.0
 11
7925.084791275923
 21
8166.703097597816
 31
0.0
  0
LINE
  5
1FA6
330
1A
100
AcDbEntity
  8
部品1
100
AcDbLine
 10
7959.584791275922
 20
6030.703097597815
 30
0.0
 11
7959.584791275922
 21
8166.703097597816
 31
0.0
  0
LINE
  5
1FA7
330
1A
100
AcDbEntity
  8
部品1
100
AcDbLine
 10
7973.084791275922
 20
5926.203097597817
 30
0.0
 11
7973.084791275922
 21
10687.20309759781
 31
0.0
  0
LINE
  5
1FA8
330
1A
100
AcDbEntity
  8
部品1
100
AcDbLine
 10
8018.084791275922
 20
5916.703097597816
 30
0.0
 11
8018.084791275922
 21
10696.70309759781
 31
0.0
  0
LINE
  5
1FA9
330
1A
100
AcDbEntity
  8
点線
 48
50.0
100
AcDbLine
 10
7738.084791275922
 20
6065.203097597816
 30
0.0
 11
7798.084791275922
 21
6065.203097597816
 31
0.0
  0
LINE
  5
1FAA
330
1A
100
AcDbEntity
  8
部品1
100
AcDbLine
 10
7969.584791275922
 20
5926.203097597817
 30
0.0
 11
7990.584791275921
 21
5926.203097597817
 31
0.0
  0
LINE
  5
1FAB
330
1A
100
AcDbEntity
  8
部品1
100
AcDbLine
 10
7969.584791275922
 20
5926.203097597817
 30
0.0
 11
7969.584791275922
 21
6030.703097597815
 31
0.0
  0
ARC
  5
1FAC
330
1A
100
AcDbEntity
  8
部品1
100
AcDbCircle
 10
7990.584791275921
 20
5921.203097597816
 30
0.0
 40
5.0
100
AcDbArc
 50
0.0
 51
90.0
  0
LINE
  5
1FAD
330
1A
100
AcDbEntity
  8
部品1
100
AcDbLine
 10
7995.584791275923
 20
5906.703097597816
 30
0.0
 11
7995.584791275923
 21
5921.203097597816
 31
0.0
  0
LINE
  5
1FAE
330
1A
100
AcDbEntity
  8
部品1
100
AcDbLine
 10
2198.084791275922
 20
6749.803097597818
 30
0.0
 11
2198.084791275926
 21
6186.203097597815
 31
0.0
  0
LINE
  5
1FAF
330
1A
100
AcDbEntity
  8
部品1
100
AcDbLine
 10
2138.084791275922
 20
6749.803097597818
 30
0.0
 11
2138.084791275925
 21
6186.203097597815
 31
0.0
  0
LINE
  5
1FB0
330
1A
100
AcDbEntity
  8
部品1
100
AcDbLine
 10
6090.084791275913
 20
6030.703097597819
 30
0.0
 11
6090.084791275922
 21
8166.703097597816
 31
0.0
  0
LINE
  5
1FB1
330
1A
100
AcDbEntity
  8
部品1
100
AcDbLine
 10
6135.084791275918
 20
6030.703097597819
 30
0.0
 11
6135.084791275922
 21
8166.703097597816
 31
0.0
  0
LINE
  5
1FB2
330
1A
100
AcDbEntity
  8
部品1
100
AcDbLine
 10
6163.084791275919
 20
6030.703097597819
 30
0.0
 11
6163.084791275922
 21
8166.703097597816
 31
0.0
  0
LINE
  5
1FB3
330
1A
100
AcDbEntity
  8
部品1
100
AcDbLine
 10
6208.084791275917
 20
6030.703097597819
 30
0.0
 11
6208.084791275922
 21
8166.703097597816
 31
0.0
  0
LINE
  5
1FB4
330
1A
100
AcDbEntity
  8
部品1
100
AcDbLine
 10
6345.084791275923
 20
6030.703097597819
 30
0.0
 11
6345.084791275922
 21
8166.703097597816
 31
0.0
  0
LINE
  5
1FB5
330
1A
100
AcDbEntity
  8
部品1
100
AcDbLine
 10
6379.584791275926
 20
6030.703097597819
 30
0.0
 11
6379.584791275922
 21
8166.703097597816
 31
0.0
  0
LINE
  5
1FB6
330
1A
100
AcDbEntity
  8
部品1
100
AcDbLine
 10
1963.084791275922
 20
10687.20309759781
 30
0.0
 11
1963.084791275922
 21
5926.203097597817
 31
0.0
  0
LINE
  5
1FB7
330
1A
100
AcDbEntity
  8
部品1
100
AcDbLine
 10
1918.084791275922
 20
10696.70309759781
 30
0.0
 11
1918.084791275922
 21
5916.703097597816
 31
0.0
  0
LINE
  5
1FB8
330
1A
100
AcDbEntity
  8
部品1
100
AcDbLine
 10
2198.084791275922
 20
8007.003097597818
 30
0.0
 11
2198.084791275922
 21
7443.403097597817
 31
0.0
  0
LINE
  5
1FB9
330
1A
100
AcDbEntity
  8
部品1
100
AcDbLine
 10
2138.084791275922
 20
8007.003097597818
 30
0.0
 11
2138.084791275922
 21
7443.403097597817
 31
0.0
  0
LINE
  5
1FBA
330
1A
100
AcDbEntity
  8
部品1
100
AcDbLine
 10
2198.084791275922
 20
8166.703097597816
 30
0.0
 11
2198.084791275922
 21
8072.00309759782
 31
0.0
  0
LINE
  5
1FBB
330
1A
100
AcDbEntity
  8
部品1
100
AcDbLine
 10
2138.084791275922
 20
8166.703097597816
 30
0.0
 11
2138.084791275922
 21
8072.00309759782
 31
0.0
  0
LINE
  5
1FBC
330
1A
100
AcDbEntity
  8
部品1
100
AcDbLine
 10
2198.084791275922
 20
7378.403097597817
 30
0.0
 11
2198.084791275922
 21
6814.803097597816
 31
0.0
  0
LINE
  5
1FBD
330
1A
100
AcDbEntity
  8
部品1
100
AcDbLine
 10
2138.084791275922
 20
7378.403097597817
 30
0.0
 11
2138.084791275922
 21
6814.803097597816
 31
0.0
  0
LINE
  5
1FBE
330
1A
100
AcDbEntity
  8
部品1
100
AcDbLine
 10
2198.084791275928
 20
6121.203097597816
 30
0.0
 11
2198.084791275924
 21
6065.203097597816
 31
0.0
  0
LINE
  5
1FBF
330
1A
100
AcDbEntity
  8
部品1
100
AcDbLine
 10
2138.084791275927
 20
6121.203097597816
 30
0.0
 11
2138.084791275923
 21
6065.203097597816
 31
0.0
  0
LINE
  5
1FC0
330
1A
100
AcDbEntity
  8
部品1
100
AcDbLine
 10
2138.084791275923
 20
6065.203097597816
 30
0.0
 11
2198.084791275924
 21
6065.203097597816
 31
0.0
  0
ARC
  5
1FC1
330
1A
100
AcDbEntity
  8
部品1
100
AcDbCircle
 10
1928.084791275922
 20
5916.703097597816
 30
0.0
 40
10.0
100
AcDbArc
 50
180.0
 51
270.0
  0
LINE
  5
1FC2
330
1A
100
AcDbEntity
  8
部品1
100
AcDbLine
 10
1966.584791275929
 20
6030.703097597815
 30
0.0
 11
1966.584791275922
 21
5926.203097597817
 31
0.0
  0
ARC
  5
1FC3
330
1A
100
AcDbEntity
  8
部品1
100
AcDbCircle
 10
1945.584791275922
 20
5921.203097597816
 30
0.0
 40
5.0
100
AcDbArc
 50
90.0
 51
180.0
  0
LINE
  5
1FC4
330
1A
100
AcDbEntity
  8
部品1
100
AcDbLine
 10
1940.584791275922
 20
5921.203097597816
 30
0.0
 11
1940.584791275922
 21
5906.703097597816
 31
0.0
  0
LINE
  5
1FC5
330
1A
100
AcDbEntity
  8
部品1
100
AcDbLine
 10
1945.584791275922
 20
5926.203097597817
 30
0.0
 11
1966.584791275922
 21
5926.203097597817
 31
0.0
  0
LINE
  5
1FC6
330
1A
100
AcDbEntity
  8
部品1
100
AcDbLine
 10
4213.819816662891
 20
10806.70309759781
 30
0.0
 11
4380.532699096328
 21
10254.13573717195
 31
0.0
  0
LINE
  5
1FC7
330
1A
100
AcDbEntity
  8
部品1
100
AcDbLine
 10
1988.084791275922
 20
10582.70309759781
 30
0.0
 11
1988.084791275922
 21
8446.703097597817
 31
0.0
  0
LINE
  5
1FC8
330
1A
100
AcDbEntity
  8
部品1
100
AcDbLine
 10
4308.70635046921
 20
10492.20309759781
 30
0.0
 11
1988.084791275922
 21
10492.20309759781
 31
0.0
  0
LINE
  5
1FC9
330
1A
100
AcDbEntity
  8
部品1
100
AcDbLine
 10
4498.35873568591
 20
9863.603097597817
 30
0.0
 11
1988.084791275922
 21
9863.603097597815
 31
0.0
  0
LINE
  5
1FCA
330
1A
100
AcDbEntity
  8
部品1
100
AcDbLine
 10
4511.935505228943
 20
9818.603097597815
 30
0.0
 11
1988.084791275922
 21
9818.603097597815
 31
0.0
  0
LINE
  5
1FCB
330
1A
100
AcDbEntity
  8
部品1
100
AcDbLine
 10
4701.587890445642
 20
9190.003097597815
 30
0.0
 11
1988.084791275922
 21
9190.003097597816
 31
0.0
  0
LINE
  5
1FCC
330
1A
100
AcDbEntity
  8
部品1
100
AcDbLine
 10
4688.011120902609
 20
9235.003097597816
 30
0.0
 11
1988.084791275922
 21
9235.003097597811
 31
0.0
  0
LINE
  5
1FCD
330
1A
100
AcDbEntity
  8
部品1
100
AcDbLine
 10
4891.240275662344
 20
8561.403097597814
 30
0.0
 11
1988.084791275922
 21
8561.403097597818
 31
0.0
  0
LINE
  5
1FCE
330
1A
100
AcDbEntity
  8
部品1
100
AcDbLine
 10
4877.663506119307
 20
8606.403097597812
 30
0.0
 11
1988.084791275922
 21
8606.403097597818
 31
0.0
  0
LINE
  5
1FCF
330
1A
100
AcDbEntity
  8
部品1
100
AcDbLine
 10
2138.084791275922
 20
10427.20309759781
 30
0.0
 11
2138.084791275922
 21
9863.603097597815
 31
0.0
  0
LINE
  5
1FD0
330
1A
100
AcDbEntity
  8
部品1
100
AcDbLine
 10
2198.084791275922
 20
10427.20309759781
 30
0.0
 11
2198.084791275922
 21
9863.603097597815
 31
0.0
  0
LINE
  5
1FD1
330
1A
100
AcDbEntity
  8
部品1
100
AcDbLine
 10
2198.084791275922
 20
9798.603097597816
 30
0.0
 11
2198.084791275922
 21
9235.003097597816
 31
0.0
  0
LINE
  5
1FD2
330
1A
100
AcDbEntity
  8
部品1
100
AcDbLine
 10
2138.084791275922
 20
9798.603097597816
 30
0.0
 11
2138.084791275922
 21
9235.003097597816
 31
0.0
  0
LINE
  5
1FD3
330
1A
100
AcDbEntity
  8
部品1
100
AcDbLine
 10
2138.084791275922
 20
9170.003097597817
 30
0.0
 11
2138.084791275922
 21
8606.403097597812
 31
0.0
  0
LINE
  5
1FD4
330
1A
100
AcDbEntity
  8
部品1
100
AcDbLine
 10
2198.084791275922
 20
9170.003097597817
 30
0.0
 11
2198.084791275922
 21
8606.403097597812
 31
0.0
  0
LINE
  5
1FD5
330
1A
100
AcDbEntity
  8
部品1
100
AcDbLine
 10
2198.084791275922
 20
8541.403097597813
 30
0.0
 11
2198.084791275922
 21
8446.703097597817
 31
0.0
  0
LINE
  5
1FD6
330
1A
100
AcDbEntity
  8
部品1
100
AcDbLine
 10
2138.084791275922
 20
8541.403097597813
 30
0.0
 11
2138.084791275922
 21
8446.703097597817
 31
0.0
  0
LINE
  5
1FD7
330
1A
100
AcDbEntity
  8
部品1
100
AcDbLine
 10
1988.084791275922
 20
8166.703097597816
 30
0.0
 11
1988.084791275922
 21
6030.703097597815
 31
0.0
  0
LINE
  5
1FD8
330
1A
100
AcDbEntity
  8
部品1
100
AcDbLine
 10
5058.506076432526
 20
8007.003097597822
 30
0.0
 11
1988.084791275922
 21
8007.003097597815
 31
0.0
  0
LINE
  5
1FD9
330
1A
100
AcDbEntity
  8
部品1
100
AcDbLine
 10
5044.929306889493
 20
8052.003097597816
 30
0.0
 11
1988.084791275922
 21
8052.003097597818
 31
0.0
  0
LINE
  5
1FDA
330
1A
100
AcDbEntity
  8
部品1
100
AcDbLine
 10
5234.581692106193
 20
7423.403097597817
 30
0.0
 11
1988.084791275922
 21
7423.403097597819
 31
0.0
  0
LINE
  5
1FDB
330
1A
100
AcDbEntity
  8
部品1
100
AcDbLine
 10
5248.158461649228
 20
7378.403097597812
 30
0.0
 11
1988.084791275922
 21
7378.403097597821
 31
0.0
  0
LINE
  5
1FDC
330
1A
100
AcDbEntity
  8
部品1
100
AcDbLine
 10
5424.234077322889
 20
6794.803097597817
 30
0.0
 11
1988.084791275922
 21
6794.803097597817
 31
0.0
  0
LINE
  5
1FDD
330
1A
100
AcDbEntity
  8
部品1
100
AcDbLine
 10
5613.886462539591
 20
6166.203097597816
 30
0.0
 11
1988.084791275922
 21
6166.203097597816
 31
0.0
  0
LINE
  5
1FDE
330
1A
100
AcDbEntity
  8
部品1
100
AcDbLine
 10
5627.463232082625
 20
6121.203097597814
 30
0.0
 11
1988.084791275922
 21
6121.203097597816
 31
0.0
  0
LINE
  5
1FDF
330
1A
100
AcDbEntity
  8
点線
 48
50.0
100
AcDbLine
 10
7798.084791275922
 20
6065.203097597816
 30
0.0
 11
7798.084791275922
 21
6121.203097597818
 31
0.0
  0
LINE
  5
1FE0
330
1A
100
AcDbEntity
  8
点線
 48
50.0
100
AcDbLine
 10
7738.084791275922
 20
6065.203097597816
 30
0.0
 11
7738.084791275922
 21
6121.203097597818
 31
0.0
  0
ARC
  5
1FE1
330
1A
100
AcDbEntity
  8
部品1
100
AcDbCircle
 10
8008.084791275923
 20
5916.703097597816
 30
0.0
 40
10.0
100
AcDbArc
 50
270.0
 51
0.0
  0
ARC
  5
1FE2
330
1A
100
AcDbEntity
  8
部品1
100
AcDbCircle
 10
1928.084791275922
 20
10696.70309759781
 30
0.0
 40
10.0
100
AcDbArc
 50
90.0
 51
180.0
  0
LINE
  5
1FE3
330
1A
100
AcDbEntity
  8
センター
 48
10.0
100
AcDbLine
 10
2168.084791275922
 20
4262.216331315402
 30
0.0
 11
2168.084791275922
 21
1981.589597719343
 31
0.0
  0
LINE
  5
1FE4
330
1A
100
AcDbEntity
  8
センター
 48
10.0
100
AcDbLine
 10
7768.084791275922
 20
4262.216331315402
 30
0.0
 11
7768.084791275922
 21
1981.589597719343
 31
0.0
  0
LINE
  5
1FE5
330
1A
100
AcDbEntity
  8
部品1
100
AcDbLine
 10
2138.084791275922
 20
4067.512771956428
 30
0.0
 11
2138.084791275922
 21
2294.900949614032
 31
0.0
  0
LINE
  5
1FE6
330
1A
100
AcDbEntity
  8
部品1
100
AcDbLine
 10
2198.084791275922
 20
4067.512771956428
 30
0.0
 11
2198.084791275922
 21
2294.900949614032
 31
0.0
  0
LINE
  5
1FE7
330
1A
100
AcDbEntity
  8
部品1
100
AcDbLine
 10
7738.084791275922
 20
4067.512771956426
 30
0.0
 11
7738.084791275922
 21
2294.900949614032
 31
0.0
  0
LINE
  5
1FE8
330
1A
100
AcDbEntity
  8
部品1
100
AcDbLine
 10
7798.084791275922
 20
4067.512771956426
 30
0.0
 11
7798.084791275922
 21
2294.900949614032
 31
0.0
  0
LINE
  5
1FE9
330
1A
100
AcDbEntity
  8
部品1
100
AcDbLine
 10
8004.505670399508
 20
4554.900949614031
 30
0.0
 11
1931.663912152335
 21
4554.900949614028
 31
0.0
  0
LINE
  5
1FEA
330
1A
100
AcDbEntity
  8
部品1
100
AcDbLine
 10
8004.505670399508
 20
4441.900949614032
 30
0.0
 11
1931.663912152335
 21
4441.900949614032
 31
0.0
  0
LINE
  5
1FEB
330
1A
100
AcDbEntity
  8
部品1
100
AcDbLine
 10
7738.084791275922
 20
3394.900949614033
 30
0.0
 11
4998.084791275921
 21
3394.900949614033
 31
0.0
  0
LINE
  5
1FEC
330
1A
100
AcDbEntity
  8
部品1
100
AcDbLine
 10
7738.084791275922
 20
2494.900949614033
 30
0.0
 11
4998.084791275921
 21
2494.900949614033
 31
0.0
  0
LINE
  5
1FED
330
1A
100
AcDbEntity
  8
部品1
100
AcDbLine
 10
8000.639213867922
 20
4327.216331315401
 30
0.0
 11
1935.530368683922
 21
4327.216331315401
 31
0.0
  0
LINE
  5
1FEE
330
1A
100
AcDbEntity
  8
細線
100
AcDbLine
 10
8014.736965188966
 20
4365.112118231471
 30
0.0
 11
1921.432617362878
 21
4365.112118231471
 31
0.0
  0
LINE
  5
1FEF
330
1A
100
AcDbEntity
  8
細線
100
AcDbLine
 10
8015.2587043194
 20
4377.079208836543
 30
0.0
 11
1920.910878232444
 21
4377.079208836543
 31
0.0
  0
LINE
  5
1FF0
330
1A
100
AcDbEntity
  8
部品1
100
AcDbLine
 10
1963.084791275922
 20
4554.900949614031
 30
0.0
 11
1963.084791275922
 21
4441.900949614032
 31
0.0
  0
LINE
  5
1FF1
330
1A
100
AcDbEntity
  8
部品1
100
AcDbLine
 10
1918.676249574806
 20
4428.334715764618
 30
0.0
 11
1922.542706106391
 21
4339.650097465988
 31
0.0
  0
LINE
  5
1FF2
330
1A
100
AcDbEntity
  8
部品1
100
AcDbLine
 10
1941.084791275922
 20
4441.900949614032
 30
0.0
 11
1941.084791275922
 21
4327.216331315401
 31
0.0
  0
ARC
  5
1FF3
330
1A
100
AcDbEntity
  8
部品1
100
AcDbCircle
 10
1931.663912152335
 20
4428.900949614031
 30
0.0
 40
13.0
100
AcDbArc
 50
90.0
 51
182.496390521538
  0
ARC
  5
1FF4
330
1A
100
AcDbEntity
  8
部品1
100
AcDbCircle
 10
1935.530368683922
 20
4340.216331315401
 30
0.0
 40
13.0
100
AcDbArc
 50
182.496390521538
 51
270.0
  0
LINE
  5
1FF5
330
1A
100
AcDbEntity
  8
部品1
100
AcDbLine
 10
1918.663912152335
 20
4428.900949614031
 30
0.0
 11
1918.663912152335
 21
4541.900949614031
 31
0.0
  0
ARC
  5
1FF6
330
1A
100
AcDbEntity
  8
部品1
100
AcDbCircle
 10
1931.663912152335
 20
4541.900949614031
 30
0.0
 40
13.0
100
AcDbArc
 50
90.0
 51
180.0
  0
LINE
  5
1FF7
330
1A
100
AcDbEntity
  8
部品1
100
AcDbLine
 10
8017.493332977037
 20
4428.334715764618
 30
0.0
 11
8013.626876445453
 21
4339.650097465988
 31
0.0
  0
LINE
  5
1FF8
330
1A
100
AcDbEntity
  8
部品1
100
AcDbLine
 10
7995.084791275921
 20
4441.900949614032
 30
0.0
 11
7995.084791275921
 21
4327.216331315401
 31
0.0
  0
ARC
  5
1FF9
330
1A
100
AcDbEntity
  8
部品1
100
AcDbCircle
 10
8000.639213867922
 20
4340.216331315401
 30
0.0
 40
13.0
100
AcDbArc
 50
270.0
 51
357.503609478462
  0
ARC
  5
1FFA
330
1A
100
AcDbEntity
  8
部品1
100
AcDbCircle
 10
8004.505670399508
 20
4541.900949614031
 30
0.0
 40
13.0
100
AcDbArc
 50
0.0
 51
90.0
  0
LINE
  5
1FFB
330
1A
100
AcDbEntity
  8
部品1
100
AcDbLine
 10
8017.505670399508
 20
4428.900949614031
 30
0.0
 11
8017.505670399508
 21
4541.900949614031
 31
0.0
  0
ARC
  5
1FFC
330
1A
100
AcDbEntity
  8
部品1
100
AcDbCircle
 10
8004.505670399508
 20
4428.900949614031
 30
0.0
 40
13.0
100
AcDbArc
 50
357.503609478462
 51
90.0
  0
LINE
  5
1FFD
330
1A
100
AcDbEntity
  8
部品1
100
AcDbLine
 10
7973.084791275922
 20
4554.900949614031
 30
0.0
 11
7973.084791275922
 21
4441.900949614032
 31
0.0
  0
LINE
  5
1FFE
330
1A
100
AcDbEntity
  8
部品1
100
AcDbLine
 10
7796.084791275922
 20
4199.594659458649
 30
0.0
 11
7740.084791275922
 21
4199.594659458647
 31
0.0
  0
LINE
  5
1FFF
330
1A
100
AcDbEntity
  8
部品1
100
AcDbLine
 10
7735.084791275922
 20
4327.216331315401
 30
0.0
 11
7735.084791275922
 21
4067.512771956428
 31
0.0
  0
LINE
  5
2000
330
1A
100
AcDbEntity
  8
部品1
100
AcDbLine
 10
7801.084791275923
 20
4327.216331315401
 30
0.0
 11
7801.084791275922
 21
4067.512771956428
 31
0.0
  0
LINE
  5
2001
330
1A
100
AcDbEntity
  8
部品1
100
AcDbLine
 10
7801.084791275923
 20
4067.512771956428
 30
0.0
 11
7735.084791275922
 21
4067.512771956428
 31
0.0
  0
LINE
  5
2002
330
1A
100
AcDbEntity
  8
部品1
100
AcDbLine
 10
2135.084791275922
 20
4327.216331315401
 30
0.0
 11
2135.084791275922
 21
4213.176083237956
 31
0.0
  0
LINE
  5
2003
330
1A
100
AcDbEntity
  8
部品1
100
AcDbLine
 10
2201.084791275922
 20
4327.216331315401
 30
0.0
 11
2201.084791275922
 21
4067.512771956428
 31
0.0
  0
LINE
  5
2004
330
1A
100
AcDbEntity
  8
部品1
100
AcDbLine
 10
2196.084791275922
 20
4199.594659458649
 30
0.0
 11
2140.084791275922
 21
4199.594659458647
 31
0.0
  0
LINE
  5
2005
330
1A
100
AcDbEntity
  8
部品1
100
AcDbLine
 10
2201.084791275922
 20
4067.512771956428
 30
0.0
 11
2135.084791275922
 21
4067.512771956428
 31
0.0
  0
LINE
  5
2006
330
1A
100
AcDbEntity
  8
部品1
100
AcDbLine
 10
2135.084791275922
 20
4213.176083237956
 30
0.0
 11
2135.084791275922
 21
4067.512771956428
 31
0.0
  0
ARC
  5
2007
330
1A
100
AcDbEntity
  8
部品1
100
AcDbCircle
 10
2140.084791275922
 20
4204.594659458647
 30
0.0
 40
5.0
100
AcDbArc
 50
180.0
 51
270.0
  0
ARC
  5
2008
330
1A
100
AcDbEntity
  8
部品1
100
AcDbCircle
 10
2196.084791275922
 20
4204.594659458649
 30
0.0
 40
5.0
100
AcDbArc
 50
270.0
 51
0.0
  0
ARC
  5
2009
330
1A
100
AcDbEntity
  8
部品1
100
AcDbCircle
 10
7740.084791275922
 20
4204.594659458647
 30
0.0
 40
5.0
100
AcDbArc
 50
180.0
 51
270.0
  0
ARC
  5
200A
330
1A
100
AcDbEntity
  8
部品1
100
AcDbCircle
 10
7796.084791275922
 20
4204.594659458649
 30
0.0
 40
5.0
100
AcDbArc
 50
270.0
 51
0.0
  0
LINE
  5
200B
330
1A
100
AcDbEntity
  8
細線
100
AcDbLine
 10
2150.084791275922
 20
4199.594659458646
 30
0.0
 11
2150.084791275922
 21
4067.512771956428
 31
0.0
  0
LINE
  5
200C
330
1A
100
AcDbEntity
  8
細線
100
AcDbLine
 10
2186.084791275922
 20
4199.594659458647
 30
0.0
 11
2186.084791275922
 21
4067.512771956428
 31
0.0
  0
LINE
  5
200D
330
1A
100
AcDbEntity
  8
細線
100
AcDbLine
 10
2156.084791275922
 20
4199.594659458647
 30
0.0
 11
2156.084791275922
 21
4067.512771956428
 31
0.0
  0
LINE
  5
200E
330
1A
100
AcDbEntity
  8
細線
100
AcDbLine
 10
2180.084791275922
 20
4199.594659458647
 30
0.0
 11
2180.084791275922
 21
4067.512771956428
 31
0.0
  0
LINE
  5
200F
330
1A
100
AcDbEntity
  8
細線
100
AcDbLine
 10
7750.084791275923
 20
4199.594659458647
 30
0.0
 11
7750.084791275923
 21
4067.512771956428
 31
0.0
  0
LINE
  5
2010
330
1A
100
AcDbEntity
  8
細線
100
AcDbLine
 10
7786.084791275924
 20
4199.594659458649
 30
0.0
 11
7786.084791275922
 21
4067.512771956428
 31
0.0
  0
LINE
  5
2011
330
1A
100
AcDbEntity
  8
細線
100
AcDbLine
 10
7756.084791275921
 20
4199.594659458647
 30
0.0
 11
7756.084791275921
 21
4067.512771956428
 31
0.0
  0
LINE
  5
2012
330
1A
100
AcDbEntity
  8
細線
100
AcDbLine
 10
7780.084791275924
 20
4199.594659458649
 30
0.0
 11
7780.084791275922
 21
4067.512771956428
 31
0.0
  0
LINE
  5
2013
330
1A
100
AcDbEntity
  8
部品1
100
AcDbLine
 10
7738.084791275922
 20
3349.900949614033
 30
0.0
 11
4998.084791275921
 21
3349.900949614033
 31
0.0
  0
LINE
  5
2014
330
1A
100
AcDbEntity
  8
部品1
100
AcDbLine
 10
7738.084791275922
 20
2539.900949614033
 30
0.0
 11
4998.084791275921
 21
2539.900949614033
 31
0.0
  0
LINE
  5
2015
330
1A
100
AcDbEntity
  8
部品1
100
AcDbLine
 10
7738.084791275922
 20
2944.900949614034
 30
0.0
 11
4998.084791275921
 21
2944.900949614034
 31
0.0
  0
LINE
  5
2016
330
1A
100
AcDbEntity
  8
部品1
100
AcDbLine
 10
7738.084791275922
 20
2974.900949614033
 30
0.0
 11
4998.084791275921
 21
2974.900949614033
 31
0.0
  0
LINE
  5
2017
330
1A
100
AcDbEntity
  8
部品1
100
AcDbLine
 10
7738.084791275922
 20
2604.900949614034
 30
0.0
 11
4998.084791275921
 21
2604.900949614034
 31
0.0
  0
LINE
  5
2018
330
1A
100
AcDbEntity
  8
部品1
100
AcDbLine
 10
7738.084791275922
 20
2644.900949614033
 30
0.0
 11
4998.084791275921
 21
2644.900949614033
 31
0.0
  0
LINE
  5
2019
330
1A
100
AcDbEntity
  8
部品1
100
AcDbLine
 10
6350.584791275922
 20
2604.900949614034
 30
0.0
 11
6350.584791275922
 21
2539.900949614033
 31
0.0
  0
LINE
  5
201A
330
1A
100
AcDbEntity
  8
部品1
100
AcDbLine
 10
6385.584791275921
 20
2604.900949614034
 30
0.0
 11
6385.584791275921
 21
2539.900949614033
 31
0.0
  0
LINE
  5
201B
330
1A
100
AcDbEntity
  8
部品1
100
AcDbLine
 10
1918.084791275922
 20
2294.900949614032
 30
0.0
 11
1918.084791275922
 21
2244.900949614032
 31
0.0
  0
LINE
  5
201C
330
1A
100
AcDbEntity
  8
部品1
100
AcDbLine
 10
8018.084791275922
 20
2294.900949614032
 30
0.0
 11
8018.084791275922
 21
2244.900949614032
 31
0.0
  0
LINE
  5
201D
330
1A
100
AcDbEntity
  8
点線
 48
50.0
100
AcDbLine
 10
2138.084791275922
 20
2294.900949614032
 30
0.0
 11
2138.084791275922
 21
1974.900949614031
 31
0.0
  0
LINE
  5
201E
330
1A
100
AcDbEntity
  8
点線
 48
50.0
100
AcDbLine
 10
2198.084791275922
 20
2294.900949614032
 30
0.0
 11
2198.084791275922
 21
1974.900949614031
 31
0.0
  0
LINE
  5
201F
330
1A
100
AcDbEntity
  8
点線
 48
50.0
100
AcDbLine
 10
7738.084791275922
 20
2294.900949614032
 30
0.0
 11
7738.084791275922
 21
1974.900949614031
 31
0.0
  0
LINE
  5
2020
330
1A
100
AcDbEntity
  8
点線
 48
50.0
100
AcDbLine
 10
7798.084791275922
 20
2294.900949614032
 30
0.0
 11
7798.084791275922
 21
1974.900949614031
 31
0.0
  0
DIMENSION
  5
2021
330
1A
100
AcDbEntity
  8
寸法
100
AcDbDimension
  2
*D1
 10
1344.415140076316
 20
10469.70309759781
 30
0.0
 11
1184.403329052693
 21
10588.20309759781
 31
0.0
 70
    32
 71
     5
 42
237.0
  3
物置仕様図40
100
AcDbAlignedDimension
 13
1928.084791275922
 23
10706.70309759781
 33
0.0
 14
1918.084791275922
 24
10469.70309759781
 34
0.0
 50
90.0
100
AcDbRotatedDimension
  0
DIMENSION
  5
2022
330
1A
100
AcDbEntity
  8
寸法
100
AcDbDimension
  2
*D2
 10
1344.415140076316
 20
9841.103097597816
 30
0.0
 11
1244.403329052693
 21
10155.40309759781
 31
0.0
 70
    32
 71
     5
 42
628.6000000000004
  3
物置仕様図40
100
AcDbAlignedDimension
 13
1918.084791275922
 23
10469.70309759781
 33
0.0
 14
1918.084791275922
 24
9841.103097597816
 34
0.0
 50
90.0
100
AcDbRotatedDimension
1001
ACAD
1000
DSTYLE
1002
{
1070
    75
1070
     1
1002
}
  0
DIMENSION
  5
2023
330
1A
100
AcDbEntity
  8
寸法
100
AcDbDimension
  2
*D3
 10
1344.415140076316
 20
9212.503097597814
 30
0.0
 11
1244.403329052693
 21
9526.803097597815
 31
0.0
 70
    32
 71
     5
 42
628.6000000000021
  3
物置仕様図40
100
AcDbAlignedDimension
 13
1918.084791275922
 23
9841.103097597816
 33
0.0
 14
1918.084791275922
 24
9212.503097597814
 34
0.0
 50
90.0
100
AcDbRotatedDimension
1001
ACAD
1000
DSTYLE
1002
{
1070
    75
1070
     1
1002
}
  0
DIMENSION
  5
2024
330
1A
100
AcDbEntity
  8
寸法
100
AcDbDimension
  2
*D4
 10
1344.415140076316
 20
8583.903097597811
 30
0.0
 11
1184.415140076316
 21
8992.68361794361
 31
0.0
 70
   160
 71
     5
 42
628.6000000000021
  3
物置仕様図40
100
AcDbAlignedDimension
 13
1918.084791275922
 23
9212.503097597814
 33
0.0
 14
1918.084791275922
 24
8583.903097597811
 34
0.0
 50
90.0
100
AcDbRotatedDimension
1001
ACAD
1000
DSTYLE
1002
{
1070
    75
1070
     1
1002
}
  0
DIMENSION
  5
2025
330
1A
100
AcDbEntity
  8
寸法
100
AcDbDimension
  2
*D5
 10
1344.415140076316
 20
8306.703097597816
 30
0.0
 11
1184.403329052695
 21
8543.235149128589
 31
0.0
 70
   160
 71
     5
 42
277.1999999999953
  3
物置仕様図40
100
AcDbAlignedDimension
 13
1918.084791275922
 23
8583.903097597811
 33
0.0
 14
1918.084791275922
 24
8306.703097597816
 34
0.0
 50
90.0
100
AcDbRotatedDimension
1001
ACAD
1000
DSTYLE
1002
{
1070
    75
1070
     1
1002
}
  0
DIMENSION
  5
2026
330
1A
100
AcDbEntity
  8
寸法
100
AcDbDimension
  2
*D6
 10
1344.415140076316
 20
7400.903097597816
 30
0.0
 11
1184.415140076316
 21
7626.534124342295
 31
0.0
 70
   160
 71
     5
 42
628.6000000000021
  3
物置仕様図40
100
AcDbAlignedDimension
 13
1918.084791275922
 23
8029.503097597819
 33
0.0
 14
1918.084791275922
 24
7400.903097597816
 34
0.0
 50
90.0
100
AcDbRotatedDimension
1001
ACAD
1000
DSTYLE
1002
{
1070
    75
1070
     1
1002
}
  0
DIMENSION
  5
2027
330
1A
100
AcDbEntity
  8
寸法
100
AcDbDimension
  2
*D7
 10
1344.415140076316
 20
6772.303097597816
 30
0.0
 11
1244.403329052693
 21
7086.603097597816
 31
0.0
 70
    32
 71
     5
 42
628.6000000000004
  3
物置仕様図40
100
AcDbAlignedDimension
 13
1918.084791275922
 23
7400.903097597816
 33
0.0
 14
1918.084791275922
 24
6772.303097597816
 34
0.0
 50
90.0
100
AcDbRotatedDimension
1001
ACAD
1000
DSTYLE
1002
{
1070
    75
1070
     1
1002
}
  0
DIMENSION
  5
2028
330
1A
100
AcDbEntity
  8
寸法
100
AcDbDimension
  2
*D8
 10
1344.415140076316
 20
6143.703097597816
 30
0.0
 11
1244.403329052693
 21
6458.003097597816
 31
0.0
 70
    32
 71
     5
 42
628.6000000000004
  3
物置仕様図40
100
AcDbAlignedDimension
 13
1918.084791275922
 23
6772.303097597816
 33
0.0
 14
1918.084791275922
 24
6143.703097597816
 34
0.0
 50
90.0
100
AcDbRotatedDimension
1001
ACAD
1000
DSTYLE
1002
{
1070
    75
1070
     1
1002
}
  0
DIMENSION
  5
2029
330
1A
100
AcDbEntity
  8
寸法
100
AcDbDimension
  2
*D9
 10
1344.415140076316
 20
5906.703097597816
 30
0.0
 11
1184.403329052693
 21
6025.203097597816
 31
0.0
 70
    32
 71
     5
 42
237.0
  3
物置仕様図40
100
AcDbAlignedDimension
 13
1918.084791275922
 23
6143.703097597816
 33
0.0
 14
1928.084791275922
 24
5906.703097597816
 34
0.0
 50
90.0
100
AcDbRotatedDimension
1001
ACAD
1000
DSTYLE
1002
{
1070
    75
1070
     1
1002
}
  0
DIMENSION
  5
202A
330
1A
100
AcDbEntity
  8
寸法
100
AcDbDimension
  2
*D10
 10
1064.415140076317
 20
5906.703097597816
 30
0.0
 11
964.4151400763158
 21
8306.703097597816
 31
0.0
 70
    32
 71
     5
 42
4800.0
  3
物置仕様図40
100
AcDbAlignedDimension
 13
1928.084791275922
 23
10706.70309759781
 33
0.0
 14
1928.084791275922
 24
5906.703097597816
 34
0.0
 50
90.0
100
AcDbRotatedDimension
  0
DIMENSION
  5
202B
330
1A
100
AcDbEntity
  8
寸法
100
AcDbDimension
  2
*D11
 10
8633.537714463043
 20
8446.703097597817
 30
0.0
 11
8533.525903439418
 21
9514.70309759782
 31
0.0
 70
    32
 71
     5
 42
2136.000000000002
  3
物置仕様図40
100
AcDbAlignedDimension
 13
7969.584791275915
 23
10582.70309759782
 33
0.0
 14
7973.084791275922
 24
8446.703097597817
 34
0.0
 50
90.0
100
AcDbRotatedDimension
  0
DIMENSION
  5
202C
330
1A
100
AcDbEntity
  8
寸法
100
AcDbDimension
  2
*D12
 10
8633.537714463043
 20
8166.703097597816
 30
0.0
 11
8532.11973914707
 21
8306.703097597816
 31
0.0
 70
   160
 71
     5
 42
280.0
  3
物置仕様図40
100
AcDbAlignedDimension
 13
7973.084791275922
 23
8446.703097597817
 33
0.0
 14
7973.084791275922
 24
8166.703097597816
 34
0.0
 50
90.0
100
AcDbRotatedDimension
1001
ACAD
1000
DSTYLE
1002
{
1070
    75
1070
     1
1002
}
  0
DIMENSION
  5
202D
330
1A
100
AcDbEntity
  8
寸法
100
AcDbDimension
  2
*D13
 10
8633.537714463043
 20
6030.703097597819
 30
0.0
 11
8533.525903439418
 21
7098.703097597819
 31
0.0
 70
    32
 71
     5
 42
2135.999999999997
  3
物置仕様図40
100
AcDbAlignedDimension
 13
7973.084791275922
 23
8166.703097597816
 33
0.0
 14
7969.584791275922
 24
6030.703097597819
 34
0.0
 50
90.0
100
AcDbRotatedDimension
1001
ACAD
1000
DSTYLE
1002
{
1070
    75
1070
     1
1002
}
  0
DIMENSION
  5
202E
330
1A
100
AcDbEntity
  8
寸法
100
AcDbDimension
  2
*D14
 10
8633.537714463043
 20
5906.703097597816
 30
0.0
 11
8523.207916493696
 21
5771.652535875007
 31
0.0
 70
   160
 71
     5
 42
124.0000000000036
  3
物置仕様図40
100
AcDbAlignedDimension
 13
7969.584791275922
 23
6030.703097597819
 33
0.0
 14
8008.084791275923
 24
5906.703097597816
 34
0.0
 50
90.0
100
AcDbRotatedDimension
1001
ACAD
1000
DSTYLE
1002
{
1070
    75
1070
     1
1002
}
  0
DIMENSION
  5
202F
330
1A
100
AcDbEntity
  8
寸法
100
AcDbDimension
  2
*D15
 10
8633.537714463043
 20
10706.70309759781
 30
0.0
 11
8526.12031655307
 21
10843.7018745455
 31
0.0
 70
   160
 71
     5
 42
123.9999999999982
  3
物置仕様図40
100
AcDbAlignedDimension
 13
7969.584791275915
 23
10582.70309759782
 33
0.0
 14
8008.084791275923
 24
10706.70309759781
 34
0.0
 50
90.0
100
AcDbRotatedDimension
1001
ACAD
1000
DSTYLE
1002
{
1070
    75
1070
     1
1002
}
  0
DIMENSION
  5
2030
330
1A
100
AcDbEntity
  8
寸法
100
AcDbDimension
  2
*D16
 10
1344.415140076316
 20
8029.503097597819
 30
0.0
 11
1184.403329052695
 21
8082.731066668163
 31
0.0
 70
   160
 71
     5
 42
277.1999999999971
  3
物置仕様図40
100
AcDbAlignedDimension
 13
1918.084791275922
 23
8306.703097597816
 33
0.0
 14
1918.084791275922
 24
8029.503097597819
 34
0.0
 50
90.0
100
AcDbRotatedDimension
1001
ACAD
1000
DSTYLE
1002
{
1070
    75
1070
     1
1002
}
  0
DIMENSION
  5
2031
330
1A
100
AcDbEntity
  8
寸法
100
AcDbDimension
  2
*D17
 10
2168.084791275922
 20
4785.459815648813
 30
0.0
 11
2043.084791275922
 21
4785.459815648813
 31
0.0
 70
   160
 71
     5
 42
250.0
  3
物置仕様図40
100
AcDbAlignedDimension
 13
1918.084791275922
 23
4554.900949614031
 33
0.0
 14
2168.084791275922
 24
4262.216331315402
 34
0.0
100
AcDbRotatedDimension
1001
ACAD
1000
DSTYLE
1002
{
1070
   279
1070
     0
1002
}
  0
DIMENSION
  5
2032
330
1A
100
AcDbEntity
  8
寸法
100
AcDbDimension
  2
*D18
 10
7768.084791275922
 20
4785.459815648813
 30
0.0
 11
4968.084791275922
 21
4885.471626672435
 31
0.0
 70
    32
  1
N X 2800
 71
     5
 42
5600.0
  3
物置仕様図40
100
AcDbAlignedDimension
 13
2168.084791275922
 23
4262.216331315402
 33
0.0
 14
7768.084791275922
 24
4262.216331315402
 34
0.0
100
AcDbRotatedDimension
1001
ACAD
1000
DSTYLE
1002
{
1070
    75
1070
     1
1002
}
  0
DIMENSION
  5
2033
330
1A
100
AcDbEntity
  8
寸法
100
AcDbDimension
  2
*D19
 10
8018.084791275922
 20
4785.459815648813
 30
0.0
 11
7893.084791275922
 21
4785.459815648813
 31
0.0
 70
   160
 71
     5
 42
250.0
  3
物置仕様図40
100
AcDbAlignedDimension
 13
7768.084791275922
 23
4262.216331315402
 33
0.0
 14
8018.084791275922
 24
4554.900949614031
 34
0.0
100
AcDbRotatedDimension
1001
ACAD
1000
DSTYLE
1002
{
1070
   279
1070
     0
1070
    75
1070
     1
1002
}
  0
DIMENSION
  5
2034
330
1A
100
AcDbEntity
  8
寸法
100
AcDbDimension
  2
*D20
 10
8018.084791275922
 20
5065.459815648813
 30
0.0
 11
4968.084791275922
 21
5165.471626672435
 31
0.0
 70
    32
  1
N X 2800 + 500
 71
     5
 42
6100.0
  3
物置仕様図40
100
AcDbAlignedDimension
 13
1918.084791275922
 23
4554.900949614031
 33
0.0
 14
8018.084791275922
 24
4554.900949614031
 34
0.0
100
AcDbRotatedDimension
  0
DIMENSION
  5
2035
330
1A
100
AcDbEntity
  8
寸法
100
AcDbDimension
  2
*D21
 10
8264.602443373153
 20
2244.900949614032
 30
0.0
 11
7984.567010302287
 21
2109.900949614033
 31
0.0
 70
    32
 71
     5
 42
270.0
  3
物置仕様図40
100
AcDbAlignedDimension
 13
7798.084791275922
 23
1974.900949614031
 33
0.0
 14
8478.266128291226
 24
2244.900949614032
 34
0.0
 50
90.0
100
AcDbRotatedDimension
  0
LINE
  5
2036
330
1A
100
AcDbEntity
  8
部品1
100
AcDbLine
 10
4938.084791275922
 20
4067.512771956428
 30
0.0
 11
4938.084791275922
 21
2294.900949614032
 31
0.0
  0
LINE
  5
2037
330
1A
100
AcDbEntity
  8
部品1
100
AcDbLine
 10
4998.084791275921
 20
4067.512771956428
 30
0.0
 11
4998.084791275921
 21
2294.900949614032
 31
0.0
  0
LINE
  5
2038
330
1A
100
AcDbEntity
  8
センター
 48
10.0
100
AcDbLine
 10
4968.084791275922
 20
4262.216331315402
 30
0.0
 11
4968.084791275922
 21
1981.589597719343
 31
0.0
  0
LINE
  5
2039
330
1A
100
AcDbEntity
  8
点線
 48
50.0
100
AcDbLine
 10
4938.084791275922
 20
2294.900949614032
 30
0.0
 11
4938.084791275922
 21
1974.900949614031
 31
0.0
  0
LINE
  5
203A
330
1A
100
AcDbEntity
  8
点線
 48
50.0
100
AcDbLine
 10
4998.084791275921
 20
2294.900949614032
 30
0.0
 11
4998.084791275921
 21
1974.900949614031
 31
0.0
  0
LINE
  5
203B
330
1A
100
AcDbEntity
  8
部品1
100
AcDbLine
 10
5001.084791275921
 20
4327.216331315401
 30
0.0
 11
5001.084791275921
 21
4067.512771956428
 31
0.0
  0
LINE
  5
203C
330
1A
100
AcDbEntity
  8
部品1
100
AcDbLine
 10
4935.084791275926
 20
4327.216331315401
 30
0.0
 11
4935.084791275922
 21
4213.176083237956
 31
0.0
  0
LINE
  5
203D
330
1A
100
AcDbEntity
  8
部品1
100
AcDbLine
 10
4996.084791275922
 20
4199.594659458649
 30
0.0
 11
4940.084791275921
 21
4199.594659458649
 31
0.0
  0
LINE
  5
203E
330
1A
100
AcDbEntity
  8
部品1
100
AcDbLine
 10
5001.084791275921
 20
4067.512771956428
 30
0.0
 11
4935.084791275922
 21
4067.512771956428
 31
0.0
  0
LINE
  5
203F
330
1A
100
AcDbEntity
  8
細線
100
AcDbLine
 10
4950.084791275922
 20
4199.594659458647
 30
0.0
 11
4950.084791275922
 21
4067.512771956428
 31
0.0
  0
ARC
  5
2040
330
1A
100
AcDbEntity
  8
部品1
100
AcDbCircle
 10
4940.084791275921
 20
4204.594659458649
 30
0.0
 40
5.0
100
AcDbArc
 50
180.0
 51
270.0
  0
LINE
  5
2041
330
1A
100
AcDbEntity
  8
部品1
100
AcDbLine
 10
4935.084791275922
 20
4213.176083237956
 30
0.0
 11
4935.084791275922
 21
4067.512771956428
 31
0.0
  0
ARC
  5
2042
330
1A
100
AcDbEntity
  8
部品1
100
AcDbCircle
 10
4996.084791275922
 20
4204.594659458649
 30
0.0
 40
5.0
100
AcDbArc
 50
270.0
 51
0.0
  0
LINE
  5
2043
330
1A
100
AcDbEntity
  8
細線
100
AcDbLine
 10
4980.084791275921
 20
4199.594659458649
 30
0.0
 11
4980.084791275921
 21
4067.512771956428
 31
0.0
  0
LINE
  5
2044
330
1A
100
AcDbEntity
  8
細線
100
AcDbLine
 10
4956.084791275922
 20
4199.594659458649
 30
0.0
 11
4956.084791275922
 21
4067.512771956428
 31
0.0
  0
LINE
  5
2045
330
1A
100
AcDbEntity
  8
細線
100
AcDbLine
 10
4986.084791275922
 20
4199.594659458649
 30
0.0
 11
4986.084791275922
 21
4067.512771956428
 31
0.0
  0
LINE
  5
2046
330
1A
100
AcDbEntity
  8
部品1
100
AcDbLine
 10
4938.084791275922
 20
3394.900949614033
 30
0.0
 11
2198.084791275922
 21
3394.900949614032
 31
0.0
  0
LINE
  5
2047
330
1A
100
AcDbEntity
  8
部品1
100
AcDbLine
 10
4938.084791275922
 20
3349.900949614032
 30
0.0
 11
2198.084791275922
 21
3349.900949614035
 31
0.0
  0
LINE
  5
2048
330
1A
100
AcDbEntity
  8
部品1
100
AcDbLine
 10
4938.084791275922
 20
2974.900949614033
 30
0.0
 11
2198.084791275922
 21
2974.900949614033
 31
0.0
  0
LINE
  5
2049
330
1A
100
AcDbEntity
  8
部品1
100
AcDbLine
 10
4938.084791275922
 20
2944.900949614034
 30
0.0
 11
2198.084791275922
 21
2944.900949614034
 31
0.0
  0
LINE
  5
204A
330
1A
100
AcDbEntity
  8
部品1
100
AcDbLine
 10
4938.084791275922
 20
2644.900949614033
 30
0.0
 11
2198.084791275922
 21
2644.900949614033
 31
0.0
  0
LINE
  5
204B
330
1A
100
AcDbEntity
  8
部品1
100
AcDbLine
 10
4938.084791275922
 20
2604.900949614034
 30
0.0
 11
2198.084791275922
 21
2604.900949614034
 31
0.0
  0
LINE
  5
204C
330
1A
100
AcDbEntity
  8
部品1
100
AcDbLine
 10
4938.084791275922
 20
2539.900949614033
 30
0.0
 11
2198.084791275922
 21
2539.900949614033
 31
0.0
  0
LINE
  5
204D
330
1A
100
AcDbEntity
  8
部品1
100
AcDbLine
 10
4938.084791275922
 20
2494.900949614033
 30
0.0
 11
2198.084791275922
 21
2494.900949614033
 31
0.0
  0
LINE
  5
204E
330
1A
100
AcDbEntity
  8
部品1
100
AcDbLine
 10
3585.584791275922
 20
2604.900949614034
 30
0.0
 11
3585.584791275922
 21
2539.900949614033
 31
0.0
  0
LINE
  5
204F
330
1A
100
AcDbEntity
  8
部品1
100
AcDbLine
 10
3550.584791275922
 20
2604.900949614034
 30
0.0
 11
3550.584791275922
 21
2539.900949614033
 31
0.0
  0
LINE
  5
2050
330
1A
100
AcDbEntity
  8
部品1
100
AcDbLine
 10
4938.08479127592
 20
6065.203097597816
 30
0.0
 11
4998.08479127592
 21
6065.203097597816
 31
0.0
  0
LINE
  5
2051
330
1A
100
AcDbEntity
  8
部品1
100
AcDbLine
 10
4938.084791275922
 20
6121.203097597812
 30
0.0
 11
4938.08479127592
 21
6065.203097597816
 31
0.0
  0
LINE
  5
2052
330
1A
100
AcDbEntity
  8
部品1
100
AcDbLine
 10
4998.084791275921
 20
6121.203097597812
 30
0.0
 11
4998.08479127592
 21
6065.203097597816
 31
0.0
  0
LINE
  5
2053
330
1A
100
AcDbEntity
  8
部品1
100
AcDbLine
 10
4938.084791275918
 20
8007.003097597822
 30
0.0
 11
4938.084791275918
 21
7443.403097597817
 31
0.0
  0
LINE
  5
2054
330
1A
100
AcDbEntity
  8
部品1
100
AcDbLine
 10
4998.084791275918
 20
8007.003097597822
 30
0.0
 11
4998.084791275918
 21
7443.403097597817
 31
0.0
  0
LINE
  5
2055
330
1A
100
AcDbEntity
  8
部品1
100
AcDbLine
 10
4938.084791275918
 20
7378.403097597811
 30
0.0
 11
4938.084791275918
 21
6814.803097597814
 31
0.0
  0
LINE
  5
2056
330
1A
100
AcDbEntity
  8
部品1
100
AcDbLine
 10
4998.084791275918
 20
7378.403097597811
 30
0.0
 11
4998.084791275917
 21
6814.803097597814
 31
0.0
  0
LINE
  5
2057
330
1A
100
AcDbEntity
  8
部品1
100
AcDbLine
 10
4938.084791275918
 20
6749.803097597818
 30
0.0
 11
4938.08479127592
 21
6186.203097597815
 31
0.0
  0
LINE
  5
2058
330
1A
100
AcDbEntity
  8
部品1
100
AcDbLine
 10
4998.084791275917
 20
6749.803097597818
 30
0.0
 11
4998.084791275921
 21
6186.203097597815
 31
0.0
  0
LINE
  5
2059
330
1A
100
AcDbEntity
  8
部品1
100
AcDbLine
 10
4938.084791275918
 20
8166.703097597816
 30
0.0
 11
4938.084791275916
 21
8072.003097597812
 31
0.0
  0
LINE
  5
205A
330
1A
100
AcDbEntity
  8
部品1
100
AcDbLine
 10
4998.084791275918
 20
8166.703097597816
 30
0.0
 11
4998.084791275917
 21
8072.003097597812
 31
0.0
  0
LINE
  5
205B
330
1A
100
AcDbEntity
  8
部品1
100
AcDbLine
 10
4938.084791275918
 20
10582.70309759781
 30
0.0
 11
4938.084791275918
 21
8446.703097597817
 31
0.0
  0
LINE
  5
205C
330
1A
100
AcDbEntity
  8
部品1
100
AcDbLine
 10
4998.084791275918
 20
10582.70309759781
 30
0.0
 11
4998.084791275918
 21
8446.703097597817
 31
0.0
  0
LINE
  5
205D
330
1A
100
AcDbEntity
  8
部品1
100
AcDbLine
 10
4322.283120012243
 20
10447.20309759781
 30
0.0
 11
1988.084791275922
 21
10447.20309759781
 31
0.0
  0
LINE
  5
205E
330
1A
100
AcDbEntity
  8
部品1
100
AcDbLine
 10
5516.584791275922
 20
10582.70309759781
 30
0.0
 11
5516.584791275921
 21
8446.703097597817
 31
0.0
  0
LINE
  5
205F
330
1A
100
AcDbEntity
  8
部品1
100
AcDbLine
 10
5551.084791275922
 20
10582.70309759781
 30
0.0
 11
5551.084791275922
 21
8446.703097597815
 31
0.0
  0
LINE
  5
2060
330
1A
100
AcDbEntity
  8
部品1
100
AcDbLine
 10
5688.084791275922
 20
10582.70309759781
 30
0.0
 11
5688.084791275922
 21
8446.703097597817
 31
0.0
  0
LINE
  5
2061
330
1A
100
AcDbEntity
  8
部品1
100
AcDbLine
 10
5733.084791275921
 20
10582.70309759781
 30
0.0
 11
5733.084791275921
 21
8446.703097597817
 31
0.0
  0
LINE
  5
2062
330
1A
100
AcDbEntity
  8
部品1
100
AcDbLine
 10
5761.084791275922
 20
10582.70309759781
 30
0.0
 11
5761.084791275922
 21
8446.703097597817
 31
0.0
  0
LINE
  5
2063
330
1A
100
AcDbEntity
  8
部品1
100
AcDbLine
 10
5806.084791275922
 20
10582.70309759781
 30
0.0
 11
5806.084791275922
 21
8446.703097597817
 31
0.0
  0
LINE
  5
2064
330
1A
100
AcDbEntity
  8
部品1
100
AcDbLine
 10
5386.084791275922
 20
10582.70309759781
 30
0.0
 11
5386.084791275922
 21
8446.703097597817
 31
0.0
  0
LINE
  5
2065
330
1A
100
AcDbEntity
  8
部品1
100
AcDbLine
 10
5341.084791275921
 20
10582.70309759781
 30
0.0
 11
5341.084791275921
 21
8446.703097597817
 31
0.0
  0
LINE
  5
2066
330
1A
100
AcDbEntity
  8
部品1
100
AcDbLine
 10
5313.084791275922
 20
10582.70309759781
 30
0.0
 11
5313.084791275922
 21
8446.703097597817
 31
0.0
  0
LINE
  5
2067
330
1A
100
AcDbEntity
  8
部品1
100
AcDbLine
 10
5268.084791275922
 20
10582.70309759781
 30
0.0
 11
5268.084791275922
 21
8446.703097597817
 31
0.0
  0
LINE
  5
2068
330
1A
100
AcDbEntity
  8
部品1
100
AcDbLine
 10
5131.084791275922
 20
10582.70309759781
 30
0.0
 11
5131.084791275922
 21
8446.703097597815
 31
0.0
  0
LINE
  5
2069
330
1A
100
AcDbEntity
  8
部品1
100
AcDbLine
 10
5096.584791275922
 20
10582.70309759781
 30
0.0
 11
5096.58479127592
 21
8446.703097597817
 31
0.0
  0
LINE
  5
206A
330
1A
100
AcDbEntity
  8
部品1
100
AcDbLine
 10
5788.084791275917
 20
6030.703097597819
 30
0.0
 11
5788.084791275922
 21
8166.703097597816
 31
0.0
  0
LINE
  5
206B
330
1A
100
AcDbEntity
  8
部品1
100
AcDbLine
 10
5743.084791275919
 20
6030.703097597819
 30
0.0
 11
5743.084791275922
 21
8166.703097597816
 31
0.0
  0
LINE
  5
206C
330
1A
100
AcDbEntity
  8
部品1
100
AcDbLine
 10
5670.084791275913
 20
6030.703097597819
 30
0.0
 11
5670.084791275922
 21
8166.703097597816
 31
0.0
  0
LINE
  5
206D
330
1A
100
AcDbEntity
  8
部品1
100
AcDbLine
 10
5715.084791275918
 20
6030.703097597819
 30
0.0
 11
5715.084791275922
 21
8166.703097597816
 31
0.0
  0
LINE
  5
206E
330
1A
100
AcDbEntity
  8
部品1
100
AcDbLine
 10
5925.084791275924
 20
6030.703097597819
 30
0.0
 11
5925.084791275922
 21
8166.703097597816
 31
0.0
  0
LINE
  5
206F
330
1A
100
AcDbEntity
  8
部品1
100
AcDbLine
 10
5959.584791275926
 20
6030.703097597819
 30
0.0
 11
5959.584791275922
 21
8166.703097597816
 31
0.0
  0
LINE
  5
2070
330
1A
100
AcDbEntity
  8
部品1
100
AcDbLine
 10
5085.084791275922
 20
7918.908343970183
 30
0.0
 11
5085.084791275922
 21
8166.703097597816
 31
0.0
  0
LINE
  5
2071
330
1A
100
AcDbEntity
  8
部品1
100
AcDbLine
 10
5368.084791275919
 20
6980.909068101677
 30
0.0
 11
5368.084791275922
 21
8166.703097597816
 31
0.0
  0
LINE
  5
2072
330
1A
100
AcDbEntity
  8
部品1
100
AcDbLine
 10
5323.08479127592
 20
7130.060896419992
 30
0.0
 11
5323.084791275921
 21
8166.703097597816
 31
0.0
  0
LINE
  5
2073
330
1A
100
AcDbEntity
  8
部品1
100
AcDbLine
 10
5250.084791275918
 20
7372.018306803042
 30
0.0
 11
5250.084791275922
 21
8166.703097597816
 31
0.0
  0
LINE
  5
2074
330
1A
100
AcDbEntity
  8
部品1
100
AcDbLine
 10
5295.084791275922
 20
7222.866478484714
 30
0.0
 11
5295.084791275922
 21
8166.703097597816
 31
0.0
  0
LINE
  5
2075
330
1A
100
AcDbEntity
  8
部品1
100
AcDbLine
 10
5505.084791275923
 20
6526.824612999241
 30
0.0
 11
5505.084791275922
 21
8166.703097597816
 31
0.0
  0
LINE
  5
2076
330
1A
100
AcDbEntity
  8
部品1
100
AcDbLine
 10
5539.584791275926
 20
6412.474877955194
 30
0.0
 11
5539.584791275922
 21
8166.703097597816
 31
0.0
  0
LINE
  5
2077
330
1A
100
AcDbEntity
  8
部品1
100
AcDbLine
 10
5119.584791275923
 20
7804.558608926139
 30
0.0
 11
5119.584791275922
 21
8166.703097597816
 31
0.0
  0
LINE
  5
2078
330
1A
100
AcDbEntity
  8
部品1
100
AcDbLine
 10
4958.084791275922
 20
4327.216331315401
 30
0.0
 11
4958.084791275922
 21
4441.900949614032
 31
0.0
  0
LINE
  5
2079
330
1A
100
AcDbEntity
  8
部品1
100
AcDbLine
 10
4958.08479127592
 20
6030.703097597819
 30
0.0
 11
4958.08479127592
 21
5906.703097597816
 31
0.0
  0
LINE
  5
207A
330
1A
100
AcDbEntity
  8
部品1
100
AcDbLine
 10
4978.08479127592
 20
10582.70309759781
 30
0.0
 11
4978.08479127592
 21
10706.70309759781
 31
0.0
  0
LINE
  5
207B
330
1A
100
AcDbEntity
  8
部品1
100
AcDbLine
 10
4839.584791275918
 20
10582.70309759781
 30
0.0
 11
4839.584791275922
 21
8732.614429573434
 31
0.0
  0
LINE
  5
207C
330
1A
100
AcDbEntity
  8
部品1
100
AcDbLine
 10
4805.084791275918
 20
10582.70309759781
 30
0.0
 11
4805.084791275918
 21
8846.964164617485
 31
0.0
  0
LINE
  5
207D
330
1A
100
AcDbEntity
  8
部品1
100
AcDbLine
 10
4668.084791275918
 20
10582.70309759781
 30
0.0
 11
4668.084791275918
 21
9301.04861971991
 31
0.0
  0
LINE
  5
207E
330
1A
100
AcDbEntity
  8
部品1
100
AcDbLine
 10
4623.084791275918
 20
10582.70309759781
 30
0.0
 11
4623.084791275918
 21
10189.14409994995
 31
0.0
  0
LINE
  5
207F
330
1A
100
AcDbEntity
  8
部品1
100
AcDbLine
 10
4595.084791275918
 20
10582.70309759781
 30
0.0
 11
4595.084791275918
 21
10196.64667733802
 31
0.0
  0
LINE
  5
2080
330
1A
100
AcDbEntity
  8
部品1
100
AcDbLine
 10
4550.084791275918
 20
10582.70309759781
 30
0.0
 11
4550.084791275918
 21
10208.70439099742
 31
0.0
  0
LINE
  5
2081
330
1A
100
AcDbEntity
  8
部品1
100
AcDbLine
 10
4385.084791275918
 20
10582.70309759781
 30
0.0
 11
4385.084791275918
 21
10252.91600774856
 31
0.0
  0
LINE
  5
2082
330
1A
100
AcDbEntity
  8
部品1
100
AcDbLine
 10
4419.584791275918
 20
10582.70309759781
 30
0.0
 11
4419.584791275918
 21
10243.67176060968
 31
0.0
  0
LINE
  5
2083
330
1A
100
AcDbEntity
  8
部品1
100
AcDbLine
 10
4380.532699096335
 20
10254.13573717195
 30
0.0
 11
4641.532699096331
 21
10184.20099794743
 31
0.0
  0
LINE
  5
2084
330
1A
100
AcDbEntity
  8
部品1
100
AcDbLine
 10
4641.532699096331
 20
10184.20099794743
 30
0.0
 11
4197.517178893202
 21
10065.22739788211
 31
0.0
  0
LINE
  5
2085
330
1A
100
AcDbEntity
  8
部品1
100
AcDbLine
 10
4197.5171788932
 20
10065.22739788211
 30
0.0
 11
4458.636883455509
 21
9995.260583916799
 31
0.0
  0
LINE
  5
2086
330
1A
100
AcDbEntity
  8
部品1
100
AcDbLine
 10
4458.636883455507
 20
9995.260583916797
 30
0.0
 11
5722.349765888945
 21
5806.703097597816
 31
0.0
  0
LINE
  5
2087
330
1A
100
AcDbEntity
  8
部品1
100
AcDbLine
 10
4419.575837939048
 20
10124.72783624579
 30
0.0
 11
4419.584791275919
 21
10124.69816054437
 31
0.0
  0
LINE
  5
2088
330
1A
100
AcDbEntity
  8
部品1
100
AcDbLine
 10
4419.584791275918
 20
10124.73023528517
 30
0.0
 11
4419.584791275919
 21
10124.69816054438
 31
0.0
  0
LINE
  5
2089
330
1A
100
AcDbEntity
  8
部品1
100
AcDbLine
 10
4550.084791275918
 20
10159.69760489743
 30
0.0
 11
4550.084791275918
 21
9692.157858421266
 31
0.0
  0
LINE
  5
208A
330
1A
100
AcDbEntity
  8
部品1
100
AcDbLine
 10
4595.08479127592
 20
10171.75531855684
 30
0.0
 11
4595.084791275918
 21
9543.006030102951
 31
0.0
  0
LINE
  5
208B
330
1A
100
AcDbEntity
  8
部品1
100
AcDbLine
 10
4623.084791275918
 20
10179.25789594491
 30
0.0
 11
4623.084791275918
 21
9450.200448038224
 31
0.0
  0
LINE
  5
208C
330
1A
100
AcDbEntity
  8
部品1
100
AcDbLine
 10
1928.084791275922
 20
5906.703097597816
 30
0.0
 11
8008.084791275923
 21
5906.703097597816
 31
0.0
  0
LINE
  5
208D
330
1A
100
AcDbEntity
  8
部品1
100
AcDbLine
 10
1966.584791275929
 20
6030.703097597815
 30
0.0
 11
7969.584791275922
 21
6030.703097597819
 31
0.0
  0
LINE
  5
208E
330
1A
100
AcDbEntity
  8
センター
 48
10.0
100
AcDbLine
 10
1948.084791275922
 20
6143.703097597816
 30
0.0
 11
7988.08479127592
 21
6143.703097597816
 31
0.0
  0
LINE
  5
208F
330
1A
100
AcDbEntity
  8
センター
 48
10.0
100
AcDbLine
 10
1948.084791275922
 20
6772.303097597817
 30
0.0
 11
7988.08479127592
 21
6772.303097597816
 31
0.0
  0
LINE
  5
2090
330
1A
100
AcDbEntity
  8
センター
 48
10.0
100
AcDbLine
 10
1948.084791275922
 20
7400.903097597816
 30
0.0
 11
7988.08479127592
 21
7400.903097597816
 31
0.0
  0
LINE
  5
2091
330
1A
100
AcDbEntity
  8
センター
 48
10.0
100
AcDbLine
 10
1948.084791275922
 20
8029.503097597821
 30
0.0
 11
7988.08479127592
 21
8029.503097597819
 31
0.0
  0
LINE
  5
2092
330
1A
100
AcDbEntity
  8
部品1
100
AcDbLine
 10
1918.084791275922
 20
8306.703097597816
 30
0.0
 11
8018.084791275922
 21
8306.703097597816
 31
0.0
  0
LINE
  5
2093
330
1A
100
AcDbEntity
  8
部品1
100
AcDbLine
 10
1963.084791275922
 20
8446.703097597817
 30
0.0
 11
7973.084791275922
 21
8446.703097597817
 31
0.0
  0
LINE
  5
2094
330
1A
100
AcDbEntity
  8
部品1
100
AcDbLine
 10
4328.317239809146
 20
10427.20309759781
 30
0.0
 11
1988.084791275922
 21
10427.20309759781
 31
0.0
  0
LINE
  5
2095
330
1A
100
AcDbEntity
  8
部品1
100
AcDbLine
 10
4517.969625025846
 20
9798.603097597816
 30
0.0
 11
1988.084791275922
 21
9798.603097597816
 31
0.0
  0
LINE
  5
2096
330
1A
100
AcDbEntity
  8
部品1
100
AcDbLine
 10
4707.622010242547
 20
9170.003097597813
 30
0.0
 11
1988.084791275922
 21
9170.003097597819
 31
0.0
  0
LINE
  5
2097
330
1A
100
AcDbEntity
  8
部品1
100
AcDbLine
 10
5038.895187092588
 20
8072.003097597812
 30
0.0
 11
1988.084791275922
 21
8072.003097597827
 31
0.0
  0
LINE
  5
2098
330
1A
100
AcDbEntity
  8
部品1
100
AcDbLine
 10
5228.547572309288
 20
7443.403097597817
 30
0.0
 11
1988.084791275922
 21
7443.403097597817
 31
0.0
  0
LINE
  5
2099
330
1A
100
AcDbEntity
  8
部品1
100
AcDbLine
 10
5418.199957525987
 20
6814.803097597816
 30
0.0
 11
1988.084791275922
 21
6814.803097597816
 31
0.0
  0
LINE
  5
209A
330
1A
100
AcDbEntity
  8
部品1
100
AcDbLine
 10
5607.852342742688
 20
6186.203097597815
 30
0.0
 11
1988.084791275922
 21
6186.203097597815
 31
0.0
  0
LINE
  5
209B
330
1A
100
AcDbEntity
  8
部品1
100
AcDbLine
 10
5437.810846865925
 20
6749.803097597818
 30
0.0
 11
1988.084791275922
 21
6749.803097597811
 31
0.0
  0
LINE
  5
209C
330
1A
100
AcDbEntity
  8
部品1
100
AcDbLine
 10
4897.274395459246
 20
8541.403097597813
 30
0.0
 11
1988.084791275922
 21
8541.40309759782
 31
0.0
  0
LINE
  5
209D
330
1A
100
AcDbEntity
  8
部品1
100
AcDbLine
 10
1918.084791275922
 20
2294.900949614032
 30
0.0
 11
8018.084791275922
 21
2294.900949614032
 31
0.0
  0
LINE
  5
209E
330
1A
100
AcDbEntity
  8
Ｇ．Ｌ
100
AcDbLine
 10
1214.212021998302
 20
2244.900949614032
 30
0.0
 11
15653.42636519889
 21
2244.900949614032
 31
0.0
  0
LINE
  5
209F
330
1A
100
AcDbEntity
  8
細線
100
AcDbLine
 10
2058.90094961403
 20
2244.900949614032
 30
0.0
 11
2108.90094961403
 21
2294.900949614032
 31
0.0
  0
LINE
  5
20A0
330
1A
100
AcDbEntity
  8
細線
100
AcDbLine
 10
3136.531684142328
 20
2244.900949614032
 30
0.0
 11
3186.531684142329
 21
2294.900949614032
 31
0.0
  0
LINE
  5
20A1
330
1A
100
AcDbEntity
  8
細線
100
AcDbLine
 10
2025.224989160021
 20
2244.900949614032
 30
0.0
 11
2075.22498916002
 21
2294.900949614032
 31
0.0
  0
LINE
  5
20A2
330
1A
100
AcDbEntity
  8
細線
100
AcDbLine
 10
3102.855723688319
 20
2244.900949614032
 30
0.0
 11
3152.855723688319
 21
2294.900949614032
 31
0.0
  0
LINE
  5
20A3
330
1A
100
AcDbEntity
  8
細線
100
AcDbLine
 10
1991.549028706011
 20
2244.900949614032
 30
0.0
 11
2041.549028706011
 21
2294.900949614032
 31
0.0
  0
LINE
  5
20A4
330
1A
100
AcDbEntity
  8
細線
100
AcDbLine
 10
3069.17976323431
 20
2244.900949614032
 30
0.0
 11
3119.17976323431
 21
2294.900949614032
 31
0.0
  0
LINE
  5
20A5
330
1A
100
AcDbEntity
  8
細線
100
AcDbLine
 10
4214.162418670627
 20
2244.900949614032
 30
0.0
 11
4264.162418670626
 21
2294.900949614032
 31
0.0
  0
LINE
  5
20A6
330
1A
100
AcDbEntity
  8
細線
100
AcDbLine
 10
5291.793153198925
 20
2244.900949614032
 30
0.0
 11
5341.793153198925
 21
2294.900949614032
 31
0.0
  0
LINE
  5
20A7
330
1A
100
AcDbEntity
  8
細線
100
AcDbLine
 10
6369.423887727224
 20
2244.900949614032
 30
0.0
 11
6419.423887727224
 21
2294.900949614032
 31
0.0
  0
LINE
  5
20A8
330
1A
100
AcDbEntity
  8
細線
100
AcDbLine
 10
7447.054622255523
 20
2244.900949614032
 30
0.0
 11
7497.054622255522
 21
2294.900949614032
 31
0.0
  0
LINE
  5
20A9
330
1A
100
AcDbEntity
  8
細線
100
AcDbLine
 10
4180.486458216617
 20
2244.900949614032
 30
0.0
 11
4230.486458216617
 21
2294.900949614032
 31
0.0
  0
LINE
  5
20AA
330
1A
100
AcDbEntity
  8
細線
100
AcDbLine
 10
5258.117192744916
 20
2244.900949614032
 30
0.0
 11
5308.117192744916
 21
2294.900949614032
 31
0.0
  0
LINE
  5
20AB
330
1A
100
AcDbEntity
  8
細線
100
AcDbLine
 10
6335.747927273214
 20
2244.900949614032
 30
0.0
 11
6385.747927273214
 21
2294.900949614032
 31
0.0
  0
LINE
  5
20AC
330
1A
100
AcDbEntity
  8
細線
100
AcDbLine
 10
7413.378661801513
 20
2244.900949614032
 30
0.0
 11
7463.378661801515
 21
2294.900949614032
 31
0.0
  0
LINE
  5
20AD
330
1A
100
AcDbEntity
  8
細線
100
AcDbLine
 10
4146.810497762608
 20
2244.900949614032
 30
0.0
 11
4196.810497762608
 21
2294.900949614032
 31
0.0
  0
LINE
  5
20AE
330
1A
100
AcDbEntity
  8
細線
100
AcDbLine
 10
5224.441232290907
 20
2244.900949614032
 30
0.0
 11
5274.441232290906
 21
2294.900949614032
 31
0.0
  0
LINE
  5
20AF
330
1A
100
AcDbEntity
  8
細線
100
AcDbLine
 10
6302.071966819205
 20
2244.900949614032
 30
0.0
 11
6352.071966819205
 21
2294.900949614032
 31
0.0
  0
LINE
  5
20B0
330
1A
100
AcDbEntity
  8
細線
100
AcDbLine
 10
7379.702701347503
 20
2244.900949614032
 30
0.0
 11
7429.702701347506
 21
2294.900949614032
 31
0.0
  0
LINE
  5
20B1
330
1A
100
AcDbEntity
  8
細線
100
AcDbLine
 10
9949.791788311124
 20
2244.900949614032
 30
0.0
 11
9999.791788311123
 21
2294.900949614032
 31
0.0
  0
LINE
  5
20B2
330
1A
100
AcDbEntity
  8
細線
100
AcDbLine
 10
9983.467748765136
 20
2244.900949614032
 30
0.0
 11
10033.46774876513
 21
2294.900949614032
 31
0.0
  0
LINE
  5
20B3
330
1A
100
AcDbEntity
  8
細線
100
AcDbLine
 10
10017.14370921914
 20
2244.900949614032
 30
0.0
 11
10067.14370921914
 21
2294.900949614032
 31
0.0
  0
LINE
  5
20B4
330
1A
100
AcDbEntity
  8
細線
100
AcDbLine
 10
11061.09848329343
 20
2244.900949614032
 30
0.0
 11
11111.09848329343
 21
2294.900949614032
 31
0.0
  0
LINE
  5
20B5
330
1A
100
AcDbEntity
  8
細線
100
AcDbLine
 10
11027.42252283942
 20
2244.900949614032
 30
0.0
 11
11077.42252283942
 21
2294.900949614032
 31
0.0
  0
LINE
  5
20B6
330
1A
100
AcDbEntity
  8
細線
100
AcDbLine
 10
11094.77444374744
 20
2244.900949614032
 30
0.0
 11
11144.77444374744
 21
2294.900949614032
 31
0.0
  0
LINE
  5
20B7
330
1A
100
AcDbEntity
  8
細線
100
AcDbLine
 10
12105.05325736772
 20
2244.900949614032
 30
0.0
 11
12155.05325736772
 21
2294.900949614032
 31
0.0
  0
LINE
  5
20B8
330
1A
100
AcDbEntity
  8
細線
100
AcDbLine
 10
12138.72921782173
 20
2244.900949614032
 30
0.0
 11
12188.72921782173
 21
2294.900949614032
 31
0.0
  0
LINE
  5
20B9
330
1A
100
AcDbEntity
  8
細線
100
AcDbLine
 10
12172.40517827574
 20
2244.900949614032
 30
0.0
 11
12222.40517827574
 21
2294.900949614032
 31
0.0
  0
LINE
  5
20BA
330
1A
100
AcDbEntity
  8
細線
100
AcDbLine
 10
13182.68399189602
 20
2244.900949614032
 30
0.0
 11
13232.68399189602
 21
2294.900949614032
 31
0.0
  0
LINE
  5
20BB
330
1A
100
AcDbEntity
  8
細線
100
AcDbLine
 10
13216.35995235003
 20
2244.900949614032
 30
0.0
 11
13266.35995235003
 21
2294.900949614032
 31
0.0
  0
LINE
  5
20BC
330
1A
100
AcDbEntity
  8
細線
100
AcDbLine
 10
13250.03591280403
 20
2244.900949614032
 30
0.0
 11
13300.03591280404
 21
2294.900949614032
 31
0.0
  0
LINE
  5
20BD
330
1A
100
AcDbEntity
  8
細線
100
AcDbLine
 10
14327.66664733233
 20
2244.900949614032
 30
0.0
 11
14377.66664733233
 21
2294.900949614032
 31
0.0
  0
LINE
  5
20BE
330
1A
100
AcDbEntity
  8
細線
100
AcDbLine
 10
14260.31472642431
 20
2244.900949614032
 30
0.0
 11
14310.31472642431
 21
2294.900949614032
 31
0.0
  0
LINE
  5
20BF
330
1A
100
AcDbEntity
  8
細線
100
AcDbLine
 10
14293.99068687833
 20
2244.900949614032
 30
0.0
 11
14343.99068687833
 21
2294.900949614032
 31
0.0
  0
LINE
  5
20C0
330
1A
100
AcDbEntity
  8
寸法
100
AcDbLine
 10
2168.084791275922
 20
1941.589597719343
 30
0.0
 11
2168.084791275922
 21
1648.824870420445
 31
0.0
  0
LINE
  5
20C1
330
1A
100
AcDbEntity
  8
寸法
100
AcDbLine
 10
2168.084791275922
 20
1688.824870420445
 30
0.0
 11
3728.084791275922
 21
1688.824870420445
 31
0.0
  0
MTEXT
  5
20C2
330
1A
100
AcDbEntity
  8
部品1
100
AcDbMText
 10
3191.745384668242
 20
1788.836681444067
 30
0.0
 40
120.0
 41
0.0
 71
     5
 72
     1
  1
\A1;2800
 73
     1
 44
1.0
1001
ACAD
1000
MTEXTBEGIN
1070
    73
1070
     1
1070
    44
1040
1.0
1070
    74
1070
     0
1000
MTEXTEND
  0
LINE
  5
20C3
330
1A
100
AcDbEntity
  8
寸法
100
AcDbLine
 10
3828.084791275922
 20
1688.824870420445
 30
0.0
 11
4968.084791275922
 21
1688.824870420445
 31
0.0
  0
MTEXT
  5
20C4
330
1A
100
AcDbEntity
  8
部品1
100
AcDbMText
 10
4363.077994594017
 20
1788.836681444067
 30
0.0
 40
120.0
 41
0.0
 71
     5
 72
     1
  1
\A1;2800
 73
     1
 44
1.0
1001
ACAD
1000
MTEXTBEGIN
1070
    73
1070
     1
1070
    44
1040
1.0
1070
    74
1070
     0
1000
MTEXTEND
  0
DIMENSION
  5
20C5
330
1A
100
AcDbEntity
  8
寸法
100
AcDbDimension
  2
*D22
 10
4968.084791275922
 20
1688.824870420445
 30
0.0
 11
6368.084791275922
 21
1788.836681444067
 31
0.0
 70
    32
 71
     5
 42
2800.0
  3
物置仕様図40
100
AcDbAlignedDimension
 13
7768.084791275922
 23
1981.589597719343
 33
0.0
 14
4968.084791275922
 24
1981.589597719343
 34
0.0
100
AcDbRotatedDimension
  0
INSERT
  5
20C6
330
1A
100
AcDbEntity
  8
寸法
100
AcDbBlockReference
  2
_DOTSMALL
 10
2168.084791275922
 20
1688.824870420445
 30
0.0
 41
100.0
 42
100.0
 43
100.0
 50
180.0
  0
POINT
  5
20C7
330
1A
100
AcDbEntity
  8
寸法
100
AcDbPoint
 10
2168.084791275922
 20
1688.824870420445
 30
0.0
  0
LWPOLYLINE
  5
20C8
330
1A
100
AcDbEntity
  8
部品1
100
AcDbPolyline
 90
        4
 70
     1
 43
0.0
 10
4662.336280796162
 20
1531.674684141446
 10
4662.336280796162
 20
1310.090425101178
 10
5299.348613555924
 20
1310.090425101178
 10
5299.348613555924
 20
1531.674684141446
  0
TEXT
  5
20C9
330
1A
100
AcDbEntity
  8
部品1
100
AcDbText
 10
4704.803766252292
 20
1357.236007414966
 30
0.0
 40
120.0
  1
正面図
  7
MSGOTHIC
100
AcDbText
  0
LWPOLYLINE
  5
20CA
330
1A
100
AcDbEntity
  8
部品1
100
AcDbPolyline
 90
        4
 70
     1
 43
0.0
 10
11976.14143329446
 20
1531.674684141446
 10
11976.14143329446
 20
1310.090425101178
 10
12613.15376605422
 20
1310.090425101178
 10
12613.15376605422
 20
1531.674684141446
  0
TEXT
  5
20CB
330
1A
100
AcDbEntity
  8
部品1
100
AcDbText
 10
12018.60891875059
 20
1357.236007414966
 30
0.0
 40
120.0
  1
側面図
  7
MSGOTHIC
100
AcDbText
  0
LWPOLYLINE
  5
20CC
330
1A
100
AcDbEntity
  8
部品1
100
AcDbPolyline
 90
        4
 70
     1
 43
0.0
 10
4662.336280796162
 20
5579.021460536885
 10
4662.336280796162
 20
5357.437201496617
 10
5299.348613555924
 20
5357.437201496617
 10
5299.348613555924
 20
5579.021460536885
  0
TEXT
  5
20CD
330
1A
100
AcDbEntity
  8
部品1
100
AcDbText
 10
4704.803766252292
 20
5404.582783810405
 30
0.0
 40
120.0
  1
平面図
  7
MSGOTHIC
100
AcDbText
  0
LINE
  5
20CE
330
1A
100
AcDbEntity
  8
部品1
100
AcDbLine
 10
9898.273509941851
 20
4327.806840769868
 30
0.0
 11
12276.32755088103
 21
4439.773551864089
 31
0.0
  0
DIMENSION
  5
20CF
330
1A
100
AcDbEntity
  8
寸法
100
AcDbDimension
  2
*D23
 10
9002.756801734111
 20
2244.900949614032
 30
0.0
 11
8902.744990710489
 21
3399.900949614033
 31
0.0
 70
    32
 71
     5
 42
2310.000000000001
  3
物置仕様図40
100
AcDbAlignedDimension
 13
12276.32755088103
 23
4554.900949614031
 33
0.0
 14
8985.847895189881
 24
2244.900949614032
 34
0.0
 50
90.0
100
AcDbRotatedDimension
  0
DIMENSION
  5
20D0
330
1A
100
AcDbEntity
  8
寸法
100
AcDbDimension
  2
*D24
 10
9296.483483459029
 20
4441.900949614032
 30
0.0
 11
9177.842311419059
 21
4690.328483500826
 31
0.0
 70
   160
 71
     5
 42
113.0000000000009
  3
物置仕様図40
100
AcDbAlignedDimension
 13
12276.32755088103
 23
4554.900949614031
 33
0.0
 14
9876.327550881034
 24
4441.900949614032
 34
0.0
 50
90.0
100
AcDbRotatedDimension
  0
DIMENSION
  5
20D1
330
1A
100
AcDbEntity
  8
寸法
100
AcDbDimension
  2
*D25
 10
9788.354899444726
 20
3394.900949614032
 30
0.0
 11
9688.354899444727
 21
2944.900949614034
 31
0.0
 70
    32
 71
     5
 42
900.0
  3
物置仕様図40
100
AcDbAlignedDimension
 13
10656.32755088103
 23
2494.900949614032
 33
0.0
 14
10656.32755088103
 24
3394.900949614032
 34
0.0
 50
90.0
100
AcDbRotatedDimension
1001
ACAD
1000
DSTYLE
1002
{
1070
    75
1070
     1
1002
}
  0
DIMENSION
  5
20D2
330
1A
100
AcDbEntity
  8
寸法
100
AcDbDimension
  2
*D26
 10
9788.354899444726
 20
2494.900949614032
 30
0.0
 11
9677.79826238547
 21
2369.900949614032
 31
0.0
 70
   160
 71
     5
 42
250.0
  3
物置仕様図40
100
AcDbAlignedDimension
 13
9772.254670437177
 23
2244.900949614032
 33
0.0
 14
10656.32755088103
 24
2494.900949614032
 34
0.0
 50
90.0
100
AcDbRotatedDimension
  0
DIMENSION
  5
20D3
330
1A
100
AcDbEntity
  8
寸法
100
AcDbDimension
  2
*D27
 10
14676.32755088103
 20
5129.668646643564
 30
0.0
 11
12276.32755088103
 21
5229.668646643563
 31
0.0
 70
    32
 71
     5
 42
4800.0
  3
物置仕様図40
100
AcDbAlignedDimension
 13
9876.327550881034
 23
4441.900949614032
 33
0.0
 14
14676.32755088103
 24
4441.900949614032
 34
0.0
100
AcDbRotatedDimension
  0
DIMENSION
  5
20D4
330
1A
100
AcDbEntity
  8
寸法
100
AcDbDimension
  2
*D28
 10
10626.32755088103
 20
4849.668646643564
 30
0.0
 11
10251.32755088103
 21
4949.668646643564
 31
0.0
 70
    32
 71
     5
 42
750.0
  3
物置仕様図40
100
AcDbAlignedDimension
 13
9876.327550881034
 23
4441.900949614032
 33
0.0
 14
10626.32755088103
 24
4058.92028237068
 34
0.0
100
AcDbRotatedDimension
  0
LINE
  5
20D5
330
1A
100
AcDbEntity
  8
部品1
100
AcDbLine
 10
9876.327550881034
 20
2294.900949614032
 30
0.0
 11
14676.32755088103
 21
2294.900949614032
 31
0.0
  0
LINE
  5
20D6
330
1A
100
AcDbEntity
  8
部品1
100
AcDbLine
 10
10098.02367128532
 20
4313.68571074654
 30
0.0
 11
10103.3052786196
 21
4201.509979752862
 31
0.0
  0
LINE
  5
20D7
330
1A
100
AcDbEntity
  8
部品1
100
AcDbLine
 10
10096.02588444661
 20
4313.591648282885
 30
0.0
 11
10101.34041364317
 21
4200.716691895657
 31
0.0
  0
LINE
  5
20D8
330
1A
100
AcDbEntity
  8
部品1
100
AcDbLine
 10
10077.50963621999
 20
4199.594659458649
 30
0.0
 11
10101.34041364317
 21
4200.716691895657
 31
0.0
  0
LINE
  5
20D9
330
1A
100
AcDbEntity
  8
部品1
100
AcDbLine
 10
9876.327550881025
 20
4441.900949614032
 30
0.0
 11
12276.32755088103
 21
4554.900949614031
 31
0.0
  0
LINE
  5
20DA
330
1A
100
AcDbEntity
  8
細線
100
AcDbLine
 10
9881.642948680571
 20
4377.079208836545
 30
0.0
 11
12276.32755088103
 21
4489.82894219015
 31
0.0
  0
LINE
  5
20DB
330
1A
100
AcDbEntity
  8
細線
100
AcDbLine
 10
9882.624252889712
 20
4365.112118231471
 30
0.0
 11
12276.32755088103
 21
4477.815648511896
 31
0.0
  0
LINE
  5
20DC
330
1A
100
AcDbEntity
  8
部品1
100
AcDbLine
 10
10093.72842958208
 20
4313.483476449681
 30
0.0
 11
12273.85841121006
 21
4416.131263084666
 31
0.0
  0
DIMENSION
  5
20DD
330
1A
100
AcDbEntity
  8
寸法
100
AcDbDimension
  2
*D29
 10
9296.483483459029
 20
2244.900949614032
 30
0.0
 11
9196.471672435407
 21
3343.400949614033
 31
0.0
 70
    32
 71
     5
 42
2197.0
  3
物置仕様図40
100
AcDbAlignedDimension
 13
9876.327550881034
 23
4441.900949614032
 33
0.0
 14
9245.652178531019
 24
2244.900949614032
 34
0.0
 50
90.0
100
AcDbRotatedDimension
1001
ACAD
1000
DSTYLE
1002
{
1070
    75
1070
     1
1002
}
  0
LINE
  5
20DE
330
1A
100
AcDbEntity
  8
部品1
100
AcDbLine
 10
9876.327550881034
 20
2294.900949614032
 30
0.0
 11
9876.327550881034
 21
2244.900949614032
 31
0.0
  0
LINE
  5
20DF
330
1A
100
AcDbEntity
  8
部品1
100
AcDbLine
 10
10067.35284392422
 20
4207.099221368149
 30
0.0
 11
10041.47225747573
 21
4308.006715807405
 31
0.0
  0
ARC
  5
20E0
330
1A
100
AcDbEntity
  8
部品1
100
AcDbCircle
 10
10077.0393239017
 20
4209.583593652209
 30
0.0
 40
10.0
100
AcDbArc
 50
194.3850546689501
 51
272.6956854935762
  0
LINE
  5
20E1
330
1A
100
AcDbEntity
  8
部品1
100
AcDbLine
 10
9876.327550881025
 20
4441.900949614032
 30
0.0
 11
9884.705590991645
 21
4339.730018151371
 31
0.0
  0
ARC
  5
20E2
330
1A
100
AcDbEntity
  8
部品1
100
AcDbCircle
 10
9890.384097710249
 20
4429.548377209132
 30
0.0
 40
13.0
100
AcDbArc
 50
92.69568549357613
 51
184.6877790664751
  0
ARC
  5
20E3
330
1A
100
AcDbEntity
  8
部品1
100
AcDbCircle
 10
9897.662103928084
 20
4340.792455221497
 30
0.0
 40
13.0
100
AcDbArc
 50
184.6877790664751
 51
272.6956854935762
  0
LINE
  5
20E4
330
1A
100
AcDbEntity
  8
部品1
100
AcDbLine
 10
9899.315992972887
 20
4442.983322095857
 30
0.0
 11
9908.720158310538
 21
4328.298703797226
 31
0.0
  0
ARC
  5
20E5
330
1A
100
AcDbEntity
  8
部品1
100
AcDbCircle
 10
10046.31549746447
 20
4309.248901949435
 30
0.0
 40
5.0
100
AcDbArc
 50
92.69568549357613
 51
194.3850546689501
  0
LINE
  5
20E6
330
1A
100
AcDbEntity
  8
部品1
100
AcDbLine
 10
10092.62319563412
 20
4336.957471804548
 30
0.0
 11
10093.72842958208
 21
4313.483476449681
 31
0.0
  0
LINE
  5
20E7
330
1A
100
AcDbEntity
  8
部品1
100
AcDbLine
 10
10046.08034130533
 20
4314.243369046215
 30
0.0
 11
10093.5873358866
 21
4316.480156707748
 31
0.0
  0
DIMENSION
  5
20E8
330
1A
100
AcDbEntity
  8
寸法
100
AcDbDimension
  2
*D30
 10
15193.45611201606
 20
2244.900949614032
 30
0.0
 11
15072.01802163521
 21
2425.303996091992
 31
0.0
 70
   160
 71
     5
 42
50.0
  3
物置仕様図40
100
AcDbAlignedDimension
 13
14676.32755088103
 23
2294.900949614032
 33
0.0
 14
15205.59992105415
 24
2244.900949614032
 34
0.0
 50
90.0
100
AcDbRotatedDimension
  0
LINE
  5
20E9
330
1A
100
AcDbEntity
  8
センター
 48
10.0
100
AcDbLine
 10
13926.32755088103
 20
4058.920282370678
 30
0.0
 11
13926.32755088103
 21
2294.900949614032
 31
0.0
  0
LINE
  5
20EA
330
1A
100
AcDbEntity
  8
センター
 48
10.0
100
AcDbLine
 10
12276.32755088103
 20
4093.086365704012
 30
0.0
 11
12276.32755088103
 21
2294.900949614032
 31
0.0
  0
LINE
  5
20EB
330
1A
100
AcDbEntity
  8
センター
 48
10.0
100
AcDbLine
 10
10626.32755088103
 20
4058.92028237068
 30
0.0
 11
10626.32755088103
 21
2294.900949614032
 31
0.0
  0
LINE
  5
20EC
330
1A
100
AcDbEntity
  8
部品1
100
AcDbLine
 10
10656.32755088103
 20
4058.920282370678
 30
0.0
 11
10656.32755088103
 21
2294.900949614032
 31
0.0
  0
LINE
  5
20ED
330
1A
100
AcDbEntity
  8
部品1
100
AcDbLine
 10
10596.32755088103
 20
4058.92028237068
 30
0.0
 11
10596.32755088103
 21
2294.900949614032
 31
0.0
  0
LINE
  5
20EE
330
1A
100
AcDbEntity
  8
部品1
100
AcDbLine
 10
12246.32755088103
 20
4093.086365704012
 30
0.0
 11
12246.32755088103
 21
2294.900949614032
 31
0.0
  0
LINE
  5
20EF
330
1A
100
AcDbEntity
  8
部品1
100
AcDbLine
 10
12306.32755088103
 20
4093.086365704012
 30
0.0
 11
12306.32755088103
 21
2294.900949614032
 31
0.0
  0
LINE
  5
20F0
330
1A
100
AcDbEntity
  8
部品1
100
AcDbLine
 10
13896.32755088103
 20
4058.920282370678
 30
0.0
 11
13896.32755088103
 21
2294.900949614032
 31
0.0
  0
LINE
  5
20F1
330
1A
100
AcDbEntity
  8
部品1
100
AcDbLine
 10
13956.32755088103
 20
4058.92028237068
 30
0.0
 11
13956.32755088103
 21
2294.900949614032
 31
0.0
  0
LINE
  5
20F2
330
1A
100
AcDbEntity
  8
点線
 48
50.0
100
AcDbLine
 10
10656.32755088103
 20
2294.900949614032
 30
0.0
 11
10656.32755088103
 21
1974.900949614031
 31
0.0
  0
LINE
  5
20F3
330
1A
100
AcDbEntity
  8
点線
 48
50.0
100
AcDbLine
 10
10596.32755088103
 20
2294.900949614032
 30
0.0
 11
10596.32755088103
 21
1974.900949614031
 31
0.0
  0
LINE
  5
20F4
330
1A
100
AcDbEntity
  8
点線
 48
50.0
100
AcDbLine
 10
10596.32755088103
 20
1974.900949614031
 30
0.0
 11
10656.32755088103
 21
1974.900949614031
 31
0.0
  0
LINE
  5
20F5
330
1A
100
AcDbEntity
  8
点線
 48
50.0
100
AcDbLine
 10
12306.32755088103
 20
2294.900949614032
 30
0.0
 11
12306.32755088103
 21
1974.900949614031
 31
0.0
  0
LINE
  5
20F6
330
1A
100
AcDbEntity
  8
点線
 48
50.0
100
AcDbLine
 10
12246.32755088103
 20
2294.900949614032
 30
0.0
 11
12246.32755088103
 21
1974.900949614031
 31
0.0
  0
LINE
  5
20F7
330
1A
100
AcDbEntity
  8
点線
 48
50.0
100
AcDbLine
 10
12246.32755088103
 20
1974.900949614031
 30
0.0
 11
12306.32755088103
 21
1974.900949614031
 31
0.0
  0
LINE
  5
20F8
330
1A
100
AcDbEntity
  8
点線
 48
50.0
100
AcDbLine
 10
13956.32755088103
 20
2294.900949614032
 30
0.0
 11
13956.32755088103
 21
1974.900949614031
 31
0.0
  0
LINE
  5
20F9
330
1A
100
AcDbEntity
  8
点線
 48
50.0
100
AcDbLine
 10
13896.32755088103
 20
2294.900949614032
 30
0.0
 11
13896.32755088103
 21
1974.900949614031
 31
0.0
  0
LINE
  5
20FA
330
1A
100
AcDbEntity
  8
点線
 48
50.0
100
AcDbLine
 10
13896.32755088103
 20
1974.900949614031
 30
0.0
 11
13956.32755088103
 21
1974.900949614031
 31
0.0
  0
LINE
  5
20FB
330
1A
100
AcDbEntity
  8
部品1
100
AcDbLine
 10
14676.32755088103
 20
2294.900949614032
 30
0.0
 11
14676.32755088103
 21
2244.900949614032
 31
0.0
  0
DIMENSION
  5
20FC
330
1A
100
AcDbEntity
  8
寸法
100
AcDbDimension
  2
*D31
 10
13926.32755088103
 20
4849.668646643564
 30
0.0
 11
13101.32755088103
 21
4949.668646643564
 31
0.0
 70
    32
 71
     5
 42
1650.0
  3
物置仕様図40
100
AcDbAlignedDimension
 13
12276.32755088103
 23
4554.900949614031
 33
0.0
 14
13926.32755088103
 24
4058.920282370678
 34
0.0
100
AcDbRotatedDimension
1001
ACAD
1000
DSTYLE
1002
{
1070
    75
1070
     1
1002
}
  0
LINE
  5
20FD
330
1A
100
AcDbEntity
  8
部品1
100
AcDbLine
 10
13151.30336478206
 20
4264.928881788994
 30
0.0
 11
12563.65799497566
 21
4292.597184617381
 31
0.0
  0
LINE
  5
20FE
330
1A
100
AcDbEntity
  8
部品1
100
AcDbLine
 10
14458.92667217998
 20
4313.483476449681
 30
0.0
 11
12278.796690552
 21
4416.131263084666
 31
0.0
  0
LINE
  5
20FF
330
1A
100
AcDbEntity
  8
細線
100
AcDbLine
 10
13896.32755088103
 20
2932.900949614032
 30
0.0
 11
12306.32755088103
 21
2932.900949614034
 31
0.0
  0
LINE
  5
2100
330
1A
100
AcDbEntity
  8
細線
100
AcDbLine
 10
13896.32755088103
 20
2938.900949614032
 30
0.0
 11
12306.32755088103
 21
2938.900949614034
 31
0.0
  0
LINE
  5
2101
330
1A
100
AcDbEntity
  8
細線
100
AcDbLine
 10
13896.32755088103
 20
2609.900949614031
 30
0.0
 11
12306.32755088103
 21
2609.900949614033
 31
0.0
  0
LINE
  5
2102
330
1A
100
AcDbEntity
  8
細線
100
AcDbLine
 10
13896.32755088103
 20
2597.900949614032
 30
0.0
 11
12306.32755088103
 21
2597.900949614034
 31
0.0
  0
LINE
  5
2103
330
1A
100
AcDbEntity
  8
細線
100
AcDbLine
 10
13896.32755088103
 20
3279.900949614031
 30
0.0
 11
12306.32755088103
 21
3279.900949614034
 31
0.0
  0
LINE
  5
2104
330
1A
100
AcDbEntity
  8
細線
100
AcDbLine
 10
13896.32755088103
 20
3291.900949614032
 30
0.0
 11
12306.32755088103
 21
3291.900949614034
 31
0.0
  0
LINE
  5
2105
330
1A
100
AcDbEntity
  8
細線
100
AcDbLine
 10
14671.01215308149
 20
4377.079208836545
 30
0.0
 11
12276.32755088103
 21
4489.82894219015
 31
0.0
  0
LINE
  5
2106
330
1A
100
AcDbEntity
  8
細線
100
AcDbLine
 10
14670.03084887235
 20
4365.112118231471
 30
0.0
 11
12276.32755088103
 21
4477.815648511896
 31
0.0
  0
LINE
  5
2107
330
1A
100
AcDbEntity
  8
部品1
100
AcDbLine
 10
13896.32755088103
 20
3394.900949614032
 30
0.0
 11
12306.32755088103
 21
3394.900949614033
 31
0.0
  0
LINE
  5
2108
330
1A
100
AcDbEntity
  8
部品1
100
AcDbLine
 10
13896.32755088103
 20
2494.900949614032
 30
0.0
 11
12306.32755088103
 21
2494.900949614033
 31
0.0
  0
LINE
  5
2109
330
1A
100
AcDbEntity
  8
部品1
100
AcDbLine
 10
14654.38159182022
 20
4327.806840769868
 30
0.0
 11
12276.32755088103
 21
4439.773551864089
 31
0.0
  0
LINE
  5
210A
330
1A
100
AcDbEntity
  8
部品1
100
AcDbLine
 10
14662.88241006558
 20
4442.533991660758
 30
0.0
 11
12276.32755088103
 21
4554.900949614031
 31
0.0
  0
DIMENSION
  5
210B
330
1A
100
AcDbEntity
  8
寸法
100
AcDbDimension
  2
*D32
 10
12276.32755088103
 20
4849.668646643564
 30
0.0
 11
11451.32755088103
 21
4949.668646643564
 31
0.0
 70
    32
 71
     5
 42
1650.0
  3
物置仕様図40
100
AcDbAlignedDimension
 13
10626.32755088103
 23
4058.92028237068
 33
0.0
 14
12276.32755088103
 24
4554.900949614031
 34
0.0
100
AcDbRotatedDimension
1001
ACAD
1000
DSTYLE
1002
{
1070
    75
1070
     1
1002
}
  0
LINE
  5
210C
330
1A
100
AcDbEntity
  8
部品1
100
AcDbLine
 10
10138.97830147891
 20
4315.613991251491
 30
0.0
 11
10144.2599088132
 21
4203.43826025781
 31
0.0
  0
LINE
  5
210D
330
1A
100
AcDbEntity
  8
部品1
100
AcDbLine
 10
10439.12755088103
 20
4216.120282370678
 30
0.0
 11
10436.72895805778
 21
4267.063846757828
 31
0.0
  0
CIRCLE
  5
210E
330
1A
100
AcDbEntity
  8
細線
100
AcDbCircle
 10
10467.54816048534
 20
4250.995530924676
 30
0.0
 40
8.0
  0
LWPOLYLINE
  5
210F
330
1A
100
AcDbEntity
  8
細線
100
AcDbPolyline
 90
        6
 70
     1
 43
0.0
 10
10461.04816048534
 20
4254.748307674408
 10
10467.54816048534
 20
4258.501084424141
 10
10474.04816048534
 20
4254.748307674408
 10
10474.04816048534
 20
4247.242754174943
 10
10467.54816048534
 20
4243.489977425212
 10
10461.04816048534
 20
4247.242754174943
  0
CIRCLE
  5
2110
330
1A
100
AcDbEntity
  8
細線
100
AcDbCircle
 10
10467.54816048534
 20
4250.995530924676
 30
0.0
 40
6.0
  0
CIRCLE
  5
2111
330
1A
100
AcDbEntity
  8
細線
100
AcDbCircle
 10
10679.31356538881
 20
4260.966152072213
 30
0.0
 40
6.0
  0
LWPOLYLINE
  5
2112
330
1A
100
AcDbEntity
  8
細線
100
AcDbPolyline
 90
        6
 70
     1
 43
0.0
 10
10672.81356538881
 20
4264.718928821944
 10
10679.31356538881
 20
4268.471705571677
 10
10685.81356538881
 20
4264.718928821944
 10
10685.81356538881
 20
4257.213375322481
 10
10679.31356538881
 20
4253.460598572749
 10
10672.81356538881
 20
4257.213375322481
  0
CIRCLE
  5
2113
330
1A
100
AcDbEntity
  8
細線
100
AcDbCircle
 10
10679.31356538881
 20
4260.966152072213
 30
0.0
 40
8.0
  0
CIRCLE
  5
2114
330
1A
100
AcDbEntity
  8
細線
100
AcDbCircle
 10
10573.43086293708
 20
4255.980841498444
 30
0.0
 40
6.0
  0
LWPOLYLINE
  5
2115
330
1A
100
AcDbEntity
  8
細線
100
AcDbPolyline
 90
        6
 70
     1
 43
0.0
 10
10566.93086293708
 20
4259.733618248177
 10
10573.43086293708
 20
4263.486394997908
 10
10579.93086293708
 20
4259.733618248177
 10
10579.93086293708
 20
4252.228064748713
 10
10573.43086293708
 20
4248.475287998979
 10
10566.93086293708
 20
4252.228064748713
  0
CIRCLE
  5
2116
330
1A
100
AcDbEntity
  8
細線
100
AcDbCircle
 10
10573.43086293708
 20
4255.980841498444
 30
0.0
 40
8.0
  0
LINE
  5
2117
330
1A
100
AcDbEntity
  8
部品1
100
AcDbLine
 10
10826.72755088103
 20
4234.369782370679
 30
0.0
 11
10824.3289580578
 21
4285.313346757831
 31
0.0
  0
LINE
  5
2118
330
1A
100
AcDbEntity
  8
部品1
100
AcDbLine
 10
10826.56294156964
 20
4237.865909338425
 30
0.0
 11
11360.3971067864
 21
4263.000601284046
 31
0.0
  0
ARC
  5
2119
330
1A
100
AcDbEntity
  8
部品1
100
AcDbCircle
 10
12042.32755088103
 20
4091.382721066429
 30
0.0
 40
200.0
100
AcDbArc
 50
0.4880641401187
 51
92.69568549357613
  0
ARC
  5
211A
330
1A
100
AcDbEntity
  8
部品1
100
AcDbCircle
 10
12510.32755088103
 20
4091.382721066429
 30
0.0
 40
200.0
100
AcDbArc
 50
87.3043145064239
 51
179.5119358598813
  0
LINE
  5
211B
330
1A
100
AcDbEntity
  8
部品1
100
AcDbLine
 10
10656.32755088103
 20
2494.900949614032
 30
0.0
 11
12246.32755088103
 21
2494.900949614033
 31
0.0
  0
LINE
  5
211C
330
1A
100
AcDbEntity
  8
細線
100
AcDbLine
 10
10656.32755088103
 20
2597.900949614032
 30
0.0
 11
12246.32755088103
 21
2597.900949614034
 31
0.0
  0
LINE
  5
211D
330
1A
100
AcDbEntity
  8
細線
100
AcDbLine
 10
10656.32755088103
 20
2609.900949614031
 30
0.0
 11
12246.32755088103
 21
2609.900949614033
 31
0.0
  0
LINE
  5
211E
330
1A
100
AcDbEntity
  8
細線
100
AcDbLine
 10
10656.32755088103
 20
2938.900949614032
 30
0.0
 11
12246.32755088103
 21
2938.900949614034
 31
0.0
  0
LINE
  5
211F
330
1A
100
AcDbEntity
  8
細線
100
AcDbLine
 10
10656.32755088103
 20
2932.900949614032
 30
0.0
 11
12246.32755088103
 21
2932.900949614034
 31
0.0
  0
LINE
  5
2120
330
1A
100
AcDbEntity
  8
部品1
100
AcDbLine
 10
10656.32755088103
 20
3394.900949614032
 30
0.0
 11
12246.32755088103
 21
3394.900949614033
 31
0.0
  0
LINE
  5
2121
330
1A
100
AcDbEntity
  8
細線
100
AcDbLine
 10
10656.32755088103
 20
3291.900949614032
 30
0.0
 11
12246.32755088103
 21
3291.900949614034
 31
0.0
  0
LINE
  5
2122
330
1A
100
AcDbEntity
  8
細線
100
AcDbLine
 10
10656.32755088103
 20
3279.900949614031
 30
0.0
 11
12246.32755088103
 21
3279.900949614034
 31
0.0
  0
ARC
  5
2123
330
1A
100
AcDbEntity
  8
部品1
100
AcDbCircle
 10
10780.32755088103
 20
4112.052178921463
 30
0.0
 40
120.0
100
AcDbArc
 50
92.69568549357613
 51
180.0
  0
LINE
  5
2124
330
1A
100
AcDbEntity
  8
部品1
100
AcDbLine
 10
10144.15173698
 20
4205.735715122329
 30
0.0
 11
10438.96294156963
 21
4219.616409338424
 31
0.0
  0
LINE
  5
2125
330
1A
100
AcDbEntity
  8
部品1
100
AcDbLine
 10
10103.3052786196
 20
4201.509979752862
 30
0.0
 11
10144.2599088132
 21
4203.43826025781
 31
0.0
  0
LINE
  5
2126
330
1A
100
AcDbEntity
  8
部品1
100
AcDbLine
 10
10101.19931994769
 20
4203.713372153725
 30
0.0
 11
10103.1971067864
 21
4203.807434617381
 31
0.0
  0
LINE
  5
2127
330
1A
100
AcDbEntity
  8
部品1
100
AcDbLine
 10
10592.32755088103
 20
4058.92028237068
 30
0.0
 11
10660.32755088103
 21
4058.92028237068
 31
0.0
  0
ARC
  5
2128
330
1A
100
AcDbEntity
  8
部品1
100
AcDbCircle
 10
10487.32755088103
 20
4113.273379352615
 30
0.0
 40
105.0
100
AcDbArc
 50
0.0
 51
92.69568549357613
  0
LINE
  5
2129
330
1A
100
AcDbEntity
  8
部品1
100
AcDbLine
 10
10439.12755088103
 20
4216.120282370678
 30
0.0
 11
10482.38927153909
 21
4218.157188384995
 31
0.0
  0
LINE
  5
212A
330
1A
100
AcDbEntity
  8
部品1
100
AcDbLine
 10
10592.32755088103
 20
4113.273379352615
 30
0.0
 11
10592.32755088103
 21
4058.92028237068
 31
0.0
  0
CIRCLE
  5
212B
330
1A
100
AcDbEntity
  8
細線
100
AcDbCircle
 10
10626.32755088103
 20
4173.92028237068
 30
0.0
 40
6.0
  0
LWPOLYLINE
  5
212C
330
1A
100
AcDbEntity
  8
細線
100
AcDbPolyline
 90
        6
 70
     1
 43
0.0
 10
10619.82755088103
 20
4177.673059120412
 10
10626.32755088103
 20
4181.425835870144
 10
10632.82755088103
 20
4177.673059120412
 10
10632.82755088103
 20
4170.167505620947
 10
10626.32755088103
 20
4166.414728871216
 10
10619.82755088103
 20
4170.167505620947
  0
CIRCLE
  5
212D
330
1A
100
AcDbEntity
  8
細線
100
AcDbCircle
 10
10626.32755088103
 20
4173.92028237068
 30
0.0
 40
8.0
  0
LINE
  5
212E
330
1A
100
AcDbEntity
  8
部品1
100
AcDbLine
 10
10660.32755088103
 20
4112.052178921463
 30
0.0
 11
10660.32755088103
 21
4058.920282370678
 31
0.0
  0
CIRCLE
  5
212F
330
1A
100
AcDbEntity
  8
細線
100
AcDbCircle
 10
10626.32755088103
 20
4088.92028237068
 30
0.0
 40
6.0
  0
LWPOLYLINE
  5
2130
330
1A
100
AcDbEntity
  8
細線
100
AcDbPolyline
 90
        6
 70
     1
 43
0.0
 10
10619.82755088103
 20
4092.673059120413
 10
10626.32755088103
 20
4096.425835870144
 10
10632.82755088103
 20
4092.673059120413
 10
10632.82755088103
 20
4085.167505620947
 10
10626.32755088103
 20
4081.414728871215
 10
10619.82755088103
 20
4085.167505620947
  0
CIRCLE
  5
2131
330
1A
100
AcDbEntity
  8
細線
100
AcDbCircle
 10
10626.32755088103
 20
4088.92028237068
 30
0.0
 40
8.0
  0
LINE
  5
2132
330
1A
100
AcDbEntity
  8
部品1
100
AcDbLine
 10
10774.68380306167
 20
4231.919389244183
 30
0.0
 11
10826.72755088103
 21
4234.369782370679
 31
0.0
  0
CIRCLE
  5
2133
330
1A
100
AcDbEntity
  8
細線
100
AcDbCircle
 10
12276.32755088103
 20
4230.086365704011
 30
0.0
 40
6.0
  0
LWPOLYLINE
  5
2134
330
1A
100
AcDbEntity
  8
細線
100
AcDbPolyline
 90
        6
 70
     1
 43
0.0
 10
12269.82755088103
 20
4233.839142453744
 10
12276.32755088103
 20
4237.591919203476
 10
12282.82755088103
 20
4233.839142453744
 10
12282.82755088103
 20
4226.333588954279
 10
12276.32755088103
 20
4222.580812204546
 10
12269.82755088103
 20
4226.333588954279
  0
CIRCLE
  5
2135
330
1A
100
AcDbEntity
  8
細線
100
AcDbCircle
 10
12276.32755088103
 20
4230.086365704011
 30
0.0
 40
8.0
  0
LINE
  5
2136
330
1A
100
AcDbEntity
  8
部品1
100
AcDbLine
 10
12242.32029473677
 20
4093.086365704012
 30
0.0
 11
12276.32755088103
 21
4093.086365704012
 31
0.0
  0
CIRCLE
  5
2137
330
1A
100
AcDbEntity
  8
細線
100
AcDbCircle
 10
12276.32755088103
 20
4128.086365704012
 30
0.0
 40
6.0
  0
LWPOLYLINE
  5
2138
330
1A
100
AcDbEntity
  8
細線
100
AcDbPolyline
 90
        6
 70
     1
 43
0.0
 10
12269.82755088103
 20
4131.839142453744
 10
12276.32755088103
 20
4135.591919203476
 10
12282.82755088103
 20
4131.839142453744
 10
12282.82755088103
 20
4124.33358895428
 10
12276.32755088103
 20
4120.580812204547
 10
12269.82755088103
 20
4124.33358895428
  0
CIRCLE
  5
2139
330
1A
100
AcDbEntity
  8
細線
100
AcDbCircle
 10
12276.32755088103
 20
4128.086365704012
 30
0.0
 40
8.0
  0
CIRCLE
  5
213A
330
1A
100
AcDbEntity
  8
細線
100
AcDbCircle
 10
12276.32755088103
 20
4128.086365704012
 30
0.0
 40
8.0
  0
LWPOLYLINE
  5
213B
330
1A
100
AcDbEntity
  8
細線
100
AcDbPolyline
 90
        6
 70
     1
 43
0.0
 10
12282.82755088103
 20
4131.839142453744
 10
12276.32755088103
 20
4135.591919203476
 10
12269.82755088103
 20
4131.839142453744
 10
12269.82755088103
 20
4124.33358895428
 10
12276.32755088103
 20
4120.580812204547
 10
12282.82755088103
 20
4124.33358895428
  0
CIRCLE
  5
213C
330
1A
100
AcDbEntity
  8
細線
100
AcDbCircle
 10
12276.32755088103
 20
4128.086365704012
 30
0.0
 40
6.0
  0
CIRCLE
  5
213D
330
1A
100
AcDbEntity
  8
細線
100
AcDbCircle
 10
12276.32755088103
 20
4230.086365704011
 30
0.0
 40
8.0
  0
LWPOLYLINE
  5
213E
330
1A
100
AcDbEntity
  8
細線
100
AcDbPolyline
 90
        6
 70
     1
 43
0.0
 10
12282.82755088103
 20
4233.839142453744
 10
12276.32755088103
 20
4237.591919203476
 10
12269.82755088103
 20
4233.839142453744
 10
12269.82755088103
 20
4226.333588954279
 10
12276.32755088103
 20
4222.580812204546
 10
12282.82755088103
 20
4226.333588954279
  0
CIRCLE
  5
213F
330
1A
100
AcDbEntity
  8
細線
100
AcDbCircle
 10
12276.32755088103
 20
4230.086365704011
 30
0.0
 40
6.0
  0
LINE
  5
2140
330
1A
100
AcDbEntity
  8
部品1
100
AcDbLine
 10
12310.33480702529
 20
4093.086365704012
 30
0.0
 11
12276.32755088103
 21
4093.086365704012
 31
0.0
  0
LINE
  5
2141
330
1A
100
AcDbEntity
  8
部品1
100
AcDbLine
 10
11401.35173698
 20
4264.928881788994
 30
0.0
 11
11988.9971067864
 21
4292.597184617381
 31
0.0
  0
LINE
  5
2142
330
1A
100
AcDbEntity
  8
部品1
100
AcDbLine
 10
10733.99321558941
 20
4293.073332561536
 30
0.0
 11
10764.95891158945
 21
4294.531300748203
 31
0.0
  0
LINE
  5
2143
330
1A
100
AcDbEntity
  8
部品1
100
AcDbLine
 10
10446.24757993306
 20
4277.523093269674
 30
0.0
 11
10813.86971154596
 21
4294.831968633112
 31
0.0
  0
LINE
  5
2144
330
1A
100
AcDbEntity
  8
部品1
100
AcDbLine
 10
10141.86864120838
 20
4339.276111533669
 30
0.0
 11
10142.97387515633
 21
4315.802116178802
 31
0.0
  0
ARC
  5
2145
330
1A
100
AcDbEntity
  8
部品1
100
AcDbCircle
 10
10446.71789225134
 20
4267.534159076112
 30
0.0
 40
10.0
100
AcDbArc
 50
92.69568549357613
 51
182.6956854935736
  0
LINE
  5
2146
330
1A
100
AcDbEntity
  8
部品1
100
AcDbLine
 10
10726.62367128532
 20
4343.282294079874
 30
0.0
 11
10728.76359233349
 21
4297.832643499176
 31
0.0
  0
ARC
  5
2147
330
1A
100
AcDbEntity
  8
部品1
100
AcDbCircle
 10
10733.75805943027
 20
4298.067799658315
 30
0.0
 40
5.0
100
AcDbArc
 50
182.6956854935736
 51
272.6956854935762
  0
LINE
  5
2148
330
1A
100
AcDbEntity
  8
部品1
100
AcDbLine
 10
10721.22319563412
 20
4366.554055137879
 30
0.0
 11
10722.32842958208
 21
4343.080059783015
 31
0.0
  0
ARC
  5
2149
330
1A
100
AcDbEntity
  8
部品1
100
AcDbCircle
 10
10814.34002386424
 20
4284.843034439552
 30
0.0
 40
10.0
100
AcDbArc
 50
2.695685493573654
 51
92.69568549357613
  0
LINE
  5
214A
330
1A
100
AcDbEntity
  8
部品1
100
AcDbLine
 10
10767.57830147891
 20
4345.210574584824
 30
0.0
 11
10769.71822252709
 21
4299.760924004123
 31
0.0
  0
ARC
  5
214B
330
1A
100
AcDbEntity
  8
部品1
100
AcDbCircle
 10
10764.7237554303
 20
4299.525767844983
 30
0.0
 40
5.0
100
AcDbArc
 50
272.695685493524
 51
2.695685493573654
  0
CIRCLE
  5
214C
330
1A
100
AcDbEntity
  8
細線
100
AcDbCircle
 10
10785.19626784055
 20
4265.951462645982
 30
0.0
 40
6.0
  0
LWPOLYLINE
  5
214D
330
1A
100
AcDbEntity
  8
細線
100
AcDbPolyline
 90
        6
 70
     1
 43
0.0
 10
10778.69626784055
 20
4269.704239395712
 10
10785.19626784055
 20
4273.457016145447
 10
10791.69626784055
 20
4269.704239395712
 10
10791.69626784055
 20
4262.198685896247
 10
10785.19626784055
 20
4258.445909146518
 10
10778.69626784055
 20
4262.198685896247
  0
CIRCLE
  5
214E
330
1A
100
AcDbEntity
  8
細線
100
AcDbCircle
 10
10785.19626784055
 20
4265.951462645982
 30
0.0
 40
8.0
  0
LINE
  5
214F
330
1A
100
AcDbEntity
  8
部品1
100
AcDbLine
 10
10770.46864120837
 20
4368.872694867
 30
0.0
 11
10771.57387515633
 21
4345.398699512133
 31
0.0
  0
LINE
  5
2150
330
1A
100
AcDbEntity
  8
部品1
100
AcDbLine
 10
11349.82319563412
 20
4396.150638471215
 30
0.0
 11
11350.92842958208
 21
4372.676643116348
 31
0.0
  0
LINE
  5
2151
330
1A
100
AcDbEntity
  8
部品1
100
AcDbLine
 10
11355.22367128532
 20
4372.878877413208
 30
0.0
 11
11360.50527861961
 21
4260.703146419528
 31
0.0
  0
LINE
  5
2152
330
1A
100
AcDbEntity
  8
部品1
100
AcDbLine
 10
11399.06864120838
 20
4398.469278200336
 30
0.0
 11
11400.17387515634
 21
4374.995282845469
 31
0.0
  0
LINE
  5
2153
330
1A
100
AcDbEntity
  8
部品1
100
AcDbLine
 10
11396.17830147891
 20
4374.807157918156
 30
0.0
 11
11401.4599088132
 21
4262.631426924476
 31
0.0
  0
LINE
  5
2154
330
1A
100
AcDbEntity
  8
部品1
100
AcDbLine
 10
11360.50527861961
 20
4260.703146419528
 30
0.0
 11
11401.4599088132
 21
4262.631426924476
 31
0.0
  0
LINE
  5
2155
330
1A
100
AcDbEntity
  8
部品1
100
AcDbLine
 10
12038.44757993308
 20
4352.489176602998
 30
0.0
 11
12276.32755088103
 21
4363.689358568461
 31
0.0
  0
LINE
  5
2156
330
1A
100
AcDbEntity
  8
部品1
100
AcDbLine
 10
11978.42319563412
 20
4425.747221804548
 30
0.0
 11
11979.52842958208
 21
4402.273226449681
 31
0.0
  0
LINE
  5
2157
330
1A
100
AcDbEntity
  8
部品1
100
AcDbLine
 10
12027.66864120837
 20
4428.065861533669
 30
0.0
 11
12028.77387515634
 21
4404.591866178802
 31
0.0
  0
LINE
  5
2158
330
1A
100
AcDbEntity
  8
部品1
100
AcDbLine
 10
11989.10527861961
 20
4290.299729752862
 30
0.0
 11
12030.0599088132
 21
4292.22801025781
 31
0.0
  0
LINE
  5
2159
330
1A
100
AcDbEntity
  8
部品1
100
AcDbLine
 10
12031.32755088103
 20
4291.086365704011
 30
0.0
 11
12032.92130451543
 21
4291.161404937631
 31
0.0
  0
LINE
  5
215A
330
1A
100
AcDbEntity
  8
部品1
100
AcDbLine
 10
12029.95173697999
 20
4294.525465122329
 30
0.0
 11
12031.16294156963
 21
4294.582492671757
 31
0.0
  0
LINE
  5
215B
330
1A
100
AcDbEntity
  8
部品1
100
AcDbLine
 10
12031.32755088103
 20
4291.086365704013
 30
0.0
 11
12028.9289580578
 21
4342.029930091157
 31
0.0
  0
ARC
  5
215C
330
1A
100
AcDbEntity
  8
部品1
100
AcDbCircle
 10
12038.91789225137
 20
4342.500242409436
 30
0.0
 40
10.0
100
AcDbArc
 50
92.69568549357613
 51
182.6956854935736
  0
LINE
  5
215D
330
1A
100
AcDbEntity
  8
部品1
100
AcDbLine
 10
12024.77830147891
 20
4404.403741251491
 30
0.0
 11
12030.0599088132
 21
4292.22801025781
 31
0.0
  0
LINE
  5
215E
330
1A
100
AcDbEntity
  8
部品1
100
AcDbLine
 10
11983.82367128532
 20
4402.47546074654
 30
0.0
 11
11989.1052786196
 21
4290.299729752862
 31
0.0
  0
CIRCLE
  5
215F
330
1A
100
AcDbEntity
  8
細線
100
AcDbCircle
 10
12051.72765984062
 20
4325.583982352642
 30
0.0
 40
6.0
  0
LWPOLYLINE
  5
2160
330
1A
100
AcDbEntity
  8
細線
100
AcDbPolyline
 90
        6
 70
     1
 43
0.0
 10
12045.22765984063
 20
4329.336759102374
 10
12051.72765984062
 20
4333.089535852106
 10
12058.22765984063
 20
4329.336759102374
 10
12058.22765984063
 20
4321.83120560291
 10
12051.72765984062
 20
4318.078428853177
 10
12045.22765984063
 20
4321.83120560291
  0
CIRCLE
  5
2161
330
1A
100
AcDbEntity
  8
細線
100
AcDbCircle
 10
12051.72765984062
 20
4325.583982352642
 30
0.0
 40
8.0
  0
CIRCLE
  5
2162
330
1A
100
AcDbEntity
  8
細線
100
AcDbCircle
 10
12399.04031314712
 20
4330.381167999098
 30
0.0
 40
8.0
  0
LWPOLYLINE
  5
2163
330
1A
100
AcDbEntity
  8
細線
100
AcDbPolyline
 90
        6
 70
     1
 43
0.0
 10
12405.54031314712
 20
4334.133944748831
 10
12399.04031314712
 20
4337.886721498562
 10
12392.54031314712
 20
4334.133944748831
 10
12392.54031314712
 20
4326.628391249367
 10
12399.04031314712
 20
4322.875614499633
 10
12405.54031314712
 20
4326.628391249367
  0
CIRCLE
  5
2164
330
1A
100
AcDbEntity
  8
細線
100
AcDbCircle
 10
12399.04031314712
 20
4330.381167999098
 30
0.0
 40
6.0
  0
LINE
  5
2165
330
1A
100
AcDbEntity
  8
部品1
100
AcDbLine
 10
12514.20752182898
 20
4352.489176602998
 30
0.0
 11
12276.32755088103
 21
4363.689358568461
 31
0.0
  0
LINE
  5
2166
330
1A
100
AcDbEntity
  8
部品1
100
AcDbLine
 10
12276.32755088103
 20
4554.900949614031
 30
0.0
 11
12276.32755088103
 21
4439.773551864089
 31
0.0
  0
CIRCLE
  5
2167
330
1A
100
AcDbEntity
  8
細線
100
AcDbCircle
 10
12153.61478861494
 20
4330.381167999098
 30
0.0
 40
6.0
  0
LWPOLYLINE
  5
2168
330
1A
100
AcDbEntity
  8
細線
100
AcDbPolyline
 90
        6
 70
     1
 43
0.0
 10
12147.11478861494
 20
4334.133944748831
 10
12153.61478861494
 20
4337.886721498562
 10
12160.11478861494
 20
4334.133944748831
 10
12160.11478861494
 20
4326.628391249367
 10
12153.61478861494
 20
4322.875614499633
 10
12147.11478861494
 20
4326.628391249367
  0
CIRCLE
  5
2169
330
1A
100
AcDbEntity
  8
細線
100
AcDbCircle
 10
12153.61478861494
 20
4330.381167999098
 30
0.0
 40
8.0
  0
LINE
  5
216A
330
1A
100
AcDbEntity
  8
部品1
100
AcDbLine
 10
12276.32755088103
 20
4363.689358568461
 30
0.0
 11
12273.85841121006
 21
4416.131263084666
 31
0.0
  0
CIRCLE
  5
216B
330
1A
100
AcDbEntity
  8
細線
100
AcDbCircle
 10
12255.50191738925
 20
4335.178353645555
 30
0.0
 40
6.0
  0
LWPOLYLINE
  5
216C
330
1A
100
AcDbEntity
  8
細線
100
AcDbPolyline
 90
        6
 70
     1
 43
0.0
 10
12249.00191738925
 20
4338.931130395287
 10
12255.50191738925
 20
4342.683907145019
 10
12262.00191738925
 20
4338.931130395287
 10
12262.00191738925
 20
4331.425576895822
 10
12255.50191738925
 20
4327.672800146091
 10
12249.00191738925
 20
4331.425576895822
  0
CIRCLE
  5
216D
330
1A
100
AcDbEntity
  8
細線
100
AcDbCircle
 10
12255.50191738925
 20
4335.178353645555
 30
0.0
 40
8.0
  0
CIRCLE
  5
216E
330
1A
100
AcDbEntity
  8
細線
100
AcDbCircle
 10
12297.15318437281
 20
4335.178353645555
 30
0.0
 40
8.0
  0
LWPOLYLINE
  5
216F
330
1A
100
AcDbEntity
  8
細線
100
AcDbPolyline
 90
        6
 70
     1
 43
0.0
 10
12303.65318437281
 20
4338.931130395287
 10
12297.15318437281
 20
4342.683907145019
 10
12290.65318437281
 20
4338.931130395287
 10
12290.65318437281
 20
4331.425576895822
 10
12297.15318437281
 20
4327.672800146091
 10
12303.65318437281
 20
4331.425576895822
  0
CIRCLE
  5
2170
330
1A
100
AcDbEntity
  8
細線
100
AcDbCircle
 10
12297.15318437281
 20
4335.178353645555
 30
0.0
 40
6.0
  0
LINE
  5
2171
330
1A
100
AcDbEntity
  8
部品1
100
AcDbLine
 10
12276.32755088103
 20
4363.689358568461
 30
0.0
 11
12278.796690552
 21
4416.131263084666
 31
0.0
  0
LINE
  5
2172
330
1A
100
AcDbEntity
  8
部品1
100
AcDbLine
 10
12568.83143047675
 20
4402.47546074654
 30
0.0
 11
12563.54982314246
 21
4290.299729752862
 31
0.0
  0
CIRCLE
  5
2173
330
1A
100
AcDbEntity
  8
細線
100
AcDbCircle
 10
12500.92744192144
 20
4325.583982352642
 30
0.0
 40
8.0
  0
LWPOLYLINE
  5
2174
330
1A
100
AcDbEntity
  8
細線
100
AcDbPolyline
 90
        6
 70
     1
 43
0.0
 10
12507.42744192144
 20
4329.336759102374
 10
12500.92744192144
 20
4333.089535852106
 10
12494.42744192144
 20
4329.336759102374
 10
12494.42744192144
 20
4321.83120560291
 10
12500.92744192144
 20
4318.078428853177
 10
12507.42744192144
 20
4321.83120560291
  0
CIRCLE
  5
2175
330
1A
100
AcDbEntity
  8
細線
100
AcDbCircle
 10
12500.92744192144
 20
4325.583982352642
 30
0.0
 40
6.0
  0
ARC
  5
2176
330
1A
100
AcDbEntity
  8
部品1
100
AcDbCircle
 10
12513.7372095107
 20
4342.500242409436
 30
0.0
 40
10.0
100
AcDbArc
 50
357.3043145064263
 51
87.3043145064239
  0
LINE
  5
2177
330
1A
100
AcDbEntity
  8
部品1
100
AcDbLine
 10
12521.32755088103
 20
4291.086365704013
 30
0.0
 11
12523.72614370426
 21
4342.029930091157
 31
0.0
  0
LINE
  5
2178
330
1A
100
AcDbEntity
  8
部品1
100
AcDbLine
 10
12521.32755088103
 20
4291.086365704011
 30
0.0
 11
12519.73379724663
 21
4291.161404937631
 31
0.0
  0
LINE
  5
2179
330
1A
100
AcDbEntity
  8
部品1
100
AcDbLine
 10
12522.70336478207
 20
4294.525465122329
 30
0.0
 11
12521.49216019243
 21
4294.582492671757
 31
0.0
  0
LINE
  5
217A
330
1A
100
AcDbEntity
  8
部品1
100
AcDbLine
 10
12563.54982314245
 20
4290.299729752862
 30
0.0
 11
12522.59519294886
 21
4292.22801025781
 31
0.0
  0
LINE
  5
217B
330
1A
100
AcDbEntity
  8
部品1
100
AcDbLine
 10
12527.87680028315
 20
4404.403741251491
 30
0.0
 11
12522.59519294886
 21
4292.22801025781
 31
0.0
  0
LINE
  5
217C
330
1A
100
AcDbEntity
  8
部品1
100
AcDbLine
 10
12524.98646055369
 20
4428.065861533669
 30
0.0
 11
12523.88122660573
 21
4404.591866178802
 31
0.0
  0
LINE
  5
217D
330
1A
100
AcDbEntity
  8
部品1
100
AcDbLine
 10
12574.23190612794
 20
4425.747221804548
 30
0.0
 11
12573.12667217998
 21
4402.273226449681
 31
0.0
  0
DIMENSION
  5
217E
330
1A
100
AcDbEntity
  8
寸法
100
AcDbDimension
  2
*D33
 10
15199.7331280352
 20
4302.129872606418
 30
0.0
 11
15090.41454453201
 21
4545.841656056089
 31
0.0
 70
   161
 71
     5
 42
115.0000000000036
  3
物置仕様図40
100
AcDbAlignedDimension
 13
14640.37633230061
 23
4443.593652822193
 33
0.0
 14
14634.9677406404
 24
4328.72090959625
 34
0.0
  0
DIMENSION
  5
217F
330
1A
100
AcDbEntity
  8
寸法
100
AcDbDimension
  2
*D34
 10
14676.32755088103
 20
4849.668646643564
 30
0.0
 11
14301.32755088103
 21
4949.668646643564
 31
0.0
 70
    32
 71
     5
 42
750.0
  3
物置仕様図40
100
AcDbAlignedDimension
 13
13926.32755088103
 23
4058.920282370678
 33
0.0
 14
14676.32755088103
 24
4441.900949614032
 34
0.0
100
AcDbRotatedDimension
1001
ACAD
1000
DSTYLE
1002
{
1070
    75
1070
     1
1002
}
  0
CIRCLE
  5
2180
330
1A
100
AcDbEntity
  8
細線
100
AcDbCircle
 10
13873.34153637325
 20
4260.966152072213
 30
0.0
 40
8.0
  0
LWPOLYLINE
  5
2181
330
1A
100
AcDbEntity
  8
細線
100
AcDbPolyline
 90
        6
 70
     1
 43
0.0
 10
13879.84153637325
 20
4264.718928821944
 10
13873.34153637325
 20
4268.471705571677
 10
13866.84153637325
 20
4264.718928821944
 10
13866.84153637325
 20
4257.213375322481
 10
13873.34153637325
 20
4253.460598572749
 10
13879.84153637325
 20
4257.213375322481
  0
CIRCLE
  5
2182
330
1A
100
AcDbEntity
  8
細線
100
AcDbCircle
 10
13873.34153637325
 20
4260.966152072213
 30
0.0
 40
6.0
  0
CIRCLE
  5
2183
330
1A
100
AcDbEntity
  8
細線
100
AcDbCircle
 10
13979.22423882498
 20
4255.980841498444
 30
0.0
 40
8.0
  0
LWPOLYLINE
  5
2184
330
1A
100
AcDbEntity
  8
細線
100
AcDbPolyline
 90
        6
 70
     1
 43
0.0
 10
13985.72423882499
 20
4259.733618248177
 10
13979.22423882498
 20
4263.486394997908
 10
13972.72423882498
 20
4259.733618248177
 10
13972.72423882498
 20
4252.228064748713
 10
13979.22423882498
 20
4248.475287998979
 10
13985.72423882499
 20
4252.228064748713
  0
CIRCLE
  5
2185
330
1A
100
AcDbEntity
  8
細線
100
AcDbCircle
 10
13979.22423882498
 20
4255.980841498444
 30
0.0
 40
6.0
  0
CIRCLE
  5
2186
330
1A
100
AcDbEntity
  8
細線
100
AcDbCircle
 10
14085.10694127672
 20
4250.995530924676
 30
0.0
 40
6.0
  0
LWPOLYLINE
  5
2187
330
1A
100
AcDbEntity
  8
細線
100
AcDbPolyline
 90
        6
 70
     1
 43
0.0
 10
14091.60694127672
 20
4254.748307674408
 10
14085.10694127672
 20
4258.501084424141
 10
14078.60694127672
 20
4254.748307674408
 10
14078.60694127672
 20
4247.242754174943
 10
14085.10694127672
 20
4243.489977425212
 10
14091.60694127672
 20
4247.242754174943
  0
CIRCLE
  5
2188
330
1A
100
AcDbEntity
  8
細線
100
AcDbCircle
 10
14085.10694127672
 20
4250.995530924676
 30
0.0
 40
8.0
  0
LINE
  5
2189
330
1A
100
AcDbEntity
  8
部品1
100
AcDbLine
 10
14485.30225783784
 20
4207.099221368149
 30
0.0
 11
14511.18284428633
 21
4308.006715807405
 31
0.0
  0
LINE
  5
218A
330
1A
100
AcDbEntity
  8
部品1
100
AcDbLine
 10
14456.62921731545
 20
4313.591648282885
 30
0.0
 11
14451.31468811889
 21
4200.716691895657
 31
0.0
  0
LINE
  5
218B
330
1A
100
AcDbEntity
  8
部品1
100
AcDbLine
 10
13725.92755088103
 20
4234.369782370679
 30
0.0
 11
13728.32614370426
 21
4285.313346757831
 31
0.0
  0
LINE
  5
218C
330
1A
100
AcDbEntity
  8
部品1
100
AcDbLine
 10
14113.52755088103
 20
4216.120282370678
 30
0.0
 11
14115.92614370428
 21
4267.063846757828
 31
0.0
  0
LINE
  5
218D
330
1A
100
AcDbEntity
  8
部品1
100
AcDbLine
 10
13726.09216019243
 20
4237.865909338425
 30
0.0
 11
13192.25799497566
 21
4263.000601284046
 31
0.0
  0
LINE
  5
218E
330
1A
100
AcDbEntity
  8
部品1
100
AcDbLine
 10
14454.63143047675
 20
4313.68571074654
 30
0.0
 11
14449.34982314246
 21
4201.509979752862
 31
0.0
  0
LINE
  5
218F
330
1A
100
AcDbEntity
  8
部品1
100
AcDbLine
 10
14413.67680028315
 20
4315.613991251491
 30
0.0
 11
14408.39519294886
 21
4203.43826025781
 31
0.0
  0
ARC
  5
2190
330
1A
100
AcDbEntity
  8
部品1
100
AcDbCircle
 10
14065.32755088103
 20
4113.273379352615
 30
0.0
 40
105.0
100
AcDbArc
 50
87.3043145064239
 51
180.0
  0
ARC
  5
2191
330
1A
100
AcDbEntity
  8
部品1
100
AcDbCircle
 10
13772.32755088103
 20
4112.052178921463
 30
0.0
 40
120.0
100
AcDbArc
 50
0.0
 51
87.3043145064239
  0
LINE
  5
2192
330
1A
100
AcDbEntity
  8
部品1
100
AcDbLine
 10
13777.97129870039
 20
4231.919389244183
 30
0.0
 11
13725.92755088103
 21
4234.369782370679
 31
0.0
  0
CIRCLE
  5
2193
330
1A
100
AcDbEntity
  8
細線
100
AcDbCircle
 10
13926.32755088103
 20
4088.92028237068
 30
0.0
 40
8.0
  0
LWPOLYLINE
  5
2194
330
1A
100
AcDbEntity
  8
細線
100
AcDbPolyline
 90
        6
 70
     1
 43
0.0
 10
13932.82755088103
 20
4092.673059120413
 10
13926.32755088103
 20
4096.425835870144
 10
13919.82755088103
 20
4092.673059120413
 10
13919.82755088103
 20
4085.167505620947
 10
13926.32755088103
 20
4081.414728871215
 10
13932.82755088103
 20
4085.167505620947
  0
CIRCLE
  5
2195
330
1A
100
AcDbEntity
  8
細線
100
AcDbCircle
 10
13926.32755088103
 20
4088.92028237068
 30
0.0
 40
6.0
  0
CIRCLE
  5
2196
330
1A
100
AcDbEntity
  8
細線
100
AcDbCircle
 10
13926.32755088103
 20
4173.92028237068
 30
0.0
 40
8.0
  0
LWPOLYLINE
  5
2197
330
1A
100
AcDbEntity
  8
細線
100
AcDbPolyline
 90
        6
 70
     1
 43
0.0
 10
13932.82755088103
 20
4177.673059120412
 10
13926.32755088103
 20
4181.425835870144
 10
13919.82755088103
 20
4177.673059120412
 10
13919.82755088103
 20
4170.167505620947
 10
13926.32755088103
 20
4166.414728871216
 10
13932.82755088103
 20
4170.167505620947
  0
CIRCLE
  5
2198
330
1A
100
AcDbEntity
  8
細線
100
AcDbCircle
 10
13926.32755088103
 20
4173.92028237068
 30
0.0
 40
6.0
  0
LINE
  5
2199
330
1A
100
AcDbEntity
  8
部品1
100
AcDbLine
 10
13960.32755088103
 20
4058.92028237068
 30
0.0
 11
13892.32755088103
 21
4058.92028237068
 31
0.0
  0
LINE
  5
219A
330
1A
100
AcDbEntity
  8
部品1
100
AcDbLine
 10
13960.32755088103
 20
4113.273379352615
 30
0.0
 11
13960.32755088103
 21
4058.92028237068
 31
0.0
  0
LINE
  5
219B
330
1A
100
AcDbEntity
  8
部品1
100
AcDbLine
 10
13892.32755088103
 20
4112.052178921463
 30
0.0
 11
13892.32755088103
 21
4058.920282370678
 31
0.0
  0
LINE
  5
219C
330
1A
100
AcDbEntity
  8
部品1
100
AcDbLine
 10
14408.50336478207
 20
4205.735715122329
 30
0.0
 11
14113.69216019243
 21
4219.616409338424
 31
0.0
  0
LINE
  5
219D
330
1A
100
AcDbEntity
  8
部品1
100
AcDbLine
 10
14113.52755088103
 20
4216.120282370678
 30
0.0
 11
14070.26583022297
 21
4218.157188384995
 31
0.0
  0
ARC
  5
219E
330
1A
100
AcDbEntity
  8
部品1
100
AcDbCircle
 10
14475.61577786036
 20
4209.583593652209
 30
0.0
 40
10.0
100
AcDbArc
 50
267.3043145064239
 51
345.6149453310498
  0
LINE
  5
219F
330
1A
100
AcDbEntity
  8
部品1
100
AcDbLine
 10
14475.14546554208
 20
4199.594659458649
 30
0.0
 11
14451.31468811889
 21
4200.716691895657
 31
0.0
  0
LINE
  5
21A0
330
1A
100
AcDbEntity
  8
部品1
100
AcDbLine
 10
14449.34982314246
 20
4201.509979752862
 30
0.0
 11
14408.39519294886
 21
4203.43826025781
 31
0.0
  0
LINE
  5
21A1
330
1A
100
AcDbEntity
  8
部品1
100
AcDbLine
 10
14451.45578181437
 20
4203.713372153725
 30
0.0
 11
14449.45799497566
 21
4203.807434617381
 31
0.0
  0
LINE
  5
21A2
330
1A
100
AcDbEntity
  8
部品1
100
AcDbLine
 10
14106.407521829
 20
4277.523093269674
 30
0.0
 11
13738.7853902161
 21
4294.831968633112
 31
0.0
  0
LINE
  5
21A3
330
1A
100
AcDbEntity
  8
部品1
100
AcDbLine
 10
13197.43143047674
 20
4372.878877413208
 30
0.0
 11
13192.14982314246
 21
4260.703146419528
 31
0.0
  0
LINE
  5
21A4
330
1A
100
AcDbEntity
  8
部品1
100
AcDbLine
 10
13192.14982314245
 20
4260.703146419528
 30
0.0
 11
13151.19519294886
 21
4262.631426924476
 31
0.0
  0
LINE
  5
21A5
330
1A
100
AcDbEntity
  8
部品1
100
AcDbLine
 10
13156.47680028315
 20
4374.807157918156
 30
0.0
 11
13151.19519294886
 21
4262.631426924476
 31
0.0
  0
LINE
  5
21A6
330
1A
100
AcDbEntity
  8
部品1
100
AcDbLine
 10
13153.58646055369
 20
4398.469278200336
 30
0.0
 11
13152.48122660573
 21
4374.995282845469
 31
0.0
  0
LINE
  5
21A7
330
1A
100
AcDbEntity
  8
部品1
100
AcDbLine
 10
13202.83190612794
 20
4396.150638471215
 30
0.0
 11
13201.72667217998
 21
4372.676643116348
 31
0.0
  0
CIRCLE
  5
21A8
330
1A
100
AcDbEntity
  8
細線
100
AcDbCircle
 10
13767.45883392151
 20
4265.951462645982
 30
0.0
 40
8.0
  0
LWPOLYLINE
  5
21A9
330
1A
100
AcDbEntity
  8
細線
100
AcDbPolyline
 90
        6
 70
     1
 43
0.0
 10
13773.95883392151
 20
4269.704239395712
 10
13767.45883392151
 20
4273.457016145447
 10
13760.95883392151
 20
4269.704239395712
 10
13760.95883392151
 20
4262.198685896247
 10
13767.45883392151
 20
4258.445909146518
 10
13773.95883392151
 20
4262.198685896247
  0
CIRCLE
  5
21AA
330
1A
100
AcDbEntity
  8
細線
100
AcDbCircle
 10
13767.45883392151
 20
4265.951462645982
 30
0.0
 40
6.0
  0
ARC
  5
21AB
330
1A
100
AcDbEntity
  8
部品1
100
AcDbCircle
 10
13818.89704233179
 20
4298.067799658315
 30
0.0
 40
5.0
100
AcDbArc
 50
267.3043145064239
 51
357.3043145064263
  0
ARC
  5
21AC
330
1A
100
AcDbEntity
  8
部品1
100
AcDbCircle
 10
13787.93134633176
 20
4299.525767844983
 30
0.0
 40
5.0
100
AcDbArc
 50
177.3043145064263
 51
267.3043145064759
  0
ARC
  5
21AD
330
1A
100
AcDbEntity
  8
部品1
100
AcDbCircle
 10
13738.31507789782
 20
4284.843034439552
 30
0.0
 40
10.0
100
AcDbArc
 50
87.3043145064239
 51
177.3043145064263
  0
LINE
  5
21AE
330
1A
100
AcDbEntity
  8
部品1
100
AcDbLine
 10
13818.66188617265
 20
4293.073332561536
 30
0.0
 11
13787.69619017262
 21
4294.531300748203
 31
0.0
  0
LINE
  5
21AF
330
1A
100
AcDbEntity
  8
部品1
100
AcDbLine
 10
13826.03143047674
 20
4343.282294079874
 30
0.0
 11
13823.89150942857
 21
4297.832643499176
 31
0.0
  0
LINE
  5
21B0
330
1A
100
AcDbEntity
  8
部品1
100
AcDbLine
 10
13785.07680028315
 20
4345.210574584824
 30
0.0
 11
13782.93687923498
 21
4299.760924004123
 31
0.0
  0
LINE
  5
21B1
330
1A
100
AcDbEntity
  8
部品1
100
AcDbLine
 10
13782.18646055369
 20
4368.872694867
 30
0.0
 11
13781.08122660573
 21
4345.398699512133
 31
0.0
  0
LINE
  5
21B2
330
1A
100
AcDbEntity
  8
部品1
100
AcDbLine
 10
13831.43190612794
 20
4366.554055137879
 30
0.0
 11
13830.32667217998
 21
4343.080059783015
 31
0.0
  0
ARC
  5
21B3
330
1A
100
AcDbEntity
  8
部品1
100
AcDbCircle
 10
14105.93720951072
 20
4267.534159076112
 30
0.0
 40
10.0
100
AcDbArc
 50
357.3043145064263
 51
87.3043145064239
  0
ARC
  5
21B4
330
1A
100
AcDbEntity
  8
部品1
100
AcDbCircle
 10
14506.33960429759
 20
4309.248901949435
 30
0.0
 40
5.0
100
AcDbArc
 50
345.6149453310498
 51
87.3043145064239
  0
LINE
  5
21B5
330
1A
100
AcDbEntity
  8
部品1
100
AcDbLine
 10
14506.57476045673
 20
4314.243369046215
 30
0.0
 11
14459.06776587546
 21
4316.480156707748
 31
0.0
  0
LINE
  5
21B6
330
1A
100
AcDbEntity
  8
部品1
100
AcDbLine
 10
14410.78646055369
 20
4339.276111533669
 30
0.0
 11
14409.68122660573
 21
4315.802116178802
 31
0.0
  0
LINE
  5
21B7
330
1A
100
AcDbEntity
  8
部品1
100
AcDbLine
 10
14460.03190612794
 20
4336.957471804548
 30
0.0
 11
14458.92667217998
 21
4313.483476449681
 31
0.0
  0
LINE
  5
21B8
330
1A
100
AcDbEntity
  8
部品1
100
AcDbLine
 10
14653.33910878918
 20
4442.983322095857
 30
0.0
 11
14643.93494345153
 21
4328.298703797226
 31
0.0
  0
ARC
  5
21B9
330
1A
100
AcDbEntity
  8
部品1
100
AcDbCircle
 10
14662.27100405182
 20
4429.548377209132
 30
0.0
 40
13.0
100
AcDbArc
 50
355.3122209335249
 51
87.3043145064239
  0
ARC
  5
21BA
330
1A
100
AcDbEntity
  8
部品1
100
AcDbCircle
 10
14654.99299783398
 20
4340.792455221497
 30
0.0
 40
13.0
100
AcDbArc
 50
267.3043145064239
 51
355.3122209335249
  0
LINE
  5
21BB
330
1A
100
AcDbEntity
  8
部品1
100
AcDbLine
 10
14675.22751698825
 20
4428.485940139005
 30
0.0
 11
14667.94951077042
 21
4339.730018151371
 31
0.0
  0
LINE
  5
21BC
330
1A
100
AcDbEntity
  8
寸法
100
AcDbLine
 10
9296.483483459029
 20
4554.900949614031
 30
0.0
 11
9296.483483459029
 21
4854.900949614031
 31
0.0
  0
LINE
  5
21BD
330
1A
100
AcDbEntity
  8
寸法
100
AcDbLine
 10
8633.537714463043
 20
10706.70309759781
 30
0.0
 11
8633.537714463043
 21
11006.70309759781
 31
0.0
  0
LINE
  5
21BE
330
1A
100
AcDbEntity
  8
寸法
100
AcDbLine
 10
8633.537714463043
 20
5906.703097597816
 30
0.0
 11
8633.537714463043
 21
5606.703097597816
 31
0.0
  0
LINE
  5
21BF
330
1A
100
AcDbEntity
  8
仕様書枠
 48
50.0
100
AcDbLine
 10
128.8000000000011
 20
264.0
 30
0.0
 11
16296.0
 21
264.0
 31
0.0
  0
LINE
  5
21C0
330
1A
100
AcDbEntity
  8
仕様書枠
 48
50.0
100
AcDbLine
 10
13096.0
 20
1064.0
 30
0.0
 11
14240.0
 21
1064.0
 31
0.0
  0
TEXT
  5
21C1
330
1A
100
AcDbEntity
  8
文字
 62
     7
 48
50.0
100
AcDbText
 10
13190.23669998441
 20
741.2740661031238
 30
0.0
 40
160.0
  1
機種名
  7
STYLE2
100
AcDbText
  0
TEXT
  5
21C2
330
1A
100
AcDbEntity
  8
文字
 62
     7
 48
50.0
100
AcDbText
 10
13151.7790565769
 20
1159.090607429938
 30
0.0
 40
200.0
  1
外 形 図
  7
STYLE2
100
AcDbText
  0
LINE
  5
21C3
330
1A
100
AcDbEntity
  8
文字
 62
     7
 48
50.0
100
AcDbLine
 10
13176.0
 20
664.0
 30
0.0
 11
16216.0
 21
664.0
 31
0.0
  0
LINE
  5
21C4
330
1A
100
AcDbEntity
  8
仕様書枠
 48
50.0
100
AcDbLine
 10
13096.0
 20
1464.0
 30
0.0
 11
16296.0
 21
1464.0
 31
0.0
  0
LINE
  5
21C5
330
1A
100
AcDbEntity
  8
仕様書枠
  6
Continuous
 48
50.0
100
AcDbLine
 10
13096.0
 20
1464.0
 30
0.0
 11
13096.0
 21
264.0
 31
0.0
  0
TEXT
  5
21C6
330
1A
100
AcDbEntity
  8
文字
 62
     7
 48
50.0
100
AcDbText
 10
14840.42318972916
 20
1102.252727072919
 30
0.0
 40
100.0
  1
～多雪地型 ～
  7
STYLE2
100
AcDbText
  0
TEXT
  5
21C7
330
1A
100
AcDbEntity
  8
文字
 62
     7
 48
50.0
100
AcDbText
 10
14662.28189335253
 20
747.8967129911434
 30
0.0
 40
160.0
  1
BF-２８AL
  7
MSGOTHIC
100
AcDbText
  0
LINE
  5
21C8
330
1A
100
AcDbEntity
  8
仕様書枠
  6
Continuous
 48
50.0
100
AcDbLine
 10
14240.0
 20
1464.0
 30
0.0
 11
14240.0
 21
1064.0
 31
0.0
  0
LINE
  5
21C9
330
1A
100
AcDbEntity
  8
仕様書枠
 48
50.0
100
AcDbLine
 10
16296.0
 20
1464.0
 30
0.0
 11
16296.0
 21
264.0
 31
0.0
  0
LINE
  5
21CA
330
1A
100
AcDbEntity
  8
部品1
100
AcDbLine
 10
3171.084791275922
 20
4526.934067956793
 30
0.0
 11
3308.084791275922
 21
4526.934067956793
 31
0.0
  0
LINE
  5
21CB
330
1A
100
AcDbEntity
  8
部品1
100
AcDbLine
 10
2346.084791275922
 20
4526.934067956793
 30
0.0
 11
2556.584791275922
 21
4526.934067956793
 31
0.0
  0
LINE
  5
21CC
330
1A
100
AcDbEntity
  8
部品1
100
AcDbLine
 10
2011.084791275922
 20
4526.934067956793
 30
0.0
 11
2228.084791275922
 21
4526.934067956793
 31
0.0
  0
LINE
  5
21CD
330
1A
100
AcDbEntity
  8
部品1
100
AcDbLine
 10
1976.584791275922
 20
4544.934067956794
 30
0.0
 11
1976.584791275922
 21
4441.900949614032
 31
0.0
  0
LINE
  5
21CE
330
1A
100
AcDbEntity
  8
部品1
100
AcDbLine
 10
2011.084791275922
 20
4544.934067956794
 30
0.0
 11
2011.084791275922
 21
4441.900949614032
 31
0.0
  0
LINE
  5
21CF
330
1A
100
AcDbEntity
  8
部品1
100
AcDbLine
 10
2011.084791275922
 20
4544.93406795679
 30
0.0
 11
1976.584791275922
 21
4544.93406795679
 31
0.0
  0
LINE
  5
21D0
330
1A
100
AcDbEntity
  8
部品1
100
AcDbLine
 10
1963.084791275922
 20
4526.934067956793
 30
0.0
 11
1976.584791275922
 21
4526.934067956793
 31
0.0
  0
LINE
  5
21D1
330
1A
100
AcDbEntity
  8
部品1
100
AcDbLine
 10
2301.084791275922
 20
4544.934067956794
 30
0.0
 11
2301.084791275922
 21
4441.900949614032
 31
0.0
  0
LINE
  5
21D2
330
1A
100
AcDbEntity
  8
部品1
100
AcDbLine
 10
2346.084791275922
 20
4544.934067956792
 30
0.0
 11
2346.084791275922
 21
4441.900949614032
 31
0.0
  0
LINE
  5
21D3
330
1A
100
AcDbEntity
  8
部品1
100
AcDbLine
 10
2346.084791275922
 20
4544.93406795679
 30
0.0
 11
2301.084791275922
 21
4544.93406795679
 31
0.0
  0
LINE
  5
21D4
330
1A
100
AcDbEntity
  8
部品1
100
AcDbLine
 10
2228.08479127592
 20
4544.934067956794
 30
0.0
 11
2228.084791275922
 21
4441.900949614032
 31
0.0
  0
LINE
  5
21D5
330
1A
100
AcDbEntity
  8
部品1
100
AcDbLine
 10
2273.084791275922
 20
4544.934067956794
 30
0.0
 11
2273.084791275924
 21
4441.900949614032
 31
0.0
  0
LINE
  5
21D6
330
1A
100
AcDbEntity
  8
部品1
100
AcDbLine
 10
2273.084791275922
 20
4544.93406795679
 30
0.0
 11
2228.08479127592
 21
4544.93406795679
 31
0.0
  0
LINE
  5
21D7
330
1A
100
AcDbEntity
  8
部品1
100
AcDbLine
 10
2273.084791275924
 20
4526.934067956793
 30
0.0
 11
2301.084791275922
 21
4526.934067956793
 31
0.0
  0
LINE
  5
21D8
330
1A
100
AcDbEntity
  8
部品1
100
AcDbLine
 10
2853.084791275922
 20
4526.934067956793
 30
0.0
 11
2881.084791275922
 21
4526.934067956793
 31
0.0
  0
LINE
  5
21D9
330
1A
100
AcDbEntity
  8
部品1
100
AcDbLine
 10
2591.084791275922
 20
4526.934067956793
 30
0.0
 11
2808.084791275922
 21
4526.934067956793
 31
0.0
  0
LINE
  5
21DA
330
1A
100
AcDbEntity
  8
部品1
100
AcDbLine
 10
2556.584791275922
 20
4544.934067956792
 30
0.0
 11
2556.584791275924
 21
4441.900949614032
 31
0.0
  0
LINE
  5
21DB
330
1A
100
AcDbEntity
  8
部品1
100
AcDbLine
 10
2591.084791275922
 20
4544.934067956792
 30
0.0
 11
2591.084791275922
 21
4441.900949614032
 31
0.0
  0
LINE
  5
21DC
330
1A
100
AcDbEntity
  8
部品1
100
AcDbLine
 10
2591.084791275922
 20
4544.93406795679
 30
0.0
 11
2556.584791275922
 21
4544.93406795679
 31
0.0
  0
LINE
  5
21DD
330
1A
100
AcDbEntity
  8
部品1
100
AcDbLine
 10
2808.084791275922
 20
4544.934067956792
 30
0.0
 11
2808.084791275922
 21
4441.900949614032
 31
0.0
  0
LINE
  5
21DE
330
1A
100
AcDbEntity
  8
部品1
100
AcDbLine
 10
2853.084791275922
 20
4544.934067956792
 30
0.0
 11
2853.084791275922
 21
4441.900949614032
 31
0.0
  0
LINE
  5
21DF
330
1A
100
AcDbEntity
  8
部品1
100
AcDbLine
 10
2853.084791275922
 20
4544.93406795679
 30
0.0
 11
2808.084791275922
 21
4544.93406795679
 31
0.0
  0
LINE
  5
21E0
330
1A
100
AcDbEntity
  8
部品1
100
AcDbLine
 10
2926.084791275922
 20
4526.934067956793
 30
0.0
 11
3136.584791275924
 21
4526.934067956793
 31
0.0
  0
LINE
  5
21E1
330
1A
100
AcDbEntity
  8
部品1
100
AcDbLine
 10
2881.084791275922
 20
4544.934067956794
 30
0.0
 11
2881.084791275922
 21
4441.900949614029
 31
0.0
  0
LINE
  5
21E2
330
1A
100
AcDbEntity
  8
部品1
100
AcDbLine
 10
2926.084791275922
 20
4544.934067956794
 30
0.0
 11
2926.084791275922
 21
4441.900949614029
 31
0.0
  0
LINE
  5
21E3
330
1A
100
AcDbEntity
  8
部品1
100
AcDbLine
 10
2926.084791275922
 20
4544.93406795679
 30
0.0
 11
2881.084791275922
 21
4544.93406795679
 31
0.0
  0
LINE
  5
21E4
330
1A
100
AcDbEntity
  8
部品1
100
AcDbLine
 10
3136.584791275924
 20
4544.93406795679
 30
0.0
 11
3136.584791275922
 21
4441.900949614028
 31
0.0
  0
LINE
  5
21E5
330
1A
100
AcDbEntity
  8
部品1
100
AcDbLine
 10
3171.084791275922
 20
4544.934067956792
 30
0.0
 11
3171.084791275922
 21
4441.900949614032
 31
0.0
  0
LINE
  5
21E6
330
1A
100
AcDbEntity
  8
部品1
100
AcDbLine
 10
3171.084791275922
 20
4544.93406795679
 30
0.0
 11
3136.584791275924
 21
4544.93406795679
 31
0.0
  0
LINE
  5
21E7
330
1A
100
AcDbEntity
  8
部品1
100
AcDbLine
 10
5925.084791275929
 20
4526.934067956793
 30
0.0
 11
5788.084791275926
 21
4526.934067956793
 31
0.0
  0
LINE
  5
21E8
330
1A
100
AcDbEntity
  8
部品1
100
AcDbLine
 10
4431.084791275922
 20
4526.934067956792
 30
0.0
 11
4568.084791275925
 21
4526.934067956792
 31
0.0
  0
LINE
  5
21E9
330
1A
100
AcDbEntity
  8
部品1
100
AcDbLine
 10
3846.084791275933
 20
4526.934067956793
 30
0.0
 11
3976.584791275918
 21
4526.934067956793
 31
0.0
  0
LINE
  5
21EA
330
1A
100
AcDbEntity
  8
部品1
100
AcDbLine
 10
3426.084791275926
 20
4526.934067956793
 30
0.0
 11
3556.584791275918
 21
4526.934067956793
 31
0.0
  0
LINE
  5
21EB
330
1A
100
AcDbEntity
  8
部品1
100
AcDbLine
 10
3353.084791275922
 20
4526.934067956793
 30
0.0
 11
3381.084791275922
 21
4526.934067956793
 31
0.0
  0
LINE
  5
21EC
330
1A
100
AcDbEntity
  8
部品1
100
AcDbLine
 10
3353.084791275922
 20
4544.934067956792
 30
0.0
 11
3353.084791275922
 21
4441.900949614032
 31
0.0
  0
LINE
  5
21ED
330
1A
100
AcDbEntity
  8
部品1
100
AcDbLine
 10
3308.084791275922
 20
4544.934067956792
 30
0.0
 11
3308.084791275922
 21
4441.900949614032
 31
0.0
  0
LINE
  5
21EE
330
1A
100
AcDbEntity
  8
部品1
100
AcDbLine
 10
3353.084791275922
 20
4544.93406795679
 30
0.0
 11
3308.084791275922
 21
4544.93406795679
 31
0.0
  0
LINE
  5
21EF
330
1A
100
AcDbEntity
  8
部品1
100
AcDbLine
 10
3381.084791275922
 20
4544.934067956792
 30
0.0
 11
3381.084791275922
 21
4441.900949614032
 31
0.0
  0
LINE
  5
21F0
330
1A
100
AcDbEntity
  8
部品1
100
AcDbLine
 10
3426.084791275926
 20
4544.934067956792
 30
0.0
 11
3426.084791275926
 21
4441.900949614032
 31
0.0
  0
LINE
  5
21F1
330
1A
100
AcDbEntity
  8
部品1
100
AcDbLine
 10
3426.084791275926
 20
4544.93406795679
 30
0.0
 11
3381.084791275922
 21
4544.93406795679
 31
0.0
  0
LINE
  5
21F2
330
1A
100
AcDbEntity
  8
部品1
100
AcDbLine
 10
3591.084791275922
 20
4526.934067956793
 30
0.0
 11
3728.084791275927
 21
4526.934067956793
 31
0.0
  0
LINE
  5
21F3
330
1A
100
AcDbEntity
  8
部品1
100
AcDbLine
 10
3556.58479127592
 20
4544.934067956792
 30
0.0
 11
3556.58479127592
 21
4441.900949614032
 31
0.0
  0
LINE
  5
21F4
330
1A
100
AcDbEntity
  8
部品1
100
AcDbLine
 10
3591.084791275922
 20
4544.934067956792
 30
0.0
 11
3591.084791275922
 21
4441.900949614032
 31
0.0
  0
LINE
  5
21F5
330
1A
100
AcDbEntity
  8
部品1
100
AcDbLine
 10
3591.084791275922
 20
4544.934067956789
 30
0.0
 11
3556.58479127592
 21
4544.93406795679
 31
0.0
  0
LINE
  5
21F6
330
1A
100
AcDbEntity
  8
部品1
100
AcDbLine
 10
3773.084791275927
 20
4544.934067956792
 30
0.0
 11
3773.084791275927
 21
4441.900949614032
 31
0.0
  0
LINE
  5
21F7
330
1A
100
AcDbEntity
  8
部品1
100
AcDbLine
 10
3801.084791275926
 20
4544.934067956792
 30
0.0
 11
3801.084791275928
 21
4441.900949614032
 31
0.0
  0
LINE
  5
21F8
330
1A
100
AcDbEntity
  8
部品1
100
AcDbLine
 10
3846.084791275933
 20
4544.934067956794
 30
0.0
 11
3846.084791275933
 21
4441.900949614035
 31
0.0
  0
LINE
  5
21F9
330
1A
100
AcDbEntity
  8
部品1
100
AcDbLine
 10
3846.084791275931
 20
4544.934067956789
 30
0.0
 11
3801.084791275926
 21
4544.934067956789
 31
0.0
  0
LINE
  5
21FA
330
1A
100
AcDbEntity
  8
部品1
100
AcDbLine
 10
3773.084791275929
 20
4526.934067956793
 30
0.0
 11
3801.084791275928
 21
4526.934067956793
 31
0.0
  0
LINE
  5
21FB
330
1A
100
AcDbEntity
  8
部品1
100
AcDbLine
 10
3728.084791275929
 20
4544.934067956792
 30
0.0
 11
3728.084791275929
 21
4441.900949614032
 31
0.0
  0
LINE
  5
21FC
330
1A
100
AcDbEntity
  8
部品1
100
AcDbLine
 10
3773.084791275927
 20
4544.934067956789
 30
0.0
 11
3728.084791275929
 21
4544.934067956789
 31
0.0
  0
LINE
  5
21FD
330
1A
100
AcDbEntity
  8
部品1
100
AcDbLine
 10
4193.084791275925
 20
4544.934067956789
 30
0.0
 11
4148.084791275925
 21
4544.93406795679
 31
0.0
  0
LINE
  5
21FE
330
1A
100
AcDbEntity
  8
部品1
100
AcDbLine
 10
4011.084791275922
 20
4526.934067956793
 30
0.0
 11
4148.084791275925
 21
4526.934067956793
 31
0.0
  0
LINE
  5
21FF
330
1A
100
AcDbEntity
  8
部品1
100
AcDbLine
 10
3976.584791275918
 20
4544.934067956792
 30
0.0
 11
3976.584791275918
 21
4441.900949614032
 31
0.0
  0
LINE
  5
2200
330
1A
100
AcDbEntity
  8
部品1
100
AcDbLine
 10
4011.084791275922
 20
4544.934067956792
 30
0.0
 11
4011.084791275922
 21
4441.900949614032
 31
0.0
  0
LINE
  5
2201
330
1A
100
AcDbEntity
  8
部品1
100
AcDbLine
 10
4011.084791275922
 20
4544.93406795679
 30
0.0
 11
3976.584791275918
 21
4544.93406795679
 31
0.0
  0
LINE
  5
2202
330
1A
100
AcDbEntity
  8
部品1
100
AcDbLine
 10
4148.084791275925
 20
4544.93406795679
 30
0.0
 11
4148.084791275925
 21
4441.900949614032
 31
0.0
  0
LINE
  5
2203
330
1A
100
AcDbEntity
  8
部品1
100
AcDbLine
 10
4266.084791275925
 20
4526.934067956793
 30
0.0
 11
4396.584791275921
 21
4526.934067956792
 31
0.0
  0
LINE
  5
2204
330
1A
100
AcDbEntity
  8
部品1
100
AcDbLine
 10
4266.084791275927
 20
4544.93406795679
 30
0.0
 11
4266.084791275925
 21
4441.900949614032
 31
0.0
  0
LINE
  5
2205
330
1A
100
AcDbEntity
  8
部品1
100
AcDbLine
 10
4193.084791275925
 20
4544.93406795679
 30
0.0
 11
4193.084791275925
 21
4441.900949614032
 31
0.0
  0
LINE
  5
2206
330
1A
100
AcDbEntity
  8
部品1
100
AcDbLine
 10
4221.084791275925
 20
4544.93406795679
 30
0.0
 11
4221.084791275923
 21
4441.900949614032
 31
0.0
  0
LINE
  5
2207
330
1A
100
AcDbEntity
  8
部品1
100
AcDbLine
 10
4193.084791275925
 20
4526.934067956793
 30
0.0
 11
4221.084791275923
 21
4526.934067956793
 31
0.0
  0
LINE
  5
2208
330
1A
100
AcDbEntity
  8
部品1
100
AcDbLine
 10
4266.084791275925
 20
4544.934067956789
 30
0.0
 11
4221.084791275925
 21
4544.934067956789
 31
0.0
  0
LINE
  5
2209
330
1A
100
AcDbEntity
  8
部品1
100
AcDbLine
 10
4431.08479127592
 20
4544.934067956789
 30
0.0
 11
4396.584791275918
 21
4544.934067956789
 31
0.0
  0
LINE
  5
220A
330
1A
100
AcDbEntity
  8
部品1
100
AcDbLine
 10
4431.08479127592
 20
4544.93406795679
 30
0.0
 11
4431.08479127592
 21
4441.900949614029
 31
0.0
  0
LINE
  5
220B
330
1A
100
AcDbEntity
  8
部品1
100
AcDbLine
 10
4396.584791275918
 20
4544.93406795679
 30
0.0
 11
4396.584791275918
 21
4441.900949614029
 31
0.0
  0
LINE
  5
220C
330
1A
100
AcDbEntity
  8
部品1
100
AcDbLine
 10
5250.084791275925
 20
4526.934067956792
 30
0.0
 11
5119.584791275929
 21
4526.93406795679
 31
0.0
  0
LINE
  5
220D
330
1A
100
AcDbEntity
  8
部品1
100
AcDbLine
 10
4851.084791275927
 20
4544.934067956789
 30
0.0
 11
4816.584791275925
 21
4544.934067956787
 31
0.0
  0
LINE
  5
220E
330
1A
100
AcDbEntity
  8
部品1
100
AcDbLine
 10
4686.084791275925
 20
4544.934067956787
 30
0.0
 11
4641.084791275924
 21
4544.934067956787
 31
0.0
  0
LINE
  5
220F
330
1A
100
AcDbEntity
  8
部品1
100
AcDbLine
 10
4613.084791275923
 20
4526.934067956792
 30
0.0
 11
4641.084791275921
 21
4526.934067956792
 31
0.0
  0
LINE
  5
2210
330
1A
100
AcDbEntity
  8
部品1
100
AcDbLine
 10
4641.084791275924
 20
4544.93406795679
 30
0.0
 11
4641.084791275921
 21
4441.900949614029
 31
0.0
  0
LINE
  5
2211
330
1A
100
AcDbEntity
  8
部品1
100
AcDbLine
 10
4613.084791275923
 20
4544.93406795679
 30
0.0
 11
4613.084791275923
 21
4441.900949614029
 31
0.0
  0
LINE
  5
2212
330
1A
100
AcDbEntity
  8
部品1
100
AcDbLine
 10
4568.084791275925
 20
4544.93406795679
 30
0.0
 11
4568.084791275925
 21
4441.900949614029
 31
0.0
  0
LINE
  5
2213
330
1A
100
AcDbEntity
  8
部品1
100
AcDbLine
 10
4613.084791275923
 20
4544.934067956787
 30
0.0
 11
4568.084791275925
 21
4544.934067956789
 31
0.0
  0
LINE
  5
2214
330
1A
100
AcDbEntity
  8
部品1
100
AcDbLine
 10
4686.084791275925
 20
4544.93406795679
 30
0.0
 11
4686.084791275925
 21
4441.900949614029
 31
0.0
  0
LINE
  5
2215
330
1A
100
AcDbEntity
  8
部品1
100
AcDbLine
 10
4686.084791275925
 20
4526.934067956792
 30
0.0
 11
4816.584791275921
 21
4526.93406795679
 31
0.0
  0
LINE
  5
2216
330
1A
100
AcDbEntity
  8
部品1
100
AcDbLine
 10
4816.584791275925
 20
4544.93406795679
 30
0.0
 11
4816.584791275925
 21
4441.900949614032
 31
0.0
  0
LINE
  5
2217
330
1A
100
AcDbEntity
  8
部品1
100
AcDbLine
 10
5085.084791275924
 20
4526.93406795679
 30
0.0
 11
4998.084791275924
 21
4526.934067956792
 31
0.0
  0
LINE
  5
2218
330
1A
100
AcDbEntity
  8
部品1
100
AcDbLine
 10
4938.084791275923
 20
4526.93406795679
 30
0.0
 11
4851.084791275927
 21
4526.93406795679
 31
0.0
  0
LINE
  5
2219
330
1A
100
AcDbEntity
  8
部品1
100
AcDbLine
 10
4938.084791275923
 20
4544.93406795679
 30
0.0
 11
4998.084791275921
 21
4544.93406795679
 31
0.0
  0
LINE
  5
221A
330
1A
100
AcDbEntity
  8
部品1
100
AcDbLine
 10
4851.084791275925
 20
4544.93406795679
 30
0.0
 11
4851.084791275925
 21
4441.900949614032
 31
0.0
  0
LINE
  5
221B
330
1A
100
AcDbEntity
  8
部品1
100
AcDbLine
 10
4998.084791275924
 20
4544.934067956789
 30
0.0
 11
4998.084791275921
 21
4441.900949614032
 31
0.0
  0
LINE
  5
221C
330
1A
100
AcDbEntity
  8
部品1
100
AcDbLine
 10
4938.084791275923
 20
4544.93406795679
 30
0.0
 11
4938.084791275922
 21
4441.900949614029
 31
0.0
  0
LINE
  5
221D
330
1A
100
AcDbEntity
  8
部品1
100
AcDbLine
 10
5119.584791275926
 20
4544.93406795679
 30
0.0
 11
5085.084791275925
 21
4544.93406795679
 31
0.0
  0
LINE
  5
221E
330
1A
100
AcDbEntity
  8
部品1
100
AcDbLine
 10
5119.584791275926
 20
4544.93406795679
 30
0.0
 11
5119.584791275926
 21
4441.900949614032
 31
0.0
  0
LINE
  5
221F
330
1A
100
AcDbEntity
  8
部品1
100
AcDbLine
 10
5085.084791275925
 20
4544.93406795679
 30
0.0
 11
5085.084791275925
 21
4441.900949614032
 31
0.0
  0
LINE
  5
2220
330
1A
100
AcDbEntity
  8
部品1
100
AcDbLine
 10
5505.08479127593
 20
4526.934067956792
 30
0.0
 11
5368.084791275926
 21
4526.934067956792
 31
0.0
  0
LINE
  5
2221
330
1A
100
AcDbEntity
  8
部品1
100
AcDbLine
 10
5368.084791275926
 20
4544.93406795679
 30
0.0
 11
5323.084791275928
 21
4544.93406795679
 31
0.0
  0
LINE
  5
2222
330
1A
100
AcDbEntity
  8
部品1
100
AcDbLine
 10
5323.084791275928
 20
4526.934067956792
 30
0.0
 11
5295.084791275929
 21
4526.934067956792
 31
0.0
  0
LINE
  5
2223
330
1A
100
AcDbEntity
  8
部品1
100
AcDbLine
 10
5295.084791275929
 20
4544.93406795679
 30
0.0
 11
5250.084791275925
 21
4544.93406795679
 31
0.0
  0
LINE
  5
2224
330
1A
100
AcDbEntity
  8
部品1
100
AcDbLine
 10
5323.084791275928
 20
4544.93406795679
 30
0.0
 11
5323.084791275928
 21
4441.900949614029
 31
0.0
  0
LINE
  5
2225
330
1A
100
AcDbEntity
  8
部品1
100
AcDbLine
 10
5295.084791275927
 20
4544.93406795679
 30
0.0
 11
5295.084791275929
 21
4441.900949614029
 31
0.0
  0
LINE
  5
2226
330
1A
100
AcDbEntity
  8
部品1
100
AcDbLine
 10
5250.084791275925
 20
4544.93406795679
 30
0.0
 11
5250.084791275925
 21
4441.900949614029
 31
0.0
  0
LINE
  5
2227
330
1A
100
AcDbEntity
  8
部品1
100
AcDbLine
 10
5368.084791275926
 20
4544.93406795679
 30
0.0
 11
5368.084791275926
 21
4441.900949614029
 31
0.0
  0
LINE
  5
2228
330
1A
100
AcDbEntity
  8
部品1
100
AcDbLine
 10
5670.084791275925
 20
4526.934067956793
 30
0.0
 11
5539.584791275929
 21
4526.934067956792
 31
0.0
  0
LINE
  5
2229
330
1A
100
AcDbEntity
  8
部品1
100
AcDbLine
 10
5539.584791275933
 20
4544.93406795679
 30
0.0
 11
5505.084791275931
 21
4544.93406795679
 31
0.0
  0
LINE
  5
222A
330
1A
100
AcDbEntity
  8
部品1
100
AcDbLine
 10
5539.584791275933
 20
4544.93406795679
 30
0.0
 11
5539.584791275933
 21
4441.900949614029
 31
0.0
  0
LINE
  5
222B
330
1A
100
AcDbEntity
  8
部品1
100
AcDbLine
 10
5505.084791275931
 20
4544.93406795679
 30
0.0
 11
5505.084791275931
 21
4441.900949614029
 31
0.0
  0
LINE
  5
222C
330
1A
100
AcDbEntity
  8
部品1
100
AcDbLine
 10
5788.084791275926
 20
4544.93406795679
 30
0.0
 11
5788.084791275926
 21
4441.900949614032
 31
0.0
  0
LINE
  5
222D
330
1A
100
AcDbEntity
  8
部品1
100
AcDbLine
 10
5670.084791275924
 20
4544.93406795679
 30
0.0
 11
5670.084791275925
 21
4441.900949614032
 31
0.0
  0
LINE
  5
222E
330
1A
100
AcDbEntity
  8
部品1
100
AcDbLine
 10
5715.084791275925
 20
4544.93406795679
 30
0.0
 11
5715.084791275927
 21
4441.900949614032
 31
0.0
  0
LINE
  5
222F
330
1A
100
AcDbEntity
  8
部品1
100
AcDbLine
 10
5743.084791275926
 20
4544.93406795679
 30
0.0
 11
5743.084791275926
 21
4441.900949614032
 31
0.0
  0
LINE
  5
2230
330
1A
100
AcDbEntity
  8
部品1
100
AcDbLine
 10
5715.084791275927
 20
4544.93406795679
 30
0.0
 11
5670.084791275925
 21
4544.93406795679
 31
0.0
  0
LINE
  5
2231
330
1A
100
AcDbEntity
  8
部品1
100
AcDbLine
 10
5743.084791275926
 20
4526.934067956793
 30
0.0
 11
5715.084791275927
 21
4526.934067956793
 31
0.0
  0
LINE
  5
2232
330
1A
100
AcDbEntity
  8
部品1
100
AcDbLine
 10
5788.084791275926
 20
4544.93406795679
 30
0.0
 11
5743.084791275926
 21
4544.93406795679
 31
0.0
  0
LINE
  5
2233
330
1A
100
AcDbEntity
  8
部品1
100
AcDbLine
 10
7345.084791275929
 20
4526.934067956793
 30
0.0
 11
7128.08479127593
 21
4526.934067956793
 31
0.0
  0
LINE
  5
2234
330
1A
100
AcDbEntity
  8
部品1
100
AcDbLine
 10
6510.084791275925
 20
4526.934067956793
 30
0.0
 11
6379.584791275933
 21
4526.934067956793
 31
0.0
  0
LINE
  5
2235
330
1A
100
AcDbEntity
  8
部品1
100
AcDbLine
 10
6163.084791275922
 20
4526.934067956793
 30
0.0
 11
6135.084791275923
 21
4526.934067956793
 31
0.0
  0
LINE
  5
2236
330
1A
100
AcDbEntity
  8
部品1
100
AcDbLine
 10
6090.084791275918
 20
4526.934067956793
 30
0.0
 11
5959.584791275933
 21
4526.934067956793
 31
0.0
  0
LINE
  5
2237
330
1A
100
AcDbEntity
  8
部品1
100
AcDbLine
 10
5925.084791275929
 20
4544.934067956792
 30
0.0
 11
5925.084791275929
 21
4441.900949614032
 31
0.0
  0
LINE
  5
2238
330
1A
100
AcDbEntity
  8
部品1
100
AcDbLine
 10
5959.584791275933
 20
4544.934067956792
 30
0.0
 11
5959.584791275933
 21
4441.900949614032
 31
0.0
  0
LINE
  5
2239
330
1A
100
AcDbEntity
  8
部品1
100
AcDbLine
 10
5959.584791275931
 20
4544.93406795679
 30
0.0
 11
5925.084791275929
 21
4544.93406795679
 31
0.0
  0
LINE
  5
223A
330
1A
100
AcDbEntity
  8
部品1
100
AcDbLine
 10
6090.084791275918
 20
4544.934067956794
 30
0.0
 11
6090.084791275918
 21
4441.900949614035
 31
0.0
  0
LINE
  5
223B
330
1A
100
AcDbEntity
  8
部品1
100
AcDbLine
 10
6135.084791275925
 20
4544.934067956792
 30
0.0
 11
6135.084791275923
 21
4441.900949614032
 31
0.0
  0
LINE
  5
223C
330
1A
100
AcDbEntity
  8
部品1
100
AcDbLine
 10
6135.084791275925
 20
4544.93406795679
 30
0.0
 11
6090.084791275918
 21
4544.93406795679
 31
0.0
  0
LINE
  5
223D
330
1A
100
AcDbEntity
  8
部品1
100
AcDbLine
 10
6345.08479127593
 20
4526.934067956793
 30
0.0
 11
6208.084791275924
 21
4526.934067956793
 31
0.0
  0
LINE
  5
223E
330
1A
100
AcDbEntity
  8
部品1
100
AcDbLine
 10
6163.084791275924
 20
4544.934067956792
 30
0.0
 11
6163.084791275924
 21
4441.900949614032
 31
0.0
  0
LINE
  5
223F
330
1A
100
AcDbEntity
  8
部品1
100
AcDbLine
 10
6208.084791275922
 20
4544.934067956792
 30
0.0
 11
6208.084791275922
 21
4441.900949614032
 31
0.0
  0
LINE
  5
2240
330
1A
100
AcDbEntity
  8
部品1
100
AcDbLine
 10
6208.084791275922
 20
4544.93406795679
 30
0.0
 11
6163.084791275924
 21
4544.93406795679
 31
0.0
  0
LINE
  5
2241
330
1A
100
AcDbEntity
  8
部品1
100
AcDbLine
 10
6345.08479127593
 20
4544.934067956792
 30
0.0
 11
6345.08479127593
 21
4441.900949614032
 31
0.0
  0
LINE
  5
2242
330
1A
100
AcDbEntity
  8
部品1
100
AcDbLine
 10
6379.584791275931
 20
4544.934067956792
 30
0.0
 11
6379.584791275931
 21
4441.900949614032
 31
0.0
  0
LINE
  5
2243
330
1A
100
AcDbEntity
  8
部品1
100
AcDbLine
 10
6379.584791275931
 20
4544.93406795679
 30
0.0
 11
6345.08479127593
 21
4544.93406795679
 31
0.0
  0
LINE
  5
2244
330
1A
100
AcDbEntity
  8
部品1
100
AcDbLine
 10
7010.084791275929
 20
4526.934067956793
 30
0.0
 11
6799.584791275929
 21
4526.934067956793
 31
0.0
  0
LINE
  5
2245
330
1A
100
AcDbEntity
  8
部品1
100
AcDbLine
 10
6765.084791275929
 20
4526.934067956793
 30
0.0
 11
6628.08479127593
 21
4526.934067956793
 31
0.0
  0
LINE
  5
2246
330
1A
100
AcDbEntity
  8
部品1
100
AcDbLine
 10
6628.08479127593
 20
4544.934067956792
 30
0.0
 11
6628.08479127593
 21
4441.900949614032
 31
0.0
  0
LINE
  5
2247
330
1A
100
AcDbEntity
  8
部品1
100
AcDbLine
 10
6583.084791275929
 20
4544.934067956792
 30
0.0
 11
6583.084791275929
 21
4441.900949614032
 31
0.0
  0
LINE
  5
2248
330
1A
100
AcDbEntity
  8
部品1
100
AcDbLine
 10
6628.08479127593
 20
4544.93406795679
 30
0.0
 11
6583.084791275929
 21
4544.93406795679
 31
0.0
  0
LINE
  5
2249
330
1A
100
AcDbEntity
  8
部品1
100
AcDbLine
 10
6510.084791275925
 20
4544.934067956792
 30
0.0
 11
6510.084791275925
 21
4441.900949614032
 31
0.0
  0
LINE
  5
224A
330
1A
100
AcDbEntity
  8
部品1
100
AcDbLine
 10
6555.08479127593
 20
4544.934067956792
 30
0.0
 11
6555.08479127593
 21
4441.900949614032
 31
0.0
  0
LINE
  5
224B
330
1A
100
AcDbEntity
  8
部品1
100
AcDbLine
 10
6555.08479127593
 20
4544.93406795679
 30
0.0
 11
6510.084791275925
 21
4544.93406795679
 31
0.0
  0
LINE
  5
224C
330
1A
100
AcDbEntity
  8
部品1
100
AcDbLine
 10
6583.084791275929
 20
4526.934067956793
 30
0.0
 11
6555.08479127593
 21
4526.934067956793
 31
0.0
  0
LINE
  5
224D
330
1A
100
AcDbEntity
  8
部品1
100
AcDbLine
 10
6765.084791275929
 20
4544.934067956792
 30
0.0
 11
6765.084791275929
 21
4441.900949614032
 31
0.0
  0
LINE
  5
224E
330
1A
100
AcDbEntity
  8
部品1
100
AcDbLine
 10
6799.584791275929
 20
4544.934067956792
 30
0.0
 11
6799.584791275929
 21
4441.900949614028
 31
0.0
  0
LINE
  5
224F
330
1A
100
AcDbEntity
  8
部品1
100
AcDbLine
 10
6799.584791275929
 20
4544.934067956792
 30
0.0
 11
6765.084791275929
 21
4544.934067956792
 31
0.0
  0
LINE
  5
2250
330
1A
100
AcDbEntity
  8
部品1
100
AcDbLine
 10
7083.084791275929
 20
4544.934067956792
 30
0.0
 11
7083.084791275929
 21
4441.900949614032
 31
0.0
  0
LINE
  5
2251
330
1A
100
AcDbEntity
  8
部品1
100
AcDbLine
 10
7128.08479127593
 20
4544.934067956792
 30
0.0
 11
7128.08479127593
 21
4441.900949614032
 31
0.0
  0
LINE
  5
2252
330
1A
100
AcDbEntity
  8
部品1
100
AcDbLine
 10
7128.08479127593
 20
4544.934067956794
 30
0.0
 11
7083.084791275929
 21
4544.934067956794
 31
0.0
  0
LINE
  5
2253
330
1A
100
AcDbEntity
  8
部品1
100
AcDbLine
 10
7010.084791275929
 20
4544.934067956794
 30
0.0
 11
7010.084791275929
 21
4441.900949614029
 31
0.0
  0
LINE
  5
2254
330
1A
100
AcDbEntity
  8
部品1
100
AcDbLine
 10
7055.08479127593
 20
4544.934067956794
 30
0.0
 11
7055.08479127593
 21
4441.900949614029
 31
0.0
  0
LINE
  5
2255
330
1A
100
AcDbEntity
  8
部品1
100
AcDbLine
 10
7055.08479127593
 20
4544.934067956794
 30
0.0
 11
7010.084791275929
 21
4544.934067956794
 31
0.0
  0
LINE
  5
2256
330
1A
100
AcDbEntity
  8
部品1
100
AcDbLine
 10
7083.084791275929
 20
4526.934067956793
 30
0.0
 11
7055.08479127593
 21
4526.934067956793
 31
0.0
  0
LINE
  5
2257
330
1A
100
AcDbEntity
  8
部品1
100
AcDbLine
 10
7925.08479127593
 20
4526.934067956793
 30
0.0
 11
7708.084791275929
 21
4526.934067956793
 31
0.0
  0
LINE
  5
2258
330
1A
100
AcDbEntity
  8
部品1
100
AcDbLine
 10
7590.084791275929
 20
4526.934067956793
 30
0.0
 11
7379.58479127593
 21
4526.934067956793
 31
0.0
  0
LINE
  5
2259
330
1A
100
AcDbEntity
  8
部品1
100
AcDbLine
 10
7345.084791275929
 20
4544.934067956792
 30
0.0
 11
7345.084791275929
 21
4441.900949614032
 31
0.0
  0
LINE
  5
225A
330
1A
100
AcDbEntity
  8
部品1
100
AcDbLine
 10
7379.58479127593
 20
4544.934067956792
 30
0.0
 11
7379.584791275927
 21
4441.900949614032
 31
0.0
  0
LINE
  5
225B
330
1A
100
AcDbEntity
  8
部品1
100
AcDbLine
 10
7379.58479127593
 20
4544.934067956792
 30
0.0
 11
7345.084791275929
 21
4544.934067956794
 31
0.0
  0
LINE
  5
225C
330
1A
100
AcDbEntity
  8
部品1
100
AcDbLine
 10
7635.084791275929
 20
4544.934067956792
 30
0.0
 11
7590.084791275929
 21
4544.934067956792
 31
0.0
  0
LINE
  5
225D
330
1A
100
AcDbEntity
  8
部品1
100
AcDbLine
 10
7590.084791275929
 20
4544.934067956792
 30
0.0
 11
7590.084791275929
 21
4441.900949614032
 31
0.0
  0
LINE
  5
225E
330
1A
100
AcDbEntity
  8
部品1
100
AcDbLine
 10
7635.084791275929
 20
4544.934067956794
 30
0.0
 11
7635.084791275929
 21
4441.900949614032
 31
0.0
  0
LINE
  5
225F
330
1A
100
AcDbEntity
  8
部品1
100
AcDbLine
 10
7663.084791275929
 20
4544.934067956794
 30
0.0
 11
7663.084791275927
 21
4441.900949614032
 31
0.0
  0
LINE
  5
2260
330
1A
100
AcDbEntity
  8
部品1
100
AcDbLine
 10
7708.084791275931
 20
4544.934067956794
 30
0.0
 11
7708.084791275929
 21
4441.900949614032
 31
0.0
  0
LINE
  5
2261
330
1A
100
AcDbEntity
  8
部品1
100
AcDbLine
 10
7708.084791275929
 20
4544.934067956792
 30
0.0
 11
7663.084791275929
 21
4544.934067956792
 31
0.0
  0
LINE
  5
2262
330
1A
100
AcDbEntity
  8
部品1
100
AcDbLine
 10
7663.084791275927
 20
4526.934067956793
 30
0.0
 11
7635.084791275929
 21
4526.934067956793
 31
0.0
  0
LINE
  5
2263
330
1A
100
AcDbEntity
  8
部品1
100
AcDbLine
 10
7973.084791275929
 20
4526.934067956793
 30
0.0
 11
7959.584791275929
 21
4526.934067956793
 31
0.0
  0
LINE
  5
2264
330
1A
100
AcDbEntity
  8
部品1
100
AcDbLine
 10
7925.08479127593
 20
4544.934067956794
 30
0.0
 11
7925.08479127593
 21
4441.900949614032
 31
0.0
  0
LINE
  5
2265
330
1A
100
AcDbEntity
  8
部品1
100
AcDbLine
 10
7959.584791275929
 20
4544.934067956794
 30
0.0
 11
7959.584791275929
 21
4441.900949614032
 31
0.0
  0
LINE
  5
2266
330
1A
100
AcDbEntity
  8
部品1
100
AcDbLine
 10
7959.584791275929
 20
4544.934067956794
 30
0.0
 11
7925.08479127593
 21
4544.934067956794
 31
0.0
  0
TEXT
  5
2267
330
1A
100
AcDbEntity
  8
文字
 62
     7
 48
50.0
100
AcDbText
 10
13198.2053442172
 20
492.5435242569037
 30
0.0
 40
100.0
  1
○間口奥行寸法は柱芯寸法です。    N : 連続数
  7
STYLE2
100
AcDbText
  0
TEXT
  5
2268
330
1A
100
AcDbEntity
  8
仕様書枠
 62
     7
 48
50.0
100
AcDbText
 10
14507.17944936723
 20
1295.557706291231
 30
0.0
 40
100.0
  1
NO.12     <縮尺> S=1/40
  7
STYLE2
100
AcDbText
  0
LINE
  5
2269
330
1A
100
AcDbEntity
  8
部品1
100
AcDbLine
 10
15877.72604541798
 20
9366.837325423947
 30
0.0
 11
12477.72604541798
 21
9366.837325423947
 31
0.0
  0
TEXT
  5
226A
330
1A
100
AcDbEntity
  8
文字
 62
     7
 48
50.0
100
AcDbText
 10
12586.4532065237
 20
8480.438399872115
 30
0.0
 40
108.152
  1
PZ→一般構造用角形鋼管(JIS G 3466)
 41
0.9
  7
STYLE1
100
AcDbText
  0
TEXT
  5
226B
330
1A
100
AcDbEntity
  8
文字
 62
     7
 48
50.0
100
AcDbText
 10
12586.45320652348
 20
8112.721599872113
 30
0.0
 40
108.152
  1
Y10→溶融亜鉛-5％アルミニウム合金めっき鋼板(JIS G 3317)
 41
0.9
  7
STYLE1
100
AcDbText
  0
TEXT
  5
226C
330
1A
100
AcDbEntity
  8
文字
 62
     7
 48
50.0
100
AcDbText
 10
12586.45320652349
 20
8296.579999872117
 30
0.0
 40
108.152
  1
F12→溶融亜鉛めっき鋼板(JIS G 3302)
  7
STYLE1
100
AcDbText
  0
LINE
  5
226D
330
1A
100
AcDbEntity
  8
部品1
100
AcDbLine
 10
15877.72604541798
 20
9182.978925423947
 30
0.0
 11
12477.72604541798
 21
9182.978925423951
 31
0.0
  0
LINE
  5
226E
330
1A
100
AcDbEntity
  8
部品1
100
AcDbLine
 10
15877.72604541798
 20
10837.70452542394
 30
0.0
 11
12477.72604541798
 21
10837.70452542394
 31
0.0
  0
LINE
  5
226F
330
1A
100
AcDbEntity
  8
部品1
100
AcDbLine
 10
15877.72604541798
 20
10653.84612542394
 30
0.0
 11
12477.72604541798
 21
10653.84612542394
 31
0.0
  0
LINE
  5
2270
330
1A
100
AcDbEntity
  8
部品1
100
AcDbLine
 10
15877.72604541798
 20
10286.12932542395
 30
0.0
 11
12477.72604541798
 21
10286.12932542394
 31
0.0
  0
LINE
  5
2271
330
1A
100
AcDbEntity
  8
部品1
100
AcDbLine
 10
15877.72604541798
 20
10469.98772542394
 30
0.0
 11
12477.72604541798
 21
10469.98772542394
 31
0.0
  0
LINE
  5
2272
330
1A
100
AcDbEntity
  8
部品1
100
AcDbLine
 10
15877.72604541798
 20
9918.412525423946
 30
0.0
 11
12477.72604541798
 21
9918.412525423946
 31
0.0
  0
LINE
  5
2273
330
1A
100
AcDbEntity
  8
部品1
100
AcDbLine
 10
15877.72604541798
 20
9734.554125423947
 30
0.0
 11
12477.72604541798
 21
9734.554125423947
 31
0.0
  0
LINE
  5
2274
330
1A
100
AcDbEntity
  8
部品1
100
AcDbLine
 10
15877.72604541798
 20
10102.27092542394
 30
0.0
 11
12477.72604541798
 21
10102.27092542394
 31
0.0
  0
TEXT
  5
2275
330
1A
100
AcDbEntity
  8
文字
 62
     7
 48
50.0
100
AcDbText
 10
13155.37385274828
 20
10686.73919987211
 30
0.0
 40
108.152
  1
部　　品　　名
  7
STYLE1
100
AcDbText
  0
LINE
  5
2276
330
1A
100
AcDbEntity
  8
部品1
100
AcDbLine
 10
15877.72604541798
 20
8815.262125423942
 30
0.0
 11
12477.72604541798
 21
8815.262125423942
 31
0.0
  0
LINE
  5
2277
330
1A
100
AcDbEntity
  8
部品1
100
AcDbLine
 10
15877.72604541798
 20
8263.686925423948
 30
0.0
 11
12477.72604541798
 21
8263.68692542395
 31
0.0
  0
LINE
  5
2278
330
1A
100
AcDbEntity
  8
部品1
100
AcDbLine
 10
15877.72604541798
 20
8447.545325423947
 30
0.0
 11
12477.72604541798
 21
8447.545325423947
 31
0.0
  0
LINE
  5
2279
330
1A
100
AcDbEntity
  8
部品1
100
AcDbLine
 10
15877.72604541798
 20
9550.695725423947
 30
0.0
 11
12477.72604541798
 21
9550.695725423947
 31
0.0
  0
LINE
  5
227A
330
1A
100
AcDbEntity
  8
部品1
100
AcDbLine
 10
15877.72604541798
 20
8999.120525423945
 30
0.0
 11
12477.72604541798
 21
8999.120525423947
 31
0.0
  0
LINE
  5
227B
330
1A
100
AcDbEntity
  8
部品1
100
AcDbLine
 10
15877.72604541798
 20
8079.828525423948
 30
0.0
 11
12477.72604541798
 21
8079.828525423952
 31
0.0
  0
LINE
  5
227C
330
1A
100
AcDbEntity
  8
部品1
100
AcDbLine
 10
15877.72604541798
 20
8631.40372542394
 30
0.0
 11
12477.72604541798
 21
8631.40372542394
 31
0.0
  0
TEXT
  5
227D
330
1A
100
AcDbEntity
  8
文字
 62
     7
 48
50.0
100
AcDbText
 10
12968.54056681955
 20
9583.588799872115
 30
0.0
 40
108.152
  1
屋根パネル
  7
STYLE1
100
AcDbText
  0
LINE
  5
227E
330
1A
100
AcDbEntity
  8
部品1
100
AcDbLine
 10
12868.04768579155
 20
10837.70452542394
 30
0.0
 11
12868.04768579157
 21
8631.40372542394
 31
0.0
  0
TEXT
  5
227F
330
1A
100
AcDbEntity
  8
文字
 62
     7
 48
50.0
100
AcDbText
 10
12631.18433932542
 20
9583.588799872114
 30
0.0
 40
108.152
  1
6
  7
STYLE1
100
AcDbText
  0
LINE
  5
2280
330
1A
100
AcDbEntity
  8
部品1
100
AcDbLine
 10
12477.72604541798
 20
10837.70452542394
 30
0.0
 11
12477.72604541798
 21
8079.828525423952
 31
0.0
  0
TEXT
  5
2281
330
1A
100
AcDbEntity
  8
文字
 62
     7
 48
50.0
100
AcDbText
 10
12606.94439510914
 20
8664.29679987211
 30
0.0
 40
108.152
  1
11
  7
STYLE1
100
AcDbText
  0
TEXT
  5
2282
330
1A
100
AcDbEntity
  8
文字
 62
     7
 48
50.0
100
AcDbText
 10
12968.54056681955
 20
8664.296799872117
 30
0.0
 40
108.152
  1
棟板
  7
STYLE1
100
AcDbText
  0
TEXT
  5
2283
330
1A
100
AcDbEntity
  8
文字
 62
     7
 48
50.0
100
AcDbText
 10
12968.54056681955
 20
9399.730399872115
 30
0.0
 40
108.152
  1
妻板
  7
STYLE1
100
AcDbText
  0
TEXT
  5
2284
330
1A
100
AcDbEntity
  8
文字
 62
     7
 48
50.0
100
AcDbText
 10
12968.54056681955
 20
8848.155199872113
 30
0.0
 40
108.152
  1
車止メ棒
  7
STYLE1
100
AcDbText
  0
TEXT
  5
2285
330
1A
100
AcDbEntity
  8
文字
 62
     7
 48
50.0
100
AcDbText
 10
12968.54056681955
 20
9032.013599872113
 30
0.0
 40
108.152
  1
プレート
  7
STYLE1
100
AcDbText
  0
TEXT
  5
2286
330
1A
100
AcDbEntity
  8
文字
 62
     7
 48
50.0
100
AcDbText
 10
12968.54056681955
 20
9215.871999872115
 30
0.0
 40
108.152
  1
鼻隠シ
  7
STYLE1
100
AcDbText
  0
TEXT
  5
2287
330
1A
100
AcDbEntity
  8
文字
 62
     7
 48
50.0
100
AcDbText
 10
12606.94439510914
 20
8848.155199872111
 30
0.0
 40
108.152
  1
10
  7
STYLE1
100
AcDbText
  0
TEXT
  5
2288
330
1A
100
AcDbEntity
  8
文字
 62
     7
 48
50.0
100
AcDbText
 10
12631.18433932541
 20
9032.013599872113
 30
0.0
 40
108.152
  1
9
  7
STYLE1
100
AcDbText
  0
TEXT
  5
2289
330
1A
100
AcDbEntity
  8
文字
 62
     7
 48
50.0
100
AcDbText
 10
12631.18433932541
 20
9215.871999872113
 30
0.0
 40
108.152
  1
8
  7
STYLE1
100
AcDbText
  0
TEXT
  5
228A
330
1A
100
AcDbEntity
  8
文字
 62
     7
 48
50.0
100
AcDbText
 10
12631.18433932541
 20
9399.730399872115
 30
0.0
 40
108.152
  1
7
  7
STYLE1
100
AcDbText
  0
TEXT
  5
228B
330
1A
100
AcDbEntity
  8
文字
 62
     7
 48
50.0
100
AcDbText
 10
12631.18433932542
 20
10502.88079987211
 30
0.0
 40
108.152
  1
1
  7
STYLE1
100
AcDbText
  0
TEXT
  5
228C
330
1A
100
AcDbEntity
  8
文字
 62
     7
 48
50.0
100
AcDbText
 10
12968.54056681955
 20
10502.88079987211
 30
0.0
 40
108.152
  1
柱
  7
STYLE1
100
AcDbText
  0
TEXT
  5
228D
330
1A
100
AcDbEntity
  8
文字
 62
     7
 48
50.0
100
AcDbText
 10
12968.54056681956
 20
9767.447199872114
 30
0.0
 40
108.152
  1
腰パネル
  7
STYLE1
100
AcDbText
  0
TEXT
  5
228E
330
1A
100
AcDbEntity
  8
文字
 62
     7
 48
50.0
100
AcDbText
 10
12968.54056681955
 20
10319.02239987211
 30
0.0
 40
108.152
  1
梁
  7
STYLE1
100
AcDbText
  0
TEXT
  5
228F
330
1A
100
AcDbEntity
  8
文字
 62
     7
 48
50.0
100
AcDbText
 10
12968.54056681955
 20
10135.16399987211
 30
0.0
 40
108.152
  1
母屋
  7
STYLE1
100
AcDbText
  0
TEXT
  5
2290
330
1A
100
AcDbEntity
  8
文字
 62
     7
 48
50.0
100
AcDbText
 10
12968.54056681955
 20
9951.305599872121
 30
0.0
 40
108.152
  1
梁中屋根板
  7
STYLE1
100
AcDbText
  0
TEXT
  5
2291
330
1A
100
AcDbEntity
  8
文字
 62
     7
 48
50.0
100
AcDbText
 10
12631.18433932542
 20
9951.305599872114
 30
0.0
 40
108.152
  1
4
  7
STYLE1
100
AcDbText
  0
TEXT
  5
2292
330
1A
100
AcDbEntity
  8
文字
 62
     7
 48
50.0
100
AcDbText
 10
12631.18433932542
 20
9767.447199872112
 30
0.0
 40
108.152
  1
5
  7
STYLE1
100
AcDbText
  0
TEXT
  5
2293
330
1A
100
AcDbEntity
  8
文字
 62
     7
 48
50.0
100
AcDbText
 10
12631.18433932542
 20
10319.02239987211
 30
0.0
 40
108.152
  1
2
  7
STYLE1
100
AcDbText
  0
TEXT
  5
2294
330
1A
100
AcDbEntity
  8
文字
 62
     7
 48
50.0
100
AcDbText
 10
12631.18433932542
 20
10135.16399987211
 30
0.0
 40
108.152
  1
3
  7
STYLE1
100
AcDbText
  0
TEXT
  5
2295
330
1A
100
AcDbEntity
  8
文字
 62
     7
 48
50.0
100
AcDbText
 10
12551.40586852606
 20
10686.73919987211
 30
0.0
 40
108.152
  1
品番
  7
STYLE1
100
AcDbText
  0
LINE
  5
2296
330
1A
100
AcDbEntity
  8
部品1
100
AcDbLine
 10
15877.72604541798
 20
8079.828525423948
 30
0.0
 11
15877.72604541798
 21
10837.70452542394
 31
0.0
  0
LINE
  5
2297
330
1A
100
AcDbEntity
  8
部品1
100
AcDbLine
 10
14231.65260541798
 20
10837.70452542394
 30
0.0
 11
14231.65260541798
 21
8631.40372542394
 31
0.0
  0
TEXT
  5
2298
330
1A
100
AcDbEntity
  8
文字
 62
     7
 48
50.0
100
AcDbText
 10
14467.00180136414
 20
9583.588799872115
 30
0.0
 40
108.152
  1
Y10            0.5
  7
STYLE1
100
AcDbText
  0
TEXT
  5
2299
330
1A
100
AcDbEntity
  8
文字
 62
     7
 48
50.0
100
AcDbText
 10
14488.448340818
 20
8848.155199872113
 30
0.0
 40
108.152
  1
F12            1.2
  7
STYLE1
100
AcDbText
  0
TEXT
  5
229A
330
1A
100
AcDbEntity
  8
文字
 62
     7
 48
50.0
100
AcDbText
 10
14467.00180136414
 20
9399.730399872115
 30
0.0
 40
108.152
  1
Y10            0.7
  7
STYLE1
100
AcDbText
  0
TEXT
  5
229B
330
1A
100
AcDbEntity
  8
文字
 62
     7
 48
50.0
100
AcDbText
 10
14467.00180136414
 20
9215.871999872115
 30
0.0
 40
108.152
  1
Y10            0.7
  7
STYLE1
100
AcDbText
  0
TEXT
  5
229C
330
1A
100
AcDbEntity
  8
文字
 62
     7
 48
50.0
100
AcDbText
 10
14488.44834081798
 20
9032.013599872113
 30
0.0
 40
108.152
  1
F12            2.3
  7
STYLE1
100
AcDbText
  0
TEXT
  5
229D
330
1A
100
AcDbEntity
  8
文字
 62
     7
 48
50.0
100
AcDbText
 10
14467.00180136414
 20
8664.29679987211
 30
0.0
 40
108.152
  1
Y10            1.0
  7
STYLE1
100
AcDbText
  0
TEXT
  5
229E
330
1A
100
AcDbEntity
  8
文字
 62
     7
 48
50.0
100
AcDbText
 10
14312.33155982853
 20
10686.73919987211
 30
0.0
 40
108.152
  1
材料（材質）　　単位mm
  7
STYLE1
100
AcDbText
  0
TEXT
  5
229F
330
1A
100
AcDbEntity
  8
文字
 62
     7
 48
50.0
100
AcDbText
 10
14488.44834081798
 20
10502.88079987211
 30
0.0
 40
108.152
  1
PZ            2.3
  7
STYLE1
100
AcDbText
  0
TEXT
  5
22A0
330
1A
100
AcDbEntity
  8
文字
 62
     7
 48
50.0
100
AcDbText
 10
14488.44834081799
 20
10135.16399987211
 30
0.0
 40
108.152
  1
F12            2.3
  7
STYLE1
100
AcDbText
  0
TEXT
  5
22A1
330
1A
100
AcDbEntity
  8
文字
 62
     7
 48
50.0
100
AcDbText
 10
14488.44834081797
 20
10319.02239987211
 30
0.0
 40
108.152
  1
F12            2.3
  7
STYLE1
100
AcDbText
  0
TEXT
  5
22A2
330
1A
100
AcDbEntity
  8
文字
 62
     7
 48
50.0
100
AcDbText
 10
14467.00180136414
 20
9767.447199872114
 30
0.0
 40
108.152
  1
Y10            0.6
  7
STYLE1
100
AcDbText
  0
TEXT
  5
22A3
330
1A
100
AcDbEntity
  8
文字
 62
     7
 48
50.0
100
AcDbText
 10
14467.00180136414
 20
9951.305599872114
 30
0.0
 40
108.152
  1
Y10            1.0
  7
STYLE1
100
AcDbText
  0
TEXT
  5
22A4
330
1A
100
AcDbEntity
  8
部品1
 48
50.0
100
AcDbText
 10
1220.070997888317
 20
2284.29225004436
 30
0.0
 40
100.0
  1
▽G.L
  7
STYLE2
100
AcDbText
  0
LINE
  5
22A5
330
1A
100
AcDbEntity
  8
点線
 48
10.0
100
AcDbLine
 10
2068.084791275922
 20
1989.90094961403
 30
0.0
 11
2138.084791275922
 21
1989.90094961403
 31
0.0
  0
LINE
  5
22A6
330
1A
100
AcDbEntity
  8
点線
 48
10.0
100
AcDbLine
 10
2198.084791275922
 20
1989.900949614031
 30
0.0
 11
2268.084791275922
 21
1989.900949614031
 31
0.0
  0
LINE
  5
22A7
330
1A
100
AcDbEntity
  8
点線
 48
10.0
100
AcDbLine
 10
2198.084791275922
 20
1999.900949614032
 30
0.0
 11
2268.084791275922
 21
1999.900949614032
 31
0.0
  0
LINE
  5
22A8
330
1A
100
AcDbEntity
  8
点線
 48
10.0
100
AcDbLine
 10
2068.084791275922
 20
1999.90094961403
 30
0.0
 11
2138.084791275922
 21
1999.90094961403
 31
0.0
  0
LINE
  5
22A9
330
1A
100
AcDbEntity
  8
点線
 48
10.0
100
AcDbLine
 10
2268.084791275922
 20
1999.900949614032
 30
0.0
 11
2268.084791275922
 21
1989.900949614031
 31
0.0
  0
LINE
  5
22AA
330
1A
100
AcDbEntity
  8
点線
 48
10.0
100
AcDbLine
 10
2068.084791275922
 20
1999.90094961403
 30
0.0
 11
2068.084791275922
 21
1989.90094961403
 31
0.0
  0
LINE
  5
22AB
330
1A
100
AcDbEntity
  8
点線
 48
50.0
100
AcDbLine
 10
2198.084791275922
 20
1974.900949614031
 30
0.0
 11
2138.084791275922
 21
1974.900949614031
 31
0.0
  0
LINE
  5
22AC
330
1A
100
AcDbEntity
  8
点線
 48
10.0
100
AcDbLine
 10
4868.084791275922
 20
1989.90094961403
 30
0.0
 11
4938.084791275922
 21
1989.90094961403
 31
0.0
  0
LINE
  5
22AD
330
1A
100
AcDbEntity
  8
点線
 48
10.0
100
AcDbLine
 10
4998.084791275921
 20
1989.900949614031
 30
0.0
 11
5068.084791275921
 21
1989.900949614031
 31
0.0
  0
LINE
  5
22AE
330
1A
100
AcDbEntity
  8
点線
 48
10.0
100
AcDbLine
 10
4998.084791275921
 20
1999.900949614032
 30
0.0
 11
5068.084791275921
 21
1999.900949614032
 31
0.0
  0
LINE
  5
22AF
330
1A
100
AcDbEntity
  8
点線
 48
10.0
100
AcDbLine
 10
4868.084791275922
 20
1999.90094961403
 30
0.0
 11
4938.084791275922
 21
1999.90094961403
 31
0.0
  0
LINE
  5
22B0
330
1A
100
AcDbEntity
  8
点線
 48
10.0
100
AcDbLine
 10
5068.084791275921
 20
1999.900949614032
 30
0.0
 11
5068.084791275921
 21
1989.900949614031
 31
0.0
  0
LINE
  5
22B1
330
1A
100
AcDbEntity
  8
点線
 48
10.0
100
AcDbLine
 10
4868.084791275922
 20
1999.90094961403
 30
0.0
 11
4868.084791275922
 21
1989.90094961403
 31
0.0
  0
LINE
  5
22B2
330
1A
100
AcDbEntity
  8
点線
 48
50.0
100
AcDbLine
 10
4998.084791275921
 20
1974.900949614031
 30
0.0
 11
4938.084791275922
 21
1974.900949614031
 31
0.0
  0
LINE
  5
22B3
330
1A
100
AcDbEntity
  8
点線
 48
10.0
100
AcDbLine
 10
7668.084791275922
 20
1989.90094961403
 30
0.0
 11
7738.084791275922
 21
1989.90094961403
 31
0.0
  0
LINE
  5
22B4
330
1A
100
AcDbEntity
  8
点線
 48
10.0
100
AcDbLine
 10
7798.084791275922
 20
1989.900949614031
 30
0.0
 11
7868.084791275922
 21
1989.900949614031
 31
0.0
  0
LINE
  5
22B5
330
1A
100
AcDbEntity
  8
点線
 48
10.0
100
AcDbLine
 10
7798.084791275922
 20
1999.900949614032
 30
0.0
 11
7868.084791275922
 21
1999.900949614032
 31
0.0
  0
LINE
  5
22B6
330
1A
100
AcDbEntity
  8
点線
 48
10.0
100
AcDbLine
 10
7668.084791275922
 20
1999.90094961403
 30
0.0
 11
7738.084791275922
 21
1999.90094961403
 31
0.0
  0
LINE
  5
22B7
330
1A
100
AcDbEntity
  8
点線
 48
10.0
100
AcDbLine
 10
7868.084791275922
 20
1999.900949614032
 30
0.0
 11
7868.084791275922
 21
1989.900949614031
 31
0.0
  0
LINE
  5
22B8
330
1A
100
AcDbEntity
  8
点線
 48
10.0
100
AcDbLine
 10
7668.084791275922
 20
1999.90094961403
 30
0.0
 11
7668.084791275922
 21
1989.90094961403
 31
0.0
  0
LINE
  5
22B9
330
1A
100
AcDbEntity
  8
点線
 48
50.0
100
AcDbLine
 10
7798.084791275922
 20
1974.900949614031
 30
0.0
 11
7738.084791275922
 21
1974.900949614031
 31
0.0
  0
LINE
  5
22BA
330
1A
100
AcDbEntity
  8
部品1
 48
50.0
100
AcDbLine
 10
3180.292673110311
 20
4590.503630227467
 30
0.0
 11
3867.615399141287
 21
2025.380295483119
 31
0.0
  0
SPLINE
  5
22BB
330
1A
100
AcDbEntity
  8
部品1
 48
50.0
100
AcDbSpline
210
0.0
220
0.0
230
1.0
 70
     8
 71
     3
 72
    10
 73
     6
 74
     4
 42
0.0000000001
 43
0.0000000001
 44
0.0000000001
 40
0.0
 40
0.0
 40
0.0
 40
0.0
 40
147.8767566010009
 40
301.8091093202477
 40
466.5049223087734
 40
466.5049223087734
 40
466.5049223087734
 40
466.5049223087734
 10
3503.173235287359
 20
3214.562223748286
 30
0.0
 10
3580.054917782194
 20
3205.657790090448
 30
0.0
 10
3736.966609992322
 20
3187.484283631116
 30
0.0
 10
3414.153200047979
 20
3084.963698991774
 30
0.0
 10
3583.995819717352
 20
3066.32861027957
 30
0.0
 10
3671.785824924246
 20
3056.696313402261
 30
0.0
 11
3503.173235287359
 21
3214.562223748286
 31
0.0
 11
3646.011213596129
 21
3176.288902811957
 31
0.0
 11
3512.701885676955
 21
3099.322726452334
 31
0.0
 11
3671.785824924246
 21
3056.696313402261
 31
0.0
  0
LINE
  5
22BC
330
1A
100
AcDbEntity
  8
部品1
 48
50.0
100
AcDbLine
 10
2878.190111203612
 20
10806.70309759782
 30
0.0
 11
4220.257954526999
 21
5798.037719110554
 31
0.0
  0
SPLINE
  5
22BD
330
1A
100
AcDbEntity
  8
部品1
 48
50.0
100
AcDbSpline
210
0.0
220
0.0
230
1.0
 70
     8
 71
     3
 72
    10
 73
     6
 74
     4
 42
0.0000000001
 43
0.0000000001
 44
0.0000000001
 40
0.0
 40
0.0
 40
0.0
 40
0.0
 40
147.8767566010009
 40
301.8091093202477
 40
466.5049223087739
 40
466.5049223087739
 40
466.5049223087739
 40
466.5049223087739
 10
3322.004471605144
 20
8979.430611792592
 30
0.0
 10
3398.886154099977
 20
8970.526178134754
 30
0.0
 10
3555.797846310105
 20
8952.352671675422
 30
0.0
 10
3232.984436365762
 20
8849.832087036077
 30
0.0
 10
3402.827056035136
 20
8831.196998323877
 30
0.0
 10
3490.61706124203
 20
8821.564701446567
 30
0.0
 11
3322.004471605144
 21
8979.430611792592
 31
0.0
 11
3464.842449913913
 21
8941.157290856263
 31
0.0
 11
3331.533121994738
 21
8864.191114496639
 31
0.0
 11
3490.61706124203
 21
8821.564701446567
 31
0.0
  0
LINE
  5
22BE
330
1A
100
AcDbEntity
  8
点線
 48
50.0
100
AcDbLine
 10
7798.084791275922
 20
8606.403097597816
 30
0.0
 11
7798.084791275922
 21
9170.003097597813
 31
0.0
  0
LINE
  5
22BF
330
1A
100
AcDbEntity
  8
点線
 48
50.0
100
AcDbLine
 10
7738.084791275922
 20
8606.403097597816
 30
0.0
 11
7738.084791275923
 21
9170.003097597813
 31
0.0
  0
LINE
  5
22C0
330
1A
100
AcDbEntity
  8
点線
 48
50.0
100
AcDbLine
 10
7798.084791275922
 20
9235.003097597816
 30
0.0
 11
7798.08479127592
 21
9798.603097597816
 31
0.0
  0
LINE
  5
22C1
330
1A
100
AcDbEntity
  8
点線
 48
50.0
100
AcDbLine
 10
7738.084791275922
 20
9235.003097597816
 30
0.0
 11
7738.084791275922
 21
9798.603097597816
 31
0.0
  0
LINE
  5
22C2
330
1A
100
AcDbEntity
  8
点線
 48
50.0
100
AcDbLine
 10
7798.08479127592
 20
9863.603097597817
 30
0.0
 11
7798.084791275922
 21
10427.20309759782
 31
0.0
  0
LINE
  5
22C3
330
1A
100
AcDbEntity
  8
点線
 48
50.0
100
AcDbLine
 10
7738.084791275922
 20
9863.603097597817
 30
0.0
 11
7738.084791275922
 21
10427.20309759782
 31
0.0
  0
LINE
  5
22C4
330
1A
100
AcDbEntity
  8
点線
 48
50.0
100
AcDbLine
 10
7798.084791275922
 20
10492.20309759781
 30
0.0
 11
7798.084791275922
 21
10548.20309759781
 31
0.0
  0
LINE
  5
22C5
330
1A
100
AcDbEntity
  8
点線
 48
50.0
100
AcDbLine
 10
7738.084791275922
 20
10492.20309759781
 30
0.0
 11
7738.084791275922
 21
10548.20309759781
 31
0.0
  0
LINE
  5
22C6
330
1A
100
AcDbEntity
  8
点線
 48
6.0
100
AcDbLine
 10
7988.084791275922
 20
10492.20309759781
 30
0.0
 11
7988.084791275918
 21
10427.20309759781
 31
0.0
  0
LINE
  5
22C7
330
1A
100
AcDbEntity
  8
点線
 48
6.0
100
AcDbLine
 10
1948.084791275922
 20
10492.20309759781
 30
0.0
 11
1948.084791275922
 21
10427.20309759781
 31
0.0
  0
LINE
  5
22C8
330
1A
100
AcDbEntity
  8
点線
 48
6.0
100
AcDbLine
 10
1988.084791275922
 20
10492.20309759781
 30
0.0
 11
1948.084791275922
 21
10492.20309759781
 31
0.0
  0
LINE
  5
22C9
330
1A
100
AcDbEntity
  8
点線
 48
6.0
100
AcDbLine
 10
1988.084791275922
 20
10447.20309759781
 30
0.0
 11
1948.084791275922
 21
10447.20309759781
 31
0.0
  0
LINE
  5
22CA
330
1A
100
AcDbEntity
  8
点線
 48
6.0
100
AcDbLine
 10
1988.084791275922
 20
10427.20309759781
 30
0.0
 11
1948.084791275922
 21
10427.20309759781
 31
0.0
  0
LINE
  5
22CB
330
1A
100
AcDbEntity
  8
点線
 48
6.0
100
AcDbLine
 10
1988.084791275922
 20
9863.603097597815
 30
0.0
 11
1948.084791275922
 21
9863.603097597815
 31
0.0
  0
LINE
  5
22CC
330
1A
100
AcDbEntity
  8
点線
 48
6.0
100
AcDbLine
 10
1988.084791275922
 20
9818.603097597815
 30
0.0
 11
1948.084791275922
 21
9818.603097597815
 31
0.0
  0
LINE
  5
22CD
330
1A
100
AcDbEntity
  8
点線
 48
6.0
100
AcDbLine
 10
1988.084791275922
 20
9798.603097597816
 30
0.0
 11
1948.084791275922
 21
9798.603097597816
 31
0.0
  0
LINE
  5
22CE
330
1A
100
AcDbEntity
  8
点線
 48
6.0
100
AcDbLine
 10
1988.084791275922
 20
9235.003097597811
 30
0.0
 11
1948.084791275922
 21
9235.003097597811
 31
0.0
  0
LINE
  5
22CF
330
1A
100
AcDbEntity
  8
点線
 48
6.0
100
AcDbLine
 10
1988.084791275922
 20
9190.003097597816
 30
0.0
 11
1948.084791275922
 21
9190.003097597816
 31
0.0
  0
LINE
  5
22D0
330
1A
100
AcDbEntity
  8
点線
 48
6.0
100
AcDbLine
 10
1988.084791275922
 20
9170.003097597819
 30
0.0
 11
1948.084791275922
 21
9170.003097597819
 31
0.0
  0
LINE
  5
22D1
330
1A
100
AcDbEntity
  8
点線
 48
6.0
100
AcDbLine
 10
1988.084791275922
 20
8606.403097597818
 30
0.0
 11
1948.084791275922
 21
8606.403097597818
 31
0.0
  0
LINE
  5
22D2
330
1A
100
AcDbEntity
  8
点線
 48
6.0
100
AcDbLine
 10
1988.084791275922
 20
8561.403097597818
 30
0.0
 11
1948.084791275922
 21
8561.403097597818
 31
0.0
  0
LINE
  5
22D3
330
1A
100
AcDbEntity
  8
点線
 48
6.0
100
AcDbLine
 10
1988.084791275922
 20
8541.40309759782
 30
0.0
 11
1948.084791275922
 21
8541.40309759782
 31
0.0
  0
LINE
  5
22D4
330
1A
100
AcDbEntity
  8
点線
 48
6.0
100
AcDbLine
 10
1988.084791275922
 20
8072.003097597827
 30
0.0
 11
1948.084791275922
 21
8072.003097597827
 31
0.0
  0
LINE
  5
22D5
330
1A
100
AcDbEntity
  8
点線
 48
6.0
100
AcDbLine
 10
1988.084791275922
 20
8052.003097597818
 30
0.0
 11
1948.084791275922
 21
8052.003097597818
 31
0.0
  0
LINE
  5
22D6
330
1A
100
AcDbEntity
  8
点線
 48
6.0
100
AcDbLine
 10
1988.084791275922
 20
8007.003097597815
 30
0.0
 11
1948.084791275922
 21
8007.003097597815
 31
0.0
  0
LINE
  5
22D7
330
1A
100
AcDbEntity
  8
点線
 48
6.0
100
AcDbLine
 10
1988.084791275922
 20
7443.403097597817
 30
0.0
 11
1948.084791275922
 21
7443.403097597817
 31
0.0
  0
LINE
  5
22D8
330
1A
100
AcDbEntity
  8
点線
 48
6.0
100
AcDbLine
 10
1988.084791275922
 20
7423.403097597819
 30
0.0
 11
1948.084791275922
 21
7423.403097597819
 31
0.0
  0
LINE
  5
22D9
330
1A
100
AcDbEntity
  8
点線
 48
6.0
100
AcDbLine
 10
1988.084791275922
 20
7378.403097597821
 30
0.0
 11
1948.084791275922
 21
7378.403097597821
 31
0.0
  0
LINE
  5
22DA
330
1A
100
AcDbEntity
  8
点線
 48
6.0
100
AcDbLine
 10
1988.084791275922
 20
6814.803097597816
 30
0.0
 11
1948.084791275922
 21
6814.803097597816
 31
0.0
  0
LINE
  5
22DB
330
1A
100
AcDbEntity
  8
点線
 48
6.0
100
AcDbLine
 10
1988.084791275922
 20
6794.803097597817
 30
0.0
 11
1948.084791275922
 21
6794.803097597817
 31
0.0
  0
LINE
  5
22DC
330
1A
100
AcDbEntity
  8
点線
 48
6.0
100
AcDbLine
 10
1988.084791275922
 20
6749.803097597811
 30
0.0
 11
1948.084791275922
 21
6749.803097597811
 31
0.0
  0
LINE
  5
22DD
330
1A
100
AcDbEntity
  8
点線
 48
6.0
100
AcDbLine
 10
1988.084791275922
 20
6186.203097597815
 30
0.0
 11
1948.084791275922
 21
6186.203097597815
 31
0.0
  0
LINE
  5
22DE
330
1A
100
AcDbEntity
  8
点線
 48
6.0
100
AcDbLine
 10
1988.084791275922
 20
6166.203097597816
 30
0.0
 11
1948.084791275922
 21
6166.203097597816
 31
0.0
  0
LINE
  5
22DF
330
1A
100
AcDbEntity
  8
点線
 48
6.0
100
AcDbLine
 10
1988.084791275922
 20
6121.203097597816
 30
0.0
 11
1948.084791275922
 21
6121.203097597816
 31
0.0
  0
LINE
  5
22E0
330
1A
100
AcDbEntity
  8
点線
 48
6.0
100
AcDbLine
 10
1948.084791275922
 20
9863.603097597815
 30
0.0
 11
1948.084791275922
 21
9798.603097597814
 31
0.0
  0
LINE
  5
22E1
330
1A
100
AcDbEntity
  8
点線
 48
6.0
100
AcDbLine
 10
1948.084791275922
 20
9235.003097597811
 30
0.0
 11
1948.084791275922
 21
9170.003097597819
 31
0.0
  0
LINE
  5
22E2
330
1A
100
AcDbEntity
  8
点線
 48
6.0
100
AcDbLine
 10
1948.084791275922
 20
8606.403097597818
 30
0.0
 11
1948.084791275922
 21
8541.403097597816
 31
0.0
  0
LINE
  5
22E3
330
1A
100
AcDbEntity
  8
点線
 48
6.0
100
AcDbLine
 10
1948.084791275922
 20
8072.003097597827
 30
0.0
 11
1948.084791275922
 21
8007.003097597815
 31
0.0
  0
LINE
  5
22E4
330
1A
100
AcDbEntity
  8
点線
 48
6.0
100
AcDbLine
 10
1948.084791275922
 20
7443.403097597817
 30
0.0
 11
1948.084791275922
 21
7378.403097597821
 31
0.0
  0
LINE
  5
22E5
330
1A
100
AcDbEntity
  8
点線
 48
6.0
100
AcDbLine
 10
1948.084791275922
 20
6814.803097597816
 30
0.0
 11
1948.084791275922
 21
6749.803097597811
 31
0.0
  0
LINE
  5
22E6
330
1A
100
AcDbEntity
  8
点線
 48
6.0
100
AcDbLine
 10
1948.084791275922
 20
6186.203097597815
 30
0.0
 11
1948.084791275922
 21
6121.203097597816
 31
0.0
  0
LINE
  5
22E7
330
1A
100
AcDbEntity
  8
点線
 48
6.0
100
AcDbLine
 10
7988.084791275922
 20
9863.60309759782
 30
0.0
 11
7988.08479127592
 21
9798.603097597816
 31
0.0
  0
LINE
  5
22E8
330
1A
100
AcDbEntity
  8
点線
 48
6.0
100
AcDbLine
 10
7988.084791275918
 20
9235.003097597816
 30
0.0
 11
7988.084791275918
 21
9170.003097597813
 31
0.0
  0
LINE
  5
22E9
330
1A
100
AcDbEntity
  8
点線
 48
6.0
100
AcDbLine
 10
7988.084791275918
 20
8606.40309759781
 30
0.0
 11
7988.084791275918
 21
8541.403097597813
 31
0.0
  0
LINE
  5
22EA
330
1A
100
AcDbEntity
  8
点線
 48
6.0
100
AcDbLine
 10
7988.084791275918
 20
8072.003097597812
 30
0.0
 11
7988.084791275918
 21
8007.003097597818
 31
0.0
  0
LINE
  5
22EB
330
1A
100
AcDbEntity
  8
点線
 48
6.0
100
AcDbLine
 10
7988.084791275918
 20
7443.403097597819
 30
0.0
 11
7988.084791275918
 21
7378.403097597817
 31
0.0
  0
LINE
  5
22EC
330
1A
100
AcDbEntity
  8
点線
 48
6.0
100
AcDbLine
 10
7988.084791275918
 20
6814.803097597811
 30
0.0
 11
7988.084791275918
 21
6749.803097597814
 31
0.0
  0
LINE
  5
22ED
330
1A
100
AcDbEntity
  8
点線
 48
6.0
100
AcDbLine
 10
7988.084791275918
 20
6186.203097597812
 30
0.0
 11
7988.08479127592
 21
6121.203097597816
 31
0.0
  0
LINE
  5
22EE
330
1A
100
AcDbEntity
  8
点線
 48
50.0
100
AcDbLine
 10
7798.084791275922
 20
6186.203097597815
 30
0.0
 11
7798.084791275922
 21
6749.803097597814
 31
0.0
  0
LINE
  5
22EF
330
1A
100
AcDbEntity
  8
点線
 48
50.0
100
AcDbLine
 10
7738.084791275922
 20
6186.203097597815
 30
0.0
 11
7738.084791275922
 21
6749.803097597814
 31
0.0
  0
LINE
  5
22F0
330
1A
100
AcDbEntity
  8
点線
 48
50.0
100
AcDbLine
 10
7738.084791275922
 20
6814.803097597811
 30
0.0
 11
7738.084791275922
 21
7378.403097597817
 31
0.0
  0
LINE
  5
22F1
330
1A
100
AcDbEntity
  8
点線
 48
50.0
100
AcDbLine
 10
7798.084791275922
 20
6814.803097597811
 30
0.0
 11
7798.084791275922
 21
7378.403097597817
 31
0.0
  0
LINE
  5
22F2
330
1A
100
AcDbEntity
  8
点線
 48
50.0
100
AcDbLine
 10
7798.084791275922
 20
7443.40309759782
 30
0.0
 11
7798.084791275922
 21
8007.003097597818
 31
0.0
  0
LINE
  5
22F3
330
1A
100
AcDbEntity
  8
点線
 48
50.0
100
AcDbLine
 10
7738.084791275922
 20
7443.403097597819
 30
0.0
 11
7738.084791275922
 21
8007.003097597818
 31
0.0
  0
LINE
  5
22F4
330
1A
100
AcDbEntity
  8
点線
 48
50.0
100
AcDbLine
 10
7798.084791275922
 20
8072.003097597812
 30
0.0
 11
7798.084791275922
 21
8166.703097597816
 31
0.0
  0
LINE
  5
22F5
330
1A
100
AcDbEntity
  8
点線
 48
50.0
100
AcDbLine
 10
7738.084791275922
 20
8072.003097597812
 30
0.0
 11
7738.084791275922
 21
8166.703097597816
 31
0.0
  0
LINE
  5
22F6
330
1A
100
AcDbEntity
  8
点線
 48
6.0
100
AcDbLine
 10
2138.084791275922
 20
10492.20309759781
 30
0.0
 11
2138.084791275922
 21
10427.20309759781
 31
0.0
  0
LINE
  5
22F7
330
1A
100
AcDbEntity
  8
点線
 48
6.0
100
AcDbLine
 10
2198.084791275922
 20
10492.20309759781
 30
0.0
 11
2198.084791275922
 21
10427.20309759781
 31
0.0
  0
LINE
  5
22F8
330
1A
100
AcDbEntity
  8
点線
 48
6.0
100
AcDbLine
 10
2138.084791275922
 20
9863.603097597815
 30
0.0
 11
2138.084791275922
 21
9798.603097597816
 31
0.0
  0
LINE
  5
22F9
330
1A
100
AcDbEntity
  8
点線
 48
6.0
100
AcDbLine
 10
2198.084791275922
 20
9863.603097597815
 30
0.0
 11
2198.084791275922
 21
9798.603097597816
 31
0.0
  0
LINE
  5
22FA
330
1A
100
AcDbEntity
  8
点線
 48
6.0
100
AcDbLine
 10
2138.084791275922
 20
9235.003097597811
 30
0.0
 11
2138.084791275922
 21
9170.003097597817
 31
0.0
  0
LINE
  5
22FB
330
1A
100
AcDbEntity
  8
点線
 48
6.0
100
AcDbLine
 10
2198.084791275922
 20
9235.003097597816
 30
0.0
 11
2198.084791275922
 21
9170.003097597817
 31
0.0
  0
LINE
  5
22FC
330
1A
100
AcDbEntity
  8
点線
 48
6.0
100
AcDbLine
 10
2138.084791275922
 20
8606.403097597812
 30
0.0
 11
2138.084791275922
 21
8541.40309759782
 31
0.0
  0
LINE
  5
22FD
330
1A
100
AcDbEntity
  8
点線
 48
6.0
100
AcDbLine
 10
2198.084791275922
 20
8606.403097597812
 30
0.0
 11
2198.084791275922
 21
8541.40309759782
 31
0.0
  0
LINE
  5
22FE
330
1A
100
AcDbEntity
  8
点線
 48
6.0
100
AcDbLine
 10
2138.084791275922
 20
8072.00309759782
 30
0.0
 11
2138.084791275922
 21
8007.003097597818
 31
0.0
  0
LINE
  5
22FF
330
1A
100
AcDbEntity
  8
点線
 48
6.0
100
AcDbLine
 10
2198.084791275922
 20
8072.00309759782
 30
0.0
 11
2198.084791275922
 21
8007.003097597818
 31
0.0
  0
LINE
  5
2300
330
1A
100
AcDbEntity
  8
点線
 48
6.0
100
AcDbLine
 10
2138.084791275922
 20
7443.403097597817
 30
0.0
 11
2138.084791275922
 21
7378.403097597821
 31
0.0
  0
LINE
  5
2301
330
1A
100
AcDbEntity
  8
点線
 48
6.0
100
AcDbLine
 10
2198.084791275922
 20
7443.403097597817
 30
0.0
 11
2198.084791275922
 21
7378.403097597821
 31
0.0
  0
LINE
  5
2302
330
1A
100
AcDbEntity
  8
点線
 48
6.0
100
AcDbLine
 10
2138.084791275922
 20
6814.803097597816
 30
0.0
 11
2138.084791275922
 21
6749.803097597818
 31
0.0
  0
LINE
  5
2303
330
1A
100
AcDbEntity
  8
点線
 48
6.0
100
AcDbLine
 10
2198.084791275922
 20
6814.803097597816
 30
0.0
 11
2198.084791275922
 21
6749.803097597818
 31
0.0
  0
LINE
  5
2304
330
1A
100
AcDbEntity
  8
点線
 48
6.0
100
AcDbLine
 10
2138.084791275925
 20
6186.203097597815
 30
0.0
 11
2138.084791275927
 21
6121.203097597816
 31
0.0
  0
LINE
  5
2305
330
1A
100
AcDbEntity
  8
点線
 48
6.0
100
AcDbLine
 10
2198.084791275926
 20
6186.203097597815
 30
0.0
 11
2198.084791275928
 21
6121.203097597816
 31
0.0
  0
LINE
  5
2306
330
1A
100
AcDbEntity
  8
点線
 48
6.0
100
AcDbLine
 10
4968.084791275918
 20
10492.20309759782
 30
0.0
 11
4968.084791275918
 21
10427.20309759781
 31
0.0
  0
LINE
  5
2307
330
1A
100
AcDbEntity
  8
点線
 48
6.0
100
AcDbLine
 10
4968.084791275918
 20
9863.60309759782
 30
0.0
 11
4968.084791275918
 21
9798.603097597816
 31
0.0
  0
LINE
  5
2308
330
1A
100
AcDbEntity
  8
点線
 48
6.0
100
AcDbLine
 10
4968.084791275918
 20
9235.003097597816
 30
0.0
 11
4968.084791275918
 21
9170.003097597813
 31
0.0
  0
LINE
  5
2309
330
1A
100
AcDbEntity
  8
点線
 48
6.0
100
AcDbLine
 10
4968.084791275918
 20
8606.403097597803
 30
0.0
 11
4968.084791275918
 21
8541.403097597813
 31
0.0
  0
LINE
  5
230A
330
1A
100
AcDbEntity
  8
部品1
100
AcDbLine
 10
4968.084791275915
 20
8072.003097597812
 30
0.0
 11
4968.084791275915
 21
8007.003097597822
 31
0.0
  0
LINE
  5
230B
330
1A
100
AcDbEntity
  8
部品1
100
AcDbLine
 10
4968.084791275915
 20
7443.403097597817
 30
0.0
 11
4968.084791275915
 21
7378.403097597811
 31
0.0
  0
LINE
  5
230C
330
1A
100
AcDbEntity
  8
部品1
100
AcDbLine
 10
4968.084791275916
 20
6814.803097597814
 30
0.0
 11
4968.084791275916
 21
6749.803097597818
 31
0.0
  0
LINE
  5
230D
330
1A
100
AcDbEntity
  8
部品1
100
AcDbLine
 10
4968.084791275918
 20
6186.203097597815
 30
0.0
 11
4968.084791275918
 21
6121.203097597816
 31
0.0
  0
LINE
  5
230E
330
1A
100
AcDbEntity
  8
点線
 48
6.0
100
AcDbLine
 10
4938.084791275916
 20
8072.003097597812
 30
0.0
 11
4938.084791275918
 21
8007.003097597822
 31
0.0
  0
LINE
  5
230F
330
1A
100
AcDbEntity
  8
点線
 48
6.0
100
AcDbLine
 10
4998.084791275917
 20
8072.003097597812
 30
0.0
 11
4998.084791275917
 21
8007.003097597822
 31
0.0
  0
LINE
  5
2310
330
1A
100
AcDbEntity
  8
点線
 48
6.0
100
AcDbLine
 10
4938.084791275918
 20
7443.403097597817
 30
0.0
 11
4938.084791275918
 21
7378.403097597812
 31
0.0
  0
LINE
  5
2311
330
1A
100
AcDbEntity
  8
点線
 48
6.0
100
AcDbLine
 10
4998.084791275918
 20
7443.403097597817
 30
0.0
 11
4998.084791275918
 21
7378.403097597812
 31
0.0
  0
LINE
  5
2312
330
1A
100
AcDbEntity
  8
点線
 48
6.0
100
AcDbLine
 10
4938.084791275918
 20
6814.803097597816
 30
0.0
 11
4938.084791275918
 21
6749.803097597818
 31
0.0
  0
LINE
  5
2313
330
1A
100
AcDbEntity
  8
点線
 48
6.0
100
AcDbLine
 10
4998.084791275917
 20
6814.803097597814
 30
0.0
 11
4998.084791275917
 21
6749.803097597818
 31
0.0
  0
LINE
  5
2314
330
1A
100
AcDbEntity
  8
点線
 48
6.0
100
AcDbLine
 10
4938.08479127592
 20
6186.203097597815
 30
0.0
 11
4938.08479127592
 21
6121.203097597816
 31
0.0
  0
LINE
  5
2315
330
1A
100
AcDbEntity
  8
点線
 48
6.0
100
AcDbLine
 10
4998.084791275921
 20
6186.203097597815
 30
0.0
 11
4998.084791275921
 21
6121.203097597816
 31
0.0
  0
VIEWPORT
  5
22
102
{ACAD_XDICTIONARY
360
287E
102
}
330
17
100
AcDbEntity
 67
     1
  8
0
100
AcDbViewport
 10
261.5176991150442
 20
154.7242978687078
 30
0.0
 40
523.0353982300885
 41
309.4485957374157
 68
     1
 69
     1
 12
261.5176991150442
 22
154.7242978687078
 13
0.0
 23
0.0
 14
1.0
 24
1.0
 15
10.0
 25
10.0
 16
0.0
 26
0.0
 36
1.0
 17
0.0
 27
0.0
 37
0.0
 42
50.0
 43
0.0
 44
0.0
 45
309.4485957374157
 50
0.0
 51
0.0
 72
   100
 90
    32768
  1

281
     0
 71
     1
 74
     0
110
0.0
120
0.0
130
0.0
111
1.0
121
0.0
131
0.0
112
0.0
122
1.0
132
0.0
 79
     0
146
0.0
  0
ENDSEC
  0
SECTION
  2
OBJECTS
  0
DICTIONARY
  5
C
330
0
100
AcDbDictionary
281
     1
  3
ACAD_COLOR
350
17B3
  3
ACAD_GROUP
350
D
  3
ACAD_LAYOUT
350
17B4
  3
ACAD_MATERIAL
350
17B2
  3
ACAD_MLINESTYLE
350
E
  3
ACAD_PLOTSETTINGS
350
17B5
  3
ACAD_PLOTSTYLENAME
350
17B0
  3
ACDBHEADERROUNDTRIPXREC
350
287B
  3
AcDbVariableDictionary
350
2877
  0
DICTIONARY
  5
17DD
330
2
100
AcDbDictionary
280
     1
281
     1
  3
ACAD_LAYERFILTERS
360
18C5
  3
ACAD_LAYERSTATES
360
17DE
  0
DICTIONARY
  5
287E
330
22
100
AcDbDictionary
280
     1
281
     1
  3
ACAD_XREC_ROUNDTRIP
360
287F
  0
DICTIONARY
  5
17B3
102
{ACAD_REACTORS
330
C
102
}
330
C
100
AcDbDictionary
281
     1
  0
DICTIONARY
  5
D
102
{ACAD_REACTORS
330
C
102
}
330
C
100
AcDbDictionary
281
     1
  0
DICTIONARY
  5
17B4
102
{ACAD_REACTORS
330
C
102
}
330
C
100
AcDbDictionary
281
     1
  3
Model
350
17B6
  3
レイアウト1
350
17B7
  0
DICTIONARY
  5
17B2
102
{ACAD_REACTORS
330
C
102
}
330
C
100
AcDbDictionary
281
     1
  0
DICTIONARY
  5
E
102
{ACAD_REACTORS
330
C
102
}
330
C
100
AcDbDictionary
281
     1
  3
STANDARD
350
13
  0
DICTIONARY
  5
17B5
102
{ACAD_REACTORS
330
C
102
}
330
C
100
AcDbDictionary
281
     1
  0
ACDBDICTIONARYWDFLT
  5
17B0
102
{ACAD_REACTORS
330
C
102
}
330
C
100
AcDbDictionary
281
     1
  3
Normal
350
17B1
100
AcDbDictionaryWithDefault
340
17B1
  0
DICTIONARY
  5
287B
102
{ACAD_REACTORS
330
C
102
}
330
C
100
AcDbDictionary
281
     1
  3
COLORDICT
350
287D
  3
MATERIALDICT
350
287C
  0
DICTIONARY
  5
2877
102
{ACAD_REACTORS
330
C
102
}
330
C
100
AcDbDictionary
281
     1
  3
DIMASSOC
350
2878
  3
PROJECTNAME
350
2879
  0
DICTIONARY
  5
18C5
102
{ACAD_REACTORS
330
17DD
102
}
330
17DD
100
AcDbDictionary
281
     1
  0
DICTIONARY
  5
17DE
102
{ACAD_REACTORS
330
17DD
102
}
330
17DD
100
AcDbDictionary
281
     1
  0
XRECORD
  5
287F
102
{ACAD_REACTORS
330
287E
102
}
330
287E
100
AcDbXrecord
280
     1
102
SHADEPLOT
 70
     0
  0
LAYOUT
  5
17B6
102
{ACAD_XDICTIONARY
360
2880
102
}
102
{ACAD_REACTORS
330
17B4
102
}
330
17B4
100
AcDbPlotSettings
  1

  2
iR C3880
  4
A3
  6

 40
5.873749732971191
 41
5.873747825622558
 42
5.873748779296875
 43
5.873748779296875
 44
296.9259948730469
 45
419.9466552734374
 46
0.0
 47
0.0
 48
0.0
 49
0.0
140
0.0
141
0.0
142
1.0
143
40.0
 70
 11952
 72
     1
 73
     1
 74
     2
  7
inaba.ctb
 75
    24
147
0.025
148
0.0
149
0.0
100
AcDbLayout
  1
Model
 70
     1
 71
     0
 10
0.0
 20
0.0
 11
12.0
 21
9.0
 12
0.0
 22
0.0
 32
0.0
 14
0.0
 24
0.0
 34
0.0
 15
0.0
 25
0.0
 35
0.0
146
0.0
 13
0.0
 23
0.0
 33
0.0
 16
1.0
 26
0.0
 36
0.0
 17
0.0
 27
1.0
 37
0.0
 76
     0
330
1A
  0
LAYOUT
  5
17B7
102
{ACAD_XDICTIONARY
360
2882
102
}
102
{ACAD_REACTORS
330
17B4
102
}
330
17B4
100
AcDbPlotSettings
  1

  2
自動 EPSON LP-8400FX (TATENO 上)
  4

  6

 40
0.0
 41
0.0
 42
0.0
 43
0.0
 44
0.0
 45
0.0
 46
0.0
 47
0.0
 48
0.0
 49
0.0
140
0.0
141
0.0
142
1.0
143
1.0
 70
   688
 72
     0
 73
     0
 74
     5
  7
inaba.ctb
 75
    16
147
1.0
148
0.0
149
0.0
100
AcDbLayout
  1
レイアウト1
 70
     1
 71
     1
 10
0.0
 20
0.0
 11
420.0
 21
297.0
 12
0.0
 22
0.0
 32
0.0
 14
1.000000000000000E+20
 24
1.000000000000000E+20
 34
1.000000000000000E+20
 15
-1.000000000000000E+20
 25
-1.000000000000000E+20
 35
-1.000000000000000E+20
146
0.0
 13
0.0
 23
0.0
 33
0.0
 16
1.0
 26
0.0
 36
0.0
 17
0.0
 27
1.0
 37
0.0
 76
     0
330
17
331
22
  0
MLINESTYLE
  5
13
102
{ACAD_REACTORS
330
E
102
}
330
E
100
AcDbMlineStyle
  2
STANDARD
 70
     0
  3

 62
     0
 51
90.0
 52
90.0
 71
     2
 49
0.5
 62
   256
  6
BYLAYER
 49
-0.5
 62
   256
  6
BYLAYER
  0
ACDBPLACEHOLDER
  5
17B1
102
{ACAD_REACTORS
330
17B0
102
}
330
17B0
  0
XRECORD
  5
287D
102
{ACAD_REACTORS
330
287B
102
}
330
287B
100
AcDbXrecord
280
     1
340
17B3
  0
XRECORD
  5
287C
102
{ACAD_REACTORS
330
287B
102
}
330
287B
100
AcDbXrecord
280
     1
340
17B2
  0
DICTIONARYVAR
  5
2878
102
{ACAD_REACTORS
330
2877
102
}
330
2877
100
DictionaryVariables
280
     0
  1
1
  0
DICTIONARYVAR
  5
2879
102
{ACAD_REACTORS
330
2877
102
}
330
2877
100
DictionaryVariables
280
     0
  1

  0
DICTIONARY
  5
2880
330
17B6
100
AcDbDictionary
280
     1
281
     1
  3
ACAD_XREC_ROUNDTRIP
360
2881
  0
DICTIONARY
  5
2882
330
17B7
100
AcDbDictionary
280
     1
281
     1
  3
ACAD_XREC_ROUNDTRIP
360
2883
  0
XRECORD
  5
2881
102
{ACAD_REACTORS
330
2880
102
}
330
2880
100
AcDbXrecord
280
     1
102
SHADEPLOT
 70
     0
102
SHADEPLOTRESLEVEL
 70
     2
102
SHADEPLOTCUSTOMDPI
 70
   300
  0
XRECORD
  5
2883
102
{ACAD_REACTORS
330
2882
102
}
330
2882
100
AcDbXrecord
280
     1
102
SHADEPLOT
 70
     0
102
SHADEPLOTRESLEVEL
 70
     2
102
SHADEPLOTCUSTOMDPI
 70
   300
  0
ENDSEC
  0
EOF
