  0
SECTION
  2
HEADER
  9
$ACADVER
  1
AC1015
  9
$ACADMAINTVER
 70
    20
  9
$DWGCODEPAGE
  3
ANSI_932
  9
$INSBASE
 10
0.0
 20
0.0
 30
0.0
  9
$EXTMIN
 10
128.8000000000011
 20
264.0
 30
0.0
  9
$EXTMAX
 10
16296.0
 20
11006.70309759781
 30
0.0
  9
$LIMMIN
 10
0.0
 20
0.0
  9
$LIMMAX
 10
16800.0
 20
11880.0
  9
$ORTHOMODE
 70
     0
  9
$REGENMODE
 70
     1
  9
$FILLMODE
 70
     1
  9
$QTEXTMODE
 70
     0
  9
$MIRRTEXT
 70
     1
  9
$LTSCALE
 40
7.0
  9
$ATTMODE
 70
     1
  9
$TEXTSIZE
 40
3.5
  9
$TRACEWID
 40
1.0
  9
$TEXTSTYLE
  7
MSGOTHIC
  9
$CLAYER
  8
仕様書枠
  9
$CELTYPE
  6
BYLAYER
  9
$CECOLOR
 62
   256
  9
$CELTSCALE
 40
50.0
  9
$DISPSILH
 70
     0
  9
$DIMSCALE
 40
40.0
  9
$DIMASZ
 40
2.5
  9
$DIMEXO
 40
1.0
  9
$DIMDLI
 40
7.0
  9
$DIMRND
 40
0.0
  9
$DIMDLE
 40
0.0
  9
$DIMEXE
 40
1.0
  9
$DIMTP
 40
0.0
  9
$DIMTM
 40
0.0
  9
$DIMTXT
 40
3.0
  9
$DIMCEN
 40
2.5
  9
$DIMTSZ
 40
0.0
  9
$DIMTOL
 70
     0
  9
$DIMLIM
 70
     0
  9
$DIMTIH
 70
     0
  9
$DIMTOH
 70
     0
  9
$DIMSE1
 70
     0
  9
$DIMSE2
 70
     0
  9
$DIMTAD
 70
     3
  9
$DIMZIN
 70
     8
  9
$DIMBLK
  1

  9
$DIMASO
 70
     1
  9
$DIMSHO
 70
     1
  9
$DIMPOST
  1

  9
$DIMAPOST
  1

  9
$DIMALT
 70
     0
  9
$DIMALTD
 70
     2
  9
$DIMALTF
 40
0.0394
  9
$DIMLFAC
 40
1.0
  9
$DIMTOFL
 70
     0
  9
$DIMTVP
 40
1.0
  9
$DIMTIX
 70
     0
  9
$DIMSOXD
 70
     0
  9
$DIMSAH
 70
     1
  9
$DIMBLK1
  1
DOTSMALL
  9
$DIMBLK2
  1
DOTSMALL
  9
$DIMSTYLE
  2
物置仕様図40
  9
$DIMCLRD
 70
     4
  9
$DIMCLRE
 70
     4
  9
$DIMCLRT
 70
     7
  9
$DIMTFAC
 40
1.0
  9
$DIMGAP
 40
1.0
  9
$DIMJUST
 70
     0
  9
$DIMSD1
 70
     0
  9
$DIMSD2
 70
     0
  9
$DIMTOLJ
 70
     1
  9
$DIMTZIN
 70
     8
  9
$DIMALTZ
 70
     0
  9
$DIMALTTZ
 70
     0
  9
$DIMUPT
 70
     0
  9
$DIMDEC
 70
     2
  9
$DIMTDEC
 70
     2
  9
$DIMALTU
 70
     2
  9
$DIMALTTD
 70
     2
  9
$DIMTXSTY
  7
STANDARD
  9
$DIMAUNIT
 70
     0
  9
$DIMADEC
 70
     0
  9
$DIMALTRND
 40
0.0
  9
$DIMAZIN
 70
     0
  9
$DIMDSEP
 70
    46
  9
$DIMATFIT
 70
     3
  9
$DIMFRAC
 70
     0
  9
$DIMLDRBLK
  1

  9
$DIMLUNIT
 70
     2
  9
$DIMLWD
 70
    -2
  9
$DIMLWE
 70
    -2
  9
$DIMTMOVE
 70
     2
  9
$LUNITS
 70
     2
  9
$LUPREC
 70
     1
  9
$SKETCHINC
 40
1.0
  9
$FILLETRAD
 40
5.0
  9
$AUNITS
 70
     0
  9
$AUPREC
 70
     1
  9
$MENU
  1
.
  9
$ELEVATION
 40
0.0
  9
$PELEVATION
 40
0.0
  9
$THICKNESS
 40
0.0
  9
$LIMCHECK
 70
     0
  9
$CHAMFERA
 40
400.0
  9
$CHAMFERB
 40
400.0
  9
$CHAMFERC
 40
800.0
  9
$CHAMFERD
 40
0.0
  9
$SKPOLY
 70
     0
  9
$TDCREATE
 40
2450696.487780324
  9
$TDUCREATE
 40
2450696.112780324
  9
$TDUPDATE
 40
2455579.570549584
  9
$TDUUPDATE
 40
2455579.195549584
  9
$TDINDWG
 40
0.4343482060
  9
$TDUSRTIMER
 40
0.4343482060
  9
$USRTIMER
 70
     1
  9
$ANGBASE
 50
0.0
  9
$ANGDIR
 70
     0
  9
$PDMODE
 70
     0
  9
$PDSIZE
 40
0.0
  9
$PLINEWID
 40
0.0
  9
$SPLFRAME
 70
     0
  9
$SPLINETYPE
 70
     6
  9
$SPLINESEGS
 70
     8
  9
$HANDSEED
  5
283A
  9
$SURFTAB1
 70
     6
  9
$SURFTAB2
 70
     6
  9
$SURFTYPE
 70
     6
  9
$SURFU
 70
     6
  9
$SURFV
 70
     6
  9
$UCSBASE
  2

  9
$UCSNAME
  2

  9
$UCSORG
 10
0.0
 20
0.0
 30
0.0
  9
$UCSXDIR
 10
1.0
 20
0.0
 30
0.0
  9
$UCSYDIR
 10
0.0
 20
1.0
 30
0.0
  9
$UCSORTHOREF
  2

  9
$UCSORTHOVIEW
 70
     0
  9
$UCSORGTOP
 10
0.0
 20
0.0
 30
0.0
  9
$UCSORGBOTTOM
 10
0.0
 20
0.0
 30
0.0
  9
$UCSORGLEFT
 10
0.0
 20
0.0
 30
0.0
  9
$UCSORGRIGHT
 10
0.0
 20
0.0
 30
0.0
  9
$UCSORGFRONT
 10
0.0
 20
0.0
 30
0.0
  9
$UCSORGBACK
 10
0.0
 20
0.0
 30
0.0
  9
$PUCSBASE
  2

  9
$PUCSNAME
  2

  9
$PUCSORG
 10
0.0
 20
0.0
 30
0.0
  9
$PUCSXDIR
 10
1.0
 20
0.0
 30
0.0
  9
$PUCSYDIR
 10
0.0
 20
1.0
 30
0.0
  9
$PUCSORTHOREF
  2

  9
$PUCSORTHOVIEW
 70
     0
  9
$PUCSORGTOP
 10
0.0
 20
0.0
 30
0.0
  9
$PUCSORGBOTTOM
 10
0.0
 20
0.0
 30
0.0
  9
$PUCSORGLEFT
 10
0.0
 20
0.0
 30
0.0
  9
$PUCSORGRIGHT
 10
0.0
 20
0.0
 30
0.0
  9
$PUCSORGFRONT
 10
0.0
 20
0.0
 30
0.0
  9
$PUCSORGBACK
 10
0.0
 20
0.0
 30
0.0
  9
$USERI1
 70
     0
  9
$USERI2
 70
     0
  9
$USERI3
 70
     0
  9
$USERI4
 70
     0
  9
$USERI5
 70
     0
  9
$USERR1
 40
0.0
  9
$USERR2
 40
0.0
  9
$USERR3
 40
0.0
  9
$USERR4
 40
0.0
  9
$USERR5
 40
0.0
  9
$WORLDVIEW
 70
     1
  9
$SHADEDGE
 70
     3
  9
$SHADEDIF
 70
    70
  9
$TILEMODE
 70
     1
  9
$MAXACTVP
 70
    16
  9
$PINSBASE
 10
0.0
 20
0.0
 30
0.0
  9
$PLIMCHECK
 70
     0
  9
$PEXTMIN
 10
1.000000000000000E+20
 20
1.000000000000000E+20
 30
1.000000000000000E+20
  9
$PEXTMAX
 10
-1.000000000000000E+20
 20
-1.000000000000000E+20
 30
-1.000000000000000E+20
  9
$PLIMMIN
 10
0.0
 20
0.0
  9
$PLIMMAX
 10
420.0
 20
297.0
  9
$UNITMODE
 70
     0
  9
$VISRETAIN
 70
     0
  9
$PLINEGEN
 70
     0
  9
$PSLTSCALE
 70
     1
  9
$TREEDEPTH
 70
  3020
  9
$CMLSTYLE
  2
STANDARD
  9
$CMLJUST
 70
     0
  9
$CMLSCALE
 40
1.0
  9
$PROXYGRAPHICS
 70
     1
  9
$MEASUREMENT
 70
     1
  9
$CELWEIGHT
370
    -1
  9
$ENDCAPS
280
     0
  9
$JOINSTYLE
280
     0
  9
$LWDISPLAY
290
     0
  9
$INSUNITS
 70
     0
  9
$HYPERLINKBASE
  1

  9
$STYLESHEET
  1
inaba.ctb
  9
$XEDIT
290
     1
  9
$CEPSNTYPE
380
     0
  9
$PSTYLEMODE
290
     1
  9
$FINGERPRINTGUID
  2
{79BAF060-0357-455F-9BB3-0AEA31AB33DF}
  9
$VERSIONGUID
  2
{56B7EBA7-2798-4405-B77B-570CF58E2679}
  9
$EXTNAMES
290
     1
  9
$PSVPSCALE
 40
0.0
  9
$OLESTARTUP
290
     0
  0
ENDSEC
  0
SECTION
  2
CLASSES
  0
CLASS
  1
ACDBDICTIONARYWDFLT
  2
AcDbDictionaryWithDefault
  3
ObjectDBX Classes
 90
        0
280
     0
281
     0
  0
CLASS
  1
DICTIONARYVAR
  2
AcDbDictionaryVar
  3
ObjectDBX Classes
 90
        0
280
     0
281
     0
  0
CLASS
  1
ACDBPLACEHOLDER
  2
AcDbPlaceHolder
  3
ObjectDBX Classes
 90
        0
280
     0
281
     0
  0
CLASS
  1
LAYOUT
  2
AcDbLayout
  3
ObjectDBX Classes
 90
        0
280
     0
281
     0
  0
ENDSEC
  0
SECTION
  2
TABLES
  0
TABLE
  2
VPORT
  5
8
330
0
100
AcDbSymbolTable
 70
     2
  0
VPORT
  5
2830
330
8
100
AcDbSymbolTableRecord
100
AcDbViewportTableRecord
  2
*Active
 70
     0
 10
0.0
 20
0.0
 11
1.0
 21
1.0
 12
10067.6157982568
 22
5635.459011680746
 13
0.0
 23
0.0
 14
420.0
 24
420.0
 15
420.0
 25
420.0
 16
0.0
 26
0.0
 36
1.0
 17
0.0
 27
0.0
 37
0.0
 40
13252.7886968784
 41
1.5075
 42
50.0
 43
0.0
 44
0.0
 50
0.0
 51
0.0
 71
     0
 72
   100
 73
     1
 74
     0
 75
     0
 76
     0
 77
     0
 78
     1
281
     0
 65
     1
110
0.0
120
0.0
130
0.0
111
1.0
121
0.0
131
0.0
112
0.0
122
1.0
132
0.0
 79
     0
146
0.0
  0
ENDTAB
  0
TABLE
  2
LTYPE
  5
5
330
0
100
AcDbSymbolTable
 70
     3
  0
LTYPE
  5
14
330
5
100
AcDbSymbolTableRecord
100
AcDbLinetypeTableRecord
  2
BYBLOCK
 70
     0
  3

 72
    65
 73
     0
 40
0.0
  0
LTYPE
  5
15
330
5
100
AcDbSymbolTableRecord
100
AcDbLinetypeTableRecord
  2
BYLAYER
 70
     0
  3

 72
    65
 73
     0
 40
0.0
  0
LTYPE
  5
16
330
5
100
AcDbSymbolTableRecord
100
AcDbLinetypeTableRecord
  2
CONTINUOUS
 70
     0
  3
Solid line
 72
    65
 73
     0
 40
0.0
  0
LTYPE
  5
61
330
5
100
AcDbSymbolTableRecord
100
AcDbLinetypeTableRecord
  2
CENTER
 70
     0
  3
____ _ ____ _ ____ _ ____ _ ____ _ ____ _ ____ 
 72
    65
 73
     4
 40
2.0
 49
1.25
 74
     0
 49
-0.25
 74
     0
 49
0.25
 74
     0
 49
-0.25
 74
     0
  0
LTYPE
  5
62
330
5
100
AcDbSymbolTableRecord
100
AcDbLinetypeTableRecord
  2
HIDDEN
 70
     0
  3
__ __ __ __ __ __ __ __ __ __ __ __ __ __ __ __
 72
    65
 73
     2
 40
0.375
 49
0.25
 74
     0
 49
-0.125
 74
     0
  0
ENDTAB
  0
TABLE
  2
LAYER
  5
2
102
{ACAD_XDICTIONARY
360
17DD
102
}
330
0
100
AcDbSymbolTable
 70
    10
  0
LAYER
  5
F
330
2
100
AcDbSymbolTableRecord
100
AcDbLayerTableRecord
  2
0
 70
     0
 62
     7
  6
CONTINUOUS
370
    -3
390
17B1
  0
LAYER
  5
63
330
2
100
AcDbSymbolTableRecord
100
AcDbLayerTableRecord
  2
細線
 70
     0
 62
     5
  6
CONTINUOUS
370
    -3
390
17B1
  0
LAYER
  5
64
330
2
100
AcDbSymbolTableRecord
100
AcDbLayerTableRecord
  2
寸法
 70
     0
 62
     4
  6
CONTINUOUS
370
    -3
390
17B1
  0
LAYER
  5
65
330
2
100
AcDbSymbolTableRecord
100
AcDbLayerTableRecord
  2
センター
 70
     0
 62
     3
  6
CENTER
370
    -3
390
17B1
  0
LAYER
  5
92A
330
2
100
AcDbSymbolTableRecord
100
AcDbLayerTableRecord
  2
DEFPOINTS
 70
     0
 62
     7
  6
CONTINUOUS
290
     0
370
    -3
390
17B1
  0
LAYER
  5
118B
330
2
100
AcDbSymbolTableRecord
100
AcDbLayerTableRecord
  2
Ｇ．Ｌ
 70
     0
 62
    30
  6
CONTINUOUS
370
    -3
390
17B1
  0
LAYER
  5
13EC
330
2
100
AcDbSymbolTableRecord
100
AcDbLayerTableRecord
  2
文字
 70
     0
 62
     7
  6
CONTINUOUS
370
    -3
390
17B1
  0
LAYER
  5
13ED
330
2
100
AcDbSymbolTableRecord
100
AcDbLayerTableRecord
  2
仕様書枠
 70
     0
 62
   230
  6
CONTINUOUS
370
    -3
390
17B1
  0
LAYER
  5
1748
330
2
100
AcDbSymbolTableRecord
100
AcDbLayerTableRecord
  2
部品1
 70
     0
 62
     7
  6
CONTINUOUS
370
    -3
390
17B1
  0
LAYER
  5
187A
330
2
100
AcDbSymbolTableRecord
100
AcDbLayerTableRecord
  2
点線
 70
     0
 62
     2
  6
HIDDEN
370
    -3
390
17B1
  0
ENDTAB
  0
TABLE
  2
STYLE
  5
3
330
0
100
AcDbSymbolTable
 70
     7
  0
STYLE
  5
10
330
3
100
AcDbSymbolTableRecord
100
AcDbTextStyleTableRecord
  2
STANDARD
 70
     0
 40
0.0
 41
1.0
 50
0.0
 71
     0
 42
100.0
  3
ISOCP
  4
C:\Program Files\AutoCAD LT\bigfont.shx
  0
STYLE
  5
373
330
3
100
AcDbSymbolTableRecord
100
AcDbTextStyleTableRecord
  2
MSGOTHIC
 70
     0
 40
0.0
 41
1.0
 50
0.0
 71
     0
 42
3.5
  3
MS PGothic.ttf
  4

1001
ACAD
1000
MS PGothic
1071
    32818
  0
STYLE
  5
374
330
3
100
AcDbSymbolTableRecord
100
AcDbTextStyleTableRecord
  2
MSMINCHO
 70
     0
 40
0.0
 41
1.0
 50
0.0
 71
     0
 42
1.199999999999999
  3
msminch2.TTF
  4

  0
STYLE
  5
13EE
330
3
100
AcDbSymbolTableRecord
100
AcDbTextStyleTableRecord
  2
STYLE2
 70
     0
 40
0.0
 41
1.0
 50
0.0
 71
     0
 42
100.0
  3
MS PGothic.ttf
  4

1001
ACAD
1000
MS PGothic
1071
    32818
  0
STYLE
  5
17DC
330
3
100
AcDbSymbolTableRecord
100
AcDbTextStyleTableRecord
  2
STYLE1
 70
     0
 40
0.0
 41
1.0
 50
0.0
 71
     0
 42
4.0
  3
isocp.shx
  4
bigfont.shx
  0
STYLE
  5
19E4
330
3
100
AcDbSymbolTableRecord
100
AcDbTextStyleTableRecord
  2

 70
     1
 40
0.0
 41
1.0
 50
0.0
 71
     0
 42
100.0
  3
ltypeshp.shx
  4

  0
STYLE
  5
19E5
330
3
100
AcDbSymbolTableRecord
100
AcDbTextStyleTableRecord
  2
STYLE3
 70
     0
 40
0.0
 41
1.0
 50
0.0
 71
     0
 42
100.0
  3
MS PGothic.ttf
  4

1001
ACAD
1000
MS PGothic
1071
    32818
  0
ENDTAB
  0
TABLE
  2
VIEW
  5
6
330
0
100
AcDbSymbolTable
 70
     0
  0
ENDTAB
  0
TABLE
  2
UCS
  5
7
330
0
100
AcDbSymbolTable
 70
     0
  0
ENDTAB
  0
TABLE
  2
APPID
  5
9
330
0
100
AcDbSymbolTable
 70
     1
  0
APPID
  5
11
330
9
100
AcDbSymbolTableRecord
100
AcDbRegAppTableRecord
  2
ACAD
 70
     0
  0
ENDTAB
  0
TABLE
  2
DIMSTYLE
  5
A
330
0
100
AcDbSymbolTable
 70
     3
100
AcDbDimStyleTable
 71
     1
340
92
  0
DIMSTYLE
105
1D
330
A
100
AcDbSymbolTableRecord
100
AcDbDimStyleTableRecord
  2
STANDARD
 70
     0
340
10
  0
DIMSTYLE
105
92
102
{ACAD_REACTORS
330
206D
330
20A4
330
20A8
330
20AC
330
20AD
330
20C7
330
20C8
330
20C9
330
20E2
330
20E3
330
21B6
330
21B7
330
21CF
330
21D0
330
21D1
330
21DF
330
21E0
330
21E3
330
21E4
330
2264
330
226E
330
2279
330
1F3C
330
1F3D
330
1F3E
330
1F3F
330
1F40
330
1F41
330
1F44
330
1F45
330
1F4C
330
1F5A
330
1F5B
330
1F7B
330
1FAA
102
}
330
A
100
AcDbSymbolTableRecord
100
AcDbDimStyleTableRecord
  2
物置仕様図40
 70
     0
 40
40.0
 41
2.5
 42
1.0
 43
7.0
 44
1.0
 73
     0
 74
     0
 77
     3
 78
     8
140
3.0
141
2.5
143
0.0394
145
1.0
147
1.0
173
     1
176
     4
177
     4
178
     7
271
     2
272
     2
279
     2
284
     8
340
10
341
E5C
343
E5C
344
E5C
  0
DIMSTYLE
105
19E6
330
A
100
AcDbSymbolTableRecord
100
AcDbDimStyleTableRecord
  2
INABA_S30G
 70
     0
 40
30.0
 41
2.5
 42
0.5
 43
7.0
 44
1.5
 73
     0
 74
     0
 77
     3
 78
     8
140
3.0
141
0.0
143
0.0394
147
1.0
172
     1
173
     1
174
     1
175
     1
178
     7
271
     1
340
17DC
341
E5C
343
E5C
344
E5C
  0
ENDTAB
  0
TABLE
  2
BLOCK_RECORD
  5
1
330
0
100
AcDbSymbolTable
 70
    36
  0
BLOCK_RECORD
  5
1A
330
1
100
AcDbSymbolTableRecord
100
AcDbBlockTableRecord
  2
*MODEL_SPACE
340
17B6
  0
BLOCK_RECORD
  5
17
330
1
100
AcDbSymbolTableRecord
100
AcDbBlockTableRecord
  2
*PAPER_SPACE
340
17B7
  0
BLOCK_RECORD
  5
E5C
330
1
100
AcDbSymbolTableRecord
100
AcDbBlockTableRecord
  2
_DOTSMALL
340
0
102
{BLKREFS
331
26CA
331
26CB
331
26D1
331
26D2
331
26DC
331
26DD
331
26E5
331
26E6
331
26EC
331
26ED
331
26F5
331
26F6
331
26FD
331
26FE
331
270F
331
2710
331
2717
331
2718
331
2728
331
2729
331
2732
331
2733
331
2739
331
273A
331
2742
331
2743
331
274A
331
274B
331
2752
331
2753
331
2759
331
275A
331
2761
331
2762
331
276A
331
276B
331
2771
331
2772
331
2782
331
2783
331
278B
331
278C
331
279C
331
279D
331
27A5
331
27A6
331
27AE
331
27AF
331
27B6
331
27B7
331
27BF
331
27C0
331
27C8
331
27C9
331
27CF
331
27D0
331
27D8
331
27D9
331
27E0
331
27E1
331
27E9
331
27EA
331
2804
331
2805
331
280C
331
280D
331
2814
331
2815
331
281C
331
281D
102
}
  0
BLOCK_RECORD
  5
22E4
330
1
100
AcDbSymbolTableRecord
100
AcDbBlockTableRecord
  2
*D1
340
0
  0
BLOCK_RECORD
  5
22EF
330
1
100
AcDbSymbolTableRecord
100
AcDbBlockTableRecord
  2
*D2
340
0
  0
BLOCK_RECORD
  5
22FA
330
1
100
AcDbSymbolTableRecord
100
AcDbBlockTableRecord
  2
*D3
340
0
  0
BLOCK_RECORD
  5
2305
330
1
100
AcDbSymbolTableRecord
100
AcDbBlockTableRecord
  2
*D4
340
0
  0
BLOCK_RECORD
  5
2310
330
1
100
AcDbSymbolTableRecord
100
AcDbBlockTableRecord
  2
*D5
340
0
  0
BLOCK_RECORD
  5
231B
330
1
100
AcDbSymbolTableRecord
100
AcDbBlockTableRecord
  2
*D6
340
0
  0
BLOCK_RECORD
  5
2326
330
1
100
AcDbSymbolTableRecord
100
AcDbBlockTableRecord
  2
*D7
340
0
  0
BLOCK_RECORD
  5
2331
330
1
100
AcDbSymbolTableRecord
100
AcDbBlockTableRecord
  2
*D8
340
0
  0
BLOCK_RECORD
  5
233C
330
1
100
AcDbSymbolTableRecord
100
AcDbBlockTableRecord
  2
*D9
340
0
  0
BLOCK_RECORD
  5
2347
330
1
100
AcDbSymbolTableRecord
100
AcDbBlockTableRecord
  2
*D10
340
0
  0
BLOCK_RECORD
  5
2353
330
1
100
AcDbSymbolTableRecord
100
AcDbBlockTableRecord
  2
*D11
340
0
  0
BLOCK_RECORD
  5
235F
330
1
100
AcDbSymbolTableRecord
100
AcDbBlockTableRecord
  2
*D12
340
0
  0
BLOCK_RECORD
  5
236A
330
1
100
AcDbSymbolTableRecord
100
AcDbBlockTableRecord
  2
*D13
340
0
  0
BLOCK_RECORD
  5
2376
330
1
100
AcDbSymbolTableRecord
100
AcDbBlockTableRecord
  2
*D14
340
0
  0
BLOCK_RECORD
  5
2382
330
1
100
AcDbSymbolTableRecord
100
AcDbBlockTableRecord
  2
*D15
340
0
  0
BLOCK_RECORD
  5
238D
330
1
100
AcDbSymbolTableRecord
100
AcDbBlockTableRecord
  2
*D16
340
0
  0
BLOCK_RECORD
  5
2398
330
1
100
AcDbSymbolTableRecord
100
AcDbBlockTableRecord
  2
*D17
340
0
  0
BLOCK_RECORD
  5
23A4
330
1
100
AcDbSymbolTableRecord
100
AcDbBlockTableRecord
  2
*D18
340
0
  0
BLOCK_RECORD
  5
23AF
330
1
100
AcDbSymbolTableRecord
100
AcDbBlockTableRecord
  2
*D19
340
0
  0
BLOCK_RECORD
  5
23BB
330
1
100
AcDbSymbolTableRecord
100
AcDbBlockTableRecord
  2
*D20
340
0
  0
BLOCK_RECORD
  5
23C8
330
1
100
AcDbSymbolTableRecord
100
AcDbBlockTableRecord
  2
*D21
340
0
  0
BLOCK_RECORD
  5
23D3
330
1
100
AcDbSymbolTableRecord
100
AcDbBlockTableRecord
  2
*D22
340
0
  0
BLOCK_RECORD
  5
23DF
330
1
100
AcDbSymbolTableRecord
100
AcDbBlockTableRecord
  2
*D23
340
0
  0
BLOCK_RECORD
  5
23EB
330
1
100
AcDbSymbolTableRecord
100
AcDbBlockTableRecord
  2
*D24
340
0
  0
BLOCK_RECORD
  5
23F6
330
1
100
AcDbSymbolTableRecord
100
AcDbBlockTableRecord
  2
*D25
340
0
  0
BLOCK_RECORD
  5
2401
330
1
100
AcDbSymbolTableRecord
100
AcDbBlockTableRecord
  2
*D26
340
0
  0
BLOCK_RECORD
  5
240C
330
1
100
AcDbSymbolTableRecord
100
AcDbBlockTableRecord
  2
*D27
340
0
  0
BLOCK_RECORD
  5
2417
330
1
100
AcDbSymbolTableRecord
100
AcDbBlockTableRecord
  2
*D28
340
0
  0
BLOCK_RECORD
  5
2423
330
1
100
AcDbSymbolTableRecord
100
AcDbBlockTableRecord
  2
*D29
340
0
  0
BLOCK_RECORD
  5
242F
330
1
100
AcDbSymbolTableRecord
100
AcDbBlockTableRecord
  2
*D30
340
0
  0
BLOCK_RECORD
  5
243A
330
1
100
AcDbSymbolTableRecord
100
AcDbBlockTableRecord
  2
*D31
340
0
  0
BLOCK_RECORD
  5
2446
330
1
100
AcDbSymbolTableRecord
100
AcDbBlockTableRecord
  2
*D32
340
0
  0
BLOCK_RECORD
  5
2452
330
1
100
AcDbSymbolTableRecord
100
AcDbBlockTableRecord
  2
*D33
340
0
  0
BLOCK_RECORD
  5
245D
330
1
100
AcDbSymbolTableRecord
100
AcDbBlockTableRecord
  2
*D34
340
0
  0
BLOCK_RECORD
  5
2469
330
1
100
AcDbSymbolTableRecord
100
AcDbBlockTableRecord
  2
*D35
340
0
  0
ENDTAB
  0
ENDSEC
  0
SECTION
  2
BLOCKS
  0
BLOCK
  5
1B
330
1A
100
AcDbEntity
  8
0
100
AcDbBlockBegin
  2
*MODEL_SPACE
 70
     0
 10
0.0
 20
0.0
 30
0.0
  3
*MODEL_SPACE
  1

  0
ENDBLK
  5
1C
330
1A
100
AcDbEntity
  8
0
100
AcDbBlockEnd
  0
BLOCK
  5
18
330
17
100
AcDbEntity
 67
     1
  8
0
100
AcDbBlockBegin
  2
*PAPER_SPACE
 70
     0
 10
0.0
 20
0.0
 30
0.0
  3
*PAPER_SPACE
  1

  0
ENDBLK
  5
19
330
17
100
AcDbEntity
 67
     1
  8
0
100
AcDbBlockEnd
  0
BLOCK
  5
E5D
330
E5C
100
AcDbEntity
  8
0
100
AcDbBlockBegin
  2
_DOTSMALL
 70
     0
 10
0.0
 20
0.0
 30
0.0
  3
_DOTSMALL
  1

  0
LWPOLYLINE
  5
E5E
330
E5C
100
AcDbEntity
  8
0
  6
ByBlock
 62
     0
100
AcDbPolyline
 90
        2
 70
     1
 43
0.5
 10
-0.0625
 20
0.0
 42
1.0
 10
0.0625
 20
0.0
 42
1.0
  0
ENDBLK
  5
E62
330
E5C
100
AcDbEntity
  8
0
100
AcDbBlockEnd
  0
BLOCK
  5
22ED
330
22E4
100
AcDbEntity
  8
0
 48
50.0
100
AcDbBlockBegin
  2
*D1
 70
     1
 10
0.0
 20
0.0
 30
0.0
  3
*D1
  1

  0
LINE
  5
280A
330
22E4
100
AcDbEntity
  8
寸法
 62
     4
 48
50.0
370
    -2
100
AcDbLine
 10
8018.084791275922
 20
4529.900949614034
 30
0.0
 11
8018.084791275922
 21
4825.459815648813
 31
0.0
  0
LINE
  5
280B
330
22E4
100
AcDbEntity
  8
寸法
 62
     4
 48
50.0
370
    -2
100
AcDbLine
 10
7768.084791275922
 20
4785.459815648813
 30
0.0
 11
8018.084791275922
 21
4785.459815648813
 31
0.0
  0
INSERT
  5
280C
330
22E4
100
AcDbEntity
  8
寸法
 62
     4
 48
50.0
370
    -2
100
AcDbBlockReference
  2
_DOTSMALL
 10
7768.084791275922
 20
4785.459815648813
 30
0.0
 41
100.0
 42
100.0
 43
100.0
 50
180.0
  0
INSERT
  5
280D
330
22E4
100
AcDbEntity
  8
寸法
 62
     4
 48
50.0
370
    -2
100
AcDbBlockReference
  2
_DOTSMALL
 10
8018.084791275922
 20
4785.459815648813
 30
0.0
 41
100.0
 42
100.0
 43
100.0
  0
MTEXT
  5
280E
330
22E4
100
AcDbEntity
  8
寸法
 62
     7
 48
50.0
100
AcDbMText
 10
7893.084791275922
 20
4885.471626672435
 30
0.0
 40
120.0
 41
0.0
 71
     5
 72
     1
  1
\A1;250
 73
     1
 44
1.0
1001
ACAD
1000
MTEXTBEGIN
1070
    73
1070
     1
1070
    44
1040
1.0
1070
    74
1070
     0
1000
MTEXTEND
  0
POINT
  5
280F
330
22E4
100
AcDbEntity
  8
DEFPOINTS
 62
     0
 48
50.0
100
AcDbPoint
 10
7768.084791275922
 20
4262.216331315402
 30
0.0
  0
POINT
  5
2810
330
22E4
100
AcDbEntity
  8
DEFPOINTS
 62
     0
 48
50.0
100
AcDbPoint
 10
8018.084791275922
 20
4489.900949614034
 30
0.0
  0
POINT
  5
2811
330
22E4
100
AcDbEntity
  8
DEFPOINTS
 62
     0
 48
50.0
100
AcDbPoint
 10
8018.084791275922
 20
4785.459815648813
 30
0.0
  0
ENDBLK
  5
22EE
330
22E4
100
AcDbEntity
  8
0
 48
50.0
100
AcDbBlockEnd
  0
BLOCK
  5
22F8
330
22EF
100
AcDbEntity
  8
0
 48
50.0
100
AcDbBlockBegin
  2
*D2
 70
     1
 10
0.0
 20
0.0
 30
0.0
  3
*D2
  1

  0
LINE
  5
276F
330
22EF
100
AcDbEntity
  8
寸法
 62
     4
 48
50.0
370
    -2
100
AcDbLine
 10
1878.084791275922
 20
9212.503097597814
 30
0.0
 11
1304.415140076317
 21
9212.503097597814
 31
0.0
  0
LINE
  5
2770
330
22EF
100
AcDbEntity
  8
寸法
 62
     4
 48
50.0
370
    -2
100
AcDbLine
 10
1344.415140076317
 20
9841.103097597816
 30
0.0
 11
1344.415140076316
 21
9212.503097597814
 31
0.0
  0
INSERT
  5
2771
330
22EF
100
AcDbEntity
  8
寸法
 62
     4
 48
50.0
370
    -2
100
AcDbBlockReference
  2
_DOTSMALL
 10
1344.415140076317
 20
9841.103097597816
 30
0.0
 41
100.0
 42
100.0
 43
100.0
 50
90.0
  0
INSERT
  5
2772
330
22EF
100
AcDbEntity
  8
寸法
 62
     4
 48
50.0
370
    -2
100
AcDbBlockReference
  2
_DOTSMALL
 10
1344.415140076316
 20
9212.503097597814
 30
0.0
 41
100.0
 42
100.0
 43
100.0
 50
270.0
  0
MTEXT
  5
2773
330
22EF
100
AcDbEntity
  8
寸法
 62
     7
 48
50.0
100
AcDbMText
 10
1244.403329052693
 20
9526.803097597815
 30
0.0
 40
120.0
 41
0.0
 71
     5
 72
     1
  1
\A1;628.6
 11
0.0000000000000001
 21
1.0
 31
0.0
 73
     1
 44
1.0
1001
ACAD
1000
MTEXTBEGIN
1070
    73
1070
     1
1070
    44
1040
1.0
1070
    74
1070
     0
1000
MTEXTEND
  0
POINT
  5
2774
330
22EF
100
AcDbEntity
  8
DEFPOINTS
 62
     0
 48
50.0
100
AcDbPoint
 10
1918.084791275922
 20
9841.103097597816
 30
0.0
  0
POINT
  5
2775
330
22EF
100
AcDbEntity
  8
DEFPOINTS
 62
     0
 48
50.0
100
AcDbPoint
 10
1918.084791275922
 20
9212.503097597814
 30
0.0
  0
POINT
  5
2776
330
22EF
100
AcDbEntity
  8
DEFPOINTS
 62
     0
 48
50.0
100
AcDbPoint
 10
1344.415140076316
 20
9212.503097597814
 30
0.0
  0
ENDBLK
  5
22F9
330
22EF
100
AcDbEntity
  8
0
 48
50.0
100
AcDbBlockEnd
  0
BLOCK
  5
2303
330
22FA
100
AcDbEntity
  8
0
 48
50.0
100
AcDbBlockBegin
  2
*D3
 70
     1
 10
0.0
 20
0.0
 30
0.0
  3
*D3
  1

  0
LINE
  5
2767
330
22FA
100
AcDbEntity
  8
寸法
 62
     4
 48
50.0
370
    -2
100
AcDbLine
 10
1878.084791275922
 20
7400.903097597816
 30
0.0
 11
1304.415140076317
 21
7400.903097597816
 31
0.0
  0
LINE
  5
2768
330
22FA
100
AcDbEntity
  8
寸法
 62
     4
 48
50.0
370
    -2
100
AcDbLine
 10
1344.415140076317
 20
8029.503097597817
 30
0.0
 11
1344.415140076316
 21
7400.903097597816
 31
0.0
  0
MTEXT
  5
2769
330
22FA
100
AcDbEntity
  8
寸法
 62
     7
 48
50.0
100
AcDbMText
 10
1184.415140076316
 20
7626.534124342295
 30
0.0
 40
120.0
 41
0.0
 71
     5
 72
     1
  1
\A1;628.6
 11
0.0000000000000001
 21
1.0
 31
0.0
 73
     1
 44
1.0
1001
ACAD
1000
MTEXTBEGIN
1070
    73
1070
     1
1070
    44
1040
1.0
1070
    74
1070
     0
1000
MTEXTEND
  0
INSERT
  5
276A
330
22FA
100
AcDbEntity
  8
寸法
 62
     4
 48
50.0
370
    -2
100
AcDbBlockReference
  2
_DOTSMALL
 10
1344.415140076317
 20
8029.503097597817
 30
0.0
 41
100.0
 42
100.0
 43
100.0
 50
90.0
  0
INSERT
  5
276B
330
22FA
100
AcDbEntity
  8
寸法
 62
     4
 48
50.0
370
    -2
100
AcDbBlockReference
  2
_DOTSMALL
 10
1344.415140076316
 20
7400.903097597816
 30
0.0
 41
100.0
 42
100.0
 43
100.0
 50
270.0
  0
POINT
  5
276C
330
22FA
100
AcDbEntity
  8
DEFPOINTS
 62
     0
 48
50.0
100
AcDbPoint
 10
1918.084791275922
 20
8029.503097597817
 30
0.0
  0
POINT
  5
276D
330
22FA
100
AcDbEntity
  8
DEFPOINTS
 62
     0
 48
50.0
100
AcDbPoint
 10
1918.084791275922
 20
7400.903097597816
 30
0.0
  0
POINT
  5
276E
330
22FA
100
AcDbEntity
  8
DEFPOINTS
 62
     0
 48
50.0
100
AcDbPoint
 10
1344.415140076316
 20
7400.903097597816
 30
0.0
  0
ENDBLK
  5
2304
330
22FA
100
AcDbEntity
  8
0
 48
50.0
100
AcDbBlockEnd
  0
BLOCK
  5
230E
330
2305
100
AcDbEntity
  8
0
 48
50.0
100
AcDbBlockBegin
  2
*D4
 70
     1
 10
0.0
 20
0.0
 30
0.0
  3
*D4
  1

  0
LINE
  5
275F
330
2305
100
AcDbEntity
  8
寸法
 62
     4
 48
50.0
370
    -2
100
AcDbLine
 10
1878.084791275922
 20
6143.703097597816
 30
0.0
 11
1304.415140076317
 21
6143.703097597816
 31
0.0
  0
LINE
  5
2760
330
2305
100
AcDbEntity
  8
寸法
 62
     4
 48
50.0
370
    -2
100
AcDbLine
 10
1344.415140076317
 20
6772.303097597816
 30
0.0
 11
1344.415140076316
 21
6143.703097597816
 31
0.0
  0
INSERT
  5
2761
330
2305
100
AcDbEntity
  8
寸法
 62
     4
 48
50.0
370
    -2
100
AcDbBlockReference
  2
_DOTSMALL
 10
1344.415140076317
 20
6772.303097597816
 30
0.0
 41
100.0
 42
100.0
 43
100.0
 50
90.0
  0
INSERT
  5
2762
330
2305
100
AcDbEntity
  8
寸法
 62
     4
 48
50.0
370
    -2
100
AcDbBlockReference
  2
_DOTSMALL
 10
1344.415140076316
 20
6143.703097597816
 30
0.0
 41
100.0
 42
100.0
 43
100.0
 50
270.0
  0
MTEXT
  5
2763
330
2305
100
AcDbEntity
  8
寸法
 62
     7
 48
50.0
100
AcDbMText
 10
1244.403329052693
 20
6458.003097597816
 30
0.0
 40
120.0
 41
0.0
 71
     5
 72
     1
  1
\A1;628.6
 11
0.0000000000000001
 21
1.0
 31
0.0
 73
     1
 44
1.0
1001
ACAD
1000
MTEXTBEGIN
1070
    73
1070
     1
1070
    44
1040
1.0
1070
    74
1070
     0
1000
MTEXTEND
  0
POINT
  5
2764
330
2305
100
AcDbEntity
  8
DEFPOINTS
 62
     0
 48
50.0
100
AcDbPoint
 10
1918.084791275922
 20
6772.303097597816
 30
0.0
  0
POINT
  5
2765
330
2305
100
AcDbEntity
  8
DEFPOINTS
 62
     0
 48
50.0
100
AcDbPoint
 10
1918.084791275922
 20
6143.703097597816
 30
0.0
  0
POINT
  5
2766
330
2305
100
AcDbEntity
  8
DEFPOINTS
 62
     0
 48
50.0
100
AcDbPoint
 10
1344.415140076316
 20
6143.703097597816
 30
0.0
  0
ENDBLK
  5
230F
330
2305
100
AcDbEntity
  8
0
 48
50.0
100
AcDbBlockEnd
  0
BLOCK
  5
2319
330
2310
100
AcDbEntity
  8
0
 48
50.0
100
AcDbBlockBegin
  2
*D5
 70
     1
 10
0.0
 20
0.0
 30
0.0
  3
*D5
  1

  0
LINE
  5
2757
330
2310
100
AcDbEntity
  8
寸法
 62
     4
 48
50.0
370
    -2
100
AcDbLine
 10
1878.084791275922
 20
6772.303097597816
 30
0.0
 11
1304.415140076317
 21
6772.303097597816
 31
0.0
  0
LINE
  5
2758
330
2310
100
AcDbEntity
  8
寸法
 62
     4
 48
50.0
370
    -2
100
AcDbLine
 10
1344.415140076316
 20
7400.903097597816
 30
0.0
 11
1344.415140076316
 21
6772.303097597816
 31
0.0
  0
INSERT
  5
2759
330
2310
100
AcDbEntity
  8
寸法
 62
     4
 48
50.0
370
    -2
100
AcDbBlockReference
  2
_DOTSMALL
 10
1344.415140076316
 20
7400.903097597816
 30
0.0
 41
100.0
 42
100.0
 43
100.0
 50
90.0
  0
INSERT
  5
275A
330
2310
100
AcDbEntity
  8
寸法
 62
     4
 48
50.0
370
    -2
100
AcDbBlockReference
  2
_DOTSMALL
 10
1344.415140076316
 20
6772.303097597816
 30
0.0
 41
100.0
 42
100.0
 43
100.0
 50
270.0
  0
MTEXT
  5
275B
330
2310
100
AcDbEntity
  8
寸法
 62
     7
 48
50.0
100
AcDbMText
 10
1244.403329052693
 20
7086.603097597816
 30
0.0
 40
120.0
 41
0.0
 71
     5
 72
     1
  1
\A1;628.6
 11
0.0000000000000001
 21
1.0
 31
0.0
 73
     1
 44
1.0
1001
ACAD
1000
MTEXTBEGIN
1070
    73
1070
     1
1070
    44
1040
1.0
1070
    74
1070
     0
1000
MTEXTEND
  0
POINT
  5
275C
330
2310
100
AcDbEntity
  8
DEFPOINTS
 62
     0
 48
50.0
100
AcDbPoint
 10
1918.084791275922
 20
7400.903097597816
 30
0.0
  0
POINT
  5
275D
330
2310
100
AcDbEntity
  8
DEFPOINTS
 62
     0
 48
50.0
100
AcDbPoint
 10
1918.084791275922
 20
6772.303097597816
 30
0.0
  0
POINT
  5
275E
330
2310
100
AcDbEntity
  8
DEFPOINTS
 62
     0
 48
50.0
100
AcDbPoint
 10
1344.415140076316
 20
6772.303097597816
 30
0.0
  0
ENDBLK
  5
231A
330
2310
100
AcDbEntity
  8
0
 48
50.0
100
AcDbBlockEnd
  0
BLOCK
  5
2324
330
231B
100
AcDbEntity
  8
0
 48
50.0
100
AcDbBlockBegin
  2
*D6
 70
     1
 10
0.0
 20
0.0
 30
0.0
  3
*D6
  1

  0
LINE
  5
274F
330
231B
100
AcDbEntity
  8
寸法
 62
     4
 48
50.0
370
    -2
100
AcDbLine
 10
1878.084791275922
 20
8029.503097597817
 30
0.0
 11
1304.415140076317
 21
8029.503097597817
 31
0.0
  0
LINE
  5
2750
330
231B
100
AcDbEntity
  8
寸法
 62
     4
 48
50.0
370
    -2
100
AcDbLine
 10
1344.415140076316
 20
8306.703097597816
 30
0.0
 11
1344.415140076316
 21
8029.503097597817
 31
0.0
  0
MTEXT
  5
2751
330
231B
100
AcDbEntity
  8
寸法
 62
     7
 48
50.0
100
AcDbMText
 10
1184.403329052695
 20
8082.731066668163
 30
0.0
 40
120.0
 41
0.0
 71
     5
 72
     1
  1
\A1;277.2
 11
0.0000000000000001
 21
1.0
 31
0.0
 73
     1
 44
1.0
1001
ACAD
1000
MTEXTBEGIN
1070
    73
1070
     1
1070
    44
1040
1.0
1070
    74
1070
     0
1000
MTEXTEND
  0
INSERT
  5
2752
330
231B
100
AcDbEntity
  8
寸法
 62
     4
 48
50.0
370
    -2
100
AcDbBlockReference
  2
_DOTSMALL
 10
1344.415140076316
 20
8306.703097597816
 30
0.0
 41
100.0
 42
100.0
 43
100.0
 50
90.0
  0
INSERT
  5
2753
330
231B
100
AcDbEntity
  8
寸法
 62
     4
 48
50.0
370
    -2
100
AcDbBlockReference
  2
_DOTSMALL
 10
1344.415140076316
 20
8029.503097597817
 30
0.0
 41
100.0
 42
100.0
 43
100.0
 50
270.0
  0
POINT
  5
2754
330
231B
100
AcDbEntity
  8
DEFPOINTS
 62
     0
 48
50.0
100
AcDbPoint
 10
1918.084791275922
 20
8306.703097597816
 30
0.0
  0
POINT
  5
2755
330
231B
100
AcDbEntity
  8
DEFPOINTS
 62
     0
 48
50.0
100
AcDbPoint
 10
1918.084791275922
 20
8029.503097597817
 30
0.0
  0
POINT
  5
2756
330
231B
100
AcDbEntity
  8
DEFPOINTS
 62
     0
 48
50.0
100
AcDbPoint
 10
1344.415140076316
 20
8029.503097597817
 30
0.0
  0
ENDBLK
  5
2325
330
231B
100
AcDbEntity
  8
0
 48
50.0
100
AcDbBlockEnd
  0
BLOCK
  5
232F
330
2326
100
AcDbEntity
  8
0
 48
50.0
100
AcDbBlockBegin
  2
*D7
 70
     1
 10
0.0
 20
0.0
 30
0.0
  3
*D7
  1

  0
LINE
  5
2747
330
2326
100
AcDbEntity
  8
寸法
 62
     4
 48
50.0
370
    -2
100
AcDbLine
 10
1878.084791275922
 20
8306.703097597816
 30
0.0
 11
1304.415140076317
 21
8306.703097597816
 31
0.0
  0
LINE
  5
2748
330
2326
100
AcDbEntity
  8
寸法
 62
     4
 48
50.0
370
    -2
100
AcDbLine
 10
1344.415140076316
 20
8583.903097597811
 30
0.0
 11
1344.415140076316
 21
8306.703097597816
 31
0.0
  0
MTEXT
  5
2749
330
2326
100
AcDbEntity
  8
寸法
 62
     7
 48
50.0
100
AcDbMText
 10
1184.403329052695
 20
8543.235149128589
 30
0.0
 40
120.0
 41
0.0
 71
     5
 72
     1
  1
\A1;277.2
 11
0.0000000000000001
 21
1.0
 31
0.0
 73
     1
 44
1.0
1001
ACAD
1000
MTEXTBEGIN
1070
    73
1070
     1
1070
    44
1040
1.0
1070
    74
1070
     0
1000
MTEXTEND
  0
INSERT
  5
274A
330
2326
100
AcDbEntity
  8
寸法
 62
     4
 48
50.0
370
    -2
100
AcDbBlockReference
  2
_DOTSMALL
 10
1344.415140076316
 20
8583.903097597811
 30
0.0
 41
100.0
 42
100.0
 43
100.0
 50
90.0
  0
INSERT
  5
274B
330
2326
100
AcDbEntity
  8
寸法
 62
     4
 48
50.0
370
    -2
100
AcDbBlockReference
  2
_DOTSMALL
 10
1344.415140076316
 20
8306.703097597816
 30
0.0
 41
100.0
 42
100.0
 43
100.0
 50
270.0
  0
POINT
  5
274C
330
2326
100
AcDbEntity
  8
DEFPOINTS
 62
     0
 48
50.0
100
AcDbPoint
 10
1918.084791275922
 20
8583.903097597811
 30
0.0
  0
POINT
  5
274D
330
2326
100
AcDbEntity
  8
DEFPOINTS
 62
     0
 48
50.0
100
AcDbPoint
 10
1918.084791275922
 20
8306.703097597816
 30
0.0
  0
POINT
  5
274E
330
2326
100
AcDbEntity
  8
DEFPOINTS
 62
     0
 48
50.0
100
AcDbPoint
 10
1344.415140076316
 20
8306.703097597816
 30
0.0
  0
ENDBLK
  5
2330
330
2326
100
AcDbEntity
  8
0
 48
50.0
100
AcDbBlockEnd
  0
BLOCK
  5
233A
330
2331
100
AcDbEntity
  8
0
 48
50.0
100
AcDbBlockBegin
  2
*D8
 70
     1
 10
0.0
 20
0.0
 30
0.0
  3
*D8
  1

  0
LINE
  5
273F
330
2331
100
AcDbEntity
  8
寸法
 62
     4
 48
50.0
370
    -2
100
AcDbLine
 10
1878.084791275922
 20
8583.903097597811
 30
0.0
 11
1304.415140076317
 21
8583.903097597811
 31
0.0
  0
LINE
  5
2740
330
2331
100
AcDbEntity
  8
寸法
 62
     4
 48
50.0
370
    -2
100
AcDbLine
 10
1344.415140076317
 20
9212.503097597814
 30
0.0
 11
1344.415140076316
 21
8583.903097597811
 31
0.0
  0
MTEXT
  5
2741
330
2331
100
AcDbEntity
  8
寸法
 62
     7
 48
50.0
100
AcDbMText
 10
1184.415140076316
 20
8992.68361794361
 30
0.0
 40
120.0
 41
0.0
 71
     5
 72
     1
  1
\A1;628.6
 11
0.0000000000000001
 21
1.0
 31
0.0
 73
     1
 44
1.0
1001
ACAD
1000
MTEXTBEGIN
1070
    73
1070
     1
1070
    44
1040
1.0
1070
    74
1070
     0
1000
MTEXTEND
  0
INSERT
  5
2742
330
2331
100
AcDbEntity
  8
寸法
 62
     4
 48
50.0
370
    -2
100
AcDbBlockReference
  2
_DOTSMALL
 10
1344.415140076317
 20
9212.503097597814
 30
0.0
 41
100.0
 42
100.0
 43
100.0
 50
90.0
  0
INSERT
  5
2743
330
2331
100
AcDbEntity
  8
寸法
 62
     4
 48
50.0
370
    -2
100
AcDbBlockReference
  2
_DOTSMALL
 10
1344.415140076316
 20
8583.903097597811
 30
0.0
 41
100.0
 42
100.0
 43
100.0
 50
270.0
  0
POINT
  5
2744
330
2331
100
AcDbEntity
  8
DEFPOINTS
 62
     0
 48
50.0
100
AcDbPoint
 10
1918.084791275922
 20
9212.503097597814
 30
0.0
  0
POINT
  5
2745
330
2331
100
AcDbEntity
  8
DEFPOINTS
 62
     0
 48
50.0
100
AcDbPoint
 10
1918.084791275922
 20
8583.903097597811
 30
0.0
  0
POINT
  5
2746
330
2331
100
AcDbEntity
  8
DEFPOINTS
 62
     0
 48
50.0
100
AcDbPoint
 10
1344.415140076316
 20
8583.903097597811
 30
0.0
  0
ENDBLK
  5
233B
330
2331
100
AcDbEntity
  8
0
 48
50.0
100
AcDbBlockEnd
  0
BLOCK
  5
2345
330
233C
100
AcDbEntity
  8
0
 48
50.0
100
AcDbBlockBegin
  2
*D9
 70
     1
 10
0.0
 20
0.0
 30
0.0
  3
*D9
  1

  0
LINE
  5
2737
330
233C
100
AcDbEntity
  8
寸法
 62
     4
 48
50.0
370
    -2
100
AcDbLine
 10
1878.084791275922
 20
9841.103097597816
 30
0.0
 11
1304.415140076317
 21
9841.103097597816
 31
0.0
  0
LINE
  5
2738
330
233C
100
AcDbEntity
  8
寸法
 62
     4
 48
50.0
370
    -2
100
AcDbLine
 10
1344.415140076316
 20
10469.70309759781
 30
0.0
 11
1344.415140076316
 21
9841.103097597816
 31
0.0
  0
INSERT
  5
2739
330
233C
100
AcDbEntity
  8
寸法
 62
     4
 48
50.0
370
    -2
100
AcDbBlockReference
  2
_DOTSMALL
 10
1344.415140076316
 20
10469.70309759781
 30
0.0
 41
100.0
 42
100.0
 43
100.0
 50
90.0
  0
INSERT
  5
273A
330
233C
100
AcDbEntity
  8
寸法
 62
     4
 48
50.0
370
    -2
100
AcDbBlockReference
  2
_DOTSMALL
 10
1344.415140076316
 20
9841.103097597816
 30
0.0
 41
100.0
 42
100.0
 43
100.0
 50
270.0
  0
MTEXT
  5
273B
330
233C
100
AcDbEntity
  8
寸法
 62
     7
 48
50.0
100
AcDbMText
 10
1244.403329052693
 20
10155.40309759781
 30
0.0
 40
120.0
 41
0.0
 71
     5
 72
     1
  1
\A1;628.6
 11
0.0000000000000001
 21
1.0
 31
0.0
 73
     1
 44
1.0
1001
ACAD
1000
MTEXTBEGIN
1070
    73
1070
     1
1070
    44
1040
1.0
1070
    74
1070
     0
1000
MTEXTEND
  0
POINT
  5
273C
330
233C
100
AcDbEntity
  8
DEFPOINTS
 62
     0
 48
50.0
100
AcDbPoint
 10
1918.084791275922
 20
10469.70309759781
 30
0.0
  0
POINT
  5
273D
330
233C
100
AcDbEntity
  8
DEFPOINTS
 62
     0
 48
50.0
100
AcDbPoint
 10
1918.084791275922
 20
9841.103097597816
 30
0.0
  0
POINT
  5
273E
330
233C
100
AcDbEntity
  8
DEFPOINTS
 62
     0
 48
50.0
100
AcDbPoint
 10
1344.415140076316
 20
9841.103097597816
 30
0.0
  0
ENDBLK
  5
2346
330
233C
100
AcDbEntity
  8
0
 48
50.0
100
AcDbBlockEnd
  0
BLOCK
  5
2351
330
2347
100
AcDbEntity
  8
0
 48
50.0
100
AcDbBlockBegin
  2
*D10
 70
     1
 10
0.0
 20
0.0
 30
0.0
  3
*D10
  1

  0
LINE
  5
272E
330
2347
100
AcDbEntity
  8
寸法
 62
     4
 48
50.0
370
    -2
100
AcDbLine
 10
1888.084791275922
 20
10706.70309759781
 30
0.0
 11
1304.415140076317
 21
10706.70309759781
 31
0.0
  0
LINE
  5
272F
330
2347
100
AcDbEntity
  8
寸法
 62
     4
 48
50.0
370
    -2
100
AcDbLine
 10
1878.084791275922
 20
10469.70309759781
 30
0.0
 11
1304.415140076317
 21
10469.70309759781
 31
0.0
  0
LINE
  5
2730
330
2347
100
AcDbEntity
  8
寸法
 62
     4
 48
50.0
370
    -2
100
AcDbLine
 10
1344.415140076316
 20
10706.70309759781
 30
0.0
 11
1344.415140076316
 21
10469.70309759781
 31
0.0
  0
MTEXT
  5
2731
330
2347
100
AcDbEntity
  8
寸法
 62
     7
 48
50.0
100
AcDbMText
 10
1184.403329052693
 20
10588.20309759781
 30
0.0
 40
120.0
 41
0.0
 71
     5
 72
     1
  1
\A1;237
 11
0.0000000000000001
 21
1.0
 31
0.0
 73
     1
 44
1.0
1001
ACAD
1000
MTEXTBEGIN
1070
    73
1070
     1
1070
    44
1040
1.0
1070
    74
1070
     0
1000
MTEXTEND
  0
INSERT
  5
2732
330
2347
100
AcDbEntity
  8
寸法
 62
     4
 48
50.0
370
    -2
100
AcDbBlockReference
  2
_DOTSMALL
 10
1344.415140076316
 20
10706.70309759781
 30
0.0
 41
100.0
 42
100.0
 43
100.0
 50
90.0
  0
INSERT
  5
2733
330
2347
100
AcDbEntity
  8
寸法
 62
     4
 48
50.0
370
    -2
100
AcDbBlockReference
  2
_DOTSMALL
 10
1344.415140076316
 20
10469.70309759781
 30
0.0
 41
100.0
 42
100.0
 43
100.0
 50
270.0
  0
POINT
  5
2734
330
2347
100
AcDbEntity
  8
DEFPOINTS
 62
     0
 48
50.0
100
AcDbPoint
 10
1928.084791275922
 20
10706.70309759781
 30
0.0
  0
POINT
  5
2735
330
2347
100
AcDbEntity
  8
DEFPOINTS
 62
     0
 48
50.0
100
AcDbPoint
 10
1918.084791275922
 20
10469.70309759781
 30
0.0
  0
POINT
  5
2736
330
2347
100
AcDbEntity
  8
DEFPOINTS
 62
     0
 48
50.0
100
AcDbPoint
 10
1344.415140076316
 20
10469.70309759781
 30
0.0
  0
ENDBLK
  5
2352
330
2347
100
AcDbEntity
  8
0
 48
50.0
100
AcDbBlockEnd
  0
BLOCK
  5
235D
330
2353
100
AcDbEntity
  8
0
 48
50.0
100
AcDbBlockBegin
  2
*D11
 70
     1
 10
0.0
 20
0.0
 30
0.0
  3
*D11
  1

  0
LINE
  5
2725
330
2353
100
AcDbEntity
  8
寸法
 62
     4
 48
50.0
370
    -2
100
AcDbLine
 10
9876.327550881043
 20
4405.816756318404
 30
0.0
 11
9876.327550881043
 21
5093.584453347936
 31
0.0
  0
LINE
  5
2726
330
2353
100
AcDbEntity
  8
寸法
 62
     4
 48
50.0
370
    -2
100
AcDbLine
 10
14676.32755088104
 20
4405.816756318404
 30
0.0
 11
14676.32755088104
 21
5093.584453347936
 31
0.0
  0
LINE
  5
2727
330
2353
100
AcDbEntity
  8
寸法
 62
     4
 48
50.0
370
    -2
100
AcDbLine
 10
9876.327550881043
 20
5053.584453347935
 30
0.0
 11
14676.32755088104
 21
5053.584453347935
 31
0.0
  0
INSERT
  5
2728
330
2353
100
AcDbEntity
  8
寸法
 62
     4
 48
50.0
370
    -2
100
AcDbBlockReference
  2
_DOTSMALL
 10
9876.327550881043
 20
5053.584453347935
 30
0.0
 41
100.0
 42
100.0
 43
100.0
 50
180.0
  0
INSERT
  5
2729
330
2353
100
AcDbEntity
  8
寸法
 62
     4
 48
50.0
370
    -2
100
AcDbBlockReference
  2
_DOTSMALL
 10
14676.32755088104
 20
5053.584453347935
 30
0.0
 41
100.0
 42
100.0
 43
100.0
  0
MTEXT
  5
272A
330
2353
100
AcDbEntity
  8
寸法
 62
     7
 48
50.0
100
AcDbMText
 10
12276.32755088104
 20
5153.584453347935
 30
0.0
 40
120.0
 41
0.0
 71
     5
 72
     1
  1
\A1;4800
 73
     1
 44
1.0
1001
ACAD
1000
MTEXTBEGIN
1070
    73
1070
     1
1070
    44
1040
1.0
1070
    74
1070
     0
1000
MTEXTEND
  0
POINT
  5
272B
330
2353
100
AcDbEntity
  8
DEFPOINTS
 62
     0
 48
50.0
100
AcDbPoint
 10
9876.327550881043
 20
4365.816756318404
 30
0.0
  0
POINT
  5
272C
330
2353
100
AcDbEntity
  8
DEFPOINTS
 62
     0
 48
50.0
100
AcDbPoint
 10
14676.32755088104
 20
4365.816756318404
 30
0.0
  0
POINT
  5
272D
330
2353
100
AcDbEntity
  8
DEFPOINTS
 62
     0
 48
50.0
100
AcDbPoint
 10
14676.32755088104
 20
5053.584453347935
 30
0.0
  0
ENDBLK
  5
235E
330
2353
100
AcDbEntity
  8
0
 48
50.0
100
AcDbBlockEnd
  0
BLOCK
  5
2368
330
235F
100
AcDbEntity
  8
0
 48
50.0
100
AcDbBlockBegin
  2
*D12
 70
     1
 10
0.0
 20
0.0
 30
0.0
  3
*D12
  1

  0
LINE
  5
281A
330
235F
100
AcDbEntity
  8
寸法
 62
     4
 48
50.0
370
    -2
100
AcDbLine
 10
13926.32755088103
 20
4098.920282370678
 30
0.0
 11
13926.32755088103
 21
4889.668646643563
 31
0.0
  0
LINE
  5
281B
330
235F
100
AcDbEntity
  8
寸法
 62
     4
 48
50.0
370
    -2
100
AcDbLine
 10
12276.32755088103
 20
4849.668646643564
 30
0.0
 11
13926.32755088103
 21
4849.668646643564
 31
0.0
  0
INSERT
  5
281C
330
235F
100
AcDbEntity
  8
寸法
 62
     4
 48
50.0
370
    -2
100
AcDbBlockReference
  2
_DOTSMALL
 10
12276.32755088103
 20
4849.668646643564
 30
0.0
 41
100.0
 42
100.0
 43
100.0
 50
180.0
  0
INSERT
  5
281D
330
235F
100
AcDbEntity
  8
寸法
 62
     4
 48
50.0
370
    -2
100
AcDbBlockReference
  2
_DOTSMALL
 10
13926.32755088103
 20
4849.668646643564
 30
0.0
 41
100.0
 42
100.0
 43
100.0
  0
MTEXT
  5
281E
330
235F
100
AcDbEntity
  8
寸法
 62
     7
 48
50.0
100
AcDbMText
 10
13101.32755088103
 20
4949.668646643564
 30
0.0
 40
120.0
 41
0.0
 71
     5
 72
     1
  1
\A1;1650
 73
     1
 44
1.0
1001
ACAD
1000
MTEXTBEGIN
1070
    73
1070
     1
1070
    44
1040
1.0
1070
    74
1070
     0
1000
MTEXTEND
  0
POINT
  5
281F
330
235F
100
AcDbEntity
  8
DEFPOINTS
 62
     0
 48
50.0
100
AcDbPoint
 10
12276.32755088103
 20
4489.90094961403
 30
0.0
  0
POINT
  5
2820
330
235F
100
AcDbEntity
  8
DEFPOINTS
 62
     0
 48
50.0
100
AcDbPoint
 10
13926.32755088103
 20
4058.920282370678
 30
0.0
  0
POINT
  5
2821
330
235F
100
AcDbEntity
  8
DEFPOINTS
 62
     0
 48
50.0
100
AcDbPoint
 10
13926.32755088103
 20
4849.668646643564
 30
0.0
  0
ENDBLK
  5
2369
330
235F
100
AcDbEntity
  8
0
 48
50.0
100
AcDbBlockEnd
  0
BLOCK
  5
2374
330
236A
100
AcDbEntity
  8
0
 48
50.0
100
AcDbBlockBegin
  2
*D13
 70
     1
 10
0.0
 20
0.0
 30
0.0
  3
*D13
  1

  0
LINE
  5
2714
330
236A
100
AcDbEntity
  8
寸法
 62
     4
 48
50.0
370
    -2
100
AcDbLine
 10
12236.32755088103
 20
4489.90094961403
 30
0.0
 11
8962.756801734121
 21
4489.900949614031
 31
0.0
  0
LINE
  5
2715
330
236A
100
AcDbEntity
  8
寸法
 62
     4
 48
50.0
370
    -2
100
AcDbLine
 10
9025.847895189889
 20
2244.900949614032
 30
0.0
 11
9042.756801734119
 21
2244.900949614032
 31
0.0
  0
LINE
  5
2716
330
236A
100
AcDbEntity
  8
寸法
 62
     4
 48
50.0
370
    -2
100
AcDbLine
 10
9002.756801734122
 20
4489.900949614031
 30
0.0
 11
9002.75680173412
 21
2244.900949614032
 31
0.0
  0
INSERT
  5
2717
330
236A
100
AcDbEntity
  8
寸法
 62
     4
 48
50.0
370
    -2
100
AcDbBlockReference
  2
_DOTSMALL
 10
9002.756801734122
 20
4489.900949614031
 30
0.0
 41
100.0
 42
100.0
 43
100.0
 50
90.0
  0
INSERT
  5
2718
330
236A
100
AcDbEntity
  8
寸法
 62
     4
 48
50.0
370
    -2
100
AcDbBlockReference
  2
_DOTSMALL
 10
9002.75680173412
 20
2244.900949614032
 30
0.0
 41
100.0
 42
100.0
 43
100.0
 50
270.0
  0
MTEXT
  5
2719
330
236A
100
AcDbEntity
  8
寸法
 62
     7
 48
50.0
100
AcDbMText
 10
8902.744990710498
 20
3367.400949614033
 30
0.0
 40
120.0
 41
0.0
 71
     5
 72
     1
  1
\A1;2245
 11
0.0000000000000001
 21
1.0
 31
0.0
 73
     1
 44
1.0
1001
ACAD
1000
MTEXTBEGIN
1070
    73
1070
     1
1070
    44
1040
1.0
1070
    74
1070
     0
1000
MTEXTEND
  0
POINT
  5
271A
330
236A
100
AcDbEntity
  8
DEFPOINTS
 62
     0
 48
50.0
100
AcDbPoint
 10
12276.32755088103
 20
4489.90094961403
 30
0.0
  0
POINT
  5
271B
330
236A
100
AcDbEntity
  8
DEFPOINTS
 62
     0
 48
50.0
100
AcDbPoint
 10
8985.847895189889
 20
2244.900949614032
 30
0.0
  0
POINT
  5
271C
330
236A
100
AcDbEntity
  8
DEFPOINTS
 62
     0
 48
50.0
100
AcDbPoint
 10
9002.75680173412
 20
2244.900949614032
 30
0.0
  0
ENDBLK
  5
2375
330
236A
100
AcDbEntity
  8
0
 48
50.0
100
AcDbBlockEnd
  0
BLOCK
  5
2380
330
2376
100
AcDbEntity
  8
0
 48
50.0
100
AcDbBlockBegin
  2
*D14
 70
     1
 10
0.0
 20
0.0
 30
0.0
  3
*D14
  1

  0
LINE
  5
270B
330
2376
100
AcDbEntity
  8
寸法
 62
     4
 48
50.0
370
    -2
100
AcDbLine
 10
12236.84827728145
 20
4489.876432079343
 30
0.0
 11
9256.483483459039
 21
4489.876432079344
 31
0.0
  0
LINE
  5
270C
330
2376
100
AcDbEntity
  8
寸法
 62
     4
 48
50.0
370
    -2
100
AcDbLine
 10
9835.806824480629
 20
4376.876432079347
 30
0.0
 11
9256.483483459039
 21
4376.876432079347
 31
0.0
  0
LINE
  5
270D
330
2376
100
AcDbEntity
  8
寸法
 62
     4
 48
50.0
370
    -2
100
AcDbLine
 10
9296.48348345904
 20
4489.876432079344
 30
0.0
 11
9296.48348345904
 21
4376.876432079347
 31
0.0
  0
MTEXT
  5
270E
330
2376
100
AcDbEntity
  8
寸法
 62
     7
 48
50.0
100
AcDbMText
 10
9177.842311419068
 20
4614.244290205198
 30
0.0
 40
120.0
 41
0.0
 71
     5
 72
     1
  1
\A1;113
 11
0.0000000000000001
 21
1.0
 31
0.0
 73
     1
 44
1.0
1001
ACAD
1000
MTEXTBEGIN
1070
    73
1070
     1
1070
    44
1040
1.0
1070
    74
1070
     0
1000
MTEXTEND
  0
INSERT
  5
270F
330
2376
100
AcDbEntity
  8
寸法
 62
     4
 48
50.0
370
    -2
100
AcDbBlockReference
  2
_DOTSMALL
 10
9296.48348345904
 20
4489.876432079344
 30
0.0
 41
100.0
 42
100.0
 43
100.0
 50
90.0
  0
INSERT
  5
2710
330
2376
100
AcDbEntity
  8
寸法
 62
     4
 48
50.0
370
    -2
100
AcDbBlockReference
  2
_DOTSMALL
 10
9296.48348345904
 20
4376.876432079347
 30
0.0
 41
100.0
 42
100.0
 43
100.0
 50
270.0
  0
POINT
  5
2711
330
2376
100
AcDbEntity
  8
DEFPOINTS
 62
     0
 48
50.0
100
AcDbPoint
 10
12276.84827728145
 20
4489.876432079343
 30
0.0
  0
POINT
  5
2712
330
2376
100
AcDbEntity
  8
DEFPOINTS
 62
     0
 48
50.0
100
AcDbPoint
 10
9875.80682448063
 20
4376.876432079347
 30
0.0
  0
POINT
  5
2713
330
2376
100
AcDbEntity
  8
DEFPOINTS
 62
     0
 48
50.0
100
AcDbPoint
 10
9296.48348345904
 20
4376.876432079347
 30
0.0
  0
ENDBLK
  5
2381
330
2376
100
AcDbEntity
  8
0
 48
50.0
100
AcDbBlockEnd
  0
BLOCK
  5
238B
330
2382
100
AcDbEntity
  8
0
 48
50.0
100
AcDbBlockBegin
  2
*D15
 70
     1
 10
0.0
 20
0.0
 30
0.0
  3
*D15
  1

  0
LINE
  5
2812
330
2382
100
AcDbEntity
  8
寸法
 62
     4
 48
50.0
370
    -2
100
AcDbLine
 10
12276.32755088104
 20
4527.398180097712
 30
0.0
 11
12276.32755088104
 21
4889.668646643563
 31
0.0
  0
LINE
  5
2813
330
2382
100
AcDbEntity
  8
寸法
 62
     4
 48
50.0
370
    -2
100
AcDbLine
 10
10626.32755088103
 20
4849.668646643564
 30
0.0
 11
12276.32755088104
 21
4849.668646643564
 31
0.0
  0
INSERT
  5
2814
330
2382
100
AcDbEntity
  8
寸法
 62
     4
 48
50.0
370
    -2
100
AcDbBlockReference
  2
_DOTSMALL
 10
10626.32755088103
 20
4849.668646643564
 30
0.0
 41
100.0
 42
100.0
 43
100.0
 50
180.0
  0
INSERT
  5
2815
330
2382
100
AcDbEntity
  8
寸法
 62
     4
 48
50.0
370
    -2
100
AcDbBlockReference
  2
_DOTSMALL
 10
12276.32755088104
 20
4849.668646643564
 30
0.0
 41
100.0
 42
100.0
 43
100.0
  0
MTEXT
  5
2816
330
2382
100
AcDbEntity
  8
寸法
 62
     7
 48
50.0
100
AcDbMText
 10
11451.32755088104
 20
4949.668646643564
 30
0.0
 40
120.0
 41
0.0
 71
     5
 72
     1
  1
\A1;1650
 73
     1
 44
1.0
1001
ACAD
1000
MTEXTBEGIN
1070
    73
1070
     1
1070
    44
1040
1.0
1070
    74
1070
     0
1000
MTEXTEND
  0
POINT
  5
2817
330
2382
100
AcDbEntity
  8
DEFPOINTS
 62
     0
 48
50.0
100
AcDbPoint
 10
10626.32755088103
 20
4058.92028237068
 30
0.0
  0
POINT
  5
2818
330
2382
100
AcDbEntity
  8
DEFPOINTS
 62
     0
 48
50.0
100
AcDbPoint
 10
12276.32755088104
 20
4487.398180097712
 30
0.0
  0
POINT
  5
2819
330
2382
100
AcDbEntity
  8
DEFPOINTS
 62
     0
 48
50.0
100
AcDbPoint
 10
12276.32755088104
 20
4849.668646643564
 30
0.0
  0
ENDBLK
  5
238C
330
2382
100
AcDbEntity
  8
0
 48
50.0
100
AcDbBlockEnd
  0
BLOCK
  5
2396
330
238D
100
AcDbEntity
  8
0
 48
50.0
100
AcDbBlockBegin
  2
*D16
 70
     1
 10
0.0
 20
0.0
 30
0.0
  3
*D16
  1

  0
LINE
  5
26FB
330
238D
100
AcDbEntity
  8
寸法
 62
     4
 48
50.0
370
    -2
100
AcDbLine
 10
9285.652178531028
 20
2244.900949614032
 30
0.0
 11
9336.483483459039
 21
2244.900949614032
 31
0.0
  0
LINE
  5
26FC
330
238D
100
AcDbEntity
  8
寸法
 62
     4
 48
50.0
370
    -2
100
AcDbLine
 10
9296.48348345904
 20
4376.900949614031
 30
0.0
 11
9296.48348345904
 21
2244.900949614032
 31
0.0
  0
INSERT
  5
26FD
330
238D
100
AcDbEntity
  8
寸法
 62
     4
 48
50.0
370
    -2
100
AcDbBlockReference
  2
_DOTSMALL
 10
9296.48348345904
 20
4376.900949614031
 30
0.0
 41
100.0
 42
100.0
 43
100.0
 50
90.0
  0
INSERT
  5
26FE
330
238D
100
AcDbEntity
  8
寸法
 62
     4
 48
50.0
370
    -2
100
AcDbBlockReference
  2
_DOTSMALL
 10
9296.48348345904
 20
2244.900949614032
 30
0.0
 41
100.0
 42
100.0
 43
100.0
 50
270.0
  0
MTEXT
  5
26FF
330
238D
100
AcDbEntity
  8
寸法
 62
     7
 48
50.0
100
AcDbMText
 10
9196.471672435416
 20
3310.900949614033
 30
0.0
 40
120.0
 41
0.0
 71
     5
 72
     1
  1
\A1;2132
 11
0.0000000000000001
 21
1.0
 31
0.0
 73
     1
 44
1.0
1001
ACAD
1000
MTEXTBEGIN
1070
    73
1070
     1
1070
    44
1040
1.0
1070
    74
1070
     0
1000
MTEXTEND
  0
POINT
  5
2700
330
238D
100
AcDbEntity
  8
DEFPOINTS
 62
     0
 48
50.0
100
AcDbPoint
 10
9876.327550881031
 20
4376.900949614031
 30
0.0
  0
POINT
  5
2701
330
238D
100
AcDbEntity
  8
DEFPOINTS
 62
     0
 48
50.0
100
AcDbPoint
 10
9245.652178531027
 20
2244.900949614032
 30
0.0
  0
POINT
  5
2702
330
238D
100
AcDbEntity
  8
DEFPOINTS
 62
     0
 48
50.0
100
AcDbPoint
 10
9296.48348345904
 20
2244.900949614032
 30
0.0
  0
ENDBLK
  5
2397
330
238D
100
AcDbEntity
  8
0
 48
50.0
100
AcDbBlockEnd
  0
BLOCK
  5
23A2
330
2398
100
AcDbEntity
  8
0
 48
50.0
100
AcDbBlockBegin
  2
*D17
 70
     1
 10
0.0
 20
0.0
 30
0.0
  3
*D17
  1

  0
LINE
  5
26F2
330
2398
100
AcDbEntity
  8
寸法
 62
     4
 48
50.0
370
    -2
100
AcDbLine
 10
9876.327550881036
 20
4481.900949614032
 30
0.0
 11
9876.327550881036
 21
4889.668646643563
 31
0.0
  0
LINE
  5
26F3
330
2398
100
AcDbEntity
  8
寸法
 62
     4
 48
50.0
370
    -2
100
AcDbLine
 10
10626.32755088103
 20
4098.92028237068
 30
0.0
 11
10626.32755088103
 21
4889.668646643563
 31
0.0
  0
LINE
  5
26F4
330
2398
100
AcDbEntity
  8
寸法
 62
     4
 48
50.0
370
    -2
100
AcDbLine
 10
9876.327550881036
 20
4849.668646643564
 30
0.0
 11
10626.32755088103
 21
4849.668646643564
 31
0.0
  0
INSERT
  5
26F5
330
2398
100
AcDbEntity
  8
寸法
 62
     4
 48
50.0
370
    -2
100
AcDbBlockReference
  2
_DOTSMALL
 10
9876.327550881036
 20
4849.668646643564
 30
0.0
 41
100.0
 42
100.0
 43
100.0
 50
180.0
  0
INSERT
  5
26F6
330
2398
100
AcDbEntity
  8
寸法
 62
     4
 48
50.0
370
    -2
100
AcDbBlockReference
  2
_DOTSMALL
 10
10626.32755088103
 20
4849.668646643564
 30
0.0
 41
100.0
 42
100.0
 43
100.0
  0
MTEXT
  5
26F7
330
2398
100
AcDbEntity
  8
寸法
 62
     7
 48
50.0
100
AcDbMText
 10
10251.32755088103
 20
4949.668646643564
 30
0.0
 40
120.0
 41
0.0
 71
     5
 72
     1
  1
\A1;750
 73
     1
 44
1.0
1001
ACAD
1000
MTEXTBEGIN
1070
    73
1070
     1
1070
    44
1040
1.0
1070
    74
1070
     0
1000
MTEXTEND
  0
POINT
  5
26F8
330
2398
100
AcDbEntity
  8
DEFPOINTS
 62
     0
 48
50.0
100
AcDbPoint
 10
9876.327550881036
 20
4441.900949614032
 30
0.0
  0
POINT
  5
26F9
330
2398
100
AcDbEntity
  8
DEFPOINTS
 62
     0
 48
50.0
100
AcDbPoint
 10
10626.32755088103
 20
4058.92028237068
 30
0.0
  0
POINT
  5
26FA
330
2398
100
AcDbEntity
  8
DEFPOINTS
 62
     0
 48
50.0
100
AcDbPoint
 10
10626.32755088103
 20
4849.668646643564
 30
0.0
  0
ENDBLK
  5
23A3
330
2398
100
AcDbEntity
  8
0
 48
50.0
100
AcDbBlockEnd
  0
BLOCK
  5
23AD
330
23A4
100
AcDbEntity
  8
0
 48
50.0
100
AcDbBlockBegin
  2
*D18
 70
     1
 10
0.0
 20
0.0
 30
0.0
  3
*D18
  1

  0
LINE
  5
26EA
330
23A4
100
AcDbEntity
  8
寸法
 62
     4
 48
50.0
370
    -2
100
AcDbLine
 10
10616.32755088103
 20
3394.900949614032
 30
0.0
 11
9748.354899444729
 21
3394.900949614032
 31
0.0
  0
LINE
  5
26EB
330
23A4
100
AcDbEntity
  8
寸法
 62
     4
 48
50.0
370
    -2
100
AcDbLine
 10
9788.354899444728
 20
2494.900949614032
 30
0.0
 11
9788.354899444728
 21
3394.900949614032
 31
0.0
  0
INSERT
  5
26EC
330
23A4
100
AcDbEntity
  8
寸法
 62
     4
 48
50.0
370
    -2
100
AcDbBlockReference
  2
_DOTSMALL
 10
9788.354899444728
 20
2494.900949614032
 30
0.0
 41
100.0
 42
100.0
 43
100.0
 50
270.0
  0
INSERT
  5
26ED
330
23A4
100
AcDbEntity
  8
寸法
 62
     4
 48
50.0
370
    -2
100
AcDbBlockReference
  2
_DOTSMALL
 10
9788.354899444728
 20
3394.900949614032
 30
0.0
 41
100.0
 42
100.0
 43
100.0
 50
90.0
  0
MTEXT
  5
26EE
330
23A4
100
AcDbEntity
  8
寸法
 62
     7
 48
50.0
100
AcDbMText
 10
9688.354899444728
 20
2944.900949614034
 30
0.0
 40
120.0
 41
0.0
 71
     5
 72
     1
  1
\A1;900
 11
0.0000000000000001
 21
1.0
 31
0.0
 73
     1
 44
1.0
1001
ACAD
1000
MTEXTBEGIN
1070
    73
1070
     1
1070
    44
1040
1.0
1070
    74
1070
     0
1000
MTEXTEND
  0
POINT
  5
26EF
330
23A4
100
AcDbEntity
  8
DEFPOINTS
 62
     0
 48
50.0
100
AcDbPoint
 10
10656.32755088103
 20
2494.900949614032
 30
0.0
  0
POINT
  5
26F0
330
23A4
100
AcDbEntity
  8
DEFPOINTS
 62
     0
 48
50.0
100
AcDbPoint
 10
10656.32755088103
 20
3394.900949614032
 30
0.0
  0
POINT
  5
26F1
330
23A4
100
AcDbEntity
  8
DEFPOINTS
 62
     0
 48
50.0
100
AcDbPoint
 10
9788.354899444728
 20
3394.900949614032
 30
0.0
  0
ENDBLK
  5
23AE
330
23A4
100
AcDbEntity
  8
0
 48
50.0
100
AcDbBlockEnd
  0
BLOCK
  5
23B9
330
23AF
100
AcDbEntity
  8
0
 48
50.0
100
AcDbBlockBegin
  2
*D19
 70
     1
 10
0.0
 20
0.0
 30
0.0
  3
*D19
  1

  0
LINE
  5
26E1
330
23AF
100
AcDbEntity
  8
寸法
 62
     4
 48
50.0
370
    -2
100
AcDbLine
 10
9812.25467043718
 20
2244.900949614032
 30
0.0
 11
9828.354899444729
 21
2244.900949614032
 31
0.0
  0
LINE
  5
26E2
330
23AF
100
AcDbEntity
  8
寸法
 62
     4
 48
50.0
370
    -2
100
AcDbLine
 10
10616.32755088103
 20
2494.900949614032
 30
0.0
 11
9748.354899444729
 21
2494.900949614032
 31
0.0
  0
LINE
  5
26E3
330
23AF
100
AcDbEntity
  8
寸法
 62
     4
 48
50.0
370
    -2
100
AcDbLine
 10
9788.354899444728
 20
2244.900949614032
 30
0.0
 11
9788.354899444728
 21
2494.900949614032
 31
0.0
  0
MTEXT
  5
26E4
330
23AF
100
AcDbEntity
  8
寸法
 62
     7
 48
50.0
100
AcDbMText
 10
9677.798262385472
 20
2369.900949614032
 30
0.0
 40
120.0
 41
0.0
 71
     5
 72
     1
  1
\A1;250
 11
0.0000000000000001
 21
1.0
 31
0.0
 73
     1
 44
1.0
1001
ACAD
1000
MTEXTBEGIN
1070
    73
1070
     1
1070
    44
1040
1.0
1070
    74
1070
     0
1000
MTEXTEND
  0
INSERT
  5
26E5
330
23AF
100
AcDbEntity
  8
寸法
 62
     4
 48
50.0
370
    -2
100
AcDbBlockReference
  2
_DOTSMALL
 10
9788.354899444728
 20
2244.900949614032
 30
0.0
 41
100.0
 42
100.0
 43
100.0
 50
270.0
  0
INSERT
  5
26E6
330
23AF
100
AcDbEntity
  8
寸法
 62
     4
 48
50.0
370
    -2
100
AcDbBlockReference
  2
_DOTSMALL
 10
9788.354899444728
 20
2494.900949614032
 30
0.0
 41
100.0
 42
100.0
 43
100.0
 50
90.0
  0
POINT
  5
26E7
330
23AF
100
AcDbEntity
  8
DEFPOINTS
 62
     0
 48
50.0
100
AcDbPoint
 10
9772.254670437179
 20
2244.900949614032
 30
0.0
  0
POINT
  5
26E8
330
23AF
100
AcDbEntity
  8
DEFPOINTS
 62
     0
 48
50.0
100
AcDbPoint
 10
10656.32755088103
 20
2494.900949614032
 30
0.0
  0
POINT
  5
26E9
330
23AF
100
AcDbEntity
  8
DEFPOINTS
 62
     0
 48
50.0
100
AcDbPoint
 10
9788.354899444728
 20
2494.900949614032
 30
0.0
  0
ENDBLK
  5
23BA
330
23AF
100
AcDbEntity
  8
0
 48
50.0
100
AcDbBlockEnd
  0
BLOCK
  5
23C6
330
23BB
100
AcDbEntity
  8
0
 48
50.0
100
AcDbBlockBegin
  2
*D20
 70
     1
 10
0.0
 20
0.0
 30
0.0
  3
*D20
  1

  0
LINE
  5
26D7
330
23BB
100
AcDbEntity
  8
寸法
 62
     4
 48
50.0
370
    -2
100
AcDbLine
 10
14716.32755088103
 20
2294.900949614032
 30
0.0
 11
15233.45611201606
 21
2294.900949614032
 31
0.0
  0
LINE
  5
26D8
330
23BB
100
AcDbEntity
  8
寸法
 62
     4
 48
50.0
370
    -2
100
AcDbLine
 10
15165.59992105415
 20
2244.900949614032
 30
0.0
 11
15153.45611201606
 21
2244.900949614032
 31
0.0
  0
LINE
  5
26D9
330
23BB
100
AcDbEntity
  8
寸法
 62
     4
 48
50.0
370
    -2
100
AcDbLine
 10
15193.45611201606
 20
2294.900949614032
 30
0.0
 11
15193.45611201606
 21
2394.900949614032
 31
0.0
  0
LINE
  5
26DA
330
23BB
100
AcDbEntity
  8
寸法
 62
     4
 48
50.0
370
    -2
100
AcDbLine
 10
15193.45611201606
 20
2244.900949614032
 30
0.0
 11
15193.45611201606
 21
2144.900949614032
 31
0.0
  0
MTEXT
  5
26DB
330
23BB
100
AcDbEntity
  8
寸法
 62
     7
 48
50.0
100
AcDbMText
 10
15072.01802163522
 20
2425.303996091992
 30
0.0
 40
120.0
 41
0.0
 71
     5
 72
     1
  1
\A1;50
 11
0.0000000000000001
 21
1.0
 31
0.0
 73
     1
 44
1.0
1001
ACAD
1000
MTEXTBEGIN
1070
    73
1070
     1
1070
    44
1040
1.0
1070
    74
1070
     0
1000
MTEXTEND
  0
INSERT
  5
26DC
330
23BB
100
AcDbEntity
  8
寸法
 62
     4
 48
50.0
370
    -2
100
AcDbBlockReference
  2
_DOTSMALL
 10
15193.45611201606
 20
2294.900949614032
 30
0.0
 41
100.0
 42
100.0
 43
100.0
 50
270.0
  0
INSERT
  5
26DD
330
23BB
100
AcDbEntity
  8
寸法
 62
     4
 48
50.0
370
    -2
100
AcDbBlockReference
  2
_DOTSMALL
 10
15193.45611201606
 20
2244.900949614032
 30
0.0
 41
100.0
 42
100.0
 43
100.0
 50
90.0
  0
POINT
  5
26DE
330
23BB
100
AcDbEntity
  8
DEFPOINTS
 62
     0
 48
50.0
100
AcDbPoint
 10
14676.32755088103
 20
2294.900949614032
 30
0.0
  0
POINT
  5
26DF
330
23BB
100
AcDbEntity
  8
DEFPOINTS
 62
     0
 48
50.0
100
AcDbPoint
 10
15205.59992105415
 20
2244.900949614032
 30
0.0
  0
POINT
  5
26E0
330
23BB
100
AcDbEntity
  8
DEFPOINTS
 62
     0
 48
50.0
100
AcDbPoint
 10
15193.45611201606
 20
2244.900949614032
 30
0.0
  0
ENDBLK
  5
23C7
330
23BB
100
AcDbEntity
  8
0
 48
50.0
100
AcDbBlockEnd
  0
BLOCK
  5
23D1
330
23C8
100
AcDbEntity
  8
0
 48
50.0
100
AcDbBlockBegin
  2
*D21
 70
     1
 10
0.0
 20
0.0
 30
0.0
  3
*D21
  1

  0
LINE
  5
26CF
330
23C8
100
AcDbEntity
  8
寸法
 62
     4
 48
50.0
370
    -2
100
AcDbLine
 10
14676.32755088103
 20
4481.900949614032
 30
0.0
 11
14676.32755088103
 21
4889.668646643563
 31
0.0
  0
LINE
  5
26D0
330
23C8
100
AcDbEntity
  8
寸法
 62
     4
 48
50.0
370
    -2
100
AcDbLine
 10
13926.32755088103
 20
4849.668646643564
 30
0.0
 11
14676.32755088103
 21
4849.668646643564
 31
0.0
  0
INSERT
  5
26D1
330
23C8
100
AcDbEntity
  8
寸法
 62
     4
 48
50.0
370
    -2
100
AcDbBlockReference
  2
_DOTSMALL
 10
13926.32755088103
 20
4849.668646643564
 30
0.0
 41
100.0
 42
100.0
 43
100.0
 50
180.0
  0
INSERT
  5
26D2
330
23C8
100
AcDbEntity
  8
寸法
 62
     4
 48
50.0
370
    -2
100
AcDbBlockReference
  2
_DOTSMALL
 10
14676.32755088103
 20
4849.668646643564
 30
0.0
 41
100.0
 42
100.0
 43
100.0
  0
MTEXT
  5
26D3
330
23C8
100
AcDbEntity
  8
寸法
 62
     7
 48
50.0
100
AcDbMText
 10
14301.32755088103
 20
4949.668646643564
 30
0.0
 40
120.0
 41
0.0
 71
     5
 72
     1
  1
\A1;750
 73
     1
 44
1.0
1001
ACAD
1000
MTEXTBEGIN
1070
    73
1070
     1
1070
    44
1040
1.0
1070
    74
1070
     0
1000
MTEXTEND
  0
POINT
  5
26D4
330
23C8
100
AcDbEntity
  8
DEFPOINTS
 62
     0
 48
50.0
100
AcDbPoint
 10
13926.32755088103
 20
4058.920282370678
 30
0.0
  0
POINT
  5
26D5
330
23C8
100
AcDbEntity
  8
DEFPOINTS
 62
     0
 48
50.0
100
AcDbPoint
 10
14676.32755088103
 20
4441.900949614032
 30
0.0
  0
POINT
  5
26D6
330
23C8
100
AcDbEntity
  8
DEFPOINTS
 62
     0
 48
50.0
100
AcDbPoint
 10
14676.32755088103
 20
4849.668646643564
 30
0.0
  0
ENDBLK
  5
23D2
330
23C8
100
AcDbEntity
  8
0
 48
50.0
100
AcDbBlockEnd
  0
BLOCK
  5
23DD
330
23D3
100
AcDbEntity
  8
0
 48
50.0
100
AcDbBlockBegin
  2
*D22
 70
     1
 10
0.0
 20
0.0
 30
0.0
  3
*D22
  1

  0
LINE
  5
26C6
330
23D3
100
AcDbEntity
  8
寸法
 62
     4
 48
50.0
370
    -2
100
AcDbLine
 10
14680.33206907486
 20
4376.712403549072
 30
0.0
 11
15245.09745646966
 21
4350.121366559242
 31
0.0
  0
LINE
  5
26C7
330
23D3
100
AcDbEntity
  8
寸法
 62
     4
 48
50.0
370
    -2
100
AcDbLine
 10
14674.92347741464
 20
4261.83966032313
 30
0.0
 11
15239.68886480944
 21
4235.248623333299
 31
0.0
  0
LINE
  5
26C8
330
23D3
100
AcDbEntity
  8
寸法
 62
     4
 48
50.0
370
    -2
100
AcDbLine
 10
15205.14171969542
 20
4352.002615832361
 30
0.0
 11
15199.7331280352
 21
4237.129872606419
 31
0.0
  0
MTEXT
  5
26C9
330
23D3
100
AcDbEntity
  8
寸法
 62
     7
 48
50.0
100
AcDbMText
 10
15351.26044099903
 20
4288.297757090342
 30
0.0
 40
120.0
 41
0.0
 71
     5
 72
     1
  1
\A1;115
 11
0.0470312318279986
 21
0.9988934193560098
 31
0.0
 73
     1
 44
1.0
1001
ACAD
1000
MTEXTBEGIN
1070
    73
1070
     1
1070
    44
1040
1.0
1070
    74
1070
     0
1000
MTEXTEND
  0
INSERT
  5
26CA
330
23D3
100
AcDbEntity
  8
寸法
 62
     4
 48
50.0
370
    -2
100
AcDbBlockReference
  2
_DOTSMALL
 10
15205.14171969542
 20
4352.002615832361
 30
0.0
 41
100.0
 42
100.0
 43
100.0
 50
87.30431450645136
  0
INSERT
  5
26CB
330
23D3
100
AcDbEntity
  8
寸法
 62
     4
 48
50.0
370
    -2
100
AcDbBlockReference
  2
_DOTSMALL
 10
15199.7331280352
 20
4237.129872606419
 30
0.0
 41
100.0
 42
100.0
 43
100.0
 50
267.3043145064514
  0
POINT
  5
26CC
330
23D3
100
AcDbEntity
  8
DEFPOINTS
 62
     0
 48
50.0
100
AcDbPoint
 10
14640.37633230062
 20
4378.593652822193
 30
0.0
  0
POINT
  5
26CD
330
23D3
100
AcDbEntity
  8
DEFPOINTS
 62
     0
 48
50.0
100
AcDbPoint
 10
14634.9677406404
 20
4263.72090959625
 30
0.0
  0
POINT
  5
26CE
330
23D3
100
AcDbEntity
  8
DEFPOINTS
 62
     0
 48
50.0
100
AcDbPoint
 10
15199.7331280352
 20
4237.129872606419
 30
0.0
  0
ENDBLK
  5
23DE
330
23D3
100
AcDbEntity
  8
0
 48
50.0
100
AcDbBlockEnd
  0
BLOCK
  5
23E9
330
23DF
100
AcDbEntity
  8
0
 48
50.0
100
AcDbBlockBegin
  2
*D23
 70
     1
 10
0.0
 20
0.0
 30
0.0
  3
*D23
  1

  0
LINE
  5
27E5
330
23DF
100
AcDbEntity
  8
寸法
 62
     4
 48
50.0
370
    -2
100
AcDbLine
 10
7838.084791275922
 20
1974.900949614031
 30
0.0
 11
8304.602443373154
 21
1974.900949614031
 31
0.0
  0
LINE
  5
27E6
330
23DF
100
AcDbEntity
  8
寸法
 62
     4
 48
50.0
370
    -2
100
AcDbLine
 10
8438.266128291225
 20
2244.900949614032
 30
0.0
 11
8224.602443373154
 21
2244.900949614032
 31
0.0
  0
LINE
  5
27E7
330
23DF
100
AcDbEntity
  8
寸法
 62
     4
 48
50.0
370
    -2
100
AcDbLine
 10
8264.602443373153
 20
1974.900949614031
 30
0.0
 11
8264.602443373153
 21
2244.900949614032
 31
0.0
  0
MTEXT
  5
27E8
330
23DF
100
AcDbEntity
  8
寸法
 62
     7
 48
50.0
100
AcDbMText
 10
7984.567010302287
 20
2109.900949614033
 30
0.0
 40
120.0
 41
0.0
 71
     5
 72
     1
  1
\A1;270
 11
0.0000000000000001
 21
1.0
 31
0.0
 73
     1
 44
1.0
1001
ACAD
1000
MTEXTBEGIN
1070
    73
1070
     1
1070
    44
1040
1.0
1070
    74
1070
     0
1000
MTEXTEND
  0
INSERT
  5
27E9
330
23DF
100
AcDbEntity
  8
寸法
 62
     4
 48
50.0
370
    -2
100
AcDbBlockReference
  2
_DOTSMALL
 10
8264.602443373153
 20
1974.900949614031
 30
0.0
 41
100.0
 42
100.0
 43
100.0
 50
270.0
  0
INSERT
  5
27EA
330
23DF
100
AcDbEntity
  8
寸法
 62
     4
 48
50.0
370
    -2
100
AcDbBlockReference
  2
_DOTSMALL
 10
8264.602443373153
 20
2244.900949614032
 30
0.0
 41
100.0
 42
100.0
 43
100.0
 50
90.0
  0
POINT
  5
27EB
330
23DF
100
AcDbEntity
  8
DEFPOINTS
 62
     0
 48
50.0
100
AcDbPoint
 10
7798.084791275922
 20
1974.900949614031
 30
0.0
  0
POINT
  5
27EC
330
23DF
100
AcDbEntity
  8
DEFPOINTS
 62
     0
 48
50.0
100
AcDbPoint
 10
8478.266128291226
 20
2244.900949614032
 30
0.0
  0
POINT
  5
27ED
330
23DF
100
AcDbEntity
  8
DEFPOINTS
 62
     0
 48
50.0
100
AcDbPoint
 10
8264.602443373153
 20
2244.900949614032
 30
0.0
  0
ENDBLK
  5
23EA
330
23DF
100
AcDbEntity
  8
0
 48
50.0
100
AcDbBlockEnd
  0
BLOCK
  5
23F4
330
23EB
100
AcDbEntity
  8
0
 48
50.0
100
AcDbBlockBegin
  2
*D24
 70
     1
 10
0.0
 20
0.0
 30
0.0
  3
*D24
  1

  0
LINE
  5
27DD
330
23EB
100
AcDbEntity
  8
寸法
 62
     4
 48
50.0
370
    -2
100
AcDbLine
 10
8048.084791275922
 20
10706.70309759781
 30
0.0
 11
8673.537714463043
 21
10706.70309759781
 31
0.0
  0
LINE
  5
27DE
330
23EB
100
AcDbEntity
  8
寸法
 62
     4
 48
50.0
370
    -2
100
AcDbLine
 10
8633.537714463043
 20
10582.70309759782
 30
0.0
 11
8633.537714463043
 21
10706.70309759781
 31
0.0
  0
MTEXT
  5
27DF
330
23EB
100
AcDbEntity
  8
寸法
 62
     7
 48
50.0
100
AcDbMText
 10
8526.12031655307
 20
10843.7018745455
 30
0.0
 40
120.0
 41
0.0
 71
     5
 72
     1
  1
\A1;124
 11
0.0000000000000001
 21
1.0
 31
0.0
 73
     1
 44
1.0
1001
ACAD
1000
MTEXTBEGIN
1070
    73
1070
     1
1070
    44
1040
1.0
1070
    74
1070
     0
1000
MTEXTEND
  0
INSERT
  5
27E0
330
23EB
100
AcDbEntity
  8
寸法
 62
     4
 48
50.0
370
    -2
100
AcDbBlockReference
  2
_DOTSMALL
 10
8633.537714463043
 20
10582.70309759782
 30
0.0
 41
100.0
 42
100.0
 43
100.0
 50
270.0
  0
INSERT
  5
27E1
330
23EB
100
AcDbEntity
  8
寸法
 62
     4
 48
50.0
370
    -2
100
AcDbBlockReference
  2
_DOTSMALL
 10
8633.537714463043
 20
10706.70309759781
 30
0.0
 41
100.0
 42
100.0
 43
100.0
 50
90.0
  0
POINT
  5
27E2
330
23EB
100
AcDbEntity
  8
DEFPOINTS
 62
     0
 48
50.0
100
AcDbPoint
 10
7969.584791275915
 20
10582.70309759782
 30
0.0
  0
POINT
  5
27E3
330
23EB
100
AcDbEntity
  8
DEFPOINTS
 62
     0
 48
50.0
100
AcDbPoint
 10
8008.084791275923
 20
10706.70309759781
 30
0.0
  0
POINT
  5
27E4
330
23EB
100
AcDbEntity
  8
DEFPOINTS
 62
     0
 48
50.0
100
AcDbPoint
 10
8633.537714463043
 20
10706.70309759781
 30
0.0
  0
ENDBLK
  5
23F5
330
23EB
100
AcDbEntity
  8
0
 48
50.0
100
AcDbBlockEnd
  0
BLOCK
  5
23FF
330
23F6
100
AcDbEntity
  8
0
 48
50.0
100
AcDbBlockBegin
  2
*D25
 70
     1
 10
0.0
 20
0.0
 30
0.0
  3
*D25
  1

  0
LINE
  5
27D5
330
23F6
100
AcDbEntity
  8
寸法
 62
     4
 48
50.0
370
    -2
100
AcDbLine
 10
8048.084791275922
 20
5906.703097597816
 30
0.0
 11
8673.537714463043
 21
5906.703097597816
 31
0.0
  0
LINE
  5
27D6
330
23F6
100
AcDbEntity
  8
寸法
 62
     4
 48
50.0
370
    -2
100
AcDbLine
 10
8633.537714463043
 20
6030.703097597819
 30
0.0
 11
8633.537714463043
 21
5906.703097597816
 31
0.0
  0
MTEXT
  5
27D7
330
23F6
100
AcDbEntity
  8
寸法
 62
     7
 48
50.0
100
AcDbMText
 10
8523.207916493696
 20
5771.652535875007
 30
0.0
 40
120.0
 41
0.0
 71
     5
 72
     1
  1
\A1;124
 11
0.0000000000000001
 21
1.0
 31
0.0
 73
     1
 44
1.0
1001
ACAD
1000
MTEXTBEGIN
1070
    73
1070
     1
1070
    44
1040
1.0
1070
    74
1070
     0
1000
MTEXTEND
  0
INSERT
  5
27D8
330
23F6
100
AcDbEntity
  8
寸法
 62
     4
 48
50.0
370
    -2
100
AcDbBlockReference
  2
_DOTSMALL
 10
8633.537714463043
 20
6030.703097597819
 30
0.0
 41
100.0
 42
100.0
 43
100.0
 50
90.0
  0
INSERT
  5
27D9
330
23F6
100
AcDbEntity
  8
寸法
 62
     4
 48
50.0
370
    -2
100
AcDbBlockReference
  2
_DOTSMALL
 10
8633.537714463043
 20
5906.703097597816
 30
0.0
 41
100.0
 42
100.0
 43
100.0
 50
270.0
  0
POINT
  5
27DA
330
23F6
100
AcDbEntity
  8
DEFPOINTS
 62
     0
 48
50.0
100
AcDbPoint
 10
7969.584791275922
 20
6030.703097597819
 30
0.0
  0
POINT
  5
27DB
330
23F6
100
AcDbEntity
  8
DEFPOINTS
 62
     0
 48
50.0
100
AcDbPoint
 10
8008.084791275923
 20
5906.703097597816
 30
0.0
  0
POINT
  5
27DC
330
23F6
100
AcDbEntity
  8
DEFPOINTS
 62
     0
 48
50.0
100
AcDbPoint
 10
8633.537714463043
 20
5906.703097597816
 30
0.0
  0
ENDBLK
  5
2400
330
23F6
100
AcDbEntity
  8
0
 48
50.0
100
AcDbBlockEnd
  0
BLOCK
  5
240A
330
2401
100
AcDbEntity
  8
0
 48
50.0
100
AcDbBlockBegin
  2
*D26
 70
     1
 10
0.0
 20
0.0
 30
0.0
  3
*D26
  1

  0
LINE
  5
27CD
330
2401
100
AcDbEntity
  8
寸法
 62
     4
 48
50.0
370
    -2
100
AcDbLine
 10
8009.584791275923
 20
6030.703097597819
 30
0.0
 11
8673.537714463043
 21
6030.703097597819
 31
0.0
  0
LINE
  5
27CE
330
2401
100
AcDbEntity
  8
寸法
 62
     4
 48
50.0
370
    -2
100
AcDbLine
 10
8633.537714463043
 20
8166.703097597816
 30
0.0
 11
8633.537714463043
 21
6030.703097597819
 31
0.0
  0
INSERT
  5
27CF
330
2401
100
AcDbEntity
  8
寸法
 62
     4
 48
50.0
370
    -2
100
AcDbBlockReference
  2
_DOTSMALL
 10
8633.537714463043
 20
8166.703097597816
 30
0.0
 41
100.0
 42
100.0
 43
100.0
 50
90.0
  0
INSERT
  5
27D0
330
2401
100
AcDbEntity
  8
寸法
 62
     4
 48
50.0
370
    -2
100
AcDbBlockReference
  2
_DOTSMALL
 10
8633.537714463043
 20
6030.703097597819
 30
0.0
 41
100.0
 42
100.0
 43
100.0
 50
270.0
  0
MTEXT
  5
27D1
330
2401
100
AcDbEntity
  8
寸法
 62
     7
 48
50.0
100
AcDbMText
 10
8533.525903439418
 20
7098.703097597819
 30
0.0
 40
120.0
 41
0.0
 71
     5
 72
     1
  1
\A1;2136
 11
0.0000000000000001
 21
1.0
 31
0.0
 73
     1
 44
1.0
1001
ACAD
1000
MTEXTBEGIN
1070
    73
1070
     1
1070
    44
1040
1.0
1070
    74
1070
     0
1000
MTEXTEND
  0
POINT
  5
27D2
330
2401
100
AcDbEntity
  8
DEFPOINTS
 62
     0
 48
50.0
100
AcDbPoint
 10
7973.084791275922
 20
8166.703097597816
 30
0.0
  0
POINT
  5
27D3
330
2401
100
AcDbEntity
  8
DEFPOINTS
 62
     0
 48
50.0
100
AcDbPoint
 10
7969.584791275922
 20
6030.703097597819
 30
0.0
  0
POINT
  5
27D4
330
2401
100
AcDbEntity
  8
DEFPOINTS
 62
     0
 48
50.0
100
AcDbPoint
 10
8633.537714463043
 20
6030.703097597819
 30
0.0
  0
ENDBLK
  5
240B
330
2401
100
AcDbEntity
  8
0
 48
50.0
100
AcDbBlockEnd
  0
BLOCK
  5
2415
330
240C
100
AcDbEntity
  8
0
 48
50.0
100
AcDbBlockBegin
  2
*D27
 70
     1
 10
0.0
 20
0.0
 30
0.0
  3
*D27
  1

  0
LINE
  5
27C5
330
240C
100
AcDbEntity
  8
寸法
 62
     4
 48
50.0
370
    -2
100
AcDbLine
 10
8013.084791275922
 20
8166.703097597816
 30
0.0
 11
8673.537714463043
 21
8166.703097597816
 31
0.0
  0
LINE
  5
27C6
330
240C
100
AcDbEntity
  8
寸法
 62
     4
 48
50.0
370
    -2
100
AcDbLine
 10
8633.537714463043
 20
8446.703097597817
 30
0.0
 11
8633.537714463043
 21
8166.703097597816
 31
0.0
  0
MTEXT
  5
27C7
330
240C
100
AcDbEntity
  8
寸法
 62
     7
 48
50.0
100
AcDbMText
 10
8522.180092203999
 20
8306.703097597816
 30
0.0
 40
120.0
 41
0.0
 71
     5
 72
     1
  1
\A1;280
 11
0.0000000000000001
 21
1.0
 31
0.0
 73
     1
 44
1.0
1001
ACAD
1000
MTEXTBEGIN
1070
    73
1070
     1
1070
    44
1040
1.0
1070
    74
1070
     0
1000
MTEXTEND
  0
INSERT
  5
27C8
330
240C
100
AcDbEntity
  8
寸法
 62
     4
 48
50.0
370
    -2
100
AcDbBlockReference
  2
_DOTSMALL
 10
8633.537714463043
 20
8446.703097597817
 30
0.0
 41
100.0
 42
100.0
 43
100.0
 50
90.0
  0
INSERT
  5
27C9
330
240C
100
AcDbEntity
  8
寸法
 62
     4
 48
50.0
370
    -2
100
AcDbBlockReference
  2
_DOTSMALL
 10
8633.537714463043
 20
8166.703097597816
 30
0.0
 41
100.0
 42
100.0
 43
100.0
 50
270.0
  0
POINT
  5
27CA
330
240C
100
AcDbEntity
  8
DEFPOINTS
 62
     0
 48
50.0
100
AcDbPoint
 10
7973.084791275922
 20
8446.703097597817
 30
0.0
  0
POINT
  5
27CB
330
240C
100
AcDbEntity
  8
DEFPOINTS
 62
     0
 48
50.0
100
AcDbPoint
 10
7973.084791275922
 20
8166.703097597816
 30
0.0
  0
POINT
  5
27CC
330
240C
100
AcDbEntity
  8
DEFPOINTS
 62
     0
 48
50.0
100
AcDbPoint
 10
8633.537714463043
 20
8166.703097597816
 30
0.0
  0
ENDBLK
  5
2416
330
240C
100
AcDbEntity
  8
0
 48
50.0
100
AcDbBlockEnd
  0
BLOCK
  5
2421
330
2417
100
AcDbEntity
  8
0
 48
50.0
100
AcDbBlockBegin
  2
*D28
 70
     1
 10
0.0
 20
0.0
 30
0.0
  3
*D28
  1

  0
LINE
  5
27BC
330
2417
100
AcDbEntity
  8
寸法
 62
     4
 48
50.0
370
    -2
100
AcDbLine
 10
8009.584791275914
 20
10582.70309759782
 30
0.0
 11
8673.537714463043
 21
10582.70309759782
 31
0.0
  0
LINE
  5
27BD
330
2417
100
AcDbEntity
  8
寸法
 62
     4
 48
50.0
370
    -2
100
AcDbLine
 10
8013.084791275922
 20
8446.703097597817
 30
0.0
 11
8673.537714463043
 21
8446.703097597817
 31
0.0
  0
LINE
  5
27BE
330
2417
100
AcDbEntity
  8
寸法
 62
     4
 48
50.0
370
    -2
100
AcDbLine
 10
8633.537714463043
 20
10582.70309759782
 30
0.0
 11
8633.537714463043
 21
8446.703097597817
 31
0.0
  0
INSERT
  5
27BF
330
2417
100
AcDbEntity
  8
寸法
 62
     4
 48
50.0
370
    -2
100
AcDbBlockReference
  2
_DOTSMALL
 10
8633.537714463043
 20
10582.70309759782
 30
0.0
 41
100.0
 42
100.0
 43
100.0
 50
90.0
  0
INSERT
  5
27C0
330
2417
100
AcDbEntity
  8
寸法
 62
     4
 48
50.0
370
    -2
100
AcDbBlockReference
  2
_DOTSMALL
 10
8633.537714463043
 20
8446.703097597817
 30
0.0
 41
100.0
 42
100.0
 43
100.0
 50
270.0
  0
MTEXT
  5
27C1
330
2417
100
AcDbEntity
  8
寸法
 62
     7
 48
50.0
100
AcDbMText
 10
8533.525903439418
 20
9514.70309759782
 30
0.0
 40
120.0
 41
0.0
 71
     5
 72
     1
  1
\A1;2136
 11
0.0000000000000001
 21
1.0
 31
0.0
 73
     1
 44
1.0
1001
ACAD
1000
MTEXTBEGIN
1070
    73
1070
     1
1070
    44
1040
1.0
1070
    74
1070
     0
1000
MTEXTEND
  0
POINT
  5
27C2
330
2417
100
AcDbEntity
  8
DEFPOINTS
 62
     0
 48
50.0
100
AcDbPoint
 10
7969.584791275915
 20
10582.70309759782
 30
0.0
  0
POINT
  5
27C3
330
2417
100
AcDbEntity
  8
DEFPOINTS
 62
     0
 48
50.0
100
AcDbPoint
 10
7973.084791275922
 20
8446.703097597817
 30
0.0
  0
POINT
  5
27C4
330
2417
100
AcDbEntity
  8
DEFPOINTS
 62
     0
 48
50.0
100
AcDbPoint
 10
8633.537714463043
 20
8446.703097597817
 30
0.0
  0
ENDBLK
  5
2422
330
2417
100
AcDbEntity
  8
0
 48
50.0
100
AcDbBlockEnd
  0
BLOCK
  5
242D
330
2423
100
AcDbEntity
  8
0
 48
50.0
100
AcDbBlockBegin
  2
*D29
 70
     1
 10
0.0
 20
0.0
 30
0.0
  3
*D29
  1

  0
LINE
  5
27B3
330
2423
100
AcDbEntity
  8
寸法
 62
     4
 48
50.0
370
    -2
100
AcDbLine
 10
1888.084791275922
 20
10706.70309759781
 30
0.0
 11
1024.415140076317
 21
10706.70309759781
 31
0.0
  0
LINE
  5
27B4
330
2423
100
AcDbEntity
  8
寸法
 62
     4
 48
50.0
370
    -2
100
AcDbLine
 10
1888.084791275922
 20
5906.703097597816
 30
0.0
 11
1024.415140076317
 21
5906.703097597816
 31
0.0
  0
LINE
  5
27B5
330
2423
100
AcDbEntity
  8
寸法
 62
     4
 48
50.0
370
    -2
100
AcDbLine
 10
1064.415140076317
 20
10706.70309759781
 30
0.0
 11
1064.415140076317
 21
5906.703097597816
 31
0.0
  0
INSERT
  5
27B6
330
2423
100
AcDbEntity
  8
寸法
 62
     4
 48
50.0
370
    -2
100
AcDbBlockReference
  2
_DOTSMALL
 10
1064.415140076317
 20
10706.70309759781
 30
0.0
 41
100.0
 42
100.0
 43
100.0
 50
90.0
  0
INSERT
  5
27B7
330
2423
100
AcDbEntity
  8
寸法
 62
     4
 48
50.0
370
    -2
100
AcDbBlockReference
  2
_DOTSMALL
 10
1064.415140076317
 20
5906.703097597816
 30
0.0
 41
100.0
 42
100.0
 43
100.0
 50
270.0
  0
MTEXT
  5
27B8
330
2423
100
AcDbEntity
  8
寸法
 62
     7
 48
50.0
100
AcDbMText
 10
964.4151400763158
 20
8306.703097597816
 30
0.0
 40
120.0
 41
0.0
 71
     5
 72
     1
  1
\A1;4800
 11
0.0000000000000001
 21
1.0
 31
0.0
 73
     1
 44
1.0
1001
ACAD
1000
MTEXTBEGIN
1070
    73
1070
     1
1070
    44
1040
1.0
1070
    74
1070
     0
1000
MTEXTEND
  0
POINT
  5
27B9
330
2423
100
AcDbEntity
  8
DEFPOINTS
 62
     0
 48
50.0
100
AcDbPoint
 10
1928.084791275922
 20
10706.70309759781
 30
0.0
  0
POINT
  5
27BA
330
2423
100
AcDbEntity
  8
DEFPOINTS
 62
     0
 48
50.0
100
AcDbPoint
 10
1928.084791275922
 20
5906.703097597816
 30
0.0
  0
POINT
  5
27BB
330
2423
100
AcDbEntity
  8
DEFPOINTS
 62
     0
 48
50.0
100
AcDbPoint
 10
1064.415140076317
 20
5906.703097597816
 30
0.0
  0
ENDBLK
  5
242E
330
2423
100
AcDbEntity
  8
0
 48
50.0
100
AcDbBlockEnd
  0
BLOCK
  5
2438
330
242F
100
AcDbEntity
  8
0
 48
50.0
100
AcDbBlockBegin
  2
*D30
 70
     1
 10
0.0
 20
0.0
 30
0.0
  3
*D30
  1

  0
LINE
  5
27AB
330
242F
100
AcDbEntity
  8
寸法
 62
     4
 48
50.0
370
    -2
100
AcDbLine
 10
1888.084791275922
 20
5906.703097597816
 30
0.0
 11
1304.415140076317
 21
5906.703097597816
 31
0.0
  0
LINE
  5
27AC
330
242F
100
AcDbEntity
  8
寸法
 62
     4
 48
50.0
370
    -2
100
AcDbLine
 10
1344.415140076316
 20
6143.703097597816
 30
0.0
 11
1344.415140076316
 21
5906.703097597816
 31
0.0
  0
MTEXT
  5
27AD
330
242F
100
AcDbEntity
  8
寸法
 62
     7
 48
50.0
100
AcDbMText
 10
1184.403329052693
 20
6025.203097597816
 30
0.0
 40
120.0
 41
0.0
 71
     5
 72
     1
  1
\A1;237
 11
0.0000000000000001
 21
1.0
 31
0.0
 73
     1
 44
1.0
1001
ACAD
1000
MTEXTBEGIN
1070
    73
1070
     1
1070
    44
1040
1.0
1070
    74
1070
     0
1000
MTEXTEND
  0
INSERT
  5
27AE
330
242F
100
AcDbEntity
  8
寸法
 62
     4
 48
50.0
370
    -2
100
AcDbBlockReference
  2
_DOTSMALL
 10
1344.415140076316
 20
6143.703097597816
 30
0.0
 41
100.0
 42
100.0
 43
100.0
 50
90.0
  0
INSERT
  5
27AF
330
242F
100
AcDbEntity
  8
寸法
 62
     4
 48
50.0
370
    -2
100
AcDbBlockReference
  2
_DOTSMALL
 10
1344.415140076316
 20
5906.703097597816
 30
0.0
 41
100.0
 42
100.0
 43
100.0
 50
270.0
  0
POINT
  5
27B0
330
242F
100
AcDbEntity
  8
DEFPOINTS
 62
     0
 48
50.0
100
AcDbPoint
 10
1918.084791275922
 20
6143.703097597816
 30
0.0
  0
POINT
  5
27B1
330
242F
100
AcDbEntity
  8
DEFPOINTS
 62
     0
 48
50.0
100
AcDbPoint
 10
1928.084791275922
 20
5906.703097597816
 30
0.0
  0
POINT
  5
27B2
330
242F
100
AcDbEntity
  8
DEFPOINTS
 62
     0
 48
50.0
100
AcDbPoint
 10
1344.415140076316
 20
5906.703097597816
 30
0.0
  0
ENDBLK
  5
2439
330
242F
100
AcDbEntity
  8
0
 48
50.0
100
AcDbBlockEnd
  0
BLOCK
  5
2444
330
243A
100
AcDbEntity
  8
0
 48
50.0
100
AcDbBlockBegin
  2
*D31
 70
     1
 10
0.0
 20
0.0
 30
0.0
  3
*D31
  1

  0
LINE
  5
27A2
330
243A
100
AcDbEntity
  8
部品1
 62
     4
 48
50.0
370
    -2
100
AcDbLine
 10
2168.084791275922
 20
1934.900949614031
 30
0.0
 11
2168.084791275922
 21
1648.824870420445
 31
0.0
  0
LINE
  5
27A3
330
243A
100
AcDbEntity
  8
部品1
 62
     4
 48
50.0
370
    -2
100
AcDbLine
 10
4968.084791275922
 20
1934.900949614031
 30
0.0
 11
4968.084791275922
 21
1648.824870420445
 31
0.0
  0
LINE
  5
27A4
330
243A
100
AcDbEntity
  8
部品1
 62
     4
 48
50.0
370
    -2
100
AcDbLine
 10
2168.084791275922
 20
1688.824870420445
 30
0.0
 11
4968.084791275922
 21
1688.824870420445
 31
0.0
  0
INSERT
  5
27A5
330
243A
100
AcDbEntity
  8
部品1
 62
     4
 48
50.0
370
    -2
100
AcDbBlockReference
  2
_DOTSMALL
 10
2168.084791275922
 20
1688.824870420445
 30
0.0
 41
100.0
 42
100.0
 43
100.0
 50
180.0
  0
INSERT
  5
27A6
330
243A
100
AcDbEntity
  8
部品1
 62
     4
 48
50.0
370
    -2
100
AcDbBlockReference
  2
_DOTSMALL
 10
4968.084791275922
 20
1688.824870420445
 30
0.0
 41
100.0
 42
100.0
 43
100.0
  0
MTEXT
  5
27A7
330
243A
100
AcDbEntity
  8
部品1
 62
     7
 48
50.0
100
AcDbMText
 10
3568.084791275922
 20
1788.836681444067
 30
0.0
 40
120.0
 41
0.0
 71
     5
 72
     1
  1
\A1;2800
 73
     1
 44
1.0
1001
ACAD
1000
MTEXTBEGIN
1070
    73
1070
     1
1070
    44
1040
1.0
1070
    74
1070
     0
1000
MTEXTEND
  0
POINT
  5
27A8
330
243A
100
AcDbEntity
  8
DEFPOINTS
 62
     0
 48
50.0
100
AcDbPoint
 10
2168.084791275922
 20
1974.900949614031
 30
0.0
  0
POINT
  5
27A9
330
243A
100
AcDbEntity
  8
DEFPOINTS
 62
     0
 48
50.0
100
AcDbPoint
 10
4968.084791275922
 20
1974.900949614031
 30
0.0
  0
POINT
  5
27AA
330
243A
100
AcDbEntity
  8
DEFPOINTS
 62
     0
 48
50.0
100
AcDbPoint
 10
4968.084791275922
 20
1688.824870420445
 30
0.0
  0
ENDBLK
  5
2445
330
243A
100
AcDbEntity
  8
0
 48
50.0
100
AcDbBlockEnd
  0
BLOCK
  5
2450
330
2446
100
AcDbEntity
  8
0
 48
50.0
100
AcDbBlockBegin
  2
*D32
 70
     1
 10
0.0
 20
0.0
 30
0.0
  3
*D32
  1

  0
LINE
  5
2799
330
2446
100
AcDbEntity
  8
寸法
 62
     4
 48
50.0
370
    -2
100
AcDbLine
 10
1918.084791275922
 20
4529.900949614034
 30
0.0
 11
1918.084791275922
 21
5105.459815648814
 31
0.0
  0
LINE
  5
279A
330
2446
100
AcDbEntity
  8
寸法
 62
     4
 48
50.0
370
    -2
100
AcDbLine
 10
8018.084791275922
 20
4529.900949614034
 30
0.0
 11
8018.084791275922
 21
5105.459815648814
 31
0.0
  0
LINE
  5
279B
330
2446
100
AcDbEntity
  8
寸法
 62
     4
 48
50.0
370
    -2
100
AcDbLine
 10
1918.084791275922
 20
5065.459815648813
 30
0.0
 11
8018.084791275922
 21
5065.459815648813
 31
0.0
  0
INSERT
  5
279C
330
2446
100
AcDbEntity
  8
寸法
 62
     4
 48
50.0
370
    -2
100
AcDbBlockReference
  2
_DOTSMALL
 10
1918.084791275922
 20
5065.459815648813
 30
0.0
 41
100.0
 42
100.0
 43
100.0
 50
180.0
  0
INSERT
  5
279D
330
2446
100
AcDbEntity
  8
寸法
 62
     4
 48
50.0
370
    -2
100
AcDbBlockReference
  2
_DOTSMALL
 10
8018.084791275922
 20
5065.459815648813
 30
0.0
 41
100.0
 42
100.0
 43
100.0
  0
MTEXT
  5
279E
330
2446
100
AcDbEntity
  8
寸法
 62
     7
 48
50.0
100
AcDbMText
 10
4968.084791275922
 20
5165.459815648813
 30
0.0
 40
120.0
 41
0.0
 71
     5
 72
     1
  1
\A1;6100
 73
     1
 44
1.0
1001
ACAD
1000
MTEXTBEGIN
1070
    73
1070
     1
1070
    44
1040
1.0
1070
    74
1070
     0
1000
MTEXTEND
  0
POINT
  5
279F
330
2446
100
AcDbEntity
  8
DEFPOINTS
 62
     0
 48
50.0
100
AcDbPoint
 10
1918.084791275922
 20
4489.900949614034
 30
0.0
  0
POINT
  5
27A0
330
2446
100
AcDbEntity
  8
DEFPOINTS
 62
     0
 48
50.0
100
AcDbPoint
 10
8018.084791275922
 20
4489.900949614034
 30
0.0
  0
POINT
  5
27A1
330
2446
100
AcDbEntity
  8
DEFPOINTS
 62
     0
 48
50.0
100
AcDbPoint
 10
8018.084791275922
 20
5065.459815648813
 30
0.0
  0
ENDBLK
  5
2451
330
2446
100
AcDbEntity
  8
0
 48
50.0
100
AcDbBlockEnd
  0
BLOCK
  5
245B
330
2452
100
AcDbEntity
  8
0
 48
50.0
100
AcDbBlockBegin
  2
*D33
 70
     1
 10
0.0
 20
0.0
 30
0.0
  3
*D33
  1

  0
LINE
  5
2802
330
2452
100
AcDbEntity
  8
寸法
 62
     4
 48
50.0
370
    -2
100
AcDbLine
 10
7768.084791275922
 20
4302.216331315402
 30
0.0
 11
7768.084791275922
 21
4825.459815648813
 31
0.0
  0
LINE
  5
2803
330
2452
100
AcDbEntity
  8
寸法
 62
     4
 48
50.0
370
    -2
100
AcDbLine
 10
2168.084791275922
 20
4785.459815648813
 30
0.0
 11
7768.084791275922
 21
4785.459815648813
 31
0.0
  0
INSERT
  5
2804
330
2452
100
AcDbEntity
  8
寸法
 62
     4
 48
50.0
370
    -2
100
AcDbBlockReference
  2
_DOTSMALL
 10
2168.084791275922
 20
4785.459815648813
 30
0.0
 41
100.0
 42
100.0
 43
100.0
 50
180.0
  0
INSERT
  5
2805
330
2452
100
AcDbEntity
  8
寸法
 62
     4
 48
50.0
370
    -2
100
AcDbBlockReference
  2
_DOTSMALL
 10
7768.084791275922
 20
4785.459815648813
 30
0.0
 41
100.0
 42
100.0
 43
100.0
  0
MTEXT
  5
2806
330
2452
100
AcDbEntity
  8
寸法
 62
     7
 48
50.0
100
AcDbMText
 10
4968.084791275922
 20
4885.459815648814
 30
0.0
 40
120.0
 41
0.0
 71
     5
 72
     1
  1
\A1;5600
 73
     1
 44
1.0
1001
ACAD
1000
MTEXTBEGIN
1070
    73
1070
     1
1070
    44
1040
1.0
1070
    74
1070
     0
1000
MTEXTEND
  0
POINT
  5
2807
330
2452
100
AcDbEntity
  8
DEFPOINTS
 62
     0
 48
50.0
100
AcDbPoint
 10
2168.084791275922
 20
4262.216331315402
 30
0.0
  0
POINT
  5
2808
330
2452
100
AcDbEntity
  8
DEFPOINTS
 62
     0
 48
50.0
100
AcDbPoint
 10
7768.084791275922
 20
4262.216331315402
 30
0.0
  0
POINT
  5
2809
330
2452
100
AcDbEntity
  8
DEFPOINTS
 62
     0
 48
50.0
100
AcDbPoint
 10
7768.084791275922
 20
4785.459815648813
 30
0.0
  0
ENDBLK
  5
245C
330
2452
100
AcDbEntity
  8
0
 48
50.0
100
AcDbBlockEnd
  0
BLOCK
  5
2467
330
245D
100
AcDbEntity
  8
0
 48
50.0
100
AcDbBlockBegin
  2
*D34
 70
     1
 10
0.0
 20
0.0
 30
0.0
  3
*D34
  1

  0
LINE
  5
2788
330
245D
100
AcDbEntity
  8
寸法
 62
     4
 48
50.0
370
    -2
100
AcDbLine
 10
1918.084791275922
 20
4529.900949614034
 30
0.0
 11
1918.084791275922
 21
4825.459815648813
 31
0.0
  0
LINE
  5
2789
330
245D
100
AcDbEntity
  8
寸法
 62
     4
 48
50.0
370
    -2
100
AcDbLine
 10
2168.084791275922
 20
4302.216331315402
 30
0.0
 11
2168.084791275922
 21
4825.459815648813
 31
0.0
  0
LINE
  5
278A
330
245D
100
AcDbEntity
  8
寸法
 62
     4
 48
50.0
370
    -2
100
AcDbLine
 10
1918.084791275922
 20
4785.459815648813
 30
0.0
 11
2168.084791275922
 21
4785.459815648813
 31
0.0
  0
INSERT
  5
278B
330
245D
100
AcDbEntity
  8
寸法
 62
     4
 48
50.0
370
    -2
100
AcDbBlockReference
  2
_DOTSMALL
 10
1918.084791275922
 20
4785.459815648813
 30
0.0
 41
100.0
 42
100.0
 43
100.0
 50
180.0
  0
INSERT
  5
278C
330
245D
100
AcDbEntity
  8
寸法
 62
     4
 48
50.0
370
    -2
100
AcDbBlockReference
  2
_DOTSMALL
 10
2168.084791275922
 20
4785.459815648813
 30
0.0
 41
100.0
 42
100.0
 43
100.0
  0
MTEXT
  5
278D
330
245D
100
AcDbEntity
  8
寸法
 62
     7
 48
50.0
100
AcDbMText
 10
2043.084791275922
 20
4885.471626672435
 30
0.0
 40
120.0
 41
0.0
 71
     5
 72
     1
  1
\A1;250
 73
     1
 44
1.0
1001
ACAD
1000
MTEXTBEGIN
1070
    73
1070
     1
1070
    44
1040
1.0
1070
    74
1070
     0
1000
MTEXTEND
  0
POINT
  5
278E
330
245D
100
AcDbEntity
  8
DEFPOINTS
 62
     0
 48
50.0
100
AcDbPoint
 10
1918.084791275922
 20
4489.900949614034
 30
0.0
  0
POINT
  5
278F
330
245D
100
AcDbEntity
  8
DEFPOINTS
 62
     0
 48
50.0
100
AcDbPoint
 10
2168.084791275922
 20
4262.216331315402
 30
0.0
  0
POINT
  5
2790
330
245D
100
AcDbEntity
  8
DEFPOINTS
 62
     0
 48
50.0
100
AcDbPoint
 10
2168.084791275922
 20
4785.459815648813
 30
0.0
  0
ENDBLK
  5
2468
330
245D
100
AcDbEntity
  8
0
 48
50.0
100
AcDbBlockEnd
  0
BLOCK
  5
2473
330
2469
100
AcDbEntity
  8
0
 48
50.0
100
AcDbBlockBegin
  2
*D35
 70
     1
 10
0.0
 20
0.0
 30
0.0
  3
*D35
  1

  0
LINE
  5
277F
330
2469
100
AcDbEntity
  8
寸法
 62
     4
 48
50.0
370
    -2
100
AcDbLine
 10
7768.084791275922
 20
1941.589597719343
 30
0.0
 11
7768.084791275922
 21
1648.824870420445
 31
0.0
  0
LINE
  5
2780
330
2469
100
AcDbEntity
  8
寸法
 62
     4
 48
50.0
370
    -2
100
AcDbLine
 10
4968.084791275922
 20
1941.589597719343
 30
0.0
 11
4968.084791275922
 21
1648.824870420445
 31
0.0
  0
LINE
  5
2781
330
2469
100
AcDbEntity
  8
寸法
 62
     4
 48
50.0
370
    -2
100
AcDbLine
 10
7768.084791275922
 20
1688.824870420445
 30
0.0
 11
4968.084791275922
 21
1688.824870420445
 31
0.0
  0
INSERT
  5
2782
330
2469
100
AcDbEntity
  8
寸法
 62
     4
 48
50.0
370
    -2
100
AcDbBlockReference
  2
_DOTSMALL
 10
7768.084791275922
 20
1688.824870420445
 30
0.0
 41
100.0
 42
100.0
 43
100.0
  0
INSERT
  5
2783
330
2469
100
AcDbEntity
  8
寸法
 62
     4
 48
50.0
370
    -2
100
AcDbBlockReference
  2
_DOTSMALL
 10
4968.084791275922
 20
1688.824870420445
 30
0.0
 41
100.0
 42
100.0
 43
100.0
 50
180.0
  0
MTEXT
  5
2784
330
2469
100
AcDbEntity
  8
寸法
 62
     7
 48
50.0
100
AcDbMText
 10
6368.084791275922
 20
1788.836681444067
 30
0.0
 40
120.0
 41
0.0
 71
     5
 72
     1
  1
\A1;2800
 73
     1
 44
1.0
1001
ACAD
1000
MTEXTBEGIN
1070
    73
1070
     1
1070
    44
1040
1.0
1070
    74
1070
     0
1000
MTEXTEND
  0
POINT
  5
2785
330
2469
100
AcDbEntity
  8
DEFPOINTS
 62
     0
 48
50.0
100
AcDbPoint
 10
7768.084791275922
 20
1981.589597719343
 30
0.0
  0
POINT
  5
2786
330
2469
100
AcDbEntity
  8
DEFPOINTS
 62
     0
 48
50.0
100
AcDbPoint
 10
4968.084791275922
 20
1981.589597719343
 30
0.0
  0
POINT
  5
2787
330
2469
100
AcDbEntity
  8
DEFPOINTS
 62
     0
 48
50.0
100
AcDbPoint
 10
4968.084791275922
 20
1688.824870420445
 30
0.0
  0
ENDBLK
  5
2474
330
2469
100
AcDbEntity
  8
0
 48
50.0
100
AcDbBlockEnd
  0
ENDSEC
  0
SECTION
  2
ENTITIES
  0
MTEXT
  5
1411
330
1A
100
AcDbEntity
  8
0
100
AcDbMText
 10
12113.85383347236
 20
11207.9349056396
 30
0.0
 40
140.0
 41
212.9488506697089
 71
     1
 72
     5
  1

  7
MSMINCHO
 73
     1
 44
1.0
1001
ACAD
1000
MTEXTBEGIN
1070
    73
1070
     1
1070
    44
1040
1.0
1070
    74
1070
     0
1000
MTEXTEND
  0
LINE
  5
1F3A
330
1A
100
AcDbEntity
  8
仕様書枠
 48
50.0
100
AcDbLine
 10
128.8000000000011
 20
264.0
 30
0.0
 11
16296.0
 21
264.0
 31
0.0
  0
LINE
  5
1F3B
330
1A
100
AcDbEntity
  8
Ｇ．Ｌ
100
AcDbLine
 10
1214.212021998302
 20
2244.900949614032
 30
0.0
 11
15653.42636519889
 21
2244.900949614032
 31
0.0
  0
DIMENSION
  5
1F3C
330
1A
100
AcDbEntity
  8
寸法
100
AcDbDimension
  2
*D23
 10
8264.602443373153
 20
2244.900949614032
 30
0.0
 11
7984.567010302287
 21
2109.900949614033
 31
0.0
 70
    32
 71
     5
 42
270.0
  3
物置仕様図40
100
AcDbAlignedDimension
 13
7798.084791275922
 23
1974.900949614031
 33
0.0
 14
8478.266128291226
 24
2244.900949614032
 34
0.0
 50
90.0
100
AcDbRotatedDimension
  0
DIMENSION
  5
1F3D
330
1A
100
AcDbEntity
  8
寸法
100
AcDbDimension
  2
*D24
 10
8633.537714463043
 20
10706.70309759781
 30
0.0
 11
8526.12031655307
 21
10843.7018745455
 31
0.0
 70
   160
 71
     5
 42
123.9999999999982
  3
物置仕様図40
100
AcDbAlignedDimension
 13
7969.584791275915
 23
10582.70309759782
 33
0.0
 14
8008.084791275923
 24
10706.70309759781
 34
0.0
 50
90.0
100
AcDbRotatedDimension
1001
ACAD
1000
DSTYLE
1002
{
1070
    75
1070
     1
1002
}
  0
DIMENSION
  5
1F3E
330
1A
100
AcDbEntity
  8
寸法
100
AcDbDimension
  2
*D25
 10
8633.537714463043
 20
5906.703097597816
 30
0.0
 11
8523.207916493696
 21
5771.652535875007
 31
0.0
 70
   160
 71
     5
 42
124.0000000000036
  3
物置仕様図40
100
AcDbAlignedDimension
 13
7969.584791275922
 23
6030.703097597819
 33
0.0
 14
8008.084791275923
 24
5906.703097597816
 34
0.0
 50
90.0
100
AcDbRotatedDimension
1001
ACAD
1000
DSTYLE
1002
{
1070
    75
1070
     1
1002
}
  0
DIMENSION
  5
1F3F
330
1A
100
AcDbEntity
  8
寸法
100
AcDbDimension
  2
*D26
 10
8633.537714463043
 20
6030.703097597819
 30
0.0
 11
8533.525903439418
 21
7098.703097597819
 31
0.0
 70
    32
 71
     5
 42
2135.999999999997
  3
物置仕様図40
100
AcDbAlignedDimension
 13
7973.084791275922
 23
8166.703097597816
 33
0.0
 14
7969.584791275922
 24
6030.703097597819
 34
0.0
 50
90.0
100
AcDbRotatedDimension
1001
ACAD
1000
DSTYLE
1002
{
1070
    75
1070
     1
1002
}
  0
DIMENSION
  5
1F40
330
1A
100
AcDbEntity
  8
寸法
100
AcDbDimension
  2
*D27
 10
8633.537714463043
 20
8166.703097597816
 30
0.0
 11
8522.180092203999
 21
8306.703097597816
 31
0.0
 70
   160
 71
     5
 42
280.0
  3
物置仕様図40
100
AcDbAlignedDimension
 13
7973.084791275922
 23
8446.703097597817
 33
0.0
 14
7973.084791275922
 24
8166.703097597816
 34
0.0
 50
90.0
100
AcDbRotatedDimension
1001
ACAD
1000
DSTYLE
1002
{
1070
    75
1070
     1
1002
}
  0
DIMENSION
  5
1F41
330
1A
100
AcDbEntity
  8
寸法
100
AcDbDimension
  2
*D28
 10
8633.537714463043
 20
8446.703097597817
 30
0.0
 11
8533.525903439418
 21
9514.70309759782
 31
0.0
 70
    32
 71
     5
 42
2136.000000000002
  3
物置仕様図40
100
AcDbAlignedDimension
 13
7969.584791275915
 23
10582.70309759782
 33
0.0
 14
7973.084791275922
 24
8446.703097597817
 34
0.0
 50
90.0
100
AcDbRotatedDimension
  0
LINE
  5
1F42
330
1A
100
AcDbEntity
  8
部品1
100
AcDbLine
 10
4458.636883455507
 20
9995.260583916797
 30
0.0
 11
5722.349765888945
 21
5806.703097597816
 31
0.0
  0
LINE
  5
1F43
330
1A
100
AcDbEntity
  8
部品1
100
AcDbLine
 10
4958.08479127592
 20
6030.703097597819
 30
0.0
 11
4958.08479127592
 21
5906.703097597816
 31
0.0
  0
DIMENSION
  5
1F44
330
1A
100
AcDbEntity
  8
寸法
100
AcDbDimension
  2
*D29
 10
1064.415140076317
 20
5906.703097597816
 30
0.0
 11
964.4151400763158
 21
8306.703097597816
 31
0.0
 70
    32
 71
     5
 42
4800.0
  3
物置仕様図40
100
AcDbAlignedDimension
 13
1928.084791275922
 23
10706.70309759781
 33
0.0
 14
1928.084791275922
 24
5906.703097597816
 34
0.0
 50
90.0
100
AcDbRotatedDimension
  0
DIMENSION
  5
1F45
330
1A
100
AcDbEntity
  8
寸法
100
AcDbDimension
  2
*D30
 10
1344.415140076316
 20
5906.703097597816
 30
0.0
 11
1184.403329052693
 21
6025.203097597816
 31
0.0
 70
    32
 71
     5
 42
237.0
  3
物置仕様図40
100
AcDbAlignedDimension
 13
1918.084791275922
 23
6143.703097597816
 33
0.0
 14
1928.084791275922
 24
5906.703097597816
 34
0.0
 50
90.0
100
AcDbRotatedDimension
1001
ACAD
1000
DSTYLE
1002
{
1070
    75
1070
     1
1002
}
  0
LINE
  5
1F46
330
1A
100
AcDbEntity
  8
部品1
100
AcDbLine
 10
1966.584791275929
 20
6030.703097597815
 30
0.0
 11
1966.584791275922
 21
5926.203097597817
 31
0.0
  0
LINE
  5
1F47
330
1A
100
AcDbEntity
  8
部品1
100
AcDbLine
 10
1918.084791275922
 20
10696.70309759781
 30
0.0
 11
1918.084791275922
 21
5916.703097597816
 31
0.0
  0
LINE
  5
1F48
330
1A
100
AcDbEntity
  8
部品1
100
AcDbLine
 10
1963.084791275922
 20
10687.20309759781
 30
0.0
 11
1963.084791275922
 21
5926.203097597817
 31
0.0
  0
LINE
  5
1F49
330
1A
100
AcDbEntity
  8
部品1
100
AcDbLine
 10
7969.584791275922
 20
5926.203097597817
 30
0.0
 11
7969.584791275922
 21
6030.703097597815
 31
0.0
  0
LINE
  5
1F4A
330
1A
100
AcDbEntity
  8
部品1
100
AcDbLine
 10
8018.084791275922
 20
5916.703097597816
 30
0.0
 11
8018.084791275922
 21
10696.70309759781
 31
0.0
  0
LINE
  5
1F4B
330
1A
100
AcDbEntity
  8
部品1
100
AcDbLine
 10
7973.084791275922
 20
5926.203097597817
 30
0.0
 11
7973.084791275922
 21
10687.20309759781
 31
0.0
  0
DIMENSION
  5
1F4C
330
1A
100
AcDbEntity
  8
部品1
100
AcDbDimension
  2
*D31
 10
4968.084791275922
 20
1688.824870420445
 30
0.0
 11
3568.084791275922
 21
1788.836681444067
 31
0.0
 70
    32
 71
     5
 42
2800.0
  3
物置仕様図40
100
AcDbAlignedDimension
 13
2168.084791275922
 23
1974.900949614031
 33
0.0
 14
4968.084791275922
 24
1974.900949614031
 34
0.0
100
AcDbRotatedDimension
1001
ACAD
1000
DSTYLE
1002
{
1070
    75
1070
     0
1070
   341
1005
0
1002
}
  0
LINE
  5
1F4D
330
1A
100
AcDbEntity
  8
部品1
100
AcDbLine
 10
3171.084791275922
 20
4479.934067956793
 30
0.0
 11
3136.584791275924
 21
4479.934067956793
 31
0.0
  0
LINE
  5
1F4E
330
1A
100
AcDbEntity
  8
細線
100
AcDbLine
 10
3102.855723688319
 20
2244.900949614032
 30
0.0
 11
3152.855723688319
 21
2294.900949614032
 31
0.0
  0
LINE
  5
1F4F
330
1A
100
AcDbEntity
  8
細線
100
AcDbLine
 10
3136.531684142328
 20
2244.900949614032
 30
0.0
 11
3186.531684142329
 21
2294.900949614032
 31
0.0
  0
LINE
  5
1F50
330
1A
100
AcDbEntity
  8
部品1
100
AcDbLine
 10
1918.084791275922
 20
2294.900949614032
 30
0.0
 11
8018.084791275922
 21
2294.900949614032
 31
0.0
  0
LINE
  5
1F51
330
1A
100
AcDbEntity
  8
部品1
100
AcDbLine
 10
1928.084791275922
 20
5906.703097597816
 30
0.0
 11
8008.084791275923
 21
5906.703097597816
 31
0.0
  0
LINE
  5
1F52
330
1A
100
AcDbEntity
  8
部品1
100
AcDbLine
 10
4938.084791275922
 20
2494.900949614033
 30
0.0
 11
2198.084791275922
 21
2494.900949614033
 31
0.0
  0
LINE
  5
1F53
330
1A
100
AcDbEntity
  8
部品1
100
AcDbLine
 10
4938.084791275922
 20
2539.900949614033
 30
0.0
 11
2198.084791275922
 21
2539.900949614033
 31
0.0
  0
LINE
  5
1F54
330
1A
100
AcDbEntity
  8
部品1
100
AcDbLine
 10
4938.084791275922
 20
2604.900949614034
 30
0.0
 11
2198.084791275922
 21
2604.900949614034
 31
0.0
  0
LINE
  5
1F55
330
1A
100
AcDbEntity
  8
部品1
100
AcDbLine
 10
4938.084791275922
 20
2644.900949614033
 30
0.0
 11
2198.084791275922
 21
2644.900949614033
 31
0.0
  0
LINE
  5
1F56
330
1A
100
AcDbEntity
  8
部品1
100
AcDbLine
 10
4938.084791275922
 20
2944.900949614034
 30
0.0
 11
2198.084791275922
 21
2944.900949614034
 31
0.0
  0
LINE
  5
1F57
330
1A
100
AcDbEntity
  8
部品1
100
AcDbLine
 10
4938.084791275922
 20
2974.900949614033
 30
0.0
 11
2198.084791275922
 21
2974.900949614033
 31
0.0
  0
LINE
  5
1F58
330
1A
100
AcDbEntity
  8
部品1
100
AcDbLine
 10
4938.084791275922
 20
3349.900949614033
 30
0.0
 11
2198.084791275922
 21
3349.900949614033
 31
0.0
  0
LINE
  5
1F59
330
1A
100
AcDbEntity
  8
部品1
100
AcDbLine
 10
4938.084791275922
 20
3394.900949614033
 30
0.0
 11
2198.084791275922
 21
3394.900949614033
 31
0.0
  0
DIMENSION
  5
1F5A
330
1A
100
AcDbEntity
  8
寸法
100
AcDbDimension
  2
*D32
 10
8018.084791275922
 20
5065.459815648813
 30
0.0
 11
4968.084791275922
 21
5165.459815648813
 31
0.0
 70
    32
 71
     5
 42
6100.0
  3
物置仕様図40
100
AcDbAlignedDimension
 13
1918.084791275922
 23
4489.900949614034
 33
0.0
 14
8018.084791275922
 24
4489.900949614034
 34
0.0
100
AcDbRotatedDimension
  0
DIMENSION
  5
1F5B
330
1A
100
AcDbEntity
  8
寸法
100
AcDbDimension
  2
*D33
 10
7768.084791275922
 20
4785.459815648813
 30
0.0
 11
4968.084791275922
 21
4885.459815648814
 31
0.0
 70
    32
 71
     5
 42
5600.0
  3
物置仕様図40
100
AcDbAlignedDimension
 13
2168.084791275922
 23
4262.216331315402
 33
0.0
 14
7768.084791275922
 24
4262.216331315402
 34
0.0
100
AcDbRotatedDimension
1001
ACAD
1000
DSTYLE
1002
{
1070
    75
1070
     1
1002
}
  0
LINE
  5
1F5C
330
1A
100
AcDbEntity
  8
細線
100
AcDbLine
 10
8015.2587043194
 20
4312.079208836543
 30
0.0
 11
1920.910878232444
 21
4312.079208836543
 31
0.0
  0
LINE
  5
1F5D
330
1A
100
AcDbEntity
  8
細線
100
AcDbLine
 10
8014.736965188966
 20
4300.112118231472
 30
0.0
 11
1921.432617362878
 21
4300.112118231472
 31
0.0
  0
LINE
  5
1F5E
330
1A
100
AcDbEntity
  8
部品1
100
AcDbLine
 10
8000.639213867922
 20
4262.216331315403
 30
0.0
 11
1935.530368683922
 21
4262.216331315403
 31
0.0
  0
LINE
  5
1F5F
330
1A
100
AcDbEntity
  8
部品1
100
AcDbLine
 10
8004.505670399508
 20
4376.900949614031
 30
0.0
 11
1931.663912152335
 21
4376.900949614033
 31
0.0
  0
LINE
  5
1F60
330
1A
100
AcDbEntity
  8
部品1
100
AcDbLine
 10
8004.505670399508
 20
4489.900949614031
 30
0.0
 11
1931.663912152335
 21
4489.900949614034
 31
0.0
  0
LINE
  5
1F61
330
1A
100
AcDbEntity
  8
点線
 48
50.0
100
AcDbLine
 10
2198.084791275922
 20
2294.900949614032
 30
0.0
 11
2198.084791275922
 21
1974.900949614031
 31
0.0
  0
LINE
  5
1F62
330
1A
100
AcDbEntity
  8
点線
 48
50.0
100
AcDbLine
 10
2138.084791275922
 20
2294.900949614032
 30
0.0
 11
2138.084791275922
 21
1974.900949614031
 31
0.0
  0
LINE
  5
1F63
330
1A
100
AcDbEntity
  8
センター
 48
10.0
100
AcDbLine
 10
2168.084791275922
 20
4262.216331315402
 30
0.0
 11
2168.084791275922
 21
1981.589597719343
 31
0.0
  0
LINE
  5
1F64
330
1A
100
AcDbEntity
  8
点線
 48
50.0
100
AcDbLine
 10
2198.084791275922
 20
1974.900949614031
 30
0.0
 11
2138.084791275922
 21
1974.900949614031
 31
0.0
  0
LINE
  5
1F65
330
1A
100
AcDbEntity
  8
点線
 48
10.0
100
AcDbLine
 10
2068.084791275922
 20
1999.90094961403
 30
0.0
 11
2068.084791275922
 21
1989.90094961403
 31
0.0
  0
LINE
  5
1F66
330
1A
100
AcDbEntity
  8
点線
 48
10.0
100
AcDbLine
 10
2068.084791275922
 20
1989.90094961403
 30
0.0
 11
2138.084791275922
 21
1989.90094961403
 31
0.0
  0
LINE
  5
1F67
330
1A
100
AcDbEntity
  8
点線
 48
10.0
100
AcDbLine
 10
2068.084791275922
 20
1999.90094961403
 30
0.0
 11
2138.084791275922
 21
1999.90094961403
 31
0.0
  0
LINE
  5
1F68
330
1A
100
AcDbEntity
  8
点線
 48
10.0
100
AcDbLine
 10
2268.084791275922
 20
1999.900949614032
 30
0.0
 11
2268.084791275922
 21
1989.900949614031
 31
0.0
  0
LINE
  5
1F69
330
1A
100
AcDbEntity
  8
点線
 48
10.0
100
AcDbLine
 10
2198.084791275922
 20
1989.900949614031
 30
0.0
 11
2268.084791275922
 21
1989.900949614031
 31
0.0
  0
LINE
  5
1F6A
330
1A
100
AcDbEntity
  8
点線
 48
10.0
100
AcDbLine
 10
2198.084791275922
 20
1999.900949614032
 30
0.0
 11
2268.084791275922
 21
1999.900949614032
 31
0.0
  0
LINE
  5
1F6B
330
1A
100
AcDbEntity
  8
細線
100
AcDbLine
 10
2180.084791275922
 20
4208.176083237957
 30
0.0
 11
2180.084791275922
 21
4067.512771956428
 31
0.0
  0
LINE
  5
1F6C
330
1A
100
AcDbEntity
  8
細線
100
AcDbLine
 10
2156.084791275922
 20
4208.176083237957
 30
0.0
 11
2156.084791275922
 21
4067.512771956428
 31
0.0
  0
LINE
  5
1F6D
330
1A
100
AcDbEntity
  8
細線
100
AcDbLine
 10
2186.084791275922
 20
4208.176083237957
 30
0.0
 11
2186.084791275922
 21
4067.512771956428
 31
0.0
  0
LINE
  5
1F6E
330
1A
100
AcDbEntity
  8
細線
100
AcDbLine
 10
2150.084791275922
 20
4208.176083237957
 30
0.0
 11
2150.084791275922
 21
4067.512771956428
 31
0.0
  0
LINE
  5
1F6F
330
1A
100
AcDbEntity
  8
部品1
100
AcDbLine
 10
2135.084791275922
 20
4213.176083237956
 30
0.0
 11
2135.084791275922
 21
4067.512771956428
 31
0.0
  0
LINE
  5
1F70
330
1A
100
AcDbEntity
  8
部品1
100
AcDbLine
 10
2201.084791275922
 20
4262.216331315402
 30
0.0
 11
2201.084791275922
 21
4067.512771956428
 31
0.0
  0
TEXT
  5
1F71
330
1A
100
AcDbEntity
  8
部品1
 48
50.0
100
AcDbText
 10
1220.070997888317
 20
2284.29225004436
 30
0.0
 40
100.0
  1
▽G.L
  7
STYLE2
100
AcDbText
  0
LINE
  5
1F72
330
1A
100
AcDbEntity
  8
部品1
100
AcDbLine
 10
2198.084791275922
 20
4067.512771956428
 30
0.0
 11
2198.084791275922
 21
2294.900949614032
 31
0.0
  0
LINE
  5
1F73
330
1A
100
AcDbEntity
  8
部品1
100
AcDbLine
 10
2138.084791275922
 20
4067.512771956428
 30
0.0
 11
2138.084791275922
 21
2294.900949614032
 31
0.0
  0
LINE
  5
1F74
330
1A
100
AcDbEntity
  8
細線
100
AcDbLine
 10
1991.549028706011
 20
2244.900949614032
 30
0.0
 11
2041.549028706011
 21
2294.900949614032
 31
0.0
  0
LINE
  5
1F75
330
1A
100
AcDbEntity
  8
部品1
100
AcDbLine
 10
1918.084791275922
 20
2294.900949614032
 30
0.0
 11
1918.084791275922
 21
2244.900949614032
 31
0.0
  0
LINE
  5
1F76
330
1A
100
AcDbEntity
  8
細線
100
AcDbLine
 10
2025.224989160021
 20
2244.900949614032
 30
0.0
 11
2075.22498916002
 21
2294.900949614032
 31
0.0
  0
LINE
  5
1F77
330
1A
100
AcDbEntity
  8
細線
100
AcDbLine
 10
2058.90094961403
 20
2244.900949614032
 30
0.0
 11
2108.90094961403
 21
2294.900949614032
 31
0.0
  0
LINE
  5
1F78
330
1A
100
AcDbEntity
  8
細線
100
AcDbLine
 10
3069.17976323431
 20
2244.900949614032
 30
0.0
 11
3119.17976323431
 21
2294.900949614032
 31
0.0
  0
LINE
  5
1F79
330
1A
100
AcDbEntity
  8
部品1
100
AcDbLine
 10
2201.084791275922
 20
4067.512771956428
 30
0.0
 11
2135.084791275922
 21
4067.512771956428
 31
0.0
  0
LINE
  5
1F7A
330
1A
100
AcDbEntity
  8
部品1
100
AcDbLine
 10
2346.084791275922
 20
4461.934067956794
 30
0.0
 11
2556.584791275922
 21
4461.934067956794
 31
0.0
  0
DIMENSION
  5
1F7B
330
1A
100
AcDbEntity
  8
寸法
100
AcDbDimension
  2
*D34
 10
2168.084791275922
 20
4785.459815648813
 30
0.0
 11
2043.084791275922
 21
4785.459815648813
 31
0.0
 70
   160
 71
     5
 42
250.0
  3
物置仕様図40
100
AcDbAlignedDimension
 13
1918.084791275922
 23
4489.900949614034
 33
0.0
 14
2168.084791275922
 24
4262.216331315402
 34
0.0
100
AcDbRotatedDimension
1001
ACAD
1000
DSTYLE
1002
{
1070
   279
1070
     0
1002
}
  0
LINE
  5
1F7C
330
1A
100
AcDbEntity
  8
部品1
100
AcDbLine
 10
2011.084791275922
 20
4461.934067956796
 30
0.0
 11
2228.084791275922
 21
4461.934067956796
 31
0.0
  0
LINE
  5
1F7D
330
1A
100
AcDbEntity
  8
部品1
100
AcDbLine
 10
2196.084791275922
 20
4208.176083237957
 30
0.0
 11
2140.084791275922
 21
4208.176083237957
 31
0.0
  0
LINE
  5
1F7E
330
1A
100
AcDbEntity
  8
部品1
100
AcDbLine
 10
1941.084791275922
 20
4376.900949614033
 30
0.0
 11
1941.084791275922
 21
4262.216331315403
 31
0.0
  0
LINE
  5
1F7F
330
1A
100
AcDbEntity
  8
部品1
100
AcDbLine
 10
1918.676249574806
 20
4363.334715764618
 30
0.0
 11
1922.542706106391
 21
4274.650097465989
 31
0.0
  0
ARC
  5
1F80
330
1A
100
AcDbEntity
  8
部品1
100
AcDbCircle
 10
1935.530368683922
 20
4275.216331315403
 30
0.0
 40
13.0
100
AcDbArc
 50
182.4963905215386
 51
270.0
  0
ARC
  5
1F81
330
1A
100
AcDbEntity
  8
部品1
100
AcDbCircle
 10
2140.084791275922
 20
4213.176083237956
 30
0.0
 40
5.0
100
AcDbArc
 50
180.0
 51
270.0
  0
LINE
  5
1F82
330
1A
100
AcDbEntity
  8
部品1
100
AcDbLine
 10
2135.084791275922
 20
4262.216331315403
 30
0.0
 11
2135.084791275922
 21
4213.176083237956
 31
0.0
  0
LINE
  5
1F83
330
1A
100
AcDbEntity
  8
部品1
100
AcDbLine
 10
2011.084791275922
 20
4479.934067956793
 30
0.0
 11
1976.584791275922
 21
4479.934067956793
 31
0.0
  0
LINE
  5
1F84
330
1A
100
AcDbEntity
  8
部品1
100
AcDbLine
 10
1963.084791275922
 20
4461.934067956794
 30
0.0
 11
1976.584791275922
 21
4461.934067956796
 31
0.0
  0
LINE
  5
1F85
330
1A
100
AcDbEntity
  8
部品1
100
AcDbLine
 10
1976.584791275922
 20
4479.934067956794
 30
0.0
 11
1976.584791275922
 21
4376.900949614031
 31
0.0
  0
ARC
  5
1F86
330
1A
100
AcDbEntity
  8
部品1
100
AcDbCircle
 10
1931.663912152335
 20
4476.900949614033
 30
0.0
 40
13.0
100
AcDbArc
 50
90.0
 51
180.0
  0
LINE
  5
1F87
330
1A
100
AcDbEntity
  8
部品1
100
AcDbLine
 10
1918.663912152335
 20
4363.900949614033
 30
0.0
 11
1918.663912152335
 21
4476.900949614033
 31
0.0
  0
ARC
  5
1F88
330
1A
100
AcDbEntity
  8
部品1
100
AcDbCircle
 10
1931.663912152335
 20
4363.900949614033
 30
0.0
 40
13.0
100
AcDbArc
 50
90.0
 51
182.4963905215386
  0
LINE
  5
1F89
330
1A
100
AcDbEntity
  8
部品1
100
AcDbLine
 10
1963.084791275922
 20
4489.900949614031
 30
0.0
 11
1963.084791275922
 21
4376.900949614033
 31
0.0
  0
LINE
  5
1F8A
330
1A
100
AcDbEntity
  8
部品1
100
AcDbLine
 10
2011.084791275922
 20
4479.934067956794
 30
0.0
 11
2011.084791275922
 21
4376.900949614031
 31
0.0
  0
ARC
  5
1F8B
330
1A
100
AcDbEntity
  8
部品1
100
AcDbCircle
 10
2196.084791275922
 20
4213.176083237956
 30
0.0
 40
5.0
100
AcDbArc
 50
270.0
 51
0.0
  0
LINE
  5
1F8C
330
1A
100
AcDbEntity
  8
部品1
100
AcDbLine
 10
2346.084791275922
 20
4479.934067956793
 30
0.0
 11
2301.084791275922
 21
4479.934067956793
 31
0.0
  0
LINE
  5
1F8D
330
1A
100
AcDbEntity
  8
部品1
100
AcDbLine
 10
2301.084791275922
 20
4479.934067956794
 30
0.0
 11
2301.084791275922
 21
4376.900949614031
 31
0.0
  0
LINE
  5
1F8E
330
1A
100
AcDbEntity
  8
部品1
100
AcDbLine
 10
2273.084791275922
 20
4479.934067956793
 30
0.0
 11
2228.08479127592
 21
4479.934067956793
 31
0.0
  0
LINE
  5
1F8F
330
1A
100
AcDbEntity
  8
部品1
100
AcDbLine
 10
2273.084791275922
 20
4479.934067956794
 30
0.0
 11
2273.084791275924
 21
4376.900949614031
 31
0.0
  0
LINE
  5
1F90
330
1A
100
AcDbEntity
  8
部品1
100
AcDbLine
 10
2228.08479127592
 20
4479.934067956794
 30
0.0
 11
2228.084791275922
 21
4376.900949614031
 31
0.0
  0
LINE
  5
1F91
330
1A
100
AcDbEntity
  8
部品1
100
AcDbLine
 10
2273.084791275924
 20
4461.934067956796
 30
0.0
 11
2301.084791275922
 21
4461.934067956796
 31
0.0
  0
LINE
  5
1F92
330
1A
100
AcDbEntity
  8
部品1
100
AcDbLine
 10
2346.084791275922
 20
4479.934067956793
 30
0.0
 11
2346.084791275922
 21
4376.900949614031
 31
0.0
  0
LINE
  5
1F93
330
1A
100
AcDbEntity
  8
部品1
100
AcDbLine
 10
2853.084791275922
 20
4479.93406795679
 30
0.0
 11
2808.084791275922
 21
4479.93406795679
 31
0.0
  0
LINE
  5
1F94
330
1A
100
AcDbEntity
  8
部品1
100
AcDbLine
 10
2591.084791275922
 20
4461.934067956794
 30
0.0
 11
2808.084791275922
 21
4461.934067956794
 31
0.0
  0
LINE
  5
1F95
330
1A
100
AcDbEntity
  8
部品1
100
AcDbLine
 10
2591.084791275922
 20
4479.93406795679
 30
0.0
 11
2556.584791275922
 21
4479.934067956793
 31
0.0
  0
LINE
  5
1F96
330
1A
100
AcDbEntity
  8
部品1
100
AcDbLine
 10
2591.084791275922
 20
4479.934067956793
 30
0.0
 11
2591.084791275922
 21
4376.900949614031
 31
0.0
  0
LINE
  5
1F97
330
1A
100
AcDbEntity
  8
部品1
100
AcDbLine
 10
2556.584791275922
 20
4479.934067956793
 30
0.0
 11
2556.584791275924
 21
4376.900949614031
 31
0.0
  0
LINE
  5
1F98
330
1A
100
AcDbEntity
  8
部品1
100
AcDbLine
 10
2808.084791275922
 20
4479.934067956793
 30
0.0
 11
2808.084791275922
 21
4376.900949614031
 31
0.0
  0
LINE
  5
1F99
330
1A
100
AcDbEntity
  8
部品1
100
AcDbLine
 10
2926.084791275922
 20
4461.934067956796
 30
0.0
 11
3136.584791275922
 21
4461.934067956796
 31
0.0
  0
LINE
  5
1F9A
330
1A
100
AcDbEntity
  8
部品1
100
AcDbLine
 10
2853.084791275922
 20
4461.934067956794
 30
0.0
 11
2881.084791275922
 21
4461.934067956796
 31
0.0
  0
LINE
  5
1F9B
330
1A
100
AcDbEntity
  8
部品1
100
AcDbLine
 10
2926.084791275922
 20
4479.93406795679
 30
0.0
 11
2881.084791275922
 21
4479.934067956793
 31
0.0
  0
LINE
  5
1F9C
330
1A
100
AcDbEntity
  8
部品1
100
AcDbLine
 10
2926.084791275922
 20
4479.934067956794
 30
0.0
 11
2926.084791275922
 21
4376.90094961403
 31
0.0
  0
LINE
  5
1F9D
330
1A
100
AcDbEntity
  8
部品1
100
AcDbLine
 10
2881.084791275922
 20
4479.934067956794
 30
0.0
 11
2881.084791275922
 21
4376.90094961403
 31
0.0
  0
LINE
  5
1F9E
330
1A
100
AcDbEntity
  8
部品1
100
AcDbLine
 10
2853.084791275922
 20
4479.934067956793
 30
0.0
 11
2853.084791275922
 21
4376.900949614031
 31
0.0
  0
LINE
  5
1F9F
330
1A
100
AcDbEntity
  8
部品1
100
AcDbLine
 10
3136.584791275922
 20
4479.934067956793
 30
0.0
 11
3136.584791275922
 21
4376.90094961403
 31
0.0
  0
LINE
  5
1FA0
330
1A
100
AcDbEntity
  8
部品1
100
AcDbLine
 10
1945.584791275922
 20
5926.203097597817
 30
0.0
 11
1966.584791275922
 21
5926.203097597817
 31
0.0
  0
LINE
  5
1FA1
330
1A
100
AcDbEntity
  8
部品1
100
AcDbLine
 10
1940.584791275922
 20
5921.203097597816
 30
0.0
 11
1940.584791275922
 21
5906.703097597816
 31
0.0
  0
ARC
  5
1FA2
330
1A
100
AcDbEntity
  8
部品1
100
AcDbCircle
 10
1945.584791275922
 20
5921.203097597816
 30
0.0
 40
5.0
100
AcDbArc
 50
90.0
 51
180.0
  0
ARC
  5
1FA3
330
1A
100
AcDbEntity
  8
部品1
100
AcDbCircle
 10
1928.084791275922
 20
5916.703097597816
 30
0.0
 40
10.0
100
AcDbArc
 50
180.0
 51
270.0
  0
LINE
  5
1FA4
330
1A
100
AcDbEntity
  8
点線
 48
50.0
100
AcDbLine
 10
4998.084791275921
 20
2294.900949614033
 30
0.0
 11
4998.084791275921
 21
1974.900949614031
 31
0.0
  0
LINE
  5
1FA5
330
1A
100
AcDbEntity
  8
点線
 48
50.0
100
AcDbLine
 10
4938.084791275922
 20
2294.900949614033
 30
0.0
 11
4938.084791275922
 21
1974.900949614031
 31
0.0
  0
LINE
  5
1FA6
330
1A
100
AcDbEntity
  8
センター
 48
10.0
100
AcDbLine
 10
4968.084791275922
 20
4262.216331315403
 30
0.0
 11
4968.084791275922
 21
1981.589597719343
 31
0.0
  0
LINE
  5
1FA7
330
1A
100
AcDbEntity
  8
点線
 48
50.0
100
AcDbLine
 10
7798.084791275922
 20
2294.900949614032
 30
0.0
 11
7798.084791275922
 21
1974.900949614031
 31
0.0
  0
LINE
  5
1FA8
330
1A
100
AcDbEntity
  8
点線
 48
50.0
100
AcDbLine
 10
7738.084791275922
 20
2294.900949614032
 30
0.0
 11
7738.084791275922
 21
1974.900949614031
 31
0.0
  0
LINE
  5
1FA9
330
1A
100
AcDbEntity
  8
センター
 48
10.0
100
AcDbLine
 10
7768.084791275922
 20
4262.216331315402
 30
0.0
 11
7768.084791275922
 21
1981.589597719343
 31
0.0
  0
DIMENSION
  5
1FAA
330
1A
100
AcDbEntity
  8
寸法
100
AcDbDimension
  2
*D35
 10
4968.084791275922
 20
1688.824870420445
 30
0.0
 11
6368.084791275922
 21
1788.836681444067
 31
0.0
 70
    32
 71
     5
 42
2800.0
  3
物置仕様図40
100
AcDbAlignedDimension
 13
7768.084791275922
 23
1981.589597719343
 33
0.0
 14
4968.084791275922
 24
1981.589597719343
 34
0.0
100
AcDbRotatedDimension
  0
TEXT
  5
1FAB
330
1A
100
AcDbEntity
  8
部品1
100
AcDbText
 10
4704.803766252292
 20
1357.236007414966
 30
0.0
 40
120.0
  1
正面図
  7
MSGOTHIC
100
AcDbText
  0
LWPOLYLINE
  5
1FAC
330
1A
100
AcDbEntity
  8
部品1
100
AcDbPolyline
 90
        4
 70
     1
 43
0.0
 10
4662.336280796162
 20
1531.674684141446
 10
4662.336280796162
 20
1310.090425101178
 10
5299.348613555924
 20
1310.090425101178
 10
5299.348613555924
 20
1531.674684141446
  0
LINE
  5
1FAD
330
1A
100
AcDbEntity
  8
点線
 48
10.0
100
AcDbLine
 10
5068.084791275921
 20
1999.900949614032
 30
0.0
 11
5068.084791275921
 21
1989.900949614031
 31
0.0
  0
LINE
  5
1FAE
330
1A
100
AcDbEntity
  8
点線
 48
10.0
100
AcDbLine
 10
4868.084791275922
 20
1999.90094961403
 30
0.0
 11
4868.084791275922
 21
1989.90094961403
 31
0.0
  0
LINE
  5
1FAF
330
1A
100
AcDbEntity
  8
点線
 48
50.0
100
AcDbLine
 10
4998.084791275921
 20
1974.900949614031
 30
0.0
 11
4938.084791275922
 21
1974.900949614031
 31
0.0
  0
LINE
  5
1FB0
330
1A
100
AcDbEntity
  8
点線
 48
10.0
100
AcDbLine
 10
4868.084791275922
 20
1989.90094961403
 30
0.0
 11
4938.084791275922
 21
1989.90094961403
 31
0.0
  0
LINE
  5
1FB1
330
1A
100
AcDbEntity
  8
点線
 48
10.0
100
AcDbLine
 10
4998.084791275921
 20
1989.900949614031
 30
0.0
 11
5068.084791275921
 21
1989.900949614031
 31
0.0
  0
LINE
  5
1FB2
330
1A
100
AcDbEntity
  8
点線
 48
10.0
100
AcDbLine
 10
4868.084791275922
 20
1999.90094961403
 30
0.0
 11
4938.084791275922
 21
1999.90094961403
 31
0.0
  0
LINE
  5
1FB3
330
1A
100
AcDbEntity
  8
点線
 48
10.0
100
AcDbLine
 10
4998.084791275921
 20
1999.900949614032
 30
0.0
 11
5068.084791275921
 21
1999.900949614032
 31
0.0
  0
LINE
  5
1FB4
330
1A
100
AcDbEntity
  8
点線
 48
50.0
100
AcDbLine
 10
7798.084791275922
 20
1974.900949614031
 30
0.0
 11
7738.084791275922
 21
1974.900949614031
 31
0.0
  0
LINE
  5
1FB5
330
1A
100
AcDbEntity
  8
点線
 48
10.0
100
AcDbLine
 10
7668.084791275922
 20
1999.90094961403
 30
0.0
 11
7668.084791275922
 21
1989.90094961403
 31
0.0
  0
LINE
  5
1FB6
330
1A
100
AcDbEntity
  8
点線
 48
10.0
100
AcDbLine
 10
7668.084791275922
 20
1989.90094961403
 30
0.0
 11
7738.084791275922
 21
1989.90094961403
 31
0.0
  0
LINE
  5
1FB7
330
1A
100
AcDbEntity
  8
点線
 48
10.0
100
AcDbLine
 10
7668.084791275922
 20
1999.90094961403
 30
0.0
 11
7738.084791275922
 21
1999.90094961403
 31
0.0
  0
LINE
  5
1FB8
330
1A
100
AcDbEntity
  8
点線
 48
10.0
100
AcDbLine
 10
7868.084791275922
 20
1999.900949614032
 30
0.0
 11
7868.084791275922
 21
1989.900949614031
 31
0.0
  0
LINE
  5
1FB9
330
1A
100
AcDbEntity
  8
点線
 48
10.0
100
AcDbLine
 10
7798.084791275922
 20
1989.900949614031
 30
0.0
 11
7868.084791275922
 21
1989.900949614031
 31
0.0
  0
LINE
  5
1FBA
330
1A
100
AcDbEntity
  8
点線
 48
10.0
100
AcDbLine
 10
7798.084791275922
 20
1999.900949614032
 30
0.0
 11
7868.084791275922
 21
1999.900949614032
 31
0.0
  0
LINE
  5
1FBB
330
1A
100
AcDbEntity
  8
部品1
100
AcDbLine
 10
5788.084791275926
 20
4479.934067956793
 30
0.0
 11
5743.084791275926
 21
4479.934067956793
 31
0.0
  0
LINE
  5
1FBC
330
1A
100
AcDbEntity
  8
部品1
100
AcDbLine
 10
7738.084791275922
 20
2644.900949614033
 30
0.0
 11
4998.084791275921
 21
2644.900949614033
 31
0.0
  0
LINE
  5
1FBD
330
1A
100
AcDbEntity
  8
部品1
100
AcDbLine
 10
7738.084791275922
 20
2604.900949614034
 30
0.0
 11
4998.084791275921
 21
2604.900949614034
 31
0.0
  0
LINE
  5
1FBE
330
1A
100
AcDbEntity
  8
部品1
100
AcDbLine
 10
7738.084791275922
 20
2974.900949614033
 30
0.0
 11
4998.084791275921
 21
2974.900949614033
 31
0.0
  0
LINE
  5
1FBF
330
1A
100
AcDbEntity
  8
部品1
100
AcDbLine
 10
7738.084791275922
 20
2944.900949614034
 30
0.0
 11
4998.084791275921
 21
2944.900949614034
 31
0.0
  0
LINE
  5
1FC0
330
1A
100
AcDbEntity
  8
部品1
100
AcDbLine
 10
7738.084791275922
 20
2539.900949614033
 30
0.0
 11
4998.084791275921
 21
2539.900949614033
 31
0.0
  0
LINE
  5
1FC1
330
1A
100
AcDbEntity
  8
部品1
100
AcDbLine
 10
7738.084791275922
 20
3349.900949614033
 30
0.0
 11
4998.084791275921
 21
3349.900949614033
 31
0.0
  0
LINE
  5
1FC2
330
1A
100
AcDbEntity
  8
部品1
100
AcDbLine
 10
7738.084791275922
 20
2494.900949614033
 30
0.0
 11
4998.084791275921
 21
2494.900949614033
 31
0.0
  0
LINE
  5
1FC3
330
1A
100
AcDbEntity
  8
部品1
100
AcDbLine
 10
7738.084791275922
 20
3394.900949614033
 30
0.0
 11
4998.084791275921
 21
3394.900949614033
 31
0.0
  0
LINE
  5
1FC4
330
1A
100
AcDbEntity
  8
細線
100
AcDbLine
 10
4986.084791275922
 20
4208.176083237957
 30
0.0
 11
4986.084791275922
 21
4067.512771956428
 31
0.0
  0
LINE
  5
1FC5
330
1A
100
AcDbEntity
  8
細線
100
AcDbLine
 10
4956.084791275922
 20
4208.176083237957
 30
0.0
 11
4956.084791275922
 21
4067.512771956428
 31
0.0
  0
LINE
  5
1FC6
330
1A
100
AcDbEntity
  8
細線
100
AcDbLine
 10
4980.084791275921
 20
4208.176083237957
 30
0.0
 11
4980.084791275921
 21
4067.512771956428
 31
0.0
  0
LINE
  5
1FC7
330
1A
100
AcDbEntity
  8
部品1
100
AcDbLine
 10
4935.084791275922
 20
4213.176083237956
 30
0.0
 11
4935.084791275922
 21
4067.512771956428
 31
0.0
  0
LINE
  5
1FC8
330
1A
100
AcDbEntity
  8
細線
100
AcDbLine
 10
4950.084791275922
 20
4208.176083237957
 30
0.0
 11
4950.084791275922
 21
4067.512771956428
 31
0.0
  0
LINE
  5
1FC9
330
1A
100
AcDbEntity
  8
部品1
100
AcDbLine
 10
5001.084791275921
 20
4262.216331315403
 30
0.0
 11
5001.084791275921
 21
4067.512771956428
 31
0.0
  0
LINE
  5
1FCA
330
1A
100
AcDbEntity
  8
部品1
100
AcDbLine
 10
3550.584791275922
 20
2604.900949614034
 30
0.0
 11
3550.584791275922
 21
2539.900949614033
 31
0.0
  0
LINE
  5
1FCB
330
1A
100
AcDbEntity
  8
部品1
100
AcDbLine
 10
3585.584791275922
 20
2604.900949614034
 30
0.0
 11
3585.584791275922
 21
2539.900949614033
 31
0.0
  0
LINE
  5
1FCC
330
1A
100
AcDbEntity
  8
細線
100
AcDbLine
 10
4146.810497762608
 20
2244.900949614032
 30
0.0
 11
4196.810497762608
 21
2294.900949614032
 31
0.0
  0
LINE
  5
1FCD
330
1A
100
AcDbEntity
  8
細線
100
AcDbLine
 10
4180.486458216617
 20
2244.900949614032
 30
0.0
 11
4230.486458216617
 21
2294.900949614032
 31
0.0
  0
LINE
  5
1FCE
330
1A
100
AcDbEntity
  8
細線
100
AcDbLine
 10
4214.162418670627
 20
2244.900949614032
 30
0.0
 11
4264.162418670626
 21
2294.900949614032
 31
0.0
  0
LINE
  5
1FCF
330
1A
100
AcDbEntity
  8
部品1
100
AcDbLine
 10
4998.084791275921
 20
4067.512771956428
 30
0.0
 11
4998.084791275921
 21
2294.900949614033
 31
0.0
  0
LINE
  5
1FD0
330
1A
100
AcDbEntity
  8
部品1
100
AcDbLine
 10
4938.084791275922
 20
4067.512771956428
 30
0.0
 11
4938.084791275922
 21
2294.900949614033
 31
0.0
  0
LINE
  5
1FD1
330
1A
100
AcDbEntity
  8
細線
100
AcDbLine
 10
5258.117192744916
 20
2244.900949614032
 30
0.0
 11
5308.117192744916
 21
2294.900949614032
 31
0.0
  0
LINE
  5
1FD2
330
1A
100
AcDbEntity
  8
細線
100
AcDbLine
 10
5224.441232290907
 20
2244.900949614032
 30
0.0
 11
5274.441232290906
 21
2294.900949614032
 31
0.0
  0
LINE
  5
1FD3
330
1A
100
AcDbEntity
  8
細線
100
AcDbLine
 10
5291.793153198925
 20
2244.900949614032
 30
0.0
 11
5341.793153198925
 21
2294.900949614032
 31
0.0
  0
LINE
  5
1FD4
330
1A
100
AcDbEntity
  8
部品1
100
AcDbLine
 10
5001.084791275921
 20
4067.512771956428
 30
0.0
 11
4935.084791275922
 21
4067.512771956428
 31
0.0
  0
LINE
  5
1FD5
330
1A
100
AcDbEntity
  8
部品1
100
AcDbLine
 10
4431.084791275922
 20
4461.934067956792
 30
0.0
 11
4568.084791275925
 21
4461.934067956792
 31
0.0
  0
LINE
  5
1FD6
330
1A
100
AcDbEntity
  8
部品1
100
AcDbLine
 10
3846.084791275931
 20
4479.934067956788
 30
0.0
 11
3801.084791275926
 21
4479.934067956788
 31
0.0
  0
LINE
  5
1FD7
330
1A
100
AcDbEntity
  8
部品1
100
AcDbLine
 10
3426.084791275926
 20
4461.934067956796
 30
0.0
 11
3556.584791275918
 21
4461.934067956796
 31
0.0
  0
LINE
  5
1FD8
330
1A
100
AcDbEntity
  8
部品1
100
AcDbLine
 10
3353.084791275922
 20
4479.93406795679
 30
0.0
 11
3308.084791275922
 21
4479.934067956793
 31
0.0
  0
LINE
  5
1FD9
330
1A
100
AcDbEntity
  8
部品1
100
AcDbLine
 10
3171.084791275922
 20
4461.934067956796
 30
0.0
 11
3308.084791275922
 21
4461.934067956796
 31
0.0
  0
LINE
  5
1FDA
330
1A
100
AcDbEntity
  8
部品1
100
AcDbLine
 10
3308.084791275922
 20
4479.934067956793
 30
0.0
 11
3308.084791275922
 21
4376.900949614033
 31
0.0
  0
LINE
  5
1FDB
330
1A
100
AcDbEntity
  8
部品1
100
AcDbLine
 10
3171.084791275922
 20
4479.934067956793
 30
0.0
 11
3171.084791275924
 21
4376.900949614033
 31
0.0
  0
LINE
  5
1FDC
330
1A
100
AcDbEntity
  8
部品1
100
AcDbLine
 10
3353.084791275922
 20
4461.934067956796
 30
0.0
 11
3381.084791275922
 21
4461.934067956796
 31
0.0
  0
LINE
  5
1FDD
330
1A
100
AcDbEntity
  8
部品1
100
AcDbLine
 10
3426.084791275926
 20
4479.93406795679
 30
0.0
 11
3381.084791275922
 21
4479.93406795679
 31
0.0
  0
LINE
  5
1FDE
330
1A
100
AcDbEntity
  8
部品1
100
AcDbLine
 10
3426.084791275926
 20
4479.934067956793
 30
0.0
 11
3426.084791275926
 21
4376.900949614033
 31
0.0
  0
LINE
  5
1FDF
330
1A
100
AcDbEntity
  8
部品1
100
AcDbLine
 10
3381.084791275922
 20
4479.934067956793
 30
0.0
 11
3381.084791275922
 21
4376.900949614033
 31
0.0
  0
LINE
  5
1FE0
330
1A
100
AcDbEntity
  8
部品1
100
AcDbLine
 10
3353.084791275922
 20
4479.934067956793
 30
0.0
 11
3353.084791275922
 21
4376.900949614033
 31
0.0
  0
LINE
  5
1FE1
330
1A
100
AcDbEntity
  8
部品1
100
AcDbLine
 10
3591.084791275922
 20
4461.934067956794
 30
0.0
 11
3728.084791275927
 21
4461.934067956794
 31
0.0
  0
LINE
  5
1FE2
330
1A
100
AcDbEntity
  8
部品1
100
AcDbLine
 10
3591.084791275922
 20
4479.934067956788
 30
0.0
 11
3556.58479127592
 21
4479.93406795679
 31
0.0
  0
LINE
  5
1FE3
330
1A
100
AcDbEntity
  8
部品1
100
AcDbLine
 10
3591.084791275922
 20
4479.934067956793
 30
0.0
 11
3591.084791275922
 21
4376.900949614033
 31
0.0
  0
LINE
  5
1FE4
330
1A
100
AcDbEntity
  8
部品1
100
AcDbLine
 10
3556.58479127592
 20
4479.934067956793
 30
0.0
 11
3556.58479127592
 21
4376.900949614033
 31
0.0
  0
LINE
  5
1FE5
330
1A
100
AcDbEntity
  8
部品1
100
AcDbLine
 10
3773.084791275929
 20
4461.934067956794
 30
0.0
 11
3801.084791275928
 21
4461.934067956794
 31
0.0
  0
LINE
  5
1FE6
330
1A
100
AcDbEntity
  8
部品1
100
AcDbLine
 10
3773.084791275927
 20
4479.934067956788
 30
0.0
 11
3728.084791275929
 21
4479.934067956788
 31
0.0
  0
LINE
  5
1FE7
330
1A
100
AcDbEntity
  8
部品1
100
AcDbLine
 10
3801.084791275926
 20
4479.934067956793
 30
0.0
 11
3801.084791275928
 21
4376.900949614033
 31
0.0
  0
LINE
  5
1FE8
330
1A
100
AcDbEntity
  8
部品1
100
AcDbLine
 10
3773.084791275927
 20
4479.934067956793
 30
0.0
 11
3773.084791275927
 21
4376.900949614033
 31
0.0
  0
LINE
  5
1FE9
330
1A
100
AcDbEntity
  8
部品1
100
AcDbLine
 10
3728.084791275929
 20
4479.934067956793
 30
0.0
 11
3728.084791275929
 21
4376.900949614033
 31
0.0
  0
LINE
  5
1FEA
330
1A
100
AcDbEntity
  8
部品1
100
AcDbLine
 10
4011.084791275922
 20
4461.934067956794
 30
0.0
 11
4148.084791275925
 21
4461.934067956794
 31
0.0
  0
LINE
  5
1FEB
330
1A
100
AcDbEntity
  8
部品1
100
AcDbLine
 10
3846.084791275933
 20
4461.934067956794
 30
0.0
 11
3976.584791275918
 21
4461.934067956794
 31
0.0
  0
LINE
  5
1FEC
330
1A
100
AcDbEntity
  8
部品1
100
AcDbLine
 10
3846.084791275933
 20
4479.934067956794
 30
0.0
 11
3846.084791275933
 21
4376.900949614037
 31
0.0
  0
LINE
  5
1FED
330
1A
100
AcDbEntity
  8
部品1
100
AcDbLine
 10
4011.084791275922
 20
4479.93406795679
 30
0.0
 11
3976.584791275918
 21
4479.93406795679
 31
0.0
  0
LINE
  5
1FEE
330
1A
100
AcDbEntity
  8
部品1
100
AcDbLine
 10
4011.084791275922
 20
4479.934067956793
 30
0.0
 11
4011.084791275922
 21
4376.900949614031
 31
0.0
  0
LINE
  5
1FEF
330
1A
100
AcDbEntity
  8
部品1
100
AcDbLine
 10
3976.584791275918
 20
4479.934067956793
 30
0.0
 11
3976.584791275918
 21
4376.900949614031
 31
0.0
  0
LINE
  5
1FF0
330
1A
100
AcDbEntity
  8
部品1
100
AcDbLine
 10
4266.084791275925
 20
4461.934067956794
 30
0.0
 11
4396.584791275921
 21
4461.934067956792
 31
0.0
  0
LINE
  5
1FF1
330
1A
100
AcDbEntity
  8
部品1
100
AcDbLine
 10
4266.084791275927
 20
4479.934067956793
 30
0.0
 11
4266.084791275925
 21
4376.900949614031
 31
0.0
  0
LINE
  5
1FF2
330
1A
100
AcDbEntity
  8
部品1
100
AcDbLine
 10
4193.084791275925
 20
4461.934067956794
 30
0.0
 11
4221.084791275923
 21
4461.934067956794
 31
0.0
  0
LINE
  5
1FF3
330
1A
100
AcDbEntity
  8
部品1
100
AcDbLine
 10
4193.084791275925
 20
4479.934067956788
 30
0.0
 11
4148.084791275925
 21
4479.93406795679
 31
0.0
  0
LINE
  5
1FF4
330
1A
100
AcDbEntity
  8
部品1
100
AcDbLine
 10
4221.084791275925
 20
4479.934067956793
 30
0.0
 11
4221.084791275923
 21
4376.900949614031
 31
0.0
  0
LINE
  5
1FF5
330
1A
100
AcDbEntity
  8
部品1
100
AcDbLine
 10
4193.084791275925
 20
4479.934067956793
 30
0.0
 11
4193.084791275925
 21
4376.900949614031
 31
0.0
  0
LINE
  5
1FF6
330
1A
100
AcDbEntity
  8
部品1
100
AcDbLine
 10
4148.084791275925
 20
4479.934067956793
 30
0.0
 11
4148.084791275925
 21
4376.900949614031
 31
0.0
  0
LINE
  5
1FF7
330
1A
100
AcDbEntity
  8
部品1
100
AcDbLine
 10
4266.084791275925
 20
4479.934067956788
 30
0.0
 11
4221.084791275925
 21
4479.934067956788
 31
0.0
  0
LINE
  5
1FF8
330
1A
100
AcDbEntity
  8
部品1
100
AcDbLine
 10
4431.08479127592
 20
4479.934067956788
 30
0.0
 11
4396.584791275918
 21
4479.934067956788
 31
0.0
  0
LINE
  5
1FF9
330
1A
100
AcDbEntity
  8
部品1
100
AcDbLine
 10
4431.08479127592
 20
4479.934067956793
 30
0.0
 11
4431.08479127592
 21
4376.90094961403
 31
0.0
  0
LINE
  5
1FFA
330
1A
100
AcDbEntity
  8
部品1
100
AcDbLine
 10
4396.584791275918
 20
4479.934067956793
 30
0.0
 11
4396.584791275918
 21
4376.90094961403
 31
0.0
  0
LINE
  5
1FFB
330
1A
100
AcDbEntity
  8
部品1
100
AcDbLine
 10
5119.584791275926
 20
4479.93406795679
 30
0.0
 11
5085.084791275925
 21
4479.93406795679
 31
0.0
  0
LINE
  5
1FFC
330
1A
100
AcDbEntity
  8
部品1
100
AcDbLine
 10
4686.084791275925
 20
4461.934067956792
 30
0.0
 11
4816.584791275921
 21
4461.934067956792
 31
0.0
  0
LINE
  5
1FFD
330
1A
100
AcDbEntity
  8
部品1
100
AcDbLine
 10
4613.084791275923
 20
4461.934067956792
 30
0.0
 11
4641.084791275921
 21
4461.934067956792
 31
0.0
  0
LINE
  5
1FFE
330
1A
100
AcDbEntity
  8
部品1
100
AcDbLine
 10
4613.084791275923
 20
4479.934067956793
 30
0.0
 11
4613.084791275923
 21
4376.90094961403
 31
0.0
  0
LINE
  5
1FFF
330
1A
100
AcDbEntity
  8
部品1
100
AcDbLine
 10
4568.084791275925
 20
4479.934067956793
 30
0.0
 11
4568.084791275925
 21
4376.90094961403
 31
0.0
  0
LINE
  5
2000
330
1A
100
AcDbEntity
  8
部品1
100
AcDbLine
 10
4613.084791275923
 20
4479.934067956788
 30
0.0
 11
4568.084791275925
 21
4479.934067956788
 31
0.0
  0
LINE
  5
2001
330
1A
100
AcDbEntity
  8
部品1
100
AcDbLine
 10
4686.084791275925
 20
4479.934067956788
 30
0.0
 11
4641.084791275924
 21
4479.934067956788
 31
0.0
  0
LINE
  5
2002
330
1A
100
AcDbEntity
  8
部品1
100
AcDbLine
 10
4641.084791275924
 20
4479.934067956793
 30
0.0
 11
4641.084791275921
 21
4376.90094961403
 31
0.0
  0
LINE
  5
2003
330
1A
100
AcDbEntity
  8
部品1
100
AcDbLine
 10
4686.084791275925
 20
4479.934067956793
 30
0.0
 11
4686.084791275925
 21
4376.90094961403
 31
0.0
  0
LINE
  5
2004
330
1A
100
AcDbEntity
  8
部品1
100
AcDbLine
 10
4958.084791275922
 20
4262.216331315403
 30
0.0
 11
4958.084791275922
 21
4376.900949614033
 31
0.0
  0
LINE
  5
2005
330
1A
100
AcDbEntity
  8
部品1
100
AcDbLine
 10
4996.084791275922
 20
4208.176083237957
 30
0.0
 11
4940.084791275921
 21
4208.176083237957
 31
0.0
  0
ARC
  5
2006
330
1A
100
AcDbEntity
  8
部品1
100
AcDbCircle
 10
4940.084791275921
 20
4213.176083237956
 30
0.0
 40
5.0
100
AcDbArc
 50
180.0
 51
270.0
  0
LINE
  5
2007
330
1A
100
AcDbEntity
  8
部品1
100
AcDbLine
 10
4935.084791275923
 20
4262.216331315402
 30
0.0
 11
4935.084791275922
 21
4213.176083237956
 31
0.0
  0
ARC
  5
2008
330
1A
100
AcDbEntity
  8
部品1
100
AcDbCircle
 10
4996.084791275922
 20
4213.176083237956
 30
0.0
 40
5.0
100
AcDbArc
 50
270.0
 51
0.0
  0
LINE
  5
2009
330
1A
100
AcDbEntity
  8
部品1
100
AcDbLine
 10
4938.084791275923
 20
4479.93406795679
 30
0.0
 11
4998.084791275921
 21
4479.93406795679
 31
0.0
  0
LINE
  5
200A
330
1A
100
AcDbEntity
  8
部品1
100
AcDbLine
 10
4938.084791275923
 20
4461.934067956792
 30
0.0
 11
4851.084791275927
 21
4461.934067956792
 31
0.0
  0
LINE
  5
200B
330
1A
100
AcDbEntity
  8
部品1
100
AcDbLine
 10
4851.084791275927
 20
4479.934067956788
 30
0.0
 11
4816.584791275925
 21
4479.934067956788
 31
0.0
  0
LINE
  5
200C
330
1A
100
AcDbEntity
  8
部品1
100
AcDbLine
 10
4851.084791275925
 20
4479.934067956793
 30
0.0
 11
4851.084791275925
 21
4376.900949614031
 31
0.0
  0
LINE
  5
200D
330
1A
100
AcDbEntity
  8
部品1
100
AcDbLine
 10
4816.584791275925
 20
4479.934067956793
 30
0.0
 11
4816.584791275925
 21
4376.900949614031
 31
0.0
  0
LINE
  5
200E
330
1A
100
AcDbEntity
  8
部品1
100
AcDbLine
 10
4938.084791275923
 20
4479.93406795679
 30
0.0
 11
4938.084791275922
 21
4376.90094961403
 31
0.0
  0
LINE
  5
200F
330
1A
100
AcDbEntity
  8
部品1
100
AcDbLine
 10
5085.084791275924
 20
4461.934067956792
 30
0.0
 11
4998.084791275924
 21
4461.934067956792
 31
0.0
  0
LINE
  5
2010
330
1A
100
AcDbEntity
  8
部品1
100
AcDbLine
 10
5085.084791275925
 20
4479.934067956793
 30
0.0
 11
5085.084791275925
 21
4376.900949614031
 31
0.0
  0
LINE
  5
2011
330
1A
100
AcDbEntity
  8
部品1
100
AcDbLine
 10
4998.084791275924
 20
4479.934067956788
 30
0.0
 11
4998.084791275921
 21
4376.900949614031
 31
0.0
  0
LINE
  5
2012
330
1A
100
AcDbEntity
  8
部品1
100
AcDbLine
 10
5505.08479127593
 20
4461.934067956792
 30
0.0
 11
5368.084791275926
 21
4461.934067956792
 31
0.0
  0
LINE
  5
2013
330
1A
100
AcDbEntity
  8
部品1
100
AcDbLine
 10
5295.084791275929
 20
4479.93406795679
 30
0.0
 11
5250.084791275925
 21
4479.93406795679
 31
0.0
  0
LINE
  5
2014
330
1A
100
AcDbEntity
  8
部品1
100
AcDbLine
 10
5250.084791275925
 20
4479.934067956793
 30
0.0
 11
5250.084791275925
 21
4376.90094961403
 31
0.0
  0
LINE
  5
2015
330
1A
100
AcDbEntity
  8
部品1
100
AcDbLine
 10
5250.084791275925
 20
4461.934067956792
 30
0.0
 11
5119.584791275929
 21
4461.934067956792
 31
0.0
  0
LINE
  5
2016
330
1A
100
AcDbEntity
  8
部品1
100
AcDbLine
 10
5119.584791275926
 20
4479.934067956793
 30
0.0
 11
5119.584791275926
 21
4376.900949614031
 31
0.0
  0
LINE
  5
2017
330
1A
100
AcDbEntity
  8
部品1
100
AcDbLine
 10
5368.084791275926
 20
4479.93406795679
 30
0.0
 11
5323.084791275928
 21
4479.93406795679
 31
0.0
  0
LINE
  5
2018
330
1A
100
AcDbEntity
  8
部品1
100
AcDbLine
 10
5323.084791275928
 20
4461.934067956792
 30
0.0
 11
5295.084791275929
 21
4461.934067956792
 31
0.0
  0
LINE
  5
2019
330
1A
100
AcDbEntity
  8
部品1
100
AcDbLine
 10
5323.084791275928
 20
4479.934067956793
 30
0.0
 11
5323.084791275928
 21
4376.90094961403
 31
0.0
  0
LINE
  5
201A
330
1A
100
AcDbEntity
  8
部品1
100
AcDbLine
 10
5295.084791275927
 20
4479.934067956793
 30
0.0
 11
5295.084791275929
 21
4376.90094961403
 31
0.0
  0
LINE
  5
201B
330
1A
100
AcDbEntity
  8
部品1
100
AcDbLine
 10
5368.084791275926
 20
4479.934067956793
 30
0.0
 11
5368.084791275926
 21
4376.90094961403
 31
0.0
  0
LINE
  5
201C
330
1A
100
AcDbEntity
  8
部品1
100
AcDbLine
 10
5670.084791275925
 20
4461.934067956794
 30
0.0
 11
5539.584791275929
 21
4461.934067956792
 31
0.0
  0
LINE
  5
201D
330
1A
100
AcDbEntity
  8
部品1
100
AcDbLine
 10
5539.584791275933
 20
4479.93406795679
 30
0.0
 11
5505.084791275931
 21
4479.93406795679
 31
0.0
  0
LINE
  5
201E
330
1A
100
AcDbEntity
  8
部品1
100
AcDbLine
 10
5539.584791275933
 20
4479.934067956793
 30
0.0
 11
5539.584791275933
 21
4376.90094961403
 31
0.0
  0
LINE
  5
201F
330
1A
100
AcDbEntity
  8
部品1
100
AcDbLine
 10
5505.084791275931
 20
4479.934067956793
 30
0.0
 11
5505.084791275931
 21
4376.90094961403
 31
0.0
  0
LINE
  5
2020
330
1A
100
AcDbEntity
  8
部品1
100
AcDbLine
 10
5743.084791275926
 20
4461.934067956794
 30
0.0
 11
5715.084791275927
 21
4461.934067956794
 31
0.0
  0
LINE
  5
2021
330
1A
100
AcDbEntity
  8
部品1
100
AcDbLine
 10
5715.084791275927
 20
4479.934067956793
 30
0.0
 11
5670.084791275925
 21
4479.934067956793
 31
0.0
  0
LINE
  5
2022
330
1A
100
AcDbEntity
  8
部品1
100
AcDbLine
 10
5743.084791275926
 20
4479.934067956793
 30
0.0
 11
5743.084791275926
 21
4376.900949614031
 31
0.0
  0
LINE
  5
2023
330
1A
100
AcDbEntity
  8
部品1
100
AcDbLine
 10
5715.084791275925
 20
4479.934067956793
 30
0.0
 11
5715.084791275927
 21
4376.900949614031
 31
0.0
  0
LINE
  5
2024
330
1A
100
AcDbEntity
  8
部品1
100
AcDbLine
 10
5670.084791275924
 20
4479.934067956793
 30
0.0
 11
5670.084791275925
 21
4376.900949614031
 31
0.0
  0
TEXT
  5
2025
330
1A
100
AcDbEntity
  8
部品1
100
AcDbText
 10
4704.803766252292
 20
5404.582783810405
 30
0.0
 40
120.0
  1
平面図
  7
MSGOTHIC
100
AcDbText
  0
LWPOLYLINE
  5
2026
330
1A
100
AcDbEntity
  8
部品1
100
AcDbPolyline
 90
        4
 70
     1
 43
0.0
 10
4662.336280796162
 20
5579.021460536885
 10
4662.336280796162
 20
5357.437201496617
 10
5299.348613555924
 20
5357.437201496617
 10
5299.348613555924
 20
5579.021460536885
  0
LINE
  5
2027
330
1A
100
AcDbEntity
  8
細線
100
AcDbLine
 10
7780.084791275924
 20
4208.176083237957
 30
0.0
 11
7780.084791275922
 21
4067.512771956428
 31
0.0
  0
LINE
  5
2028
330
1A
100
AcDbEntity
  8
細線
100
AcDbLine
 10
7756.084791275921
 20
4208.176083237957
 30
0.0
 11
7756.084791275921
 21
4067.512771956428
 31
0.0
  0
LINE
  5
2029
330
1A
100
AcDbEntity
  8
細線
100
AcDbLine
 10
7786.084791275924
 20
4208.176083237957
 30
0.0
 11
7786.084791275922
 21
4067.512771956428
 31
0.0
  0
LINE
  5
202A
330
1A
100
AcDbEntity
  8
細線
100
AcDbLine
 10
7750.084791275923
 20
4208.176083237957
 30
0.0
 11
7750.084791275923
 21
4067.512771956428
 31
0.0
  0
LINE
  5
202B
330
1A
100
AcDbEntity
  8
部品1
100
AcDbLine
 10
7801.084791275923
 20
4262.216331315402
 30
0.0
 11
7801.084791275922
 21
4067.512771956428
 31
0.0
  0
LINE
  5
202C
330
1A
100
AcDbEntity
  8
部品1
100
AcDbLine
 10
7735.084791275922
 20
4262.216331315403
 30
0.0
 11
7735.084791275922
 21
4067.512771956428
 31
0.0
  0
LINE
  5
202D
330
1A
100
AcDbEntity
  8
細線
100
AcDbLine
 10
6302.071966819205
 20
2244.900949614032
 30
0.0
 11
6352.071966819205
 21
2294.900949614032
 31
0.0
  0
LINE
  5
202E
330
1A
100
AcDbEntity
  8
細線
100
AcDbLine
 10
6335.747927273214
 20
2244.900949614032
 30
0.0
 11
6385.747927273214
 21
2294.900949614032
 31
0.0
  0
LINE
  5
202F
330
1A
100
AcDbEntity
  8
細線
100
AcDbLine
 10
6369.423887727224
 20
2244.900949614032
 30
0.0
 11
6419.423887727224
 21
2294.900949614032
 31
0.0
  0
LINE
  5
2030
330
1A
100
AcDbEntity
  8
部品1
100
AcDbLine
 10
6385.584791275921
 20
2604.900949614034
 30
0.0
 11
6385.584791275921
 21
2539.900949614033
 31
0.0
  0
LINE
  5
2031
330
1A
100
AcDbEntity
  8
部品1
100
AcDbLine
 10
6350.584791275922
 20
2604.900949614034
 30
0.0
 11
6350.584791275922
 21
2539.900949614033
 31
0.0
  0
LINE
  5
2032
330
1A
100
AcDbEntity
  8
部品1
100
AcDbLine
 10
7798.084791275922
 20
4067.512771956428
 30
0.0
 11
7798.084791275922
 21
2294.900949614032
 31
0.0
  0
LINE
  5
2033
330
1A
100
AcDbEntity
  8
部品1
100
AcDbLine
 10
7738.084791275922
 20
4067.512771956428
 30
0.0
 11
7738.084791275922
 21
2294.900949614032
 31
0.0
  0
LINE
  5
2034
330
1A
100
AcDbEntity
  8
細線
100
AcDbLine
 10
7379.702701347503
 20
2244.900949614032
 30
0.0
 11
7429.702701347506
 21
2294.900949614033
 31
0.0
  0
LINE
  5
2035
330
1A
100
AcDbEntity
  8
細線
100
AcDbLine
 10
7413.378661801513
 20
2244.900949614032
 30
0.0
 11
7463.378661801515
 21
2294.900949614033
 31
0.0
  0
LINE
  5
2036
330
1A
100
AcDbEntity
  8
細線
100
AcDbLine
 10
7447.054622255523
 20
2244.900949614032
 30
0.0
 11
7497.054622255522
 21
2294.900949614032
 31
0.0
  0
LINE
  5
2037
330
1A
100
AcDbEntity
  8
部品1
100
AcDbLine
 10
8018.084791275922
 20
2294.900949614032
 30
0.0
 11
8018.084791275922
 21
2244.900949614032
 31
0.0
  0
LINE
  5
2038
330
1A
100
AcDbEntity
  8
部品1
100
AcDbLine
 10
7801.084791275923
 20
4067.512771956428
 30
0.0
 11
7735.084791275922
 21
4067.512771956428
 31
0.0
  0
LINE
  5
2039
330
1A
100
AcDbEntity
  8
部品1
100
AcDbLine
 10
7128.08479127593
 20
4479.934067956794
 30
0.0
 11
7083.084791275929
 21
4479.934067956794
 31
0.0
  0
LINE
  5
203A
330
1A
100
AcDbEntity
  8
部品1
100
AcDbLine
 10
6510.084791275925
 20
4461.934067956796
 30
0.0
 11
6379.584791275933
 21
4461.934067956796
 31
0.0
  0
LINE
  5
203B
330
1A
100
AcDbEntity
  8
部品1
100
AcDbLine
 10
6135.084791275925
 20
4479.93406795679
 30
0.0
 11
6090.084791275918
 21
4479.934067956793
 31
0.0
  0
LINE
  5
203C
330
1A
100
AcDbEntity
  8
部品1
100
AcDbLine
 10
5959.584791275931
 20
4479.934067956793
 30
0.0
 11
5925.084791275929
 21
4479.934067956793
 31
0.0
  0
LINE
  5
203D
330
1A
100
AcDbEntity
  8
部品1
100
AcDbLine
 10
5925.084791275929
 20
4461.934067956794
 30
0.0
 11
5788.084791275926
 21
4461.934067956794
 31
0.0
  0
LINE
  5
203E
330
1A
100
AcDbEntity
  8
部品1
100
AcDbLine
 10
5925.084791275929
 20
4479.934067956793
 30
0.0
 11
5925.084791275929
 21
4376.900949614031
 31
0.0
  0
LINE
  5
203F
330
1A
100
AcDbEntity
  8
部品1
100
AcDbLine
 10
5788.084791275926
 20
4479.934067956793
 30
0.0
 11
5788.084791275926
 21
4376.900949614031
 31
0.0
  0
LINE
  5
2040
330
1A
100
AcDbEntity
  8
部品1
100
AcDbLine
 10
6090.084791275918
 20
4461.934067956794
 30
0.0
 11
5959.584791275933
 21
4461.934067956794
 31
0.0
  0
LINE
  5
2041
330
1A
100
AcDbEntity
  8
部品1
100
AcDbLine
 10
6090.084791275918
 20
4479.934067956794
 30
0.0
 11
6090.084791275918
 21
4376.900949614037
 31
0.0
  0
LINE
  5
2042
330
1A
100
AcDbEntity
  8
部品1
100
AcDbLine
 10
5959.584791275933
 20
4479.934067956793
 30
0.0
 11
5959.584791275933
 21
4376.900949614031
 31
0.0
  0
LINE
  5
2043
330
1A
100
AcDbEntity
  8
部品1
100
AcDbLine
 10
6345.08479127593
 20
4461.934067956794
 30
0.0
 11
6208.084791275924
 21
4461.934067956794
 31
0.0
  0
LINE
  5
2044
330
1A
100
AcDbEntity
  8
部品1
100
AcDbLine
 10
6163.084791275922
 20
4461.934067956794
 30
0.0
 11
6135.084791275923
 21
4461.934067956794
 31
0.0
  0
LINE
  5
2045
330
1A
100
AcDbEntity
  8
部品1
100
AcDbLine
 10
6208.084791275922
 20
4479.934067956793
 30
0.0
 11
6163.084791275924
 21
4479.934067956793
 31
0.0
  0
LINE
  5
2046
330
1A
100
AcDbEntity
  8
部品1
100
AcDbLine
 10
6208.084791275922
 20
4479.934067956793
 30
0.0
 11
6208.084791275922
 21
4376.900949614033
 31
0.0
  0
LINE
  5
2047
330
1A
100
AcDbEntity
  8
部品1
100
AcDbLine
 10
6163.084791275924
 20
4479.934067956793
 30
0.0
 11
6163.084791275924
 21
4376.900949614033
 31
0.0
  0
LINE
  5
2048
330
1A
100
AcDbEntity
  8
部品1
100
AcDbLine
 10
6135.084791275925
 20
4479.934067956793
 30
0.0
 11
6135.084791275923
 21
4376.900949614033
 31
0.0
  0
LINE
  5
2049
330
1A
100
AcDbEntity
  8
部品1
100
AcDbLine
 10
6379.584791275931
 20
4479.934067956793
 30
0.0
 11
6345.08479127593
 21
4479.934067956793
 31
0.0
  0
LINE
  5
204A
330
1A
100
AcDbEntity
  8
部品1
100
AcDbLine
 10
6379.584791275931
 20
4479.934067956793
 30
0.0
 11
6379.584791275931
 21
4376.900949614033
 31
0.0
  0
LINE
  5
204B
330
1A
100
AcDbEntity
  8
部品1
100
AcDbLine
 10
6345.08479127593
 20
4479.934067956793
 30
0.0
 11
6345.08479127593
 21
4376.900949614033
 31
0.0
  0
LINE
  5
204C
330
1A
100
AcDbEntity
  8
部品1
100
AcDbLine
 10
6765.084791275929
 20
4461.934067956796
 30
0.0
 11
6628.08479127593
 21
4461.934067956796
 31
0.0
  0
LINE
  5
204D
330
1A
100
AcDbEntity
  8
部品1
100
AcDbLine
 10
6628.08479127593
 20
4479.934067956793
 30
0.0
 11
6583.084791275929
 21
4479.934067956793
 31
0.0
  0
LINE
  5
204E
330
1A
100
AcDbEntity
  8
部品1
100
AcDbLine
 10
6583.084791275929
 20
4461.934067956796
 30
0.0
 11
6555.08479127593
 21
4461.934067956796
 31
0.0
  0
LINE
  5
204F
330
1A
100
AcDbEntity
  8
部品1
100
AcDbLine
 10
6555.08479127593
 20
4479.934067956793
 30
0.0
 11
6510.084791275925
 21
4479.934067956793
 31
0.0
  0
LINE
  5
2050
330
1A
100
AcDbEntity
  8
部品1
100
AcDbLine
 10
6583.084791275929
 20
4479.934067956793
 30
0.0
 11
6583.084791275929
 21
4376.900949614033
 31
0.0
  0
LINE
  5
2051
330
1A
100
AcDbEntity
  8
部品1
100
AcDbLine
 10
6555.08479127593
 20
4479.934067956793
 30
0.0
 11
6555.08479127593
 21
4376.900949614033
 31
0.0
  0
LINE
  5
2052
330
1A
100
AcDbEntity
  8
部品1
100
AcDbLine
 10
6510.084791275925
 20
4479.934067956793
 30
0.0
 11
6510.084791275925
 21
4376.900949614033
 31
0.0
  0
LINE
  5
2053
330
1A
100
AcDbEntity
  8
部品1
100
AcDbLine
 10
6628.08479127593
 20
4479.934067956793
 30
0.0
 11
6628.08479127593
 21
4376.900949614033
 31
0.0
  0
LINE
  5
2054
330
1A
100
AcDbEntity
  8
部品1
100
AcDbLine
 10
7010.084791275929
 20
4461.934067956796
 30
0.0
 11
6799.584791275929
 21
4461.934067956796
 31
0.0
  0
LINE
  5
2055
330
1A
100
AcDbEntity
  8
部品1
100
AcDbLine
 10
6799.584791275929
 20
4479.934067956793
 30
0.0
 11
6765.084791275929
 21
4479.934067956793
 31
0.0
  0
LINE
  5
2056
330
1A
100
AcDbEntity
  8
部品1
100
AcDbLine
 10
6799.584791275929
 20
4479.934067956793
 30
0.0
 11
6799.584791275929
 21
4376.90094961403
 31
0.0
  0
LINE
  5
2057
330
1A
100
AcDbEntity
  8
部品1
100
AcDbLine
 10
6765.084791275929
 20
4479.934067956793
 30
0.0
 11
6765.084791275929
 21
4376.900949614031
 31
0.0
  0
LINE
  5
2058
330
1A
100
AcDbEntity
  8
部品1
100
AcDbLine
 10
7083.084791275929
 20
4479.934067956793
 30
0.0
 11
7083.084791275929
 21
4376.900949614031
 31
0.0
  0
LINE
  5
2059
330
1A
100
AcDbEntity
  8
部品1
100
AcDbLine
 10
7055.08479127593
 20
4479.934067956794
 30
0.0
 11
7010.084791275929
 21
4479.934067956794
 31
0.0
  0
LINE
  5
205A
330
1A
100
AcDbEntity
  8
部品1
100
AcDbLine
 10
7055.08479127593
 20
4479.934067956794
 30
0.0
 11
7055.08479127593
 21
4376.90094961403
 31
0.0
  0
LINE
  5
205B
330
1A
100
AcDbEntity
  8
部品1
100
AcDbLine
 10
7010.084791275929
 20
4479.934067956794
 30
0.0
 11
7010.084791275929
 21
4376.90094961403
 31
0.0
  0
LINE
  5
205C
330
1A
100
AcDbEntity
  8
部品1
100
AcDbLine
 10
7083.084791275929
 20
4461.934067956794
 30
0.0
 11
7055.08479127593
 21
4461.934067956796
 31
0.0
  0
LINE
  5
205D
330
1A
100
AcDbEntity
  8
部品1
100
AcDbLine
 10
7925.08479127593
 20
4461.934067956796
 30
0.0
 11
7708.084791275929
 21
4461.934067956796
 31
0.0
  0
LINE
  5
205E
330
1A
100
AcDbEntity
  8
部品1
100
AcDbLine
 10
7796.084791275922
 20
4208.176083237957
 30
0.0
 11
7740.084791275922
 21
4208.176083237957
 31
0.0
  0
LINE
  5
205F
330
1A
100
AcDbEntity
  8
部品1
100
AcDbLine
 10
7590.084791275929
 20
4461.934067956794
 30
0.0
 11
7379.58479127593
 21
4461.934067956794
 31
0.0
  0
LINE
  5
2060
330
1A
100
AcDbEntity
  8
部品1
100
AcDbLine
 10
7345.084791275929
 20
4461.934067956794
 30
0.0
 11
7128.08479127593
 21
4461.934067956794
 31
0.0
  0
LINE
  5
2061
330
1A
100
AcDbEntity
  8
部品1
100
AcDbLine
 10
7128.08479127593
 20
4479.934067956793
 30
0.0
 11
7128.08479127593
 21
4376.900949614031
 31
0.0
  0
LINE
  5
2062
330
1A
100
AcDbEntity
  8
部品1
100
AcDbLine
 10
7379.58479127593
 20
4479.934067956793
 30
0.0
 11
7345.084791275929
 21
4479.934067956794
 31
0.0
  0
LINE
  5
2063
330
1A
100
AcDbEntity
  8
部品1
100
AcDbLine
 10
7379.58479127593
 20
4479.934067956793
 30
0.0
 11
7379.584791275927
 21
4376.900949614031
 31
0.0
  0
LINE
  5
2064
330
1A
100
AcDbEntity
  8
部品1
100
AcDbLine
 10
7345.084791275929
 20
4479.934067956793
 30
0.0
 11
7345.084791275929
 21
4376.900949614031
 31
0.0
  0
ARC
  5
2065
330
1A
100
AcDbEntity
  8
部品1
100
AcDbCircle
 10
7740.084791275922
 20
4213.176083237956
 30
0.0
 40
5.0
100
AcDbArc
 50
180.0
 51
270.0
  0
LINE
  5
2066
330
1A
100
AcDbEntity
  8
部品1
100
AcDbLine
 10
7663.084791275927
 20
4461.934067956796
 30
0.0
 11
7635.084791275929
 21
4461.934067956796
 31
0.0
  0
LINE
  5
2067
330
1A
100
AcDbEntity
  8
部品1
100
AcDbLine
 10
7635.084791275929
 20
4479.934067956793
 30
0.0
 11
7590.084791275929
 21
4479.934067956793
 31
0.0
  0
LINE
  5
2068
330
1A
100
AcDbEntity
  8
部品1
100
AcDbLine
 10
7708.084791275929
 20
4479.934067956793
 30
0.0
 11
7663.084791275929
 21
4479.934067956793
 31
0.0
  0
LINE
  5
2069
330
1A
100
AcDbEntity
  8
部品1
100
AcDbLine
 10
7708.084791275931
 20
4479.934067956794
 30
0.0
 11
7708.084791275929
 21
4376.900949614031
 31
0.0
  0
LINE
  5
206A
330
1A
100
AcDbEntity
  8
部品1
100
AcDbLine
 10
7663.084791275929
 20
4479.934067956794
 30
0.0
 11
7663.084791275927
 21
4376.900949614031
 31
0.0
  0
LINE
  5
206B
330
1A
100
AcDbEntity
  8
部品1
100
AcDbLine
 10
7635.084791275929
 20
4479.934067956794
 30
0.0
 11
7635.084791275929
 21
4376.900949614031
 31
0.0
  0
LINE
  5
206C
330
1A
100
AcDbEntity
  8
部品1
100
AcDbLine
 10
7590.084791275929
 20
4479.934067956793
 30
0.0
 11
7590.084791275929
 21
4376.900949614031
 31
0.0
  0
DIMENSION
  5
206D
330
1A
100
AcDbEntity
  8
寸法
100
AcDbDimension
  2
*D1
 10
8018.084791275922
 20
4785.459815648813
 30
0.0
 11
7893.084791275922
 21
4785.459815648813
 31
0.0
 70
   160
 71
     5
 42
250.0
  3
物置仕様図40
100
AcDbAlignedDimension
 13
7768.084791275922
 23
4262.216331315402
 33
0.0
 14
8018.084791275922
 24
4489.900949614034
 34
0.0
100
AcDbRotatedDimension
1001
ACAD
1000
DSTYLE
1002
{
1070
   279
1070
     0
1070
    75
1070
     1
1002
}
  0
LINE
  5
206E
330
1A
100
AcDbEntity
  8
部品1
100
AcDbLine
 10
7995.084791275921
 20
4376.900949614033
 30
0.0
 11
7995.084791275921
 21
4262.216331315403
 31
0.0
  0
LINE
  5
206F
330
1A
100
AcDbEntity
  8
部品1
100
AcDbLine
 10
8017.493332977037
 20
4363.334715764618
 30
0.0
 11
8013.626876445453
 21
4274.650097465989
 31
0.0
  0
ARC
  5
2070
330
1A
100
AcDbEntity
  8
部品1
100
AcDbCircle
 10
7796.084791275922
 20
4213.176083237956
 30
0.0
 40
5.0
100
AcDbArc
 50
270.0
 51
0.0
  0
ARC
  5
2071
330
1A
100
AcDbEntity
  8
部品1
100
AcDbCircle
 10
8000.639213867922
 20
4275.216331315403
 30
0.0
 40
13.0
100
AcDbArc
 50
270.0
 51
357.5036094784615
  0
LINE
  5
2072
330
1A
100
AcDbEntity
  8
部品1
100
AcDbLine
 10
7973.084791275929
 20
4461.934067956794
 30
0.0
 11
7959.584791275929
 21
4461.934067956796
 31
0.0
  0
LINE
  5
2073
330
1A
100
AcDbEntity
  8
部品1
100
AcDbLine
 10
7959.584791275929
 20
4479.934067956794
 30
0.0
 11
7925.08479127593
 21
4479.934067956794
 31
0.0
  0
LINE
  5
2074
330
1A
100
AcDbEntity
  8
部品1
100
AcDbLine
 10
7959.584791275929
 20
4479.934067956794
 30
0.0
 11
7959.584791275929
 21
4376.900949614031
 31
0.0
  0
LINE
  5
2075
330
1A
100
AcDbEntity
  8
部品1
100
AcDbLine
 10
7925.08479127593
 20
4479.934067956794
 30
0.0
 11
7925.08479127593
 21
4376.900949614031
 31
0.0
  0
LINE
  5
2076
330
1A
100
AcDbEntity
  8
部品1
100
AcDbLine
 10
7973.084791275922
 20
4489.900949614031
 30
0.0
 11
7973.084791275922
 21
4376.900949614033
 31
0.0
  0
ARC
  5
2077
330
1A
100
AcDbEntity
  8
部品1
100
AcDbCircle
 10
8004.505670399508
 20
4363.900949614033
 30
0.0
 40
13.0
100
AcDbArc
 50
357.5036094784615
 51
90.0
  0
LINE
  5
2078
330
1A
100
AcDbEntity
  8
部品1
100
AcDbLine
 10
8017.505670399508
 20
4363.900949614033
 30
0.0
 11
8017.505670399508
 21
4476.900949614033
 31
0.0
  0
ARC
  5
2079
330
1A
100
AcDbEntity
  8
部品1
100
AcDbCircle
 10
8004.505670399508
 20
4476.900949614033
 30
0.0
 40
13.0
100
AcDbArc
 50
0.0
 51
90.0
  0
ARC
  5
207A
330
1A
100
AcDbEntity
  8
部品1
100
AcDbCircle
 10
8008.084791275923
 20
5916.703097597816
 30
0.0
 40
10.0
100
AcDbArc
 50
270.0
 51
0.0
  0
LINE
  5
207B
330
1A
100
AcDbEntity
  8
部品1
100
AcDbLine
 10
7995.584791275923
 20
5906.703097597816
 30
0.0
 11
7995.584791275923
 21
5921.203097597816
 31
0.0
  0
ARC
  5
207C
330
1A
100
AcDbEntity
  8
部品1
100
AcDbCircle
 10
7990.584791275921
 20
5921.203097597816
 30
0.0
 40
5.0
100
AcDbArc
 50
0.0
 51
90.0
  0
LINE
  5
207D
330
1A
100
AcDbEntity
  8
部品1
100
AcDbLine
 10
7969.584791275922
 20
5926.203097597817
 30
0.0
 11
7990.584791275921
 21
5926.203097597817
 31
0.0
  0
LINE
  5
207E
330
1A
100
AcDbEntity
  8
部品1
100
AcDbLine
 10
4897.274395459246
 20
8541.403097597813
 30
0.0
 11
1988.084791275922
 21
8541.40309759782
 31
0.0
  0
LINE
  5
207F
330
1A
100
AcDbEntity
  8
部品1
100
AcDbLine
 10
5437.810846865925
 20
6749.803097597818
 30
0.0
 11
1988.084791275922
 21
6749.803097597811
 31
0.0
  0
LINE
  5
2080
330
1A
100
AcDbEntity
  8
部品1
100
AcDbLine
 10
5607.852342742688
 20
6186.203097597815
 30
0.0
 11
1988.084791275922
 21
6186.203097597815
 31
0.0
  0
LINE
  5
2081
330
1A
100
AcDbEntity
  8
部品1
100
AcDbLine
 10
5418.199957525987
 20
6814.803097597816
 30
0.0
 11
1988.084791275922
 21
6814.803097597816
 31
0.0
  0
LINE
  5
2082
330
1A
100
AcDbEntity
  8
部品1
100
AcDbLine
 10
5228.547572309288
 20
7443.403097597817
 30
0.0
 11
1988.084791275922
 21
7443.403097597817
 31
0.0
  0
LINE
  5
2083
330
1A
100
AcDbEntity
  8
部品1
100
AcDbLine
 10
5038.895187092588
 20
8072.003097597812
 30
0.0
 11
1988.084791275922
 21
8072.003097597825
 31
0.0
  0
LINE
  5
2084
330
1A
100
AcDbEntity
  8
部品1
100
AcDbLine
 10
4707.622010242547
 20
9170.003097597813
 30
0.0
 11
1988.084791275922
 21
9170.003097597819
 31
0.0
  0
LINE
  5
2085
330
1A
100
AcDbEntity
  8
部品1
100
AcDbLine
 10
4517.969625025846
 20
9798.603097597816
 30
0.0
 11
1988.084791275922
 21
9798.603097597816
 31
0.0
  0
LINE
  5
2086
330
1A
100
AcDbEntity
  8
部品1
100
AcDbLine
 10
4328.317239809146
 20
10427.20309759781
 30
0.0
 11
1988.084791275922
 21
10427.20309759781
 31
0.0
  0
LINE
  5
2087
330
1A
100
AcDbEntity
  8
部品1
100
AcDbLine
 10
1963.084791275922
 20
8446.703097597817
 30
0.0
 11
7973.084791275922
 21
8446.703097597817
 31
0.0
  0
LINE
  5
2088
330
1A
100
AcDbEntity
  8
部品1
100
AcDbLine
 10
1918.084791275922
 20
8306.703097597816
 30
0.0
 11
8018.084791275922
 21
8306.703097597816
 31
0.0
  0
LINE
  5
2089
330
1A
100
AcDbEntity
  8
センター
 48
10.0
100
AcDbLine
 10
1948.084791275922
 20
8029.503097597823
 30
0.0
 11
7988.084791275918
 21
8029.503097597817
 31
0.0
  0
LINE
  5
208A
330
1A
100
AcDbEntity
  8
センター
 48
10.0
100
AcDbLine
 10
1948.084791275922
 20
7400.903097597816
 30
0.0
 11
7988.084791275918
 21
7400.903097597815
 31
0.0
  0
LINE
  5
208B
330
1A
100
AcDbEntity
  8
センター
 48
10.0
100
AcDbLine
 10
1948.084791275922
 20
6772.303097597817
 30
0.0
 11
7988.084791275918
 21
6772.303097597816
 31
0.0
  0
LINE
  5
208C
330
1A
100
AcDbEntity
  8
センター
 48
10.0
100
AcDbLine
 10
1948.08479127592
 20
6143.703097597816
 30
0.0
 11
7988.084791275918
 21
6143.703097597816
 31
0.0
  0
LINE
  5
208D
330
1A
100
AcDbEntity
  8
部品1
100
AcDbLine
 10
1966.584791275929
 20
6030.703097597815
 30
0.0
 11
7969.584791275922
 21
6030.703097597819
 31
0.0
  0
LINE
  5
208E
330
1A
100
AcDbEntity
  8
部品1
100
AcDbLine
 10
4322.283120012243
 20
10447.20309759781
 30
0.0
 11
1988.084791275922
 21
10447.20309759781
 31
0.0
  0
LINE
  5
208F
330
1A
100
AcDbEntity
  8
部品1
100
AcDbLine
 10
5627.463232082625
 20
6121.203097597814
 30
0.0
 11
1988.084791275922
 21
6121.203097597816
 31
0.0
  0
LINE
  5
2090
330
1A
100
AcDbEntity
  8
部品1
100
AcDbLine
 10
5613.886462539591
 20
6166.203097597816
 30
0.0
 11
1988.084791275922
 21
6166.203097597816
 31
0.0
  0
LINE
  5
2091
330
1A
100
AcDbEntity
  8
部品1
100
AcDbLine
 10
5424.234077322889
 20
6794.803097597817
 30
0.0
 11
1988.084791275922
 21
6794.803097597817
 31
0.0
  0
LINE
  5
2092
330
1A
100
AcDbEntity
  8
部品1
100
AcDbLine
 10
5248.158461649228
 20
7378.403097597812
 30
0.0
 11
1988.084791275922
 21
7378.403097597821
 31
0.0
  0
LINE
  5
2093
330
1A
100
AcDbEntity
  8
部品1
100
AcDbLine
 10
5234.581692106193
 20
7423.403097597816
 30
0.0
 11
1988.084791275922
 21
7423.403097597819
 31
0.0
  0
LINE
  5
2094
330
1A
100
AcDbEntity
  8
部品1
100
AcDbLine
 10
5044.929306889493
 20
8052.003097597816
 30
0.0
 11
1988.084791275922
 21
8052.00309759782
 31
0.0
  0
LINE
  5
2095
330
1A
100
AcDbEntity
  8
部品1
100
AcDbLine
 10
5058.506076432526
 20
8007.003097597822
 30
0.0
 11
1988.084791275922
 21
8007.003097597815
 31
0.0
  0
LINE
  5
2096
330
1A
100
AcDbEntity
  8
部品1
100
AcDbLine
 10
4877.663506119307
 20
8606.403097597812
 30
0.0
 11
1988.084791275922
 21
8606.403097597818
 31
0.0
  0
LINE
  5
2097
330
1A
100
AcDbEntity
  8
部品1
100
AcDbLine
 10
4891.240275662344
 20
8561.403097597814
 30
0.0
 11
1988.084791275922
 21
8561.403097597818
 31
0.0
  0
LINE
  5
2098
330
1A
100
AcDbEntity
  8
部品1
100
AcDbLine
 10
4688.011120902609
 20
9235.003097597816
 30
0.0
 11
1988.084791275922
 21
9235.003097597811
 31
0.0
  0
LINE
  5
2099
330
1A
100
AcDbEntity
  8
部品1
100
AcDbLine
 10
4701.587890445642
 20
9190.003097597815
 30
0.0
 11
1988.084791275922
 21
9190.003097597816
 31
0.0
  0
LINE
  5
209A
330
1A
100
AcDbEntity
  8
部品1
100
AcDbLine
 10
4511.935505228943
 20
9818.603097597815
 30
0.0
 11
1988.084791275922
 21
9818.603097597815
 31
0.0
  0
LINE
  5
209B
330
1A
100
AcDbEntity
  8
部品1
100
AcDbLine
 10
4498.35873568591
 20
9863.603097597817
 30
0.0
 11
1988.084791275922
 21
9863.603097597815
 31
0.0
  0
LINE
  5
209C
330
1A
100
AcDbEntity
  8
部品1
100
AcDbLine
 10
4308.70635046921
 20
10492.20309759781
 30
0.0
 11
1988.084791275922
 21
10492.20309759781
 31
0.0
  0
LINE
  5
209D
330
1A
100
AcDbEntity
  8
部品1
100
AcDbLine
 10
7973.084791275922
 20
8166.703097597816
 30
0.0
 11
1963.084791275922
 21
8166.703097597814
 31
0.0
  0
LINE
  5
209E
330
1A
100
AcDbEntity
  8
センター
 48
10.0
100
AcDbLine
 10
7988.08479127592
 20
8583.903097597815
 30
0.0
 11
1948.084791275922
 21
8583.903097597813
 31
0.0
  0
LINE
  5
209F
330
1A
100
AcDbEntity
  8
センター
 48
10.0
100
AcDbLine
 10
7988.084791275922
 20
9212.503097597815
 30
0.0
 11
1948.084791275922
 21
9212.503097597814
 31
0.0
  0
LINE
  5
20A0
330
1A
100
AcDbEntity
  8
センター
 48
10.0
100
AcDbLine
 10
7988.084791275922
 20
9841.103097597816
 30
0.0
 11
1948.084791275922
 21
9841.103097597818
 31
0.0
  0
LINE
  5
20A1
330
1A
100
AcDbEntity
  8
センター
 48
10.0
100
AcDbLine
 10
7988.084791275922
 20
10469.70309759782
 30
0.0
 11
1948.084791275922
 21
10469.70309759781
 31
0.0
  0
LINE
  5
20A2
330
1A
100
AcDbEntity
  8
部品1
100
AcDbLine
 10
7969.584791275915
 20
10582.70309759782
 30
0.0
 11
1966.584791275922
 21
10582.70309759781
 31
0.0
  0
LINE
  5
20A3
330
1A
100
AcDbEntity
  8
部品1
100
AcDbLine
 10
8008.084791275923
 20
10706.70309759781
 30
0.0
 11
1928.084791275922
 21
10706.70309759781
 31
0.0
  0
DIMENSION
  5
20A4
330
1A
100
AcDbEntity
  8
寸法
100
AcDbDimension
  2
*D2
 10
1344.415140076316
 20
9212.503097597814
 30
0.0
 11
1244.403329052693
 21
9526.803097597815
 31
0.0
 70
    32
 71
     5
 42
628.6000000000021
  3
物置仕様図40
100
AcDbAlignedDimension
 13
1918.084791275922
 23
9841.103097597816
 33
0.0
 14
1918.084791275922
 24
9212.503097597814
 34
0.0
 50
90.0
100
AcDbRotatedDimension
1001
ACAD
1000
DSTYLE
1002
{
1070
    75
1070
     1
1002
}
  0
LINE
  5
20A5
330
1A
100
AcDbEntity
  8
部品1
100
AcDbLine
 10
2138.084791275922
 20
9798.603097597816
 30
0.0
 11
2138.084791275922
 21
9235.003097597816
 31
0.0
  0
LINE
  5
20A6
330
1A
100
AcDbEntity
  8
部品1
100
AcDbLine
 10
2198.084791275922
 20
9798.603097597816
 30
0.0
 11
2198.084791275922
 21
9235.003097597816
 31
0.0
  0
LINE
  5
20A7
330
1A
100
AcDbEntity
  8
部品1
100
AcDbLine
 10
1988.084791275922
 20
10582.70309759781
 30
0.0
 11
1988.084791275922
 21
8446.703097597817
 31
0.0
  0
DIMENSION
  5
20A8
330
1A
100
AcDbEntity
  8
寸法
100
AcDbDimension
  2
*D3
 10
1344.415140076316
 20
7400.903097597816
 30
0.0
 11
1184.415140076316
 21
7626.534124342295
 31
0.0
 70
   160
 71
     5
 42
628.6000000000021
  3
物置仕様図40
100
AcDbAlignedDimension
 13
1918.084791275922
 23
8029.503097597817
 33
0.0
 14
1918.084791275922
 24
7400.903097597816
 34
0.0
 50
90.0
100
AcDbRotatedDimension
1001
ACAD
1000
DSTYLE
1002
{
1070
    75
1070
     1
1002
}
  0
LINE
  5
20A9
330
1A
100
AcDbEntity
  8
部品1
100
AcDbLine
 10
1988.084791275922
 20
8166.703097597816
 30
0.0
 11
1988.084791275922
 21
6030.703097597815
 31
0.0
  0
LINE
  5
20AA
330
1A
100
AcDbEntity
  8
部品1
100
AcDbLine
 10
2138.084791275922
 20
8007.00309759782
 30
0.0
 11
2138.084791275922
 21
7443.403097597817
 31
0.0
  0
LINE
  5
20AB
330
1A
100
AcDbEntity
  8
部品1
100
AcDbLine
 10
2198.084791275922
 20
8007.00309759782
 30
0.0
 11
2198.084791275922
 21
7443.403097597817
 31
0.0
  0
DIMENSION
  5
20AC
330
1A
100
AcDbEntity
  8
寸法
100
AcDbDimension
  2
*D4
 10
1344.415140076316
 20
6143.703097597816
 30
0.0
 11
1244.403329052693
 21
6458.003097597816
 31
0.0
 70
    32
 71
     5
 42
628.6000000000004
  3
物置仕様図40
100
AcDbAlignedDimension
 13
1918.084791275922
 23
6772.303097597816
 33
0.0
 14
1918.084791275922
 24
6143.703097597816
 34
0.0
 50
90.0
100
AcDbRotatedDimension
1001
ACAD
1000
DSTYLE
1002
{
1070
    75
1070
     1
1002
}
  0
DIMENSION
  5
20AD
330
1A
100
AcDbEntity
  8
寸法
100
AcDbDimension
  2
*D5
 10
1344.415140076316
 20
6772.303097597816
 30
0.0
 11
1244.403329052693
 21
7086.603097597816
 31
0.0
 70
    32
 71
     5
 42
628.5999999999994
  3
物置仕様図40
100
AcDbAlignedDimension
 13
1918.084791275922
 23
7400.903097597816
 33
0.0
 14
1918.084791275922
 24
6772.303097597816
 34
0.0
 50
90.0
100
AcDbRotatedDimension
1001
ACAD
1000
DSTYLE
1002
{
1070
    75
1070
     1
1002
}
  0
LINE
  5
20AE
330
1A
100
AcDbEntity
  8
部品1
100
AcDbLine
 10
2138.084791275922
 20
7378.403097597817
 30
0.0
 11
2138.084791275922
 21
6814.803097597816
 31
0.0
  0
LINE
  5
20AF
330
1A
100
AcDbEntity
  8
部品1
100
AcDbLine
 10
2198.084791275922
 20
7378.403097597817
 30
0.0
 11
2198.084791275922
 21
6814.803097597816
 31
0.0
  0
LINE
  5
20B0
330
1A
100
AcDbEntity
  8
部品1
100
AcDbLine
 10
2138.084791275922
 20
6749.803097597816
 30
0.0
 11
2138.084791275925
 21
6186.203097597815
 31
0.0
  0
LINE
  5
20B1
330
1A
100
AcDbEntity
  8
部品1
100
AcDbLine
 10
2198.084791275922
 20
6749.803097597816
 30
0.0
 11
2198.084791275926
 21
6186.203097597815
 31
0.0
  0
LINE
  5
20B2
330
1A
100
AcDbEntity
  8
部品1
100
AcDbLine
 10
2138.084791275923
 20
6065.203097597816
 30
0.0
 11
2198.084791275924
 21
6065.203097597816
 31
0.0
  0
LINE
  5
20B3
330
1A
100
AcDbEntity
  8
点線
 48
6.0
100
AcDbLine
 10
2138.084791275925
 20
6186.203097597815
 30
0.0
 11
2138.084791275927
 21
6121.203097597816
 31
0.0
  0
LINE
  5
20B4
330
1A
100
AcDbEntity
  8
点線
 48
6.0
100
AcDbLine
 10
1948.084791275922
 20
6186.203097597815
 30
0.0
 11
1948.084791275922
 21
6121.203097597816
 31
0.0
  0
LINE
  5
20B5
330
1A
100
AcDbEntity
  8
点線
 48
6.0
100
AcDbLine
 10
1988.084791275922
 20
6121.203097597816
 30
0.0
 11
1948.084791275922
 21
6121.203097597816
 31
0.0
  0
LINE
  5
20B6
330
1A
100
AcDbEntity
  8
点線
 48
6.0
100
AcDbLine
 10
1988.084791275922
 20
6166.203097597816
 30
0.0
 11
1948.084791275922
 21
6166.203097597816
 31
0.0
  0
LINE
  5
20B7
330
1A
100
AcDbEntity
  8
部品1
100
AcDbLine
 10
2138.084791275927
 20
6121.203097597816
 30
0.0
 11
2138.084791275923
 21
6065.203097597816
 31
0.0
  0
LINE
  5
20B8
330
1A
100
AcDbEntity
  8
点線
 48
6.0
100
AcDbLine
 10
1988.084791275922
 20
6186.203097597815
 30
0.0
 11
1948.084791275922
 21
6186.203097597815
 31
0.0
  0
LINE
  5
20B9
330
1A
100
AcDbEntity
  8
点線
 48
6.0
100
AcDbLine
 10
2198.084791275926
 20
6186.203097597815
 30
0.0
 11
2198.084791275928
 21
6121.203097597816
 31
0.0
  0
LINE
  5
20BA
330
1A
100
AcDbEntity
  8
部品1
100
AcDbLine
 10
2198.084791275928
 20
6121.203097597816
 30
0.0
 11
2198.084791275924
 21
6065.203097597816
 31
0.0
  0
LINE
  5
20BB
330
1A
100
AcDbEntity
  8
点線
 48
6.0
100
AcDbLine
 10
1948.084791275922
 20
6814.803097597816
 30
0.0
 11
1948.084791275922
 21
6749.803097597811
 31
0.0
  0
LINE
  5
20BC
330
1A
100
AcDbEntity
  8
点線
 48
6.0
100
AcDbLine
 10
1988.084791275922
 20
6749.803097597811
 30
0.0
 11
1948.084791275922
 21
6749.803097597811
 31
0.0
  0
LINE
  5
20BD
330
1A
100
AcDbEntity
  8
点線
 48
6.0
100
AcDbLine
 10
1988.084791275922
 20
6794.803097597817
 30
0.0
 11
1948.084791275922
 21
6794.803097597817
 31
0.0
  0
LINE
  5
20BE
330
1A
100
AcDbEntity
  8
点線
 48
6.0
100
AcDbLine
 10
1988.084791275922
 20
6814.803097597816
 30
0.0
 11
1948.084791275922
 21
6814.803097597816
 31
0.0
  0
LINE
  5
20BF
330
1A
100
AcDbEntity
  8
点線
 48
6.0
100
AcDbLine
 10
2138.084791275922
 20
6814.803097597816
 30
0.0
 11
2138.084791275922
 21
6749.803097597816
 31
0.0
  0
LINE
  5
20C0
330
1A
100
AcDbEntity
  8
点線
 48
6.0
100
AcDbLine
 10
2198.084791275922
 20
6814.803097597816
 30
0.0
 11
2198.084791275922
 21
6749.803097597816
 31
0.0
  0
LINE
  5
20C1
330
1A
100
AcDbEntity
  8
点線
 48
6.0
100
AcDbLine
 10
1948.084791275922
 20
7443.403097597817
 30
0.0
 11
1948.084791275922
 21
7378.403097597821
 31
0.0
  0
LINE
  5
20C2
330
1A
100
AcDbEntity
  8
点線
 48
6.0
100
AcDbLine
 10
1988.084791275922
 20
7378.403097597821
 30
0.0
 11
1948.084791275922
 21
7378.403097597821
 31
0.0
  0
LINE
  5
20C3
330
1A
100
AcDbEntity
  8
点線
 48
6.0
100
AcDbLine
 10
1988.084791275922
 20
7423.403097597819
 30
0.0
 11
1948.084791275922
 21
7423.403097597819
 31
0.0
  0
LINE
  5
20C4
330
1A
100
AcDbEntity
  8
点線
 48
6.0
100
AcDbLine
 10
1988.084791275922
 20
7443.403097597817
 30
0.0
 11
1948.084791275922
 21
7443.403097597817
 31
0.0
  0
LINE
  5
20C5
330
1A
100
AcDbEntity
  8
点線
 48
6.0
100
AcDbLine
 10
2138.084791275922
 20
7443.403097597817
 30
0.0
 11
2138.084791275922
 21
7378.403097597821
 31
0.0
  0
LINE
  5
20C6
330
1A
100
AcDbEntity
  8
点線
 48
6.0
100
AcDbLine
 10
2198.084791275922
 20
7443.403097597817
 30
0.0
 11
2198.084791275922
 21
7378.403097597817
 31
0.0
  0
DIMENSION
  5
20C7
330
1A
100
AcDbEntity
  8
寸法
100
AcDbDimension
  2
*D6
 10
1344.415140076316
 20
8029.503097597817
 30
0.0
 11
1184.403329052695
 21
8082.731066668163
 31
0.0
 70
   160
 71
     5
 42
277.199999999998
  3
物置仕様図40
100
AcDbAlignedDimension
 13
1918.084791275922
 23
8306.703097597816
 33
0.0
 14
1918.084791275922
 24
8029.503097597817
 34
0.0
 50
90.0
100
AcDbRotatedDimension
1001
ACAD
1000
DSTYLE
1002
{
1070
    75
1070
     1
1002
}
  0
DIMENSION
  5
20C8
330
1A
100
AcDbEntity
  8
寸法
100
AcDbDimension
  2
*D7
 10
1344.415140076316
 20
8306.703097597816
 30
0.0
 11
1184.403329052695
 21
8543.235149128589
 31
0.0
 70
   160
 71
     5
 42
277.1999999999953
  3
物置仕様図40
100
AcDbAlignedDimension
 13
1918.084791275922
 23
8583.903097597811
 33
0.0
 14
1918.084791275922
 24
8306.703097597816
 34
0.0
 50
90.0
100
AcDbRotatedDimension
1001
ACAD
1000
DSTYLE
1002
{
1070
    75
1070
     1
1002
}
  0
DIMENSION
  5
20C9
330
1A
100
AcDbEntity
  8
寸法
100
AcDbDimension
  2
*D8
 10
1344.415140076316
 20
8583.903097597811
 30
0.0
 11
1184.415140076316
 21
8992.68361794361
 31
0.0
 70
   160
 71
     5
 42
628.6000000000021
  3
物置仕様図40
100
AcDbAlignedDimension
 13
1918.084791275922
 23
9212.503097597814
 33
0.0
 14
1918.084791275922
 24
8583.903097597811
 34
0.0
 50
90.0
100
AcDbRotatedDimension
1001
ACAD
1000
DSTYLE
1002
{
1070
    75
1070
     1
1002
}
  0
LINE
  5
20CA
330
1A
100
AcDbEntity
  8
部品1
100
AcDbLine
 10
2198.084791275922
 20
9170.003097597817
 30
0.0
 11
2198.084791275922
 21
8606.403097597812
 31
0.0
  0
LINE
  5
20CB
330
1A
100
AcDbEntity
  8
部品1
100
AcDbLine
 10
2138.084791275922
 20
9170.003097597817
 30
0.0
 11
2138.084791275922
 21
8606.403097597812
 31
0.0
  0
LINE
  5
20CC
330
1A
100
AcDbEntity
  8
点線
 48
6.0
100
AcDbLine
 10
2138.084791275922
 20
8072.003097597818
 30
0.0
 11
2138.084791275922
 21
8007.00309759782
 31
0.0
  0
LINE
  5
20CD
330
1A
100
AcDbEntity
  8
点線
 48
6.0
100
AcDbLine
 10
1948.084791275922
 20
8072.003097597825
 30
0.0
 11
1948.084791275922
 21
8007.003097597815
 31
0.0
  0
LINE
  5
20CE
330
1A
100
AcDbEntity
  8
点線
 48
6.0
100
AcDbLine
 10
1988.084791275922
 20
8007.003097597815
 30
0.0
 11
1948.084791275922
 21
8007.003097597815
 31
0.0
  0
LINE
  5
20CF
330
1A
100
AcDbEntity
  8
点線
 48
6.0
100
AcDbLine
 10
1988.084791275922
 20
8052.00309759782
 30
0.0
 11
1948.084791275922
 21
8052.00309759782
 31
0.0
  0
LINE
  5
20D0
330
1A
100
AcDbEntity
  8
点線
 48
6.0
100
AcDbLine
 10
1988.084791275922
 20
8072.003097597825
 30
0.0
 11
1948.084791275922
 21
8072.003097597825
 31
0.0
  0
LINE
  5
20D1
330
1A
100
AcDbEntity
  8
部品1
100
AcDbLine
 10
2138.084791275922
 20
8166.703097597816
 30
0.0
 11
2138.084791275922
 21
8072.003097597818
 31
0.0
  0
LINE
  5
20D2
330
1A
100
AcDbEntity
  8
点線
 48
6.0
100
AcDbLine
 10
2198.084791275922
 20
8072.003097597818
 30
0.0
 11
2198.084791275922
 21
8007.00309759782
 31
0.0
  0
LINE
  5
20D3
330
1A
100
AcDbEntity
  8
部品1
100
AcDbLine
 10
2198.084791275922
 20
8166.703097597816
 30
0.0
 11
2198.084791275922
 21
8072.003097597818
 31
0.0
  0
LINE
  5
20D4
330
1A
100
AcDbEntity
  8
部品1
100
AcDbLine
 10
2138.084791275922
 20
8541.403097597813
 30
0.0
 11
2138.084791275922
 21
8446.703097597817
 31
0.0
  0
LINE
  5
20D5
330
1A
100
AcDbEntity
  8
点線
 48
6.0
100
AcDbLine
 10
1948.084791275922
 20
8606.403097597819
 30
0.0
 11
1948.084791275922
 21
8541.403097597816
 31
0.0
  0
LINE
  5
20D6
330
1A
100
AcDbEntity
  8
点線
 48
6.0
100
AcDbLine
 10
1988.084791275922
 20
8541.40309759782
 30
0.0
 11
1948.084791275922
 21
8541.40309759782
 31
0.0
  0
LINE
  5
20D7
330
1A
100
AcDbEntity
  8
点線
 48
6.0
100
AcDbLine
 10
1988.084791275922
 20
8561.403097597818
 30
0.0
 11
1948.084791275922
 21
8561.403097597818
 31
0.0
  0
LINE
  5
20D8
330
1A
100
AcDbEntity
  8
点線
 48
6.0
100
AcDbLine
 10
1988.084791275922
 20
8606.403097597818
 30
0.0
 11
1948.084791275922
 21
8606.403097597818
 31
0.0
  0
LINE
  5
20D9
330
1A
100
AcDbEntity
  8
点線
 48
6.0
100
AcDbLine
 10
2138.084791275922
 20
8606.403097597818
 30
0.0
 11
2138.084791275922
 21
8541.40309759782
 31
0.0
  0
LINE
  5
20DA
330
1A
100
AcDbEntity
  8
部品1
100
AcDbLine
 10
2198.084791275922
 20
8541.403097597813
 30
0.0
 11
2198.084791275922
 21
8446.703097597817
 31
0.0
  0
LINE
  5
20DB
330
1A
100
AcDbEntity
  8
点線
 48
6.0
100
AcDbLine
 10
2198.084791275922
 20
8606.403097597812
 30
0.0
 11
2198.084791275922
 21
8541.40309759782
 31
0.0
  0
LINE
  5
20DC
330
1A
100
AcDbEntity
  8
点線
 48
6.0
100
AcDbLine
 10
2198.084791275922
 20
9235.003097597811
 30
0.0
 11
2198.084791275922
 21
9170.003097597819
 31
0.0
  0
LINE
  5
20DD
330
1A
100
AcDbEntity
  8
点線
 48
6.0
100
AcDbLine
 10
2138.084791275922
 20
9235.003097597811
 30
0.0
 11
2138.084791275922
 21
9170.003097597819
 31
0.0
  0
LINE
  5
20DE
330
1A
100
AcDbEntity
  8
点線
 48
6.0
100
AcDbLine
 10
1948.084791275922
 20
9235.003097597813
 30
0.0
 11
1948.084791275922
 21
9170.003097597819
 31
0.0
  0
LINE
  5
20DF
330
1A
100
AcDbEntity
  8
点線
 48
6.0
100
AcDbLine
 10
1988.084791275922
 20
9170.003097597819
 30
0.0
 11
1948.084791275922
 21
9170.003097597819
 31
0.0
  0
LINE
  5
20E0
330
1A
100
AcDbEntity
  8
点線
 48
6.0
100
AcDbLine
 10
1988.084791275922
 20
9190.003097597816
 30
0.0
 11
1948.084791275922
 21
9190.003097597816
 31
0.0
  0
LINE
  5
20E1
330
1A
100
AcDbEntity
  8
点線
 48
6.0
100
AcDbLine
 10
1988.084791275922
 20
9235.003097597811
 30
0.0
 11
1948.084791275922
 21
9235.003097597811
 31
0.0
  0
DIMENSION
  5
20E2
330
1A
100
AcDbEntity
  8
寸法
100
AcDbDimension
  2
*D9
 10
1344.415140076316
 20
9841.103097597816
 30
0.0
 11
1244.403329052693
 21
10155.40309759781
 31
0.0
 70
    32
 71
     5
 42
628.6000000000004
  3
物置仕様図40
100
AcDbAlignedDimension
 13
1918.084791275922
 23
10469.70309759781
 33
0.0
 14
1918.084791275922
 24
9841.103097597816
 34
0.0
 50
90.0
100
AcDbRotatedDimension
1001
ACAD
1000
DSTYLE
1002
{
1070
    75
1070
     1
1002
}
  0
DIMENSION
  5
20E3
330
1A
100
AcDbEntity
  8
寸法
100
AcDbDimension
  2
*D10
 10
1344.415140076316
 20
10469.70309759781
 30
0.0
 11
1184.403329052693
 21
10588.20309759781
 31
0.0
 70
    32
 71
     5
 42
237.0
  3
物置仕様図40
100
AcDbAlignedDimension
 13
1928.084791275922
 23
10706.70309759781
 33
0.0
 14
1918.084791275922
 24
10469.70309759781
 34
0.0
 50
90.0
100
AcDbRotatedDimension
  0
LINE
  5
20E4
330
1A
100
AcDbEntity
  8
部品1
100
AcDbLine
 10
2198.084791275922
 20
10427.20309759781
 30
0.0
 11
2198.084791275922
 21
9863.603097597815
 31
0.0
  0
LINE
  5
20E5
330
1A
100
AcDbEntity
  8
部品1
100
AcDbLine
 10
2138.084791275922
 20
10427.20309759781
 30
0.0
 11
2138.084791275922
 21
9863.603097597815
 31
0.0
  0
LINE
  5
20E6
330
1A
100
AcDbEntity
  8
点線
 48
6.0
100
AcDbLine
 10
1948.084791275922
 20
9863.603097597815
 30
0.0
 11
1948.084791275922
 21
9798.603097597816
 31
0.0
  0
LINE
  5
20E7
330
1A
100
AcDbEntity
  8
点線
 48
6.0
100
AcDbLine
 10
1988.084791275922
 20
9798.603097597816
 30
0.0
 11
1948.084791275922
 21
9798.603097597816
 31
0.0
  0
LINE
  5
20E8
330
1A
100
AcDbEntity
  8
点線
 48
6.0
100
AcDbLine
 10
1988.084791275922
 20
9818.603097597815
 30
0.0
 11
1948.084791275922
 21
9818.603097597815
 31
0.0
  0
LINE
  5
20E9
330
1A
100
AcDbEntity
  8
点線
 48
6.0
100
AcDbLine
 10
1988.084791275922
 20
9863.603097597815
 30
0.0
 11
1948.084791275922
 21
9863.603097597815
 31
0.0
  0
LINE
  5
20EA
330
1A
100
AcDbEntity
  8
点線
 48
6.0
100
AcDbLine
 10
2138.084791275922
 20
9863.603097597815
 30
0.0
 11
2138.084791275922
 21
9798.603097597816
 31
0.0
  0
LINE
  5
20EB
330
1A
100
AcDbEntity
  8
点線
 48
6.0
100
AcDbLine
 10
2198.084791275922
 20
9863.603097597815
 30
0.0
 11
2198.084791275922
 21
9798.603097597816
 31
0.0
  0
LINE
  5
20EC
330
1A
100
AcDbEntity
  8
部品1
100
AcDbLine
 10
2198.084791275922
 20
10548.20309759781
 30
0.0
 11
2138.084791275922
 21
10548.20309759781
 31
0.0
  0
LINE
  5
20ED
330
1A
100
AcDbEntity
  8
点線
 48
6.0
100
AcDbLine
 10
1988.084791275922
 20
10427.20309759781
 30
0.0
 11
1948.084791275922
 21
10427.20309759781
 31
0.0
  0
LINE
  5
20EE
330
1A
100
AcDbEntity
  8
点線
 48
6.0
100
AcDbLine
 10
1988.084791275922
 20
10447.20309759781
 30
0.0
 11
1948.084791275922
 21
10447.20309759781
 31
0.0
  0
LINE
  5
20EF
330
1A
100
AcDbEntity
  8
点線
 48
6.0
100
AcDbLine
 10
1988.084791275922
 20
10492.20309759781
 30
0.0
 11
1948.084791275922
 21
10492.20309759781
 31
0.0
  0
LINE
  5
20F0
330
1A
100
AcDbEntity
  8
点線
 48
6.0
100
AcDbLine
 10
1948.084791275922
 20
10492.20309759781
 30
0.0
 11
1948.084791275922
 21
10427.20309759781
 31
0.0
  0
LINE
  5
20F1
330
1A
100
AcDbEntity
  8
点線
 48
6.0
100
AcDbLine
 10
2138.084791275922
 20
10492.20309759781
 30
0.0
 11
2138.084791275922
 21
10427.20309759781
 31
0.0
  0
LINE
  5
20F2
330
1A
100
AcDbEntity
  8
部品1
100
AcDbLine
 10
2138.084791275922
 20
10548.20309759781
 30
0.0
 11
2138.084791275922
 21
10492.20309759781
 31
0.0
  0
LINE
  5
20F3
330
1A
100
AcDbEntity
  8
点線
 48
6.0
100
AcDbLine
 10
2198.084791275922
 20
10492.20309759781
 30
0.0
 11
2198.084791275922
 21
10427.20309759781
 31
0.0
  0
LINE
  5
20F4
330
1A
100
AcDbEntity
  8
部品1
100
AcDbLine
 10
2198.084791275922
 20
10548.20309759781
 30
0.0
 11
2198.084791275922
 21
10492.20309759781
 31
0.0
  0
ARC
  5
20F5
330
1A
100
AcDbEntity
  8
部品1
100
AcDbCircle
 10
1928.084791275922
 20
10696.70309759781
 30
0.0
 40
10.0
100
AcDbArc
 50
90.0
 51
180.0
  0
LINE
  5
20F6
330
1A
100
AcDbEntity
  8
部品1
100
AcDbLine
 10
1966.584791275922
 20
10687.20309759781
 30
0.0
 11
1945.584791275922
 21
10687.20309759781
 31
0.0
  0
LINE
  5
20F7
330
1A
100
AcDbEntity
  8
部品1
100
AcDbLine
 10
1966.584791275922
 20
10687.20309759781
 30
0.0
 11
1966.584791275922
 21
10582.70309759781
 31
0.0
  0
ARC
  5
20F8
330
1A
100
AcDbEntity
  8
部品1
100
AcDbCircle
 10
1945.584791275922
 20
10692.20309759781
 30
0.0
 40
5.0
100
AcDbArc
 50
180.0
 51
270.0
  0
LINE
  5
20F9
330
1A
100
AcDbEntity
  8
部品1
100
AcDbLine
 10
1940.584791275922
 20
10706.70309759781
 30
0.0
 11
1940.584791275922
 21
10692.20309759781
 31
0.0
  0
LINE
  5
20FA
330
1A
100
AcDbEntity
  8
点線
 48
50.0
100
AcDbLine
 10
7738.084791275922
 20
9235.003097597816
 30
0.0
 11
7738.084791275922
 21
9798.603097597819
 31
0.0
  0
LINE
  5
20FB
330
1A
100
AcDbEntity
  8
点線
 48
50.0
100
AcDbLine
 10
7798.084791275922
 20
9235.003097597816
 30
0.0
 11
7798.084791275922
 21
9798.603097597819
 31
0.0
  0
LINE
  5
20FC
330
1A
100
AcDbEntity
  8
部品1
100
AcDbLine
 10
4623.084791275918
 20
10179.25789594491
 30
0.0
 11
4623.084791275918
 21
9450.200448038224
 31
0.0
  0
LINE
  5
20FD
330
1A
100
AcDbEntity
  8
部品1
100
AcDbLine
 10
4595.08479127592
 20
10171.75531855684
 30
0.0
 11
4595.084791275918
 21
9543.006030102951
 31
0.0
  0
LINE
  5
20FE
330
1A
100
AcDbEntity
  8
部品1
100
AcDbLine
 10
4668.084791275918
 20
10582.70309759781
 30
0.0
 11
4668.084791275918
 21
9301.04861971991
 31
0.0
  0
LINE
  5
20FF
330
1A
100
AcDbEntity
  8
部品1
100
AcDbLine
 10
4805.084791275918
 20
10582.70309759781
 30
0.0
 11
4805.084791275918
 21
8846.964164617485
 31
0.0
  0
LINE
  5
2100
330
1A
100
AcDbEntity
  8
部品1
100
AcDbLine
 10
4839.584791275918
 20
10582.70309759781
 30
0.0
 11
4839.584791275922
 21
8732.614429573434
 31
0.0
  0
LINE
  5
2101
330
1A
100
AcDbEntity
  8
部品1
100
AcDbLine
 10
5096.584791275922
 20
10582.70309759781
 30
0.0
 11
5096.58479127592
 21
8446.703097597817
 31
0.0
  0
LINE
  5
2102
330
1A
100
AcDbEntity
  8
部品1
100
AcDbLine
 10
5131.084791275922
 20
10582.70309759781
 30
0.0
 11
5131.084791275922
 21
8446.703097597815
 31
0.0
  0
LINE
  5
2103
330
1A
100
AcDbEntity
  8
部品1
100
AcDbLine
 10
5268.084791275922
 20
10582.70309759781
 30
0.0
 11
5268.084791275922
 21
8446.703097597817
 31
0.0
  0
LINE
  5
2104
330
1A
100
AcDbEntity
  8
部品1
100
AcDbLine
 10
5313.084791275922
 20
10582.70309759781
 30
0.0
 11
5313.084791275922
 21
8446.703097597817
 31
0.0
  0
LINE
  5
2105
330
1A
100
AcDbEntity
  8
部品1
100
AcDbLine
 10
5341.084791275921
 20
10582.70309759781
 30
0.0
 11
5341.084791275921
 21
8446.703097597817
 31
0.0
  0
LINE
  5
2106
330
1A
100
AcDbEntity
  8
部品1
100
AcDbLine
 10
5386.084791275922
 20
10582.70309759781
 30
0.0
 11
5386.084791275922
 21
8446.703097597817
 31
0.0
  0
LINE
  5
2107
330
1A
100
AcDbEntity
  8
部品1
100
AcDbLine
 10
5806.084791275922
 20
10582.70309759781
 30
0.0
 11
5806.084791275922
 21
8446.703097597817
 31
0.0
  0
LINE
  5
2108
330
1A
100
AcDbEntity
  8
部品1
100
AcDbLine
 10
5761.084791275922
 20
10582.70309759781
 30
0.0
 11
5761.084791275922
 21
8446.703097597817
 31
0.0
  0
LINE
  5
2109
330
1A
100
AcDbEntity
  8
部品1
100
AcDbLine
 10
5733.084791275921
 20
10582.70309759781
 30
0.0
 11
5733.084791275921
 21
8446.703097597817
 31
0.0
  0
LINE
  5
210A
330
1A
100
AcDbEntity
  8
部品1
100
AcDbLine
 10
5688.084791275922
 20
10582.70309759781
 30
0.0
 11
5688.084791275922
 21
8446.703097597817
 31
0.0
  0
LINE
  5
210B
330
1A
100
AcDbEntity
  8
部品1
100
AcDbLine
 10
5551.084791275922
 20
10582.70309759781
 30
0.0
 11
5551.084791275922
 21
8446.703097597815
 31
0.0
  0
LINE
  5
210C
330
1A
100
AcDbEntity
  8
部品1
100
AcDbLine
 10
5516.584791275922
 20
10582.70309759781
 30
0.0
 11
5516.584791275921
 21
8446.703097597817
 31
0.0
  0
LINE
  5
210D
330
1A
100
AcDbEntity
  8
部品1
100
AcDbLine
 10
4998.084791275918
 20
10582.70309759781
 30
0.0
 11
4998.084791275918
 21
8446.703097597817
 31
0.0
  0
LINE
  5
210E
330
1A
100
AcDbEntity
  8
部品1
100
AcDbLine
 10
4938.084791275918
 20
10582.70309759781
 30
0.0
 11
4938.084791275918
 21
8446.703097597817
 31
0.0
  0
LINE
  5
210F
330
1A
100
AcDbEntity
  8
部品1
100
AcDbLine
 10
7726.084791275922
 20
10582.70309759781
 30
0.0
 11
7726.084791275922
 21
8446.703097597817
 31
0.0
  0
LINE
  5
2110
330
1A
100
AcDbEntity
  8
部品1
100
AcDbLine
 10
7681.084791275921
 20
10582.70309759781
 30
0.0
 11
7681.084791275921
 21
8446.703097597817
 31
0.0
  0
LINE
  5
2111
330
1A
100
AcDbEntity
  8
部品1
100
AcDbLine
 10
7653.084791275921
 20
10582.70309759781
 30
0.0
 11
7653.084791275921
 21
8446.703097597817
 31
0.0
  0
LINE
  5
2112
330
1A
100
AcDbEntity
  8
部品1
100
AcDbLine
 10
7608.084791275922
 20
10582.70309759781
 30
0.0
 11
7608.084791275922
 21
8446.703097597817
 31
0.0
  0
LINE
  5
2113
330
1A
100
AcDbEntity
  8
部品1
100
AcDbLine
 10
7146.084791275922
 20
10582.70309759781
 30
0.0
 11
7146.084791275922
 21
8446.703097597817
 31
0.0
  0
LINE
  5
2114
330
1A
100
AcDbEntity
  8
部品1
100
AcDbLine
 10
7101.084791275922
 20
10582.70309759781
 30
0.0
 11
7101.084791275922
 21
8446.703097597817
 31
0.0
  0
LINE
  5
2115
330
1A
100
AcDbEntity
  8
部品1
100
AcDbLine
 10
7073.084791275921
 20
10582.70309759781
 30
0.0
 11
7073.084791275921
 21
8446.703097597817
 31
0.0
  0
LINE
  5
2116
330
1A
100
AcDbEntity
  8
部品1
100
AcDbLine
 10
7028.084791275921
 20
10582.70309759781
 30
0.0
 11
7028.084791275921
 21
8446.703097597817
 31
0.0
  0
LINE
  5
2117
330
1A
100
AcDbEntity
  8
部品1
100
AcDbLine
 10
6646.084791275922
 20
10582.70309759781
 30
0.0
 11
6646.084791275922
 21
8446.703097597817
 31
0.0
  0
LINE
  5
2118
330
1A
100
AcDbEntity
  8
部品1
100
AcDbLine
 10
6601.084791275922
 20
10582.70309759781
 30
0.0
 11
6601.084791275922
 21
8446.703097597817
 31
0.0
  0
LINE
  5
2119
330
1A
100
AcDbEntity
  8
部品1
100
AcDbLine
 10
6573.084791275921
 20
10582.70309759781
 30
0.0
 11
6573.084791275921
 21
8446.703097597817
 31
0.0
  0
LINE
  5
211A
330
1A
100
AcDbEntity
  8
部品1
100
AcDbLine
 10
6528.084791275921
 20
10582.70309759781
 30
0.0
 11
6528.084791275921
 21
8446.703097597817
 31
0.0
  0
LINE
  5
211B
330
1A
100
AcDbEntity
  8
部品1
100
AcDbLine
 10
6226.084791275922
 20
10582.70309759781
 30
0.0
 11
6226.084791275922
 21
8446.703097597817
 31
0.0
  0
LINE
  5
211C
330
1A
100
AcDbEntity
  8
部品1
100
AcDbLine
 10
6181.084791275922
 20
10582.70309759781
 30
0.0
 11
6181.084791275922
 21
8446.703097597817
 31
0.0
  0
LINE
  5
211D
330
1A
100
AcDbEntity
  8
部品1
100
AcDbLine
 10
6153.084791275922
 20
10582.70309759781
 30
0.0
 11
6153.084791275922
 21
8446.703097597817
 31
0.0
  0
LINE
  5
211E
330
1A
100
AcDbEntity
  8
部品1
100
AcDbLine
 10
6108.084791275921
 20
10582.70309759781
 30
0.0
 11
6108.084791275921
 21
8446.703097597817
 31
0.0
  0
LINE
  5
211F
330
1A
100
AcDbEntity
  8
部品1
100
AcDbLine
 10
7391.084791275922
 20
8446.703097597817
 30
0.0
 11
7391.084791275922
 21
10582.70309759781
 31
0.0
  0
LINE
  5
2120
330
1A
100
AcDbEntity
  8
部品1
100
AcDbLine
 10
7356.584791275922
 20
8446.703097597817
 30
0.0
 11
7356.584791275922
 21
10582.70309759781
 31
0.0
  0
LINE
  5
2121
330
1A
100
AcDbEntity
  8
部品1
100
AcDbLine
 10
6811.084791275923
 20
8446.703097597817
 30
0.0
 11
6811.084791275923
 21
10582.70309759781
 31
0.0
  0
LINE
  5
2122
330
1A
100
AcDbEntity
  8
部品1
100
AcDbLine
 10
6776.584791275921
 20
8446.703097597817
 30
0.0
 11
6776.584791275921
 21
10582.70309759781
 31
0.0
  0
LINE
  5
2123
330
1A
100
AcDbEntity
  8
部品1
100
AcDbLine
 10
6391.084791275922
 20
10582.70309759781
 30
0.0
 11
6391.084791275922
 21
8446.703097597817
 31
0.0
  0
LINE
  5
2124
330
1A
100
AcDbEntity
  8
部品1
100
AcDbLine
 10
6356.584791275921
 20
10582.70309759781
 30
0.0
 11
6356.584791275921
 21
8446.703097597817
 31
0.0
  0
LINE
  5
2125
330
1A
100
AcDbEntity
  8
部品1
100
AcDbLine
 10
5971.084791275922
 20
10582.70309759781
 30
0.0
 11
5971.084791275922
 21
8446.703097597815
 31
0.0
  0
LINE
  5
2126
330
1A
100
AcDbEntity
  8
部品1
100
AcDbLine
 10
5936.584791275922
 20
10582.70309759781
 30
0.0
 11
5936.58479127592
 21
8446.703097597817
 31
0.0
  0
LINE
  5
2127
330
1A
100
AcDbEntity
  8
部品1
100
AcDbLine
 10
7948.084791275924
 20
8446.703097597817
 30
0.0
 11
7948.084791275921
 21
10582.70309759781
 31
0.0
  0
LINE
  5
2128
330
1A
100
AcDbEntity
  8
点線
 48
50.0
100
AcDbLine
 10
5607.852342742685
 20
6186.203097597815
 30
0.0
 11
7988.08479127592
 21
6186.203097597812
 31
0.0
  0
LINE
  5
2129
330
1A
100
AcDbEntity
  8
点線
 48
50.0
100
AcDbLine
 10
5627.463232082624
 20
6121.203097597819
 30
0.0
 11
7988.08479127592
 21
6121.203097597816
 31
0.0
  0
LINE
  5
212A
330
1A
100
AcDbEntity
  8
点線
 48
50.0
100
AcDbLine
 10
5613.886462539589
 20
6166.203097597819
 30
0.0
 11
7988.084791275922
 21
6166.203097597816
 31
0.0
  0
LINE
  5
212B
330
1A
100
AcDbEntity
  8
点線
 48
50.0
100
AcDbLine
 10
5418.199957525987
 20
6814.803097597816
 30
0.0
 11
7988.084791275922
 21
6814.803097597811
 31
0.0
  0
LINE
  5
212C
330
1A
100
AcDbEntity
  8
点線
 48
50.0
100
AcDbLine
 10
5437.810846865925
 20
6749.803097597816
 30
0.0
 11
7988.084791275918
 21
6749.803097597814
 31
0.0
  0
LINE
  5
212D
330
1A
100
AcDbEntity
  8
点線
 48
50.0
100
AcDbLine
 10
5424.234077322889
 20
6794.803097597817
 30
0.0
 11
7988.084791275922
 21
6794.803097597817
 31
0.0
  0
LINE
  5
212E
330
1A
100
AcDbEntity
  8
点線
 48
50.0
100
AcDbLine
 10
5228.547572309288
 20
7443.403097597816
 30
0.0
 11
7988.08479127592
 21
7443.403097597819
 31
0.0
  0
LINE
  5
212F
330
1A
100
AcDbEntity
  8
点線
 48
50.0
100
AcDbLine
 10
5250.084791275918
 20
7378.403097597815
 30
0.0
 11
7988.08479127592
 21
7378.403097597818
 31
0.0
  0
LINE
  5
2130
330
1A
100
AcDbEntity
  8
点線
 48
50.0
100
AcDbLine
 10
5234.58169210619
 20
7423.40309759782
 30
0.0
 11
7988.084791275922
 21
7423.403097597817
 31
0.0
  0
LINE
  5
2131
330
1A
100
AcDbEntity
  8
点線
 48
50.0
100
AcDbLine
 10
5038.895187092588
 20
8072.003097597812
 30
0.0
 11
7988.084791275918
 21
8072.003097597812
 31
0.0
  0
LINE
  5
2132
330
1A
100
AcDbEntity
  8
点線
 48
50.0
100
AcDbLine
 10
5058.506076432526
 20
8007.003097597818
 30
0.0
 11
7988.08479127592
 21
8007.00309759782
 31
0.0
  0
LINE
  5
2133
330
1A
100
AcDbEntity
  8
点線
 48
50.0
100
AcDbLine
 10
5044.929306889492
 20
8052.003097597818
 30
0.0
 11
7988.08479127592
 21
8052.003097597818
 31
0.0
  0
LINE
  5
2134
330
1A
100
AcDbEntity
  8
点線
 48
50.0
100
AcDbLine
 10
7988.084791275922
 20
8541.403097597813
 30
0.0
 11
4897.274395459246
 21
8541.403097597813
 31
0.0
  0
LINE
  5
2135
330
1A
100
AcDbEntity
  8
点線
 48
50.0
100
AcDbLine
 10
7988.084791275922
 20
9170.003097597815
 30
0.0
 11
4707.622010242547
 21
9170.003097597813
 31
0.0
  0
LINE
  5
2136
330
1A
100
AcDbEntity
  8
点線
 48
50.0
100
AcDbLine
 10
7988.084791275922
 20
8606.403097597816
 30
0.0
 11
4877.663506119311
 21
8606.403097597803
 31
0.0
  0
LINE
  5
2137
330
1A
100
AcDbEntity
  8
点線
 48
50.0
100
AcDbLine
 10
7988.084791275922
 20
8561.403097597814
 30
0.0
 11
4891.240275662344
 21
8561.403097597811
 31
0.0
  0
LINE
  5
2138
330
1A
100
AcDbEntity
  8
点線
 48
50.0
100
AcDbLine
 10
7988.084791275922
 20
9190.003097597816
 30
0.0
 11
4701.587890445642
 21
9190.003097597816
 31
0.0
  0
LINE
  5
2139
330
1A
100
AcDbEntity
  8
点線
 48
50.0
100
AcDbLine
 10
7988.08479127592
 20
9235.003097597816
 30
0.0
 11
4688.011120902609
 21
9235.003097597816
 31
0.0
  0
LINE
  5
213A
330
1A
100
AcDbEntity
  8
部品1
100
AcDbLine
 10
5539.584791275926
 20
6412.474877955194
 30
0.0
 11
5539.584791275922
 21
8166.703097597816
 31
0.0
  0
LINE
  5
213B
330
1A
100
AcDbEntity
  8
部品1
100
AcDbLine
 10
5505.084791275923
 20
6526.824612999241
 30
0.0
 11
5505.084791275922
 21
8166.703097597816
 31
0.0
  0
LINE
  5
213C
330
1A
100
AcDbEntity
  8
部品1
100
AcDbLine
 10
5295.084791275922
 20
7222.866478484714
 30
0.0
 11
5295.084791275922
 21
8166.703097597816
 31
0.0
  0
LINE
  5
213D
330
1A
100
AcDbEntity
  8
部品1
100
AcDbLine
 10
5250.084791275918
 20
7372.018306803042
 30
0.0
 11
5250.084791275922
 21
8166.703097597816
 31
0.0
  0
LINE
  5
213E
330
1A
100
AcDbEntity
  8
部品1
100
AcDbLine
 10
5323.08479127592
 20
7130.060896419992
 30
0.0
 11
5323.084791275921
 21
8166.703097597816
 31
0.0
  0
LINE
  5
213F
330
1A
100
AcDbEntity
  8
部品1
100
AcDbLine
 10
5368.084791275919
 20
6980.909068101677
 30
0.0
 11
5368.084791275922
 21
8166.703097597816
 31
0.0
  0
LINE
  5
2140
330
1A
100
AcDbEntity
  8
部品1
100
AcDbLine
 10
5715.084791275918
 20
6030.703097597819
 30
0.0
 11
5715.084791275922
 21
8166.703097597816
 31
0.0
  0
LINE
  5
2141
330
1A
100
AcDbEntity
  8
部品1
100
AcDbLine
 10
5670.084791275913
 20
6030.703097597819
 30
0.0
 11
5670.084791275922
 21
8166.703097597816
 31
0.0
  0
LINE
  5
2142
330
1A
100
AcDbEntity
  8
部品1
100
AcDbLine
 10
5743.084791275919
 20
6030.703097597819
 30
0.0
 11
5743.084791275922
 21
8166.703097597816
 31
0.0
  0
LINE
  5
2143
330
1A
100
AcDbEntity
  8
部品1
100
AcDbLine
 10
4998.084791275918
 20
8007.003097597822
 30
0.0
 11
4998.084791275918
 21
7443.403097597816
 31
0.0
  0
LINE
  5
2144
330
1A
100
AcDbEntity
  8
部品1
100
AcDbLine
 10
4938.084791275918
 20
8007.003097597822
 30
0.0
 11
4938.084791275918
 21
7443.403097597816
 31
0.0
  0
LINE
  5
2145
330
1A
100
AcDbEntity
  8
部品1
100
AcDbLine
 10
4998.084791275918
 20
7378.403097597811
 30
0.0
 11
4998.084791275917
 21
6814.803097597816
 31
0.0
  0
LINE
  5
2146
330
1A
100
AcDbEntity
  8
部品1
100
AcDbLine
 10
4938.084791275918
 20
7378.403097597811
 30
0.0
 11
4938.084791275918
 21
6814.803097597816
 31
0.0
  0
LINE
  5
2147
330
1A
100
AcDbEntity
  8
部品1
100
AcDbLine
 10
4998.084791275917
 20
6749.803097597816
 30
0.0
 11
4998.084791275921
 21
6186.203097597815
 31
0.0
  0
LINE
  5
2148
330
1A
100
AcDbEntity
  8
部品1
100
AcDbLine
 10
4938.084791275918
 20
6749.803097597816
 30
0.0
 11
4938.08479127592
 21
6186.203097597815
 31
0.0
  0
LINE
  5
2149
330
1A
100
AcDbEntity
  8
点線
 48
6.0
100
AcDbLine
 10
4998.084791275921
 20
6186.203097597815
 30
0.0
 11
4998.084791275921
 21
6121.203097597816
 31
0.0
  0
LINE
  5
214A
330
1A
100
AcDbEntity
  8
点線
 48
6.0
100
AcDbLine
 10
4938.08479127592
 20
6186.203097597815
 30
0.0
 11
4938.084791275922
 21
6121.203097597816
 31
0.0
  0
LINE
  5
214B
330
1A
100
AcDbEntity
  8
部品1
100
AcDbLine
 10
4968.084791275918
 20
6186.203097597815
 30
0.0
 11
4968.084791275918
 21
6121.203097597816
 31
0.0
  0
LINE
  5
214C
330
1A
100
AcDbEntity
  8
部品1
100
AcDbLine
 10
4938.08479127592
 20
6065.203097597816
 30
0.0
 11
4998.08479127592
 21
6065.203097597816
 31
0.0
  0
LINE
  5
214D
330
1A
100
AcDbEntity
  8
部品1
100
AcDbLine
 10
4938.084791275922
 20
6121.203097597812
 30
0.0
 11
4938.08479127592
 21
6065.203097597816
 31
0.0
  0
LINE
  5
214E
330
1A
100
AcDbEntity
  8
部品1
100
AcDbLine
 10
4998.084791275921
 20
6121.203097597812
 30
0.0
 11
4998.08479127592
 21
6065.203097597816
 31
0.0
  0
LINE
  5
214F
330
1A
100
AcDbEntity
  8
点線
 48
6.0
100
AcDbLine
 10
4938.084791275918
 20
6814.803097597816
 30
0.0
 11
4938.084791275918
 21
6749.803097597816
 31
0.0
  0
LINE
  5
2150
330
1A
100
AcDbEntity
  8
点線
 48
6.0
100
AcDbLine
 10
4998.084791275917
 20
6814.803097597816
 30
0.0
 11
4998.084791275917
 21
6749.803097597816
 31
0.0
  0
LINE
  5
2151
330
1A
100
AcDbEntity
  8
部品1
100
AcDbLine
 10
4968.084791275918
 20
6814.803097597816
 30
0.0
 11
4968.084791275918
 21
6749.803097597816
 31
0.0
  0
LINE
  5
2152
330
1A
100
AcDbEntity
  8
点線
 48
6.0
100
AcDbLine
 10
4938.084791275918
 20
7443.403097597817
 30
0.0
 11
4938.084791275918
 21
7378.403097597811
 31
0.0
  0
LINE
  5
2153
330
1A
100
AcDbEntity
  8
点線
 48
6.0
100
AcDbLine
 10
4998.084791275918
 20
7443.403097597816
 30
0.0
 11
4998.084791275918
 21
7378.403097597811
 31
0.0
  0
LINE
  5
2154
330
1A
100
AcDbEntity
  8
部品1
100
AcDbLine
 10
4968.084791275918
 20
7443.403097597817
 30
0.0
 11
4968.084791275918
 21
7378.403097597812
 31
0.0
  0
LINE
  5
2155
330
1A
100
AcDbEntity
  8
点線
 48
6.0
100
AcDbLine
 10
4998.084791275917
 20
8072.003097597812
 30
0.0
 11
4998.084791275918
 21
8007.003097597822
 31
0.0
  0
LINE
  5
2156
330
1A
100
AcDbEntity
  8
点線
 48
6.0
100
AcDbLine
 10
4938.084791275916
 20
8072.003097597812
 30
0.0
 11
4938.084791275918
 21
8007.003097597822
 31
0.0
  0
LINE
  5
2157
330
1A
100
AcDbEntity
  8
部品1
100
AcDbLine
 10
4968.084791275918
 20
8072.003097597812
 30
0.0
 11
4968.084791275918
 21
8007.00309759782
 31
0.0
  0
LINE
  5
2158
330
1A
100
AcDbEntity
  8
部品1
100
AcDbLine
 10
5085.084791275922
 20
7918.908343970183
 30
0.0
 11
5085.084791275922
 21
8166.703097597816
 31
0.0
  0
LINE
  5
2159
330
1A
100
AcDbEntity
  8
部品1
100
AcDbLine
 10
4938.084791275918
 20
8166.703097597816
 30
0.0
 11
4938.084791275916
 21
8072.003097597812
 31
0.0
  0
LINE
  5
215A
330
1A
100
AcDbEntity
  8
部品1
100
AcDbLine
 10
4998.084791275918
 20
8166.703097597816
 30
0.0
 11
4998.084791275917
 21
8072.003097597812
 31
0.0
  0
LINE
  5
215B
330
1A
100
AcDbEntity
  8
点線
 48
6.0
100
AcDbLine
 10
4968.084791275918
 20
8606.403097597805
 30
0.0
 11
4968.084791275918
 21
8541.403097597813
 31
0.0
  0
LINE
  5
215C
330
1A
100
AcDbEntity
  8
部品1
100
AcDbLine
 10
5119.584791275923
 20
7804.558608926139
 30
0.0
 11
5119.584791275922
 21
8166.703097597816
 31
0.0
  0
LINE
  5
215D
330
1A
100
AcDbEntity
  8
点線
 48
6.0
100
AcDbLine
 10
4968.084791275918
 20
9235.003097597813
 30
0.0
 11
4968.084791275916
 21
9170.003097597811
 31
0.0
  0
LINE
  5
215E
330
1A
100
AcDbEntity
  8
点線
 48
50.0
100
AcDbLine
 10
7738.084791275922
 20
7443.403097597819
 30
0.0
 11
7738.084791275922
 21
8007.00309759782
 31
0.0
  0
LINE
  5
215F
330
1A
100
AcDbEntity
  8
点線
 48
50.0
100
AcDbLine
 10
7798.084791275922
 20
7443.403097597819
 30
0.0
 11
7798.084791275922
 21
8007.00309759782
 31
0.0
  0
LINE
  5
2160
330
1A
100
AcDbEntity
  8
部品1
100
AcDbLine
 10
5959.584791275926
 20
6030.703097597819
 30
0.0
 11
5959.584791275922
 21
8166.703097597816
 31
0.0
  0
LINE
  5
2161
330
1A
100
AcDbEntity
  8
部品1
100
AcDbLine
 10
5925.084791275924
 20
6030.703097597819
 30
0.0
 11
5925.084791275922
 21
8166.703097597816
 31
0.0
  0
LINE
  5
2162
330
1A
100
AcDbEntity
  8
部品1
100
AcDbLine
 10
5788.084791275917
 20
6030.703097597819
 30
0.0
 11
5788.084791275922
 21
8166.703097597816
 31
0.0
  0
LINE
  5
2163
330
1A
100
AcDbEntity
  8
部品1
100
AcDbLine
 10
6379.584791275926
 20
6030.703097597819
 30
0.0
 11
6379.584791275922
 21
8166.703097597816
 31
0.0
  0
LINE
  5
2164
330
1A
100
AcDbEntity
  8
部品1
100
AcDbLine
 10
6345.084791275923
 20
6030.703097597819
 30
0.0
 11
6345.084791275922
 21
8166.703097597816
 31
0.0
  0
LINE
  5
2165
330
1A
100
AcDbEntity
  8
部品1
100
AcDbLine
 10
6208.084791275917
 20
6030.703097597819
 30
0.0
 11
6208.084791275922
 21
8166.703097597816
 31
0.0
  0
LINE
  5
2166
330
1A
100
AcDbEntity
  8
部品1
100
AcDbLine
 10
6163.084791275919
 20
6030.703097597819
 30
0.0
 11
6163.084791275922
 21
8166.703097597816
 31
0.0
  0
LINE
  5
2167
330
1A
100
AcDbEntity
  8
部品1
100
AcDbLine
 10
6135.084791275918
 20
6030.703097597819
 30
0.0
 11
6135.084791275922
 21
8166.703097597816
 31
0.0
  0
LINE
  5
2168
330
1A
100
AcDbEntity
  8
部品1
100
AcDbLine
 10
6090.084791275913
 20
6030.703097597819
 30
0.0
 11
6090.084791275922
 21
8166.703097597816
 31
0.0
  0
LINE
  5
2169
330
1A
100
AcDbEntity
  8
部品1
100
AcDbLine
 10
7959.584791275922
 20
6030.703097597815
 30
0.0
 11
7959.584791275922
 21
8166.703097597816
 31
0.0
  0
LINE
  5
216A
330
1A
100
AcDbEntity
  8
部品1
100
AcDbLine
 10
7925.084791275923
 20
6030.703097597815
 30
0.0
 11
7925.084791275923
 21
8166.703097597816
 31
0.0
  0
LINE
  5
216B
330
1A
100
AcDbEntity
  8
部品1
100
AcDbLine
 10
7379.584791275921
 20
6030.703097597815
 30
0.0
 11
7379.584791275921
 21
8166.703097597816
 31
0.0
  0
LINE
  5
216C
330
1A
100
AcDbEntity
  8
部品1
100
AcDbLine
 10
7345.084791275922
 20
6030.703097597815
 30
0.0
 11
7345.084791275922
 21
8166.703097597816
 31
0.0
  0
LINE
  5
216D
330
1A
100
AcDbEntity
  8
部品1
100
AcDbLine
 10
6799.584791275922
 20
6030.703097597815
 30
0.0
 11
6799.584791275922
 21
8166.703097597816
 31
0.0
  0
LINE
  5
216E
330
1A
100
AcDbEntity
  8
部品1
100
AcDbLine
 10
6765.084791275921
 20
6030.703097597815
 30
0.0
 11
6765.084791275921
 21
8166.703097597816
 31
0.0
  0
LINE
  5
216F
330
1A
100
AcDbEntity
  8
部品1
100
AcDbLine
 10
7590.084791275922
 20
6030.703097597818
 30
0.0
 11
7590.084791275922
 21
8166.703097597816
 31
0.0
  0
LINE
  5
2170
330
1A
100
AcDbEntity
  8
部品1
100
AcDbLine
 10
7635.084791275922
 20
6030.703097597818
 30
0.0
 11
7635.084791275922
 21
8166.703097597816
 31
0.0
  0
LINE
  5
2171
330
1A
100
AcDbEntity
  8
部品1
100
AcDbLine
 10
7663.084791275922
 20
6030.703097597818
 30
0.0
 11
7663.084791275922
 21
8166.703097597816
 31
0.0
  0
LINE
  5
2172
330
1A
100
AcDbEntity
  8
部品1
100
AcDbLine
 10
7708.084791275922
 20
6030.703097597818
 30
0.0
 11
7708.084791275922
 21
8166.703097597816
 31
0.0
  0
LINE
  5
2173
330
1A
100
AcDbEntity
  8
部品1
100
AcDbLine
 10
7128.084791275921
 20
6030.703097597818
 30
0.0
 11
7128.084791275921
 21
8166.703097597816
 31
0.0
  0
LINE
  5
2174
330
1A
100
AcDbEntity
  8
部品1
100
AcDbLine
 10
7083.084791275922
 20
6030.703097597818
 30
0.0
 11
7083.084791275922
 21
8166.703097597816
 31
0.0
  0
LINE
  5
2175
330
1A
100
AcDbEntity
  8
部品1
100
AcDbLine
 10
7055.084791275922
 20
6030.703097597818
 30
0.0
 11
7055.084791275922
 21
8166.703097597816
 31
0.0
  0
LINE
  5
2176
330
1A
100
AcDbEntity
  8
部品1
100
AcDbLine
 10
7010.084791275922
 20
6030.703097597818
 30
0.0
 11
7010.084791275922
 21
8166.703097597816
 31
0.0
  0
LINE
  5
2177
330
1A
100
AcDbEntity
  8
部品1
100
AcDbLine
 10
6628.084791275921
 20
6030.703097597819
 30
0.0
 11
6628.084791275921
 21
8166.703097597816
 31
0.0
  0
LINE
  5
2178
330
1A
100
AcDbEntity
  8
部品1
100
AcDbLine
 10
6583.084791275924
 20
6030.703097597819
 30
0.0
 11
6583.084791275922
 21
8166.703097597816
 31
0.0
  0
LINE
  5
2179
330
1A
100
AcDbEntity
  8
部品1
100
AcDbLine
 10
6555.084791275923
 20
6030.703097597819
 30
0.0
 11
6555.084791275922
 21
8166.703097597816
 31
0.0
  0
LINE
  5
217A
330
1A
100
AcDbEntity
  8
部品1
100
AcDbLine
 10
6510.084791275921
 20
6030.703097597819
 30
0.0
 11
6510.084791275922
 21
8166.703097597816
 31
0.0
  0
LINE
  5
217B
330
1A
100
AcDbEntity
  8
点線
 48
50.0
100
AcDbLine
 10
7798.084791275922
 20
6814.803097597811
 30
0.0
 11
7798.084791275922
 21
7378.403097597818
 31
0.0
  0
LINE
  5
217C
330
1A
100
AcDbEntity
  8
点線
 48
50.0
100
AcDbLine
 10
7738.084791275922
 20
6814.803097597811
 30
0.0
 11
7738.084791275922
 21
7378.403097597815
 31
0.0
  0
LINE
  5
217D
330
1A
100
AcDbEntity
  8
点線
 48
50.0
100
AcDbLine
 10
7738.084791275922
 20
6065.203097597816
 30
0.0
 11
7798.084791275922
 21
6065.203097597816
 31
0.0
  0
LINE
  5
217E
330
1A
100
AcDbEntity
  8
点線
 48
50.0
100
AcDbLine
 10
7738.084791275922
 20
6186.203097597812
 30
0.0
 11
7738.084791275922
 21
6749.803097597816
 31
0.0
  0
LINE
  5
217F
330
1A
100
AcDbEntity
  8
点線
 48
50.0
100
AcDbLine
 10
7738.084791275922
 20
6065.203097597816
 30
0.0
 11
7738.084791275922
 21
6121.203097597816
 31
0.0
  0
LINE
  5
2180
330
1A
100
AcDbEntity
  8
点線
 48
50.0
100
AcDbLine
 10
7798.084791275922
 20
6186.203097597812
 30
0.0
 11
7798.084791275922
 21
6749.803097597816
 31
0.0
  0
LINE
  5
2181
330
1A
100
AcDbEntity
  8
点線
 48
6.0
100
AcDbLine
 10
7988.084791275922
 20
6186.203097597812
 30
0.0
 11
7988.08479127592
 21
6121.203097597816
 31
0.0
  0
LINE
  5
2182
330
1A
100
AcDbEntity
  8
点線
 48
50.0
100
AcDbLine
 10
7798.084791275922
 20
6065.203097597816
 30
0.0
 11
7798.084791275922
 21
6121.203097597816
 31
0.0
  0
LINE
  5
2183
330
1A
100
AcDbEntity
  8
点線
 48
6.0
100
AcDbLine
 10
7988.08479127592
 20
6814.803097597811
 30
0.0
 11
7988.084791275922
 21
6749.803097597816
 31
0.0
  0
LINE
  5
2184
330
1A
100
AcDbEntity
  8
点線
 48
6.0
100
AcDbLine
 10
7988.084791275922
 20
7443.403097597819
 30
0.0
 11
7988.084791275922
 21
7378.403097597818
 31
0.0
  0
LINE
  5
2185
330
1A
100
AcDbEntity
  8
点線
 48
50.0
100
AcDbLine
 10
7798.084791275925
 20
8606.403097597816
 30
0.0
 11
7798.084791275922
 21
9170.003097597813
 31
0.0
  0
LINE
  5
2186
330
1A
100
AcDbEntity
  8
点線
 48
50.0
100
AcDbLine
 10
7738.084791275922
 20
8606.403097597816
 30
0.0
 11
7738.084791275922
 21
9170.003097597813
 31
0.0
  0
LINE
  5
2187
330
1A
100
AcDbEntity
  8
点線
 48
50.0
100
AcDbLine
 10
7738.084791275922
 20
8072.003097597812
 30
0.0
 11
7738.084791275922
 21
8166.703097597816
 31
0.0
  0
LINE
  5
2188
330
1A
100
AcDbEntity
  8
点線
 48
50.0
100
AcDbLine
 10
7738.084791275922
 20
8446.703097597817
 30
0.0
 11
7738.084791275922
 21
8541.403097597813
 31
0.0
  0
LINE
  5
2189
330
1A
100
AcDbEntity
  8
点線
 48
6.0
100
AcDbLine
 10
7988.084791275922
 20
8072.003097597811
 30
0.0
 11
7988.084791275922
 21
8007.003097597822
 31
0.0
  0
LINE
  5
218A
330
1A
100
AcDbEntity
  8
点線
 48
50.0
100
AcDbLine
 10
7798.084791275922
 20
8072.003097597812
 30
0.0
 11
7798.084791275922
 21
8166.703097597816
 31
0.0
  0
LINE
  5
218B
330
1A
100
AcDbEntity
  8
点線
 48
50.0
100
AcDbLine
 10
7798.084791275922
 20
8446.703097597817
 30
0.0
 11
7798.084791275922
 21
8541.403097597813
 31
0.0
  0
LINE
  5
218C
330
1A
100
AcDbEntity
  8
点線
 48
6.0
100
AcDbLine
 10
7988.084791275922
 20
8606.403097597818
 30
0.0
 11
7988.084791275922
 21
8541.403097597813
 31
0.0
  0
LINE
  5
218D
330
1A
100
AcDbEntity
  8
点線
 48
6.0
100
AcDbLine
 10
7988.08479127592
 20
9235.003097597816
 30
0.0
 11
7988.084791275922
 21
9170.003097597815
 31
0.0
  0
LINE
  5
218E
330
1A
100
AcDbEntity
  8
点線
 48
50.0
100
AcDbLine
 10
7988.08479127592
 20
9798.603097597816
 30
0.0
 11
4517.969625025849
 21
9798.603097597816
 31
0.0
  0
LINE
  5
218F
330
1A
100
AcDbEntity
  8
点線
 48
50.0
100
AcDbLine
 10
7988.08479127592
 20
10427.20309759781
 30
0.0
 11
4328.317239809146
 21
10427.20309759781
 31
0.0
  0
LINE
  5
2190
330
1A
100
AcDbEntity
  8
点線
 48
50.0
100
AcDbLine
 10
7988.08479127592
 20
9818.603097597815
 30
0.0
 11
4511.935505228945
 21
9818.603097597815
 31
0.0
  0
LINE
  5
2191
330
1A
100
AcDbEntity
  8
点線
 48
50.0
100
AcDbLine
 10
7988.084791275922
 20
9863.603097597817
 30
0.0
 11
4498.358735685908
 21
9863.603097597817
 31
0.0
  0
LINE
  5
2192
330
1A
100
AcDbEntity
  8
点線
 48
50.0
100
AcDbLine
 10
7988.08479127592
 20
10447.20309759781
 30
0.0
 11
4322.283120012246
 21
10447.20309759781
 31
0.0
  0
LINE
  5
2193
330
1A
100
AcDbEntity
  8
点線
 48
50.0
100
AcDbLine
 10
7988.08479127592
 20
10492.20309759781
 30
0.0
 11
4308.706350469209
 21
10492.20309759782
 31
0.0
  0
LINE
  5
2194
330
1A
100
AcDbEntity
  8
部品1
100
AcDbLine
 10
4641.532699096331
 20
10184.20099794743
 30
0.0
 11
4197.517178893202
 21
10065.22739788211
 31
0.0
  0
LINE
  5
2195
330
1A
100
AcDbEntity
  8
部品1
100
AcDbLine
 10
4380.532699096335
 20
10254.13573717195
 30
0.0
 11
4641.532699096331
 21
10184.20099794743
 31
0.0
  0
LINE
  5
2196
330
1A
100
AcDbEntity
  8
部品1
100
AcDbLine
 10
4419.584791275918
 20
10582.70309759781
 30
0.0
 11
4419.584791275918
 21
10243.67176060968
 31
0.0
  0
LINE
  5
2197
330
1A
100
AcDbEntity
  8
部品1
100
AcDbLine
 10
4385.084791275918
 20
10582.70309759781
 30
0.0
 11
4385.084791275918
 21
10252.91600774856
 31
0.0
  0
LINE
  5
2198
330
1A
100
AcDbEntity
  8
部品1
100
AcDbLine
 10
4213.819816662891
 20
10806.70309759781
 30
0.0
 11
4380.532699096328
 21
10254.13573717195
 31
0.0
  0
LINE
  5
2199
330
1A
100
AcDbEntity
  8
部品1
100
AcDbLine
 10
4197.5171788932
 20
10065.22739788211
 30
0.0
 11
4458.636883455509
 21
9995.260583916799
 31
0.0
  0
LINE
  5
219A
330
1A
100
AcDbEntity
  8
部品1
100
AcDbLine
 10
4419.584791275918
 20
10124.73023528517
 30
0.0
 11
4419.584791275919
 21
10124.69816054438
 31
0.0
  0
LINE
  5
219B
330
1A
100
AcDbEntity
  8
部品1
100
AcDbLine
 10
4419.575837939048
 20
10124.72783624579
 30
0.0
 11
4419.584791275919
 21
10124.69816054437
 31
0.0
  0
LINE
  5
219C
330
1A
100
AcDbEntity
  8
部品1
100
AcDbLine
 10
4550.084791275918
 20
10582.70309759781
 30
0.0
 11
4550.084791275918
 21
10208.70439099742
 31
0.0
  0
LINE
  5
219D
330
1A
100
AcDbEntity
  8
部品1
100
AcDbLine
 10
4595.084791275918
 20
10582.70309759781
 30
0.0
 11
4595.084791275918
 21
10196.64667733802
 31
0.0
  0
LINE
  5
219E
330
1A
100
AcDbEntity
  8
部品1
100
AcDbLine
 10
4623.084791275918
 20
10582.70309759781
 30
0.0
 11
4623.084791275918
 21
10189.14409994995
 31
0.0
  0
LINE
  5
219F
330
1A
100
AcDbEntity
  8
部品1
100
AcDbLine
 10
4550.084791275918
 20
10159.69760489743
 30
0.0
 11
4550.084791275918
 21
9692.157858421266
 31
0.0
  0
LINE
  5
21A0
330
1A
100
AcDbEntity
  8
点線
 48
6.0
100
AcDbLine
 10
4968.084791275918
 20
9863.603097597817
 30
0.0
 11
4968.084791275918
 21
9798.603097597814
 31
0.0
  0
LINE
  5
21A1
330
1A
100
AcDbEntity
  8
部品1
100
AcDbLine
 10
4998.084791275918
 20
10548.20309759781
 30
0.0
 11
4938.084791275918
 21
10548.20309759781
 31
0.0
  0
LINE
  5
21A2
330
1A
100
AcDbEntity
  8
点線
 48
6.0
100
AcDbLine
 10
4968.084791275918
 20
10492.20309759782
 30
0.0
 11
4968.084791275918
 21
10427.20309759782
 31
0.0
  0
LINE
  5
21A3
330
1A
100
AcDbEntity
  8
部品1
100
AcDbLine
 10
4978.08479127592
 20
10582.70309759781
 30
0.0
 11
4978.08479127592
 21
10706.70309759781
 31
0.0
  0
LINE
  5
21A4
330
1A
100
AcDbEntity
  8
点線
 48
50.0
100
AcDbLine
 10
7798.08479127592
 20
10548.20309759781
 30
0.0
 11
7738.08479127592
 21
10548.20309759781
 31
0.0
  0
LINE
  5
21A5
330
1A
100
AcDbEntity
  8
点線
 48
50.0
100
AcDbLine
 10
7738.084791275922
 20
9863.603097597817
 30
0.0
 11
7738.084791275922
 21
10427.20309759781
 31
0.0
  0
LINE
  5
21A6
330
1A
100
AcDbEntity
  8
点線
 48
50.0
100
AcDbLine
 10
7738.084791275923
 20
10492.20309759781
 30
0.0
 11
7738.084791275922
 21
10548.20309759781
 31
0.0
  0
LINE
  5
21A7
330
1A
100
AcDbEntity
  8
点線
 48
50.0
100
AcDbLine
 10
7798.084791275922
 20
9863.603097597817
 30
0.0
 11
7798.084791275922
 21
10427.20309759781
 31
0.0
  0
LINE
  5
21A8
330
1A
100
AcDbEntity
  8
点線
 48
6.0
100
AcDbLine
 10
7988.08479127592
 20
9863.603097597817
 30
0.0
 11
7988.08479127592
 21
9798.603097597819
 31
0.0
  0
LINE
  5
21A9
330
1A
100
AcDbEntity
  8
点線
 48
50.0
100
AcDbLine
 10
7798.084791275922
 20
10492.20309759781
 30
0.0
 11
7798.084791275922
 21
10548.20309759781
 31
0.0
  0
LINE
  5
21AA
330
1A
100
AcDbEntity
  8
点線
 48
6.0
100
AcDbLine
 10
7988.084791275922
 20
10492.20309759781
 30
0.0
 11
7988.08479127592
 21
10427.20309759781
 31
0.0
  0
ARC
  5
21AB
330
1A
100
AcDbEntity
  8
部品1
100
AcDbCircle
 10
8008.084791275923
 20
10696.70309759781
 30
0.0
 40
10.0
100
AcDbArc
 50
0.0
 51
90.0
  0
LINE
  5
21AC
330
1A
100
AcDbEntity
  8
部品1
100
AcDbLine
 10
7969.584791275915
 20
10582.70309759781
 30
0.0
 11
7969.584791275922
 21
10687.20309759781
 31
0.0
  0
ARC
  5
21AD
330
1A
100
AcDbEntity
  8
部品1
100
AcDbCircle
 10
7990.584791275921
 20
10692.20309759781
 30
0.0
 40
5.0
100
AcDbArc
 50
270.0
 51
0.0
  0
LINE
  5
21AE
330
1A
100
AcDbEntity
  8
部品1
100
AcDbLine
 10
7995.584791275923
 20
10692.20309759781
 30
0.0
 11
7995.584791275923
 21
10706.70309759781
 31
0.0
  0
LINE
  5
21AF
330
1A
100
AcDbEntity
  8
部品1
100
AcDbLine
 10
7990.584791275921
 20
10687.20309759781
 30
0.0
 11
7969.584791275922
 21
10687.20309759781
 31
0.0
  0
TEXT
  5
21B0
330
1A
100
AcDbEntity
  8
文字
 62
     7
 48
50.0
100
AcDbText
 10
13198.2053442172
 20
492.5435242569019
 30
0.0
 40
100.0
  1
○間口奥行寸法は柱芯寸法です。
  7
STYLE2
100
AcDbText
  0
LINE
  5
21B1
330
1A
100
AcDbEntity
  8
仕様書枠
 48
50.0
100
AcDbLine
 10
13096.0
 20
1464.0
 30
0.0
 11
16296.0
 21
1464.0
 31
0.0
  0
LINE
  5
21B2
330
1A
100
AcDbEntity
  8
文字
 62
     7
 48
50.0
100
AcDbLine
 10
13176.0
 20
664.0
 30
0.0
 11
16216.0
 21
664.0
 31
0.0
  0
TEXT
  5
21B3
330
1A
100
AcDbEntity
  8
文字
 62
     7
 48
50.0
100
AcDbText
 10
13151.7790565769
 20
1159.09060742994
 30
0.0
 40
200.0
  1
外 形 図
  7
STYLE2
100
AcDbText
  0
TEXT
  5
21B4
330
1A
100
AcDbEntity
  8
文字
 62
     7
 48
50.0
100
AcDbText
 10
13190.23669998441
 20
741.2740661031257
 30
0.0
 40
160.0
  1
機種名
  7
STYLE2
100
AcDbText
  0
LINE
  5
21B5
330
1A
100
AcDbEntity
  8
仕様書枠
 48
50.0
100
AcDbLine
 10
13096.0
 20
1064.0
 30
0.0
 11
14240.0
 21
1064.0
 31
0.0
  0
DIMENSION
  5
21B6
330
1A
100
AcDbEntity
  8
寸法
100
AcDbDimension
  2
*D11
 10
14676.32755088104
 20
5053.584453347935
 30
0.0
 11
12276.32755088104
 21
5153.584453347935
 31
0.0
 70
    32
 71
     5
 42
4800.0
  3
物置仕様図40
100
AcDbAlignedDimension
 13
9876.327550881043
 23
4365.816756318404
 33
0.0
 14
14676.32755088104
 24
4365.816756318404
 34
0.0
100
AcDbRotatedDimension
  0
DIMENSION
  5
21B7
330
1A
100
AcDbEntity
  8
寸法
100
AcDbDimension
  2
*D12
 10
13926.32755088103
 20
4849.668646643564
 30
0.0
 11
13101.32755088103
 21
4949.668646643564
 31
0.0
 70
    32
 71
     5
 42
1649.999999999998
  3
物置仕様図40
100
AcDbAlignedDimension
 13
12276.32755088103
 23
4489.90094961403
 33
0.0
 14
13926.32755088103
 24
4058.920282370678
 34
0.0
100
AcDbRotatedDimension
1001
ACAD
1000
DSTYLE
1002
{
1070
    75
1070
     1
1002
}
  0
LINE
  5
21B8
330
1A
100
AcDbEntity
  8
部品1
100
AcDbLine
 10
9876.327550881036
 20
2294.900949614032
 30
0.0
 11
14676.32755088103
 21
2294.900949614032
 31
0.0
  0
LINE
  5
21B9
330
1A
100
AcDbEntity
  8
部品1
100
AcDbLine
 10
13726.09216019243
 20
4246.447333117735
 30
0.0
 11
13192.25799497566
 21
4271.582025063357
 31
0.0
  0
LINE
  5
21BA
330
1A
100
AcDbEntity
  8
細線
100
AcDbLine
 10
13896.32755088103
 20
2932.900949614032
 30
0.0
 11
12306.32755088103
 21
2932.900949614034
 31
0.0
  0
LINE
  5
21BB
330
1A
100
AcDbEntity
  8
細線
100
AcDbLine
 10
13896.32755088103
 20
2938.900949614032
 30
0.0
 11
12306.32755088103
 21
2938.900949614034
 31
0.0
  0
LINE
  5
21BC
330
1A
100
AcDbEntity
  8
細線
100
AcDbLine
 10
13896.32755088103
 20
2609.900949614031
 30
0.0
 11
12306.32755088103
 21
2609.900949614033
 31
0.0
  0
LINE
  5
21BD
330
1A
100
AcDbEntity
  8
細線
100
AcDbLine
 10
13896.32755088103
 20
2597.900949614032
 30
0.0
 11
12306.32755088103
 21
2597.900949614034
 31
0.0
  0
LINE
  5
21BE
330
1A
100
AcDbEntity
  8
細線
100
AcDbLine
 10
13896.32755088103
 20
3279.900949614031
 30
0.0
 11
12306.32755088103
 21
3279.900949614034
 31
0.0
  0
LINE
  5
21BF
330
1A
100
AcDbEntity
  8
細線
100
AcDbLine
 10
13896.32755088103
 20
3291.900949614032
 30
0.0
 11
12306.32755088103
 21
3291.900949614034
 31
0.0
  0
LINE
  5
21C0
330
1A
100
AcDbEntity
  8
細線
100
AcDbLine
 10
14671.01215308149
 20
4312.079208836543
 30
0.0
 11
12276.32755088103
 21
4424.82894219015
 31
0.0
  0
LINE
  5
21C1
330
1A
100
AcDbEntity
  8
細線
100
AcDbLine
 10
14670.03084887235
 20
4300.112118231471
 30
0.0
 11
12276.32755088103
 21
4412.815648511894
 31
0.0
  0
LINE
  5
21C2
330
1A
100
AcDbEntity
  8
部品1
100
AcDbLine
 10
13896.32755088103
 20
3394.900949614032
 30
0.0
 11
12306.32755088103
 21
3394.900949614033
 31
0.0
  0
LINE
  5
21C3
330
1A
100
AcDbEntity
  8
部品1
100
AcDbLine
 10
13896.32755088103
 20
2494.900949614032
 30
0.0
 11
12306.32755088103
 21
2494.900949614033
 31
0.0
  0
LINE
  5
21C4
330
1A
100
AcDbEntity
  8
部品1
100
AcDbLine
 10
14654.38159182022
 20
4262.806840769868
 30
0.0
 11
12276.32755088103
 21
4374.773551864089
 31
0.0
  0
LINE
  5
21C5
330
1A
100
AcDbEntity
  8
部品1
100
AcDbLine
 10
14662.88241006558
 20
4377.533991660759
 30
0.0
 11
12276.32755088103
 21
4489.90094961403
 31
0.0
  0
LINE
  5
21C6
330
1A
100
AcDbEntity
  8
点線
 48
50.0
100
AcDbLine
 10
12306.32755088104
 20
2294.900949614032
 30
0.0
 11
12306.32755088103
 21
1964.586365704011
 31
0.0
  0
LINE
  5
21C7
330
1A
100
AcDbEntity
  8
点線
 48
50.0
100
AcDbLine
 10
12246.32755088103
 20
2294.900949614032
 30
0.0
 11
12246.32755088103
 21
1964.586365704011
 31
0.0
  0
LINE
  5
21C8
330
1A
100
AcDbEntity
  8
点線
 48
50.0
100
AcDbLine
 10
10656.32755088104
 20
2294.900949614032
 30
0.0
 11
10656.32755088103
 21
1974.900949614031
 31
0.0
  0
LINE
  5
21C9
330
1A
100
AcDbEntity
  8
点線
 48
50.0
100
AcDbLine
 10
10596.32755088103
 20
2294.900949614032
 30
0.0
 11
10596.32755088103
 21
1974.900949614031
 31
0.0
  0
LINE
  5
21CA
330
1A
100
AcDbEntity
  8
点線
 48
50.0
100
AcDbLine
 10
10596.32755088103
 20
1974.900949614031
 30
0.0
 11
10656.32755088103
 21
1974.900949614031
 31
0.0
  0
LINE
  5
21CB
330
1A
100
AcDbEntity
  8
仕様書枠
  6
Continuous
 48
50.0
100
AcDbLine
 10
13096.0
 20
1464.0
 30
0.0
 11
13096.0
 21
264.0
 31
0.0
  0
TEXT
  5
21CC
330
1A
100
AcDbEntity
  8
部品1
100
AcDbText
 10
12018.60891875059
 20
1357.236007414966
 30
0.0
 40
120.0
  1
側面図
  7
MSGOTHIC
100
AcDbText
  0
LWPOLYLINE
  5
21CD
330
1A
100
AcDbEntity
  8
部品1
100
AcDbPolyline
 90
        4
 70
     1
 43
0.0
 10
11976.14143329446
 20
1531.674684141446
 10
11976.14143329446
 20
1310.090425101178
 10
12613.15376605422
 20
1310.090425101178
 10
12613.15376605422
 20
1531.674684141446
  0
LINE
  5
21CE
330
1A
100
AcDbEntity
  8
点線
 48
50.0
100
AcDbLine
 10
12246.32755088103
 20
1964.586365704011
 30
0.0
 11
12306.32755088103
 21
1964.586365704011
 31
0.0
  0
DIMENSION
  5
21CF
330
1A
100
AcDbEntity
  8
寸法
100
AcDbDimension
  2
*D13
 10
9002.75680173412
 20
2244.900949614032
 30
0.0
 11
8902.744990710498
 21
3367.400949614033
 31
0.0
 70
    32
 71
     5
 42
2244.999999999999
  3
物置仕様図40
100
AcDbAlignedDimension
 13
12276.32755088103
 23
4489.90094961403
 33
0.0
 14
8985.847895189889
 24
2244.900949614032
 34
0.0
 50
90.0
100
AcDbRotatedDimension
  0
DIMENSION
  5
21D0
330
1A
100
AcDbEntity
  8
寸法
100
AcDbDimension
  2
*D14
 10
9296.48348345904
 20
4376.876432079347
 30
0.0
 11
9177.842311419068
 21
4614.244290205198
 31
0.0
 70
   160
 71
     5
 42
112.9999999999973
  3
物置仕様図40
100
AcDbAlignedDimension
 13
12276.84827728145
 23
4489.876432079343
 33
0.0
 14
9875.80682448063
 24
4376.876432079347
 34
0.0
 50
90.0
100
AcDbRotatedDimension
  0
DIMENSION
  5
21D1
330
1A
100
AcDbEntity
  8
寸法
100
AcDbDimension
  2
*D15
 10
12276.32755088104
 20
4849.668646643564
 30
0.0
 11
11451.32755088104
 21
4949.668646643564
 31
0.0
 70
    32
 71
     5
 42
1650.000000000007
  3
物置仕様図40
100
AcDbAlignedDimension
 13
10626.32755088103
 23
4058.92028237068
 33
0.0
 14
12276.32755088104
 24
4487.398180097712
 34
0.0
100
AcDbRotatedDimension
1001
ACAD
1000
DSTYLE
1002
{
1070
    75
1070
     1
1002
}
  0
LINE
  5
21D2
330
1A
100
AcDbEntity
  8
部品1
100
AcDbLine
 10
10826.56294156964
 20
4246.447333117735
 30
0.0
 11
11360.3971067864
 21
4271.582025063357
 31
0.0
  0
LINE
  5
21D3
330
1A
100
AcDbEntity
  8
部品1
100
AcDbLine
 10
10656.32755088103
 20
2494.900949614032
 30
0.0
 11
12246.32755088103
 21
2494.900949614033
 31
0.0
  0
LINE
  5
21D4
330
1A
100
AcDbEntity
  8
細線
100
AcDbLine
 10
10656.32755088103
 20
2597.900949614032
 30
0.0
 11
12246.32755088103
 21
2597.900949614034
 31
0.0
  0
LINE
  5
21D5
330
1A
100
AcDbEntity
  8
細線
100
AcDbLine
 10
10656.32755088103
 20
2609.900949614031
 30
0.0
 11
12246.32755088103
 21
2609.900949614033
 31
0.0
  0
LINE
  5
21D6
330
1A
100
AcDbEntity
  8
細線
100
AcDbLine
 10
10656.32755088103
 20
2938.900949614032
 30
0.0
 11
12246.32755088103
 21
2938.900949614034
 31
0.0
  0
LINE
  5
21D7
330
1A
100
AcDbEntity
  8
細線
100
AcDbLine
 10
10656.32755088103
 20
2932.900949614032
 30
0.0
 11
12246.32755088103
 21
2932.900949614034
 31
0.0
  0
LINE
  5
21D8
330
1A
100
AcDbEntity
  8
部品1
100
AcDbLine
 10
10656.32755088103
 20
3394.900949614032
 30
0.0
 11
12246.32755088103
 21
3394.900949614033
 31
0.0
  0
LINE
  5
21D9
330
1A
100
AcDbEntity
  8
細線
100
AcDbLine
 10
10656.32755088103
 20
3291.900949614032
 30
0.0
 11
12246.32755088103
 21
3291.900949614034
 31
0.0
  0
LINE
  5
21DA
330
1A
100
AcDbEntity
  8
細線
100
AcDbLine
 10
10656.32755088103
 20
3279.900949614031
 30
0.0
 11
12246.32755088103
 21
3279.900949614034
 31
0.0
  0
LINE
  5
21DB
330
1A
100
AcDbEntity
  8
部品1
100
AcDbLine
 10
9889.772691696485
 20
4377.533991660761
 30
0.0
 11
12276.32755088103
 21
4489.90094961403
 31
0.0
  0
LINE
  5
21DC
330
1A
100
AcDbEntity
  8
細線
100
AcDbLine
 10
9881.642948680571
 20
4312.079208836543
 30
0.0
 11
12276.32755088103
 21
4424.82894219015
 31
0.0
  0
LINE
  5
21DD
330
1A
100
AcDbEntity
  8
細線
100
AcDbLine
 10
9882.624252889716
 20
4300.112118231471
 30
0.0
 11
12276.32755088103
 21
4412.815648511894
 31
0.0
  0
LINE
  5
21DE
330
1A
100
AcDbEntity
  8
部品1
100
AcDbLine
 10
9898.273509941848
 20
4262.806840769868
 30
0.0
 11
12276.32755088104
 21
4374.773551864089
 31
0.0
  0
DIMENSION
  5
21DF
330
1A
100
AcDbEntity
  8
寸法
100
AcDbDimension
  2
*D16
 10
9296.48348345904
 20
2244.900949614032
 30
0.0
 11
9196.471672435416
 21
3310.900949614033
 31
0.0
 70
    32
 71
     5
 42
2132.0
  3
物置仕様図40
100
AcDbAlignedDimension
 13
9876.327550881031
 23
4376.900949614031
 33
0.0
 14
9245.652178531027
 24
2244.900949614032
 34
0.0
 50
90.0
100
AcDbRotatedDimension
1001
ACAD
1000
DSTYLE
1002
{
1070
    75
1070
     1
1002
}
  0
DIMENSION
  5
21E0
330
1A
100
AcDbEntity
  8
寸法
100
AcDbDimension
  2
*D17
 10
10626.32755088103
 20
4849.668646643564
 30
0.0
 11
10251.32755088103
 21
4949.668646643564
 31
0.0
 70
    32
 71
     5
 42
750.0
  3
物置仕様図40
100
AcDbAlignedDimension
 13
9876.327550881036
 23
4441.900949614032
 33
0.0
 14
10626.32755088103
 24
4058.92028237068
 34
0.0
100
AcDbRotatedDimension
  0
LINE
  5
21E1
330
1A
100
AcDbEntity
  8
部品1
100
AcDbLine
 10
10592.32755088103
 20
4121.854803131924
 30
0.0
 11
10592.32755088103
 21
4067.501706149989
 31
0.0
  0
LINE
  5
21E2
330
1A
100
AcDbEntity
  8
部品1
100
AcDbLine
 10
10660.32755088103
 20
4120.633602700773
 30
0.0
 11
10660.32755088103
 21
4067.501706149988
 31
0.0
  0
DIMENSION
  5
21E3
330
1A
100
AcDbEntity
  8
寸法
100
AcDbDimension
  2
*D18
 10
9788.354899444728
 20
3394.900949614032
 30
0.0
 11
9688.354899444728
 21
2944.900949614034
 31
0.0
 70
    32
 71
     5
 42
900.0
  3
物置仕様図40
100
AcDbAlignedDimension
 13
10656.32755088103
 23
2494.900949614032
 33
0.0
 14
10656.32755088103
 24
3394.900949614032
 34
0.0
 50
90.0
100
AcDbRotatedDimension
1001
ACAD
1000
DSTYLE
1002
{
1070
    75
1070
     1
1002
}
  0
DIMENSION
  5
21E4
330
1A
100
AcDbEntity
  8
寸法
100
AcDbDimension
  2
*D19
 10
9788.354899444728
 20
2494.900949614032
 30
0.0
 11
9677.798262385472
 21
2369.900949614032
 31
0.0
 70
   160
 71
     5
 42
250.0
  3
物置仕様図40
100
AcDbAlignedDimension
 13
9772.254670437179
 23
2244.900949614032
 33
0.0
 14
10656.32755088103
 24
2494.900949614032
 34
0.0
 50
90.0
100
AcDbRotatedDimension
  0
LINE
  5
21E5
330
1A
100
AcDbEntity
  8
センター
 48
10.0
100
AcDbLine
 10
10626.32755088103
 20
4058.92028237068
 30
0.0
 11
10626.32755088103
 21
2294.900949614032
 31
0.0
  0
LINE
  5
21E6
330
1A
100
AcDbEntity
  8
部品1
100
AcDbLine
 10
10656.32755088103
 20
4067.501706149988
 30
0.0
 11
10656.32755088103
 21
2294.900949614032
 31
0.0
  0
LINE
  5
21E7
330
1A
100
AcDbEntity
  8
部品1
100
AcDbLine
 10
10596.32755088103
 20
4067.501706149988
 30
0.0
 11
10596.32755088103
 21
2294.900949614032
 31
0.0
  0
LINE
  5
21E8
330
1A
100
AcDbEntity
  8
細線
100
AcDbLine
 10
10017.14370921914
 20
2244.900949614032
 30
0.0
 11
10067.14370921914
 21
2294.900949614032
 31
0.0
  0
LINE
  5
21E9
330
1A
100
AcDbEntity
  8
部品1
100
AcDbLine
 10
9876.327550881036
 20
2294.900949614032
 30
0.0
 11
9876.327550881036
 21
2244.900949614032
 31
0.0
  0
LINE
  5
21EA
330
1A
100
AcDbEntity
  8
細線
100
AcDbLine
 10
9983.467748765134
 20
2244.900949614032
 30
0.0
 11
10033.46774876513
 21
2294.900949614032
 31
0.0
  0
LINE
  5
21EB
330
1A
100
AcDbEntity
  8
細線
100
AcDbLine
 10
9949.791788311124
 20
2244.900949614032
 30
0.0
 11
9999.791788311124
 21
2294.900949614032
 31
0.0
  0
LINE
  5
21EC
330
1A
100
AcDbEntity
  8
部品1
100
AcDbLine
 10
10592.32755088103
 20
4067.501706149989
 30
0.0
 11
10660.32755088103
 21
4067.501706149988
 31
0.0
  0
LINE
  5
21ED
330
1A
100
AcDbEntity
  8
寸法
100
AcDbLine
 10
9296.48348345904
 20
4489.876432079343
 30
0.0
 11
9296.48348345904
 21
4789.876432079343
 31
0.0
  0
LINE
  5
21EE
330
1A
100
AcDbEntity
  8
寸法
100
AcDbLine
 10
8633.537714463043
 20
5906.703097597816
 30
0.0
 11
8633.537714463043
 21
5606.703097597816
 31
0.0
  0
LINE
  5
21EF
330
1A
100
AcDbEntity
  8
部品1
100
AcDbLine
 10
10144.15173698
 20
4214.317138901638
 30
0.0
 11
10438.96294156963
 21
4228.197833117734
 31
0.0
  0
LINE
  5
21F0
330
1A
100
AcDbEntity
  8
部品1
100
AcDbLine
 10
9877.427584773812
 20
4363.485940139006
 30
0.0
 11
9884.705590991648
 21
4274.730018151369
 31
0.0
  0
LINE
  5
21F1
330
1A
100
AcDbEntity
  8
部品1
100
AcDbLine
 10
9899.315992972885
 20
4377.983322095855
 30
0.0
 11
9908.72015831054
 21
4263.298703797227
 31
0.0
  0
ARC
  5
21F2
330
1A
100
AcDbEntity
  8
部品1
100
AcDbCircle
 10
9897.662103928086
 20
4275.792455221495
 30
0.0
 40
13.0
100
AcDbArc
 50
184.687779066474
 51
272.69568549355
  0
ARC
  5
21F3
330
1A
100
AcDbEntity
  8
部品1
100
AcDbCircle
 10
9890.384097710251
 20
4364.54837720913
 30
0.0
 40
13.0
100
AcDbArc
 50
92.69568549355007
 51
184.687779066474
  0
ARC
  5
21F4
330
1A
100
AcDbEntity
  8
部品1
100
AcDbCircle
 10
10059.76153576361
 20
4265.404696286369
 30
0.0
 40
5.0
100
AcDbArc
 50
92.69568549355007
 51
194.3850546689469
  0
LINE
  5
21F5
330
1A
100
AcDbEntity
  8
部品1
100
AcDbLine
 10
10067.35284392422
 20
4215.680645147457
 30
0.0
 11
10054.91829577487
 21
4264.162510144337
 31
0.0
  0
ARC
  5
21F6
330
1A
100
AcDbEntity
  8
部品1
100
AcDbCircle
 10
10077.03932390171
 20
4218.165017431518
 30
0.0
 40
10.0
100
AcDbArc
 50
194.3850546689469
 51
272.69568549355
  0
LINE
  5
21F7
330
1A
100
AcDbEntity
  8
部品1
100
AcDbLine
 10
10141.32986307031
 20
4274.250744062999
 30
0.0
 11
10144.2599088132
 21
4212.019684037119
 31
0.0
  0
LINE
  5
21F8
330
1A
100
AcDbEntity
  8
部品1
100
AcDbLine
 10
10100.37523287672
 20
4272.322463558052
 30
0.0
 11
10103.3052786196
 21
4210.091403532171
 31
0.0
  0
LINE
  5
21F9
330
1A
100
AcDbEntity
  8
部品1
100
AcDbLine
 10
10103.30527861961
 20
4210.091403532171
 30
0.0
 11
10144.2599088132
 21
4212.019684037119
 31
0.0
  0
LINE
  5
21FA
330
1A
100
AcDbEntity
  8
部品1
100
AcDbLine
 10
10101.19931994769
 20
4212.294795933035
 30
0.0
 11
10103.1971067864
 21
4212.388858396691
 31
0.0
  0
LINE
  5
21FB
330
1A
100
AcDbEntity
  8
部品1
100
AcDbLine
 10
10098.377446038
 20
4272.228401094395
 30
0.0
 11
10101.34041364317
 21
4209.298115674968
 31
0.0
  0
LINE
  5
21FC
330
1A
100
AcDbEntity
  8
部品1
100
AcDbLine
 10
10077.50963621999
 20
4208.176083237957
 30
0.0
 11
10101.34041364317
 21
4209.298115674966
 31
0.0
  0
LINE
  5
21FD
330
1A
100
AcDbEntity
  8
部品1
100
AcDbLine
 10
10446.24757993306
 20
4286.104517048983
 30
0.0
 11
10813.86971154596
 21
4303.413392412422
 31
0.0
  0
ARC
  5
21FE
330
1A
100
AcDbEntity
  8
部品1
100
AcDbCircle
 10
10780.32755088103
 20
4120.633602700773
 30
0.0
 40
120.0
100
AcDbArc
 50
92.69568549355007
 51
180.0
  0
ARC
  5
21FF
330
1A
100
AcDbEntity
  8
部品1
100
AcDbCircle
 10
10487.32755088103
 20
4121.854803131924
 30
0.0
 40
105.0
100
AcDbArc
 50
0.0
 51
92.69568549355007
  0
LINE
  5
2200
330
1A
100
AcDbEntity
  8
部品1
100
AcDbLine
 10
10439.12755088103
 20
4224.701706149988
 30
0.0
 11
10482.38927153909
 21
4226.738612164305
 31
0.0
  0
LINE
  5
2201
330
1A
100
AcDbEntity
  8
部品1
100
AcDbLine
 10
10439.12755088103
 20
4224.701706149988
 30
0.0
 11
10436.72895805778
 21
4275.645270537139
 31
0.0
  0
ARC
  5
2202
330
1A
100
AcDbEntity
  8
部品1
100
AcDbCircle
 10
10446.71789225134
 20
4276.115582855424
 30
0.0
 40
10.0
100
AcDbArc
 50
92.69568549355007
 51
182.6956854935742
  0
CIRCLE
  5
2203
330
1A
100
AcDbEntity
  8
細線
100
AcDbCircle
 10
10467.54816048534
 20
4259.576954703986
 30
0.0
 40
8.0
  0
LWPOLYLINE
  5
2204
330
1A
100
AcDbEntity
  8
細線
100
AcDbPolyline
 90
        6
 70
     1
 43
0.0
 10
10461.04816048534
 20
4263.329731453717
 10
10467.54816048534
 20
4267.08250820345
 10
10474.04816048534
 20
4263.329731453717
 10
10474.04816048534
 20
4255.824177954253
 10
10467.54816048534
 20
4252.071401204521
 10
10461.04816048534
 20
4255.824177954253
  0
CIRCLE
  5
2205
330
1A
100
AcDbEntity
  8
細線
100
AcDbCircle
 10
10467.54816048534
 20
4259.576954703986
 30
0.0
 40
6.0
  0
CIRCLE
  5
2206
330
1A
100
AcDbEntity
  8
細線
100
AcDbCircle
 10
10679.31356538882
 20
4269.547575851522
 30
0.0
 40
6.0
  0
LWPOLYLINE
  5
2207
330
1A
100
AcDbEntity
  8
細線
100
AcDbPolyline
 90
        6
 70
     1
 43
0.0
 10
10672.81356538882
 20
4273.300352601254
 10
10679.31356538882
 20
4277.053129350987
 10
10685.81356538882
 20
4273.300352601254
 10
10685.81356538882
 20
4265.794799101789
 10
10679.31356538882
 20
4262.042022352058
 10
10672.81356538882
 20
4265.794799101789
  0
CIRCLE
  5
2208
330
1A
100
AcDbEntity
  8
細線
100
AcDbCircle
 10
10679.31356538882
 20
4269.547575851522
 30
0.0
 40
8.0
  0
CIRCLE
  5
2209
330
1A
100
AcDbEntity
  8
細線
100
AcDbCircle
 10
10626.32755088103
 20
4182.501706149989
 30
0.0
 40
6.0
  0
LWPOLYLINE
  5
220A
330
1A
100
AcDbEntity
  8
細線
100
AcDbPolyline
 90
        6
 70
     1
 43
0.0
 10
10619.82755088103
 20
4186.254482899721
 10
10626.32755088103
 20
4190.007259649454
 10
10632.82755088103
 20
4186.254482899721
 10
10632.82755088103
 20
4178.748929400256
 10
10626.32755088103
 20
4174.996152650525
 10
10619.82755088103
 20
4178.748929400256
  0
CIRCLE
  5
220B
330
1A
100
AcDbEntity
  8
細線
100
AcDbCircle
 10
10626.32755088103
 20
4182.501706149989
 30
0.0
 40
8.0
  0
CIRCLE
  5
220C
330
1A
100
AcDbEntity
  8
細線
100
AcDbCircle
 10
10573.43086293708
 20
4264.562265277755
 30
0.0
 40
6.0
  0
LWPOLYLINE
  5
220D
330
1A
100
AcDbEntity
  8
細線
100
AcDbPolyline
 90
        6
 70
     1
 43
0.0
 10
10566.93086293708
 20
4268.315042027484
 10
10573.43086293708
 20
4272.067818777219
 10
10579.93086293708
 20
4268.315042027484
 10
10579.93086293708
 20
4260.80948852802
 10
10573.43086293708
 20
4257.05671177829
 10
10566.93086293708
 20
4260.80948852802
  0
CIRCLE
  5
220E
330
1A
100
AcDbEntity
  8
細線
100
AcDbCircle
 10
10573.43086293708
 20
4264.562265277755
 30
0.0
 40
8.0
  0
CIRCLE
  5
220F
330
1A
100
AcDbEntity
  8
細線
100
AcDbCircle
 10
10626.32755088103
 20
4097.501706149989
 30
0.0
 40
6.0
  0
LWPOLYLINE
  5
2210
330
1A
100
AcDbEntity
  8
細線
100
AcDbPolyline
 90
        6
 70
     1
 43
0.0
 10
10619.82755088103
 20
4101.254482899721
 10
10626.32755088103
 20
4105.007259649453
 10
10632.82755088103
 20
4101.254482899721
 10
10632.82755088103
 20
4093.748929400257
 10
10626.32755088103
 20
4089.996152650525
 10
10619.82755088103
 20
4093.748929400257
  0
CIRCLE
  5
2211
330
1A
100
AcDbEntity
  8
細線
100
AcDbCircle
 10
10626.32755088103
 20
4097.501706149989
 30
0.0
 40
8.0
  0
LINE
  5
2212
330
1A
100
AcDbEntity
  8
部品1
100
AcDbLine
 10
10728.97523287672
 20
4301.919046891383
 30
0.0
 11
10731.23273200446
 21
4253.97216276229
 31
0.0
  0
ARC
  5
2213
330
1A
100
AcDbEntity
  8
部品1
100
AcDbCircle
 10
10736.22719910124
 20
4254.207318921431
 30
0.0
 40
5.0
100
AcDbArc
 50
182.6956854935742
 51
272.69568549355
  0
LINE
  5
2214
330
1A
100
AcDbEntity
  8
部品1
100
AcDbLine
 10
10774.68380306167
 20
4240.500813023494
 30
0.0
 11
10826.72755088103
 21
4242.951206149986
 31
0.0
  0
LINE
  5
2215
330
1A
100
AcDbEntity
  8
部品1
100
AcDbLine
 10
10826.72755088103
 20
4242.951206149988
 30
0.0
 11
10824.3289580578
 21
4293.894770537141
 31
0.0
  0
ARC
  5
2216
330
1A
100
AcDbEntity
  8
部品1
100
AcDbCircle
 10
10814.34002386425
 20
4293.42445821886
 30
0.0
 40
10.0
100
AcDbArc
 50
2.695685493574268
 51
92.69568549355007
  0
LINE
  5
2217
330
1A
100
AcDbEntity
  8
部品1
100
AcDbLine
 10
10769.92986307031
 20
4303.847327396334
 30
0.0
 11
10772.18736219806
 21
4255.900443267239
 31
0.0
  0
ARC
  5
2218
330
1A
100
AcDbEntity
  8
部品1
100
AcDbCircle
 10
10767.19289510128
 20
4255.6652871081
 30
0.0
 40
5.0
100
AcDbArc
 50
272.69568549355
 51
2.695685493574268
  0
CIRCLE
  5
2219
330
1A
100
AcDbEntity
  8
細線
100
AcDbCircle
 10
10785.19626784055
 20
4274.53288642529
 30
0.0
 40
6.0
  0
LWPOLYLINE
  5
221A
330
1A
100
AcDbEntity
  8
細線
100
AcDbPolyline
 90
        6
 70
     1
 43
0.0
 10
10778.69626784055
 20
4278.285663175023
 10
10785.19626784055
 20
4282.038439924754
 10
10791.69626784055
 20
4278.285663175023
 10
10791.69626784055
 20
4270.780109675559
 10
10785.19626784055
 20
4267.027332925825
 10
10778.69626784055
 20
4270.780109675559
  0
CIRCLE
  5
221B
330
1A
100
AcDbEntity
  8
細線
100
AcDbCircle
 10
10785.19626784055
 20
4274.53288642529
 30
0.0
 40
8.0
  0
LINE
  5
221C
330
1A
100
AcDbEntity
  8
部品1
100
AcDbLine
 10
10736.46235526038
 20
4249.212851824651
 30
0.0
 11
10767.42805126042
 21
4250.670820011318
 31
0.0
  0
LINE
  5
221D
330
1A
100
AcDbEntity
  8
センター
 48
10.0
100
AcDbLine
 10
12276.32755088103
 20
4093.086365704012
 30
0.0
 11
12276.32755088103
 21
2294.900949614032
 31
0.0
  0
LINE
  5
221E
330
1A
100
AcDbEntity
  8
部品1
100
AcDbLine
 10
12246.32755088103
 20
4101.667789483321
 30
0.0
 11
12246.32755088103
 21
2294.900949614032
 31
0.0
  0
LINE
  5
221F
330
1A
100
AcDbEntity
  8
部品1
100
AcDbLine
 10
12306.32755088103
 20
4101.667789483321
 30
0.0
 11
12306.32755088103
 21
2294.900949614032
 31
0.0
  0
LINE
  5
2220
330
1A
100
AcDbEntity
  8
細線
100
AcDbLine
 10
11094.77444374744
 20
2244.900949614032
 30
0.0
 11
11144.77444374744
 21
2294.900949614032
 31
0.0
  0
LINE
  5
2221
330
1A
100
AcDbEntity
  8
細線
100
AcDbLine
 10
11027.42252283942
 20
2244.900949614032
 30
0.0
 11
11077.42252283942
 21
2294.900949614032
 31
0.0
  0
LINE
  5
2222
330
1A
100
AcDbEntity
  8
細線
100
AcDbLine
 10
11061.09848329343
 20
2244.900949614032
 30
0.0
 11
11111.09848329343
 21
2294.900949614032
 31
0.0
  0
LINE
  5
2223
330
1A
100
AcDbEntity
  8
細線
100
AcDbLine
 10
12172.40517827574
 20
2244.900949614032
 30
0.0
 11
12222.40517827574
 21
2294.900949614032
 31
0.0
  0
LINE
  5
2224
330
1A
100
AcDbEntity
  8
細線
100
AcDbLine
 10
12138.72921782173
 20
2244.900949614032
 30
0.0
 11
12188.72921782173
 21
2294.900949614032
 31
0.0
  0
LINE
  5
2225
330
1A
100
AcDbEntity
  8
細線
100
AcDbLine
 10
12105.05325736772
 20
2244.900949614032
 30
0.0
 11
12155.05325736772
 21
2294.900949614032
 31
0.0
  0
LINE
  5
2226
330
1A
100
AcDbEntity
  8
細線
100
AcDbLine
 10
13250.03591280404
 20
2244.900949614032
 30
0.0
 11
13300.03591280404
 21
2294.900949614032
 31
0.0
  0
LINE
  5
2227
330
1A
100
AcDbEntity
  8
細線
100
AcDbLine
 10
13216.35995235003
 20
2244.900949614032
 30
0.0
 11
13266.35995235003
 21
2294.900949614032
 31
0.0
  0
LINE
  5
2228
330
1A
100
AcDbEntity
  8
細線
100
AcDbLine
 10
13182.68399189602
 20
2244.900949614032
 30
0.0
 11
13232.68399189602
 21
2294.900949614032
 31
0.0
  0
LINE
  5
2229
330
1A
100
AcDbEntity
  8
部品1
100
AcDbLine
 10
12514.20752182898
 20
4361.070600382305
 30
0.0
 11
12276.32755088103
 21
4372.27078234777
 31
0.0
  0
ARC
  5
222A
330
1A
100
AcDbEntity
  8
部品1
100
AcDbCircle
 10
12510.32755088103
 20
4099.964144845738
 30
0.0
 40
200.0
100
AcDbArc
 50
87.30431450644992
 51
179.5119358598813
  0
LINE
  5
222B
330
1A
100
AcDbEntity
  8
部品1
100
AcDbLine
 10
11401.35173698
 20
4273.510305568304
 30
0.0
 11
11988.9971067864
 21
4301.178608396691
 31
0.0
  0
LINE
  5
222C
330
1A
100
AcDbEntity
  8
部品1
100
AcDbLine
 10
11357.57523287672
 20
4331.515630224718
 30
0.0
 11
11360.50527861961
 21
4269.284570198837
 31
0.0
  0
LINE
  5
222D
330
1A
100
AcDbEntity
  8
部品1
100
AcDbLine
 10
11398.52986307032
 20
4333.443910729665
 30
0.0
 11
11401.4599088132
 21
4271.212850703785
 31
0.0
  0
LINE
  5
222E
330
1A
100
AcDbEntity
  8
部品1
100
AcDbLine
 10
11360.50527861961
 20
4269.284570198837
 30
0.0
 11
11401.4599088132
 21
4271.212850703785
 31
0.0
  0
LINE
  5
222F
330
1A
100
AcDbEntity
  8
部品1
100
AcDbLine
 10
11989.10527861961
 20
4298.88115353217
 30
0.0
 11
12030.0599088132
 21
4300.809434037119
 31
0.0
  0
LINE
  5
2230
330
1A
100
AcDbEntity
  8
部品1
100
AcDbLine
 10
11986.17523287672
 20
4361.11221355805
 30
0.0
 11
11989.1052786196
 21
4298.88115353217
 31
0.0
  0
LINE
  5
2231
330
1A
100
AcDbEntity
  8
部品1
100
AcDbLine
 10
12031.32755088103
 20
4299.667789483321
 30
0.0
 11
12028.9289580578
 21
4350.611353870465
 31
0.0
  0
LINE
  5
2232
330
1A
100
AcDbEntity
  8
部品1
100
AcDbLine
 10
12027.12986307031
 20
4363.040494062999
 30
0.0
 11
12030.0599088132
 21
4300.809434037119
 31
0.0
  0
ARC
  5
2233
330
1A
100
AcDbEntity
  8
部品1
100
AcDbCircle
 10
12042.32755088103
 20
4099.964144845738
 30
0.0
 40
200.0
100
AcDbArc
 50
0.4880641401187
 51
92.69568549355007
  0
LINE
  5
2234
330
1A
100
AcDbEntity
  8
部品1
100
AcDbLine
 10
12031.32755088103
 20
4299.667789483321
 30
0.0
 11
12032.92130451543
 21
4299.74282871694
 31
0.0
  0
LINE
  5
2235
330
1A
100
AcDbEntity
  8
部品1
100
AcDbLine
 10
12029.95173698
 20
4303.106888901639
 30
0.0
 11
12031.16294156963
 21
4303.163916451068
 31
0.0
  0
CIRCLE
  5
2236
330
1A
100
AcDbEntity
  8
細線
100
AcDbCircle
 10
12276.32755088103
 20
4238.667789483321
 30
0.0
 40
6.0
  0
LWPOLYLINE
  5
2237
330
1A
100
AcDbEntity
  8
細線
100
AcDbPolyline
 90
        6
 70
     1
 43
0.0
 10
12269.82755088103
 20
4242.420566233053
 10
12276.32755088103
 20
4246.173342982785
 10
12282.82755088103
 20
4242.420566233053
 10
12282.82755088103
 20
4234.915012733589
 10
12276.32755088103
 20
4231.162235983856
 10
12269.82755088103
 20
4234.915012733589
  0
CIRCLE
  5
2238
330
1A
100
AcDbEntity
  8
細線
100
AcDbCircle
 10
12276.32755088103
 20
4238.667789483321
 30
0.0
 40
8.0
  0
LINE
  5
2239
330
1A
100
AcDbEntity
  8
部品1
100
AcDbLine
 10
12242.32029473677
 20
4101.667789483321
 30
0.0
 11
12276.32755088103
 21
4101.667789483321
 31
0.0
  0
CIRCLE
  5
223A
330
1A
100
AcDbEntity
  8
細線
100
AcDbCircle
 10
12276.32755088103
 20
4136.667789483321
 30
0.0
 40
6.0
  0
LWPOLYLINE
  5
223B
330
1A
100
AcDbEntity
  8
細線
100
AcDbPolyline
 90
        6
 70
     1
 43
0.0
 10
12269.82755088103
 20
4140.420566233053
 10
12276.32755088103
 20
4144.173342982785
 10
12282.82755088103
 20
4140.420566233053
 10
12282.82755088103
 20
4132.915012733588
 10
12276.32755088103
 20
4129.162235983857
 10
12269.82755088103
 20
4132.915012733588
  0
CIRCLE
  5
223C
330
1A
100
AcDbEntity
  8
細線
100
AcDbCircle
 10
12276.32755088103
 20
4136.667789483321
 30
0.0
 40
8.0
  0
CIRCLE
  5
223D
330
1A
100
AcDbEntity
  8
細線
100
AcDbCircle
 10
12276.32755088103
 20
4136.667789483321
 30
0.0
 40
8.0
  0
LWPOLYLINE
  5
223E
330
1A
100
AcDbEntity
  8
細線
100
AcDbPolyline
 90
        6
 70
     1
 43
0.0
 10
12282.82755088103
 20
4140.420566233053
 10
12276.32755088103
 20
4144.173342982785
 10
12269.82755088103
 20
4140.420566233053
 10
12269.82755088103
 20
4132.915012733588
 10
12276.32755088103
 20
4129.162235983857
 10
12282.82755088103
 20
4132.915012733588
  0
CIRCLE
  5
223F
330
1A
100
AcDbEntity
  8
細線
100
AcDbCircle
 10
12276.32755088103
 20
4136.667789483321
 30
0.0
 40
6.0
  0
CIRCLE
  5
2240
330
1A
100
AcDbEntity
  8
細線
100
AcDbCircle
 10
12276.32755088103
 20
4238.667789483321
 30
0.0
 40
8.0
  0
LWPOLYLINE
  5
2241
330
1A
100
AcDbEntity
  8
細線
100
AcDbPolyline
 90
        6
 70
     1
 43
0.0
 10
12282.82755088103
 20
4242.420566233053
 10
12276.32755088103
 20
4246.173342982785
 10
12269.82755088103
 20
4242.420566233053
 10
12269.82755088103
 20
4234.915012733589
 10
12276.32755088103
 20
4231.162235983856
 10
12282.82755088103
 20
4234.915012733589
  0
CIRCLE
  5
2242
330
1A
100
AcDbEntity
  8
細線
100
AcDbCircle
 10
12276.32755088103
 20
4238.667789483321
 30
0.0
 40
6.0
  0
LINE
  5
2243
330
1A
100
AcDbEntity
  8
部品1
100
AcDbLine
 10
12310.33480702529
 20
4101.667789483321
 30
0.0
 11
12276.32755088103
 21
4101.667789483321
 31
0.0
  0
LINE
  5
2244
330
1A
100
AcDbEntity
  8
部品1
100
AcDbLine
 10
12038.44757993308
 20
4361.070600382305
 30
0.0
 11
12276.32755088103
 21
4372.27078234777
 31
0.0
  0
ARC
  5
2245
330
1A
100
AcDbEntity
  8
部品1
100
AcDbCircle
 10
12038.91789225137
 20
4351.081666188746
 30
0.0
 40
10.0
100
AcDbArc
 50
92.69568549355007
 51
182.6956854935742
  0
CIRCLE
  5
2246
330
1A
100
AcDbEntity
  8
細線
100
AcDbCircle
 10
12153.61478861494
 20
4338.962591778408
 30
0.0
 40
6.0
  0
LWPOLYLINE
  5
2247
330
1A
100
AcDbEntity
  8
細線
100
AcDbPolyline
 90
        6
 70
     1
 43
0.0
 10
12147.11478861494
 20
4342.715368528138
 10
12153.61478861494
 20
4346.468145277873
 10
12160.11478861494
 20
4342.715368528138
 10
12160.11478861494
 20
4335.209815028675
 10
12153.61478861494
 20
4331.457038278943
 10
12147.11478861494
 20
4335.209815028675
  0
CIRCLE
  5
2248
330
1A
100
AcDbEntity
  8
細線
100
AcDbCircle
 10
12153.61478861494
 20
4338.962591778408
 30
0.0
 40
8.0
  0
CIRCLE
  5
2249
330
1A
100
AcDbEntity
  8
細線
100
AcDbCircle
 10
12051.72765984063
 20
4334.165406131951
 30
0.0
 40
6.0
  0
LWPOLYLINE
  5
224A
330
1A
100
AcDbEntity
  8
細線
100
AcDbPolyline
 90
        6
 70
     1
 43
0.0
 10
12045.22765984063
 20
4337.918182881684
 10
12051.72765984063
 20
4341.670959631415
 10
12058.22765984063
 20
4337.918182881684
 10
12058.22765984063
 20
4330.412629382219
 10
12051.72765984063
 20
4326.659852632487
 10
12045.22765984063
 20
4330.412629382219
  0
CIRCLE
  5
224B
330
1A
100
AcDbEntity
  8
細線
100
AcDbCircle
 10
12051.72765984063
 20
4334.165406131951
 30
0.0
 40
8.0
  0
LINE
  5
224C
330
1A
100
AcDbEntity
  8
部品1
100
AcDbLine
 10
12276.32755088103
 20
4489.90094961403
 30
0.0
 11
12276.32755088103
 21
4374.773551864089
 31
0.0
  0
CIRCLE
  5
224D
330
1A
100
AcDbEntity
  8
細線
100
AcDbCircle
 10
12255.50191738925
 20
4343.759777424864
 30
0.0
 40
6.0
  0
LWPOLYLINE
  5
224E
330
1A
100
AcDbEntity
  8
細線
100
AcDbPolyline
 90
        6
 70
     1
 43
0.0
 10
12249.00191738925
 20
4347.512554174596
 10
12255.50191738925
 20
4351.265330924329
 10
12262.00191738925
 20
4347.512554174596
 10
12262.00191738925
 20
4340.007000675131
 10
12255.50191738925
 20
4336.2542239254
 10
12249.00191738925
 20
4340.007000675131
  0
CIRCLE
  5
224F
330
1A
100
AcDbEntity
  8
細線
100
AcDbCircle
 10
12255.50191738925
 20
4343.759777424864
 30
0.0
 40
8.0
  0
CIRCLE
  5
2250
330
1A
100
AcDbEntity
  8
細線
100
AcDbCircle
 10
12297.15318437281
 20
4343.759777424864
 30
0.0
 40
8.0
  0
LWPOLYLINE
  5
2251
330
1A
100
AcDbEntity
  8
細線
100
AcDbPolyline
 90
        6
 70
     1
 43
0.0
 10
12303.65318437281
 20
4347.512554174596
 10
12297.15318437281
 20
4351.265330924329
 10
12290.65318437281
 20
4347.512554174596
 10
12290.65318437281
 20
4340.007000675131
 10
12297.15318437281
 20
4336.2542239254
 10
12303.65318437281
 20
4340.007000675131
  0
CIRCLE
  5
2252
330
1A
100
AcDbEntity
  8
細線
100
AcDbCircle
 10
12297.15318437281
 20
4343.759777424864
 30
0.0
 40
6.0
  0
LINE
  5
2253
330
1A
100
AcDbEntity
  8
部品1
100
AcDbLine
 10
13151.30336478207
 20
4273.510305568304
 30
0.0
 11
12563.65799497567
 21
4301.178608396691
 31
0.0
  0
LINE
  5
2254
330
1A
100
AcDbEntity
  8
部品1
100
AcDbLine
 10
12521.32755088103
 20
4299.667789483321
 30
0.0
 11
12523.72614370426
 21
4350.611353870465
 31
0.0
  0
LINE
  5
2255
330
1A
100
AcDbEntity
  8
部品1
100
AcDbLine
 10
12566.47986888534
 20
4361.112213558051
 30
0.0
 11
12563.54982314246
 21
4298.88115353217
 31
0.0
  0
LINE
  5
2256
330
1A
100
AcDbEntity
  8
部品1
100
AcDbLine
 10
12525.52523869175
 20
4363.040494062999
 30
0.0
 11
12522.59519294887
 21
4300.809434037119
 31
0.0
  0
LINE
  5
2257
330
1A
100
AcDbEntity
  8
部品1
100
AcDbLine
 10
12521.32755088103
 20
4299.667789483321
 30
0.0
 11
12519.73379724664
 21
4299.74282871694
 31
0.0
  0
LINE
  5
2258
330
1A
100
AcDbEntity
  8
部品1
100
AcDbLine
 10
12522.70336478207
 20
4303.106888901639
 30
0.0
 11
12521.49216019243
 21
4303.163916451068
 31
0.0
  0
LINE
  5
2259
330
1A
100
AcDbEntity
  8
部品1
100
AcDbLine
 10
12563.54982314246
 20
4298.88115353217
 30
0.0
 11
12522.59519294887
 21
4300.809434037119
 31
0.0
  0
CIRCLE
  5
225A
330
1A
100
AcDbEntity
  8
細線
100
AcDbCircle
 10
12500.92744192144
 20
4334.165406131951
 30
0.0
 40
8.0
  0
LWPOLYLINE
  5
225B
330
1A
100
AcDbEntity
  8
細線
100
AcDbPolyline
 90
        6
 70
     1
 43
0.0
 10
12507.42744192144
 20
4337.918182881684
 10
12500.92744192144
 20
4341.670959631415
 10
12494.42744192144
 20
4337.918182881684
 10
12494.42744192144
 20
4330.412629382219
 10
12500.92744192144
 20
4326.659852632487
 10
12507.42744192144
 20
4330.412629382219
  0
CIRCLE
  5
225C
330
1A
100
AcDbEntity
  8
細線
100
AcDbCircle
 10
12500.92744192144
 20
4334.165406131951
 30
0.0
 40
6.0
  0
CIRCLE
  5
225D
330
1A
100
AcDbEntity
  8
細線
100
AcDbCircle
 10
12399.04031314713
 20
4338.962591778408
 30
0.0
 40
8.0
  0
LWPOLYLINE
  5
225E
330
1A
100
AcDbEntity
  8
細線
100
AcDbPolyline
 90
        6
 70
     1
 43
0.0
 10
12405.54031314713
 20
4342.715368528138
 10
12399.04031314713
 20
4346.468145277873
 10
12392.54031314713
 20
4342.715368528138
 10
12392.54031314713
 20
4335.209815028675
 10
12399.04031314713
 20
4331.457038278943
 10
12405.54031314713
 20
4335.209815028675
  0
CIRCLE
  5
225F
330
1A
100
AcDbEntity
  8
細線
100
AcDbCircle
 10
12399.04031314713
 20
4338.962591778408
 30
0.0
 40
6.0
  0
ARC
  5
2260
330
1A
100
AcDbEntity
  8
部品1
100
AcDbCircle
 10
12513.7372095107
 20
4351.081666188746
 30
0.0
 40
10.0
100
AcDbArc
 50
357.3043145064257
 51
87.30431450644992
  0
LINE
  5
2261
330
1A
100
AcDbEntity
  8
部品1
100
AcDbLine
 10
13195.07986888535
 20
4331.515630224718
 30
0.0
 11
13192.14982314246
 21
4269.284570198837
 31
0.0
  0
LINE
  5
2262
330
1A
100
AcDbEntity
  8
部品1
100
AcDbLine
 10
13154.12523869175
 20
4333.443910729665
 30
0.0
 11
13151.19519294886
 21
4271.212850703785
 31
0.0
  0
LINE
  5
2263
330
1A
100
AcDbEntity
  8
部品1
100
AcDbLine
 10
13192.14982314246
 20
4269.284570198837
 30
0.0
 11
13151.19519294886
 21
4271.212850703785
 31
0.0
  0
DIMENSION
  5
2264
330
1A
100
AcDbEntity
  8
寸法
100
AcDbDimension
  2
*D20
 10
15193.45611201606
 20
2244.900949614032
 30
0.0
 11
15072.01802163522
 21
2425.303996091992
 31
0.0
 70
   160
 71
     5
 42
50.0
  3
物置仕様図40
100
AcDbAlignedDimension
 13
14676.32755088103
 23
2294.900949614032
 33
0.0
 14
15205.59992105415
 24
2244.900949614032
 34
0.0
 50
90.0
100
AcDbRotatedDimension
  0
LINE
  5
2265
330
1A
100
AcDbEntity
  8
点線
 48
50.0
100
AcDbLine
 10
13956.32755088104
 20
2294.900949614032
 30
0.0
 11
13956.32755088103
 21
1974.900949614031
 31
0.0
  0
LINE
  5
2266
330
1A
100
AcDbEntity
  8
点線
 48
50.0
100
AcDbLine
 10
13896.32755088103
 20
2294.900949614032
 30
0.0
 11
13896.32755088103
 21
1974.900949614031
 31
0.0
  0
TEXT
  5
2267
330
1A
100
AcDbEntity
  8
仕様書枠
 62
     7
 48
50.0
100
AcDbText
 10
14507.17944936723
 20
1295.557706291229
 30
0.0
 40
100.0
  1
NO.07     <縮尺> S=1/40
  7
STYLE2
100
AcDbText
  0
TEXT
  5
2268
330
1A
100
AcDbEntity
  8
文字
 62
     7
 48
50.0
100
AcDbText
 10
14658.90842121295
 20
747.8967129911416
 30
0.0
 40
160.0
  1
BF-２８AL-２
  7
MSGOTHIC
100
AcDbText
  0
TEXT
  5
2269
330
1A
100
AcDbEntity
  8
文字
 62
     7
 48
50.0
100
AcDbText
 10
14840.42318972916
 20
1102.252727072919
 30
0.0
 40
100.0
  1
～一般型～
  7
STYLE2
100
AcDbText
  0
LINE
  5
226A
330
1A
100
AcDbEntity
  8
仕様書枠
  6
Continuous
 48
50.0
100
AcDbLine
 10
14240.0
 20
1464.0
 30
0.0
 11
14240.0
 21
1064.0
 31
0.0
  0
LINE
  5
226B
330
1A
100
AcDbEntity
  8
点線
 48
50.0
100
AcDbLine
 10
13896.32755088103
 20
1974.900949614031
 30
0.0
 11
13956.32755088103
 21
1974.900949614031
 31
0.0
  0
LINE
  5
226C
330
1A
100
AcDbEntity
  8
点線
 48
50.0
100
AcDbLine
 10
13896.32755088103
 20
1974.900949614031
 30
0.0
 11
13956.32755088103
 21
1974.900949614031
 31
0.0
  0
LINE
  5
226D
330
1A
100
AcDbEntity
  8
仕様書枠
 48
50.0
100
AcDbLine
 10
16296.0
 20
1464.0
 30
0.0
 11
16296.0
 21
264.0
 31
0.0
  0
DIMENSION
  5
226E
330
1A
100
AcDbEntity
  8
寸法
100
AcDbDimension
  2
*D21
 10
14676.32755088103
 20
4849.668646643564
 30
0.0
 11
14301.32755088103
 21
4949.668646643564
 31
0.0
 70
    32
 71
     5
 42
750.0000000000018
  3
物置仕様図40
100
AcDbAlignedDimension
 13
13926.32755088103
 23
4058.920282370678
 33
0.0
 14
14676.32755088103
 24
4441.900949614032
 34
0.0
100
AcDbRotatedDimension
1001
ACAD
1000
DSTYLE
1002
{
1070
    75
1070
     1
1002
}
  0
LINE
  5
226F
330
1A
100
AcDbEntity
  8
部品1
100
AcDbLine
 10
13960.32755088103
 20
4121.854803131924
 30
0.0
 11
13960.32755088103
 21
4067.501706149989
 31
0.0
  0
LINE
  5
2270
330
1A
100
AcDbEntity
  8
部品1
100
AcDbLine
 10
13892.32755088103
 20
4120.633602700773
 30
0.0
 11
13892.32755088103
 21
4067.501706149988
 31
0.0
  0
LINE
  5
2271
330
1A
100
AcDbEntity
  8
センター
 48
10.0
100
AcDbLine
 10
13926.32755088103
 20
4058.920282370678
 30
0.0
 11
13926.32755088103
 21
2294.900949614032
 31
0.0
  0
LINE
  5
2272
330
1A
100
AcDbEntity
  8
部品1
100
AcDbLine
 10
13896.32755088103
 20
4067.501706149988
 30
0.0
 11
13896.32755088103
 21
2294.900949614032
 31
0.0
  0
LINE
  5
2273
330
1A
100
AcDbEntity
  8
部品1
100
AcDbLine
 10
13956.32755088103
 20
4067.501706149989
 30
0.0
 11
13956.32755088104
 21
2294.900949614032
 31
0.0
  0
LINE
  5
2274
330
1A
100
AcDbEntity
  8
細線
100
AcDbLine
 10
14293.99068687833
 20
2244.900949614032
 30
0.0
 11
14343.99068687833
 21
2294.900949614032
 31
0.0
  0
LINE
  5
2275
330
1A
100
AcDbEntity
  8
細線
100
AcDbLine
 10
14260.31472642432
 20
2244.900949614032
 30
0.0
 11
14310.31472642431
 21
2294.900949614032
 31
0.0
  0
LINE
  5
2276
330
1A
100
AcDbEntity
  8
細線
100
AcDbLine
 10
14327.66664733233
 20
2244.900949614032
 30
0.0
 11
14377.66664733233
 21
2294.900949614032
 31
0.0
  0
LINE
  5
2277
330
1A
100
AcDbEntity
  8
部品1
100
AcDbLine
 10
14676.32755088103
 20
2294.900949614032
 30
0.0
 11
14676.32755088103
 21
2244.900949614032
 31
0.0
  0
LINE
  5
2278
330
1A
100
AcDbEntity
  8
部品1
100
AcDbLine
 10
13960.32755088103
 20
4067.501706149989
 30
0.0
 11
13892.32755088103
 21
4067.501706149988
 31
0.0
  0
DIMENSION
  5
2279
330
1A
100
AcDbEntity
  8
寸法
100
AcDbDimension
  2
*D22
 10
15199.7331280352
 20
4237.129872606419
 30
0.0
 11
15351.26044099903
 21
4288.297757090342
 31
0.0
 70
   161
 71
     5
 42
115.0000000000009
  3
物置仕様図40
100
AcDbAlignedDimension
 13
14640.37633230062
 23
4378.593652822192
 33
0.0
 14
14634.9677406404
 24
4263.72090959625
 34
0.0
  0
LINE
  5
227A
330
1A
100
AcDbEntity
  8
部品1
100
AcDbLine
 10
14408.50336478207
 20
4214.317138901638
 30
0.0
 11
14113.69216019243
 21
4228.197833117734
 31
0.0
  0
CIRCLE
  5
227B
330
1A
100
AcDbEntity
  8
細線
100
AcDbCircle
 10
13979.22423882498
 20
4264.562265277755
 30
0.0
 40
8.0
  0
LWPOLYLINE
  5
227C
330
1A
100
AcDbEntity
  8
細線
100
AcDbPolyline
 90
        6
 70
     1
 43
0.0
 10
13985.72423882499
 20
4268.315042027484
 10
13979.22423882498
 20
4272.067818777219
 10
13972.72423882498
 20
4268.315042027484
 10
13972.72423882498
 20
4260.80948852802
 10
13979.22423882498
 20
4257.05671177829
 10
13985.72423882499
 20
4260.80948852802
  0
CIRCLE
  5
227D
330
1A
100
AcDbEntity
  8
細線
100
AcDbCircle
 10
13979.22423882498
 20
4264.562265277755
 30
0.0
 40
6.0
  0
LINE
  5
227E
330
1A
100
AcDbEntity
  8
部品1
100
AcDbLine
 10
14106.407521829
 20
4286.104517048983
 30
0.0
 11
13738.7853902161
 21
4303.413392412422
 31
0.0
  0
ARC
  5
227F
330
1A
100
AcDbEntity
  8
部品1
100
AcDbCircle
 10
14065.32755088103
 20
4121.854803131924
 30
0.0
 40
105.0
100
AcDbArc
 50
87.30431450644992
 51
180.0
  0
LINE
  5
2280
330
1A
100
AcDbEntity
  8
部品1
100
AcDbLine
 10
13816.19274650168
 20
4249.212851824651
 30
0.0
 11
13785.22705050165
 21
4250.670820011318
 31
0.0
  0
ARC
  5
2281
330
1A
100
AcDbEntity
  8
部品1
100
AcDbCircle
 10
13772.32755088103
 20
4120.633602700773
 30
0.0
 40
120.0
100
AcDbArc
 50
0.0
 51
87.30431450644992
  0
CIRCLE
  5
2282
330
1A
100
AcDbEntity
  8
細線
100
AcDbCircle
 10
13767.45883392151
 20
4274.53288642529
 30
0.0
 40
8.0
  0
LWPOLYLINE
  5
2283
330
1A
100
AcDbEntity
  8
細線
100
AcDbPolyline
 90
        6
 70
     1
 43
0.0
 10
13773.95883392151
 20
4278.285663175023
 10
13767.45883392151
 20
4282.038439924754
 10
13760.95883392151
 20
4278.285663175023
 10
13760.95883392151
 20
4270.780109675559
 10
13767.45883392151
 20
4267.027332925825
 10
13773.95883392151
 20
4270.780109675559
  0
CIRCLE
  5
2284
330
1A
100
AcDbEntity
  8
細線
100
AcDbCircle
 10
13767.45883392151
 20
4274.53288642529
 30
0.0
 40
6.0
  0
ARC
  5
2285
330
1A
100
AcDbEntity
  8
部品1
100
AcDbCircle
 10
13785.46220666079
 20
4255.6652871081
 30
0.0
 40
5.0
100
AcDbArc
 50
177.3043145064257
 51
267.3043145064499
  0
ARC
  5
2286
330
1A
100
AcDbEntity
  8
部品1
100
AcDbCircle
 10
13738.31507789782
 20
4293.42445821886
 30
0.0
 40
10.0
100
AcDbArc
 50
87.30431450644992
 51
177.3043145064257
  0
LINE
  5
2287
330
1A
100
AcDbEntity
  8
部品1
100
AcDbLine
 10
13725.92755088103
 20
4242.951206149988
 30
0.0
 11
13728.32614370426
 21
4293.894770537141
 31
0.0
  0
LINE
  5
2288
330
1A
100
AcDbEntity
  8
部品1
100
AcDbLine
 10
13777.97129870039
 20
4240.500813023494
 30
0.0
 11
13725.92755088103
 21
4242.951206149986
 31
0.0
  0
LINE
  5
2289
330
1A
100
AcDbEntity
  8
部品1
100
AcDbLine
 10
13782.72523869175
 20
4303.847327396334
 30
0.0
 11
13780.467739564
 21
4255.900443267239
 31
0.0
  0
CIRCLE
  5
228A
330
1A
100
AcDbEntity
  8
細線
100
AcDbCircle
 10
13926.32755088103
 20
4097.501706149989
 30
0.0
 40
8.0
  0
LWPOLYLINE
  5
228B
330
1A
100
AcDbEntity
  8
細線
100
AcDbPolyline
 90
        6
 70
     1
 43
0.0
 10
13932.82755088103
 20
4101.254482899721
 10
13926.32755088103
 20
4105.007259649453
 10
13919.82755088103
 20
4101.254482899721
 10
13919.82755088103
 20
4093.748929400257
 10
13926.32755088103
 20
4089.996152650525
 10
13932.82755088103
 20
4093.748929400257
  0
CIRCLE
  5
228C
330
1A
100
AcDbEntity
  8
細線
100
AcDbCircle
 10
13926.32755088103
 20
4097.501706149989
 30
0.0
 40
6.0
  0
CIRCLE
  5
228D
330
1A
100
AcDbEntity
  8
細線
100
AcDbCircle
 10
13926.32755088103
 20
4182.501706149989
 30
0.0
 40
8.0
  0
LWPOLYLINE
  5
228E
330
1A
100
AcDbEntity
  8
細線
100
AcDbPolyline
 90
        6
 70
     1
 43
0.0
 10
13932.82755088103
 20
4186.254482899721
 10
13926.32755088103
 20
4190.007259649454
 10
13919.82755088103
 20
4186.254482899721
 10
13919.82755088103
 20
4178.748929400256
 10
13926.32755088103
 20
4174.996152650525
 10
13932.82755088103
 20
4178.748929400256
  0
CIRCLE
  5
228F
330
1A
100
AcDbEntity
  8
細線
100
AcDbCircle
 10
13926.32755088103
 20
4182.501706149989
 30
0.0
 40
6.0
  0
CIRCLE
  5
2290
330
1A
100
AcDbEntity
  8
細線
100
AcDbCircle
 10
13873.34153637325
 20
4269.547575851522
 30
0.0
 40
8.0
  0
LWPOLYLINE
  5
2291
330
1A
100
AcDbEntity
  8
細線
100
AcDbPolyline
 90
        6
 70
     1
 43
0.0
 10
13879.84153637325
 20
4273.300352601254
 10
13873.34153637325
 20
4277.053129350987
 10
13866.84153637325
 20
4273.300352601254
 10
13866.84153637325
 20
4265.794799101789
 10
13873.34153637325
 20
4262.042022352058
 10
13879.84153637325
 20
4265.794799101789
  0
CIRCLE
  5
2292
330
1A
100
AcDbEntity
  8
細線
100
AcDbCircle
 10
13873.34153637325
 20
4269.547575851522
 30
0.0
 40
6.0
  0
ARC
  5
2293
330
1A
100
AcDbEntity
  8
部品1
100
AcDbCircle
 10
13816.42790266082
 20
4254.207318921431
 30
0.0
 40
5.0
100
AcDbArc
 50
267.3043145064499
 51
357.3043145064257
  0
LINE
  5
2294
330
1A
100
AcDbEntity
  8
部品1
100
AcDbLine
 10
13823.67986888535
 20
4301.919046891385
 30
0.0
 11
13821.4223697576
 21
4253.97216276229
 31
0.0
  0
CIRCLE
  5
2295
330
1A
100
AcDbEntity
  8
細線
100
AcDbCircle
 10
14085.10694127673
 20
4259.576954703986
 30
0.0
 40
6.0
  0
LWPOLYLINE
  5
2296
330
1A
100
AcDbEntity
  8
細線
100
AcDbPolyline
 90
        6
 70
     1
 43
0.0
 10
14091.60694127672
 20
4263.329731453717
 10
14085.10694127673
 20
4267.08250820345
 10
14078.60694127673
 20
4263.329731453717
 10
14078.60694127673
 20
4255.824177954253
 10
14085.10694127673
 20
4252.071401204521
 10
14091.60694127672
 20
4255.824177954253
  0
CIRCLE
  5
2297
330
1A
100
AcDbEntity
  8
細線
100
AcDbCircle
 10
14085.10694127673
 20
4259.576954703986
 30
0.0
 40
8.0
  0
ARC
  5
2298
330
1A
100
AcDbEntity
  8
部品1
100
AcDbCircle
 10
14105.93720951072
 20
4276.115582855424
 30
0.0
 40
10.0
100
AcDbArc
 50
357.3043145064257
 51
87.30431450644992
  0
LINE
  5
2299
330
1A
100
AcDbEntity
  8
部品1
100
AcDbLine
 10
14113.52755088103
 20
4224.701706149988
 30
0.0
 11
14115.92614370428
 21
4275.645270537139
 31
0.0
  0
LINE
  5
229A
330
1A
100
AcDbEntity
  8
部品1
100
AcDbLine
 10
14113.52755088103
 20
4224.701706149988
 30
0.0
 11
14070.26583022297
 21
4226.738612164305
 31
0.0
  0
LINE
  5
229B
330
1A
100
AcDbEntity
  8
部品1
100
AcDbLine
 10
14475.14546554208
 20
4208.176083237957
 30
0.0
 11
14451.31468811889
 21
4209.298115674966
 31
0.0
  0
LINE
  5
229C
330
1A
100
AcDbEntity
  8
部品1
100
AcDbLine
 10
14454.27765572405
 20
4272.228401094396
 30
0.0
 11
14451.31468811889
 21
4209.298115674968
 31
0.0
  0
LINE
  5
229D
330
1A
100
AcDbEntity
  8
部品1
100
AcDbLine
 10
14449.34982314246
 20
4210.091403532171
 30
0.0
 11
14408.39519294886
 21
4212.019684037119
 31
0.0
  0
LINE
  5
229E
330
1A
100
AcDbEntity
  8
部品1
100
AcDbLine
 10
14452.27986888534
 20
4272.322463558052
 30
0.0
 11
14449.34982314246
 21
4210.091403532171
 31
0.0
  0
LINE
  5
229F
330
1A
100
AcDbEntity
  8
部品1
100
AcDbLine
 10
14411.32523869175
 20
4274.250744062999
 30
0.0
 11
14408.39519294886
 21
4212.019684037119
 31
0.0
  0
LINE
  5
22A0
330
1A
100
AcDbEntity
  8
部品1
100
AcDbLine
 10
14451.45578181437
 20
4212.294795933035
 30
0.0
 11
14449.45799497567
 21
4212.388858396691
 31
0.0
  0
ARC
  5
22A1
330
1A
100
AcDbEntity
  8
部品1
100
AcDbCircle
 10
14492.89356599846
 20
4265.404696286361
 30
0.0
 40
5.0
100
AcDbArc
 50
345.6149453310531
 51
87.30431450644992
  0
ARC
  5
22A2
330
1A
100
AcDbEntity
  8
部品1
100
AcDbCircle
 10
14475.61577786036
 20
4218.165017431518
 30
0.0
 40
10.0
100
AcDbArc
 50
267.3043145064499
 51
345.6149453310531
  0
LINE
  5
22A3
330
1A
100
AcDbEntity
  8
部品1
100
AcDbLine
 10
14485.30225783784
 20
4215.680645147457
 30
0.0
 11
14497.7368059872
 21
4264.16251014433
 31
0.0
  0
LINE
  5
22A4
330
1A
100
AcDbEntity
  8
部品1
100
AcDbLine
 10
14653.33910878918
 20
4377.983322095855
 30
0.0
 11
14643.93494345153
 21
4263.298703797227
 31
0.0
  0
LINE
  5
22A5
330
1A
100
AcDbEntity
  8
部品1
100
AcDbLine
 10
14675.22751698825
 20
4363.485940139006
 30
0.0
 11
14667.94951077042
 21
4274.730018151369
 31
0.0
  0
ARC
  5
22A6
330
1A
100
AcDbEntity
  8
部品1
100
AcDbCircle
 10
14654.99299783398
 20
4275.792455221495
 30
0.0
 40
13.0
100
AcDbArc
 50
267.3043145064499
 51
355.312220933526
  0
ARC
  5
22A7
330
1A
100
AcDbEntity
  8
部品1
100
AcDbCircle
 10
14662.27100405182
 20
4364.54837720913
 30
0.0
 40
13.0
100
AcDbArc
 50
355.312220933526
 51
87.30431450644992
  0
LINE
  5
22A8
330
1A
100
AcDbEntity
  8
部品1
100
AcDbLine
 10
15879.76377339797
 20
9404.528408029483
 30
0.0
 11
12479.76377339797
 21
9404.528408029483
 31
0.0
  0
TEXT
  5
22A9
330
1A
100
AcDbEntity
  8
文字
 62
     7
 48
50.0
100
AcDbText
 10
12588.49093450368
 20
8518.12948247765
 30
0.0
 40
108.152
  1
PZ→一般構造用角形鋼管(JIS G 3466)
 41
0.9
  7
STYLE1
100
AcDbText
  0
TEXT
  5
22AA
330
1A
100
AcDbEntity
  8
文字
 62
     7
 48
50.0
100
AcDbText
 10
12588.49093450346
 20
8150.412682477648
 30
0.0
 40
108.152
  1
Y10→溶融亜鉛-5％アルミニウム合金めっき鋼板(JIS G 3317)
 41
0.9
  7
STYLE1
100
AcDbText
  0
TEXT
  5
22AB
330
1A
100
AcDbEntity
  8
文字
 62
     7
 48
50.0
100
AcDbText
 10
12588.49093450347
 20
8334.271082477652
 30
0.0
 40
108.152
  1
F12→溶融亜鉛めっき鋼板(JIS G 3302)
  7
STYLE1
100
AcDbText
  0
LINE
  5
22AC
330
1A
100
AcDbEntity
  8
部品1
100
AcDbLine
 10
15879.76377339797
 20
9220.670008029484
 30
0.0
 11
12479.76377339797
 21
9220.670008029484
 31
0.0
  0
LINE
  5
22AD
330
1A
100
AcDbEntity
  8
部品1
100
AcDbLine
 10
15879.76377339797
 20
10875.39560802948
 30
0.0
 11
12479.76377339797
 21
10875.39560802948
 31
0.0
  0
LINE
  5
22AE
330
1A
100
AcDbEntity
  8
部品1
100
AcDbLine
 10
15879.76377339797
 20
10691.53720802948
 30
0.0
 11
12479.76377339797
 21
10691.53720802948
 31
0.0
  0
LINE
  5
22AF
330
1A
100
AcDbEntity
  8
部品1
100
AcDbLine
 10
15879.76377339797
 20
10323.82040802948
 30
0.0
 11
12479.76377339797
 21
10323.82040802948
 31
0.0
  0
LINE
  5
22B0
330
1A
100
AcDbEntity
  8
部品1
100
AcDbLine
 10
15879.76377339797
 20
10507.67880802948
 30
0.0
 11
12479.76377339797
 21
10507.67880802948
 31
0.0
  0
LINE
  5
22B1
330
1A
100
AcDbEntity
  8
部品1
100
AcDbLine
 10
15879.76377339797
 20
9956.103608029479
 30
0.0
 11
12479.76377339797
 21
9956.103608029479
 31
0.0
  0
LINE
  5
22B2
330
1A
100
AcDbEntity
  8
部品1
100
AcDbLine
 10
15879.76377339797
 20
9772.245208029483
 30
0.0
 11
12479.76377339797
 21
9772.245208029483
 31
0.0
  0
LINE
  5
22B3
330
1A
100
AcDbEntity
  8
部品1
100
AcDbLine
 10
15879.76377339797
 20
10139.96200802948
 30
0.0
 11
12479.76377339797
 21
10139.96200802948
 31
0.0
  0
TEXT
  5
22B4
330
1A
100
AcDbEntity
  8
文字
 62
     7
 48
50.0
100
AcDbText
 10
13157.41158072827
 20
10724.43028247765
 30
0.0
 40
108.152
  1
部　　品　　名
  7
STYLE1
100
AcDbText
  0
LINE
  5
22B5
330
1A
100
AcDbEntity
  8
部品1
100
AcDbLine
 10
15879.76377339797
 20
8852.953208029477
 30
0.0
 11
12479.76377339797
 21
8852.953208029477
 31
0.0
  0
LINE
  5
22B6
330
1A
100
AcDbEntity
  8
部品1
100
AcDbLine
 10
15879.76377339797
 20
8301.378008029484
 30
0.0
 11
12479.76377339797
 21
8301.378008029486
 31
0.0
  0
LINE
  5
22B7
330
1A
100
AcDbEntity
  8
部品1
100
AcDbLine
 10
15879.76377339797
 20
8485.236408029484
 30
0.0
 11
12479.76377339797
 21
8485.236408029484
 31
0.0
  0
LINE
  5
22B8
330
1A
100
AcDbEntity
  8
部品1
100
AcDbLine
 10
15879.76377339797
 20
9588.386808029481
 30
0.0
 11
12479.76377339797
 21
9588.386808029481
 31
0.0
  0
LINE
  5
22B9
330
1A
100
AcDbEntity
  8
部品1
100
AcDbLine
 10
15879.76377339797
 20
9036.811608029481
 30
0.0
 11
12479.76377339797
 21
9036.811608029482
 31
0.0
  0
LINE
  5
22BA
330
1A
100
AcDbEntity
  8
部品1
100
AcDbLine
 10
15879.76377339797
 20
8117.519608029486
 30
0.0
 11
12479.76377339797
 21
8117.519608029487
 31
0.0
  0
LINE
  5
22BB
330
1A
100
AcDbEntity
  8
部品1
100
AcDbLine
 10
15879.76377339797
 20
8669.094808029475
 30
0.0
 11
12479.76377339797
 21
8669.094808029475
 31
0.0
  0
TEXT
  5
22BC
330
1A
100
AcDbEntity
  8
文字
 62
     7
 48
50.0
100
AcDbText
 10
12970.57829479954
 20
9621.279882477651
 30
0.0
 40
108.152
  1
屋根パネル
  7
STYLE1
100
AcDbText
  0
LINE
  5
22BD
330
1A
100
AcDbEntity
  8
部品1
100
AcDbLine
 10
12870.08541377153
 20
10875.39560802948
 30
0.0
 11
12870.08541377156
 21
8669.094808029475
 31
0.0
  0
TEXT
  5
22BE
330
1A
100
AcDbEntity
  8
文字
 62
     7
 48
50.0
100
AcDbText
 10
12633.22206730541
 20
9621.279882477651
 30
0.0
 40
108.152
  1
6
  7
STYLE1
100
AcDbText
  0
LINE
  5
22BF
330
1A
100
AcDbEntity
  8
部品1
100
AcDbLine
 10
12479.76377339797
 20
10875.39560802948
 30
0.0
 11
12479.76377339797
 21
8117.519608029487
 31
0.0
  0
TEXT
  5
22C0
330
1A
100
AcDbEntity
  8
文字
 62
     7
 48
50.0
100
AcDbText
 10
12608.98212308913
 20
8701.987882477643
 30
0.0
 40
108.152
  1
11
  7
STYLE1
100
AcDbText
  0
TEXT
  5
22C1
330
1A
100
AcDbEntity
  8
文字
 62
     7
 48
50.0
100
AcDbText
 10
12970.57829479954
 20
8701.98788247765
 30
0.0
 40
108.152
  1
棟板
  7
STYLE1
100
AcDbText
  0
TEXT
  5
22C2
330
1A
100
AcDbEntity
  8
文字
 62
     7
 48
50.0
100
AcDbText
 10
12970.57829479954
 20
9437.421482477651
 30
0.0
 40
108.152
  1
妻板
  7
STYLE1
100
AcDbText
  0
TEXT
  5
22C3
330
1A
100
AcDbEntity
  8
文字
 62
     7
 48
50.0
100
AcDbText
 10
12970.57829479954
 20
8885.846282477649
 30
0.0
 40
108.152
  1
車止メ棒
  7
STYLE1
100
AcDbText
  0
TEXT
  5
22C4
330
1A
100
AcDbEntity
  8
文字
 62
     7
 48
50.0
100
AcDbText
 10
12970.57829479954
 20
9069.704682477647
 30
0.0
 40
108.152
  1
プレート
  7
STYLE1
100
AcDbText
  0
TEXT
  5
22C5
330
1A
100
AcDbEntity
  8
文字
 62
     7
 48
50.0
100
AcDbText
 10
12970.57829479954
 20
9253.563082477651
 30
0.0
 40
108.152
  1
鼻隠シ
  7
STYLE1
100
AcDbText
  0
TEXT
  5
22C6
330
1A
100
AcDbEntity
  8
文字
 62
     7
 48
50.0
100
AcDbText
 10
12608.98212308913
 20
8885.846282477647
 30
0.0
 40
108.152
  1
10
  7
STYLE1
100
AcDbText
  0
TEXT
  5
22C7
330
1A
100
AcDbEntity
  8
文字
 62
     7
 48
50.0
100
AcDbText
 10
12633.2220673054
 20
9069.704682477647
 30
0.0
 40
108.152
  1
9
  7
STYLE1
100
AcDbText
  0
TEXT
  5
22C8
330
1A
100
AcDbEntity
  8
文字
 62
     7
 48
50.0
100
AcDbText
 10
12633.2220673054
 20
9253.563082477649
 30
0.0
 40
108.152
  1
8
  7
STYLE1
100
AcDbText
  0
TEXT
  5
22C9
330
1A
100
AcDbEntity
  8
文字
 62
     7
 48
50.0
100
AcDbText
 10
12633.2220673054
 20
9437.421482477651
 30
0.0
 40
108.152
  1
7
  7
STYLE1
100
AcDbText
  0
LINE
  5
22CA
330
1A
100
AcDbEntity
  8
寸法
100
AcDbLine
 10
8633.537714463043
 20
10706.70309759781
 30
0.0
 11
8633.537714463043
 21
11006.70309759781
 31
0.0
  0
TEXT
  5
22CB
330
1A
100
AcDbEntity
  8
文字
 62
     7
 48
50.0
100
AcDbText
 10
12633.22206730541
 20
10540.57188247765
 30
0.0
 40
108.152
  1
1
  7
STYLE1
100
AcDbText
  0
TEXT
  5
22CC
330
1A
100
AcDbEntity
  8
文字
 62
     7
 48
50.0
100
AcDbText
 10
12970.57829479953
 20
10540.57188247765
 30
0.0
 40
108.152
  1
柱
  7
STYLE1
100
AcDbText
  0
TEXT
  5
22CD
330
1A
100
AcDbEntity
  8
文字
 62
     7
 48
50.0
100
AcDbText
 10
12970.57829479954
 20
9805.138282477649
 30
0.0
 40
108.152
  1
腰パネル
  7
STYLE1
100
AcDbText
  0
TEXT
  5
22CE
330
1A
100
AcDbEntity
  8
文字
 62
     7
 48
50.0
100
AcDbText
 10
12970.57829479954
 20
10356.71348247765
 30
0.0
 40
108.152
  1
梁
  7
STYLE1
100
AcDbText
  0
TEXT
  5
22CF
330
1A
100
AcDbEntity
  8
文字
 62
     7
 48
50.0
100
AcDbText
 10
12970.57829479954
 20
10172.85508247765
 30
0.0
 40
108.152
  1
母屋
  7
STYLE1
100
AcDbText
  0
TEXT
  5
22D0
330
1A
100
AcDbEntity
  8
文字
 62
     7
 48
50.0
100
AcDbText
 10
12970.57829479954
 20
9988.996682477655
 30
0.0
 40
108.152
  1
梁中屋根板
  7
STYLE1
100
AcDbText
  0
TEXT
  5
22D1
330
1A
100
AcDbEntity
  8
文字
 62
     7
 48
50.0
100
AcDbText
 10
12633.22206730541
 20
9988.996682477649
 30
0.0
 40
108.152
  1
4
  7
STYLE1
100
AcDbText
  0
TEXT
  5
22D2
330
1A
100
AcDbEntity
  8
文字
 62
     7
 48
50.0
100
AcDbText
 10
12633.22206730541
 20
9805.138282477647
 30
0.0
 40
108.152
  1
5
  7
STYLE1
100
AcDbText
  0
TEXT
  5
22D3
330
1A
100
AcDbEntity
  8
文字
 62
     7
 48
50.0
100
AcDbText
 10
12633.22206730541
 20
10356.71348247765
 30
0.0
 40
108.152
  1
2
  7
STYLE1
100
AcDbText
  0
TEXT
  5
22D4
330
1A
100
AcDbEntity
  8
文字
 62
     7
 48
50.0
100
AcDbText
 10
12633.22206730541
 20
10172.85508247765
 30
0.0
 40
108.152
  1
3
  7
STYLE1
100
AcDbText
  0
TEXT
  5
22D5
330
1A
100
AcDbEntity
  8
文字
 62
     7
 48
50.0
100
AcDbText
 10
12553.44359650605
 20
10724.43028247765
 30
0.0
 40
108.152
  1
品番
  7
STYLE1
100
AcDbText
  0
LINE
  5
22D6
330
1A
100
AcDbEntity
  8
部品1
100
AcDbLine
 10
15879.76377339797
 20
8117.519608029486
 30
0.0
 11
15879.76377339797
 21
10875.39560802948
 31
0.0
  0
LINE
  5
22D7
330
1A
100
AcDbEntity
  8
部品1
100
AcDbLine
 10
14233.69033339797
 20
10875.39560802948
 30
0.0
 11
14233.69033339797
 21
8669.094808029475
 31
0.0
  0
TEXT
  5
22D8
330
1A
100
AcDbEntity
  8
文字
 62
     7
 48
50.0
100
AcDbText
 10
14469.03952934413
 20
9621.279882477651
 30
0.0
 40
108.152
  1
Y10            0.5
  7
STYLE1
100
AcDbText
  0
TEXT
  5
22D9
330
1A
100
AcDbEntity
  8
文字
 62
     7
 48
50.0
100
AcDbText
 10
14490.48606879799
 20
8885.846282477649
 30
0.0
 40
108.152
  1
F12            1.2
  7
STYLE1
100
AcDbText
  0
TEXT
  5
22DA
330
1A
100
AcDbEntity
  8
文字
 62
     7
 48
50.0
100
AcDbText
 10
14469.03952934413
 20
9437.421482477651
 30
0.0
 40
108.152
  1
Y10            0.7
  7
STYLE1
100
AcDbText
  0
TEXT
  5
22DB
330
1A
100
AcDbEntity
  8
文字
 62
     7
 48
50.0
100
AcDbText
 10
14469.03952934413
 20
9253.563082477651
 30
0.0
 40
108.152
  1
Y10            0.7
  7
STYLE1
100
AcDbText
  0
TEXT
  5
22DC
330
1A
100
AcDbEntity
  8
文字
 62
     7
 48
50.0
100
AcDbText
 10
14490.48606879797
 20
9069.704682477647
 30
0.0
 40
108.152
  1
F12            2.3
  7
STYLE1
100
AcDbText
  0
TEXT
  5
22DD
330
1A
100
AcDbEntity
  8
文字
 62
     7
 48
50.0
100
AcDbText
 10
14469.03952934413
 20
8701.987882477645
 30
0.0
 40
108.152
  1
Y10            1.0
  7
STYLE1
100
AcDbText
  0
TEXT
  5
22DE
330
1A
100
AcDbEntity
  8
文字
 62
     7
 48
50.0
100
AcDbText
 10
14314.36928780852
 20
10724.43028247765
 30
0.0
 40
108.152
  1
材料（材質）　　単位mm
  7
STYLE1
100
AcDbText
  0
TEXT
  5
22DF
330
1A
100
AcDbEntity
  8
文字
 62
     7
 48
50.0
100
AcDbText
 10
14490.48606879797
 20
10540.57188247765
 30
0.0
 40
108.152
  1
PZ            2.3
  7
STYLE1
100
AcDbText
  0
TEXT
  5
22E0
330
1A
100
AcDbEntity
  8
文字
 62
     7
 48
50.0
100
AcDbText
 10
14490.48606879798
 20
10172.85508247765
 30
0.0
 40
108.152
  1
F12            1.6
  7
STYLE1
100
AcDbText
  0
TEXT
  5
22E1
330
1A
100
AcDbEntity
  8
文字
 62
     7
 48
50.0
100
AcDbText
 10
14490.48606879796
 20
10356.71348247765
 30
0.0
 40
108.152
  1
PZ            2.3
  7
STYLE1
100
AcDbText
  0
TEXT
  5
22E2
330
1A
100
AcDbEntity
  8
文字
 62
     7
 48
50.0
100
AcDbText
 10
14469.03952934413
 20
9805.138282477649
 30
0.0
 40
108.152
  1
Y10            0.6
  7
STYLE1
100
AcDbText
  0
TEXT
  5
22E3
330
1A
100
AcDbEntity
  8
文字
 62
     7
 48
50.0
100
AcDbText
 10
14469.03952934413
 20
9988.996682477649
 30
0.0
 40
108.152
  1
Y10            1.0
  7
STYLE1
100
AcDbText
  0
VIEWPORT
  5
22
102
{ACAD_XDICTIONARY
360
2834
102
}
330
17
100
AcDbEntity
 67
     1
  8
0
100
AcDbViewport
 10
261.5176991150442
 20
154.7242978687078
 30
0.0
 40
523.0353982300885
 41
309.4485957374157
 68
     1
 69
     1
 12
261.5176991150442
 22
154.7242978687078
 13
0.0
 23
0.0
 14
1.0
 24
1.0
 15
10.0
 25
10.0
 16
0.0
 26
0.0
 36
1.0
 17
0.0
 27
0.0
 37
0.0
 42
50.0
 43
0.0
 44
0.0
 45
309.4485957374157
 50
0.0
 51
0.0
 72
   100
 90
    32768
  1

281
     0
 71
     1
 74
     0
110
0.0
120
0.0
130
0.0
111
1.0
121
0.0
131
0.0
112
0.0
122
1.0
132
0.0
 79
     0
146
0.0
  0
ENDSEC
  0
SECTION
  2
OBJECTS
  0
DICTIONARY
  5
C
330
0
100
AcDbDictionary
281
     1
  3
ACAD_COLOR
350
17B3
  3
ACAD_GROUP
350
D
  3
ACAD_LAYOUT
350
17B4
  3
ACAD_MATERIAL
350
17B2
  3
ACAD_MLINESTYLE
350
E
  3
ACAD_PLOTSETTINGS
350
17B5
  3
ACAD_PLOTSTYLENAME
350
17B0
  3
ACDBHEADERROUNDTRIPXREC
350
2831
  3
AcDbVariableDictionary
350
282D
  0
DICTIONARY
  5
17DD
330
2
100
AcDbDictionary
280
     1
281
     1
  3
ACAD_LAYERFILTERS
360
18C5
  3
ACAD_LAYERSTATES
360
17DE
  0
DICTIONARY
  5
2834
330
22
100
AcDbDictionary
280
     1
281
     1
  3
ACAD_XREC_ROUNDTRIP
360
2835
  0
DICTIONARY
  5
17B3
102
{ACAD_REACTORS
330
C
102
}
330
C
100
AcDbDictionary
281
     1
  0
DICTIONARY
  5
D
102
{ACAD_REACTORS
330
C
102
}
330
C
100
AcDbDictionary
281
     1
  0
DICTIONARY
  5
17B4
102
{ACAD_REACTORS
330
C
102
}
330
C
100
AcDbDictionary
281
     1
  3
Model
350
17B6
  3
レイアウト1
350
17B7
  0
DICTIONARY
  5
17B2
102
{ACAD_REACTORS
330
C
102
}
330
C
100
AcDbDictionary
281
     1
  0
DICTIONARY
  5
E
102
{ACAD_REACTORS
330
C
102
}
330
C
100
AcDbDictionary
281
     1
  3
STANDARD
350
13
  0
DICTIONARY
  5
17B5
102
{ACAD_REACTORS
330
C
102
}
330
C
100
AcDbDictionary
281
     1
  0
ACDBDICTIONARYWDFLT
  5
17B0
102
{ACAD_REACTORS
330
C
102
}
330
C
100
AcDbDictionary
281
     1
  3
Normal
350
17B1
100
AcDbDictionaryWithDefault
340
17B1
  0
DICTIONARY
  5
2831
102
{ACAD_REACTORS
330
C
102
}
330
C
100
AcDbDictionary
281
     1
  3
COLORDICT
350
2833
  3
MATERIALDICT
350
2832
  0
DICTIONARY
  5
282D
102
{ACAD_REACTORS
330
C
102
}
330
C
100
AcDbDictionary
281
     1
  3
DIMASSOC
350
282E
  3
PROJECTNAME
350
282F
  0
DICTIONARY
  5
18C5
102
{ACAD_REACTORS
330
17DD
102
}
330
17DD
100
AcDbDictionary
281
     1
  0
DICTIONARY
  5
17DE
102
{ACAD_REACTORS
330
17DD
102
}
330
17DD
100
AcDbDictionary
281
     1
  0
XRECORD
  5
2835
102
{ACAD_REACTORS
330
2834
102
}
330
2834
100
AcDbXrecord
280
     1
102
SHADEPLOT
 70
     0
  0
LAYOUT
  5
17B6
102
{ACAD_XDICTIONARY
360
2836
102
}
102
{ACAD_REACTORS
330
17B4
102
}
330
17B4
100
AcDbPlotSettings
  1

  2
iR C3880
  4
A3
  6

 40
5.873749732971191
 41
5.873747825622558
 42
5.873748779296875
 43
5.873748779296875
 44
296.9259948730469
 45
419.9466552734374
 46
0.0
 47
0.0
 48
0.0
 49
0.0
140
0.0
141
0.0
142
1.0
143
40.0
 70
 11952
 72
     1
 73
     1
 74
     2
  7
inaba.ctb
 75
    24
147
0.025
148
0.0
149
0.0
100
AcDbLayout
  1
Model
 70
     1
 71
     0
 10
0.0
 20
0.0
 11
12.0
 21
9.0
 12
0.0
 22
0.0
 32
0.0
 14
0.0
 24
0.0
 34
0.0
 15
0.0
 25
0.0
 35
0.0
146
0.0
 13
0.0
 23
0.0
 33
0.0
 16
1.0
 26
0.0
 36
0.0
 17
0.0
 27
1.0
 37
0.0
 76
     0
330
1A
  0
LAYOUT
  5
17B7
102
{ACAD_XDICTIONARY
360
2838
102
}
102
{ACAD_REACTORS
330
17B4
102
}
330
17B4
100
AcDbPlotSettings
  1

  2
自動 EPSON LP-8400FX (TATENO 上)
  4

  6

 40
0.0
 41
0.0
 42
0.0
 43
0.0
 44
0.0
 45
0.0
 46
0.0
 47
0.0
 48
0.0
 49
0.0
140
0.0
141
0.0
142
1.0
143
1.0
 70
   688
 72
     0
 73
     0
 74
     5
  7
inaba.ctb
 75
    16
147
1.0
148
0.0
149
0.0
100
AcDbLayout
  1
レイアウト1
 70
     1
 71
     1
 10
0.0
 20
0.0
 11
420.0
 21
297.0
 12
0.0
 22
0.0
 32
0.0
 14
1.000000000000000E+20
 24
1.000000000000000E+20
 34
1.000000000000000E+20
 15
-1.000000000000000E+20
 25
-1.000000000000000E+20
 35
-1.000000000000000E+20
146
0.0
 13
0.0
 23
0.0
 33
0.0
 16
1.0
 26
0.0
 36
0.0
 17
0.0
 27
1.0
 37
0.0
 76
     0
330
17
331
22
  0
MLINESTYLE
  5
13
102
{ACAD_REACTORS
330
E
102
}
330
E
100
AcDbMlineStyle
  2
STANDARD
 70
     0
  3

 62
     0
 51
90.0
 52
90.0
 71
     2
 49
0.5
 62
   256
  6
BYLAYER
 49
-0.5
 62
   256
  6
BYLAYER
  0
ACDBPLACEHOLDER
  5
17B1
102
{ACAD_REACTORS
330
17B0
102
}
330
17B0
  0
XRECORD
  5
2833
102
{ACAD_REACTORS
330
2831
102
}
330
2831
100
AcDbXrecord
280
     1
340
17B3
  0
XRECORD
  5
2832
102
{ACAD_REACTORS
330
2831
102
}
330
2831
100
AcDbXrecord
280
     1
340
17B2
  0
DICTIONARYVAR
  5
282E
102
{ACAD_REACTORS
330
282D
102
}
330
282D
100
DictionaryVariables
280
     0
  1
1
  0
DICTIONARYVAR
  5
282F
102
{ACAD_REACTORS
330
282D
102
}
330
282D
100
DictionaryVariables
280
     0
  1

  0
DICTIONARY
  5
2836
330
17B6
100
AcDbDictionary
280
     1
281
     1
  3
ACAD_XREC_ROUNDTRIP
360
2837
  0
DICTIONARY
  5
2838
330
17B7
100
AcDbDictionary
280
     1
281
     1
  3
ACAD_XREC_ROUNDTRIP
360
2839
  0
XRECORD
  5
2837
102
{ACAD_REACTORS
330
2836
102
}
330
2836
100
AcDbXrecord
280
     1
102
SHADEPLOT
 70
     0
102
SHADEPLOTRESLEVEL
 70
     2
102
SHADEPLOTCUSTOMDPI
 70
   300
  0
XRECORD
  5
2839
102
{ACAD_REACTORS
330
2838
102
}
330
2838
100
AcDbXrecord
280
     1
102
SHADEPLOT
 70
     0
102
SHADEPLOTRESLEVEL
 70
     2
102
SHADEPLOTCUSTOMDPI
 70
   300
  0
ENDSEC
  0
EOF
