  0
SECTION
  2
HEADER
  9
$ACADVER
  1
AC1015
  9
$ACADMAINTVER
 70
    20
  9
$DWGCODEPAGE
  3
ANSI_932
  9
$INSBASE
 10
0.0
 20
0.0
 30
0.0
  9
$EXTMIN
 10
128.8000000000011
 20
264.0
 30
0.0
  9
$EXTMAX
 10
16296.0
 20
11042.28735663808
 30
0.0
  9
$LIMMIN
 10
0.0
 20
0.0
  9
$LIMMAX
 10
16800.0
 20
11880.0
  9
$ORTHOMODE
 70
     0
  9
$REGENMODE
 70
     1
  9
$FILLMODE
 70
     1
  9
$QTEXTMODE
 70
     0
  9
$MIRRTEXT
 70
     1
  9
$LTSCALE
 40
7.0
  9
$ATTMODE
 70
     1
  9
$TEXTSIZE
 40
3.5
  9
$TRACEWID
 40
1.0
  9
$TEXTSTYLE
  7
MSGOTHIC
  9
$CLAYER
  8
仕様書枠
  9
$CELTYPE
  6
BYLAYER
  9
$CECOLOR
 62
   256
  9
$CELTSCALE
 40
50.0
  9
$DISPSILH
 70
     0
  9
$DIMSCALE
 40
40.0
  9
$DIMASZ
 40
2.5
  9
$DIMEXO
 40
1.0
  9
$DIMDLI
 40
7.0
  9
$DIMRND
 40
0.0
  9
$DIMDLE
 40
0.0
  9
$DIMEXE
 40
1.0
  9
$DIMTP
 40
0.0
  9
$DIMTM
 40
0.0
  9
$DIMTXT
 40
3.0
  9
$DIMCEN
 40
2.5
  9
$DIMTSZ
 40
0.0
  9
$DIMTOL
 70
     0
  9
$DIMLIM
 70
     0
  9
$DIMTIH
 70
     0
  9
$DIMTOH
 70
     0
  9
$DIMSE1
 70
     0
  9
$DIMSE2
 70
     0
  9
$DIMTAD
 70
     3
  9
$DIMZIN
 70
     8
  9
$DIMBLK
  1

  9
$DIMASO
 70
     1
  9
$DIMSHO
 70
     1
  9
$DIMPOST
  1

  9
$DIMAPOST
  1

  9
$DIMALT
 70
     0
  9
$DIMALTD
 70
     2
  9
$DIMALTF
 40
0.0394
  9
$DIMLFAC
 40
1.0
  9
$DIMTOFL
 70
     0
  9
$DIMTVP
 40
1.0
  9
$DIMTIX
 70
     0
  9
$DIMSOXD
 70
     0
  9
$DIMSAH
 70
     1
  9
$DIMBLK1
  1
DOTSMALL
  9
$DIMBLK2
  1
DOTSMALL
  9
$DIMSTYLE
  2
物置仕様図40
  9
$DIMCLRD
 70
     4
  9
$DIMCLRE
 70
     4
  9
$DIMCLRT
 70
     7
  9
$DIMTFAC
 40
1.0
  9
$DIMGAP
 40
1.0
  9
$DIMJUST
 70
     0
  9
$DIMSD1
 70
     0
  9
$DIMSD2
 70
     0
  9
$DIMTOLJ
 70
     1
  9
$DIMTZIN
 70
     8
  9
$DIMALTZ
 70
     0
  9
$DIMALTTZ
 70
     0
  9
$DIMUPT
 70
     0
  9
$DIMDEC
 70
     2
  9
$DIMTDEC
 70
     2
  9
$DIMALTU
 70
     2
  9
$DIMALTTD
 70
     2
  9
$DIMTXSTY
  7
STANDARD
  9
$DIMAUNIT
 70
     0
  9
$DIMADEC
 70
     0
  9
$DIMALTRND
 40
0.0
  9
$DIMAZIN
 70
     0
  9
$DIMDSEP
 70
    46
  9
$DIMATFIT
 70
     3
  9
$DIMFRAC
 70
     0
  9
$DIMLDRBLK
  1

  9
$DIMLUNIT
 70
     2
  9
$DIMLWD
 70
    -2
  9
$DIMLWE
 70
    -2
  9
$DIMTMOVE
 70
     2
  9
$LUNITS
 70
     2
  9
$LUPREC
 70
     1
  9
$SKETCHINC
 40
1.0
  9
$FILLETRAD
 40
5.0
  9
$AUNITS
 70
     0
  9
$AUPREC
 70
     1
  9
$MENU
  1
.
  9
$ELEVATION
 40
0.0
  9
$PELEVATION
 40
0.0
  9
$THICKNESS
 40
0.0
  9
$LIMCHECK
 70
     0
  9
$CHAMFERA
 40
400.0
  9
$CHAMFERB
 40
400.0
  9
$CHAMFERC
 40
800.0
  9
$CHAMFERD
 40
0.0
  9
$SKPOLY
 70
     0
  9
$TDCREATE
 40
2450696.487780324
  9
$TDUCREATE
 40
2450696.112780324
  9
$TDUPDATE
 40
2455579.570431493
  9
$TDUUPDATE
 40
2455579.195431493
  9
$TDINDWG
 40
0.4355575116
  9
$TDUSRTIMER
 40
0.4355575116
  9
$USRTIMER
 70
     1
  9
$ANGBASE
 50
0.0
  9
$ANGDIR
 70
     0
  9
$PDMODE
 70
     0
  9
$PDSIZE
 40
0.0
  9
$PLINEWID
 40
0.0
  9
$SPLFRAME
 70
     0
  9
$SPLINETYPE
 70
     6
  9
$SPLINESEGS
 70
     8
  9
$HANDSEED
  5
2639
  9
$SURFTAB1
 70
     6
  9
$SURFTAB2
 70
     6
  9
$SURFTYPE
 70
     6
  9
$SURFU
 70
     6
  9
$SURFV
 70
     6
  9
$UCSBASE
  2

  9
$UCSNAME
  2

  9
$UCSORG
 10
0.0
 20
0.0
 30
0.0
  9
$UCSXDIR
 10
1.0
 20
0.0
 30
0.0
  9
$UCSYDIR
 10
0.0
 20
1.0
 30
0.0
  9
$UCSORTHOREF
  2

  9
$UCSORTHOVIEW
 70
     0
  9
$UCSORGTOP
 10
0.0
 20
0.0
 30
0.0
  9
$UCSORGBOTTOM
 10
0.0
 20
0.0
 30
0.0
  9
$UCSORGLEFT
 10
0.0
 20
0.0
 30
0.0
  9
$UCSORGRIGHT
 10
0.0
 20
0.0
 30
0.0
  9
$UCSORGFRONT
 10
0.0
 20
0.0
 30
0.0
  9
$UCSORGBACK
 10
0.0
 20
0.0
 30
0.0
  9
$PUCSBASE
  2

  9
$PUCSNAME
  2

  9
$PUCSORG
 10
0.0
 20
0.0
 30
0.0
  9
$PUCSXDIR
 10
1.0
 20
0.0
 30
0.0
  9
$PUCSYDIR
 10
0.0
 20
1.0
 30
0.0
  9
$PUCSORTHOREF
  2

  9
$PUCSORTHOVIEW
 70
     0
  9
$PUCSORGTOP
 10
0.0
 20
0.0
 30
0.0
  9
$PUCSORGBOTTOM
 10
0.0
 20
0.0
 30
0.0
  9
$PUCSORGLEFT
 10
0.0
 20
0.0
 30
0.0
  9
$PUCSORGRIGHT
 10
0.0
 20
0.0
 30
0.0
  9
$PUCSORGFRONT
 10
0.0
 20
0.0
 30
0.0
  9
$PUCSORGBACK
 10
0.0
 20
0.0
 30
0.0
  9
$USERI1
 70
     0
  9
$USERI2
 70
     0
  9
$USERI3
 70
     0
  9
$USERI4
 70
     0
  9
$USERI5
 70
     0
  9
$USERR1
 40
0.0
  9
$USERR2
 40
0.0
  9
$USERR3
 40
0.0
  9
$USERR4
 40
0.0
  9
$USERR5
 40
0.0
  9
$WORLDVIEW
 70
     1
  9
$SHADEDGE
 70
     3
  9
$SHADEDIF
 70
    70
  9
$TILEMODE
 70
     1
  9
$MAXACTVP
 70
    16
  9
$PINSBASE
 10
0.0
 20
0.0
 30
0.0
  9
$PLIMCHECK
 70
     0
  9
$PEXTMIN
 10
1.000000000000000E+20
 20
1.000000000000000E+20
 30
1.000000000000000E+20
  9
$PEXTMAX
 10
-1.000000000000000E+20
 20
-1.000000000000000E+20
 30
-1.000000000000000E+20
  9
$PLIMMIN
 10
0.0
 20
0.0
  9
$PLIMMAX
 10
420.0
 20
297.0
  9
$UNITMODE
 70
     0
  9
$VISRETAIN
 70
     0
  9
$PLINEGEN
 70
     0
  9
$PSLTSCALE
 70
     1
  9
$TREEDEPTH
 70
  3020
  9
$CMLSTYLE
  2
STANDARD
  9
$CMLJUST
 70
     0
  9
$CMLSCALE
 40
1.0
  9
$PROXYGRAPHICS
 70
     1
  9
$MEASUREMENT
 70
     1
  9
$CELWEIGHT
370
    -1
  9
$ENDCAPS
280
     0
  9
$JOINSTYLE
280
     0
  9
$LWDISPLAY
290
     0
  9
$INSUNITS
 70
     0
  9
$HYPERLINKBASE
  1

  9
$STYLESHEET
  1
inaba.ctb
  9
$XEDIT
290
     1
  9
$CEPSNTYPE
380
     0
  9
$PSTYLEMODE
290
     1
  9
$FINGERPRINTGUID
  2
{79BAF060-0357-455F-9BB3-0AEA31AB33DF}
  9
$VERSIONGUID
  2
{2B988EF3-44FD-4E61-A6D0-552AC5C98903}
  9
$EXTNAMES
290
     1
  9
$PSVPSCALE
 40
0.0
  9
$OLESTARTUP
290
     0
  0
ENDSEC
  0
SECTION
  2
CLASSES
  0
CLASS
  1
ACDBDICTIONARYWDFLT
  2
AcDbDictionaryWithDefault
  3
ObjectDBX Classes
 90
        0
280
     0
281
     0
  0
CLASS
  1
DICTIONARYVAR
  2
AcDbDictionaryVar
  3
ObjectDBX Classes
 90
        0
280
     0
281
     0
  0
CLASS
  1
ACDBPLACEHOLDER
  2
AcDbPlaceHolder
  3
ObjectDBX Classes
 90
        0
280
     0
281
     0
  0
CLASS
  1
LAYOUT
  2
AcDbLayout
  3
ObjectDBX Classes
 90
        0
280
     0
281
     0
  0
ENDSEC
  0
SECTION
  2
TABLES
  0
TABLE
  2
VPORT
  5
8
330
0
100
AcDbSymbolTable
 70
     2
  0
VPORT
  5
262F
330
8
100
AcDbSymbolTableRecord
100
AcDbViewportTableRecord
  2
*Active
 70
     0
 10
0.0
 20
0.0
 11
1.0
 21
1.0
 12
10067.6157982568
 22
5653.133267072416
 13
0.0
 23
0.0
 14
420.0
 24
420.0
 15
420.0
 25
420.0
 16
0.0
 26
0.0
 36
1.0
 17
0.0
 27
0.0
 37
0.0
 40
13252.7886968784
 41
1.5075
 42
50.0
 43
0.0
 44
0.0
 50
0.0
 51
0.0
 71
     0
 72
   100
 73
     1
 74
     0
 75
     0
 76
     0
 77
     0
 78
     1
281
     0
 65
     1
110
0.0
120
0.0
130
0.0
111
1.0
121
0.0
131
0.0
112
0.0
122
1.0
132
0.0
 79
     0
146
0.0
  0
ENDTAB
  0
TABLE
  2
LTYPE
  5
5
330
0
100
AcDbSymbolTable
 70
     3
  0
LTYPE
  5
14
330
5
100
AcDbSymbolTableRecord
100
AcDbLinetypeTableRecord
  2
BYBLOCK
 70
     0
  3

 72
    65
 73
     0
 40
0.0
  0
LTYPE
  5
15
330
5
100
AcDbSymbolTableRecord
100
AcDbLinetypeTableRecord
  2
BYLAYER
 70
     0
  3

 72
    65
 73
     0
 40
0.0
  0
LTYPE
  5
16
330
5
100
AcDbSymbolTableRecord
100
AcDbLinetypeTableRecord
  2
CONTINUOUS
 70
     0
  3
Solid line
 72
    65
 73
     0
 40
0.0
  0
LTYPE
  5
61
330
5
100
AcDbSymbolTableRecord
100
AcDbLinetypeTableRecord
  2
CENTER
 70
     0
  3
____ _ ____ _ ____ _ ____ _ ____ _ ____ _ ____ 
 72
    65
 73
     4
 40
2.0
 49
1.25
 74
     0
 49
-0.25
 74
     0
 49
0.25
 74
     0
 49
-0.25
 74
     0
  0
LTYPE
  5
62
330
5
100
AcDbSymbolTableRecord
100
AcDbLinetypeTableRecord
  2
HIDDEN
 70
     0
  3
__ __ __ __ __ __ __ __ __ __ __ __ __ __ __ __
 72
    65
 73
     2
 40
0.375
 49
0.25
 74
     0
 49
-0.125
 74
     0
  0
ENDTAB
  0
TABLE
  2
LAYER
  5
2
102
{ACAD_XDICTIONARY
360
17DD
102
}
330
0
100
AcDbSymbolTable
 70
    10
  0
LAYER
  5
F
330
2
100
AcDbSymbolTableRecord
100
AcDbLayerTableRecord
  2
0
 70
     0
 62
     7
  6
CONTINUOUS
370
    -3
390
17B1
  0
LAYER
  5
63
330
2
100
AcDbSymbolTableRecord
100
AcDbLayerTableRecord
  2
細線
 70
     0
 62
     5
  6
CONTINUOUS
370
    -3
390
17B1
  0
LAYER
  5
64
330
2
100
AcDbSymbolTableRecord
100
AcDbLayerTableRecord
  2
寸法
 70
     0
 62
     4
  6
CONTINUOUS
370
    -3
390
17B1
  0
LAYER
  5
65
330
2
100
AcDbSymbolTableRecord
100
AcDbLayerTableRecord
  2
センター
 70
     0
 62
     3
  6
CENTER
370
    -3
390
17B1
  0
LAYER
  5
92A
330
2
100
AcDbSymbolTableRecord
100
AcDbLayerTableRecord
  2
DEFPOINTS
 70
     0
 62
     7
  6
CONTINUOUS
290
     0
370
    -3
390
17B1
  0
LAYER
  5
118B
330
2
100
AcDbSymbolTableRecord
100
AcDbLayerTableRecord
  2
Ｇ．Ｌ
 70
     0
 62
    30
  6
CONTINUOUS
370
    -3
390
17B1
  0
LAYER
  5
13EC
330
2
100
AcDbSymbolTableRecord
100
AcDbLayerTableRecord
  2
文字
 70
     0
 62
     7
  6
CONTINUOUS
370
    -3
390
17B1
  0
LAYER
  5
13ED
330
2
100
AcDbSymbolTableRecord
100
AcDbLayerTableRecord
  2
仕様書枠
 70
     0
 62
   230
  6
CONTINUOUS
370
    -3
390
17B1
  0
LAYER
  5
1748
330
2
100
AcDbSymbolTableRecord
100
AcDbLayerTableRecord
  2
部品1
 70
     0
 62
     7
  6
CONTINUOUS
370
    -3
390
17B1
  0
LAYER
  5
187A
330
2
100
AcDbSymbolTableRecord
100
AcDbLayerTableRecord
  2
点線
 70
     0
 62
     2
  6
HIDDEN
370
    -3
390
17B1
  0
ENDTAB
  0
TABLE
  2
STYLE
  5
3
330
0
100
AcDbSymbolTable
 70
     7
  0
STYLE
  5
10
330
3
100
AcDbSymbolTableRecord
100
AcDbTextStyleTableRecord
  2
STANDARD
 70
     0
 40
0.0
 41
1.0
 50
0.0
 71
     0
 42
100.0
  3
ISOCP
  4
C:\Program Files\AutoCAD LT\bigfont.shx
  0
STYLE
  5
373
330
3
100
AcDbSymbolTableRecord
100
AcDbTextStyleTableRecord
  2
MSGOTHIC
 70
     0
 40
0.0
 41
1.0
 50
0.0
 71
     0
 42
3.5
  3
MS PGothic.ttf
  4

1001
ACAD
1000
MS PGothic
1071
    32818
  0
STYLE
  5
374
330
3
100
AcDbSymbolTableRecord
100
AcDbTextStyleTableRecord
  2
MSMINCHO
 70
     0
 40
0.0
 41
1.0
 50
0.0
 71
     0
 42
1.199999999999999
  3
msminch2.TTF
  4

  0
STYLE
  5
13EE
330
3
100
AcDbSymbolTableRecord
100
AcDbTextStyleTableRecord
  2
STYLE2
 70
     0
 40
0.0
 41
1.0
 50
0.0
 71
     0
 42
100.0
  3
MS PGothic.ttf
  4

1001
ACAD
1000
MS PGothic
1071
    32818
  0
STYLE
  5
17DC
330
3
100
AcDbSymbolTableRecord
100
AcDbTextStyleTableRecord
  2
STYLE1
 70
     0
 40
0.0
 41
1.0
 50
0.0
 71
     0
 42
4.0
  3
isocp.shx
  4
bigfont.shx
  0
STYLE
  5
19E4
330
3
100
AcDbSymbolTableRecord
100
AcDbTextStyleTableRecord
  2

 70
     1
 40
0.0
 41
1.0
 50
0.0
 71
     0
 42
100.0
  3
ltypeshp.shx
  4

  0
STYLE
  5
19E5
330
3
100
AcDbSymbolTableRecord
100
AcDbTextStyleTableRecord
  2
STYLE3
 70
     0
 40
0.0
 41
1.0
 50
0.0
 71
     0
 42
100.0
  3
MS PGothic.ttf
  4

1001
ACAD
1000
MS PGothic
1071
    32818
  0
ENDTAB
  0
TABLE
  2
VIEW
  5
6
330
0
100
AcDbSymbolTable
 70
     0
  0
ENDTAB
  0
TABLE
  2
UCS
  5
7
330
0
100
AcDbSymbolTable
 70
     0
  0
ENDTAB
  0
TABLE
  2
APPID
  5
9
330
0
100
AcDbSymbolTable
 70
     1
  0
APPID
  5
11
330
9
100
AcDbSymbolTableRecord
100
AcDbRegAppTableRecord
  2
ACAD
 70
     0
  0
ENDTAB
  0
TABLE
  2
DIMSTYLE
  5
A
330
0
100
AcDbSymbolTable
 70
     3
100
AcDbDimStyleTable
 71
     1
340
92
  0
DIMSTYLE
105
1D
330
A
100
AcDbSymbolTableRecord
100
AcDbDimStyleTableRecord
  2
STANDARD
 70
     0
340
10
  0
DIMSTYLE
105
92
102
{ACAD_REACTORS
330
1F45
330
1F96
330
1F9B
330
1FAD
330
1FF9
330
2004
330
2005
330
2009
330
201D
330
201E
330
201F
330
2020
330
202C
330
202D
330
202E
330
202F
330
2030
330
2031
330
2032
330
2033
330
2034
330
2035
330
2036
330
2037
330
2038
330
2039
330
203A
330
203B
330
203C
330
203D
330
203E
330
203F
330
2040
102
}
330
A
100
AcDbSymbolTableRecord
100
AcDbDimStyleTableRecord
  2
物置仕様図40
 70
     0
 40
40.0
 41
2.5
 42
1.0
 43
7.0
 44
1.0
 73
     0
 74
     0
 77
     3
 78
     8
140
3.0
141
2.5
143
0.0394
145
1.0
147
1.0
173
     1
176
     4
177
     4
178
     7
271
     2
272
     2
279
     2
284
     8
340
10
341
E5C
343
E5C
344
E5C
  0
DIMSTYLE
105
19E6
330
A
100
AcDbSymbolTableRecord
100
AcDbDimStyleTableRecord
  2
INABA_S30G
 70
     0
 40
30.0
 41
2.5
 42
0.5
 43
7.0
 44
1.5
 73
     0
 74
     0
 77
     3
 78
     8
140
3.0
141
0.0
143
0.0394
147
1.0
172
     1
173
     1
174
     1
175
     1
178
     7
271
     1
340
17DC
341
E5C
343
E5C
344
E5C
  0
ENDTAB
  0
TABLE
  2
BLOCK_RECORD
  5
1
330
0
100
AcDbSymbolTable
 70
    34
  0
BLOCK_RECORD
  5
1A
330
1
100
AcDbSymbolTableRecord
100
AcDbBlockTableRecord
  2
*MODEL_SPACE
340
17B6
  0
BLOCK_RECORD
  5
17
330
1
100
AcDbSymbolTableRecord
100
AcDbBlockTableRecord
  2
*PAPER_SPACE
340
17B7
  0
BLOCK_RECORD
  5
E5C
330
1
100
AcDbSymbolTableRecord
100
AcDbBlockTableRecord
  2
_DOTSMALL
340
0
102
{BLKREFS
331
24E8
331
24E9
331
24EF
331
24F0
331
24F7
331
24F8
331
2500
331
2501
331
2508
331
2509
331
2510
331
2511
331
2517
331
2518
331
251F
331
2520
331
2528
331
2529
331
2530
331
2531
331
2539
331
253A
331
2542
331
2543
331
2549
331
254A
331
2552
331
2553
331
255A
331
255B
331
2562
331
2563
331
256A
331
256B
331
2572
331
2573
331
257A
331
257B
331
2583
331
2584
331
258D
331
258E
331
2595
331
2596
331
259F
331
25A0
331
25A7
331
25A8
331
25B7
331
25B8
331
25BF
331
25C0
331
25C9
331
25CA
331
25D1
331
25D2
331
25E4
331
25E5
331
25EB
331
25EC
331
25F5
331
25F6
331
25FD
331
25FE
331
261B
331
261C
102
}
  0
BLOCK_RECORD
  5
213F
330
1
100
AcDbSymbolTableRecord
100
AcDbBlockTableRecord
  2
*D1
340
0
  0
BLOCK_RECORD
  5
214B
330
1
100
AcDbSymbolTableRecord
100
AcDbBlockTableRecord
  2
*D2
340
0
  0
BLOCK_RECORD
  5
2156
330
1
100
AcDbSymbolTableRecord
100
AcDbBlockTableRecord
  2
*D3
340
0
  0
BLOCK_RECORD
  5
2163
330
1
100
AcDbSymbolTableRecord
100
AcDbBlockTableRecord
  2
*D4
340
0
  0
BLOCK_RECORD
  5
216E
330
1
100
AcDbSymbolTableRecord
100
AcDbBlockTableRecord
  2
*D5
340
0
  0
BLOCK_RECORD
  5
217A
330
1
100
AcDbSymbolTableRecord
100
AcDbBlockTableRecord
  2
*D6
340
0
  0
BLOCK_RECORD
  5
2186
330
1
100
AcDbSymbolTableRecord
100
AcDbBlockTableRecord
  2
*D7
340
0
  0
BLOCK_RECORD
  5
2191
330
1
100
AcDbSymbolTableRecord
100
AcDbBlockTableRecord
  2
*D8
340
0
  0
BLOCK_RECORD
  5
219C
330
1
100
AcDbSymbolTableRecord
100
AcDbBlockTableRecord
  2
*D9
340
0
  0
BLOCK_RECORD
  5
21A7
330
1
100
AcDbSymbolTableRecord
100
AcDbBlockTableRecord
  2
*D10
340
0
  0
BLOCK_RECORD
  5
21B3
330
1
100
AcDbSymbolTableRecord
100
AcDbBlockTableRecord
  2
*D11
340
0
  0
BLOCK_RECORD
  5
21BF
330
1
100
AcDbSymbolTableRecord
100
AcDbBlockTableRecord
  2
*D12
340
0
  0
BLOCK_RECORD
  5
21CB
330
1
100
AcDbSymbolTableRecord
100
AcDbBlockTableRecord
  2
*D13
340
0
  0
BLOCK_RECORD
  5
21D7
330
1
100
AcDbSymbolTableRecord
100
AcDbBlockTableRecord
  2
*D14
340
0
  0
BLOCK_RECORD
  5
21E3
330
1
100
AcDbSymbolTableRecord
100
AcDbBlockTableRecord
  2
*D15
340
0
  0
BLOCK_RECORD
  5
21EE
330
1
100
AcDbSymbolTableRecord
100
AcDbBlockTableRecord
  2
*D16
340
0
  0
BLOCK_RECORD
  5
21F9
330
1
100
AcDbSymbolTableRecord
100
AcDbBlockTableRecord
  2
*D17
340
0
  0
BLOCK_RECORD
  5
2205
330
1
100
AcDbSymbolTableRecord
100
AcDbBlockTableRecord
  2
*D18
340
0
  0
BLOCK_RECORD
  5
2210
330
1
100
AcDbSymbolTableRecord
100
AcDbBlockTableRecord
  2
*D19
340
0
  0
BLOCK_RECORD
  5
221B
330
1
100
AcDbSymbolTableRecord
100
AcDbBlockTableRecord
  2
*D20
340
0
  0
BLOCK_RECORD
  5
2226
330
1
100
AcDbSymbolTableRecord
100
AcDbBlockTableRecord
  2
*D21
340
0
  0
BLOCK_RECORD
  5
2231
330
1
100
AcDbSymbolTableRecord
100
AcDbBlockTableRecord
  2
*D22
340
0
  0
BLOCK_RECORD
  5
223C
330
1
100
AcDbSymbolTableRecord
100
AcDbBlockTableRecord
  2
*D23
340
0
  0
BLOCK_RECORD
  5
2248
330
1
100
AcDbSymbolTableRecord
100
AcDbBlockTableRecord
  2
*D24
340
0
  0
BLOCK_RECORD
  5
2254
330
1
100
AcDbSymbolTableRecord
100
AcDbBlockTableRecord
  2
*D25
340
0
  0
BLOCK_RECORD
  5
225F
330
1
100
AcDbSymbolTableRecord
100
AcDbBlockTableRecord
  2
*D26
340
0
  0
BLOCK_RECORD
  5
226A
330
1
100
AcDbSymbolTableRecord
100
AcDbBlockTableRecord
  2
*D27
340
0
  0
BLOCK_RECORD
  5
2275
330
1
100
AcDbSymbolTableRecord
100
AcDbBlockTableRecord
  2
*D28
340
0
  0
BLOCK_RECORD
  5
2280
330
1
100
AcDbSymbolTableRecord
100
AcDbBlockTableRecord
  2
*D29
340
0
  0
BLOCK_RECORD
  5
228B
330
1
100
AcDbSymbolTableRecord
100
AcDbBlockTableRecord
  2
*D30
340
0
  0
BLOCK_RECORD
  5
2296
330
1
100
AcDbSymbolTableRecord
100
AcDbBlockTableRecord
  2
*D31
340
0
  0
BLOCK_RECORD
  5
22A1
330
1
100
AcDbSymbolTableRecord
100
AcDbBlockTableRecord
  2
*D32
340
0
  0
BLOCK_RECORD
  5
22AC
330
1
100
AcDbSymbolTableRecord
100
AcDbBlockTableRecord
  2
*D33
340
0
  0
ENDTAB
  0
ENDSEC
  0
SECTION
  2
BLOCKS
  0
BLOCK
  5
1B
330
1A
100
AcDbEntity
  8
0
100
AcDbBlockBegin
  2
*MODEL_SPACE
 70
     0
 10
0.0
 20
0.0
 30
0.0
  3
*MODEL_SPACE
  1

  0
ENDBLK
  5
1C
330
1A
100
AcDbEntity
  8
0
100
AcDbBlockEnd
  0
BLOCK
  5
18
330
17
100
AcDbEntity
 67
     1
  8
0
100
AcDbBlockBegin
  2
*PAPER_SPACE
 70
     0
 10
0.0
 20
0.0
 30
0.0
  3
*PAPER_SPACE
  1

  0
ENDBLK
  5
19
330
17
100
AcDbEntity
 67
     1
  8
0
100
AcDbBlockEnd
  0
BLOCK
  5
E5D
330
E5C
100
AcDbEntity
  8
0
100
AcDbBlockBegin
  2
_DOTSMALL
 70
     0
 10
0.0
 20
0.0
 30
0.0
  3
_DOTSMALL
  1

  0
LWPOLYLINE
  5
E5E
330
E5C
100
AcDbEntity
  8
0
  6
ByBlock
 62
     0
100
AcDbPolyline
 90
        2
 70
     1
 43
0.5
 10
-0.0625
 20
0.0
 42
1.0
 10
0.0625
 20
0.0
 42
1.0
  0
ENDBLK
  5
E62
330
E5C
100
AcDbEntity
  8
0
100
AcDbBlockEnd
  0
BLOCK
  5
2149
330
213F
100
AcDbEntity
  8
0
 48
50.0
100
AcDbBlockBegin
  2
*D1
 70
     1
 10
0.0
 20
0.0
 30
0.0
  3
*D1
  1

  0
LINE
  5
25F1
330
213F
100
AcDbEntity
  8
寸法
 62
     4
 48
50.0
370
    -2
100
AcDbLine
 10
12970.33206907486
 20
4412.29666258934
 30
0.0
 11
13535.09745646966
 21
4385.705625599509
 31
0.0
  0
LINE
  5
25F2
330
213F
100
AcDbEntity
  8
寸法
 62
     4
 48
50.0
370
    -2
100
AcDbLine
 10
12964.92347741464
 20
4297.423919363398
 30
0.0
 11
13529.68886480944
 21
4270.832882373566
 31
0.0
  0
LINE
  5
25F3
330
213F
100
AcDbEntity
  8
寸法
 62
     4
 48
50.0
370
    -2
100
AcDbLine
 10
13495.14171969542
 20
4387.58687487263
 30
0.0
 11
13489.7331280352
 21
4272.714131646686
 31
0.0
  0
MTEXT
  5
25F4
330
213F
100
AcDbEntity
  8
寸法
 62
     7
 48
50.0
100
AcDbMText
 10
13641.00436626226
 20
4327.788124223074
 30
0.0
 40
120.0
 41
0.0
 71
     5
 72
     1
  1
\A1;115
 11
0.0470312318279986
 21
0.9988934193560098
 31
0.0
 73
     1
 44
1.0
1001
ACAD
1000
MTEXTBEGIN
1070
    73
1070
     1
1070
    44
1040
1.0
1070
    74
1070
     0
1000
MTEXTEND
  0
INSERT
  5
25F5
330
213F
100
AcDbEntity
  8
寸法
 62
     4
 48
50.0
370
    -2
100
AcDbBlockReference
  2
_DOTSMALL
 10
13495.14171969542
 20
4387.58687487263
 30
0.0
 41
100.0
 42
100.0
 43
100.0
 50
87.30431450645136
  0
INSERT
  5
25F6
330
213F
100
AcDbEntity
  8
寸法
 62
     4
 48
50.0
370
    -2
100
AcDbBlockReference
  2
_DOTSMALL
 10
13489.7331280352
 20
4272.714131646686
 30
0.0
 41
100.0
 42
100.0
 43
100.0
 50
267.3043145064514
  0
POINT
  5
25F7
330
213F
100
AcDbEntity
  8
DEFPOINTS
 62
     0
 48
50.0
100
AcDbPoint
 10
12930.37633230062
 20
4414.177911862459
 30
0.0
  0
POINT
  5
25F8
330
213F
100
AcDbEntity
  8
DEFPOINTS
 62
     0
 48
50.0
100
AcDbPoint
 10
12924.9677406404
 20
4299.305168636517
 30
0.0
  0
POINT
  5
25F9
330
213F
100
AcDbEntity
  8
DEFPOINTS
 62
     0
 48
50.0
100
AcDbPoint
 10
13489.7331280352
 20
4272.714131646686
 30
0.0
  0
ENDBLK
  5
214A
330
213F
100
AcDbEntity
  8
0
 48
50.0
100
AcDbBlockEnd
  0
BLOCK
  5
2154
330
214B
100
AcDbEntity
  8
0
 48
50.0
100
AcDbBlockBegin
  2
*D2
 70
     1
 10
0.0
 20
0.0
 30
0.0
  3
*D2
  1

  0
LINE
  5
25E9
330
214B
100
AcDbEntity
  8
寸法
 62
     4
 48
50.0
370
    -2
100
AcDbLine
 10
12966.32755088103
 20
4517.485208654299
 30
0.0
 11
12966.32755088103
 21
4925.252905683832
 31
0.0
  0
LINE
  5
25EA
330
214B
100
AcDbEntity
  8
寸法
 62
     4
 48
50.0
370
    -2
100
AcDbLine
 10
12216.32755088103
 20
4885.252905683832
 30
0.0
 11
12966.32755088103
 21
4885.252905683832
 31
0.0
  0
INSERT
  5
25EB
330
214B
100
AcDbEntity
  8
寸法
 62
     4
 48
50.0
370
    -2
100
AcDbBlockReference
  2
_DOTSMALL
 10
12216.32755088103
 20
4885.252905683832
 30
0.0
 41
100.0
 42
100.0
 43
100.0
 50
180.0
  0
INSERT
  5
25EC
330
214B
100
AcDbEntity
  8
寸法
 62
     4
 48
50.0
370
    -2
100
AcDbBlockReference
  2
_DOTSMALL
 10
12966.32755088103
 20
4885.252905683832
 30
0.0
 41
100.0
 42
100.0
 43
100.0
  0
MTEXT
  5
25ED
330
214B
100
AcDbEntity
  8
寸法
 62
     7
 48
50.0
100
AcDbMText
 10
12591.32755088103
 20
4985.252905683832
 30
0.0
 40
120.0
 41
0.0
 71
     5
 72
     1
  1
\A1;750
 73
     1
 44
1.0
1001
ACAD
1000
MTEXTBEGIN
1070
    73
1070
     1
1070
    44
1040
1.0
1070
    74
1070
     0
1000
MTEXTEND
  0
POINT
  5
25EE
330
214B
100
AcDbEntity
  8
DEFPOINTS
 62
     0
 48
50.0
100
AcDbPoint
 10
12216.32755088103
 20
4094.504541410946
 30
0.0
  0
POINT
  5
25EF
330
214B
100
AcDbEntity
  8
DEFPOINTS
 62
     0
 48
50.0
100
AcDbPoint
 10
12966.32755088103
 20
4477.485208654299
 30
0.0
  0
POINT
  5
25F0
330
214B
100
AcDbEntity
  8
DEFPOINTS
 62
     0
 48
50.0
100
AcDbPoint
 10
12966.32755088103
 20
4885.252905683832
 30
0.0
  0
ENDBLK
  5
2155
330
214B
100
AcDbEntity
  8
0
 48
50.0
100
AcDbBlockEnd
  0
BLOCK
  5
2161
330
2156
100
AcDbEntity
  8
0
 48
50.0
100
AcDbBlockBegin
  2
*D3
 70
     1
 10
0.0
 20
0.0
 30
0.0
  3
*D3
  1

  0
LINE
  5
25DF
330
2156
100
AcDbEntity
  8
寸法
 62
     4
 48
50.0
370
    -2
100
AcDbLine
 10
13006.32755088103
 20
2330.4852086543
 30
0.0
 11
13523.45611201606
 21
2330.485208654299
 31
0.0
  0
LINE
  5
25E0
330
2156
100
AcDbEntity
  8
寸法
 62
     4
 48
50.0
370
    -2
100
AcDbLine
 10
13455.59992105415
 20
2280.4852086543
 30
0.0
 11
13443.45611201606
 21
2280.4852086543
 31
0.0
  0
LINE
  5
25E1
330
2156
100
AcDbEntity
  8
寸法
 62
     4
 48
50.0
370
    -2
100
AcDbLine
 10
13483.45611201606
 20
2330.485208654299
 30
0.0
 11
13483.45611201606
 21
2430.4852086543
 31
0.0
  0
LINE
  5
25E2
330
2156
100
AcDbEntity
  8
寸法
 62
     4
 48
50.0
370
    -2
100
AcDbLine
 10
13483.45611201606
 20
2280.4852086543
 30
0.0
 11
13483.45611201606
 21
2180.4852086543
 31
0.0
  0
MTEXT
  5
25E3
330
2156
100
AcDbEntity
  8
寸法
 62
     7
 48
50.0
100
AcDbMText
 10
13362.01802163522
 20
2460.888255132261
 30
0.0
 40
120.0
 41
0.0
 71
     5
 72
     1
  1
\A1;50
 11
0.0000000000000001
 21
1.0
 31
0.0
 73
     1
 44
1.0
1001
ACAD
1000
MTEXTBEGIN
1070
    73
1070
     1
1070
    44
1040
1.0
1070
    74
1070
     0
1000
MTEXTEND
  0
INSERT
  5
25E4
330
2156
100
AcDbEntity
  8
寸法
 62
     4
 48
50.0
370
    -2
100
AcDbBlockReference
  2
_DOTSMALL
 10
13483.45611201606
 20
2330.485208654299
 30
0.0
 41
100.0
 42
100.0
 43
100.0
 50
270.0
  0
INSERT
  5
25E5
330
2156
100
AcDbEntity
  8
寸法
 62
     4
 48
50.0
370
    -2
100
AcDbBlockReference
  2
_DOTSMALL
 10
13483.45611201606
 20
2280.4852086543
 30
0.0
 41
100.0
 42
100.0
 43
100.0
 50
90.0
  0
POINT
  5
25E6
330
2156
100
AcDbEntity
  8
DEFPOINTS
 62
     0
 48
50.0
100
AcDbPoint
 10
12966.32755088103
 20
2330.4852086543
 30
0.0
  0
POINT
  5
25E7
330
2156
100
AcDbEntity
  8
DEFPOINTS
 62
     0
 48
50.0
100
AcDbPoint
 10
13495.59992105415
 20
2280.4852086543
 30
0.0
  0
POINT
  5
25E8
330
2156
100
AcDbEntity
  8
DEFPOINTS
 62
     0
 48
50.0
100
AcDbPoint
 10
13483.45611201606
 20
2280.4852086543
 30
0.0
  0
ENDBLK
  5
2162
330
2156
100
AcDbEntity
  8
0
 48
50.0
100
AcDbBlockEnd
  0
BLOCK
  5
216C
330
2163
100
AcDbEntity
  8
0
 48
50.0
100
AcDbBlockBegin
  2
*D4
 70
     1
 10
0.0
 20
0.0
 30
0.0
  3
*D4
  1

  0
LINE
  5
25FB
330
2163
100
AcDbEntity
  8
寸法
 62
     4
 48
50.0
370
    -2
100
AcDbLine
 10
12216.32755088103
 20
4134.504541410946
 30
0.0
 11
12216.32755088103
 21
4925.252905683832
 31
0.0
  0
LINE
  5
25FC
330
2163
100
AcDbEntity
  8
寸法
 62
     4
 48
50.0
370
    -2
100
AcDbLine
 10
10566.32755088104
 20
4885.252905683832
 30
0.0
 11
12216.32755088103
 21
4885.252905683832
 31
0.0
  0
INSERT
  5
25FD
330
2163
100
AcDbEntity
  8
寸法
 62
     4
 48
50.0
370
    -2
100
AcDbBlockReference
  2
_DOTSMALL
 10
10566.32755088104
 20
4885.252905683832
 30
0.0
 41
100.0
 42
100.0
 43
100.0
 50
180.0
  0
INSERT
  5
25FE
330
2163
100
AcDbEntity
  8
寸法
 62
     4
 48
50.0
370
    -2
100
AcDbBlockReference
  2
_DOTSMALL
 10
12216.32755088103
 20
4885.252905683832
 30
0.0
 41
100.0
 42
100.0
 43
100.0
  0
MTEXT
  5
25FF
330
2163
100
AcDbEntity
  8
寸法
 62
     7
 48
50.0
100
AcDbMText
 10
11391.32755088103
 20
4985.252905683832
 30
0.0
 40
120.0
 41
0.0
 71
     5
 72
     1
  1
\A1;1650
 73
     1
 44
1.0
1001
ACAD
1000
MTEXTBEGIN
1070
    73
1070
     1
1070
    44
1040
1.0
1070
    74
1070
     0
1000
MTEXTEND
  0
POINT
  5
2600
330
2163
100
AcDbEntity
  8
DEFPOINTS
 62
     0
 48
50.0
100
AcDbPoint
 10
10566.32755088104
 20
4052.586431448651
 30
0.0
  0
POINT
  5
2601
330
2163
100
AcDbEntity
  8
DEFPOINTS
 62
     0
 48
50.0
100
AcDbPoint
 10
12216.32755088103
 20
4094.504541410946
 30
0.0
  0
POINT
  5
2602
330
2163
100
AcDbEntity
  8
DEFPOINTS
 62
     0
 48
50.0
100
AcDbPoint
 10
12216.32755088103
 20
4885.252905683832
 30
0.0
  0
ENDBLK
  5
216D
330
2163
100
AcDbEntity
  8
0
 48
50.0
100
AcDbBlockEnd
  0
BLOCK
  5
2178
330
216E
100
AcDbEntity
  8
0
 48
50.0
100
AcDbBlockBegin
  2
*D5
 70
     1
 10
0.0
 20
0.0
 30
0.0
  3
*D5
  1

  0
LINE
  5
25CE
330
216E
100
AcDbEntity
  8
寸法
 62
     4
 48
50.0
370
    -2
100
AcDbLine
 10
8166.327550881034
 20
4517.485208654299
 30
0.0
 11
8166.327550881034
 21
4925.252905683832
 31
0.0
  0
LINE
  5
25CF
330
216E
100
AcDbEntity
  8
寸法
 62
     4
 48
50.0
370
    -2
100
AcDbLine
 10
8916.327550881034
 20
4134.504541410948
 30
0.0
 11
8916.327550881034
 21
4925.252905683832
 31
0.0
  0
LINE
  5
25D0
330
216E
100
AcDbEntity
  8
寸法
 62
     4
 48
50.0
370
    -2
100
AcDbLine
 10
8166.327550881034
 20
4885.252905683832
 30
0.0
 11
8916.327550881034
 21
4885.252905683832
 31
0.0
  0
INSERT
  5
25D1
330
216E
100
AcDbEntity
  8
寸法
 62
     4
 48
50.0
370
    -2
100
AcDbBlockReference
  2
_DOTSMALL
 10
8166.327550881034
 20
4885.252905683832
 30
0.0
 41
100.0
 42
100.0
 43
100.0
 50
180.0
  0
INSERT
  5
25D2
330
216E
100
AcDbEntity
  8
寸法
 62
     4
 48
50.0
370
    -2
100
AcDbBlockReference
  2
_DOTSMALL
 10
8916.327550881034
 20
4885.252905683832
 30
0.0
 41
100.0
 42
100.0
 43
100.0
  0
MTEXT
  5
25D3
330
216E
100
AcDbEntity
  8
寸法
 62
     7
 48
50.0
100
AcDbMText
 10
8541.327550881034
 20
4985.252905683832
 30
0.0
 40
120.0
 41
0.0
 71
     5
 72
     1
  1
\A1;750
 73
     1
 44
1.0
1001
ACAD
1000
MTEXTBEGIN
1070
    73
1070
     1
1070
    44
1040
1.0
1070
    74
1070
     0
1000
MTEXTEND
  0
POINT
  5
25D4
330
216E
100
AcDbEntity
  8
DEFPOINTS
 62
     0
 48
50.0
100
AcDbPoint
 10
8166.327550881034
 20
4477.485208654299
 30
0.0
  0
POINT
  5
25D5
330
216E
100
AcDbEntity
  8
DEFPOINTS
 62
     0
 48
50.0
100
AcDbPoint
 10
8916.327550881034
 20
4094.504541410947
 30
0.0
  0
POINT
  5
25D6
330
216E
100
AcDbEntity
  8
DEFPOINTS
 62
     0
 48
50.0
100
AcDbPoint
 10
8916.327550881034
 20
4885.252905683832
 30
0.0
  0
ENDBLK
  5
2179
330
216E
100
AcDbEntity
  8
0
 48
50.0
100
AcDbBlockEnd
  0
BLOCK
  5
2184
330
217A
100
AcDbEntity
  8
0
 48
50.0
100
AcDbBlockBegin
  2
*D6
 70
     1
 10
0.0
 20
0.0
 30
0.0
  3
*D6
  1

  0
LINE
  5
25C5
330
217A
100
AcDbEntity
  8
寸法
 62
     4
 48
50.0
370
    -2
100
AcDbLine
 10
8102.254670437181
 20
2280.4852086543
 30
0.0
 11
8118.354899444728
 21
2280.4852086543
 31
0.0
  0
LINE
  5
25C6
330
217A
100
AcDbEntity
  8
寸法
 62
     4
 48
50.0
370
    -2
100
AcDbLine
 10
8906.327550881036
 20
2530.4852086543
 30
0.0
 11
8038.354899444728
 21
2530.4852086543
 31
0.0
  0
LINE
  5
25C7
330
217A
100
AcDbEntity
  8
寸法
 62
     4
 48
50.0
370
    -2
100
AcDbLine
 10
8078.354899444729
 20
2280.4852086543
 30
0.0
 11
8078.354899444729
 21
2530.4852086543
 31
0.0
  0
MTEXT
  5
25C8
330
217A
100
AcDbEntity
  8
寸法
 62
     7
 48
50.0
100
AcDbMText
 10
7967.798262385471
 20
2405.4852086543
 30
0.0
 40
120.0
 41
0.0
 71
     5
 72
     1
  1
\A1;250
 11
0.0000000000000001
 21
1.0
 31
0.0
 73
     1
 44
1.0
1001
ACAD
1000
MTEXTBEGIN
1070
    73
1070
     1
1070
    44
1040
1.0
1070
    74
1070
     0
1000
MTEXTEND
  0
INSERT
  5
25C9
330
217A
100
AcDbEntity
  8
寸法
 62
     4
 48
50.0
370
    -2
100
AcDbBlockReference
  2
_DOTSMALL
 10
8078.354899444729
 20
2280.4852086543
 30
0.0
 41
100.0
 42
100.0
 43
100.0
 50
270.0
  0
INSERT
  5
25CA
330
217A
100
AcDbEntity
  8
寸法
 62
     4
 48
50.0
370
    -2
100
AcDbBlockReference
  2
_DOTSMALL
 10
8078.354899444729
 20
2530.4852086543
 30
0.0
 41
100.0
 42
100.0
 43
100.0
 50
90.0
  0
POINT
  5
25CB
330
217A
100
AcDbEntity
  8
DEFPOINTS
 62
     0
 48
50.0
100
AcDbPoint
 10
8062.25467043718
 20
2280.4852086543
 30
0.0
  0
POINT
  5
25CC
330
217A
100
AcDbEntity
  8
DEFPOINTS
 62
     0
 48
50.0
100
AcDbPoint
 10
8946.327550881036
 20
2530.4852086543
 30
0.0
  0
POINT
  5
25CD
330
217A
100
AcDbEntity
  8
DEFPOINTS
 62
     0
 48
50.0
100
AcDbPoint
 10
8078.354899444729
 20
2530.4852086543
 30
0.0
  0
ENDBLK
  5
2185
330
217A
100
AcDbEntity
  8
0
 48
50.0
100
AcDbBlockEnd
  0
BLOCK
  5
218F
330
2186
100
AcDbEntity
  8
0
 48
50.0
100
AcDbBlockBegin
  2
*D7
 70
     1
 10
0.0
 20
0.0
 30
0.0
  3
*D7
  1

  0
LINE
  5
25BD
330
2186
100
AcDbEntity
  8
寸法
 62
     4
 48
50.0
370
    -2
100
AcDbLine
 10
8906.327550881036
 20
3430.4852086543
 30
0.0
 11
8038.354899444728
 21
3430.4852086543
 31
0.0
  0
LINE
  5
25BE
330
2186
100
AcDbEntity
  8
寸法
 62
     4
 48
50.0
370
    -2
100
AcDbLine
 10
8078.354899444729
 20
2530.4852086543
 30
0.0
 11
8078.354899444729
 21
3430.4852086543
 31
0.0
  0
INSERT
  5
25BF
330
2186
100
AcDbEntity
  8
寸法
 62
     4
 48
50.0
370
    -2
100
AcDbBlockReference
  2
_DOTSMALL
 10
8078.354899444729
 20
2530.4852086543
 30
0.0
 41
100.0
 42
100.0
 43
100.0
 50
270.0
  0
INSERT
  5
25C0
330
2186
100
AcDbEntity
  8
寸法
 62
     4
 48
50.0
370
    -2
100
AcDbBlockReference
  2
_DOTSMALL
 10
8078.354899444729
 20
3430.4852086543
 30
0.0
 41
100.0
 42
100.0
 43
100.0
 50
90.0
  0
MTEXT
  5
25C1
330
2186
100
AcDbEntity
  8
寸法
 62
     7
 48
50.0
100
AcDbMText
 10
7978.354899444727
 20
2980.485208654301
 30
0.0
 40
120.0
 41
0.0
 71
     5
 72
     1
  1
\A1;900
 11
0.0000000000000001
 21
1.0
 31
0.0
 73
     1
 44
1.0
1001
ACAD
1000
MTEXTBEGIN
1070
    73
1070
     1
1070
    44
1040
1.0
1070
    74
1070
     0
1000
MTEXTEND
  0
POINT
  5
25C2
330
2186
100
AcDbEntity
  8
DEFPOINTS
 62
     0
 48
50.0
100
AcDbPoint
 10
8946.327550881036
 20
2530.4852086543
 30
0.0
  0
POINT
  5
25C3
330
2186
100
AcDbEntity
  8
DEFPOINTS
 62
     0
 48
50.0
100
AcDbPoint
 10
8946.327550881036
 20
3430.4852086543
 30
0.0
  0
POINT
  5
25C4
330
2186
100
AcDbEntity
  8
DEFPOINTS
 62
     0
 48
50.0
100
AcDbPoint
 10
8078.354899444729
 20
3430.4852086543
 30
0.0
  0
ENDBLK
  5
2190
330
2186
100
AcDbEntity
  8
0
 48
50.0
100
AcDbBlockEnd
  0
BLOCK
  5
219A
330
2191
100
AcDbEntity
  8
0
 48
50.0
100
AcDbBlockBegin
  2
*D8
 70
     1
 10
0.0
 20
0.0
 30
0.0
  3
*D8
  1

  0
LINE
  5
25B5
330
2191
100
AcDbEntity
  8
寸法
 62
     4
 48
50.0
370
    -2
100
AcDbLine
 10
7575.652178531027
 20
2280.4852086543
 30
0.0
 11
7626.483483459039
 21
2280.4852086543
 31
0.0
  0
LINE
  5
25B6
330
2191
100
AcDbEntity
  8
寸法
 62
     4
 48
50.0
370
    -2
100
AcDbLine
 10
7586.483483459038
 20
4412.485208654299
 30
0.0
 11
7586.483483459038
 21
2280.4852086543
 31
0.0
  0
INSERT
  5
25B7
330
2191
100
AcDbEntity
  8
寸法
 62
     4
 48
50.0
370
    -2
100
AcDbBlockReference
  2
_DOTSMALL
 10
7586.483483459038
 20
4412.485208654299
 30
0.0
 41
100.0
 42
100.0
 43
100.0
 50
90.0
  0
INSERT
  5
25B8
330
2191
100
AcDbEntity
  8
寸法
 62
     4
 48
50.0
370
    -2
100
AcDbBlockReference
  2
_DOTSMALL
 10
7586.483483459038
 20
2280.4852086543
 30
0.0
 41
100.0
 42
100.0
 43
100.0
 50
270.0
  0
MTEXT
  5
25B9
330
2191
100
AcDbEntity
  8
寸法
 62
     7
 48
50.0
100
AcDbMText
 10
7486.471672435415
 20
3346.485208654301
 30
0.0
 40
120.0
 41
0.0
 71
     5
 72
     1
  1
\A1;2132
 11
0.0000000000000001
 21
1.0
 31
0.0
 73
     1
 44
1.0
1001
ACAD
1000
MTEXTBEGIN
1070
    73
1070
     1
1070
    44
1040
1.0
1070
    74
1070
     0
1000
MTEXTEND
  0
POINT
  5
25BA
330
2191
100
AcDbEntity
  8
DEFPOINTS
 62
     0
 48
50.0
100
AcDbPoint
 10
8166.327550881032
 20
4412.485208654299
 30
0.0
  0
POINT
  5
25BB
330
2191
100
AcDbEntity
  8
DEFPOINTS
 62
     0
 48
50.0
100
AcDbPoint
 10
7535.652178531027
 20
2280.4852086543
 30
0.0
  0
POINT
  5
25BC
330
2191
100
AcDbEntity
  8
DEFPOINTS
 62
     0
 48
50.0
100
AcDbPoint
 10
7586.483483459038
 20
2280.4852086543
 30
0.0
  0
ENDBLK
  5
219B
330
2191
100
AcDbEntity
  8
0
 48
50.0
100
AcDbBlockEnd
  0
BLOCK
  5
21A5
330
219C
100
AcDbEntity
  8
0
 48
50.0
100
AcDbBlockBegin
  2
*D9
 70
     1
 10
0.0
 20
0.0
 30
0.0
  3
*D9
  1

  0
LINE
  5
2619
330
219C
100
AcDbEntity
  8
寸法
 62
     4
 48
50.0
370
    -2
100
AcDbLine
 10
10566.32755088104
 20
4562.98243913798
 30
0.0
 11
10566.32755088104
 21
4925.252905683832
 31
0.0
  0
LINE
  5
261A
330
219C
100
AcDbEntity
  8
寸法
 62
     4
 48
50.0
370
    -2
100
AcDbLine
 10
8916.327550881034
 20
4885.252905683832
 30
0.0
 11
10566.32755088104
 21
4885.252905683832
 31
0.0
  0
INSERT
  5
261B
330
219C
100
AcDbEntity
  8
寸法
 62
     4
 48
50.0
370
    -2
100
AcDbBlockReference
  2
_DOTSMALL
 10
8916.327550881034
 20
4885.252905683832
 30
0.0
 41
100.0
 42
100.0
 43
100.0
 50
180.0
  0
INSERT
  5
261C
330
219C
100
AcDbEntity
  8
寸法
 62
     4
 48
50.0
370
    -2
100
AcDbBlockReference
  2
_DOTSMALL
 10
10566.32755088104
 20
4885.252905683832
 30
0.0
 41
100.0
 42
100.0
 43
100.0
  0
MTEXT
  5
261D
330
219C
100
AcDbEntity
  8
寸法
 62
     7
 48
50.0
100
AcDbMText
 10
9741.327550881038
 20
4985.252905683832
 30
0.0
 40
120.0
 41
0.0
 71
     5
 72
     1
  1
\A1;1650
 73
     1
 44
1.0
1001
ACAD
1000
MTEXTBEGIN
1070
    73
1070
     1
1070
    44
1040
1.0
1070
    74
1070
     0
1000
MTEXTEND
  0
POINT
  5
261E
330
219C
100
AcDbEntity
  8
DEFPOINTS
 62
     0
 48
50.0
100
AcDbPoint
 10
8916.327550881034
 20
4094.504541410947
 30
0.0
  0
POINT
  5
261F
330
219C
100
AcDbEntity
  8
DEFPOINTS
 62
     0
 48
50.0
100
AcDbPoint
 10
10566.32755088104
 20
4522.98243913798
 30
0.0
  0
POINT
  5
2620
330
219C
100
AcDbEntity
  8
DEFPOINTS
 62
     0
 48
50.0
100
AcDbPoint
 10
10566.32755088104
 20
4885.252905683832
 30
0.0
  0
ENDBLK
  5
21A6
330
219C
100
AcDbEntity
  8
0
 48
50.0
100
AcDbBlockEnd
  0
BLOCK
  5
21B1
330
21A7
100
AcDbEntity
  8
0
 48
50.0
100
AcDbBlockBegin
  2
*D10
 70
     1
 10
0.0
 20
0.0
 30
0.0
  3
*D10
  1

  0
LINE
  5
25A4
330
21A7
100
AcDbEntity
  8
寸法
 62
     4
 48
50.0
370
    -2
100
AcDbLine
 10
8166.327550881042
 20
4441.401015358671
 30
0.0
 11
8166.327550881042
 21
5129.168712388204
 31
0.0
  0
LINE
  5
25A5
330
21A7
100
AcDbEntity
  8
寸法
 62
     4
 48
50.0
370
    -2
100
AcDbLine
 10
12966.32755088104
 20
4441.401015358671
 30
0.0
 11
12966.32755088104
 21
5129.168712388204
 31
0.0
  0
LINE
  5
25A6
330
21A7
100
AcDbEntity
  8
寸法
 62
     4
 48
50.0
370
    -2
100
AcDbLine
 10
8166.327550881042
 20
5089.168712388204
 30
0.0
 11
12966.32755088104
 21
5089.168712388204
 31
0.0
  0
INSERT
  5
25A7
330
21A7
100
AcDbEntity
  8
寸法
 62
     4
 48
50.0
370
    -2
100
AcDbBlockReference
  2
_DOTSMALL
 10
8166.327550881042
 20
5089.168712388204
 30
0.0
 41
100.0
 42
100.0
 43
100.0
 50
180.0
  0
INSERT
  5
25A8
330
21A7
100
AcDbEntity
  8
寸法
 62
     4
 48
50.0
370
    -2
100
AcDbBlockReference
  2
_DOTSMALL
 10
12966.32755088104
 20
5089.168712388204
 30
0.0
 41
100.0
 42
100.0
 43
100.0
  0
MTEXT
  5
25A9
330
21A7
100
AcDbEntity
  8
寸法
 62
     7
 48
50.0
100
AcDbMText
 10
10566.32755088104
 20
5189.168712388203
 30
0.0
 40
120.0
 41
0.0
 71
     5
 72
     1
  1
\A1;4800
 73
     1
 44
1.0
1001
ACAD
1000
MTEXTBEGIN
1070
    73
1070
     1
1070
    44
1040
1.0
1070
    74
1070
     0
1000
MTEXTEND
  0
POINT
  5
25AA
330
21A7
100
AcDbEntity
  8
DEFPOINTS
 62
     0
 48
50.0
100
AcDbPoint
 10
8166.327550881042
 20
4401.401015358671
 30
0.0
  0
POINT
  5
25AB
330
21A7
100
AcDbEntity
  8
DEFPOINTS
 62
     0
 48
50.0
100
AcDbPoint
 10
12966.32755088104
 20
4401.401015358671
 30
0.0
  0
POINT
  5
25AC
330
21A7
100
AcDbEntity
  8
DEFPOINTS
 62
     0
 48
50.0
100
AcDbPoint
 10
12966.32755088104
 20
5089.168712388204
 30
0.0
  0
ENDBLK
  5
21B2
330
21A7
100
AcDbEntity
  8
0
 48
50.0
100
AcDbBlockEnd
  0
BLOCK
  5
21BD
330
21B3
100
AcDbEntity
  8
0
 48
50.0
100
AcDbBlockBegin
  2
*D11
 70
     1
 10
0.0
 20
0.0
 30
0.0
  3
*D11
  1

  0
LINE
  5
259B
330
21B3
100
AcDbEntity
  8
寸法
 62
     4
 48
50.0
370
    -2
100
AcDbLine
 10
10526.84827728145
 20
4525.460691119611
 30
0.0
 11
7546.483483459039
 21
4525.460691119612
 31
0.0
  0
LINE
  5
259C
330
21B3
100
AcDbEntity
  8
寸法
 62
     4
 48
50.0
370
    -2
100
AcDbLine
 10
8125.80682448063
 20
4412.460691119613
 30
0.0
 11
7546.483483459039
 21
4412.460691119613
 31
0.0
  0
LINE
  5
259D
330
21B3
100
AcDbEntity
  8
寸法
 62
     4
 48
50.0
370
    -2
100
AcDbLine
 10
7586.483483459038
 20
4525.460691119612
 30
0.0
 11
7586.483483459038
 21
4412.460691119613
 31
0.0
  0
MTEXT
  5
259E
330
21B3
100
AcDbEntity
  8
寸法
 62
     7
 48
50.0
100
AcDbMText
 10
7467.842311419068
 20
4649.828549245467
 30
0.0
 40
120.0
 41
0.0
 71
     5
 72
     1
  1
\A1;113
 11
0.0000000000000001
 21
1.0
 31
0.0
 73
     1
 44
1.0
1001
ACAD
1000
MTEXTBEGIN
1070
    73
1070
     1
1070
    44
1040
1.0
1070
    74
1070
     0
1000
MTEXTEND
  0
INSERT
  5
259F
330
21B3
100
AcDbEntity
  8
寸法
 62
     4
 48
50.0
370
    -2
100
AcDbBlockReference
  2
_DOTSMALL
 10
7586.483483459038
 20
4525.460691119612
 30
0.0
 41
100.0
 42
100.0
 43
100.0
 50
90.0
  0
INSERT
  5
25A0
330
21B3
100
AcDbEntity
  8
寸法
 62
     4
 48
50.0
370
    -2
100
AcDbBlockReference
  2
_DOTSMALL
 10
7586.483483459038
 20
4412.460691119613
 30
0.0
 41
100.0
 42
100.0
 43
100.0
 50
270.0
  0
POINT
  5
25A1
330
21B3
100
AcDbEntity
  8
DEFPOINTS
 62
     0
 48
50.0
100
AcDbPoint
 10
10566.84827728145
 20
4525.460691119611
 30
0.0
  0
POINT
  5
25A2
330
21B3
100
AcDbEntity
  8
DEFPOINTS
 62
     0
 48
50.0
100
AcDbPoint
 10
8165.806824480629
 20
4412.460691119613
 30
0.0
  0
POINT
  5
25A3
330
21B3
100
AcDbEntity
  8
DEFPOINTS
 62
     0
 48
50.0
100
AcDbPoint
 10
7586.483483459038
 20
4412.460691119613
 30
0.0
  0
ENDBLK
  5
21BE
330
21B3
100
AcDbEntity
  8
0
 48
50.0
100
AcDbBlockEnd
  0
BLOCK
  5
21C9
330
21BF
100
AcDbEntity
  8
0
 48
50.0
100
AcDbBlockBegin
  2
*D12
 70
     1
 10
0.0
 20
0.0
 30
0.0
  3
*D12
  1

  0
LINE
  5
2592
330
21BF
100
AcDbEntity
  8
寸法
 62
     4
 48
50.0
370
    -2
100
AcDbLine
 10
10526.32755088103
 20
4525.485208654299
 30
0.0
 11
7252.756801734119
 21
4525.4852086543
 31
0.0
  0
LINE
  5
2593
330
21BF
100
AcDbEntity
  8
寸法
 62
     4
 48
50.0
370
    -2
100
AcDbLine
 10
7315.847895189889
 20
2280.4852086543
 30
0.0
 11
7332.75680173412
 21
2280.4852086543
 31
0.0
  0
LINE
  5
2594
330
21BF
100
AcDbEntity
  8
寸法
 62
     4
 48
50.0
370
    -2
100
AcDbLine
 10
7292.75680173412
 20
4525.4852086543
 30
0.0
 11
7292.75680173412
 21
2280.4852086543
 31
0.0
  0
INSERT
  5
2595
330
21BF
100
AcDbEntity
  8
寸法
 62
     4
 48
50.0
370
    -2
100
AcDbBlockReference
  2
_DOTSMALL
 10
7292.75680173412
 20
4525.4852086543
 30
0.0
 41
100.0
 42
100.0
 43
100.0
 50
90.0
  0
INSERT
  5
2596
330
21BF
100
AcDbEntity
  8
寸法
 62
     4
 48
50.0
370
    -2
100
AcDbBlockReference
  2
_DOTSMALL
 10
7292.75680173412
 20
2280.4852086543
 30
0.0
 41
100.0
 42
100.0
 43
100.0
 50
270.0
  0
MTEXT
  5
2597
330
21BF
100
AcDbEntity
  8
寸法
 62
     7
 48
50.0
100
AcDbMText
 10
7192.744990710497
 20
3402.985208654302
 30
0.0
 40
120.0
 41
0.0
 71
     5
 72
     1
  1
\A1;2245
 11
0.0000000000000001
 21
1.0
 31
0.0
 73
     1
 44
1.0
1001
ACAD
1000
MTEXTBEGIN
1070
    73
1070
     1
1070
    44
1040
1.0
1070
    74
1070
     0
1000
MTEXTEND
  0
POINT
  5
2598
330
21BF
100
AcDbEntity
  8
DEFPOINTS
 62
     0
 48
50.0
100
AcDbPoint
 10
10566.32755088103
 20
4525.485208654299
 30
0.0
  0
POINT
  5
2599
330
21BF
100
AcDbEntity
  8
DEFPOINTS
 62
     0
 48
50.0
100
AcDbPoint
 10
7275.847895189889
 20
2280.4852086543
 30
0.0
  0
POINT
  5
259A
330
21BF
100
AcDbEntity
  8
DEFPOINTS
 62
     0
 48
50.0
100
AcDbPoint
 10
7292.75680173412
 20
2280.4852086543
 30
0.0
  0
ENDBLK
  5
21CA
330
21BF
100
AcDbEntity
  8
0
 48
50.0
100
AcDbBlockEnd
  0
BLOCK
  5
21D5
330
21CB
100
AcDbEntity
  8
0
 48
50.0
100
AcDbBlockBegin
  2
*D13
 70
     1
 10
0.0
 20
0.0
 30
0.0
  3
*D13
  1

  0
LINE
  5
2589
330
21CB
100
AcDbEntity
  8
寸法
 62
     4
 48
50.0
370
    -2
100
AcDbLine
 10
6128.08479127592
 20
2010.4852086543
 30
0.0
 11
6594.602443373149
 21
2010.4852086543
 31
0.0
  0
LINE
  5
258A
330
21CB
100
AcDbEntity
  8
寸法
 62
     4
 48
50.0
370
    -2
100
AcDbLine
 10
6728.266128291223
 20
2280.4852086543
 30
0.0
 11
6514.602443373151
 21
2280.4852086543
 31
0.0
  0
LINE
  5
258B
330
21CB
100
AcDbEntity
  8
寸法
 62
     4
 48
50.0
370
    -2
100
AcDbLine
 10
6554.60244337315
 20
2010.4852086543
 30
0.0
 11
6554.60244337315
 21
2280.4852086543
 31
0.0
  0
MTEXT
  5
258C
330
21CB
100
AcDbEntity
  8
寸法
 62
     7
 48
50.0
100
AcDbMText
 10
6274.567010302284
 20
2145.485208654301
 30
0.0
 40
120.0
 41
0.0
 71
     5
 72
     1
  1
\A1;270
 11
0.0000000000000001
 21
1.0
 31
0.0
 73
     1
 44
1.0
1001
ACAD
1000
MTEXTBEGIN
1070
    73
1070
     1
1070
    44
1040
1.0
1070
    74
1070
     0
1000
MTEXTEND
  0
INSERT
  5
258D
330
21CB
100
AcDbEntity
  8
寸法
 62
     4
 48
50.0
370
    -2
100
AcDbBlockReference
  2
_DOTSMALL
 10
6554.60244337315
 20
2010.4852086543
 30
0.0
 41
100.0
 42
100.0
 43
100.0
 50
270.0
  0
INSERT
  5
258E
330
21CB
100
AcDbEntity
  8
寸法
 62
     4
 48
50.0
370
    -2
100
AcDbBlockReference
  2
_DOTSMALL
 10
6554.60244337315
 20
2280.4852086543
 30
0.0
 41
100.0
 42
100.0
 43
100.0
 50
90.0
  0
POINT
  5
258F
330
21CB
100
AcDbEntity
  8
DEFPOINTS
 62
     0
 48
50.0
100
AcDbPoint
 10
6088.08479127592
 20
2010.4852086543
 30
0.0
  0
POINT
  5
2590
330
21CB
100
AcDbEntity
  8
DEFPOINTS
 62
     0
 48
50.0
100
AcDbPoint
 10
6768.266128291223
 20
2280.4852086543
 30
0.0
  0
POINT
  5
2591
330
21CB
100
AcDbEntity
  8
DEFPOINTS
 62
     0
 48
50.0
100
AcDbPoint
 10
6554.60244337315
 20
2280.4852086543
 30
0.0
  0
ENDBLK
  5
21D6
330
21CB
100
AcDbEntity
  8
0
 48
50.0
100
AcDbBlockEnd
  0
BLOCK
  5
21E1
330
21D7
100
AcDbEntity
  8
0
 48
50.0
100
AcDbBlockBegin
  2
*D14
 70
     1
 10
0.0
 20
0.0
 30
0.0
  3
*D14
  1

  0
LINE
  5
2580
330
21D7
100
AcDbEntity
  8
寸法
 62
     4
 48
50.0
370
    -2
100
AcDbLine
 10
3008.08479127592
 20
4566.075718108766
 30
0.0
 11
3008.08479127592
 21
5141.634584143547
 31
0.0
  0
LINE
  5
2581
330
21D7
100
AcDbEntity
  8
寸法
 62
     4
 48
50.0
370
    -2
100
AcDbLine
 10
6308.08479127592
 20
4566.075718108766
 30
0.0
 11
6308.08479127592
 21
5141.634584143547
 31
0.0
  0
LINE
  5
2582
330
21D7
100
AcDbEntity
  8
寸法
 62
     4
 48
50.0
370
    -2
100
AcDbLine
 10
3008.08479127592
 20
5101.634584143546
 30
0.0
 11
6308.08479127592
 21
5101.634584143546
 31
0.0
  0
INSERT
  5
2583
330
21D7
100
AcDbEntity
  8
寸法
 62
     4
 48
50.0
370
    -2
100
AcDbBlockReference
  2
_DOTSMALL
 10
3008.08479127592
 20
5101.634584143546
 30
0.0
 41
100.0
 42
100.0
 43
100.0
 50
180.0
  0
INSERT
  5
2584
330
21D7
100
AcDbEntity
  8
寸法
 62
     4
 48
50.0
370
    -2
100
AcDbBlockReference
  2
_DOTSMALL
 10
6308.08479127592
 20
5101.634584143546
 30
0.0
 41
100.0
 42
100.0
 43
100.0
  0
MTEXT
  5
2585
330
21D7
100
AcDbEntity
  8
寸法
 62
     7
 48
50.0
100
AcDbMText
 10
4658.08479127592
 20
5201.634584143547
 30
0.0
 40
120.0
 41
0.0
 71
     5
 72
     1
  1
\A1;3300
 73
     1
 44
1.0
1001
ACAD
1000
MTEXTBEGIN
1070
    73
1070
     1
1070
    44
1040
1.0
1070
    74
1070
     0
1000
MTEXTEND
  0
POINT
  5
2586
330
21D7
100
AcDbEntity
  8
DEFPOINTS
 62
     0
 48
50.0
100
AcDbPoint
 10
3008.08479127592
 20
4526.075718108766
 30
0.0
  0
POINT
  5
2587
330
21D7
100
AcDbEntity
  8
DEFPOINTS
 62
     0
 48
50.0
100
AcDbPoint
 10
6308.08479127592
 20
4526.075718108766
 30
0.0
  0
POINT
  5
2588
330
21D7
100
AcDbEntity
  8
DEFPOINTS
 62
     0
 48
50.0
100
AcDbPoint
 10
6308.08479127592
 20
5101.634584143546
 30
0.0
  0
ENDBLK
  5
21E2
330
21D7
100
AcDbEntity
  8
0
 48
50.0
100
AcDbBlockEnd
  0
BLOCK
  5
21EC
330
21E3
100
AcDbEntity
  8
0
 48
50.0
100
AcDbBlockBegin
  2
*D15
 70
     1
 10
0.0
 20
0.0
 30
0.0
  3
*D15
  1

  0
LINE
  5
2578
330
21E3
100
AcDbEntity
  8
寸法
 62
     4
 48
50.0
370
    -2
100
AcDbLine
 10
6308.08479127592
 20
4566.075718108766
 30
0.0
 11
6308.08479127592
 21
4861.634584143547
 31
0.0
  0
LINE
  5
2579
330
21E3
100
AcDbEntity
  8
寸法
 62
     4
 48
50.0
370
    -2
100
AcDbLine
 10
6058.08479127592
 20
4821.634584143547
 30
0.0
 11
6308.08479127592
 21
4821.634584143547
 31
0.0
  0
INSERT
  5
257A
330
21E3
100
AcDbEntity
  8
寸法
 62
     4
 48
50.0
370
    -2
100
AcDbBlockReference
  2
_DOTSMALL
 10
6058.08479127592
 20
4821.634584143547
 30
0.0
 41
100.0
 42
100.0
 43
100.0
 50
180.0
  0
INSERT
  5
257B
330
21E3
100
AcDbEntity
  8
寸法
 62
     4
 48
50.0
370
    -2
100
AcDbBlockReference
  2
_DOTSMALL
 10
6308.08479127592
 20
4821.634584143547
 30
0.0
 41
100.0
 42
100.0
 43
100.0
  0
MTEXT
  5
257C
330
21E3
100
AcDbEntity
  8
寸法
 62
     7
 48
50.0
100
AcDbMText
 10
6183.08479127592
 20
4921.646395167169
 30
0.0
 40
120.0
 41
0.0
 71
     5
 72
     1
  1
\A1;250
 73
     1
 44
1.0
1001
ACAD
1000
MTEXTBEGIN
1070
    73
1070
     1
1070
    44
1040
1.0
1070
    74
1070
     0
1000
MTEXTEND
  0
POINT
  5
257D
330
21E3
100
AcDbEntity
  8
DEFPOINTS
 62
     0
 48
50.0
100
AcDbPoint
 10
6058.08479127592
 20
4298.391099810134
 30
0.0
  0
POINT
  5
257E
330
21E3
100
AcDbEntity
  8
DEFPOINTS
 62
     0
 48
50.0
100
AcDbPoint
 10
6308.08479127592
 20
4526.075718108766
 30
0.0
  0
POINT
  5
257F
330
21E3
100
AcDbEntity
  8
DEFPOINTS
 62
     0
 48
50.0
100
AcDbPoint
 10
6308.08479127592
 20
4821.634584143547
 30
0.0
  0
ENDBLK
  5
21ED
330
21E3
100
AcDbEntity
  8
0
 48
50.0
100
AcDbBlockEnd
  0
BLOCK
  5
21F7
330
21EE
100
AcDbEntity
  8
0
 48
50.0
100
AcDbBlockBegin
  2
*D16
 70
     1
 10
0.0
 20
0.0
 30
0.0
  3
*D16
  1

  0
LINE
  5
2570
330
21EE
100
AcDbEntity
  8
寸法
 62
     4
 48
50.0
370
    -2
100
AcDbLine
 10
6058.08479127592
 20
4338.391099810134
 30
0.0
 11
6058.08479127592
 21
4861.634584143547
 31
0.0
  0
LINE
  5
2571
330
21EE
100
AcDbEntity
  8
寸法
 62
     4
 48
50.0
370
    -2
100
AcDbLine
 10
3258.08479127592
 20
4821.634584143547
 30
0.0
 11
6058.08479127592
 21
4821.634584143547
 31
0.0
  0
INSERT
  5
2572
330
21EE
100
AcDbEntity
  8
寸法
 62
     4
 48
50.0
370
    -2
100
AcDbBlockReference
  2
_DOTSMALL
 10
3258.08479127592
 20
4821.634584143547
 30
0.0
 41
100.0
 42
100.0
 43
100.0
 50
180.0
  0
INSERT
  5
2573
330
21EE
100
AcDbEntity
  8
寸法
 62
     4
 48
50.0
370
    -2
100
AcDbBlockReference
  2
_DOTSMALL
 10
6058.08479127592
 20
4821.634584143547
 30
0.0
 41
100.0
 42
100.0
 43
100.0
  0
MTEXT
  5
2574
330
21EE
100
AcDbEntity
  8
寸法
 62
     7
 48
50.0
100
AcDbMText
 10
4658.08479127592
 20
4921.646395167169
 30
0.0
 40
120.0
 41
0.0
 71
     5
 72
     1
  1
\A1;2800
 73
     1
 44
1.0
1001
ACAD
1000
MTEXTBEGIN
1070
    73
1070
     1
1070
    44
1040
1.0
1070
    74
1070
     0
1000
MTEXTEND
  0
POINT
  5
2575
330
21EE
100
AcDbEntity
  8
DEFPOINTS
 62
     0
 48
50.0
100
AcDbPoint
 10
3258.08479127592
 20
4298.391099810134
 30
0.0
  0
POINT
  5
2576
330
21EE
100
AcDbEntity
  8
DEFPOINTS
 62
     0
 48
50.0
100
AcDbPoint
 10
6058.08479127592
 20
4298.391099810134
 30
0.0
  0
POINT
  5
2577
330
21EE
100
AcDbEntity
  8
DEFPOINTS
 62
     0
 48
50.0
100
AcDbPoint
 10
6058.08479127592
 20
4821.634584143547
 30
0.0
  0
ENDBLK
  5
21F8
330
21EE
100
AcDbEntity
  8
0
 48
50.0
100
AcDbBlockEnd
  0
BLOCK
  5
2203
330
21F9
100
AcDbEntity
  8
0
 48
50.0
100
AcDbBlockBegin
  2
*D17
 70
     1
 10
0.0
 20
0.0
 30
0.0
  3
*D17
  1

  0
LINE
  5
2567
330
21F9
100
AcDbEntity
  8
寸法
 62
     4
 48
50.0
370
    -2
100
AcDbLine
 10
3008.08479127592
 20
4566.075718108766
 30
0.0
 11
3008.08479127592
 21
4861.634584143547
 31
0.0
  0
LINE
  5
2568
330
21F9
100
AcDbEntity
  8
寸法
 62
     4
 48
50.0
370
    -2
100
AcDbLine
 10
3258.08479127592
 20
4338.391099810134
 30
0.0
 11
3258.08479127592
 21
4861.634584143547
 31
0.0
  0
LINE
  5
2569
330
21F9
100
AcDbEntity
  8
寸法
 62
     4
 48
50.0
370
    -2
100
AcDbLine
 10
3008.08479127592
 20
4821.634584143547
 30
0.0
 11
3258.08479127592
 21
4821.634584143547
 31
0.0
  0
INSERT
  5
256A
330
21F9
100
AcDbEntity
  8
寸法
 62
     4
 48
50.0
370
    -2
100
AcDbBlockReference
  2
_DOTSMALL
 10
3008.08479127592
 20
4821.634584143547
 30
0.0
 41
100.0
 42
100.0
 43
100.0
 50
180.0
  0
INSERT
  5
256B
330
21F9
100
AcDbEntity
  8
寸法
 62
     4
 48
50.0
370
    -2
100
AcDbBlockReference
  2
_DOTSMALL
 10
3258.08479127592
 20
4821.634584143547
 30
0.0
 41
100.0
 42
100.0
 43
100.0
  0
MTEXT
  5
256C
330
21F9
100
AcDbEntity
  8
寸法
 62
     7
 48
50.0
100
AcDbMText
 10
3133.08479127592
 20
4921.646395167169
 30
0.0
 40
120.0
 41
0.0
 71
     5
 72
     1
  1
\A1;250
 73
     1
 44
1.0
1001
ACAD
1000
MTEXTBEGIN
1070
    73
1070
     1
1070
    44
1040
1.0
1070
    74
1070
     0
1000
MTEXTEND
  0
POINT
  5
256D
330
21F9
100
AcDbEntity
  8
DEFPOINTS
 62
     0
 48
50.0
100
AcDbPoint
 10
3008.08479127592
 20
4526.075718108766
 30
0.0
  0
POINT
  5
256E
330
21F9
100
AcDbEntity
  8
DEFPOINTS
 62
     0
 48
50.0
100
AcDbPoint
 10
3258.08479127592
 20
4298.391099810134
 30
0.0
  0
POINT
  5
256F
330
21F9
100
AcDbEntity
  8
DEFPOINTS
 62
     0
 48
50.0
100
AcDbPoint
 10
3258.08479127592
 20
4821.634584143547
 30
0.0
  0
ENDBLK
  5
2204
330
21F9
100
AcDbEntity
  8
0
 48
50.0
100
AcDbBlockEnd
  0
BLOCK
  5
220E
330
2205
100
AcDbEntity
  8
0
 48
50.0
100
AcDbBlockBegin
  2
*D18
 70
     1
 10
0.0
 20
0.0
 30
0.0
  3
*D18
  1

  0
LINE
  5
255F
330
2205
100
AcDbEntity
  8
寸法
 62
     4
 48
50.0
370
    -2
100
AcDbLine
 10
2968.08479127592
 20
8065.087356638086
 30
0.0
 11
2394.415140076315
 21
8065.087356638086
 31
0.0
  0
LINE
  5
2560
330
2205
100
AcDbEntity
  8
寸法
 62
     4
 48
50.0
370
    -2
100
AcDbLine
 10
2434.415140076315
 20
8342.287356638085
 30
0.0
 11
2434.415140076315
 21
8065.087356638086
 31
0.0
  0
MTEXT
  5
2561
330
2205
100
AcDbEntity
  8
寸法
 62
     7
 48
50.0
100
AcDbMText
 10
2274.403329052693
 20
8118.315325708429
 30
0.0
 40
120.0
 41
0.0
 71
     5
 72
     1
  1
\A1;277.2
 11
0.0000000000000001
 21
1.0
 31
0.0
 73
     1
 44
1.0
1001
ACAD
1000
MTEXTBEGIN
1070
    73
1070
     1
1070
    44
1040
1.0
1070
    74
1070
     0
1000
MTEXTEND
  0
INSERT
  5
2562
330
2205
100
AcDbEntity
  8
寸法
 62
     4
 48
50.0
370
    -2
100
AcDbBlockReference
  2
_DOTSMALL
 10
2434.415140076315
 20
8342.287356638085
 30
0.0
 41
100.0
 42
100.0
 43
100.0
 50
90.0
  0
INSERT
  5
2563
330
2205
100
AcDbEntity
  8
寸法
 62
     4
 48
50.0
370
    -2
100
AcDbBlockReference
  2
_DOTSMALL
 10
2434.415140076315
 20
8065.087356638086
 30
0.0
 41
100.0
 42
100.0
 43
100.0
 50
270.0
  0
POINT
  5
2564
330
2205
100
AcDbEntity
  8
DEFPOINTS
 62
     0
 48
50.0
100
AcDbPoint
 10
3008.08479127592
 20
8342.287356638085
 30
0.0
  0
POINT
  5
2565
330
2205
100
AcDbEntity
  8
DEFPOINTS
 62
     0
 48
50.0
100
AcDbPoint
 10
3008.08479127592
 20
8065.087356638086
 30
0.0
  0
POINT
  5
2566
330
2205
100
AcDbEntity
  8
DEFPOINTS
 62
     0
 48
50.0
100
AcDbPoint
 10
2434.415140076315
 20
8065.087356638086
 30
0.0
  0
ENDBLK
  5
220F
330
2205
100
AcDbEntity
  8
0
 48
50.0
100
AcDbBlockEnd
  0
BLOCK
  5
2219
330
2210
100
AcDbEntity
  8
0
 48
50.0
100
AcDbBlockBegin
  2
*D19
 70
     1
 10
0.0
 20
0.0
 30
0.0
  3
*D19
  1

  0
LINE
  5
2557
330
2210
100
AcDbEntity
  8
寸法
 62
     4
 48
50.0
370
    -2
100
AcDbLine
 10
6338.084791275919
 20
10742.28735663808
 30
0.0
 11
6963.53771446304
 21
10742.28735663808
 31
0.0
  0
LINE
  5
2558
330
2210
100
AcDbEntity
  8
寸法
 62
     4
 48
50.0
370
    -2
100
AcDbLine
 10
6923.537714463041
 20
10618.28735663808
 30
0.0
 11
6923.537714463041
 21
10742.28735663808
 31
0.0
  0
MTEXT
  5
2559
330
2210
100
AcDbEntity
  8
寸法
 62
     7
 48
50.0
100
AcDbMText
 10
6816.120316553067
 20
10879.28613358577
 30
0.0
 40
120.0
 41
0.0
 71
     5
 72
     1
  1
\A1;124
 11
0.0000000000000001
 21
1.0
 31
0.0
 73
     1
 44
1.0
1001
ACAD
1000
MTEXTBEGIN
1070
    73
1070
     1
1070
    44
1040
1.0
1070
    74
1070
     0
1000
MTEXTEND
  0
INSERT
  5
255A
330
2210
100
AcDbEntity
  8
寸法
 62
     4
 48
50.0
370
    -2
100
AcDbBlockReference
  2
_DOTSMALL
 10
6923.537714463041
 20
10618.28735663808
 30
0.0
 41
100.0
 42
100.0
 43
100.0
 50
270.0
  0
INSERT
  5
255B
330
2210
100
AcDbEntity
  8
寸法
 62
     4
 48
50.0
370
    -2
100
AcDbBlockReference
  2
_DOTSMALL
 10
6923.537714463041
 20
10742.28735663808
 30
0.0
 41
100.0
 42
100.0
 43
100.0
 50
90.0
  0
POINT
  5
255C
330
2210
100
AcDbEntity
  8
DEFPOINTS
 62
     0
 48
50.0
100
AcDbPoint
 10
6259.584791275912
 20
10618.28735663808
 30
0.0
  0
POINT
  5
255D
330
2210
100
AcDbEntity
  8
DEFPOINTS
 62
     0
 48
50.0
100
AcDbPoint
 10
6298.084791275919
 20
10742.28735663808
 30
0.0
  0
POINT
  5
255E
330
2210
100
AcDbEntity
  8
DEFPOINTS
 62
     0
 48
50.0
100
AcDbPoint
 10
6923.537714463041
 20
10742.28735663808
 30
0.0
  0
ENDBLK
  5
221A
330
2210
100
AcDbEntity
  8
0
 48
50.0
100
AcDbBlockEnd
  0
BLOCK
  5
2224
330
221B
100
AcDbEntity
  8
0
 48
50.0
100
AcDbBlockBegin
  2
*D20
 70
     1
 10
0.0
 20
0.0
 30
0.0
  3
*D20
  1

  0
LINE
  5
254F
330
221B
100
AcDbEntity
  8
寸法
 62
     4
 48
50.0
370
    -2
100
AcDbLine
 10
6338.08479127592
 20
5942.287356638084
 30
0.0
 11
6963.53771446304
 21
5942.287356638084
 31
0.0
  0
LINE
  5
2550
330
221B
100
AcDbEntity
  8
寸法
 62
     4
 48
50.0
370
    -2
100
AcDbLine
 10
6923.537714463041
 20
6066.287356638088
 30
0.0
 11
6923.537714463041
 21
5942.287356638084
 31
0.0
  0
MTEXT
  5
2551
330
221B
100
AcDbEntity
  8
寸法
 62
     7
 48
50.0
100
AcDbMText
 10
6813.207916493695
 20
5807.236794915276
 30
0.0
 40
120.0
 41
0.0
 71
     5
 72
     1
  1
\A1;124
 11
0.0000000000000001
 21
1.0
 31
0.0
 73
     1
 44
1.0
1001
ACAD
1000
MTEXTBEGIN
1070
    73
1070
     1
1070
    44
1040
1.0
1070
    74
1070
     0
1000
MTEXTEND
  0
INSERT
  5
2552
330
221B
100
AcDbEntity
  8
寸法
 62
     4
 48
50.0
370
    -2
100
AcDbBlockReference
  2
_DOTSMALL
 10
6923.537714463041
 20
6066.287356638088
 30
0.0
 41
100.0
 42
100.0
 43
100.0
 50
90.0
  0
INSERT
  5
2553
330
221B
100
AcDbEntity
  8
寸法
 62
     4
 48
50.0
370
    -2
100
AcDbBlockReference
  2
_DOTSMALL
 10
6923.537714463041
 20
5942.287356638084
 30
0.0
 41
100.0
 42
100.0
 43
100.0
 50
270.0
  0
POINT
  5
2554
330
221B
100
AcDbEntity
  8
DEFPOINTS
 62
     0
 48
50.0
100
AcDbPoint
 10
6259.58479127592
 20
6066.287356638088
 30
0.0
  0
POINT
  5
2555
330
221B
100
AcDbEntity
  8
DEFPOINTS
 62
     0
 48
50.0
100
AcDbPoint
 10
6298.08479127592
 20
5942.287356638084
 30
0.0
  0
POINT
  5
2556
330
221B
100
AcDbEntity
  8
DEFPOINTS
 62
     0
 48
50.0
100
AcDbPoint
 10
6923.537714463041
 20
5942.287356638084
 30
0.0
  0
ENDBLK
  5
2225
330
221B
100
AcDbEntity
  8
0
 48
50.0
100
AcDbBlockEnd
  0
BLOCK
  5
222F
330
2226
100
AcDbEntity
  8
0
 48
50.0
100
AcDbBlockBegin
  2
*D21
 70
     1
 10
0.0
 20
0.0
 30
0.0
  3
*D21
  1

  0
LINE
  5
2547
330
2226
100
AcDbEntity
  8
寸法
 62
     4
 48
50.0
370
    -2
100
AcDbLine
 10
6299.58479127592
 20
6066.287356638088
 30
0.0
 11
6963.53771446304
 21
6066.287356638088
 31
0.0
  0
LINE
  5
2548
330
2226
100
AcDbEntity
  8
寸法
 62
     4
 48
50.0
370
    -2
100
AcDbLine
 10
6923.537714463042
 20
8202.287356638084
 30
0.0
 11
6923.537714463041
 21
6066.287356638088
 31
0.0
  0
INSERT
  5
2549
330
2226
100
AcDbEntity
  8
寸法
 62
     4
 48
50.0
370
    -2
100
AcDbBlockReference
  2
_DOTSMALL
 10
6923.537714463042
 20
8202.287356638084
 30
0.0
 41
100.0
 42
100.0
 43
100.0
 50
90.0
  0
INSERT
  5
254A
330
2226
100
AcDbEntity
  8
寸法
 62
     4
 48
50.0
370
    -2
100
AcDbBlockReference
  2
_DOTSMALL
 10
6923.537714463041
 20
6066.287356638088
 30
0.0
 41
100.0
 42
100.0
 43
100.0
 50
270.0
  0
MTEXT
  5
254B
330
2226
100
AcDbEntity
  8
寸法
 62
     7
 48
50.0
100
AcDbMText
 10
6823.525903439417
 20
7134.287356638087
 30
0.0
 40
120.0
 41
0.0
 71
     5
 72
     1
  1
\A1;2136
 11
0.0000000000000001
 21
1.0
 31
0.0
 73
     1
 44
1.0
1001
ACAD
1000
MTEXTBEGIN
1070
    73
1070
     1
1070
    44
1040
1.0
1070
    74
1070
     0
1000
MTEXTEND
  0
POINT
  5
254C
330
2226
100
AcDbEntity
  8
DEFPOINTS
 62
     0
 48
50.0
100
AcDbPoint
 10
6263.08479127592
 20
8202.287356638084
 30
0.0
  0
POINT
  5
254D
330
2226
100
AcDbEntity
  8
DEFPOINTS
 62
     0
 48
50.0
100
AcDbPoint
 10
6259.58479127592
 20
6066.287356638088
 30
0.0
  0
POINT
  5
254E
330
2226
100
AcDbEntity
  8
DEFPOINTS
 62
     0
 48
50.0
100
AcDbPoint
 10
6923.537714463041
 20
6066.287356638088
 30
0.0
  0
ENDBLK
  5
2230
330
2226
100
AcDbEntity
  8
0
 48
50.0
100
AcDbBlockEnd
  0
BLOCK
  5
223A
330
2231
100
AcDbEntity
  8
0
 48
50.0
100
AcDbBlockBegin
  2
*D22
 70
     1
 10
0.0
 20
0.0
 30
0.0
  3
*D22
  1

  0
LINE
  5
253F
330
2231
100
AcDbEntity
  8
寸法
 62
     4
 48
50.0
370
    -2
100
AcDbLine
 10
6303.08479127592
 20
8202.287356638084
 30
0.0
 11
6963.53771446304
 21
8202.287356638084
 31
0.0
  0
LINE
  5
2540
330
2231
100
AcDbEntity
  8
寸法
 62
     4
 48
50.0
370
    -2
100
AcDbLine
 10
6923.537714463041
 20
8482.287356638083
 30
0.0
 11
6923.537714463041
 21
8202.287356638084
 31
0.0
  0
MTEXT
  5
2541
330
2231
100
AcDbEntity
  8
寸法
 62
     7
 48
50.0
100
AcDbMText
 10
6834.836851809821
 20
8342.287356638085
 30
0.0
 40
120.0
 41
0.0
 71
     5
 72
     1
  1
\A1;280
 11
0.0000000000000001
 21
1.0
 31
0.0
 73
     1
 44
1.0
1001
ACAD
1000
MTEXTBEGIN
1070
    73
1070
     1
1070
    44
1040
1.0
1070
    74
1070
     0
1000
MTEXTEND
  0
INSERT
  5
2542
330
2231
100
AcDbEntity
  8
寸法
 62
     4
 48
50.0
370
    -2
100
AcDbBlockReference
  2
_DOTSMALL
 10
6923.537714463041
 20
8482.287356638083
 30
0.0
 41
100.0
 42
100.0
 43
100.0
 50
90.0
  0
INSERT
  5
2543
330
2231
100
AcDbEntity
  8
寸法
 62
     4
 48
50.0
370
    -2
100
AcDbBlockReference
  2
_DOTSMALL
 10
6923.537714463041
 20
8202.287356638084
 30
0.0
 41
100.0
 42
100.0
 43
100.0
 50
270.0
  0
POINT
  5
2544
330
2231
100
AcDbEntity
  8
DEFPOINTS
 62
     0
 48
50.0
100
AcDbPoint
 10
6263.084791275919
 20
8482.287356638083
 30
0.0
  0
POINT
  5
2545
330
2231
100
AcDbEntity
  8
DEFPOINTS
 62
     0
 48
50.0
100
AcDbPoint
 10
6263.08479127592
 20
8202.287356638084
 30
0.0
  0
POINT
  5
2546
330
2231
100
AcDbEntity
  8
DEFPOINTS
 62
     0
 48
50.0
100
AcDbPoint
 10
6923.537714463041
 20
8202.287356638084
 30
0.0
  0
ENDBLK
  5
223B
330
2231
100
AcDbEntity
  8
0
 48
50.0
100
AcDbBlockEnd
  0
BLOCK
  5
2246
330
223C
100
AcDbEntity
  8
0
 48
50.0
100
AcDbBlockBegin
  2
*D23
 70
     1
 10
0.0
 20
0.0
 30
0.0
  3
*D23
  1

  0
LINE
  5
2536
330
223C
100
AcDbEntity
  8
寸法
 62
     4
 48
50.0
370
    -2
100
AcDbLine
 10
6299.584791275913
 20
10618.28735663808
 30
0.0
 11
6963.537714463041
 21
10618.28735663808
 31
0.0
  0
LINE
  5
2537
330
223C
100
AcDbEntity
  8
寸法
 62
     4
 48
50.0
370
    -2
100
AcDbLine
 10
6303.084791275919
 20
8482.287356638083
 30
0.0
 11
6963.53771446304
 21
8482.287356638083
 31
0.0
  0
LINE
  5
2538
330
223C
100
AcDbEntity
  8
寸法
 62
     4
 48
50.0
370
    -2
100
AcDbLine
 10
6923.537714463042
 20
10618.28735663808
 30
0.0
 11
6923.537714463041
 21
8482.287356638083
 31
0.0
  0
INSERT
  5
2539
330
223C
100
AcDbEntity
  8
寸法
 62
     4
 48
50.0
370
    -2
100
AcDbBlockReference
  2
_DOTSMALL
 10
6923.537714463042
 20
10618.28735663808
 30
0.0
 41
100.0
 42
100.0
 43
100.0
 50
90.0
  0
INSERT
  5
253A
330
223C
100
AcDbEntity
  8
寸法
 62
     4
 48
50.0
370
    -2
100
AcDbBlockReference
  2
_DOTSMALL
 10
6923.537714463041
 20
8482.287356638083
 30
0.0
 41
100.0
 42
100.0
 43
100.0
 50
270.0
  0
MTEXT
  5
253B
330
223C
100
AcDbEntity
  8
寸法
 62
     7
 48
50.0
100
AcDbMText
 10
6823.525903439417
 20
9550.287356638088
 30
0.0
 40
120.0
 41
0.0
 71
     5
 72
     1
  1
\A1;2136
 11
0.0000000000000001
 21
1.0
 31
0.0
 73
     1
 44
1.0
1001
ACAD
1000
MTEXTBEGIN
1070
    73
1070
     1
1070
    44
1040
1.0
1070
    74
1070
     0
1000
MTEXTEND
  0
POINT
  5
253C
330
223C
100
AcDbEntity
  8
DEFPOINTS
 62
     0
 48
50.0
100
AcDbPoint
 10
6259.584791275912
 20
10618.28735663808
 30
0.0
  0
POINT
  5
253D
330
223C
100
AcDbEntity
  8
DEFPOINTS
 62
     0
 48
50.0
100
AcDbPoint
 10
6263.084791275919
 20
8482.287356638083
 30
0.0
  0
POINT
  5
253E
330
223C
100
AcDbEntity
  8
DEFPOINTS
 62
     0
 48
50.0
100
AcDbPoint
 10
6923.537714463041
 20
8482.287356638083
 30
0.0
  0
ENDBLK
  5
2247
330
223C
100
AcDbEntity
  8
0
 48
50.0
100
AcDbBlockEnd
  0
BLOCK
  5
2252
330
2248
100
AcDbEntity
  8
0
 48
50.0
100
AcDbBlockBegin
  2
*D24
 70
     1
 10
0.0
 20
0.0
 30
0.0
  3
*D24
  1

  0
LINE
  5
252D
330
2248
100
AcDbEntity
  8
寸法
 62
     4
 48
50.0
370
    -2
100
AcDbLine
 10
2978.08479127592
 20
10742.28735663808
 30
0.0
 11
2114.415140076316
 21
10742.28735663808
 31
0.0
  0
LINE
  5
252E
330
2248
100
AcDbEntity
  8
寸法
 62
     4
 48
50.0
370
    -2
100
AcDbLine
 10
2978.08479127592
 20
5942.287356638084
 30
0.0
 11
2114.415140076315
 21
5942.287356638084
 31
0.0
  0
LINE
  5
252F
330
2248
100
AcDbEntity
  8
寸法
 62
     4
 48
50.0
370
    -2
100
AcDbLine
 10
2154.415140076316
 20
10742.28735663808
 30
0.0
 11
2154.415140076315
 21
5942.287356638084
 31
0.0
  0
INSERT
  5
2530
330
2248
100
AcDbEntity
  8
寸法
 62
     4
 48
50.0
370
    -2
100
AcDbBlockReference
  2
_DOTSMALL
 10
2154.415140076316
 20
10742.28735663808
 30
0.0
 41
100.0
 42
100.0
 43
100.0
 50
90.0
  0
INSERT
  5
2531
330
2248
100
AcDbEntity
  8
寸法
 62
     4
 48
50.0
370
    -2
100
AcDbBlockReference
  2
_DOTSMALL
 10
2154.415140076315
 20
5942.287356638084
 30
0.0
 41
100.0
 42
100.0
 43
100.0
 50
270.0
  0
MTEXT
  5
2532
330
2248
100
AcDbEntity
  8
寸法
 62
     7
 48
50.0
100
AcDbMText
 10
2054.415140076314
 20
8342.287356638085
 30
0.0
 40
120.0
 41
0.0
 71
     5
 72
     1
  1
\A1;4800
 11
0.0000000000000001
 21
1.0
 31
0.0
 73
     1
 44
1.0
1001
ACAD
1000
MTEXTBEGIN
1070
    73
1070
     1
1070
    44
1040
1.0
1070
    74
1070
     0
1000
MTEXTEND
  0
POINT
  5
2533
330
2248
100
AcDbEntity
  8
DEFPOINTS
 62
     0
 48
50.0
100
AcDbPoint
 10
3018.08479127592
 20
10742.28735663808
 30
0.0
  0
POINT
  5
2534
330
2248
100
AcDbEntity
  8
DEFPOINTS
 62
     0
 48
50.0
100
AcDbPoint
 10
3018.08479127592
 20
5942.287356638084
 30
0.0
  0
POINT
  5
2535
330
2248
100
AcDbEntity
  8
DEFPOINTS
 62
     0
 48
50.0
100
AcDbPoint
 10
2154.415140076315
 20
5942.287356638084
 30
0.0
  0
ENDBLK
  5
2253
330
2248
100
AcDbEntity
  8
0
 48
50.0
100
AcDbBlockEnd
  0
BLOCK
  5
225D
330
2254
100
AcDbEntity
  8
0
 48
50.0
100
AcDbBlockBegin
  2
*D25
 70
     1
 10
0.0
 20
0.0
 30
0.0
  3
*D25
  1

  0
LINE
  5
2525
330
2254
100
AcDbEntity
  8
寸法
 62
     4
 48
50.0
370
    -2
100
AcDbLine
 10
2978.08479127592
 20
5942.287356638084
 30
0.0
 11
2394.415140076315
 21
5942.287356638084
 31
0.0
  0
LINE
  5
2526
330
2254
100
AcDbEntity
  8
寸法
 62
     4
 48
50.0
370
    -2
100
AcDbLine
 10
2434.415140076315
 20
6179.287356638084
 30
0.0
 11
2434.415140076315
 21
5942.287356638084
 31
0.0
  0
MTEXT
  5
2527
330
2254
100
AcDbEntity
  8
寸法
 62
     7
 48
50.0
100
AcDbMText
 10
2274.403329052692
 20
6060.787356638085
 30
0.0
 40
120.0
 41
0.0
 71
     5
 72
     1
  1
\A1;237
 11
0.0000000000000001
 21
1.0
 31
0.0
 73
     1
 44
1.0
1001
ACAD
1000
MTEXTBEGIN
1070
    73
1070
     1
1070
    44
1040
1.0
1070
    74
1070
     0
1000
MTEXTEND
  0
INSERT
  5
2528
330
2254
100
AcDbEntity
  8
寸法
 62
     4
 48
50.0
370
    -2
100
AcDbBlockReference
  2
_DOTSMALL
 10
2434.415140076315
 20
6179.287356638084
 30
0.0
 41
100.0
 42
100.0
 43
100.0
 50
90.0
  0
INSERT
  5
2529
330
2254
100
AcDbEntity
  8
寸法
 62
     4
 48
50.0
370
    -2
100
AcDbBlockReference
  2
_DOTSMALL
 10
2434.415140076315
 20
5942.287356638084
 30
0.0
 41
100.0
 42
100.0
 43
100.0
 50
270.0
  0
POINT
  5
252A
330
2254
100
AcDbEntity
  8
DEFPOINTS
 62
     0
 48
50.0
100
AcDbPoint
 10
3008.08479127592
 20
6179.287356638084
 30
0.0
  0
POINT
  5
252B
330
2254
100
AcDbEntity
  8
DEFPOINTS
 62
     0
 48
50.0
100
AcDbPoint
 10
3018.08479127592
 20
5942.287356638084
 30
0.0
  0
POINT
  5
252C
330
2254
100
AcDbEntity
  8
DEFPOINTS
 62
     0
 48
50.0
100
AcDbPoint
 10
2434.415140076315
 20
5942.287356638084
 30
0.0
  0
ENDBLK
  5
225E
330
2254
100
AcDbEntity
  8
0
 48
50.0
100
AcDbBlockEnd
  0
BLOCK
  5
2268
330
225F
100
AcDbEntity
  8
0
 48
50.0
100
AcDbBlockBegin
  2
*D26
 70
     1
 10
0.0
 20
0.0
 30
0.0
  3
*D26
  1

  0
LINE
  5
251D
330
225F
100
AcDbEntity
  8
寸法
 62
     4
 48
50.0
370
    -2
100
AcDbLine
 10
2968.08479127592
 20
6179.287356638084
 30
0.0
 11
2394.415140076315
 21
6179.287356638084
 31
0.0
  0
LINE
  5
251E
330
225F
100
AcDbEntity
  8
寸法
 62
     4
 48
50.0
370
    -2
100
AcDbLine
 10
2434.415140076315
 20
6807.887356638085
 30
0.0
 11
2434.415140076315
 21
6179.287356638084
 31
0.0
  0
INSERT
  5
251F
330
225F
100
AcDbEntity
  8
寸法
 62
     4
 48
50.0
370
    -2
100
AcDbBlockReference
  2
_DOTSMALL
 10
2434.415140076315
 20
6807.887356638085
 30
0.0
 41
100.0
 42
100.0
 43
100.0
 50
90.0
  0
INSERT
  5
2520
330
225F
100
AcDbEntity
  8
寸法
 62
     4
 48
50.0
370
    -2
100
AcDbBlockReference
  2
_DOTSMALL
 10
2434.415140076315
 20
6179.287356638084
 30
0.0
 41
100.0
 42
100.0
 43
100.0
 50
270.0
  0
MTEXT
  5
2521
330
225F
100
AcDbEntity
  8
寸法
 62
     7
 48
50.0
100
AcDbMText
 10
2334.403329052692
 20
6493.587356638085
 30
0.0
 40
120.0
 41
0.0
 71
     5
 72
     1
  1
\A1;628.6
 11
0.0000000000000001
 21
1.0
 31
0.0
 73
     1
 44
1.0
1001
ACAD
1000
MTEXTBEGIN
1070
    73
1070
     1
1070
    44
1040
1.0
1070
    74
1070
     0
1000
MTEXTEND
  0
POINT
  5
2522
330
225F
100
AcDbEntity
  8
DEFPOINTS
 62
     0
 48
50.0
100
AcDbPoint
 10
3008.08479127592
 20
6807.887356638085
 30
0.0
  0
POINT
  5
2523
330
225F
100
AcDbEntity
  8
DEFPOINTS
 62
     0
 48
50.0
100
AcDbPoint
 10
3008.08479127592
 20
6179.287356638084
 30
0.0
  0
POINT
  5
2524
330
225F
100
AcDbEntity
  8
DEFPOINTS
 62
     0
 48
50.0
100
AcDbPoint
 10
2434.415140076315
 20
6179.287356638084
 30
0.0
  0
ENDBLK
  5
2269
330
225F
100
AcDbEntity
  8
0
 48
50.0
100
AcDbBlockEnd
  0
BLOCK
  5
2273
330
226A
100
AcDbEntity
  8
0
 48
50.0
100
AcDbBlockBegin
  2
*D27
 70
     1
 10
0.0
 20
0.0
 30
0.0
  3
*D27
  1

  0
LINE
  5
2515
330
226A
100
AcDbEntity
  8
寸法
 62
     4
 48
50.0
370
    -2
100
AcDbLine
 10
2968.08479127592
 20
6807.887356638085
 30
0.0
 11
2394.415140076315
 21
6807.887356638085
 31
0.0
  0
LINE
  5
2516
330
226A
100
AcDbEntity
  8
寸法
 62
     4
 48
50.0
370
    -2
100
AcDbLine
 10
2434.415140076315
 20
7436.487356638085
 30
0.0
 11
2434.415140076315
 21
6807.887356638085
 31
0.0
  0
INSERT
  5
2517
330
226A
100
AcDbEntity
  8
寸法
 62
     4
 48
50.0
370
    -2
100
AcDbBlockReference
  2
_DOTSMALL
 10
2434.415140076315
 20
7436.487356638085
 30
0.0
 41
100.0
 42
100.0
 43
100.0
 50
90.0
  0
INSERT
  5
2518
330
226A
100
AcDbEntity
  8
寸法
 62
     4
 48
50.0
370
    -2
100
AcDbBlockReference
  2
_DOTSMALL
 10
2434.415140076315
 20
6807.887356638085
 30
0.0
 41
100.0
 42
100.0
 43
100.0
 50
270.0
  0
MTEXT
  5
2519
330
226A
100
AcDbEntity
  8
寸法
 62
     7
 48
50.0
100
AcDbMText
 10
2334.403329052692
 20
7122.187356638085
 30
0.0
 40
120.0
 41
0.0
 71
     5
 72
     1
  1
\A1;628.6
 11
0.0000000000000001
 21
1.0
 31
0.0
 73
     1
 44
1.0
1001
ACAD
1000
MTEXTBEGIN
1070
    73
1070
     1
1070
    44
1040
1.0
1070
    74
1070
     0
1000
MTEXTEND
  0
POINT
  5
251A
330
226A
100
AcDbEntity
  8
DEFPOINTS
 62
     0
 48
50.0
100
AcDbPoint
 10
3008.08479127592
 20
7436.487356638085
 30
0.0
  0
POINT
  5
251B
330
226A
100
AcDbEntity
  8
DEFPOINTS
 62
     0
 48
50.0
100
AcDbPoint
 10
3008.08479127592
 20
6807.887356638085
 30
0.0
  0
POINT
  5
251C
330
226A
100
AcDbEntity
  8
DEFPOINTS
 62
     0
 48
50.0
100
AcDbPoint
 10
2434.415140076315
 20
6807.887356638085
 30
0.0
  0
ENDBLK
  5
2274
330
226A
100
AcDbEntity
  8
0
 48
50.0
100
AcDbBlockEnd
  0
BLOCK
  5
227E
330
2275
100
AcDbEntity
  8
0
 48
50.0
100
AcDbBlockBegin
  2
*D28
 70
     1
 10
0.0
 20
0.0
 30
0.0
  3
*D28
  1

  0
LINE
  5
250D
330
2275
100
AcDbEntity
  8
寸法
 62
     4
 48
50.0
370
    -2
100
AcDbLine
 10
2968.08479127592
 20
7436.487356638085
 30
0.0
 11
2394.415140076315
 21
7436.487356638085
 31
0.0
  0
LINE
  5
250E
330
2275
100
AcDbEntity
  8
寸法
 62
     4
 48
50.0
370
    -2
100
AcDbLine
 10
2434.415140076315
 20
8065.087356638086
 30
0.0
 11
2434.415140076315
 21
7436.487356638085
 31
0.0
  0
MTEXT
  5
250F
330
2275
100
AcDbEntity
  8
寸法
 62
     7
 48
50.0
100
AcDbMText
 10
2274.415140076315
 20
7662.118383382564
 30
0.0
 40
120.0
 41
0.0
 71
     5
 72
     1
  1
\A1;628.6
 11
0.0000000000000001
 21
1.0
 31
0.0
 73
     1
 44
1.0
1001
ACAD
1000
MTEXTBEGIN
1070
    73
1070
     1
1070
    44
1040
1.0
1070
    74
1070
     0
1000
MTEXTEND
  0
INSERT
  5
2510
330
2275
100
AcDbEntity
  8
寸法
 62
     4
 48
50.0
370
    -2
100
AcDbBlockReference
  2
_DOTSMALL
 10
2434.415140076315
 20
8065.087356638086
 30
0.0
 41
100.0
 42
100.0
 43
100.0
 50
90.0
  0
INSERT
  5
2511
330
2275
100
AcDbEntity
  8
寸法
 62
     4
 48
50.0
370
    -2
100
AcDbBlockReference
  2
_DOTSMALL
 10
2434.415140076315
 20
7436.487356638085
 30
0.0
 41
100.0
 42
100.0
 43
100.0
 50
270.0
  0
POINT
  5
2512
330
2275
100
AcDbEntity
  8
DEFPOINTS
 62
     0
 48
50.0
100
AcDbPoint
 10
3008.08479127592
 20
8065.087356638086
 30
0.0
  0
POINT
  5
2513
330
2275
100
AcDbEntity
  8
DEFPOINTS
 62
     0
 48
50.0
100
AcDbPoint
 10
3008.08479127592
 20
7436.487356638085
 30
0.0
  0
POINT
  5
2514
330
2275
100
AcDbEntity
  8
DEFPOINTS
 62
     0
 48
50.0
100
AcDbPoint
 10
2434.415140076315
 20
7436.487356638085
 30
0.0
  0
ENDBLK
  5
227F
330
2275
100
AcDbEntity
  8
0
 48
50.0
100
AcDbBlockEnd
  0
BLOCK
  5
2289
330
2280
100
AcDbEntity
  8
0
 48
50.0
100
AcDbBlockBegin
  2
*D29
 70
     1
 10
0.0
 20
0.0
 30
0.0
  3
*D29
  1

  0
LINE
  5
2505
330
2280
100
AcDbEntity
  8
寸法
 62
     4
 48
50.0
370
    -2
100
AcDbLine
 10
2968.08479127592
 20
8342.287356638085
 30
0.0
 11
2394.415140076315
 21
8342.287356638085
 31
0.0
  0
LINE
  5
2506
330
2280
100
AcDbEntity
  8
寸法
 62
     4
 48
50.0
370
    -2
100
AcDbLine
 10
2434.415140076315
 20
8619.48735663808
 30
0.0
 11
2434.415140076315
 21
8342.287356638085
 31
0.0
  0
MTEXT
  5
2507
330
2280
100
AcDbEntity
  8
寸法
 62
     7
 48
50.0
100
AcDbMText
 10
2274.403329052693
 20
8578.819408168856
 30
0.0
 40
120.0
 41
0.0
 71
     5
 72
     1
  1
\A1;277.2
 11
0.0000000000000001
 21
1.0
 31
0.0
 73
     1
 44
1.0
1001
ACAD
1000
MTEXTBEGIN
1070
    73
1070
     1
1070
    44
1040
1.0
1070
    74
1070
     0
1000
MTEXTEND
  0
INSERT
  5
2508
330
2280
100
AcDbEntity
  8
寸法
 62
     4
 48
50.0
370
    -2
100
AcDbBlockReference
  2
_DOTSMALL
 10
2434.415140076315
 20
8619.48735663808
 30
0.0
 41
100.0
 42
100.0
 43
100.0
 50
90.0
  0
INSERT
  5
2509
330
2280
100
AcDbEntity
  8
寸法
 62
     4
 48
50.0
370
    -2
100
AcDbBlockReference
  2
_DOTSMALL
 10
2434.415140076315
 20
8342.287356638085
 30
0.0
 41
100.0
 42
100.0
 43
100.0
 50
270.0
  0
POINT
  5
250A
330
2280
100
AcDbEntity
  8
DEFPOINTS
 62
     0
 48
50.0
100
AcDbPoint
 10
3008.08479127592
 20
8619.48735663808
 30
0.0
  0
POINT
  5
250B
330
2280
100
AcDbEntity
  8
DEFPOINTS
 62
     0
 48
50.0
100
AcDbPoint
 10
3008.08479127592
 20
8342.287356638085
 30
0.0
  0
POINT
  5
250C
330
2280
100
AcDbEntity
  8
DEFPOINTS
 62
     0
 48
50.0
100
AcDbPoint
 10
2434.415140076315
 20
8342.287356638085
 30
0.0
  0
ENDBLK
  5
228A
330
2280
100
AcDbEntity
  8
0
 48
50.0
100
AcDbBlockEnd
  0
BLOCK
  5
2294
330
228B
100
AcDbEntity
  8
0
 48
50.0
100
AcDbBlockBegin
  2
*D30
 70
     1
 10
0.0
 20
0.0
 30
0.0
  3
*D30
  1

  0
LINE
  5
24FD
330
228B
100
AcDbEntity
  8
寸法
 62
     4
 48
50.0
370
    -2
100
AcDbLine
 10
2968.08479127592
 20
8619.48735663808
 30
0.0
 11
2394.415140076315
 21
8619.48735663808
 31
0.0
  0
LINE
  5
24FE
330
228B
100
AcDbEntity
  8
寸法
 62
     4
 48
50.0
370
    -2
100
AcDbLine
 10
2434.415140076315
 20
9248.087356638082
 30
0.0
 11
2434.415140076315
 21
8619.48735663808
 31
0.0
  0
MTEXT
  5
24FF
330
228B
100
AcDbEntity
  8
寸法
 62
     7
 48
50.0
100
AcDbMText
 10
2274.415140076315
 20
9028.267876983878
 30
0.0
 40
120.0
 41
0.0
 71
     5
 72
     1
  1
\A1;628.6
 11
0.0000000000000001
 21
1.0
 31
0.0
 73
     1
 44
1.0
1001
ACAD
1000
MTEXTBEGIN
1070
    73
1070
     1
1070
    44
1040
1.0
1070
    74
1070
     0
1000
MTEXTEND
  0
INSERT
  5
2500
330
228B
100
AcDbEntity
  8
寸法
 62
     4
 48
50.0
370
    -2
100
AcDbBlockReference
  2
_DOTSMALL
 10
2434.415140076315
 20
9248.087356638082
 30
0.0
 41
100.0
 42
100.0
 43
100.0
 50
90.0
  0
INSERT
  5
2501
330
228B
100
AcDbEntity
  8
寸法
 62
     4
 48
50.0
370
    -2
100
AcDbBlockReference
  2
_DOTSMALL
 10
2434.415140076315
 20
8619.48735663808
 30
0.0
 41
100.0
 42
100.0
 43
100.0
 50
270.0
  0
POINT
  5
2502
330
228B
100
AcDbEntity
  8
DEFPOINTS
 62
     0
 48
50.0
100
AcDbPoint
 10
3008.08479127592
 20
9248.087356638082
 30
0.0
  0
POINT
  5
2503
330
228B
100
AcDbEntity
  8
DEFPOINTS
 62
     0
 48
50.0
100
AcDbPoint
 10
3008.08479127592
 20
8619.48735663808
 30
0.0
  0
POINT
  5
2504
330
228B
100
AcDbEntity
  8
DEFPOINTS
 62
     0
 48
50.0
100
AcDbPoint
 10
2434.415140076315
 20
8619.48735663808
 30
0.0
  0
ENDBLK
  5
2295
330
228B
100
AcDbEntity
  8
0
 48
50.0
100
AcDbBlockEnd
  0
BLOCK
  5
229F
330
2296
100
AcDbEntity
  8
0
 48
50.0
100
AcDbBlockBegin
  2
*D31
 70
     1
 10
0.0
 20
0.0
 30
0.0
  3
*D31
  1

  0
LINE
  5
24F5
330
2296
100
AcDbEntity
  8
寸法
 62
     4
 48
50.0
370
    -2
100
AcDbLine
 10
2968.08479127592
 20
9248.087356638082
 30
0.0
 11
2394.415140076315
 21
9248.087356638082
 31
0.0
  0
LINE
  5
24F6
330
2296
100
AcDbEntity
  8
寸法
 62
     4
 48
50.0
370
    -2
100
AcDbLine
 10
2434.415140076315
 20
9876.687356638084
 30
0.0
 11
2434.415140076315
 21
9248.087356638082
 31
0.0
  0
INSERT
  5
24F7
330
2296
100
AcDbEntity
  8
寸法
 62
     4
 48
50.0
370
    -2
100
AcDbBlockReference
  2
_DOTSMALL
 10
2434.415140076315
 20
9876.687356638084
 30
0.0
 41
100.0
 42
100.0
 43
100.0
 50
90.0
  0
INSERT
  5
24F8
330
2296
100
AcDbEntity
  8
寸法
 62
     4
 48
50.0
370
    -2
100
AcDbBlockReference
  2
_DOTSMALL
 10
2434.415140076315
 20
9248.087356638082
 30
0.0
 41
100.0
 42
100.0
 43
100.0
 50
270.0
  0
MTEXT
  5
24F9
330
2296
100
AcDbEntity
  8
寸法
 62
     7
 48
50.0
100
AcDbMText
 10
2334.403329052691
 20
9562.387356638081
 30
0.0
 40
120.0
 41
0.0
 71
     5
 72
     1
  1
\A1;628.6
 11
0.0000000000000001
 21
1.0
 31
0.0
 73
     1
 44
1.0
1001
ACAD
1000
MTEXTBEGIN
1070
    73
1070
     1
1070
    44
1040
1.0
1070
    74
1070
     0
1000
MTEXTEND
  0
POINT
  5
24FA
330
2296
100
AcDbEntity
  8
DEFPOINTS
 62
     0
 48
50.0
100
AcDbPoint
 10
3008.08479127592
 20
9876.687356638084
 30
0.0
  0
POINT
  5
24FB
330
2296
100
AcDbEntity
  8
DEFPOINTS
 62
     0
 48
50.0
100
AcDbPoint
 10
3008.08479127592
 20
9248.087356638082
 30
0.0
  0
POINT
  5
24FC
330
2296
100
AcDbEntity
  8
DEFPOINTS
 62
     0
 48
50.0
100
AcDbPoint
 10
2434.415140076315
 20
9248.087356638082
 30
0.0
  0
ENDBLK
  5
22A0
330
2296
100
AcDbEntity
  8
0
 48
50.0
100
AcDbBlockEnd
  0
BLOCK
  5
22AA
330
22A1
100
AcDbEntity
  8
0
 48
50.0
100
AcDbBlockBegin
  2
*D32
 70
     1
 10
0.0
 20
0.0
 30
0.0
  3
*D32
  1

  0
LINE
  5
24ED
330
22A1
100
AcDbEntity
  8
寸法
 62
     4
 48
50.0
370
    -2
100
AcDbLine
 10
2968.08479127592
 20
9876.687356638084
 30
0.0
 11
2394.415140076315
 21
9876.687356638084
 31
0.0
  0
LINE
  5
24EE
330
22A1
100
AcDbEntity
  8
寸法
 62
     4
 48
50.0
370
    -2
100
AcDbLine
 10
2434.415140076315
 20
10505.28735663808
 30
0.0
 11
2434.415140076315
 21
9876.687356638084
 31
0.0
  0
INSERT
  5
24EF
330
22A1
100
AcDbEntity
  8
寸法
 62
     4
 48
50.0
370
    -2
100
AcDbBlockReference
  2
_DOTSMALL
 10
2434.415140076315
 20
10505.28735663808
 30
0.0
 41
100.0
 42
100.0
 43
100.0
 50
90.0
  0
INSERT
  5
24F0
330
22A1
100
AcDbEntity
  8
寸法
 62
     4
 48
50.0
370
    -2
100
AcDbBlockReference
  2
_DOTSMALL
 10
2434.415140076315
 20
9876.687356638084
 30
0.0
 41
100.0
 42
100.0
 43
100.0
 50
270.0
  0
MTEXT
  5
24F1
330
22A1
100
AcDbEntity
  8
寸法
 62
     7
 48
50.0
100
AcDbMText
 10
2334.403329052691
 20
10190.98735663808
 30
0.0
 40
120.0
 41
0.0
 71
     5
 72
     1
  1
\A1;628.6
 11
0.0000000000000001
 21
1.0
 31
0.0
 73
     1
 44
1.0
1001
ACAD
1000
MTEXTBEGIN
1070
    73
1070
     1
1070
    44
1040
1.0
1070
    74
1070
     0
1000
MTEXTEND
  0
POINT
  5
24F2
330
22A1
100
AcDbEntity
  8
DEFPOINTS
 62
     0
 48
50.0
100
AcDbPoint
 10
3008.08479127592
 20
10505.28735663808
 30
0.0
  0
POINT
  5
24F3
330
22A1
100
AcDbEntity
  8
DEFPOINTS
 62
     0
 48
50.0
100
AcDbPoint
 10
3008.08479127592
 20
9876.687356638084
 30
0.0
  0
POINT
  5
24F4
330
22A1
100
AcDbEntity
  8
DEFPOINTS
 62
     0
 48
50.0
100
AcDbPoint
 10
2434.415140076315
 20
9876.687356638084
 30
0.0
  0
ENDBLK
  5
22AB
330
22A1
100
AcDbEntity
  8
0
 48
50.0
100
AcDbBlockEnd
  0
BLOCK
  5
22B6
330
22AC
100
AcDbEntity
  8
0
 48
50.0
100
AcDbBlockBegin
  2
*D33
 70
     1
 10
0.0
 20
0.0
 30
0.0
  3
*D33
  1

  0
LINE
  5
24E4
330
22AC
100
AcDbEntity
  8
寸法
 62
     4
 48
50.0
370
    -2
100
AcDbLine
 10
2978.08479127592
 20
10742.28735663808
 30
0.0
 11
2394.415140076315
 21
10742.28735663808
 31
0.0
  0
LINE
  5
24E5
330
22AC
100
AcDbEntity
  8
寸法
 62
     4
 48
50.0
370
    -2
100
AcDbLine
 10
2968.08479127592
 20
10505.28735663808
 30
0.0
 11
2394.415140076315
 21
10505.28735663808
 31
0.0
  0
LINE
  5
24E6
330
22AC
100
AcDbEntity
  8
寸法
 62
     4
 48
50.0
370
    -2
100
AcDbLine
 10
2434.415140076315
 20
10742.28735663808
 30
0.0
 11
2434.415140076315
 21
10505.28735663808
 31
0.0
  0
MTEXT
  5
24E7
330
22AC
100
AcDbEntity
  8
寸法
 62
     7
 48
50.0
100
AcDbMText
 10
2274.403329052691
 20
10623.78735663808
 30
0.0
 40
120.0
 41
0.0
 71
     5
 72
     1
  1
\A1;237
 11
0.0000000000000001
 21
1.0
 31
0.0
 73
     1
 44
1.0
1001
ACAD
1000
MTEXTBEGIN
1070
    73
1070
     1
1070
    44
1040
1.0
1070
    74
1070
     0
1000
MTEXTEND
  0
INSERT
  5
24E8
330
22AC
100
AcDbEntity
  8
寸法
 62
     4
 48
50.0
370
    -2
100
AcDbBlockReference
  2
_DOTSMALL
 10
2434.415140076315
 20
10742.28735663808
 30
0.0
 41
100.0
 42
100.0
 43
100.0
 50
90.0
  0
INSERT
  5
24E9
330
22AC
100
AcDbEntity
  8
寸法
 62
     4
 48
50.0
370
    -2
100
AcDbBlockReference
  2
_DOTSMALL
 10
2434.415140076315
 20
10505.28735663808
 30
0.0
 41
100.0
 42
100.0
 43
100.0
 50
270.0
  0
POINT
  5
24EA
330
22AC
100
AcDbEntity
  8
DEFPOINTS
 62
     0
 48
50.0
100
AcDbPoint
 10
3018.08479127592
 20
10742.28735663808
 30
0.0
  0
POINT
  5
24EB
330
22AC
100
AcDbEntity
  8
DEFPOINTS
 62
     0
 48
50.0
100
AcDbPoint
 10
3008.08479127592
 20
10505.28735663808
 30
0.0
  0
POINT
  5
24EC
330
22AC
100
AcDbEntity
  8
DEFPOINTS
 62
     0
 48
50.0
100
AcDbPoint
 10
2434.415140076315
 20
10505.28735663808
 30
0.0
  0
ENDBLK
  5
22B7
330
22AC
100
AcDbEntity
  8
0
 48
50.0
100
AcDbBlockEnd
  0
ENDSEC
  0
SECTION
  2
ENTITIES
  0
MTEXT
  5
1411
330
1A
100
AcDbEntity
  8
0
100
AcDbMText
 10
12113.85383347236
 20
11207.9349056396
 30
0.0
 40
140.0
 41
212.9488506697089
 71
     1
 72
     5
  1

  7
MSMINCHO
 73
     1
 44
1.0
1001
ACAD
1000
MTEXTBEGIN
1070
    73
1070
     1
1070
    44
1040
1.0
1070
    74
1070
     0
1000
MTEXTEND
  0
LINE
  5
1E5C
330
1A
100
AcDbEntity
  8
点線
 48
6.0
100
AcDbLine
 10
6278.084791275919
 20
6201.787356638084
 30
0.0
 11
6278.084791275919
 21
6136.787356638084
 31
0.0
  0
LINE
  5
1E5D
330
1A
100
AcDbEntity
  8
点線
 48
6.0
100
AcDbLine
 10
6278.084791275919
 20
6830.387356638084
 30
0.0
 11
6278.084791275919
 21
6765.387356638083
 31
0.0
  0
LINE
  5
1E5E
330
1A
100
AcDbEntity
  8
点線
 48
6.0
100
AcDbLine
 10
6278.084791275919
 20
7458.987356638087
 30
0.0
 11
6278.084791275919
 21
7393.987356638087
 31
0.0
  0
LINE
  5
1E5F
330
1A
100
AcDbEntity
  8
点線
 48
6.0
100
AcDbLine
 10
6278.084791275919
 20
8087.587356638087
 30
0.0
 11
6278.084791275919
 21
8022.587356638089
 31
0.0
  0
LINE
  5
1E60
330
1A
100
AcDbEntity
  8
点線
 48
6.0
100
AcDbLine
 10
6278.084791275919
 20
8661.987356638078
 30
0.0
 11
6278.084791275919
 21
8596.987356638081
 31
0.0
  0
LINE
  5
1E61
330
1A
100
AcDbEntity
  8
点線
 48
6.0
100
AcDbLine
 10
6278.084791275919
 20
9290.587356638084
 30
0.0
 11
6278.084791275919
 21
9225.587356638081
 31
0.0
  0
LINE
  5
1E62
330
1A
100
AcDbEntity
  8
点線
 48
6.0
100
AcDbLine
 10
6278.084791275919
 20
9919.187356638083
 30
0.0
 11
6278.084791275919
 21
9854.187356638085
 31
0.0
  0
LINE
  5
1E63
330
1A
100
AcDbEntity
  8
点線
 48
6.0
100
AcDbLine
 10
3288.084791275924
 20
6201.787356638084
 30
0.0
 11
3288.084791275924
 21
6136.787356638084
 31
0.0
  0
LINE
  5
1E64
330
1A
100
AcDbEntity
  8
点線
 48
6.0
100
AcDbLine
 10
3228.084791275924
 20
6201.787356638084
 30
0.0
 11
3228.084791275924
 21
6136.787356638084
 31
0.0
  0
LINE
  5
1E65
330
1A
100
AcDbEntity
  8
点線
 48
6.0
100
AcDbLine
 10
3288.08479127592
 20
6830.387356638084
 30
0.0
 11
3288.08479127592
 21
6765.387356638083
 31
0.0
  0
LINE
  5
1E66
330
1A
100
AcDbEntity
  8
点線
 48
6.0
100
AcDbLine
 10
3228.08479127592
 20
6830.387356638084
 30
0.0
 11
3228.08479127592
 21
6765.387356638083
 31
0.0
  0
LINE
  5
1E67
330
1A
100
AcDbEntity
  8
点線
 48
6.0
100
AcDbLine
 10
3288.08479127592
 20
7458.987356638084
 30
0.0
 11
3288.08479127592
 21
7393.987356638085
 31
0.0
  0
LINE
  5
1E68
330
1A
100
AcDbEntity
  8
点線
 48
6.0
100
AcDbLine
 10
3228.08479127592
 20
7458.987356638084
 30
0.0
 11
3228.08479127592
 21
7393.987356638082
 31
0.0
  0
LINE
  5
1E69
330
1A
100
AcDbEntity
  8
点線
 48
6.0
100
AcDbLine
 10
3288.08479127592
 20
8087.587356638087
 30
0.0
 11
3288.08479127592
 21
8022.587356638087
 31
0.0
  0
LINE
  5
1E6A
330
1A
100
AcDbEntity
  8
点線
 48
6.0
100
AcDbLine
 10
3228.08479127592
 20
8087.587356638087
 30
0.0
 11
3228.08479127592
 21
8022.587356638087
 31
0.0
  0
LINE
  5
1E6B
330
1A
100
AcDbEntity
  8
点線
 48
6.0
100
AcDbLine
 10
3288.08479127592
 20
8661.987356638082
 30
0.0
 11
3288.08479127592
 21
8596.987356638081
 31
0.0
  0
LINE
  5
1E6C
330
1A
100
AcDbEntity
  8
点線
 48
6.0
100
AcDbLine
 10
3228.08479127592
 20
8661.987356638084
 30
0.0
 11
3228.08479127592
 21
8596.987356638081
 31
0.0
  0
LINE
  5
1E6D
330
1A
100
AcDbEntity
  8
点線
 48
6.0
100
AcDbLine
 10
3288.08479127592
 20
9290.587356638082
 30
0.0
 11
3288.08479127592
 21
9225.587356638083
 31
0.0
  0
LINE
  5
1E6E
330
1A
100
AcDbEntity
  8
点線
 48
6.0
100
AcDbLine
 10
3228.08479127592
 20
9290.587356638082
 30
0.0
 11
3228.08479127592
 21
9225.587356638083
 31
0.0
  0
LINE
  5
1E6F
330
1A
100
AcDbEntity
  8
点線
 48
6.0
100
AcDbLine
 10
3288.08479127592
 20
9919.187356638083
 30
0.0
 11
3288.08479127592
 21
9854.187356638085
 31
0.0
  0
LINE
  5
1E70
330
1A
100
AcDbEntity
  8
点線
 48
6.0
100
AcDbLine
 10
3228.08479127592
 20
9919.187356638083
 30
0.0
 11
3228.08479127592
 21
9854.187356638085
 31
0.0
  0
LINE
  5
1E71
330
1A
100
AcDbEntity
  8
点線
 48
6.0
100
AcDbLine
 10
3288.08479127592
 20
10547.78735663808
 30
0.0
 11
3288.08479127592
 21
10482.78735663808
 31
0.0
  0
LINE
  5
1E72
330
1A
100
AcDbEntity
  8
点線
 48
6.0
100
AcDbLine
 10
3228.08479127592
 20
10547.78735663808
 30
0.0
 11
3228.08479127592
 21
10482.78735663808
 31
0.0
  0
LINE
  5
1E73
330
1A
100
AcDbEntity
  8
点線
 48
6.0
100
AcDbLine
 10
3038.08479127592
 20
6201.787356638084
 30
0.0
 11
3038.08479127592
 21
6136.787356638084
 31
0.0
  0
LINE
  5
1E74
330
1A
100
AcDbEntity
  8
点線
 48
6.0
100
AcDbLine
 10
3038.08479127592
 20
6830.387356638084
 30
0.0
 11
3038.08479127592
 21
6765.387356638083
 31
0.0
  0
LINE
  5
1E75
330
1A
100
AcDbEntity
  8
点線
 48
6.0
100
AcDbLine
 10
3038.08479127592
 20
7458.987356638084
 30
0.0
 11
3038.084791275922
 21
7393.987356638085
 31
0.0
  0
LINE
  5
1E76
330
1A
100
AcDbEntity
  8
点線
 48
6.0
100
AcDbLine
 10
3038.084791275922
 20
8087.587356638087
 30
0.0
 11
3038.084791275922
 21
8022.587356638087
 31
0.0
  0
LINE
  5
1E77
330
1A
100
AcDbEntity
  8
点線
 48
6.0
100
AcDbLine
 10
3038.084791275922
 20
8661.987356638084
 30
0.0
 11
3038.08479127592
 21
8596.987356638081
 31
0.0
  0
LINE
  5
1E78
330
1A
100
AcDbEntity
  8
点線
 48
6.0
100
AcDbLine
 10
3038.08479127592
 20
9290.587356638084
 30
0.0
 11
3038.084791275922
 21
9225.587356638085
 31
0.0
  0
LINE
  5
1E79
330
1A
100
AcDbEntity
  8
点線
 48
6.0
100
AcDbLine
 10
3038.08479127592
 20
9919.187356638083
 30
0.0
 11
3038.08479127592
 21
9854.187356638085
 31
0.0
  0
LINE
  5
1E7A
330
1A
100
AcDbEntity
  8
点線
 48
6.0
100
AcDbLine
 10
3078.08479127592
 20
6136.787356638084
 30
0.0
 11
3038.08479127592
 21
6136.787356638084
 31
0.0
  0
LINE
  5
1E7B
330
1A
100
AcDbEntity
  8
点線
 48
6.0
100
AcDbLine
 10
3078.08479127592
 20
6156.787356638083
 30
0.0
 11
3038.08479127592
 21
6156.787356638083
 31
0.0
  0
LINE
  5
1E7C
330
1A
100
AcDbEntity
  8
点線
 48
6.0
100
AcDbLine
 10
3078.08479127592
 20
6201.787356638084
 30
0.0
 11
3038.08479127592
 21
6201.787356638084
 31
0.0
  0
LINE
  5
1E7D
330
1A
100
AcDbEntity
  8
点線
 48
6.0
100
AcDbLine
 10
3078.08479127592
 20
6765.387356638083
 30
0.0
 11
3038.08479127592
 21
6765.387356638083
 31
0.0
  0
LINE
  5
1E7E
330
1A
100
AcDbEntity
  8
点線
 48
6.0
100
AcDbLine
 10
3078.08479127592
 20
6785.387356638084
 30
0.0
 11
3038.08479127592
 21
6785.387356638084
 31
0.0
  0
LINE
  5
1E7F
330
1A
100
AcDbEntity
  8
点線
 48
6.0
100
AcDbLine
 10
3078.08479127592
 20
6830.387356638084
 30
0.0
 11
3038.08479127592
 21
6830.387356638084
 31
0.0
  0
LINE
  5
1E80
330
1A
100
AcDbEntity
  8
点線
 48
6.0
100
AcDbLine
 10
3078.08479127592
 20
7393.987356638085
 30
0.0
 11
3038.08479127592
 21
7393.987356638085
 31
0.0
  0
LINE
  5
1E81
330
1A
100
AcDbEntity
  8
点線
 48
6.0
100
AcDbLine
 10
3078.08479127592
 20
7413.987356638084
 30
0.0
 11
3038.08479127592
 21
7413.987356638084
 31
0.0
  0
LINE
  5
1E82
330
1A
100
AcDbEntity
  8
点線
 48
6.0
100
AcDbLine
 10
3078.08479127592
 20
7458.987356638084
 30
0.0
 11
3038.08479127592
 21
7458.987356638084
 31
0.0
  0
LINE
  5
1E83
330
1A
100
AcDbEntity
  8
点線
 48
6.0
100
AcDbLine
 10
3078.08479127592
 20
8022.587356638087
 30
0.0
 11
3038.08479127592
 21
8022.587356638087
 31
0.0
  0
LINE
  5
1E84
330
1A
100
AcDbEntity
  8
点線
 48
6.0
100
AcDbLine
 10
3078.08479127592
 20
8042.587356638087
 30
0.0
 11
3038.08479127592
 21
8042.587356638087
 31
0.0
  0
LINE
  5
1E85
330
1A
100
AcDbEntity
  8
点線
 48
6.0
100
AcDbLine
 10
3078.08479127592
 20
8087.587356638087
 30
0.0
 11
3038.08479127592
 21
8087.587356638087
 31
0.0
  0
LINE
  5
1E86
330
1A
100
AcDbEntity
  8
点線
 48
6.0
100
AcDbLine
 10
3078.08479127592
 20
8596.987356638081
 30
0.0
 11
3038.08479127592
 21
8596.987356638081
 31
0.0
  0
LINE
  5
1E87
330
1A
100
AcDbEntity
  8
点線
 48
6.0
100
AcDbLine
 10
3078.08479127592
 20
8641.987356638081
 30
0.0
 11
3038.08479127592
 21
8641.987356638081
 31
0.0
  0
LINE
  5
1E88
330
1A
100
AcDbEntity
  8
点線
 48
6.0
100
AcDbLine
 10
3078.08479127592
 20
8661.987356638082
 30
0.0
 11
3038.08479127592
 21
8661.987356638082
 31
0.0
  0
LINE
  5
1E89
330
1A
100
AcDbEntity
  8
点線
 48
6.0
100
AcDbLine
 10
3078.08479127592
 20
9225.587356638083
 30
0.0
 11
3038.08479127592
 21
9225.587356638083
 31
0.0
  0
LINE
  5
1E8A
330
1A
100
AcDbEntity
  8
点線
 48
6.0
100
AcDbLine
 10
3078.08479127592
 20
9270.587356638083
 30
0.0
 11
3038.08479127592
 21
9270.587356638083
 31
0.0
  0
LINE
  5
1E8B
330
1A
100
AcDbEntity
  8
点線
 48
6.0
100
AcDbLine
 10
3078.08479127592
 20
9290.587356638082
 30
0.0
 11
3038.08479127592
 21
9290.587356638082
 31
0.0
  0
LINE
  5
1E8C
330
1A
100
AcDbEntity
  8
点線
 48
6.0
100
AcDbLine
 10
3078.08479127592
 20
9854.187356638085
 30
0.0
 11
3038.08479127592
 21
9854.187356638085
 31
0.0
  0
LINE
  5
1E8D
330
1A
100
AcDbEntity
  8
点線
 48
6.0
100
AcDbLine
 10
3078.08479127592
 20
9899.187356638083
 30
0.0
 11
3038.08479127592
 21
9899.187356638083
 31
0.0
  0
LINE
  5
1E8E
330
1A
100
AcDbEntity
  8
点線
 48
6.0
100
AcDbLine
 10
3078.08479127592
 20
9919.187356638083
 30
0.0
 11
3038.08479127592
 21
9919.187356638083
 31
0.0
  0
LINE
  5
1E8F
330
1A
100
AcDbEntity
  8
点線
 48
6.0
100
AcDbLine
 10
3078.08479127592
 20
10482.78735663808
 30
0.0
 11
3038.08479127592
 21
10482.78735663808
 31
0.0
  0
LINE
  5
1E90
330
1A
100
AcDbEntity
  8
点線
 48
6.0
100
AcDbLine
 10
3078.08479127592
 20
10527.78735663808
 30
0.0
 11
3038.08479127592
 21
10527.78735663808
 31
0.0
  0
LINE
  5
1E91
330
1A
100
AcDbEntity
  8
点線
 48
6.0
100
AcDbLine
 10
3078.08479127592
 20
10547.78735663808
 30
0.0
 11
3038.08479127592
 21
10547.78735663808
 31
0.0
  0
LINE
  5
1E92
330
1A
100
AcDbEntity
  8
点線
 48
6.0
100
AcDbLine
 10
3038.08479127592
 20
10547.78735663808
 30
0.0
 11
3038.08479127592
 21
10482.78735663808
 31
0.0
  0
LINE
  5
1E93
330
1A
100
AcDbEntity
  8
点線
 48
6.0
100
AcDbLine
 10
6278.084791275919
 20
10547.78735663808
 30
0.0
 11
6278.084791275919
 21
10482.78735663808
 31
0.0
  0
LINE
  5
1E94
330
1A
100
AcDbEntity
  8
点線
 48
10.0
100
AcDbLine
 10
5958.084791275918
 20
2035.485208654296
 30
0.0
 11
5958.084791275918
 21
2025.485208654296
 31
0.0
  0
LINE
  5
1E95
330
1A
100
AcDbEntity
  8
点線
 48
10.0
100
AcDbLine
 10
6158.08479127592
 20
2035.4852086543
 30
0.0
 11
6158.08479127592
 21
2025.4852086543
 31
0.0
  0
LINE
  5
1E96
330
1A
100
AcDbEntity
  8
点線
 48
10.0
100
AcDbLine
 10
5958.084791275918
 20
2035.485208654296
 30
0.0
 11
6028.08479127592
 21
2035.485208654296
 31
0.0
  0
LINE
  5
1E97
330
1A
100
AcDbEntity
  8
点線
 48
10.0
100
AcDbLine
 10
6088.08479127592
 20
2035.4852086543
 30
0.0
 11
6158.08479127592
 21
2035.4852086543
 31
0.0
  0
LINE
  5
1E98
330
1A
100
AcDbEntity
  8
点線
 48
10.0
100
AcDbLine
 10
6088.08479127592
 20
2025.4852086543
 30
0.0
 11
6158.08479127592
 21
2025.4852086543
 31
0.0
  0
LINE
  5
1E99
330
1A
100
AcDbEntity
  8
点線
 48
10.0
100
AcDbLine
 10
5958.084791275918
 20
2025.485208654296
 30
0.0
 11
6028.08479127592
 21
2025.485208654296
 31
0.0
  0
LINE
  5
1E9A
330
1A
100
AcDbEntity
  8
点線
 48
10.0
100
AcDbLine
 10
3158.084791275918
 20
2025.485208654296
 30
0.0
 11
3228.08479127592
 21
2025.485208654296
 31
0.0
  0
LINE
  5
1E9B
330
1A
100
AcDbEntity
  8
点線
 48
10.0
100
AcDbLine
 10
3288.08479127592
 20
2025.4852086543
 30
0.0
 11
3358.084791275921
 21
2025.4852086543
 31
0.0
  0
LINE
  5
1E9C
330
1A
100
AcDbEntity
  8
点線
 48
10.0
100
AcDbLine
 10
3288.08479127592
 20
2035.4852086543
 30
0.0
 11
3358.084791275921
 21
2035.4852086543
 31
0.0
  0
LINE
  5
1E9D
330
1A
100
AcDbEntity
  8
点線
 48
10.0
100
AcDbLine
 10
3158.084791275918
 20
2035.485208654296
 30
0.0
 11
3228.08479127592
 21
2035.485208654296
 31
0.0
  0
LINE
  5
1E9E
330
1A
100
AcDbEntity
  8
点線
 48
10.0
100
AcDbLine
 10
3358.084791275921
 20
2035.4852086543
 30
0.0
 11
3358.084791275921
 21
2025.4852086543
 31
0.0
  0
LINE
  5
1E9F
330
1A
100
AcDbEntity
  8
点線
 48
10.0
100
AcDbLine
 10
3158.084791275918
 20
2035.485208654296
 30
0.0
 11
3158.084791275918
 21
2025.485208654296
 31
0.0
  0
TEXT
  5
1EA0
330
1A
100
AcDbEntity
  8
部品1
 48
50.0
100
AcDbText
 10
2308.247349989355
 20
2319.876509084628
 30
0.0
 40
100.0
  1
▽G.L
  7
STYLE2
100
AcDbText
  0
TEXT
  5
1EA1
330
1A
100
AcDbEntity
  8
文字
 62
     7
 48
50.0
100
AcDbText
 10
14505.43862385114
 20
8876.903415945255
 30
0.0
 40
108.152
  1
Y10            1.0
  7
STYLE1
100
AcDbText
  0
TEXT
  5
1EA2
330
1A
100
AcDbEntity
  8
文字
 62
     7
 48
50.0
100
AcDbText
 10
14526.885163305
 20
9060.761815945255
 30
0.0
 40
108.152
  1
F12            1.2
  7
STYLE1
100
AcDbText
  0
TEXT
  5
1EA3
330
1A
100
AcDbEntity
  8
文字
 62
     7
 48
50.0
100
AcDbText
 10
13006.97738930655
 20
9612.337015945257
 30
0.0
 40
108.152
  1
妻板
  7
STYLE1
100
AcDbText
  0
LINE
  5
1EA4
330
1A
100
AcDbEntity
  8
部品1
100
AcDbLine
 10
15916.16286790498
 20
9395.585541497089
 30
0.0
 11
12516.16286790498
 21
9395.585541497089
 31
0.0
  0
TEXT
  5
1EA5
330
1A
100
AcDbEntity
  8
文字
 62
     7
 48
50.0
100
AcDbText
 10
12624.8900290107
 20
8693.045015945255
 30
0.0
 40
108.152
  1
PZ→一般構造用角形鋼管(JIS G 3466)
 41
0.9
  7
STYLE1
100
AcDbText
  0
TEXT
  5
1EA6
330
1A
100
AcDbEntity
  8
文字
 62
     7
 48
50.0
100
AcDbText
 10
12624.89002901047
 20
8325.328215945253
 30
0.0
 40
108.152
  1
Y10→溶融亜鉛-5％アルミニウム合金めっき鋼板(JIS G 3317)
 41
0.9
  7
STYLE1
100
AcDbText
  0
TEXT
  5
1EA7
330
1A
100
AcDbEntity
  8
文字
 62
     7
 48
50.0
100
AcDbText
 10
12624.89002901048
 20
8509.186615945255
 30
0.0
 40
108.152
  1
F12→溶融亜鉛めっき鋼板(JIS G 3302)
  7
STYLE1
100
AcDbText
  0
TEXT
  5
1EA8
330
1A
100
AcDbEntity
  8
文字
 62
     7
 48
50.0
100
AcDbText
 10
13006.97738930655
 20
8876.90341594526
 30
0.0
 40
108.152
  1
棟板
  7
STYLE1
100
AcDbText
  0
TEXT
  5
1EA9
330
1A
100
AcDbEntity
  8
文字
 62
     7
 48
50.0
100
AcDbText
 10
13006.97738930655
 20
9060.761815945255
 30
0.0
 40
108.152
  1
車止メ棒
  7
STYLE1
100
AcDbText
  0
TEXT
  5
1EAA
330
1A
100
AcDbEntity
  8
文字
 62
     7
 48
50.0
100
AcDbText
 10
13006.97738930655
 20
9244.620215945255
 30
0.0
 40
108.152
  1
プレート
  7
STYLE1
100
AcDbText
  0
TEXT
  5
1EAB
330
1A
100
AcDbEntity
  8
文字
 62
     7
 48
50.0
100
AcDbText
 10
13006.97738930655
 20
9796.195415945259
 30
0.0
 40
108.152
  1
屋根パネル
  7
STYLE1
100
AcDbText
  0
TEXT
  5
1EAC
330
1A
100
AcDbEntity
  8
文字
 62
     7
 48
50.0
100
AcDbText
 10
13006.97738930655
 20
9980.053815945256
 30
0.0
 40
108.152
  1
腰パネル
  7
STYLE1
100
AcDbText
  0
LINE
  5
1EAD
330
1A
100
AcDbEntity
  8
部品1
100
AcDbLine
 10
15916.16286790498
 20
9211.727141497089
 30
0.0
 11
12516.16286790498
 21
9211.727141497091
 31
0.0
  0
LINE
  5
1EAE
330
1A
100
AcDbEntity
  8
部品1
100
AcDbLine
 10
15916.16286790498
 20
10866.45274149709
 30
0.0
 11
12516.16286790498
 21
10866.45274149709
 31
0.0
  0
LINE
  5
1EAF
330
1A
100
AcDbEntity
  8
部品1
100
AcDbLine
 10
15916.16286790498
 20
8292.435141497088
 30
0.0
 11
15916.16286790498
 21
10866.45274149709
 31
0.0
  0
LINE
  5
1EB0
330
1A
100
AcDbEntity
  8
部品1
100
AcDbLine
 10
14270.08942790498
 20
10866.45274149708
 30
0.0
 11
14270.08942790498
 21
8844.010341497083
 31
0.0
  0
LINE
  5
1EB1
330
1A
100
AcDbEntity
  8
部品1
100
AcDbLine
 10
12906.48450827855
 20
10866.45274149709
 30
0.0
 11
12906.48450827857
 21
8844.010341497083
 31
0.0
  0
LINE
  5
1EB2
330
1A
100
AcDbEntity
  8
部品1
100
AcDbLine
 10
15916.16286790498
 20
10682.59434149708
 30
0.0
 11
12516.16286790498
 21
10682.59434149708
 31
0.0
  0
LINE
  5
1EB3
330
1A
100
AcDbEntity
  8
部品1
100
AcDbLine
 10
15916.16286790498
 20
10314.87754149709
 30
0.0
 11
12516.16286790498
 21
10314.87754149708
 31
0.0
  0
LINE
  5
1EB4
330
1A
100
AcDbEntity
  8
部品1
100
AcDbLine
 10
15916.16286790498
 20
10498.73594149709
 30
0.0
 11
12516.16286790498
 21
10498.73594149709
 31
0.0
  0
LINE
  5
1EB5
330
1A
100
AcDbEntity
  8
部品1
100
AcDbLine
 10
15916.16286790498
 20
9947.160741497086
 30
0.0
 11
12516.16286790498
 21
9947.160741497086
 31
0.0
  0
LINE
  5
1EB6
330
1A
100
AcDbEntity
  8
部品1
100
AcDbLine
 10
15916.16286790498
 20
9763.302341497089
 30
0.0
 11
12516.16286790498
 21
9763.302341497089
 31
0.0
  0
LINE
  5
1EB7
330
1A
100
AcDbEntity
  8
部品1
100
AcDbLine
 10
15916.16286790498
 20
10131.01914149708
 30
0.0
 11
12516.16286790498
 21
10131.01914149708
 31
0.0
  0
TEXT
  5
1EB8
330
1A
100
AcDbEntity
  8
文字
 62
     7
 48
50.0
100
AcDbText
 10
12589.84269101306
 20
10715.48741594525
 30
0.0
 40
108.152
  1
品番
  7
STYLE1
100
AcDbText
  0
TEXT
  5
1EB9
330
1A
100
AcDbEntity
  8
文字
 62
     7
 48
50.0
100
AcDbText
 10
12669.62116181242
 20
10531.62901594525
 30
0.0
 40
108.152
  1
1
  7
STYLE1
100
AcDbText
  0
TEXT
  5
1EBA
330
1A
100
AcDbEntity
  8
文字
 62
     7
 48
50.0
100
AcDbText
 10
12669.62116181242
 20
10347.77061594525
 30
0.0
 40
108.152
  1
2
  7
STYLE1
100
AcDbText
  0
TEXT
  5
1EBB
330
1A
100
AcDbEntity
  8
文字
 62
     7
 48
50.0
100
AcDbText
 10
12669.62116181242
 20
9980.053815945256
 30
0.0
 40
108.152
  1
4
  7
STYLE1
100
AcDbText
  0
TEXT
  5
1EBC
330
1A
100
AcDbEntity
  8
文字
 62
     7
 48
50.0
100
AcDbText
 10
12669.62116181242
 20
10163.91221594525
 30
0.0
 40
108.152
  1
3
  7
STYLE1
100
AcDbText
  0
TEXT
  5
1EBD
330
1A
100
AcDbEntity
  8
文字
 62
     7
 48
50.0
100
AcDbText
 10
13193.81067523528
 20
10715.48741594525
 30
0.0
 40
108.152
  1
部　　品　　名
  7
STYLE1
100
AcDbText
  0
TEXT
  5
1EBE
330
1A
100
AcDbEntity
  8
文字
 62
     7
 48
50.0
100
AcDbText
 10
14350.76838231553
 20
10715.48741594525
 30
0.0
 40
108.152
  1
材料（材質）　　単位mm
  7
STYLE1
100
AcDbText
  0
TEXT
  5
1EBF
330
1A
100
AcDbEntity
  8
文字
 62
     7
 48
50.0
100
AcDbText
 10
13006.97738930654
 20
10531.62901594525
 30
0.0
 40
108.152
  1
柱
  7
STYLE1
100
AcDbText
  0
TEXT
  5
1EC0
330
1A
100
AcDbEntity
  8
文字
 62
     7
 48
50.0
100
AcDbText
 10
13006.97738930655
 20
10347.77061594525
 30
0.0
 40
108.152
  1
梁
  7
STYLE1
100
AcDbText
  0
TEXT
  5
1EC1
330
1A
100
AcDbEntity
  8
文字
 62
     7
 48
50.0
100
AcDbText
 10
13006.97738930655
 20
9428.478615945257
 30
0.0
 40
108.152
  1
鼻隠シ
  7
STYLE1
100
AcDbText
  0
TEXT
  5
1EC2
330
1A
100
AcDbEntity
  8
文字
 62
     7
 48
50.0
100
AcDbText
 10
12669.62116181242
 20
9796.195415945254
 30
0.0
 40
108.152
  1
5
  7
STYLE1
100
AcDbText
  0
TEXT
  5
1EC3
330
1A
100
AcDbEntity
  8
文字
 62
     7
 48
50.0
100
AcDbText
 10
12645.38121759614
 20
8876.903415945253
 30
0.0
 40
108.152
  1
10
  7
STYLE1
100
AcDbText
  0
TEXT
  5
1EC4
330
1A
100
AcDbEntity
  8
文字
 62
     7
 48
50.0
100
AcDbText
 10
12669.62116181241
 20
9244.620215945255
 30
0.0
 40
108.152
  1
8
  7
STYLE1
100
AcDbText
  0
TEXT
  5
1EC5
330
1A
100
AcDbEntity
  8
文字
 62
     7
 48
50.0
100
AcDbText
 10
12669.62116181241
 20
9060.761815945253
 30
0.0
 40
108.152
  1
9
  7
STYLE1
100
AcDbText
  0
TEXT
  5
1EC6
330
1A
100
AcDbEntity
  8
文字
 62
     7
 48
50.0
100
AcDbText
 10
12669.62116181241
 20
9428.478615945257
 30
0.0
 40
108.152
  1
7
  7
STYLE1
100
AcDbText
  0
TEXT
  5
1EC7
330
1A
100
AcDbEntity
  8
文字
 62
     7
 48
50.0
100
AcDbText
 10
12669.62116181242
 20
9612.337015945255
 30
0.0
 40
108.152
  1
6
  7
STYLE1
100
AcDbText
  0
LINE
  5
1EC8
330
1A
100
AcDbEntity
  8
部品1
100
AcDbLine
 10
15916.16286790498
 20
8844.010341497083
 30
0.0
 11
12516.16286790498
 21
8844.010341497083
 31
0.0
  0
LINE
  5
1EC9
330
1A
100
AcDbEntity
  8
部品1
100
AcDbLine
 10
15916.16286790498
 20
8476.293541497087
 30
0.0
 11
12516.16286790498
 21
8476.29354149709
 31
0.0
  0
LINE
  5
1ECA
330
1A
100
AcDbEntity
  8
部品1
100
AcDbLine
 10
15916.16286790498
 20
8660.151941497087
 30
0.0
 11
12516.16286790498
 21
8660.151941497087
 31
0.0
  0
LINE
  5
1ECB
330
1A
100
AcDbEntity
  8
部品1
100
AcDbLine
 10
15916.16286790498
 20
9579.443941497087
 30
0.0
 11
12516.16286790498
 21
9579.443941497087
 31
0.0
  0
LINE
  5
1ECC
330
1A
100
AcDbEntity
  8
部品1
100
AcDbLine
 10
15916.16286790498
 20
9027.868741497085
 30
0.0
 11
12516.16286790498
 21
9027.868741497089
 31
0.0
  0
LINE
  5
1ECD
330
1A
100
AcDbEntity
  8
部品1
100
AcDbLine
 10
15916.16286790498
 20
8292.435141497088
 30
0.0
 11
12516.16286790498
 21
8292.43514149709
 31
0.0
  0
TEXT
  5
1ECE
330
1A
100
AcDbEntity
  8
文字
 62
     7
 48
50.0
100
AcDbText
 10
14526.88516330498
 20
10531.62901594525
 30
0.0
 40
108.152
  1
PZ            2.3
  7
STYLE1
100
AcDbText
  0
LINE
  5
1ECF
330
1A
100
AcDbEntity
  8
部品1
100
AcDbLine
 10
12516.16286790498
 20
10866.45274149709
 30
0.0
 11
12516.16286790498
 21
8292.43514149709
 31
0.0
  0
TEXT
  5
1ED0
330
1A
100
AcDbEntity
  8
文字
 62
     7
 48
50.0
100
AcDbText
 10
14526.88516330499
 20
10163.91221594525
 30
0.0
 40
108.152
  1
F12            1.6
  7
STYLE1
100
AcDbText
  0
TEXT
  5
1ED1
330
1A
100
AcDbEntity
  8
文字
 62
     7
 48
50.0
100
AcDbText
 10
13006.97738930655
 20
10163.91221594525
 30
0.0
 40
108.152
  1
母屋
  7
STYLE1
100
AcDbText
  0
TEXT
  5
1ED2
330
1A
100
AcDbEntity
  8
文字
 62
     7
 48
50.0
100
AcDbText
 10
14526.88516330497
 20
10347.77061594525
 30
0.0
 40
108.152
  1
PZ            2.3
  7
STYLE1
100
AcDbText
  0
TEXT
  5
1ED3
330
1A
100
AcDbEntity
  8
文字
 62
     7
 48
50.0
100
AcDbText
 10
14505.43862385114
 20
9980.053815945256
 30
0.0
 40
108.152
  1
Y10            0.6
  7
STYLE1
100
AcDbText
  0
TEXT
  5
1ED4
330
1A
100
AcDbEntity
  8
文字
 62
     7
 48
50.0
100
AcDbText
 10
14505.43862385114
 20
9796.195415945259
 30
0.0
 40
108.152
  1
Y10            0.5
  7
STYLE1
100
AcDbText
  0
TEXT
  5
1ED5
330
1A
100
AcDbEntity
  8
文字
 62
     7
 48
50.0
100
AcDbText
 10
14505.43862385114
 20
9612.337015945257
 30
0.0
 40
108.152
  1
Y10            0.7
  7
STYLE1
100
AcDbText
  0
TEXT
  5
1ED6
330
1A
100
AcDbEntity
  8
文字
 62
     7
 48
50.0
100
AcDbText
 10
14505.43862385114
 20
9428.478615945257
 30
0.0
 40
108.152
  1
Y10            0.7
  7
STYLE1
100
AcDbText
  0
TEXT
  5
1ED7
330
1A
100
AcDbEntity
  8
文字
 62
     7
 48
50.0
100
AcDbText
 10
14526.88516330498
 20
9244.620215945255
 30
0.0
 40
108.152
  1
F12            2.3
  7
STYLE1
100
AcDbText
  0
TEXT
  5
1ED8
330
1A
100
AcDbEntity
  8
仕様書枠
 62
     7
 48
50.0
100
AcDbText
 10
14507.17944936723
 20
1295.557706291227
 30
0.0
 40
100.0
  1
NO.03     <縮尺> S=1/40
  7
STYLE2
100
AcDbText
  0
LINE
  5
1ED9
330
1A
100
AcDbEntity
  8
部品1
100
AcDbLine
 10
4873.084791275918
 20
4516.108836451524
 30
0.0
 11
4918.084791275919
 21
4516.108836451524
 31
0.0
  0
LINE
  5
1EDA
330
1A
100
AcDbEntity
  8
部品1
100
AcDbLine
 10
5055.08479127592
 20
4516.108836451524
 30
0.0
 11
5089.58479127592
 21
4516.108836451524
 31
0.0
  0
LINE
  5
1EDB
330
1A
100
AcDbEntity
  8
部品1
100
AcDbLine
 10
5300.084791275918
 20
4516.108836451524
 30
0.0
 11
5345.084791275918
 21
4516.108836451524
 31
0.0
  0
LINE
  5
1EDC
330
1A
100
AcDbEntity
  8
部品1
100
AcDbLine
 10
5373.084791275921
 20
4516.108836451524
 30
0.0
 11
5418.084791275918
 21
4516.108836451524
 31
0.0
  0
LINE
  5
1EDD
330
1A
100
AcDbEntity
  8
部品1
100
AcDbLine
 10
5635.08479127592
 20
4516.108836451524
 30
0.0
 11
5669.584791275918
 21
4516.108836451524
 31
0.0
  0
LINE
  5
1EDE
330
1A
100
AcDbEntity
  8
部品1
100
AcDbLine
 10
5880.08479127592
 20
4516.108836451527
 30
0.0
 11
5925.084791275918
 21
4516.108836451527
 31
0.0
  0
LINE
  5
1EDF
330
1A
100
AcDbEntity
  8
部品1
100
AcDbLine
 10
5953.084791275919
 20
4516.108836451524
 30
0.0
 11
5998.084791275918
 21
4516.108836451524
 31
0.0
  0
LINE
  5
1EE0
330
1A
100
AcDbEntity
  8
部品1
100
AcDbLine
 10
6215.084791275918
 20
4516.108836451524
 30
0.0
 11
6249.584791275921
 21
4516.108836451524
 31
0.0
  0
LINE
  5
1EE1
330
1A
100
AcDbEntity
  8
部品1
100
AcDbLine
 10
4800.084791275918
 20
4516.108836451524
 30
0.0
 11
4845.084791275918
 21
4516.108836451524
 31
0.0
  0
LINE
  5
1EE2
330
1A
100
AcDbEntity
  8
部品1
100
AcDbLine
 10
6249.58479127592
 20
4498.108836451527
 30
0.0
 11
6263.08479127592
 21
4498.108836451527
 31
0.0
  0
LINE
  5
1EE3
330
1A
100
AcDbEntity
  8
部品1
100
AcDbLine
 10
5998.084791275918
 20
4498.108836451527
 30
0.0
 11
6215.084791275918
 21
4498.108836451527
 31
0.0
  0
LINE
  5
1EE4
330
1A
100
AcDbEntity
  8
部品1
100
AcDbLine
 10
5925.084791275918
 20
4498.108836451527
 30
0.0
 11
5953.084791275919
 21
4498.108836451527
 31
0.0
  0
LINE
  5
1EE5
330
1A
100
AcDbEntity
  8
部品1
100
AcDbLine
 10
5669.584791275918
 20
4498.108836451527
 30
0.0
 11
5880.084791275922
 21
4498.108836451527
 31
0.0
  0
LINE
  5
1EE6
330
1A
100
AcDbEntity
  8
部品1
100
AcDbLine
 10
5418.084791275918
 20
4498.108836451527
 30
0.0
 11
5635.08479127592
 21
4498.108836451527
 31
0.0
  0
LINE
  5
1EE7
330
1A
100
AcDbEntity
  8
部品1
100
AcDbLine
 10
5345.084791275918
 20
4498.108836451527
 30
0.0
 11
5373.08479127592
 21
4498.108836451527
 31
0.0
  0
LINE
  5
1EE8
330
1A
100
AcDbEntity
  8
部品1
100
AcDbLine
 10
5089.58479127592
 20
4498.108836451529
 30
0.0
 11
5300.084791275918
 21
4498.108836451527
 31
0.0
  0
LINE
  5
1EE9
330
1A
100
AcDbEntity
  8
部品1
100
AcDbLine
 10
4918.084791275919
 20
4498.108836451529
 30
0.0
 11
5055.08479127592
 21
4498.108836451529
 31
0.0
  0
LINE
  5
1EEA
330
1A
100
AcDbEntity
  8
部品1
100
AcDbLine
 10
4845.08479127592
 20
4498.108836451527
 30
0.0
 11
4873.084791275918
 21
4498.108836451527
 31
0.0
  0
LINE
  5
1EEB
330
1A
100
AcDbEntity
  8
部品1
100
AcDbLine
 10
4669.584791275919
 20
4498.108836451527
 30
0.0
 11
4800.084791275922
 21
4498.108836451527
 31
0.0
  0
LINE
  5
1EEC
330
1A
100
AcDbEntity
  8
部品1
100
AcDbLine
 10
6249.58479127592
 20
4516.108836451524
 30
0.0
 11
6249.58479127592
 21
4413.075718108764
 31
0.0
  0
LINE
  5
1EED
330
1A
100
AcDbEntity
  8
部品1
100
AcDbLine
 10
6215.084791275918
 20
4516.108836451524
 30
0.0
 11
6215.084791275918
 21
4413.075718108764
 31
0.0
  0
LINE
  5
1EEE
330
1A
100
AcDbEntity
  8
部品1
100
AcDbLine
 10
5998.084791275918
 20
4516.108836451527
 30
0.0
 11
5998.084791275918
 21
4413.075718108764
 31
0.0
  0
LINE
  5
1EEF
330
1A
100
AcDbEntity
  8
部品1
100
AcDbLine
 10
5953.084791275919
 20
4516.108836451527
 30
0.0
 11
5953.084791275919
 21
4413.075718108764
 31
0.0
  0
LINE
  5
1EF0
330
1A
100
AcDbEntity
  8
部品1
100
AcDbLine
 10
5925.084791275918
 20
4516.108836451524
 30
0.0
 11
5925.084791275918
 21
4413.075718108764
 31
0.0
  0
LINE
  5
1EF1
330
1A
100
AcDbEntity
  8
部品1
100
AcDbLine
 10
5880.08479127592
 20
4516.108836451524
 30
0.0
 11
5880.084791275918
 21
4413.075718108764
 31
0.0
  0
LINE
  5
1EF2
330
1A
100
AcDbEntity
  8
部品1
100
AcDbLine
 10
5669.584791275918
 20
4516.108836451524
 30
0.0
 11
5669.584791275918
 21
4413.075718108764
 31
0.0
  0
LINE
  5
1EF3
330
1A
100
AcDbEntity
  8
部品1
100
AcDbLine
 10
5635.08479127592
 20
4516.108836451524
 30
0.0
 11
5635.084791275918
 21
4413.075718108764
 31
0.0
  0
LINE
  5
1EF4
330
1A
100
AcDbEntity
  8
部品1
100
AcDbLine
 10
5418.084791275918
 20
4516.108836451524
 30
0.0
 11
5418.084791275918
 21
4413.075718108764
 31
0.0
  0
LINE
  5
1EF5
330
1A
100
AcDbEntity
  8
部品1
100
AcDbLine
 10
5373.08479127592
 20
4516.108836451524
 30
0.0
 11
5373.084791275918
 21
4413.075718108764
 31
0.0
  0
LINE
  5
1EF6
330
1A
100
AcDbEntity
  8
部品1
100
AcDbLine
 10
5345.084791275918
 20
4516.108836451524
 30
0.0
 11
5345.084791275918
 21
4413.075718108764
 31
0.0
  0
LINE
  5
1EF7
330
1A
100
AcDbEntity
  8
部品1
100
AcDbLine
 10
5300.084791275918
 20
4516.108836451524
 30
0.0
 11
5300.084791275918
 21
4413.075718108764
 31
0.0
  0
LINE
  5
1EF8
330
1A
100
AcDbEntity
  8
部品1
100
AcDbLine
 10
5089.58479127592
 20
4516.108836451524
 30
0.0
 11
5089.584791275918
 21
4413.075718108764
 31
0.0
  0
LINE
  5
1EF9
330
1A
100
AcDbEntity
  8
部品1
100
AcDbLine
 10
5055.08479127592
 20
4516.108836451524
 30
0.0
 11
5055.08479127592
 21
4413.075718108764
 31
0.0
  0
LINE
  5
1EFA
330
1A
100
AcDbEntity
  8
部品1
100
AcDbLine
 10
4918.084791275918
 20
4516.108836451524
 30
0.0
 11
4918.084791275918
 21
4413.075718108764
 31
0.0
  0
LINE
  5
1EFB
330
1A
100
AcDbEntity
  8
部品1
100
AcDbLine
 10
4873.084791275918
 20
4516.108836451524
 30
0.0
 11
4873.084791275918
 21
4413.075718108764
 31
0.0
  0
LINE
  5
1EFC
330
1A
100
AcDbEntity
  8
部品1
100
AcDbLine
 10
4845.08479127592
 20
4516.108836451524
 30
0.0
 11
4845.084791275918
 21
4413.075718108764
 31
0.0
  0
LINE
  5
1EFD
330
1A
100
AcDbEntity
  8
部品1
100
AcDbLine
 10
4800.08479127592
 20
4516.108836451524
 30
0.0
 11
4800.084791275918
 21
4413.075718108764
 31
0.0
  0
LINE
  5
1EFE
330
1A
100
AcDbEntity
  8
部品1
100
AcDbLine
 10
4669.584791275922
 20
4516.108836451524
 30
0.0
 11
4635.084791275922
 21
4516.108836451524
 31
0.0
  0
LINE
  5
1EFF
330
1A
100
AcDbEntity
  8
部品1
100
AcDbLine
 10
4635.08479127592
 20
4516.108836451524
 30
0.0
 11
4635.084791275922
 21
4413.075718108764
 31
0.0
  0
LINE
  5
1F00
330
1A
100
AcDbEntity
  8
部品1
100
AcDbLine
 10
4669.584791275922
 20
4516.108836451524
 30
0.0
 11
4669.584791275919
 21
4413.075718108767
 31
0.0
  0
LINE
  5
1F01
330
1A
100
AcDbEntity
  8
部品1
100
AcDbLine
 10
4509.584791275911
 20
4516.108836451527
 30
0.0
 11
4464.58479127591
 21
4516.108836451524
 31
0.0
  0
LINE
  5
1F02
330
1A
100
AcDbEntity
  8
部品1
100
AcDbLine
 10
4509.584791275911
 20
4516.108836451527
 30
0.0
 11
4509.584791275911
 21
4413.075718108768
 31
0.0
  0
LINE
  5
1F03
330
1A
100
AcDbEntity
  8
部品1
100
AcDbLine
 10
4464.58479127591
 20
4516.108836451527
 30
0.0
 11
4464.58479127591
 21
4413.075718108767
 31
0.0
  0
LINE
  5
1F04
330
1A
100
AcDbEntity
  8
部品1
100
AcDbLine
 10
4635.084791275922
 20
4498.108836451527
 30
0.0
 11
4509.584791275911
 21
4498.108836451527
 31
0.0
  0
LINE
  5
1F05
330
1A
100
AcDbEntity
  8
部品1
100
AcDbLine
 10
4436.584791275913
 20
4516.108836451524
 30
0.0
 11
4391.584791275907
 21
4516.108836451524
 31
0.0
  0
LINE
  5
1F06
330
1A
100
AcDbEntity
  8
部品1
100
AcDbLine
 10
4436.584791275913
 20
4516.108836451527
 30
0.0
 11
4436.584791275911
 21
4413.075718108768
 31
0.0
  0
LINE
  5
1F07
330
1A
100
AcDbEntity
  8
部品1
100
AcDbLine
 10
4391.584791275907
 20
4516.108836451527
 30
0.0
 11
4391.584791275907
 21
4413.07571810877
 31
0.0
  0
LINE
  5
1F08
330
1A
100
AcDbEntity
  8
部品1
100
AcDbLine
 10
4261.084791275918
 20
4516.108836451524
 30
0.0
 11
4226.584791275918
 21
4516.108836451524
 31
0.0
  0
LINE
  5
1F09
330
1A
100
AcDbEntity
  8
部品1
100
AcDbLine
 10
4261.084791275919
 20
4516.108836451527
 30
0.0
 11
4261.084791275919
 21
4413.075718108764
 31
0.0
  0
LINE
  5
1F0A
330
1A
100
AcDbEntity
  8
部品1
100
AcDbLine
 10
4226.584791275918
 20
4516.108836451527
 30
0.0
 11
4226.584791275918
 21
4413.075718108764
 31
0.0
  0
LINE
  5
1F0B
330
1A
100
AcDbEntity
  8
部品1
100
AcDbLine
 10
4391.584791275907
 20
4498.108836451527
 30
0.0
 11
4261.084791275919
 21
4498.108836451527
 31
0.0
  0
LINE
  5
1F0C
330
1A
100
AcDbEntity
  8
部品1
100
AcDbLine
 10
4464.58479127591
 20
4498.108836451527
 30
0.0
 11
4436.584791275911
 21
4498.108836451527
 31
0.0
  0
LINE
  5
1F0D
330
1A
100
AcDbEntity
  8
部品1
100
AcDbLine
 10
4016.08479127592
 20
4516.108836451524
 30
0.0
 11
3971.084791275922
 21
4516.108836451524
 31
0.0
  0
LINE
  5
1F0E
330
1A
100
AcDbEntity
  8
部品1
100
AcDbLine
 10
4016.08479127592
 20
4516.108836451527
 30
0.0
 11
4016.084791275921
 21
4413.075718108764
 31
0.0
  0
LINE
  5
1F0F
330
1A
100
AcDbEntity
  8
部品1
100
AcDbLine
 10
3971.08479127592
 20
4516.108836451527
 30
0.0
 11
3971.084791275922
 21
4413.075718108764
 31
0.0
  0
LINE
  5
1F10
330
1A
100
AcDbEntity
  8
部品1
100
AcDbLine
 10
4016.084791275921
 20
4498.108836451529
 30
0.0
 11
4226.584791275922
 21
4498.108836451529
 31
0.0
  0
LINE
  5
1F11
330
1A
100
AcDbEntity
  8
部品1
100
AcDbLine
 10
3943.084791275922
 20
4516.108836451524
 30
0.0
 11
3898.084791275918
 21
4516.108836451524
 31
0.0
  0
LINE
  5
1F12
330
1A
100
AcDbEntity
  8
部品1
100
AcDbLine
 10
3943.084791275922
 20
4516.108836451527
 30
0.0
 11
3943.084791275922
 21
4413.075718108764
 31
0.0
  0
LINE
  5
1F13
330
1A
100
AcDbEntity
  8
部品1
100
AcDbLine
 10
3898.08479127592
 20
4516.108836451527
 30
0.0
 11
3898.084791275922
 21
4413.075718108764
 31
0.0
  0
LINE
  5
1F14
330
1A
100
AcDbEntity
  8
部品1
100
AcDbLine
 10
3681.084791275922
 20
4516.108836451524
 30
0.0
 11
3646.584791275918
 21
4516.108836451524
 31
0.0
  0
LINE
  5
1F15
330
1A
100
AcDbEntity
  8
部品1
100
AcDbLine
 10
3681.084791275922
 20
4516.108836451527
 30
0.0
 11
3681.084791275922
 21
4413.075718108764
 31
0.0
  0
LINE
  5
1F16
330
1A
100
AcDbEntity
  8
部品1
100
AcDbLine
 10
3646.58479127592
 20
4516.108836451527
 30
0.0
 11
3646.584791275922
 21
4413.075718108764
 31
0.0
  0
LINE
  5
1F17
330
1A
100
AcDbEntity
  8
部品1
100
AcDbLine
 10
3681.084791275922
 20
4498.108836451527
 30
0.0
 11
3898.084791275922
 21
4498.108836451527
 31
0.0
  0
LINE
  5
1F18
330
1A
100
AcDbEntity
  8
部品1
100
AcDbLine
 10
3943.084791275922
 20
4498.108836451527
 30
0.0
 11
3971.084791275922
 21
4498.108836451529
 31
0.0
  0
LINE
  5
1F19
330
1A
100
AcDbEntity
  8
部品1
100
AcDbLine
 10
3363.084791275922
 20
4498.108836451529
 30
0.0
 11
3391.084791275922
 21
4498.108836451529
 31
0.0
  0
LINE
  5
1F1A
330
1A
100
AcDbEntity
  8
部品1
100
AcDbLine
 10
3363.084791275922
 20
4516.108836451524
 30
0.0
 11
3318.084791275918
 21
4516.108836451527
 31
0.0
  0
LINE
  5
1F1B
330
1A
100
AcDbEntity
  8
部品1
100
AcDbLine
 10
3363.084791275922
 20
4516.108836451527
 30
0.0
 11
3363.084791275922
 21
4413.075718108764
 31
0.0
  0
LINE
  5
1F1C
330
1A
100
AcDbEntity
  8
部品1
100
AcDbLine
 10
3318.084791275918
 20
4516.108836451527
 30
0.0
 11
3318.084791275922
 21
4413.075718108764
 31
0.0
  0
LINE
  5
1F1D
330
1A
100
AcDbEntity
  8
部品1
100
AcDbLine
 10
3436.08479127592
 20
4516.108836451524
 30
0.0
 11
3391.084791275922
 21
4516.108836451524
 31
0.0
  0
LINE
  5
1F1E
330
1A
100
AcDbEntity
  8
部品1
100
AcDbLine
 10
3436.08479127592
 20
4516.108836451527
 30
0.0
 11
3436.084791275922
 21
4413.075718108764
 31
0.0
  0
LINE
  5
1F1F
330
1A
100
AcDbEntity
  8
部品1
100
AcDbLine
 10
3391.084791275922
 20
4516.108836451527
 30
0.0
 11
3391.084791275922
 21
4413.075718108764
 31
0.0
  0
LINE
  5
1F20
330
1A
100
AcDbEntity
  8
部品1
100
AcDbLine
 10
3053.084791275922
 20
4498.108836451527
 30
0.0
 11
3066.584791275918
 21
4498.108836451529
 31
0.0
  0
LINE
  5
1F21
330
1A
100
AcDbEntity
  8
部品1
100
AcDbLine
 10
3101.08479127592
 20
4516.108836451527
 30
0.0
 11
3066.584791275922
 21
4516.108836451527
 31
0.0
  0
LINE
  5
1F22
330
1A
100
AcDbEntity
  8
部品1
100
AcDbLine
 10
3101.08479127592
 20
4516.108836451527
 30
0.0
 11
3101.084791275922
 21
4413.075718108764
 31
0.0
  0
LINE
  5
1F23
330
1A
100
AcDbEntity
  8
部品1
100
AcDbLine
 10
3066.58479127592
 20
4516.108836451527
 30
0.0
 11
3066.58479127592
 21
4413.075718108764
 31
0.0
  0
LINE
  5
1F24
330
1A
100
AcDbEntity
  8
部品1
100
AcDbLine
 10
3101.084791275918
 20
4498.108836451529
 30
0.0
 11
3318.08479127592
 21
4498.108836451529
 31
0.0
  0
LINE
  5
1F25
330
1A
100
AcDbEntity
  8
部品1
100
AcDbLine
 10
3436.08479127592
 20
4498.108836451527
 30
0.0
 11
3646.58479127592
 21
4498.108836451527
 31
0.0
  0
LINE
  5
1F26
330
1A
100
AcDbEntity
  8
仕様書枠
 48
50.0
100
AcDbLine
 10
16296.0
 20
1464.0
 30
0.0
 11
16296.0
 21
264.0
 31
0.0
  0
LINE
  5
1F27
330
1A
100
AcDbEntity
  8
仕様書枠
  6
Continuous
 48
50.0
100
AcDbLine
 10
14240.0
 20
1464.0
 30
0.0
 11
14240.0
 21
1064.0
 31
0.0
  0
TEXT
  5
1F28
330
1A
100
AcDbEntity
  8
文字
 62
     7
 48
50.0
100
AcDbText
 10
14788.48636170506
 20
747.8967129911434
 30
0.0
 40
160.0
  1
BF-２８A
  7
MSGOTHIC
100
AcDbText
  0
TEXT
  5
1F29
330
1A
100
AcDbEntity
  8
文字
 62
     7
 48
50.0
100
AcDbText
 10
14840.42318972916
 20
1102.252727072919
 30
0.0
 40
100.0
  1
～一般型～
  7
STYLE2
100
AcDbText
  0
LINE
  5
1F2A
330
1A
100
AcDbEntity
  8
仕様書枠
  6
Continuous
 48
50.0
100
AcDbLine
 10
13096.0
 20
1464.0
 30
0.0
 11
13096.0
 21
264.0
 31
0.0
  0
LINE
  5
1F2B
330
1A
100
AcDbEntity
  8
仕様書枠
 48
50.0
100
AcDbLine
 10
13096.0
 20
1464.0
 30
0.0
 11
16296.0
 21
1464.0
 31
0.0
  0
LINE
  5
1F2C
330
1A
100
AcDbEntity
  8
文字
 62
     7
 48
50.0
100
AcDbLine
 10
13176.0
 20
664.0
 30
0.0
 11
16216.0
 21
664.0
 31
0.0
  0
TEXT
  5
1F2D
330
1A
100
AcDbEntity
  8
文字
 62
     7
 48
50.0
100
AcDbText
 10
13151.7790565769
 20
1159.090607429942
 30
0.0
 40
200.0
  1
外 形 図
  7
STYLE2
100
AcDbText
  0
TEXT
  5
1F2E
330
1A
100
AcDbEntity
  8
文字
 62
     7
 48
50.0
100
AcDbText
 10
13190.23669998441
 20
741.2740661031238
 30
0.0
 40
160.0
  1
機種名
  7
STYLE2
100
AcDbText
  0
TEXT
  5
1F2F
330
1A
100
AcDbEntity
  8
文字
 62
     7
 48
50.0
100
AcDbText
 10
13198.2053442172
 20
492.5435242569001
 30
0.0
 40
100.0
  1
○間口奥行寸法は柱芯寸法です。    
  7
STYLE2
100
AcDbText
  0
LINE
  5
1F30
330
1A
100
AcDbEntity
  8
仕様書枠
 48
50.0
100
AcDbLine
 10
13096.0
 20
1064.0
 30
0.0
 11
14240.0
 21
1064.0
 31
0.0
  0
LINE
  5
1F31
330
1A
100
AcDbEntity
  8
仕様書枠
 48
50.0
100
AcDbLine
 10
128.8000000000011
 20
264.0
 30
0.0
 11
16296.0
 21
264.0
 31
0.0
  0
LINE
  5
1F32
330
1A
100
AcDbEntity
  8
寸法
100
AcDbLine
 10
6923.537714463041
 20
10742.28735663808
 30
0.0
 11
6923.537714463041
 21
11042.28735663808
 31
0.0
  0
LINE
  5
1F33
330
1A
100
AcDbEntity
  8
寸法
100
AcDbLine
 10
6923.537714463041
 20
5942.287356638084
 30
0.0
 11
6923.537714463041
 21
5642.287356638084
 31
0.0
  0
LWPOLYLINE
  5
1F34
330
1A
100
AcDbEntity
  8
部品1
100
AcDbPolyline
 90
        4
 70
     1
 43
0.0
 10
4396.193831514705
 20
1600.570295076402
 10
4396.193831514705
 20
1378.986036036134
 10
5033.206164274467
 20
1378.986036036134
 10
5033.206164274467
 20
1600.570295076402
  0
TEXT
  5
1F35
330
1A
100
AcDbEntity
  8
部品1
100
AcDbText
 10
4438.661316970835
 20
1426.131618349922
 30
0.0
 40
120.0
  1
正面図
  7
MSGOTHIC
100
AcDbText
  0
TEXT
  5
1F36
330
1A
100
AcDbEntity
  8
部品1
100
AcDbText
 10
4446.045810310748
 20
5548.421336420385
 30
0.0
 40
120.0
  1
平面図
  7
MSGOTHIC
100
AcDbText
  0
LWPOLYLINE
  5
1F37
330
1A
100
AcDbEntity
  8
部品1
100
AcDbPolyline
 90
        4
 70
     1
 43
0.0
 10
4403.578324854617
 20
5722.860013146864
 10
4403.578324854617
 20
5501.275754106597
 10
5040.590657614379
 20
5501.275754106597
 10
5040.590657614379
 20
5722.860013146864
  0
LINE
  5
1F38
330
1A
100
AcDbEntity
  8
部品1
100
AcDbLine
 10
12965.22751698825
 20
4399.070199179273
 30
0.0
 11
12957.94951077042
 21
4310.314277191639
 31
0.0
  0
ARC
  5
1F39
330
1A
100
AcDbEntity
  8
部品1
100
AcDbCircle
 10
12944.99299783398
 20
4311.376714261763
 30
0.0
 40
13.0
100
AcDbArc
 50
267.3043145064287
 51
355.3122209335249
  0
ARC
  5
1F3A
330
1A
100
AcDbEntity
  8
部品1
100
AcDbCircle
 10
12952.27100405182
 20
4400.1326362494
 30
0.0
 40
13.0
100
AcDbArc
 50
355.3122209335249
 51
87.3043145064288
  0
LINE
  5
1F3B
330
1A
100
AcDbEntity
  8
部品1
100
AcDbLine
 10
12943.33910878918
 20
4413.567581136125
 30
0.0
 11
12933.93494345153
 21
4298.882962837494
 31
0.0
  0
ARC
  5
1F3C
330
1A
100
AcDbEntity
  8
部品1
100
AcDbCircle
 10
12782.89356599846
 20
4300.988955326629
 30
0.0
 40
5.0
100
AcDbArc
 50
345.6149453310498
 51
87.3043145064288
  0
LINE
  5
1F3D
330
1A
100
AcDbEntity
  8
部品1
100
AcDbLine
 10
12741.45578181437
 20
4247.879054973302
 30
0.0
 11
12739.45799497567
 21
4247.973117436958
 31
0.0
  0
LINE
  5
1F3E
330
1A
100
AcDbEntity
  8
部品1
100
AcDbLine
 10
12739.34982314246
 20
4245.675662572439
 30
0.0
 11
12698.39519294887
 21
4247.603943077387
 31
0.0
  0
LINE
  5
1F3F
330
1A
100
AcDbEntity
  8
部品1
100
AcDbLine
 10
12765.14546554208
 20
4243.760342278227
 30
0.0
 11
12741.31468811889
 21
4244.882374715234
 31
0.0
  0
ARC
  5
1F40
330
1A
100
AcDbEntity
  8
部品1
100
AcDbCircle
 10
12765.61577786036
 20
4253.749276471785
 30
0.0
 40
10.0
100
AcDbArc
 50
267.3043145064287
 51
345.6149453310498
  0
LINE
  5
1F41
330
1A
100
AcDbEntity
  8
部品1
100
AcDbLine
 10
12701.32523869175
 20
4309.835003103268
 30
0.0
 11
12698.39519294887
 21
4247.603943077387
 31
0.0
  0
LINE
  5
1F42
330
1A
100
AcDbEntity
  8
部品1
100
AcDbLine
 10
12742.27986888535
 20
4307.90672259832
 30
0.0
 11
12739.34982314246
 21
4245.675662572439
 31
0.0
  0
LINE
  5
1F43
330
1A
100
AcDbEntity
  8
部品1
100
AcDbLine
 10
12744.27765572405
 20
4307.812660134664
 30
0.0
 11
12741.31468811889
 21
4244.882374715234
 31
0.0
  0
LINE
  5
1F44
330
1A
100
AcDbEntity
  8
部品1
100
AcDbLine
 10
12775.30225783784
 20
4251.264904187727
 30
0.0
 11
12787.7368059872
 21
4299.7467691846
 31
0.0
  0
DIMENSION
  5
1F45
330
1A
100
AcDbEntity
  8
寸法
100
AcDbDimension
  2
*D1
 10
13489.7331280352
 20
4272.714131646686
 30
0.0
 11
13641.00436626226
 21
4327.788124223074
 31
0.0
 70
   161
 71
     5
 42
115.0000000000018
  3
物置仕様図40
100
AcDbAlignedDimension
 13
12930.37633230062
 23
4414.177911862459
 33
0.0
 14
12924.9677406404
 24
4299.305168636517
 34
0.0
  0
ARC
  5
1F46
330
1A
100
AcDbEntity
  8
部品1
100
AcDbCircle
 10
12395.93720951073
 20
4311.69984189569
 30
0.0
 40
10.0
100
AcDbArc
 50
357.3043145064263
 51
87.3043145064288
  0
CIRCLE
  5
1F47
330
1A
100
AcDbEntity
  8
細線
100
AcDbCircle
 10
12375.10694127673
 20
4295.161213744253
 30
0.0
 40
8.0
  0
LWPOLYLINE
  5
1F48
330
1A
100
AcDbEntity
  8
細線
100
AcDbPolyline
 90
        6
 70
     1
 43
0.0
 10
12381.60694127672
 20
4298.913990493985
 10
12375.10694127673
 20
4302.666767243717
 10
12368.60694127672
 20
4298.913990493985
 10
12368.60694127672
 20
4291.408436994522
 10
12375.10694127673
 20
4287.655660244789
 10
12381.60694127672
 20
4291.408436994522
  0
CIRCLE
  5
1F49
330
1A
100
AcDbEntity
  8
細線
100
AcDbCircle
 10
12375.10694127673
 20
4295.161213744253
 30
0.0
 40
6.0
  0
CIRCLE
  5
1F4A
330
1A
100
AcDbEntity
  8
細線
100
AcDbCircle
 10
12269.22423882498
 20
4300.146524318021
 30
0.0
 40
6.0
  0
LWPOLYLINE
  5
1F4B
330
1A
100
AcDbEntity
  8
細線
100
AcDbPolyline
 90
        6
 70
     1
 43
0.0
 10
12275.72423882498
 20
4303.899301067755
 10
12269.22423882498
 20
4307.652077817485
 10
12262.72423882498
 20
4303.899301067755
 10
12262.72423882498
 20
4296.39374756829
 10
12269.22423882498
 20
4292.640970818556
 10
12275.72423882498
 20
4296.39374756829
  0
CIRCLE
  5
1F4C
330
1A
100
AcDbEntity
  8
細線
100
AcDbCircle
 10
12269.22423882498
 20
4300.146524318021
 30
0.0
 40
8.0
  0
LINE
  5
1F4D
330
1A
100
AcDbEntity
  8
部品1
100
AcDbLine
 10
12072.72523869175
 20
4339.431586436602
 30
0.0
 11
12070.46773956401
 21
4291.484702307509
 31
0.0
  0
LINE
  5
1F4E
330
1A
100
AcDbEntity
  8
部品1
100
AcDbLine
 10
12113.67986888535
 20
4337.503305931652
 30
0.0
 11
12111.4223697576
 21
4289.556421802559
 31
0.0
  0
LINE
  5
1F4F
330
1A
100
AcDbEntity
  8
部品1
100
AcDbLine
 10
12067.97129870039
 20
4276.085072063761
 30
0.0
 11
12015.92755088103
 21
4278.535465190256
 31
0.0
  0
LINE
  5
1F50
330
1A
100
AcDbEntity
  8
部品1
100
AcDbLine
 10
12015.92755088103
 20
4278.535465190256
 30
0.0
 11
12018.32614370426
 21
4329.479029577409
 31
0.0
  0
LINE
  5
1F51
330
1A
100
AcDbEntity
  8
部品1
100
AcDbLine
 10
12106.19274650168
 20
4284.79711086492
 30
0.0
 11
12075.22705050165
 21
4286.255079051588
 31
0.0
  0
ARC
  5
1F52
330
1A
100
AcDbEntity
  8
部品1
100
AcDbCircle
 10
12028.31507789782
 20
4329.008717259131
 30
0.0
 40
10.0
100
AcDbArc
 50
87.3043145064288
 51
177.3043145064263
  0
ARC
  5
1F53
330
1A
100
AcDbEntity
  8
部品1
100
AcDbCircle
 10
12075.46220666079
 20
4291.249546148367
 30
0.0
 40
5.0
100
AcDbArc
 50
177.3043145064263
 51
267.3043145064809
  0
ARC
  5
1F54
330
1A
100
AcDbEntity
  8
部品1
100
AcDbCircle
 10
12106.42790266082
 20
4289.791577961699
 30
0.0
 40
5.0
100
AcDbArc
 50
267.3043145064287
 51
357.3043145064263
  0
CIRCLE
  5
1F55
330
1A
100
AcDbEntity
  8
細線
100
AcDbCircle
 10
12163.34153637325
 20
4305.13183489179
 30
0.0
 40
6.0
  0
LWPOLYLINE
  5
1F56
330
1A
100
AcDbEntity
  8
細線
100
AcDbPolyline
 90
        6
 70
     1
 43
0.0
 10
12169.84153637325
 20
4308.884611641523
 10
12163.34153637325
 20
4312.637388391254
 10
12156.84153637325
 20
4308.884611641523
 10
12156.84153637325
 20
4301.379058142058
 10
12163.34153637325
 20
4297.626281392325
 10
12169.84153637325
 20
4301.379058142058
  0
CIRCLE
  5
1F57
330
1A
100
AcDbEntity
  8
細線
100
AcDbCircle
 10
12163.34153637325
 20
4305.13183489179
 30
0.0
 40
8.0
  0
CIRCLE
  5
1F58
330
1A
100
AcDbEntity
  8
細線
100
AcDbCircle
 10
12057.45883392151
 20
4310.11714546556
 30
0.0
 40
6.0
  0
LWPOLYLINE
  5
1F59
330
1A
100
AcDbEntity
  8
細線
100
AcDbPolyline
 90
        6
 70
     1
 43
0.0
 10
12063.95883392151
 20
4313.86992221529
 10
12057.45883392151
 20
4317.622698965023
 10
12050.95883392151
 20
4313.86992221529
 10
12050.95883392151
 20
4306.364368715825
 10
12057.45883392151
 20
4302.611591966095
 10
12063.95883392151
 20
4306.364368715825
  0
CIRCLE
  5
1F5A
330
1A
100
AcDbEntity
  8
細線
100
AcDbCircle
 10
12057.45883392151
 20
4310.11714546556
 30
0.0
 40
8.0
  0
LINE
  5
1F5B
330
1A
100
AcDbEntity
  8
部品1
100
AcDbLine
 10
12396.407521829
 20
4321.688776089251
 30
0.0
 11
12028.7853902161
 21
4338.99765145269
 31
0.0
  0
LINE
  5
1F5C
330
1A
100
AcDbEntity
  8
部品1
100
AcDbLine
 10
12250.32755088103
 20
4157.439062172192
 30
0.0
 11
12250.32755088103
 21
4103.085965190257
 31
0.0
  0
CIRCLE
  5
1F5D
330
1A
100
AcDbEntity
  8
細線
100
AcDbCircle
 10
12216.32755088103
 20
4218.085965190257
 30
0.0
 40
6.0
  0
LWPOLYLINE
  5
1F5E
330
1A
100
AcDbEntity
  8
細線
100
AcDbPolyline
 90
        6
 70
     1
 43
0.0
 10
12222.82755088103
 20
4221.838741939989
 10
12216.32755088103
 20
4225.591518689721
 10
12209.82755088103
 20
4221.838741939989
 10
12209.82755088103
 20
4214.333188440525
 10
12216.32755088103
 20
4210.580411690793
 10
12222.82755088103
 20
4214.333188440525
  0
CIRCLE
  5
1F5F
330
1A
100
AcDbEntity
  8
細線
100
AcDbCircle
 10
12216.32755088103
 20
4133.085965190257
 30
0.0
 40
6.0
  0
LWPOLYLINE
  5
1F60
330
1A
100
AcDbEntity
  8
細線
100
AcDbPolyline
 90
        6
 70
     1
 43
0.0
 10
12222.82755088103
 20
4136.838741939989
 10
12216.32755088103
 20
4140.591518689721
 10
12209.82755088103
 20
4136.838741939989
 10
12209.82755088103
 20
4129.333188440525
 10
12216.32755088103
 20
4125.580411690793
 10
12222.82755088103
 20
4129.333188440525
  0
LINE
  5
1F61
330
1A
100
AcDbEntity
  8
部品1
100
AcDbLine
 10
12182.32755088103
 20
4156.217861741041
 30
0.0
 11
12182.32755088103
 21
4103.085965190255
 31
0.0
  0
LINE
  5
1F62
330
1A
100
AcDbEntity
  8
部品1
100
AcDbLine
 10
12250.32755088103
 20
4103.085965190257
 30
0.0
 11
12182.32755088103
 21
4103.085965190257
 31
0.0
  0
CIRCLE
  5
1F63
330
1A
100
AcDbEntity
  8
細線
100
AcDbCircle
 10
12216.32755088103
 20
4218.085965190257
 30
0.0
 40
8.0
  0
CIRCLE
  5
1F64
330
1A
100
AcDbEntity
  8
細線
100
AcDbCircle
 10
12216.32755088103
 20
4133.085965190257
 30
0.0
 40
8.0
  0
LINE
  5
1F65
330
1A
100
AcDbEntity
  8
部品1
100
AcDbLine
 10
12403.52755088103
 20
4260.285965190256
 30
0.0
 11
12360.26583022297
 21
4262.322871204573
 31
0.0
  0
ARC
  5
1F66
330
1A
100
AcDbEntity
  8
部品1
100
AcDbCircle
 10
12355.32755088103
 20
4157.439062172192
 30
0.0
 40
105.0
100
AcDbArc
 50
87.3043145064288
 51
180.0
  0
LINE
  5
1F67
330
1A
100
AcDbEntity
  8
部品1
100
AcDbLine
 10
12403.52755088103
 20
4260.285965190256
 30
0.0
 11
12405.92614370428
 21
4311.229529577405
 31
0.0
  0
ARC
  5
1F68
330
1A
100
AcDbEntity
  8
部品1
100
AcDbCircle
 10
12062.32755088103
 20
4156.217861741041
 30
0.0
 40
120.0
100
AcDbArc
 50
0.0
 51
87.3043145064288
  0
LINE
  5
1F69
330
1A
100
AcDbEntity
  8
部品1
100
AcDbLine
 10
11444.12523869175
 20
4369.028169769936
 30
0.0
 11
11441.19519294886
 21
4306.797109744053
 31
0.0
  0
LINE
  5
1F6A
330
1A
100
AcDbEntity
  8
部品1
100
AcDbLine
 10
11482.14982314246
 20
4304.868829239105
 30
0.0
 11
11441.19519294886
 21
4306.797109744053
 31
0.0
  0
LINE
  5
1F6B
330
1A
100
AcDbEntity
  8
部品1
100
AcDbLine
 10
11485.07986888535
 20
4367.099889264987
 30
0.0
 11
11482.14982314246
 21
4304.868829239105
 31
0.0
  0
LINE
  5
1F6C
330
1A
100
AcDbEntity
  8
部品1
100
AcDbLine
 10
10815.52523869175
 20
4398.624753103268
 30
0.0
 11
10812.59519294887
 21
4336.393693077387
 31
0.0
  0
LINE
  5
1F6D
330
1A
100
AcDbEntity
  8
部品1
100
AcDbLine
 10
10853.54982314246
 20
4334.465412572439
 30
0.0
 11
10812.59519294887
 21
4336.393693077387
 31
0.0
  0
LINE
  5
1F6E
330
1A
100
AcDbEntity
  8
部品1
100
AcDbLine
 10
10856.47986888534
 20
4396.696472598319
 30
0.0
 11
10853.54982314246
 21
4334.465412572439
 31
0.0
  0
LINE
  5
1F6F
330
1A
100
AcDbEntity
  8
部品1
100
AcDbLine
 10
10812.70336478207
 20
4338.691147941907
 30
0.0
 11
10811.49216019243
 21
4338.748175491335
 31
0.0
  0
LINE
  5
1F70
330
1A
100
AcDbEntity
  8
部品1
100
AcDbLine
 10
10811.32755088103
 20
4335.252048523589
 30
0.0
 11
10809.73379724664
 21
4335.327087757208
 31
0.0
  0
LINE
  5
1F71
330
1A
100
AcDbEntity
  8
部品1
100
AcDbLine
 10
10811.32755088103
 20
4335.252048523591
 30
0.0
 11
10813.72614370426
 21
4386.195612910735
 31
0.0
  0
ARC
  5
1F72
330
1A
100
AcDbEntity
  8
部品1
100
AcDbCircle
 10
10803.7372095107
 20
4386.665925229014
 30
0.0
 40
10.0
100
AcDbArc
 50
357.3043145064263
 51
87.3043145064288
  0
CIRCLE
  5
1F73
330
1A
100
AcDbEntity
  8
細線
100
AcDbCircle
 10
10790.92744192144
 20
4369.74966517222
 30
0.0
 40
6.0
  0
LWPOLYLINE
  5
1F74
330
1A
100
AcDbEntity
  8
細線
100
AcDbPolyline
 90
        6
 70
     1
 43
0.0
 10
10797.42744192144
 20
4373.502441921952
 10
10790.92744192144
 20
4377.255218671684
 10
10784.42744192144
 20
4373.502441921952
 10
10784.42744192144
 20
4365.996888422487
 10
10790.92744192144
 20
4362.244111672755
 10
10797.42744192144
 20
4365.996888422487
  0
CIRCLE
  5
1F75
330
1A
100
AcDbEntity
  8
細線
100
AcDbCircle
 10
10790.92744192144
 20
4369.74966517222
 30
0.0
 40
8.0
  0
CIRCLE
  5
1F76
330
1A
100
AcDbEntity
  8
細線
100
AcDbCircle
 10
10587.15318437281
 20
4379.344036465132
 30
0.0
 40
6.0
  0
LWPOLYLINE
  5
1F77
330
1A
100
AcDbEntity
  8
細線
100
AcDbPolyline
 90
        6
 70
     1
 43
0.0
 10
10593.65318437281
 20
4383.096813214865
 10
10587.15318437281
 20
4386.849589964596
 10
10580.65318437281
 20
4383.096813214865
 10
10580.65318437281
 20
4375.5912597154
 10
10587.15318437281
 20
4371.838482965667
 10
10593.65318437281
 20
4375.5912597154
  0
CIRCLE
  5
1F78
330
1A
100
AcDbEntity
  8
細線
100
AcDbCircle
 10
10587.15318437281
 20
4379.344036465132
 30
0.0
 40
8.0
  0
CIRCLE
  5
1F79
330
1A
100
AcDbEntity
  8
細線
100
AcDbCircle
 10
10689.04031314713
 20
4374.546850818675
 30
0.0
 40
6.0
  0
LWPOLYLINE
  5
1F7A
330
1A
100
AcDbEntity
  8
細線
100
AcDbPolyline
 90
        6
 70
     1
 43
0.0
 10
10695.54031314713
 20
4378.299627568408
 10
10689.04031314713
 20
4382.052404318139
 10
10682.54031314713
 20
4378.299627568408
 10
10682.54031314713
 20
4370.794074068944
 10
10689.04031314713
 20
4367.04129731921
 10
10695.54031314713
 20
4370.794074068944
  0
CIRCLE
  5
1F7B
330
1A
100
AcDbEntity
  8
細線
100
AcDbCircle
 10
10689.04031314713
 20
4374.546850818675
 30
0.0
 40
8.0
  0
CIRCLE
  5
1F7C
330
1A
100
AcDbEntity
  8
細線
100
AcDbCircle
 10
10566.32755088103
 20
4274.252048523589
 30
0.0
 40
6.0
  0
LWPOLYLINE
  5
1F7D
330
1A
100
AcDbEntity
  8
細線
100
AcDbPolyline
 90
        6
 70
     1
 43
0.0
 10
10572.82755088103
 20
4278.004825273321
 10
10566.32755088103
 20
4281.757602023054
 10
10559.82755088103
 20
4278.004825273321
 10
10559.82755088103
 20
4270.499271773856
 10
10566.32755088103
 20
4266.746495024125
 10
10572.82755088103
 20
4270.499271773856
  0
CIRCLE
  5
1F7E
330
1A
100
AcDbEntity
  8
細線
100
AcDbCircle
 10
10566.32755088103
 20
4274.252048523589
 30
0.0
 40
8.0
  0
CIRCLE
  5
1F7F
330
1A
100
AcDbEntity
  8
細線
100
AcDbCircle
 10
10566.32755088103
 20
4274.252048523589
 30
0.0
 40
8.0
  0
LWPOLYLINE
  5
1F80
330
1A
100
AcDbEntity
  8
細線
100
AcDbPolyline
 90
        6
 70
     1
 43
0.0
 10
10559.82755088104
 20
4278.004825273321
 10
10566.32755088103
 20
4281.757602023054
 10
10572.82755088103
 20
4278.004825273321
 10
10572.82755088103
 20
4270.499271773856
 10
10566.32755088103
 20
4266.746495024125
 10
10559.82755088104
 20
4270.499271773856
  0
CIRCLE
  5
1F81
330
1A
100
AcDbEntity
  8
細線
100
AcDbCircle
 10
10566.32755088103
 20
4274.252048523589
 30
0.0
 40
6.0
  0
CIRCLE
  5
1F82
330
1A
100
AcDbEntity
  8
細線
100
AcDbCircle
 10
10545.50191738925
 20
4379.344036465132
 30
0.0
 40
8.0
  0
LWPOLYLINE
  5
1F83
330
1A
100
AcDbEntity
  8
細線
100
AcDbPolyline
 90
        6
 70
     1
 43
0.0
 10
10539.00191738925
 20
4383.096813214865
 10
10545.50191738925
 20
4386.849589964596
 10
10552.00191738925
 20
4383.096813214865
 10
10552.00191738925
 20
4375.5912597154
 10
10545.50191738925
 20
4371.838482965667
 10
10539.00191738925
 20
4375.5912597154
  0
CIRCLE
  5
1F84
330
1A
100
AcDbEntity
  8
細線
100
AcDbCircle
 10
10545.50191738925
 20
4379.344036465132
 30
0.0
 40
6.0
  0
LINE
  5
1F85
330
1A
100
AcDbEntity
  8
部品1
100
AcDbLine
 10
10804.20752182898
 20
4396.654859422574
 30
0.0
 11
10566.32755088103
 21
4407.855041388038
 31
0.0
  0
LINE
  5
1F86
330
1A
100
AcDbEntity
  8
部品1
100
AcDbLine
 10
10600.33480702529
 20
4137.252048523588
 30
0.0
 11
10566.32755088103
 21
4137.252048523588
 31
0.0
  0
CIRCLE
  5
1F87
330
1A
100
AcDbEntity
  8
細線
100
AcDbCircle
 10
10566.32755088103
 20
4172.252048523588
 30
0.0
 40
6.0
  0
LWPOLYLINE
  5
1F88
330
1A
100
AcDbEntity
  8
細線
100
AcDbPolyline
 90
        6
 70
     1
 43
0.0
 10
10572.82755088103
 20
4176.004825273321
 10
10566.32755088103
 20
4179.757602023054
 10
10559.82755088103
 20
4176.004825273321
 10
10559.82755088103
 20
4168.499271773856
 10
10566.32755088103
 20
4164.746495024124
 10
10572.82755088103
 20
4168.499271773856
  0
CIRCLE
  5
1F89
330
1A
100
AcDbEntity
  8
細線
100
AcDbCircle
 10
10566.32755088103
 20
4172.252048523588
 30
0.0
 40
8.0
  0
CIRCLE
  5
1F8A
330
1A
100
AcDbEntity
  8
細線
100
AcDbCircle
 10
10566.32755088103
 20
4172.252048523588
 30
0.0
 40
8.0
  0
LWPOLYLINE
  5
1F8B
330
1A
100
AcDbEntity
  8
細線
100
AcDbPolyline
 90
        6
 70
     1
 43
0.0
 10
10559.82755088104
 20
4176.004825273321
 10
10566.32755088103
 20
4179.757602023054
 10
10572.82755088103
 20
4176.004825273321
 10
10572.82755088103
 20
4168.499271773856
 10
10566.32755088103
 20
4164.746495024124
 10
10559.82755088104
 20
4168.499271773856
  0
CIRCLE
  5
1F8C
330
1A
100
AcDbEntity
  8
細線
100
AcDbCircle
 10
10566.32755088103
 20
4172.252048523588
 30
0.0
 40
6.0
  0
ARC
  5
1F8D
330
1A
100
AcDbEntity
  8
部品1
100
AcDbCircle
 10
10800.32755088103
 20
4135.548403886007
 30
0.0
 40
200.0
100
AcDbArc
 50
87.3043145064288
 51
179.5119358598813
  0
LINE
  5
1F8E
330
1A
100
AcDbEntity
  8
部品1
100
AcDbLine
 10
11441.30336478207
 20
4309.094564608571
 30
0.0
 11
10853.65799497567
 21
4336.762867436958
 31
0.0
  0
LINE
  5
1F8F
330
1A
100
AcDbEntity
  8
部品1
100
AcDbLine
 10
10566.32755088103
 20
4525.485208654298
 30
0.0
 11
10566.32755088103
 21
4410.357810904355
 31
0.0
  0
LINE
  5
1F90
330
1A
100
AcDbEntity
  8
部品1
100
AcDbLine
 10
12016.09216019243
 20
4282.031592158002
 30
0.0
 11
11482.25799497566
 21
4307.166284103623
 31
0.0
  0
LINE
  5
1F91
330
1A
100
AcDbEntity
  8
部品1
100
AcDbLine
 10
12952.88241006558
 20
4413.118250701027
 30
0.0
 11
10566.32755088103
 21
4525.485208654299
 31
0.0
  0
LINE
  5
1F92
330
1A
100
AcDbEntity
  8
部品1
100
AcDbLine
 10
12944.38159182021
 20
4298.391099810134
 30
0.0
 11
10566.32755088103
 21
4410.357810904355
 31
0.0
  0
LINE
  5
1F93
330
1A
100
AcDbEntity
  8
細線
100
AcDbLine
 10
12960.03084887235
 20
4335.696377271739
 30
0.0
 11
10566.32755088103
 21
4448.399907552164
 31
0.0
  0
LINE
  5
1F94
330
1A
100
AcDbEntity
  8
細線
100
AcDbLine
 10
12961.01215308149
 20
4347.663467876813
 30
0.0
 11
10566.32755088103
 21
4460.413201230418
 31
0.0
  0
LINE
  5
1F95
330
1A
100
AcDbEntity
  8
部品1
100
AcDbLine
 10
12698.50336478207
 20
4249.901397941907
 30
0.0
 11
12403.69216019243
 21
4263.782092158002
 31
0.0
  0
DIMENSION
  5
1F96
330
1A
100
AcDbEntity
  8
寸法
100
AcDbDimension
  2
*D2
 10
12966.32755088103
 20
4885.252905683832
 30
0.0
 11
12591.32755088103
 21
4985.252905683832
 31
0.0
 70
    32
 71
     5
 42
750.0000000000018
  3
物置仕様図40
100
AcDbAlignedDimension
 13
12216.32755088103
 23
4094.504541410946
 33
0.0
 14
12966.32755088103
 24
4477.485208654299
 34
0.0
100
AcDbRotatedDimension
1001
ACAD
1000
DSTYLE
1002
{
1070
    75
1070
     1
1002
}
  0
LINE
  5
1F97
330
1A
100
AcDbEntity
  8
部品1
100
AcDbLine
 10
12966.32755088103
 20
2330.4852086543
 30
0.0
 11
12966.32755088103
 21
2280.4852086543
 31
0.0
  0
LINE
  5
1F98
330
1A
100
AcDbEntity
  8
細線
100
AcDbLine
 10
12544.20240990224
 20
2280.4852086543
 30
0.0
 11
12594.20240990225
 21
2330.4852086543
 31
0.0
  0
LINE
  5
1F99
330
1A
100
AcDbEntity
  8
細線
100
AcDbLine
 10
12510.52644944824
 20
2280.4852086543
 30
0.0
 11
12560.52644944824
 21
2330.4852086543
 31
0.0
  0
LINE
  5
1F9A
330
1A
100
AcDbEntity
  8
細線
100
AcDbLine
 10
12476.85048899423
 20
2280.4852086543
 30
0.0
 11
12526.85048899423
 21
2330.4852086543
 31
0.0
  0
DIMENSION
  5
1F9B
330
1A
100
AcDbEntity
  8
寸法
100
AcDbDimension
  2
*D3
 10
13483.45611201606
 20
2280.4852086543
 30
0.0
 11
13362.01802163522
 21
2460.888255132261
 31
0.0
 70
   160
 71
     5
 42
49.99999999999954
  3
物置仕様図40
100
AcDbAlignedDimension
 13
12966.32755088103
 23
2330.4852086543
 33
0.0
 14
13495.59992105415
 24
2280.4852086543
 34
0.0
 50
90.0
100
AcDbRotatedDimension
  0
LINE
  5
1F9C
330
1A
100
AcDbEntity
  8
部品1
100
AcDbLine
 10
12186.32755088103
 20
3430.4852086543
 30
0.0
 11
10596.32755088103
 21
3430.485208654302
 31
0.0
  0
LINE
  5
1F9D
330
1A
100
AcDbEntity
  8
細線
100
AcDbLine
 10
12186.32755088103
 20
3327.4852086543
 30
0.0
 11
10596.32755088103
 21
3327.485208654302
 31
0.0
  0
LINE
  5
1F9E
330
1A
100
AcDbEntity
  8
細線
100
AcDbLine
 10
12186.32755088103
 20
3315.4852086543
 30
0.0
 11
10596.32755088103
 21
3315.485208654302
 31
0.0
  0
LINE
  5
1F9F
330
1A
100
AcDbEntity
  8
細線
100
AcDbLine
 10
11399.21975446593
 20
2280.4852086543
 30
0.0
 11
11449.21975446593
 21
2330.4852086543
 31
0.0
  0
LINE
  5
1FA0
330
1A
100
AcDbEntity
  8
細線
100
AcDbLine
 10
11432.89571491994
 20
2280.4852086543
 30
0.0
 11
11482.89571491994
 21
2330.4852086543
 31
0.0
  0
LINE
  5
1FA1
330
1A
100
AcDbEntity
  8
部品1
100
AcDbLine
 10
12186.32755088103
 20
2530.4852086543
 30
0.0
 11
10596.32755088103
 21
2530.485208654303
 31
0.0
  0
LINE
  5
1FA2
330
1A
100
AcDbEntity
  8
細線
100
AcDbLine
 10
12186.32755088103
 20
2633.4852086543
 30
0.0
 11
10596.32755088103
 21
2633.485208654303
 31
0.0
  0
LINE
  5
1FA3
330
1A
100
AcDbEntity
  8
細線
100
AcDbLine
 10
12186.32755088103
 20
2645.4852086543
 30
0.0
 11
10596.32755088103
 21
2645.485208654303
 31
0.0
  0
LINE
  5
1FA4
330
1A
100
AcDbEntity
  8
細線
100
AcDbLine
 10
12186.32755088103
 20
2974.4852086543
 30
0.0
 11
10596.32755088103
 21
2974.485208654302
 31
0.0
  0
LINE
  5
1FA5
330
1A
100
AcDbEntity
  8
細線
100
AcDbLine
 10
12186.32755088103
 20
2968.4852086543
 30
0.0
 11
10596.32755088103
 21
2968.485208654302
 31
0.0
  0
LINE
  5
1FA6
330
1A
100
AcDbEntity
  8
細線
100
AcDbLine
 10
11466.57167537395
 20
2280.4852086543
 30
0.0
 11
11516.57167537395
 21
2330.4852086543
 31
0.0
  0
LINE
  5
1FA7
330
1A
100
AcDbEntity
  8
部品1
100
AcDbLine
 10
12246.32755088103
 20
4103.085965190257
 30
0.0
 11
12246.32755088103
 21
2330.4852086543
 31
0.0
  0
LINE
  5
1FA8
330
1A
100
AcDbEntity
  8
部品1
100
AcDbLine
 10
12186.32755088103
 20
4103.085965190257
 30
0.0
 11
12186.32755088103
 21
2330.4852086543
 31
0.0
  0
LINE
  5
1FA9
330
1A
100
AcDbEntity
  8
部品1
100
AcDbLine
 10
10596.32755088103
 20
4137.252048523588
 30
0.0
 11
10596.32755088103
 21
2330.4852086543
 31
0.0
  0
LINE
  5
1FAA
330
1A
100
AcDbEntity
  8
部品1
100
AcDbLine
 10
10536.32755088103
 20
4137.252048523588
 30
0.0
 11
10536.32755088103
 21
2330.4852086543
 31
0.0
  0
LINE
  5
1FAB
330
1A
100
AcDbEntity
  8
センター
 48
10.0
100
AcDbLine
 10
10566.32755088103
 20
4128.670624744279
 30
0.0
 11
10566.32755088103
 21
2330.4852086543
 31
0.0
  0
LINE
  5
1FAC
330
1A
100
AcDbEntity
  8
センター
 48
10.0
100
AcDbLine
 10
12216.32755088103
 20
4094.504541410946
 30
0.0
 11
12216.32755088103
 21
2330.4852086543
 31
0.0
  0
DIMENSION
  5
1FAD
330
1A
100
AcDbEntity
  8
寸法
100
AcDbDimension
  2
*D4
 10
12216.32755088103
 20
4885.252905683832
 30
0.0
 11
11391.32755088103
 21
4985.252905683832
 31
0.0
 70
    32
 71
     5
 42
1649.999999999991
  3
物置仕様図40
100
AcDbAlignedDimension
 13
10566.32755088104
 23
4052.586431448651
 33
0.0
 14
12216.32755088103
 24
4094.504541410946
 34
0.0
100
AcDbRotatedDimension
1001
ACAD
1000
DSTYLE
1002
{
1070
    75
1070
     1
1002
}
  0
LINE
  5
1FAE
330
1A
100
AcDbEntity
  8
点線
 48
50.0
100
AcDbLine
 10
12186.32755088103
 20
2010.4852086543
 30
0.0
 11
12246.32755088103
 21
2010.4852086543
 31
0.0
  0
LINE
  5
1FAF
330
1A
100
AcDbEntity
  8
点線
 48
50.0
100
AcDbLine
 10
12186.32755088103
 20
2010.4852086543
 30
0.0
 11
12246.32755088103
 21
2010.4852086543
 31
0.0
  0
LINE
  5
1FB0
330
1A
100
AcDbEntity
  8
点線
 48
50.0
100
AcDbLine
 10
10536.32755088103
 20
2000.170624744278
 30
0.0
 11
10596.32755088103
 21
2000.170624744278
 31
0.0
  0
LINE
  5
1FB1
330
1A
100
AcDbEntity
  8
点線
 48
50.0
100
AcDbLine
 10
10536.32755088103
 20
2330.4852086543
 30
0.0
 11
10536.32755088103
 21
2000.170624744278
 31
0.0
  0
LINE
  5
1FB2
330
1A
100
AcDbEntity
  8
点線
 48
50.0
100
AcDbLine
 10
10596.32755088104
 20
2330.4852086543
 30
0.0
 11
10596.32755088103
 21
2000.170624744278
 31
0.0
  0
LINE
  5
1FB3
330
1A
100
AcDbEntity
  8
点線
 48
50.0
100
AcDbLine
 10
12186.32755088103
 20
2330.4852086543
 30
0.0
 11
12186.32755088103
 21
2010.4852086543
 31
0.0
  0
LINE
  5
1FB4
330
1A
100
AcDbEntity
  8
点線
 48
50.0
100
AcDbLine
 10
12246.32755088103
 20
2330.4852086543
 30
0.0
 11
12246.32755088103
 21
2010.4852086543
 31
0.0
  0
CIRCLE
  5
1FB5
330
1A
100
AcDbEntity
  8
細線
100
AcDbCircle
 10
10341.72765984063
 20
4369.74966517222
 30
0.0
 40
8.0
  0
LWPOLYLINE
  5
1FB6
330
1A
100
AcDbEntity
  8
細線
100
AcDbPolyline
 90
        6
 70
     1
 43
0.0
 10
10335.22765984063
 20
4373.502441921952
 10
10341.72765984063
 20
4377.255218671684
 10
10348.22765984063
 20
4373.502441921952
 10
10348.22765984063
 20
4365.996888422487
 10
10341.72765984063
 20
4362.244111672755
 10
10335.22765984063
 20
4365.996888422487
  0
CIRCLE
  5
1FB7
330
1A
100
AcDbEntity
  8
細線
100
AcDbCircle
 10
10341.72765984063
 20
4369.74966517222
 30
0.0
 40
6.0
  0
CIRCLE
  5
1FB8
330
1A
100
AcDbEntity
  8
細線
100
AcDbCircle
 10
10443.61478861494
 20
4374.546850818675
 30
0.0
 40
8.0
  0
LWPOLYLINE
  5
1FB9
330
1A
100
AcDbEntity
  8
細線
100
AcDbPolyline
 90
        6
 70
     1
 43
0.0
 10
10437.11478861494
 20
4378.299627568408
 10
10443.61478861494
 20
4382.052404318139
 10
10450.11478861494
 20
4378.299627568408
 10
10450.11478861494
 20
4370.794074068944
 10
10443.61478861494
 20
4367.04129731921
 10
10437.11478861494
 20
4370.794074068944
  0
CIRCLE
  5
1FBA
330
1A
100
AcDbEntity
  8
細線
100
AcDbCircle
 10
10443.61478861494
 20
4374.546850818675
 30
0.0
 40
6.0
  0
LINE
  5
1FBB
330
1A
100
AcDbEntity
  8
部品1
100
AcDbLine
 10
10317.12986307031
 20
4398.624753103268
 30
0.0
 11
10320.0599088132
 21
4336.393693077387
 31
0.0
  0
ARC
  5
1FBC
330
1A
100
AcDbEntity
  8
部品1
100
AcDbCircle
 10
10328.91789225137
 20
4386.665925229014
 30
0.0
 40
10.0
100
AcDbArc
 50
92.69568549357122
 51
182.6956854935736
  0
LINE
  5
1FBD
330
1A
100
AcDbEntity
  8
部品1
100
AcDbLine
 10
10321.32755088103
 20
4335.252048523591
 30
0.0
 11
10318.92895805781
 21
4386.195612910735
 31
0.0
  0
LINE
  5
1FBE
330
1A
100
AcDbEntity
  8
部品1
100
AcDbLine
 10
10319.95173697999
 20
4338.691147941907
 30
0.0
 11
10321.16294156963
 21
4338.748175491335
 31
0.0
  0
LINE
  5
1FBF
330
1A
100
AcDbEntity
  8
部品1
100
AcDbLine
 10
10321.32755088103
 20
4335.252048523589
 30
0.0
 11
10322.92130451543
 21
4335.327087757208
 31
0.0
  0
LINE
  5
1FC0
330
1A
100
AcDbEntity
  8
部品1
100
AcDbLine
 10
10276.17523287672
 20
4396.696472598319
 30
0.0
 11
10279.1052786196
 21
4334.465412572439
 31
0.0
  0
LINE
  5
1FC1
330
1A
100
AcDbEntity
  8
部品1
100
AcDbLine
 10
10279.10527861961
 20
4334.465412572439
 30
0.0
 11
10320.0599088132
 21
4336.393693077387
 31
0.0
  0
LINE
  5
1FC2
330
1A
100
AcDbEntity
  8
部品1
100
AcDbLine
 10
9650.505278619611
 20
4304.868829239105
 30
0.0
 11
9691.459908813204
 21
4306.797109744053
 31
0.0
  0
LINE
  5
1FC3
330
1A
100
AcDbEntity
  8
部品1
100
AcDbLine
 10
9688.52986307032
 20
4369.028169769936
 30
0.0
 11
9691.459908813204
 21
4306.797109744053
 31
0.0
  0
LINE
  5
1FC4
330
1A
100
AcDbEntity
  8
部品1
100
AcDbLine
 10
9647.57523287672
 20
4367.099889264986
 30
0.0
 11
9650.505278619609
 21
4304.868829239105
 31
0.0
  0
LINE
  5
1FC5
330
1A
100
AcDbEntity
  8
部品1
100
AcDbLine
 10
9691.351736980003
 20
4309.094564608571
 30
0.0
 11
10278.9971067864
 21
4336.762867436958
 31
0.0
  0
ARC
  5
1FC6
330
1A
100
AcDbEntity
  8
部品1
100
AcDbCircle
 10
9104.340023864248
 20
4329.008717259131
 30
0.0
 40
10.0
100
AcDbArc
 50
2.695685493573654
 51
92.69568549357122
  0
LINE
  5
1FC7
330
1A
100
AcDbEntity
  8
部品1
100
AcDbLine
 10
9116.727550881035
 20
4278.535465190256
 30
0.0
 11
9114.328958057807
 21
4329.479029577409
 31
0.0
  0
LINE
  5
1FC8
330
1A
100
AcDbEntity
  8
部品1
100
AcDbLine
 10
9026.462355260386
 20
4284.79711086492
 30
0.0
 11
9057.428051260421
 21
4286.255079051588
 31
0.0
  0
CIRCLE
  5
1FC9
330
1A
100
AcDbEntity
  8
細線
100
AcDbCircle
 10
9075.196267840556
 20
4310.11714546556
 30
0.0
 40
8.0
  0
LWPOLYLINE
  5
1FCA
330
1A
100
AcDbEntity
  8
細線
100
AcDbPolyline
 90
        6
 70
     1
 43
0.0
 10
9068.696267840556
 20
4313.86992221529
 10
9075.196267840556
 20
4317.622698965023
 10
9081.696267840555
 20
4313.86992221529
 10
9081.696267840555
 20
4306.364368715825
 10
9075.196267840556
 20
4302.611591966095
 10
9068.696267840556
 20
4306.364368715825
  0
CIRCLE
  5
1FCB
330
1A
100
AcDbEntity
  8
細線
100
AcDbCircle
 10
9075.196267840556
 20
4310.11714546556
 30
0.0
 40
6.0
  0
ARC
  5
1FCC
330
1A
100
AcDbEntity
  8
部品1
100
AcDbCircle
 10
9057.192895101279
 20
4291.249546148367
 30
0.0
 40
5.0
100
AcDbArc
 50
272.6956854935191
 51
2.695685493573654
  0
LINE
  5
1FCD
330
1A
100
AcDbEntity
  8
部品1
100
AcDbLine
 10
9059.929863070316
 20
4339.431586436599
 30
0.0
 11
9062.187362198059
 21
4291.484702307507
 31
0.0
  0
LWPOLYLINE
  5
1FCE
330
1A
100
AcDbEntity
  8
細線
100
AcDbPolyline
 90
        6
 70
     1
 43
0.0
 10
8856.930862937081
 20
4303.899301067755
 10
8863.430862937082
 20
4307.652077817485
 10
8869.930862937083
 20
4303.899301067755
 10
8869.930862937083
 20
4296.39374756829
 10
8863.430862937082
 20
4292.640970818556
 10
8856.930862937081
 20
4296.39374756829
  0
CIRCLE
  5
1FCF
330
1A
100
AcDbEntity
  8
細線
100
AcDbCircle
 10
8863.430862937082
 20
4300.146524318021
 30
0.0
 40
6.0
  0
CIRCLE
  5
1FD0
330
1A
100
AcDbEntity
  8
細線
100
AcDbCircle
 10
8969.313565388821
 20
4305.13183489179
 30
0.0
 40
8.0
  0
LWPOLYLINE
  5
1FD1
330
1A
100
AcDbEntity
  8
細線
100
AcDbPolyline
 90
        6
 70
     1
 43
0.0
 10
8962.81356538882
 20
4308.884611641523
 10
8969.313565388821
 20
4312.637388391254
 10
8975.81356538882
 20
4308.884611641523
 10
8975.81356538882
 20
4301.379058142058
 10
8969.313565388821
 20
4297.626281392325
 10
8962.81356538882
 20
4301.379058142058
  0
CIRCLE
  5
1FD2
330
1A
100
AcDbEntity
  8
細線
100
AcDbCircle
 10
8969.313565388821
 20
4305.13183489179
 30
0.0
 40
6.0
  0
ARC
  5
1FD3
330
1A
100
AcDbEntity
  8
部品1
100
AcDbCircle
 10
9026.227199101246
 20
4289.791577961699
 30
0.0
 40
5.0
100
AcDbArc
 50
182.6956854935736
 51
272.6956854935712
  0
LINE
  5
1FD4
330
1A
100
AcDbEntity
  8
部品1
100
AcDbLine
 10
9018.975232876718
 20
4337.503305931652
 30
0.0
 11
9021.232732004467
 21
4289.556421802559
 31
0.0
  0
CIRCLE
  5
1FD5
330
1A
100
AcDbEntity
  8
細線
100
AcDbCircle
 10
8757.548160485344
 20
4295.161213744253
 30
0.0
 40
6.0
  0
LWPOLYLINE
  5
1FD6
330
1A
100
AcDbEntity
  8
細線
100
AcDbPolyline
 90
        6
 70
     1
 43
0.0
 10
8751.048160485344
 20
4298.913990493985
 10
8757.548160485344
 20
4302.666767243717
 10
8764.048160485343
 20
4298.913990493985
 10
8764.048160485343
 20
4291.408436994522
 10
8757.548160485344
 20
4287.655660244789
 10
8751.048160485344
 20
4291.408436994522
  0
CIRCLE
  5
1FD7
330
1A
100
AcDbEntity
  8
細線
100
AcDbCircle
 10
8757.548160485344
 20
4295.161213744253
 30
0.0
 40
8.0
  0
ARC
  5
1FD8
330
1A
100
AcDbEntity
  8
部品1
100
AcDbCircle
 10
8736.717892251343
 20
4311.69984189569
 30
0.0
 40
10.0
100
AcDbArc
 50
92.69568549357122
 51
182.6956854935736
  0
CIRCLE
  5
1FD9
330
1A
100
AcDbEntity
  8
細線
100
AcDbCircle
 10
8863.430862937082
 20
4300.146524318021
 30
0.0
 40
8.0
  0
CIRCLE
  5
1FDA
330
1A
100
AcDbEntity
  8
細線
100
AcDbCircle
 10
8916.327550881034
 20
4133.085965190257
 30
0.0
 40
8.0
  0
LWPOLYLINE
  5
1FDB
330
1A
100
AcDbEntity
  8
細線
100
AcDbPolyline
 90
        6
 70
     1
 43
0.0
 10
8909.827550881033
 20
4136.838741939989
 10
8916.327550881034
 20
4140.591518689721
 10
8922.827550881033
 20
4136.838741939989
 10
8922.827550881033
 20
4129.333188440525
 10
8916.327550881034
 20
4125.580411690793
 10
8909.827550881033
 20
4129.333188440525
  0
CIRCLE
  5
1FDC
330
1A
100
AcDbEntity
  8
細線
100
AcDbCircle
 10
8916.327550881034
 20
4133.085965190257
 30
0.0
 40
6.0
  0
LINE
  5
1FDD
330
1A
100
AcDbEntity
  8
部品1
100
AcDbLine
 10
8950.327550881034
 20
4156.217861741041
 30
0.0
 11
8950.327550881034
 21
4103.085965190255
 31
0.0
  0
LINE
  5
1FDE
330
1A
100
AcDbEntity
  8
部品1
100
AcDbLine
 10
8882.327550881035
 20
4157.439062172192
 30
0.0
 11
8882.327550881035
 21
4103.085965190257
 31
0.0
  0
LINE
  5
1FDF
330
1A
100
AcDbEntity
  8
部品1
100
AcDbLine
 10
8882.327550881035
 20
4103.085965190257
 30
0.0
 11
8950.327550881036
 21
4103.085965190257
 31
0.0
  0
CIRCLE
  5
1FE0
330
1A
100
AcDbEntity
  8
細線
100
AcDbCircle
 10
8916.327550881034
 20
4218.085965190257
 30
0.0
 40
8.0
  0
LWPOLYLINE
  5
1FE1
330
1A
100
AcDbEntity
  8
細線
100
AcDbPolyline
 90
        6
 70
     1
 43
0.0
 10
8909.827550881033
 20
4221.838741939989
 10
8916.327550881034
 20
4225.591518689721
 10
8922.827550881033
 20
4221.838741939989
 10
8922.827550881033
 20
4214.333188440525
 10
8916.327550881034
 20
4210.580411690793
 10
8909.827550881033
 20
4214.333188440525
  0
CIRCLE
  5
1FE2
330
1A
100
AcDbEntity
  8
細線
100
AcDbCircle
 10
8916.327550881034
 20
4218.085965190257
 30
0.0
 40
6.0
  0
ARC
  5
1FE3
330
1A
100
AcDbEntity
  8
部品1
100
AcDbCircle
 10
9070.327550881035
 20
4156.217861741041
 30
0.0
 40
120.0
100
AcDbArc
 50
92.69568549357122
 51
180.0
  0
ARC
  5
1FE4
330
1A
100
AcDbEntity
  8
部品1
100
AcDbCircle
 10
8777.327550881034
 20
4157.439062172192
 30
0.0
 40
105.0
100
AcDbArc
 50
0.0
 51
92.69568549357122
  0
LINE
  5
1FE5
330
1A
100
AcDbEntity
  8
部品1
100
AcDbLine
 10
8729.127550881035
 20
4260.285965190256
 30
0.0
 11
8726.728958057783
 21
4311.229529577405
 31
0.0
  0
LINE
  5
1FE6
330
1A
100
AcDbEntity
  8
部品1
100
AcDbLine
 10
8729.127550881033
 20
4260.285965190256
 30
0.0
 11
8772.389271539095
 21
4262.322871204573
 31
0.0
  0
LINE
  5
1FE7
330
1A
100
AcDbEntity
  8
部品1
100
AcDbLine
 10
8736.247579933062
 20
4321.688776089251
 30
0.0
 11
9103.869711545966
 21
4338.99765145269
 31
0.0
  0
LINE
  5
1FE8
330
1A
100
AcDbEntity
  8
部品1
100
AcDbLine
 10
9064.683803061674
 20
4276.085072063761
 30
0.0
 11
9116.727550881035
 21
4278.535465190256
 31
0.0
  0
LINE
  5
1FE9
330
1A
100
AcDbEntity
  8
部品1
100
AcDbLine
 10
9116.562941569638
 20
4282.031592158002
 30
0.0
 11
9650.397106786407
 21
4307.166284103623
 31
0.0
  0
LINE
  5
1FEA
330
1A
100
AcDbEntity
  8
部品1
100
AcDbLine
 10
8189.315992972884
 20
4413.567581136125
 30
0.0
 11
8198.720158310541
 21
4298.882962837494
 31
0.0
  0
LINE
  5
1FEB
330
1A
100
AcDbEntity
  8
部品1
100
AcDbLine
 10
8167.427584773811
 20
4399.070199179273
 30
0.0
 11
8174.705590991647
 21
4310.314277191637
 31
0.0
  0
ARC
  5
1FEC
330
1A
100
AcDbEntity
  8
部品1
100
AcDbCircle
 10
8187.662103928085
 20
4311.376714261763
 30
0.0
 40
13.0
100
AcDbArc
 50
184.6877790664751
 51
272.6956854935712
  0
ARC
  5
1FED
330
1A
100
AcDbEntity
  8
部品1
100
AcDbCircle
 10
8180.38409771025
 20
4400.1326362494
 30
0.0
 40
13.0
100
AcDbArc
 50
92.69568549357122
 51
184.6877790664751
  0
ARC
  5
1FEE
330
1A
100
AcDbEntity
  8
部品1
100
AcDbCircle
 10
8349.761535763612
 20
4300.988955326636
 30
0.0
 40
5.0
100
AcDbArc
 50
92.69568549357122
 51
194.3850546689501
  0
LINE
  5
1FEF
330
1A
100
AcDbEntity
  8
部品1
100
AcDbLine
 10
8391.199319947693
 20
4247.879054973302
 30
0.0
 11
8393.1971067864
 21
4247.973117436958
 31
0.0
  0
LINE
  5
1FF0
330
1A
100
AcDbEntity
  8
部品1
100
AcDbLine
 10
8393.30527861961
 20
4245.675662572439
 30
0.0
 11
8434.259908813203
 21
4247.603943077387
 31
0.0
  0
ARC
  5
1FF1
330
1A
100
AcDbEntity
  8
部品1
100
AcDbCircle
 10
8367.039323901709
 20
4253.749276471785
 30
0.0
 40
10.0
100
AcDbArc
 50
194.3850546689501
 51
272.6956854935712
  0
LINE
  5
1FF2
330
1A
100
AcDbEntity
  8
部品1
100
AcDbLine
 10
8367.50963621999
 20
4243.760342278227
 30
0.0
 11
8391.340413643176
 21
4244.882374715234
 31
0.0
  0
LINE
  5
1FF3
330
1A
100
AcDbEntity
  8
部品1
100
AcDbLine
 10
8388.377446038006
 20
4307.812660134663
 30
0.0
 11
8391.340413643176
 21
4244.882374715234
 31
0.0
  0
LINE
  5
1FF4
330
1A
100
AcDbEntity
  8
部品1
100
AcDbLine
 10
8390.375232876721
 20
4307.90672259832
 30
0.0
 11
8393.305278619607
 21
4245.675662572439
 31
0.0
  0
LINE
  5
1FF5
330
1A
100
AcDbEntity
  8
部品1
100
AcDbLine
 10
8431.329863070315
 20
4309.835003103268
 30
0.0
 11
8434.259908813203
 21
4247.603943077387
 31
0.0
  0
LINE
  5
1FF6
330
1A
100
AcDbEntity
  8
部品1
100
AcDbLine
 10
8357.352843924225
 20
4251.264904187727
 30
0.0
 11
8344.918295774869
 21
4299.746769184607
 31
0.0
  0
LINE
  5
1FF7
330
1A
100
AcDbEntity
  8
寸法
100
AcDbLine
 10
7586.483483459038
 20
4525.460691119611
 30
0.0
 11
7586.483483459038
 21
4825.460691119611
 31
0.0
  0
LINE
  5
1FF8
330
1A
100
AcDbEntity
  8
部品1
100
AcDbLine
 10
8434.151736979998
 20
4249.901397941907
 30
0.0
 11
8728.962941569632
 21
4263.782092158002
 31
0.0
  0
DIMENSION
  5
1FF9
330
1A
100
AcDbEntity
  8
寸法
100
AcDbDimension
  2
*D5
 10
8916.327550881034
 20
4885.252905683832
 30
0.0
 11
8541.327550881034
 21
4985.252905683832
 31
0.0
 70
    32
 71
     5
 42
750.0
  3
物置仕様図40
100
AcDbAlignedDimension
 13
8166.327550881034
 23
4477.485208654299
 33
0.0
 14
8916.327550881034
 24
4094.504541410947
 34
0.0
100
AcDbRotatedDimension
  0
LINE
  5
1FFA
330
1A
100
AcDbEntity
  8
細線
100
AcDbLine
 10
10321.58901993763
 20
2280.4852086543
 30
0.0
 11
10371.58901993763
 21
2330.4852086543
 31
0.0
  0
LINE
  5
1FFB
330
1A
100
AcDbEntity
  8
細線
100
AcDbLine
 10
10388.94094084565
 20
2280.4852086543
 30
0.0
 11
10438.94094084565
 21
2330.4852086543
 31
0.0
  0
LINE
  5
1FFC
330
1A
100
AcDbEntity
  8
細線
100
AcDbLine
 10
10355.26498039164
 20
2280.4852086543
 30
0.0
 11
10405.26498039164
 21
2330.4852086543
 31
0.0
  0
LINE
  5
1FFD
330
1A
100
AcDbEntity
  8
細線
100
AcDbLine
 10
9243.958285409332
 20
2280.4852086543
 30
0.0
 11
9293.958285409333
 21
2330.4852086543
 31
0.0
  0
LINE
  5
1FFE
330
1A
100
AcDbEntity
  8
細線
100
AcDbLine
 10
9277.634245863346
 20
2280.4852086543
 30
0.0
 11
9327.634245863347
 21
2330.4852086543
 31
0.0
  0
LINE
  5
1FFF
330
1A
100
AcDbEntity
  8
細線
100
AcDbLine
 10
9311.310206317351
 20
2280.4852086543
 30
0.0
 11
9361.310206317352
 21
2330.4852086543
 31
0.0
  0
LINE
  5
2000
330
1A
100
AcDbEntity
  8
部品1
100
AcDbLine
 10
8166.327550881034
 20
2330.4852086543
 30
0.0
 11
8166.327550881034
 21
2280.4852086543
 31
0.0
  0
LINE
  5
2001
330
1A
100
AcDbEntity
  8
細線
100
AcDbLine
 10
8200.003511335047
 20
2280.4852086543
 30
0.0
 11
8250.003511335048
 21
2330.4852086543
 31
0.0
  0
LINE
  5
2002
330
1A
100
AcDbEntity
  8
細線
100
AcDbLine
 10
8233.679471789054
 20
2280.4852086543
 30
0.0
 11
8283.679471789055
 21
2330.4852086543
 31
0.0
  0
LINE
  5
2003
330
1A
100
AcDbEntity
  8
細線
100
AcDbLine
 10
8166.327550881034
 20
2280.4852086543
 30
0.0
 11
8216.327550881034
 21
2330.4852086543
 31
0.0
  0
DIMENSION
  5
2004
330
1A
100
AcDbEntity
  8
寸法
100
AcDbDimension
  2
*D6
 10
8078.354899444729
 20
2530.4852086543
 30
0.0
 11
7967.798262385471
 21
2405.4852086543
 31
0.0
 70
   160
 71
     5
 42
250.0
  3
物置仕様図40
100
AcDbAlignedDimension
 13
8062.25467043718
 23
2280.4852086543
 33
0.0
 14
8946.327550881036
 24
2530.4852086543
 34
0.0
 50
90.0
100
AcDbRotatedDimension
  0
DIMENSION
  5
2005
330
1A
100
AcDbEntity
  8
寸法
100
AcDbDimension
  2
*D7
 10
8078.354899444729
 20
3430.4852086543
 30
0.0
 11
7978.354899444727
 21
2980.485208654301
 31
0.0
 70
    32
 71
     5
 42
900.0
  3
物置仕様図40
100
AcDbAlignedDimension
 13
8946.327550881036
 23
2530.4852086543
 33
0.0
 14
8946.327550881036
 24
3430.4852086543
 34
0.0
 50
90.0
100
AcDbRotatedDimension
1001
ACAD
1000
DSTYLE
1002
{
1070
    75
1070
     1
1002
}
  0
LINE
  5
2006
330
1A
100
AcDbEntity
  8
部品1
100
AcDbLine
 10
8886.327550881034
 20
4103.085965190257
 30
0.0
 11
8886.327550881034
 21
2330.4852086543
 31
0.0
  0
LINE
  5
2007
330
1A
100
AcDbEntity
  8
部品1
100
AcDbLine
 10
8946.327550881036
 20
4103.085965190257
 30
0.0
 11
8946.327550881036
 21
2330.4852086543
 31
0.0
  0
LINE
  5
2008
330
1A
100
AcDbEntity
  8
センター
 48
10.0
100
AcDbLine
 10
8916.327550881034
 20
4094.504541410947
 30
0.0
 11
8916.327550881034
 21
2330.4852086543
 31
0.0
  0
DIMENSION
  5
2009
330
1A
100
AcDbEntity
  8
寸法
100
AcDbDimension
  2
*D8
 10
7586.483483459038
 20
2280.4852086543
 30
0.0
 11
7486.471672435415
 21
3346.485208654301
 31
0.0
 70
    32
 71
     5
 42
2132.0
  3
物置仕様図40
100
AcDbAlignedDimension
 13
8166.327550881032
 23
4412.485208654299
 33
0.0
 14
7535.652178531027
 24
2280.4852086543
 34
0.0
 50
90.0
100
AcDbRotatedDimension
1001
ACAD
1000
DSTYLE
1002
{
1070
    75
1070
     1
1002
}
  0
LINE
  5
200A
330
1A
100
AcDbEntity
  8
点線
 48
50.0
100
AcDbLine
 10
8886.327550881034
 20
2010.4852086543
 30
0.0
 11
8946.327550881035
 21
2010.4852086543
 31
0.0
  0
LINE
  5
200B
330
1A
100
AcDbEntity
  8
点線
 48
50.0
100
AcDbLine
 10
8886.327550881034
 20
2330.4852086543
 30
0.0
 11
8886.327550881034
 21
2010.4852086543
 31
0.0
  0
LINE
  5
200C
330
1A
100
AcDbEntity
  8
点線
 48
50.0
100
AcDbLine
 10
8946.327550881038
 20
2330.4852086543
 30
0.0
 11
8946.327550881035
 21
2010.4852086543
 31
0.0
  0
LINE
  5
200D
330
1A
100
AcDbEntity
  8
部品1
100
AcDbLine
 10
8188.273509941849
 20
4298.391099810136
 30
0.0
 11
10566.32755088104
 21
4410.357810904355
 31
0.0
  0
LINE
  5
200E
330
1A
100
AcDbEntity
  8
細線
100
AcDbLine
 10
8172.624252889715
 20
4335.696377271739
 30
0.0
 11
10566.32755088103
 21
4448.399907552164
 31
0.0
  0
LINE
  5
200F
330
1A
100
AcDbEntity
  8
細線
100
AcDbLine
 10
8171.64294868057
 20
4347.663467876813
 30
0.0
 11
10566.32755088103
 21
4460.413201230418
 31
0.0
  0
LINE
  5
2010
330
1A
100
AcDbEntity
  8
部品1
100
AcDbLine
 10
8179.772691696483
 20
4413.118250701027
 30
0.0
 11
10566.32755088103
 21
4525.485208654299
 31
0.0
  0
ARC
  5
2011
330
1A
100
AcDbEntity
  8
部品1
100
AcDbCircle
 10
10332.32755088103
 20
4135.548403886007
 30
0.0
 40
200.0
100
AcDbArc
 50
0.4880641401187
 51
92.69568549357122
  0
LINE
  5
2012
330
1A
100
AcDbEntity
  8
細線
100
AcDbLine
 10
8946.327550881035
 20
3315.4852086543
 30
0.0
 11
10536.32755088103
 21
3315.485208654302
 31
0.0
  0
LINE
  5
2013
330
1A
100
AcDbEntity
  8
細線
100
AcDbLine
 10
8946.327550881035
 20
3327.4852086543
 30
0.0
 11
10536.32755088103
 21
3327.485208654302
 31
0.0
  0
LINE
  5
2014
330
1A
100
AcDbEntity
  8
部品1
100
AcDbLine
 10
8946.327550881035
 20
3430.4852086543
 30
0.0
 11
10536.32755088103
 21
3430.485208654302
 31
0.0
  0
LINE
  5
2015
330
1A
100
AcDbEntity
  8
細線
100
AcDbLine
 10
8946.327550881035
 20
2968.4852086543
 30
0.0
 11
10536.32755088103
 21
2968.485208654302
 31
0.0
  0
LINE
  5
2016
330
1A
100
AcDbEntity
  8
細線
100
AcDbLine
 10
8946.327550881035
 20
2974.4852086543
 30
0.0
 11
10536.32755088103
 21
2974.485208654302
 31
0.0
  0
LINE
  5
2017
330
1A
100
AcDbEntity
  8
細線
100
AcDbLine
 10
8946.327550881035
 20
2645.4852086543
 30
0.0
 11
10536.32755088103
 21
2645.485208654303
 31
0.0
  0
LINE
  5
2018
330
1A
100
AcDbEntity
  8
細線
100
AcDbLine
 10
8946.327550881035
 20
2633.4852086543
 30
0.0
 11
10536.32755088103
 21
2633.485208654303
 31
0.0
  0
LINE
  5
2019
330
1A
100
AcDbEntity
  8
部品1
100
AcDbLine
 10
8946.327550881035
 20
2530.4852086543
 30
0.0
 11
10536.32755088103
 21
2530.485208654303
 31
0.0
  0
LINE
  5
201A
330
1A
100
AcDbEntity
  8
部品1
100
AcDbLine
 10
10532.32029473677
 20
4137.252048523588
 30
0.0
 11
10566.32755088103
 21
4137.252048523588
 31
0.0
  0
LINE
  5
201B
330
1A
100
AcDbEntity
  8
部品1
100
AcDbLine
 10
10328.44757993308
 20
4396.654859422574
 30
0.0
 11
10566.32755088103
 21
4407.855041388038
 31
0.0
  0
LINE
  5
201C
330
1A
100
AcDbEntity
  8
部品1
100
AcDbLine
 10
8166.327550881034
 20
2330.4852086543
 30
0.0
 11
12966.32755088103
 21
2330.4852086543
 31
0.0
  0
DIMENSION
  5
201D
330
1A
100
AcDbEntity
  8
寸法
100
AcDbDimension
  2
*D9
 10
10566.32755088104
 20
4885.252905683832
 30
0.0
 11
9741.327550881038
 21
4985.252905683832
 31
0.0
 70
    32
 71
     5
 42
1650.000000000007
  3
物置仕様図40
100
AcDbAlignedDimension
 13
8916.327550881034
 23
4094.504541410947
 33
0.0
 14
10566.32755088104
 24
4522.98243913798
 34
0.0
100
AcDbRotatedDimension
1001
ACAD
1000
DSTYLE
1002
{
1070
    75
1070
     1
1002
}
  0
DIMENSION
  5
201E
330
1A
100
AcDbEntity
  8
寸法
100
AcDbDimension
  2
*D10
 10
12966.32755088104
 20
5089.168712388204
 30
0.0
 11
10566.32755088104
 21
5189.168712388203
 31
0.0
 70
    32
 71
     5
 42
4800.0
  3
物置仕様図40
100
AcDbAlignedDimension
 13
8166.327550881042
 23
4401.401015358671
 33
0.0
 14
12966.32755088104
 24
4401.401015358671
 34
0.0
100
AcDbRotatedDimension
  0
DIMENSION
  5
201F
330
1A
100
AcDbEntity
  8
寸法
100
AcDbDimension
  2
*D11
 10
7586.483483459038
 20
4412.460691119613
 30
0.0
 11
7467.842311419068
 21
4649.828549245467
 31
0.0
 70
   160
 71
     5
 42
112.9999999999991
  3
物置仕様図40
100
AcDbAlignedDimension
 13
10566.84827728145
 23
4525.460691119611
 33
0.0
 14
8165.806824480629
 24
4412.460691119613
 34
0.0
 50
90.0
100
AcDbRotatedDimension
  0
DIMENSION
  5
2020
330
1A
100
AcDbEntity
  8
寸法
100
AcDbDimension
  2
*D12
 10
7292.75680173412
 20
2280.4852086543
 30
0.0
 11
7192.744990710497
 21
3402.985208654302
 31
0.0
 70
    32
 71
     5
 42
2245.000000000001
  3
物置仕様図40
100
AcDbAlignedDimension
 13
10566.32755088103
 23
4525.485208654299
 33
0.0
 14
7275.847895189889
 24
2280.4852086543
 34
0.0
 50
90.0
100
AcDbRotatedDimension
  0
LWPOLYLINE
  5
2021
330
1A
100
AcDbEntity
  8
部品1
100
AcDbPolyline
 90
        4
 70
     1
 43
0.0
 10
10247.3507225364
 20
1600.570295076402
 10
10247.3507225364
 20
1378.986036036134
 10
10884.36305529616
 20
1378.986036036134
 10
10884.36305529616
 20
1600.570295076402
  0
TEXT
  5
2022
330
1A
100
AcDbEntity
  8
部品1
100
AcDbText
 10
10289.81820799253
 20
1426.131618349922
 30
0.0
 40
120.0
  1
側面図
  7
MSGOTHIC
100
AcDbText
  0
LINE
  5
2023
330
1A
100
AcDbEntity
  8
細線
100
AcDbLine
 10
5685.162936144041
 20
2280.485189926039
 30
0.0
 11
5735.162936144041
 21
2330.48518992604
 31
0.0
  0
LINE
  5
2024
330
1A
100
AcDbEntity
  8
細線
100
AcDbLine
 10
5718.83889659805
 20
2280.485189926039
 30
0.0
 11
5768.83889659805
 21
2330.48518992604
 31
0.0
  0
LINE
  5
2025
330
1A
100
AcDbEntity
  8
細線
100
AcDbLine
 10
5651.486975690032
 20
2280.485189926039
 30
0.0
 11
5701.486975690035
 21
2330.48518992604
 31
0.0
  0
LINE
  5
2026
330
1A
100
AcDbEntity
  8
細線
100
AcDbLine
 10
4607.532201615742
 20
2280.485189926039
 30
0.0
 11
4657.532201615742
 21
2330.48518992604
 31
0.0
  0
LINE
  5
2027
330
1A
100
AcDbEntity
  8
細線
100
AcDbLine
 10
4641.208162069752
 20
2280.485189926039
 30
0.0
 11
4691.208162069751
 21
2330.48518992604
 31
0.0
  0
LINE
  5
2028
330
1A
100
AcDbEntity
  8
細線
100
AcDbLine
 10
4573.856241161733
 20
2280.485189926039
 30
0.0
 11
4623.856241161733
 21
2330.48518992604
 31
0.0
  0
LINE
  5
2029
330
1A
100
AcDbEntity
  8
細線
100
AcDbLine
 10
3496.225506633435
 20
2280.485189926039
 30
0.0
 11
3546.225506633435
 21
2330.48518992604
 31
0.0
  0
LINE
  5
202A
330
1A
100
AcDbEntity
  8
細線
100
AcDbLine
 10
3529.901467087444
 20
2280.485189926039
 30
0.0
 11
3579.901467087444
 21
2330.48518992604
 31
0.0
  0
LINE
  5
202B
330
1A
100
AcDbEntity
  8
細線
100
AcDbLine
 10
3563.577427541453
 20
2280.485189926039
 30
0.0
 11
3613.577427541454
 21
2330.48518992604
 31
0.0
  0
DIMENSION
  5
202C
330
1A
100
AcDbEntity
  8
寸法
100
AcDbDimension
  2
*D13
 10
6554.60244337315
 20
2280.4852086543
 30
0.0
 11
6274.567010302284
 21
2145.485208654301
 31
0.0
 70
    32
 71
     5
 42
270.0
  3
物置仕様図40
100
AcDbAlignedDimension
 13
6088.08479127592
 23
2010.4852086543
 33
0.0
 14
6768.266128291223
 24
2280.4852086543
 34
0.0
 50
90.0
100
AcDbRotatedDimension
  0
DIMENSION
  5
202D
330
1A
100
AcDbEntity
  8
寸法
100
AcDbDimension
  2
*D14
 10
6308.08479127592
 20
5101.634584143546
 30
0.0
 11
4658.08479127592
 21
5201.634584143547
 31
0.0
 70
    32
 71
     5
 42
3300.0
  3
物置仕様図40
100
AcDbAlignedDimension
 13
3008.08479127592
 23
4526.075718108766
 33
0.0
 14
6308.08479127592
 24
4526.075718108766
 34
0.0
100
AcDbRotatedDimension
  0
DIMENSION
  5
202E
330
1A
100
AcDbEntity
  8
寸法
100
AcDbDimension
  2
*D15
 10
6308.08479127592
 20
4821.634584143547
 30
0.0
 11
6183.08479127592
 21
4821.634584143547
 31
0.0
 70
   160
 71
     5
 42
250.0
  3
物置仕様図40
100
AcDbAlignedDimension
 13
6058.08479127592
 23
4298.391099810134
 33
0.0
 14
6308.08479127592
 24
4526.075718108766
 34
0.0
100
AcDbRotatedDimension
1001
ACAD
1000
DSTYLE
1002
{
1070
   279
1070
     0
1070
    75
1070
     1
1002
}
  0
DIMENSION
  5
202F
330
1A
100
AcDbEntity
  8
寸法
100
AcDbDimension
  2
*D16
 10
6058.08479127592
 20
4821.634584143547
 30
0.0
 11
4658.08479127592
 21
4921.646395167169
 31
0.0
 70
    32
 71
     5
 42
2800.0
  3
物置仕様図40
100
AcDbAlignedDimension
 13
3258.08479127592
 23
4298.391099810134
 33
0.0
 14
6058.08479127592
 24
4298.391099810134
 34
0.0
100
AcDbRotatedDimension
1001
ACAD
1000
DSTYLE
1002
{
1070
    75
1070
     1
1002
}
  0
DIMENSION
  5
2030
330
1A
100
AcDbEntity
  8
寸法
100
AcDbDimension
  2
*D17
 10
3258.08479127592
 20
4821.634584143547
 30
0.0
 11
3133.08479127592
 21
4821.634584143547
 31
0.0
 70
   160
 71
     5
 42
250.0
  3
物置仕様図40
100
AcDbAlignedDimension
 13
3008.08479127592
 23
4526.075718108766
 33
0.0
 14
3258.08479127592
 24
4298.391099810134
 34
0.0
100
AcDbRotatedDimension
1001
ACAD
1000
DSTYLE
1002
{
1070
   279
1070
     0
1002
}
  0
DIMENSION
  5
2031
330
1A
100
AcDbEntity
  8
寸法
100
AcDbDimension
  2
*D18
 10
2434.415140076315
 20
8065.087356638086
 30
0.0
 11
2274.403329052693
 21
8118.315325708429
 31
0.0
 70
   160
 71
     5
 42
277.1999999999962
  3
物置仕様図40
100
AcDbAlignedDimension
 13
3008.08479127592
 23
8342.287356638085
 33
0.0
 14
3008.08479127592
 24
8065.087356638086
 34
0.0
 50
90.0
100
AcDbRotatedDimension
1001
ACAD
1000
DSTYLE
1002
{
1070
    75
1070
     1
1002
}
  0
DIMENSION
  5
2032
330
1A
100
AcDbEntity
  8
寸法
100
AcDbDimension
  2
*D19
 10
6923.537714463041
 20
10742.28735663808
 30
0.0
 11
6816.120316553067
 21
10879.28613358577
 31
0.0
 70
   160
 71
     5
 42
123.9999999999982
  3
物置仕様図40
100
AcDbAlignedDimension
 13
6259.584791275912
 23
10618.28735663808
 33
0.0
 14
6298.084791275919
 24
10742.28735663808
 34
0.0
 50
90.0
100
AcDbRotatedDimension
1001
ACAD
1000
DSTYLE
1002
{
1070
    75
1070
     1
1002
}
  0
DIMENSION
  5
2033
330
1A
100
AcDbEntity
  8
寸法
100
AcDbDimension
  2
*D20
 10
6923.537714463041
 20
5942.287356638084
 30
0.0
 11
6813.207916493695
 21
5807.236794915276
 31
0.0
 70
   160
 71
     5
 42
124.0000000000036
  3
物置仕様図40
100
AcDbAlignedDimension
 13
6259.58479127592
 23
6066.287356638088
 33
0.0
 14
6298.08479127592
 24
5942.287356638084
 34
0.0
 50
90.0
100
AcDbRotatedDimension
1001
ACAD
1000
DSTYLE
1002
{
1070
    75
1070
     1
1002
}
  0
DIMENSION
  5
2034
330
1A
100
AcDbEntity
  8
寸法
100
AcDbDimension
  2
*D21
 10
6923.537714463041
 20
6066.287356638088
 30
0.0
 11
6823.525903439417
 21
7134.287356638087
 31
0.0
 70
    32
 71
     5
 42
2135.999999999997
  3
物置仕様図40
100
AcDbAlignedDimension
 13
6263.08479127592
 23
8202.287356638084
 33
0.0
 14
6259.58479127592
 24
6066.287356638088
 34
0.0
 50
90.0
100
AcDbRotatedDimension
1001
ACAD
1000
DSTYLE
1002
{
1070
    75
1070
     1
1002
}
  0
DIMENSION
  5
2035
330
1A
100
AcDbEntity
  8
寸法
100
AcDbDimension
  2
*D22
 10
6923.537714463041
 20
8202.287356638084
 30
0.0
 11
6834.836851809821
 21
8342.287356638085
 31
0.0
 70
   160
 71
     5
 42
280.0
  3
物置仕様図40
100
AcDbAlignedDimension
 13
6263.084791275919
 23
8482.287356638083
 33
0.0
 14
6263.08479127592
 24
8202.287356638084
 34
0.0
 50
90.0
100
AcDbRotatedDimension
1001
ACAD
1000
DSTYLE
1002
{
1070
    75
1070
     1
1002
}
  0
DIMENSION
  5
2036
330
1A
100
AcDbEntity
  8
寸法
100
AcDbDimension
  2
*D23
 10
6923.537714463041
 20
8482.287356638083
 30
0.0
 11
6823.525903439417
 21
9550.287356638088
 31
0.0
 70
    32
 71
     5
 42
2136.000000000002
  3
物置仕様図40
100
AcDbAlignedDimension
 13
6259.584791275912
 23
10618.28735663808
 33
0.0
 14
6263.084791275919
 24
8482.287356638083
 34
0.0
 50
90.0
100
AcDbRotatedDimension
  0
DIMENSION
  5
2037
330
1A
100
AcDbEntity
  8
寸法
100
AcDbDimension
  2
*D24
 10
2154.415140076315
 20
5942.287356638084
 30
0.0
 11
2054.415140076314
 21
8342.287356638085
 31
0.0
 70
    32
 71
     5
 42
4799.999999999999
  3
物置仕様図40
100
AcDbAlignedDimension
 13
3018.08479127592
 23
10742.28735663808
 33
0.0
 14
3018.08479127592
 24
5942.287356638084
 34
0.0
 50
90.0
100
AcDbRotatedDimension
  0
DIMENSION
  5
2038
330
1A
100
AcDbEntity
  8
寸法
100
AcDbDimension
  2
*D25
 10
2434.415140076315
 20
5942.287356638084
 30
0.0
 11
2274.403329052692
 21
6060.787356638085
 31
0.0
 70
    32
 71
     5
 42
237.0
  3
物置仕様図40
100
AcDbAlignedDimension
 13
3008.08479127592
 23
6179.287356638084
 33
0.0
 14
3018.08479127592
 24
5942.287356638084
 34
0.0
 50
90.0
100
AcDbRotatedDimension
1001
ACAD
1000
DSTYLE
1002
{
1070
    75
1070
     1
1002
}
  0
DIMENSION
  5
2039
330
1A
100
AcDbEntity
  8
寸法
100
AcDbDimension
  2
*D26
 10
2434.415140076315
 20
6179.287356638084
 30
0.0
 11
2334.403329052692
 21
6493.587356638085
 31
0.0
 70
    32
 71
     5
 42
628.6000000000004
  3
物置仕様図40
100
AcDbAlignedDimension
 13
3008.08479127592
 23
6807.887356638085
 33
0.0
 14
3008.08479127592
 24
6179.287356638084
 34
0.0
 50
90.0
100
AcDbRotatedDimension
1001
ACAD
1000
DSTYLE
1002
{
1070
    75
1070
     1
1002
}
  0
DIMENSION
  5
203A
330
1A
100
AcDbEntity
  8
寸法
100
AcDbDimension
  2
*D27
 10
2434.415140076315
 20
6807.887356638085
 30
0.0
 11
2334.403329052692
 21
7122.187356638085
 31
0.0
 70
    32
 71
     5
 42
628.6000000000004
  3
物置仕様図40
100
AcDbAlignedDimension
 13
3008.08479127592
 23
7436.487356638085
 33
0.0
 14
3008.08479127592
 24
6807.887356638085
 34
0.0
 50
90.0
100
AcDbRotatedDimension
1001
ACAD
1000
DSTYLE
1002
{
1070
    75
1070
     1
1002
}
  0
DIMENSION
  5
203B
330
1A
100
AcDbEntity
  8
寸法
100
AcDbDimension
  2
*D28
 10
2434.415140076315
 20
7436.487356638085
 30
0.0
 11
2274.415140076315
 21
7662.118383382564
 31
0.0
 70
   160
 71
     5
 42
628.6000000000021
  3
物置仕様図40
100
AcDbAlignedDimension
 13
3008.08479127592
 23
8065.087356638086
 33
0.0
 14
3008.08479127592
 24
7436.487356638085
 34
0.0
 50
90.0
100
AcDbRotatedDimension
1001
ACAD
1000
DSTYLE
1002
{
1070
    75
1070
     1
1002
}
  0
DIMENSION
  5
203C
330
1A
100
AcDbEntity
  8
寸法
100
AcDbDimension
  2
*D29
 10
2434.415140076315
 20
8342.287356638085
 30
0.0
 11
2274.403329052693
 21
8578.819408168856
 31
0.0
 70
   160
 71
     5
 42
277.1999999999953
  3
物置仕様図40
100
AcDbAlignedDimension
 13
3008.08479127592
 23
8619.48735663808
 33
0.0
 14
3008.08479127592
 24
8342.287356638085
 34
0.0
 50
90.0
100
AcDbRotatedDimension
1001
ACAD
1000
DSTYLE
1002
{
1070
    75
1070
     1
1002
}
  0
DIMENSION
  5
203D
330
1A
100
AcDbEntity
  8
寸法
100
AcDbDimension
  2
*D30
 10
2434.415140076315
 20
8619.48735663808
 30
0.0
 11
2274.415140076315
 21
9028.267876983878
 31
0.0
 70
   160
 71
     5
 42
628.6000000000021
  3
物置仕様図40
100
AcDbAlignedDimension
 13
3008.08479127592
 23
9248.087356638082
 33
0.0
 14
3008.08479127592
 24
8619.48735663808
 34
0.0
 50
90.0
100
AcDbRotatedDimension
1001
ACAD
1000
DSTYLE
1002
{
1070
    75
1070
     1
1002
}
  0
DIMENSION
  5
203E
330
1A
100
AcDbEntity
  8
寸法
100
AcDbDimension
  2
*D31
 10
2434.415140076315
 20
9248.087356638082
 30
0.0
 11
2334.403329052691
 21
9562.387356638081
 31
0.0
 70
    32
 71
     5
 42
628.6000000000021
  3
物置仕様図40
100
AcDbAlignedDimension
 13
3008.08479127592
 23
9876.687356638084
 33
0.0
 14
3008.08479127592
 24
9248.087356638082
 34
0.0
 50
90.0
100
AcDbRotatedDimension
1001
ACAD
1000
DSTYLE
1002
{
1070
    75
1070
     1
1002
}
  0
DIMENSION
  5
203F
330
1A
100
AcDbEntity
  8
寸法
100
AcDbDimension
  2
*D32
 10
2434.415140076315
 20
9876.687356638084
 30
0.0
 11
2334.403329052691
 21
10190.98735663808
 31
0.0
 70
    32
 71
     5
 42
628.6000000000004
  3
物置仕様図40
100
AcDbAlignedDimension
 13
3008.08479127592
 23
10505.28735663808
 33
0.0
 14
3008.08479127592
 24
9876.687356638084
 34
0.0
 50
90.0
100
AcDbRotatedDimension
1001
ACAD
1000
DSTYLE
1002
{
1070
    75
1070
     1
1002
}
  0
DIMENSION
  5
2040
330
1A
100
AcDbEntity
  8
寸法
100
AcDbDimension
  2
*D33
 10
2434.415140076315
 20
10505.28735663808
 30
0.0
 11
2274.403329052691
 21
10623.78735663808
 31
0.0
 70
    32
 71
     5
 42
237.0
  3
物置仕様図40
100
AcDbAlignedDimension
 13
3018.08479127592
 23
10742.28735663808
 33
0.0
 14
3008.08479127592
 24
10505.28735663808
 34
0.0
 50
90.0
100
AcDbRotatedDimension
  0
LINE
  5
2041
330
1A
100
AcDbEntity
  8
点線
 48
50.0
100
AcDbLine
 10
6088.084791275917
 20
2330.4852086543
 30
0.0
 11
6088.08479127592
 21
2010.4852086543
 31
0.0
  0
LINE
  5
2042
330
1A
100
AcDbEntity
  8
点線
 48
50.0
100
AcDbLine
 10
6028.08479127592
 20
2330.4852086543
 30
0.0
 11
6028.08479127592
 21
2010.4852086543
 31
0.0
  0
LINE
  5
2043
330
1A
100
AcDbEntity
  8
点線
 48
50.0
100
AcDbLine
 10
3288.08479127592
 20
2330.4852086543
 30
0.0
 11
3288.08479127592
 21
2010.4852086543
 31
0.0
  0
LINE
  5
2044
330
1A
100
AcDbEntity
  8
点線
 48
50.0
100
AcDbLine
 10
3228.08479127592
 20
2330.4852086543
 30
0.0
 11
3228.08479127592
 21
2010.4852086543
 31
0.0
  0
LINE
  5
2045
330
1A
100
AcDbEntity
  8
部品1
100
AcDbLine
 10
6308.084791275922
 20
2330.4852086543
 30
0.0
 11
6308.084791275922
 21
2280.4852086543
 31
0.0
  0
LINE
  5
2046
330
1A
100
AcDbEntity
  8
部品1
100
AcDbLine
 10
3008.08479127592
 20
2330.4852086543
 30
0.0
 11
3008.08479127592
 21
2280.4852086543
 31
0.0
  0
LINE
  5
2047
330
1A
100
AcDbEntity
  8
部品1
100
AcDbLine
 10
3008.08479127592
 20
2330.4852086543
 30
0.0
 11
6308.08479127592
 21
2330.4852086543
 31
0.0
  0
LINE
  5
2048
330
1A
100
AcDbEntity
  8
点線
 48
50.0
100
AcDbLine
 10
3288.08479127592
 20
2010.4852086543
 30
0.0
 11
3228.08479127592
 21
2010.4852086543
 31
0.0
  0
LINE
  5
2049
330
1A
100
AcDbEntity
  8
点線
 48
50.0
100
AcDbLine
 10
6088.084791275917
 20
2010.4852086543
 30
0.0
 11
6028.08479127592
 21
2010.4852086543
 31
0.0
  0
LINE
  5
204A
330
1A
100
AcDbEntity
  8
部品1
100
AcDbLine
 10
4675.58479127592
 20
2640.485208654304
 30
0.0
 11
4675.58479127592
 21
2575.485208654303
 31
0.0
  0
LINE
  5
204B
330
1A
100
AcDbEntity
  8
部品1
100
AcDbLine
 10
4640.584791275919
 20
2640.485208654304
 30
0.0
 11
4640.584791275919
 21
2575.485208654303
 31
0.0
  0
LINE
  5
204C
330
1A
100
AcDbEntity
  8
部品1
100
AcDbLine
 10
6028.08479127592
 20
2680.485208654304
 30
0.0
 11
3288.08479127592
 21
2680.485208654304
 31
0.0
  0
LINE
  5
204D
330
1A
100
AcDbEntity
  8
部品1
100
AcDbLine
 10
6028.08479127592
 20
2640.485208654304
 30
0.0
 11
3288.08479127592
 21
2640.485208654304
 31
0.0
  0
LINE
  5
204E
330
1A
100
AcDbEntity
  8
部品1
100
AcDbLine
 10
6028.08479127592
 20
3010.485208654302
 30
0.0
 11
3288.08479127592
 21
3010.485208654302
 31
0.0
  0
LINE
  5
204F
330
1A
100
AcDbEntity
  8
部品1
100
AcDbLine
 10
6028.08479127592
 20
2980.485208654302
 30
0.0
 11
3288.08479127592
 21
2980.485208654302
 31
0.0
  0
LINE
  5
2050
330
1A
100
AcDbEntity
  8
部品1
100
AcDbLine
 10
6028.08479127592
 20
2575.485208654303
 30
0.0
 11
3288.08479127592
 21
2575.485208654303
 31
0.0
  0
LINE
  5
2051
330
1A
100
AcDbEntity
  8
部品1
100
AcDbLine
 10
6028.08479127592
 20
3385.485208654301
 30
0.0
 11
3288.08479127592
 21
3385.485208654301
 31
0.0
  0
LINE
  5
2052
330
1A
100
AcDbEntity
  8
細線
100
AcDbLine
 10
6070.084791275922
 20
4243.749276471787
 30
0.0
 11
6070.08479127592
 21
4103.085965190257
 31
0.0
  0
LINE
  5
2053
330
1A
100
AcDbEntity
  8
細線
100
AcDbLine
 10
6046.084791275919
 20
4243.749276471787
 30
0.0
 11
6046.084791275919
 21
4103.085965190257
 31
0.0
  0
LINE
  5
2054
330
1A
100
AcDbEntity
  8
細線
100
AcDbLine
 10
6076.084791275921
 20
4243.749276471787
 30
0.0
 11
6076.084791275921
 21
4103.085965190257
 31
0.0
  0
LINE
  5
2055
330
1A
100
AcDbEntity
  8
細線
100
AcDbLine
 10
6040.08479127592
 20
4243.749276471787
 30
0.0
 11
6040.08479127592
 21
4103.085965190257
 31
0.0
  0
LINE
  5
2056
330
1A
100
AcDbEntity
  8
細線
100
AcDbLine
 10
3270.08479127592
 20
4243.749276471787
 30
0.0
 11
3270.08479127592
 21
4103.085965190257
 31
0.0
  0
LINE
  5
2057
330
1A
100
AcDbEntity
  8
細線
100
AcDbLine
 10
3246.08479127592
 20
4243.749276471787
 30
0.0
 11
3246.08479127592
 21
4103.085965190257
 31
0.0
  0
LINE
  5
2058
330
1A
100
AcDbEntity
  8
細線
100
AcDbLine
 10
3276.08479127592
 20
4243.749276471787
 30
0.0
 11
3276.08479127592
 21
4103.085965190257
 31
0.0
  0
LINE
  5
2059
330
1A
100
AcDbEntity
  8
細線
100
AcDbLine
 10
3240.084791275921
 20
4243.749276471784
 30
0.0
 11
3240.084791275921
 21
4103.085965190257
 31
0.0
  0
ARC
  5
205A
330
1A
100
AcDbEntity
  8
部品1
100
AcDbCircle
 10
6086.084791275919
 20
4248.749276471788
 30
0.0
 40
5.0
100
AcDbArc
 50
270.0
 51
0.0
  0
ARC
  5
205B
330
1A
100
AcDbEntity
  8
部品1
100
AcDbCircle
 10
6030.08479127592
 20
4248.749276471786
 30
0.0
 40
5.0
100
AcDbArc
 50
180.0
 51
270.0
  0
ARC
  5
205C
330
1A
100
AcDbEntity
  8
部品1
100
AcDbCircle
 10
3286.08479127592
 20
4248.749276471786
 30
0.0
 40
5.0
100
AcDbArc
 50
270.0
 51
0.0
  0
ARC
  5
205D
330
1A
100
AcDbEntity
  8
部品1
100
AcDbCircle
 10
3230.08479127592
 20
4248.749276471786
 30
0.0
 40
5.0
100
AcDbArc
 50
180.0
 51
270.0
  0
LINE
  5
205E
330
1A
100
AcDbEntity
  8
部品1
100
AcDbLine
 10
3225.08479127592
 20
4248.749276471786
 30
0.0
 11
3225.08479127592
 21
4103.085965190257
 31
0.0
  0
LINE
  5
205F
330
1A
100
AcDbEntity
  8
部品1
100
AcDbLine
 10
3291.08479127592
 20
4103.085965190257
 30
0.0
 11
3225.08479127592
 21
4103.085965190257
 31
0.0
  0
LINE
  5
2060
330
1A
100
AcDbEntity
  8
部品1
100
AcDbLine
 10
3286.08479127592
 20
4243.749276471787
 30
0.0
 11
3230.08479127592
 21
4243.749276471787
 31
0.0
  0
LINE
  5
2061
330
1A
100
AcDbEntity
  8
部品1
100
AcDbLine
 10
3291.08479127592
 20
4298.391099810134
 30
0.0
 11
3291.08479127592
 21
4103.085965190257
 31
0.0
  0
LINE
  5
2062
330
1A
100
AcDbEntity
  8
部品1
100
AcDbLine
 10
3225.08479127592
 20
4298.391099810134
 30
0.0
 11
3225.08479127592
 21
4248.749276471786
 31
0.0
  0
LINE
  5
2063
330
1A
100
AcDbEntity
  8
部品1
100
AcDbLine
 10
6091.084791275921
 20
4103.085965190257
 30
0.0
 11
6025.08479127592
 21
4103.085965190257
 31
0.0
  0
LINE
  5
2064
330
1A
100
AcDbEntity
  8
部品1
100
AcDbLine
 10
6091.08479127592
 20
4298.391099810134
 30
0.0
 11
6091.08479127592
 21
4103.085965190257
 31
0.0
  0
LINE
  5
2065
330
1A
100
AcDbEntity
  8
部品1
100
AcDbLine
 10
6025.08479127592
 20
4298.391099810134
 30
0.0
 11
6025.08479127592
 21
4103.085965190257
 31
0.0
  0
LINE
  5
2066
330
1A
100
AcDbEntity
  8
部品1
100
AcDbLine
 10
6086.084791275919
 20
4243.749276471787
 30
0.0
 11
6030.08479127592
 21
4243.749276471787
 31
0.0
  0
LINE
  5
2067
330
1A
100
AcDbEntity
  8
部品1
100
AcDbLine
 10
6263.08479127592
 20
4526.075718108764
 30
0.0
 11
6263.08479127592
 21
4413.075718108767
 31
0.0
  0
ARC
  5
2068
330
1A
100
AcDbEntity
  8
部品1
100
AcDbCircle
 10
6294.505670399505
 20
4400.075718108766
 30
0.0
 40
13.0
100
AcDbArc
 50
357.5036094785661
 51
90.0
  0
LINE
  5
2069
330
1A
100
AcDbEntity
  8
部品1
100
AcDbLine
 10
6307.505670399505
 20
4400.075718108766
 30
0.0
 11
6307.505670399505
 21
4513.075718108766
 31
0.0
  0
ARC
  5
206A
330
1A
100
AcDbEntity
  8
部品1
100
AcDbCircle
 10
6294.505670399505
 20
4513.075718108766
 30
0.0
 40
13.0
100
AcDbArc
 50
0.0
 51
90.0
  0
ARC
  5
206B
330
1A
100
AcDbEntity
  8
部品1
100
AcDbCircle
 10
6290.63921386792
 20
4311.391099810136
 30
0.0
 40
13.0
100
AcDbArc
 50
270.0
 51
357.5036094785661
  0
LINE
  5
206C
330
1A
100
AcDbEntity
  8
部品1
100
AcDbLine
 10
6285.08479127592
 20
4413.075718108767
 30
0.0
 11
6285.08479127592
 21
4298.391099810136
 31
0.0
  0
LINE
  5
206D
330
1A
100
AcDbEntity
  8
部品1
100
AcDbLine
 10
6307.493332977036
 20
4399.509484259353
 30
0.0
 11
6303.626876445451
 21
4310.824865960723
 31
0.0
  0
ARC
  5
206E
330
1A
100
AcDbEntity
  8
部品1
100
AcDbCircle
 10
3021.663912152335
 20
4513.075718108766
 30
0.0
 40
13.0
100
AcDbArc
 50
90.0
 51
180.0
  0
LINE
  5
206F
330
1A
100
AcDbEntity
  8
部品1
100
AcDbLine
 10
3008.663912152335
 20
4400.075718108766
 30
0.0
 11
3008.663912152335
 21
4513.075718108766
 31
0.0
  0
ARC
  5
2070
330
1A
100
AcDbEntity
  8
部品1
100
AcDbCircle
 10
3025.53036868392
 20
4311.391099810136
 30
0.0
 40
13.0
100
AcDbArc
 50
182.4963905214339
 51
270.0
  0
ARC
  5
2071
330
1A
100
AcDbEntity
  8
部品1
100
AcDbCircle
 10
3021.663912152335
 20
4400.075718108766
 30
0.0
 40
13.0
100
AcDbArc
 50
90.0
 51
182.4963905214339
  0
LINE
  5
2072
330
1A
100
AcDbEntity
  8
部品1
100
AcDbLine
 10
3031.08479127592
 20
4413.075718108767
 30
0.0
 11
3031.08479127592
 21
4298.391099810136
 31
0.0
  0
LINE
  5
2073
330
1A
100
AcDbEntity
  8
部品1
100
AcDbLine
 10
3008.676249574805
 20
4399.509484259353
 30
0.0
 11
3012.542706106389
 21
4310.824865960723
 31
0.0
  0
LINE
  5
2074
330
1A
100
AcDbEntity
  8
部品1
100
AcDbLine
 10
3053.08479127592
 20
4526.075718108764
 30
0.0
 11
3053.08479127592
 21
4413.075718108767
 31
0.0
  0
LINE
  5
2075
330
1A
100
AcDbEntity
  8
細線
100
AcDbLine
 10
6305.258704319398
 20
4348.253977331278
 30
0.0
 11
3010.910878232442
 21
4348.253977331278
 31
0.0
  0
LINE
  5
2076
330
1A
100
AcDbEntity
  8
細線
100
AcDbLine
 10
6304.736965188962
 20
4336.286886726205
 30
0.0
 11
3011.432617362878
 21
4336.286886726205
 31
0.0
  0
LINE
  5
2077
330
1A
100
AcDbEntity
  8
部品1
100
AcDbLine
 10
6290.63921386792
 20
4298.391099810136
 30
0.0
 11
3025.53036868392
 21
4298.391099810136
 31
0.0
  0
LINE
  5
2078
330
1A
100
AcDbEntity
  8
部品1
100
AcDbLine
 10
6028.08479127592
 20
2530.485208654303
 30
0.0
 11
3288.08479127592
 21
2530.485208654303
 31
0.0
  0
LINE
  5
2079
330
1A
100
AcDbEntity
  8
部品1
100
AcDbLine
 10
6028.08479127592
 20
3430.485208654302
 30
0.0
 11
3288.08479127592
 21
3430.485208654302
 31
0.0
  0
LINE
  5
207A
330
1A
100
AcDbEntity
  8
部品1
100
AcDbLine
 10
6294.505670399505
 20
4413.075718108764
 30
0.0
 11
3021.663912152335
 21
4413.075718108767
 31
0.0
  0
LINE
  5
207B
330
1A
100
AcDbEntity
  8
部品1
100
AcDbLine
 10
6294.505670399505
 20
4526.075718108764
 30
0.0
 11
3021.663912152335
 21
4526.075718108766
 31
0.0
  0
LINE
  5
207C
330
1A
100
AcDbEntity
  8
部品1
100
AcDbLine
 10
6088.08479127592
 20
4103.085965190257
 30
0.0
 11
6088.084791275917
 21
2330.4852086543
 31
0.0
  0
LINE
  5
207D
330
1A
100
AcDbEntity
  8
部品1
100
AcDbLine
 10
6028.08479127592
 20
4103.085965190257
 30
0.0
 11
6028.08479127592
 21
2330.4852086543
 31
0.0
  0
LINE
  5
207E
330
1A
100
AcDbEntity
  8
部品1
100
AcDbLine
 10
3288.08479127592
 20
4103.085965190257
 30
0.0
 11
3288.08479127592
 21
2330.4852086543
 31
0.0
  0
LINE
  5
207F
330
1A
100
AcDbEntity
  8
部品1
100
AcDbLine
 10
3228.08479127592
 20
4103.085965190257
 30
0.0
 11
3228.08479127592
 21
2330.4852086543
 31
0.0
  0
LINE
  5
2080
330
1A
100
AcDbEntity
  8
センター
 48
10.0
100
AcDbLine
 10
6058.08479127592
 20
4298.391099810136
 30
0.0
 11
6058.08479127592
 21
2017.173856759611
 31
0.0
  0
LINE
  5
2081
330
1A
100
AcDbEntity
  8
センター
 48
10.0
100
AcDbLine
 10
3258.08479127592
 20
4298.391099810134
 30
0.0
 11
3258.08479127592
 21
2017.173856759611
 31
0.0
  0
LINE
  5
2082
330
1A
100
AcDbEntity
  8
Ｇ．Ｌ
100
AcDbLine
 10
2302.38837409934
 20
2280.4852086543
 30
0.0
 11
13943.42636519888
 21
2280.4852086543
 31
0.0
  0
ARC
  5
2083
330
1A
100
AcDbEntity
  8
部品1
100
AcDbCircle
 10
3018.08479127592
 20
10732.28735663808
 30
0.0
 40
10.0
100
AcDbArc
 50
90.0
 51
180.0
  0
ARC
  5
2084
330
1A
100
AcDbEntity
  8
部品1
100
AcDbCircle
 10
6298.08479127592
 20
5952.287356638084
 30
0.0
 40
10.0
100
AcDbArc
 50
270.0
 51
0.0
  0
LINE
  5
2085
330
1A
100
AcDbEntity
  8
点線
 48
50.0
100
AcDbLine
 10
6028.084791275922
 20
6830.387356638086
 30
0.0
 11
6028.08479127592
 21
7393.987356638085
 31
0.0
  0
LINE
  5
2086
330
1A
100
AcDbEntity
  8
点線
 48
50.0
100
AcDbLine
 10
6088.08479127592
 20
6830.387356638086
 30
0.0
 11
6088.08479127592
 21
7393.987356638085
 31
0.0
  0
LINE
  5
2087
330
1A
100
AcDbEntity
  8
点線
 48
50.0
100
AcDbLine
 10
6088.084791275917
 20
6201.787356638084
 30
0.0
 11
6088.084791275917
 21
6765.387356638083
 31
0.0
  0
LINE
  5
2088
330
1A
100
AcDbEntity
  8
点線
 48
50.0
100
AcDbLine
 10
6028.08479127592
 20
6201.787356638084
 30
0.0
 11
6028.08479127592
 21
6765.387356638083
 31
0.0
  0
LINE
  5
2089
330
1A
100
AcDbEntity
  8
点線
 48
50.0
100
AcDbLine
 10
6088.08479127592
 20
7458.987356638084
 30
0.0
 11
6088.084791275922
 21
8022.587356638087
 31
0.0
  0
LINE
  5
208A
330
1A
100
AcDbEntity
  8
点線
 48
50.0
100
AcDbLine
 10
6028.08479127592
 20
7458.987356638084
 30
0.0
 11
6028.084791275922
 21
8022.587356638087
 31
0.0
  0
LINE
  5
208B
330
1A
100
AcDbEntity
  8
点線
 48
50.0
100
AcDbLine
 10
6028.08479127592
 20
8087.587356638087
 30
0.0
 11
6028.08479127592
 21
8202.287356638084
 31
0.0
  0
LINE
  5
208C
330
1A
100
AcDbEntity
  8
点線
 48
50.0
100
AcDbLine
 10
6088.08479127592
 20
8087.587356638087
 30
0.0
 11
6088.08479127592
 21
8202.287356638084
 31
0.0
  0
LINE
  5
208D
330
1A
100
AcDbEntity
  8
部品1
100
AcDbLine
 10
4999.262452336431
 20
6136.787356638084
 30
0.0
 11
3078.08479127592
 21
6136.787356638084
 31
0.0
  0
LINE
  5
208E
330
1A
100
AcDbEntity
  8
部品1
100
AcDbLine
 10
4993.228332539525
 20
6156.787356638083
 30
0.0
 11
3078.08479127592
 21
6156.787356638083
 31
0.0
  0
LINE
  5
208F
330
1A
100
AcDbEntity
  8
部品1
100
AcDbLine
 10
4979.651562996492
 20
6201.787356638084
 30
0.0
 11
3078.08479127592
 21
6201.787356638084
 31
0.0
  0
LINE
  5
2090
330
1A
100
AcDbEntity
  8
部品1
100
AcDbLine
 10
4809.610067119731
 20
6765.387356638083
 30
0.0
 11
3078.08479127592
 21
6765.387356638083
 31
0.0
  0
LINE
  5
2091
330
1A
100
AcDbEntity
  8
部品1
100
AcDbLine
 10
4803.575947322826
 20
6785.387356638084
 30
0.0
 11
3078.08479127592
 21
6785.387356638084
 31
0.0
  0
LINE
  5
2092
330
1A
100
AcDbEntity
  8
部品1
100
AcDbLine
 10
4789.999177779793
 20
6830.387356638084
 30
0.0
 11
3078.08479127592
 21
6830.387356638084
 31
0.0
  0
LINE
  5
2093
330
1A
100
AcDbEntity
  8
部品1
100
AcDbLine
 10
4619.957681903032
 20
7393.987356638085
 30
0.0
 11
3078.08479127592
 21
7393.987356638085
 31
0.0
  0
LINE
  5
2094
330
1A
100
AcDbEntity
  8
部品1
100
AcDbLine
 10
4613.923562106127
 20
7413.987356638084
 30
0.0
 11
3078.08479127592
 21
7413.987356638084
 31
0.0
  0
LINE
  5
2095
330
1A
100
AcDbEntity
  8
部品1
100
AcDbLine
 10
4600.346792563094
 20
7458.987356638084
 30
0.0
 11
3078.08479127592
 21
7458.987356638084
 31
0.0
  0
LINE
  5
2096
330
1A
100
AcDbEntity
  8
部品1
100
AcDbLine
 10
4410.694407346393
 20
8087.587356638085
 30
0.0
 11
3078.08479127592
 21
8087.587356638087
 31
0.0
  0
LINE
  5
2097
330
1A
100
AcDbEntity
  8
部品1
100
AcDbLine
 10
4424.271176889428
 20
8042.587356638087
 30
0.0
 11
3078.08479127592
 21
8042.587356638087
 31
0.0
  0
LINE
  5
2098
330
1A
100
AcDbEntity
  8
部品1
100
AcDbLine
 10
3078.08479127592
 20
8202.287356638084
 30
0.0
 11
3078.08479127592
 21
6066.287356638084
 31
0.0
  0
LINE
  5
2099
330
1A
100
AcDbEntity
  8
部品1
100
AcDbLine
 10
4430.30529668633
 20
8022.587356638087
 30
0.0
 11
3078.08479127592
 21
8022.587356638087
 31
0.0
  0
LINE
  5
209A
330
1A
100
AcDbEntity
  8
部品1
100
AcDbLine
 10
3228.08479127592
 20
8596.987356638081
 30
0.0
 11
3228.08479127592
 21
8482.287356638083
 31
0.0
  0
LINE
  5
209B
330
1A
100
AcDbEntity
  8
部品1
100
AcDbLine
 10
3288.08479127592
 20
8596.987356638081
 30
0.0
 11
3288.08479127592
 21
8482.287356638083
 31
0.0
  0
LINE
  5
209C
330
1A
100
AcDbEntity
  8
部品1
100
AcDbLine
 10
3288.08479127592
 20
9225.587356638083
 30
0.0
 11
3288.08479127592
 21
8661.987356638084
 31
0.0
  0
LINE
  5
209D
330
1A
100
AcDbEntity
  8
部品1
100
AcDbLine
 10
3228.08479127592
 20
9225.587356638083
 30
0.0
 11
3228.08479127592
 21
8661.987356638084
 31
0.0
  0
LINE
  5
209E
330
1A
100
AcDbEntity
  8
部品1
100
AcDbLine
 10
3228.08479127592
 20
9854.187356638085
 30
0.0
 11
3228.08479127592
 21
9290.587356638082
 31
0.0
  0
LINE
  5
209F
330
1A
100
AcDbEntity
  8
部品1
100
AcDbLine
 10
3288.08479127592
 20
9854.187356638085
 30
0.0
 11
3288.08479127592
 21
9290.587356638082
 31
0.0
  0
LINE
  5
20A0
330
1A
100
AcDbEntity
  8
部品1
100
AcDbLine
 10
3288.08479127592
 20
10482.78735663808
 30
0.0
 11
3288.08479127592
 21
9919.187356638083
 31
0.0
  0
LINE
  5
20A1
330
1A
100
AcDbEntity
  8
部品1
100
AcDbLine
 10
3228.08479127592
 20
10482.78735663808
 30
0.0
 11
3228.08479127592
 21
9919.187356638083
 31
0.0
  0
LINE
  5
20A2
330
1A
100
AcDbEntity
  8
部品1
100
AcDbLine
 10
4237.394486779304
 20
8661.987356638084
 30
0.0
 11
3078.08479127592
 21
8661.987356638082
 31
0.0
  0
LINE
  5
20A3
330
1A
100
AcDbEntity
  8
部品1
100
AcDbLine
 10
4243.42860657621
 20
8641.987356638082
 30
0.0
 11
3078.08479127592
 21
8641.987356638081
 31
0.0
  0
LINE
  5
20A4
330
1A
100
AcDbEntity
  8
部品1
100
AcDbLine
 10
4257.005376119244
 20
8596.987356638082
 30
0.0
 11
3078.08479127592
 21
8596.987356638081
 31
0.0
  0
LINE
  5
20A5
330
1A
100
AcDbEntity
  8
部品1
100
AcDbLine
 10
4047.742101562606
 20
9290.587356638082
 30
0.0
 11
3078.08479127592
 21
9290.587356638082
 31
0.0
  0
LINE
  5
20A6
330
1A
100
AcDbEntity
  8
部品1
100
AcDbLine
 10
4053.776221359511
 20
9270.587356638083
 30
0.0
 11
3078.08479127592
 21
9270.587356638083
 31
0.0
  0
LINE
  5
20A7
330
1A
100
AcDbEntity
  8
部品1
100
AcDbLine
 10
4067.352990902544
 20
9225.587356638083
 30
0.0
 11
3078.08479127592
 21
9225.587356638083
 31
0.0
  0
LINE
  5
20A8
330
1A
100
AcDbEntity
  8
部品1
100
AcDbLine
 10
3877.700605685845
 20
9854.187356638085
 30
0.0
 11
3078.08479127592
 21
9854.187356638085
 31
0.0
  0
LINE
  5
20A9
330
1A
100
AcDbEntity
  8
部品1
100
AcDbLine
 10
3864.123836142809
 20
9899.187356638083
 30
0.0
 11
3078.08479127592
 21
9899.187356638083
 31
0.0
  0
LINE
  5
20AA
330
1A
100
AcDbEntity
  8
部品1
100
AcDbLine
 10
3858.089716345907
 20
9919.187356638083
 30
0.0
 11
3078.08479127592
 21
9919.187356638083
 31
0.0
  0
LINE
  5
20AB
330
1A
100
AcDbEntity
  8
部品1
100
AcDbLine
 10
3688.048220469145
 20
10482.78735663808
 30
0.0
 11
3078.08479127592
 21
10482.78735663808
 31
0.0
  0
LINE
  5
20AC
330
1A
100
AcDbEntity
  8
部品1
100
AcDbLine
 10
3674.47145092611
 20
10527.78735663808
 30
0.0
 11
3078.08479127592
 21
10527.78735663808
 31
0.0
  0
LINE
  5
20AD
330
1A
100
AcDbEntity
  8
部品1
100
AcDbLine
 10
3668.437331129206
 20
10547.78735663808
 30
0.0
 11
3078.08479127592
 21
10547.78735663808
 31
0.0
  0
LINE
  5
20AE
330
1A
100
AcDbEntity
  8
部品1
100
AcDbLine
 10
3078.08479127592
 20
10618.28735663808
 30
0.0
 11
3078.08479127592
 21
8482.287356638083
 31
0.0
  0
LINE
  5
20AF
330
1A
100
AcDbEntity
  8
部品1
100
AcDbLine
 10
3579.584917119792
 20
10842.28735663808
 30
0.0
 11
5088.114866345844
 21
5842.287356638085
 31
0.0
  0
LINE
  5
20B0
330
1A
100
AcDbEntity
  8
部品1
100
AcDbLine
 10
3035.58479127592
 20
5961.787356638084
 30
0.0
 11
3056.58479127592
 21
5961.787356638084
 31
0.0
  0
LINE
  5
20B1
330
1A
100
AcDbEntity
  8
部品1
100
AcDbLine
 10
3030.58479127592
 20
5956.787356638084
 30
0.0
 11
3030.58479127592
 21
5942.287356638084
 31
0.0
  0
ARC
  5
20B2
330
1A
100
AcDbEntity
  8
部品1
100
AcDbCircle
 10
3035.58479127592
 20
5956.787356638084
 30
0.0
 40
5.0
100
AcDbArc
 50
90.0
 51
180.0
  0
LINE
  5
20B3
330
1A
100
AcDbEntity
  8
部品1
100
AcDbLine
 10
3056.584791275927
 20
6066.287356638084
 30
0.0
 11
3056.58479127592
 21
5961.787356638084
 31
0.0
  0
ARC
  5
20B4
330
1A
100
AcDbEntity
  8
部品1
100
AcDbCircle
 10
3018.08479127592
 20
5952.287356638084
 30
0.0
 40
10.0
100
AcDbArc
 50
180.0
 51
270.0
  0
LINE
  5
20B5
330
1A
100
AcDbEntity
  8
部品1
100
AcDbLine
 10
3228.084791275922
 20
6100.787356638084
 30
0.0
 11
3288.084791275923
 21
6100.787356638084
 31
0.0
  0
LINE
  5
20B6
330
1A
100
AcDbEntity
  8
部品1
100
AcDbLine
 10
3228.084791275924
 20
6136.787356638084
 30
0.0
 11
3228.084791275922
 21
6100.787356638084
 31
0.0
  0
LINE
  5
20B7
330
1A
100
AcDbEntity
  8
部品1
100
AcDbLine
 10
3288.084791275924
 20
6136.787356638084
 30
0.0
 11
3288.084791275923
 21
6100.787356638084
 31
0.0
  0
LINE
  5
20B8
330
1A
100
AcDbEntity
  8
部品1
100
AcDbLine
 10
3228.08479127592
 20
7393.987356638082
 30
0.0
 11
3228.08479127592
 21
6830.387356638084
 31
0.0
  0
LINE
  5
20B9
330
1A
100
AcDbEntity
  8
部品1
100
AcDbLine
 10
3288.08479127592
 20
7393.987356638082
 30
0.0
 11
3288.08479127592
 21
6830.387356638084
 31
0.0
  0
LINE
  5
20BA
330
1A
100
AcDbEntity
  8
部品1
100
AcDbLine
 10
3228.08479127592
 20
8202.287356638084
 30
0.0
 11
3228.08479127592
 21
8087.587356638087
 31
0.0
  0
LINE
  5
20BB
330
1A
100
AcDbEntity
  8
部品1
100
AcDbLine
 10
3288.08479127592
 20
8202.287356638084
 30
0.0
 11
3288.08479127592
 21
8087.587356638087
 31
0.0
  0
LINE
  5
20BC
330
1A
100
AcDbEntity
  8
部品1
100
AcDbLine
 10
3228.08479127592
 20
8022.587356638087
 30
0.0
 11
3228.08479127592
 21
7458.987356638084
 31
0.0
  0
LINE
  5
20BD
330
1A
100
AcDbEntity
  8
部品1
100
AcDbLine
 10
3288.08479127592
 20
8022.587356638087
 30
0.0
 11
3288.08479127592
 21
7458.987356638084
 31
0.0
  0
LINE
  5
20BE
330
1A
100
AcDbEntity
  8
部品1
100
AcDbLine
 10
3008.08479127592
 20
10732.28735663808
 30
0.0
 11
3008.08479127592
 21
5952.287356638084
 31
0.0
  0
LINE
  5
20BF
330
1A
100
AcDbEntity
  8
部品1
100
AcDbLine
 10
3053.08479127592
 20
10722.78735663808
 30
0.0
 11
3053.08479127592
 21
5961.787356638084
 31
0.0
  0
LINE
  5
20C0
330
1A
100
AcDbEntity
  8
部品1
100
AcDbLine
 10
4669.584791275919
 20
7229.499043368767
 30
0.0
 11
4669.584791275919
 21
8202.287356638084
 31
0.0
  0
LINE
  5
20C1
330
1A
100
AcDbEntity
  8
部品1
100
AcDbLine
 10
4635.08479127592
 20
7343.848778412809
 30
0.0
 11
4635.08479127592
 21
8202.287356638084
 31
0.0
  0
LINE
  5
20C2
330
1A
100
AcDbEntity
  8
部品1
100
AcDbLine
 10
4498.08479127592
 20
7797.933233515234
 30
0.0
 11
4498.08479127592
 21
8202.287356638084
 31
0.0
  0
LINE
  5
20C3
330
1A
100
AcDbEntity
  8
部品1
100
AcDbLine
 10
4453.084791275919
 20
7947.085061833547
 30
0.0
 11
4453.084791275919
 21
8202.287356638084
 31
0.0
  0
LINE
  5
20C4
330
1A
100
AcDbEntity
  8
部品1
100
AcDbLine
 10
4425.08479127592
 20
8039.890643898278
 30
0.0
 11
4425.08479127592
 21
8202.287356638084
 31
0.0
  0
LINE
  5
20C5
330
1A
100
AcDbEntity
  8
部品1
100
AcDbLine
 10
4380.08479127592
 20
8189.042472216591
 30
0.0
 11
4380.08479127592
 21
8202.287356638084
 31
0.0
  0
LINE
  5
20C6
330
1A
100
AcDbEntity
  8
部品1
100
AcDbLine
 10
3228.08479127592
 20
6765.387356638083
 30
0.0
 11
3228.084791275924
 21
6201.787356638084
 31
0.0
  0
LINE
  5
20C7
330
1A
100
AcDbEntity
  8
部品1
100
AcDbLine
 10
3288.08479127592
 20
6765.387356638083
 30
0.0
 11
3288.084791275924
 21
6201.787356638084
 31
0.0
  0
LINE
  5
20C8
330
1A
100
AcDbEntity
  8
部品1
100
AcDbLine
 10
6285.58479127592
 20
5942.287356638084
 30
0.0
 11
6285.58479127592
 21
5956.787356638084
 31
0.0
  0
ARC
  5
20C9
330
1A
100
AcDbEntity
  8
部品1
100
AcDbCircle
 10
6280.58479127592
 20
5956.787356638084
 30
0.0
 40
5.0
100
AcDbArc
 50
0.0
 51
90.0
  0
LINE
  5
20CA
330
1A
100
AcDbEntity
  8
部品1
100
AcDbLine
 10
6259.58479127592
 20
5961.787356638084
 30
0.0
 11
6259.58479127592
 21
6066.287356638084
 31
0.0
  0
LINE
  5
20CB
330
1A
100
AcDbEntity
  8
部品1
100
AcDbLine
 10
6259.58479127592
 20
5961.787356638084
 30
0.0
 11
6280.58479127592
 21
5961.787356638084
 31
0.0
  0
LINE
  5
20CC
330
1A
100
AcDbEntity
  8
点線
 48
50.0
100
AcDbLine
 10
6028.08479127592
 20
6100.787356638084
 30
0.0
 11
6088.08479127592
 21
6100.787356638084
 31
0.0
  0
LINE
  5
20CD
330
1A
100
AcDbEntity
  8
部品1
100
AcDbLine
 10
6308.08479127592
 20
5952.287356638084
 30
0.0
 11
6308.084791275922
 21
10732.28735663808
 31
0.0
  0
LINE
  5
20CE
330
1A
100
AcDbEntity
  8
部品1
100
AcDbLine
 10
6263.08479127592
 20
5961.787356638084
 30
0.0
 11
6263.084791275923
 21
10722.78735663808
 31
0.0
  0
LINE
  5
20CF
330
1A
100
AcDbEntity
  8
部品1
100
AcDbLine
 10
6249.58479127592
 20
6066.287356638084
 30
0.0
 11
6249.58479127592
 21
8202.287356638084
 31
0.0
  0
LINE
  5
20D0
330
1A
100
AcDbEntity
  8
部品1
100
AcDbLine
 10
6215.08479127592
 20
6066.287356638084
 30
0.0
 11
6215.08479127592
 21
8202.287356638084
 31
0.0
  0
LINE
  5
20D1
330
1A
100
AcDbEntity
  8
部品1
100
AcDbLine
 10
5669.584791275919
 20
6066.287356638084
 30
0.0
 11
5669.584791275919
 21
8202.287356638084
 31
0.0
  0
LINE
  5
20D2
330
1A
100
AcDbEntity
  8
部品1
100
AcDbLine
 10
5635.08479127592
 20
6066.287356638084
 30
0.0
 11
5635.08479127592
 21
8202.287356638084
 31
0.0
  0
LINE
  5
20D3
330
1A
100
AcDbEntity
  8
部品1
100
AcDbLine
 10
5089.58479127592
 20
6066.287356638084
 30
0.0
 11
5089.58479127592
 21
8202.287356638084
 31
0.0
  0
LINE
  5
20D4
330
1A
100
AcDbEntity
  8
部品1
100
AcDbLine
 10
5055.08479127592
 20
6066.287356638084
 30
0.0
 11
5055.08479127592
 21
8202.287356638084
 31
0.0
  0
LINE
  5
20D5
330
1A
100
AcDbEntity
  8
部品1
100
AcDbLine
 10
5880.08479127592
 20
6066.287356638086
 30
0.0
 11
5880.08479127592
 21
8202.287356638084
 31
0.0
  0
LINE
  5
20D6
330
1A
100
AcDbEntity
  8
部品1
100
AcDbLine
 10
5925.08479127592
 20
6066.287356638086
 30
0.0
 11
5925.08479127592
 21
8202.287356638084
 31
0.0
  0
LINE
  5
20D7
330
1A
100
AcDbEntity
  8
部品1
100
AcDbLine
 10
5953.084791275919
 20
6066.287356638086
 30
0.0
 11
5953.084791275919
 21
8202.287356638084
 31
0.0
  0
LINE
  5
20D8
330
1A
100
AcDbEntity
  8
部品1
100
AcDbLine
 10
5998.08479127592
 20
6066.287356638086
 30
0.0
 11
5998.08479127592
 21
8202.287356638084
 31
0.0
  0
LINE
  5
20D9
330
1A
100
AcDbEntity
  8
部品1
100
AcDbLine
 10
5418.084791275919
 20
6066.287356638086
 30
0.0
 11
5418.084791275919
 21
8202.287356638084
 31
0.0
  0
LINE
  5
20DA
330
1A
100
AcDbEntity
  8
部品1
100
AcDbLine
 10
5373.08479127592
 20
6066.287356638086
 30
0.0
 11
5373.08479127592
 21
8202.287356638084
 31
0.0
  0
LINE
  5
20DB
330
1A
100
AcDbEntity
  8
部品1
100
AcDbLine
 10
5345.08479127592
 20
6066.287356638086
 30
0.0
 11
5345.08479127592
 21
8202.287356638084
 31
0.0
  0
LINE
  5
20DC
330
1A
100
AcDbEntity
  8
部品1
100
AcDbLine
 10
5300.08479127592
 20
6066.287356638086
 30
0.0
 11
5300.08479127592
 21
8202.287356638084
 31
0.0
  0
LINE
  5
20DD
330
1A
100
AcDbEntity
  8
部品1
100
AcDbLine
 10
4918.084791275919
 20
6405.849502544296
 30
0.0
 11
4918.084791275919
 21
8202.287356638084
 31
0.0
  0
LINE
  5
20DE
330
1A
100
AcDbEntity
  8
部品1
100
AcDbLine
 10
4873.08479127592
 20
6555.001330862612
 30
0.0
 11
4873.08479127592
 21
8202.287356638084
 31
0.0
  0
LINE
  5
20DF
330
1A
100
AcDbEntity
  8
部品1
100
AcDbLine
 10
4845.08479127592
 20
6647.80691292734
 30
0.0
 11
4845.08479127592
 21
8202.287356638084
 31
0.0
  0
LINE
  5
20E0
330
1A
100
AcDbEntity
  8
部品1
100
AcDbLine
 10
4800.08479127592
 20
6796.958741245655
 30
0.0
 11
4800.08479127592
 21
8202.287356638084
 31
0.0
  0
LINE
  5
20E1
330
1A
100
AcDbEntity
  8
点線
 48
50.0
100
AcDbLine
 10
6088.08479127592
 20
6100.787356638084
 30
0.0
 11
6088.08479127592
 21
6136.787356638084
 31
0.0
  0
LINE
  5
20E2
330
1A
100
AcDbEntity
  8
点線
 48
50.0
100
AcDbLine
 10
6028.08479127592
 20
6100.787356638084
 30
0.0
 11
6028.08479127592
 21
6136.787356638084
 31
0.0
  0
LINE
  5
20E3
330
1A
100
AcDbEntity
  8
部品1
100
AcDbLine
 10
3018.08479127592
 20
5942.287356638084
 30
0.0
 11
6298.08479127592
 21
5942.287356638084
 31
0.0
  0
LINE
  5
20E4
330
1A
100
AcDbEntity
  8
部品1
100
AcDbLine
 10
3056.584791275927
 20
6066.287356638082
 30
0.0
 11
6259.58479127592
 21
6066.287356638088
 31
0.0
  0
LINE
  5
20E5
330
1A
100
AcDbEntity
  8
部品1
100
AcDbLine
 10
6263.08479127592
 20
8202.287356638084
 30
0.0
 11
3053.08479127592
 21
8202.287356638084
 31
0.0
  0
LINE
  5
20E6
330
1A
100
AcDbEntity
  8
センター
 48
10.0
100
AcDbLine
 10
3038.08479127592
 20
6179.287356638084
 30
0.0
 11
6278.084791275919
 21
6179.287356638084
 31
0.0
  0
LINE
  5
20E7
330
1A
100
AcDbEntity
  8
センター
 48
10.0
100
AcDbLine
 10
3038.08479127592
 20
6807.887356638085
 30
0.0
 11
6278.084791275919
 21
6807.887356638085
 31
0.0
  0
LINE
  5
20E8
330
1A
100
AcDbEntity
  8
センター
 48
10.0
100
AcDbLine
 10
3038.084791275922
 20
7436.487356638085
 30
0.0
 11
6278.084791275915
 21
7436.487356638085
 31
0.0
  0
LINE
  5
20E9
330
1A
100
AcDbEntity
  8
センター
 48
10.0
100
AcDbLine
 10
3038.084791275922
 20
8065.087356638086
 30
0.0
 11
6278.084791275919
 21
8065.087356638086
 31
0.0
  0
LINE
  5
20EA
330
1A
100
AcDbEntity
  8
点線
 48
50.0
100
AcDbLine
 10
4999.262452336431
 20
6136.787356638084
 30
0.0
 11
6278.084791275916
 21
6136.787356638084
 31
0.0
  0
LINE
  5
20EB
330
1A
100
AcDbEntity
  8
点線
 48
50.0
100
AcDbLine
 10
4993.228332539527
 20
6156.787356638083
 30
0.0
 11
6278.084791275916
 21
6156.787356638083
 31
0.0
  0
LINE
  5
20EC
330
1A
100
AcDbEntity
  8
点線
 48
50.0
100
AcDbLine
 10
4979.651562996492
 20
6201.787356638084
 30
0.0
 11
6278.084791275916
 21
6201.787356638084
 31
0.0
  0
LINE
  5
20ED
330
1A
100
AcDbEntity
  8
点線
 48
50.0
100
AcDbLine
 10
4809.610067119731
 20
6765.387356638083
 30
0.0
 11
6278.084791275919
 21
6765.387356638083
 31
0.0
  0
LINE
  5
20EE
330
1A
100
AcDbEntity
  8
点線
 48
50.0
100
AcDbLine
 10
4803.575947322826
 20
6785.387356638084
 30
0.0
 11
6278.084791275919
 21
6785.387356638084
 31
0.0
  0
LINE
  5
20EF
330
1A
100
AcDbEntity
  8
点線
 48
50.0
100
AcDbLine
 10
4789.999177779793
 20
6830.387356638084
 30
0.0
 11
6278.084791275916
 21
6830.387356638084
 31
0.0
  0
LINE
  5
20F0
330
1A
100
AcDbEntity
  8
点線
 48
50.0
100
AcDbLine
 10
4619.957681903032
 20
7393.987356638085
 30
0.0
 11
6278.084791275919
 21
7393.987356638085
 31
0.0
  0
LINE
  5
20F1
330
1A
100
AcDbEntity
  8
点線
 48
50.0
100
AcDbLine
 10
4613.923562106127
 20
7413.987356638084
 30
0.0
 11
6278.084791275916
 21
7413.987356638084
 31
0.0
  0
LINE
  5
20F2
330
1A
100
AcDbEntity
  8
点線
 48
50.0
100
AcDbLine
 10
4600.346792563092
 20
7458.987356638084
 30
0.0
 11
6278.084791275919
 21
7458.987356638084
 31
0.0
  0
LINE
  5
20F3
330
1A
100
AcDbEntity
  8
点線
 48
50.0
100
AcDbLine
 10
4430.305296686332
 20
8022.587356638087
 30
0.0
 11
6278.084791275919
 21
8022.587356638087
 31
0.0
  0
LINE
  5
20F4
330
1A
100
AcDbEntity
  8
点線
 48
50.0
100
AcDbLine
 10
4424.271176889428
 20
8042.587356638087
 30
0.0
 11
6278.084791275919
 21
8042.587356638087
 31
0.0
  0
LINE
  5
20F5
330
1A
100
AcDbEntity
  8
点線
 48
50.0
100
AcDbLine
 10
4410.694407346393
 20
8087.587356638087
 30
0.0
 11
6278.084791275916
 21
8087.587356638087
 31
0.0
  0
LINE
  5
20F6
330
1A
100
AcDbEntity
  8
点線
 48
50.0
100
AcDbLine
 10
6028.084791275919
 20
10547.78735663808
 30
0.0
 11
6028.084791275919
 21
10583.78735663808
 31
0.0
  0
LINE
  5
20F7
330
1A
100
AcDbEntity
  8
点線
 48
50.0
100
AcDbLine
 10
6088.084791275917
 20
10547.78735663808
 30
0.0
 11
6088.084791275917
 21
10583.78735663808
 31
0.0
  0
LINE
  5
20F8
330
1A
100
AcDbEntity
  8
点線
 48
50.0
100
AcDbLine
 10
6028.084791275919
 20
9919.187356638083
 30
0.0
 11
6028.084791275919
 21
10482.78735663808
 31
0.0
  0
LINE
  5
20F9
330
1A
100
AcDbEntity
  8
点線
 48
50.0
100
AcDbLine
 10
6088.084791275917
 20
9919.187356638083
 30
0.0
 11
6088.084791275917
 21
10482.78735663808
 31
0.0
  0
LINE
  5
20FA
330
1A
100
AcDbEntity
  8
点線
 48
50.0
100
AcDbLine
 10
6028.084791275919
 20
9290.587356638084
 30
0.0
 11
6028.084791275919
 21
9854.187356638085
 31
0.0
  0
LINE
  5
20FB
330
1A
100
AcDbEntity
  8
点線
 48
50.0
100
AcDbLine
 10
6088.084791275917
 20
9290.587356638084
 30
0.0
 11
6088.084791275917
 21
9854.187356638085
 31
0.0
  0
LINE
  5
20FC
330
1A
100
AcDbEntity
  8
点線
 48
50.0
100
AcDbLine
 10
6028.084791275919
 20
8661.987356638082
 30
0.0
 11
6028.084791275919
 21
9225.587356638083
 31
0.0
  0
LINE
  5
20FD
330
1A
100
AcDbEntity
  8
点線
 48
50.0
100
AcDbLine
 10
6088.084791275917
 20
8661.987356638082
 30
0.0
 11
6088.084791275917
 21
9225.587356638083
 31
0.0
  0
LINE
  5
20FE
330
1A
100
AcDbEntity
  8
点線
 48
50.0
100
AcDbLine
 10
6088.084791275917
 20
10583.78735663808
 30
0.0
 11
6028.084791275919
 21
10583.78735663808
 31
0.0
  0
LINE
  5
20FF
330
1A
100
AcDbEntity
  8
部品1
100
AcDbLine
 10
3288.08479127592
 20
10583.78735663808
 30
0.0
 11
3228.08479127592
 21
10583.78735663808
 31
0.0
  0
LINE
  5
2100
330
1A
100
AcDbEntity
  8
点線
 48
50.0
100
AcDbLine
 10
6088.084791275917
 20
8482.287356638083
 30
0.0
 11
6088.084791275917
 21
8596.987356638081
 31
0.0
  0
LINE
  5
2101
330
1A
100
AcDbEntity
  8
点線
 48
50.0
100
AcDbLine
 10
6028.084791275919
 20
8482.287356638083
 30
0.0
 11
6028.084791275919
 21
8596.987356638081
 31
0.0
  0
LINE
  5
2102
330
1A
100
AcDbEntity
  8
部品1
100
AcDbLine
 10
3288.08479127592
 20
10583.78735663808
 30
0.0
 11
3288.08479127592
 21
10547.78735663808
 31
0.0
  0
LINE
  5
2103
330
1A
100
AcDbEntity
  8
部品1
100
AcDbLine
 10
3228.08479127592
 20
10583.78735663808
 30
0.0
 11
3228.08479127592
 21
10547.78735663808
 31
0.0
  0
LINE
  5
2104
330
1A
100
AcDbEntity
  8
点線
 48
50.0
100
AcDbLine
 10
6278.084791275916
 20
8661.987356638078
 30
0.0
 11
4237.394486779304
 21
8661.987356638082
 31
0.0
  0
LINE
  5
2105
330
1A
100
AcDbEntity
  8
点線
 48
50.0
100
AcDbLine
 10
6278.084791275919
 20
9290.587356638082
 30
0.0
 11
4047.742101562604
 21
9290.587356638082
 31
0.0
  0
LINE
  5
2106
330
1A
100
AcDbEntity
  8
点線
 48
50.0
100
AcDbLine
 10
6278.084791275916
 20
9919.187356638083
 30
0.0
 11
3858.089716345907
 21
9919.187356638083
 31
0.0
  0
LINE
  5
2107
330
1A
100
AcDbEntity
  8
点線
 48
50.0
100
AcDbLine
 10
6278.084791275919
 20
10547.78735663808
 30
0.0
 11
3668.437331129206
 21
10547.78735663808
 31
0.0
  0
LINE
  5
2108
330
1A
100
AcDbEntity
  8
点線
 48
50.0
100
AcDbLine
 10
6278.084791275919
 20
8641.987356638081
 30
0.0
 11
4243.42860657621
 21
8641.987356638081
 31
0.0
  0
LINE
  5
2109
330
1A
100
AcDbEntity
  8
点線
 48
50.0
100
AcDbLine
 10
6278.084791275919
 20
8596.987356638081
 30
0.0
 11
4257.005376119244
 21
8596.987356638081
 31
0.0
  0
LINE
  5
210A
330
1A
100
AcDbEntity
  8
点線
 48
50.0
100
AcDbLine
 10
6278.084791275916
 20
9225.587356638081
 30
0.0
 11
4067.352990902544
 21
9225.587356638083
 31
0.0
  0
LINE
  5
210B
330
1A
100
AcDbEntity
  8
点線
 48
50.0
100
AcDbLine
 10
6278.084791275919
 20
9270.587356638083
 30
0.0
 11
4053.776221359508
 21
9270.587356638083
 31
0.0
  0
LINE
  5
210C
330
1A
100
AcDbEntity
  8
点線
 48
50.0
100
AcDbLine
 10
6278.084791275919
 20
9854.187356638085
 30
0.0
 11
3877.700605685845
 21
9854.187356638085
 31
0.0
  0
LINE
  5
210D
330
1A
100
AcDbEntity
  8
点線
 48
50.0
100
AcDbLine
 10
6278.084791275919
 20
9899.187356638083
 30
0.0
 11
3864.123836142809
 21
9899.187356638083
 31
0.0
  0
LINE
  5
210E
330
1A
100
AcDbEntity
  8
点線
 48
50.0
100
AcDbLine
 10
6278.084791275919
 20
10482.78735663808
 30
0.0
 11
3688.048220469145
 21
10482.78735663808
 31
0.0
  0
LINE
  5
210F
330
1A
100
AcDbEntity
  8
点線
 48
50.0
100
AcDbLine
 10
6278.084791275919
 20
10527.78735663808
 30
0.0
 11
3674.47145092611
 21
10527.78735663808
 31
0.0
  0
LINE
  5
2110
330
1A
100
AcDbEntity
  8
センター
 48
10.0
100
AcDbLine
 10
6278.084791275919
 20
8619.487356638083
 30
0.0
 11
3038.08479127592
 21
8619.48735663808
 31
0.0
  0
LINE
  5
2111
330
1A
100
AcDbEntity
  8
センター
 48
10.0
100
AcDbLine
 10
6278.084791275919
 20
9248.087356638082
 30
0.0
 11
3038.084791275922
 21
9248.087356638084
 31
0.0
  0
LINE
  5
2112
330
1A
100
AcDbEntity
  8
センター
 48
10.0
100
AcDbLine
 10
6278.084791275919
 20
9876.687356638084
 30
0.0
 11
3038.08479127592
 21
9876.687356638084
 31
0.0
  0
LINE
  5
2113
330
1A
100
AcDbEntity
  8
センター
 48
10.0
100
AcDbLine
 10
6278.084791275919
 20
10505.28735663808
 30
0.0
 11
3038.08479127592
 21
10505.28735663809
 31
0.0
  0
LINE
  5
2114
330
1A
100
AcDbEntity
  8
部品1
100
AcDbLine
 10
6016.08479127592
 20
10618.28735663808
 30
0.0
 11
6016.08479127592
 21
8482.287356638083
 31
0.0
  0
LINE
  5
2115
330
1A
100
AcDbEntity
  8
部品1
100
AcDbLine
 10
5971.08479127592
 20
10618.28735663808
 30
0.0
 11
5971.08479127592
 21
8482.287356638083
 31
0.0
  0
LINE
  5
2116
330
1A
100
AcDbEntity
  8
部品1
100
AcDbLine
 10
5943.08479127592
 20
10618.28735663808
 30
0.0
 11
5943.08479127592
 21
8482.287356638083
 31
0.0
  0
LINE
  5
2117
330
1A
100
AcDbEntity
  8
部品1
100
AcDbLine
 10
5898.08479127592
 20
10618.28735663808
 30
0.0
 11
5898.08479127592
 21
8482.287356638083
 31
0.0
  0
LINE
  5
2118
330
1A
100
AcDbEntity
  8
部品1
100
AcDbLine
 10
5436.08479127592
 20
10618.28735663808
 30
0.0
 11
5436.08479127592
 21
8482.287356638083
 31
0.0
  0
LINE
  5
2119
330
1A
100
AcDbEntity
  8
部品1
100
AcDbLine
 10
5391.08479127592
 20
10618.28735663808
 30
0.0
 11
5391.08479127592
 21
8482.287356638083
 31
0.0
  0
LINE
  5
211A
330
1A
100
AcDbEntity
  8
部品1
100
AcDbLine
 10
5363.08479127592
 20
10618.28735663808
 30
0.0
 11
5363.08479127592
 21
8482.287356638083
 31
0.0
  0
LINE
  5
211B
330
1A
100
AcDbEntity
  8
部品1
100
AcDbLine
 10
5318.08479127592
 20
10618.28735663808
 30
0.0
 11
5318.08479127592
 21
8482.287356638083
 31
0.0
  0
LINE
  5
211C
330
1A
100
AcDbEntity
  8
部品1
100
AcDbLine
 10
4936.08479127592
 20
10618.28735663808
 30
0.0
 11
4936.08479127592
 21
8482.287356638083
 31
0.0
  0
LINE
  5
211D
330
1A
100
AcDbEntity
  8
部品1
100
AcDbLine
 10
4891.08479127592
 20
10618.28735663808
 30
0.0
 11
4891.08479127592
 21
8482.287356638083
 31
0.0
  0
LINE
  5
211E
330
1A
100
AcDbEntity
  8
部品1
100
AcDbLine
 10
4863.08479127592
 20
10618.28735663808
 30
0.0
 11
4863.08479127592
 21
8482.287356638083
 31
0.0
  0
LINE
  5
211F
330
1A
100
AcDbEntity
  8
部品1
100
AcDbLine
 10
4818.08479127592
 20
10618.28735663808
 30
0.0
 11
4818.08479127592
 21
8482.287356638083
 31
0.0
  0
LINE
  5
2120
330
1A
100
AcDbEntity
  8
部品1
100
AcDbLine
 10
4516.08479127592
 20
10618.28735663808
 30
0.0
 11
4516.08479127592
 21
8482.287356638083
 31
0.0
  0
LINE
  5
2121
330
1A
100
AcDbEntity
  8
部品1
100
AcDbLine
 10
4471.084791275919
 20
10618.28735663808
 30
0.0
 11
4471.084791275919
 21
8482.287356638083
 31
0.0
  0
LINE
  5
2122
330
1A
100
AcDbEntity
  8
部品1
100
AcDbLine
 10
4443.08479127592
 20
10618.28735663808
 30
0.0
 11
4443.08479127592
 21
8482.287356638083
 31
0.0
  0
LINE
  5
2123
330
1A
100
AcDbEntity
  8
部品1
100
AcDbLine
 10
4398.08479127592
 20
10618.28735663808
 30
0.0
 11
4398.08479127592
 21
8482.287356638083
 31
0.0
  0
LINE
  5
2124
330
1A
100
AcDbEntity
  8
部品1
100
AcDbLine
 10
4016.08479127592
 20
10618.28735663808
 30
0.0
 11
4016.08479127592
 21
9395.51503905807
 31
0.0
  0
LINE
  5
2125
330
1A
100
AcDbEntity
  8
部品1
100
AcDbLine
 10
3971.08479127592
 20
10618.28735663808
 30
0.0
 11
3971.08479127592
 21
9544.666867376385
 31
0.0
  0
LINE
  5
2126
330
1A
100
AcDbEntity
  8
部品1
100
AcDbLine
 10
3943.08479127592
 20
10618.28735663808
 30
0.0
 11
3943.08479127592
 21
9637.472449441112
 31
0.0
  0
LINE
  5
2127
330
1A
100
AcDbEntity
  8
部品1
100
AcDbLine
 10
3898.08479127592
 20
10618.28735663808
 30
0.0
 11
3898.08479127592
 21
9786.624277759429
 31
0.0
  0
LINE
  5
2128
330
1A
100
AcDbEntity
  8
部品1
100
AcDbLine
 10
5681.084791275918
 20
8482.287356638083
 30
0.0
 11
5681.084791275918
 21
10618.28735663808
 31
0.0
  0
LINE
  5
2129
330
1A
100
AcDbEntity
  8
部品1
100
AcDbLine
 10
5646.584791275918
 20
8482.287356638083
 30
0.0
 11
5646.584791275918
 21
10618.28735663808
 31
0.0
  0
LINE
  5
212A
330
1A
100
AcDbEntity
  8
部品1
100
AcDbLine
 10
5101.08479127592
 20
8482.287356638083
 30
0.0
 11
5101.08479127592
 21
10618.28735663808
 31
0.0
  0
LINE
  5
212B
330
1A
100
AcDbEntity
  8
部品1
100
AcDbLine
 10
5066.58479127592
 20
8482.287356638083
 30
0.0
 11
5066.58479127592
 21
10618.28735663808
 31
0.0
  0
LINE
  5
212C
330
1A
100
AcDbEntity
  8
部品1
100
AcDbLine
 10
4681.08479127592
 20
10618.28735663808
 30
0.0
 11
4681.08479127592
 21
8482.287356638083
 31
0.0
  0
LINE
  5
212D
330
1A
100
AcDbEntity
  8
部品1
100
AcDbLine
 10
4646.58479127592
 20
10618.28735663808
 30
0.0
 11
4646.58479127592
 21
8482.287356638083
 31
0.0
  0
LINE
  5
212E
330
1A
100
AcDbEntity
  8
部品1
100
AcDbLine
 10
4261.084791275919
 20
10618.28735663808
 30
0.0
 11
4261.084791275919
 21
8583.466195991688
 31
0.0
  0
LINE
  5
212F
330
1A
100
AcDbEntity
  8
部品1
100
AcDbLine
 10
4226.58479127592
 20
10618.28735663808
 30
0.0
 11
4226.584791275922
 21
8697.81593103573
 31
0.0
  0
LINE
  5
2130
330
1A
100
AcDbEntity
  8
部品1
100
AcDbLine
 10
3681.08479127592
 20
10618.28735663808
 30
0.0
 11
3681.08479127592
 21
10505.86753876108
 31
0.0
  0
LINE
  5
2131
330
1A
100
AcDbEntity
  8
部品1
100
AcDbLine
 10
3056.58479127592
 20
10722.78735663808
 30
0.0
 11
3035.58479127592
 21
10722.78735663808
 31
0.0
  0
LINE
  5
2132
330
1A
100
AcDbEntity
  8
部品1
100
AcDbLine
 10
3056.58479127592
 20
10722.78735663808
 30
0.0
 11
3056.58479127592
 21
10618.28735663808
 31
0.0
  0
ARC
  5
2133
330
1A
100
AcDbEntity
  8
部品1
100
AcDbCircle
 10
6298.084791275918
 20
10732.28735663808
 30
0.0
 40
10.0
100
AcDbArc
 50
0.0
 51
90.0
  0
LINE
  5
2134
330
1A
100
AcDbEntity
  8
部品1
100
AcDbLine
 10
6259.584791275912
 20
10618.28735663808
 30
0.0
 11
6259.584791275918
 21
10722.78735663808
 31
0.0
  0
ARC
  5
2135
330
1A
100
AcDbEntity
  8
部品1
100
AcDbCircle
 10
6280.584791275918
 20
10727.78735663808
 30
0.0
 40
5.0
100
AcDbArc
 50
270.0
 51
0.0
  0
LINE
  5
2136
330
1A
100
AcDbEntity
  8
部品1
100
AcDbLine
 10
6285.584791275918
 20
10727.78735663808
 30
0.0
 11
6285.58479127592
 21
10742.28735663808
 31
0.0
  0
ARC
  5
2137
330
1A
100
AcDbEntity
  8
部品1
100
AcDbCircle
 10
3035.58479127592
 20
10727.78735663808
 30
0.0
 40
5.0
100
AcDbArc
 50
180.0
 51
270.0
  0
LINE
  5
2138
330
1A
100
AcDbEntity
  8
部品1
100
AcDbLine
 10
6280.584791275918
 20
10722.78735663808
 30
0.0
 11
6259.58479127592
 21
10722.78735663808
 31
0.0
  0
LINE
  5
2139
330
1A
100
AcDbEntity
  8
部品1
100
AcDbLine
 10
3030.58479127592
 20
10742.28735663808
 30
0.0
 11
3030.58479127592
 21
10727.78735663808
 31
0.0
  0
LINE
  5
213A
330
1A
100
AcDbEntity
  8
部品1
100
AcDbLine
 10
6238.084791275922
 20
8482.287356638083
 30
0.0
 11
6238.08479127592
 21
10618.28735663808
 31
0.0
  0
LINE
  5
213B
330
1A
100
AcDbEntity
  8
部品1
100
AcDbLine
 10
3053.08479127592
 20
8482.287356638083
 30
0.0
 11
6263.084791275918
 21
8482.287356638083
 31
0.0
  0
LINE
  5
213C
330
1A
100
AcDbEntity
  8
部品1
100
AcDbLine
 10
3008.08479127592
 20
8342.287356638085
 30
0.0
 11
6308.08479127592
 21
8342.287356638085
 31
0.0
  0
LINE
  5
213D
330
1A
100
AcDbEntity
  8
部品1
100
AcDbLine
 10
6259.584791275912
 20
10618.28735663808
 30
0.0
 11
3056.58479127592
 21
10618.28735663808
 31
0.0
  0
LINE
  5
213E
330
1A
100
AcDbEntity
  8
部品1
100
AcDbLine
 10
6298.084791275918
 20
10742.28735663808
 30
0.0
 11
3018.08479127592
 21
10742.28735663808
 31
0.0
  0
VIEWPORT
  5
22
102
{ACAD_XDICTIONARY
360
2633
102
}
330
17
100
AcDbEntity
 67
     1
  8
0
100
AcDbViewport
 10
261.5176991150442
 20
154.7242978687078
 30
0.0
 40
523.0353982300885
 41
309.4485957374157
 68
     1
 69
     1
 12
261.5176991150442
 22
154.7242978687078
 13
0.0
 23
0.0
 14
1.0
 24
1.0
 15
10.0
 25
10.0
 16
0.0
 26
0.0
 36
1.0
 17
0.0
 27
0.0
 37
0.0
 42
50.0
 43
0.0
 44
0.0
 45
309.4485957374157
 50
0.0
 51
0.0
 72
   100
 90
    32768
  1

281
     0
 71
     1
 74
     0
110
0.0
120
0.0
130
0.0
111
1.0
121
0.0
131
0.0
112
0.0
122
1.0
132
0.0
 79
     0
146
0.0
  0
ENDSEC
  0
SECTION
  2
OBJECTS
  0
DICTIONARY
  5
C
330
0
100
AcDbDictionary
281
     1
  3
ACAD_COLOR
350
17B3
  3
ACAD_GROUP
350
D
  3
ACAD_LAYOUT
350
17B4
  3
ACAD_MATERIAL
350
17B2
  3
ACAD_MLINESTYLE
350
E
  3
ACAD_PLOTSETTINGS
350
17B5
  3
ACAD_PLOTSTYLENAME
350
17B0
  3
ACDBHEADERROUNDTRIPXREC
350
2630
  3
AcDbVariableDictionary
350
262C
  0
DICTIONARY
  5
17DD
330
2
100
AcDbDictionary
280
     1
281
     1
  3
ACAD_LAYERFILTERS
360
18C5
  3
ACAD_LAYERSTATES
360
17DE
  0
DICTIONARY
  5
2633
330
22
100
AcDbDictionary
280
     1
281
     1
  3
ACAD_XREC_ROUNDTRIP
360
2634
  0
DICTIONARY
  5
17B3
102
{ACAD_REACTORS
330
C
102
}
330
C
100
AcDbDictionary
281
     1
  0
DICTIONARY
  5
D
102
{ACAD_REACTORS
330
C
102
}
330
C
100
AcDbDictionary
281
     1
  0
DICTIONARY
  5
17B4
102
{ACAD_REACTORS
330
C
102
}
330
C
100
AcDbDictionary
281
     1
  3
Model
350
17B6
  3
レイアウト1
350
17B7
  0
DICTIONARY
  5
17B2
102
{ACAD_REACTORS
330
C
102
}
330
C
100
AcDbDictionary
281
     1
  0
DICTIONARY
  5
E
102
{ACAD_REACTORS
330
C
102
}
330
C
100
AcDbDictionary
281
     1
  3
STANDARD
350
13
  0
DICTIONARY
  5
17B5
102
{ACAD_REACTORS
330
C
102
}
330
C
100
AcDbDictionary
281
     1
  0
ACDBDICTIONARYWDFLT
  5
17B0
102
{ACAD_REACTORS
330
C
102
}
330
C
100
AcDbDictionary
281
     1
  3
Normal
350
17B1
100
AcDbDictionaryWithDefault
340
17B1
  0
DICTIONARY
  5
2630
102
{ACAD_REACTORS
330
C
102
}
330
C
100
AcDbDictionary
281
     1
  3
COLORDICT
350
2632
  3
MATERIALDICT
350
2631
  0
DICTIONARY
  5
262C
102
{ACAD_REACTORS
330
C
102
}
330
C
100
AcDbDictionary
281
     1
  3
DIMASSOC
350
262D
  3
PROJECTNAME
350
262E
  0
DICTIONARY
  5
18C5
102
{ACAD_REACTORS
330
17DD
102
}
330
17DD
100
AcDbDictionary
281
     1
  0
DICTIONARY
  5
17DE
102
{ACAD_REACTORS
330
17DD
102
}
330
17DD
100
AcDbDictionary
281
     1
  0
XRECORD
  5
2634
102
{ACAD_REACTORS
330
2633
102
}
330
2633
100
AcDbXrecord
280
     1
102
SHADEPLOT
 70
     0
  0
LAYOUT
  5
17B6
102
{ACAD_XDICTIONARY
360
2635
102
}
102
{ACAD_REACTORS
330
17B4
102
}
330
17B4
100
AcDbPlotSettings
  1

  2
iR C3880
  4
A3
  6

 40
5.873749732971191
 41
5.873747825622558
 42
5.873748779296875
 43
5.873748779296875
 44
296.9259948730469
 45
419.9466552734374
 46
0.0
 47
0.0
 48
0.0
 49
0.0
140
0.0
141
0.0
142
1.0
143
40.0
 70
 11952
 72
     1
 73
     1
 74
     2
  7
inaba.ctb
 75
    24
147
0.025
148
0.0
149
0.0
100
AcDbLayout
  1
Model
 70
     1
 71
     0
 10
0.0
 20
0.0
 11
12.0
 21
9.0
 12
0.0
 22
0.0
 32
0.0
 14
0.0
 24
0.0
 34
0.0
 15
0.0
 25
0.0
 35
0.0
146
0.0
 13
0.0
 23
0.0
 33
0.0
 16
1.0
 26
0.0
 36
0.0
 17
0.0
 27
1.0
 37
0.0
 76
     0
330
1A
  0
LAYOUT
  5
17B7
102
{ACAD_XDICTIONARY
360
2637
102
}
102
{ACAD_REACTORS
330
17B4
102
}
330
17B4
100
AcDbPlotSettings
  1

  2
自動 EPSON LP-8400FX (TATENO 上)
  4

  6

 40
0.0
 41
0.0
 42
0.0
 43
0.0
 44
0.0
 45
0.0
 46
0.0
 47
0.0
 48
0.0
 49
0.0
140
0.0
141
0.0
142
1.0
143
1.0
 70
   688
 72
     0
 73
     0
 74
     5
  7
inaba.ctb
 75
    16
147
1.0
148
0.0
149
0.0
100
AcDbLayout
  1
レイアウト1
 70
     1
 71
     1
 10
0.0
 20
0.0
 11
420.0
 21
297.0
 12
0.0
 22
0.0
 32
0.0
 14
1.000000000000000E+20
 24
1.000000000000000E+20
 34
1.000000000000000E+20
 15
-1.000000000000000E+20
 25
-1.000000000000000E+20
 35
-1.000000000000000E+20
146
0.0
 13
0.0
 23
0.0
 33
0.0
 16
1.0
 26
0.0
 36
0.0
 17
0.0
 27
1.0
 37
0.0
 76
     0
330
17
331
22
  0
MLINESTYLE
  5
13
102
{ACAD_REACTORS
330
E
102
}
330
E
100
AcDbMlineStyle
  2
STANDARD
 70
     0
  3

 62
     0
 51
90.0
 52
90.0
 71
     2
 49
0.5
 62
   256
  6
BYLAYER
 49
-0.5
 62
   256
  6
BYLAYER
  0
ACDBPLACEHOLDER
  5
17B1
102
{ACAD_REACTORS
330
17B0
102
}
330
17B0
  0
XRECORD
  5
2632
102
{ACAD_REACTORS
330
2630
102
}
330
2630
100
AcDbXrecord
280
     1
340
17B3
  0
XRECORD
  5
2631
102
{ACAD_REACTORS
330
2630
102
}
330
2630
100
AcDbXrecord
280
     1
340
17B2
  0
DICTIONARYVAR
  5
262D
102
{ACAD_REACTORS
330
262C
102
}
330
262C
100
DictionaryVariables
280
     0
  1
1
  0
DICTIONARYVAR
  5
262E
102
{ACAD_REACTORS
330
262C
102
}
330
262C
100
DictionaryVariables
280
     0
  1

  0
DICTIONARY
  5
2635
330
17B6
100
AcDbDictionary
280
     1
281
     1
  3
ACAD_XREC_ROUNDTRIP
360
2636
  0
DICTIONARY
  5
2637
330
17B7
100
AcDbDictionary
280
     1
281
     1
  3
ACAD_XREC_ROUNDTRIP
360
2638
  0
XRECORD
  5
2636
102
{ACAD_REACTORS
330
2635
102
}
330
2635
100
AcDbXrecord
280
     1
102
SHADEPLOT
 70
     0
102
SHADEPLOTRESLEVEL
 70
     2
102
SHADEPLOTCUSTOMDPI
 70
   300
  0
XRECORD
  5
2638
102
{ACAD_REACTORS
330
2637
102
}
330
2637
100
AcDbXrecord
280
     1
102
SHADEPLOT
 70
     0
102
SHADEPLOTRESLEVEL
 70
     2
102
SHADEPLOTCUSTOMDPI
 70
   300
  0
ENDSEC
  0
EOF
