  0
SECTION
  2
HEADER
  9
$ACADVER
  1
AC1015
  9
$ACADMAINTVER
 70
    20
  9
$DWGCODEPAGE
  3
ANSI_932
  9
$INSBASE
 10
0.0
 20
0.0
 30
0.0
  9
$EXTMIN
 10
127.6611720766668
 20
263.39175159972
 30
-0.0000000000000058
  9
$EXTMAX
 10
16296.78958931098
 20
10886.97878626987
 30
0.0000000000000104
  9
$LIMMIN
 10
0.0
 20
0.0
  9
$LIMMAX
 10
16800.0
 20
11880.0
  9
$ORTHOMODE
 70
     0
  9
$REGENMODE
 70
     1
  9
$FILLMODE
 70
     1
  9
$QTEXTMODE
 70
     0
  9
$MIRRTEXT
 70
     1
  9
$LTSCALE
 40
7.0
  9
$ATTMODE
 70
     1
  9
$TEXTSIZE
 40
3.5
  9
$TRACEWID
 40
1.0
  9
$TEXTSTYLE
  7
MSGOTHIC
  9
$CLAYER
  8
点線
  9
$CELTYPE
  6
BYLAYER
  9
$CECOLOR
 62
   256
  9
$CELTSCALE
 40
50.0
  9
$DISPSILH
 70
     0
  9
$DIMSCALE
 40
40.0
  9
$DIMASZ
 40
2.5
  9
$DIMEXO
 40
1.0
  9
$DIMDLI
 40
7.0
  9
$DIMRND
 40
0.0
  9
$DIMDLE
 40
0.0
  9
$DIMEXE
 40
1.0
  9
$DIMTP
 40
0.0
  9
$DIMTM
 40
0.0
  9
$DIMTXT
 40
3.0
  9
$DIMCEN
 40
2.5
  9
$DIMTSZ
 40
0.0
  9
$DIMTOL
 70
     0
  9
$DIMLIM
 70
     0
  9
$DIMTIH
 70
     0
  9
$DIMTOH
 70
     0
  9
$DIMSE1
 70
     0
  9
$DIMSE2
 70
     0
  9
$DIMTAD
 70
     3
  9
$DIMZIN
 70
     8
  9
$DIMBLK
  1

  9
$DIMASO
 70
     1
  9
$DIMSHO
 70
     1
  9
$DIMPOST
  1

  9
$DIMAPOST
  1

  9
$DIMALT
 70
     0
  9
$DIMALTD
 70
     2
  9
$DIMALTF
 40
0.0394
  9
$DIMLFAC
 40
1.0
  9
$DIMTOFL
 70
     0
  9
$DIMTVP
 40
1.0
  9
$DIMTIX
 70
     0
  9
$DIMSOXD
 70
     0
  9
$DIMSAH
 70
     1
  9
$DIMBLK1
  1
DOTSMALL
  9
$DIMBLK2
  1
DOTSMALL
  9
$DIMSTYLE
  2
物置仕様図40
  9
$DIMCLRD
 70
     4
  9
$DIMCLRE
 70
     4
  9
$DIMCLRT
 70
     7
  9
$DIMTFAC
 40
1.0
  9
$DIMGAP
 40
1.0
  9
$DIMJUST
 70
     0
  9
$DIMSD1
 70
     0
  9
$DIMSD2
 70
     0
  9
$DIMTOLJ
 70
     1
  9
$DIMTZIN
 70
     8
  9
$DIMALTZ
 70
     0
  9
$DIMALTTZ
 70
     0
  9
$DIMUPT
 70
     0
  9
$DIMDEC
 70
     2
  9
$DIMTDEC
 70
     2
  9
$DIMALTU
 70
     2
  9
$DIMALTTD
 70
     2
  9
$DIMTXSTY
  7
STANDARD
  9
$DIMAUNIT
 70
     0
  9
$DIMADEC
 70
     0
  9
$DIMALTRND
 40
0.0
  9
$DIMAZIN
 70
     0
  9
$DIMDSEP
 70
    46
  9
$DIMATFIT
 70
     3
  9
$DIMFRAC
 70
     0
  9
$DIMLDRBLK
  1

  9
$DIMLUNIT
 70
     2
  9
$DIMLWD
 70
    -2
  9
$DIMLWE
 70
    -2
  9
$DIMTMOVE
 70
     2
  9
$LUNITS
 70
     2
  9
$LUPREC
 70
     1
  9
$SKETCHINC
 40
1.0
  9
$FILLETRAD
 40
70.0
  9
$AUNITS
 70
     0
  9
$AUPREC
 70
     1
  9
$MENU
  1
.
  9
$ELEVATION
 40
0.0
  9
$PELEVATION
 40
0.0
  9
$THICKNESS
 40
0.0
  9
$LIMCHECK
 70
     0
  9
$CHAMFERA
 40
400.0
  9
$CHAMFERB
 40
400.0
  9
$CHAMFERC
 40
800.0
  9
$CHAMFERD
 40
0.0
  9
$SKPOLY
 70
     0
  9
$TDCREATE
 40
2450696.487780324
  9
$TDUCREATE
 40
2450696.112780324
  9
$TDUPDATE
 40
2455579.594782072
  9
$TDUUPDATE
 40
2455579.219782072
  9
$TDINDWG
 40
0.7180146065
  9
$TDUSRTIMER
 40
0.7180146065
  9
$USRTIMER
 70
     1
  9
$ANGBASE
 50
0.0
  9
$ANGDIR
 70
     0
  9
$PDMODE
 70
     0
  9
$PDSIZE
 40
0.0
  9
$PLINEWID
 40
0.0
  9
$SPLFRAME
 70
     0
  9
$SPLINETYPE
 70
     6
  9
$SPLINESEGS
 70
     8
  9
$HANDSEED
  5
2F9F
  9
$SURFTAB1
 70
     6
  9
$SURFTAB2
 70
     6
  9
$SURFTYPE
 70
     6
  9
$SURFU
 70
     6
  9
$SURFV
 70
     6
  9
$UCSBASE
  2

  9
$UCSNAME
  2

  9
$UCSORG
 10
0.0
 20
0.0
 30
0.0
  9
$UCSXDIR
 10
1.0
 20
0.0
 30
0.0
  9
$UCSYDIR
 10
0.0
 20
1.0
 30
0.0
  9
$UCSORTHOREF
  2

  9
$UCSORTHOVIEW
 70
     0
  9
$UCSORGTOP
 10
0.0
 20
0.0
 30
0.0
  9
$UCSORGBOTTOM
 10
0.0
 20
0.0
 30
0.0
  9
$UCSORGLEFT
 10
0.0
 20
0.0
 30
0.0
  9
$UCSORGRIGHT
 10
0.0
 20
0.0
 30
0.0
  9
$UCSORGFRONT
 10
0.0
 20
0.0
 30
0.0
  9
$UCSORGBACK
 10
0.0
 20
0.0
 30
0.0
  9
$PUCSBASE
  2

  9
$PUCSNAME
  2

  9
$PUCSORG
 10
0.0
 20
0.0
 30
0.0
  9
$PUCSXDIR
 10
1.0
 20
0.0
 30
0.0
  9
$PUCSYDIR
 10
0.0
 20
1.0
 30
0.0
  9
$PUCSORTHOREF
  2

  9
$PUCSORTHOVIEW
 70
     0
  9
$PUCSORGTOP
 10
0.0
 20
0.0
 30
0.0
  9
$PUCSORGBOTTOM
 10
0.0
 20
0.0
 30
0.0
  9
$PUCSORGLEFT
 10
0.0
 20
0.0
 30
0.0
  9
$PUCSORGRIGHT
 10
0.0
 20
0.0
 30
0.0
  9
$PUCSORGFRONT
 10
0.0
 20
0.0
 30
0.0
  9
$PUCSORGBACK
 10
0.0
 20
0.0
 30
0.0
  9
$USERI1
 70
     0
  9
$USERI2
 70
     0
  9
$USERI3
 70
     0
  9
$USERI4
 70
     0
  9
$USERI5
 70
     0
  9
$USERR1
 40
0.0
  9
$USERR2
 40
0.0
  9
$USERR3
 40
0.0
  9
$USERR4
 40
0.0
  9
$USERR5
 40
0.0
  9
$WORLDVIEW
 70
     1
  9
$SHADEDGE
 70
     3
  9
$SHADEDIF
 70
    70
  9
$TILEMODE
 70
     1
  9
$MAXACTVP
 70
    16
  9
$PINSBASE
 10
0.0
 20
0.0
 30
0.0
  9
$PLIMCHECK
 70
     0
  9
$PEXTMIN
 10
1.000000000000000E+20
 20
1.000000000000000E+20
 30
1.000000000000000E+20
  9
$PEXTMAX
 10
-1.000000000000000E+20
 20
-1.000000000000000E+20
 30
-1.000000000000000E+20
  9
$PLIMMIN
 10
0.0
 20
0.0
  9
$PLIMMAX
 10
420.0
 20
297.0
  9
$UNITMODE
 70
     0
  9
$VISRETAIN
 70
     0
  9
$PLINEGEN
 70
     0
  9
$PSLTSCALE
 70
     1
  9
$TREEDEPTH
 70
  3020
  9
$CMLSTYLE
  2
STANDARD
  9
$CMLJUST
 70
     0
  9
$CMLSCALE
 40
1.0
  9
$PROXYGRAPHICS
 70
     1
  9
$MEASUREMENT
 70
     1
  9
$CELWEIGHT
370
    -1
  9
$ENDCAPS
280
     0
  9
$JOINSTYLE
280
     0
  9
$LWDISPLAY
290
     0
  9
$INSUNITS
 70
     0
  9
$HYPERLINKBASE
  1

  9
$STYLESHEET
  1
inaba.ctb
  9
$XEDIT
290
     1
  9
$CEPSNTYPE
380
     0
  9
$PSTYLEMODE
290
     1
  9
$FINGERPRINTGUID
  2
{3E7DBE64-0C8B-4A38-AEEF-CDB144859C6F}
  9
$VERSIONGUID
  2
{03C19311-BECB-46DE-B64C-5FC112491AE5}
  9
$EXTNAMES
290
     1
  9
$PSVPSCALE
 40
0.0
  9
$OLESTARTUP
290
     0
  0
ENDSEC
  0
SECTION
  2
CLASSES
  0
CLASS
  1
ACDBDICTIONARYWDFLT
  2
AcDbDictionaryWithDefault
  3
ObjectDBX Classes
 90
        0
280
     0
281
     0
  0
CLASS
  1
DICTIONARYVAR
  2
AcDbDictionaryVar
  3
ObjectDBX Classes
 90
        0
280
     0
281
     0
  0
CLASS
  1
ACDBPLACEHOLDER
  2
AcDbPlaceHolder
  3
ObjectDBX Classes
 90
        0
280
     0
281
     0
  0
CLASS
  1
LAYOUT
  2
AcDbLayout
  3
ObjectDBX Classes
 90
        0
280
     0
281
     0
  0
ENDSEC
  0
SECTION
  2
TABLES
  0
TABLE
  2
VPORT
  5
8
330
0
100
AcDbSymbolTable
 70
     3
  0
VPORT
  5
2F95
330
8
100
AcDbSymbolTableRecord
100
AcDbViewportTableRecord
  2
*Active
 70
     0
 10
0.0
 20
0.0
 11
1.0
 21
1.0
 12
8212.225380693825
 22
5575.185268934796
 13
0.0
 23
0.0
 14
420.0
 24
420.0
 15
420.0
 25
420.0
 16
0.0
 26
0.0
 36
1.0
 17
0.0
 27
0.0
 37
0.0
 40
10779.08551472664
 41
1.5075
 42
50.0
 43
0.0
 44
0.0
 50
0.0
 51
0.0
 71
     0
 72
   100
 73
     1
 74
     0
 75
     0
 76
     0
 77
     0
 78
     1
281
     0
 65
     1
110
0.0
120
0.0
130
0.0
111
1.0
121
0.0
131
0.0
112
0.0
122
1.0
132
0.0
 79
     0
146
0.0
  0
ENDTAB
  0
TABLE
  2
LTYPE
  5
5
330
0
100
AcDbSymbolTable
 70
     3
  0
LTYPE
  5
14
330
5
100
AcDbSymbolTableRecord
100
AcDbLinetypeTableRecord
  2
BYBLOCK
 70
     0
  3

 72
    65
 73
     0
 40
0.0
  0
LTYPE
  5
15
330
5
100
AcDbSymbolTableRecord
100
AcDbLinetypeTableRecord
  2
BYLAYER
 70
     0
  3

 72
    65
 73
     0
 40
0.0
  0
LTYPE
  5
16
330
5
100
AcDbSymbolTableRecord
100
AcDbLinetypeTableRecord
  2
CONTINUOUS
 70
     0
  3
Solid line
 72
    65
 73
     0
 40
0.0
  0
LTYPE
  5
61
330
5
100
AcDbSymbolTableRecord
100
AcDbLinetypeTableRecord
  2
CENTER
 70
     0
  3
____ _ ____ _ ____ _ ____ _ ____ _ ____ _ ____ 
 72
    65
 73
     4
 40
2.0
 49
1.25
 74
     0
 49
-0.25
 74
     0
 49
0.25
 74
     0
 49
-0.25
 74
     0
  0
LTYPE
  5
62
330
5
100
AcDbSymbolTableRecord
100
AcDbLinetypeTableRecord
  2
HIDDEN
 70
     0
  3
__ __ __ __ __ __ __ __ __ __ __ __ __ __ __ __
 72
    65
 73
     2
 40
0.375
 49
0.25
 74
     0
 49
-0.125
 74
     0
  0
ENDTAB
  0
TABLE
  2
LAYER
  5
2
102
{ACAD_XDICTIONARY
360
210C
102
}
330
0
100
AcDbSymbolTable
 70
    10
  0
LAYER
  5
F
330
2
100
AcDbSymbolTableRecord
100
AcDbLayerTableRecord
  2
0
 70
     0
 62
     7
  6
CONTINUOUS
370
    -3
390
20DF
  0
LAYER
  5
63
330
2
100
AcDbSymbolTableRecord
100
AcDbLayerTableRecord
  2
細線
 70
     0
 62
     5
  6
CONTINUOUS
370
    -3
390
20DF
  0
LAYER
  5
64
330
2
100
AcDbSymbolTableRecord
100
AcDbLayerTableRecord
  2
寸法
 70
     0
 62
     4
  6
CONTINUOUS
370
    -3
390
20DF
  0
LAYER
  5
65
330
2
100
AcDbSymbolTableRecord
100
AcDbLayerTableRecord
  2
センター
 70
     0
 62
     3
  6
CENTER
370
    -3
390
20DF
  0
LAYER
  5
92A
330
2
100
AcDbSymbolTableRecord
100
AcDbLayerTableRecord
  2
DEFPOINTS
 70
     0
 62
     7
  6
CONTINUOUS
290
     0
370
    -3
390
20DF
  0
LAYER
  5
1813
330
2
100
AcDbSymbolTableRecord
100
AcDbLayerTableRecord
  2
Ｇ．Ｌ
 70
     0
 62
    30
  6
CONTINUOUS
370
    -3
390
20DF
  0
LAYER
  5
183D
330
2
100
AcDbSymbolTableRecord
100
AcDbLayerTableRecord
  2
文字
 70
     0
 62
     7
  6
CONTINUOUS
370
    -3
390
20DF
  0
LAYER
  5
183E
330
2
100
AcDbSymbolTableRecord
100
AcDbLayerTableRecord
  2
仕様書枠
 70
     0
 62
   230
  6
CONTINUOUS
370
    -3
390
20DF
  0
LAYER
  5
20B1
330
2
100
AcDbSymbolTableRecord
100
AcDbLayerTableRecord
  2
部品1
 70
     0
 62
     7
  6
CONTINUOUS
370
    -3
390
20DF
  0
LAYER
  5
21A8
330
2
100
AcDbSymbolTableRecord
100
AcDbLayerTableRecord
  2
点線
 70
     0
 62
     2
  6
HIDDEN
370
    -3
390
20DF
  0
ENDTAB
  0
TABLE
  2
STYLE
  5
3
330
0
100
AcDbSymbolTable
 70
     6
  0
STYLE
  5
10
330
3
100
AcDbSymbolTableRecord
100
AcDbTextStyleTableRecord
  2
STANDARD
 70
     0
 40
0.0
 41
1.0
 50
0.0
 71
     0
 42
120.0
  3
ISOCP
  4
C:\Program Files\AutoCAD LT\bigfont.shx
  0
STYLE
  5
373
330
3
100
AcDbSymbolTableRecord
100
AcDbTextStyleTableRecord
  2
MSGOTHIC
 70
     0
 40
0.0
 41
1.0
 50
0.0
 71
     0
 42
3.5
  3
MS PGothic.ttf
  4

1001
ACAD
1000
MS PGothic
1071
    32818
  0
STYLE
  5
374
330
3
100
AcDbSymbolTableRecord
100
AcDbTextStyleTableRecord
  2
MSMINCHO
 70
     0
 40
0.0
 41
1.0
 50
0.0
 71
     0
 42
1.199999999999999
  3
msminch2.TTF
  4

  0
STYLE
  5
183F
330
3
100
AcDbSymbolTableRecord
100
AcDbTextStyleTableRecord
  2
STYLE2
 70
     0
 40
0.0
 41
1.0
 50
0.0
 71
     0
 42
100.0
  3
MS PGothic.ttf
  4

1001
ACAD
1000
MS PGothic
1071
    32818
  0
STYLE
  5
210A
330
3
100
AcDbSymbolTableRecord
100
AcDbTextStyleTableRecord
  2
STYLE1
 70
     0
 40
0.0
 41
1.0
 50
0.0
 71
     0
 42
4.0
  3
isocp.shx
  4
bigfont.shx
  0
STYLE
  5
229C
330
3
100
AcDbSymbolTableRecord
100
AcDbTextStyleTableRecord
  2

 70
     1
 40
0.0
 41
1.0
 50
0.0
 71
     0
 42
120.0
  3
ltypeshp.shx
  4

  0
ENDTAB
  0
TABLE
  2
VIEW
  5
6
330
0
100
AcDbSymbolTable
 70
     0
  0
ENDTAB
  0
TABLE
  2
UCS
  5
7
330
0
100
AcDbSymbolTable
 70
     0
  0
ENDTAB
  0
TABLE
  2
APPID
  5
9
330
0
100
AcDbSymbolTable
 70
     1
  0
APPID
  5
11
330
9
100
AcDbSymbolTableRecord
100
AcDbRegAppTableRecord
  2
ACAD
 70
     0
  0
ENDTAB
  0
TABLE
  2
DIMSTYLE
  5
A
330
0
100
AcDbSymbolTable
 70
     2
100
AcDbDimStyleTable
 71
     1
340
92
  0
DIMSTYLE
105
1D
330
A
100
AcDbSymbolTableRecord
100
AcDbDimStyleTableRecord
  2
STANDARD
 70
     0
340
10
  0
DIMSTYLE
105
92
102
{ACAD_REACTORS
330
2787
330
278A
330
278B
330
278C
330
2791
330
27A4
330
27A5
330
27A7
330
27BF
330
27E8
330
2824
330
286F
330
2875
330
2879
330
287A
330
2894
330
2895
330
2896
330
28B5
330
28B6
330
28E8
330
293F
330
297E
330
2991
330
2992
330
29A6
330
29B4
330
29B8
330
29B9
330
29BB
330
2A0C
330
2A61
102
}
330
A
100
AcDbSymbolTableRecord
100
AcDbDimStyleTableRecord
  2
物置仕様図40
 70
     0
 40
40.0
 41
2.5
 42
1.0
 43
7.0
 44
1.0
 73
     0
 74
     0
 77
     3
 78
     8
140
3.0
141
2.5
143
0.0394
145
1.0
147
1.0
173
     1
176
     4
177
     4
178
     7
271
     2
272
     2
279
     2
284
     8
340
10
341
14F1
343
14F1
344
14F1
  0
ENDTAB
  0
TABLE
  2
BLOCK_RECORD
  5
1
330
0
100
AcDbSymbolTable
 70
    35
  0
BLOCK_RECORD
  5
1A
330
1
100
AcDbSymbolTableRecord
100
AcDbBlockTableRecord
  2
*MODEL_SPACE
340
20E4
  0
BLOCK_RECORD
  5
17
330
1
100
AcDbSymbolTableRecord
100
AcDbBlockTableRecord
  2
*PAPER_SPACE
340
20E5
  0
BLOCK_RECORD
  5
14F1
330
1
100
AcDbSymbolTableRecord
100
AcDbBlockTableRecord
  2
_DOTSMALL
340
0
102
{BLKREFS
331
243B
331
243C
331
243D
331
243E
331
27ED
331
2E52
331
2E53
331
2E62
331
2E63
331
2E6C
331
2E6D
331
2E73
331
2E74
331
2E7C
331
2E7D
331
2E84
331
2E85
331
2E95
331
2E96
331
2E9F
331
2EA0
331
2EA6
331
2EA7
331
2EAF
331
2EB0
331
2EB9
331
2EBA
331
2EC0
331
2EC1
331
2ED2
331
2ED3
331
2EDA
331
2EDB
331
2EE1
331
2EE2
331
2EE9
331
2EEA
331
2EF2
331
2EF3
331
2EF9
331
2EFA
331
2F03
331
2F04
331
2F0B
331
2F0C
331
2F14
331
2F15
331
2F1D
331
2F1E
331
2F25
331
2F26
331
2F2E
331
2F2F
331
2F37
331
2F38
331
2F40
331
2F41
331
2F48
331
2F49
331
2F52
331
2F53
331
2F5B
331
2F5C
331
2F63
331
2F64
331
2F6B
331
2F6C
331
2F8C
331
2F8D
102
}
  0
BLOCK_RECORD
  5
23FA
330
1
100
AcDbSymbolTableRecord
100
AcDbBlockTableRecord
  2
A$C7B4F3240
340
0
102
{BLKREFS
331
2786
102
}
  0
BLOCK_RECORD
  5
2436
330
1
100
AcDbSymbolTableRecord
100
AcDbBlockTableRecord
  2
A$C384156AA
340
0
102
{BLKREFS
331
2A63
102
}
  0
BLOCK_RECORD
  5
2AB3
330
1
100
AcDbSymbolTableRecord
100
AcDbBlockTableRecord
  2
*D3
340
0
  0
BLOCK_RECORD
  5
2ABF
330
1
100
AcDbSymbolTableRecord
100
AcDbBlockTableRecord
  2
*D4
340
0
  0
BLOCK_RECORD
  5
2ACB
330
1
100
AcDbSymbolTableRecord
100
AcDbBlockTableRecord
  2
*D5
340
0
  0
BLOCK_RECORD
  5
2AD7
330
1
100
AcDbSymbolTableRecord
100
AcDbBlockTableRecord
  2
*D6
340
0
  0
BLOCK_RECORD
  5
2AE2
330
1
100
AcDbSymbolTableRecord
100
AcDbBlockTableRecord
  2
*D7
340
0
  0
BLOCK_RECORD
  5
2AEE
330
1
100
AcDbSymbolTableRecord
100
AcDbBlockTableRecord
  2
*D8
340
0
  0
BLOCK_RECORD
  5
2AFA
330
1
100
AcDbSymbolTableRecord
100
AcDbBlockTableRecord
  2
*D9
340
0
  0
BLOCK_RECORD
  5
2B06
330
1
100
AcDbSymbolTableRecord
100
AcDbBlockTableRecord
  2
*D10
340
0
  0
BLOCK_RECORD
  5
2B12
330
1
100
AcDbSymbolTableRecord
100
AcDbBlockTableRecord
  2
*D11
340
0
  0
BLOCK_RECORD
  5
2B1D
330
1
100
AcDbSymbolTableRecord
100
AcDbBlockTableRecord
  2
*D12
340
0
  0
BLOCK_RECORD
  5
2B29
330
1
100
AcDbSymbolTableRecord
100
AcDbBlockTableRecord
  2
*D13
340
0
  0
BLOCK_RECORD
  5
2B35
330
1
100
AcDbSymbolTableRecord
100
AcDbBlockTableRecord
  2
*D14
340
0
  0
BLOCK_RECORD
  5
2B40
330
1
100
AcDbSymbolTableRecord
100
AcDbBlockTableRecord
  2
*D15
340
0
  0
BLOCK_RECORD
  5
2B4B
330
1
100
AcDbSymbolTableRecord
100
AcDbBlockTableRecord
  2
*D16
340
0
  0
BLOCK_RECORD
  5
2B56
330
1
100
AcDbSymbolTableRecord
100
AcDbBlockTableRecord
  2
*D17
340
0
  0
BLOCK_RECORD
  5
2B61
330
1
100
AcDbSymbolTableRecord
100
AcDbBlockTableRecord
  2
*D18
340
0
  0
BLOCK_RECORD
  5
2B6C
330
1
100
AcDbSymbolTableRecord
100
AcDbBlockTableRecord
  2
*D19
340
0
  0
BLOCK_RECORD
  5
2B77
330
1
100
AcDbSymbolTableRecord
100
AcDbBlockTableRecord
  2
*D20
340
0
  0
BLOCK_RECORD
  5
2B83
330
1
100
AcDbSymbolTableRecord
100
AcDbBlockTableRecord
  2
*D21
340
0
  0
BLOCK_RECORD
  5
2B8E
330
1
100
AcDbSymbolTableRecord
100
AcDbBlockTableRecord
  2
*D22
340
0
  0
BLOCK_RECORD
  5
2B9A
330
1
100
AcDbSymbolTableRecord
100
AcDbBlockTableRecord
  2
*D23
340
0
  0
BLOCK_RECORD
  5
2BA6
330
1
100
AcDbSymbolTableRecord
100
AcDbBlockTableRecord
  2
*D24
340
0
  0
BLOCK_RECORD
  5
2BB1
330
1
100
AcDbSymbolTableRecord
100
AcDbBlockTableRecord
  2
*D25
340
0
  0
BLOCK_RECORD
  5
2BBD
330
1
100
AcDbSymbolTableRecord
100
AcDbBlockTableRecord
  2
*D26
340
0
  0
BLOCK_RECORD
  5
2BC9
330
1
100
AcDbSymbolTableRecord
100
AcDbBlockTableRecord
  2
*D27
340
0
  0
BLOCK_RECORD
  5
2BD4
330
1
100
AcDbSymbolTableRecord
100
AcDbBlockTableRecord
  2
*D28
340
0
  0
BLOCK_RECORD
  5
2BDF
330
1
100
AcDbSymbolTableRecord
100
AcDbBlockTableRecord
  2
*D29
340
0
  0
BLOCK_RECORD
  5
2BEB
330
1
100
AcDbSymbolTableRecord
100
AcDbBlockTableRecord
  2
*D30
340
0
  0
BLOCK_RECORD
  5
2BF6
330
1
100
AcDbSymbolTableRecord
100
AcDbBlockTableRecord
  2
*D31
340
0
  0
BLOCK_RECORD
  5
2C02
330
1
100
AcDbSymbolTableRecord
100
AcDbBlockTableRecord
  2
*D32
340
0
  0
BLOCK_RECORD
  5
2C0E
330
1
100
AcDbSymbolTableRecord
100
AcDbBlockTableRecord
  2
*D33
340
0
  0
BLOCK_RECORD
  5
2C19
330
1
100
AcDbSymbolTableRecord
100
AcDbBlockTableRecord
  2
*D34
340
0
  0
ENDTAB
  0
ENDSEC
  0
SECTION
  2
BLOCKS
  0
BLOCK
  5
1B
330
1A
100
AcDbEntity
  8
0
100
AcDbBlockBegin
  2
*MODEL_SPACE
 70
     0
 10
0.0
 20
0.0
 30
0.0
  3
*MODEL_SPACE
  1

  0
ENDBLK
  5
1C
330
1A
100
AcDbEntity
  8
0
100
AcDbBlockEnd
  0
BLOCK
  5
18
330
17
100
AcDbEntity
 67
     1
  8
0
100
AcDbBlockBegin
  2
*PAPER_SPACE
 70
     0
 10
0.0
 20
0.0
 30
0.0
  3
*PAPER_SPACE
  1

  0
ENDBLK
  5
19
330
17
100
AcDbEntity
 67
     1
  8
0
100
AcDbBlockEnd
  0
BLOCK
  5
14F2
330
14F1
100
AcDbEntity
  8
0
100
AcDbBlockBegin
  2
_DOTSMALL
 70
     0
 10
0.0
 20
0.0
 30
0.0
  3
_DOTSMALL
  1

  0
LWPOLYLINE
  5
14F3
330
14F1
100
AcDbEntity
  8
0
  6
ByBlock
 62
     0
100
AcDbPolyline
 90
        2
 70
     1
 43
0.5
 10
-0.0625
 20
0.0
 42
1.0
 10
0.0625
 20
0.0
 42
1.0
  0
ENDBLK
  5
14F7
330
14F1
100
AcDbEntity
  8
0
100
AcDbBlockEnd
  0
BLOCK
  5
23FB
330
23FA
100
AcDbEntity
  8
0
100
AcDbBlockBegin
  2
A$C7B4F3240
 70
     0
 10
0.0
 20
0.0
 30
0.0
  3
A$C7B4F3240
  1

  0
LINE
  5
23FC
330
23FA
100
AcDbEntity
  8
細線
100
AcDbLine
 10
-0.0000059368430811
 20
0.000000000007276
 30
0.0
 11
49.99999406315692
 21
50.00000000000728
 31
0.0
  0
LINE
  5
23FD
330
23FA
100
AcDbEntity
  8
細線
100
AcDbLine
 10
33.67595451716625
 20
0.000000000007276
 30
0.0
 11
83.67595451716624
 21
50.00000000000728
 31
0.0
  0
LINE
  5
23FE
330
23FA
100
AcDbEntity
  8
細線
100
AcDbLine
 10
67.35191497117558
 20
0.0000000000068212
 30
0.0
 11
117.3519149711756
 21
50.00000000000728
 31
0.0
  0
LINE
  5
23FF
330
23FA
100
AcDbEntity
  8
細線
100
AcDbLine
 10
934.9826494994745
 20
0.000000000007276
 30
0.0
 11
984.9826494994745
 21
50.00000000000728
 31
0.0
  0
LINE
  5
2400
330
23FA
100
AcDbEntity
  8
細線
100
AcDbLine
 10
867.6307285914553
 20
0.000000000007276
 30
0.0
 11
917.6307285914559
 21
50.00000000000728
 31
0.0
  0
LINE
  5
2401
330
23FA
100
AcDbEntity
  8
細線
100
AcDbLine
 10
901.3066890454652
 20
0.000000000007276
 30
0.0
 11
951.3066890454652
 21
50.00000000000728
 31
0.0
  0
LINE
  5
2402
330
23FA
100
AcDbEntity
  8
細線
100
AcDbLine
 10
1735.261463119754
 20
0.0000000000068212
 30
0.0
 11
1785.261463119754
 21
50.00000000000728
 31
0.0
  0
LINE
  5
2403
330
23FA
100
AcDbEntity
  8
細線
100
AcDbLine
 10
1768.937423573763
 20
0.0000000000068212
 30
0.0
 11
1818.937423573763
 21
50.00000000000728
 31
0.0
  0
LINE
  5
2404
330
23FA
100
AcDbEntity
  8
細線
100
AcDbLine
 10
1802.613384027772
 20
0.0000000000068212
 30
0.0
 11
1852.613384027772
 21
50.00000000000728
 31
0.0
  0
LINE
  5
2405
330
23FA
100
AcDbEntity
  8
細線
100
AcDbLine
 10
2812.892197648052
 20
0.0000000000068212
 30
0.0
 11
2862.892197648053
 21
50.00000000000728
 31
0.0
  0
LINE
  5
2406
330
23FA
100
AcDbEntity
  8
細線
100
AcDbLine
 10
2846.568158102062
 20
0.0000000000068212
 30
0.0
 11
2896.568158102062
 21
50.00000000000728
 31
0.0
  0
LINE
  5
2407
330
23FA
100
AcDbEntity
  8
細線
100
AcDbLine
 10
2880.244118556071
 20
0.0000000000068212
 30
0.0
 11
2930.244118556071
 21
50.00000000000728
 31
0.0
  0
LINE
  5
2408
330
23FA
100
AcDbEntity
  8
細線
100
AcDbLine
 10
3714.19889263036
 20
0.000000000007276
 30
0.0
 11
3764.198892630361
 21
50.00000000000728
 31
0.0
  0
LINE
  5
2409
330
23FA
100
AcDbEntity
  8
細線
100
AcDbLine
 10
3747.87485308437
 20
0.000000000007276
 30
0.0
 11
3797.87485308437
 21
50.00000000000728
 31
0.0
  0
LINE
  5
240A
330
23FA
100
AcDbEntity
  8
細線
100
AcDbLine
 10
3680.522932176351
 20
0.000000000007276
 30
0.0
 11
3730.522932176351
 21
50.00000000000728
 31
0.0
  0
LINE
  5
240B
330
23FA
100
AcDbEntity
  8
細線
100
AcDbLine
 10
4548.153666704648
 20
0.000000000007276
 30
0.0
 11
4598.153666704651
 21
50.00000000000818
 31
0.0
  0
LINE
  5
240C
330
23FA
100
AcDbEntity
  8
細線
100
AcDbLine
 10
4581.829627158659
 20
0.000000000007276
 30
0.0
 11
4631.82962715866
 21
50.00000000000818
 31
0.0
  0
LINE
  5
240D
330
23FA
100
AcDbEntity
  8
細線
100
AcDbLine
 10
4615.505587612668
 20
0.000000000007276
 30
0.0
 11
4665.505587612668
 21
50.00000000000728
 31
0.0
  0
LINE
  5
240E
330
23FA
100
AcDbEntity
  8
細線
100
AcDbLine
 10
7185.594674576289
 20
0.0000000000068212
 30
0.0
 11
7235.594674576289
 21
50.00000000000728
 31
0.0
  0
LINE
  5
240F
330
23FA
100
AcDbEntity
  8
細線
100
AcDbLine
 10
7151.918714122278
 20
0.000000000007276
 30
0.0
 11
7201.918714122278
 21
50.00000000000728
 31
0.0
  0
LINE
  5
2410
330
23FA
100
AcDbEntity
  8
細線
100
AcDbLine
 10
7118.242753668269
 20
0.000000000007276
 30
0.0
 11
7168.24275366827
 21
50.00000000000728
 31
0.0
  0
LINE
  5
2411
330
23FA
100
AcDbEntity
  8
細線
100
AcDbLine
 10
8263.225409104586
 20
0.000000000007276
 30
0.0
 11
8313.225409104587
 21
50.00000000000728
 31
0.0
  0
LINE
  5
2412
330
23FA
100
AcDbEntity
  8
細線
100
AcDbLine
 10
8195.873488196568
 20
0.000000000007276
 30
0.0
 11
8245.873488196568
 21
50.00000000000728
 31
0.0
  0
LINE
  5
2413
330
23FA
100
AcDbEntity
  8
細線
100
AcDbLine
 10
8229.549448650578
 20
0.000000000007276
 30
0.0
 11
8279.549448650577
 21
50.00000000000728
 31
0.0
  0
LINE
  5
2414
330
23FA
100
AcDbEntity
  8
細線
100
AcDbLine
 10
9307.180183178877
 20
0.0000000000068212
 30
0.0
 11
9357.180183178876
 21
50.00000000000728
 31
0.0
  0
LINE
  5
2415
330
23FA
100
AcDbEntity
  8
細線
100
AcDbLine
 10
9273.504222724866
 20
0.0000000000068212
 30
0.0
 11
9323.504222724867
 21
50.00000000000728
 31
0.0
  0
LINE
  5
2416
330
23FA
100
AcDbEntity
  8
細線
100
AcDbLine
 10
9340.856143632885
 20
0.0000000000068212
 30
0.0
 11
9390.856143632886
 21
50.00000000000728
 31
0.0
  0
LINE
  5
2417
330
23FA
100
AcDbEntity
  8
細線
100
AcDbLine
 10
10418.48687816118
 20
0.0000000000068212
 30
0.0
 11
10468.48687816118
 21
50.00000000000728
 31
0.0
  0
LINE
  5
2418
330
23FA
100
AcDbEntity
  8
細線
100
AcDbLine
 10
10384.81091770717
 20
0.0000000000068212
 30
0.0
 11
10434.81091770717
 21
50.00000000000728
 31
0.0
  0
LINE
  5
2419
330
23FA
100
AcDbEntity
  8
細線
100
AcDbLine
 10
10351.13495725316
 20
0.0000000000068212
 30
0.0
 11
10401.13495725316
 21
50.00000000000728
 31
0.0
  0
LINE
  5
241A
330
23FA
100
AcDbEntity
  8
細線
100
AcDbLine
 10
11462.44165223547
 20
0.000000000007276
 30
0.0
 11
11512.44165223547
 21
50.00000000000728
 31
0.0
  0
LINE
  5
241B
330
23FA
100
AcDbEntity
  8
細線
100
AcDbLine
 10
11428.76569178146
 20
0.000000000007276
 30
0.0
 11
11478.76569178146
 21
50.00000000000728
 31
0.0
  0
LINE
  5
241C
330
23FA
100
AcDbEntity
  8
細線
100
AcDbLine
 10
11496.11761268948
 20
0.000000000007276
 30
0.0
 11
11546.11761268948
 21
50.00000000000728
 31
0.0
  0
ENDBLK
  5
241D
330
23FA
100
AcDbEntity
  8
0
100
AcDbBlockEnd
  0
BLOCK
  5
2437
330
2436
100
AcDbEntity
  8
0
100
AcDbBlockBegin
  2
A$C384156AA
 70
     0
 10
0.0
 20
0.0
 30
0.0
  3
A$C384156AA
  1

  0
MTEXT
  5
2438
330
2436
100
AcDbEntity
  8
0
  6
ByBlock
 62
     7
100
AcDbMText
 10
409.7120416811085
 20
87.80591370448382
 30
0.0
 40
120.0
 41
0.0
 71
     5
 72
     1
  1
\A1;115
 11
-0.0472388712606029
 21
0.9988836213703898
 31
0.0
 73
     1
 44
1.0
1001
ACAD
1000
MTEXTBEGIN
1070
    73
1070
     1
1070
    44
1040
1.0
1070
    74
1070
     0
1000
MTEXTEND
  0
LINE
  5
2439
330
2436
100
AcDbEntity
  8
0
  6
ByBlock
 62
     4
100
AcDbLine
 10
286.0978144950022
 20
134.6431942205436
 30
0.0
 11
291.5302846899722
 21
19.77157776295098
 31
0.0
  0
LINE
  5
243A
330
2436
100
AcDbEntity
  8
0
  6
ByBlock
 62
     4
100
AcDbLine
 10
286.0978144950041
 20
134.6431942205427
 30
0.0
 11
291.530284689974
 21
19.77157776295007
 31
0.0
  0
INSERT
  5
243B
330
2436
100
AcDbEntity
  8
0
  6
ByBlock
 62
     4
100
AcDbBlockReference
  2
_DOTSMALL
 10
291.5302846899722
 20
19.77157776295098
 30
0.0
 41
100.0
 42
100.0
 43
100.0
 50
272.7075955944895
  0
INSERT
  5
243C
330
2436
100
AcDbEntity
  8
0
  6
ByBlock
 62
     4
100
AcDbBlockReference
  2
_DOTSMALL
 10
291.530284689974
 20
19.77157776295007
 30
0.0
 41
100.0
 42
100.0
 43
100.0
 50
272.7075955944895
  0
INSERT
  5
243D
330
2436
100
AcDbEntity
  8
0
  6
ByBlock
 62
     4
100
AcDbBlockReference
  2
_DOTSMALL
 10
286.0978144950022
 20
134.6431942205436
 30
0.0
 41
100.0
 42
100.0
 43
100.0
 50
92.70759559448954
  0
INSERT
  5
243E
330
2436
100
AcDbEntity
  8
0
  6
ByBlock
 62
     4
100
AcDbBlockReference
  2
_DOTSMALL
 10
286.0978144950041
 20
134.6431942205427
 30
0.0
 41
100.0
 42
100.0
 43
100.0
 50
92.70759559448954
  0
POINT
  5
243F
330
2436
100
AcDbEntity
  8
DEFPOINTS
  6
ByBlock
 62
     0
100
AcDbPoint
 10
291.5302846899722
 20
19.77157776295098
 30
0.0
  0
POINT
  5
2440
330
2436
100
AcDbEntity
  8
DEFPOINTS
  6
ByBlock
 62
     0
100
AcDbPoint
 10
291.530284689974
 20
19.77157776295007
 30
0.0
  0
LINE
  5
2441
330
2436
100
AcDbEntity
  8
0
  6
ByBlock
 62
     4
100
AcDbLine
 10
5.432492406376695
 20
6.241536336215176
 30
0.0
 11
331.485629544788
 21
21.66113261337523
 31
0.0
  0
LINE
  5
2442
330
2436
100
AcDbEntity
  8
0
  6
ByBlock
 62
     4
100
AcDbLine
 10
0.0000222114085773
 20
121.1131527938078
 30
0.0
 11
326.0531593498181
 21
136.5327490709678
 31
0.0
  0
ENDBLK
  5
2443
330
2436
100
AcDbEntity
  8
0
100
AcDbBlockEnd
  0
BLOCK
  5
2ABD
330
2AB3
100
AcDbEntity
  8
0
 48
50.0
100
AcDbBlockBegin
  2
*D3
 70
     1
 10
0.0
 20
0.0
 30
0.0
  3
*D3
  1

  0
LINE
  5
2F57
330
2AB3
100
AcDbEntity
  8
寸法
 62
     4
 48
50.0
370
    -2
100
AcDbLine
 10
7616.540608108043
 20
8251.120619012557
 30
0.0
 11
8276.993531295165
 21
8251.120619012557
 31
0.0
  0
LINE
  5
2F58
330
2AB3
100
AcDbEntity
  8
寸法
 62
     4
 48
50.0
370
    -2
100
AcDbLine
 10
8236.993531295164
 20
8321.120619012559
 30
0.0
 11
8236.993531295164
 21
8421.12061901256
 31
0.0
  0
LINE
  5
2F59
330
2AB3
100
AcDbEntity
  8
寸法
 62
     4
 48
50.0
370
    -2
100
AcDbLine
 10
8236.993531295164
 20
8251.120619012557
 30
0.0
 11
8236.993531295164
 21
8151.120619012557
 31
0.0
  0
MTEXT
  5
2F5A
330
2AB3
100
AcDbEntity
  8
寸法
 62
     7
 48
50.0
100
AcDbMText
 10
8516.993531295161
 20
8286.12061901256
 30
0.0
 40
120.0
 41
0.0
 71
     5
 72
     1
  1
\A1;70
 11
0.0000000000000001
 21
1.0
 31
0.0
 73
     1
 44
1.0
1001
ACAD
1000
MTEXTBEGIN
1070
    73
1070
     1
1070
    44
1040
1.0
1070
    74
1070
     0
1000
MTEXTEND
  0
INSERT
  5
2F5B
330
2AB3
100
AcDbEntity
  8
寸法
 62
     4
 48
50.0
370
    -2
100
AcDbBlockReference
  2
_DOTSMALL
 10
8236.993531295164
 20
8321.120619012559
 30
0.0
 41
100.0
 42
100.0
 43
100.0
 50
270.0
  0
INSERT
  5
2F5C
330
2AB3
100
AcDbEntity
  8
寸法
 62
     4
 48
50.0
370
    -2
100
AcDbBlockReference
  2
_DOTSMALL
 10
8236.993531295164
 20
8251.120619012557
 30
0.0
 41
100.0
 42
100.0
 43
100.0
 50
90.0
  0
POINT
  5
2F5D
330
2AB3
100
AcDbEntity
  8
DEFPOINTS
 62
     0
 48
50.0
100
AcDbPoint
 10
7576.540608108043
 20
8321.120619012559
 30
0.0
  0
POINT
  5
2F5E
330
2AB3
100
AcDbEntity
  8
DEFPOINTS
 62
     0
 48
50.0
100
AcDbPoint
 10
7576.540608108044
 20
8251.120619012557
 30
0.0
  0
POINT
  5
2F5F
330
2AB3
100
AcDbEntity
  8
DEFPOINTS
 62
     0
 48
50.0
100
AcDbPoint
 10
8236.993531295164
 20
8251.120619012557
 30
0.0
  0
ENDBLK
  5
2ABE
330
2AB3
100
AcDbEntity
  8
0
 48
50.0
100
AcDbBlockEnd
  0
BLOCK
  5
2AC9
330
2ABF
100
AcDbEntity
  8
0
 48
50.0
100
AcDbBlockBegin
  2
*D4
 70
     1
 10
0.0
 20
0.0
 30
0.0
  3
*D4
  1

  0
LINE
  5
2F4E
330
2ABF
100
AcDbEntity
  8
寸法
 62
     4
 48
50.0
370
    -2
100
AcDbLine
 10
7651.540608108044
 20
5886.120619012552
 30
0.0
 11
8276.993531295165
 21
5886.120619012552
 31
0.0
  0
LINE
  5
2F4F
330
2ABF
100
AcDbEntity
  8
寸法
 62
     4
 48
50.0
370
    -2
100
AcDbLine
 10
8236.993531295164
 20
5956.120619012556
 30
0.0
 11
8236.993531295164
 21
6056.120619012556
 31
0.0
  0
LINE
  5
2F50
330
2ABF
100
AcDbEntity
  8
寸法
 62
     4
 48
50.0
370
    -2
100
AcDbLine
 10
8236.993531295164
 20
5886.120619012552
 30
0.0
 11
8236.993531295164
 21
5786.120619012552
 31
0.0
  0
MTEXT
  5
2F51
330
2ABF
100
AcDbEntity
  8
寸法
 62
     7
 48
50.0
100
AcDbMText
 10
8156.143312659057
 20
5783.224545464127
 30
0.0
 40
120.0
 41
0.0
 71
     5
 72
     1
  1
\A1;70
 11
0.0000000000000001
 21
1.0
 31
0.0
 73
     1
 44
1.0
1001
ACAD
1000
MTEXTBEGIN
1070
    73
1070
     1
1070
    44
1040
1.0
1070
    74
1070
     0
1000
MTEXTEND
  0
INSERT
  5
2F52
330
2ABF
100
AcDbEntity
  8
寸法
 62
     4
 48
50.0
370
    -2
100
AcDbBlockReference
  2
_DOTSMALL
 10
8236.993531295164
 20
5956.120619012556
 30
0.0
 41
100.0
 42
100.0
 43
100.0
 50
270.0
  0
INSERT
  5
2F53
330
2ABF
100
AcDbEntity
  8
寸法
 62
     4
 48
50.0
370
    -2
100
AcDbBlockReference
  2
_DOTSMALL
 10
8236.993531295164
 20
5886.120619012552
 30
0.0
 41
100.0
 42
100.0
 43
100.0
 50
90.0
  0
POINT
  5
2F54
330
2ABF
100
AcDbEntity
  8
DEFPOINTS
 62
     0
 48
50.0
100
AcDbPoint
 10
7576.540608108044
 20
5956.120619012556
 30
0.0
  0
POINT
  5
2F55
330
2ABF
100
AcDbEntity
  8
DEFPOINTS
 62
     0
 48
50.0
100
AcDbPoint
 10
7611.540608108043
 20
5886.120619012552
 30
0.0
  0
POINT
  5
2F56
330
2ABF
100
AcDbEntity
  8
DEFPOINTS
 62
     0
 48
50.0
100
AcDbPoint
 10
8236.993531295164
 20
5886.120619012552
 30
0.0
  0
ENDBLK
  5
2ACA
330
2ABF
100
AcDbEntity
  8
0
 48
50.0
100
AcDbBlockEnd
  0
BLOCK
  5
2AD5
330
2ACB
100
AcDbEntity
  8
0
 48
50.0
100
AcDbBlockBegin
  2
*D5
 70
     1
 10
0.0
 20
0.0
 30
0.0
  3
*D5
  1

  0
LINE
  5
2F45
330
2ACB
100
AcDbEntity
  8
寸法
 62
     4
 48
50.0
370
    -2
100
AcDbLine
 10
2331.540608108044
 20
10686.12061901255
 30
0.0
 11
1272.422785507792
 21
10686.12061901255
 31
0.0
  0
LINE
  5
2F46
330
2ACB
100
AcDbEntity
  8
寸法
 62
     4
 48
50.0
370
    -2
100
AcDbLine
 10
2331.540608108044
 20
5886.120619012552
 30
0.0
 11
1272.422785507791
 21
5886.120619012553
 31
0.0
  0
LINE
  5
2F47
330
2ACB
100
AcDbEntity
  8
寸法
 62
     4
 48
50.0
370
    -2
100
AcDbLine
 10
1312.422785507792
 20
10686.12061901255
 30
0.0
 11
1312.422785507791
 21
5886.120619012553
 31
0.0
  0
INSERT
  5
2F48
330
2ACB
100
AcDbEntity
  8
寸法
 62
     4
 48
50.0
370
    -2
100
AcDbBlockReference
  2
_DOTSMALL
 10
1312.422785507792
 20
10686.12061901255
 30
0.0
 41
100.0
 42
100.0
 43
100.0
 50
90.0
  0
INSERT
  5
2F49
330
2ACB
100
AcDbEntity
  8
寸法
 62
     4
 48
50.0
370
    -2
100
AcDbBlockReference
  2
_DOTSMALL
 10
1312.422785507791
 20
5886.120619012553
 30
0.0
 41
100.0
 42
100.0
 43
100.0
 50
270.0
  0
MTEXT
  5
2F4A
330
2ACB
100
AcDbEntity
  8
寸法
 62
     7
 48
50.0
100
AcDbMText
 10
1212.42278550779
 20
8286.120619012553
 30
0.0
 40
120.0
 41
0.0
 71
     5
 72
     1
  1
\A1;4800
 11
0.0000000000000001
 21
1.0
 31
0.0
 73
     1
 44
1.0
1001
ACAD
1000
MTEXTBEGIN
1070
    73
1070
     1
1070
    44
1040
1.0
1070
    74
1070
     0
1000
MTEXTEND
  0
POINT
  5
2F4B
330
2ACB
100
AcDbEntity
  8
DEFPOINTS
 62
     0
 48
50.0
100
AcDbPoint
 10
2371.540608108044
 20
10686.12061901255
 30
0.0
  0
POINT
  5
2F4C
330
2ACB
100
AcDbEntity
  8
DEFPOINTS
 62
     0
 48
50.0
100
AcDbPoint
 10
2371.540608108044
 20
5886.120619012552
 30
0.0
  0
POINT
  5
2F4D
330
2ACB
100
AcDbEntity
  8
DEFPOINTS
 62
     0
 48
50.0
100
AcDbPoint
 10
1312.422785507791
 20
5886.120619012553
 30
0.0
  0
ENDBLK
  5
2AD6
330
2ACB
100
AcDbEntity
  8
0
 48
50.0
100
AcDbBlockEnd
  0
BLOCK
  5
2AE0
330
2AD7
100
AcDbEntity
  8
0
 48
50.0
100
AcDbBlockBegin
  2
*D6
 70
     1
 10
0.0
 20
0.0
 30
0.0
  3
*D6
  1

  0
LINE
  5
2F3D
330
2AD7
100
AcDbEntity
  8
寸法
 62
     4
 48
50.0
370
    -2
100
AcDbLine
 10
2331.540608108044
 20
5886.120619012552
 30
0.0
 11
1747.870956908438
 21
5886.120619012553
 31
0.0
  0
LINE
  5
2F3E
330
2AD7
100
AcDbEntity
  8
寸法
 62
     4
 48
50.0
370
    -2
100
AcDbLine
 10
1787.870956908438
 20
6123.120619012553
 30
0.0
 11
1787.870956908438
 21
5886.120619012553
 31
0.0
  0
MTEXT
  5
2F3F
330
2AD7
100
AcDbEntity
  8
寸法
 62
     7
 48
50.0
100
AcDbMText
 10
1701.195924353022
 20
6004.620619012552
 30
0.0
 40
120.0
 41
0.0
 71
     5
 72
     1
  1
\A1;237
 11
0.0000000000000001
 21
1.0
 31
0.0
 73
     1
 44
1.0
1001
ACAD
1000
MTEXTBEGIN
1070
    73
1070
     1
1070
    44
1040
1.0
1070
    74
1070
     0
1000
MTEXTEND
  0
INSERT
  5
2F40
330
2AD7
100
AcDbEntity
  8
寸法
 62
     4
 48
50.0
370
    -2
100
AcDbBlockReference
  2
_DOTSMALL
 10
1787.870956908438
 20
6123.120619012553
 30
0.0
 41
100.0
 42
100.0
 43
100.0
 50
90.0
  0
INSERT
  5
2F41
330
2AD7
100
AcDbEntity
  8
寸法
 62
     4
 48
50.0
370
    -2
100
AcDbBlockReference
  2
_DOTSMALL
 10
1787.870956908438
 20
5886.120619012553
 30
0.0
 41
100.0
 42
100.0
 43
100.0
 50
270.0
  0
POINT
  5
2F42
330
2AD7
100
AcDbEntity
  8
DEFPOINTS
 62
     0
 48
50.0
100
AcDbPoint
 10
2361.540608108044
 20
6123.120619012553
 30
0.0
  0
POINT
  5
2F43
330
2AD7
100
AcDbEntity
  8
DEFPOINTS
 62
     0
 48
50.0
100
AcDbPoint
 10
2371.540608108044
 20
5886.120619012552
 30
0.0
  0
POINT
  5
2F44
330
2AD7
100
AcDbEntity
  8
DEFPOINTS
 62
     0
 48
50.0
100
AcDbPoint
 10
1787.870956908438
 20
5886.120619012553
 30
0.0
  0
ENDBLK
  5
2AE1
330
2AD7
100
AcDbEntity
  8
0
 48
50.0
100
AcDbBlockEnd
  0
BLOCK
  5
2AEC
330
2AE2
100
AcDbEntity
  8
0
 48
50.0
100
AcDbBlockBegin
  2
*D7
 70
     1
 10
0.0
 20
0.0
 30
0.0
  3
*D7
  1

  0
LINE
  5
2F34
330
2AE2
100
AcDbEntity
  8
寸法
 62
     4
 48
50.0
370
    -2
100
AcDbLine
 10
2611.540608108044
 20
2059.058816120087
 30
0.0
 11
2611.540608108044
 21
1772.9827369265
 31
0.0
  0
LINE
  5
2F35
330
2AE2
100
AcDbEntity
  8
寸法
 62
     4
 48
50.0
370
    -2
100
AcDbLine
 10
4991.540608108044
 20
2059.058816120087
 30
0.0
 11
4991.540608108044
 21
1772.9827369265
 31
0.0
  0
LINE
  5
2F36
330
2AE2
100
AcDbEntity
  8
寸法
 62
     4
 48
50.0
370
    -2
100
AcDbLine
 10
2611.540608108044
 20
1812.9827369265
 30
0.0
 11
4991.540608108044
 21
1812.9827369265
 31
0.0
  0
INSERT
  5
2F37
330
2AE2
100
AcDbEntity
  8
寸法
 62
     4
 48
50.0
370
    -2
100
AcDbBlockReference
  2
_DOTSMALL
 10
2611.540608108044
 20
1812.9827369265
 30
0.0
 41
100.0
 42
100.0
 43
100.0
 50
180.0
  0
INSERT
  5
2F38
330
2AE2
100
AcDbEntity
  8
寸法
 62
     4
 48
50.0
370
    -2
100
AcDbBlockReference
  2
_DOTSMALL
 10
4991.540608108044
 20
1812.9827369265
 30
0.0
 41
100.0
 42
100.0
 43
100.0
  0
MTEXT
  5
2F39
330
2AE2
100
AcDbEntity
  8
寸法
 62
     7
 48
50.0
100
AcDbMText
 10
3801.540608108044
 20
1912.994547950123
 30
0.0
 40
120.0
 41
0.0
 71
     5
 72
     1
  1
\A1;2380
 73
     1
 44
1.0
1001
ACAD
1000
MTEXTBEGIN
1070
    73
1070
     1
1070
    44
1040
1.0
1070
    74
1070
     0
1000
MTEXTEND
  0
POINT
  5
2F3A
330
2AE2
100
AcDbEntity
  8
DEFPOINTS
 62
     0
 48
50.0
100
AcDbPoint
 10
2611.540608108044
 20
2099.058816120087
 30
0.0
  0
POINT
  5
2F3B
330
2AE2
100
AcDbEntity
  8
DEFPOINTS
 62
     0
 48
50.0
100
AcDbPoint
 10
4991.540608108044
 20
2099.058816120087
 30
0.0
  0
POINT
  5
2F3C
330
2AE2
100
AcDbEntity
  8
DEFPOINTS
 62
     0
 48
50.0
100
AcDbPoint
 10
4991.540608108044
 20
1812.9827369265
 30
0.0
  0
ENDBLK
  5
2AED
330
2AE2
100
AcDbEntity
  8
0
 48
50.0
100
AcDbBlockEnd
  0
BLOCK
  5
2AF8
330
2AEE
100
AcDbEntity
  8
0
 48
50.0
100
AcDbBlockBegin
  2
*D8
 70
     1
 10
0.0
 20
0.0
 30
0.0
  3
*D8
  1

  0
LINE
  5
2F2B
330
2AEE
100
AcDbEntity
  8
Ｇ．Ｌ
 62
     4
 48
50.0
370
    -2
100
AcDbLine
 10
2361.540608108044
 20
4520.058816120086
 30
0.0
 11
2361.540608108044
 21
5116.274603944511
 31
0.0
  0
LINE
  5
2F2C
330
2AEE
100
AcDbEntity
  8
Ｇ．Ｌ
 62
     4
 48
50.0
370
    -2
100
AcDbLine
 10
7621.540608108045
 20
4520.058816120086
 30
0.0
 11
7621.540608108045
 21
5116.274603944511
 31
0.0
  0
LINE
  5
2F2D
330
2AEE
100
AcDbEntity
  8
Ｇ．Ｌ
 62
     4
 48
50.0
370
    -2
100
AcDbLine
 10
2361.540608108044
 20
5076.274603944511
 30
0.0
 11
7621.540608108045
 21
5076.274603944511
 31
0.0
  0
INSERT
  5
2F2E
330
2AEE
100
AcDbEntity
  8
Ｇ．Ｌ
 62
     4
 48
50.0
370
    -2
100
AcDbBlockReference
  2
_DOTSMALL
 10
2361.540608108044
 20
5076.274603944511
 30
0.0
 41
100.0
 42
100.0
 43
100.0
 50
180.0
  0
INSERT
  5
2F2F
330
2AEE
100
AcDbEntity
  8
Ｇ．Ｌ
 62
     4
 48
50.0
370
    -2
100
AcDbBlockReference
  2
_DOTSMALL
 10
7621.540608108045
 20
5076.274603944511
 30
0.0
 41
100.0
 42
100.0
 43
100.0
  0
MTEXT
  5
2F30
330
2AEE
100
AcDbEntity
  8
Ｇ．Ｌ
 62
     7
 48
50.0
100
AcDbMText
 10
4991.540608108044
 20
5176.286414968133
 30
0.0
 40
120.0
 41
0.0
 71
     5
 72
     1
  1
\A1;5260
 73
     1
 44
1.0
1001
ACAD
1000
MTEXTBEGIN
1070
    73
1070
     1
1070
    44
1040
1.0
1070
    74
1070
     0
1000
MTEXTEND
  0
POINT
  5
2F31
330
2AEE
100
AcDbEntity
  8
DEFPOINTS
 62
     0
 48
50.0
100
AcDbPoint
 10
2361.540608108044
 20
4480.058816120087
 30
0.0
  0
POINT
  5
2F32
330
2AEE
100
AcDbEntity
  8
DEFPOINTS
 62
     0
 48
50.0
100
AcDbPoint
 10
7621.540608108045
 20
4480.058816120087
 30
0.0
  0
POINT
  5
2F33
330
2AEE
100
AcDbEntity
  8
DEFPOINTS
 62
     0
 48
50.0
100
AcDbPoint
 10
7621.540608108045
 20
5076.274603944511
 30
0.0
  0
ENDBLK
  5
2AF9
330
2AEE
100
AcDbEntity
  8
0
 48
50.0
100
AcDbBlockEnd
  0
BLOCK
  5
2B04
330
2AFA
100
AcDbEntity
  8
0
 48
50.0
100
AcDbBlockBegin
  2
*D9
 70
     1
 10
0.0
 20
0.0
 30
0.0
  3
*D9
  1

  0
LINE
  5
2F22
330
2AFA
100
AcDbEntity
  8
Ｇ．Ｌ
 62
     4
 48
50.0
370
    -2
100
AcDbLine
 10
2611.540608108044
 20
4390.354811104378
 30
0.0
 11
2611.540608108044
 21
4836.274603944512
 31
0.0
  0
LINE
  5
2F23
330
2AFA
100
AcDbEntity
  8
Ｇ．Ｌ
 62
     4
 48
50.0
370
    -2
100
AcDbLine
 10
7371.540608108045
 20
4397.044811104377
 30
0.0
 11
7371.540608108045
 21
4836.274603944512
 31
0.0
  0
LINE
  5
2F24
330
2AFA
100
AcDbEntity
  8
Ｇ．Ｌ
 62
     4
 48
50.0
370
    -2
100
AcDbLine
 10
2611.540608108044
 20
4796.274603944512
 30
0.0
 11
7371.540608108045
 21
4796.274603944512
 31
0.0
  0
INSERT
  5
2F25
330
2AFA
100
AcDbEntity
  8
Ｇ．Ｌ
 62
     4
 48
50.0
370
    -2
100
AcDbBlockReference
  2
_DOTSMALL
 10
2611.540608108044
 20
4796.274603944512
 30
0.0
 41
100.0
 42
100.0
 43
100.0
 50
180.0
  0
INSERT
  5
2F26
330
2AFA
100
AcDbEntity
  8
Ｇ．Ｌ
 62
     4
 48
50.0
370
    -2
100
AcDbBlockReference
  2
_DOTSMALL
 10
7371.540608108045
 20
4796.274603944512
 30
0.0
 41
100.0
 42
100.0
 43
100.0
  0
MTEXT
  5
2F27
330
2AFA
100
AcDbEntity
  8
Ｇ．Ｌ
 62
     7
 48
50.0
100
AcDbMText
 10
4991.540608108044
 20
4896.274603944512
 30
0.0
 40
120.0
 41
0.0
 71
     5
 72
     1
  1
\A1;4760
 73
     1
 44
1.0
1001
ACAD
1000
MTEXTBEGIN
1070
    73
1070
     1
1070
    44
1040
1.0
1070
    74
1070
     0
1000
MTEXTEND
  0
POINT
  5
2F28
330
2AFA
100
AcDbEntity
  8
DEFPOINTS
 62
     0
 48
50.0
100
AcDbPoint
 10
2611.540608108044
 20
4350.354811104378
 30
0.0
  0
POINT
  5
2F29
330
2AFA
100
AcDbEntity
  8
DEFPOINTS
 62
     0
 48
50.0
100
AcDbPoint
 10
7371.540608108045
 20
4357.044811104377
 30
0.0
  0
POINT
  5
2F2A
330
2AFA
100
AcDbEntity
  8
DEFPOINTS
 62
     0
 48
50.0
100
AcDbPoint
 10
7371.540608108045
 20
4796.274603944512
 30
0.0
  0
ENDBLK
  5
2B05
330
2AFA
100
AcDbEntity
  8
0
 48
50.0
100
AcDbBlockEnd
  0
BLOCK
  5
2B10
330
2B06
100
AcDbEntity
  8
0
 48
50.0
100
AcDbBlockBegin
  2
*D10
 70
     1
 10
0.0
 20
0.0
 30
0.0
  3
*D10
  1

  0
LINE
  5
2F19
330
2B06
100
AcDbEntity
  8
寸法
 62
     4
 48
50.0
370
    -2
100
AcDbLine
 10
2541.540608108044
 20
2099.058816120087
 30
0.0
 11
2075.022956010813
 21
2099.058816120087
 31
0.0
  0
LINE
  5
2F1A
330
2B06
100
AcDbEntity
  8
寸法
 62
     4
 48
50.0
370
    -2
100
AcDbLine
 10
1941.359271092741
 20
2369.058816120087
 30
0.0
 11
2155.022956010813
 21
2369.058816120087
 31
0.0
  0
LINE
  5
2F1B
330
2B06
100
AcDbEntity
  8
寸法
 62
     4
 48
50.0
370
    -2
100
AcDbLine
 10
2115.022956010813
 20
2099.058816120087
 30
0.0
 11
2115.022956010813
 21
2369.058816120087
 31
0.0
  0
MTEXT
  5
2F1C
330
2B06
100
AcDbEntity
  8
寸法
 62
     7
 48
50.0
100
AcDbMText
 10
2275.034767034435
 20
2234.058816120088
 30
0.0
 40
120.0
 41
0.0
 71
     5
 72
     1
  1
\A1;270
 11
0.0000000000000001
 21
1.0
 31
0.0
 73
     1
 44
1.0
1001
ACAD
1000
MTEXTBEGIN
1070
    73
1070
     1
1070
    44
1040
1.0
1070
    74
1070
     0
1000
MTEXTEND
  0
INSERT
  5
2F1D
330
2B06
100
AcDbEntity
  8
寸法
 62
     4
 48
50.0
370
    -2
100
AcDbBlockReference
  2
_DOTSMALL
 10
2115.022956010813
 20
2099.058816120087
 30
0.0
 41
100.0
 42
100.0
 43
100.0
 50
270.0
  0
INSERT
  5
2F1E
330
2B06
100
AcDbEntity
  8
寸法
 62
     4
 48
50.0
370
    -2
100
AcDbBlockReference
  2
_DOTSMALL
 10
2115.022956010813
 20
2369.058816120087
 30
0.0
 41
100.0
 42
100.0
 43
100.0
 50
90.0
  0
POINT
  5
2F1F
330
2B06
100
AcDbEntity
  8
DEFPOINTS
 62
     0
 48
50.0
100
AcDbPoint
 10
2581.540608108044
 20
2099.058816120087
 30
0.0
  0
POINT
  5
2F20
330
2B06
100
AcDbEntity
  8
DEFPOINTS
 62
     0
 48
50.0
100
AcDbPoint
 10
1901.35927109274
 20
2369.058816120087
 30
0.0
  0
POINT
  5
2F21
330
2B06
100
AcDbEntity
  8
DEFPOINTS
 62
     0
 48
50.0
100
AcDbPoint
 10
2115.022956010813
 20
2369.058816120087
 30
0.0
  0
ENDBLK
  5
2B11
330
2B06
100
AcDbEntity
  8
0
 48
50.0
100
AcDbBlockEnd
  0
BLOCK
  5
2B1B
330
2B12
100
AcDbEntity
  8
0
 48
50.0
100
AcDbBlockBegin
  2
*D11
 70
     1
 10
0.0
 20
0.0
 30
0.0
  3
*D11
  1

  0
LINE
  5
2F11
330
2B12
100
AcDbEntity
  8
寸法
 62
     4
 48
50.0
370
    -2
100
AcDbLine
 10
2361.540608108044
 20
4520.058816120086
 30
0.0
 11
2361.540608108044
 21
4836.274603944512
 31
0.0
  0
LINE
  5
2F12
330
2B12
100
AcDbEntity
  8
寸法
 62
     4
 48
50.0
370
    -2
100
AcDbLine
 10
2611.540608108044
 20
4796.274603944512
 30
0.0
 11
2361.540608108044
 21
4796.274603944512
 31
0.0
  0
MTEXT
  5
2F13
330
2B12
100
AcDbEntity
  8
寸法
 62
     7
 48
50.0
100
AcDbMText
 10
2499.804927475772
 20
4924.275006809526
 30
0.0
 40
120.0
 41
0.0
 71
     5
 72
     1
  1
\A1;250
 73
     1
 44
1.0
1001
ACAD
1000
MTEXTBEGIN
1070
    73
1070
     1
1070
    44
1040
1.0
1070
    74
1070
     0
1000
MTEXTEND
  0
INSERT
  5
2F14
330
2B12
100
AcDbEntity
  8
寸法
 62
     4
 48
50.0
370
    -2
100
AcDbBlockReference
  2
_DOTSMALL
 10
2611.540608108044
 20
4796.274603944512
 30
0.0
 41
100.0
 42
100.0
 43
100.0
  0
INSERT
  5
2F15
330
2B12
100
AcDbEntity
  8
寸法
 62
     4
 48
50.0
370
    -2
100
AcDbBlockReference
  2
_DOTSMALL
 10
2361.540608108044
 20
4796.274603944512
 30
0.0
 41
100.0
 42
100.0
 43
100.0
 50
180.0
  0
POINT
  5
2F16
330
2B12
100
AcDbEntity
  8
DEFPOINTS
 62
     0
 48
50.0
100
AcDbPoint
 10
2611.540608108044
 20
4350.354811104378
 30
0.0
  0
POINT
  5
2F17
330
2B12
100
AcDbEntity
  8
DEFPOINTS
 62
     0
 48
50.0
100
AcDbPoint
 10
2361.540608108044
 20
4480.058816120087
 30
0.0
  0
POINT
  5
2F18
330
2B12
100
AcDbEntity
  8
DEFPOINTS
 62
     0
 48
50.0
100
AcDbPoint
 10
2361.540608108044
 20
4796.274603944512
 30
0.0
  0
ENDBLK
  5
2B1C
330
2B12
100
AcDbEntity
  8
0
 48
50.0
100
AcDbBlockEnd
  0
BLOCK
  5
2B27
330
2B1D
100
AcDbEntity
  8
0
 48
50.0
100
AcDbBlockBegin
  2
*D12
 70
     1
 10
0.0
 20
0.0
 30
0.0
  3
*D12
  1

  0
LINE
  5
2F08
330
2B1D
100
AcDbEntity
  8
寸法
 62
     4
 48
50.0
370
    -2
100
AcDbLine
 10
7371.540608108045
 20
2065.747464225399
 30
0.0
 11
7371.540608108045
 21
1772.9827369265
 31
0.0
  0
LINE
  5
2F09
330
2B1D
100
AcDbEntity
  8
寸法
 62
     4
 48
50.0
370
    -2
100
AcDbLine
 10
4991.540608108044
 20
2065.747464225399
 30
0.0
 11
4991.540608108044
 21
1772.9827369265
 31
0.0
  0
LINE
  5
2F0A
330
2B1D
100
AcDbEntity
  8
寸法
 62
     4
 48
50.0
370
    -2
100
AcDbLine
 10
7371.540608108045
 20
1812.9827369265
 30
0.0
 11
4991.540608108044
 21
1812.9827369265
 31
0.0
  0
INSERT
  5
2F0B
330
2B1D
100
AcDbEntity
  8
寸法
 62
     4
 48
50.0
370
    -2
100
AcDbBlockReference
  2
_DOTSMALL
 10
7371.540608108045
 20
1812.9827369265
 30
0.0
 41
100.0
 42
100.0
 43
100.0
  0
INSERT
  5
2F0C
330
2B1D
100
AcDbEntity
  8
寸法
 62
     4
 48
50.0
370
    -2
100
AcDbBlockReference
  2
_DOTSMALL
 10
4991.540608108044
 20
1812.9827369265
 30
0.0
 41
100.0
 42
100.0
 43
100.0
 50
180.0
  0
MTEXT
  5
2F0D
330
2B1D
100
AcDbEntity
  8
寸法
 62
     7
 48
50.0
100
AcDbMText
 10
6181.540608108043
 20
1912.994547950123
 30
0.0
 40
120.0
 41
0.0
 71
     5
 72
     1
  1
\A1;2380
 73
     1
 44
1.0
1001
ACAD
1000
MTEXTBEGIN
1070
    73
1070
     1
1070
    44
1040
1.0
1070
    74
1070
     0
1000
MTEXTEND
  0
POINT
  5
2F0E
330
2B1D
100
AcDbEntity
  8
DEFPOINTS
 62
     0
 48
50.0
100
AcDbPoint
 10
7371.540608108045
 20
2105.747464225398
 30
0.0
  0
POINT
  5
2F0F
330
2B1D
100
AcDbEntity
  8
DEFPOINTS
 62
     0
 48
50.0
100
AcDbPoint
 10
4991.540608108044
 20
2105.747464225398
 30
0.0
  0
POINT
  5
2F10
330
2B1D
100
AcDbEntity
  8
DEFPOINTS
 62
     0
 48
50.0
100
AcDbPoint
 10
4991.540608108044
 20
1812.9827369265
 30
0.0
  0
ENDBLK
  5
2B28
330
2B1D
100
AcDbEntity
  8
0
 48
50.0
100
AcDbBlockEnd
  0
BLOCK
  5
2B33
330
2B29
100
AcDbEntity
  8
0
 48
50.0
100
AcDbBlockBegin
  2
*D13
 70
     1
 10
0.0
 20
0.0
 30
0.0
  3
*D13
  1

  0
LINE
  5
2EFF
330
2B29
100
AcDbEntity
  8
寸法
 62
     4
 48
50.0
370
    -2
100
AcDbLine
 10
7621.540608108045
 20
4520.058816120086
 30
0.0
 11
7621.540608108045
 21
4836.274603944512
 31
0.0
  0
LINE
  5
2F00
330
2B29
100
AcDbEntity
  8
寸法
 62
     4
 48
50.0
370
    -2
100
AcDbLine
 10
7371.540608108045
 20
4397.044811104377
 30
0.0
 11
7371.540608108045
 21
4836.274603944512
 31
0.0
  0
LINE
  5
2F01
330
2B29
100
AcDbEntity
  8
寸法
 62
     4
 48
50.0
370
    -2
100
AcDbLine
 10
7621.540608108045
 20
4796.274603944512
 30
0.0
 11
7371.540608108045
 21
4796.274603944512
 31
0.0
  0
MTEXT
  5
2F02
330
2B29
100
AcDbEntity
  8
寸法
 62
     7
 48
50.0
100
AcDbMText
 10
7490.612716964053
 20
4906.185095823541
 30
0.0
 40
120.0
 41
0.0
 71
     5
 72
     1
  1
\A1;250
 73
     1
 44
1.0
1001
ACAD
1000
MTEXTBEGIN
1070
    73
1070
     1
1070
    44
1040
1.0
1070
    74
1070
     0
1000
MTEXTEND
  0
INSERT
  5
2F03
330
2B29
100
AcDbEntity
  8
寸法
 62
     4
 48
50.0
370
    -2
100
AcDbBlockReference
  2
_DOTSMALL
 10
7621.540608108045
 20
4796.274603944512
 30
0.0
 41
100.0
 42
100.0
 43
100.0
  0
INSERT
  5
2F04
330
2B29
100
AcDbEntity
  8
寸法
 62
     4
 48
50.0
370
    -2
100
AcDbBlockReference
  2
_DOTSMALL
 10
7371.540608108045
 20
4796.274603944512
 30
0.0
 41
100.0
 42
100.0
 43
100.0
 50
180.0
  0
POINT
  5
2F05
330
2B29
100
AcDbEntity
  8
DEFPOINTS
 62
     0
 48
50.0
100
AcDbPoint
 10
7621.540608108045
 20
4480.058816120087
 30
0.0
  0
POINT
  5
2F06
330
2B29
100
AcDbEntity
  8
DEFPOINTS
 62
     0
 48
50.0
100
AcDbPoint
 10
7371.540608108045
 20
4357.044811104377
 30
0.0
  0
POINT
  5
2F07
330
2B29
100
AcDbEntity
  8
DEFPOINTS
 62
     0
 48
50.0
100
AcDbPoint
 10
7371.540608108045
 20
4796.274603944512
 30
0.0
  0
ENDBLK
  5
2B34
330
2B29
100
AcDbEntity
  8
0
 48
50.0
100
AcDbBlockEnd
  0
BLOCK
  5
2B3E
330
2B35
100
AcDbEntity
  8
0
 48
50.0
100
AcDbBlockBegin
  2
*D14
 70
     1
 10
0.0
 20
0.0
 30
0.0
  3
*D14
  1

  0
LINE
  5
2EF7
330
2B35
100
AcDbEntity
  8
寸法
 62
     4
 48
50.0
370
    -2
100
AcDbLine
 10
2321.540608108044
 20
9180.520619012551
 30
0.0
 11
1747.870956908438
 21
9180.520619012551
 31
0.0
  0
LINE
  5
2EF8
330
2B35
100
AcDbEntity
  8
寸法
 62
     4
 48
50.0
370
    -2
100
AcDbLine
 10
1787.870956908439
 20
9814.82061901255
 30
0.0
 11
1787.870956908438
 21
9180.520619012551
 31
0.0
  0
INSERT
  5
2EF9
330
2B35
100
AcDbEntity
  8
寸法
 62
     4
 48
50.0
370
    -2
100
AcDbBlockReference
  2
_DOTSMALL
 10
1787.870956908439
 20
9814.82061901255
 30
0.0
 41
100.0
 42
100.0
 43
100.0
 50
90.0
  0
INSERT
  5
2EFA
330
2B35
100
AcDbEntity
  8
寸法
 62
     4
 48
50.0
370
    -2
100
AcDbBlockReference
  2
_DOTSMALL
 10
1787.870956908438
 20
9180.520619012551
 30
0.0
 41
100.0
 42
100.0
 43
100.0
 50
270.0
  0
MTEXT
  5
2EFB
330
2B35
100
AcDbEntity
  8
寸法
 62
     7
 48
50.0
100
AcDbMText
 10
1687.870956908437
 20
9497.67061901255
 30
0.0
 40
120.0
 41
0.0
 71
     5
 72
     1
  1
\A1;634.3
 11
0.0000000000000001
 21
1.0
 31
0.0
 73
     1
 44
1.0
1001
ACAD
1000
MTEXTBEGIN
1070
    73
1070
     1
1070
    44
1040
1.0
1070
    74
1070
     0
1000
MTEXTEND
  0
POINT
  5
2EFC
330
2B35
100
AcDbEntity
  8
DEFPOINTS
 62
     0
 48
50.0
100
AcDbPoint
 10
2361.540608108044
 20
9814.82061901255
 30
0.0
  0
POINT
  5
2EFD
330
2B35
100
AcDbEntity
  8
DEFPOINTS
 62
     0
 48
50.0
100
AcDbPoint
 10
2361.540608108044
 20
9180.520619012551
 30
0.0
  0
POINT
  5
2EFE
330
2B35
100
AcDbEntity
  8
DEFPOINTS
 62
     0
 48
50.0
100
AcDbPoint
 10
1787.870956908438
 20
9180.520619012551
 30
0.0
  0
ENDBLK
  5
2B3F
330
2B35
100
AcDbEntity
  8
0
 48
50.0
100
AcDbBlockEnd
  0
BLOCK
  5
2B49
330
2B40
100
AcDbEntity
  8
0
 48
50.0
100
AcDbBlockBegin
  2
*D15
 70
     1
 10
0.0
 20
0.0
 30
0.0
  3
*D15
  1

  0
LINE
  5
2EEF
330
2B40
100
AcDbEntity
  8
寸法
 62
     4
 48
50.0
370
    -2
100
AcDbLine
 10
2321.540608108044
 20
7391.720619012551
 30
0.0
 11
1747.870956908438
 21
7391.720619012551
 31
0.0
  0
LINE
  5
2EF0
330
2B40
100
AcDbEntity
  8
寸法
 62
     4
 48
50.0
370
    -2
100
AcDbLine
 10
1787.870956908439
 20
8026.020619012555
 30
0.0
 11
1787.870956908438
 21
7391.720619012551
 31
0.0
  0
MTEXT
  5
2EF1
330
2B40
100
AcDbEntity
  8
寸法
 62
     7
 48
50.0
100
AcDbMText
 10
1685.578155871379
 20
7601.653067038075
 30
0.0
 40
120.0
 41
0.0
 71
     5
 72
     1
  1
\A1;634.3
 11
0.0000000000000001
 21
1.0
 31
0.0
 73
     1
 44
1.0
1001
ACAD
1000
MTEXTBEGIN
1070
    73
1070
     1
1070
    44
1040
1.0
1070
    74
1070
     0
1000
MTEXTEND
  0
INSERT
  5
2EF2
330
2B40
100
AcDbEntity
  8
寸法
 62
     4
 48
50.0
370
    -2
100
AcDbBlockReference
  2
_DOTSMALL
 10
1787.870956908439
 20
8026.020619012555
 30
0.0
 41
100.0
 42
100.0
 43
100.0
 50
90.0
  0
INSERT
  5
2EF3
330
2B40
100
AcDbEntity
  8
寸法
 62
     4
 48
50.0
370
    -2
100
AcDbBlockReference
  2
_DOTSMALL
 10
1787.870956908438
 20
7391.720619012551
 30
0.0
 41
100.0
 42
100.0
 43
100.0
 50
270.0
  0
POINT
  5
2EF4
330
2B40
100
AcDbEntity
  8
DEFPOINTS
 62
     0
 48
50.0
100
AcDbPoint
 10
2361.540608108044
 20
8026.020619012554
 30
0.0
  0
POINT
  5
2EF5
330
2B40
100
AcDbEntity
  8
DEFPOINTS
 62
     0
 48
50.0
100
AcDbPoint
 10
2361.540608108044
 20
7391.720619012551
 30
0.0
  0
POINT
  5
2EF6
330
2B40
100
AcDbEntity
  8
DEFPOINTS
 62
     0
 48
50.0
100
AcDbPoint
 10
1787.870956908438
 20
7391.720619012551
 30
0.0
  0
ENDBLK
  5
2B4A
330
2B40
100
AcDbEntity
  8
0
 48
50.0
100
AcDbBlockEnd
  0
BLOCK
  5
2B54
330
2B4B
100
AcDbEntity
  8
0
 48
50.0
100
AcDbBlockBegin
  2
*D16
 70
     1
 10
0.0
 20
0.0
 30
0.0
  3
*D16
  1

  0
LINE
  5
2EE7
330
2B4B
100
AcDbEntity
  8
寸法
 62
     4
 48
50.0
370
    -2
100
AcDbLine
 10
2321.540608108044
 20
6123.120619012553
 30
0.0
 11
1747.870956908438
 21
6123.120619012553
 31
0.0
  0
LINE
  5
2EE8
330
2B4B
100
AcDbEntity
  8
寸法
 62
     4
 48
50.0
370
    -2
100
AcDbLine
 10
1787.870956908439
 20
6757.420619012552
 30
0.0
 11
1787.870956908438
 21
6123.120619012553
 31
0.0
  0
INSERT
  5
2EE9
330
2B4B
100
AcDbEntity
  8
寸法
 62
     4
 48
50.0
370
    -2
100
AcDbBlockReference
  2
_DOTSMALL
 10
1787.870956908439
 20
6757.420619012552
 30
0.0
 41
100.0
 42
100.0
 43
100.0
 50
90.0
  0
INSERT
  5
2EEA
330
2B4B
100
AcDbEntity
  8
寸法
 62
     4
 48
50.0
370
    -2
100
AcDbBlockReference
  2
_DOTSMALL
 10
1787.870956908438
 20
6123.120619012553
 30
0.0
 41
100.0
 42
100.0
 43
100.0
 50
270.0
  0
MTEXT
  5
2EEB
330
2B4B
100
AcDbEntity
  8
寸法
 62
     7
 48
50.0
100
AcDbMText
 10
1687.870956908437
 20
6440.270619012553
 30
0.0
 40
120.0
 41
0.0
 71
     5
 72
     1
  1
\A1;634.3
 11
0.0000000000000001
 21
1.0
 31
0.0
 73
     1
 44
1.0
1001
ACAD
1000
MTEXTBEGIN
1070
    73
1070
     1
1070
    44
1040
1.0
1070
    74
1070
     0
1000
MTEXTEND
  0
POINT
  5
2EEC
330
2B4B
100
AcDbEntity
  8
DEFPOINTS
 62
     0
 48
50.0
100
AcDbPoint
 10
2361.540608108044
 20
6757.420619012552
 30
0.0
  0
POINT
  5
2EED
330
2B4B
100
AcDbEntity
  8
DEFPOINTS
 62
     0
 48
50.0
100
AcDbPoint
 10
2361.540608108044
 20
6123.120619012553
 30
0.0
  0
POINT
  5
2EEE
330
2B4B
100
AcDbEntity
  8
DEFPOINTS
 62
     0
 48
50.0
100
AcDbPoint
 10
1787.870956908438
 20
6123.120619012553
 30
0.0
  0
ENDBLK
  5
2B55
330
2B4B
100
AcDbEntity
  8
0
 48
50.0
100
AcDbBlockEnd
  0
BLOCK
  5
2B5F
330
2B56
100
AcDbEntity
  8
0
 48
50.0
100
AcDbBlockBegin
  2
*D17
 70
     1
 10
0.0
 20
0.0
 30
0.0
  3
*D17
  1

  0
LINE
  5
2EDF
330
2B56
100
AcDbEntity
  8
寸法
 62
     4
 48
50.0
370
    -2
100
AcDbLine
 10
2321.540608108044
 20
6757.420619012552
 30
0.0
 11
1747.870956908438
 21
6757.420619012552
 31
0.0
  0
LINE
  5
2EE0
330
2B56
100
AcDbEntity
  8
寸法
 62
     4
 48
50.0
370
    -2
100
AcDbLine
 10
1787.870956908438
 20
7391.720619012551
 30
0.0
 11
1787.870956908438
 21
6757.420619012552
 31
0.0
  0
INSERT
  5
2EE1
330
2B56
100
AcDbEntity
  8
寸法
 62
     4
 48
50.0
370
    -2
100
AcDbBlockReference
  2
_DOTSMALL
 10
1787.870956908438
 20
7391.720619012551
 30
0.0
 41
100.0
 42
100.0
 43
100.0
 50
90.0
  0
INSERT
  5
2EE2
330
2B56
100
AcDbEntity
  8
寸法
 62
     4
 48
50.0
370
    -2
100
AcDbBlockReference
  2
_DOTSMALL
 10
1787.870956908438
 20
6757.420619012552
 30
0.0
 41
100.0
 42
100.0
 43
100.0
 50
270.0
  0
MTEXT
  5
2EE3
330
2B56
100
AcDbEntity
  8
寸法
 62
     7
 48
50.0
100
AcDbMText
 10
1687.870956908437
 20
7074.570619012551
 30
0.0
 40
120.0
 41
0.0
 71
     5
 72
     1
  1
\A1;634.3
 11
0.0000000000000001
 21
1.0
 31
0.0
 73
     1
 44
1.0
1001
ACAD
1000
MTEXTBEGIN
1070
    73
1070
     1
1070
    44
1040
1.0
1070
    74
1070
     0
1000
MTEXTEND
  0
POINT
  5
2EE4
330
2B56
100
AcDbEntity
  8
DEFPOINTS
 62
     0
 48
50.0
100
AcDbPoint
 10
2361.540608108044
 20
7391.720619012551
 30
0.0
  0
POINT
  5
2EE5
330
2B56
100
AcDbEntity
  8
DEFPOINTS
 62
     0
 48
50.0
100
AcDbPoint
 10
2361.540608108044
 20
6757.420619012552
 30
0.0
  0
POINT
  5
2EE6
330
2B56
100
AcDbEntity
  8
DEFPOINTS
 62
     0
 48
50.0
100
AcDbPoint
 10
1787.870956908438
 20
6757.420619012552
 30
0.0
  0
ENDBLK
  5
2B60
330
2B56
100
AcDbEntity
  8
0
 48
50.0
100
AcDbBlockEnd
  0
BLOCK
  5
2B6A
330
2B61
100
AcDbEntity
  8
0
 48
50.0
100
AcDbBlockBegin
  2
*D18
 70
     1
 10
0.0
 20
0.0
 30
0.0
  3
*D18
  1

  0
LINE
  5
2ED7
330
2B61
100
AcDbEntity
  8
寸法
 62
     4
 48
50.0
370
    -2
100
AcDbLine
 10
2321.540608108044
 20
8026.020619012554
 30
0.0
 11
1747.870956908438
 21
8026.020619012555
 31
0.0
  0
LINE
  5
2ED8
330
2B61
100
AcDbEntity
  8
寸法
 62
     4
 48
50.0
370
    -2
100
AcDbLine
 10
1787.870956908438
 20
8286.120619012553
 30
0.0
 11
1787.870956908438
 21
8026.020619012555
 31
0.0
  0
MTEXT
  5
2ED9
330
2B61
100
AcDbEntity
  8
寸法
 62
     7
 48
50.0
100
AcDbMText
 10
1627.859145884817
 20
8068.085528056217
 30
0.0
 40
120.0
 41
0.0
 71
     5
 72
     1
  1
\A1;260.1
 11
0.0000000000000001
 21
1.0
 31
0.0
 73
     1
 44
1.0
1001
ACAD
1000
MTEXTBEGIN
1070
    73
1070
     1
1070
    44
1040
1.0
1070
    74
1070
     0
1000
MTEXTEND
  0
INSERT
  5
2EDA
330
2B61
100
AcDbEntity
  8
寸法
 62
     4
 48
50.0
370
    -2
100
AcDbBlockReference
  2
_DOTSMALL
 10
1787.870956908438
 20
8286.120619012553
 30
0.0
 41
100.0
 42
100.0
 43
100.0
 50
90.0
  0
INSERT
  5
2EDB
330
2B61
100
AcDbEntity
  8
寸法
 62
     4
 48
50.0
370
    -2
100
AcDbBlockReference
  2
_DOTSMALL
 10
1787.870956908438
 20
8026.020619012555
 30
0.0
 41
100.0
 42
100.0
 43
100.0
 50
270.0
  0
POINT
  5
2EDC
330
2B61
100
AcDbEntity
  8
DEFPOINTS
 62
     0
 48
50.0
100
AcDbPoint
 10
2361.540608108044
 20
8286.120619012553
 30
0.0
  0
POINT
  5
2EDD
330
2B61
100
AcDbEntity
  8
DEFPOINTS
 62
     0
 48
50.0
100
AcDbPoint
 10
2361.540608108044
 20
8026.020619012554
 30
0.0
  0
POINT
  5
2EDE
330
2B61
100
AcDbEntity
  8
DEFPOINTS
 62
     0
 48
50.0
100
AcDbPoint
 10
1787.870956908438
 20
8026.020619012555
 30
0.0
  0
ENDBLK
  5
2B6B
330
2B61
100
AcDbEntity
  8
0
 48
50.0
100
AcDbBlockEnd
  0
BLOCK
  5
2B75
330
2B6C
100
AcDbEntity
  8
0
 48
50.0
100
AcDbBlockBegin
  2
*D19
 70
     1
 10
0.0
 20
0.0
 30
0.0
  3
*D19
  1

  0
LINE
  5
2ECF
330
2B6C
100
AcDbEntity
  8
寸法
 62
     4
 48
50.0
370
    -2
100
AcDbLine
 10
2321.540608108044
 20
8286.120619012553
 30
0.0
 11
1747.870956908438
 21
8286.120619012553
 31
0.0
  0
LINE
  5
2ED0
330
2B6C
100
AcDbEntity
  8
寸法
 62
     4
 48
50.0
370
    -2
100
AcDbLine
 10
1787.870956908438
 20
8546.220619012547
 30
0.0
 11
1787.870956908438
 21
8286.120619012553
 31
0.0
  0
MTEXT
  5
2ED1
330
2B6C
100
AcDbEntity
  8
寸法
 62
     7
 48
50.0
100
AcDbMText
 10
1627.859145884817
 20
8471.537888503204
 30
0.0
 40
120.0
 41
0.0
 71
     5
 72
     1
  1
\A1;260.1
 11
0.0000000000000001
 21
1.0
 31
0.0
 73
     1
 44
1.0
1001
ACAD
1000
MTEXTBEGIN
1070
    73
1070
     1
1070
    44
1040
1.0
1070
    74
1070
     0
1000
MTEXTEND
  0
INSERT
  5
2ED2
330
2B6C
100
AcDbEntity
  8
寸法
 62
     4
 48
50.0
370
    -2
100
AcDbBlockReference
  2
_DOTSMALL
 10
1787.870956908438
 20
8546.220619012547
 30
0.0
 41
100.0
 42
100.0
 43
100.0
 50
90.0
  0
INSERT
  5
2ED3
330
2B6C
100
AcDbEntity
  8
寸法
 62
     4
 48
50.0
370
    -2
100
AcDbBlockReference
  2
_DOTSMALL
 10
1787.870956908438
 20
8286.120619012553
 30
0.0
 41
100.0
 42
100.0
 43
100.0
 50
270.0
  0
POINT
  5
2ED4
330
2B6C
100
AcDbEntity
  8
DEFPOINTS
 62
     0
 48
50.0
100
AcDbPoint
 10
2361.540608108044
 20
8546.220619012547
 30
0.0
  0
POINT
  5
2ED5
330
2B6C
100
AcDbEntity
  8
DEFPOINTS
 62
     0
 48
50.0
100
AcDbPoint
 10
2361.540608108044
 20
8286.120619012553
 30
0.0
  0
POINT
  5
2ED6
330
2B6C
100
AcDbEntity
  8
DEFPOINTS
 62
     0
 48
50.0
100
AcDbPoint
 10
1787.870956908438
 20
8286.120619012553
 30
0.0
  0
ENDBLK
  5
2B76
330
2B6C
100
AcDbEntity
  8
0
 48
50.0
100
AcDbBlockEnd
  0
BLOCK
  5
2B81
330
2B77
100
AcDbEntity
  8
0
 48
50.0
100
AcDbBlockBegin
  2
*D20
 70
     1
 10
0.0
 20
0.0
 30
0.0
  3
*D20
  1

  0
LINE
  5
2F87
330
2B77
100
AcDbEntity
  8
寸法
 62
     4
 48
50.0
370
    -2
100
AcDbLine
 10
2321.540608108044
 20
8546.220619012547
 30
0.0
 11
1747.870956908438
 21
8546.220619012547
 31
0.0
  0
LINE
  5
2F88
330
2B77
100
AcDbEntity
  8
寸法
 62
     4
 48
50.0
370
    -2
100
AcDbLine
 10
1787.870956908439
 20
9180.520619012551
 30
0.0
 11
1787.870956908439
 21
9280.52061901255
 31
0.0
  0
LINE
  5
2F89
330
2B77
100
AcDbEntity
  8
寸法
 62
     4
 48
50.0
370
    -2
100
AcDbLine
 10
1787.870956908438
 20
8546.220619012547
 30
0.0
 11
1787.870956908438
 21
8446.220619012548
 31
0.0
  0
MTEXT
  5
2F8A
330
2B77
100
AcDbEntity
  8
寸法
 62
     7
 48
50.0
100
AcDbMText
 10
1693.109252804352
 20
8980.254959543476
 30
0.0
 40
120.0
 41
0.0
 71
     5
 72
     1
  1
\A1;634.3
 11
0.0000000000000001
 21
1.0
 31
0.0
 73
     1
 44
1.0
1001
ACAD
1000
MTEXTBEGIN
1070
    73
1070
     1
1070
    44
1040
1.0
1070
    74
1070
     0
1000
MTEXTEND
  0
LINE
  5
2F8B
330
2B77
100
AcDbEntity
  8
寸法
 62
     4
 48
50.0
370
    -2
100
AcDbLine
 10
1787.870956908439
 20
9180.520619012551
 30
0.0
 11
1787.870956908438
 21
8546.220619012547
 31
0.0
  0
INSERT
  5
2F8C
330
2B77
100
AcDbEntity
  8
寸法
 62
     4
 48
50.0
370
    -2
100
AcDbBlockReference
  2
_DOTSMALL
 10
1787.870956908439
 20
9180.520619012551
 30
0.0
 41
100.0
 42
100.0
 43
100.0
 50
270.0
  0
INSERT
  5
2F8D
330
2B77
100
AcDbEntity
  8
寸法
 62
     4
 48
50.0
370
    -2
100
AcDbBlockReference
  2
_DOTSMALL
 10
1787.870956908438
 20
8546.220619012547
 30
0.0
 41
100.0
 42
100.0
 43
100.0
 50
90.0
  0
POINT
  5
2F8E
330
2B77
100
AcDbEntity
  8
DEFPOINTS
 62
     0
 48
50.0
100
AcDbPoint
 10
2361.540608108044
 20
9180.520619012551
 30
0.0
  0
POINT
  5
2F8F
330
2B77
100
AcDbEntity
  8
DEFPOINTS
 62
     0
 48
50.0
100
AcDbPoint
 10
2361.540608108044
 20
8546.220619012547
 30
0.0
  0
POINT
  5
2F90
330
2B77
100
AcDbEntity
  8
DEFPOINTS
 62
     0
 48
50.0
100
AcDbPoint
 10
1787.870956908438
 20
8546.220619012547
 30
0.0
  0
ENDBLK
  5
2B82
330
2B77
100
AcDbEntity
  8
0
 48
50.0
100
AcDbBlockEnd
  0
BLOCK
  5
2B8C
330
2B83
100
AcDbEntity
  8
0
 48
50.0
100
AcDbBlockBegin
  2
*D21
 70
     1
 10
0.0
 20
0.0
 30
0.0
  3
*D21
  1

  0
LINE
  5
2EBE
330
2B83
100
AcDbEntity
  8
寸法
 62
     4
 48
50.0
370
    -2
100
AcDbLine
 10
2321.540608108044
 20
9814.82061901255
 30
0.0
 11
1747.870956908438
 21
9814.82061901255
 31
0.0
  0
LINE
  5
2EBF
330
2B83
100
AcDbEntity
  8
寸法
 62
     4
 48
50.0
370
    -2
100
AcDbLine
 10
1787.870956908438
 20
10449.12061901255
 30
0.0
 11
1787.870956908438
 21
9814.82061901255
 31
0.0
  0
INSERT
  5
2EC0
330
2B83
100
AcDbEntity
  8
寸法
 62
     4
 48
50.0
370
    -2
100
AcDbBlockReference
  2
_DOTSMALL
 10
1787.870956908438
 20
10449.12061901255
 30
0.0
 41
100.0
 42
100.0
 43
100.0
 50
90.0
  0
INSERT
  5
2EC1
330
2B83
100
AcDbEntity
  8
寸法
 62
     4
 48
50.0
370
    -2
100
AcDbBlockReference
  2
_DOTSMALL
 10
1787.870956908438
 20
9814.82061901255
 30
0.0
 41
100.0
 42
100.0
 43
100.0
 50
270.0
  0
MTEXT
  5
2EC2
330
2B83
100
AcDbEntity
  8
寸法
 62
     7
 48
50.0
100
AcDbMText
 10
1687.870956908437
 20
10131.97061901255
 30
0.0
 40
120.0
 41
0.0
 71
     5
 72
     1
  1
\A1;634.3
 11
0.0000000000000001
 21
1.0
 31
0.0
 73
     1
 44
1.0
1001
ACAD
1000
MTEXTBEGIN
1070
    73
1070
     1
1070
    44
1040
1.0
1070
    74
1070
     0
1000
MTEXTEND
  0
POINT
  5
2EC3
330
2B83
100
AcDbEntity
  8
DEFPOINTS
 62
     0
 48
50.0
100
AcDbPoint
 10
2361.540608108044
 20
10449.12061901255
 30
0.0
  0
POINT
  5
2EC4
330
2B83
100
AcDbEntity
  8
DEFPOINTS
 62
     0
 48
50.0
100
AcDbPoint
 10
2361.540608108044
 20
9814.82061901255
 30
0.0
  0
POINT
  5
2EC5
330
2B83
100
AcDbEntity
  8
DEFPOINTS
 62
     0
 48
50.0
100
AcDbPoint
 10
1787.870956908438
 20
9814.82061901255
 30
0.0
  0
ENDBLK
  5
2B8D
330
2B83
100
AcDbEntity
  8
0
 48
50.0
100
AcDbBlockEnd
  0
BLOCK
  5
2B98
330
2B8E
100
AcDbEntity
  8
0
 48
50.0
100
AcDbBlockBegin
  2
*D22
 70
     1
 10
0.0
 20
0.0
 30
0.0
  3
*D22
  1

  0
LINE
  5
2EB5
330
2B8E
100
AcDbEntity
  8
寸法
 62
     4
 48
50.0
370
    -2
100
AcDbLine
 10
2331.540608108044
 20
10686.12061901255
 30
0.0
 11
1747.870956908438
 21
10686.12061901255
 31
0.0
  0
LINE
  5
2EB6
330
2B8E
100
AcDbEntity
  8
寸法
 62
     4
 48
50.0
370
    -2
100
AcDbLine
 10
2321.540608108044
 20
10449.12061901255
 30
0.0
 11
1747.870956908438
 21
10449.12061901255
 31
0.0
  0
LINE
  5
2EB7
330
2B8E
100
AcDbEntity
  8
寸法
 62
     4
 48
50.0
370
    -2
100
AcDbLine
 10
1787.870956908438
 20
10686.12061901255
 30
0.0
 11
1787.870956908438
 21
10449.12061901255
 31
0.0
  0
MTEXT
  5
2EB8
330
2B8E
100
AcDbEntity
  8
寸法
 62
     7
 48
50.0
100
AcDbMText
 10
1682.405509913456
 20
10567.62061901255
 30
0.0
 40
120.0
 41
0.0
 71
     5
 72
     1
  1
\A1;237
 11
0.0000000000000001
 21
1.0
 31
0.0
 73
     1
 44
1.0
1001
ACAD
1000
MTEXTBEGIN
1070
    73
1070
     1
1070
    44
1040
1.0
1070
    74
1070
     0
1000
MTEXTEND
  0
INSERT
  5
2EB9
330
2B8E
100
AcDbEntity
  8
寸法
 62
     4
 48
50.0
370
    -2
100
AcDbBlockReference
  2
_DOTSMALL
 10
1787.870956908438
 20
10686.12061901255
 30
0.0
 41
100.0
 42
100.0
 43
100.0
 50
90.0
  0
INSERT
  5
2EBA
330
2B8E
100
AcDbEntity
  8
寸法
 62
     4
 48
50.0
370
    -2
100
AcDbBlockReference
  2
_DOTSMALL
 10
1787.870956908438
 20
10449.12061901255
 30
0.0
 41
100.0
 42
100.0
 43
100.0
 50
270.0
  0
POINT
  5
2EBB
330
2B8E
100
AcDbEntity
  8
DEFPOINTS
 62
     0
 48
50.0
100
AcDbPoint
 10
2371.540608108044
 20
10686.12061901255
 30
0.0
  0
POINT
  5
2EBC
330
2B8E
100
AcDbEntity
  8
DEFPOINTS
 62
     0
 48
50.0
100
AcDbPoint
 10
2361.540608108044
 20
10449.12061901255
 30
0.0
  0
POINT
  5
2EBD
330
2B8E
100
AcDbEntity
  8
DEFPOINTS
 62
     0
 48
50.0
100
AcDbPoint
 10
1787.870956908438
 20
10449.12061901255
 30
0.0
  0
ENDBLK
  5
2B99
330
2B8E
100
AcDbEntity
  8
0
 48
50.0
100
AcDbBlockEnd
  0
BLOCK
  5
2BA4
330
2B9A
100
AcDbEntity
  8
0
 48
50.0
100
AcDbBlockBegin
  2
*D23
 70
     1
 10
0.0
 20
0.0
 30
0.0
  3
*D23
  1

  0
LINE
  5
2EAC
330
2B9A
100
AcDbEntity
  8
寸法
 62
     4
 48
50.0
370
    -2
100
AcDbLine
 10
7616.540608108042
 20
10616.12061901255
 30
0.0
 11
8276.993531295165
 21
10616.12061901255
 31
0.0
  0
LINE
  5
2EAD
330
2B9A
100
AcDbEntity
  8
寸法
 62
     4
 48
50.0
370
    -2
100
AcDbLine
 10
7616.540608108043
 20
8321.120619012559
 30
0.0
 11
8276.993531295165
 21
8321.120619012559
 31
0.0
  0
LINE
  5
2EAE
330
2B9A
100
AcDbEntity
  8
寸法
 62
     4
 48
50.0
370
    -2
100
AcDbLine
 10
8236.993531295164
 20
10616.12061901255
 30
0.0
 11
8236.993531295164
 21
8321.120619012559
 31
0.0
  0
INSERT
  5
2EAF
330
2B9A
100
AcDbEntity
  8
寸法
 62
     4
 48
50.0
370
    -2
100
AcDbBlockReference
  2
_DOTSMALL
 10
8236.993531295164
 20
10616.12061901255
 30
0.0
 41
100.0
 42
100.0
 43
100.0
 50
90.0
  0
INSERT
  5
2EB0
330
2B9A
100
AcDbEntity
  8
寸法
 62
     4
 48
50.0
370
    -2
100
AcDbBlockReference
  2
_DOTSMALL
 10
8236.993531295164
 20
8321.120619012559
 30
0.0
 41
100.0
 42
100.0
 43
100.0
 50
270.0
  0
MTEXT
  5
2EB1
330
2B9A
100
AcDbEntity
  8
寸法
 62
     7
 48
50.0
100
AcDbMText
 10
8136.98172027154
 20
9468.620619012556
 30
0.0
 40
120.0
 41
0.0
 71
     5
 72
     1
  1
\A1;2295
 11
0.0000000000000001
 21
1.0
 31
0.0
 73
     1
 44
1.0
1001
ACAD
1000
MTEXTBEGIN
1070
    73
1070
     1
1070
    44
1040
1.0
1070
    74
1070
     0
1000
MTEXTEND
  0
POINT
  5
2EB2
330
2B9A
100
AcDbEntity
  8
DEFPOINTS
 62
     0
 48
50.0
100
AcDbPoint
 10
7576.540608108041
 20
10616.12061901255
 30
0.0
  0
POINT
  5
2EB3
330
2B9A
100
AcDbEntity
  8
DEFPOINTS
 62
     0
 48
50.0
100
AcDbPoint
 10
7576.540608108043
 20
8321.120619012559
 30
0.0
  0
POINT
  5
2EB4
330
2B9A
100
AcDbEntity
  8
DEFPOINTS
 62
     0
 48
50.0
100
AcDbPoint
 10
8236.993531295164
 20
8321.120619012559
 30
0.0
  0
ENDBLK
  5
2BA5
330
2B9A
100
AcDbEntity
  8
0
 48
50.0
100
AcDbBlockEnd
  0
BLOCK
  5
2BAF
330
2BA6
100
AcDbEntity
  8
0
 48
50.0
100
AcDbBlockBegin
  2
*D24
 70
     1
 10
0.0
 20
0.0
 30
0.0
  3
*D24
  1

  0
LINE
  5
2EA4
330
2BA6
100
AcDbEntity
  8
寸法
 62
     4
 48
50.0
370
    -2
100
AcDbLine
 10
7616.540608108043
 20
5956.120619012556
 30
0.0
 11
8276.993531295165
 21
5956.120619012556
 31
0.0
  0
LINE
  5
2EA5
330
2BA6
100
AcDbEntity
  8
寸法
 62
     4
 48
50.0
370
    -2
100
AcDbLine
 10
8236.993531295164
 20
8251.120619012557
 30
0.0
 11
8236.993531295164
 21
5956.120619012556
 31
0.0
  0
INSERT
  5
2EA6
330
2BA6
100
AcDbEntity
  8
寸法
 62
     4
 48
50.0
370
    -2
100
AcDbBlockReference
  2
_DOTSMALL
 10
8236.993531295164
 20
8251.120619012557
 30
0.0
 41
100.0
 42
100.0
 43
100.0
 50
90.0
  0
INSERT
  5
2EA7
330
2BA6
100
AcDbEntity
  8
寸法
 62
     4
 48
50.0
370
    -2
100
AcDbBlockReference
  2
_DOTSMALL
 10
8236.993531295164
 20
5956.120619012556
 30
0.0
 41
100.0
 42
100.0
 43
100.0
 50
270.0
  0
MTEXT
  5
2EA8
330
2BA6
100
AcDbEntity
  8
寸法
 62
     7
 48
50.0
100
AcDbMText
 10
8136.98172027154
 20
7103.620619012557
 30
0.0
 40
120.0
 41
0.0
 71
     5
 72
     1
  1
\A1;2295
 11
0.0000000000000001
 21
1.0
 31
0.0
 73
     1
 44
1.0
1001
ACAD
1000
MTEXTBEGIN
1070
    73
1070
     1
1070
    44
1040
1.0
1070
    74
1070
     0
1000
MTEXTEND
  0
POINT
  5
2EA9
330
2BA6
100
AcDbEntity
  8
DEFPOINTS
 62
     0
 48
50.0
100
AcDbPoint
 10
7576.540608108044
 20
8251.120619012557
 30
0.0
  0
POINT
  5
2EAA
330
2BA6
100
AcDbEntity
  8
DEFPOINTS
 62
     0
 48
50.0
100
AcDbPoint
 10
7576.540608108044
 20
5956.120619012556
 30
0.0
  0
POINT
  5
2EAB
330
2BA6
100
AcDbEntity
  8
DEFPOINTS
 62
     0
 48
50.0
100
AcDbPoint
 10
8236.993531295164
 20
5956.120619012556
 30
0.0
  0
ENDBLK
  5
2BB0
330
2BA6
100
AcDbEntity
  8
0
 48
50.0
100
AcDbBlockEnd
  0
BLOCK
  5
2BBB
330
2BB1
100
AcDbEntity
  8
0
 48
50.0
100
AcDbBlockBegin
  2
*D25
 70
     1
 10
0.0
 20
0.0
 30
0.0
  3
*D25
  1

  0
LINE
  5
2E9B
330
2BB1
100
AcDbEntity
  8
寸法
 62
     4
 48
50.0
370
    -2
100
AcDbLine
 10
7651.540608108042
 20
10686.12061901255
 30
0.0
 11
8276.993531295165
 21
10686.12061901255
 31
0.0
  0
LINE
  5
2E9C
330
2BB1
100
AcDbEntity
  8
寸法
 62
     4
 48
50.0
370
    -2
100
AcDbLine
 10
8236.993531295164
 20
10616.12061901255
 30
0.0
 11
8236.993531295164
 21
10516.12061901255
 31
0.0
  0
LINE
  5
2E9D
330
2BB1
100
AcDbEntity
  8
寸法
 62
     4
 48
50.0
370
    -2
100
AcDbLine
 10
8236.993531295164
 20
10686.12061901255
 30
0.0
 11
8236.993531295164
 21
10786.12061901255
 31
0.0
  0
MTEXT
  5
2E9E
330
2BB1
100
AcDbEntity
  8
寸法
 62
     7
 48
50.0
100
AcDbMText
 10
8156.53838083522
 20
10780.83824929394
 30
0.0
 40
120.0
 41
0.0
 71
     5
 72
     1
  1
\A1;70
 11
0.0000000000000001
 21
1.0
 31
0.0
 73
     1
 44
1.0
1001
ACAD
1000
MTEXTBEGIN
1070
    73
1070
     1
1070
    44
1040
1.0
1070
    74
1070
     0
1000
MTEXTEND
  0
INSERT
  5
2E9F
330
2BB1
100
AcDbEntity
  8
寸法
 62
     4
 48
50.0
370
    -2
100
AcDbBlockReference
  2
_DOTSMALL
 10
8236.993531295164
 20
10616.12061901255
 30
0.0
 41
100.0
 42
100.0
 43
100.0
 50
90.0
  0
INSERT
  5
2EA0
330
2BB1
100
AcDbEntity
  8
寸法
 62
     4
 48
50.0
370
    -2
100
AcDbBlockReference
  2
_DOTSMALL
 10
8236.993531295164
 20
10686.12061901255
 30
0.0
 41
100.0
 42
100.0
 43
100.0
 50
270.0
  0
POINT
  5
2EA1
330
2BB1
100
AcDbEntity
  8
DEFPOINTS
 62
     0
 48
50.0
100
AcDbPoint
 10
7573.040608108036
 20
10616.12061901255
 30
0.0
  0
POINT
  5
2EA2
330
2BB1
100
AcDbEntity
  8
DEFPOINTS
 62
     0
 48
50.0
100
AcDbPoint
 10
7611.540608108042
 20
10686.12061901255
 30
0.0
  0
POINT
  5
2EA3
330
2BB1
100
AcDbEntity
  8
DEFPOINTS
 62
     0
 48
50.0
100
AcDbPoint
 10
8236.993531295164
 20
10686.12061901255
 30
0.0
  0
ENDBLK
  5
2BBC
330
2BB1
100
AcDbEntity
  8
0
 48
50.0
100
AcDbBlockEnd
  0
BLOCK
  5
2BC7
330
2BBD
100
AcDbEntity
  8
0
 48
50.0
100
AcDbBlockBegin
  2
*D26
 70
     1
 10
0.0
 20
0.0
 30
0.0
  3
*D26
  1

  0
LINE
  5
2E92
330
2BBD
100
AcDbEntity
  8
寸法
 62
     4
 48
50.0
370
    -2
100
AcDbLine
 10
9479.78336771316
 20
4520.058816120086
 30
0.0
 11
9479.78336771316
 21
5113.498668445671
 31
0.0
  0
LINE
  5
2E93
330
2BBD
100
AcDbEntity
  8
寸法
 62
     4
 48
50.0
370
    -2
100
AcDbLine
 10
14279.78336771315
 20
4520.058816120086
 30
0.0
 11
14279.78336771315
 21
5113.498668445671
 31
0.0
  0
LINE
  5
2E94
330
2BBD
100
AcDbEntity
  8
寸法
 62
     4
 48
50.0
370
    -2
100
AcDbLine
 10
9479.78336771316
 20
5073.498668445671
 30
0.0
 11
14279.78336771315
 21
5073.498668445671
 31
0.0
  0
INSERT
  5
2E95
330
2BBD
100
AcDbEntity
  8
寸法
 62
     4
 48
50.0
370
    -2
100
AcDbBlockReference
  2
_DOTSMALL
 10
9479.78336771316
 20
5073.498668445671
 30
0.0
 41
100.0
 42
100.0
 43
100.0
 50
180.0
  0
INSERT
  5
2E96
330
2BBD
100
AcDbEntity
  8
寸法
 62
     4
 48
50.0
370
    -2
100
AcDbBlockReference
  2
_DOTSMALL
 10
14279.78336771315
 20
5073.498668445671
 30
0.0
 41
100.0
 42
100.0
 43
100.0
  0
MTEXT
  5
2E97
330
2BBD
100
AcDbEntity
  8
寸法
 62
     7
 48
50.0
100
AcDbMText
 10
11879.78336771315
 20
5173.49866844567
 30
0.0
 40
120.0
 41
0.0
 71
     5
 72
     1
  1
\A1;4800
 73
     1
 44
1.0
1001
ACAD
1000
MTEXTBEGIN
1070
    73
1070
     1
1070
    44
1040
1.0
1070
    74
1070
     0
1000
MTEXTEND
  0
POINT
  5
2E98
330
2BBD
100
AcDbEntity
  8
DEFPOINTS
 62
     0
 48
50.0
100
AcDbPoint
 10
9479.78336771316
 20
4480.058816120087
 30
0.0
  0
POINT
  5
2E99
330
2BBD
100
AcDbEntity
  8
DEFPOINTS
 62
     0
 48
50.0
100
AcDbPoint
 10
14279.78336771315
 20
4480.058816120087
 30
0.0
  0
POINT
  5
2E9A
330
2BBD
100
AcDbEntity
  8
DEFPOINTS
 62
     0
 48
50.0
100
AcDbPoint
 10
14279.78336771315
 20
5073.498668445671
 30
0.0
  0
ENDBLK
  5
2BC8
330
2BBD
100
AcDbEntity
  8
0
 48
50.0
100
AcDbBlockEnd
  0
BLOCK
  5
2BD2
330
2BC9
100
AcDbEntity
  8
0
 48
50.0
100
AcDbBlockBegin
  2
*D27
 70
     1
 10
0.0
 20
0.0
 30
0.0
  3
*D27
  1

  0
LINE
  5
2F69
330
2BC9
100
AcDbEntity
  8
細線
 62
     4
 48
50.0
370
    -2
100
AcDbLine
 10
14279.78336771315
 20
4520.058816120086
 30
0.0
 11
14279.78336771315
 21
4833.49866844567
 31
0.0
  0
LINE
  5
2F6A
330
2BC9
100
AcDbEntity
  8
細線
 62
     4
 48
50.0
370
    -2
100
AcDbLine
 10
13529.78336771315
 20
4793.49866844567
 30
0.0
 11
14279.78336771315
 21
4793.49866844567
 31
0.0
  0
INSERT
  5
2F6B
330
2BC9
100
AcDbEntity
  8
細線
 62
     4
 48
50.0
370
    -2
100
AcDbBlockReference
  2
_DOTSMALL
 10
13529.78336771315
 20
4793.49866844567
 30
0.0
 41
100.0
 42
100.0
 43
100.0
 50
180.0
  0
INSERT
  5
2F6C
330
2BC9
100
AcDbEntity
  8
細線
 62
     4
 48
50.0
370
    -2
100
AcDbBlockReference
  2
_DOTSMALL
 10
14279.78336771315
 20
4793.49866844567
 30
0.0
 41
100.0
 42
100.0
 43
100.0
  0
MTEXT
  5
2F6D
330
2BC9
100
AcDbEntity
  8
細線
 62
     7
 48
50.0
100
AcDbMText
 10
13904.78336771315
 20
4893.498668445671
 30
0.0
 40
120.0
 41
0.0
 71
     5
 72
     1
  1
\A1;750
 73
     1
 44
1.0
1001
ACAD
1000
MTEXTBEGIN
1070
    73
1070
     1
1070
    44
1040
1.0
1070
    74
1070
     0
1000
MTEXTEND
  0
POINT
  5
2F6E
330
2BC9
100
AcDbEntity
  8
DEFPOINTS
 62
     0
 48
50.0
100
AcDbPoint
 10
13529.78336771315
 20
4183.078148876734
 30
0.0
  0
POINT
  5
2F6F
330
2BC9
100
AcDbEntity
  8
DEFPOINTS
 62
     0
 48
50.0
100
AcDbPoint
 10
14279.78336771315
 20
4480.058816120087
 30
0.0
  0
POINT
  5
2F70
330
2BC9
100
AcDbEntity
  8
DEFPOINTS
 62
     0
 48
50.0
100
AcDbPoint
 10
14279.78336771315
 20
4793.49866844567
 30
0.0
  0
ENDBLK
  5
2BD3
330
2BC9
100
AcDbEntity
  8
0
 48
50.0
100
AcDbBlockEnd
  0
BLOCK
  5
2BDD
330
2BD4
100
AcDbEntity
  8
0
 48
50.0
100
AcDbBlockBegin
  2
*D28
 70
     1
 10
0.0
 20
0.0
 30
0.0
  3
*D28
  1

  0
LINE
  5
2E82
330
2BD4
100
AcDbEntity
  8
寸法
 62
     4
 48
50.0
370
    -2
100
AcDbLine
 10
11879.78336771315
 20
4520.058816120086
 30
0.0
 11
11879.78336771315
 21
4833.49866844567
 31
0.0
  0
LINE
  5
2E83
330
2BD4
100
AcDbEntity
  8
寸法
 62
     4
 48
50.0
370
    -2
100
AcDbLine
 10
10229.78336771315
 20
4793.49866844567
 30
0.0
 11
11879.78336771315
 21
4793.49866844567
 31
0.0
  0
INSERT
  5
2E84
330
2BD4
100
AcDbEntity
  8
寸法
 62
     4
 48
50.0
370
    -2
100
AcDbBlockReference
  2
_DOTSMALL
 10
10229.78336771315
 20
4793.49866844567
 30
0.0
 41
100.0
 42
100.0
 43
100.0
 50
180.0
  0
INSERT
  5
2E85
330
2BD4
100
AcDbEntity
  8
寸法
 62
     4
 48
50.0
370
    -2
100
AcDbBlockReference
  2
_DOTSMALL
 10
11879.78336771315
 20
4793.49866844567
 30
0.0
 41
100.0
 42
100.0
 43
100.0
  0
MTEXT
  5
2E86
330
2BD4
100
AcDbEntity
  8
寸法
 62
     7
 48
50.0
100
AcDbMText
 10
11054.78336771315
 20
4893.498668445671
 30
0.0
 40
120.0
 41
0.0
 71
     5
 72
     1
  1
\A1;1650
 73
     1
 44
1.0
1001
ACAD
1000
MTEXTBEGIN
1070
    73
1070
     1
1070
    44
1040
1.0
1070
    74
1070
     0
1000
MTEXTEND
  0
POINT
  5
2E87
330
2BD4
100
AcDbEntity
  8
DEFPOINTS
 62
     0
 48
50.0
100
AcDbPoint
 10
10229.78336771315
 20
4183.078148876735
 30
0.0
  0
POINT
  5
2E88
330
2BD4
100
AcDbEntity
  8
DEFPOINTS
 62
     0
 48
50.0
100
AcDbPoint
 10
11879.78336771315
 20
4480.058816120087
 30
0.0
  0
POINT
  5
2E89
330
2BD4
100
AcDbEntity
  8
DEFPOINTS
 62
     0
 48
50.0
100
AcDbPoint
 10
11879.78336771315
 20
4793.49866844567
 30
0.0
  0
ENDBLK
  5
2BDE
330
2BD4
100
AcDbEntity
  8
0
 48
50.0
100
AcDbBlockEnd
  0
BLOCK
  5
2BE9
330
2BDF
100
AcDbEntity
  8
0
 48
50.0
100
AcDbBlockBegin
  2
*D29
 70
     1
 10
0.0
 20
0.0
 30
0.0
  3
*D29
  1

  0
LINE
  5
2E79
330
2BDF
100
AcDbEntity
  8
寸法
 62
     4
 48
50.0
370
    -2
100
AcDbLine
 10
9439.783367713159
 20
4480.058816120087
 30
0.0
 11
8745.253168747922
 21
4480.058816120087
 31
0.0
  0
LINE
  5
2E7A
330
2BDF
100
AcDbEntity
  8
寸法
 62
     4
 48
50.0
370
    -2
100
AcDbLine
 10
8782.49845011434
 20
2369.058816120087
 30
0.0
 11
8745.25316874792
 21
2369.058816120087
 31
0.0
  0
LINE
  5
2E7B
330
2BDF
100
AcDbEntity
  8
寸法
 62
     4
 48
50.0
370
    -2
100
AcDbLine
 10
8785.253168747923
 20
4480.058816120087
 30
0.0
 11
8785.253168747919
 21
2369.058816120087
 31
0.0
  0
INSERT
  5
2E7C
330
2BDF
100
AcDbEntity
  8
寸法
 62
     4
 48
50.0
370
    -2
100
AcDbBlockReference
  2
_DOTSMALL
 10
8785.253168747923
 20
4480.058816120087
 30
0.0
 41
100.0
 42
100.0
 43
100.0
 50
90.0
  0
INSERT
  5
2E7D
330
2BDF
100
AcDbEntity
  8
寸法
 62
     4
 48
50.0
370
    -2
100
AcDbBlockReference
  2
_DOTSMALL
 10
8785.253168747919
 20
2369.058816120087
 30
0.0
 41
100.0
 42
100.0
 43
100.0
 50
270.0
  0
MTEXT
  5
2E7E
330
2BDF
100
AcDbEntity
  8
寸法
 62
     7
 48
50.0
100
AcDbMText
 10
8685.241357724299
 20
3424.558816120088
 30
0.0
 40
120.0
 41
0.0
 71
     5
 72
     1
  1
\A1;2111
 11
0.0000000000000001
 21
1.0
 31
0.0
 73
     1
 44
1.0
1001
ACAD
1000
MTEXTBEGIN
1070
    73
1070
     1
1070
    44
1040
1.0
1070
    74
1070
     0
1000
MTEXTEND
  0
POINT
  5
2E7F
330
2BDF
100
AcDbEntity
  8
DEFPOINTS
 62
     0
 48
50.0
100
AcDbPoint
 10
9479.78336771316
 20
4480.058816120087
 30
0.0
  0
POINT
  5
2E80
330
2BDF
100
AcDbEntity
  8
DEFPOINTS
 62
     0
 48
50.0
100
AcDbPoint
 10
8822.498450114341
 20
2369.058816120087
 30
0.0
  0
POINT
  5
2E81
330
2BDF
100
AcDbEntity
  8
DEFPOINTS
 62
     0
 48
50.0
100
AcDbPoint
 10
8785.253168747919
 20
2369.058816120087
 30
0.0
  0
ENDBLK
  5
2BEA
330
2BDF
100
AcDbEntity
  8
0
 48
50.0
100
AcDbBlockEnd
  0
BLOCK
  5
2BF4
330
2BEB
100
AcDbEntity
  8
0
 48
50.0
100
AcDbBlockBegin
  2
*D30
 70
     1
 10
0.0
 20
0.0
 30
0.0
  3
*D30
  1

  0
LINE
  5
2E71
330
2BEB
100
AcDbEntity
  8
寸法
 62
     4
 48
50.0
370
    -2
100
AcDbLine
 10
10219.78336771316
 20
3519.058816120087
 30
0.0
 11
9351.810716276849
 21
3519.058816120087
 31
0.0
  0
LINE
  5
2E72
330
2BEB
100
AcDbEntity
  8
寸法
 62
     4
 48
50.0
370
    -2
100
AcDbLine
 10
9391.81071627685
 20
2619.058816120087
 30
0.0
 11
9391.81071627685
 21
3519.058816120087
 31
0.0
  0
INSERT
  5
2E73
330
2BEB
100
AcDbEntity
  8
寸法
 62
     4
 48
50.0
370
    -2
100
AcDbBlockReference
  2
_DOTSMALL
 10
9391.81071627685
 20
2619.058816120087
 30
0.0
 41
100.0
 42
100.0
 43
100.0
 50
270.0
  0
INSERT
  5
2E74
330
2BEB
100
AcDbEntity
  8
寸法
 62
     4
 48
50.0
370
    -2
100
AcDbBlockReference
  2
_DOTSMALL
 10
9391.81071627685
 20
3519.058816120087
 30
0.0
 41
100.0
 42
100.0
 43
100.0
 50
90.0
  0
MTEXT
  5
2E75
330
2BEB
100
AcDbEntity
  8
寸法
 62
     7
 48
50.0
100
AcDbMText
 10
9291.810716276851
 20
3069.058816120089
 30
0.0
 40
120.0
 41
0.0
 71
     5
 72
     1
  1
\A1;900
 11
0.0000000000000001
 21
1.0
 31
0.0
 73
     1
 44
1.0
1001
ACAD
1000
MTEXTBEGIN
1070
    73
1070
     1
1070
    44
1040
1.0
1070
    74
1070
     0
1000
MTEXTEND
  0
POINT
  5
2E76
330
2BEB
100
AcDbEntity
  8
DEFPOINTS
 62
     0
 48
50.0
100
AcDbPoint
 10
10259.78336771316
 20
2619.058816120087
 30
0.0
  0
POINT
  5
2E77
330
2BEB
100
AcDbEntity
  8
DEFPOINTS
 62
     0
 48
50.0
100
AcDbPoint
 10
10259.78336771316
 20
3519.058816120087
 30
0.0
  0
POINT
  5
2E78
330
2BEB
100
AcDbEntity
  8
DEFPOINTS
 62
     0
 48
50.0
100
AcDbPoint
 10
9391.81071627685
 20
3519.058816120087
 30
0.0
  0
ENDBLK
  5
2BF5
330
2BEB
100
AcDbEntity
  8
0
 48
50.0
100
AcDbBlockEnd
  0
BLOCK
  5
2C00
330
2BF6
100
AcDbEntity
  8
0
 48
50.0
100
AcDbBlockBegin
  2
*D31
 70
     1
 10
0.0
 20
0.0
 30
0.0
  3
*D31
  1

  0
LINE
  5
2E68
330
2BF6
100
AcDbEntity
  8
寸法
 62
     4
 48
50.0
370
    -2
100
AcDbLine
 10
9415.710487269301
 20
2369.058816120087
 30
0.0
 11
9431.810716276849
 21
2369.058816120087
 31
0.0
  0
LINE
  5
2E69
330
2BF6
100
AcDbEntity
  8
寸法
 62
     4
 48
50.0
370
    -2
100
AcDbLine
 10
10219.78336771316
 20
2619.058816120087
 30
0.0
 11
9351.810716276849
 21
2619.058816120087
 31
0.0
  0
LINE
  5
2E6A
330
2BF6
100
AcDbEntity
  8
寸法
 62
     4
 48
50.0
370
    -2
100
AcDbLine
 10
9391.81071627685
 20
2369.058816120087
 30
0.0
 11
9391.81071627685
 21
2619.058816120087
 31
0.0
  0
MTEXT
  5
2E6B
330
2BF6
100
AcDbEntity
  8
寸法
 62
     7
 48
50.0
100
AcDbMText
 10
9281.254079217594
 20
2494.058816120087
 30
0.0
 40
120.0
 41
0.0
 71
     5
 72
     1
  1
\A1;250
 11
0.0000000000000001
 21
1.0
 31
0.0
 73
     1
 44
1.0
1001
ACAD
1000
MTEXTBEGIN
1070
    73
1070
     1
1070
    44
1040
1.0
1070
    74
1070
     0
1000
MTEXTEND
  0
INSERT
  5
2E6C
330
2BF6
100
AcDbEntity
  8
寸法
 62
     4
 48
50.0
370
    -2
100
AcDbBlockReference
  2
_DOTSMALL
 10
9391.81071627685
 20
2369.058816120087
 30
0.0
 41
100.0
 42
100.0
 43
100.0
 50
270.0
  0
INSERT
  5
2E6D
330
2BF6
100
AcDbEntity
  8
寸法
 62
     4
 48
50.0
370
    -2
100
AcDbBlockReference
  2
_DOTSMALL
 10
9391.81071627685
 20
2619.058816120087
 30
0.0
 41
100.0
 42
100.0
 43
100.0
 50
90.0
  0
POINT
  5
2E6E
330
2BF6
100
AcDbEntity
  8
DEFPOINTS
 62
     0
 48
50.0
100
AcDbPoint
 10
9375.710487269302
 20
2369.058816120087
 30
0.0
  0
POINT
  5
2E6F
330
2BF6
100
AcDbEntity
  8
DEFPOINTS
 62
     0
 48
50.0
100
AcDbPoint
 10
10259.78336771316
 20
2619.058816120087
 30
0.0
  0
POINT
  5
2E70
330
2BF6
100
AcDbEntity
  8
DEFPOINTS
 62
     0
 48
50.0
100
AcDbPoint
 10
9391.81071627685
 20
2619.058816120087
 30
0.0
  0
ENDBLK
  5
2C01
330
2BF6
100
AcDbEntity
  8
0
 48
50.0
100
AcDbBlockEnd
  0
BLOCK
  5
2C0C
330
2C02
100
AcDbEntity
  8
0
 48
50.0
100
AcDbBlockBegin
  2
*D32
 70
     1
 10
0.0
 20
0.0
 30
0.0
  3
*D32
  1

  0
LINE
  5
2E5F
330
2C02
100
AcDbEntity
  8
寸法
 62
     4
 48
50.0
370
    -2
100
AcDbLine
 10
9479.78336771316
 20
4520.058816120086
 30
0.0
 11
9479.78336771316
 21
4833.49866844567
 31
0.0
  0
LINE
  5
2E60
330
2C02
100
AcDbEntity
  8
寸法
 62
     4
 48
50.0
370
    -2
100
AcDbLine
 10
10229.78336771315
 20
4223.078148876735
 30
0.0
 11
10229.78336771315
 21
4833.49866844567
 31
0.0
  0
LINE
  5
2E61
330
2C02
100
AcDbEntity
  8
寸法
 62
     4
 48
50.0
370
    -2
100
AcDbLine
 10
9479.78336771316
 20
4793.49866844567
 30
0.0
 11
10229.78336771315
 21
4793.49866844567
 31
0.0
  0
INSERT
  5
2E62
330
2C02
100
AcDbEntity
  8
寸法
 62
     4
 48
50.0
370
    -2
100
AcDbBlockReference
  2
_DOTSMALL
 10
9479.78336771316
 20
4793.49866844567
 30
0.0
 41
100.0
 42
100.0
 43
100.0
 50
180.0
  0
INSERT
  5
2E63
330
2C02
100
AcDbEntity
  8
寸法
 62
     4
 48
50.0
370
    -2
100
AcDbBlockReference
  2
_DOTSMALL
 10
10229.78336771315
 20
4793.49866844567
 30
0.0
 41
100.0
 42
100.0
 43
100.0
  0
MTEXT
  5
2E64
330
2C02
100
AcDbEntity
  8
寸法
 62
     7
 48
50.0
100
AcDbMText
 10
9854.78336771316
 20
4893.498668445671
 30
0.0
 40
120.0
 41
0.0
 71
     5
 72
     1
  1
\A1;750
 73
     1
 44
1.0
1001
ACAD
1000
MTEXTBEGIN
1070
    73
1070
     1
1070
    44
1040
1.0
1070
    74
1070
     0
1000
MTEXTEND
  0
POINT
  5
2E65
330
2C02
100
AcDbEntity
  8
DEFPOINTS
 62
     0
 48
50.0
100
AcDbPoint
 10
9479.78336771316
 20
4480.058816120087
 30
0.0
  0
POINT
  5
2E66
330
2C02
100
AcDbEntity
  8
DEFPOINTS
 62
     0
 48
50.0
100
AcDbPoint
 10
10229.78336771315
 20
4183.078148876735
 30
0.0
  0
POINT
  5
2E67
330
2C02
100
AcDbEntity
  8
DEFPOINTS
 62
     0
 48
50.0
100
AcDbPoint
 10
10229.78336771315
 20
4793.49866844567
 30
0.0
  0
ENDBLK
  5
2C0D
330
2C02
100
AcDbEntity
  8
0
 48
50.0
100
AcDbBlockEnd
  0
BLOCK
  5
2C17
330
2C0E
100
AcDbEntity
  8
0
 48
50.0
100
AcDbBlockBegin
  2
*D33
 70
     1
 10
0.0
 20
0.0
 30
0.0
  3
*D33
  1

  0
LINE
  5
2F61
330
2C0E
100
AcDbEntity
  8
寸法
 62
     4
 48
50.0
370
    -2
100
AcDbLine
 10
13529.78336771315
 20
4223.078148876733
 30
0.0
 11
13529.78336771315
 21
4833.49866844567
 31
0.0
  0
LINE
  5
2F62
330
2C0E
100
AcDbEntity
  8
寸法
 62
     4
 48
50.0
370
    -2
100
AcDbLine
 10
11879.78336771315
 20
4793.49866844567
 30
0.0
 11
13529.78336771315
 21
4793.49866844567
 31
0.0
  0
INSERT
  5
2F63
330
2C0E
100
AcDbEntity
  8
寸法
 62
     4
 48
50.0
370
    -2
100
AcDbBlockReference
  2
_DOTSMALL
 10
11879.78336771315
 20
4793.49866844567
 30
0.0
 41
100.0
 42
100.0
 43
100.0
 50
180.0
  0
INSERT
  5
2F64
330
2C0E
100
AcDbEntity
  8
寸法
 62
     4
 48
50.0
370
    -2
100
AcDbBlockReference
  2
_DOTSMALL
 10
13529.78336771315
 20
4793.49866844567
 30
0.0
 41
100.0
 42
100.0
 43
100.0
  0
MTEXT
  5
2F65
330
2C0E
100
AcDbEntity
  8
寸法
 62
     7
 48
50.0
100
AcDbMText
 10
12704.78336771315
 20
4893.498668445671
 30
0.0
 40
120.0
 41
0.0
 71
     5
 72
     1
  1
\A1;1650
 73
     1
 44
1.0
1001
ACAD
1000
MTEXTBEGIN
1070
    73
1070
     1
1070
    44
1040
1.0
1070
    74
1070
     0
1000
MTEXTEND
  0
POINT
  5
2F66
330
2C0E
100
AcDbEntity
  8
DEFPOINTS
 62
     0
 48
50.0
100
AcDbPoint
 10
11879.78336771315
 20
4480.058816120087
 30
0.0
  0
POINT
  5
2F67
330
2C0E
100
AcDbEntity
  8
DEFPOINTS
 62
     0
 48
50.0
100
AcDbPoint
 10
13529.78336771315
 20
4183.078148876734
 30
0.0
  0
POINT
  5
2F68
330
2C0E
100
AcDbEntity
  8
DEFPOINTS
 62
     0
 48
50.0
100
AcDbPoint
 10
13529.78336771315
 20
4793.49866844567
 30
0.0
  0
ENDBLK
  5
2C18
330
2C0E
100
AcDbEntity
  8
0
 48
50.0
100
AcDbBlockEnd
  0
BLOCK
  5
2C24
330
2C19
100
AcDbEntity
  8
0
 48
50.0
100
AcDbBlockBegin
  2
*D34
 70
     1
 10
0.0
 20
0.0
 30
0.0
  3
*D34
  1

  0
LINE
  5
2E4D
330
2C19
100
AcDbEntity
  8
寸法
 62
     4
 48
50.0
370
    -2
100
AcDbLine
 10
14319.78336771315
 20
2419.058816120087
 30
0.0
 11
14836.91192884818
 21
2419.058816120087
 31
0.0
  0
LINE
  5
2E4E
330
2C19
100
AcDbEntity
  8
寸法
 62
     4
 48
50.0
370
    -2
100
AcDbLine
 10
14769.05573788627
 20
2369.058816120087
 30
0.0
 11
14756.91192884818
 21
2369.058816120087
 31
0.0
  0
LINE
  5
2E4F
330
2C19
100
AcDbEntity
  8
寸法
 62
     4
 48
50.0
370
    -2
100
AcDbLine
 10
14796.91192884818
 20
2419.058816120087
 30
0.0
 11
14796.91192884818
 21
2519.058816120087
 31
0.0
  0
LINE
  5
2E50
330
2C19
100
AcDbEntity
  8
寸法
 62
     4
 48
50.0
370
    -2
100
AcDbLine
 10
14796.91192884818
 20
2369.058816120087
 30
0.0
 11
14796.91192884818
 21
2269.058816120087
 31
0.0
  0
MTEXT
  5
2E51
330
2C19
100
AcDbEntity
  8
寸法
 62
     7
 48
50.0
100
AcDbMText
 10
14675.47383846734
 20
2549.461862598048
 30
0.0
 40
120.0
 41
0.0
 71
     5
 72
     1
  1
\A1;50
 11
0.0000000000000001
 21
1.0
 31
0.0
 73
     1
 44
1.0
1001
ACAD
1000
MTEXTBEGIN
1070
    73
1070
     1
1070
    44
1040
1.0
1070
    74
1070
     0
1000
MTEXTEND
  0
INSERT
  5
2E52
330
2C19
100
AcDbEntity
  8
寸法
 62
     4
 48
50.0
370
    -2
100
AcDbBlockReference
  2
_DOTSMALL
 10
14796.91192884818
 20
2419.058816120087
 30
0.0
 41
100.0
 42
100.0
 43
100.0
 50
270.0
  0
INSERT
  5
2E53
330
2C19
100
AcDbEntity
  8
寸法
 62
     4
 48
50.0
370
    -2
100
AcDbBlockReference
  2
_DOTSMALL
 10
14796.91192884818
 20
2369.058816120087
 30
0.0
 41
100.0
 42
100.0
 43
100.0
 50
90.0
  0
POINT
  5
2E54
330
2C19
100
AcDbEntity
  8
DEFPOINTS
 62
     0
 48
50.0
100
AcDbPoint
 10
14279.78336771315
 20
2419.058816120087
 30
0.0
  0
POINT
  5
2E55
330
2C19
100
AcDbEntity
  8
DEFPOINTS
 62
     0
 48
50.0
100
AcDbPoint
 10
14809.05573788627
 20
2369.058816120087
 30
0.0
  0
POINT
  5
2E56
330
2C19
100
AcDbEntity
  8
DEFPOINTS
 62
     0
 48
50.0
100
AcDbPoint
 10
14796.91192884818
 20
2369.058816120087
 30
0.0
  0
ENDBLK
  5
2C25
330
2C19
100
AcDbEntity
  8
0
 48
50.0
100
AcDbBlockEnd
  0
ENDSEC
  0
SECTION
  2
ENTITIES
  0
MTEXT
  5
1C51
330
1A
100
AcDbEntity
  8
0
100
AcDbMText
 10
12113.85383347236
 20
11207.9349056396
 30
0.0
 40
140.0
 41
212.9488506697089
 71
     1
 72
     5
  1

  7
MSMINCHO
 73
     1
 44
1.0
1001
ACAD
1000
MTEXTBEGIN
1070
    73
1070
     1
1070
    44
1040
1.0
1070
    74
1070
     0
1000
MTEXTEND
  0
LINE
  5
2784
330
1A
100
AcDbEntity
  8
Ｇ．Ｌ
100
AcDbLine
 10
1201.701318365929
 20
2369.058816120085
 30
0.0
 11
15256.88218203101
 21
2369.058816120087
 31
0.0
  0
LINE
  5
2785
330
1A
100
AcDbEntity
  8
仕様書枠
 48
50.0
100
AcDbLine
 10
128.8000000000011
 20
264.0
 30
0.0
 11
16296.0
 21
264.0
 31
0.0
  0
INSERT
  5
2786
330
1A
100
AcDbEntity
  8
細線
100
AcDbBlockReference
  2
A$C7B4F3240
 10
2421.540608108044
 20
2369.058816120087
 30
0.0
  0
DIMENSION
  5
2787
330
1A
100
AcDbEntity
  8
寸法
100
AcDbDimension
  2
*D3
 10
8236.993531295164
 20
8251.120619012557
 30
0.0
 11
8516.993531295161
 21
8286.12061901256
 31
0.0
 70
    32
 71
     5
 42
70.00000000000364
  3
物置仕様図40
100
AcDbAlignedDimension
 13
7576.540608108043
 23
8321.120619012559
 33
0.0
 14
7576.540608108044
 24
8251.120619012557
 34
0.0
 50
90.0
100
AcDbRotatedDimension
1001
ACAD
1000
DSTYLE
1002
{
1070
    75
1070
     1
1002
}
  0
LINE
  5
2788
330
1A
100
AcDbEntity
  8
部品1
100
AcDbLine
 10
4981.540608108042
 20
5956.120619012552
 30
0.0
 11
4981.540608108042
 21
5886.120619012548
 31
0.0
  0
LINE
  5
2789
330
1A
100
AcDbEntity
  8
部品1
100
AcDbLine
 10
4482.092700287636
 20
9939.678105331536
 30
0.0
 11
5745.805582721073
 21
5751.120619012557
 31
0.0
  0
DIMENSION
  5
278A
330
1A
100
AcDbEntity
  8
寸法
100
AcDbDimension
  2
*D4
 10
8236.993531295164
 20
5886.120619012552
 30
0.0
 11
8156.143312659057
 21
5783.224545464127
 31
0.0
 70
   160
 71
     5
 42
70.00000000000364
  3
物置仕様図40
100
AcDbAlignedDimension
 13
7576.540608108044
 23
5956.120619012556
 33
0.0
 14
7611.540608108043
 24
5886.120619012552
 34
0.0
 50
90.0
100
AcDbRotatedDimension
1001
ACAD
1000
DSTYLE
1002
{
1070
    75
1070
     1
1002
}
  0
DIMENSION
  5
278B
330
1A
100
AcDbEntity
  8
寸法
100
AcDbDimension
  2
*D5
 10
1312.422785507791
 20
5886.120619012553
 30
0.0
 11
1212.42278550779
 21
8286.120619012553
 31
0.0
 70
    32
 71
     5
 42
4799.999999999999
  3
物置仕様図40
100
AcDbAlignedDimension
 13
2371.540608108044
 23
10686.12061901255
 33
0.0
 14
2371.540608108044
 24
5886.120619012552
 34
0.0
 50
90.0
100
AcDbRotatedDimension
  0
DIMENSION
  5
278C
330
1A
100
AcDbEntity
  8
寸法
100
AcDbDimension
  2
*D6
 10
1787.870956908438
 20
5886.120619012553
 30
0.0
 11
1701.195924353022
 21
6004.620619012552
 31
0.0
 70
   160
 71
     5
 42
237.0
  3
物置仕様図40
100
AcDbAlignedDimension
 13
2361.540608108044
 23
6123.120619012553
 33
0.0
 14
2371.540608108044
 24
5886.120619012552
 34
0.0
 50
90.0
100
AcDbRotatedDimension
1001
ACAD
1000
DSTYLE
1002
{
1070
    75
1070
     1
1002
}
  0
LINE
  5
278D
330
1A
100
AcDbEntity
  8
部品1
100
AcDbLine
 10
2361.540608108044
 20
8286.120619012553
 30
0.0
 11
2361.540608108044
 21
5896.120619012553
 31
0.0
  0
LINE
  5
278E
330
1A
100
AcDbEntity
  8
部品1
100
AcDbLine
 10
2406.540608108044
 20
8286.120619012553
 30
0.0
 11
2406.540608108044
 21
5936.120619012551
 31
0.0
  0
LINE
  5
278F
330
1A
100
AcDbEntity
  8
部品1
100
AcDbLine
 10
7621.540608108045
 20
5896.120619012553
 30
0.0
 11
7621.540608108045
 21
8286.120619012553
 31
0.0
  0
LINE
  5
2790
330
1A
100
AcDbEntity
  8
部品1
100
AcDbLine
 10
7576.540608108044
 20
5936.120619012551
 30
0.0
 11
7576.540608108044
 21
8286.120619012553
 31
0.0
  0
DIMENSION
  5
2791
330
1A
100
AcDbEntity
  8
寸法
100
AcDbDimension
  2
*D7
 10
4991.540608108044
 20
1812.9827369265
 30
0.0
 11
3801.540608108044
 21
1912.994547950123
 31
0.0
 70
    32
 71
     5
 42
2380.0
  3
物置仕様図40
100
AcDbAlignedDimension
 13
2611.540608108044
 23
2099.058816120087
 33
0.0
 14
4991.540608108044
 24
2099.058816120087
 34
0.0
100
AcDbRotatedDimension
1001
ACAD
1000
DSTYLE
1002
{
1070
   341
1005
0
1002
}
  0
LINE
  5
2792
330
1A
100
AcDbEntity
  8
部品1
100
AcDbLine
 10
2641.540608108044
 20
2769.058816120089
 30
0.0
 11
4961.540608108045
 21
2769.058816120089
 31
0.0
  0
LINE
  5
2793
330
1A
100
AcDbEntity
  8
部品1
100
AcDbLine
 10
2641.540608108044
 20
2729.058816120089
 30
0.0
 11
4961.540608108045
 21
2729.058816120089
 31
0.0
  0
LINE
  5
2794
330
1A
100
AcDbEntity
  8
部品1
100
AcDbLine
 10
2641.540608108044
 20
2664.058816120089
 30
0.0
 11
4961.540608108045
 21
2664.058816120089
 31
0.0
  0
LINE
  5
2795
330
1A
100
AcDbEntity
  8
部品1
100
AcDbLine
 10
2641.540608108044
 20
2619.05881612009
 30
0.0
 11
4961.540608108045
 21
2619.058816120089
 31
0.0
  0
LINE
  5
2796
330
1A
100
AcDbEntity
  8
部品1
100
AcDbLine
 10
2641.540608108044
 20
3099.058816120089
 30
0.0
 11
4961.540608108044
 21
3099.058816120089
 31
0.0
  0
LINE
  5
2797
330
1A
100
AcDbEntity
  8
部品1
100
AcDbLine
 10
2641.540608108044
 20
3069.058816120089
 30
0.0
 11
4961.540608108044
 21
3069.058816120089
 31
0.0
  0
LINE
  5
2798
330
1A
100
AcDbEntity
  8
部品1
100
AcDbLine
 10
2641.540608108044
 20
3519.058816120091
 30
0.0
 11
4961.540608108044
 21
3519.058816120089
 31
0.0
  0
LINE
  5
2799
330
1A
100
AcDbEntity
  8
部品1
100
AcDbLine
 10
2641.540608108044
 20
3474.058816120088
 30
0.0
 11
4961.540608108044
 21
3474.058816120088
 31
0.0
  0
LINE
  5
279A
330
1A
100
AcDbEntity
  8
部品1
100
AcDbLine
 10
2644.540608108044
 20
4213.429171466534
 30
0.0
 11
4958.540608108042
 21
4213.429171466531
 31
0.0
  0
LINE
  5
279B
330
1A
100
AcDbEntity
  8
部品1
100
AcDbLine
 10
2644.540608108044
 20
4262.93207672485
 30
0.0
 11
4958.540608108042
 21
4262.932076724847
 31
0.0
  0
LINE
  5
279C
330
1A
100
AcDbEntity
  8
部品1
100
AcDbLine
 10
2644.540608108042
 20
4292.929180891513
 30
0.0
 11
4958.540608108042
 21
4292.929180891515
 31
0.0
  0
LINE
  5
279D
330
1A
100
AcDbEntity
  8
部品1
100
AcDbLine
 10
2644.540608108042
 20
4322.926285058182
 30
0.0
 11
4958.540608108042
 21
4322.926285058182
 31
0.0
  0
LINE
  5
279E
330
1A
100
AcDbEntity
  8
部品1
100
AcDbLine
 10
2644.540608108042
 20
4352.923389224848
 30
0.0
 11
4958.540608108044
 21
4352.923389224848
 31
0.0
  0
LINE
  5
279F
330
1A
100
AcDbEntity
  8
部品1
100
AcDbLine
 10
2375.118766189067
 20
4365.187199662494
 30
0.0
 11
7604.094148213296
 21
4365.187199662494
 31
0.0
  0
LINE
  5
27A0
330
1A
100
AcDbEntity
  8
細線
100
AcDbLine
 10
2362.118766189067
 20
4403.187199662494
 30
0.0
 11
7618.194628534144
 21
4403.187199662494
 31
0.0
  0
LINE
  5
27A1
330
1A
100
AcDbEntity
  8
細線
100
AcDbLine
 10
2362.118766189067
 20
4415.187199662494
 30
0.0
 11
7618.716950773965
 21
4415.187199662494
 31
0.0
  0
LINE
  5
27A2
330
1A
100
AcDbEntity
  8
部品1
100
AcDbLine
 10
2375.118766189069
 20
4480.058816120083
 30
0.0
 11
7607.962450027018
 21
4480.058816120087
 31
0.0
  0
LINE
  5
27A3
330
1A
100
AcDbEntity
  8
部品1
100
AcDbLine
 10
2371.540608108044
 20
5886.120619012552
 30
0.0
 11
7611.540608108043
 21
5886.120619012548
 31
0.0
  0
DIMENSION
  5
27A4
330
1A
100
AcDbEntity
  8
Ｇ．Ｌ
100
AcDbDimension
  2
*D8
 10
7621.540608108045
 20
5076.274603944511
 30
0.0
 11
4991.540608108044
 21
5176.286414968133
 31
0.0
 70
    32
 71
     5
 42
5260.0
  3
物置仕様図40
100
AcDbAlignedDimension
 13
2361.540608108044
 23
4480.058816120087
 33
0.0
 14
7621.540608108045
 24
4480.058816120087
 34
0.0
100
AcDbRotatedDimension
  0
DIMENSION
  5
27A5
330
1A
100
AcDbEntity
  8
Ｇ．Ｌ
100
AcDbDimension
  2
*D9
 10
7371.540608108045
 20
4796.274603944512
 30
0.0
 11
4991.540608108044
 21
4896.274603944512
 31
0.0
 70
    32
 71
     5
 42
4760.0
  3
物置仕様図40
100
AcDbAlignedDimension
 13
2611.540608108044
 23
4350.354811104378
 33
0.0
 14
7371.540608108045
 24
4357.044811104377
 34
0.0
100
AcDbRotatedDimension
  0
LINE
  5
27A6
330
1A
100
AcDbEntity
  8
部品1
100
AcDbLine
 10
7621.540608108045
 20
2419.058816120087
 30
0.0
 11
2361.540608108044
 21
2419.058816120087
 31
0.0
  0
DIMENSION
  5
27A7
330
1A
100
AcDbEntity
  8
寸法
100
AcDbDimension
  2
*D10
 10
2115.022956010813
 20
2369.058816120087
 30
0.0
 11
2275.034767034435
 21
2234.058816120088
 31
0.0
 70
    32
 71
     5
 42
270.0
  3
物置仕様図40
100
AcDbAlignedDimension
 13
2581.540608108044
 23
2099.058816120087
 33
0.0
 14
1901.35927109274
 24
2369.058816120087
 34
0.0
 50
270.0
100
AcDbRotatedDimension
  0
LINE
  5
27A8
330
1A
100
AcDbEntity
  8
点線
 48
50.0
100
AcDbLine
 10
2581.540608108046
 20
2419.058816120087
 30
0.0
 11
2581.540608108044
 21
2099.058816120087
 31
0.0
  0
LINE
  5
27A9
330
1A
100
AcDbEntity
  8
点線
 48
50.0
100
AcDbLine
 10
2641.540608108044
 20
2419.058816120087
 30
0.0
 11
2641.540608108044
 21
2099.058816120087
 31
0.0
  0
LINE
  5
27AA
330
1A
100
AcDbEntity
  8
センター
 48
10.0
100
AcDbLine
 10
2611.540608108044
 20
4350.354811104378
 30
0.0
 11
2611.540608108044
 21
2105.747464225398
 31
0.0
  0
LINE
  5
27AB
330
1A
100
AcDbEntity
  8
点線
 48
10.0
100
AcDbLine
 10
2641.540608108044
 20
2124.058816120087
 30
0.0
 11
2711.540608108044
 21
2124.058816120087
 31
0.0
  0
LINE
  5
27AC
330
1A
100
AcDbEntity
  8
点線
 48
10.0
100
AcDbLine
 10
2641.540608108044
 20
2114.058816120087
 30
0.0
 11
2711.540608108044
 21
2114.058816120087
 31
0.0
  0
LINE
  5
27AD
330
1A
100
AcDbEntity
  8
点線
 48
50.0
100
AcDbLine
 10
2641.540608108044
 20
2099.058816120087
 30
0.0
 11
2581.540608108044
 21
2099.058816120087
 31
0.0
  0
LINE
  5
27AE
330
1A
100
AcDbEntity
  8
点線
 48
10.0
100
AcDbLine
 10
2511.540608108042
 20
2124.058816120085
 30
0.0
 11
2511.540608108042
 21
2114.058816120085
 31
0.0
  0
LINE
  5
27AF
330
1A
100
AcDbEntity
  8
点線
 48
10.0
100
AcDbLine
 10
2511.540608108042
 20
2124.058816120085
 30
0.0
 11
2581.540608108044
 21
2124.058816120085
 31
0.0
  0
LINE
  5
27B0
330
1A
100
AcDbEntity
  8
点線
 48
10.0
100
AcDbLine
 10
2511.540608108042
 20
2114.058816120085
 30
0.0
 11
2581.540608108044
 21
2114.058816120085
 31
0.0
  0
LINE
  5
27B1
330
1A
100
AcDbEntity
  8
点線
 48
10.0
100
AcDbLine
 10
2711.540608108044
 20
2124.058816120087
 30
0.0
 11
2711.540608108044
 21
2114.058816120087
 31
0.0
  0
LINE
  5
27B2
330
1A
100
AcDbEntity
  8
部品1
100
AcDbLine
 10
2546.540608108044
 20
4213.429171466531
 30
0.0
 11
2546.540608108044
 21
2519.058816120087
 31
0.0
  0
LINE
  5
27B3
330
1A
100
AcDbEntity
  8
部品1
100
AcDbLine
 10
2476.540608108044
 20
4213.429171466531
 30
0.0
 11
2476.540608108044
 21
2519.058816120087
 31
0.0
  0
LINE
  5
27B4
330
1A
100
AcDbEntity
  8
部品1
100
AcDbLine
 10
2581.540608108044
 20
4101.419996260784
 30
0.0
 11
2581.540608108046
 21
2419.058816120087
 31
0.0
  0
LINE
  5
27B5
330
1A
100
AcDbEntity
  8
部品1
100
AcDbLine
 10
2641.540608108044
 20
4101.419996260784
 30
0.0
 11
2641.540608108044
 21
2419.058816120087
 31
0.0
  0
TEXT
  5
27B6
330
1A
100
AcDbEntity
  8
部品1
 48
50.0
100
AcDbText
 10
1207.560294255943
 20
2408.450116550416
 30
0.0
 40
100.0
  1
▽G.L
  7
STYLE2
100
AcDbText
  0
ARC
  5
27B7
330
1A
100
AcDbEntity
  8
部品1
100
AcDbCircle
 10
2476.540608108044
 20
2519.058816120087
 30
0.0
 40
70.0
100
AcDbArc
 50
270.0
 51
0.0
  0
LINE
  5
27B8
330
1A
100
AcDbEntity
  8
部品1
100
AcDbLine
 10
2581.540608108044
 20
2557.658867108212
 30
0.0
 11
2476.540608108044
 21
2557.658867108212
 31
0.0
  0
LINE
  5
27B9
330
1A
100
AcDbEntity
  8
部品1
100
AcDbLine
 10
2581.540608108044
 20
2582.658867108212
 30
0.0
 11
2476.540608108044
 21
2582.658867108212
 31
0.0
  0
LINE
  5
27BA
330
1A
100
AcDbEntity
  8
部品1
100
AcDbLine
 10
2436.540608108044
 20
2519.058816120087
 30
0.0
 11
2436.540608108044
 21
2449.058816120087
 31
0.0
  0
LINE
  5
27BB
330
1A
100
AcDbEntity
  8
部品1
100
AcDbLine
 10
2436.540608108044
 20
2449.058816120087
 30
0.0
 11
2476.540608108044
 21
2449.058816120087
 31
0.0
  0
LINE
  5
27BC
330
1A
100
AcDbEntity
  8
部品1
100
AcDbLine
 10
2361.540608108044
 20
2419.058816120087
 30
0.0
 11
2361.540608108044
 21
2369.058816120087
 31
0.0
  0
LINE
  5
27BD
330
1A
100
AcDbEntity
  8
部品1
100
AcDbLine
 10
2436.540608108044
 20
2519.058816120087
 30
0.0
 11
2476.540608108044
 21
2519.058816120087
 31
0.0
  0
LINE
  5
27BE
330
1A
100
AcDbEntity
  8
部品1
100
AcDbLine
 10
2581.540608108044
 20
4076.419996260784
 30
0.0
 11
2476.540608108044
 21
4076.419996260784
 31
0.0
  0
DIMENSION
  5
27BF
330
1A
100
AcDbEntity
  8
寸法
100
AcDbDimension
  2
*D11
 10
2361.540608108044
 20
4796.274603944512
 30
0.0
 11
2499.804927475772
 21
4924.275006809526
 31
0.0
 70
   160
 71
     5
 42
250.0000000000004
  3
物置仕様図40
100
AcDbAlignedDimension
 13
2611.540608108044
 23
4350.354811104378
 33
0.0
 14
2361.540608108044
 24
4480.058816120087
 34
0.0
100
AcDbRotatedDimension
1001
ACAD
1000
DSTYLE
1002
{
1070
    75
1070
     1
1002
}
  0
LINE
  5
27C0
330
1A
100
AcDbEntity
  8
部品1
100
AcDbLine
 10
2578.540608108044
 20
4101.419996260784
 30
0.0
 11
2476.540608108044
 21
4101.419996260784
 31
0.0
  0
LINE
  5
27C1
330
1A
100
AcDbEntity
  8
部品1
100
AcDbLine
 10
2417.118766189069
 20
4352.923389224848
 30
0.0
 11
2578.540608108046
 21
4352.923389224848
 31
0.0
  0
LINE
  5
27C2
330
1A
100
AcDbEntity
  8
部品1
100
AcDbLine
 10
2417.118766189069
 20
4322.926285058179
 30
0.0
 11
2578.540608108046
 21
4322.926285058179
 31
0.0
  0
LINE
  5
27C3
330
1A
100
AcDbEntity
  8
部品1
100
AcDbLine
 10
2417.118766189071
 20
4292.929180891515
 30
0.0
 11
2578.540608108046
 21
4292.929180891515
 31
0.0
  0
LINE
  5
27C4
330
1A
100
AcDbEntity
  8
部品1
100
AcDbLine
 10
2417.118766189071
 20
4262.932076724847
 30
0.0
 11
2578.540608108042
 21
4262.932076724847
 31
0.0
  0
LINE
  5
27C5
330
1A
100
AcDbEntity
  8
部品1
100
AcDbLine
 10
2422.118766189071
 20
4213.429171466532
 30
0.0
 11
2578.540608108046
 21
4213.429171466531
 31
0.0
  0
LINE
  5
27C6
330
1A
100
AcDbEntity
  8
部品1
100
AcDbLine
 10
2417.118766189069
 20
4365.187199662494
 30
0.0
 11
2417.118766189071
 21
4251.430289092855
 31
0.0
  0
LINE
  5
27C7
330
1A
100
AcDbEntity
  8
部品1
100
AcDbLine
 10
2362.118766189067
 20
4353.019114883372
 30
0.0
 11
2365.999365346993
 21
4263.864975264413
 31
0.0
  0
LINE
  5
27C8
330
1A
100
AcDbEntity
  8
部品1
100
AcDbLine
 10
2432.118766189071
 20
4262.932076724847
 30
0.0
 11
2432.118766189071
 21
4213.429171466532
 31
0.0
  0
LINE
  5
27C9
330
1A
100
AcDbEntity
  8
部品1
100
AcDbLine
 10
2422.118766189071
 20
4262.932076724847
 30
0.0
 11
2422.118766189071
 21
4213.429171466532
 31
0.0
  0
LINE
  5
27CA
330
1A
100
AcDbEntity
  8
部品1
100
AcDbLine
 10
2378.987068002789
 20
4251.430289092855
 30
0.0
 11
2422.118766189071
 21
4251.430289092855
 31
0.0
  0
ARC
  5
27CB
330
1A
100
AcDbEntity
  8
部品1
100
AcDbCircle
 10
2378.987068002789
 20
4264.430289092856
 30
0.0
 40
13.0
100
AcDbArc
 50
182.4923318052633
 51
270.0
  0
ARC
  5
27CC
330
1A
100
AcDbEntity
  8
部品1
100
AcDbCircle
 10
2375.118766189067
 20
4378.187199662494
 30
0.0
 40
13.0
100
AcDbArc
 50
180.0
 51
270.0
  0
LINE
  5
27CD
330
1A
100
AcDbEntity
  8
部品1
100
AcDbLine
 10
2362.118766189069
 20
4467.058816120086
 30
0.0
 11
2362.118766189067
 21
4353.019114883372
 31
0.0
  0
LINE
  5
27CE
330
1A
100
AcDbEntity
  8
部品1
100
AcDbLine
 10
2384.540608108044
 20
4480.058816120087
 30
0.0
 11
2384.540608108044
 21
4365.187199662494
 31
0.0
  0
ARC
  5
27CF
330
1A
100
AcDbEntity
  8
部品1
100
AcDbCircle
 10
2375.118766189069
 20
4467.058816120086
 30
0.0
 40
13.0
100
AcDbArc
 50
90.0
 51
182.4923318052633
  0
LINE
  5
27D0
330
1A
100
AcDbEntity
  8
部品1
100
AcDbLine
 10
2578.540608108046
 20
4354.044811104377
 30
0.0
 11
2578.540608108042
 21
4101.419996260784
 31
0.0
  0
LINE
  5
27D1
330
1A
100
AcDbEntity
  8
部品1
100
AcDbLine
 10
2644.540608108042
 20
4354.044811104377
 30
0.0
 11
2644.540608108046
 21
4101.419996260784
 31
0.0
  0
LINE
  5
27D2
330
1A
100
AcDbEntity
  8
部品1
100
AcDbLine
 10
2644.540608108044
 20
4276.869496260782
 30
0.0
 11
2578.540608108044
 21
4276.869496260782
 31
0.0
  0
ARC
  5
27D3
330
1A
100
AcDbEntity
  8
部品1
100
AcDbCircle
 10
2641.540608108044
 20
4297.874516173433
 30
0.0
 40
3.0
100
AcDbArc
 50
270.0
 51
0.0
  0
LINE
  5
27D4
330
1A
100
AcDbEntity
  8
部品1
100
AcDbLine
 10
2641.540608108044
 20
4294.874516173432
 30
0.0
 11
2581.540608108044
 21
4294.874516173432
 31
0.0
  0
ARC
  5
27D5
330
1A
100
AcDbEntity
  8
部品1
100
AcDbCircle
 10
2581.540608108044
 20
4297.874516173433
 30
0.0
 40
3.0
100
AcDbArc
 50
180.0
 51
270.0
  0
LINE
  5
27D6
330
1A
100
AcDbEntity
  8
部品1
100
AcDbLine
 10
2644.540608108044
 20
4101.419996260784
 30
0.0
 11
2578.540608108044
 21
4101.419996260784
 31
0.0
  0
LINE
  5
27D7
330
1A
100
AcDbEntity
  8
細線
100
AcDbLine
 10
2593.540608108044
 20
4276.869496260782
 30
0.0
 11
2593.540608108044
 21
4101.419996260785
 31
0.0
  0
LINE
  5
27D8
330
1A
100
AcDbEntity
  8
細線
100
AcDbLine
 10
2598.540608108044
 20
4276.869496260782
 30
0.0
 11
2598.540608108044
 21
4101.419996260785
 31
0.0
  0
LINE
  5
27D9
330
1A
100
AcDbEntity
  8
細線
100
AcDbLine
 10
2624.540608108042
 20
4276.869496260782
 30
0.0
 11
2624.540608108044
 21
4101.419996260785
 31
0.0
  0
LINE
  5
27DA
330
1A
100
AcDbEntity
  8
細線
100
AcDbLine
 10
2629.540608108042
 20
4276.869496260782
 30
0.0
 11
2629.540608108044
 21
4101.419996260785
 31
0.0
  0
ARC
  5
27DB
330
1A
100
AcDbEntity
  8
部品1
100
AcDbCircle
 10
2581.540608108046
 20
4354.044811104377
 30
0.0
 40
3.0
100
AcDbArc
 50
90.0
 51
180.0
  0
LINE
  5
27DC
330
1A
100
AcDbEntity
  8
部品1
100
AcDbLine
 10
2641.540608108042
 20
4357.044811104377
 30
0.0
 11
2581.540608108046
 21
4357.044811104377
 31
0.0
  0
ARC
  5
27DD
330
1A
100
AcDbEntity
  8
部品1
100
AcDbCircle
 10
2641.540608108042
 20
4354.044811104377
 30
0.0
 40
3.0
100
AcDbArc
 50
0.0
 51
90.0
  0
LINE
  5
27DE
330
1A
100
AcDbEntity
  8
部品1
100
AcDbLine
 10
2384.040608108044
 20
5886.120619012552
 30
0.0
 11
2384.040608108044
 21
5931.120619012553
 31
0.0
  0
ARC
  5
27DF
330
1A
100
AcDbEntity
  8
部品1
100
AcDbCircle
 10
2389.040608108044
 20
5931.120619012553
 30
0.0
 40
5.0
100
AcDbArc
 50
90.0
 51
180.0
  0
LINE
  5
27E0
330
1A
100
AcDbEntity
  8
部品1
100
AcDbLine
 10
2406.540608108044
 20
5936.120619012551
 30
0.0
 11
2389.040608108044
 21
5936.120619012552
 31
0.0
  0
ARC
  5
27E1
330
1A
100
AcDbEntity
  8
部品1
100
AcDbCircle
 10
2371.540608108044
 20
5896.120619012553
 30
0.0
 40
10.0
100
AcDbArc
 50
180.0
 51
270.0
  0
LINE
  5
27E2
330
1A
100
AcDbEntity
  8
センター
 48
10.0
100
AcDbLine
 10
4991.540608108046
 20
4350.354811104378
 30
0.0
 11
4991.540608108044
 21
2105.747464225398
 31
0.0
  0
LINE
  5
27E3
330
1A
100
AcDbEntity
  8
点線
 48
50.0
100
AcDbLine
 10
4961.540608108045
 20
2419.058816120087
 30
0.0
 11
4961.540608108044
 21
2099.058816120087
 31
0.0
  0
LINE
  5
27E4
330
1A
100
AcDbEntity
  8
点線
 48
50.0
100
AcDbLine
 10
5021.540608108043
 20
2419.058816120087
 30
0.0
 11
5021.540608108043
 21
2099.058816120087
 31
0.0
  0
LINE
  5
27E5
330
1A
100
AcDbEntity
  8
点線
 48
50.0
100
AcDbLine
 10
7341.540608108044
 20
2419.058816120087
 30
0.0
 11
7341.540608108044
 21
2099.058816120087
 31
0.0
  0
LINE
  5
27E6
330
1A
100
AcDbEntity
  8
点線
 48
50.0
100
AcDbLine
 10
7401.540608108044
 20
2419.058816120087
 30
0.0
 11
7401.540608108044
 21
2099.058816120087
 31
0.0
  0
LINE
  5
27E7
330
1A
100
AcDbEntity
  8
センター
 48
10.0
100
AcDbLine
 10
7371.540608108045
 20
4357.044811104377
 30
0.0
 11
7371.540608108045
 21
2105.747464225398
 31
0.0
  0
DIMENSION
  5
27E8
330
1A
100
AcDbEntity
  8
寸法
100
AcDbDimension
  2
*D12
 10
4991.540608108044
 20
1812.9827369265
 30
0.0
 11
6181.540608108043
 21
1912.994547950123
 31
0.0
 70
    32
 71
     5
 42
2380.0
  3
物置仕様図40
100
AcDbAlignedDimension
 13
7371.540608108045
 23
2105.747464225398
 33
0.0
 14
4991.540608108044
 24
2105.747464225398
 34
0.0
100
AcDbRotatedDimension
  0
LWPOLYLINE
  5
27E9
330
1A
100
AcDbEntity
  8
部品1
100
AcDbPolyline
 90
        4
 70
     1
 43
0.0
 10
4685.792097628284
 20
1655.832550647501
 10
4685.792097628284
 20
1434.248291607233
 10
5322.804430388045
 20
1434.248291607233
 10
5322.804430388045
 20
1655.832550647501
  0
TEXT
  5
27EA
330
1A
100
AcDbEntity
  8
部品1
100
AcDbText
 10
4728.259583084414
 20
1481.393873921021
 30
0.0
 40
120.0
  1
正面図
  7
MSGOTHIC
100
AcDbText
  0
LINE
  5
27EB
330
1A
100
AcDbEntity
  8
寸法
100
AcDbLine
 10
4991.540608108044
 20
2065.747464225399
 30
0.0
 11
4991.540608108044
 21
1772.9827369265
 31
0.0
  0
POINT
  5
27EC
330
1A
100
AcDbEntity
  8
寸法
100
AcDbPoint
 10
4991.540608108044
 20
1812.9827369265
 30
0.0
  0
INSERT
  5
27ED
330
1A
100
AcDbEntity
  8
寸法
100
AcDbBlockReference
  2
_DOTSMALL
 10
4991.540608108044
 20
1812.9827369265
 30
0.0
 41
100.0
 42
100.0
 43
100.0
  0
LINE
  5
27EE
330
1A
100
AcDbEntity
  8
点線
 48
10.0
100
AcDbLine
 10
4891.540608108042
 20
2124.058816120085
 30
0.0
 11
4961.540608108044
 21
2124.058816120085
 31
0.0
  0
LINE
  5
27EF
330
1A
100
AcDbEntity
  8
点線
 48
10.0
100
AcDbLine
 10
4891.540608108042
 20
2114.058816120085
 30
0.0
 11
4961.540608108044
 21
2114.058816120085
 31
0.0
  0
LINE
  5
27F0
330
1A
100
AcDbEntity
  8
点線
 48
10.0
100
AcDbLine
 10
4891.540608108042
 20
2124.058816120085
 30
0.0
 11
4891.540608108042
 21
2114.058816120085
 31
0.0
  0
LINE
  5
27F1
330
1A
100
AcDbEntity
  8
点線
 48
10.0
100
AcDbLine
 10
5091.540608108044
 20
2124.058816120087
 30
0.0
 11
5091.540608108044
 21
2114.058816120087
 31
0.0
  0
LINE
  5
27F2
330
1A
100
AcDbEntity
  8
点線
 48
50.0
100
AcDbLine
 10
5021.540608108043
 20
2099.058816120087
 30
0.0
 11
4961.540608108044
 21
2099.058816120087
 31
0.0
  0
LINE
  5
27F3
330
1A
100
AcDbEntity
  8
点線
 48
10.0
100
AcDbLine
 10
5021.540608108043
 20
2124.058816120087
 30
0.0
 11
5091.540608108044
 21
2124.058816120087
 31
0.0
  0
LINE
  5
27F4
330
1A
100
AcDbEntity
  8
点線
 48
10.0
100
AcDbLine
 10
5021.540608108043
 20
2114.058816120087
 30
0.0
 11
5091.540608108044
 21
2114.058816120087
 31
0.0
  0
LINE
  5
27F5
330
1A
100
AcDbEntity
  8
点線
 48
10.0
100
AcDbLine
 10
7401.540608108044
 20
2114.058816120087
 30
0.0
 11
7471.540608108044
 21
2114.058816120087
 31
0.0
  0
LINE
  5
27F6
330
1A
100
AcDbEntity
  8
点線
 48
10.0
100
AcDbLine
 10
7401.540608108044
 20
2124.058816120087
 30
0.0
 11
7471.540608108044
 21
2124.058816120087
 31
0.0
  0
LINE
  5
27F7
330
1A
100
AcDbEntity
  8
点線
 48
50.0
100
AcDbLine
 10
7401.540608108044
 20
2099.058816120087
 30
0.0
 11
7341.540608108044
 21
2099.058816120087
 31
0.0
  0
LINE
  5
27F8
330
1A
100
AcDbEntity
  8
点線
 48
10.0
100
AcDbLine
 10
7271.540608108042
 20
2124.058816120085
 30
0.0
 11
7271.540608108042
 21
2114.058816120085
 31
0.0
  0
LINE
  5
27F9
330
1A
100
AcDbEntity
  8
点線
 48
10.0
100
AcDbLine
 10
7271.540608108042
 20
2114.058816120085
 30
0.0
 11
7341.540608108044
 21
2114.058816120085
 31
0.0
  0
LINE
  5
27FA
330
1A
100
AcDbEntity
  8
点線
 48
10.0
100
AcDbLine
 10
7271.540608108042
 20
2124.058816120085
 30
0.0
 11
7341.540608108044
 21
2124.058816120085
 31
0.0
  0
LINE
  5
27FB
330
1A
100
AcDbEntity
  8
点線
 48
10.0
100
AcDbLine
 10
7471.540608108044
 20
2124.058816120087
 30
0.0
 11
7471.540608108044
 21
2114.058816120087
 31
0.0
  0
LINE
  5
27FC
330
1A
100
AcDbEntity
  8
部品1
100
AcDbLine
 10
5021.540608108046
 20
2619.058816120089
 30
0.0
 11
7341.540608108044
 21
2619.058816120089
 31
0.0
  0
LINE
  5
27FD
330
1A
100
AcDbEntity
  8
部品1
100
AcDbLine
 10
5021.540608108046
 20
2664.058816120089
 30
0.0
 11
7341.540608108044
 21
2664.058816120089
 31
0.0
  0
LINE
  5
27FE
330
1A
100
AcDbEntity
  8
部品1
100
AcDbLine
 10
5021.540608108046
 20
2729.058816120089
 30
0.0
 11
7341.540608108044
 21
2729.058816120089
 31
0.0
  0
LINE
  5
27FF
330
1A
100
AcDbEntity
  8
部品1
100
AcDbLine
 10
5021.540608108046
 20
2769.058816120089
 30
0.0
 11
7341.540608108044
 21
2769.058816120089
 31
0.0
  0
LINE
  5
2800
330
1A
100
AcDbEntity
  8
部品1
100
AcDbLine
 10
5021.540608108046
 20
3069.058816120089
 30
0.0
 11
7341.540608108044
 21
3069.058816120089
 31
0.0
  0
LINE
  5
2801
330
1A
100
AcDbEntity
  8
部品1
100
AcDbLine
 10
5021.540608108046
 20
3099.058816120089
 30
0.0
 11
7341.540608108044
 21
3099.058816120089
 31
0.0
  0
LINE
  5
2802
330
1A
100
AcDbEntity
  8
部品1
100
AcDbLine
 10
5021.540608108046
 20
3474.058816120088
 30
0.0
 11
7341.540608108044
 21
3474.058816120088
 31
0.0
  0
LINE
  5
2803
330
1A
100
AcDbEntity
  8
部品1
100
AcDbLine
 10
5021.540608108046
 20
3519.058816120089
 30
0.0
 11
7341.540608108044
 21
3519.058816120089
 31
0.0
  0
LINE
  5
2804
330
1A
100
AcDbEntity
  8
部品1
100
AcDbLine
 10
5024.540608108042
 20
4352.923389224848
 30
0.0
 11
7338.540608108046
 21
4352.923389224848
 31
0.0
  0
LINE
  5
2805
330
1A
100
AcDbEntity
  8
部品1
100
AcDbLine
 10
5024.540608108042
 20
4322.926285058182
 30
0.0
 11
7338.540608108043
 21
4322.926285058182
 31
0.0
  0
LINE
  5
2806
330
1A
100
AcDbEntity
  8
部品1
100
AcDbLine
 10
5024.540608108043
 20
4292.929180891515
 30
0.0
 11
7338.540608108043
 21
4292.929180891515
 31
0.0
  0
LINE
  5
2807
330
1A
100
AcDbEntity
  8
部品1
100
AcDbLine
 10
5024.540608108043
 20
4262.932076724847
 30
0.0
 11
7338.540608108043
 21
4262.932076724847
 31
0.0
  0
LINE
  5
2808
330
1A
100
AcDbEntity
  8
部品1
100
AcDbLine
 10
5024.540608108043
 20
4213.429171466531
 30
0.0
 11
7338.540608108043
 21
4213.429171466531
 31
0.0
  0
LINE
  5
2809
330
1A
100
AcDbEntity
  8
部品1
100
AcDbLine
 10
4961.540608108044
 20
4101.419996260784
 30
0.0
 11
4961.540608108045
 21
2419.058816120087
 31
0.0
  0
LINE
  5
280A
330
1A
100
AcDbEntity
  8
部品1
100
AcDbLine
 10
5021.540608108043
 20
4101.419996260784
 30
0.0
 11
5021.540608108043
 21
2419.058816120087
 31
0.0
  0
LINE
  5
280B
330
1A
100
AcDbEntity
  8
部品1
100
AcDbLine
 10
3784.040608108044
 20
2729.058816120089
 30
0.0
 11
3784.040608108044
 21
2664.058816120089
 31
0.0
  0
LINE
  5
280C
330
1A
100
AcDbEntity
  8
部品1
100
AcDbLine
 10
3819.040608108044
 20
2729.058816120089
 30
0.0
 11
3819.040608108044
 21
2664.058816120089
 31
0.0
  0
LINE
  5
280D
330
1A
100
AcDbEntity
  8
部品1
100
AcDbLine
 10
4958.540608108045
 20
4354.044811104377
 30
0.0
 11
4958.540608108042
 21
4101.419996260784
 31
0.0
  0
LINE
  5
280E
330
1A
100
AcDbEntity
  8
部品1
100
AcDbLine
 10
5024.540608108042
 20
4354.044811104377
 30
0.0
 11
5024.540608108045
 21
4101.419996260784
 31
0.0
  0
ARC
  5
280F
330
1A
100
AcDbEntity
  8
部品1
100
AcDbCircle
 10
4961.540608108044
 20
4297.874516173433
 30
0.0
 40
3.0
100
AcDbArc
 50
180.0
 51
270.0
  0
LINE
  5
2810
330
1A
100
AcDbEntity
  8
細線
100
AcDbLine
 10
4973.540608108044
 20
4276.869496260782
 30
0.0
 11
4973.540608108044
 21
4101.419996260785
 31
0.0
  0
LINE
  5
2811
330
1A
100
AcDbEntity
  8
細線
100
AcDbLine
 10
4978.540608108044
 20
4276.869496260782
 30
0.0
 11
4978.540608108044
 21
4101.419996260785
 31
0.0
  0
LINE
  5
2812
330
1A
100
AcDbEntity
  8
細線
100
AcDbLine
 10
5004.540608108042
 20
4276.869496260782
 30
0.0
 11
5004.540608108044
 21
4101.419996260785
 31
0.0
  0
LINE
  5
2813
330
1A
100
AcDbEntity
  8
細線
100
AcDbLine
 10
5009.540608108042
 20
4276.869496260782
 30
0.0
 11
5009.540608108044
 21
4101.419996260785
 31
0.0
  0
ARC
  5
2814
330
1A
100
AcDbEntity
  8
部品1
100
AcDbCircle
 10
5021.540608108043
 20
4297.874516173433
 30
0.0
 40
3.0
100
AcDbArc
 50
270.0
 51
0.0
  0
LINE
  5
2815
330
1A
100
AcDbEntity
  8
部品1
100
AcDbLine
 10
5024.540608108043
 20
4101.419996260784
 30
0.0
 11
4958.540608108044
 21
4101.419996260784
 31
0.0
  0
LINE
  5
2816
330
1A
100
AcDbEntity
  8
部品1
100
AcDbLine
 10
5024.540608108043
 20
4276.869496260782
 30
0.0
 11
4958.540608108044
 21
4276.869496260782
 31
0.0
  0
LINE
  5
2817
330
1A
100
AcDbEntity
  8
部品1
100
AcDbLine
 10
5021.540608108043
 20
4294.874516173432
 30
0.0
 11
4961.540608108044
 21
4294.874516173432
 31
0.0
  0
LINE
  5
2818
330
1A
100
AcDbEntity
  8
部品1
100
AcDbLine
 10
4991.54060810804
 20
4365.187199662494
 30
0.0
 11
4991.54060810804
 21
4357.044811104377
 31
0.0
  0
LINE
  5
2819
330
1A
100
AcDbEntity
  8
部品1
100
AcDbLine
 10
4981.540608108042
 20
4480.058816120087
 30
0.0
 11
4981.540608108042
 21
4365.187199662494
 31
0.0
  0
ARC
  5
281A
330
1A
100
AcDbEntity
  8
部品1
100
AcDbCircle
 10
4961.540608108045
 20
4354.044811104377
 30
0.0
 40
3.0
100
AcDbArc
 50
90.0
 51
180.0
  0
ARC
  5
281B
330
1A
100
AcDbEntity
  8
部品1
100
AcDbCircle
 10
5021.540608108042
 20
4354.044811104377
 30
0.0
 40
3.0
100
AcDbArc
 50
0.0
 51
90.0
  0
LINE
  5
281C
330
1A
100
AcDbEntity
  8
部品1
100
AcDbLine
 10
5021.540608108042
 20
4357.044811104377
 30
0.0
 11
4961.540608108045
 21
4357.044811104377
 31
0.0
  0
TEXT
  5
281D
330
1A
100
AcDbEntity
  8
部品1
100
AcDbText
 10
4728.259583084414
 20
5528.740650316461
 30
0.0
 40
120.0
  1
平面図
  7
MSGOTHIC
100
AcDbText
  0
LWPOLYLINE
  5
281E
330
1A
100
AcDbEntity
  8
部品1
100
AcDbPolyline
 90
        4
 70
     1
 43
0.0
 10
4685.792097628284
 20
5703.179327042941
 10
4685.792097628284
 20
5481.595068002673
 10
5322.804430388045
 20
5481.595068002673
 10
5322.804430388045
 20
5703.179327042941
  0
LINE
  5
281F
330
1A
100
AcDbEntity
  8
部品1
100
AcDbLine
 10
7341.540608108044
 20
4101.419996260785
 30
0.0
 11
7341.540608108044
 21
2419.058816120087
 31
0.0
  0
LINE
  5
2820
330
1A
100
AcDbEntity
  8
部品1
100
AcDbLine
 10
7401.540608108044
 20
4101.419996260785
 30
0.0
 11
7401.540608108044
 21
2419.058816120087
 31
0.0
  0
LINE
  5
2821
330
1A
100
AcDbEntity
  8
部品1
100
AcDbLine
 10
6199.040608108044
 20
2729.058816120089
 30
0.0
 11
6199.040608108044
 21
2664.058816120089
 31
0.0
  0
LINE
  5
2822
330
1A
100
AcDbEntity
  8
部品1
100
AcDbLine
 10
6164.040608108043
 20
2729.058816120089
 30
0.0
 11
6164.040608108043
 21
2664.058816120089
 31
0.0
  0
LINE
  5
2823
330
1A
100
AcDbEntity
  8
部品1
100
AcDbLine
 10
7621.540608108045
 20
2419.058816120087
 30
0.0
 11
7621.540608108045
 21
2369.058816120087
 31
0.0
  0
DIMENSION
  5
2824
330
1A
100
AcDbEntity
  8
寸法
100
AcDbDimension
  2
*D13
 10
7371.540608108045
 20
4796.274603944512
 30
0.0
 11
7490.612716964053
 21
4906.185095823541
 31
0.0
 70
   160
 71
     5
 42
250.0
  3
物置仕様図40
100
AcDbAlignedDimension
 13
7621.540608108045
 23
4480.058816120087
 33
0.0
 14
7371.540608108045
 24
4357.044811104377
 34
0.0
100
AcDbRotatedDimension
  0
LINE
  5
2825
330
1A
100
AcDbEntity
  8
部品1
100
AcDbLine
 10
7404.540608108044
 20
4213.429171466531
 30
0.0
 11
7560.962450027017
 21
4213.429171466531
 31
0.0
  0
LINE
  5
2826
330
1A
100
AcDbEntity
  8
部品1
100
AcDbLine
 10
7404.540608108044
 20
4262.932076724847
 30
0.0
 11
7565.962450027017
 21
4262.932076724847
 31
0.0
  0
LINE
  5
2827
330
1A
100
AcDbEntity
  8
部品1
100
AcDbLine
 10
7404.540608108044
 20
4292.929180891515
 30
0.0
 11
7565.962450027019
 21
4292.929180891515
 31
0.0
  0
LINE
  5
2828
330
1A
100
AcDbEntity
  8
部品1
100
AcDbLine
 10
7404.540608108044
 20
4322.926285058182
 30
0.0
 11
7565.962450027019
 21
4322.926285058182
 31
0.0
  0
LINE
  5
2829
330
1A
100
AcDbEntity
  8
部品1
100
AcDbLine
 10
7404.540608108042
 20
4352.923389224848
 30
0.0
 11
7565.962450027019
 21
4352.923389224848
 31
0.0
  0
LINE
  5
282A
330
1A
100
AcDbEntity
  8
部品1
100
AcDbLine
 10
7338.540608108043
 20
4354.044811104377
 30
0.0
 11
7338.540608108042
 21
4101.419996260784
 31
0.0
  0
LINE
  5
282B
330
1A
100
AcDbEntity
  8
部品1
100
AcDbLine
 10
7404.540608108042
 20
4354.044811104377
 30
0.0
 11
7404.540608108044
 21
4101.419996260784
 31
0.0
  0
ARC
  5
282C
330
1A
100
AcDbEntity
  8
部品1
100
AcDbCircle
 10
7401.540608108044
 20
4297.874516173433
 30
0.0
 40
3.0
100
AcDbArc
 50
270.0
 51
0.0
  0
ARC
  5
282D
330
1A
100
AcDbEntity
  8
部品1
100
AcDbCircle
 10
7341.540608108044
 20
4297.874516173433
 30
0.0
 40
3.0
100
AcDbArc
 50
180.0
 51
270.0
  0
LINE
  5
282E
330
1A
100
AcDbEntity
  8
細線
100
AcDbLine
 10
7358.540608108045
 20
4276.869496260782
 30
0.0
 11
7358.540608108043
 21
4101.419996260785
 31
0.0
  0
LINE
  5
282F
330
1A
100
AcDbEntity
  8
細線
100
AcDbLine
 10
7384.540608108044
 20
4276.869496260782
 30
0.0
 11
7384.540608108044
 21
4101.419996260785
 31
0.0
  0
LINE
  5
2830
330
1A
100
AcDbEntity
  8
細線
100
AcDbLine
 10
7353.540608108044
 20
4276.869496260782
 30
0.0
 11
7353.540608108044
 21
4101.419996260785
 31
0.0
  0
LINE
  5
2831
330
1A
100
AcDbEntity
  8
細線
100
AcDbLine
 10
7389.540608108044
 20
4276.869496260782
 30
0.0
 11
7389.540608108044
 21
4101.419996260785
 31
0.0
  0
LINE
  5
2832
330
1A
100
AcDbEntity
  8
部品1
100
AcDbLine
 10
7338.540608108043
 20
4276.869496260782
 30
0.0
 11
7404.540608108044
 21
4276.869496260782
 31
0.0
  0
LINE
  5
2833
330
1A
100
AcDbEntity
  8
部品1
100
AcDbLine
 10
7341.540608108044
 20
4294.874516173432
 30
0.0
 11
7401.540608108044
 21
4294.874516173432
 31
0.0
  0
LINE
  5
2834
330
1A
100
AcDbEntity
  8
部品1
100
AcDbLine
 10
7338.540608108043
 20
4101.419996260784
 30
0.0
 11
7404.540608108044
 21
4101.419996260784
 31
0.0
  0
ARC
  5
2835
330
1A
100
AcDbEntity
  8
部品1
100
AcDbCircle
 10
7341.540608108044
 20
4354.044811104377
 30
0.0
 40
3.0
100
AcDbArc
 50
90.0
 51
180.0
  0
ARC
  5
2836
330
1A
100
AcDbEntity
  8
部品1
100
AcDbCircle
 10
7401.540608108041
 20
4354.044811104377
 30
0.0
 40
3.0
100
AcDbArc
 50
0.0
 51
90.0
  0
LINE
  5
2837
330
1A
100
AcDbEntity
  8
部品1
100
AcDbLine
 10
7341.540608108044
 20
4357.044811104377
 30
0.0
 11
7401.540608108041
 21
4357.044811104377
 31
0.0
  0
LINE
  5
2838
330
1A
100
AcDbEntity
  8
部品1
100
AcDbLine
 10
7620.962450027018
 20
4353.019114883402
 30
0.0
 11
7617.081850869094
 21
4263.864975264413
 31
0.0
  0
LINE
  5
2839
330
1A
100
AcDbEntity
  8
部品1
100
AcDbLine
 10
7565.962450027019
 20
4365.187199662494
 30
0.0
 11
7565.962450027017
 21
4251.430289092855
 31
0.0
  0
LINE
  5
283A
330
1A
100
AcDbEntity
  8
部品1
100
AcDbLine
 10
7560.962450027017
 20
4251.430289092855
 30
0.0
 11
7604.094148213296
 21
4251.430289092855
 31
0.0
  0
LINE
  5
283B
330
1A
100
AcDbEntity
  8
部品1
100
AcDbLine
 10
7550.962450027019
 20
4262.932076724847
 30
0.0
 11
7550.962450027016
 21
4213.429171466531
 31
0.0
  0
LINE
  5
283C
330
1A
100
AcDbEntity
  8
部品1
100
AcDbLine
 10
7560.962450027019
 20
4262.932076724847
 30
0.0
 11
7560.962450027017
 21
4213.429171466531
 31
0.0
  0
ARC
  5
283D
330
1A
100
AcDbEntity
  8
部品1
100
AcDbCircle
 10
7604.094148213296
 20
4264.430289092856
 30
0.0
 40
13.0
100
AcDbArc
 50
270.0
 51
357.5076681947367
  0
LINE
  5
283E
330
1A
100
AcDbEntity
  8
部品1
100
AcDbLine
 10
7620.962450027018
 20
4467.058816120086
 30
0.0
 11
7620.962450027018
 21
4353.019114883405
 31
0.0
  0
LINE
  5
283F
330
1A
100
AcDbEntity
  8
部品1
100
AcDbLine
 10
7598.540608108044
 20
4480.058816120087
 30
0.0
 11
7598.540608108044
 21
4365.187199662494
 31
0.0
  0
ARC
  5
2840
330
1A
100
AcDbEntity
  8
部品1
100
AcDbCircle
 10
7604.094148213296
 20
4378.187199662494
 30
0.0
 40
13.0
100
AcDbArc
 50
270.0
 51
357.5076681947367
  0
ARC
  5
2841
330
1A
100
AcDbEntity
  8
部品1
100
AcDbCircle
 10
7607.962450027018
 20
4467.058816120086
 30
0.0
 40
13.0
100
AcDbArc
 50
357.5076681947367
 51
90.0
  0
LINE
  5
2842
330
1A
100
AcDbEntity
  8
部品1
100
AcDbLine
 10
7620.950152682813
 20
4466.493502291645
 30
0.0
 11
7617.081850869094
 21
4377.621885834052
 31
0.0
  0
LINE
  5
2843
330
1A
100
AcDbEntity
  8
部品1
100
AcDbLine
 10
7594.040608108042
 20
5936.120619012551
 30
0.0
 11
7576.540608108041
 21
5936.120619012551
 31
0.0
  0
LINE
  5
2844
330
1A
100
AcDbEntity
  8
部品1
100
AcDbLine
 10
7599.040608108042
 20
5931.12061901255
 30
0.0
 11
7599.040608108044
 21
5886.120619012552
 31
0.0
  0
ARC
  5
2845
330
1A
100
AcDbEntity
  8
部品1
100
AcDbCircle
 10
7594.040608108042
 20
5931.12061901255
 30
0.0
 40
5.0
100
AcDbArc
 50
0.0
 51
90.0
  0
ARC
  5
2846
330
1A
100
AcDbEntity
  8
部品1
100
AcDbCircle
 10
7611.540608108043
 20
5896.120619012553
 30
0.0
 40
10.0
100
AcDbArc
 50
270.0
 51
0.0
  0
LINE
  5
2847
330
1A
100
AcDbEntity
  8
寸法
100
AcDbLine
 10
8236.993531295164
 20
5886.120619012552
 30
0.0
 11
8236.993531295164
 21
5686.120619012552
 31
0.0
  0
LINE
  5
2848
330
1A
100
AcDbEntity
  8
センター
 48
10.0
100
AcDbLine
 10
2391.540608108044
 20
6123.120619012556
 30
0.0
 11
7591.540608108042
 21
6123.120619012553
 31
0.0
  0
LINE
  5
2849
330
1A
100
AcDbEntity
  8
センター
 48
10.0
100
AcDbLine
 10
2391.540608108044
 20
6757.420619012555
 30
0.0
 11
7591.540608108042
 21
6757.420619012552
 31
0.0
  0
LINE
  5
284A
330
1A
100
AcDbEntity
  8
センター
 48
10.0
100
AcDbLine
 10
2391.540608108044
 20
7391.720619012549
 30
0.0
 11
7591.540608108042
 21
7391.720619012554
 31
0.0
  0
LINE
  5
284B
330
1A
100
AcDbEntity
  8
センター
 48
10.0
100
AcDbLine
 10
2391.540608108044
 20
8026.02061901255
 30
0.0
 11
7591.540608108042
 21
8026.020619012559
 31
0.0
  0
LINE
  5
284C
330
1A
100
AcDbEntity
  8
細線
100
AcDbLine
 10
2431.540608108044
 20
8214.620619012555
 30
0.0
 11
5002.5528767374
 21
8214.620619012547
 31
0.0
  0
LINE
  5
284D
330
1A
100
AcDbEntity
  8
部品1
100
AcDbLine
 10
2431.540608108044
 20
8204.620619012549
 30
0.0
 11
5005.569936635851
 21
8204.620619012551
 31
0.0
  0
LINE
  5
284E
330
1A
100
AcDbEntity
  8
部品1
100
AcDbLine
 10
2431.540608108044
 20
8367.620619012553
 30
0.0
 11
4956.391860291081
 21
8367.620619012553
 31
0.0
  0
LINE
  5
284F
330
1A
100
AcDbEntity
  8
細線
100
AcDbLine
 10
2431.540608108044
 20
8357.620619012555
 30
0.0
 11
4959.408920189531
 21
8357.620619012555
 31
0.0
  0
LINE
  5
2850
330
1A
100
AcDbEntity
  8
部品1
100
AcDbLine
 10
4532.585456355513
 20
9772.320619012552
 30
0.0
 11
2431.540608108044
 21
9772.32061901255
 31
0.0
  0
LINE
  5
2851
330
1A
100
AcDbEntity
  8
部品1
100
AcDbLine
 10
4341.213346996692
 20
10406.62061901256
 30
0.0
 11
2431.540608108046
 21
10406.62061901255
 31
0.0
  0
LINE
  5
2852
330
1A
100
AcDbEntity
  8
部品1
100
AcDbLine
 10
4915.329675073148
 20
8503.720619012545
 30
0.0
 11
2431.540608108044
 21
8503.720619012543
 31
0.0
  0
LINE
  5
2853
330
1A
100
AcDbEntity
  8
部品1
100
AcDbLine
 10
4723.957565714334
 20
9138.020619012541
 30
0.0
 11
2431.540608108044
 21
9138.020619012539
 31
0.0
  0
LINE
  5
2854
330
1A
100
AcDbEntity
  8
部品1
100
AcDbLine
 10
5238.004231212601
 20
7434.220619012555
 30
0.0
 11
2431.540608108044
 21
7434.220619012551
 31
0.0
  0
LINE
  5
2855
330
1A
100
AcDbEntity
  8
部品1
100
AcDbLine
 10
5046.632121853783
 20
8068.52061901255
 30
0.0
 11
2431.540608108044
 21
8068.520619012558
 31
0.0
  0
LINE
  5
2856
330
1A
100
AcDbEntity
  8
部品1
100
AcDbLine
 10
7576.540608108044
 20
5956.120619012556
 30
0.0
 11
2406.540608108044
 21
5956.120619012545
 31
0.0
  0
LINE
  5
2857
330
1A
100
AcDbEntity
  8
部品1
100
AcDbLine
 10
7576.540608108041
 20
10616.12061901255
 30
0.0
 11
2406.540608108044
 21
10616.12061901256
 31
0.0
  0
LINE
  5
2858
330
1A
100
AcDbEntity
  8
部品1
100
AcDbLine
 10
5620.748449930236
 20
6165.620619012552
 30
0.0
 11
2431.540608108044
 21
6165.620619012552
 31
0.0
  0
LINE
  5
2859
330
1A
100
AcDbEntity
  8
部品1
100
AcDbLine
 10
5640.359339270173
 20
6100.620619012552
 30
0.0
 11
2431.540608108044
 21
6100.620619012559
 31
0.0
  0
LINE
  5
285A
330
1A
100
AcDbEntity
  8
部品1
100
AcDbLine
 10
5626.782569727138
 20
6145.620619012554
 30
0.0
 11
2431.540608108044
 21
6145.620619012552
 31
0.0
  0
LINE
  5
285B
330
1A
100
AcDbEntity
  8
部品1
100
AcDbLine
 10
5429.376340571418
 20
6799.920619012555
 30
0.0
 11
2431.540608108044
 21
6799.920619012552
 31
0.0
  0
LINE
  5
285C
330
1A
100
AcDbEntity
  8
部品1
100
AcDbLine
 10
5448.987229911354
 20
6734.920619012557
 30
0.0
 11
2431.540608108044
 21
6734.920619012552
 31
0.0
  0
LINE
  5
285D
330
1A
100
AcDbEntity
  8
部品1
100
AcDbLine
 10
5435.410460368321
 20
6779.920619012552
 30
0.0
 11
2431.540608108044
 21
6779.920619012552
 31
0.0
  0
LINE
  5
285E
330
1A
100
AcDbEntity
  8
部品1
100
AcDbLine
 10
5257.615120552537
 20
7369.220619012555
 30
0.0
 11
2431.540608108044
 21
7369.22061901255
 31
0.0
  0
LINE
  5
285F
330
1A
100
AcDbEntity
  8
部品1
100
AcDbLine
 10
5244.038351009503
 20
7414.22061901255
 30
0.0
 11
2431.540608108044
 21
7414.220619012562
 31
0.0
  0
LINE
  5
2860
330
1A
100
AcDbEntity
  8
部品1
100
AcDbLine
 10
5052.666241650686
 20
8048.520619012558
 30
0.0
 11
2431.540608108044
 21
8048.520619012554
 31
0.0
  0
LINE
  5
2861
330
1A
100
AcDbEntity
  8
部品1
100
AcDbLine
 10
5066.243011193719
 20
8003.520619012558
 30
0.0
 11
2431.540608108044
 21
8003.520619012558
 31
0.0
  0
LINE
  5
2862
330
1A
100
AcDbEntity
  8
部品1
100
AcDbLine
 10
4895.718785733205
 20
8568.720619012557
 30
0.0
 11
2431.540608108044
 21
8568.720619012548
 31
0.0
  0
LINE
  5
2863
330
1A
100
AcDbEntity
  8
部品1
100
AcDbLine
 10
4909.295555276245
 20
8523.720619012548
 30
0.0
 11
2431.540608108044
 21
8523.720619012545
 31
0.0
  0
LINE
  5
2864
330
1A
100
AcDbEntity
  8
部品1
100
AcDbLine
 10
4704.346676374391
 20
9203.020619012555
 30
0.0
 11
2431.540608108044
 21
9203.020619012553
 31
0.0
  0
LINE
  5
2865
330
1A
100
AcDbEntity
  8
部品1
100
AcDbLine
 10
4717.923445917426
 20
9158.020619012551
 30
0.0
 11
2431.540608108044
 21
9158.020619012559
 31
0.0
  0
LINE
  5
2866
330
1A
100
AcDbEntity
  8
部品1
100
AcDbLine
 10
4526.55133655861
 20
9792.320619012549
 30
0.0
 11
2431.540608108044
 21
9792.320619012549
 31
0.0
  0
LINE
  5
2867
330
1A
100
AcDbEntity
  8
部品1
100
AcDbLine
 10
4512.974567015573
 20
9837.320619012551
 30
0.0
 11
2431.540608108046
 21
9837.320619012551
 31
0.0
  0
LINE
  5
2868
330
1A
100
AcDbEntity
  8
部品1
100
AcDbLine
 10
4335.179227199789
 20
10426.62061901255
 30
0.0
 11
2431.540608108046
 21
10426.62061901255
 31
0.0
  0
LINE
  5
2869
330
1A
100
AcDbEntity
  8
部品1
100
AcDbLine
 10
4321.602457656758
 20
10471.62061901254
 30
0.0
 11
2431.540608108046
 21
10471.62061901255
 31
0.0
  0
LINE
  5
286A
330
1A
100
AcDbEntity
  8
センター
 48
10.0
100
AcDbLine
 10
7591.540608108042
 20
8546.220619012551
 30
0.0
 11
2391.540608108044
 21
8546.220619012546
 31
0.0
  0
LINE
  5
286B
330
1A
100
AcDbEntity
  8
センター
 48
10.0
100
AcDbLine
 10
7591.540608108042
 20
9180.520619012552
 30
0.0
 11
2391.540608108044
 21
9180.520619012545
 31
0.0
  0
LINE
  5
286C
330
1A
100
AcDbEntity
  8
センター
 48
10.0
100
AcDbLine
 10
7591.540608108044
 20
9814.82061901255
 30
0.0
 11
2391.540608108044
 21
9814.820619012547
 31
0.0
  0
LINE
  5
286D
330
1A
100
AcDbEntity
  8
センター
 48
10.0
100
AcDbLine
 10
7591.540608108044
 20
10449.12061901255
 30
0.0
 11
2391.540608108044
 21
10449.12061901255
 31
0.0
  0
LINE
  5
286E
330
1A
100
AcDbEntity
  8
部品1
100
AcDbLine
 10
7611.540608108042
 20
10686.12061901255
 30
0.0
 11
2371.540608108044
 21
10686.12061901255
 31
0.0
  0
DIMENSION
  5
286F
330
1A
100
AcDbEntity
  8
寸法
100
AcDbDimension
  2
*D14
 10
1787.870956908438
 20
9180.520619012551
 30
0.0
 11
1687.870956908437
 21
9497.67061901255
 31
0.0
 70
    32
 71
     5
 42
634.300000000001
  3
物置仕様図40
100
AcDbAlignedDimension
 13
2361.540608108044
 23
9814.82061901255
 33
0.0
 14
2361.540608108044
 24
9180.520619012551
 34
0.0
 50
90.0
100
AcDbRotatedDimension
1001
ACAD
1000
DSTYLE
1002
{
1070
    75
1070
     1
1002
}
  0
LINE
  5
2870
330
1A
100
AcDbEntity
  8
部品1
100
AcDbLine
 10
2581.540608108046
 20
9772.32061901255
 30
0.0
 11
2581.540608108042
 21
9203.020619012553
 31
0.0
  0
LINE
  5
2871
330
1A
100
AcDbEntity
  8
部品1
100
AcDbLine
 10
2641.540608108044
 20
9772.320619012552
 30
0.0
 11
2641.540608108044
 21
9203.020619012553
 31
0.0
  0
LINE
  5
2872
330
1A
100
AcDbEntity
  8
部品1
100
AcDbLine
 10
2431.540608108046
 20
10616.12061901255
 30
0.0
 11
2431.540608108044
 21
8321.120619012551
 31
0.0
  0
LINE
  5
2873
330
1A
100
AcDbEntity
  8
部品1
100
AcDbLine
 10
2406.540608108044
 20
10636.12061901255
 30
0.0
 11
2406.540608108044
 21
8286.120619012553
 31
0.0
  0
LINE
  5
2874
330
1A
100
AcDbEntity
  8
部品1
100
AcDbLine
 10
2361.540608108044
 20
10676.12061901255
 30
0.0
 11
2361.540608108044
 21
8286.120619012553
 31
0.0
  0
DIMENSION
  5
2875
330
1A
100
AcDbEntity
  8
寸法
100
AcDbDimension
  2
*D15
 10
1787.870956908438
 20
7391.720619012551
 30
0.0
 11
1685.578155871379
 21
7601.653067038075
 31
0.0
 70
   160
 71
     5
 42
634.3000000000038
  3
物置仕様図40
100
AcDbAlignedDimension
 13
2361.540608108044
 23
8026.020619012554
 33
0.0
 14
2361.540608108044
 24
7391.720619012551
 34
0.0
 50
90.0
100
AcDbRotatedDimension
1001
ACAD
1000
DSTYLE
1002
{
1070
    75
1070
     1
1002
}
  0
LINE
  5
2876
330
1A
100
AcDbEntity
  8
部品1
100
AcDbLine
 10
2431.540608108044
 20
8251.120619012551
 30
0.0
 11
2431.540608108044
 21
5956.120619012549
 31
0.0
  0
LINE
  5
2877
330
1A
100
AcDbEntity
  8
部品1
100
AcDbLine
 10
2581.540608108044
 20
8003.520619012554
 30
0.0
 11
2581.540608108044
 21
7434.220619012551
 31
0.0
  0
LINE
  5
2878
330
1A
100
AcDbEntity
  8
部品1
100
AcDbLine
 10
2641.540608108042
 20
8003.520619012554
 30
0.0
 11
2641.540608108044
 21
7434.220619012551
 31
0.0
  0
DIMENSION
  5
2879
330
1A
100
AcDbEntity
  8
寸法
100
AcDbDimension
  2
*D16
 10
1787.870956908438
 20
6123.120619012553
 30
0.0
 11
1687.870956908437
 21
6440.270619012553
 31
0.0
 70
    32
 71
     5
 42
634.2999999999992
  3
物置仕様図40
100
AcDbAlignedDimension
 13
2361.540608108044
 23
6757.420619012552
 33
0.0
 14
2361.540608108044
 24
6123.120619012553
 34
0.0
 50
90.0
100
AcDbRotatedDimension
1001
ACAD
1000
DSTYLE
1002
{
1070
    75
1070
     1
1002
}
  0
DIMENSION
  5
287A
330
1A
100
AcDbEntity
  8
寸法
100
AcDbDimension
  2
*D17
 10
1787.870956908438
 20
6757.420619012552
 30
0.0
 11
1687.870956908437
 21
7074.570619012551
 31
0.0
 70
    32
 71
     5
 42
634.2999999999992
  3
物置仕様図40
100
AcDbAlignedDimension
 13
2361.540608108044
 23
7391.720619012551
 33
0.0
 14
2361.540608108044
 24
6757.420619012552
 34
0.0
 50
90.0
100
AcDbRotatedDimension
1001
ACAD
1000
DSTYLE
1002
{
1070
    75
1070
     1
1002
}
  0
LINE
  5
287B
330
1A
100
AcDbEntity
  8
部品1
100
AcDbLine
 10
2581.540608108044
 20
7369.220619012553
 30
0.0
 11
2581.540608108044
 21
6799.920619012553
 31
0.0
  0
LINE
  5
287C
330
1A
100
AcDbEntity
  8
部品1
100
AcDbLine
 10
2641.540608108042
 20
7369.220619012553
 30
0.0
 11
2641.540608108044
 21
6799.920619012553
 31
0.0
  0
LINE
  5
287D
330
1A
100
AcDbEntity
  8
点線
 48
6.0
100
AcDbLine
 10
2391.540608108042
 20
6165.620619012552
 30
0.0
 11
2391.540608108042
 21
6100.620619012559
 31
0.0
  0
LINE
  5
287E
330
1A
100
AcDbEntity
  8
点線
 48
6.0
100
AcDbLine
 10
2431.540608108044
 20
6100.620619012559
 30
0.0
 11
2391.540608108042
 21
6100.620619012559
 31
0.0
  0
LINE
  5
287F
330
1A
100
AcDbEntity
  8
点線
 48
6.0
100
AcDbLine
 10
2431.540608108044
 20
6145.620619012552
 30
0.0
 11
2391.540608108042
 21
6145.620619012552
 31
0.0
  0
LINE
  5
2880
330
1A
100
AcDbEntity
  8
点線
 48
6.0
100
AcDbLine
 10
2431.540608108044
 20
6165.620619012552
 30
0.0
 11
2391.540608108042
 21
6165.620619012552
 31
0.0
  0
LINE
  5
2881
330
1A
100
AcDbEntity
  8
点線
 48
6.0
100
AcDbLine
 10
2391.540608108042
 20
6799.920619012552
 30
0.0
 11
2391.540608108042
 21
6734.920619012552
 31
0.0
  0
LINE
  5
2882
330
1A
100
AcDbEntity
  8
点線
 48
6.0
100
AcDbLine
 10
2431.540608108044
 20
6734.920619012552
 30
0.0
 11
2391.540608108042
 21
6734.920619012552
 31
0.0
  0
LINE
  5
2883
330
1A
100
AcDbEntity
  8
点線
 48
6.0
100
AcDbLine
 10
2431.540608108044
 20
6779.920619012552
 30
0.0
 11
2391.540608108042
 21
6779.920619012552
 31
0.0
  0
LINE
  5
2884
330
1A
100
AcDbEntity
  8
点線
 48
6.0
100
AcDbLine
 10
2431.540608108044
 20
6799.920619012552
 30
0.0
 11
2391.540608108042
 21
6799.920619012552
 31
0.0
  0
LINE
  5
2885
330
1A
100
AcDbEntity
  8
部品1
100
AcDbLine
 10
2581.540608108044
 20
6734.920619012552
 30
0.0
 11
2581.540608108048
 21
6165.62061901255
 31
0.0
  0
LINE
  5
2886
330
1A
100
AcDbEntity
  8
部品1
100
AcDbLine
 10
2641.540608108044
 20
6734.920619012552
 30
0.0
 11
2641.540608108049
 21
6165.62061901255
 31
0.0
  0
LINE
  5
2887
330
1A
100
AcDbEntity
  8
点線
 48
6.0
100
AcDbLine
 10
2641.540608108049
 20
6165.62061901255
 30
0.0
 11
2641.540608108049
 21
6100.620619012559
 31
0.0
  0
LINE
  5
2888
330
1A
100
AcDbEntity
  8
点線
 48
6.0
100
AcDbLine
 10
2581.540608108048
 20
6165.62061901255
 30
0.0
 11
2581.540608108048
 21
6100.620619012559
 31
0.0
  0
LINE
  5
2889
330
1A
100
AcDbEntity
  8
部品1
100
AcDbLine
 10
2581.540608108046
 20
6044.620619012552
 30
0.0
 11
2641.540608108046
 21
6044.620619012552
 31
0.0
  0
LINE
  5
288A
330
1A
100
AcDbEntity
  8
部品1
100
AcDbLine
 10
2581.540608108048
 20
6100.620619012552
 30
0.0
 11
2581.540608108046
 21
6044.620619012552
 31
0.0
  0
LINE
  5
288B
330
1A
100
AcDbEntity
  8
部品1
100
AcDbLine
 10
2641.540608108049
 20
6100.620619012552
 30
0.0
 11
2641.540608108046
 21
6044.620619012552
 31
0.0
  0
LINE
  5
288C
330
1A
100
AcDbEntity
  8
点線
 48
6.0
100
AcDbLine
 10
2641.540608108044
 20
6799.920619012552
 30
0.0
 11
2641.540608108044
 21
6734.920619012552
 31
0.0
  0
LINE
  5
288D
330
1A
100
AcDbEntity
  8
点線
 48
6.0
100
AcDbLine
 10
2581.540608108044
 20
6799.920619012553
 30
0.0
 11
2581.540608108044
 21
6734.920619012552
 31
0.0
  0
LINE
  5
288E
330
1A
100
AcDbEntity
  8
点線
 48
6.0
100
AcDbLine
 10
2391.540608108044
 20
7434.220619012551
 30
0.0
 11
2391.540608108042
 21
7369.22061901255
 31
0.0
  0
LINE
  5
288F
330
1A
100
AcDbEntity
  8
点線
 48
6.0
100
AcDbLine
 10
2431.540608108044
 20
7369.22061901255
 30
0.0
 11
2391.540608108042
 21
7369.22061901255
 31
0.0
  0
LINE
  5
2890
330
1A
100
AcDbEntity
  8
点線
 48
6.0
100
AcDbLine
 10
2431.540608108044
 20
7414.220619012562
 30
0.0
 11
2391.540608108042
 21
7414.220619012562
 31
0.0
  0
LINE
  5
2891
330
1A
100
AcDbEntity
  8
点線
 48
6.0
100
AcDbLine
 10
2431.540608108044
 20
7434.220619012551
 30
0.0
 11
2391.540608108042
 21
7434.220619012551
 31
0.0
  0
LINE
  5
2892
330
1A
100
AcDbEntity
  8
点線
 48
6.0
100
AcDbLine
 10
2641.540608108044
 20
7434.220619012551
 30
0.0
 11
2641.540608108042
 21
7369.220619012553
 31
0.0
  0
LINE
  5
2893
330
1A
100
AcDbEntity
  8
点線
 48
6.0
100
AcDbLine
 10
2581.540608108044
 20
7434.220619012551
 30
0.0
 11
2581.540608108044
 21
7369.220619012553
 31
0.0
  0
DIMENSION
  5
2894
330
1A
100
AcDbEntity
  8
寸法
100
AcDbDimension
  2
*D18
 10
1787.870956908438
 20
8026.020619012555
 30
0.0
 11
1627.859145884817
 21
8068.085528056217
 31
0.0
 70
   160
 71
     5
 42
260.0999999999967
  3
物置仕様図40
100
AcDbAlignedDimension
 13
2361.540608108044
 23
8286.120619012553
 33
0.0
 14
2361.540608108044
 24
8026.020619012554
 34
0.0
 50
90.0
100
AcDbRotatedDimension
1001
ACAD
1000
DSTYLE
1002
{
1070
    75
1070
     1
1002
}
  0
DIMENSION
  5
2895
330
1A
100
AcDbEntity
  8
寸法
100
AcDbDimension
  2
*D19
 10
1787.870956908438
 20
8286.120619012553
 30
0.0
 11
1627.859145884817
 21
8471.537888503204
 31
0.0
 70
   160
 71
     5
 42
260.0999999999949
  3
物置仕様図40
100
AcDbAlignedDimension
 13
2361.540608108044
 23
8546.220619012547
 33
0.0
 14
2361.540608108044
 24
8286.120619012553
 34
0.0
 50
90.0
100
AcDbRotatedDimension
1001
ACAD
1000
DSTYLE
1002
{
1070
    75
1070
     1
1002
}
  0
DIMENSION
  5
2896
330
1A
100
AcDbEntity
  8
寸法
100
AcDbDimension
  2
*D20
 10
1787.870956908438
 20
8546.220619012547
 30
0.0
 11
1693.109252804352
 21
8980.254959543476
 31
0.0
 70
   160
 71
     5
 42
634.3000000000029
  3
物置仕様図40
100
AcDbAlignedDimension
 13
2361.540608108044
 23
9180.520619012551
 33
0.0
 14
2361.540608108044
 24
8546.220619012547
 34
0.0
 50
90.0
100
AcDbRotatedDimension
1001
ACAD
1000
DSTYLE
1002
{
1070
   172
1070
     1
1070
    75
1070
     1
1002
}
  0
LINE
  5
2897
330
1A
100
AcDbEntity
  8
部品1
100
AcDbLine
 10
2641.540608108044
 20
9138.020619012548
 30
0.0
 11
2641.540608108044
 21
8568.72061901255
 31
0.0
  0
LINE
  5
2898
330
1A
100
AcDbEntity
  8
部品1
100
AcDbLine
 10
2581.540608108044
 20
9138.020619012548
 30
0.0
 11
2581.540608108044
 21
8568.72061901255
 31
0.0
  0
LINE
  5
2899
330
1A
100
AcDbEntity
  8
点線
 48
6.0
100
AcDbLine
 10
2391.540608108042
 20
8068.520619012558
 30
0.0
 11
2391.540608108044
 21
8003.520619012558
 31
0.0
  0
LINE
  5
289A
330
1A
100
AcDbEntity
  8
点線
 48
6.0
100
AcDbLine
 10
2431.540608108044
 20
8003.520619012558
 30
0.0
 11
2391.540608108042
 21
8003.520619012558
 31
0.0
  0
LINE
  5
289B
330
1A
100
AcDbEntity
  8
点線
 48
6.0
100
AcDbLine
 10
2431.540608108044
 20
8048.520619012554
 30
0.0
 11
2391.540608108042
 21
8048.520619012554
 31
0.0
  0
LINE
  5
289C
330
1A
100
AcDbEntity
  8
点線
 48
6.0
100
AcDbLine
 10
2431.540608108044
 20
8068.520619012558
 30
0.0
 11
2391.540608108042
 21
8068.520619012558
 31
0.0
  0
LINE
  5
289D
330
1A
100
AcDbEntity
  8
部品1
100
AcDbLine
 10
2406.540608108044
 20
8251.120619012551
 30
0.0
 11
2431.540608108044
 21
8251.120619012551
 31
0.0
  0
LINE
  5
289E
330
1A
100
AcDbEntity
  8
部品1
100
AcDbLine
 10
2406.540608108044
 20
8321.120619012551
 30
0.0
 11
2431.540608108044
 21
8321.120619012551
 31
0.0
  0
LINE
  5
289F
330
1A
100
AcDbEntity
  8
部品1
100
AcDbLine
 10
2406.540608108044
 20
8286.120619012553
 30
0.0
 11
2361.540608108044
 21
8286.120619012553
 31
0.0
  0
LINE
  5
28A0
330
1A
100
AcDbEntity
  8
部品1
100
AcDbLine
 10
2361.540608108044
 20
8286.120619012553
 30
0.0
 11
2406.540608108044
 21
8286.120619012553
 31
0.0
  0
LINE
  5
28A1
330
1A
100
AcDbEntity
  8
点線
 48
6.0
100
AcDbLine
 10
2391.540608108042
 20
8568.720619012548
 30
0.0
 11
2391.540608108042
 21
8503.720619012543
 31
0.0
  0
LINE
  5
28A2
330
1A
100
AcDbEntity
  8
点線
 48
6.0
100
AcDbLine
 10
2431.540608108044
 20
8503.720619012543
 30
0.0
 11
2391.540608108042
 21
8503.720619012543
 31
0.0
  0
LINE
  5
28A3
330
1A
100
AcDbEntity
  8
点線
 48
6.0
100
AcDbLine
 10
2431.540608108044
 20
8523.720619012545
 30
0.0
 11
2391.540608108042
 21
8523.720619012545
 31
0.0
  0
LINE
  5
28A4
330
1A
100
AcDbEntity
  8
点線
 48
6.0
100
AcDbLine
 10
2431.540608108044
 20
8568.720619012548
 30
0.0
 11
2391.540608108042
 21
8568.720619012548
 31
0.0
  0
LINE
  5
28A5
330
1A
100
AcDbEntity
  8
点線
 48
6.0
100
AcDbLine
 10
2641.540608108044
 20
8367.620619012553
 30
0.0
 11
2641.540608108044
 21
8204.620619012549
 31
0.0
  0
LINE
  5
28A6
330
1A
100
AcDbEntity
  8
点線
 48
6.0
100
AcDbLine
 10
2581.540608108044
 20
8367.620619012553
 30
0.0
 11
2581.540608108044
 21
8204.620619012549
 31
0.0
  0
LINE
  5
28A7
330
1A
100
AcDbEntity
  8
点線
 48
6.0
100
AcDbLine
 10
2641.540608108044
 20
8068.520619012558
 30
0.0
 11
2641.540608108042
 21
8003.520619012558
 31
0.0
  0
LINE
  5
28A8
330
1A
100
AcDbEntity
  8
点線
 48
6.0
100
AcDbLine
 10
2581.540608108042
 20
8068.520619012558
 30
0.0
 11
2581.540608108044
 21
8003.520619012554
 31
0.0
  0
LINE
  5
28A9
330
1A
100
AcDbEntity
  8
部品1
100
AcDbLine
 10
2581.540608108044
 20
8204.620619012549
 30
0.0
 11
2581.540608108042
 21
8068.520619012554
 31
0.0
  0
LINE
  5
28AA
330
1A
100
AcDbEntity
  8
部品1
100
AcDbLine
 10
2641.540608108044
 20
8204.620619012549
 30
0.0
 11
2641.540608108044
 21
8068.520619012554
 31
0.0
  0
LINE
  5
28AB
330
1A
100
AcDbEntity
  8
部品1
100
AcDbLine
 10
2581.540608108046
 20
8503.720619012545
 30
0.0
 11
2581.540608108044
 21
8367.620619012553
 31
0.0
  0
LINE
  5
28AC
330
1A
100
AcDbEntity
  8
部品1
100
AcDbLine
 10
2641.540608108046
 20
8503.720619012545
 30
0.0
 11
2641.540608108044
 21
8367.620619012553
 31
0.0
  0
LINE
  5
28AD
330
1A
100
AcDbEntity
  8
点線
 48
6.0
100
AcDbLine
 10
2641.540608108044
 20
8568.720619012548
 30
0.0
 11
2641.540608108046
 21
8503.720619012545
 31
0.0
  0
LINE
  5
28AE
330
1A
100
AcDbEntity
  8
点線
 48
6.0
100
AcDbLine
 10
2581.540608108044
 20
8568.72061901255
 30
0.0
 11
2581.540608108046
 21
8503.720619012545
 31
0.0
  0
LINE
  5
28AF
330
1A
100
AcDbEntity
  8
点線
 48
6.0
100
AcDbLine
 10
2391.540608108044
 20
9203.020619012553
 30
0.0
 11
2391.540608108042
 21
9138.020619012539
 31
0.0
  0
LINE
  5
28B0
330
1A
100
AcDbEntity
  8
点線
 48
6.0
100
AcDbLine
 10
2431.540608108044
 20
9138.020619012539
 30
0.0
 11
2391.540608108042
 21
9138.020619012539
 31
0.0
  0
LINE
  5
28B1
330
1A
100
AcDbEntity
  8
点線
 48
6.0
100
AcDbLine
 10
2431.540608108044
 20
9158.020619012559
 30
0.0
 11
2391.540608108044
 21
9158.020619012559
 31
0.0
  0
LINE
  5
28B2
330
1A
100
AcDbEntity
  8
点線
 48
6.0
100
AcDbLine
 10
2431.540608108044
 20
9203.020619012553
 30
0.0
 11
2391.540608108044
 21
9203.020619012553
 31
0.0
  0
LINE
  5
28B3
330
1A
100
AcDbEntity
  8
点線
 48
6.0
100
AcDbLine
 10
2641.540608108044
 20
9203.020619012553
 30
0.0
 11
2641.540608108044
 21
9138.020619012548
 31
0.0
  0
LINE
  5
28B4
330
1A
100
AcDbEntity
  8
点線
 48
6.0
100
AcDbLine
 10
2581.540608108042
 20
9203.020619012553
 30
0.0
 11
2581.540608108044
 21
9138.020619012548
 31
0.0
  0
DIMENSION
  5
28B5
330
1A
100
AcDbEntity
  8
寸法
100
AcDbDimension
  2
*D21
 10
1787.870956908438
 20
9814.82061901255
 30
0.0
 11
1687.870956908437
 21
10131.97061901255
 31
0.0
 70
    32
 71
     5
 42
634.300000000001
  3
物置仕様図40
100
AcDbAlignedDimension
 13
2361.540608108044
 23
10449.12061901255
 33
0.0
 14
2361.540608108044
 24
9814.82061901255
 34
0.0
 50
90.0
100
AcDbRotatedDimension
1001
ACAD
1000
DSTYLE
1002
{
1070
    75
1070
     1
1002
}
  0
DIMENSION
  5
28B6
330
1A
100
AcDbEntity
  8
寸法
100
AcDbDimension
  2
*D22
 10
1787.870956908438
 20
10449.12061901255
 30
0.0
 11
1682.405509913456
 21
10567.62061901255
 31
0.0
 70
   160
 71
     5
 42
237.0
  3
物置仕様図40
100
AcDbAlignedDimension
 13
2371.540608108044
 23
10686.12061901255
 33
0.0
 14
2361.540608108044
 24
10449.12061901255
 34
0.0
 50
90.0
100
AcDbRotatedDimension
  0
LINE
  5
28B7
330
1A
100
AcDbEntity
  8
点線
 48
6.0
100
AcDbLine
 10
2391.540608108044
 20
9837.320619012551
 30
0.0
 11
2391.540608108044
 21
9772.32061901255
 31
0.0
  0
LINE
  5
28B8
330
1A
100
AcDbEntity
  8
点線
 48
6.0
100
AcDbLine
 10
2431.540608108044
 20
9772.32061901255
 30
0.0
 11
2391.540608108044
 21
9772.32061901255
 31
0.0
  0
LINE
  5
28B9
330
1A
100
AcDbEntity
  8
点線
 48
6.0
100
AcDbLine
 10
2431.540608108044
 20
9792.320619012549
 30
0.0
 11
2391.540608108044
 21
9792.320619012549
 31
0.0
  0
LINE
  5
28BA
330
1A
100
AcDbEntity
  8
点線
 48
6.0
100
AcDbLine
 10
2431.540608108046
 20
9837.320619012551
 30
0.0
 11
2391.540608108044
 21
9837.320619012551
 31
0.0
  0
LINE
  5
28BB
330
1A
100
AcDbEntity
  8
点線
 48
6.0
100
AcDbLine
 10
2391.540608108044
 20
10471.62061901255
 30
0.0
 11
2391.540608108044
 21
10406.62061901255
 31
0.0
  0
LINE
  5
28BC
330
1A
100
AcDbEntity
  8
点線
 48
6.0
100
AcDbLine
 10
2431.540608108046
 20
10406.62061901255
 30
0.0
 11
2391.540608108044
 21
10406.62061901255
 31
0.0
  0
LINE
  5
28BD
330
1A
100
AcDbEntity
  8
点線
 48
6.0
100
AcDbLine
 10
2431.540608108046
 20
10426.62061901255
 30
0.0
 11
2391.540608108044
 21
10426.62061901255
 31
0.0
  0
LINE
  5
28BE
330
1A
100
AcDbEntity
  8
点線
 48
6.0
100
AcDbLine
 10
2431.540608108046
 20
10471.62061901255
 30
0.0
 11
2391.540608108044
 21
10471.62061901255
 31
0.0
  0
LINE
  5
28BF
330
1A
100
AcDbEntity
  8
部品1
100
AcDbLine
 10
2641.540608108042
 20
10406.62061901255
 30
0.0
 11
2641.540608108044
 21
9837.320619012551
 31
0.0
  0
LINE
  5
28C0
330
1A
100
AcDbEntity
  8
部品1
100
AcDbLine
 10
2581.540608108044
 20
10406.62061901255
 30
0.0
 11
2581.540608108044
 21
9837.320619012551
 31
0.0
  0
LINE
  5
28C1
330
1A
100
AcDbEntity
  8
点線
 48
6.0
100
AcDbLine
 10
2641.540608108044
 20
9837.320619012551
 30
0.0
 11
2641.540608108044
 21
9772.320619012552
 31
0.0
  0
LINE
  5
28C2
330
1A
100
AcDbEntity
  8
点線
 48
6.0
100
AcDbLine
 10
2581.540608108044
 20
9837.320619012551
 30
0.0
 11
2581.540608108044
 21
9772.32061901255
 31
0.0
  0
LINE
  5
28C3
330
1A
100
AcDbEntity
  8
点線
 48
6.0
100
AcDbLine
 10
2641.540608108044
 20
10471.62061901255
 30
0.0
 11
2641.540608108042
 21
10406.62061901255
 31
0.0
  0
LINE
  5
28C4
330
1A
100
AcDbEntity
  8
点線
 48
6.0
100
AcDbLine
 10
2581.540608108044
 20
10471.62061901255
 30
0.0
 11
2581.540608108044
 21
10406.62061901255
 31
0.0
  0
LINE
  5
28C5
330
1A
100
AcDbEntity
  8
部品1
100
AcDbLine
 10
2641.540608108044
 20
10527.62061901255
 30
0.0
 11
2581.540608108044
 21
10527.62061901255
 31
0.0
  0
LINE
  5
28C6
330
1A
100
AcDbEntity
  8
部品1
100
AcDbLine
 10
2641.540608108044
 20
10527.62061901255
 30
0.0
 11
2641.540608108044
 21
10471.62061901255
 31
0.0
  0
LINE
  5
28C7
330
1A
100
AcDbEntity
  8
部品1
100
AcDbLine
 10
2581.540608108044
 20
10527.62061901255
 30
0.0
 11
2581.540608108044
 21
10471.62061901255
 31
0.0
  0
ARC
  5
28C8
330
1A
100
AcDbEntity
  8
部品1
100
AcDbCircle
 10
2389.040608108044
 20
10641.12061901255
 30
0.0
 40
5.0
100
AcDbArc
 50
180.0
 51
270.0
  0
LINE
  5
28C9
330
1A
100
AcDbEntity
  8
部品1
100
AcDbLine
 10
2406.540608108044
 20
10636.12061901255
 30
0.0
 11
2389.040608108044
 21
10636.12061901255
 31
0.0
  0
ARC
  5
28CA
330
1A
100
AcDbEntity
  8
部品1
100
AcDbCircle
 10
2371.540608108044
 20
10676.12061901255
 30
0.0
 40
10.0
100
AcDbArc
 50
90.0
 51
180.0
  0
LINE
  5
28CB
330
1A
100
AcDbEntity
  8
部品1
100
AcDbLine
 10
2384.040608108044
 20
10686.12061901255
 30
0.0
 11
2384.040608108044
 21
10641.12061901255
 31
0.0
  0
LINE
  5
28CC
330
1A
100
AcDbEntity
  8
部品1
100
AcDbLine
 10
4664.540608108046
 20
10128.49850282341
 30
0.0
 11
4664.540608108046
 21
9334.957238125637
 31
0.0
  0
LINE
  5
28CD
330
1A
100
AcDbEntity
  8
部品1
100
AcDbLine
 10
4591.540608108044
 20
10108.93821177593
 30
0.0
 11
4591.540608108044
 21
9576.914648508687
 31
0.0
  0
LINE
  5
28CE
330
1A
100
AcDbEntity
  8
部品1
100
AcDbLine
 10
4636.540608108044
 20
10120.99592543533
 30
0.0
 11
4636.540608108045
 21
9427.762820190372
 31
0.0
  0
LINE
  5
28CF
330
1A
100
AcDbEntity
  8
部品1
100
AcDbLine
 10
7543.040608108046
 20
8321.120619012553
 30
0.0
 11
7543.040608108042
 21
10616.12061901255
 31
0.0
  0
LINE
  5
28D0
330
1A
100
AcDbEntity
  8
部品1
100
AcDbLine
 10
7560.040608108045
 20
8321.120619012553
 30
0.0
 11
7560.040608108042
 21
10616.12061901255
 31
0.0
  0
LINE
  5
28D1
330
1A
100
AcDbEntity
  8
部品1
100
AcDbLine
 10
4709.540608108045
 20
10616.12061901255
 30
0.0
 11
4709.540608108045
 21
9180.520619012552
 31
0.0
  0
LINE
  5
28D2
330
1A
100
AcDbEntity
  8
部品1
100
AcDbLine
 10
4843.040608108042
 20
10616.12061901255
 30
0.0
 11
4843.040608108042
 21
8743.321652463011
 31
0.0
  0
LINE
  5
28D3
330
1A
100
AcDbEntity
  8
部品1
100
AcDbLine
 10
4860.040608108042
 20
10616.12061901255
 30
0.0
 11
4860.040608108042
 21
8686.975406209425
 31
0.0
  0
LINE
  5
28D4
330
1A
100
AcDbEntity
  8
部品1
100
AcDbLine
 10
5120.040608108041
 20
10616.12061901255
 30
0.0
 11
5120.040608108041
 21
8321.120619012557
 31
0.0
  0
LINE
  5
28D5
330
1A
100
AcDbEntity
  8
部品1
100
AcDbLine
 10
5154.540608108042
 20
10616.12061901255
 30
0.0
 11
5154.540608108042
 21
8321.120619012557
 31
0.0
  0
LINE
  5
28D6
330
1A
100
AcDbEntity
  8
部品1
100
AcDbLine
 10
5291.540608108042
 20
10616.12061901255
 30
0.0
 11
5291.540608108042
 21
8321.120619012551
 31
0.0
  0
LINE
  5
28D7
330
1A
100
AcDbEntity
  8
部品1
100
AcDbLine
 10
5336.540608108042
 20
10616.12061901255
 30
0.0
 11
5336.540608108042
 21
8321.120619012551
 31
0.0
  0
LINE
  5
28D8
330
1A
100
AcDbEntity
  8
部品1
100
AcDbLine
 10
5364.540608108042
 20
10616.12061901255
 30
0.0
 11
5364.540608108042
 21
8321.120619012551
 31
0.0
  0
LINE
  5
28D9
330
1A
100
AcDbEntity
  8
部品1
100
AcDbLine
 10
5409.540608108041
 20
10616.12061901255
 30
0.0
 11
5409.540608108041
 21
8321.120619012551
 31
0.0
  0
LINE
  5
28DA
330
1A
100
AcDbEntity
  8
部品1
100
AcDbLine
 10
5540.040608108042
 20
10616.12061901255
 30
0.0
 11
5540.040608108044
 21
8321.120619012557
 31
0.0
  0
LINE
  5
28DB
330
1A
100
AcDbEntity
  8
部品1
100
AcDbLine
 10
5574.540608108041
 20
10616.12061901255
 30
0.0
 11
5574.540608108044
 21
8321.120619012557
 31
0.0
  0
LINE
  5
28DC
330
1A
100
AcDbEntity
  8
部品1
100
AcDbLine
 10
5711.540608108042
 20
10616.12061901255
 30
0.0
 11
5711.540608108042
 21
8321.120619012551
 31
0.0
  0
LINE
  5
28DD
330
1A
100
AcDbEntity
  8
部品1
100
AcDbLine
 10
5756.540608108044
 20
10616.12061901255
 30
0.0
 11
5756.540608108042
 21
8321.120619012551
 31
0.0
  0
LINE
  5
28DE
330
1A
100
AcDbEntity
  8
部品1
100
AcDbLine
 10
5784.540608108044
 20
10616.12061901255
 30
0.0
 11
5784.540608108041
 21
8321.120619012551
 31
0.0
  0
LINE
  5
28DF
330
1A
100
AcDbEntity
  8
部品1
100
AcDbLine
 10
5829.540608108043
 20
10616.12061901255
 30
0.0
 11
5829.540608108042
 21
8321.120619012551
 31
0.0
  0
LINE
  5
28E0
330
1A
100
AcDbEntity
  8
部品1
100
AcDbLine
 10
5960.040608108042
 20
10616.12061901255
 30
0.0
 11
5960.040608108045
 21
8321.120619012557
 31
0.0
  0
LINE
  5
28E1
330
1A
100
AcDbEntity
  8
部品1
100
AcDbLine
 10
5994.540608108043
 20
10616.12061901255
 30
0.0
 11
5994.540608108046
 21
8321.120619012557
 31
0.0
  0
LINE
  5
28E2
330
1A
100
AcDbEntity
  8
部品1
100
AcDbLine
 10
6131.540608108044
 20
10616.12061901255
 30
0.0
 11
6131.540608108044
 21
8321.120619012551
 31
0.0
  0
LINE
  5
28E3
330
1A
100
AcDbEntity
  8
部品1
100
AcDbLine
 10
6176.540608108045
 20
10616.12061901255
 30
0.0
 11
6176.540608108044
 21
8321.120619012551
 31
0.0
  0
LINE
  5
28E4
330
1A
100
AcDbEntity
  8
部品1
100
AcDbLine
 10
6204.540608108046
 20
10616.12061901255
 30
0.0
 11
6204.540608108043
 21
8321.120619012551
 31
0.0
  0
LINE
  5
28E5
330
1A
100
AcDbEntity
  8
部品1
100
AcDbLine
 10
6249.540608108045
 20
10616.12061901255
 30
0.0
 11
6249.540608108044
 21
8321.120619012551
 31
0.0
  0
LINE
  5
28E6
330
1A
100
AcDbEntity
  8
点線
 48
50.0
100
AcDbLine
 10
5021.540608108043
 20
9203.02061901255
 30
0.0
 11
5021.540608108042
 21
9772.320619012553
 31
0.0
  0
LINE
  5
28E7
330
1A
100
AcDbEntity
  8
点線
 48
50.0
100
AcDbLine
 10
4961.540608108044
 20
9203.02061901255
 30
0.0
 11
4961.540608108042
 21
9772.320619012553
 31
0.0
  0
DIMENSION
  5
28E8
330
1A
100
AcDbEntity
  8
寸法
100
AcDbDimension
  2
*D23
 10
8236.993531295164
 20
8321.120619012559
 30
0.0
 11
8136.98172027154
 21
9468.620619012556
 31
0.0
 70
    32
 71
     5
 42
2294.999999999987
  3
物置仕様図40
100
AcDbAlignedDimension
 13
7576.540608108041
 23
10616.12061901255
 33
0.0
 14
7576.540608108043
 24
8321.120619012559
 34
0.0
 50
90.0
100
AcDbRotatedDimension
  0
LINE
  5
28E9
330
1A
100
AcDbEntity
  8
点線
 48
50.0
100
AcDbLine
 10
7341.540608108044
 20
9203.02061901255
 30
0.0
 11
7341.540608108042
 21
9772.320619012553
 31
0.0
  0
LINE
  5
28EA
330
1A
100
AcDbEntity
  8
点線
 48
50.0
100
AcDbLine
 10
7401.540608108044
 20
9203.02061901255
 30
0.0
 11
7401.540608108041
 21
9772.320619012553
 31
0.0
  0
LINE
  5
28EB
330
1A
100
AcDbEntity
  8
部品1
100
AcDbLine
 10
7329.540608108046
 20
10616.12061901255
 30
0.0
 11
7329.540608108044
 21
8321.120619012551
 31
0.0
  0
LINE
  5
28EC
330
1A
100
AcDbEntity
  8
部品1
100
AcDbLine
 10
7284.540608108045
 20
10616.12061901255
 30
0.0
 11
7284.540608108045
 21
8321.120619012551
 31
0.0
  0
LINE
  5
28ED
330
1A
100
AcDbEntity
  8
部品1
100
AcDbLine
 10
7256.540608108045
 20
10616.12061901255
 30
0.0
 11
7256.540608108044
 21
8321.120619012551
 31
0.0
  0
LINE
  5
28EE
330
1A
100
AcDbEntity
  8
部品1
100
AcDbLine
 10
7211.540608108045
 20
10616.12061901255
 30
0.0
 11
7211.540608108044
 21
8321.120619012551
 31
0.0
  0
LINE
  5
28EF
330
1A
100
AcDbEntity
  8
部品1
100
AcDbLine
 10
6749.540608108043
 20
10616.12061901255
 30
0.0
 11
6749.540608108041
 21
8321.120619012551
 31
0.0
  0
LINE
  5
28F0
330
1A
100
AcDbEntity
  8
部品1
100
AcDbLine
 10
6704.540608108044
 20
10616.12061901255
 30
0.0
 11
6704.540608108044
 21
8321.120619012551
 31
0.0
  0
LINE
  5
28F1
330
1A
100
AcDbEntity
  8
部品1
100
AcDbLine
 10
6676.540608108044
 20
10616.12061901255
 30
0.0
 11
6676.540608108044
 21
8321.120619012551
 31
0.0
  0
LINE
  5
28F2
330
1A
100
AcDbEntity
  8
部品1
100
AcDbLine
 10
6631.540608108044
 20
10616.12061901255
 30
0.0
 11
6631.540608108044
 21
8321.120619012551
 31
0.0
  0
LINE
  5
28F3
330
1A
100
AcDbEntity
  8
部品1
100
AcDbLine
 10
6994.540608108042
 20
8321.120619012551
 30
0.0
 11
6994.540608108042
 21
10616.12061901255
 31
0.0
  0
LINE
  5
28F4
330
1A
100
AcDbEntity
  8
部品1
100
AcDbLine
 10
6960.040608108042
 20
8321.120619012551
 30
0.0
 11
6960.040608108042
 21
10616.12061901255
 31
0.0
  0
LINE
  5
28F5
330
1A
100
AcDbEntity
  8
部品1
100
AcDbLine
 10
6414.540608108044
 20
8321.120619012551
 30
0.0
 11
6414.540608108044
 21
10616.12061901255
 31
0.0
  0
LINE
  5
28F6
330
1A
100
AcDbEntity
  8
部品1
100
AcDbLine
 10
6380.040608108044
 20
8321.120619012551
 30
0.0
 11
6380.040608108044
 21
10616.12061901255
 31
0.0
  0
LINE
  5
28F7
330
1A
100
AcDbEntity
  8
部品1
100
AcDbLine
 10
7576.540608108041
 20
8286.120619012553
 30
0.0
 11
7576.540608108041
 21
10636.12061901255
 31
0.0
  0
LINE
  5
28F8
330
1A
100
AcDbEntity
  8
部品1
100
AcDbLine
 10
7621.540608108041
 20
8286.120619012553
 30
0.0
 11
7621.540608108041
 21
10676.12061901255
 31
0.0
  0
LINE
  5
28F9
330
1A
100
AcDbEntity
  8
点線
 48
50.0
100
AcDbLine
 10
5448.987229911358
 20
6734.920619012552
 30
0.0
 11
7591.540608108042
 21
6734.920619012555
 31
0.0
  0
LINE
  5
28FA
330
1A
100
AcDbEntity
  8
点線
 48
50.0
100
AcDbLine
 10
5620.748449930236
 20
6165.620619012556
 30
0.0
 11
7591.540608108042
 21
6165.620619012546
 31
0.0
  0
LINE
  5
28FB
330
1A
100
AcDbEntity
  8
点線
 48
50.0
100
AcDbLine
 10
5429.376340571415
 20
6799.920619012553
 30
0.0
 11
7591.540608108042
 21
6799.920619012549
 31
0.0
  0
LINE
  5
28FC
330
1A
100
AcDbEntity
  8
点線
 48
50.0
100
AcDbLine
 10
5238.004231212601
 20
7434.220619012553
 30
0.0
 11
7591.540608108042
 21
7434.220619012556
 31
0.0
  0
LINE
  5
28FD
330
1A
100
AcDbEntity
  8
点線
 48
50.0
100
AcDbLine
 10
5046.63212185378
 20
8068.520619012558
 30
0.0
 11
7591.540608108042
 21
8068.520619012558
 31
0.0
  0
LINE
  5
28FE
330
1A
100
AcDbEntity
  8
点線
 48
50.0
100
AcDbLine
 10
7591.540608108044
 20
8503.72061901255
 30
0.0
 11
4915.329675073148
 21
8503.720619012547
 31
0.0
  0
LINE
  5
28FF
330
1A
100
AcDbEntity
  8
点線
 48
50.0
100
AcDbLine
 10
7591.540608108042
 20
9138.020619012552
 30
0.0
 11
4723.957565714328
 21
9138.020619012552
 31
0.0
  0
LINE
  5
2900
330
1A
100
AcDbEntity
  8
点線
 48
50.0
100
AcDbLine
 10
5005.56993663585
 20
8204.620619012549
 30
0.0
 11
7576.540608108044
 21
8204.620619012555
 31
0.0
  0
LINE
  5
2901
330
1A
100
AcDbEntity
  8
点線
 48
50.0
100
AcDbLine
 10
4956.391860291081
 20
8367.620619012553
 30
0.0
 11
7576.540608108041
 21
8367.620619012553
 31
0.0
  0
LINE
  5
2902
330
1A
100
AcDbEntity
  8
部品1
100
AcDbLine
 10
4991.540608108048
 20
8251.120619012551
 30
0.0
 11
7576.540608108044
 21
8251.120619012557
 31
0.0
  0
LINE
  5
2903
330
1A
100
AcDbEntity
  8
部品1
100
AcDbLine
 10
4970.421188818882
 20
8321.120619012557
 30
0.0
 11
7576.540608108041
 21
8321.120619012559
 31
0.0
  0
LINE
  5
2904
330
1A
100
AcDbEntity
  8
点線
 48
50.0
100
AcDbLine
 10
5640.359339270173
 20
6100.620619012554
 30
0.0
 11
7591.540608108042
 21
6100.620619012552
 31
0.0
  0
LINE
  5
2905
330
1A
100
AcDbEntity
  8
点線
 48
50.0
100
AcDbLine
 10
5626.782569727138
 20
6145.620619012552
 30
0.0
 11
7591.540608108042
 21
6145.620619012556
 31
0.0
  0
LINE
  5
2906
330
1A
100
AcDbEntity
  8
点線
 48
50.0
100
AcDbLine
 10
5435.410460368321
 20
6779.920619012553
 30
0.0
 11
7591.540608108042
 21
6779.920619012553
 31
0.0
  0
LINE
  5
2907
330
1A
100
AcDbEntity
  8
点線
 48
50.0
100
AcDbLine
 10
5257.615120552538
 20
7369.22061901255
 30
0.0
 11
7591.540608108042
 21
7369.220619012555
 31
0.0
  0
LINE
  5
2908
330
1A
100
AcDbEntity
  8
点線
 48
50.0
100
AcDbLine
 10
5244.038351009505
 20
7414.22061901255
 30
0.0
 11
7591.540608108042
 21
7414.22061901255
 31
0.0
  0
LINE
  5
2909
330
1A
100
AcDbEntity
  8
点線
 48
50.0
100
AcDbLine
 10
5066.243011193719
 20
8003.520619012556
 30
0.0
 11
7591.540608108042
 21
8003.520619012556
 31
0.0
  0
LINE
  5
290A
330
1A
100
AcDbEntity
  8
点線
 48
50.0
100
AcDbLine
 10
5052.666241650686
 20
8048.520619012554
 30
0.0
 11
7591.540608108042
 21
8048.520619012558
 31
0.0
  0
LINE
  5
290B
330
1A
100
AcDbEntity
  8
点線
 48
50.0
100
AcDbLine
 10
7591.540608108042
 20
8568.72061901255
 30
0.0
 11
4895.718785733208
 21
8568.72061901255
 31
0.0
  0
LINE
  5
290C
330
1A
100
AcDbEntity
  8
点線
 48
50.0
100
AcDbLine
 10
7591.540608108042
 20
8523.720619012548
 30
0.0
 11
4909.295555276245
 21
8523.720619012548
 31
0.0
  0
LINE
  5
290D
330
1A
100
AcDbEntity
  8
点線
 48
50.0
100
AcDbLine
 10
7591.540608108044
 20
9158.020619012553
 30
0.0
 11
4717.923445917423
 21
9158.020619012551
 31
0.0
  0
LINE
  5
290E
330
1A
100
AcDbEntity
  8
点線
 48
50.0
100
AcDbLine
 10
7591.540608108044
 20
9203.020619012553
 30
0.0
 11
4704.346676374391
 21
9203.020619012553
 31
0.0
  0
LINE
  5
290F
330
1A
100
AcDbEntity
  8
部品1
100
AcDbLine
 10
5738.540608108039
 20
5956.12061901255
 30
0.0
 11
5738.54060810804
 21
8251.120619012551
 31
0.0
  0
LINE
  5
2910
330
1A
100
AcDbEntity
  8
部品1
100
AcDbLine
 10
5766.540608108038
 20
5956.12061901255
 30
0.0
 11
5766.54060810804
 21
8251.120619012551
 31
0.0
  0
LINE
  5
2911
330
1A
100
AcDbEntity
  8
部品1
100
AcDbLine
 10
5693.540608108038
 20
5956.12061901255
 30
0.0
 11
5693.54060810804
 21
8251.120619012551
 31
0.0
  0
LINE
  5
2912
330
1A
100
AcDbEntity
  8
部品1
100
AcDbLine
 10
5563.040608108043
 20
6356.892399369975
 30
0.0
 11
5563.04060810804
 21
8251.120619012551
 31
0.0
  0
LINE
  5
2913
330
1A
100
AcDbEntity
  8
部品1
100
AcDbLine
 10
5528.54060810804
 20
6471.242134414021
 30
0.0
 11
5528.540608108038
 21
8251.120619012551
 31
0.0
  0
LINE
  5
2914
330
1A
100
AcDbEntity
  8
部品1
100
AcDbLine
 10
5391.540608108038
 20
6925.326589516455
 30
0.0
 11
5391.54060810804
 21
8251.120619012551
 31
0.0
  0
LINE
  5
2915
330
1A
100
AcDbEntity
  8
部品1
100
AcDbLine
 10
5346.540608108038
 20
7074.478417834768
 30
0.0
 11
5346.54060810804
 21
8251.120619012551
 31
0.0
  0
LINE
  5
2916
330
1A
100
AcDbEntity
  8
部品1
100
AcDbLine
 10
5318.540608108042
 20
7167.28399989949
 30
0.0
 11
5318.54060810804
 21
8251.120619012551
 31
0.0
  0
LINE
  5
2917
330
1A
100
AcDbEntity
  8
部品1
100
AcDbLine
 10
5273.540608108039
 20
7316.435828217811
 30
0.0
 11
5273.54060810804
 21
8251.120619012551
 31
0.0
  0
LINE
  5
2918
330
1A
100
AcDbEntity
  8
部品1
100
AcDbLine
 10
5140.040608108042
 20
7758.919585562132
 30
0.0
 11
5140.040608108042
 21
8251.120619012551
 31
0.0
  0
LINE
  5
2919
330
1A
100
AcDbEntity
  8
部品1
100
AcDbLine
 10
4961.540608108044
 20
7434.220619012551
 30
0.0
 11
4961.540608108045
 21
8003.520619012556
 31
0.0
  0
LINE
  5
291A
330
1A
100
AcDbEntity
  8
部品1
100
AcDbLine
 10
5021.540608108043
 20
7434.220619012551
 30
0.0
 11
5021.540608108046
 21
8003.520619012556
 31
0.0
  0
LINE
  5
291B
330
1A
100
AcDbEntity
  8
部品1
100
AcDbLine
 10
5021.540608108043
 20
6799.920619012553
 30
0.0
 11
5021.540608108043
 21
7369.22061901255
 31
0.0
  0
LINE
  5
291C
330
1A
100
AcDbEntity
  8
部品1
100
AcDbLine
 10
4961.540608108044
 20
6799.920619012553
 30
0.0
 11
4961.540608108044
 21
7369.22061901255
 31
0.0
  0
LINE
  5
291D
330
1A
100
AcDbEntity
  8
部品1
100
AcDbLine
 10
5021.540608108042
 20
6165.620619012552
 30
0.0
 11
5021.540608108042
 21
6734.920619012552
 31
0.0
  0
LINE
  5
291E
330
1A
100
AcDbEntity
  8
部品1
100
AcDbLine
 10
4961.540608108044
 20
6165.620619012552
 30
0.0
 11
4961.540608108044
 21
6734.920619012552
 31
0.0
  0
LINE
  5
291F
330
1A
100
AcDbEntity
  8
部品1
100
AcDbLine
 10
4991.540608108042
 20
6165.620619012552
 30
0.0
 11
4991.540608108042
 21
6100.620619012554
 31
0.0
  0
LINE
  5
2920
330
1A
100
AcDbEntity
  8
点線
 48
6.0
100
AcDbLine
 10
5021.540608108042
 20
6165.620619012552
 30
0.0
 11
5021.540608108043
 21
6100.620619012554
 31
0.0
  0
LINE
  5
2921
330
1A
100
AcDbEntity
  8
点線
 48
6.0
100
AcDbLine
 10
4961.540608108044
 20
6165.620619012552
 30
0.0
 11
4961.540608108044
 21
6100.620619012552
 31
0.0
  0
LINE
  5
2922
330
1A
100
AcDbEntity
  8
部品1
100
AcDbLine
 10
4961.540608108044
 20
6044.620619012552
 30
0.0
 11
5021.540608108043
 21
6044.620619012552
 31
0.0
  0
LINE
  5
2923
330
1A
100
AcDbEntity
  8
部品1
100
AcDbLine
 10
4961.540608108044
 20
6044.620619012552
 30
0.0
 11
4961.540608108044
 21
6100.620619012552
 31
0.0
  0
LINE
  5
2924
330
1A
100
AcDbEntity
  8
部品1
100
AcDbLine
 10
5021.540608108043
 20
6044.620619012552
 30
0.0
 11
5021.540608108043
 21
6100.620619012552
 31
0.0
  0
LINE
  5
2925
330
1A
100
AcDbEntity
  8
部品1
100
AcDbLine
 10
4991.540608108042
 20
6799.920619012555
 30
0.0
 11
4991.540608108042
 21
6734.920619012555
 31
0.0
  0
LINE
  5
2926
330
1A
100
AcDbEntity
  8
点線
 48
6.0
100
AcDbLine
 10
5021.540608108043
 20
6799.920619012555
 30
0.0
 11
5021.540608108042
 21
6734.920619012555
 31
0.0
  0
LINE
  5
2927
330
1A
100
AcDbEntity
  8
点線
 48
6.0
100
AcDbLine
 10
4961.540608108044
 20
6799.920619012555
 30
0.0
 11
4961.540608108044
 21
6734.920619012555
 31
0.0
  0
LINE
  5
2928
330
1A
100
AcDbEntity
  8
部品1
100
AcDbLine
 10
4991.540608108042
 20
7434.220619012555
 30
0.0
 11
4991.540608108042
 21
7369.220619012555
 31
0.0
  0
LINE
  5
2929
330
1A
100
AcDbEntity
  8
点線
 48
6.0
100
AcDbLine
 10
5021.540608108043
 20
7434.220619012551
 30
0.0
 11
5021.540608108043
 21
7369.220619012555
 31
0.0
  0
LINE
  5
292A
330
1A
100
AcDbEntity
  8
点線
 48
6.0
100
AcDbLine
 10
4961.540608108044
 20
7434.220619012551
 30
0.0
 11
4961.540608108044
 21
7369.220619012555
 31
0.0
  0
LINE
  5
292B
330
1A
100
AcDbEntity
  8
点線
 48
50.0
100
AcDbLine
 10
5021.540608108042
 20
8568.72061901255
 30
0.0
 11
5021.540608108042
 21
9138.020619012552
 31
0.0
  0
LINE
  5
292C
330
1A
100
AcDbEntity
  8
点線
 48
50.0
100
AcDbLine
 10
4961.540608108042
 20
8568.72061901255
 30
0.0
 11
4961.540608108042
 21
9138.020619012552
 31
0.0
  0
LINE
  5
292D
330
1A
100
AcDbEntity
  8
点線
 48
6.0
100
AcDbLine
 10
5021.540608108043
 20
8068.52061901255
 30
0.0
 11
5021.540608108046
 21
8003.520619012558
 31
0.0
  0
LINE
  5
292E
330
1A
100
AcDbEntity
  8
点線
 48
6.0
100
AcDbLine
 10
4961.540608108044
 20
8068.52061901255
 30
0.0
 11
4961.540608108044
 21
8003.520619012558
 31
0.0
  0
LINE
  5
292F
330
1A
100
AcDbEntity
  8
部品1
100
AcDbLine
 10
4991.540608108042
 20
8068.52061901255
 30
0.0
 11
4991.540608108042
 21
8003.520619012558
 31
0.0
  0
LINE
  5
2930
330
1A
100
AcDbEntity
  8
点線
 48
50.0
100
AcDbLine
 10
5021.540608108046
 20
8151.686066800349
 30
0.0
 11
5021.540608108046
 21
8204.620619012549
 31
0.0
  0
LINE
  5
2931
330
1A
100
AcDbEntity
  8
部品1
100
AcDbLine
 10
5021.540608108043
 20
8068.520619012558
 30
0.0
 11
5021.540608108046
 21
8151.686066800357
 31
0.0
  0
LINE
  5
2932
330
1A
100
AcDbEntity
  8
部品1
100
AcDbLine
 10
4961.540608108044
 20
8068.520619012558
 30
0.0
 11
4961.540608108044
 21
8204.620619012555
 31
0.0
  0
LINE
  5
2933
330
1A
100
AcDbEntity
  8
点線
 48
50.0
100
AcDbLine
 10
5021.540608108043
 20
8367.620619012553
 30
0.0
 11
5021.540608108042
 21
8503.720619012549
 31
0.0
  0
LINE
  5
2934
330
1A
100
AcDbEntity
  8
点線
 48
50.0
100
AcDbLine
 10
4961.540608108042
 20
8367.620619012553
 30
0.0
 11
4961.540608108042
 21
8503.720619012549
 31
0.0
  0
LINE
  5
2935
330
1A
100
AcDbEntity
  8
点線
 48
6.0
100
AcDbLine
 10
4991.540608108042
 20
8568.72061901255
 30
0.0
 11
4991.540608108042
 21
8503.720619012547
 31
0.0
  0
LINE
  5
2936
330
1A
100
AcDbEntity
  8
部品1
100
AcDbLine
 10
5123.040608108041
 20
7815.265831815716
 30
0.0
 11
5123.040608108041
 21
8251.120619012549
 31
0.0
  0
LINE
  5
2937
330
1A
100
AcDbEntity
  8
点線
 48
6.0
100
AcDbLine
 10
4991.540608108042
 20
9203.020619012553
 30
0.0
 11
4991.540608108042
 21
9138.020619012552
 31
0.0
  0
LINE
  5
2938
330
1A
100
AcDbEntity
  8
部品1
100
AcDbLine
 10
6113.540608108039
 20
5956.12061901255
 30
0.0
 11
6113.54060810804
 21
8251.120619012551
 31
0.0
  0
LINE
  5
2939
330
1A
100
AcDbEntity
  8
部品1
100
AcDbLine
 10
6158.540608108038
 20
5956.12061901255
 30
0.0
 11
6158.54060810804
 21
8251.120619012551
 31
0.0
  0
LINE
  5
293A
330
1A
100
AcDbEntity
  8
部品1
100
AcDbLine
 10
6186.540608108039
 20
5956.12061901255
 30
0.0
 11
6186.54060810804
 21
8251.120619012551
 31
0.0
  0
LINE
  5
293B
330
1A
100
AcDbEntity
  8
部品1
100
AcDbLine
 10
6231.540608108041
 20
5956.12061901255
 30
0.0
 11
6231.540608108041
 21
8251.120619012551
 31
0.0
  0
LINE
  5
293C
330
1A
100
AcDbEntity
  8
部品1
100
AcDbLine
 10
5983.040608108042
 20
5956.120619012552
 30
0.0
 11
5983.040608108041
 21
8251.120619012551
 31
0.0
  0
LINE
  5
293D
330
1A
100
AcDbEntity
  8
部品1
100
AcDbLine
 10
5948.540608108039
 20
5956.120619012552
 30
0.0
 11
5948.540608108038
 21
8251.120619012551
 31
0.0
  0
LINE
  5
293E
330
1A
100
AcDbEntity
  8
部品1
100
AcDbLine
 10
5811.54060810804
 20
5956.12061901255
 30
0.0
 11
5811.54060810804
 21
8251.120619012551
 31
0.0
  0
DIMENSION
  5
293F
330
1A
100
AcDbEntity
  8
寸法
100
AcDbDimension
  2
*D24
 10
8236.993531295164
 20
5956.120619012556
 30
0.0
 11
8136.98172027154
 21
7103.620619012557
 31
0.0
 70
    32
 71
     5
 42
2295.0
  3
物置仕様図40
100
AcDbAlignedDimension
 13
7576.540608108044
 23
8251.120619012557
 33
0.0
 14
7576.540608108044
 24
5956.120619012556
 34
0.0
 50
90.0
100
AcDbRotatedDimension
1001
ACAD
1000
DSTYLE
1002
{
1070
    75
1070
     1
1002
}
  0
LINE
  5
2940
330
1A
100
AcDbEntity
  8
点線
 48
50.0
100
AcDbLine
 10
7401.540608108044
 20
7434.220619012551
 30
0.0
 11
7401.540608108046
 21
8003.520619012556
 31
0.0
  0
LINE
  5
2941
330
1A
100
AcDbEntity
  8
点線
 48
50.0
100
AcDbLine
 10
7341.540608108044
 20
7434.220619012551
 30
0.0
 11
7341.540608108046
 21
8003.520619012556
 31
0.0
  0
LINE
  5
2942
330
1A
100
AcDbEntity
  8
部品1
100
AcDbLine
 10
7563.040608108043
 20
5956.120619012554
 30
0.0
 11
7563.040608108043
 21
8251.120619012555
 31
0.0
  0
LINE
  5
2943
330
1A
100
AcDbEntity
  8
部品1
100
AcDbLine
 10
7528.540608108044
 20
5956.120619012554
 30
0.0
 11
7528.540608108044
 21
8251.120619012551
 31
0.0
  0
LINE
  5
2944
330
1A
100
AcDbEntity
  8
部品1
100
AcDbLine
 10
6983.040608108044
 20
5956.120619012554
 30
0.0
 11
6983.040608108044
 21
8251.120619012551
 31
0.0
  0
LINE
  5
2945
330
1A
100
AcDbEntity
  8
部品1
100
AcDbLine
 10
6948.540608108044
 20
5956.120619012554
 30
0.0
 11
6948.540608108043
 21
8251.120619012551
 31
0.0
  0
LINE
  5
2946
330
1A
100
AcDbEntity
  8
部品1
100
AcDbLine
 10
6403.040608108046
 20
5956.120619012556
 30
0.0
 11
6403.040608108041
 21
8251.120619012551
 31
0.0
  0
LINE
  5
2947
330
1A
100
AcDbEntity
  8
部品1
100
AcDbLine
 10
6368.540608108044
 20
5956.120619012556
 30
0.0
 11
6368.540608108044
 21
8251.120619012551
 31
0.0
  0
LINE
  5
2948
330
1A
100
AcDbEntity
  8
部品1
100
AcDbLine
 10
7193.540608108044
 20
5956.120619012554
 30
0.0
 11
7193.540608108046
 21
8251.120619012551
 31
0.0
  0
LINE
  5
2949
330
1A
100
AcDbEntity
  8
部品1
100
AcDbLine
 10
7238.540608108043
 20
5956.120619012554
 30
0.0
 11
7238.540608108043
 21
8251.120619012551
 31
0.0
  0
LINE
  5
294A
330
1A
100
AcDbEntity
  8
部品1
100
AcDbLine
 10
7266.540608108043
 20
5956.120619012554
 30
0.0
 11
7266.540608108043
 21
8251.120619012551
 31
0.0
  0
LINE
  5
294B
330
1A
100
AcDbEntity
  8
部品1
100
AcDbLine
 10
7311.540608108043
 20
5956.120619012554
 30
0.0
 11
7311.540608108043
 21
8251.120619012551
 31
0.0
  0
LINE
  5
294C
330
1A
100
AcDbEntity
  8
部品1
100
AcDbLine
 10
6731.540608108044
 20
5956.120619012556
 30
0.0
 11
6731.540608108044
 21
8251.120619012551
 31
0.0
  0
LINE
  5
294D
330
1A
100
AcDbEntity
  8
部品1
100
AcDbLine
 10
6686.540608108043
 20
5956.120619012556
 30
0.0
 11
6686.540608108045
 21
8251.120619012551
 31
0.0
  0
LINE
  5
294E
330
1A
100
AcDbEntity
  8
部品1
100
AcDbLine
 10
6658.540608108044
 20
5956.120619012556
 30
0.0
 11
6658.540608108044
 21
8251.120619012551
 31
0.0
  0
LINE
  5
294F
330
1A
100
AcDbEntity
  8
部品1
100
AcDbLine
 10
6613.540608108043
 20
5956.120619012556
 30
0.0
 11
6613.540608108043
 21
8251.120619012551
 31
0.0
  0
LINE
  5
2950
330
1A
100
AcDbEntity
  8
点線
 48
50.0
100
AcDbLine
 10
7341.540608108044
 20
6799.920619012553
 30
0.0
 11
7341.540608108044
 21
7369.22061901255
 31
0.0
  0
LINE
  5
2951
330
1A
100
AcDbEntity
  8
点線
 48
50.0
100
AcDbLine
 10
7401.540608108044
 20
6799.920619012553
 30
0.0
 11
7401.540608108044
 21
7369.22061901255
 31
0.0
  0
LINE
  5
2952
330
1A
100
AcDbEntity
  8
点線
 48
50.0
100
AcDbLine
 10
7401.540608108041
 20
6165.620619012552
 30
0.0
 11
7401.540608108041
 21
6734.920619012552
 31
0.0
  0
LINE
  5
2953
330
1A
100
AcDbEntity
  8
点線
 48
50.0
100
AcDbLine
 10
7341.540608108044
 20
6165.620619012552
 30
0.0
 11
7341.540608108044
 21
6734.920619012552
 31
0.0
  0
LINE
  5
2954
330
1A
100
AcDbEntity
  8
点線
 48
50.0
100
AcDbLine
 10
7341.540608108044
 20
6044.620619012552
 30
0.0
 11
7401.540608108044
 21
6044.620619012552
 31
0.0
  0
LINE
  5
2955
330
1A
100
AcDbEntity
  8
点線
 48
50.0
100
AcDbLine
 10
7401.540608108044
 20
6044.620619012552
 30
0.0
 11
7401.540608108044
 21
6100.620619012552
 31
0.0
  0
LINE
  5
2956
330
1A
100
AcDbEntity
  8
点線
 48
50.0
100
AcDbLine
 10
7341.540608108044
 20
6044.620619012552
 30
0.0
 11
7341.540608108044
 21
6100.620619012552
 31
0.0
  0
LINE
  5
2957
330
1A
100
AcDbEntity
  8
点線
 48
6.0
100
AcDbLine
 10
7591.540608108042
 20
6165.620619012546
 30
0.0
 11
7591.540608108042
 21
6100.620619012552
 31
0.0
  0
LINE
  5
2958
330
1A
100
AcDbEntity
  8
点線
 48
6.0
100
AcDbLine
 10
7591.540608108042
 20
6799.920619012549
 30
0.0
 11
7591.540608108042
 21
6734.920619012555
 31
0.0
  0
LINE
  5
2959
330
1A
100
AcDbEntity
  8
点線
 48
6.0
100
AcDbLine
 10
7591.540608108042
 20
7434.220619012556
 30
0.0
 11
7591.540608108042
 21
7369.220619012555
 31
0.0
  0
LINE
  5
295A
330
1A
100
AcDbEntity
  8
点線
 48
50.0
100
AcDbLine
 10
7341.540608108042
 20
8568.72061901255
 30
0.0
 11
7341.540608108042
 21
9138.020619012552
 31
0.0
  0
LINE
  5
295B
330
1A
100
AcDbEntity
  8
点線
 48
50.0
100
AcDbLine
 10
7401.540608108041
 20
8568.72061901255
 30
0.0
 11
7401.540608108041
 21
9138.020619012552
 31
0.0
  0
LINE
  5
295C
330
1A
100
AcDbEntity
  8
点線
 48
50.0
100
AcDbLine
 10
7341.540608108044
 20
8068.520619012558
 30
0.0
 11
7341.540608108044
 21
8204.620619012555
 31
0.0
  0
LINE
  5
295D
330
1A
100
AcDbEntity
  8
点線
 48
50.0
100
AcDbLine
 10
7401.540608108044
 20
8068.520619012558
 30
0.0
 11
7401.540608108044
 21
8204.620619012555
 31
0.0
  0
LINE
  5
295E
330
1A
100
AcDbEntity
  8
点線
 48
6.0
100
AcDbLine
 10
7591.540608108042
 20
8068.520619012558
 30
0.0
 11
7591.540608108042
 21
8003.520619012556
 31
0.0
  0
LINE
  5
295F
330
1A
100
AcDbEntity
  8
点線
 48
50.0
100
AcDbLine
 10
7401.540608108044
 20
8367.620619012553
 30
0.0
 11
7401.540608108041
 21
8503.720619012549
 31
0.0
  0
LINE
  5
2960
330
1A
100
AcDbEntity
  8
点線
 48
50.0
100
AcDbLine
 10
7341.540608108042
 20
8367.620619012553
 30
0.0
 11
7341.540608108042
 21
8503.720619012549
 31
0.0
  0
LINE
  5
2961
330
1A
100
AcDbEntity
  8
部品1
100
AcDbLine
 10
7576.540608108041
 20
8286.120619012553
 30
0.0
 11
7621.540608108045
 21
8286.120619012553
 31
0.0
  0
LINE
  5
2962
330
1A
100
AcDbEntity
  8
部品1
100
AcDbLine
 10
7621.540608108045
 20
8286.120619012553
 30
0.0
 11
7576.540608108041
 21
8286.120619012553
 31
0.0
  0
LINE
  5
2963
330
1A
100
AcDbEntity
  8
点線
 48
6.0
100
AcDbLine
 10
7591.540608108042
 20
8568.72061901255
 30
0.0
 11
7591.540608108044
 21
8503.72061901255
 31
0.0
  0
LINE
  5
2964
330
1A
100
AcDbEntity
  8
点線
 48
6.0
100
AcDbLine
 10
7591.540608108042
 20
9203.020619012553
 30
0.0
 11
7591.540608108042
 21
9138.020619012552
 31
0.0
  0
LINE
  5
2965
330
1A
100
AcDbEntity
  8
点線
 48
50.0
100
AcDbLine
 10
7591.540608108044
 20
9772.320619012555
 30
0.0
 11
4532.585456355511
 21
9772.320619012553
 31
0.0
  0
LINE
  5
2966
330
1A
100
AcDbEntity
  8
点線
 48
50.0
100
AcDbLine
 10
7591.540608108042
 20
10406.62061901255
 30
0.0
 11
4341.213346996692
 21
10406.62061901255
 31
0.0
  0
LINE
  5
2967
330
1A
100
AcDbEntity
  8
点線
 48
50.0
100
AcDbLine
 10
7591.540608108042
 20
9792.320619012549
 30
0.0
 11
4526.551336558608
 21
9792.320619012551
 31
0.0
  0
LINE
  5
2968
330
1A
100
AcDbEntity
  8
点線
 48
50.0
100
AcDbLine
 10
7591.540608108042
 20
9837.320619012551
 30
0.0
 11
4512.974567015573
 21
9837.320619012553
 31
0.0
  0
LINE
  5
2969
330
1A
100
AcDbEntity
  8
点線
 48
50.0
100
AcDbLine
 10
7591.540608108042
 20
10426.62061901255
 30
0.0
 11
4335.17922719979
 21
10426.62061901255
 31
0.0
  0
LINE
  5
296A
330
1A
100
AcDbEntity
  8
点線
 48
50.0
100
AcDbLine
 10
7591.540608108044
 20
10471.62061901255
 30
0.0
 11
4321.602457656756
 21
10471.62061901255
 31
0.0
  0
LINE
  5
296B
330
1A
100
AcDbEntity
  8
部品1
100
AcDbLine
 10
4403.988515928464
 20
10198.55325858669
 30
0.0
 11
4664.98851592846
 21
10128.61851936217
 31
0.0
  0
LINE
  5
296C
330
1A
100
AcDbEntity
  8
部品1
100
AcDbLine
 10
4664.98851592846
 20
10128.61851936217
 30
0.0
 11
4220.972995725329
 21
10009.64491929686
 31
0.0
  0
LINE
  5
296D
330
1A
100
AcDbEntity
  8
部品1
100
AcDbLine
 10
4220.972995725329
 20
10009.64491929686
 30
0.0
 11
4482.092700287638
 21
9939.678105331539
 31
0.0
  0
LINE
  5
296E
330
1A
100
AcDbEntity
  8
部品1
100
AcDbLine
 10
4237.275633495021
 20
10751.12061901255
 30
0.0
 11
4403.988515928456
 21
10198.55325858669
 31
0.0
  0
LINE
  5
296F
330
1A
100
AcDbEntity
  8
部品1
100
AcDbLine
 10
4420.040608108041
 20
10616.12061901255
 30
0.0
 11
4420.040608108041
 21
10194.25211345034
 31
0.0
  0
LINE
  5
2970
330
1A
100
AcDbEntity
  8
部品1
100
AcDbLine
 10
4454.540608108043
 20
10616.12061901255
 30
0.0
 11
4454.540608108046
 21
10185.00786631147
 31
0.0
  0
LINE
  5
2971
330
1A
100
AcDbEntity
  8
部品1
100
AcDbLine
 10
4420.040608108045
 20
10062.984925274
 30
0.0
 11
4420.040608108044
 21
9956.304913319719
 31
0.0
  0
LINE
  5
2972
330
1A
100
AcDbEntity
  8
部品1
100
AcDbLine
 10
4454.540608108046
 20
10072.22917241287
 30
0.0
 11
4454.540608108046
 21
9947.060666180847
 31
0.0
  0
LINE
  5
2973
330
1A
100
AcDbEntity
  8
部品1
100
AcDbLine
 10
4591.540608108044
 20
10616.12061901255
 30
0.0
 11
4591.540608108044
 21
10148.29882694841
 31
0.0
  0
LINE
  5
2974
330
1A
100
AcDbEntity
  8
部品1
100
AcDbLine
 10
4636.540608108045
 20
10616.12061901255
 30
0.0
 11
4636.540608108044
 21
10136.241113289
 31
0.0
  0
LINE
  5
2975
330
1A
100
AcDbEntity
  8
部品1
100
AcDbLine
 10
4664.540608108046
 20
10616.12061901255
 30
0.0
 11
4664.540608108046
 21
10128.73853590093
 31
0.0
  0
LINE
  5
2976
330
1A
100
AcDbEntity
  8
点線
 48
50.0
100
AcDbLine
 10
5021.540608108042
 20
9837.320619012551
 30
0.0
 11
5021.540608108042
 21
10406.62061901255
 31
0.0
  0
LINE
  5
2977
330
1A
100
AcDbEntity
  8
点線
 48
50.0
100
AcDbLine
 10
4961.540608108042
 20
9837.320619012551
 30
0.0
 11
4961.540608108042
 21
10406.62061901255
 31
0.0
  0
LINE
  5
2978
330
1A
100
AcDbEntity
  8
点線
 48
6.0
100
AcDbLine
 10
4991.540608108042
 20
9837.320619012553
 30
0.0
 11
4991.540608108042
 21
9772.320619012553
 31
0.0
  0
LINE
  5
2979
330
1A
100
AcDbEntity
  8
点線
 48
6.0
100
AcDbLine
 10
4991.54060810804
 20
10471.62061901255
 30
0.0
 11
4991.54060810804
 21
10406.62061901255
 31
0.0
  0
LINE
  5
297A
330
1A
100
AcDbEntity
  8
点線
 48
50.0
100
AcDbLine
 10
5021.540608108042
 20
10527.62061901255
 30
0.0
 11
4961.540608108042
 21
10527.62061901255
 31
0.0
  0
LINE
  5
297B
330
1A
100
AcDbEntity
  8
点線
 48
50.0
100
AcDbLine
 10
5021.540608108042
 20
10471.62061901255
 30
0.0
 11
5021.540608108042
 21
10527.62061901255
 31
0.0
  0
LINE
  5
297C
330
1A
100
AcDbEntity
  8
点線
 48
50.0
100
AcDbLine
 10
4961.54060810804
 20
10471.62061901255
 30
0.0
 11
4961.540608108042
 21
10527.62061901255
 31
0.0
  0
LINE
  5
297D
330
1A
100
AcDbEntity
  8
部品1
100
AcDbLine
 10
5001.540608108042
 20
10616.12061901255
 30
0.0
 11
5001.540608108042
 21
10686.12061901255
 31
0.0
  0
DIMENSION
  5
297E
330
1A
100
AcDbEntity
  8
寸法
100
AcDbDimension
  2
*D25
 10
8236.993531295164
 20
10686.12061901255
 30
0.0
 11
8156.53838083522
 21
10780.83824929394
 31
0.0
 70
   160
 71
     5
 42
70.00000000000546
  3
物置仕様図40
100
AcDbAlignedDimension
 13
7573.040608108036
 23
10616.12061901255
 33
0.0
 14
7611.540608108042
 24
10686.12061901255
 34
0.0
 50
90.0
100
AcDbRotatedDimension
1001
ACAD
1000
DSTYLE
1002
{
1070
    75
1070
     1
1002
}
  0
LINE
  5
297F
330
1A
100
AcDbEntity
  8
点線
 48
50.0
100
AcDbLine
 10
7341.540608108042
 20
9837.320619012551
 30
0.0
 11
7341.540608108042
 21
10406.62061901255
 31
0.0
  0
LINE
  5
2980
330
1A
100
AcDbEntity
  8
点線
 48
50.0
100
AcDbLine
 10
7401.540608108041
 20
9837.320619012551
 30
0.0
 11
7401.540608108041
 21
10406.62061901255
 31
0.0
  0
LINE
  5
2981
330
1A
100
AcDbEntity
  8
点線
 48
6.0
100
AcDbLine
 10
7591.540608108042
 20
9837.320619012551
 30
0.0
 11
7591.540608108044
 21
9772.320619012555
 31
0.0
  0
LINE
  5
2982
330
1A
100
AcDbEntity
  8
点線
 48
50.0
100
AcDbLine
 10
7341.54060810804
 20
10471.62061901255
 30
0.0
 11
7341.540608108042
 21
10527.62061901255
 31
0.0
  0
LINE
  5
2983
330
1A
100
AcDbEntity
  8
点線
 48
50.0
100
AcDbLine
 10
7401.540608108041
 20
10471.62061901255
 30
0.0
 11
7401.540608108041
 21
10527.62061901255
 31
0.0
  0
LINE
  5
2984
330
1A
100
AcDbEntity
  8
点線
 48
50.0
100
AcDbLine
 10
7401.540608108041
 20
10527.62061901255
 30
0.0
 11
7341.540608108042
 21
10527.62061901255
 31
0.0
  0
LINE
  5
2985
330
1A
100
AcDbEntity
  8
点線
 48
6.0
100
AcDbLine
 10
7591.540608108042
 20
10471.62061901255
 30
0.0
 11
7591.540608108042
 21
10406.62061901255
 31
0.0
  0
LINE
  5
2986
330
1A
100
AcDbEntity
  8
部品1
100
AcDbLine
 10
7594.040608108042
 20
10636.12061901255
 30
0.0
 11
7576.540608108041
 21
10636.12061901255
 31
0.0
  0
ARC
  5
2987
330
1A
100
AcDbEntity
  8
部品1
100
AcDbCircle
 10
7594.040608108042
 20
10641.12061901255
 30
0.0
 40
5.0
100
AcDbArc
 50
270.0
 51
0.0
  0
ARC
  5
2988
330
1A
100
AcDbEntity
  8
部品1
100
AcDbCircle
 10
7611.540608108042
 20
10676.12061901255
 30
0.0
 40
10.0
100
AcDbArc
 50
0.0
 51
90.0
  0
LINE
  5
2989
330
1A
100
AcDbEntity
  8
部品1
100
AcDbLine
 10
7599.040608108042
 20
10641.12061901255
 30
0.0
 11
7599.040608108044
 21
10686.12061901255
 31
0.0
  0
LINE
  5
298A
330
1A
100
AcDbEntity
  8
寸法
100
AcDbLine
 10
8236.993531295164
 20
10686.12061901255
 30
0.0
 11
8236.993531295164
 21
10886.12061901255
 31
0.0
  0
LINE
  5
298B
330
1A
100
AcDbEntity
  8
仕様書枠
 48
50.0
100
AcDbLine
 10
13096.0
 20
1464.0
 30
0.0
 11
16296.0
 21
1464.0
 31
0.0
  0
LINE
  5
298C
330
1A
100
AcDbEntity
  8
文字
 62
     7
 48
50.0
100
AcDbLine
 10
13176.0
 20
664.0
 30
0.0
 11
16216.0
 21
664.0
 31
0.0
  0
TEXT
  5
298D
330
1A
100
AcDbEntity
  8
文字
 62
     7
 48
50.0
100
AcDbText
 10
13151.7790565769
 20
1159.09060742994
 30
0.0
 40
200.0
  1
外 形 図
  7
STYLE2
100
AcDbText
  0
TEXT
  5
298E
330
1A
100
AcDbEntity
  8
文字
 62
     7
 48
50.0
100
AcDbText
 10
13190.23669998441
 20
741.2740661031257
 30
0.0
 40
160.0
  1
機種名
  7
STYLE2
100
AcDbText
  0
TEXT
  5
298F
330
1A
100
AcDbEntity
  8
文字
 62
     7
 48
50.0
100
AcDbText
 10
13198.2053442172
 20
492.5435242569019
 30
0.0
 40
100.0
  1
○間口奥行寸法は柱芯寸法です。    
  7
STYLE2
100
AcDbText
  0
LINE
  5
2990
330
1A
100
AcDbEntity
  8
仕様書枠
 48
50.0
100
AcDbLine
 10
13096.0
 20
1064.0
 30
0.0
 11
14240.0
 21
1064.0
 31
0.0
  0
DIMENSION
  5
2991
330
1A
100
AcDbEntity
  8
寸法
100
AcDbDimension
  2
*D26
 10
14279.78336771315
 20
5073.498668445671
 30
0.0
 11
11879.78336771315
 21
5173.49866844567
 31
0.0
 70
    32
 71
     5
 42
4799.999999999992
  3
物置仕様図40
100
AcDbAlignedDimension
 13
9479.78336771316
 23
4480.058816120087
 33
0.0
 14
14279.78336771315
 24
4480.058816120087
 34
0.0
100
AcDbRotatedDimension
  0
DIMENSION
  5
2992
330
1A
100
AcDbEntity
  8
細線
100
AcDbDimension
  2
*D27
 10
14279.78336771315
 20
4793.49866844567
 30
0.0
 11
13904.78336771315
 21
4893.498668445671
 31
0.0
 70
    32
 71
     5
 42
749.9999999999982
  3
物置仕様図40
100
AcDbAlignedDimension
 13
13529.78336771315
 23
4183.078148876734
 33
0.0
 14
14279.78336771315
 24
4480.058816120087
 34
0.0
100
AcDbRotatedDimension
1001
ACAD
1000
DSTYLE
1002
{
1070
    75
1070
     1
1002
}
  0
ARC
  5
2993
330
1A
100
AcDbEntity
  8
部品1
100
AcDbCircle
 10
13683.78336771316
 20
4154.551892811567
 30
0.0
 40
120.0
100
AcDbArc
 50
92.69568549355007
 51
180.0
  0
LINE
  5
2994
330
1A
100
AcDbEntity
  8
部品1
100
AcDbLine
 10
13349.70339676518
 20
4320.022807159779
 30
0.0
 11
13717.32552837809
 21
4337.331682523218
 31
0.0
  0
LINE
  5
2995
330
1A
100
AcDbEntity
  8
部品1
100
AcDbLine
 10
14265.7419193093
 20
4479.394772622653
 30
0.0
 11
11879.78336771315
 21
4366.558816120086
 31
0.0
  0
LINE
  5
2996
330
1A
100
AcDbEntity
  8
細線
100
AcDbLine
 10
14277.77261679291
 20
4414.891078646771
 30
0.0
 11
11879.78336771315
 21
4301.486170409043
 31
0.0
  0
LINE
  5
2997
330
1A
100
AcDbEntity
  8
細線
100
AcDbLine
 10
14277.4014012384
 20
4402.860111728621
 30
0.0
 11
11879.78336771315
 21
4289.472758893158
 31
0.0
  0
LINE
  5
2998
330
1A
100
AcDbEntity
  8
部品1
100
AcDbLine
 10
14264.21694793282
 20
4364.19412715741
 30
0.0
 11
11879.78336771316
 21
4251.430289092855
 31
0.0
  0
LINE
  5
2999
330
1A
100
AcDbEntity
  8
部品1
100
AcDbLine
 10
9479.783367713157
 20
2419.058816120087
 30
0.0
 11
14279.78336771315
 21
2419.058816120087
 31
0.0
  0
LINE
  5
299A
330
1A
100
AcDbEntity
  8
点線
 48
50.0
100
AcDbLine
 10
13559.78336771316
 20
2419.058816120087
 30
0.0
 11
13559.78336771315
 21
2099.058816120087
 31
0.0
  0
LINE
  5
299B
330
1A
100
AcDbEntity
  8
点線
 48
50.0
100
AcDbLine
 10
13499.78336771315
 20
2419.058816120087
 30
0.0
 11
13499.78336771315
 21
2099.058816120087
 31
0.0
  0
LINE
  5
299C
330
1A
100
AcDbEntity
  8
点線
 48
50.0
100
AcDbLine
 10
11909.78336771316
 20
2419.058816120087
 30
0.0
 11
11909.78336771316
 21
2099.058816120087
 31
0.0
  0
LINE
  5
299D
330
1A
100
AcDbEntity
  8
点線
 48
50.0
100
AcDbLine
 10
11849.78336771316
 20
2419.058816120087
 30
0.0
 11
11849.78336771316
 21
2099.058816120087
 31
0.0
  0
LINE
  5
299E
330
1A
100
AcDbEntity
  8
点線
 48
50.0
100
AcDbLine
 10
10259.78336771316
 20
2419.058816120087
 30
0.0
 11
10259.78336771316
 21
2099.058816120087
 31
0.0
  0
LINE
  5
299F
330
1A
100
AcDbEntity
  8
点線
 48
50.0
100
AcDbLine
 10
10199.78336771315
 20
2419.058816120087
 30
0.0
 11
10199.78336771315
 21
2099.058816120087
 31
0.0
  0
LINE
  5
29A0
330
1A
100
AcDbEntity
  8
点線
 48
50.0
100
AcDbLine
 10
10199.78336771315
 20
2099.058816120087
 30
0.0
 11
10259.78336771316
 21
2099.058816120087
 31
0.0
  0
LINE
  5
29A1
330
1A
100
AcDbEntity
  8
仕様書枠
  6
Continuous
 48
50.0
100
AcDbLine
 10
13096.0
 20
1464.0
 30
0.0
 11
13096.0
 21
264.0
 31
0.0
  0
LWPOLYLINE
  5
29A2
330
1A
100
AcDbEntity
  8
部品1
100
AcDbPolyline
 90
        4
 70
     1
 43
0.0
 10
11560.80653936852
 20
1655.832550647501
 10
11560.80653936852
 20
1434.248291607233
 10
12197.81887212828
 20
1434.248291607233
 10
12197.81887212828
 20
1655.832550647501
  0
TEXT
  5
29A3
330
1A
100
AcDbEntity
  8
部品1
100
AcDbText
 10
11603.27402482465
 20
1481.393873921021
 30
0.0
 40
120.0
  1
側面図
  7
MSGOTHIC
100
AcDbText
  0
LINE
  5
29A4
330
1A
100
AcDbEntity
  8
点線
 48
50.0
100
AcDbLine
 10
11849.78336771316
 20
2099.058816120087
 30
0.0
 11
11909.78336771316
 21
2099.058816120087
 31
0.0
  0
LINE
  5
29A5
330
1A
100
AcDbEntity
  8
点線
 48
50.0
100
AcDbLine
 10
13499.78336771315
 20
2099.058816120087
 30
0.0
 11
13559.78336771315
 21
2099.058816120087
 31
0.0
  0
DIMENSION
  5
29A6
330
1A
100
AcDbEntity
  8
寸法
100
AcDbDimension
  2
*D28
 10
11879.78336771315
 20
4793.49866844567
 30
0.0
 11
11054.78336771315
 21
4893.498668445671
 31
0.0
 70
    32
 71
     5
 42
1650.0
  3
物置仕様図40
100
AcDbAlignedDimension
 13
10229.78336771315
 23
4183.078148876735
 33
0.0
 14
11879.78336771315
 24
4480.058816120087
 34
0.0
100
AcDbRotatedDimension
1001
ACAD
1000
DSTYLE
1002
{
1070
    75
1070
     1
1002
}
  0
LINE
  5
29A7
330
1A
100
AcDbEntity
  8
部品1
100
AcDbLine
 10
10999.51028742914
 20
4234.494489041348
 30
0.0
 11
11591.85717533159
 21
4206.481417467628
 31
0.0
  0
LINE
  5
29A8
330
1A
100
AcDbEntity
  8
細線
100
AcDbLine
 10
9481.794118633402
 20
4414.891078646771
 30
0.0
 11
11879.78336771315
 21
4301.486170409043
 31
0.0
  0
LINE
  5
29A9
330
1A
100
AcDbEntity
  8
細線
100
AcDbLine
 10
9482.165334187913
 20
4402.860111728621
 30
0.0
 11
11879.78336771315
 21
4289.472758893158
 31
0.0
  0
LINE
  5
29AA
330
1A
100
AcDbEntity
  8
部品1
100
AcDbLine
 10
9495.349787493493
 20
4364.19412715741
 30
0.0
 11
11879.78336771315
 21
4251.430289092855
 31
0.0
  0
LINE
  5
29AB
330
1A
100
AcDbEntity
  8
部品1
100
AcDbLine
 10
9493.82481611701
 20
4479.394772622653
 30
0.0
 11
11879.78336771315
 21
4366.558816120086
 31
0.0
  0
LINE
  5
29AC
330
1A
100
AcDbEntity
  8
部品1
100
AcDbLine
 10
10259.78336771316
 20
2619.058816120087
 30
0.0
 11
11849.78336771316
 21
2619.058816120089
 31
0.0
  0
LINE
  5
29AD
330
1A
100
AcDbEntity
  8
細線
100
AcDbLine
 10
10259.78336771316
 20
2722.058816120087
 30
0.0
 11
11849.78336771316
 21
2722.058816120089
 31
0.0
  0
LINE
  5
29AE
330
1A
100
AcDbEntity
  8
細線
100
AcDbLine
 10
10259.78336771316
 20
2734.058816120087
 30
0.0
 11
11849.78336771316
 21
2734.058816120088
 31
0.0
  0
LINE
  5
29AF
330
1A
100
AcDbEntity
  8
細線
100
AcDbLine
 10
10259.78336771316
 20
3063.058816120087
 30
0.0
 11
11849.78336771316
 21
3063.058816120089
 31
0.0
  0
LINE
  5
29B0
330
1A
100
AcDbEntity
  8
細線
100
AcDbLine
 10
10259.78336771316
 20
3057.058816120087
 30
0.0
 11
11849.78336771316
 21
3057.058816120088
 31
0.0
  0
LINE
  5
29B1
330
1A
100
AcDbEntity
  8
部品1
100
AcDbLine
 10
10259.78336771316
 20
3519.058816120087
 30
0.0
 11
11849.78336771316
 21
3519.058816120089
 31
0.0
  0
LINE
  5
29B2
330
1A
100
AcDbEntity
  8
細線
100
AcDbLine
 10
10259.78336771316
 20
3416.058816120087
 30
0.0
 11
11849.78336771316
 21
3416.058816120088
 31
0.0
  0
LINE
  5
29B3
330
1A
100
AcDbEntity
  8
細線
100
AcDbLine
 10
10259.78336771316
 20
3404.058816120087
 30
0.0
 11
11849.78336771316
 21
3404.058816120089
 31
0.0
  0
DIMENSION
  5
29B4
330
1A
100
AcDbEntity
  8
寸法
100
AcDbDimension
  2
*D29
 10
8785.253168747919
 20
2369.058816120087
 30
0.0
 11
8685.241357724299
 21
3424.558816120088
 31
0.0
 70
    32
 71
     5
 42
2111.0
  3
物置仕様図40
100
AcDbAlignedDimension
 13
9479.78336771316
 23
4480.058816120087
 33
0.0
 14
8822.498450114341
 24
2369.058816120087
 34
0.0
 50
90.0
100
AcDbRotatedDimension
  0
LINE
  5
29B5
330
1A
100
AcDbEntity
  8
センター
 48
10.0
100
AcDbLine
 10
10229.78336771315
 20
4183.078148876735
 30
0.0
 11
10229.78336771315
 21
2419.058816120087
 31
0.0
  0
LINE
  5
29B6
330
1A
100
AcDbEntity
  8
部品1
100
AcDbLine
 10
10259.78336771316
 20
4101.419996260784
 30
0.0
 11
10259.78336771316
 21
2419.058816120087
 31
0.0
  0
LINE
  5
29B7
330
1A
100
AcDbEntity
  8
部品1
100
AcDbLine
 10
10199.78336771315
 20
4101.419996260784
 30
0.0
 11
10199.78336771315
 21
2419.058816120087
 31
0.0
  0
DIMENSION
  5
29B8
330
1A
100
AcDbEntity
  8
寸法
100
AcDbDimension
  2
*D30
 10
9391.81071627685
 20
3519.058816120087
 30
0.0
 11
9291.810716276851
 21
3069.058816120089
 31
0.0
 70
    32
 71
     5
 42
900.0
  3
物置仕様図40
100
AcDbAlignedDimension
 13
10259.78336771316
 23
2619.058816120087
 33
0.0
 14
10259.78336771316
 24
3519.058816120087
 34
0.0
 50
90.0
100
AcDbRotatedDimension
1001
ACAD
1000
DSTYLE
1002
{
1070
    75
1070
     1
1002
}
  0
DIMENSION
  5
29B9
330
1A
100
AcDbEntity
  8
寸法
100
AcDbDimension
  2
*D31
 10
9391.81071627685
 20
2619.058816120087
 30
0.0
 11
9281.254079217594
 21
2494.058816120087
 31
0.0
 70
   160
 71
     5
 42
250.0
  3
物置仕様図40
100
AcDbAlignedDimension
 13
9375.710487269302
 23
2369.058816120087
 33
0.0
 14
10259.78336771316
 24
2619.058816120087
 34
0.0
 50
90.0
100
AcDbRotatedDimension
  0
LINE
  5
29BA
330
1A
100
AcDbEntity
  8
部品1
100
AcDbLine
 10
9479.783367713157
 20
2419.058816120087
 30
0.0
 11
9479.783367713157
 21
2369.058816120087
 31
0.0
  0
DIMENSION
  5
29BB
330
1A
100
AcDbEntity
  8
寸法
100
AcDbDimension
  2
*D32
 10
10229.78336771315
 20
4793.49866844567
 30
0.0
 11
9854.78336771316
 21
4893.498668445671
 31
0.0
 70
    32
 71
     5
 42
749.9999999999963
  3
物置仕様図40
100
AcDbAlignedDimension
 13
9479.78336771316
 23
4480.058816120087
 33
0.0
 14
10229.78336771315
 24
4183.078148876735
 34
0.0
100
AcDbRotatedDimension
  0
LINE
  5
29BC
330
1A
100
AcDbEntity
  8
部品1
100
AcDbLine
 10
9688.881593137573
 20
4294.874516173432
 30
0.0
 11
9730.834705235128
 21
4292.890483580488
 31
0.0
  0
LINE
  5
29BD
330
1A
100
AcDbEntity
  8
部品1
100
AcDbLine
 10
9646.313781011977
 20
4354.348528422415
 30
0.0
 11
9656.375424991624
 21
4303.61334938398
 31
0.0
  0
LINE
  5
29BE
330
1A
100
AcDbEntity
  8
部品1
100
AcDbLine
 10
9690.721765678965
 20
4354.954660689054
 30
0.0
 11
9687.8638139677
 21
4294.522201596148
 31
0.0
  0
LINE
  5
29BF
330
1A
100
AcDbEntity
  8
部品1
100
AcDbLine
 10
9691.720649300336
 20
4354.907421817795
 30
0.0
 11
9688.881593137573
 21
4294.874516173432
 31
0.0
  0
ARC
  5
29C0
330
1A
100
AcDbEntity
  8
部品1
100
AcDbCircle
 10
9666.184393777784
 20
4305.558633772533
 30
0.0
 40
10.0
100
AcDbArc
 50
191.217177625902
 51
267.2924044055139
  0
LINE
  5
29C1
330
1A
100
AcDbEntity
  8
部品1
100
AcDbLine
 10
9665.712005065181
 20
4295.569797558829
 30
0.0
 11
9687.8638139677
 21
4294.522201596148
 31
0.0
  0
LINE
  5
29C2
330
1A
100
AcDbEntity
  8
部品1
100
AcDbLine
 10
9687.95829171022
 20
4296.519968838889
 30
0.0
 11
9688.957175331589
 21
4296.472729967627
 31
0.0
  0
LINE
  5
29C3
330
1A
100
AcDbEntity
  8
部品1
100
AcDbLine
 10
9502.827939755345
 20
4478.968999900593
 30
0.0
 11
9506.385422152709
 21
4363.672233601652
 31
0.0
  0
ARC
  5
29C4
330
1A
100
AcDbEntity
  8
部品1
100
AcDbCircle
 10
9495.963892819879
 20
4377.179614235225
 30
0.0
 40
13.0
100
AcDbArc
 50
181.7673009117605
 51
267.2924044055139
  0
ARC
  5
29C5
330
1A
100
AcDbEntity
  8
部品1
100
AcDbCircle
 10
9493.210710790618
 20
4466.40928554484
 30
0.0
 40
13.0
100
AcDbArc
 50
87.29240440551384
 51
181.7673009117605
  0
LINE
  5
29C6
330
1A
100
AcDbEntity
  8
部品1
100
AcDbLine
 10
9480.216894579603
 20
4466.008361269778
 30
0.0
 11
9482.970076608864
 21
4376.778689960163
 31
0.0
  0
ARC
  5
29C7
330
1A
100
AcDbEntity
  8
部品1
100
AcDbCircle
 10
9651.218265405052
 20
4355.321170616691
 30
0.0
 40
5.0
100
AcDbArc
 50
159.8348012817588
 51
191.217177625902
  0
LINE
  5
29C8
330
1A
100
AcDbEntity
  8
部品1
100
AcDbLine
 10
10409.86333866113
 20
4320.022807159779
 30
0.0
 11
10042.24120704822
 21
4337.331682523218
 31
0.0
  0
ARC
  5
29C9
330
1A
100
AcDbEntity
  8
部品1
100
AcDbCircle
 10
10368.78336771315
 20
4155.773093242721
 30
0.0
 40
105.0
100
AcDbArc
 50
87.30431450644992
 51
180.0
  0
ARC
  5
29CA
330
1A
100
AcDbEntity
  8
部品1
100
AcDbCircle
 10
10041.77089472994
 20
4327.342748329656
 30
0.0
 40
10.0
100
AcDbArc
 50
87.30431450644992
 51
177.3043145064263
  0
LINE
  5
29CB
330
1A
100
AcDbEntity
  8
部品1
100
AcDbLine
 10
10081.42711553251
 20
4274.419103134288
 30
0.0
 11
10029.38336771315
 21
4276.869496260782
 31
0.0
  0
LINE
  5
29CC
330
1A
100
AcDbEntity
  8
部品1
100
AcDbLine
 10
10029.38336771316
 20
4276.869496260784
 30
0.0
 11
10031.78196053638
 21
4327.813060647937
 31
0.0
  0
LINE
  5
29CD
330
1A
100
AcDbEntity
  8
部品1
100
AcDbLine
 10
9733.673761397891
 20
4352.923389224848
 30
0.0
 11
9730.834705235128
 21
4292.890483580486
 31
0.0
  0
LINE
  5
29CE
330
1A
100
AcDbEntity
  8
部品1
100
AcDbLine
 10
9730.910287429145
 20
4294.48869737468
 30
0.0
 11
10029.54797702811
 21
4280.365623304064
 31
0.0
  0
CIRCLE
  5
29CF
330
1A
100
AcDbEntity
  8
細線
100
AcDbCircle
 10
10070.91465075363
 20
4308.451176536086
 30
0.0
 40
8.0
  0
LWPOLYLINE
  5
29D0
330
1A
100
AcDbEntity
  8
細線
100
AcDbPolyline
 90
        6
 70
     1
 43
0.0
 10
10077.41465075363
 20
4312.203953285818
 10
10070.91465075363
 20
4315.956730035551
 10
10064.41465075363
 20
4312.203953285818
 10
10064.41465075363
 20
4304.698399786353
 10
10070.91465075363
 20
4300.94562303662
 10
10077.41465075363
 20
4304.698399786353
  0
LINE
  5
29D1
330
1A
100
AcDbEntity
  8
部品1
100
AcDbLine
 10
10367.97376139789
 20
4322.926285058182
 30
0.0
 11
10366.11107664331
 21
4283.539118441609
 31
0.0
  0
LINE
  5
29D2
330
1A
100
AcDbEntity
  8
部品1
100
AcDbLine
 10
10326.02064930034
 20
4324.910317651126
 30
0.0
 11
10324.15765031962
 21
4285.516506605229
 31
0.0
  0
LINE
  5
29D3
330
1A
100
AcDbEntity
  8
部品1
100
AcDbLine
 10
10263.78336771315
 20
4101.419996260785
 30
0.0
 11
10195.78336771315
 21
4101.419996260784
 31
0.0
  0
ARC
  5
29D4
330
1A
100
AcDbEntity
  8
部品1
100
AcDbCircle
 10
10075.78336771316
 20
4154.551892811567
 30
0.0
 40
120.0
100
AcDbArc
 50
0.0
 51
87.30431450644992
  0
CIRCLE
  5
29D5
330
1A
100
AcDbEntity
  8
細線
100
AcDbCircle
 10
10070.91465075363
 20
4308.451176536086
 30
0.0
 40
6.0
  0
LINE
  5
29D6
330
1A
100
AcDbEntity
  8
部品1
100
AcDbLine
 10
10195.78336771316
 20
4154.551892811567
 30
0.0
 11
10195.78336771316
 21
4101.419996260784
 31
0.0
  0
CIRCLE
  5
29D7
330
1A
100
AcDbEntity
  8
細線
100
AcDbCircle
 10
10176.79735320537
 20
4303.465865962318
 30
0.0
 40
8.0
  0
LWPOLYLINE
  5
29D8
330
1A
100
AcDbEntity
  8
細線
100
AcDbPolyline
 90
        6
 70
     1
 43
0.0
 10
10183.29735320537
 20
4307.21864271205
 10
10176.79735320537
 20
4310.971419461782
 10
10170.29735320537
 20
4307.21864271205
 10
10170.29735320537
 20
4299.713089212586
 10
10176.79735320537
 20
4295.960312462853
 10
10183.29735320537
 20
4299.713089212586
  0
CIRCLE
  5
29D9
330
1A
100
AcDbEntity
  8
細線
100
AcDbCircle
 10
10176.79735320537
 20
4303.465865962318
 30
0.0
 40
6.0
  0
CIRCLE
  5
29DA
330
1A
100
AcDbEntity
  8
細線
100
AcDbCircle
 10
10345.65170703158
 20
4295.515640136335
 30
0.0
 40
6.0
  0
LWPOLYLINE
  5
29DB
330
1A
100
AcDbEntity
  8
細線
100
AcDbPolyline
 90
        6
 70
     1
 43
0.0
 10
10352.15170703158
 20
4299.268416886069
 10
10345.65170703158
 20
4303.021193635799
 10
10339.15170703157
 20
4299.268416886069
 10
10339.15170703157
 20
4291.762863386604
 10
10345.65170703158
 20
4288.010086636869
 10
10352.15170703158
 20
4291.762863386604
  0
CIRCLE
  5
29DC
330
1A
100
AcDbEntity
  8
細線
100
AcDbCircle
 10
10345.65170703158
 20
4295.515640136335
 30
0.0
 40
8.0
  0
ARC
  5
29DD
330
1A
100
AcDbEntity
  8
部品1
100
AcDbCircle
 10
10361.11665853646
 20
4283.775312797912
 30
0.0
 40
5.0
100
AcDbArc
 50
267.3043145064499
 51
357.2924044055126
  0
ARC
  5
29DE
330
1A
100
AcDbEntity
  8
部品1
100
AcDbCircle
 10
10329.15206842647
 20
4285.280312248925
 30
0.0
 40
5.0
100
AcDbArc
 50
177.2924044055126
 51
267.3043145064499
  0
LINE
  5
29DF
330
1A
100
AcDbEntity
  8
部品1
100
AcDbLine
 10
10328.91691226733
 20
4280.285845152145
 30
0.0
 11
10360.88150237732
 21
4278.780845701132
 31
0.0
  0
CIRCLE
  5
29E0
330
1A
100
AcDbEntity
  8
細線
100
AcDbCircle
 10
10229.78336771316
 20
4131.419996260785
 30
0.0
 40
8.0
  0
LWPOLYLINE
  5
29E1
330
1A
100
AcDbEntity
  8
細線
100
AcDbPolyline
 90
        6
 70
     1
 43
0.0
 10
10236.28336771316
 20
4135.172773010515
 10
10229.78336771316
 20
4138.92554976025
 10
10223.28336771316
 20
4135.172773010515
 10
10223.28336771316
 20
4127.667219511051
 10
10229.78336771316
 20
4123.914442761321
 10
10236.28336771316
 20
4127.667219511051
  0
CIRCLE
  5
29E2
330
1A
100
AcDbEntity
  8
細線
100
AcDbCircle
 10
10229.78336771316
 20
4131.419996260785
 30
0.0
 40
6.0
  0
CIRCLE
  5
29E3
330
1A
100
AcDbEntity
  8
細線
100
AcDbCircle
 10
10229.78336771316
 20
4216.419996260785
 30
0.0
 40
8.0
  0
LWPOLYLINE
  5
29E4
330
1A
100
AcDbEntity
  8
細線
100
AcDbPolyline
 90
        6
 70
     1
 43
0.0
 10
10236.28336771316
 20
4220.172773010517
 10
10229.78336771316
 20
4223.92554976025
 10
10223.28336771316
 20
4220.172773010517
 10
10223.28336771316
 20
4212.667219511053
 10
10229.78336771316
 20
4208.914442761321
 10
10236.28336771316
 20
4212.667219511053
  0
CIRCLE
  5
29E5
330
1A
100
AcDbEntity
  8
細線
100
AcDbCircle
 10
10229.78336771316
 20
4216.419996260785
 30
0.0
 40
6.0
  0
LINE
  5
29E6
330
1A
100
AcDbEntity
  8
部品1
100
AcDbLine
 10
10263.78336771315
 20
4155.773093242721
 30
0.0
 11
10263.78336771315
 21
4101.419996260785
 31
0.0
  0
CIRCLE
  5
29E7
330
1A
100
AcDbEntity
  8
細線
100
AcDbCircle
 10
10282.68005565711
 20
4298.480555388549
 30
0.0
 40
8.0
  0
LWPOLYLINE
  5
29E8
330
1A
100
AcDbEntity
  8
細線
100
AcDbPolyline
 90
        6
 70
     1
 43
0.0
 10
10289.18005565711
 20
4302.233332138281
 10
10282.68005565711
 20
4305.986108888013
 10
10276.18005565711
 20
4302.233332138281
 10
10276.18005565711
 20
4294.727778638817
 10
10282.68005565711
 20
4290.975001889084
 10
10289.18005565711
 20
4294.727778638817
  0
CIRCLE
  5
29E9
330
1A
100
AcDbEntity
  8
細線
100
AcDbCircle
 10
10282.68005565711
 20
4298.480555388549
 30
0.0
 40
6.0
  0
LINE
  5
29EA
330
1A
100
AcDbEntity
  8
部品1
100
AcDbLine
 10
10417.14418349581
 20
4262.035552706527
 30
0.0
 11
10957.55717533159
 21
4236.478521634293
 31
0.0
  0
ARC
  5
29EB
330
1A
100
AcDbEntity
  8
部品1
100
AcDbCircle
 10
10409.39302634285
 20
4310.033872966218
 30
0.0
 40
10.0
100
AcDbArc
 50
357.3043145064263
 51
87.30431450644992
  0
LINE
  5
29EC
330
1A
100
AcDbEntity
  8
部品1
100
AcDbLine
 10
10416.98336771316
 20
4258.619996260784
 30
0.0
 11
10373.7216470551
 21
4260.6569022751
 31
0.0
  0
CIRCLE
  5
29ED
330
1A
100
AcDbEntity
  8
細線
100
AcDbCircle
 10
10388.56275810885
 20
4293.495244814781
 30
0.0
 40
6.0
  0
LWPOLYLINE
  5
29EE
330
1A
100
AcDbEntity
  8
細線
100
AcDbPolyline
 90
        6
 70
     1
 43
0.0
 10
10395.06275810885
 20
4297.248021564513
 10
10388.56275810885
 20
4301.000798314245
 10
10382.06275810885
 20
4297.248021564513
 10
10382.06275810885
 20
4289.742468065049
 10
10388.56275810885
 20
4285.989691315317
 10
10395.06275810885
 20
4289.742468065049
  0
CIRCLE
  5
29EF
330
1A
100
AcDbEntity
  8
細線
100
AcDbCircle
 10
10388.56275810885
 20
4293.495244814781
 30
0.0
 40
8.0
  0
LINE
  5
29F0
330
1A
100
AcDbEntity
  8
部品1
100
AcDbLine
 10
10416.98336771315
 20
4258.619996260784
 30
0.0
 11
10419.38196053641
 21
4309.563560647933
 31
0.0
  0
LINE
  5
29F1
330
1A
100
AcDbEntity
  8
部品1
100
AcDbLine
 10
10957.48159313757
 20
4234.880307840099
 30
0.0
 11
10999.43470523512
 21
4232.896275247152
 31
0.0
  0
LINE
  5
29F2
330
1A
100
AcDbEntity
  8
部品1
100
AcDbLine
 10
11002.27376139789
 20
4292.929180891515
 30
0.0
 11
10999.43470523512
 21
4232.896275247152
 31
0.0
  0
LINE
  5
29F3
330
1A
100
AcDbEntity
  8
部品1
100
AcDbLine
 10
10960.32064930033
 20
4294.913213484462
 30
0.0
 11
10957.48159313757
 21
4234.880307840099
 31
0.0
  0
ARC
  5
29F4
330
1A
100
AcDbEntity
  8
部品1
100
AcDbCircle
 10
12113.76453442066
 20
4000.202830338239
 30
0.0
 40
200.0
100
AcDbArc
 50
92.70759559448615
 51
179.213698387713
  0
ARC
  5
29F5
330
1A
100
AcDbEntity
  8
部品1
100
AcDbCircle
 10
11645.80220100565
 20
4000.202830338239
 30
0.0
 40
200.0
100
AcDbArc
 50
0.7863016122870001
 51
87.29240440551384
  0
LINE
  5
29F6
330
1A
100
AcDbEntity
  8
センター
 48
10.0
100
AcDbLine
 10
13529.78336771315
 20
4183.078148876734
 30
0.0
 11
13529.78336771315
 21
2419.058816120087
 31
0.0
  0
LINE
  5
29F7
330
1A
100
AcDbEntity
  8
センター
 48
10.0
100
AcDbLine
 10
11879.78336771315
 20
4480.058816120087
 30
0.0
 11
11879.78336771315
 21
2419.058816120087
 31
0.0
  0
LINE
  5
29F8
330
1A
100
AcDbEntity
  8
部品1
100
AcDbLine
 10
13499.78336771315
 20
4101.419996260785
 30
0.0
 11
13499.78336771315
 21
2419.058816120087
 31
0.0
  0
LINE
  5
29F9
330
1A
100
AcDbEntity
  8
部品1
100
AcDbLine
 10
13559.78336771315
 20
4101.419996260784
 30
0.0
 11
13559.78336771316
 21
2419.058816120087
 31
0.0
  0
LINE
  5
29FA
330
1A
100
AcDbEntity
  8
細線
100
AcDbLine
 10
13499.78336771315
 20
3057.058816120087
 30
0.0
 11
11909.78336771316
 21
3057.058816120088
 31
0.0
  0
LINE
  5
29FB
330
1A
100
AcDbEntity
  8
細線
100
AcDbLine
 10
13499.78336771315
 20
3063.058816120087
 30
0.0
 11
11909.78336771316
 21
3063.058816120089
 31
0.0
  0
LINE
  5
29FC
330
1A
100
AcDbEntity
  8
細線
100
AcDbLine
 10
13499.78336771315
 20
2734.058816120087
 30
0.0
 11
11909.78336771316
 21
2734.058816120088
 31
0.0
  0
LINE
  5
29FD
330
1A
100
AcDbEntity
  8
細線
100
AcDbLine
 10
13499.78336771315
 20
2722.058816120087
 30
0.0
 11
11909.78336771316
 21
2722.058816120089
 31
0.0
  0
LINE
  5
29FE
330
1A
100
AcDbEntity
  8
細線
100
AcDbLine
 10
13499.78336771315
 20
3404.058816120087
 30
0.0
 11
11909.78336771316
 21
3404.058816120089
 31
0.0
  0
LINE
  5
29FF
330
1A
100
AcDbEntity
  8
細線
100
AcDbLine
 10
13499.78336771315
 20
3416.058816120087
 30
0.0
 11
11909.78336771316
 21
3416.058816120088
 31
0.0
  0
LINE
  5
2A00
330
1A
100
AcDbEntity
  8
部品1
100
AcDbLine
 10
13499.78336771315
 20
3519.058816120087
 30
0.0
 11
11909.78336771316
 21
3519.058816120089
 31
0.0
  0
LINE
  5
2A01
330
1A
100
AcDbEntity
  8
部品1
100
AcDbLine
 10
13499.78336771315
 20
2619.058816120087
 30
0.0
 11
11909.78336771316
 21
2619.058816120089
 31
0.0
  0
LINE
  5
2A02
330
1A
100
AcDbEntity
  8
部品1
100
AcDbLine
 10
11849.78336771315
 20
4002.947454594115
 30
0.0
 11
11849.78336771316
 21
2419.058816120087
 31
0.0
  0
LINE
  5
2A03
330
1A
100
AcDbEntity
  8
部品1
100
AcDbLine
 10
11909.78336771315
 20
4002.947454594115
 30
0.0
 11
11909.78336771316
 21
2419.058816120087
 31
0.0
  0
CIRCLE
  5
2A04
330
1A
100
AcDbEntity
  8
細線
100
AcDbCircle
 10
11879.78336771315
 20
4035.947454594116
 30
0.0
 40
6.0
  0
LWPOLYLINE
  5
2A05
330
1A
100
AcDbEntity
  8
細線
100
AcDbPolyline
 90
        6
 70
     1
 43
0.0
 10
11873.28336771315
 20
4039.700231343847
 10
11879.78336771315
 20
4043.45300809358
 10
11886.28336771315
 20
4039.700231343847
 10
11886.28336771315
 20
4032.194677844383
 10
11879.78336771315
 20
4028.441901094651
 10
11873.28336771315
 20
4032.194677844383
  0
CIRCLE
  5
2A06
330
1A
100
AcDbEntity
  8
細線
100
AcDbCircle
 10
11879.78336771315
 20
4035.947454594116
 30
0.0
 40
8.0
  0
LINE
  5
2A07
330
1A
100
AcDbEntity
  8
部品1
100
AcDbLine
 10
11913.78336771315
 20
4002.947454594115
 30
0.0
 11
11879.78336771315
 21
4002.947454594115
 31
0.0
  0
CIRCLE
  5
2A08
330
1A
100
AcDbEntity
  8
細線
100
AcDbCircle
 10
11879.78336771315
 20
4035.947454594116
 30
0.0
 40
8.0
  0
LWPOLYLINE
  5
2A09
330
1A
100
AcDbEntity
  8
細線
100
AcDbPolyline
 90
        6
 70
     1
 43
0.0
 10
11886.28336771315
 20
4039.700231343847
 10
11879.78336771315
 20
4043.45300809358
 10
11873.28336771315
 20
4039.700231343847
 10
11873.28336771315
 20
4032.194677844383
 10
11879.78336771315
 20
4028.441901094651
 10
11886.28336771315
 20
4032.194677844383
  0
CIRCLE
  5
2A0A
330
1A
100
AcDbEntity
  8
細線
100
AcDbCircle
 10
11879.78336771315
 20
4035.947454594116
 30
0.0
 40
6.0
  0
LINE
  5
2A0B
330
1A
100
AcDbEntity
  8
部品1
100
AcDbLine
 10
11845.78336771316
 20
4002.947454594115
 30
0.0
 11
11879.78336771315
 21
4002.947454594115
 31
0.0
  0
DIMENSION
  5
2A0C
330
1A
100
AcDbEntity
  8
寸法
100
AcDbDimension
  2
*D33
 10
13529.78336771315
 20
4793.49866844567
 30
0.0
 11
12704.78336771315
 21
4893.498668445671
 31
0.0
 70
    32
 71
     5
 42
1649.999999999998
  3
物置仕様図40
100
AcDbAlignedDimension
 13
11879.78336771315
 23
4480.058816120087
 33
0.0
 14
13529.78336771315
 24
4183.078148876734
 34
0.0
100
AcDbRotatedDimension
1001
ACAD
1000
DSTYLE
1002
{
1070
    75
1070
     1
1002
}
  0
LINE
  5
2A0D
330
1A
100
AcDbEntity
  8
部品1
100
AcDbLine
 10
12760.05644799717
 20
4234.494489041348
 30
0.0
 11
12167.70956009472
 21
4206.481417467628
 31
0.0
  0
LINE
  5
2A0E
330
1A
100
AcDbEntity
  8
部品1
100
AcDbLine
 10
11647.65377507376
 20
4261.406966785101
 30
0.0
 11
11808.78336771316
 21
4253.786879799863
 31
0.0
  0
CIRCLE
  5
2A0F
330
1A
100
AcDbEntity
  8
細線
100
AcDbCircle
 10
11669.32902940561
 20
4232.851173158421
 30
0.0
 40
8.0
  0
LWPOLYLINE
  5
2A10
330
1A
100
AcDbEntity
  8
細線
100
AcDbPolyline
 90
        6
 70
     1
 43
0.0
 10
11675.82902940561
 20
4236.603949908154
 10
11669.32902940561
 20
4240.356726657886
 10
11662.82902940561
 20
4236.603949908154
 10
11662.82902940561
 20
4229.09839640869
 10
11669.32902940561
 20
4225.345619658957
 10
11675.82902940561
 20
4229.09839640869
  0
CIRCLE
  5
2A11
330
1A
100
AcDbEntity
  8
細線
100
AcDbCircle
 10
11669.32902940561
 20
4232.851173158421
 30
0.0
 40
6.0
  0
ARC
  5
2A12
330
1A
100
AcDbEntity
  8
部品1
100
AcDbCircle
 10
11647.18138636116
 20
4251.418130571397
 30
0.0
 40
10.0
100
AcDbArc
 50
87.29240440551384
 51
177.2924044055126
  0
LINE
  5
2A13
330
1A
100
AcDbEntity
  8
部品1
100
AcDbLine
 10
11634.78336771315
 20
4200.947454594116
 30
0.0
 11
11637.19255014745
 21
4251.890519284005
 31
0.0
  0
LINE
  5
2A14
330
1A
100
AcDbEntity
  8
部品1
100
AcDbLine
 10
11634.78336771316
 20
4200.947454594116
 30
0.0
 11
11655.24997525778
 21
4199.979554612316
 31
0.0
  0
LINE
  5
2A15
330
1A
100
AcDbEntity
  8
部品1
100
AcDbLine
 10
11591.78159313757
 20
4204.883203673433
 30
0.0
 11
11633.73470523512
 21
4202.899171080487
 31
0.0
  0
LINE
  5
2A16
330
1A
100
AcDbEntity
  8
部品1
100
AcDbLine
 10
11633.81028742914
 20
4204.497384874681
 30
0.0
 11
11634.94870376257
 21
4204.443547268911
 31
0.0
  0
LINE
  5
2A17
330
1A
100
AcDbEntity
  8
部品1
100
AcDbLine
 10
11636.57376139789
 20
4262.932076724847
 30
0.0
 11
11633.73470523512
 21
4202.899171080486
 31
0.0
  0
LINE
  5
2A18
330
1A
100
AcDbEntity
  8
部品1
100
AcDbLine
 10
11594.62064930033
 20
4264.916109317794
 30
0.0
 11
11591.78159313757
 21
4204.883203673433
 31
0.0
  0
LINE
  5
2A19
330
1A
100
AcDbEntity
  8
部品1
100
AcDbLine
 10
12111.91296035255
 20
4261.406966785101
 30
0.0
 11
11950.78336771316
 21
4253.786879799863
 31
0.0
  0
LINE
  5
2A1A
330
1A
100
AcDbEntity
  8
部品1
100
AcDbLine
 10
11879.78336771315
 20
4218.429171466531
 30
0.0
 11
11819.54250463015
 21
4218.429171466531
 31
0.0
  0
LINE
  5
2A1B
330
1A
100
AcDbEntity
  8
部品1
100
AcDbLine
 10
11879.78336771315
 20
4213.429171466531
 30
0.0
 11
11819.54250463015
 21
4213.429171466531
 31
0.0
  0
LINE
  5
2A1C
330
1A
100
AcDbEntity
  8
部品1
100
AcDbLine
 10
11819.54250463015
 20
4218.429171466532
 30
0.0
 11
11813.72419659874
 21
4254.554337393474
 31
0.0
  0
ARC
  5
2A1D
330
1A
100
AcDbEntity
  8
部品1
100
AcDbCircle
 10
11819.54250463015
 20
4218.429171466531
 30
0.0
 40
5.0
100
AcDbArc
 50
189.1494673622753
 51
270.0
  0
LINE
  5
2A1E
330
1A
100
AcDbEntity
  8
部品1
100
AcDbLine
 10
11814.60612017971
 20
4217.634118916401
 30
0.0
 11
11808.62089046479
 21
4254.795681246058
 31
0.0
  0
CIRCLE
  5
2A1F
330
1A
100
AcDbEntity
  8
細線
100
AcDbCircle
 10
11771.21515878539
 20
4228.032808289835
 30
0.0
 40
8.0
  0
LWPOLYLINE
  5
2A20
330
1A
100
AcDbEntity
  8
細線
100
AcDbPolyline
 90
        6
 70
     1
 43
0.0
 10
11777.71515878539
 20
4231.785585039568
 10
11771.21515878539
 20
4235.5383617893
 10
11764.71515878539
 20
4231.785585039568
 10
11764.71515878539
 20
4224.280031540103
 10
11771.21515878539
 20
4220.527254790371
 10
11777.71515878539
 20
4224.280031540103
  0
CIRCLE
  5
2A21
330
1A
100
AcDbEntity
  8
細線
100
AcDbCircle
 10
11771.21515878539
 20
4228.032808289835
 30
0.0
 40
6.0
  0
CIRCLE
  5
2A22
330
1A
100
AcDbEntity
  8
細線
100
AcDbCircle
 10
11988.35157664092
 20
4228.032808289835
 30
0.0
 40
6.0
  0
LWPOLYLINE
  5
2A23
330
1A
100
AcDbEntity
  8
細線
100
AcDbPolyline
 90
        6
 70
     1
 43
0.0
 10
11981.85157664092
 20
4231.785585039568
 10
11988.35157664092
 20
4235.5383617893
 10
11994.85157664092
 20
4231.785585039568
 10
11994.85157664092
 20
4224.280031540103
 10
11988.35157664092
 20
4220.527254790371
 10
11981.85157664092
 20
4224.280031540103
  0
CIRCLE
  5
2A24
330
1A
100
AcDbEntity
  8
細線
100
AcDbCircle
 10
11988.35157664092
 20
4228.032808289835
 30
0.0
 40
8.0
  0
ARC
  5
2A25
330
1A
100
AcDbEntity
  8
部品1
100
AcDbCircle
 10
11940.02423079616
 20
4218.429171466531
 30
0.0
 40
5.0
100
AcDbArc
 50
270.0
 51
350.8505326377247
  0
LINE
  5
2A26
330
1A
100
AcDbEntity
  8
部品1
100
AcDbLine
 10
11944.9606152466
 20
4217.634118916401
 30
0.0
 11
11950.94584496152
 21
4254.795681246058
 31
0.0
  0
LINE
  5
2A27
330
1A
100
AcDbEntity
  8
部品1
100
AcDbLine
 10
11940.02423079616
 20
4218.429171466532
 30
0.0
 11
11945.84253882757
 21
4254.554337393474
 31
0.0
  0
LINE
  5
2A28
330
1A
100
AcDbEntity
  8
部品1
100
AcDbLine
 10
11879.78336771316
 20
4213.429171466531
 30
0.0
 11
11940.02423079616
 21
4213.429171466531
 31
0.0
  0
LINE
  5
2A29
330
1A
100
AcDbEntity
  8
部品1
100
AcDbLine
 10
11879.78336771316
 20
4218.429171466531
 30
0.0
 11
11940.02423079616
 21
4218.429171466531
 31
0.0
  0
CIRCLE
  5
2A2A
330
1A
100
AcDbEntity
  8
細線
100
AcDbCircle
 10
11879.78336771315
 20
4137.947454594115
 30
0.0
 40
6.0
  0
LWPOLYLINE
  5
2A2B
330
1A
100
AcDbEntity
  8
細線
100
AcDbPolyline
 90
        6
 70
     1
 43
0.0
 10
11873.28336771315
 20
4141.700231343848
 10
11879.78336771315
 20
4145.45300809358
 10
11886.28336771315
 20
4141.700231343848
 10
11886.28336771315
 20
4134.194677844383
 10
11879.78336771315
 20
4130.441901094651
 10
11873.28336771315
 20
4134.194677844383
  0
CIRCLE
  5
2A2C
330
1A
100
AcDbEntity
  8
細線
100
AcDbCircle
 10
11879.78336771315
 20
4137.947454594115
 30
0.0
 40
8.0
  0
CIRCLE
  5
2A2D
330
1A
100
AcDbEntity
  8
細線
100
AcDbCircle
 10
11879.78336771315
 20
4137.947454594115
 30
0.0
 40
8.0
  0
LWPOLYLINE
  5
2A2E
330
1A
100
AcDbEntity
  8
細線
100
AcDbPolyline
 90
        6
 70
     1
 43
0.0
 10
11886.28336771315
 20
4141.700231343848
 10
11879.78336771315
 20
4145.45300809358
 10
11873.28336771315
 20
4141.700231343848
 10
11873.28336771315
 20
4134.194677844383
 10
11879.78336771315
 20
4130.441901094651
 10
11886.28336771315
 20
4134.194677844383
  0
CIRCLE
  5
2A2F
330
1A
100
AcDbEntity
  8
細線
100
AcDbCircle
 10
11879.78336771315
 20
4137.947454594115
 30
0.0
 40
6.0
  0
LINE
  5
2A30
330
1A
100
AcDbEntity
  8
部品1
100
AcDbLine
 10
12167.78514228874
 20
4204.883203673433
 30
0.0
 11
12125.83203019119
 21
4202.899171080487
 31
0.0
  0
LINE
  5
2A31
330
1A
100
AcDbEntity
  8
部品1
100
AcDbLine
 10
12164.94608612598
 20
4264.916109317794
 30
0.0
 11
12167.78514228874
 21
4204.883203673433
 31
0.0
  0
LINE
  5
2A32
330
1A
100
AcDbEntity
  8
部品1
100
AcDbLine
 10
12122.99297402842
 20
4262.932076724847
 30
0.0
 11
12125.83203019119
 21
4202.899171080486
 31
0.0
  0
LINE
  5
2A33
330
1A
100
AcDbEntity
  8
部品1
100
AcDbLine
 10
12124.78336771315
 20
4200.947454594116
 30
0.0
 11
12122.37418527886
 21
4251.890519284005
 31
0.0
  0
ARC
  5
2A34
330
1A
100
AcDbEntity
  8
部品1
100
AcDbCircle
 10
12112.38534906516
 20
4251.418130571397
 30
0.0
 40
10.0
100
AcDbArc
 50
2.707595594487384
 51
92.70759559448615
  0
LINE
  5
2A35
330
1A
100
AcDbEntity
  8
部品1
100
AcDbLine
 10
12124.78336771315
 20
4200.947454594116
 30
0.0
 11
12104.31676016853
 21
4199.979554612316
 31
0.0
  0
LINE
  5
2A36
330
1A
100
AcDbEntity
  8
部品1
100
AcDbLine
 10
12125.75644799717
 20
4204.497384874681
 30
0.0
 11
12124.61803166374
 21
4204.443547268911
 31
0.0
  0
CIRCLE
  5
2A37
330
1A
100
AcDbEntity
  8
細線
100
AcDbCircle
 10
12090.2377060207
 20
4232.851173158421
 30
0.0
 40
6.0
  0
LWPOLYLINE
  5
2A38
330
1A
100
AcDbEntity
  8
細線
100
AcDbPolyline
 90
        6
 70
     1
 43
0.0
 10
12083.7377060207
 20
4236.603949908154
 10
12090.2377060207
 20
4240.356726657886
 10
12096.7377060207
 20
4236.603949908154
 10
12096.7377060207
 20
4229.09839640869
 10
12090.2377060207
 20
4225.345619658957
 10
12083.7377060207
 20
4229.09839640869
  0
CIRCLE
  5
2A39
330
1A
100
AcDbEntity
  8
細線
100
AcDbCircle
 10
12090.2377060207
 20
4232.851173158421
 30
0.0
 40
8.0
  0
LINE
  5
2A3A
330
1A
100
AcDbEntity
  8
部品1
100
AcDbLine
 10
13342.4225519305
 20
4262.035552706527
 30
0.0
 11
12802.00956009472
 21
4236.478521634293
 31
0.0
  0
LINE
  5
2A3B
330
1A
100
AcDbEntity
  8
部品1
100
AcDbLine
 10
12802.08514228874
 20
4234.880307840099
 30
0.0
 11
12760.13203019118
 21
4232.896275247152
 31
0.0
  0
LINE
  5
2A3C
330
1A
100
AcDbEntity
  8
部品1
100
AcDbLine
 10
12799.24608612598
 20
4294.913213484462
 30
0.0
 11
12802.08514228874
 21
4234.880307840099
 31
0.0
  0
LINE
  5
2A3D
330
1A
100
AcDbEntity
  8
部品1
100
AcDbLine
 10
12757.29297402842
 20
4292.929180891515
 30
0.0
 11
12760.13203019118
 21
4232.896275247152
 31
0.0
  0
ARC
  5
2A3E
330
1A
100
AcDbEntity
  8
部品1
100
AcDbCircle
 10
13350.17370908346
 20
4310.033872966218
 30
0.0
 40
10.0
100
AcDbArc
 50
92.69568549355007
 51
182.6956854935736
  0
LINE
  5
2A3F
330
1A
100
AcDbEntity
  8
部品1
100
AcDbLine
 10
13391.59297402842
 20
4322.926285058182
 30
0.0
 11
13393.455658783
 21
4283.539118441609
 31
0.0
  0
LINE
  5
2A40
330
1A
100
AcDbEntity
  8
部品1
100
AcDbLine
 10
13433.54608612597
 20
4324.910317651126
 30
0.0
 11
13435.40908510669
 21
4285.516506605229
 31
0.0
  0
ARC
  5
2A41
330
1A
100
AcDbEntity
  8
部品1
100
AcDbCircle
 10
13390.78336771315
 20
4155.773093242721
 30
0.0
 40
105.0
100
AcDbArc
 50
0.0
 51
92.69568549355007
  0
LINE
  5
2A42
330
1A
100
AcDbEntity
  8
部品1
100
AcDbLine
 10
13342.58336771315
 20
4258.619996260784
 30
0.0
 11
13340.1847748899
 21
4309.563560647933
 31
0.0
  0
CIRCLE
  5
2A43
330
1A
100
AcDbEntity
  8
細線
100
AcDbCircle
 10
13371.00397731746
 20
4293.495244814781
 30
0.0
 40
8.0
  0
LWPOLYLINE
  5
2A44
330
1A
100
AcDbEntity
  8
細線
100
AcDbPolyline
 90
        6
 70
     1
 43
0.0
 10
13364.50397731746
 20
4297.248021564513
 10
13371.00397731746
 20
4301.000798314245
 10
13377.50397731746
 20
4297.248021564513
 10
13377.50397731746
 20
4289.742468065049
 10
13371.00397731746
 20
4285.989691315317
 10
13364.50397731746
 20
4289.742468065049
  0
CIRCLE
  5
2A45
330
1A
100
AcDbEntity
  8
細線
100
AcDbCircle
 10
13371.00397731746
 20
4293.495244814781
 30
0.0
 40
6.0
  0
LINE
  5
2A46
330
1A
100
AcDbEntity
  8
部品1
100
AcDbLine
 10
13342.58336771315
 20
4258.619996260784
 30
0.0
 11
13385.84508837121
 21
4260.6569022751
 31
0.0
  0
ARC
  5
2A47
330
1A
100
AcDbEntity
  8
部品1
100
AcDbCircle
 10
13398.45007688985
 20
4283.775312797912
 30
0.0
 40
5.0
100
AcDbArc
 50
182.7075955944874
 51
272.69568549355
  0
CIRCLE
  5
2A48
330
1A
100
AcDbEntity
  8
細線
100
AcDbCircle
 10
13476.8866797692
 20
4298.480555388549
 30
0.0
 40
6.0
  0
LWPOLYLINE
  5
2A49
330
1A
100
AcDbEntity
  8
細線
100
AcDbPolyline
 90
        6
 70
     1
 43
0.0
 10
13470.3866797692
 20
4302.233332138281
 10
13476.8866797692
 20
4305.986108888013
 10
13483.3866797692
 20
4302.233332138281
 10
13483.3866797692
 20
4294.727778638817
 10
13476.8866797692
 20
4290.975001889084
 10
13470.3866797692
 20
4294.727778638817
  0
CIRCLE
  5
2A4A
330
1A
100
AcDbEntity
  8
細線
100
AcDbCircle
 10
13476.8866797692
 20
4298.480555388549
 30
0.0
 40
8.0
  0
ARC
  5
2A4B
330
1A
100
AcDbEntity
  8
部品1
100
AcDbCircle
 10
13430.41466699984
 20
4285.280312248925
 30
0.0
 40
5.0
100
AcDbArc
 50
272.69568549355
 51
2.707595594487384
  0
CIRCLE
  5
2A4C
330
1A
100
AcDbEntity
  8
細線
100
AcDbCircle
 10
13413.91502839473
 20
4295.515640136335
 30
0.0
 40
8.0
  0
LWPOLYLINE
  5
2A4D
330
1A
100
AcDbEntity
  8
細線
100
AcDbPolyline
 90
        6
 70
     1
 43
0.0
 10
13407.41502839474
 20
4299.268416886069
 10
13413.91502839473
 20
4303.021193635799
 10
13420.41502839473
 20
4299.268416886069
 10
13420.41502839473
 20
4291.762863386604
 10
13413.91502839473
 20
4288.010086636869
 10
13407.41502839474
 20
4291.762863386604
  0
CIRCLE
  5
2A4E
330
1A
100
AcDbEntity
  8
細線
100
AcDbCircle
 10
13413.91502839473
 20
4295.515640136335
 30
0.0
 40
6.0
  0
LINE
  5
2A4F
330
1A
100
AcDbEntity
  8
部品1
100
AcDbLine
 10
13430.64982315898
 20
4280.285845152145
 30
0.0
 11
13398.68523304899
 21
4278.780845701132
 31
0.0
  0
CIRCLE
  5
2A50
330
1A
100
AcDbEntity
  8
細線
100
AcDbCircle
 10
13529.78336771315
 20
4216.419996260785
 30
0.0
 40
6.0
  0
LWPOLYLINE
  5
2A51
330
1A
100
AcDbEntity
  8
細線
100
AcDbPolyline
 90
        6
 70
     1
 43
0.0
 10
13523.28336771315
 20
4220.172773010517
 10
13529.78336771315
 20
4223.92554976025
 10
13536.28336771315
 20
4220.172773010517
 10
13536.28336771315
 20
4212.667219511053
 10
13529.78336771315
 20
4208.914442761321
 10
13523.28336771315
 20
4212.667219511053
  0
CIRCLE
  5
2A52
330
1A
100
AcDbEntity
  8
細線
100
AcDbCircle
 10
13529.78336771315
 20
4216.419996260785
 30
0.0
 40
8.0
  0
CIRCLE
  5
2A53
330
1A
100
AcDbEntity
  8
細線
100
AcDbCircle
 10
13582.76938222094
 20
4303.465865962318
 30
0.0
 40
6.0
  0
LWPOLYLINE
  5
2A54
330
1A
100
AcDbEntity
  8
細線
100
AcDbPolyline
 90
        6
 70
     1
 43
0.0
 10
13576.26938222094
 20
4307.21864271205
 10
13582.76938222094
 20
4310.971419461782
 10
13589.26938222094
 20
4307.21864271205
 10
13589.26938222094
 20
4299.713089212586
 10
13582.76938222094
 20
4295.960312462853
 10
13576.26938222094
 20
4299.713089212586
  0
CIRCLE
  5
2A55
330
1A
100
AcDbEntity
  8
細線
100
AcDbCircle
 10
13582.76938222094
 20
4303.465865962318
 30
0.0
 40
8.0
  0
CIRCLE
  5
2A56
330
1A
100
AcDbEntity
  8
細線
100
AcDbCircle
 10
13529.78336771315
 20
4131.419996260785
 30
0.0
 40
6.0
  0
LWPOLYLINE
  5
2A57
330
1A
100
AcDbEntity
  8
細線
100
AcDbPolyline
 90
        6
 70
     1
 43
0.0
 10
13523.28336771315
 20
4135.172773010515
 10
13529.78336771315
 20
4138.92554976025
 10
13536.28336771315
 20
4135.172773010515
 10
13536.28336771315
 20
4127.667219511051
 10
13529.78336771315
 20
4123.914442761321
 10
13523.28336771315
 20
4127.667219511051
  0
CIRCLE
  5
2A58
330
1A
100
AcDbEntity
  8
細線
100
AcDbCircle
 10
13529.78336771315
 20
4131.419996260785
 30
0.0
 40
8.0
  0
LINE
  5
2A59
330
1A
100
AcDbEntity
  8
部品1
100
AcDbLine
 10
13495.78336771315
 20
4101.419996260785
 30
0.0
 11
13563.78336771316
 21
4101.419996260784
 31
0.0
  0
LINE
  5
2A5A
330
1A
100
AcDbEntity
  8
部品1
100
AcDbLine
 10
13495.78336771315
 20
4155.773093242721
 30
0.0
 11
13495.78336771315
 21
4101.419996260785
 31
0.0
  0
LINE
  5
2A5B
330
1A
100
AcDbEntity
  8
部品1
100
AcDbLine
 10
13563.78336771316
 20
4154.551892811567
 30
0.0
 11
13563.78336771316
 21
4101.419996260784
 31
0.0
  0
TEXT
  5
2A5C
330
1A
100
AcDbEntity
  8
仕様書枠
 62
     7
 48
50.0
100
AcDbText
 10
14507.17944936723
 20
1295.557706291229
 30
0.0
 40
100.0
  1
NO.03     <縮尺> S=1/40
  7
STYLE2
100
AcDbText
  0
TEXT
  5
2A5D
330
1A
100
AcDbEntity
  8
文字
 62
     7
 48
50.0
100
AcDbText
 10
14702.14254951673
 20
747.8967129911416
 30
0.0
 40
160.0
  1
BF-２４VL-２
  7
MSGOTHIC
100
AcDbText
  0
TEXT
  5
2A5E
330
1A
100
AcDbEntity
  8
文字
 62
     7
 48
50.0
100
AcDbText
 10
14840.42318972916
 20
1102.252727072919
 30
0.0
 40
100.0
  1
～一般型～
  7
STYLE2
100
AcDbText
  0
LINE
  5
2A5F
330
1A
100
AcDbEntity
  8
仕様書枠
  6
Continuous
 48
50.0
100
AcDbLine
 10
14240.0
 20
1464.0
 30
0.0
 11
14240.0
 21
1064.0
 31
0.0
  0
LINE
  5
2A60
330
1A
100
AcDbEntity
  8
仕様書枠
 48
50.0
100
AcDbLine
 10
16296.0
 20
1464.0
 30
0.0
 11
16296.0
 21
264.0
 31
0.0
  0
DIMENSION
  5
2A61
330
1A
100
AcDbEntity
  8
寸法
100
AcDbDimension
  2
*D34
 10
14796.91192884818
 20
2369.058816120087
 30
0.0
 11
14675.47383846734
 21
2549.461862598048
 31
0.0
 70
   160
 71
     5
 42
50.0
  3
物置仕様図40
100
AcDbAlignedDimension
 13
14279.78336771315
 23
2419.058816120087
 33
0.0
 14
14809.05573788627
 24
2369.058816120087
 34
0.0
 50
90.0
100
AcDbRotatedDimension
  0
LINE
  5
2A62
330
1A
100
AcDbEntity
  8
部品1
100
AcDbLine
 10
14279.78336771315
 20
2419.058816120087
 30
0.0
 11
14279.78336771315
 21
2369.058816120087
 31
0.0
  0
INSERT
  5
2A63
330
1A
100
AcDbEntity
  8
Ｇ．Ｌ
100
AcDbBlockReference
  2
A$C384156AA
 10
14279.78334550174
 20
4358.945663326277
 30
0.0
  0
LINE
  5
2A64
330
1A
100
AcDbEntity
  8
部品1
100
AcDbLine
 10
14028.65644799717
 20
4294.48869737468
 30
0.0
 11
13730.0187583982
 21
4280.365623304064
 31
0.0
  0
LWPOLYLINE
  5
2A65
330
1A
100
AcDbEntity
  8
細線
100
AcDbPolyline
 90
        6
 70
     1
 43
0.0
 10
13682.15208467268
 20
4312.203953285818
 10
13688.65208467268
 20
4315.956730035551
 10
13695.15208467268
 20
4312.203953285818
 10
13695.15208467268
 20
4304.698399786353
 10
13688.65208467268
 20
4300.94562303662
 10
13682.15208467268
 20
4304.698399786353
  0
CIRCLE
  5
2A66
330
1A
100
AcDbEntity
  8
細線
100
AcDbCircle
 10
13688.65208467268
 20
4308.451176536086
 30
0.0
 40
8.0
  0
LINE
  5
2A67
330
1A
100
AcDbEntity
  8
部品1
100
AcDbLine
 10
13730.18336771316
 20
4276.869496260784
 30
0.0
 11
13727.78477488993
 21
4327.813060647937
 31
0.0
  0
CIRCLE
  5
2A68
330
1A
100
AcDbEntity
  8
細線
100
AcDbCircle
 10
13688.65208467268
 20
4308.451176536086
 30
0.0
 40
6.0
  0
LINE
  5
2A69
330
1A
100
AcDbEntity
  8
部品1
100
AcDbLine
 10
13678.13961989379
 20
4274.419103134288
 30
0.0
 11
13730.18336771316
 21
4276.869496260782
 31
0.0
  0
ARC
  5
2A6A
330
1A
100
AcDbEntity
  8
部品1
100
AcDbCircle
 10
13717.79584069637
 20
4327.342748329656
 30
0.0
 40
10.0
100
AcDbArc
 50
2.695685493573654
 51
92.69568549355007
  0
LINE
  5
2A6B
330
1A
100
AcDbEntity
  8
部品1
100
AcDbLine
 10
14025.89297402842
 20
4352.923389224848
 30
0.0
 11
14028.73203019118
 21
4292.890483580486
 31
0.0
  0
LINE
  5
2A6C
330
1A
100
AcDbEntity
  8
部品1
100
AcDbLine
 10
14067.84608612598
 20
4354.907421817795
 30
0.0
 11
14070.68514228874
 21
4294.874516173432
 31
0.0
  0
LINE
  5
2A6D
330
1A
100
AcDbEntity
  8
部品1
100
AcDbLine
 10
14068.84496974735
 20
4354.954660689054
 30
0.0
 11
14071.70292145861
 21
4294.522201596148
 31
0.0
  0
LINE
  5
2A6E
330
1A
100
AcDbEntity
  8
部品1
100
AcDbLine
 10
14113.25295441433
 20
4354.348528422415
 30
0.0
 11
14103.19131043469
 21
4303.61334938398
 31
0.0
  0
LINE
  5
2A6F
330
1A
100
AcDbEntity
  8
部品1
100
AcDbLine
 10
14071.60844371609
 20
4296.519968838889
 30
0.0
 11
14070.60956009472
 21
4296.472729967627
 31
0.0
  0
LINE
  5
2A70
330
1A
100
AcDbEntity
  8
部品1
100
AcDbLine
 10
14093.85473036113
 20
4295.569797558829
 30
0.0
 11
14071.70292145861
 21
4294.522201596148
 31
0.0
  0
ARC
  5
2A71
330
1A
100
AcDbEntity
  8
部品1
100
AcDbCircle
 10
14093.38234164852
 20
4305.558633772533
 30
0.0
 40
10.0
100
AcDbArc
 50
272.7075955944861
 51
348.782822374098
  0
LINE
  5
2A72
330
1A
100
AcDbEntity
  8
部品1
100
AcDbLine
 10
14070.68514228874
 20
4294.874516173432
 30
0.0
 11
14028.73203019118
 21
4292.890483580488
 31
0.0
  0
ARC
  5
2A73
330
1A
100
AcDbEntity
  8
部品1
100
AcDbCircle
 10
14108.34847002126
 20
4355.321170616691
 30
0.0
 40
5.0
100
AcDbArc
 50
348.782822374098
 51
20.16519871824114
  0
ARC
  5
2A74
330
1A
100
AcDbEntity
  8
部品1
100
AcDbCircle
 10
14266.35602463569
 20
4466.40928554484
 30
0.0
 40
13.0
100
AcDbArc
 50
358.2326990882394
 51
92.70759559448615
  0
ARC
  5
2A75
330
1A
100
AcDbEntity
  8
部品1
100
AcDbCircle
 10
14263.60284260643
 20
4377.179614235225
 30
0.0
 40
13.0
100
AcDbArc
 50
272.7075955944861
 51
358.2326990882394
  0
LINE
  5
2A76
330
1A
100
AcDbEntity
  8
部品1
100
AcDbLine
 10
14279.34984084671
 20
4466.008361269778
 30
0.0
 11
14276.59665881745
 21
4376.778689960163
 31
0.0
  0
LINE
  5
2A77
330
1A
100
AcDbEntity
  8
部品1
100
AcDbLine
 10
14256.73879567097
 20
4478.968999900593
 30
0.0
 11
14253.1813132736
 21
4363.672233601652
 31
0.0
  0
LINE
  5
2A78
330
1A
100
AcDbEntity
  8
部品1
100
AcDbLine
 10
15894.64242557952
 20
9951.717918574647
 30
0.0
 11
12494.64242557953
 21
9951.717918574647
 31
0.0
  0
LINE
  5
2A79
330
1A
100
AcDbEntity
  8
部品1
100
AcDbLine
 10
15894.64242557952
 20
9216.284318574651
 30
0.0
 11
12494.64242557952
 21
9216.284318574651
 31
0.0
  0
TEXT
  5
2A7A
330
1A
100
AcDbEntity
  8
文字
 62
     7
 48
50.0
100
AcDbText
 10
12603.36958668524
 20
8513.74379302282
 30
0.0
 40
108.152
  1
PZ→一般構造用角形鋼管(JIS G 3466)
 41
0.9
  7
STYLE1
100
AcDbText
  0
TEXT
  5
2A7B
330
1A
100
AcDbEntity
  8
文字
 62
     7
 48
50.0
100
AcDbText
 10
12603.36958668502
 20
8146.02699302282
 30
0.0
 40
108.152
  1
Y10→溶融亜鉛-5％アルミニウム合金めっき鋼板(JIS G 3317)
 41
0.9
  7
STYLE1
100
AcDbText
  0
TEXT
  5
2A7C
330
1A
100
AcDbEntity
  8
文字
 62
     7
 48
50.0
100
AcDbText
 10
12603.36958668503
 20
8329.885393022822
 30
0.0
 40
108.152
  1
F12→溶融亜鉛めっき鋼板(JIS G 3302)
  7
STYLE1
100
AcDbText
  0
LINE
  5
2A7D
330
1A
100
AcDbEntity
  8
部品1
100
AcDbLine
 10
15894.64242557952
 20
9032.425918574652
 30
0.0
 11
12494.64242557953
 21
9032.425918574654
 31
0.0
  0
LINE
  5
2A7E
330
1A
100
AcDbEntity
  8
部品1
100
AcDbLine
 10
15894.64242557952
 20
10871.00991857465
 30
0.0
 11
12494.64242557952
 21
10871.00991857465
 31
0.0
  0
LINE
  5
2A7F
330
1A
100
AcDbEntity
  8
部品1
100
AcDbLine
 10
15894.64242557952
 20
10687.15151857465
 30
0.0
 11
12494.64242557952
 21
10687.15151857465
 31
0.0
  0
LINE
  5
2A80
330
1A
100
AcDbEntity
  8
部品1
100
AcDbLine
 10
15894.64242557952
 20
10319.43471857465
 30
0.0
 11
12494.64242557952
 21
10319.43471857465
 31
0.0
  0
LINE
  5
2A81
330
1A
100
AcDbEntity
  8
部品1
100
AcDbLine
 10
15894.64242557952
 20
10503.29311857465
 30
0.0
 11
12494.64242557952
 21
10503.29311857465
 31
0.0
  0
LINE
  5
2A82
330
1A
100
AcDbEntity
  8
部品1
100
AcDbLine
 10
15894.64242557952
 20
9767.859518574649
 30
0.0
 11
12494.64242557953
 21
9767.859518574649
 31
0.0
  0
LINE
  5
2A83
330
1A
100
AcDbEntity
  8
部品1
100
AcDbLine
 10
15894.64242557952
 20
9584.001118574652
 30
0.0
 11
12494.64242557953
 21
9584.001118574652
 31
0.0
  0
LINE
  5
2A84
330
1A
100
AcDbEntity
  8
部品1
100
AcDbLine
 10
15894.64242557952
 20
10135.57631857465
 30
0.0
 11
12494.64242557953
 21
10135.57631857465
 31
0.0
  0
TEXT
  5
2A85
330
1A
100
AcDbEntity
  8
文字
 62
     7
 48
50.0
100
AcDbText
 10
13172.29023290983
 20
10720.04459302282
 30
0.0
 40
108.152
  1
部　　品　　名
  7
STYLE1
100
AcDbText
  0
LINE
  5
2A86
330
1A
100
AcDbEntity
  8
部品1
100
AcDbLine
 10
15894.64242557952
 20
8664.709118574647
 30
0.0
 11
12494.64242557952
 21
8664.709118574647
 31
0.0
  0
LINE
  5
2A87
330
1A
100
AcDbEntity
  8
部品1
100
AcDbLine
 10
15894.64242557952
 20
8296.992318574654
 30
0.0
 11
12494.64242557953
 21
8296.992318574655
 31
0.0
  0
LINE
  5
2A88
330
1A
100
AcDbEntity
  8
部品1
100
AcDbLine
 10
15894.64242557952
 20
8480.850718574654
 30
0.0
 11
12494.64242557953
 21
8480.850718574654
 31
0.0
  0
LINE
  5
2A89
330
1A
100
AcDbEntity
  8
部品1
100
AcDbLine
 10
15894.64242557952
 20
9400.142718574651
 30
0.0
 11
12494.64242557952
 21
9400.142718574651
 31
0.0
  0
LINE
  5
2A8A
330
1A
100
AcDbEntity
  8
部品1
100
AcDbLine
 10
15894.64242557952
 20
8848.56751857465
 30
0.0
 11
12494.64242557953
 21
8848.567518574652
 31
0.0
  0
LINE
  5
2A8B
330
1A
100
AcDbEntity
  8
部品1
100
AcDbLine
 10
15894.64242557952
 20
8113.133918574655
 30
0.0
 11
12494.64242557953
 21
8113.133918574657
 31
0.0
  0
TEXT
  5
2A8C
330
1A
100
AcDbEntity
  8
文字
 62
     7
 48
50.0
100
AcDbText
 10
12985.45694698109
 20
9616.894193022822
 30
0.0
 40
108.152
  1
屋根パネル
  7
STYLE1
100
AcDbText
  0
LINE
  5
2A8D
330
1A
100
AcDbEntity
  8
部品1
100
AcDbLine
 10
12884.96406595309
 20
10871.00991857465
 30
0.0
 11
12884.96406595312
 21
8664.709118574648
 31
0.0
  0
TEXT
  5
2A8E
330
1A
100
AcDbEntity
  8
文字
 62
     7
 48
50.0
100
AcDbText
 10
12648.10071948696
 20
9616.894193022821
 30
0.0
 40
108.152
  1
6
  7
STYLE1
100
AcDbText
  0
LINE
  5
2A8F
330
1A
100
AcDbEntity
  8
部品1
100
AcDbLine
 10
12494.64242557953
 20
10871.00991857465
 30
0.0
 11
12494.64242557953
 21
8113.133918574659
 31
0.0
  0
TEXT
  5
2A90
330
1A
100
AcDbEntity
  8
文字
 62
     7
 48
50.0
100
AcDbText
 10
12623.86077527069
 20
8697.602193022815
 30
0.0
 40
108.152
  1
11
  7
STYLE1
100
AcDbText
  0
TEXT
  5
2A91
330
1A
100
AcDbEntity
  8
文字
 62
     7
 48
50.0
100
AcDbText
 10
12985.45694698109
 20
8697.602193022824
 30
0.0
 40
108.152
  1
雨とい
  7
STYLE1
100
AcDbText
  0
TEXT
  5
2A92
330
1A
100
AcDbEntity
  8
文字
 62
     7
 48
50.0
100
AcDbText
 10
12985.45694698109
 20
9433.035793022821
 30
0.0
 40
108.152
  1
妻板
  7
STYLE1
100
AcDbText
  0
TEXT
  5
2A93
330
1A
100
AcDbEntity
  8
文字
 62
     7
 48
50.0
100
AcDbText
 10
12985.45694698109
 20
8881.46059302282
 30
0.0
 40
108.152
  1
車止メ棒
  7
STYLE1
100
AcDbText
  0
TEXT
  5
2A94
330
1A
100
AcDbEntity
  8
文字
 62
     7
 48
50.0
100
AcDbText
 10
12985.45694698109
 20
9065.318993022819
 30
0.0
 40
108.152
  1
プレート
  7
STYLE1
100
AcDbText
  0
TEXT
  5
2A95
330
1A
100
AcDbEntity
  8
文字
 62
     7
 48
50.0
100
AcDbText
 10
12985.45694698109
 20
9249.17739302282
 30
0.0
 40
108.152
  1
鼻隠シ
  7
STYLE1
100
AcDbText
  0
TEXT
  5
2A96
330
1A
100
AcDbEntity
  8
文字
 62
     7
 48
50.0
100
AcDbText
 10
12623.86077527069
 20
8881.460593022817
 30
0.0
 40
108.152
  1
10
  7
STYLE1
100
AcDbText
  0
TEXT
  5
2A97
330
1A
100
AcDbEntity
  8
文字
 62
     7
 48
50.0
100
AcDbText
 10
12648.10071948696
 20
9065.318993022819
 30
0.0
 40
108.152
  1
9
  7
STYLE1
100
AcDbText
  0
TEXT
  5
2A98
330
1A
100
AcDbEntity
  8
文字
 62
     7
 48
50.0
100
AcDbText
 10
12648.10071948696
 20
9249.177393022819
 30
0.0
 40
108.152
  1
8
  7
STYLE1
100
AcDbText
  0
TEXT
  5
2A99
330
1A
100
AcDbEntity
  8
文字
 62
     7
 48
50.0
100
AcDbText
 10
12648.10071948696
 20
9433.035793022821
 30
0.0
 40
108.152
  1
7
  7
STYLE1
100
AcDbText
  0
TEXT
  5
2A9A
330
1A
100
AcDbEntity
  8
文字
 62
     7
 48
50.0
100
AcDbText
 10
12648.10071948696
 20
10536.18619302282
 30
0.0
 40
108.152
  1
1
  7
STYLE1
100
AcDbText
  0
TEXT
  5
2A9B
330
1A
100
AcDbEntity
  8
文字
 62
     7
 48
50.0
100
AcDbText
 10
12985.45694698109
 20
10536.18619302282
 30
0.0
 40
108.152
  1
柱
  7
STYLE1
100
AcDbText
  0
TEXT
  5
2A9C
330
1A
100
AcDbEntity
  8
文字
 62
     7
 48
50.0
100
AcDbText
 10
12985.45694698109
 20
9984.610993022821
 30
0.0
 40
108.152
  1
梁中屋根板
  7
STYLE1
100
AcDbText
  0
TEXT
  5
2A9D
330
1A
100
AcDbEntity
  8
文字
 62
     7
 48
50.0
100
AcDbText
 10
12985.4569469811
 20
9800.752593022819
 30
0.0
 40
108.152
  1
腰パネル
  7
STYLE1
100
AcDbText
  0
TEXT
  5
2A9E
330
1A
100
AcDbEntity
  8
文字
 62
     7
 48
50.0
100
AcDbText
 10
12985.45694698109
 20
10352.32779302282
 30
0.0
 40
108.152
  1
梁
  7
STYLE1
100
AcDbText
  0
TEXT
  5
2A9F
330
1A
100
AcDbEntity
  8
文字
 62
     7
 48
50.0
100
AcDbText
 10
12985.45694698109
 20
10168.46939302282
 30
0.0
 40
108.152
  1
母屋
  7
STYLE1
100
AcDbText
  0
TEXT
  5
2AA0
330
1A
100
AcDbEntity
  8
文字
 62
     7
 48
50.0
100
AcDbText
 10
12648.10071948696
 20
9984.610993022819
 30
0.0
 40
108.152
  1
4
  7
STYLE1
100
AcDbText
  0
TEXT
  5
2AA1
330
1A
100
AcDbEntity
  8
文字
 62
     7
 48
50.0
100
AcDbText
 10
12648.10071948696
 20
9800.752593022817
 30
0.0
 40
108.152
  1
5
  7
STYLE1
100
AcDbText
  0
TEXT
  5
2AA2
330
1A
100
AcDbEntity
  8
文字
 62
     7
 48
50.0
100
AcDbText
 10
12648.10071948696
 20
10352.32779302282
 30
0.0
 40
108.152
  1
2
  7
STYLE1
100
AcDbText
  0
TEXT
  5
2AA3
330
1A
100
AcDbEntity
  8
文字
 62
     7
 48
50.0
100
AcDbText
 10
12648.10071948696
 20
10168.46939302282
 30
0.0
 40
108.152
  1
3
  7
STYLE1
100
AcDbText
  0
TEXT
  5
2AA4
330
1A
100
AcDbEntity
  8
文字
 62
     7
 48
50.0
100
AcDbText
 10
12568.3222486876
 20
10720.04459302282
 30
0.0
 40
108.152
  1
品番
  7
STYLE1
100
AcDbText
  0
LINE
  5
2AA5
330
1A
100
AcDbEntity
  8
部品1
100
AcDbLine
 10
15894.64242557952
 20
8113.133918574655
 30
0.0
 11
15894.64242557952
 21
10871.00991857465
 31
0.0
  0
LINE
  5
2AA6
330
1A
100
AcDbEntity
  8
部品1
100
AcDbLine
 10
14248.56898557953
 20
10871.00991857465
 30
0.0
 11
14248.56898557953
 21
8664.709118574648
 31
0.0
  0
TEXT
  5
2AA7
330
1A
100
AcDbEntity
  8
文字
 62
     7
 48
50.0
100
AcDbText
 10
14483.91818152568
 20
9616.894193022822
 30
0.0
 40
108.152
  1
Y10            0.5
  7
STYLE1
100
AcDbText
  0
TEXT
  5
2AA8
330
1A
100
AcDbEntity
  8
文字
 62
     7
 48
50.0
100
AcDbText
 10
14505.36472097954
 20
8881.46059302282
 30
0.0
 40
108.152
  1
F12            1.2
  7
STYLE1
100
AcDbText
  0
TEXT
  5
2AA9
330
1A
100
AcDbEntity
  8
文字
 62
     7
 48
50.0
100
AcDbText
 10
14505.36472097954
 20
8697.60219302282
 30
0.0
 40
108.152
  1
硬質塩化ビニール
  7
STYLE1
100
AcDbText
  0
TEXT
  5
2AAA
330
1A
100
AcDbEntity
  8
文字
 62
     7
 48
50.0
100
AcDbText
 10
14483.91818152568
 20
9433.035793022821
 30
0.0
 40
108.152
  1
Y10            0.7
  7
STYLE1
100
AcDbText
  0
TEXT
  5
2AAB
330
1A
100
AcDbEntity
  8
文字
 62
     7
 48
50.0
100
AcDbText
 10
14483.91818152568
 20
9249.17739302282
 30
0.0
 40
108.152
  1
Y10            0.7
  7
STYLE1
100
AcDbText
  0
TEXT
  5
2AAC
330
1A
100
AcDbEntity
  8
文字
 62
     7
 48
50.0
100
AcDbText
 10
14505.36472097953
 20
9065.318993022819
 30
0.0
 40
108.152
  1
F12            2.3
  7
STYLE1
100
AcDbText
  0
TEXT
  5
2AAD
330
1A
100
AcDbEntity
  8
文字
 62
     7
 48
50.0
100
AcDbText
 10
14483.91818152568
 20
9984.610993022821
 30
0.0
 40
108.152
  1
Y10            1.0
  7
STYLE1
100
AcDbText
  0
TEXT
  5
2AAE
330
1A
100
AcDbEntity
  8
文字
 62
     7
 48
50.0
100
AcDbText
 10
14329.24793999007
 20
10720.04459302282
 30
0.0
 40
108.152
  1
材料（材質）　　単位mm
  7
STYLE1
100
AcDbText
  0
TEXT
  5
2AAF
330
1A
100
AcDbEntity
  8
文字
 62
     7
 48
50.0
100
AcDbText
 10
14505.36472097953
 20
10536.18619302282
 30
0.0
 40
108.152
  1
PZ            2.3
  7
STYLE1
100
AcDbText
  0
TEXT
  5
2AB0
330
1A
100
AcDbEntity
  8
文字
 62
     7
 48
50.0
100
AcDbText
 10
14505.36472097954
 20
10168.46939302282
 30
0.0
 40
108.152
  1
F12            1.6
  7
STYLE1
100
AcDbText
  0
TEXT
  5
2AB1
330
1A
100
AcDbEntity
  8
文字
 62
     7
 48
50.0
100
AcDbText
 10
14505.36472097951
 20
10352.32779302282
 30
0.0
 40
108.152
  1
PZ            2.3
  7
STYLE1
100
AcDbText
  0
TEXT
  5
2AB2
330
1A
100
AcDbEntity
  8
文字
 62
     7
 48
50.0
100
AcDbText
 10
14483.91818152568
 20
9800.752593022819
 30
0.0
 40
108.152
  1
Y10            0.6
  7
STYLE1
100
AcDbText
  0
VIEWPORT
  5
22
102
{ACAD_XDICTIONARY
360
2F99
102
}
330
17
100
AcDbEntity
 67
     1
  8
0
100
AcDbViewport
 10
261.5176991150442
 20
154.7242978687078
 30
0.0
 40
523.0353982300885
 41
309.4485957374157
 68
     1
 69
     1
 12
261.5176991150442
 22
154.7242978687078
 13
0.0
 23
0.0
 14
1.0
 24
1.0
 15
10.0
 25
10.0
 16
0.0
 26
0.0
 36
1.0
 17
0.0
 27
0.0
 37
0.0
 42
50.0
 43
0.0
 44
0.0
 45
309.4485957374157
 50
0.0
 51
0.0
 72
   100
 90
    32768
  1

281
     0
 71
     1
 74
     0
110
0.0
120
0.0
130
0.0
111
1.0
121
0.0
131
0.0
112
0.0
122
1.0
132
0.0
 79
     0
146
0.0
  0
ENDSEC
  0
SECTION
  2
OBJECTS
  0
DICTIONARY
  5
C
330
0
100
AcDbDictionary
281
     1
  3
ACAD_COLOR
350
20E1
  3
ACAD_GROUP
350
D
  3
ACAD_LAYOUT
350
20E2
  3
ACAD_MATERIAL
350
20E0
  3
ACAD_MLINESTYLE
350
E
  3
ACAD_PLOTSETTINGS
350
20E3
  3
ACAD_PLOTSTYLENAME
350
20DE
  3
ACDBHEADERROUNDTRIPXREC
350
2F96
  3
AcDbVariableDictionary
350
2F92
  0
DICTIONARY
  5
210C
330
2
100
AcDbDictionary
280
     1
281
     1
  3
ACAD_LAYERFILTERS
360
21CD
  3
ACAD_LAYERSTATES
360
210D
  0
DICTIONARY
  5
2F99
330
22
100
AcDbDictionary
280
     1
281
     1
  3
ACAD_XREC_ROUNDTRIP
360
2F9A
  0
DICTIONARY
  5
20E1
102
{ACAD_REACTORS
330
C
102
}
330
C
100
AcDbDictionary
281
     1
  0
DICTIONARY
  5
D
102
{ACAD_REACTORS
330
C
102
}
330
C
100
AcDbDictionary
281
     1
  0
DICTIONARY
  5
20E2
102
{ACAD_REACTORS
330
C
102
}
330
C
100
AcDbDictionary
281
     1
  3
Model
350
20E4
  3
レイアウト1
350
20E5
  0
DICTIONARY
  5
20E0
102
{ACAD_REACTORS
330
C
102
}
330
C
100
AcDbDictionary
281
     1
  0
DICTIONARY
  5
E
102
{ACAD_REACTORS
330
C
102
}
330
C
100
AcDbDictionary
281
     1
  3
STANDARD
350
13
  0
DICTIONARY
  5
20E3
102
{ACAD_REACTORS
330
C
102
}
330
C
100
AcDbDictionary
281
     1
  0
ACDBDICTIONARYWDFLT
  5
20DE
102
{ACAD_REACTORS
330
C
102
}
330
C
100
AcDbDictionary
281
     1
  3
Normal
350
20DF
100
AcDbDictionaryWithDefault
340
20DF
  0
DICTIONARY
  5
2F96
102
{ACAD_REACTORS
330
C
102
}
330
C
100
AcDbDictionary
281
     1
  3
COLORDICT
350
2F98
  3
MATERIALDICT
350
2F97
  0
DICTIONARY
  5
2F92
102
{ACAD_REACTORS
330
C
102
}
330
C
100
AcDbDictionary
281
     1
  3
DIMASSOC
350
2F93
  3
PROJECTNAME
350
2F94
  0
DICTIONARY
  5
21CD
102
{ACAD_REACTORS
330
210C
102
}
330
210C
100
AcDbDictionary
281
     1
  0
DICTIONARY
  5
210D
102
{ACAD_REACTORS
330
210C
102
}
330
210C
100
AcDbDictionary
281
     1
  0
XRECORD
  5
2F9A
102
{ACAD_REACTORS
330
2F99
102
}
330
2F99
100
AcDbXrecord
280
     1
102
SHADEPLOT
 70
     0
  0
LAYOUT
  5
20E4
102
{ACAD_XDICTIONARY
360
2F9B
102
}
102
{ACAD_REACTORS
330
20E2
102
}
330
20E2
100
AcDbPlotSettings
  1

  2
iR C3880
  4
A3
  6

 40
5.873749732971191
 41
5.873747825622558
 42
5.873748779296875
 43
5.873748779296875
 44
296.9259948730469
 45
419.9466552734374
 46
0.0
 47
0.0
 48
0.0
 49
0.0
140
0.0
141
0.0
142
1.0
143
40.0
 70
 11952
 72
     1
 73
     1
 74
     2
  7
inaba.ctb
 75
    24
147
0.025
148
0.0
149
0.0
100
AcDbLayout
  1
Model
 70
     1
 71
     0
 10
0.0
 20
0.0
 11
12.0
 21
9.0
 12
0.0
 22
0.0
 32
0.0
 14
0.0
 24
0.0
 34
0.0
 15
0.0
 25
0.0
 35
0.0
146
0.0
 13
0.0
 23
0.0
 33
0.0
 16
1.0
 26
0.0
 36
0.0
 17
0.0
 27
1.0
 37
0.0
 76
     0
330
1A
  0
LAYOUT
  5
20E5
102
{ACAD_XDICTIONARY
360
2F9D
102
}
102
{ACAD_REACTORS
330
20E2
102
}
330
20E2
100
AcDbPlotSettings
  1

  2
自動 EPSON LP-8400FX (TATENO 上)
  4

  6

 40
0.0
 41
0.0
 42
0.0
 43
0.0
 44
0.0
 45
0.0
 46
0.0
 47
0.0
 48
0.0
 49
0.0
140
0.0
141
0.0
142
1.0
143
1.0
 70
   688
 72
     0
 73
     0
 74
     5
  7
inaba.ctb
 75
    16
147
1.0
148
0.0
149
0.0
100
AcDbLayout
  1
レイアウト1
 70
     1
 71
     1
 10
0.0
 20
0.0
 11
420.0
 21
297.0
 12
0.0
 22
0.0
 32
0.0
 14
1.000000000000000E+20
 24
1.000000000000000E+20
 34
1.000000000000000E+20
 15
-1.000000000000000E+20
 25
-1.000000000000000E+20
 35
-1.000000000000000E+20
146
0.0
 13
0.0
 23
0.0
 33
0.0
 16
1.0
 26
0.0
 36
0.0
 17
0.0
 27
1.0
 37
0.0
 76
     0
330
17
331
22
  0
MLINESTYLE
  5
13
102
{ACAD_REACTORS
330
E
102
}
330
E
100
AcDbMlineStyle
  2
STANDARD
 70
     0
  3

 62
     0
 51
90.0
 52
90.0
 71
     2
 49
0.5
 62
   256
  6
BYLAYER
 49
-0.5
 62
   256
  6
BYLAYER
  0
ACDBPLACEHOLDER
  5
20DF
102
{ACAD_REACTORS
330
20DE
102
}
330
20DE
  0
XRECORD
  5
2F98
102
{ACAD_REACTORS
330
2F96
102
}
330
2F96
100
AcDbXrecord
280
     1
340
20E1
  0
XRECORD
  5
2F97
102
{ACAD_REACTORS
330
2F96
102
}
330
2F96
100
AcDbXrecord
280
     1
340
20E0
  0
DICTIONARYVAR
  5
2F93
102
{ACAD_REACTORS
330
2F92
102
}
330
2F92
100
DictionaryVariables
280
     0
  1
1
  0
DICTIONARYVAR
  5
2F94
102
{ACAD_REACTORS
330
2F92
102
}
330
2F92
100
DictionaryVariables
280
     0
  1

  0
DICTIONARY
  5
2F9B
330
20E4
100
AcDbDictionary
280
     1
281
     1
  3
ACAD_XREC_ROUNDTRIP
360
2F9C
  0
DICTIONARY
  5
2F9D
330
20E5
100
AcDbDictionary
280
     1
281
     1
  3
ACAD_XREC_ROUNDTRIP
360
2F9E
  0
XRECORD
  5
2F9C
102
{ACAD_REACTORS
330
2F9B
102
}
330
2F9B
100
AcDbXrecord
280
     1
102
SHADEPLOT
 70
     0
102
SHADEPLOTRESLEVEL
 70
     2
102
SHADEPLOTCUSTOMDPI
 70
   300
  0
XRECORD
  5
2F9E
102
{ACAD_REACTORS
330
2F9D
102
}
330
2F9D
100
AcDbXrecord
280
     1
102
SHADEPLOT
 70
     0
102
SHADEPLOTRESLEVEL
 70
     2
102
SHADEPLOTCUSTOMDPI
 70
   300
  0
ENDSEC
  0
EOF
