  0
SECTION
  2
HEADER
  9
$ACADVER
  1
AC1015
  9
$ACADMAINTVER
 70
    20
  9
$DWGCODEPAGE
  3
ANSI_932
  9
$INSBASE
 10
0.0
 20
0.0
 30
0.0
  9
$EXTMIN
 10
128.8000000000011
 20
263.9999999999999
 30
0.0
  9
$EXTMAX
 10
16296.0
 20
10859.35160972518
 30
0.0
  9
$LIMMIN
 10
0.0
 20
0.0
  9
$LIMMAX
 10
16800.0
 20
11880.0
  9
$ORTHOMODE
 70
     0
  9
$REGENMODE
 70
     1
  9
$FILLMODE
 70
     1
  9
$QTEXTMODE
 70
     0
  9
$MIRRTEXT
 70
     1
  9
$LTSCALE
 40
7.0
  9
$ATTMODE
 70
     1
  9
$TEXTSIZE
 40
3.5
  9
$TRACEWID
 40
1.0
  9
$TEXTSTYLE
  7
MSGOTHIC
  9
$CLAYER
  8
点線
  9
$CELTYPE
  6
BYLAYER
  9
$CECOLOR
 62
   256
  9
$CELTSCALE
 40
50.0
  9
$DISPSILH
 70
     0
  9
$DIMSCALE
 40
40.0
  9
$DIMASZ
 40
2.5
  9
$DIMEXO
 40
1.0
  9
$DIMDLI
 40
7.0
  9
$DIMRND
 40
0.0
  9
$DIMDLE
 40
0.0
  9
$DIMEXE
 40
1.0
  9
$DIMTP
 40
0.0
  9
$DIMTM
 40
0.0
  9
$DIMTXT
 40
3.0
  9
$DIMCEN
 40
2.5
  9
$DIMTSZ
 40
0.0
  9
$DIMTOL
 70
     0
  9
$DIMLIM
 70
     0
  9
$DIMTIH
 70
     0
  9
$DIMTOH
 70
     0
  9
$DIMSE1
 70
     0
  9
$DIMSE2
 70
     0
  9
$DIMTAD
 70
     3
  9
$DIMZIN
 70
     8
  9
$DIMBLK
  1

  9
$DIMASO
 70
     1
  9
$DIMSHO
 70
     1
  9
$DIMPOST
  1

  9
$DIMAPOST
  1

  9
$DIMALT
 70
     0
  9
$DIMALTD
 70
     2
  9
$DIMALTF
 40
0.0394
  9
$DIMLFAC
 40
1.0
  9
$DIMTOFL
 70
     0
  9
$DIMTVP
 40
1.0
  9
$DIMTIX
 70
     0
  9
$DIMSOXD
 70
     0
  9
$DIMSAH
 70
     1
  9
$DIMBLK1
  1
DOTSMALL
  9
$DIMBLK2
  1
DOTSMALL
  9
$DIMSTYLE
  2
物置仕様図40
  9
$DIMCLRD
 70
     4
  9
$DIMCLRE
 70
     4
  9
$DIMCLRT
 70
     7
  9
$DIMTFAC
 40
1.0
  9
$DIMGAP
 40
1.0
  9
$DIMJUST
 70
     0
  9
$DIMSD1
 70
     0
  9
$DIMSD2
 70
     0
  9
$DIMTOLJ
 70
     1
  9
$DIMTZIN
 70
     8
  9
$DIMALTZ
 70
     0
  9
$DIMALTTZ
 70
     0
  9
$DIMUPT
 70
     0
  9
$DIMDEC
 70
     2
  9
$DIMTDEC
 70
     2
  9
$DIMALTU
 70
     2
  9
$DIMALTTD
 70
     2
  9
$DIMTXSTY
  7
STANDARD
  9
$DIMAUNIT
 70
     0
  9
$DIMADEC
 70
     0
  9
$DIMALTRND
 40
0.0
  9
$DIMAZIN
 70
     0
  9
$DIMDSEP
 70
    46
  9
$DIMATFIT
 70
     3
  9
$DIMFRAC
 70
     0
  9
$DIMLDRBLK
  1

  9
$DIMLUNIT
 70
     2
  9
$DIMLWD
 70
    -2
  9
$DIMLWE
 70
    -2
  9
$DIMTMOVE
 70
     2
  9
$LUNITS
 70
     2
  9
$LUPREC
 70
     1
  9
$SKETCHINC
 40
1.0
  9
$FILLETRAD
 40
70.0
  9
$AUNITS
 70
     0
  9
$AUPREC
 70
     1
  9
$MENU
  1
.
  9
$ELEVATION
 40
0.0
  9
$PELEVATION
 40
0.0
  9
$THICKNESS
 40
0.0
  9
$LIMCHECK
 70
     0
  9
$CHAMFERA
 40
400.0
  9
$CHAMFERB
 40
400.0
  9
$CHAMFERC
 40
800.0
  9
$CHAMFERD
 40
0.0
  9
$SKPOLY
 70
     0
  9
$TDCREATE
 40
2450696.487780324
  9
$TDUCREATE
 40
2450696.112780324
  9
$TDUPDATE
 40
2455579.571170602
  9
$TDUUPDATE
 40
2455579.196170602
  9
$TDINDWG
 40
0.7148556019
  9
$TDUSRTIMER
 40
0.7148556019
  9
$USRTIMER
 70
     1
  9
$ANGBASE
 50
0.0
  9
$ANGDIR
 70
     0
  9
$PDMODE
 70
     0
  9
$PDSIZE
 40
0.0
  9
$PLINEWID
 40
0.0
  9
$SPLFRAME
 70
     0
  9
$SPLINETYPE
 70
     6
  9
$SPLINESEGS
 70
     8
  9
$HANDSEED
  5
22B5
  9
$SURFTAB1
 70
     6
  9
$SURFTAB2
 70
     6
  9
$SURFTYPE
 70
     6
  9
$SURFU
 70
     6
  9
$SURFV
 70
     6
  9
$UCSBASE
  2

  9
$UCSNAME
  2

  9
$UCSORG
 10
0.0
 20
0.0
 30
0.0
  9
$UCSXDIR
 10
1.0
 20
0.0
 30
0.0
  9
$UCSYDIR
 10
0.0
 20
1.0
 30
0.0
  9
$UCSORTHOREF
  2

  9
$UCSORTHOVIEW
 70
     0
  9
$UCSORGTOP
 10
0.0
 20
0.0
 30
0.0
  9
$UCSORGBOTTOM
 10
0.0
 20
0.0
 30
0.0
  9
$UCSORGLEFT
 10
0.0
 20
0.0
 30
0.0
  9
$UCSORGRIGHT
 10
0.0
 20
0.0
 30
0.0
  9
$UCSORGFRONT
 10
0.0
 20
0.0
 30
0.0
  9
$UCSORGBACK
 10
0.0
 20
0.0
 30
0.0
  9
$PUCSBASE
  2

  9
$PUCSNAME
  2

  9
$PUCSORG
 10
0.0
 20
0.0
 30
0.0
  9
$PUCSXDIR
 10
1.0
 20
0.0
 30
0.0
  9
$PUCSYDIR
 10
0.0
 20
1.0
 30
0.0
  9
$PUCSORTHOREF
  2

  9
$PUCSORTHOVIEW
 70
     0
  9
$PUCSORGTOP
 10
0.0
 20
0.0
 30
0.0
  9
$PUCSORGBOTTOM
 10
0.0
 20
0.0
 30
0.0
  9
$PUCSORGLEFT
 10
0.0
 20
0.0
 30
0.0
  9
$PUCSORGRIGHT
 10
0.0
 20
0.0
 30
0.0
  9
$PUCSORGFRONT
 10
0.0
 20
0.0
 30
0.0
  9
$PUCSORGBACK
 10
0.0
 20
0.0
 30
0.0
  9
$USERI1
 70
     0
  9
$USERI2
 70
     0
  9
$USERI3
 70
     0
  9
$USERI4
 70
     0
  9
$USERI5
 70
     0
  9
$USERR1
 40
0.0
  9
$USERR2
 40
0.0
  9
$USERR3
 40
0.0
  9
$USERR4
 40
0.0
  9
$USERR5
 40
0.0
  9
$WORLDVIEW
 70
     1
  9
$SHADEDGE
 70
     3
  9
$SHADEDIF
 70
    70
  9
$TILEMODE
 70
     1
  9
$MAXACTVP
 70
    16
  9
$PINSBASE
 10
0.0
 20
0.0
 30
0.0
  9
$PLIMCHECK
 70
     0
  9
$PEXTMIN
 10
1.000000000000000E+20
 20
1.000000000000000E+20
 30
1.000000000000000E+20
  9
$PEXTMAX
 10
-1.000000000000000E+20
 20
-1.000000000000000E+20
 30
-1.000000000000000E+20
  9
$PLIMMIN
 10
0.0
 20
0.0
  9
$PLIMMAX
 10
420.0
 20
297.0
  9
$UNITMODE
 70
     0
  9
$VISRETAIN
 70
     0
  9
$PLINEGEN
 70
     0
  9
$PSLTSCALE
 70
     1
  9
$TREEDEPTH
 70
  3020
  9
$CMLSTYLE
  2
STANDARD
  9
$CMLJUST
 70
     0
  9
$CMLSCALE
 40
1.0
  9
$PROXYGRAPHICS
 70
     1
  9
$MEASUREMENT
 70
     1
  9
$CELWEIGHT
370
    -1
  9
$ENDCAPS
280
     0
  9
$JOINSTYLE
280
     0
  9
$LWDISPLAY
290
     0
  9
$INSUNITS
 70
     0
  9
$HYPERLINKBASE
  1

  9
$STYLESHEET
  1
inaba.ctb
  9
$XEDIT
290
     1
  9
$CEPSNTYPE
380
     0
  9
$PSTYLEMODE
290
     1
  9
$FINGERPRINTGUID
  2
{3E7DBE64-0C8B-4A38-AEEF-CDB144859C6F}
  9
$VERSIONGUID
  2
{260161C7-DA91-443E-9BFE-53D60CB9C676}
  9
$EXTNAMES
290
     1
  9
$PSVPSCALE
 40
0.0
  9
$OLESTARTUP
290
     0
  0
ENDSEC
  0
SECTION
  2
CLASSES
  0
CLASS
  1
ACDBDICTIONARYWDFLT
  2
AcDbDictionaryWithDefault
  3
ObjectDBX Classes
 90
        0
280
     0
281
     0
  0
CLASS
  1
DICTIONARYVAR
  2
AcDbDictionaryVar
  3
ObjectDBX Classes
 90
        0
280
     0
281
     0
  0
CLASS
  1
ACDBPLACEHOLDER
  2
AcDbPlaceHolder
  3
ObjectDBX Classes
 90
        0
280
     0
281
     0
  0
CLASS
  1
LAYOUT
  2
AcDbLayout
  3
ObjectDBX Classes
 90
        0
280
     0
281
     0
  0
ENDSEC
  0
SECTION
  2
TABLES
  0
TABLE
  2
VPORT
  5
8
330
0
100
AcDbSymbolTable
 70
     2
  0
VPORT
  5
22AB
330
8
100
AcDbSymbolTableRecord
100
AcDbViewportTableRecord
  2
*Active
 70
     0
 10
0.0
 20
0.0
 11
1.0
 21
1.0
 12
10067.6157982568
 22
5561.589687864283
 13
0.0
 23
0.0
 14
420.0
 24
420.0
 15
420.0
 25
420.0
 16
0.0
 26
0.0
 36
1.0
 17
0.0
 27
0.0
 37
0.0
 40
13252.7886968784
 41
1.5075
 42
50.0
 43
0.0
 44
0.0
 50
0.0
 51
0.0
 71
     0
 72
   100
 73
     1
 74
     0
 75
     0
 76
     0
 77
     0
 78
     1
281
     0
 65
     1
110
0.0
120
0.0
130
0.0
111
1.0
121
0.0
131
0.0
112
0.0
122
1.0
132
0.0
 79
     0
146
0.0
  0
ENDTAB
  0
TABLE
  2
LTYPE
  5
5
330
0
100
AcDbSymbolTable
 70
     3
  0
LTYPE
  5
14
330
5
100
AcDbSymbolTableRecord
100
AcDbLinetypeTableRecord
  2
BYBLOCK
 70
     0
  3

 72
    65
 73
     0
 40
0.0
  0
LTYPE
  5
15
330
5
100
AcDbSymbolTableRecord
100
AcDbLinetypeTableRecord
  2
BYLAYER
 70
     0
  3

 72
    65
 73
     0
 40
0.0
  0
LTYPE
  5
16
330
5
100
AcDbSymbolTableRecord
100
AcDbLinetypeTableRecord
  2
CONTINUOUS
 70
     0
  3
Solid line
 72
    65
 73
     0
 40
0.0
  0
LTYPE
  5
61
330
5
100
AcDbSymbolTableRecord
100
AcDbLinetypeTableRecord
  2
CENTER
 70
     0
  3
____ _ ____ _ ____ _ ____ _ ____ _ ____ _ ____ 
 72
    65
 73
     4
 40
2.0
 49
1.25
 74
     0
 49
-0.25
 74
     0
 49
0.25
 74
     0
 49
-0.25
 74
     0
  0
LTYPE
  5
62
330
5
100
AcDbSymbolTableRecord
100
AcDbLinetypeTableRecord
  2
HIDDEN
 70
     0
  3
__ __ __ __ __ __ __ __ __ __ __ __ __ __ __ __
 72
    65
 73
     2
 40
0.375
 49
0.25
 74
     0
 49
-0.125
 74
     0
  0
ENDTAB
  0
TABLE
  2
LAYER
  5
2
102
{ACAD_XDICTIONARY
360
210C
102
}
330
0
100
AcDbSymbolTable
 70
    10
  0
LAYER
  5
F
330
2
100
AcDbSymbolTableRecord
100
AcDbLayerTableRecord
  2
0
 70
     0
 62
     7
  6
CONTINUOUS
370
    -3
390
20DF
  0
LAYER
  5
63
330
2
100
AcDbSymbolTableRecord
100
AcDbLayerTableRecord
  2
細線
 70
     0
 62
     5
  6
CONTINUOUS
370
    -3
390
20DF
  0
LAYER
  5
64
330
2
100
AcDbSymbolTableRecord
100
AcDbLayerTableRecord
  2
寸法
 70
     0
 62
     4
  6
CONTINUOUS
370
    -3
390
20DF
  0
LAYER
  5
65
330
2
100
AcDbSymbolTableRecord
100
AcDbLayerTableRecord
  2
センター
 70
     0
 62
     3
  6
CENTER
370
    -3
390
20DF
  0
LAYER
  5
92A
330
2
100
AcDbSymbolTableRecord
100
AcDbLayerTableRecord
  2
DEFPOINTS
 70
     0
 62
     7
  6
CONTINUOUS
290
     0
370
    -3
390
20DF
  0
LAYER
  5
1813
330
2
100
AcDbSymbolTableRecord
100
AcDbLayerTableRecord
  2
Ｇ．Ｌ
 70
     0
 62
    30
  6
CONTINUOUS
370
    -3
390
20DF
  0
LAYER
  5
183D
330
2
100
AcDbSymbolTableRecord
100
AcDbLayerTableRecord
  2
文字
 70
     0
 62
     7
  6
CONTINUOUS
370
    -3
390
20DF
  0
LAYER
  5
183E
330
2
100
AcDbSymbolTableRecord
100
AcDbLayerTableRecord
  2
仕様書枠
 70
     0
 62
   230
  6
CONTINUOUS
370
    -3
390
20DF
  0
LAYER
  5
20B1
330
2
100
AcDbSymbolTableRecord
100
AcDbLayerTableRecord
  2
部品1
 70
     0
 62
     7
  6
CONTINUOUS
370
    -3
390
20DF
  0
LAYER
  5
21A8
330
2
100
AcDbSymbolTableRecord
100
AcDbLayerTableRecord
  2
点線
 70
     0
 62
     2
  6
HIDDEN
370
    -3
390
20DF
  0
ENDTAB
  0
TABLE
  2
STYLE
  5
3
330
0
100
AcDbSymbolTable
 70
     6
  0
STYLE
  5
10
330
3
100
AcDbSymbolTableRecord
100
AcDbTextStyleTableRecord
  2
STANDARD
 70
     0
 40
0.0
 41
1.0
 50
0.0
 71
     0
 42
120.0
  3
ISOCP
  4
C:\Program Files\AutoCAD LT\bigfont.shx
  0
STYLE
  5
373
330
3
100
AcDbSymbolTableRecord
100
AcDbTextStyleTableRecord
  2
MSGOTHIC
 70
     0
 40
0.0
 41
1.0
 50
0.0
 71
     0
 42
3.5
  3
MS PGothic.ttf
  4

1001
ACAD
1000
MS PGothic
1071
    32818
  0
STYLE
  5
374
330
3
100
AcDbSymbolTableRecord
100
AcDbTextStyleTableRecord
  2
MSMINCHO
 70
     0
 40
0.0
 41
1.0
 50
0.0
 71
     0
 42
1.199999999999999
  3
msminch2.TTF
  4

  0
STYLE
  5
183F
330
3
100
AcDbSymbolTableRecord
100
AcDbTextStyleTableRecord
  2
STYLE2
 70
     0
 40
0.0
 41
1.0
 50
0.0
 71
     0
 42
100.0
  3
MS PGothic.ttf
  4

1001
ACAD
1000
MS PGothic
1071
    32818
  0
STYLE
  5
210A
330
3
100
AcDbSymbolTableRecord
100
AcDbTextStyleTableRecord
  2
STYLE1
 70
     0
 40
0.0
 41
1.0
 50
0.0
 71
     0
 42
4.0
  3
isocp.shx
  4
bigfont.shx
  0
STYLE
  5
229C
330
3
100
AcDbSymbolTableRecord
100
AcDbTextStyleTableRecord
  2

 70
     1
 40
0.0
 41
1.0
 50
0.0
 71
     0
 42
120.0
  3
ltypeshp.shx
  4

  0
ENDTAB
  0
TABLE
  2
VIEW
  5
6
330
0
100
AcDbSymbolTable
 70
     0
  0
ENDTAB
  0
TABLE
  2
UCS
  5
7
330
0
100
AcDbSymbolTable
 70
     0
  0
ENDTAB
  0
TABLE
  2
APPID
  5
9
330
0
100
AcDbSymbolTable
 70
     1
  0
APPID
  5
11
330
9
100
AcDbSymbolTableRecord
100
AcDbRegAppTableRecord
  2
ACAD
 70
     0
  0
ENDTAB
  0
TABLE
  2
DIMSTYLE
  5
A
330
0
100
AcDbSymbolTable
 70
     2
100
AcDbDimStyleTable
 71
     1
340
92
  0
DIMSTYLE
105
1D
330
A
100
AcDbSymbolTableRecord
100
AcDbDimStyleTableRecord
  2
STANDARD
 70
     0
340
10
  0
DIMSTYLE
105
92
102
{ACAD_REACTORS
330
92F
330
93B
330
947
330
953
330
95F
330
96B
330
977
330
983
330
991
330
99E
330
9AB
330
9B9
330
9C5
330
9D3
330
9EC
330
A36
330
B6C
330
B95
330
BA1
330
C39
330
12FC
330
1308
330
1316
330
1346
330
1353
330
135F
330
136B
330
1377
330
1384
330
1391
102
}
330
A
100
AcDbSymbolTableRecord
100
AcDbDimStyleTableRecord
  2
物置仕様図40
 70
     0
 40
40.0
 41
2.5
 42
1.0
 43
7.0
 44
1.0
 73
     0
 74
     0
 77
     3
 78
     8
140
3.0
141
2.5
143
0.0394
145
1.0
147
1.0
173
     1
176
     4
177
     4
178
     7
271
     2
272
     2
279
     2
284
     8
340
10
341
14F1
343
14F1
344
14F1
  0
ENDTAB
  0
TABLE
  2
BLOCK_RECORD
  5
1
330
0
100
AcDbSymbolTable
 70
    31
  0
BLOCK_RECORD
  5
1A
330
1
100
AcDbSymbolTableRecord
100
AcDbBlockTableRecord
  2
*MODEL_SPACE
340
20E4
  0
BLOCK_RECORD
  5
17
330
1
100
AcDbSymbolTableRecord
100
AcDbBlockTableRecord
  2
*PAPER_SPACE
340
20E5
  0
BLOCK_RECORD
  5
920
330
1
100
AcDbSymbolTableRecord
100
AcDbBlockTableRecord
  2
*D0
340
0
  0
BLOCK_RECORD
  5
930
330
1
100
AcDbSymbolTableRecord
100
AcDbBlockTableRecord
  2
*D1
340
0
  0
BLOCK_RECORD
  5
93C
330
1
100
AcDbSymbolTableRecord
100
AcDbBlockTableRecord
  2
*D2
340
0
  0
BLOCK_RECORD
  5
948
330
1
100
AcDbSymbolTableRecord
100
AcDbBlockTableRecord
  2
*D3
340
0
  0
BLOCK_RECORD
  5
954
330
1
100
AcDbSymbolTableRecord
100
AcDbBlockTableRecord
  2
*D4
340
0
  0
BLOCK_RECORD
  5
960
330
1
100
AcDbSymbolTableRecord
100
AcDbBlockTableRecord
  2
*D5
340
0
  0
BLOCK_RECORD
  5
96C
330
1
100
AcDbSymbolTableRecord
100
AcDbBlockTableRecord
  2
*D6
340
0
  0
BLOCK_RECORD
  5
978
330
1
100
AcDbSymbolTableRecord
100
AcDbBlockTableRecord
  2
*D7
340
0
  0
BLOCK_RECORD
  5
984
330
1
100
AcDbSymbolTableRecord
100
AcDbBlockTableRecord
  2
*D8
340
0
  0
BLOCK_RECORD
  5
992
330
1
100
AcDbSymbolTableRecord
100
AcDbBlockTableRecord
  2
*D9
340
0
  0
BLOCK_RECORD
  5
99F
330
1
100
AcDbSymbolTableRecord
100
AcDbBlockTableRecord
  2
*D10
340
0
  0
BLOCK_RECORD
  5
9AC
330
1
100
AcDbSymbolTableRecord
100
AcDbBlockTableRecord
  2
*D11
340
0
  0
BLOCK_RECORD
  5
9BA
330
1
100
AcDbSymbolTableRecord
100
AcDbBlockTableRecord
  2
*D12
340
0
  0
BLOCK_RECORD
  5
9C6
330
1
100
AcDbSymbolTableRecord
100
AcDbBlockTableRecord
  2
*D13
340
0
  0
BLOCK_RECORD
  5
9DF
330
1
100
AcDbSymbolTableRecord
100
AcDbBlockTableRecord
  2
*D14
340
0
  0
BLOCK_RECORD
  5
A29
330
1
100
AcDbSymbolTableRecord
100
AcDbBlockTableRecord
  2
*D15
340
0
  0
BLOCK_RECORD
  5
B5E
330
1
100
AcDbSymbolTableRecord
100
AcDbBlockTableRecord
  2
*D16
340
0
  0
BLOCK_RECORD
  5
B87
330
1
100
AcDbSymbolTableRecord
100
AcDbBlockTableRecord
  2
*D17
340
0
  0
BLOCK_RECORD
  5
B96
330
1
100
AcDbSymbolTableRecord
100
AcDbBlockTableRecord
  2
*D18
340
0
  0
BLOCK_RECORD
  5
C2B
330
1
100
AcDbSymbolTableRecord
100
AcDbBlockTableRecord
  2
*D19
340
0
  0
BLOCK_RECORD
  5
12EE
330
1
100
AcDbSymbolTableRecord
100
AcDbBlockTableRecord
  2
*D20
340
0
  0
BLOCK_RECORD
  5
12FD
330
1
100
AcDbSymbolTableRecord
100
AcDbBlockTableRecord
  2
*D21
340
0
  0
BLOCK_RECORD
  5
1309
330
1
100
AcDbSymbolTableRecord
100
AcDbBlockTableRecord
  2
*D22
340
0
  0
BLOCK_RECORD
  5
133A
330
1
100
AcDbSymbolTableRecord
100
AcDbBlockTableRecord
  2
*D23
340
0
  0
BLOCK_RECORD
  5
1347
330
1
100
AcDbSymbolTableRecord
100
AcDbBlockTableRecord
  2
*D24
340
0
  0
BLOCK_RECORD
  5
1354
330
1
100
AcDbSymbolTableRecord
100
AcDbBlockTableRecord
  2
*D25
340
0
  0
BLOCK_RECORD
  5
1360
330
1
100
AcDbSymbolTableRecord
100
AcDbBlockTableRecord
  2
*D26
340
0
  0
BLOCK_RECORD
  5
136C
330
1
100
AcDbSymbolTableRecord
100
AcDbBlockTableRecord
  2
*D27
340
0
  0
BLOCK_RECORD
  5
1378
330
1
100
AcDbSymbolTableRecord
100
AcDbBlockTableRecord
  2
*D28
340
0
  0
BLOCK_RECORD
  5
1385
330
1
100
AcDbSymbolTableRecord
100
AcDbBlockTableRecord
  2
*D29
340
0
  0
BLOCK_RECORD
  5
14F1
330
1
100
AcDbSymbolTableRecord
100
AcDbBlockTableRecord
  2
_DOTSMALL
340
0
102
{BLKREFS
331
1FA8
331
1FA9
331
1FB1
331
1FB2
331
17B9
331
17BA
331
1750
331
1751
331
16FF
331
1700
331
205D
331
205E
331
173C
331
173D
331
2067
331
2068
331
1713
331
1714
331
171D
331
171E
331
17A3
331
17A4
331
16C8
331
16C9
331
16F5
331
16F6
331
16EB
331
16EC
331
16BD
331
16BE
331
2082
331
2083
331
2073
331
2074
331
1732
331
1733
331
15AA
331
15AB
331
15B5
331
15B6
331
15BE
331
15BF
331
15CA
331
15CB
331
15D5
331
15D6
331
15DE
331
15DF
331
15E9
331
15EA
331
15F3
331
15F4
331
15FE
331
15FF
331
1652
331
1653
331
1627
331
1628
331
1632
331
1633
331
2283
331
2284
331
228B
331
228C
102
}
  0
ENDTAB
  0
ENDSEC
  0
SECTION
  2
BLOCKS
  0
BLOCK
  5
1B
330
1A
100
AcDbEntity
  8
0
100
AcDbBlockBegin
  2
*MODEL_SPACE
 70
     0
 10
0.0
 20
0.0
 30
0.0
  3
*MODEL_SPACE
  1

  0
ENDBLK
  5
1C
330
1A
100
AcDbEntity
  8
0
100
AcDbBlockEnd
  0
BLOCK
  5
18
330
17
100
AcDbEntity
 67
     1
  8
0
100
AcDbBlockBegin
  2
*PAPER_SPACE
 70
     0
 10
0.0
 20
0.0
 30
0.0
  3
*PAPER_SPACE
  1

  0
ENDBLK
  5
19
330
17
100
AcDbEntity
 67
     1
  8
0
100
AcDbBlockEnd
  0
BLOCK
  5
17B4
330
920
100
AcDbEntity
  8
0
100
AcDbBlockBegin
  2
*D0
 70
     1
 10
0.0
 20
0.0
 30
0.0
  3
*D0
  1

  0
LINE
  5
17B5
330
920
100
AcDbEntity
  8
0
  6
ByBlock
 62
     4
100
AcDbLine
 10
3526.502629141134
 20
10616.19978712185
 30
0.0
 11
2942.832977941529
 21
10616.19978712185
 31
0.0
  0
LINE
  5
17B6
330
920
100
AcDbEntity
  8
0
  6
ByBlock
 62
     4
100
AcDbLine
 10
3516.502629141135
 20
10379.19978712185
 30
0.0
 11
2942.832977941529
 21
10379.19978712185
 31
0.0
  0
LINE
  5
17B7
330
920
100
AcDbEntity
  8
0
  6
ByBlock
 62
     4
100
AcDbLine
 10
2982.832977941529
 20
10616.19978712185
 30
0.0
 11
2982.832977941529
 21
10379.19978712185
 31
0.0
  0
MTEXT
  5
17B8
330
920
100
AcDbEntity
  8
0
  6
ByBlock
 62
     7
100
AcDbMText
 10
2871.724924527793
 20
10497.69978712185
 30
0.0
 40
120.0
 41
0.0
 71
     5
 72
     1
  1
\A1;237
 11
0.0000000000000001
 21
1.0
 31
0.0
 73
     1
 44
1.0
1001
ACAD
1000
MTEXTBEGIN
1070
    73
1070
     1
1070
    44
1040
1.0
1070
    74
1070
     0
1000
MTEXTEND
  0
INSERT
  5
17B9
330
920
100
AcDbEntity
  8
0
  6
ByBlock
 62
     4
100
AcDbBlockReference
  2
_DOTSMALL
 10
2982.832977941529
 20
10616.19978712185
 30
0.0
 41
100.0
 42
100.0
 43
100.0
 50
90.0
  0
INSERT
  5
17BA
330
920
100
AcDbEntity
  8
0
  6
ByBlock
 62
     4
100
AcDbBlockReference
  2
_DOTSMALL
 10
2982.832977941529
 20
10379.19978712185
 30
0.0
 41
100.0
 42
100.0
 43
100.0
 50
270.0
  0
POINT
  5
17BB
330
920
100
AcDbEntity
  8
DEFPOINTS
  6
ByBlock
 62
     0
100
AcDbPoint
 10
3566.502629141135
 20
10616.19978712185
 30
0.0
  0
POINT
  5
17BC
330
920
100
AcDbEntity
  8
DEFPOINTS
  6
ByBlock
 62
     0
100
AcDbPoint
 10
3556.502629141134
 20
10379.19978712185
 30
0.0
  0
POINT
  5
17BD
330
920
100
AcDbEntity
  8
DEFPOINTS
  6
ByBlock
 62
     0
100
AcDbPoint
 10
2982.832977941529
 20
10379.19978712185
 30
0.0
  0
ENDBLK
  5
17BE
330
920
100
AcDbEntity
  8
0
100
AcDbBlockEnd
  0
BLOCK
  5
174D
330
930
100
AcDbEntity
  8
0
100
AcDbBlockBegin
  2
*D1
 70
     1
 10
0.0
 20
0.0
 30
0.0
  3
*D1
  1

  0
LINE
  5
174E
330
930
100
AcDbEntity
  8
0
  6
ByBlock
 62
     4
100
AcDbLine
 10
3516.502629141135
 20
9744.899787121852
 30
0.0
 11
2942.832977941529
 21
9744.899787121852
 31
0.0
  0
LINE
  5
174F
330
930
100
AcDbEntity
  8
0
  6
ByBlock
 62
     4
100
AcDbLine
 10
2982.832977941529
 20
10379.19978712185
 30
0.0
 11
2982.832977941529
 21
9744.899787121852
 31
0.0
  0
INSERT
  5
1750
330
930
100
AcDbEntity
  8
0
  6
ByBlock
 62
     4
100
AcDbBlockReference
  2
_DOTSMALL
 10
2982.832977941529
 20
10379.19978712185
 30
0.0
 41
100.0
 42
100.0
 43
100.0
 50
90.0
  0
INSERT
  5
1751
330
930
100
AcDbEntity
  8
0
  6
ByBlock
 62
     4
100
AcDbBlockReference
  2
_DOTSMALL
 10
2982.832977941529
 20
9744.899787121852
 30
0.0
 41
100.0
 42
100.0
 43
100.0
 50
270.0
  0
MTEXT
  5
1752
330
930
100
AcDbEntity
  8
0
  6
ByBlock
 62
     7
100
AcDbMText
 10
2882.832977941529
 20
10062.04978712185
 30
0.0
 40
120.0
 41
0.0
 71
     5
 72
     1
  1
\A1;634.3
 11
0.0000000000000001
 21
1.0
 31
0.0
 73
     1
 44
1.0
1001
ACAD
1000
MTEXTBEGIN
1070
    73
1070
     1
1070
    44
1040
1.0
1070
    74
1070
     0
1000
MTEXTEND
  0
POINT
  5
1753
330
930
100
AcDbEntity
  8
DEFPOINTS
  6
ByBlock
 62
     0
100
AcDbPoint
 10
3556.502629141134
 20
10379.19978712185
 30
0.0
  0
POINT
  5
1754
330
930
100
AcDbEntity
  8
DEFPOINTS
  6
ByBlock
 62
     0
100
AcDbPoint
 10
3556.502629141134
 20
9744.899787121852
 30
0.0
  0
POINT
  5
1755
330
930
100
AcDbEntity
  8
DEFPOINTS
  6
ByBlock
 62
     0
100
AcDbPoint
 10
2982.832977941529
 20
9744.899787121852
 30
0.0
  0
ENDBLK
  5
1756
330
930
100
AcDbEntity
  8
0
100
AcDbBlockEnd
  0
BLOCK
  5
16FC
330
93C
100
AcDbEntity
  8
0
100
AcDbBlockBegin
  2
*D2
 70
     1
 10
0.0
 20
0.0
 30
0.0
  3
*D2
  1

  0
LINE
  5
16FD
330
93C
100
AcDbEntity
  8
0
  6
ByBlock
 62
     4
100
AcDbLine
 10
3516.502629141135
 20
9110.599787121849
 30
0.0
 11
2942.832977941529
 21
9110.599787121849
 31
0.0
  0
LINE
  5
16FE
330
93C
100
AcDbEntity
  8
0
  6
ByBlock
 62
     4
100
AcDbLine
 10
2982.832977941529
 20
9744.899787121852
 30
0.0
 11
2982.832977941529
 21
9110.599787121849
 31
0.0
  0
INSERT
  5
16FF
330
93C
100
AcDbEntity
  8
0
  6
ByBlock
 62
     4
100
AcDbBlockReference
  2
_DOTSMALL
 10
2982.832977941529
 20
9744.899787121852
 30
0.0
 41
100.0
 42
100.0
 43
100.0
 50
90.0
  0
INSERT
  5
1700
330
93C
100
AcDbEntity
  8
0
  6
ByBlock
 62
     4
100
AcDbBlockReference
  2
_DOTSMALL
 10
2982.832977941529
 20
9110.599787121849
 30
0.0
 41
100.0
 42
100.0
 43
100.0
 50
270.0
  0
MTEXT
  5
1701
330
93C
100
AcDbEntity
  8
0
  6
ByBlock
 62
     7
100
AcDbMText
 10
2882.832977941529
 20
9427.749787121852
 30
0.0
 40
120.0
 41
0.0
 71
     5
 72
     1
  1
\A1;634.3
 11
0.0000000000000001
 21
1.0
 31
0.0
 73
     1
 44
1.0
1001
ACAD
1000
MTEXTBEGIN
1070
    73
1070
     1
1070
    44
1040
1.0
1070
    74
1070
     0
1000
MTEXTEND
  0
POINT
  5
1702
330
93C
100
AcDbEntity
  8
DEFPOINTS
  6
ByBlock
 62
     0
100
AcDbPoint
 10
3556.502629141134
 20
9744.899787121852
 30
0.0
  0
POINT
  5
1703
330
93C
100
AcDbEntity
  8
DEFPOINTS
  6
ByBlock
 62
     0
100
AcDbPoint
 10
3556.502629141134
 20
9110.599787121849
 30
0.0
  0
POINT
  5
1704
330
93C
100
AcDbEntity
  8
DEFPOINTS
  6
ByBlock
 62
     0
100
AcDbPoint
 10
2982.832977941529
 20
9110.599787121849
 30
0.0
  0
ENDBLK
  5
1705
330
93C
100
AcDbEntity
  8
0
100
AcDbBlockEnd
  0
BLOCK
  5
2059
330
948
100
AcDbEntity
  8
0
100
AcDbBlockBegin
  2
*D3
 70
     1
 10
0.0
 20
0.0
 30
0.0
  3
*D3
  1

  0
LINE
  5
205A
330
948
100
AcDbEntity
  8
0
  6
ByBlock
 62
     4
100
AcDbLine
 10
3516.502629141135
 20
8476.299787121847
 30
0.0
 11
2942.832977941529
 21
8476.299787121847
 31
0.0
  0
LINE
  5
205B
330
948
100
AcDbEntity
  8
0
  6
ByBlock
 62
     4
100
AcDbLine
 10
2982.832977941529
 20
9110.599787121849
 30
0.0
 11
2982.832977941529
 21
8476.299787121847
 31
0.0
  0
MTEXT
  5
205C
330
948
100
AcDbEntity
  8
0
  6
ByBlock
 62
     7
100
AcDbMText
 10
2887.663213027365
 20
8908.775928261613
 30
0.0
 40
120.0
 41
0.0
 71
     5
 72
     1
  1
\A1;634.3
 11
0.0000000000000001
 21
1.0
 31
0.0
 73
     1
 44
1.0
1001
ACAD
1000
MTEXTBEGIN
1070
    73
1070
     1
1070
    44
1040
1.0
1070
    74
1070
     0
1000
MTEXTEND
  0
INSERT
  5
205D
330
948
100
AcDbEntity
  8
0
  6
ByBlock
 62
     4
100
AcDbBlockReference
  2
_DOTSMALL
 10
2982.832977941529
 20
9110.599787121849
 30
0.0
 41
100.0
 42
100.0
 43
100.0
 50
90.0
  0
INSERT
  5
205E
330
948
100
AcDbEntity
  8
0
  6
ByBlock
 62
     4
100
AcDbBlockReference
  2
_DOTSMALL
 10
2982.832977941529
 20
8476.299787121847
 30
0.0
 41
100.0
 42
100.0
 43
100.0
 50
270.0
  0
POINT
  5
205F
330
948
100
AcDbEntity
  8
DEFPOINTS
  6
ByBlock
 62
     0
100
AcDbPoint
 10
3556.502629141134
 20
9110.599787121849
 30
0.0
  0
POINT
  5
2060
330
948
100
AcDbEntity
  8
DEFPOINTS
  6
ByBlock
 62
     0
100
AcDbPoint
 10
3556.502629141134
 20
8476.299787121847
 30
0.0
  0
POINT
  5
2061
330
948
100
AcDbEntity
  8
DEFPOINTS
  6
ByBlock
 62
     0
100
AcDbPoint
 10
2982.832977941529
 20
8476.299787121847
 30
0.0
  0
ENDBLK
  5
2062
330
948
100
AcDbEntity
  8
0
100
AcDbBlockEnd
  0
BLOCK
  5
1738
330
954
100
AcDbEntity
  8
0
100
AcDbBlockBegin
  2
*D4
 70
     1
 10
0.0
 20
0.0
 30
0.0
  3
*D4
  1

  0
LINE
  5
1739
330
954
100
AcDbEntity
  8
0
  6
ByBlock
 62
     4
100
AcDbLine
 10
3516.502629141135
 20
8216.199787121851
 30
0.0
 11
2942.832977941529
 21
8216.199787121851
 31
0.0
  0
LINE
  5
173A
330
954
100
AcDbEntity
  8
0
  6
ByBlock
 62
     4
100
AcDbLine
 10
2982.832977941529
 20
8476.299787121847
 30
0.0
 11
2982.832977941529
 21
8216.199787121851
 31
0.0
  0
MTEXT
  5
173B
330
954
100
AcDbEntity
  8
0
  6
ByBlock
 62
     7
100
AcDbMText
 10
2822.821166917908
 20
8401.617056612504
 30
0.0
 40
120.0
 41
0.0
 71
     5
 72
     1
  1
\A1;260.1
 11
0.0000000000000001
 21
1.0
 31
0.0
 73
     1
 44
1.0
1001
ACAD
1000
MTEXTBEGIN
1070
    73
1070
     1
1070
    44
1040
1.0
1070
    74
1070
     0
1000
MTEXTEND
  0
INSERT
  5
173C
330
954
100
AcDbEntity
  8
0
  6
ByBlock
 62
     4
100
AcDbBlockReference
  2
_DOTSMALL
 10
2982.832977941529
 20
8476.299787121847
 30
0.0
 41
100.0
 42
100.0
 43
100.0
 50
90.0
  0
INSERT
  5
173D
330
954
100
AcDbEntity
  8
0
  6
ByBlock
 62
     4
100
AcDbBlockReference
  2
_DOTSMALL
 10
2982.832977941529
 20
8216.199787121851
 30
0.0
 41
100.0
 42
100.0
 43
100.0
 50
270.0
  0
POINT
  5
173E
330
954
100
AcDbEntity
  8
DEFPOINTS
  6
ByBlock
 62
     0
100
AcDbPoint
 10
3556.502629141134
 20
8476.299787121847
 30
0.0
  0
POINT
  5
173F
330
954
100
AcDbEntity
  8
DEFPOINTS
  6
ByBlock
 62
     0
100
AcDbPoint
 10
3556.502629141134
 20
8216.199787121851
 30
0.0
  0
POINT
  5
1740
330
954
100
AcDbEntity
  8
DEFPOINTS
  6
ByBlock
 62
     0
100
AcDbPoint
 10
2982.832977941529
 20
8216.199787121851
 30
0.0
  0
ENDBLK
  5
1741
330
954
100
AcDbEntity
  8
0
100
AcDbBlockEnd
  0
BLOCK
  5
2063
330
960
100
AcDbEntity
  8
0
100
AcDbBlockBegin
  2
*D5
 70
     1
 10
0.0
 20
0.0
 30
0.0
  3
*D5
  1

  0
LINE
  5
2064
330
960
100
AcDbEntity
  8
0
  6
ByBlock
 62
     4
100
AcDbLine
 10
3516.502629141135
 20
7321.799787121851
 30
0.0
 11
2942.832977941529
 21
7321.799787121851
 31
0.0
  0
LINE
  5
2065
330
960
100
AcDbEntity
  8
0
  6
ByBlock
 62
     4
100
AcDbLine
 10
2982.832977941529
 20
7956.099787121854
 30
0.0
 11
2982.832977941529
 21
7321.799787121851
 31
0.0
  0
MTEXT
  5
2066
330
960
100
AcDbEntity
  8
0
  6
ByBlock
 62
     7
100
AcDbMText
 10
2881.356760347422
 20
7530.32649886384
 30
0.0
 40
120.0
 41
0.0
 71
     5
 72
     1
  1
\A1;634.3
 11
0.0000000000000001
 21
1.0
 31
0.0
 73
     1
 44
1.0
1001
ACAD
1000
MTEXTBEGIN
1070
    73
1070
     1
1070
    44
1040
1.0
1070
    74
1070
     0
1000
MTEXTEND
  0
INSERT
  5
2067
330
960
100
AcDbEntity
  8
0
  6
ByBlock
 62
     4
100
AcDbBlockReference
  2
_DOTSMALL
 10
2982.832977941529
 20
7956.099787121854
 30
0.0
 41
100.0
 42
100.0
 43
100.0
 50
90.0
  0
INSERT
  5
2068
330
960
100
AcDbEntity
  8
0
  6
ByBlock
 62
     4
100
AcDbBlockReference
  2
_DOTSMALL
 10
2982.832977941529
 20
7321.799787121851
 30
0.0
 41
100.0
 42
100.0
 43
100.0
 50
270.0
  0
POINT
  5
2069
330
960
100
AcDbEntity
  8
DEFPOINTS
  6
ByBlock
 62
     0
100
AcDbPoint
 10
3556.502629141134
 20
7956.099787121854
 30
0.0
  0
POINT
  5
206A
330
960
100
AcDbEntity
  8
DEFPOINTS
  6
ByBlock
 62
     0
100
AcDbPoint
 10
3556.502629141134
 20
7321.799787121851
 30
0.0
  0
POINT
  5
206B
330
960
100
AcDbEntity
  8
DEFPOINTS
  6
ByBlock
 62
     0
100
AcDbPoint
 10
2982.832977941529
 20
7321.799787121851
 30
0.0
  0
ENDBLK
  5
206C
330
960
100
AcDbEntity
  8
0
100
AcDbBlockEnd
  0
BLOCK
  5
1710
330
96C
100
AcDbEntity
  8
0
100
AcDbBlockBegin
  2
*D6
 70
     1
 10
0.0
 20
0.0
 30
0.0
  3
*D6
  1

  0
LINE
  5
1711
330
96C
100
AcDbEntity
  8
0
  6
ByBlock
 62
     4
100
AcDbLine
 10
3516.502629141135
 20
6687.499787121852
 30
0.0
 11
2942.832977941529
 21
6687.499787121852
 31
0.0
  0
LINE
  5
1712
330
96C
100
AcDbEntity
  8
0
  6
ByBlock
 62
     4
100
AcDbLine
 10
2982.832977941529
 20
7321.799787121851
 30
0.0
 11
2982.832977941529
 21
6687.499787121852
 31
0.0
  0
INSERT
  5
1713
330
96C
100
AcDbEntity
  8
0
  6
ByBlock
 62
     4
100
AcDbBlockReference
  2
_DOTSMALL
 10
2982.832977941529
 20
7321.799787121851
 30
0.0
 41
100.0
 42
100.0
 43
100.0
 50
90.0
  0
INSERT
  5
1714
330
96C
100
AcDbEntity
  8
0
  6
ByBlock
 62
     4
100
AcDbBlockReference
  2
_DOTSMALL
 10
2982.832977941529
 20
6687.499787121852
 30
0.0
 41
100.0
 42
100.0
 43
100.0
 50
270.0
  0
MTEXT
  5
1715
330
96C
100
AcDbEntity
  8
0
  6
ByBlock
 62
     7
100
AcDbMText
 10
2882.832977941529
 20
7004.649787121852
 30
0.0
 40
120.0
 41
0.0
 71
     5
 72
     1
  1
\A1;634.3
 11
0.0000000000000001
 21
1.0
 31
0.0
 73
     1
 44
1.0
1001
ACAD
1000
MTEXTBEGIN
1070
    73
1070
     1
1070
    44
1040
1.0
1070
    74
1070
     0
1000
MTEXTEND
  0
POINT
  5
1716
330
96C
100
AcDbEntity
  8
DEFPOINTS
  6
ByBlock
 62
     0
100
AcDbPoint
 10
3556.502629141134
 20
7321.799787121851
 30
0.0
  0
POINT
  5
1717
330
96C
100
AcDbEntity
  8
DEFPOINTS
  6
ByBlock
 62
     0
100
AcDbPoint
 10
3556.502629141134
 20
6687.499787121852
 30
0.0
  0
POINT
  5
1718
330
96C
100
AcDbEntity
  8
DEFPOINTS
  6
ByBlock
 62
     0
100
AcDbPoint
 10
2982.832977941529
 20
6687.499787121852
 30
0.0
  0
ENDBLK
  5
1719
330
96C
100
AcDbEntity
  8
0
100
AcDbBlockEnd
  0
BLOCK
  5
171A
330
978
100
AcDbEntity
  8
0
100
AcDbBlockBegin
  2
*D7
 70
     1
 10
0.0
 20
0.0
 30
0.0
  3
*D7
  1

  0
LINE
  5
171B
330
978
100
AcDbEntity
  8
0
  6
ByBlock
 62
     4
100
AcDbLine
 10
3516.502629141135
 20
6053.199787121851
 30
0.0
 11
2942.832977941529
 21
6053.199787121851
 31
0.0
  0
LINE
  5
171C
330
978
100
AcDbEntity
  8
0
  6
ByBlock
 62
     4
100
AcDbLine
 10
2982.832977941529
 20
6687.499787121852
 30
0.0
 11
2982.832977941529
 21
6053.199787121851
 31
0.0
  0
INSERT
  5
171D
330
978
100
AcDbEntity
  8
0
  6
ByBlock
 62
     4
100
AcDbBlockReference
  2
_DOTSMALL
 10
2982.832977941529
 20
6687.499787121852
 30
0.0
 41
100.0
 42
100.0
 43
100.0
 50
90.0
  0
INSERT
  5
171E
330
978
100
AcDbEntity
  8
0
  6
ByBlock
 62
     4
100
AcDbBlockReference
  2
_DOTSMALL
 10
2982.832977941529
 20
6053.199787121851
 30
0.0
 41
100.0
 42
100.0
 43
100.0
 50
270.0
  0
MTEXT
  5
171F
330
978
100
AcDbEntity
  8
0
  6
ByBlock
 62
     7
100
AcDbMText
 10
2882.832977941529
 20
6370.349787121852
 30
0.0
 40
120.0
 41
0.0
 71
     5
 72
     1
  1
\A1;634.3
 11
0.0000000000000001
 21
1.0
 31
0.0
 73
     1
 44
1.0
1001
ACAD
1000
MTEXTBEGIN
1070
    73
1070
     1
1070
    44
1040
1.0
1070
    74
1070
     0
1000
MTEXTEND
  0
POINT
  5
1720
330
978
100
AcDbEntity
  8
DEFPOINTS
  6
ByBlock
 62
     0
100
AcDbPoint
 10
3556.502629141134
 20
6687.499787121852
 30
0.0
  0
POINT
  5
1721
330
978
100
AcDbEntity
  8
DEFPOINTS
  6
ByBlock
 62
     0
100
AcDbPoint
 10
3556.502629141134
 20
6053.199787121851
 30
0.0
  0
POINT
  5
1722
330
978
100
AcDbEntity
  8
DEFPOINTS
  6
ByBlock
 62
     0
100
AcDbPoint
 10
2982.832977941529
 20
6053.199787121851
 30
0.0
  0
ENDBLK
  5
1723
330
978
100
AcDbEntity
  8
0
100
AcDbBlockEnd
  0
BLOCK
  5
179F
330
984
100
AcDbEntity
  8
0
100
AcDbBlockBegin
  2
*D8
 70
     1
 10
0.0
 20
0.0
 30
0.0
  3
*D8
  1

  0
LINE
  5
17A0
330
984
100
AcDbEntity
  8
0
  6
ByBlock
 62
     4
100
AcDbLine
 10
3526.502629141134
 20
5816.199787121852
 30
0.0
 11
2942.832977941529
 21
5816.199787121852
 31
0.0
  0
LINE
  5
17A1
330
984
100
AcDbEntity
  8
0
  6
ByBlock
 62
     4
100
AcDbLine
 10
2982.832977941529
 20
6053.199787121851
 30
0.0
 11
2982.832977941529
 21
5816.199787121852
 31
0.0
  0
MTEXT
  5
17A2
330
984
100
AcDbEntity
  8
0
  6
ByBlock
 62
     7
100
AcDbMText
 10
2882.112392655298
 20
5934.699787121852
 30
0.0
 40
120.0
 41
0.0
 71
     5
 72
     1
  1
\A1;237
 11
0.0000000000000001
 21
1.0
 31
0.0
 73
     1
 44
1.0
1001
ACAD
1000
MTEXTBEGIN
1070
    73
1070
     1
1070
    44
1040
1.0
1070
    74
1070
     0
1000
MTEXTEND
  0
INSERT
  5
17A3
330
984
100
AcDbEntity
  8
0
  6
ByBlock
 62
     4
100
AcDbBlockReference
  2
_DOTSMALL
 10
2982.832977941529
 20
6053.199787121851
 30
0.0
 41
100.0
 42
100.0
 43
100.0
 50
90.0
  0
INSERT
  5
17A4
330
984
100
AcDbEntity
  8
0
  6
ByBlock
 62
     4
100
AcDbBlockReference
  2
_DOTSMALL
 10
2982.832977941529
 20
5816.199787121852
 30
0.0
 41
100.0
 42
100.0
 43
100.0
 50
270.0
  0
POINT
  5
17A5
330
984
100
AcDbEntity
  8
DEFPOINTS
  6
ByBlock
 62
     0
100
AcDbPoint
 10
3556.502629141134
 20
6053.199787121851
 30
0.0
  0
POINT
  5
17A6
330
984
100
AcDbEntity
  8
DEFPOINTS
  6
ByBlock
 62
     0
100
AcDbPoint
 10
3566.502629141135
 20
5816.199787121852
 30
0.0
  0
POINT
  5
17A7
330
984
100
AcDbEntity
  8
DEFPOINTS
  6
ByBlock
 62
     0
100
AcDbPoint
 10
2982.832977941529
 20
5816.199787121852
 30
0.0
  0
ENDBLK
  5
17A8
330
984
100
AcDbEntity
  8
0
100
AcDbBlockEnd
  0
BLOCK
  5
16C4
330
992
100
AcDbEntity
  8
0
100
AcDbBlockBegin
  2
*D9
 70
     1
 10
0.0
 20
0.0
 30
0.0
  3
*D9
  1

  0
LINE
  5
16C5
330
992
100
AcDbEntity
  8
0
  6
ByBlock
 62
     4
100
AcDbLine
 10
3526.502629141134
 20
10616.19978712185
 30
0.0
 11
2467.384806540882
 21
10616.19978712185
 31
0.0
  0
LINE
  5
16C6
330
992
100
AcDbEntity
  8
0
  6
ByBlock
 62
     4
100
AcDbLine
 10
3526.502629141134
 20
5816.199787121852
 30
0.0
 11
2467.384806540882
 21
5816.199787121852
 31
0.0
  0
LINE
  5
16C7
330
992
100
AcDbEntity
  8
0
  6
ByBlock
 62
     4
100
AcDbLine
 10
2507.384806540882
 20
10616.19978712185
 30
0.0
 11
2507.384806540882
 21
5816.199787121852
 31
0.0
  0
INSERT
  5
16C8
330
992
100
AcDbEntity
  8
0
  6
ByBlock
 62
     4
100
AcDbBlockReference
  2
_DOTSMALL
 10
2507.384806540882
 20
10616.19978712185
 30
0.0
 41
100.0
 42
100.0
 43
100.0
 50
90.0
  0
INSERT
  5
16C9
330
992
100
AcDbEntity
  8
0
  6
ByBlock
 62
     4
100
AcDbBlockReference
  2
_DOTSMALL
 10
2507.384806540882
 20
5816.199787121852
 30
0.0
 41
100.0
 42
100.0
 43
100.0
 50
270.0
  0
MTEXT
  5
16CA
330
992
100
AcDbEntity
  8
0
  6
ByBlock
 62
     7
100
AcDbMText
 10
2407.384806540882
 20
8216.199787121851
 30
0.0
 40
120.0
 41
0.0
 71
     5
 72
     1
  1
\A1;4800
 11
0.0000000000000001
 21
1.0
 31
0.0
 73
     1
 44
1.0
1001
ACAD
1000
MTEXTBEGIN
1070
    73
1070
     1
1070
    44
1040
1.0
1070
    74
1070
     0
1000
MTEXTEND
  0
POINT
  5
16CB
330
992
100
AcDbEntity
  8
DEFPOINTS
  6
ByBlock
 62
     0
100
AcDbPoint
 10
3566.502629141135
 20
10616.19978712185
 30
0.0
  0
POINT
  5
16CC
330
992
100
AcDbEntity
  8
DEFPOINTS
  6
ByBlock
 62
     0
100
AcDbPoint
 10
3566.502629141135
 20
5816.199787121852
 30
0.0
  0
POINT
  5
16CD
330
992
100
AcDbEntity
  8
DEFPOINTS
  6
ByBlock
 62
     0
100
AcDbPoint
 10
2507.384806540882
 20
5816.199787121852
 30
0.0
  0
ENDBLK
  5
16CE
330
992
100
AcDbEntity
  8
0
100
AcDbBlockEnd
  0
BLOCK
  5
16F1
330
99F
100
AcDbEntity
  8
0
100
AcDbBlockBegin
  2
*D10
 70
     1
 10
0.0
 20
0.0
 30
0.0
  3
*D10
  1

  0
LINE
  5
16F2
330
99F
100
AcDbEntity
  8
0
  6
ByBlock
 62
     4
100
AcDbLine
 10
6431.502629141133
 20
10546.19978712185
 30
0.0
 11
7091.955552328254
 21
10546.19978712185
 31
0.0
  0
LINE
  5
16F3
330
99F
100
AcDbEntity
  8
0
  6
ByBlock
 62
     4
100
AcDbLine
 10
6431.502629141133
 20
8251.199787121853
 30
0.0
 11
7091.955552328254
 21
8251.199787121853
 31
0.0
  0
LINE
  5
16F4
330
99F
100
AcDbEntity
  8
0
  6
ByBlock
 62
     4
100
AcDbLine
 10
7051.955552328255
 20
10546.19978712185
 30
0.0
 11
7051.955552328255
 21
8251.199787121853
 31
0.0
  0
INSERT
  5
16F5
330
99F
100
AcDbEntity
  8
0
  6
ByBlock
 62
     4
100
AcDbBlockReference
  2
_DOTSMALL
 10
7051.955552328255
 20
10546.19978712185
 30
0.0
 41
100.0
 42
100.0
 43
100.0
 50
90.0
  0
INSERT
  5
16F6
330
99F
100
AcDbEntity
  8
0
  6
ByBlock
 62
     4
100
AcDbBlockReference
  2
_DOTSMALL
 10
7051.955552328255
 20
8251.199787121853
 30
0.0
 41
100.0
 42
100.0
 43
100.0
 50
270.0
  0
MTEXT
  5
16F7
330
99F
100
AcDbEntity
  8
0
  6
ByBlock
 62
     7
100
AcDbMText
 10
6951.943741304633
 20
9398.699787121852
 30
0.0
 40
120.0
 41
0.0
 71
     5
 72
     1
  1
\A1;2295
 11
0.0000000000000001
 21
1.0
 31
0.0
 73
     1
 44
1.0
1001
ACAD
1000
MTEXTBEGIN
1070
    73
1070
     1
1070
    44
1040
1.0
1070
    74
1070
     0
1000
MTEXTEND
  0
POINT
  5
16F8
330
99F
100
AcDbEntity
  8
DEFPOINTS
  6
ByBlock
 62
     0
100
AcDbPoint
 10
6391.502629141132
 20
10546.19978712185
 30
0.0
  0
POINT
  5
16F9
330
99F
100
AcDbEntity
  8
DEFPOINTS
  6
ByBlock
 62
     0
100
AcDbPoint
 10
6391.502629141132
 20
8251.199787121853
 30
0.0
  0
POINT
  5
16FA
330
99F
100
AcDbEntity
  8
DEFPOINTS
  6
ByBlock
 62
     0
100
AcDbPoint
 10
7051.955552328255
 20
8251.199787121853
 30
0.0
  0
ENDBLK
  5
16FB
330
99F
100
AcDbEntity
  8
0
100
AcDbBlockEnd
  0
BLOCK
  5
16E5
330
9AC
100
AcDbEntity
  8
0
100
AcDbBlockBegin
  2
*D11
 70
     1
 10
0.0
 20
0.0
 30
0.0
  3
*D11
  1

  0
LINE
  5
16E6
330
9AC
100
AcDbEntity
  8
0
  6
ByBlock
 62
     4
100
AcDbLine
 10
6431.502629141134
 20
8181.199787121853
 30
0.0
 11
7091.955552328254
 21
8181.199787121853
 31
0.0
  0
LINE
  5
16E7
330
9AC
100
AcDbEntity
  8
0
  6
ByBlock
 62
     4
100
AcDbLine
 10
7051.955552328255
 20
8251.199787121853
 30
0.0
 11
7051.955552328255
 21
8351.199787121855
 31
0.0
  0
LINE
  5
16E8
330
9AC
100
AcDbEntity
  8
0
  6
ByBlock
 62
     4
100
AcDbLine
 10
7051.955552328255
 20
8181.199787121853
 30
0.0
 11
7051.955552328255
 21
8081.199787121851
 31
0.0
  0
MTEXT
  5
16E9
330
9AC
100
AcDbEntity
  8
0
  6
ByBlock
 62
     7
100
AcDbMText
 10
7211.955552328254
 20
8216.199787121853
 30
0.0
 40
120.0
 41
0.0
 71
     5
 72
     1
  1
\A1;70
 11
0.0000000000000001
 21
1.0
 31
0.0
 73
     1
 44
1.0
1001
ACAD
1000
MTEXTBEGIN
1070
    73
1070
     1
1070
    44
1040
1.0
1070
    74
1070
     0
1000
MTEXTEND
  0
LINE
  5
16EA
330
9AC
100
AcDbEntity
  8
0
  6
ByBlock
 62
     4
100
AcDbLine
 10
7051.955552328255
 20
8251.199787121853
 30
0.0
 11
7051.955552328255
 21
8181.199787121853
 31
0.0
  0
INSERT
  5
16EB
330
9AC
100
AcDbEntity
  8
0
  6
ByBlock
 62
     4
100
AcDbBlockReference
  2
_DOTSMALL
 10
7051.955552328255
 20
8251.199787121853
 30
0.0
 41
100.0
 42
100.0
 43
100.0
 50
270.0
  0
INSERT
  5
16EC
330
9AC
100
AcDbEntity
  8
0
  6
ByBlock
 62
     4
100
AcDbBlockReference
  2
_DOTSMALL
 10
7051.955552328255
 20
8181.199787121853
 30
0.0
 41
100.0
 42
100.0
 43
100.0
 50
90.0
  0
POINT
  5
16ED
330
9AC
100
AcDbEntity
  8
DEFPOINTS
  6
ByBlock
 62
     0
100
AcDbPoint
 10
6391.502629141132
 20
8251.199787121853
 30
0.0
  0
POINT
  5
16EE
330
9AC
100
AcDbEntity
  8
DEFPOINTS
  6
ByBlock
 62
     0
100
AcDbPoint
 10
6391.502629141134
 20
8181.199787121853
 30
0.0
  0
POINT
  5
16EF
330
9AC
100
AcDbEntity
  8
DEFPOINTS
  6
ByBlock
 62
     0
100
AcDbPoint
 10
7051.955552328255
 20
8181.199787121853
 30
0.0
  0
ENDBLK
  5
16F0
330
9AC
100
AcDbEntity
  8
0
100
AcDbBlockEnd
  0
BLOCK
  5
16BA
330
9BA
100
AcDbEntity
  8
0
100
AcDbBlockBegin
  2
*D12
 70
     1
 10
0.0
 20
0.0
 30
0.0
  3
*D12
  1

  0
LINE
  5
16BB
330
9BA
100
AcDbEntity
  8
0
  6
ByBlock
 62
     4
100
AcDbLine
 10
6431.502629141133
 20
5886.199787121853
 30
0.0
 11
7091.955552328254
 21
5886.199787121853
 31
0.0
  0
LINE
  5
16BC
330
9BA
100
AcDbEntity
  8
0
  6
ByBlock
 62
     4
100
AcDbLine
 10
7051.955552328255
 20
8181.199787121853
 30
0.0
 11
7051.955552328255
 21
5886.199787121853
 31
0.0
  0
INSERT
  5
16BD
330
9BA
100
AcDbEntity
  8
0
  6
ByBlock
 62
     4
100
AcDbBlockReference
  2
_DOTSMALL
 10
7051.955552328255
 20
8181.199787121853
 30
0.0
 41
100.0
 42
100.0
 43
100.0
 50
90.0
  0
INSERT
  5
16BE
330
9BA
100
AcDbEntity
  8
0
  6
ByBlock
 62
     4
100
AcDbBlockReference
  2
_DOTSMALL
 10
7051.955552328255
 20
5886.199787121853
 30
0.0
 41
100.0
 42
100.0
 43
100.0
 50
270.0
  0
MTEXT
  5
16BF
330
9BA
100
AcDbEntity
  8
0
  6
ByBlock
 62
     7
100
AcDbMText
 10
6951.943741304633
 20
7033.699787121854
 30
0.0
 40
120.0
 41
0.0
 71
     5
 72
     1
  1
\A1;2295
 11
0.0000000000000001
 21
1.0
 31
0.0
 73
     1
 44
1.0
1001
ACAD
1000
MTEXTBEGIN
1070
    73
1070
     1
1070
    44
1040
1.0
1070
    74
1070
     0
1000
MTEXTEND
  0
POINT
  5
16C0
330
9BA
100
AcDbEntity
  8
DEFPOINTS
  6
ByBlock
 62
     0
100
AcDbPoint
 10
6391.502629141134
 20
8181.199787121853
 30
0.0
  0
POINT
  5
16C1
330
9BA
100
AcDbEntity
  8
DEFPOINTS
  6
ByBlock
 62
     0
100
AcDbPoint
 10
6391.502629141132
 20
5886.199787121853
 30
0.0
  0
POINT
  5
16C2
330
9BA
100
AcDbEntity
  8
DEFPOINTS
  6
ByBlock
 62
     0
100
AcDbPoint
 10
7051.955552328255
 20
5886.199787121853
 30
0.0
  0
ENDBLK
  5
16C3
330
9BA
100
AcDbEntity
  8
0
100
AcDbBlockEnd
  0
BLOCK
  5
207C
330
9C6
100
AcDbEntity
  8
0
100
AcDbBlockBegin
  2
*D13
 70
     1
 10
0.0
 20
0.0
 30
0.0
  3
*D13
  1

  0
LINE
  5
207D
330
9C6
100
AcDbEntity
  8
0
  6
ByBlock
 62
     4
100
AcDbLine
 10
6466.502629141134
 20
5816.199787121851
 30
0.0
 11
7091.955552328254
 21
5816.199787121851
 31
0.0
  0
LINE
  5
207E
330
9C6
100
AcDbEntity
  8
0
  6
ByBlock
 62
     4
100
AcDbLine
 10
7051.955552328255
 20
5886.199787121853
 30
0.0
 11
7051.955552328255
 21
5986.199787121853
 31
0.0
  0
LINE
  5
207F
330
9C6
100
AcDbEntity
  8
0
  6
ByBlock
 62
     4
100
AcDbLine
 10
7051.955552328255
 20
5816.199787121851
 30
0.0
 11
7051.955552328255
 21
5716.199787121851
 31
0.0
  0
MTEXT
  5
2080
330
9C6
100
AcDbEntity
  8
0
  6
ByBlock
 62
     7
100
AcDbMText
 10
6972.389262674084
 20
5721.818795610772
 30
0.0
 40
120.0
 41
0.0
 71
     5
 72
     1
  1
\A1;70
 11
0.0000000000000001
 21
1.0
 31
0.0
 73
     1
 44
1.0
1001
ACAD
1000
MTEXTBEGIN
1070
    73
1070
     1
1070
    44
1040
1.0
1070
    74
1070
     0
1000
MTEXTEND
  0
LINE
  5
2081
330
9C6
100
AcDbEntity
  8
0
  6
ByBlock
 62
     4
100
AcDbLine
 10
7051.955552328255
 20
5886.199787121853
 30
0.0
 11
7051.955552328255
 21
5816.199787121851
 31
0.0
  0
INSERT
  5
2082
330
9C6
100
AcDbEntity
  8
0
  6
ByBlock
 62
     4
100
AcDbBlockReference
  2
_DOTSMALL
 10
7051.955552328255
 20
5886.199787121853
 30
0.0
 41
100.0
 42
100.0
 43
100.0
 50
270.0
  0
INSERT
  5
2083
330
9C6
100
AcDbEntity
  8
0
  6
ByBlock
 62
     4
100
AcDbBlockReference
  2
_DOTSMALL
 10
7051.955552328255
 20
5816.199787121851
 30
0.0
 41
100.0
 42
100.0
 43
100.0
 50
90.0
  0
POINT
  5
2084
330
9C6
100
AcDbEntity
  8
DEFPOINTS
  6
ByBlock
 62
     0
100
AcDbPoint
 10
6391.502629141132
 20
5886.199787121853
 30
0.0
  0
POINT
  5
2085
330
9C6
100
AcDbEntity
  8
DEFPOINTS
  6
ByBlock
 62
     0
100
AcDbPoint
 10
6426.502629141134
 20
5816.199787121851
 30
0.0
  0
POINT
  5
2086
330
9C6
100
AcDbEntity
  8
DEFPOINTS
  6
ByBlock
 62
     0
100
AcDbPoint
 10
7051.955552328255
 20
5816.199787121851
 30
0.0
  0
ENDBLK
  5
2087
330
9C6
100
AcDbEntity
  8
0
100
AcDbBlockEnd
  0
BLOCK
  5
206D
330
9DF
100
AcDbEntity
  8
0
100
AcDbBlockBegin
  2
*D14
 70
     1
 10
0.0
 20
0.0
 30
0.0
  3
*D14
  1

  0
LINE
  5
206E
330
9DF
100
AcDbEntity
  8
0
  6
ByBlock
 62
     4
100
AcDbLine
 10
6466.502629141134
 20
10616.19978712185
 30
0.0
 11
7091.955552328254
 21
10616.19978712185
 31
0.0
  0
LINE
  5
206F
330
9DF
100
AcDbEntity
  8
0
  6
ByBlock
 62
     4
100
AcDbLine
 10
7051.955552328255
 20
10546.19978712185
 30
0.0
 11
7051.955552328255
 21
10446.19978712185
 31
0.0
  0
LINE
  5
2070
330
9DF
100
AcDbEntity
  8
0
  6
ByBlock
 62
     4
100
AcDbLine
 10
7051.955552328255
 20
10616.19978712185
 30
0.0
 11
7051.955552328255
 21
10716.19978712185
 31
0.0
  0
MTEXT
  5
2071
330
9DF
100
AcDbEntity
  8
0
  6
ByBlock
 62
     7
100
AcDbMText
 10
6969.566637420678
 20
10725.51770519528
 30
0.0
 40
120.0
 41
0.0
 71
     5
 72
     1
  1
\A1;70
 11
0.0000000000000001
 21
1.0
 31
0.0
 73
     1
 44
1.0
1001
ACAD
1000
MTEXTBEGIN
1070
    73
1070
     1
1070
    44
1040
1.0
1070
    74
1070
     0
1000
MTEXTEND
  0
LINE
  5
2072
330
9DF
100
AcDbEntity
  8
0
  6
ByBlock
 62
     4
100
AcDbLine
 10
7051.955552328255
 20
10546.19978712185
 30
0.0
 11
7051.955552328255
 21
10616.19978712185
 31
0.0
  0
INSERT
  5
2073
330
9DF
100
AcDbEntity
  8
0
  6
ByBlock
 62
     4
100
AcDbBlockReference
  2
_DOTSMALL
 10
7051.955552328255
 20
10546.19978712185
 30
0.0
 41
100.0
 42
100.0
 43
100.0
 50
90.0
  0
INSERT
  5
2074
330
9DF
100
AcDbEntity
  8
0
  6
ByBlock
 62
     4
100
AcDbBlockReference
  2
_DOTSMALL
 10
7051.955552328255
 20
10616.19978712185
 30
0.0
 41
100.0
 42
100.0
 43
100.0
 50
270.0
  0
POINT
  5
2075
330
9DF
100
AcDbEntity
  8
DEFPOINTS
  6
ByBlock
 62
     0
100
AcDbPoint
 10
6391.502629141132
 20
10546.19978712185
 30
0.0
  0
POINT
  5
2076
330
9DF
100
AcDbEntity
  8
DEFPOINTS
  6
ByBlock
 62
     0
100
AcDbPoint
 10
6426.502629141133
 20
10616.19978712185
 30
0.0
  0
POINT
  5
2077
330
9DF
100
AcDbEntity
  8
DEFPOINTS
  6
ByBlock
 62
     0
100
AcDbPoint
 10
7051.955552328255
 20
10616.19978712185
 30
0.0
  0
ENDBLK
  5
2078
330
9DF
100
AcDbEntity
  8
0
100
AcDbBlockEnd
  0
BLOCK
  5
172E
330
A29
100
AcDbEntity
  8
0
100
AcDbBlockBegin
  2
*D15
 70
     1
 10
0.0
 20
0.0
 30
0.0
  3
*D15
  1

  0
LINE
  5
172F
330
A29
100
AcDbEntity
  8
0
  6
ByBlock
 62
     4
100
AcDbLine
 10
3516.502629141135
 20
7956.099787121854
 30
0.0
 11
2942.832977941529
 21
7956.099787121854
 31
0.0
  0
LINE
  5
1730
330
A29
100
AcDbEntity
  8
0
  6
ByBlock
 62
     4
100
AcDbLine
 10
2982.832977941529
 20
8216.199787121851
 30
0.0
 11
2982.832977941529
 21
7956.099787121854
 31
0.0
  0
MTEXT
  5
1731
330
A29
100
AcDbEntity
  8
0
  6
ByBlock
 62
     7
100
AcDbMText
 10
2822.821166917908
 20
7998.164696165517
 30
0.0
 40
120.0
 41
0.0
 71
     5
 72
     1
  1
\A1;260.1
 11
0.0000000000000001
 21
1.0
 31
0.0
 73
     1
 44
1.0
1001
ACAD
1000
MTEXTBEGIN
1070
    73
1070
     1
1070
    44
1040
1.0
1070
    74
1070
     0
1000
MTEXTEND
  0
INSERT
  5
1732
330
A29
100
AcDbEntity
  8
0
  6
ByBlock
 62
     4
100
AcDbBlockReference
  2
_DOTSMALL
 10
2982.832977941529
 20
8216.199787121851
 30
0.0
 41
100.0
 42
100.0
 43
100.0
 50
90.0
  0
INSERT
  5
1733
330
A29
100
AcDbEntity
  8
0
  6
ByBlock
 62
     4
100
AcDbBlockReference
  2
_DOTSMALL
 10
2982.832977941529
 20
7956.099787121854
 30
0.0
 41
100.0
 42
100.0
 43
100.0
 50
270.0
  0
POINT
  5
1734
330
A29
100
AcDbEntity
  8
DEFPOINTS
  6
ByBlock
 62
     0
100
AcDbPoint
 10
3556.502629141134
 20
8216.199787121851
 30
0.0
  0
POINT
  5
1735
330
A29
100
AcDbEntity
  8
DEFPOINTS
  6
ByBlock
 62
     0
100
AcDbPoint
 10
3556.502629141134
 20
7956.099787121854
 30
0.0
  0
POINT
  5
1736
330
A29
100
AcDbEntity
  8
DEFPOINTS
  6
ByBlock
 62
     0
100
AcDbPoint
 10
2982.832977941529
 20
7956.099787121854
 30
0.0
  0
ENDBLK
  5
1737
330
A29
100
AcDbEntity
  8
0
100
AcDbBlockEnd
  0
BLOCK
  5
15A3
330
B5E
100
AcDbEntity
  8
0
100
AcDbBlockBegin
  2
*D16
 70
     1
 10
0.0
 20
0.0
 30
0.0
  3
*D16
  1

  0
LINE
  5
15A4
330
B5E
100
AcDbEntity
  8
0
  6
ByBlock
 62
     4
100
AcDbLine
 10
13006.32755088103
 20
2299.894328662096
 30
0.0
 11
13523.45611201606
 21
2299.894328662096
 31
0.0
  0
LINE
  5
15A5
330
B5E
100
AcDbEntity
  8
0
  6
ByBlock
 62
     4
100
AcDbLine
 10
13455.59992105415
 20
2249.894328662096
 30
0.0
 11
13443.45611201606
 21
2249.894328662096
 31
0.0
  0
LINE
  5
15A6
330
B5E
100
AcDbEntity
  8
0
  6
ByBlock
 62
     4
100
AcDbLine
 10
13483.45611201606
 20
2299.894328662096
 30
0.0
 11
13483.45611201606
 21
2399.894328662096
 31
0.0
  0
LINE
  5
15A7
330
B5E
100
AcDbEntity
  8
0
  6
ByBlock
 62
     4
100
AcDbLine
 10
13483.45611201606
 20
2249.894328662096
 30
0.0
 11
13483.45611201606
 21
2149.894328662096
 31
0.0
  0
MTEXT
  5
15A8
330
B5E
100
AcDbEntity
  8
0
  6
ByBlock
 62
     7
100
AcDbMText
 10
13362.01802163522
 20
2430.297375140057
 30
0.0
 40
120.0
 41
0.0
 71
     5
 72
     1
  1
\A1;50
 11
0.0000000000000001
 21
1.0
 31
0.0
 73
     1
 44
1.0
1001
ACAD
1000
MTEXTBEGIN
1070
    73
1070
     1
1070
    44
1040
1.0
1070
    74
1070
     0
1000
MTEXTEND
  0
LINE
  5
15A9
330
B5E
100
AcDbEntity
  8
0
  6
ByBlock
 62
     4
100
AcDbLine
 10
13483.45611201606
 20
2299.894328662096
 30
0.0
 11
13483.45611201606
 21
2249.894328662096
 31
0.0
  0
INSERT
  5
15AA
330
B5E
100
AcDbEntity
  8
0
  6
ByBlock
 62
     4
100
AcDbBlockReference
  2
_DOTSMALL
 10
13483.45611201606
 20
2299.894328662096
 30
0.0
 41
100.0
 42
100.0
 43
100.0
 50
270.0
  0
INSERT
  5
15AB
330
B5E
100
AcDbEntity
  8
0
  6
ByBlock
 62
     4
100
AcDbBlockReference
  2
_DOTSMALL
 10
13483.45611201606
 20
2249.894328662096
 30
0.0
 41
100.0
 42
100.0
 43
100.0
 50
90.0
  0
POINT
  5
15AC
330
B5E
100
AcDbEntity
  8
DEFPOINTS
  6
ByBlock
 62
     0
100
AcDbPoint
 10
12966.32755088103
 20
2299.894328662096
 30
0.0
  0
POINT
  5
15AD
330
B5E
100
AcDbEntity
  8
DEFPOINTS
  6
ByBlock
 62
     0
100
AcDbPoint
 10
13495.59992105415
 20
2249.894328662096
 30
0.0
  0
POINT
  5
15AE
330
B5E
100
AcDbEntity
  8
DEFPOINTS
  6
ByBlock
 62
     0
100
AcDbPoint
 10
13483.45611201606
 20
2249.894328662096
 30
0.0
  0
ENDBLK
  5
15AF
330
B5E
100
AcDbEntity
  8
0
100
AcDbBlockEnd
  0
BLOCK
  5
15B0
330
B87
100
AcDbEntity
  8
0
100
AcDbBlockBegin
  2
*D17
 70
     1
 10
0.0
 20
0.0
 30
0.0
  3
*D17
  1

  0
LINE
  5
15B1
330
B87
100
AcDbEntity
  8
0
  6
ByBlock
 62
     4
100
AcDbLine
 10
8102.254670437178
 20
2249.894328662096
 30
0.0
 11
8118.354899444726
 21
2249.894328662096
 31
0.0
  0
LINE
  5
15B2
330
B87
100
AcDbEntity
  8
0
  6
ByBlock
 62
     4
100
AcDbLine
 10
8906.327550881036
 20
2499.894328662096
 30
0.0
 11
8038.354899444726
 21
2499.894328662096
 31
0.0
  0
LINE
  5
15B3
330
B87
100
AcDbEntity
  8
0
  6
ByBlock
 62
     4
100
AcDbLine
 10
8078.354899444727
 20
2249.894328662096
 30
0.0
 11
8078.354899444727
 21
2499.894328662096
 31
0.0
  0
MTEXT
  5
15B4
330
B87
100
AcDbEntity
  8
0
  6
ByBlock
 62
     7
100
AcDbMText
 10
7967.79826238547
 20
2374.894328662096
 30
0.0
 40
120.0
 41
0.0
 71
     5
 72
     1
  1
\A1;250
 11
0.0000000000000001
 21
1.0
 31
0.0
 73
     1
 44
1.0
1001
ACAD
1000
MTEXTBEGIN
1070
    73
1070
     1
1070
    44
1040
1.0
1070
    74
1070
     0
1000
MTEXTEND
  0
INSERT
  5
15B5
330
B87
100
AcDbEntity
  8
0
  6
ByBlock
 62
     4
100
AcDbBlockReference
  2
_DOTSMALL
 10
8078.354899444727
 20
2249.894328662096
 30
0.0
 41
100.0
 42
100.0
 43
100.0
 50
270.0
  0
INSERT
  5
15B6
330
B87
100
AcDbEntity
  8
0
  6
ByBlock
 62
     4
100
AcDbBlockReference
  2
_DOTSMALL
 10
8078.354899444727
 20
2499.894328662096
 30
0.0
 41
100.0
 42
100.0
 43
100.0
 50
90.0
  0
POINT
  5
15B7
330
B87
100
AcDbEntity
  8
DEFPOINTS
  6
ByBlock
 62
     0
100
AcDbPoint
 10
8062.254670437178
 20
2249.894328662096
 30
0.0
  0
POINT
  5
15B8
330
B87
100
AcDbEntity
  8
DEFPOINTS
  6
ByBlock
 62
     0
100
AcDbPoint
 10
8946.327550881035
 20
2499.894328662096
 30
0.0
  0
POINT
  5
15B9
330
B87
100
AcDbEntity
  8
DEFPOINTS
  6
ByBlock
 62
     0
100
AcDbPoint
 10
8078.354899444727
 20
2499.894328662096
 30
0.0
  0
ENDBLK
  5
15BA
330
B87
100
AcDbEntity
  8
0
100
AcDbBlockEnd
  0
BLOCK
  5
15BB
330
B96
100
AcDbEntity
  8
0
100
AcDbBlockBegin
  2
*D18
 70
     1
 10
0.0
 20
0.0
 30
0.0
  3
*D18
  1

  0
LINE
  5
15BC
330
B96
100
AcDbEntity
  8
0
  6
ByBlock
 62
     4
100
AcDbLine
 10
8906.327550881036
 20
3399.894328662096
 30
0.0
 11
8038.354899444726
 21
3399.894328662096
 31
0.0
  0
LINE
  5
15BD
330
B96
100
AcDbEntity
  8
0
  6
ByBlock
 62
     4
100
AcDbLine
 10
8078.354899444727
 20
2499.894328662096
 30
0.0
 11
8078.354899444727
 21
3399.894328662096
 31
0.0
  0
INSERT
  5
15BE
330
B96
100
AcDbEntity
  8
0
  6
ByBlock
 62
     4
100
AcDbBlockReference
  2
_DOTSMALL
 10
8078.354899444727
 20
2499.894328662096
 30
0.0
 41
100.0
 42
100.0
 43
100.0
 50
270.0
  0
INSERT
  5
15BF
330
B96
100
AcDbEntity
  8
0
  6
ByBlock
 62
     4
100
AcDbBlockReference
  2
_DOTSMALL
 10
8078.354899444727
 20
3399.894328662096
 30
0.0
 41
100.0
 42
100.0
 43
100.0
 50
90.0
  0
MTEXT
  5
15C0
330
B96
100
AcDbEntity
  8
0
  6
ByBlock
 62
     7
100
AcDbMText
 10
7978.354899444727
 20
2949.894328662096
 30
0.0
 40
120.0
 41
0.0
 71
     5
 72
     1
  1
\A1;900
 11
0.0000000000000001
 21
1.0
 31
0.0
 73
     1
 44
1.0
1001
ACAD
1000
MTEXTBEGIN
1070
    73
1070
     1
1070
    44
1040
1.0
1070
    74
1070
     0
1000
MTEXTEND
  0
POINT
  5
15C1
330
B96
100
AcDbEntity
  8
DEFPOINTS
  6
ByBlock
 62
     0
100
AcDbPoint
 10
8946.327550881035
 20
2499.894328662096
 30
0.0
  0
POINT
  5
15C2
330
B96
100
AcDbEntity
  8
DEFPOINTS
  6
ByBlock
 62
     0
100
AcDbPoint
 10
8946.327550881035
 20
3399.894328662096
 30
0.0
  0
POINT
  5
15C3
330
B96
100
AcDbEntity
  8
DEFPOINTS
  6
ByBlock
 62
     0
100
AcDbPoint
 10
8078.354899444727
 20
3399.894328662096
 30
0.0
  0
ENDBLK
  5
15C4
330
B96
100
AcDbEntity
  8
0
100
AcDbBlockEnd
  0
BLOCK
  5
15C5
330
C2B
100
AcDbEntity
  8
0
100
AcDbBlockBegin
  2
*D19
 70
     1
 10
0.0
 20
0.0
 30
0.0
  3
*D19
  1

  0
LINE
  5
15C6
330
C2B
100
AcDbEntity
  8
0
  6
ByBlock
 62
     4
100
AcDbLine
 10
6128.08479127592
 20
1979.894328662096
 30
0.0
 11
6594.602443373151
 21
1979.894328662096
 31
0.0
  0
LINE
  5
15C7
330
C2B
100
AcDbEntity
  8
0
  6
ByBlock
 62
     4
100
AcDbLine
 10
6728.266128291223
 20
2249.894328662096
 30
0.0
 11
6514.602443373151
 21
2249.894328662096
 31
0.0
  0
LINE
  5
15C8
330
C2B
100
AcDbEntity
  8
0
  6
ByBlock
 62
     4
100
AcDbLine
 10
6554.60244337315
 20
1979.894328662096
 30
0.0
 11
6554.60244337315
 21
2249.894328662096
 31
0.0
  0
MTEXT
  5
15C9
330
C2B
100
AcDbEntity
  8
0
  6
ByBlock
 62
     7
100
AcDbMText
 10
6394.59063234953
 20
2114.894328662096
 30
0.0
 40
120.0
 41
0.0
 71
     5
 72
     1
  1
\A1;270
 11
0.0000000000000001
 21
1.0
 31
0.0
 73
     1
 44
1.0
1001
ACAD
1000
MTEXTBEGIN
1070
    73
1070
     1
1070
    44
1040
1.0
1070
    74
1070
     0
1000
MTEXTEND
  0
INSERT
  5
15CA
330
C2B
100
AcDbEntity
  8
0
  6
ByBlock
 62
     4
100
AcDbBlockReference
  2
_DOTSMALL
 10
6554.60244337315
 20
1979.894328662096
 30
0.0
 41
100.0
 42
100.0
 43
100.0
 50
270.0
  0
INSERT
  5
15CB
330
C2B
100
AcDbEntity
  8
0
  6
ByBlock
 62
     4
100
AcDbBlockReference
  2
_DOTSMALL
 10
6554.60244337315
 20
2249.894328662096
 30
0.0
 41
100.0
 42
100.0
 43
100.0
 50
90.0
  0
POINT
  5
15CC
330
C2B
100
AcDbEntity
  8
DEFPOINTS
  6
ByBlock
 62
     0
100
AcDbPoint
 10
6088.08479127592
 20
1979.894328662096
 30
0.0
  0
POINT
  5
15CD
330
C2B
100
AcDbEntity
  8
DEFPOINTS
  6
ByBlock
 62
     0
100
AcDbPoint
 10
6768.266128291223
 20
2249.894328662096
 30
0.0
  0
POINT
  5
15CE
330
C2B
100
AcDbEntity
  8
DEFPOINTS
  6
ByBlock
 62
     0
100
AcDbPoint
 10
6554.60244337315
 20
2249.894328662096
 30
0.0
  0
ENDBLK
  5
15CF
330
C2B
100
AcDbEntity
  8
0
100
AcDbBlockEnd
  0
BLOCK
  5
15D0
330
12EE
100
AcDbEntity
  8
0
100
AcDbBlockBegin
  2
*D20
 70
     1
 10
0.0
 20
0.0
 30
0.0
  3
*D20
  1

  0
LINE
  5
15D1
330
12EE
100
AcDbEntity
  8
0
  6
ByBlock
 62
     4
100
AcDbLine
 10
3428.08479127592
 20
4400.894328662096
 30
0.0
 11
3428.08479127592
 21
4717.110116486521
 31
0.0
  0
LINE
  5
15D2
330
12EE
100
AcDbEntity
  8
0
  6
ByBlock
 62
     4
100
AcDbLine
 10
3678.08479127592
 20
4372.209710363466
 30
0.0
 11
3678.08479127592
 21
4717.110116486521
 31
0.0
  0
LINE
  5
15D3
330
12EE
100
AcDbEntity
  8
0
  6
ByBlock
 62
     4
100
AcDbLine
 10
3428.08479127592
 20
4677.110116486521
 30
0.0
 11
3678.08479127592
 21
4677.110116486521
 31
0.0
  0
MTEXT
  5
15D4
330
12EE
100
AcDbEntity
  8
0
  6
ByBlock
 62
     7
100
AcDbMText
 10
3559.01268241991
 20
4787.02060836555
 30
0.0
 40
120.0
 41
0.0
 71
     5
 72
     1
  1
\A1;250
 73
     1
 44
1.0
1001
ACAD
1000
MTEXTBEGIN
1070
    73
1070
     1
1070
    44
1040
1.0
1070
    74
1070
     0
1000
MTEXTEND
  0
INSERT
  5
15D5
330
12EE
100
AcDbEntity
  8
0
  6
ByBlock
 62
     4
100
AcDbBlockReference
  2
_DOTSMALL
 10
3428.08479127592
 20
4677.110116486521
 30
0.0
 41
100.0
 42
100.0
 43
100.0
 50
180.0
  0
INSERT
  5
15D6
330
12EE
100
AcDbEntity
  8
0
  6
ByBlock
 62
     4
100
AcDbBlockReference
  2
_DOTSMALL
 10
3678.08479127592
 20
4677.110116486521
 30
0.0
 41
100.0
 42
100.0
 43
100.0
  0
POINT
  5
15D7
330
12EE
100
AcDbEntity
  8
DEFPOINTS
  6
ByBlock
 62
     0
100
AcDbPoint
 10
3428.08479127592
 20
4360.894328662096
 30
0.0
  0
POINT
  5
15D8
330
12EE
100
AcDbEntity
  8
DEFPOINTS
  6
ByBlock
 62
     0
100
AcDbPoint
 10
3678.08479127592
 20
4332.209710363466
 30
0.0
  0
POINT
  5
15D9
330
12EE
100
AcDbEntity
  8
DEFPOINTS
  6
ByBlock
 62
     0
100
AcDbPoint
 10
3678.08479127592
 20
4677.110116486521
 30
0.0
  0
ENDBLK
  5
15DA
330
12EE
100
AcDbEntity
  8
0
100
AcDbBlockEnd
  0
BLOCK
  5
15DB
330
12FD
100
AcDbEntity
  8
0
100
AcDbBlockBegin
  2
*D21
 70
     1
 10
0.0
 20
0.0
 30
0.0
  3
*D21
  1

  0
LINE
  5
15DC
330
12FD
100
AcDbEntity
  8
0
  6
ByBlock
 62
     4
100
AcDbLine
 10
6058.08479127592
 20
4372.209710363466
 30
0.0
 11
6058.08479127592
 21
4717.110116486521
 31
0.0
  0
LINE
  5
15DD
330
12FD
100
AcDbEntity
  8
0
  6
ByBlock
 62
     4
100
AcDbLine
 10
3678.08479127592
 20
4677.110116486521
 30
0.0
 11
6058.08479127592
 21
4677.110116486521
 31
0.0
  0
INSERT
  5
15DE
330
12FD
100
AcDbEntity
  8
0
  6
ByBlock
 62
     4
100
AcDbBlockReference
  2
_DOTSMALL
 10
3678.08479127592
 20
4677.110116486521
 30
0.0
 41
100.0
 42
100.0
 43
100.0
 50
180.0
  0
INSERT
  5
15DF
330
12FD
100
AcDbEntity
  8
0
  6
ByBlock
 62
     4
100
AcDbBlockReference
  2
_DOTSMALL
 10
6058.08479127592
 20
4677.110116486521
 30
0.0
 41
100.0
 42
100.0
 43
100.0
  0
MTEXT
  5
15E0
330
12FD
100
AcDbEntity
  8
0
  6
ByBlock
 62
     7
100
AcDbMText
 10
4868.084791275919
 20
4777.121927510143
 30
0.0
 40
120.0
 41
0.0
 71
     5
 72
     1
  1
\A1;2380
 73
     1
 44
1.0
1001
ACAD
1000
MTEXTBEGIN
1070
    73
1070
     1
1070
    44
1040
1.0
1070
    74
1070
     0
1000
MTEXTEND
  0
POINT
  5
15E1
330
12FD
100
AcDbEntity
  8
DEFPOINTS
  6
ByBlock
 62
     0
100
AcDbPoint
 10
3678.08479127592
 20
4332.209710363466
 30
0.0
  0
POINT
  5
15E2
330
12FD
100
AcDbEntity
  8
DEFPOINTS
  6
ByBlock
 62
     0
100
AcDbPoint
 10
6058.08479127592
 20
4332.209710363466
 30
0.0
  0
POINT
  5
15E3
330
12FD
100
AcDbEntity
  8
DEFPOINTS
  6
ByBlock
 62
     0
100
AcDbPoint
 10
6058.08479127592
 20
4677.110116486521
 30
0.0
  0
ENDBLK
  5
15E4
330
12FD
100
AcDbEntity
  8
0
100
AcDbBlockEnd
  0
BLOCK
  5
15E5
330
1309
100
AcDbEntity
  8
0
100
AcDbBlockBegin
  2
*D22
 70
     1
 10
0.0
 20
0.0
 30
0.0
  3
*D22
  1

  0
LINE
  5
15E6
330
1309
100
AcDbEntity
  8
0
  6
ByBlock
 62
     4
100
AcDbLine
 10
6308.08479127592
 20
4400.894328662096
 30
0.0
 11
6308.08479127592
 21
4717.110116486521
 31
0.0
  0
LINE
  5
15E7
330
1309
100
AcDbEntity
  8
0
  6
ByBlock
 62
     4
100
AcDbLine
 10
6058.08479127592
 20
4677.110116486521
 30
0.0
 11
6308.08479127592
 21
4677.110116486521
 31
0.0
  0
MTEXT
  5
15E8
330
1309
100
AcDbEntity
  8
0
  6
ByBlock
 62
     7
100
AcDbMText
 10
6169.820471908192
 20
4805.110519351536
 30
0.0
 40
120.0
 41
0.0
 71
     5
 72
     1
  1
\A1;250
 73
     1
 44
1.0
1001
ACAD
1000
MTEXTBEGIN
1070
    73
1070
     1
1070
    44
1040
1.0
1070
    74
1070
     0
1000
MTEXTEND
  0
INSERT
  5
15E9
330
1309
100
AcDbEntity
  8
0
  6
ByBlock
 62
     4
100
AcDbBlockReference
  2
_DOTSMALL
 10
6058.08479127592
 20
4677.110116486521
 30
0.0
 41
100.0
 42
100.0
 43
100.0
 50
180.0
  0
INSERT
  5
15EA
330
1309
100
AcDbEntity
  8
0
  6
ByBlock
 62
     4
100
AcDbBlockReference
  2
_DOTSMALL
 10
6308.08479127592
 20
4677.110116486521
 30
0.0
 41
100.0
 42
100.0
 43
100.0
  0
POINT
  5
15EB
330
1309
100
AcDbEntity
  8
DEFPOINTS
  6
ByBlock
 62
     0
100
AcDbPoint
 10
6058.08479127592
 20
4332.209710363466
 30
0.0
  0
POINT
  5
15EC
330
1309
100
AcDbEntity
  8
DEFPOINTS
  6
ByBlock
 62
     0
100
AcDbPoint
 10
6308.08479127592
 20
4360.894328662096
 30
0.0
  0
POINT
  5
15ED
330
1309
100
AcDbEntity
  8
DEFPOINTS
  6
ByBlock
 62
     0
100
AcDbPoint
 10
6308.08479127592
 20
4677.110116486521
 30
0.0
  0
ENDBLK
  5
15EE
330
1309
100
AcDbEntity
  8
0
100
AcDbBlockEnd
  0
BLOCK
  5
15EF
330
133A
100
AcDbEntity
  8
0
100
AcDbBlockBegin
  2
*D23
 70
     1
 10
0.0
 20
0.0
 30
0.0
  3
*D23
  1

  0
LINE
  5
15F0
330
133A
100
AcDbEntity
  8
0
  6
ByBlock
 62
     4
100
AcDbLine
 10
3428.08479127592
 20
4400.894328662096
 30
0.0
 11
3428.08479127592
 21
4997.110116486521
 31
0.0
  0
LINE
  5
15F1
330
133A
100
AcDbEntity
  8
0
  6
ByBlock
 62
     4
100
AcDbLine
 10
6308.08479127592
 20
4400.894328662096
 30
0.0
 11
6308.08479127592
 21
4997.110116486521
 31
0.0
  0
LINE
  5
15F2
330
133A
100
AcDbEntity
  8
0
  6
ByBlock
 62
     4
100
AcDbLine
 10
3428.08479127592
 20
4957.110116486521
 30
0.0
 11
6308.08479127592
 21
4957.110116486521
 31
0.0
  0
INSERT
  5
15F3
330
133A
100
AcDbEntity
  8
0
  6
ByBlock
 62
     4
100
AcDbBlockReference
  2
_DOTSMALL
 10
3428.08479127592
 20
4957.110116486521
 30
0.0
 41
100.0
 42
100.0
 43
100.0
 50
180.0
  0
INSERT
  5
15F4
330
133A
100
AcDbEntity
  8
0
  6
ByBlock
 62
     4
100
AcDbBlockReference
  2
_DOTSMALL
 10
6308.08479127592
 20
4957.110116486521
 30
0.0
 41
100.0
 42
100.0
 43
100.0
  0
MTEXT
  5
15F5
330
133A
100
AcDbEntity
  8
0
  6
ByBlock
 62
     7
100
AcDbMText
 10
4868.084791275919
 20
5057.121927510143
 30
0.0
 40
120.0
 41
0.0
 71
     5
 72
     1
  1
\A1;2880
 73
     1
 44
1.0
1001
ACAD
1000
MTEXTBEGIN
1070
    73
1070
     1
1070
    44
1040
1.0
1070
    74
1070
     0
1000
MTEXTEND
  0
POINT
  5
15F6
330
133A
100
AcDbEntity
  8
DEFPOINTS
  6
ByBlock
 62
     0
100
AcDbPoint
 10
3428.08479127592
 20
4360.894328662096
 30
0.0
  0
POINT
  5
15F7
330
133A
100
AcDbEntity
  8
DEFPOINTS
  6
ByBlock
 62
     0
100
AcDbPoint
 10
6308.08479127592
 20
4360.894328662096
 30
0.0
  0
POINT
  5
15F8
330
133A
100
AcDbEntity
  8
DEFPOINTS
  6
ByBlock
 62
     0
100
AcDbPoint
 10
6308.08479127592
 20
4957.110116486521
 30
0.0
  0
ENDBLK
  5
15F9
330
133A
100
AcDbEntity
  8
0
100
AcDbBlockEnd
  0
BLOCK
  5
15FA
330
1347
100
AcDbEntity
  8
0
100
AcDbBlockBegin
  2
*D24
 70
     1
 10
0.0
 20
0.0
 30
0.0
  3
*D24
  1

  0
LINE
  5
15FB
330
1347
100
AcDbEntity
  8
0
  6
ByBlock
 62
     4
100
AcDbLine
 10
8166.327550881035
 20
4400.894328662096
 30
0.0
 11
8166.327550881035
 21
4714.334180987679
 31
0.0
  0
LINE
  5
15FC
330
1347
100
AcDbEntity
  8
0
  6
ByBlock
 62
     4
100
AcDbLine
 10
8916.327550881034
 20
4103.913661418745
 30
0.0
 11
8916.327550881034
 21
4714.334180987679
 31
0.0
  0
LINE
  5
15FD
330
1347
100
AcDbEntity
  8
0
  6
ByBlock
 62
     4
100
AcDbLine
 10
8166.327550881035
 20
4674.33418098768
 30
0.0
 11
8916.327550881034
 21
4674.33418098768
 31
0.0
  0
INSERT
  5
15FE
330
1347
100
AcDbEntity
  8
0
  6
ByBlock
 62
     4
100
AcDbBlockReference
  2
_DOTSMALL
 10
8166.327550881035
 20
4674.33418098768
 30
0.0
 41
100.0
 42
100.0
 43
100.0
 50
180.0
  0
INSERT
  5
15FF
330
1347
100
AcDbEntity
  8
0
  6
ByBlock
 62
     4
100
AcDbBlockReference
  2
_DOTSMALL
 10
8916.327550881034
 20
4674.33418098768
 30
0.0
 41
100.0
 42
100.0
 43
100.0
  0
MTEXT
  5
1600
330
1347
100
AcDbEntity
  8
0
  6
ByBlock
 62
     7
100
AcDbMText
 10
8541.327550881034
 20
4774.33418098768
 30
0.0
 40
120.0
 41
0.0
 71
     5
 72
     1
  1
\A1;750
 73
     1
 44
1.0
1001
ACAD
1000
MTEXTBEGIN
1070
    73
1070
     1
1070
    44
1040
1.0
1070
    74
1070
     0
1000
MTEXTEND
  0
POINT
  5
1601
330
1347
100
AcDbEntity
  8
DEFPOINTS
  6
ByBlock
 62
     0
100
AcDbPoint
 10
8166.327550881035
 20
4360.894328662096
 30
0.0
  0
POINT
  5
1602
330
1347
100
AcDbEntity
  8
DEFPOINTS
  6
ByBlock
 62
     0
100
AcDbPoint
 10
8916.327550881034
 20
4063.913661418744
 30
0.0
  0
POINT
  5
1603
330
1347
100
AcDbEntity
  8
DEFPOINTS
  6
ByBlock
 62
     0
100
AcDbPoint
 10
8916.327550881034
 20
4674.33418098768
 30
0.0
  0
ENDBLK
  5
1604
330
1347
100
AcDbEntity
  8
0
100
AcDbBlockEnd
  0
BLOCK
  5
1605
330
1354
100
AcDbEntity
  8
0
100
AcDbBlockBegin
  2
*D25
 70
     1
 10
0.0
 20
0.0
 30
0.0
  3
*D25
  1

  0
LINE
  5
2281
330
1354
100
AcDbEntity
  8
寸法
 62
     4
370
    -2
100
AcDbLine
 10
10566.32755088103
 20
4400.894328662096
 30
0.0
 11
10566.32755088103
 21
4714.334180987679
 31
0.0
  0
LINE
  5
2282
330
1354
100
AcDbEntity
  8
寸法
 62
     4
370
    -2
100
AcDbLine
 10
8916.327550881034
 20
4674.33418098768
 30
0.0
 11
10566.32755088103
 21
4674.33418098768
 31
0.0
  0
INSERT
  5
2283
330
1354
100
AcDbEntity
  8
寸法
 62
     4
370
    -2
100
AcDbBlockReference
  2
_DOTSMALL
 10
8916.327550881034
 20
4674.33418098768
 30
0.0
 41
100.0
 42
100.0
 43
100.0
 50
180.0
  0
INSERT
  5
2284
330
1354
100
AcDbEntity
  8
寸法
 62
     4
370
    -2
100
AcDbBlockReference
  2
_DOTSMALL
 10
10566.32755088103
 20
4674.33418098768
 30
0.0
 41
100.0
 42
100.0
 43
100.0
  0
MTEXT
  5
2285
330
1354
100
AcDbEntity
  8
寸法
 62
     7
100
AcDbMText
 10
9741.327550881033
 20
4774.33418098768
 30
0.0
 40
120.0
 41
0.0
 71
     5
 72
     1
  1
\A1;1650
 73
     1
 44
1.0
1001
ACAD
1000
MTEXTBEGIN
1070
    73
1070
     1
1070
    44
1040
1.0
1070
    74
1070
     0
1000
MTEXTEND
  0
POINT
  5
2286
330
1354
100
AcDbEntity
  8
DEFPOINTS
 62
     0
100
AcDbPoint
 10
8916.327550881034
 20
4063.913661418744
 30
0.0
  0
POINT
  5
2287
330
1354
100
AcDbEntity
  8
DEFPOINTS
 62
     0
100
AcDbPoint
 10
10566.32755088103
 20
4360.894328662096
 30
0.0
  0
POINT
  5
2288
330
1354
100
AcDbEntity
  8
DEFPOINTS
 62
     0
100
AcDbPoint
 10
10566.32755088103
 20
4674.33418098768
 30
0.0
  0
ENDBLK
  5
160E
330
1354
100
AcDbEntity
  8
0
100
AcDbBlockEnd
  0
BLOCK
  5
160F
330
1360
100
AcDbEntity
  8
0
100
AcDbBlockBegin
  2
*D26
 70
     1
 10
0.0
 20
0.0
 30
0.0
  3
*D26
  1

  0
LINE
  5
2289
330
1360
100
AcDbEntity
  8
寸法
 62
     4
370
    -2
100
AcDbLine
 10
12216.32755088103
 20
4144.761062302259
 30
0.0
 11
12216.32755088103
 21
4714.334180987679
 31
0.0
  0
LINE
  5
228A
330
1360
100
AcDbEntity
  8
寸法
 62
     4
370
    -2
100
AcDbLine
 10
10566.32755088103
 20
4674.33418098768
 30
0.0
 11
12216.32755088103
 21
4674.33418098768
 31
0.0
  0
INSERT
  5
228B
330
1360
100
AcDbEntity
  8
寸法
 62
     4
370
    -2
100
AcDbBlockReference
  2
_DOTSMALL
 10
10566.32755088103
 20
4674.33418098768
 30
0.0
 41
100.0
 42
100.0
 43
100.0
 50
180.0
  0
INSERT
  5
228C
330
1360
100
AcDbEntity
  8
寸法
 62
     4
370
    -2
100
AcDbBlockReference
  2
_DOTSMALL
 10
12216.32755088103
 20
4674.33418098768
 30
0.0
 41
100.0
 42
100.0
 43
100.0
  0
MTEXT
  5
228D
330
1360
100
AcDbEntity
  8
寸法
 62
     7
100
AcDbMText
 10
11391.32755088103
 20
4774.33418098768
 30
0.0
 40
120.0
 41
0.0
 71
     5
 72
     1
  1
\A1;1650
 73
     1
 44
1.0
1001
ACAD
1000
MTEXTBEGIN
1070
    73
1070
     1
1070
    44
1040
1.0
1070
    74
1070
     0
1000
MTEXTEND
  0
POINT
  5
228E
330
1360
100
AcDbEntity
  8
DEFPOINTS
 62
     0
100
AcDbPoint
 10
10566.32755088103
 20
4360.894328662096
 30
0.0
  0
POINT
  5
228F
330
1360
100
AcDbEntity
  8
DEFPOINTS
 62
     0
100
AcDbPoint
 10
12216.32755088103
 20
4104.761062302259
 30
0.0
  0
POINT
  5
2290
330
1360
100
AcDbEntity
  8
DEFPOINTS
 62
     0
100
AcDbPoint
 10
12216.32755088103
 20
4674.33418098768
 30
0.0
  0
ENDBLK
  5
1618
330
1360
100
AcDbEntity
  8
0
100
AcDbBlockEnd
  0
BLOCK
  5
164F
330
136C
100
AcDbEntity
  8
0
100
AcDbBlockBegin
  2
*D27
 70
     1
 10
0.0
 20
0.0
 30
0.0
  3
*D27
  1

  0
LINE
  5
1650
330
136C
100
AcDbEntity
  8
0
  6
ByBlock
 62
     4
100
AcDbLine
 10
12966.32755088103
 20
4400.894328662096
 30
0.0
 11
12966.32755088103
 21
4714.334180987679
 31
0.0
  0
LINE
  5
1651
330
136C
100
AcDbEntity
  8
0
  6
ByBlock
 62
     4
100
AcDbLine
 10
12216.32755088103
 20
4674.33418098768
 30
0.0
 11
12966.32755088103
 21
4674.33418098768
 31
0.0
  0
INSERT
  5
1652
330
136C
100
AcDbEntity
  8
0
  6
ByBlock
 62
     4
100
AcDbBlockReference
  2
_DOTSMALL
 10
12216.32755088103
 20
4674.33418098768
 30
0.0
 41
100.0
 42
100.0
 43
100.0
 50
180.0
  0
INSERT
  5
1653
330
136C
100
AcDbEntity
  8
0
  6
ByBlock
 62
     4
100
AcDbBlockReference
  2
_DOTSMALL
 10
12966.32755088103
 20
4674.33418098768
 30
0.0
 41
100.0
 42
100.0
 43
100.0
  0
MTEXT
  5
1654
330
136C
100
AcDbEntity
  8
0
  6
ByBlock
 62
     7
100
AcDbMText
 10
12591.32755088103
 20
4774.33418098768
 30
0.0
 40
120.0
 41
0.0
 71
     5
 72
     1
  1
\A1;750
 73
     1
 44
1.0
1001
ACAD
1000
MTEXTBEGIN
1070
    73
1070
     1
1070
    44
1040
1.0
1070
    74
1070
     0
1000
MTEXTEND
  0
POINT
  5
1655
330
136C
100
AcDbEntity
  8
DEFPOINTS
  6
ByBlock
 62
     0
100
AcDbPoint
 10
12216.32755088103
 20
4104.761062302259
 30
0.0
  0
POINT
  5
1656
330
136C
100
AcDbEntity
  8
DEFPOINTS
  6
ByBlock
 62
     0
100
AcDbPoint
 10
12966.32755088103
 20
4360.894328662096
 30
0.0
  0
POINT
  5
1657
330
136C
100
AcDbEntity
  8
DEFPOINTS
  6
ByBlock
 62
     0
100
AcDbPoint
 10
12966.32755088103
 20
4674.33418098768
 30
0.0
  0
ENDBLK
  5
1658
330
136C
100
AcDbEntity
  8
0
100
AcDbBlockEnd
  0
BLOCK
  5
1623
330
1378
100
AcDbEntity
  8
0
100
AcDbBlockBegin
  2
*D28
 70
     1
 10
0.0
 20
0.0
 30
0.0
  3
*D28
  1

  0
LINE
  5
1624
330
1378
100
AcDbEntity
  8
0
  6
ByBlock
 62
     4
100
AcDbLine
 10
8166.327550881035
 20
4400.894328662096
 30
0.0
 11
8166.327550881035
 21
4994.334180987681
 31
0.0
  0
LINE
  5
1625
330
1378
100
AcDbEntity
  8
0
  6
ByBlock
 62
     4
100
AcDbLine
 10
12966.32755088103
 20
4400.894328662096
 30
0.0
 11
12966.32755088103
 21
4994.334180987681
 31
0.0
  0
LINE
  5
1626
330
1378
100
AcDbEntity
  8
0
  6
ByBlock
 62
     4
100
AcDbLine
 10
8166.327550881035
 20
4954.33418098768
 30
0.0
 11
12966.32755088103
 21
4954.33418098768
 31
0.0
  0
INSERT
  5
1627
330
1378
100
AcDbEntity
  8
0
  6
ByBlock
 62
     4
100
AcDbBlockReference
  2
_DOTSMALL
 10
8166.327550881035
 20
4954.33418098768
 30
0.0
 41
100.0
 42
100.0
 43
100.0
 50
180.0
  0
INSERT
  5
1628
330
1378
100
AcDbEntity
  8
0
  6
ByBlock
 62
     4
100
AcDbBlockReference
  2
_DOTSMALL
 10
12966.32755088103
 20
4954.33418098768
 30
0.0
 41
100.0
 42
100.0
 43
100.0
  0
MTEXT
  5
1629
330
1378
100
AcDbEntity
  8
0
  6
ByBlock
 62
     7
100
AcDbMText
 10
10566.32755088103
 20
5054.33418098768
 30
0.0
 40
120.0
 41
0.0
 71
     5
 72
     1
  1
\A1;4800
 73
     1
 44
1.0
1001
ACAD
1000
MTEXTBEGIN
1070
    73
1070
     1
1070
    44
1040
1.0
1070
    74
1070
     0
1000
MTEXTEND
  0
POINT
  5
162A
330
1378
100
AcDbEntity
  8
DEFPOINTS
  6
ByBlock
 62
     0
100
AcDbPoint
 10
8166.327550881035
 20
4360.894328662096
 30
0.0
  0
POINT
  5
162B
330
1378
100
AcDbEntity
  8
DEFPOINTS
  6
ByBlock
 62
     0
100
AcDbPoint
 10
12966.32755088103
 20
4360.894328662096
 30
0.0
  0
POINT
  5
162C
330
1378
100
AcDbEntity
  8
DEFPOINTS
  6
ByBlock
 62
     0
100
AcDbPoint
 10
12966.32755088103
 20
4954.33418098768
 30
0.0
  0
ENDBLK
  5
162D
330
1378
100
AcDbEntity
  8
0
100
AcDbBlockEnd
  0
BLOCK
  5
162E
330
1385
100
AcDbEntity
  8
0
100
AcDbBlockBegin
  2
*D29
 70
     1
 10
0.0
 20
0.0
 30
0.0
  3
*D29
  1

  0
LINE
  5
162F
330
1385
100
AcDbEntity
  8
0
  6
ByBlock
 62
     4
100
AcDbLine
 10
8126.327550881034
 20
4360.894328662096
 30
0.0
 11
7431.797351915797
 21
4360.894328662096
 31
0.0
  0
LINE
  5
1630
330
1385
100
AcDbEntity
  8
0
  6
ByBlock
 62
     4
100
AcDbLine
 10
7469.042633282217
 20
2249.894328662096
 30
0.0
 11
7431.797351915797
 21
2249.894328662096
 31
0.0
  0
LINE
  5
1631
330
1385
100
AcDbEntity
  8
0
  6
ByBlock
 62
     4
100
AcDbLine
 10
7471.797351915796
 20
4360.894328662096
 30
0.0
 11
7471.797351915796
 21
2249.894328662096
 31
0.0
  0
INSERT
  5
1632
330
1385
100
AcDbEntity
  8
0
  6
ByBlock
 62
     4
100
AcDbBlockReference
  2
_DOTSMALL
 10
7471.797351915796
 20
4360.894328662096
 30
0.0
 41
100.0
 42
100.0
 43
100.0
 50
90.0
  0
INSERT
  5
1633
330
1385
100
AcDbEntity
  8
0
  6
ByBlock
 62
     4
100
AcDbBlockReference
  2
_DOTSMALL
 10
7471.797351915796
 20
2249.894328662096
 30
0.0
 41
100.0
 42
100.0
 43
100.0
 50
270.0
  0
MTEXT
  5
1634
330
1385
100
AcDbEntity
  8
0
  6
ByBlock
 62
     7
100
AcDbMText
 10
7371.785540892175
 20
3305.394328662096
 30
0.0
 40
120.0
 41
0.0
 71
     5
 72
     1
  1
\A1;2111
 11
0.0000000000000001
 21
1.0
 31
0.0
 73
     1
 44
1.0
1001
ACAD
1000
MTEXTBEGIN
1070
    73
1070
     1
1070
    44
1040
1.0
1070
    74
1070
     0
1000
MTEXTEND
  0
POINT
  5
1635
330
1385
100
AcDbEntity
  8
DEFPOINTS
  6
ByBlock
 62
     0
100
AcDbPoint
 10
8166.327550881035
 20
4360.894328662096
 30
0.0
  0
POINT
  5
1636
330
1385
100
AcDbEntity
  8
DEFPOINTS
  6
ByBlock
 62
     0
100
AcDbPoint
 10
7509.042633282217
 20
2249.894328662096
 30
0.0
  0
POINT
  5
1637
330
1385
100
AcDbEntity
  8
DEFPOINTS
  6
ByBlock
 62
     0
100
AcDbPoint
 10
7471.797351915796
 20
2249.894328662096
 30
0.0
  0
ENDBLK
  5
1638
330
1385
100
AcDbEntity
  8
0
100
AcDbBlockEnd
  0
BLOCK
  5
14F2
330
14F1
100
AcDbEntity
  8
0
100
AcDbBlockBegin
  2
_DOTSMALL
 70
     0
 10
0.0
 20
0.0
 30
0.0
  3
_DOTSMALL
  1

  0
LWPOLYLINE
  5
14F3
330
14F1
100
AcDbEntity
  8
0
  6
ByBlock
 62
     0
100
AcDbPolyline
 90
        2
 70
     1
 43
0.5
 10
-0.0625
 20
0.0
 42
1.0
 10
0.0625
 20
0.0
 42
1.0
  0
ENDBLK
  5
14F7
330
14F1
100
AcDbEntity
  8
0
100
AcDbBlockEnd
  0
ENDSEC
  0
SECTION
  2
ENTITIES
  0
LINE
  5
606
330
1A
100
AcDbEntity
  8
部品1
100
AcDbLine
 10
3428.08479127592
 20
10606.19978712185
 30
0.0
 11
3428.08479127592
 21
8216.199787121851
 31
0.0
  0
LINE
  5
608
330
1A
100
AcDbEntity
  8
部品1
100
AcDbLine
 10
6308.084791275919
 20
8216.199787121851
 30
0.0
 11
6308.084791275919
 21
10606.19978712185
 31
0.0
  0
LINE
  5
609
330
1A
100
AcDbEntity
  8
部品1
100
AcDbLine
 10
6298.084791275919
 20
10616.19978712185
 30
0.0
 11
3438.08479127592
 21
10616.19978712185
 31
0.0
  0
LINE
  5
60C
330
1A
100
AcDbEntity
  8
部品1
100
AcDbLine
 10
3428.08479127592
 20
8216.199787121851
 30
0.0
 11
3473.08479127592
 21
8216.199787121851
 31
0.0
  0
LINE
  5
61D
330
1A
100
AcDbEntity
  8
部品1
100
AcDbLine
 10
3473.08479127592
 20
10566.19978712185
 30
0.0
 11
3473.08479127592
 21
8216.199787121851
 31
0.0
  0
LINE
  5
61E
330
1A
100
AcDbEntity
  8
部品1
100
AcDbLine
 10
6263.084791275919
 20
8216.199787121851
 30
0.0
 11
6263.084791275919
 21
10566.19978712185
 31
0.0
  0
LINE
  5
623
330
1A
100
AcDbEntity
  8
部品1
100
AcDbLine
 10
3450.58479127592
 20
10616.19978712185
 30
0.0
 11
3450.58479127592
 21
10571.19978712185
 31
0.0
  0
LINE
  5
628
330
1A
100
AcDbEntity
  8
部品1
100
AcDbLine
 10
6285.584791275917
 20
10571.19978712185
 30
0.0
 11
6285.58479127592
 21
10616.19978712185
 31
0.0
  0
ARC
  5
62B
330
1A
100
AcDbEntity
  8
部品1
100
AcDbCircle
 10
6298.084791275919
 20
10606.19978712185
 30
0.0
 40
10.0
100
AcDbArc
 50
0.000000000000007
 51
90.0
  0
LINE
  5
639
330
1A
100
AcDbEntity
  8
部品1
100
AcDbLine
 10
4101.08479127592
 20
10546.19978712185
 30
0.0
 11
4101.08479127592
 21
10379.77996924484
 31
0.0
  0
LINE
  5
63A
330
1A
100
AcDbEntity
  8
部品1
100
AcDbLine
 10
4646.584791275919
 20
10546.19978712185
 30
0.0
 11
4646.584791275921
 21
8571.728361519497
 31
0.0
  0
LINE
  5
63C
330
1A
100
AcDbEntity
  8
部品1
100
AcDbLine
 10
4681.08479127592
 20
10546.19978712185
 30
0.0
 11
4681.08479127592
 21
8457.378626475456
 31
0.0
  0
LINE
  5
640
330
1A
100
AcDbEntity
  8
部品1
100
AcDbLine
 10
5066.58479127592
 20
8251.199787121853
 30
0.0
 11
5066.58479127592
 21
10546.19978712185
 31
0.0
  0
LINE
  5
642
330
1A
100
AcDbEntity
  8
部品1
100
AcDbLine
 10
5101.08479127592
 20
8251.199787121853
 30
0.0
 11
5101.08479127592
 21
10546.19978712185
 31
0.0
  0
LINE
  5
643
330
1A
100
AcDbEntity
  8
部品1
100
AcDbLine
 10
5646.58479127592
 20
8251.199787121853
 30
0.0
 11
5646.58479127592
 21
10546.19978712185
 31
0.0
  0
LINE
  5
645
330
1A
100
AcDbEntity
  8
部品1
100
AcDbLine
 10
5681.084791275919
 20
8251.199787121853
 30
0.0
 11
5681.084791275919
 21
10546.19978712185
 31
0.0
  0
LINE
  5
64F
330
1A
100
AcDbEntity
  8
部品1
100
AcDbLine
 10
4318.08479127592
 20
10546.19978712185
 30
0.0
 11
4318.08479127592
 21
9660.536708243197
 31
0.0
  0
LINE
  5
650
330
1A
100
AcDbEntity
  8
部品1
100
AcDbLine
 10
4363.08479127592
 20
10546.19978712185
 30
0.0
 11
4363.08479127592
 21
9511.384879924881
 31
0.0
  0
LINE
  5
651
330
1A
100
AcDbEntity
  8
部品1
100
AcDbLine
 10
4391.084791275921
 20
10546.19978712185
 30
0.0
 11
4391.08479127592
 21
9418.579297860153
 31
0.0
  0
LINE
  5
652
330
1A
100
AcDbEntity
  8
部品1
100
AcDbLine
 10
4436.084791275919
 20
10546.19978712185
 30
0.0
 11
4436.084791275919
 21
9269.427469541836
 31
0.0
  0
LINE
  5
657
330
1A
100
AcDbEntity
  8
部品1
100
AcDbLine
 10
4818.08479127592
 20
10546.19978712185
 30
0.0
 11
4818.08479127592
 21
8251.199787121853
 31
0.0
  0
LINE
  5
658
330
1A
100
AcDbEntity
  8
部品1
100
AcDbLine
 10
4863.08479127592
 20
10546.19978712185
 30
0.0
 11
4863.08479127592
 21
8251.199787121853
 31
0.0
  0
LINE
  5
659
330
1A
100
AcDbEntity
  8
部品1
100
AcDbLine
 10
4891.084791275921
 20
10546.19978712185
 30
0.0
 11
4891.08479127592
 21
8251.199787121853
 31
0.0
  0
LINE
  5
65A
330
1A
100
AcDbEntity
  8
部品1
100
AcDbLine
 10
4936.084791275921
 20
10546.19978712185
 30
0.0
 11
4936.08479127592
 21
8251.199787121853
 31
0.0
  0
LINE
  5
65B
330
1A
100
AcDbEntity
  8
部品1
100
AcDbLine
 10
5318.08479127592
 20
10546.19978712185
 30
0.0
 11
5318.08479127592
 21
8251.199787121853
 31
0.0
  0
LINE
  5
65C
330
1A
100
AcDbEntity
  8
部品1
100
AcDbLine
 10
5363.08479127592
 20
10546.19978712185
 30
0.0
 11
5363.08479127592
 21
8251.199787121853
 31
0.0
  0
LINE
  5
65D
330
1A
100
AcDbEntity
  8
部品1
100
AcDbLine
 10
5391.08479127592
 20
10546.19978712185
 30
0.0
 11
5391.08479127592
 21
8251.199787121853
 31
0.0
  0
LINE
  5
65E
330
1A
100
AcDbEntity
  8
部品1
100
AcDbLine
 10
5436.08479127592
 20
10546.19978712185
 30
0.0
 11
5436.084791275919
 21
8251.199787121853
 31
0.0
  0
LINE
  5
65F
330
1A
100
AcDbEntity
  8
部品1
100
AcDbLine
 10
5898.084791275921
 20
10546.19978712185
 30
0.0
 11
5898.08479127592
 21
8251.199787121853
 31
0.0
  0
LINE
  5
660
330
1A
100
AcDbEntity
  8
部品1
100
AcDbLine
 10
5943.084791275921
 20
10546.19978712185
 30
0.0
 11
5943.08479127592
 21
8251.199787121853
 31
0.0
  0
LINE
  5
661
330
1A
100
AcDbEntity
  8
部品1
100
AcDbLine
 10
5971.084791275921
 20
10546.19978712185
 30
0.0
 11
5971.084791275921
 21
8251.199787121853
 31
0.0
  0
LINE
  5
662
330
1A
100
AcDbEntity
  8
部品1
100
AcDbLine
 10
6016.084791275921
 20
10546.19978712185
 30
0.0
 11
6016.08479127592
 21
8251.199787121853
 31
0.0
  0
LINE
  5
663
330
1A
100
AcDbEntity
  8
センター
 48
10.0
100
AcDbLine
 10
6278.084791275916
 20
10379.19978712185
 30
0.0
 11
3458.084791275921
 21
10379.19978712185
 31
0.0
  0
LINE
  5
664
330
1A
100
AcDbEntity
  8
センター
 48
10.0
100
AcDbLine
 10
6278.084791275917
 20
9744.89978712185
 30
0.0
 11
3458.084791275921
 21
9744.899787121852
 31
0.0
  0
LINE
  5
665
330
1A
100
AcDbEntity
  8
センター
 48
10.0
100
AcDbLine
 10
6278.084791275919
 20
9110.599787121852
 30
0.0
 11
3458.084791275921
 21
9110.599787121852
 31
0.0
  0
LINE
  5
666
330
1A
100
AcDbEntity
  8
センター
 48
10.0
100
AcDbLine
 10
6278.084791275919
 20
8476.299787121849
 30
0.0
 11
3458.08479127592
 21
8476.299787121844
 31
0.0
  0
LINE
  5
667
330
1A
100
AcDbEntity
  8
点線
 48
50.0
100
AcDbLine
 10
6278.084791275919
 20
10401.69978712185
 30
0.0
 11
4094.471450926111
 21
10401.69978712185
 31
0.0
  0
LINE
  5
668
330
1A
100
AcDbEntity
  8
点線
 48
50.0
100
AcDbLine
 10
6278.084791275917
 20
10356.69978712185
 30
0.0
 11
4108.048220469146
 21
10356.69978712185
 31
0.0
  0
LINE
  5
669
330
1A
100
AcDbEntity
  8
点線
 48
50.0
100
AcDbLine
 10
6278.084791275919
 20
9767.399787121853
 30
0.0
 11
4284.12383614281
 21
9767.399787121851
 31
0.0
  0
LINE
  5
66A
330
1A
100
AcDbEntity
  8
点線
 48
50.0
100
AcDbLine
 10
6278.084791275919
 20
9722.399787121851
 30
0.0
 11
4297.700605685846
 21
9722.399787121851
 31
0.0
  0
LINE
  5
66B
330
1A
100
AcDbEntity
  8
点線
 48
50.0
100
AcDbLine
 10
6278.084791275917
 20
9133.099787121849
 30
0.0
 11
4473.776221359508
 21
9133.099787121851
 31
0.0
  0
LINE
  5
66C
330
1A
100
AcDbEntity
  8
点線
 48
50.0
100
AcDbLine
 10
6278.084791275917
 20
9088.09978712185
 30
0.0
 11
4487.352990902543
 21
9088.099787121851
 31
0.0
  0
LINE
  5
66D
330
1A
100
AcDbEntity
  8
点線
 48
50.0
100
AcDbLine
 10
6278.084791275919
 20
8453.79978712185
 30
0.0
 11
4677.005376119244
 21
8453.79978712185
 31
0.0
  0
LINE
  5
66E
330
1A
100
AcDbEntity
  8
点線
 48
50.0
100
AcDbLine
 10
6278.084791275917
 20
8498.799787121846
 30
0.0
 11
4663.428606576209
 21
8498.799787121848
 31
0.0
  0
LINE
  5
675
330
1A
100
AcDbEntity
  8
部品1
100
AcDbLine
 10
3648.08479127592
 20
10457.69978712185
 30
0.0
 11
3648.08479127592
 21
10401.69978712185
 31
0.0
  0
LINE
  5
676
330
1A
100
AcDbEntity
  8
部品1
100
AcDbLine
 10
3708.084791275921
 20
10457.69978712185
 30
0.0
 11
3708.084791275921
 21
10401.69978712185
 31
0.0
  0
LINE
  5
677
330
1A
100
AcDbEntity
  8
点線
 48
50.0
100
AcDbLine
 10
6028.084791275919
 20
8297.699787121851
 30
0.0
 11
6028.084791275919
 21
8433.799787121849
 31
0.0
  0
LINE
  5
678
330
1A
100
AcDbEntity
  8
点線
 48
50.0
100
AcDbLine
 10
6088.08479127592
 20
8297.699787121851
 30
0.0
 11
6088.084791275919
 21
8433.799787121849
 31
0.0
  0
LINE
  5
679
330
1A
100
AcDbEntity
  8
部品1
100
AcDbLine
 10
3708.084791275921
 20
10457.69978712185
 30
0.0
 11
3648.08479127592
 21
10457.69978712185
 31
0.0
  0
LINE
  5
67A
330
1A
100
AcDbEntity
  8
点線
 48
50.0
100
AcDbLine
 10
6088.084791275917
 20
10457.69978712185
 30
0.0
 11
6028.084791275919
 21
10457.69978712185
 31
0.0
  0
LINE
  5
67B
330
1A
100
AcDbEntity
  8
点線
 48
50.0
100
AcDbLine
 10
6088.084791275917
 20
8498.799787121852
 30
0.0
 11
6088.084791275917
 21
9068.099787121852
 31
0.0
  0
LINE
  5
67C
330
1A
100
AcDbEntity
  8
点線
 48
50.0
100
AcDbLine
 10
6028.084791275919
 20
8498.799787121852
 30
0.0
 11
6028.084791275919
 21
9068.099787121852
 31
0.0
  0
LINE
  5
67D
330
1A
100
AcDbEntity
  8
点線
 48
50.0
100
AcDbLine
 10
6088.08479127592
 20
9133.099787121849
 30
0.0
 11
6088.084791275917
 21
9702.399787121853
 31
0.0
  0
LINE
  5
67E
330
1A
100
AcDbEntity
  8
点線
 48
50.0
100
AcDbLine
 10
6028.08479127592
 20
9133.099787121849
 30
0.0
 11
6028.084791275919
 21
9702.399787121853
 31
0.0
  0
LINE
  5
67F
330
1A
100
AcDbEntity
  8
点線
 48
50.0
100
AcDbLine
 10
6088.084791275917
 20
9767.399787121851
 30
0.0
 11
6088.084791275917
 21
10336.69978712185
 31
0.0
  0
LINE
  5
680
330
1A
100
AcDbEntity
  8
点線
 48
50.0
100
AcDbLine
 10
6028.084791275919
 20
9767.399787121851
 30
0.0
 11
6028.084791275919
 21
10336.69978712185
 31
0.0
  0
LINE
  5
681
330
1A
100
AcDbEntity
  8
点線
 48
50.0
100
AcDbLine
 10
6088.084791275917
 20
10401.69978712185
 30
0.0
 11
6088.084791275917
 21
10457.69978712185
 31
0.0
  0
LINE
  5
682
330
1A
100
AcDbEntity
  8
点線
 48
50.0
100
AcDbLine
 10
6028.084791275916
 20
10401.69978712185
 30
0.0
 11
6028.084791275919
 21
10457.69978712185
 31
0.0
  0
LINE
  5
683
330
1A
100
AcDbEntity
  8
点線
 48
50.0
100
AcDbLine
 10
4825.535234920039
 20
7978.599787121855
 30
0.0
 11
6278.084791275917
 21
7978.599787121855
 31
0.0
  0
LINE
  5
684
330
1A
100
AcDbEntity
  8
点線
 48
50.0
100
AcDbLine
 10
4839.112004463073
 20
7933.599787121855
 30
0.0
 11
6278.084791275916
 21
7933.599787121855
 31
0.0
  0
LINE
  5
686
330
1A
100
AcDbEntity
  8
点線
 48
50.0
100
AcDbLine
 10
5016.907344278856
 20
7344.299787121852
 30
0.0
 11
6278.084791275917
 21
7344.299787121851
 31
0.0
  0
LINE
  5
687
330
1A
100
AcDbEntity
  8
点線
 48
50.0
100
AcDbLine
 10
5030.484113821891
 20
7299.299787121852
 30
0.0
 11
6278.084791275916
 21
7299.299787121855
 31
0.0
  0
LINE
  5
689
330
1A
100
AcDbEntity
  8
点線
 48
50.0
100
AcDbLine
 10
5208.279453637675
 20
6709.999787121851
 30
0.0
 11
6278.084791275919
 21
6709.999787121851
 31
0.0
  0
LINE
  5
68A
330
1A
100
AcDbEntity
  8
点線
 48
50.0
100
AcDbLine
 10
5221.856223180709
 20
6664.999787121852
 30
0.0
 11
6278.084791275917
 21
6664.999787121853
 31
0.0
  0
LINE
  5
68C
330
1A
100
AcDbEntity
  8
点線
 48
50.0
100
AcDbLine
 10
5399.65156299649
 20
6075.699787121851
 30
0.0
 11
6278.084791275916
 21
6075.699787121853
 31
0.0
  0
LINE
  5
68D
330
1A
100
AcDbEntity
  8
点線
 48
50.0
100
AcDbLine
 10
5413.228332539526
 20
6030.699787121852
 30
0.0
 11
6278.084791275916
 21
6030.699787121852
 31
0.0
  0
LINE
  5
694
330
1A
100
AcDbEntity
  8
部品1
100
AcDbLine
 10
6308.08479127592
 20
8216.199787121851
 30
0.0
 11
6263.084791275919
 21
8216.199787121851
 31
0.0
  0
LINE
  5
696
330
1A
100
AcDbEntity
  8
部品1
100
AcDbLine
 10
3438.08479127592
 20
5816.199787121852
 30
0.0
 11
6298.08479127592
 21
5816.199787121852
 31
0.0
  0
LINE
  5
697
330
1A
100
AcDbEntity
  8
点線
 48
50.0
100
AcDbLine
 10
6028.08479127592
 20
5974.699787121852
 30
0.0
 11
6028.08479127592
 21
6030.699787121852
 31
0.0
  0
LINE
  5
698
330
1A
100
AcDbEntity
  8
点線
 48
50.0
100
AcDbLine
 10
6088.08479127592
 20
5974.699787121852
 30
0.0
 11
6088.08479127592
 21
6030.699787121852
 31
0.0
  0
LINE
  5
699
330
1A
100
AcDbEntity
  8
部品1
100
AcDbLine
 10
4800.08479127592
 20
8062.95490270036
 30
0.0
 11
4800.08479127592
 21
8076.199787121852
 31
0.0
  0
LINE
  5
69A
330
1A
100
AcDbEntity
  8
部品1
100
AcDbLine
 10
4845.084791275921
 20
7913.803074382042
 30
0.0
 11
4845.084791275919
 21
8181.199787121851
 31
0.0
  0
LINE
  5
69B
330
1A
100
AcDbEntity
  8
部品1
100
AcDbLine
 10
4873.08479127592
 20
7820.997492317314
 30
0.0
 11
4873.08479127592
 21
8181.199787121853
 31
0.0
  0
LINE
  5
69C
330
1A
100
AcDbEntity
  8
部品1
100
AcDbLine
 10
4918.084791275919
 20
7671.845663999
 30
0.0
 11
4918.084791275921
 21
8181.199787121853
 31
0.0
  0
LINE
  5
69D
330
1A
100
AcDbEntity
  8
部品1
100
AcDbLine
 10
5300.084791275921
 20
6405.712365830193
 30
0.0
 11
5300.08479127592
 21
8181.199787121851
 31
0.0
  0
LINE
  5
69E
330
1A
100
AcDbEntity
  8
部品1
100
AcDbLine
 10
5345.08479127592
 20
6256.56053751188
 30
0.0
 11
5345.08479127592
 21
8181.199787121853
 31
0.0
  0
LINE
  5
69F
330
1A
100
AcDbEntity
  8
部品1
100
AcDbLine
 10
5373.08479127592
 20
6163.75495544715
 30
0.0
 11
5373.084791275921
 21
8181.199787121853
 31
0.0
  0
LINE
  5
6A0
330
1A
100
AcDbEntity
  8
部品1
100
AcDbLine
 10
5418.084791275919
 20
6014.603127128836
 30
0.0
 11
5418.084791275919
 21
8181.199787121853
 31
0.0
  0
LINE
  5
6A1
330
1A
100
AcDbEntity
  8
部品1
100
AcDbLine
 10
5998.08479127592
 20
5886.199787121853
 30
0.0
 11
5998.08479127592
 21
8181.199787121853
 31
0.0
  0
LINE
  5
6A2
330
1A
100
AcDbEntity
  8
部品1
100
AcDbLine
 10
5953.084791275919
 20
5886.199787121853
 30
0.0
 11
5953.084791275919
 21
8181.199787121853
 31
0.0
  0
LINE
  5
6A3
330
1A
100
AcDbEntity
  8
部品1
100
AcDbLine
 10
5925.08479127592
 20
5886.199787121853
 30
0.0
 11
5925.08479127592
 21
8181.199787121853
 31
0.0
  0
LINE
  5
6A4
330
1A
100
AcDbEntity
  8
部品1
100
AcDbLine
 10
5880.08479127592
 20
5886.199787121853
 30
0.0
 11
5880.084791275921
 21
8181.199787121853
 31
0.0
  0
LINE
  5
6A5
330
1A
100
AcDbEntity
  8
部品1
100
AcDbLine
 10
5055.08479127592
 20
7217.761208896575
 30
0.0
 11
5055.08479127592
 21
8181.199787121851
 31
0.0
  0
LINE
  5
6A6
330
1A
100
AcDbEntity
  8
部品1
100
AcDbLine
 10
5089.58479127592
 20
7103.411473852535
 30
0.0
 11
5089.584791275919
 21
8181.199787121851
 31
0.0
  0
LINE
  5
6A7
330
1A
100
AcDbEntity
  8
部品1
100
AcDbLine
 10
5635.08479127592
 20
5886.199787121853
 30
0.0
 11
5635.084791275919
 21
8181.199787121853
 31
0.0
  0
LINE
  5
6A8
330
1A
100
AcDbEntity
  8
部品1
100
AcDbLine
 10
5669.584791275919
 20
5886.199787121853
 30
0.0
 11
5669.584791275919
 21
8181.199787121853
 31
0.0
  0
LINE
  5
6A9
330
1A
100
AcDbEntity
  8
部品1
100
AcDbLine
 10
6215.08479127592
 20
5886.199787121853
 30
0.0
 11
6215.08479127592
 21
8181.199787121853
 31
0.0
  0
LINE
  5
6AA
330
1A
100
AcDbEntity
  8
部品1
100
AcDbLine
 10
6249.58479127592
 20
5886.199787121853
 30
0.0
 11
6249.58479127592
 21
8181.199787121853
 31
0.0
  0
LINE
  5
6AB
330
1A
100
AcDbEntity
  8
部品1
100
AcDbLine
 10
6263.08479127592
 20
5866.19978712185
 30
0.0
 11
6263.08479127592
 21
8216.199787121851
 31
0.0
  0
LINE
  5
6AC
330
1A
100
AcDbEntity
  8
部品1
100
AcDbLine
 10
6308.08479127592
 20
5826.199787121851
 30
0.0
 11
6308.08479127592
 21
8216.199787121851
 31
0.0
  0
LINE
  5
6AD
330
1A
100
AcDbEntity
  8
点線
 48
50.0
100
AcDbLine
 10
6028.08479127592
 20
5974.699787121852
 30
0.0
 11
6088.08479127592
 21
5974.699787121852
 31
0.0
  0
LINE
  5
6B2
330
1A
100
AcDbEntity
  8
部品1
100
AcDbLine
 10
3708.084791275921
 20
6664.999787121852
 30
0.0
 11
3708.084791275925
 21
6095.699787121851
 31
0.0
  0
LINE
  5
6B3
330
1A
100
AcDbEntity
  8
部品1
100
AcDbLine
 10
3648.08479127592
 20
6664.999787121852
 30
0.0
 11
3648.084791275924
 21
6095.699787121851
 31
0.0
  0
LINE
  5
6BC
330
1A
100
AcDbEntity
  8
部品1
100
AcDbLine
 10
4800.08479127592
 20
8062.95490270036
 30
0.0
 11
4800.08479127592
 21
8181.199787121851
 31
0.0
  0
LINE
  5
6C6
330
1A
100
AcDbEntity
  8
部品1
100
AcDbLine
 10
3473.08479127592
 20
8216.199787121851
 30
0.0
 11
3473.08479127592
 21
5866.19978712185
 31
0.0
  0
LINE
  5
6C8
330
1A
100
AcDbEntity
  8
部品1
100
AcDbLine
 10
3428.08479127592
 20
8216.199787121851
 30
0.0
 11
3428.08479127592
 21
5826.199787121852
 31
0.0
  0
LINE
  5
6C9
330
1A
100
AcDbEntity
  8
部品1
100
AcDbLine
 10
3708.084791275919
 20
7933.599787121855
 30
0.0
 11
3708.084791275921
 21
7364.29978712185
 31
0.0
  0
LINE
  5
6CA
330
1A
100
AcDbEntity
  8
部品1
100
AcDbLine
 10
3648.08479127592
 20
7933.599787121855
 30
0.0
 11
3648.08479127592
 21
7364.29978712185
 31
0.0
  0
LINE
  5
6CB
330
1A
100
AcDbEntity
  8
部品1
100
AcDbLine
 10
3708.084791275921
 20
8134.699787121851
 30
0.0
 11
3708.084791275921
 21
7998.599787121854
 31
0.0
  0
LINE
  5
6CC
330
1A
100
AcDbEntity
  8
部品1
100
AcDbLine
 10
3648.08479127592
 20
8134.699787121851
 30
0.0
 11
3648.08479127592
 21
7998.599787121854
 31
0.0
  0
LINE
  5
6CD
330
1A
100
AcDbEntity
  8
部品1
100
AcDbLine
 10
3708.084791275919
 20
7299.299787121852
 30
0.0
 11
3708.084791275921
 21
6729.999787121854
 31
0.0
  0
LINE
  5
6CE
330
1A
100
AcDbEntity
  8
部品1
100
AcDbLine
 10
3648.08479127592
 20
7299.299787121852
 30
0.0
 11
3648.08479127592
 21
6729.999787121854
 31
0.0
  0
LINE
  5
6CF
330
1A
100
AcDbEntity
  8
部品1
100
AcDbLine
 10
3708.084791275925
 20
6030.699787121852
 30
0.0
 11
3708.084791275922
 21
5974.699787121852
 31
0.0
  0
LINE
  5
6D0
330
1A
100
AcDbEntity
  8
部品1
100
AcDbLine
 10
3648.084791275924
 20
6030.699787121852
 30
0.0
 11
3648.084791275922
 21
5974.699787121852
 31
0.0
  0
LINE
  5
6D1
330
1A
100
AcDbEntity
  8
部品1
100
AcDbLine
 10
3648.084791275922
 20
5974.699787121852
 30
0.0
 11
3708.084791275922
 21
5974.699787121852
 31
0.0
  0
ARC
  5
6D2
330
1A
100
AcDbEntity
  8
部品1
100
AcDbCircle
 10
3438.08479127592
 20
5826.199787121852
 30
0.0
 40
10.0
100
AcDbArc
 50
180.0
 51
270.0
  0
LINE
  5
6DB
330
1A
100
AcDbEntity
  8
部品1
100
AcDbLine
 10
3999.584917119792
 20
10716.19978712185
 30
0.0
 11
5508.114866345844
 21
5716.199787121851
 31
0.0
  0
LINE
  5
6DD
330
1A
100
AcDbEntity
  8
部品1
100
AcDbLine
 10
3498.084791275921
 20
10546.19978712185
 30
0.0
 11
3498.08479127592
 21
8251.199787121853
 31
0.0
  0
LINE
  5
6DF
330
1A
100
AcDbEntity
  8
部品1
100
AcDbLine
 10
4094.47145092611
 20
10401.69978712185
 30
0.0
 11
3498.08479127592
 21
10401.69978712185
 31
0.0
  0
LINE
  5
6E0
330
1A
100
AcDbEntity
  8
部品1
100
AcDbLine
 10
4108.048220469146
 20
10356.69978712185
 30
0.0
 11
3498.08479127592
 21
10356.69978712185
 31
0.0
  0
LINE
  5
6E3
330
1A
100
AcDbEntity
  8
部品1
100
AcDbLine
 10
4284.12383614281
 20
9767.399787121851
 30
0.0
 11
3498.08479127592
 21
9767.399787121851
 31
0.0
  0
LINE
  5
6E4
330
1A
100
AcDbEntity
  8
部品1
100
AcDbLine
 10
4297.700605685844
 20
9722.399787121851
 30
0.0
 11
3498.08479127592
 21
9722.399787121851
 31
0.0
  0
LINE
  5
6E5
330
1A
100
AcDbEntity
  8
部品1
100
AcDbLine
 10
4490.792439186779
 20
9088.099787121851
 30
0.0
 11
3498.08479127592
 21
9088.099787121851
 31
0.0
  0
LINE
  5
6E6
330
1A
100
AcDbEntity
  8
部品1
100
AcDbLine
 10
4477.215669643744
 20
9133.099787121853
 30
0.0
 11
3498.08479127592
 21
9133.099787121851
 31
0.0
  0
LINE
  5
6E8
330
1A
100
AcDbEntity
  8
部品1
100
AcDbLine
 10
4682.164548545596
 20
8453.79978712185
 30
0.0
 11
3498.08479127592
 21
8453.79978712185
 31
0.0
  0
LINE
  5
6E9
330
1A
100
AcDbEntity
  8
部品1
100
AcDbLine
 10
4668.587779002561
 20
8498.799787121852
 30
0.0
 11
3498.08479127592
 21
8498.799787121848
 31
0.0
  0
LINE
  5
6EB
330
1A
100
AcDbEntity
  8
部品1
100
AcDbLine
 10
3648.08479127592
 20
10336.69978712185
 30
0.0
 11
3648.08479127592
 21
9767.399787121851
 31
0.0
  0
LINE
  5
6EC
330
1A
100
AcDbEntity
  8
部品1
100
AcDbLine
 10
3708.084791275919
 20
10336.69978712185
 30
0.0
 11
3708.084791275921
 21
9767.399787121851
 31
0.0
  0
LINE
  5
6ED
330
1A
100
AcDbEntity
  8
部品1
100
AcDbLine
 10
3708.084791275921
 20
9702.399787121851
 30
0.0
 11
3708.084791275921
 21
9133.099787121851
 31
0.0
  0
LINE
  5
6EE
330
1A
100
AcDbEntity
  8
部品1
100
AcDbLine
 10
3648.084791275921
 20
9702.39978712185
 30
0.0
 11
3648.08479127592
 21
9133.099787121851
 31
0.0
  0
LINE
  5
6EF
330
1A
100
AcDbEntity
  8
部品1
100
AcDbLine
 10
3648.08479127592
 20
9068.099787121848
 30
0.0
 11
3648.08479127592
 21
8498.799787121848
 31
0.0
  0
LINE
  5
6F0
330
1A
100
AcDbEntity
  8
部品1
100
AcDbLine
 10
3708.084791275921
 20
9068.099787121848
 30
0.0
 11
3708.084791275921
 21
8498.799787121848
 31
0.0
  0
LINE
  5
6F1
330
1A
100
AcDbEntity
  8
部品1
100
AcDbLine
 10
3708.084791275921
 20
8433.799787121845
 30
0.0
 11
3708.084791275921
 21
8297.699787121851
 31
0.0
  0
LINE
  5
6F2
330
1A
100
AcDbEntity
  8
部品1
100
AcDbLine
 10
3648.084791275921
 20
8433.799787121845
 30
0.0
 11
3648.08479127592
 21
8297.699787121851
 31
0.0
  0
LINE
  5
6F4
330
1A
100
AcDbEntity
  8
部品1
100
AcDbLine
 10
3498.08479127592
 20
8181.199787121853
 30
0.0
 11
3498.08479127592
 21
5886.199787121849
 31
0.0
  0
LINE
  5
6F5
330
1A
100
AcDbEntity
  8
部品1
100
AcDbLine
 10
4839.112004463073
 20
7933.599787121853
 30
0.0
 11
3498.08479127592
 21
7933.599787121855
 31
0.0
  0
LINE
  5
6F6
330
1A
100
AcDbEntity
  8
部品1
100
AcDbLine
 10
4825.535234920039
 20
7978.599787121854
 30
0.0
 11
3498.08479127592
 21
7978.599787121855
 31
0.0
  0
LINE
  5
6F7
330
1A
100
AcDbEntity
  8
部品1
100
AcDbLine
 10
5016.907344278855
 20
7344.299787121854
 30
0.0
 11
3498.08479127592
 21
7344.299787121852
 31
0.0
  0
LINE
  5
6F8
330
1A
100
AcDbEntity
  8
部品1
100
AcDbLine
 10
5030.484113821891
 20
7299.299787121853
 30
0.0
 11
3498.08479127592
 21
7299.299787121852
 31
0.0
  0
LINE
  5
6FA
330
1A
100
AcDbEntity
  8
部品1
100
AcDbLine
 10
5208.279453637675
 20
6709.999787121851
 30
0.0
 11
3498.08479127592
 21
6709.999787121851
 31
0.0
  0
LINE
  5
6FB
330
1A
100
AcDbEntity
  8
部品1
100
AcDbLine
 10
5221.856223180708
 20
6664.999787121852
 30
0.0
 11
3498.08479127592
 21
6664.999787121852
 31
0.0
  0
LINE
  5
6FC
330
1A
100
AcDbEntity
  8
部品1
100
AcDbLine
 10
5202.245333840771
 20
6729.999787121854
 30
0.0
 11
3498.08479127592
 21
6729.999787121852
 31
0.0
  0
LINE
  5
6FD
330
1A
100
AcDbEntity
  8
部品1
100
AcDbLine
 10
5399.651562996492
 20
6075.699787121851
 30
0.0
 11
3498.08479127592
 21
6075.699787121852
 31
0.0
  0
LINE
  5
6FE
330
1A
100
AcDbEntity
  8
部品1
100
AcDbLine
 10
5413.228332539525
 20
6030.699787121851
 30
0.0
 11
3498.08479127592
 21
6030.699787121852
 31
0.0
  0
LINE
  5
6FF
330
1A
100
AcDbEntity
  8
部品1
100
AcDbLine
 10
5393.617443199588
 20
6095.699787121851
 30
0.0
 11
3498.08479127592
 21
6095.699787121851
 31
0.0
  0
LINE
  5
700
330
1A
100
AcDbEntity
  8
点線
 48
50.0
100
AcDbLine
 10
6088.08479127592
 20
7998.599787121856
 30
0.0
 11
6088.08479127592
 21
8134.699787121853
 31
0.0
  0
LINE
  5
701
330
1A
100
AcDbEntity
  8
点線
 48
50.0
100
AcDbLine
 10
6028.08479127592
 20
7998.599787121856
 30
0.0
 11
6028.08479127592
 21
8134.699787121853
 31
0.0
  0
LINE
  5
702
330
1A
100
AcDbEntity
  8
点線
 48
50.0
100
AcDbLine
 10
6028.08479127592
 20
7364.299787121851
 30
0.0
 11
6028.084791275921
 21
7933.599787121856
 31
0.0
  0
LINE
  5
703
330
1A
100
AcDbEntity
  8
点線
 48
50.0
100
AcDbLine
 10
6088.08479127592
 20
7364.299787121851
 30
0.0
 11
6088.084791275922
 21
7933.599787121856
 31
0.0
  0
LINE
  5
704
330
1A
100
AcDbEntity
  8
点線
 48
50.0
100
AcDbLine
 10
6028.08479127592
 20
6095.699787121852
 30
0.0
 11
6028.08479127592
 21
6664.999787121852
 31
0.0
  0
LINE
  5
705
330
1A
100
AcDbEntity
  8
点線
 48
50.0
100
AcDbLine
 10
6088.084791275919
 20
6095.699787121852
 30
0.0
 11
6088.084791275919
 21
6664.999787121852
 31
0.0
  0
LINE
  5
706
330
1A
100
AcDbEntity
  8
点線
 48
50.0
100
AcDbLine
 10
6088.08479127592
 20
6729.999787121854
 30
0.0
 11
6088.08479127592
 21
7299.29978712185
 31
0.0
  0
LINE
  5
707
330
1A
100
AcDbEntity
  8
点線
 48
50.0
100
AcDbLine
 10
6028.08479127592
 20
6729.999787121854
 30
0.0
 11
6028.08479127592
 21
7299.29978712185
 31
0.0
  0
ARC
  5
708
330
1A
100
AcDbEntity
  8
部品1
100
AcDbCircle
 10
6298.08479127592
 20
5826.199787121851
 30
0.0
 40
10.0
100
AcDbArc
 50
270.0
 51
0.000000000000007
  0
ARC
  5
709
330
1A
100
AcDbEntity
  8
部品1
100
AcDbCircle
 10
3438.08479127592
 20
10606.19978712185
 30
0.0
 40
10.0
100
AcDbArc
 50
90.0
 51
180.0
  0
LINE
  5
70A
330
1A
100
AcDbEntity
  8
Ｇ．Ｌ
100
AcDbLine
 10
2756.310679668343
 20
2249.894328662096
 30
0.0
 11
13943.42636519888
 21
2249.894328662096
 31
0.0
  0
LINE
  5
70D
330
1A
100
AcDbEntity
  8
センター
 48
10.0
100
AcDbLine
 10
3678.08479127592
 20
4332.209710363466
 30
0.0
 11
3678.08479127592
 21
1986.582976767408
 31
0.0
  0
LINE
  5
70E
330
1A
100
AcDbEntity
  8
センター
 48
10.0
100
AcDbLine
 10
6058.08479127592
 20
4332.209710363466
 30
0.0
 11
6058.08479127592
 21
1986.582976767408
 31
0.0
  0
LINE
  5
70F
330
1A
100
AcDbEntity
  8
部品1
100
AcDbLine
 10
3648.08479127592
 20
3982.255508802794
 30
0.0
 11
3648.08479127592
 21
2299.894328662096
 31
0.0
  0
LINE
  5
710
330
1A
100
AcDbEntity
  8
部品1
100
AcDbLine
 10
3708.084791275921
 20
3982.255508802794
 30
0.0
 11
3708.084791275921
 21
2299.894328662096
 31
0.0
  0
LINE
  5
711
330
1A
100
AcDbEntity
  8
部品1
100
AcDbLine
 10
6028.08479127592
 20
3982.255508802793
 30
0.0
 11
6028.08479127592
 21
2299.894328662096
 31
0.0
  0
LINE
  5
712
330
1A
100
AcDbEntity
  8
部品1
100
AcDbLine
 10
6088.08479127592
 20
3982.255508802793
 30
0.0
 11
6088.084791275919
 21
2299.894328662096
 31
0.0
  0
LINE
  5
71C
330
1A
100
AcDbEntity
  8
部品1
100
AcDbLine
 10
12246.32755088103
 20
3982.255508802793
 30
0.0
 11
12246.32755088103
 21
2299.894328662096
 31
0.0
  0
LINE
  5
71D
330
1A
100
AcDbEntity
  8
部品1
100
AcDbLine
 10
12186.32755088103
 20
3982.255508802794
 30
0.0
 11
12186.32755088103
 21
2299.894328662096
 31
0.0
  0
LINE
  5
71E
330
1A
100
AcDbEntity
  8
部品1
100
AcDbLine
 10
10596.32755088103
 20
3883.782967136125
 30
0.0
 11
10596.32755088103
 21
2299.894328662096
 31
0.0
  0
LINE
  5
71F
330
1A
100
AcDbEntity
  8
部品1
100
AcDbLine
 10
12186.32755088103
 20
2499.894328662096
 30
0.0
 11
10596.32755088103
 21
2499.894328662098
 31
0.0
  0
LINE
  5
720
330
1A
100
AcDbEntity
  8
部品1
100
AcDbLine
 10
12186.32755088103
 20
3399.894328662096
 30
0.0
 11
10596.32755088103
 21
3399.894328662098
 31
0.0
  0
LINE
  5
723
330
1A
100
AcDbEntity
  8
細線
100
AcDbLine
 10
12186.32755088103
 20
3296.894328662097
 30
0.0
 11
10596.32755088103
 21
3296.894328662098
 31
0.0
  0
LINE
  5
724
330
1A
100
AcDbEntity
  8
細線
100
AcDbLine
 10
12186.32755088103
 20
3284.894328662096
 30
0.0
 11
10596.32755088103
 21
3284.894328662098
 31
0.0
  0
LINE
  5
725
330
1A
100
AcDbEntity
  8
細線
100
AcDbLine
 10
12186.32755088103
 20
2602.894328662096
 30
0.0
 11
10596.32755088103
 21
2602.894328662098
 31
0.0
  0
LINE
  5
726
330
1A
100
AcDbEntity
  8
細線
100
AcDbLine
 10
12186.32755088103
 20
2614.894328662096
 30
0.0
 11
10596.32755088103
 21
2614.894328662098
 31
0.0
  0
LINE
  5
728
330
1A
100
AcDbEntity
  8
細線
100
AcDbLine
 10
12186.32755088103
 20
2943.894328662096
 30
0.0
 11
10596.32755088103
 21
2943.894328662098
 31
0.0
  0
LINE
  5
729
330
1A
100
AcDbEntity
  8
細線
100
AcDbLine
 10
12186.32755088103
 20
2937.894328662097
 30
0.0
 11
10596.32755088103
 21
2937.894328662098
 31
0.0
  0
LINE
  5
72F
330
1A
100
AcDbEntity
  8
点線
 48
50.0
100
AcDbLine
 10
8886.327550881032
 20
1979.894328662096
 30
0.0
 11
8946.327550881033
 21
1979.894328662096
 31
0.0
  0
LINE
  5
778
330
1A
100
AcDbEntity
  8
部品1
100
AcDbLine
 10
6028.08479127592
 20
3399.894328662098
 30
0.0
 11
3708.084791275921
 21
3399.894328662098
 31
0.0
  0
LINE
  5
779
330
1A
100
AcDbEntity
  8
部品1
100
AcDbLine
 10
6028.08479127592
 20
2499.894328662098
 30
0.0
 11
3708.084791275921
 21
2499.894328662098
 31
0.0
  0
LINE
  5
805
330
1A
100
AcDbEntity
  8
部品1
100
AcDbLine
 10
10536.32755088103
 20
3883.782967136125
 30
0.0
 11
10536.32755088103
 21
2299.894328662096
 31
0.0
  0
LINE
  5
806
330
1A
100
AcDbEntity
  8
部品1
100
AcDbLine
 10
8886.327550881032
 20
3982.255508802793
 30
0.0
 11
8886.327550881032
 21
2299.894328662096
 31
0.0
  0
LINE
  5
807
330
1A
100
AcDbEntity
  8
部品1
100
AcDbLine
 10
8946.327550881035
 20
3982.255508802793
 30
0.0
 11
8946.327550881035
 21
2299.894328662096
 31
0.0
  0
LINE
  5
81D
330
1A
100
AcDbEntity
  8
細線
100
AcDbLine
 10
8946.327550881033
 20
3284.894328662096
 30
0.0
 11
10536.32755088103
 21
3284.894328662098
 31
0.0
  0
LINE
  5
81E
330
1A
100
AcDbEntity
  8
細線
100
AcDbLine
 10
8946.327550881033
 20
3296.894328662097
 30
0.0
 11
10536.32755088103
 21
3296.894328662098
 31
0.0
  0
LINE
  5
81F
330
1A
100
AcDbEntity
  8
部品1
100
AcDbLine
 10
8946.327550881033
 20
3399.894328662096
 30
0.0
 11
10536.32755088103
 21
3399.894328662098
 31
0.0
  0
LINE
  5
820
330
1A
100
AcDbEntity
  8
細線
100
AcDbLine
 10
8946.327550881033
 20
2937.894328662097
 30
0.0
 11
10536.32755088103
 21
2937.894328662098
 31
0.0
  0
LINE
  5
821
330
1A
100
AcDbEntity
  8
細線
100
AcDbLine
 10
8946.327550881033
 20
2943.894328662096
 30
0.0
 11
10536.32755088103
 21
2943.894328662098
 31
0.0
  0
LINE
  5
822
330
1A
100
AcDbEntity
  8
細線
100
AcDbLine
 10
8946.327550881033
 20
2614.894328662096
 30
0.0
 11
10536.32755088103
 21
2614.894328662098
 31
0.0
  0
LINE
  5
823
330
1A
100
AcDbEntity
  8
細線
100
AcDbLine
 10
8946.327550881033
 20
2602.894328662096
 30
0.0
 11
10536.32755088103
 21
2602.894328662098
 31
0.0
  0
LINE
  5
824
330
1A
100
AcDbEntity
  8
部品1
100
AcDbLine
 10
8946.327550881033
 20
2499.894328662096
 30
0.0
 11
10536.32755088103
 21
2499.894328662098
 31
0.0
  0
LINE
  5
8C1
330
1A
100
AcDbEntity
  8
点線
 48
50.0
100
AcDbLine
 10
8886.327550881032
 20
2299.894328662096
 30
0.0
 11
8886.327550881032
 21
1979.894328662096
 31
0.0
  0
LINE
  5
8C2
330
1A
100
AcDbEntity
  8
点線
 48
50.0
100
AcDbLine
 10
8946.327550881036
 20
2299.894328662096
 30
0.0
 11
8946.327550881033
 21
1979.894328662096
 31
0.0
  0
LINE
  5
8C4
330
1A
100
AcDbEntity
  8
部品1
100
AcDbLine
 10
8166.327550881034
 20
2299.894328662096
 30
0.0
 11
12966.32755088103
 21
2299.894328662096
 31
0.0
  0
LINE
  5
8C5
330
1A
100
AcDbEntity
  8
点線
 48
50.0
100
AcDbLine
 10
10536.32755088103
 20
2299.894328662096
 30
0.0
 11
10536.32755088103
 21
1979.894328662096
 31
0.0
  0
LINE
  5
8C6
330
1A
100
AcDbEntity
  8
点線
 48
50.0
100
AcDbLine
 10
10596.32755088103
 20
2299.894328662096
 30
0.0
 11
10596.32755088103
 21
1979.894328662096
 31
0.0
  0
LINE
  5
8C7
330
1A
100
AcDbEntity
  8
点線
 48
50.0
100
AcDbLine
 10
10536.32755088103
 20
1979.894328662096
 30
0.0
 11
10596.32755088103
 21
1979.894328662096
 31
0.0
  0
LINE
  5
8C8
330
1A
100
AcDbEntity
  8
点線
 48
50.0
100
AcDbLine
 10
12186.32755088103
 20
2299.894328662096
 30
0.0
 11
12186.32755088103
 21
1979.894328662096
 31
0.0
  0
LINE
  5
8C9
330
1A
100
AcDbEntity
  8
点線
 48
50.0
100
AcDbLine
 10
12246.32755088103
 20
2299.894328662096
 30
0.0
 11
12246.32755088103
 21
1979.894328662096
 31
0.0
  0
LINE
  5
8CA
330
1A
100
AcDbEntity
  8
点線
 48
50.0
100
AcDbLine
 10
12186.32755088103
 20
1979.894328662096
 30
0.0
 11
12246.32755088103
 21
1979.894328662096
 31
0.0
  0
LINE
  5
8CC
330
1A
100
AcDbEntity
  8
部品1
100
AcDbLine
 10
8166.327550881034
 20
2299.894328662096
 30
0.0
 11
8166.327550881034
 21
2249.894328662096
 31
0.0
  0
LINE
  5
8CD
330
1A
100
AcDbEntity
  8
部品1
100
AcDbLine
 10
12966.32755088103
 20
2299.894328662096
 30
0.0
 11
12966.32755088103
 21
2249.894328662096
 31
0.0
  0
LINE
  5
8FA
330
1A
100
AcDbEntity
  8
部品1
100
AcDbLine
 10
6028.08479127592
 20
3354.894328662098
 30
0.0
 11
3708.084791275921
 21
3354.894328662098
 31
0.0
  0
LINE
  5
8FB
330
1A
100
AcDbEntity
  8
部品1
100
AcDbLine
 10
6028.08479127592
 20
2544.894328662098
 30
0.0
 11
3708.084791275921
 21
2544.894328662098
 31
0.0
  0
LINE
  5
8FC
330
1A
100
AcDbEntity
  8
部品1
100
AcDbLine
 10
6028.08479127592
 20
2949.894328662098
 30
0.0
 11
3708.084791275921
 21
2949.894328662098
 31
0.0
  0
LINE
  5
8FE
330
1A
100
AcDbEntity
  8
部品1
100
AcDbLine
 10
6028.08479127592
 20
2979.894328662098
 30
0.0
 11
3708.084791275921
 21
2979.894328662098
 31
0.0
  0
LINE
  5
8FF
330
1A
100
AcDbEntity
  8
部品1
100
AcDbLine
 10
6028.08479127592
 20
2609.894328662098
 30
0.0
 11
3708.084791275921
 21
2609.894328662098
 31
0.0
  0
LINE
  5
900
330
1A
100
AcDbEntity
  8
部品1
100
AcDbLine
 10
6028.08479127592
 20
2649.894328662098
 30
0.0
 11
3708.084791275921
 21
2649.894328662098
 31
0.0
  0
LINE
  5
902
330
1A
100
AcDbEntity
  8
部品1
100
AcDbLine
 10
4850.58479127592
 20
2609.894328662098
 30
0.0
 11
4850.58479127592
 21
2544.894328662098
 31
0.0
  0
LINE
  5
903
330
1A
100
AcDbEntity
  8
部品1
100
AcDbLine
 10
4885.58479127592
 20
2609.894328662098
 30
0.0
 11
4885.58479127592
 21
2544.894328662098
 31
0.0
  0
LINE
  5
906
330
1A
100
AcDbEntity
  8
部品1
100
AcDbLine
 10
3428.08479127592
 20
2299.894328662096
 30
0.0
 11
6308.08479127592
 21
2299.894328662096
 31
0.0
  0
LINE
  5
907
330
1A
100
AcDbEntity
  8
部品1
100
AcDbLine
 10
3428.08479127592
 20
2299.894328662096
 30
0.0
 11
3428.08479127592
 21
2249.894328662096
 31
0.0
  0
LINE
  5
908
330
1A
100
AcDbEntity
  8
部品1
100
AcDbLine
 10
6308.084791275921
 20
2299.894328662096
 30
0.0
 11
6308.084791275921
 21
2249.894328662096
 31
0.0
  0
LINE
  5
909
330
1A
100
AcDbEntity
  8
点線
 48
50.0
100
AcDbLine
 10
3648.08479127592
 20
2299.894328662096
 30
0.0
 11
3648.08479127592
 21
1979.894328662096
 31
0.0
  0
LINE
  5
90A
330
1A
100
AcDbEntity
  8
点線
 48
50.0
100
AcDbLine
 10
3708.084791275921
 20
2299.894328662096
 30
0.0
 11
3708.084791275921
 21
1979.894328662096
 31
0.0
  0
LINE
  5
90B
330
1A
100
AcDbEntity
  8
点線
 48
50.0
100
AcDbLine
 10
6028.08479127592
 20
2299.894328662096
 30
0.0
 11
6028.08479127592
 21
1979.894328662096
 31
0.0
  0
LINE
  5
90C
330
1A
100
AcDbEntity
  8
点線
 48
50.0
100
AcDbLine
 10
6088.084791275919
 20
2299.894328662096
 30
0.0
 11
6088.08479127592
 21
1979.894328662096
 31
0.0
  0
DIMENSION
  5
92F
330
1A
100
AcDbEntity
  8
寸法
100
AcDbDimension
  2
*D0
 10
2854.415140076315
 20
10379.19978712185
 30
0.0
 11
2743.307086662579
 21
10497.69978712185
 31
0.0
 12
-128.4178378652141
 22
0.0
 32
0.0
 70
   160
 71
     5
 42
-1.0
  3
物置仕様図40
100
AcDbAlignedDimension
 13
3438.08479127592
 23
10616.19978712185
 33
0.0
 14
3428.08479127592
 24
10379.19978712185
 34
0.0
 50
90.0
100
AcDbRotatedDimension
  0
DIMENSION
  5
93B
330
1A
100
AcDbEntity
  8
寸法
100
AcDbDimension
  2
*D1
 10
2854.415140076315
 20
9744.899787121852
 30
0.0
 11
2754.415140076315
 21
10062.04978712185
 31
0.0
 12
-128.4178378652141
 22
0.0
 32
0.0
 70
    32
 71
     5
 42
-1.0
  3
物置仕様図40
100
AcDbAlignedDimension
 13
3428.08479127592
 23
10379.19978712185
 33
0.0
 14
3428.08479127592
 24
9744.899787121852
 34
0.0
 50
90.0
100
AcDbRotatedDimension
1001
ACAD
1000
DSTYLE
1002
{
1070
    75
1070
     1
1002
}
  0
DIMENSION
  5
947
330
1A
100
AcDbEntity
  8
寸法
100
AcDbDimension
  2
*D2
 10
2854.415140076315
 20
9110.599787121849
 30
0.0
 11
2754.415140076315
 21
9427.749787121852
 31
0.0
 12
-128.4178378652141
 22
0.0
 32
0.0
 70
    32
 71
     5
 42
-1.0
  3
物置仕様図40
100
AcDbAlignedDimension
 13
3428.08479127592
 23
9744.899787121852
 33
0.0
 14
3428.08479127592
 24
9110.599787121849
 34
0.0
 50
90.0
100
AcDbRotatedDimension
1001
ACAD
1000
DSTYLE
1002
{
1070
    75
1070
     1
1002
}
  0
DIMENSION
  5
953
330
1A
100
AcDbEntity
  8
寸法
100
AcDbDimension
  2
*D3
 10
2854.415140076315
 20
8476.299787121847
 30
0.0
 11
2759.245375162151
 21
8908.775928261613
 31
0.0
 12
-128.4178378652141
 22
0.0
 32
0.0
 70
   160
 71
     5
 42
-1.0
  3
物置仕様図40
100
AcDbAlignedDimension
 13
3428.08479127592
 23
9110.599787121849
 33
0.0
 14
3428.08479127592
 24
8476.299787121847
 34
0.0
 50
90.0
100
AcDbRotatedDimension
1001
ACAD
1000
DSTYLE
1002
{
1070
    75
1070
     1
1002
}
  0
DIMENSION
  5
95F
330
1A
100
AcDbEntity
  8
寸法
100
AcDbDimension
  2
*D4
 10
2854.415140076315
 20
8216.199787121851
 30
0.0
 11
2694.403329052693
 21
8401.617056612504
 31
0.0
 12
-128.4178378652141
 22
0.0
 32
0.0
 70
   160
 71
     5
 42
-1.0
  3
物置仕様図40
100
AcDbAlignedDimension
 13
3428.08479127592
 23
8476.299787121847
 33
0.0
 14
3428.08479127592
 24
8216.199787121851
 34
0.0
 50
90.0
100
AcDbRotatedDimension
1001
ACAD
1000
DSTYLE
1002
{
1070
    75
1070
     1
1002
}
  0
DIMENSION
  5
96B
330
1A
100
AcDbEntity
  8
寸法
100
AcDbDimension
  2
*D5
 10
2854.415140076315
 20
7321.799787121851
 30
0.0
 11
2752.938922482208
 21
7530.32649886384
 31
0.0
 12
-128.4178378652141
 22
0.0
 32
0.0
 70
   160
 71
     5
 42
-1.0
  3
物置仕様図40
100
AcDbAlignedDimension
 13
3428.08479127592
 23
7956.099787121854
 33
0.0
 14
3428.08479127592
 24
7321.799787121851
 34
0.0
 50
90.0
100
AcDbRotatedDimension
1001
ACAD
1000
DSTYLE
1002
{
1070
    75
1070
     1
1002
}
  0
DIMENSION
  5
977
330
1A
100
AcDbEntity
  8
寸法
100
AcDbDimension
  2
*D6
 10
2854.415140076315
 20
6687.499787121852
 30
0.0
 11
2754.415140076315
 21
7004.649787121852
 31
0.0
 12
-128.4178378652141
 22
0.0
 32
0.0
 70
    32
 71
     5
 42
-1.0
  3
物置仕様図40
100
AcDbAlignedDimension
 13
3428.08479127592
 23
7321.799787121851
 33
0.0
 14
3428.08479127592
 24
6687.499787121852
 34
0.0
 50
90.0
100
AcDbRotatedDimension
1001
ACAD
1000
DSTYLE
1002
{
1070
    75
1070
     1
1002
}
  0
DIMENSION
  5
983
330
1A
100
AcDbEntity
  8
寸法
100
AcDbDimension
  2
*D7
 10
2854.415140076315
 20
6053.199787121851
 30
0.0
 11
2754.415140076315
 21
6370.349787121852
 31
0.0
 12
-128.4178378652141
 22
0.0
 32
0.0
 70
    32
 71
     5
 42
-1.0
  3
物置仕様図40
100
AcDbAlignedDimension
 13
3428.08479127592
 23
6687.499787121852
 33
0.0
 14
3428.08479127592
 24
6053.199787121851
 34
0.0
 50
90.0
100
AcDbRotatedDimension
1001
ACAD
1000
DSTYLE
1002
{
1070
    75
1070
     1
1002
}
  0
DIMENSION
  5
991
330
1A
100
AcDbEntity
  8
寸法
100
AcDbDimension
  2
*D8
 10
2854.415140076315
 20
5816.199787121852
 30
0.0
 11
2753.694554790083
 21
5934.699787121852
 31
0.0
 12
-128.4178378652141
 22
0.0
 32
0.0
 70
   160
 71
     5
 42
-1.0
  3
物置仕様図40
100
AcDbAlignedDimension
 13
3428.08479127592
 23
6053.199787121851
 33
0.0
 14
3438.08479127592
 24
5816.199787121852
 34
0.0
 50
90.0
100
AcDbRotatedDimension
1001
ACAD
1000
DSTYLE
1002
{
1070
    75
1070
     1
1002
}
  0
DIMENSION
  5
99E
330
1A
100
AcDbEntity
  8
寸法
100
AcDbDimension
  2
*D9
 10
2378.966968675668
 20
5816.199787121852
 30
0.0
 11
2278.966968675668
 21
8216.199787121851
 31
0.0
 12
-128.4178378652141
 22
0.0
 32
0.0
 70
    32
 71
     5
 42
-1.0
  3
物置仕様図40
100
AcDbAlignedDimension
 13
3438.08479127592
 23
10616.19978712185
 33
0.0
 14
3438.08479127592
 24
5816.199787121852
 34
0.0
 50
90.0
100
AcDbRotatedDimension
  0
DIMENSION
  5
9AB
330
1A
100
AcDbEntity
  8
寸法
100
AcDbDimension
  2
*D10
 10
6923.537714463041
 20
8251.199787121853
 30
0.0
 11
6823.525903439419
 21
9398.699787121852
 31
0.0
 12
-128.4178378652141
 22
0.0
 32
0.0
 70
    32
 71
     5
 42
-1.0
  3
物置仕様図40
100
AcDbAlignedDimension
 13
6263.084791275918
 23
10546.19978712185
 33
0.0
 14
6263.084791275919
 24
8251.199787121853
 34
0.0
 50
90.0
100
AcDbRotatedDimension
  0
DIMENSION
  5
9B9
330
1A
100
AcDbEntity
  8
寸法
100
AcDbDimension
  2
*D11
 10
6923.537714463041
 20
8181.199787121853
 30
0.0
 11
7083.53771446304
 21
8216.199787121853
 31
0.0
 12
-128.4178378652141
 22
0.0
 32
0.0
 70
    32
 71
     5
 42
-1.0
  3
物置仕様図40
100
AcDbAlignedDimension
 13
6263.084791275919
 23
8251.199787121853
 33
0.0
 14
6263.08479127592
 24
8181.199787121853
 34
0.0
 50
90.0
100
AcDbRotatedDimension
1001
ACAD
1000
DSTYLE
1002
{
1070
    75
1070
     1
1002
}
  0
DIMENSION
  5
9C5
330
1A
100
AcDbEntity
  8
寸法
100
AcDbDimension
  2
*D12
 10
6923.537714463041
 20
5886.199787121853
 30
0.0
 11
6823.525903439419
 21
7033.699787121854
 31
0.0
 12
-128.4178378652141
 22
0.0
 32
0.0
 70
    32
 71
     5
 42
-1.0
  3
物置仕様図40
100
AcDbAlignedDimension
 13
6263.08479127592
 23
8181.199787121853
 33
0.0
 14
6263.084791275918
 24
5886.199787121853
 34
0.0
 50
90.0
100
AcDbRotatedDimension
1001
ACAD
1000
DSTYLE
1002
{
1070
    75
1070
     1
1002
}
  0
DIMENSION
  5
9D3
330
1A
100
AcDbEntity
  8
寸法
100
AcDbDimension
  2
*D13
 10
6923.537714463041
 20
5816.199787121851
 30
0.0
 11
6843.971424808872
 21
5721.818795610772
 31
0.0
 12
-128.4178378652141
 22
0.0
 32
0.0
 70
   160
 71
     5
 42
-1.0
  3
物置仕様図40
100
AcDbAlignedDimension
 13
6263.084791275918
 23
5886.199787121853
 33
0.0
 14
6298.08479127592
 24
5816.199787121851
 34
0.0
 50
90.0
100
AcDbRotatedDimension
1001
ACAD
1000
DSTYLE
1002
{
1070
    75
1070
     1
1002
}
  0
DIMENSION
  5
9EC
330
1A
100
AcDbEntity
  8
寸法
100
AcDbDimension
  2
*D14
 10
6923.537714463041
 20
10616.19978712185
 30
0.0
 11
6841.148799555464
 21
10725.51770519528
 31
0.0
 12
-128.4178378652141
 22
0.0
 32
0.0
 70
   160
 71
     5
 42
-1.0
  3
物置仕様図40
100
AcDbAlignedDimension
 13
6263.084791275918
 23
10546.19978712185
 33
0.0
 14
6298.084791275919
 24
10616.19978712185
 34
0.0
 50
90.0
100
AcDbRotatedDimension
1001
ACAD
1000
DSTYLE
1002
{
1070
    75
1070
     1
1002
}
  0
DIMENSION
  5
A36
330
1A
100
AcDbEntity
  8
寸法
100
AcDbDimension
  2
*D15
 10
2854.415140076315
 20
7956.099787121854
 30
0.0
 11
2694.403329052693
 21
7998.164696165517
 31
0.0
 12
-128.4178378652141
 22
0.0
 32
0.0
 70
   160
 71
     5
 42
-1.0
  3
物置仕様図40
100
AcDbAlignedDimension
 13
3428.08479127592
 23
8216.199787121851
 33
0.0
 14
3428.08479127592
 24
7956.099787121854
 34
0.0
 50
90.0
100
AcDbRotatedDimension
1001
ACAD
1000
DSTYLE
1002
{
1070
    75
1070
     1
1002
}
  0
LINE
  5
ADA
330
1A
100
AcDbEntity
  8
センター
 48
10.0
100
AcDbLine
 10
8916.327550881034
 20
4063.913661418744
 30
0.0
 11
8916.327550881034
 21
2299.894328662096
 31
0.0
  0
LINE
  5
ADB
330
1A
100
AcDbEntity
  8
センター
 48
10.0
100
AcDbLine
 10
10566.32755088103
 20
4360.894328662096
 30
0.0
 11
10566.32755088103
 21
2299.894328662096
 31
0.0
  0
LINE
  5
ADC
330
1A
100
AcDbEntity
  8
センター
 48
10.0
100
AcDbLine
 10
12216.32755088103
 20
4063.913661418744
 30
0.0
 11
12216.32755088103
 21
2299.894328662096
 31
0.0
  0
DIMENSION
  5
B6C
330
1A
100
AcDbEntity
  8
寸法
100
AcDbDimension
  2
*D16
 10
13483.45611201606
 20
2249.894328662096
 30
0.0
 11
13362.01802163522
 21
2430.297375140057
 31
0.0
 70
   160
 71
     5
 42
-1.0
  3
物置仕様図40
100
AcDbAlignedDimension
 13
12966.32755088103
 23
2299.894328662096
 33
0.0
 14
13495.59992105415
 24
2249.894328662096
 34
0.0
 50
90.0
100
AcDbRotatedDimension
  0
DIMENSION
  5
B95
330
1A
100
AcDbEntity
  8
寸法
100
AcDbDimension
  2
*D17
 10
8078.354899444727
 20
2499.894328662096
 30
0.0
 11
7967.79826238547
 21
2374.894328662096
 31
0.0
 70
   160
 71
     5
 42
-1.0
  3
物置仕様図40
100
AcDbAlignedDimension
 13
8062.254670437178
 23
2249.894328662096
 33
0.0
 14
8946.327550881035
 24
2499.894328662096
 34
0.0
 50
90.0
100
AcDbRotatedDimension
  0
DIMENSION
  5
BA1
330
1A
100
AcDbEntity
  8
寸法
100
AcDbDimension
  2
*D18
 10
8078.354899444727
 20
3399.894328662096
 30
0.0
 11
7978.354899444727
 21
2949.894328662096
 31
0.0
 70
    32
 71
     5
 42
-1.0
  3
物置仕様図40
100
AcDbAlignedDimension
 13
8946.327550881035
 23
2499.894328662096
 33
0.0
 14
8946.327550881035
 24
3399.894328662096
 34
0.0
 50
90.0
100
AcDbRotatedDimension
1001
ACAD
1000
DSTYLE
1002
{
1070
    75
1070
     1
1002
}
  0
DIMENSION
  5
C39
330
1A
100
AcDbEntity
  8
寸法
100
AcDbDimension
  2
*D19
 10
6554.60244337315
 20
2249.894328662096
 30
0.0
 11
6394.59063234953
 21
2114.894328662096
 31
0.0
 70
    32
 71
     5
 42
-1.0
  3
物置仕様図40
100
AcDbAlignedDimension
 13
6088.08479127592
 23
1979.894328662096
 33
0.0
 14
6768.266128291223
 24
2249.894328662096
 34
0.0
 50
90.0
100
AcDbRotatedDimension
  0
LINE
  5
DCE
330
1A
100
AcDbEntity
  8
部品1
100
AcDbLine
 10
3473.08479127592
 20
8216.199787121851
 30
0.0
 11
3428.08479127592
 21
8216.199787121851
 31
0.0
  0
LINE
  5
DD0
330
1A
100
AcDbEntity
  8
部品1
100
AcDbLine
 10
6263.084791275919
 20
8216.199787121851
 30
0.0
 11
6308.08479127592
 21
8216.199787121851
 31
0.0
  0
LINE
  5
DD1
330
1A
100
AcDbEntity
  8
センター
 48
10.0
100
AcDbLine
 10
3458.084791275919
 20
7956.09978712185
 30
0.0
 11
6278.084791275916
 21
7956.099787121854
 31
0.0
  0
LINE
  5
DD2
330
1A
100
AcDbEntity
  8
センター
 48
10.0
100
AcDbLine
 10
3458.084791275919
 20
7321.799787121846
 30
0.0
 11
6278.084791275917
 21
7321.799787121854
 31
0.0
  0
LINE
  5
DD3
330
1A
100
AcDbEntity
  8
センター
 48
10.0
100
AcDbLine
 10
3458.08479127592
 20
6687.499787121852
 30
0.0
 11
6278.084791275917
 21
6687.499787121852
 31
0.0
  0
LINE
  5
DD4
330
1A
100
AcDbEntity
  8
センター
 48
10.0
100
AcDbLine
 10
3458.08479127592
 20
6053.199787121851
 30
0.0
 11
6278.084791275917
 21
6053.199787121853
 31
0.0
  0
LINE
  5
DDD
330
1A
100
AcDbEntity
  8
部品1
100
AcDbLine
 10
6263.084791275918
 20
10546.19978712185
 30
0.0
 11
3473.08479127592
 21
10546.19978712185
 31
0.0
  0
LINE
  5
DDE
330
1A
100
AcDbEntity
  8
部品1
100
AcDbLine
 10
3473.08479127592
 20
10566.19978712185
 30
0.0
 11
3455.58479127592
 21
10566.19978712185
 31
0.0
  0
ARC
  5
DDF
330
1A
100
AcDbEntity
  8
部品1
100
AcDbCircle
 10
3455.58479127592
 20
10571.19978712185
 30
0.0
 40
5.0
100
AcDbArc
 50
180.0000000000005
 51
270.0
  0
LINE
  5
DE0
330
1A
100
AcDbEntity
  8
部品1
100
AcDbLine
 10
6280.584791275917
 20
10566.19978712185
 30
0.0
 11
6263.084791275919
 21
10566.19978712185
 31
0.0
  0
ARC
  5
DE1
330
1A
100
AcDbEntity
  8
部品1
100
AcDbCircle
 10
6280.584791275917
 20
10571.19978712185
 30
0.0
 40
5.0
100
AcDbArc
 50
270.0
 51
359.9999999999968
  0
ARC
  5
DE2
330
1A
100
AcDbEntity
  8
部品1
100
AcDbCircle
 10
6280.584791275917
 20
5861.19978712185
 30
0.0
 40
5.0
100
AcDbArc
 50
0.0000000000031621
 51
90.0
  0
LINE
  5
DE3
330
1A
100
AcDbEntity
  8
部品1
100
AcDbLine
 10
6280.584791275917
 20
5866.19978712185
 30
0.0
 11
6263.084791275919
 21
5866.19978712185
 31
0.0
  0
LINE
  5
DE4
330
1A
100
AcDbEntity
  8
部品1
100
AcDbLine
 10
6285.584791275917
 20
5861.19978712185
 30
0.0
 11
6285.58479127592
 21
5816.199787121852
 31
0.0
  0
LINE
  5
DE5
330
1A
100
AcDbEntity
  8
部品1
100
AcDbLine
 10
3473.08479127592
 20
5866.19978712185
 30
0.0
 11
3455.58479127592
 21
5866.199787121852
 31
0.0
  0
ARC
  5
DE6
330
1A
100
AcDbEntity
  8
部品1
100
AcDbCircle
 10
3455.58479127592
 20
5861.199787121852
 30
0.0
 40
5.0
100
AcDbArc
 50
90.0
 51
179.9999999999995
  0
LINE
  5
DE7
330
1A
100
AcDbEntity
  8
部品1
100
AcDbLine
 10
3450.58479127592
 20
5816.199787121852
 30
0.0
 11
3450.58479127592
 21
5861.199787121852
 31
0.0
  0
LINE
  5
DE8
330
1A
100
AcDbEntity
  8
部品1
100
AcDbLine
 10
6263.084791275918
 20
5886.199787121853
 30
0.0
 11
3473.08479127592
 21
5886.199787121849
 31
0.0
  0
LINE
  5
DE9
330
1A
100
AcDbEntity
  8
部品1
100
AcDbLine
 10
4743.290182088236
 20
8251.199787121853
 30
0.0
 11
6263.084791275919
 21
8251.199787121853
 31
0.0
  0
LINE
  5
DEA
330
1A
100
AcDbEntity
  8
部品1
100
AcDbLine
 10
4764.4096013774
 20
8181.199787121851
 30
0.0
 11
6263.08479127592
 21
8181.199787121853
 31
0.0
  0
LINE
  5
DEC
330
1A
100
AcDbEntity
  8
部品1
100
AcDbLine
 10
3498.08479127592
 20
8297.699787121851
 30
0.0
 11
4729.260853560433
 21
8297.699787121851
 31
0.0
  0
LINE
  5
DED
330
1A
100
AcDbEntity
  8
部品1
100
AcDbLine
 10
3498.08479127592
 20
8134.699787121851
 30
0.0
 11
4778.438929905203
 21
8134.699787121851
 31
0.0
  0
LINE
  5
DEE
330
1A
100
AcDbEntity
  8
細線
100
AcDbLine
 10
3498.084791275921
 20
8287.699787121852
 30
0.0
 11
4732.277913458885
 21
8287.699787121852
 31
0.0
  0
LINE
  5
DEF
330
1A
100
AcDbEntity
  8
細線
100
AcDbLine
 10
3498.08479127592
 20
8144.699787121851
 30
0.0
 11
4775.42187000675
 21
8144.699787121851
 31
0.0
  0
LINE
  5
DF0
330
1A
100
AcDbEntity
  8
部品1
100
AcDbLine
 10
3473.08479127592
 20
8251.199787121853
 30
0.0
 11
3498.08479127592
 21
8251.199787121853
 31
0.0
  0
LINE
  5
DF1
330
1A
100
AcDbEntity
  8
部品1
100
AcDbLine
 10
3473.08479127592
 20
8181.199787121851
 30
0.0
 11
3498.08479127592
 21
8181.199787121853
 31
0.0
  0
LINE
  5
DF3
330
1A
100
AcDbEntity
  8
点線
 48
50.0
100
AcDbLine
 10
4729.260853560433
 20
8297.699787121851
 30
0.0
 11
6263.08479127592
 21
8297.699787121851
 31
0.0
  0
LINE
  5
DF4
330
1A
100
AcDbEntity
  8
点線
 48
50.0
100
AcDbLine
 10
4778.438929905203
 20
8134.699787121851
 30
0.0
 11
6263.08479127592
 21
8134.699787121853
 31
0.0
  0
LINE
  5
DF5
330
1A
100
AcDbEntity
  8
点線
 48
6.0
100
AcDbLine
 10
3648.08479127592
 20
8297.699787121851
 30
0.0
 11
3648.08479127592
 21
8134.699787121851
 31
0.0
  0
LINE
  5
DF6
330
1A
100
AcDbEntity
  8
点線
 48
6.0
100
AcDbLine
 10
3708.084791275921
 20
8297.699787121851
 30
0.0
 11
3708.084791275921
 21
8134.699787121851
 31
0.0
  0
LINE
  5
F24
330
1A
100
AcDbEntity
  8
部品1
100
AcDbLine
 10
4819.501115123135
 20
7998.599787121853
 30
0.0
 11
3498.08479127592
 21
7998.599787121853
 31
0.0
  0
LINE
  5
F25
330
1A
100
AcDbEntity
  8
部品1
100
AcDbLine
 10
5010.873224481952
 20
7364.299787121852
 30
0.0
 11
3498.08479127592
 21
7364.299787121851
 31
0.0
  0
LINE
  5
F26
330
1A
100
AcDbEntity
  8
部品1
100
AcDbLine
 10
4496.826558983684
 20
9068.099787121846
 30
0.0
 11
3498.08479127592
 21
9068.099787121848
 31
0.0
  0
LINE
  5
F27
330
1A
100
AcDbEntity
  8
部品1
100
AcDbLine
 10
4688.198668342503
 20
8433.799787121843
 30
0.0
 11
3498.08479127592
 21
8433.799787121845
 31
0.0
  0
LINE
  5
F28
330
1A
100
AcDbEntity
  8
部品1
100
AcDbLine
 10
4114.082340266048
 20
10336.69978712185
 30
0.0
 11
3498.08479127592
 21
10336.69978712185
 31
0.0
  0
LINE
  5
F29
330
1A
100
AcDbEntity
  8
部品1
100
AcDbLine
 10
4305.454449624867
 20
9702.39978712185
 30
0.0
 11
3498.08479127592
 21
9702.399787121851
 31
0.0
  0
LINE
  5
F2A
330
1A
100
AcDbEntity
  8
点線
 48
50.0
100
AcDbLine
 10
6278.084791275919
 20
10336.69978712185
 30
0.0
 11
4114.08234026605
 21
10336.69978712185
 31
0.0
  0
LINE
  5
F2B
330
1A
100
AcDbEntity
  8
点線
 48
50.0
100
AcDbLine
 10
6278.084791275917
 20
9702.399787121851
 30
0.0
 11
4305.454449624867
 21
9702.399787121851
 31
0.0
  0
LINE
  5
F2C
330
1A
100
AcDbEntity
  8
点線
 48
50.0
100
AcDbLine
 10
6278.084791275917
 20
9068.09978712185
 30
0.0
 11
4496.826558983683
 21
9068.09978712185
 31
0.0
  0
LINE
  5
F2D
330
1A
100
AcDbEntity
  8
点線
 48
50.0
100
AcDbLine
 10
6278.084791275919
 20
8433.799787121849
 30
0.0
 11
4688.198668342502
 21
8433.799787121849
 31
0.0
  0
LINE
  5
F2E
330
1A
100
AcDbEntity
  8
点線
 48
50.0
100
AcDbLine
 10
4819.501115123134
 20
7998.599787121856
 30
0.0
 11
6278.084791275917
 21
7998.599787121856
 31
0.0
  0
LINE
  5
F2F
330
1A
100
AcDbEntity
  8
点線
 48
50.0
100
AcDbLine
 10
5010.873224481953
 20
7364.299787121851
 30
0.0
 11
6278.084791275917
 21
7364.299787121852
 31
0.0
  0
LINE
  5
F30
330
1A
100
AcDbEntity
  8
点線
 48
50.0
100
AcDbLine
 10
5202.245333840769
 20
6729.999787121854
 30
0.0
 11
6278.084791275916
 21
6729.999787121851
 31
0.0
  0
LINE
  5
F31
330
1A
100
AcDbEntity
  8
点線
 48
50.0
100
AcDbLine
 10
5393.617443199586
 20
6095.699787121854
 30
0.0
 11
6278.084791275916
 21
6095.699787121851
 31
0.0
  0
LINE
  5
100E
330
1A
100
AcDbEntity
  8
部品1
100
AcDbLine
 10
8180.368999284885
 20
4360.230285164664
 30
0.0
 11
10566.32755088103
 21
4247.394328662095
 31
0.0
  0
LINE
  5
100F
330
1A
100
AcDbEntity
  8
部品1
100
AcDbLine
 10
8181.893970661368
 20
4245.02963969942
 30
0.0
 11
10566.32755088103
 21
4132.265801634865
 31
0.0
  0
LINE
  5
1010
330
1A
100
AcDbEntity
  8
細線
100
AcDbLine
 10
8168.709517355788
 20
4283.695624270631
 30
0.0
 11
10566.32755088103
 21
4170.308271435168
 31
0.0
  0
LINE
  5
1011
330
1A
100
AcDbEntity
  8
細線
100
AcDbLine
 10
8168.338301801281
 20
4295.726591188781
 30
0.0
 11
10566.32755088103
 21
4182.321682951052
 31
0.0
  0
LINE
  5
1014
330
1A
100
AcDbEntity
  8
部品1
100
AcDbLine
 10
8166.761077747478
 20
4346.843873811788
 30
0.0
 11
8169.514259776741
 21
4257.614202502174
 31
0.0
  0
ARC
  5
1015
330
1A
100
AcDbEntity
  8
部品1
100
AcDbCircle
 10
8179.754893958495
 20
4347.244798086849
 30
0.0
 40
13.0
100
AcDbArc
 50
87.2924044055086
 51
181.7673009117549
  0
ARC
  5
1016
330
1A
100
AcDbEntity
  8
部品1
100
AcDbCircle
 10
8182.508075987758
 20
4258.015126777234
 30
0.0
 40
13.0
100
AcDbArc
 50
181.7673009117554
 51
267.2924044055086
  0
LINE
  5
1017
330
1A
100
AcDbEntity
  8
部品1
100
AcDbLine
 10
8189.372122923222
 20
4359.804512442601
 30
0.0
 11
8192.929605320586
 21
4244.507746143661
 31
0.0
  0
LINE
  5
1018
330
1A
100
AcDbEntity
  8
部品1
100
AcDbLine
 10
8374.502474878097
 20
4177.355481380899
 30
0.0
 11
8375.501358499466
 21
4177.308242509638
 31
0.0
  0
LINE
  5
1023
330
1A
100
AcDbEntity
  8
部品1
100
AcDbLine
 10
8378.264832468213
 20
4235.742934359804
 30
0.0
 11
8375.425776305448
 21
4175.710028715442
 31
0.0
  0
LINE
  5
1024
330
1A
100
AcDbEntity
  8
部品1
100
AcDbLine
 10
8420.217944565768
 20
4233.758901766857
 30
0.0
 11
8417.378888403003
 21
4173.725996122495
 31
0.0
  0
LINE
  5
1025
330
1A
100
AcDbEntity
  8
部品1
100
AcDbLine
 10
9012.564832468212
 20
4205.745830193136
 30
0.0
 11
9010.7018334875
 21
4166.352019147238
 31
0.0
  0
LINE
  5
1026
330
1A
100
AcDbEntity
  8
部品1
100
AcDbLine
 10
9054.517944565766
 20
4203.761797600191
 30
0.0
 11
9052.655259811192
 21
4164.374630983618
 31
0.0
  0
LINE
  5
1027
330
1A
100
AcDbEntity
  8
部品1
100
AcDbLine
 10
9646.86483246821
 20
4175.748726026471
 30
0.0
 11
9644.025776305447
 21
4115.715820382109
 31
0.0
  0
LINE
  5
1028
330
1A
100
AcDbEntity
  8
部品1
100
AcDbLine
 10
9688.817944565768
 20
4173.764693433525
 30
0.0
 11
9685.978888403003
 21
4113.731787789162
 31
0.0
  0
LINE
  5
1029
330
1A
100
AcDbEntity
  8
部品1
100
AcDbLine
 10
10281.16483246821
 20
4145.751621859804
 30
0.0
 11
10278.32577630544
 21
4085.718716215443
 31
0.0
  0
LINE
  5
102A
330
1A
100
AcDbEntity
  8
部品1
100
AcDbLine
 10
10323.11794456576
 20
4143.767589266857
 30
0.0
 11
10320.278888403
 21
4083.734683622496
 31
0.0
  0
LINE
  5
102B
330
1A
100
AcDbEntity
  8
部品1
100
AcDbLine
 10
8375.425776305448
 20
4175.710028715442
 30
0.0
 11
8417.378888403003
 21
4173.725996122497
 31
0.0
  0
LINE
  5
102C
330
1A
100
AcDbEntity
  8
部品1
100
AcDbLine
 10
10320.35447059702
 20
4085.33289741669
 30
0.0
 11
10321.49288693044
 21
4085.279059810921
 31
0.0
  0
LINE
  5
102D
330
1A
100
AcDbEntity
  8
部品1
100
AcDbLine
 10
9686.054470597021
 20
4115.330001583357
 30
0.0
 11
10278.40135849946
 21
4087.316930009637
 31
0.0
  0
LINE
  5
102E
330
1A
100
AcDbEntity
  8
部品1
100
AcDbLine
 10
9103.688366663689
 20
4142.871065248537
 30
0.0
 11
9644.101358499465
 21
4117.314034176303
 31
0.0
  0
LINE
  5
102F
330
1A
100
AcDbEntity
  8
部品1
100
AcDbLine
 10
8417.45447059702
 20
4175.32420991669
 30
0.0
 11
8716.092160195985
 21
4161.201135846073
 31
0.0
  0
LINE
  5
1030
330
1A
100
AcDbEntity
  8
部品1
100
AcDbLine
 10
10278.32577630544
 20
4085.718716215443
 30
0.0
 11
10320.278888403
 21
4083.734683622497
 31
0.0
  0
LINE
  5
1031
330
1A
100
AcDbEntity
  8
部品1
100
AcDbLine
 10
9644.025776305445
 20
4115.715820382109
 30
0.0
 11
9685.978888403003
 21
4113.731787789162
 31
0.0
  0
LINE
  5
1033
330
1A
100
AcDbEntity
  8
部品1
100
AcDbLine
 10
8377.265948846842
 20
4235.790173231065
 30
0.0
 11
8374.407997135575
 21
4175.357714138157
 31
0.0
  0
LINE
  5
1034
330
1A
100
AcDbEntity
  8
部品1
100
AcDbLine
 10
8352.256188233056
 20
4176.405310100838
 30
0.0
 11
8374.407997135575
 21
4175.357714138157
 31
0.0
  0
LINE
  5
1037
330
1A
100
AcDbEntity
  8
部品1
100
AcDbLine
 10
8332.857964179854
 20
4235.184040964425
 30
0.0
 11
8342.919608159501
 21
4184.448861925991
 31
0.0
  0
ARC
  5
1039
330
1A
100
AcDbEntity
  8
部品1
100
AcDbCircle
 10
8337.762448572929
 20
4236.156683158699
 30
0.0
 40
5.0
100
AcDbArc
 50
159.8348012817864
 51
191.2171776259199
  0
ARC
  5
103A
330
1A
100
AcDbEntity
  8
部品1
100
AcDbCircle
 10
8352.728576945661
 20
4186.394146314542
 30
0.0
 40
10.0
100
AcDbArc
 50
191.2171776259199
 51
267.2924044055087
  0
LINE
  5
10A9
330
1A
100
AcDbEntity
  8
部品1
100
AcDbLine
 10
9103.527550881034
 20
4139.455508802793
 30
0.0
 11
9105.926143704285
 21
4190.399073189943
 31
0.0
  0
CIRCLE
  5
10AA
330
1A
100
AcDbEntity
  8
細線
100
AcDbCircle
 10
9075.106941276725
 20
4174.33075735679
 30
0.0
 40
8.0
  0
LWPOLYLINE
  5
10AB
330
1A
100
AcDbEntity
  8
細線
100
AcDbPolyline
 90
        6
 70
     1
 43
0.0
 10
9081.606941276724
 20
4178.083534106523
 10
9075.106941276725
 20
4181.836310856255
 10
9068.606941276724
 20
4178.083534106523
 10
9068.606941276724
 20
4170.577980607059
 10
9075.106941276725
 20
4166.825203857326
 10
9081.606941276724
 20
4170.577980607059
  0
CIRCLE
  5
10B3
330
1A
100
AcDbEntity
  8
細線
100
AcDbCircle
 10
9075.106941276725
 20
4174.33075735679
 30
0.0
 40
6.0
  0
CIRCLE
  5
10B4
330
1A
100
AcDbEntity
  8
細線
100
AcDbCircle
 10
8863.341536373248
 20
4184.301378504327
 30
0.0
 40
6.0
  0
LWPOLYLINE
  5
10B5
330
1A
100
AcDbEntity
  8
細線
100
AcDbPolyline
 90
        6
 70
     1
 43
0.0
 10
8869.841536373249
 20
4188.05415525406
 10
8863.341536373248
 20
4191.806932003792
 10
8856.841536373247
 20
4188.05415525406
 10
8856.841536373247
 20
4180.548601754595
 10
8863.341536373248
 20
4176.795825004863
 10
8869.841536373249
 20
4180.548601754595
  0
CIRCLE
  5
10BD
330
1A
100
AcDbEntity
  8
細線
100
AcDbCircle
 10
8863.341536373248
 20
4184.301378504327
 30
0.0
 40
8.0
  0
CIRCLE
  5
10BE
330
1A
100
AcDbEntity
  8
細線
100
AcDbCircle
 10
8969.224238824985
 20
4179.316067930558
 30
0.0
 40
6.0
  0
LWPOLYLINE
  5
10BF
330
1A
100
AcDbEntity
  8
細線
100
AcDbPolyline
 90
        6
 70
     1
 43
0.0
 10
8975.724238824986
 20
4183.068844680291
 10
8969.224238824985
 20
4186.821621430023
 10
8962.724238824986
 20
4183.068844680291
 10
8962.724238824986
 20
4175.563291180826
 10
8969.224238824985
 20
4171.810514431093
 10
8975.724238824986
 20
4175.563291180826
  0
CIRCLE
  5
10C7
330
1A
100
AcDbEntity
  8
細線
100
AcDbCircle
 10
8969.224238824985
 20
4179.316067930558
 30
0.0
 40
8.0
  0
LINE
  5
10C8
330
1A
100
AcDbEntity
  8
部品1
100
AcDbLine
 10
8715.927550881033
 20
4157.705008802794
 30
0.0
 11
8718.32614370426
 21
4208.648573189946
 31
0.0
  0
ARC
  5
10C9
330
1A
100
AcDbEntity
  8
部品1
100
AcDbCircle
 10
8762.327550881034
 20
4035.387405353577
 30
0.0
 40
120.0
100
AcDbArc
 50
0.0
 51
87.30431450645028
  0
LINE
  5
10CA
330
1A
100
AcDbEntity
  8
部品1
100
AcDbLine
 10
8950.327550881032
 20
3982.255508802794
 30
0.0
 11
8882.327550881031
 21
3982.255508802793
 31
0.0
  0
ARC
  5
10CB
330
1A
100
AcDbEntity
  8
部品1
100
AcDbCircle
 10
9055.327550881033
 20
4036.608605784729
 30
0.0
 40
105.0
100
AcDbArc
 50
87.30431450645079
 51
180.0
  0
LINE
  5
10CC
330
1A
100
AcDbEntity
  8
部品1
100
AcDbLine
 10
9103.527550881036
 20
4139.455508802793
 30
0.0
 11
9060.265830222974
 21
4141.49241481711
 31
0.0
  0
LINE
  5
10CD
330
1A
100
AcDbEntity
  8
部品1
100
AcDbLine
 10
8950.327550881032
 20
4036.608605784729
 30
0.0
 11
8950.327550881032
 21
3982.255508802795
 31
0.0
  0
CIRCLE
  5
10CE
330
1A
100
AcDbEntity
  8
細線
100
AcDbCircle
 10
8916.327550881034
 20
4097.255508802795
 30
0.0
 40
6.0
  0
LWPOLYLINE
  5
10CF
330
1A
100
AcDbEntity
  8
細線
100
AcDbPolyline
 90
        6
 70
     1
 43
0.0
 10
8922.827550881036
 20
4101.008285552526
 10
8916.327550881034
 20
4104.761062302259
 10
8909.827550881034
 20
4101.008285552526
 10
8909.827550881034
 20
4093.502732053062
 10
8916.327550881034
 20
4089.74995530333
 10
8922.827550881036
 20
4093.502732053062
  0
CIRCLE
  5
10D7
330
1A
100
AcDbEntity
  8
細線
100
AcDbCircle
 10
8916.327550881034
 20
4097.255508802795
 30
0.0
 40
8.0
  0
LINE
  5
10D8
330
1A
100
AcDbEntity
  8
部品1
100
AcDbLine
 10
8882.327550881033
 20
4035.387405353577
 30
0.0
 11
8882.327550881033
 21
3982.255508802793
 31
0.0
  0
CIRCLE
  5
10D9
330
1A
100
AcDbEntity
  8
細線
100
AcDbCircle
 10
8916.327550881034
 20
4012.255508802794
 30
0.0
 40
6.0
  0
LWPOLYLINE
  5
10DA
330
1A
100
AcDbEntity
  8
細線
100
AcDbPolyline
 90
        6
 70
     1
 43
0.0
 10
8922.827550881036
 20
4016.008285552525
 10
8916.327550881034
 20
4019.761062302258
 10
8909.827550881034
 20
4016.008285552525
 10
8909.827550881034
 20
4008.502732053062
 10
8916.327550881034
 20
4004.74995530333
 10
8922.827550881036
 20
4008.502732053062
  0
CIRCLE
  5
10E2
330
1A
100
AcDbEntity
  8
細線
100
AcDbCircle
 10
8916.327550881034
 20
4012.255508802794
 30
0.0
 40
8.0
  0
LINE
  5
10E3
330
1A
100
AcDbEntity
  8
部品1
100
AcDbLine
 10
8767.971298700393
 20
4155.254615676298
 30
0.0
 11
8715.927550881032
 21
4157.705008802792
 31
0.0
  0
LINE
  5
10E5
330
1A
100
AcDbEntity
  8
部品1
100
AcDbLine
 10
9096.407521829005
 20
4200.858319701789
 30
0.0
 11
8728.785390216101
 21
4218.167195065227
 31
0.0
  0
ARC
  5
10E6
330
1A
100
AcDbEntity
  8
部品1
100
AcDbCircle
 10
9095.937209510724
 20
4190.869385508228
 30
0.0
 40
10.0
100
AcDbArc
 50
357.3043145064243
 51
87.30431450645097
  0
ARC
  5
10E8
330
1A
100
AcDbEntity
  8
部品1
100
AcDbCircle
 10
8728.31507789782
 20
4208.178260871665
 30
0.0
 40
10.0
100
AcDbArc
 50
87.30431450645099
 51
177.3043145064532
  0
CIRCLE
  5
10EA
330
1A
100
AcDbEntity
  8
細線
100
AcDbCircle
 10
8757.458833921511
 20
4189.286689078095
 30
0.0
 40
6.0
  0
LWPOLYLINE
  5
10EB
330
1A
100
AcDbEntity
  8
細線
100
AcDbPolyline
 90
        6
 70
     1
 43
0.0
 10
8763.958833921511
 20
4193.039465827827
 10
8757.458833921511
 20
4196.79224257756
 10
8750.958833921512
 20
4193.039465827827
 10
8750.958833921512
 20
4185.533912328362
 10
8757.458833921511
 20
4181.78113557863
 10
8763.958833921511
 20
4185.533912328362
  0
CIRCLE
  5
10F3
330
1A
100
AcDbEntity
  8
細線
100
AcDbCircle
 10
8757.458833921511
 20
4189.286689078095
 30
0.0
 40
8.0
  0
LINE
  5
1174
330
1A
100
AcDbEntity
  8
部品1
100
AcDbLine
 10
9015.461095435211
 20
4161.121357694154
 30
0.0
 11
9047.425685545201
 21
4159.616358243141
 31
0.0
  0
ARC
  5
1175
330
1A
100
AcDbEntity
  8
部品1
100
AcDbCircle
 10
9015.69625159435
 20
4166.115824790935
 30
0.0
 40
5.0
100
AcDbArc
 50
177.2924044055075
 51
267.3043145064511
  0
ARC
  5
1176
330
1A
100
AcDbEntity
  8
部品1
100
AcDbCircle
 10
9047.66084170434
 20
4164.610825339923
 30
0.0
 40
5.0
100
AcDbArc
 50
267.304314506451
 51
357.2924044055093
  0
CIRCLE
  5
1179
330
1A
100
AcDbEntity
  8
細線
100
AcDbCircle
 10
9032.195890199453
 20
4176.351152678345
 30
0.0
 40
8.0
  0
LWPOLYLINE
  5
117A
330
1A
100
AcDbEntity
  8
細線
100
AcDbPolyline
 90
        6
 70
     1
 43
0.0
 10
9038.695890199454
 20
4180.103929428077
 10
9032.195890199453
 20
4183.856706177809
 10
9025.695890199454
 20
4180.103929428077
 10
9025.695890199454
 20
4172.598375928613
 10
9032.195890199453
 20
4168.84559917888
 10
9038.695890199454
 20
4172.598375928613
  0
CIRCLE
  5
1182
330
1A
100
AcDbEntity
  8
細線
100
AcDbCircle
 10
9032.195890199453
 20
4176.351152678345
 30
0.0
 40
6.0
  0
LINE
  5
1184
330
1A
100
AcDbEntity
  8
部品1
100
AcDbLine
 10
10321.32755088103
 20
4081.782967136124
 30
0.0
 11
10341.79415842566
 21
4080.815067154327
 31
0.0
  0
LINE
  5
1186
330
1A
100
AcDbEntity
  8
部品1
100
AcDbLine
 10
10334.19795824164
 20
4142.242479327111
 30
0.0
 11
10495.32755088103
 21
4134.622392341873
 31
0.0
  0
LINE
  5
1188
330
1A
100
AcDbEntity
  8
部品1
100
AcDbLine
 10
10532.32755088103
 20
3883.782967136125
 30
0.0
 11
10566.32755088103
 21
3883.782967136125
 31
0.0
  0
ARC
  5
118D
330
1A
100
AcDbEntity
  8
部品1
100
AcDbCircle
 10
10332.34638417353
 20
3881.038342880248
 30
0.0
 40
200.0
100
AcDbArc
 50
0.786301612290221
 51
87.29240440550853
  0
LINE
  5
118E
330
1A
100
AcDbEntity
  8
部品1
100
AcDbLine
 10
10321.32755088103
 20
4081.782967136125
 30
0.0
 11
10323.73673331533
 21
4132.726031826014
 31
0.0
  0
ARC
  5
118F
330
1A
100
AcDbEntity
  8
部品1
100
AcDbCircle
 10
10333.72556952903
 20
4132.253643113407
 30
0.0
 40
10.0
100
AcDbArc
 50
87.29240440550851
 51
177.2924044055064
  0
CIRCLE
  5
1195
330
1A
100
AcDbEntity
  8
細線
100
AcDbCircle
 10
10355.87321257349
 20
4113.686685700431
 30
0.0
 40
6.0
  0
LWPOLYLINE
  5
1196
330
1A
100
AcDbEntity
  8
細線
100
AcDbPolyline
 90
        6
 70
     1
 43
0.0
 10
10362.37321257349
 20
4117.439462450163
 10
10355.87321257349
 20
4121.192239199896
 10
10349.37321257349
 20
4117.439462450163
 10
10349.37321257349
 20
4109.933908950699
 10
10355.87321257349
 20
4106.181132200967
 10
10362.37321257349
 20
4109.933908950699
  0
CIRCLE
  5
119E
330
1A
100
AcDbEntity
  8
細線
100
AcDbCircle
 10
10355.87321257349
 20
4113.686685700431
 30
0.0
 40
8.0
  0
CIRCLE
  5
119F
330
1A
100
AcDbEntity
  8
細線
100
AcDbCircle
 10
10457.75934195327
 20
4108.868320831844
 30
0.0
 40
6.0
  0
LWPOLYLINE
  5
11A0
330
1A
100
AcDbEntity
  8
細線
100
AcDbPolyline
 90
        6
 70
     1
 43
0.0
 10
10464.25934195327
 20
4112.621097581577
 10
10457.75934195327
 20
4116.373874331309
 10
10451.25934195327
 20
4112.621097581577
 10
10451.25934195327
 20
4105.115544082113
 10
10457.75934195327
 20
4101.362767332381
 10
10464.25934195327
 20
4105.115544082113
  0
CIRCLE
  5
11A8
330
1A
100
AcDbEntity
  8
細線
100
AcDbCircle
 10
10457.75934195327
 20
4108.868320831844
 30
0.0
 40
8.0
  0
CIRCLE
  5
11A9
330
1A
100
AcDbEntity
  8
細線
100
AcDbCircle
 10
10566.32755088103
 20
3916.782967136125
 30
0.0
 40
6.0
  0
LWPOLYLINE
  5
11AA
330
1A
100
AcDbEntity
  8
細線
100
AcDbPolyline
 90
        6
 70
     1
 43
0.0
 10
10572.82755088103
 20
3920.535743885857
 10
10566.32755088103
 20
3924.28852063559
 10
10559.82755088103
 20
3920.535743885857
 10
10559.82755088103
 20
3913.030190386392
 10
10566.32755088103
 20
3909.27741363666
 10
10572.82755088103
 20
3913.030190386392
  0
CIRCLE
  5
11B2
330
1A
100
AcDbEntity
  8
細線
100
AcDbCircle
 10
10566.32755088103
 20
3916.782967136125
 30
0.0
 40
8.0
  0
CIRCLE
  5
11D1
330
1A
100
AcDbEntity
  8
細線
100
AcDbCircle
 10
10566.32755088103
 20
4018.782967136124
 30
0.0
 40
6.0
  0
LWPOLYLINE
  5
11D2
330
1A
100
AcDbEntity
  8
細線
100
AcDbPolyline
 90
        6
 70
     1
 43
0.0
 10
10572.82755088103
 20
4022.535743885856
 10
10566.32755088103
 20
4026.288520635588
 10
10559.82755088103
 20
4022.535743885856
 10
10559.82755088103
 20
4015.030190386393
 10
10566.32755088103
 20
4011.27741363666
 10
10572.82755088103
 20
4015.030190386393
  0
CIRCLE
  5
11DA
330
1A
100
AcDbEntity
  8
細線
100
AcDbCircle
 10
10566.32755088103
 20
4018.782967136124
 30
0.0
 40
8.0
  0
LINE
  5
11DE
330
1A
100
AcDbEntity
  8
部品1
100
AcDbLine
 10
10566.32755088103
 20
4094.264684008541
 30
0.0
 11
10506.08668779803
 21
4094.264684008541
 31
0.0
  0
LINE
  5
11DF
330
1A
100
AcDbEntity
  8
部品1
100
AcDbLine
 10
10501.15030334759
 20
4098.46963145841
 30
0.0
 11
10495.16507363267
 21
4135.631193788068
 31
0.0
  0
ARC
  5
11E0
330
1A
100
AcDbEntity
  8
部品1
100
AcDbCircle
 10
10506.08668779803
 20
4099.264684008541
 30
0.0
 40
5.0
100
AcDbArc
 50
189.1494673622935
 51
270.0
  0
LINE
  5
11E3
330
1A
100
AcDbEntity
  8
部品1
100
AcDbLine
 10
10506.08668779803
 20
4099.264684008542
 30
0.0
 11
10500.26837976661
 21
4135.389849935483
 31
0.0
  0
LINE
  5
11E4
330
1A
100
AcDbEntity
  8
部品1
100
AcDbLine
 10
10566.32755088103
 20
4099.264684008541
 30
0.0
 11
10506.08668779803
 21
4099.264684008541
 31
0.0
  0
LINE
  5
11E5
330
1A
100
AcDbEntity
  8
部品1
100
AcDbLine
 10
12950.76113110069
 20
4245.02963969942
 30
0.0
 11
10566.32755088103
 21
4132.265801634865
 31
0.0
  0
LINE
  5
11E6
330
1A
100
AcDbEntity
  8
細線
100
AcDbLine
 10
12963.94558440628
 20
4283.695624270631
 30
0.0
 11
10566.32755088103
 21
4170.308271435168
 31
0.0
  0
LINE
  5
11E7
330
1A
100
AcDbEntity
  8
細線
100
AcDbLine
 10
12964.31679996078
 20
4295.726591188781
 30
0.0
 11
10566.32755088103
 21
4182.321682951052
 31
0.0
  0
LINE
  5
11E8
330
1A
100
AcDbEntity
  8
部品1
100
AcDbLine
 10
12757.22932545662
 20
4175.710028715442
 30
0.0
 11
12715.27621335906
 21
4173.725996122497
 31
0.0
  0
LINE
  5
11E9
330
1A
100
AcDbEntity
  8
部品1
100
AcDbLine
 10
12952.28610247718
 20
4360.230285164664
 30
0.0
 11
10566.32755088103
 21
4247.394328662095
 31
0.0
  0
LINE
  5
11EA
330
1A
100
AcDbEntity
  8
部品1
100
AcDbLine
 10
12943.28297883884
 20
4359.804512442601
 30
0.0
 11
12939.72549644148
 21
4244.507746143661
 31
0.0
  0
LINE
  5
11EB
330
1A
100
AcDbEntity
  8
部品1
100
AcDbLine
 10
12965.89402401458
 20
4346.843873811788
 30
0.0
 11
12963.14084198532
 21
4257.614202502174
 31
0.0
  0
ARC
  5
11ED
330
1A
100
AcDbEntity
  8
部品1
100
AcDbCircle
 10
12950.14702577431
 20
4258.015126777234
 30
0.0
 40
13.0
100
AcDbArc
 50
272.7075955944914
 51
358.2326990882445
  0
LINE
  5
11FA
330
1A
100
AcDbEntity
  8
部品1
100
AcDbLine
 10
12799.79713758221
 20
4235.184040964425
 30
0.0
 11
12789.73549360256
 21
4184.448861925991
 31
0.0
  0
ARC
  5
1201
330
1A
100
AcDbEntity
  8
部品1
100
AcDbCircle
 10
12779.9265248164
 20
4186.394146314542
 30
0.0
 40
10.0
100
AcDbArc
 50
272.7075955944913
 51
348.7828223740801
  0
LINE
  5
1202
330
1A
100
AcDbEntity
  8
部品1
100
AcDbLine
 10
12780.39891352901
 20
4176.405310100838
 30
0.0
 11
12758.24710462649
 21
4175.357714138157
 31
0.0
  0
ARC
  5
1203
330
1A
100
AcDbEntity
  8
部品1
100
AcDbCircle
 10
12794.89265318914
 20
4236.156683158699
 30
0.0
 40
5.0
100
AcDbArc
 50
348.7828223740801
 51
20.16519871821353
  0
LINE
  5
1204
330
1A
100
AcDbEntity
  8
部品1
100
AcDbLine
 10
12755.38915291522
 20
4235.790173231065
 30
0.0
 11
12758.24710462649
 21
4175.357714138157
 31
0.0
  0
LINE
  5
1205
330
1A
100
AcDbEntity
  8
部品1
100
AcDbLine
 10
12758.15262688397
 20
4177.355481380899
 30
0.0
 11
12757.1537432626
 21
4177.308242509638
 31
0.0
  0
LINE
  5
1206
330
1A
100
AcDbEntity
  8
部品1
100
AcDbLine
 10
12754.39026929385
 20
4235.742934359804
 30
0.0
 11
12757.22932545662
 21
4175.710028715442
 31
0.0
  0
ARC
  5
1207
330
1A
100
AcDbEntity
  8
部品1
100
AcDbCircle
 10
12952.90020780357
 20
4347.244798086849
 30
0.0
 40
13.0
100
AcDbArc
 50
358.232699088245
 51
92.70759559449139
  0
LINE
  5
1208
330
1A
100
AcDbEntity
  8
部品1
100
AcDbLine
 10
11446.60063116504
 20
4115.330001583357
 30
0.0
 11
10854.2537432626
 21
4087.316930009637
 31
0.0
  0
LINE
  5
1209
330
1A
100
AcDbEntity
  8
部品1
100
AcDbLine
 10
12117.19400632685
 20
4161.121357694154
 30
0.0
 11
12085.22941621686
 21
4159.616358243141
 31
0.0
  0
ARC
  5
120A
330
1A
100
AcDbEntity
  8
部品1
100
AcDbCircle
 10
12077.32755088103
 20
4036.608605784729
 30
0.0
 40
105.0
100
AcDbArc
 50
0.0
 51
92.6956854935492
  0
LINE
  5
120B
330
1A
100
AcDbEntity
  8
部品1
100
AcDbLine
 10
12036.24757993306
 20
4200.858319701789
 30
0.0
 11
12403.86971154596
 21
4218.167195065227
 31
0.0
  0
LINE
  5
120C
330
1A
100
AcDbEntity
  8
部品1
100
AcDbLine
 10
12364.68380306167
 20
4155.254615676298
 30
0.0
 11
12416.72755088103
 21
4157.705008802792
 31
0.0
  0
ARC
  5
120D
330
1A
100
AcDbEntity
  8
部品1
100
AcDbCircle
 10
12404.34002386424
 20
4208.178260871665
 30
0.0
 40
10.0
100
AcDbArc
 50
2.695685493546817
 51
92.69568549354902
  0
LINE
  5
120E
330
1A
100
AcDbEntity
  8
部品1
100
AcDbLine
 10
12715.20063116504
 20
4175.32420991669
 30
0.0
 11
12416.56294156608
 21
4161.201135846073
 31
0.0
  0
LINE
  5
120F
330
1A
100
AcDbEntity
  8
部品1
100
AcDbLine
 10
12712.4371571963
 20
4233.758901766857
 30
0.0
 11
12715.27621335906
 21
4173.725996122495
 31
0.0
  0
LINE
  5
1210
330
1A
100
AcDbEntity
  8
部品1
100
AcDbLine
 10
12416.72755088103
 20
4157.705008802794
 30
0.0
 11
12414.3289580578
 21
4208.648573189946
 31
0.0
  0
LINE
  5
1211
330
1A
100
AcDbEntity
  8
部品1
100
AcDbLine
 10
12250.32755088103
 20
4035.387405353577
 30
0.0
 11
12250.32755088103
 21
3982.255508802793
 31
0.0
  0
LINE
  5
1212
330
1A
100
AcDbEntity
  8
部品1
100
AcDbLine
 10
12182.32755088103
 20
4036.608605784729
 30
0.0
 11
12182.32755088103
 21
3982.255508802795
 31
0.0
  0
LINE
  5
1213
330
1A
100
AcDbEntity
  8
部品1
100
AcDbLine
 10
12182.32755088103
 20
3982.255508802794
 30
0.0
 11
12250.32755088103
 21
3982.255508802793
 31
0.0
  0
CIRCLE
  5
1214
330
1A
100
AcDbEntity
  8
細線
100
AcDbCircle
 10
12216.32755088103
 20
4012.255508802794
 30
0.0
 40
8.0
  0
LWPOLYLINE
  5
1215
330
1A
100
AcDbEntity
  8
細線
100
AcDbPolyline
 90
        6
 70
     1
 43
0.0
 10
12209.82755088103
 20
4016.008285552525
 10
12216.32755088103
 20
4019.761062302258
 10
12222.82755088103
 20
4016.008285552525
 10
12222.82755088103
 20
4008.502732053062
 10
12216.32755088103
 20
4004.74995530333
 10
12209.82755088103
 20
4008.502732053062
  0
CIRCLE
  5
121D
330
1A
100
AcDbEntity
  8
細線
100
AcDbCircle
 10
12216.32755088103
 20
4012.255508802794
 30
0.0
 40
6.0
  0
ARC
  5
121E
330
1A
100
AcDbEntity
  8
部品1
100
AcDbCircle
 10
12370.32755088103
 20
4035.387405353577
 30
0.0
 40
120.0
100
AcDbArc
 50
92.69568549354971
 51
180.0
  0
CIRCLE
  5
121F
330
1A
100
AcDbEntity
  8
細線
100
AcDbCircle
 10
12269.31356538882
 20
4184.301378504327
 30
0.0
 40
8.0
  0
LWPOLYLINE
  5
1220
330
1A
100
AcDbEntity
  8
細線
100
AcDbPolyline
 90
        6
 70
     1
 43
0.0
 10
12262.81356538882
 20
4188.05415525406
 10
12269.31356538882
 20
4191.806932003792
 10
12275.81356538882
 20
4188.05415525406
 10
12275.81356538882
 20
4180.548601754595
 10
12269.31356538882
 20
4176.795825004863
 10
12262.81356538882
 20
4180.548601754595
  0
CIRCLE
  5
1228
330
1A
100
AcDbEntity
  8
細線
100
AcDbCircle
 10
12269.31356538882
 20
4184.301378504327
 30
0.0
 40
6.0
  0
CIRCLE
  5
1229
330
1A
100
AcDbEntity
  8
細線
100
AcDbCircle
 10
12375.19626784055
 20
4189.286689078095
 30
0.0
 40
8.0
  0
LWPOLYLINE
  5
122A
330
1A
100
AcDbEntity
  8
細線
100
AcDbPolyline
 90
        6
 70
     1
 43
0.0
 10
12368.69626784055
 20
4193.039465827827
 10
12375.19626784055
 20
4196.79224257756
 10
12381.69626784055
 20
4193.039465827827
 10
12381.69626784055
 20
4185.533912328362
 10
12375.19626784055
 20
4181.78113557863
 10
12368.69626784055
 20
4185.533912328362
  0
CIRCLE
  5
1232
330
1A
100
AcDbEntity
  8
細線
100
AcDbCircle
 10
12375.19626784055
 20
4189.286689078095
 30
0.0
 40
6.0
  0
CIRCLE
  5
1233
330
1A
100
AcDbEntity
  8
細線
100
AcDbCircle
 10
12100.45921156261
 20
4176.351152678345
 30
0.0
 40
6.0
  0
LWPOLYLINE
  5
1234
330
1A
100
AcDbEntity
  8
細線
100
AcDbPolyline
 90
        6
 70
     1
 43
0.0
 10
12093.95921156261
 20
4180.103929428077
 10
12100.45921156261
 20
4183.856706177809
 10
12106.95921156261
 20
4180.103929428077
 10
12106.95921156261
 20
4172.598375928613
 10
12100.45921156261
 20
4168.84559917888
 10
12093.95921156261
 20
4172.598375928613
  0
CIRCLE
  5
123C
330
1A
100
AcDbEntity
  8
細線
100
AcDbCircle
 10
12100.45921156261
 20
4176.351152678345
 30
0.0
 40
8.0
  0
ARC
  5
123D
330
1A
100
AcDbEntity
  8
部品1
100
AcDbCircle
 10
12116.95885016771
 20
4166.115824790935
 30
0.0
 40
5.0
100
AcDbArc
 50
272.6956854935489
 51
2.707595594492453
  0
LINE
  5
123E
330
1A
100
AcDbEntity
  8
部品1
100
AcDbLine
 10
12120.09026929385
 20
4205.745830193136
 30
0.0
 11
12121.95326827457
 21
4166.352019147238
 31
0.0
  0
CIRCLE
  5
123F
330
1A
100
AcDbEntity
  8
細線
100
AcDbCircle
 10
12163.43086293708
 20
4179.316067930558
 30
0.0
 40
8.0
  0
LWPOLYLINE
  5
1240
330
1A
100
AcDbEntity
  8
細線
100
AcDbPolyline
 90
        6
 70
     1
 43
0.0
 10
12156.93086293708
 20
4183.068844680291
 10
12163.43086293708
 20
4186.821621430023
 10
12169.93086293708
 20
4183.068844680291
 10
12169.93086293708
 20
4175.563291180826
 10
12163.43086293708
 20
4171.810514431093
 10
12156.93086293708
 20
4175.563291180826
  0
CIRCLE
  5
1248
330
1A
100
AcDbEntity
  8
細線
100
AcDbCircle
 10
12163.43086293708
 20
4179.316067930558
 30
0.0
 40
6.0
  0
CIRCLE
  5
1249
330
1A
100
AcDbEntity
  8
細線
100
AcDbCircle
 10
12216.32755088103
 20
4097.255508802795
 30
0.0
 40
8.0
  0
LWPOLYLINE
  5
124A
330
1A
100
AcDbEntity
  8
細線
100
AcDbPolyline
 90
        6
 70
     1
 43
0.0
 10
12209.82755088103
 20
4101.008285552526
 10
12216.32755088103
 20
4104.761062302259
 10
12222.82755088103
 20
4101.008285552526
 10
12222.82755088103
 20
4093.502732053062
 10
12216.32755088103
 20
4089.74995530333
 10
12209.82755088103
 20
4093.502732053062
  0
CIRCLE
  5
1252
330
1A
100
AcDbEntity
  8
細線
100
AcDbCircle
 10
12216.32755088103
 20
4097.255508802795
 30
0.0
 40
6.0
  0
LINE
  5
1253
330
1A
100
AcDbEntity
  8
部品1
100
AcDbLine
 10
12028.96673509837
 20
4142.871065248537
 30
0.0
 11
11488.5537432626
 21
4117.314034176303
 31
0.0
  0
ARC
  5
1254
330
1A
100
AcDbEntity
  8
部品1
100
AcDbCircle
 10
12084.99426005772
 20
4164.610825339923
 30
0.0
 40
5.0
100
AcDbArc
 50
182.7075955944907
 51
272.695685493549
  0
LINE
  5
1255
330
1A
100
AcDbEntity
  8
部品1
100
AcDbLine
 10
12078.1371571963
 20
4203.761797600191
 30
0.0
 11
12079.99984195087
 21
4164.374630983618
 31
0.0
  0
ARC
  5
1256
330
1A
100
AcDbEntity
  8
部品1
100
AcDbCircle
 10
12036.71789225134
 20
4190.869385508228
 30
0.0
 40
10.0
100
AcDbArc
 50
92.69568549354904
 51
182.6956854935757
  0
LINE
  5
1257
330
1A
100
AcDbEntity
  8
部品1
100
AcDbLine
 10
12029.12755088103
 20
4139.455508802793
 30
0.0
 11
12072.38927153909
 21
4141.49241481711
 31
0.0
  0
CIRCLE
  5
1258
330
1A
100
AcDbEntity
  8
細線
100
AcDbCircle
 10
12057.54816048534
 20
4174.33075735679
 30
0.0
 40
6.0
  0
LWPOLYLINE
  5
1259
330
1A
100
AcDbEntity
  8
細線
100
AcDbPolyline
 90
        6
 70
     1
 43
0.0
 10
12051.04816048534
 20
4178.083534106523
 10
12057.54816048534
 20
4181.836310856255
 10
12064.04816048534
 20
4178.083534106523
 10
12064.04816048534
 20
4170.577980607059
 10
12057.54816048534
 20
4166.825203857326
 10
12051.04816048534
 20
4170.577980607059
  0
CIRCLE
  5
1261
330
1A
100
AcDbEntity
  8
細線
100
AcDbCircle
 10
12057.54816048534
 20
4174.33075735679
 30
0.0
 40
8.0
  0
LINE
  5
1262
330
1A
100
AcDbEntity
  8
部品1
100
AcDbLine
 10
12029.12755088103
 20
4139.455508802793
 30
0.0
 11
12026.72895805778
 21
4190.399073189943
 31
0.0
  0
LINE
  5
1263
330
1A
100
AcDbEntity
  8
部品1
100
AcDbLine
 10
11443.8371571963
 20
4173.764693433525
 30
0.0
 11
11446.67621335906
 21
4113.731787789162
 31
0.0
  0
LINE
  5
1264
330
1A
100
AcDbEntity
  8
部品1
100
AcDbLine
 10
11485.79026929386
 20
4175.748726026471
 30
0.0
 11
11488.62932545662
 21
4115.715820382109
 31
0.0
  0
LINE
  5
1265
330
1A
100
AcDbEntity
  8
部品1
100
AcDbLine
 10
11488.62932545662
 20
4115.715820382109
 30
0.0
 11
11446.67621335906
 21
4113.731787789162
 31
0.0
  0
LINE
  5
1266
330
1A
100
AcDbEntity
  8
部品1
100
AcDbLine
 10
10798.45714352043
 20
4142.242479327111
 30
0.0
 11
10637.32755088103
 21
4134.622392341873
 31
0.0
  0
CIRCLE
  5
1267
330
1A
100
AcDbEntity
  8
細線
100
AcDbCircle
 10
10776.78188918857
 20
4113.686685700431
 30
0.0
 40
8.0
  0
LWPOLYLINE
  5
1268
330
1A
100
AcDbEntity
  8
細線
100
AcDbPolyline
 90
        6
 70
     1
 43
0.0
 10
10770.28188918857
 20
4117.439462450163
 10
10776.78188918857
 20
4121.192239199896
 10
10783.28188918857
 20
4117.439462450163
 10
10783.28188918857
 20
4109.933908950699
 10
10776.78188918857
 20
4106.181132200967
 10
10770.28188918857
 20
4109.933908950699
  0
CIRCLE
  5
1270
330
1A
100
AcDbEntity
  8
細線
100
AcDbCircle
 10
10776.78188918857
 20
4113.686685700431
 30
0.0
 40
6.0
  0
ARC
  5
1271
330
1A
100
AcDbEntity
  8
部品1
100
AcDbCircle
 10
10800.30871758853
 20
3881.038342880248
 30
0.0
 40
200.0
100
AcDbArc
 50
92.70759559449144
 51
179.2136983877098
  0
LINE
  5
1272
330
1A
100
AcDbEntity
  8
部品1
100
AcDbLine
 10
10812.30063116505
 20
4085.33289741669
 30
0.0
 11
10811.16221483162
 21
4085.279059810921
 31
0.0
  0
LINE
  5
1273
330
1A
100
AcDbEntity
  8
部品1
100
AcDbLine
 10
10811.32755088103
 20
4081.782967136124
 30
0.0
 11
10790.8609433364
 21
4080.815067154327
 31
0.0
  0
ARC
  5
1274
330
1A
100
AcDbEntity
  8
部品1
100
AcDbCircle
 10
10798.92953223303
 20
4132.253643113407
 30
0.0
 40
10.0
100
AcDbArc
 50
2.707595594493623
 51
92.7075955944915
  0
LINE
  5
1275
330
1A
100
AcDbEntity
  8
部品1
100
AcDbLine
 10
10811.32755088103
 20
4081.782967136125
 30
0.0
 11
10808.91836844674
 21
4132.726031826014
 31
0.0
  0
LINE
  5
1276
330
1A
100
AcDbEntity
  8
部品1
100
AcDbLine
 10
10809.5371571963
 20
4143.767589266857
 30
0.0
 11
10812.37621335906
 21
4083.734683622496
 31
0.0
  0
LINE
  5
1277
330
1A
100
AcDbEntity
  8
部品1
100
AcDbLine
 10
10851.49026929385
 20
4145.751621859804
 30
0.0
 11
10854.32932545662
 21
4085.718716215443
 31
0.0
  0
LINE
  5
1278
330
1A
100
AcDbEntity
  8
部品1
100
AcDbLine
 10
10854.32932545662
 20
4085.718716215443
 30
0.0
 11
10812.37621335906
 21
4083.734683622497
 31
0.0
  0
LINE
  5
1279
330
1A
100
AcDbEntity
  8
部品1
100
AcDbLine
 10
10600.32755088103
 20
3883.782967136125
 30
0.0
 11
10566.32755088103
 21
3883.782967136125
 31
0.0
  0
CIRCLE
  5
127A
330
1A
100
AcDbEntity
  8
細線
100
AcDbCircle
 10
10566.32755088103
 20
4018.782967136124
 30
0.0
 40
8.0
  0
LWPOLYLINE
  5
127B
330
1A
100
AcDbEntity
  8
細線
100
AcDbPolyline
 90
        6
 70
     1
 43
0.0
 10
10559.82755088103
 20
4022.535743885856
 10
10566.32755088103
 20
4026.288520635588
 10
10572.82755088103
 20
4022.535743885856
 10
10572.82755088103
 20
4015.030190386393
 10
10566.32755088103
 20
4011.27741363666
 10
10559.82755088103
 20
4015.030190386393
  0
CIRCLE
  5
1283
330
1A
100
AcDbEntity
  8
細線
100
AcDbCircle
 10
10566.32755088103
 20
4018.782967136124
 30
0.0
 40
6.0
  0
CIRCLE
  5
1284
330
1A
100
AcDbEntity
  8
細線
100
AcDbCircle
 10
10566.32755088103
 20
3916.782967136125
 30
0.0
 40
8.0
  0
LWPOLYLINE
  5
1285
330
1A
100
AcDbEntity
  8
細線
100
AcDbPolyline
 90
        6
 70
     1
 43
0.0
 10
10559.82755088103
 20
3920.535743885857
 10
10566.32755088103
 20
3924.28852063559
 10
10572.82755088103
 20
3920.535743885857
 10
10572.82755088103
 20
3913.030190386392
 10
10566.32755088103
 20
3909.27741363666
 10
10559.82755088103
 20
3913.030190386392
  0
CIRCLE
  5
128D
330
1A
100
AcDbEntity
  8
細線
100
AcDbCircle
 10
10566.32755088103
 20
3916.782967136125
 30
0.0
 40
6.0
  0
LINE
  5
128E
330
1A
100
AcDbEntity
  8
部品1
100
AcDbLine
 10
10566.32755088103
 20
4099.264684008541
 30
0.0
 11
10626.56841396403
 21
4099.264684008541
 31
0.0
  0
LINE
  5
128F
330
1A
100
AcDbEntity
  8
部品1
100
AcDbLine
 10
10566.32755088103
 20
4094.264684008541
 30
0.0
 11
10626.56841396403
 21
4094.264684008541
 31
0.0
  0
LINE
  5
1290
330
1A
100
AcDbEntity
  8
部品1
100
AcDbLine
 10
10626.56841396403
 20
4099.264684008542
 30
0.0
 11
10632.38672199545
 21
4135.389849935483
 31
0.0
  0
LINE
  5
1291
330
1A
100
AcDbEntity
  8
部品1
100
AcDbLine
 10
10631.50479841447
 20
4098.46963145841
 30
0.0
 11
10637.49002812939
 21
4135.631193788068
 31
0.0
  0
ARC
  5
1292
330
1A
100
AcDbEntity
  8
部品1
100
AcDbCircle
 10
10626.56841396403
 20
4099.264684008541
 30
0.0
 40
5.0
100
AcDbArc
 50
270.0
 51
350.8505326377065
  0
CIRCLE
  5
1293
330
1A
100
AcDbEntity
  8
細線
100
AcDbCircle
 10
10674.89575980879
 20
4108.868320831844
 30
0.0
 40
8.0
  0
LWPOLYLINE
  5
1294
330
1A
100
AcDbEntity
  8
細線
100
AcDbPolyline
 90
        6
 70
     1
 43
0.0
 10
10668.39575980879
 20
4112.621097581577
 10
10674.89575980879
 20
4116.373874331309
 10
10681.39575980879
 20
4112.621097581577
 10
10681.39575980879
 20
4105.115544082113
 10
10674.89575980879
 20
4101.362767332381
 10
10668.39575980879
 20
4105.115544082113
  0
CIRCLE
  5
129C
330
1A
100
AcDbEntity
  8
細線
100
AcDbCircle
 10
10674.89575980879
 20
4108.868320831844
 30
0.0
 40
6.0
  0
LINE
  5
129D
330
1A
100
AcDbEntity
  8
部品1
100
AcDbLine
 10
6294.506633194895
 20
4360.894328662096
 30
0.0
 11
3441.662949356945
 21
4360.894328662097
 31
0.0
  0
LINE
  5
129E
330
1A
100
AcDbEntity
  8
部品1
100
AcDbLine
 10
6290.638331381174
 20
4246.022712204503
 30
0.0
 11
3445.531251170666
 21
4246.022712204503
 31
0.0
  0
LINE
  5
12A0
330
1A
100
AcDbEntity
  8
部品1
100
AcDbLine
 10
3428.67524670115
 20
4347.329014833654
 30
0.0
 11
3432.54354851487
 21
4258.457398376061
 31
0.0
  0
ARC
  5
12A1
330
1A
100
AcDbEntity
  8
部品1
100
AcDbCircle
 10
3441.662949356945
 20
4347.894328662096
 30
0.0
 40
13.0
100
AcDbArc
 50
90.0
 51
182.4923318052746
  0
ARC
  5
12A2
330
1A
100
AcDbEntity
  8
部品1
100
AcDbCircle
 10
3445.531251170666
 20
4259.022712204504
 30
0.0
 40
13.0
100
AcDbArc
 50
182.4923318052741
 51
270.0
  0
LINE
  5
12A3
330
1A
100
AcDbEntity
  8
部品1
100
AcDbLine
 10
6307.494335850691
 20
4347.329014833654
 30
0.0
 11
6303.62603403697
 21
4258.457398376061
 31
0.0
  0
ARC
  5
12A5
330
1A
100
AcDbEntity
  8
部品1
100
AcDbCircle
 10
6290.638331381174
 20
4259.022712204504
 30
0.0
 40
13.0
100
AcDbArc
 50
270.0
 51
357.5076681947258
  0
ARC
  5
12A6
330
1A
100
AcDbEntity
  8
部品1
100
AcDbCircle
 10
6294.506633194895
 20
4347.894328662096
 30
0.0
 40
13.0
100
AcDbArc
 50
357.5076681947254
 51
90.0
  0
LINE
  5
12A7
330
1A
100
AcDbEntity
  8
細線
100
AcDbLine
 10
6304.738811702019
 20
4284.022712204503
 30
0.0
 11
3431.43077084982
 21
4284.022712204503
 31
0.0
  0
LINE
  5
12A8
330
1A
100
AcDbEntity
  8
細線
100
AcDbLine
 10
6305.261133941841
 20
4296.022712204503
 30
0.0
 11
3430.908448609999
 21
4296.022712204503
 31
0.0
  0
LINE
  5
12A9
330
1A
100
AcDbEntity
  8
部品1
100
AcDbLine
 10
3451.084791275921
 20
4360.894328662096
 30
0.0
 11
3451.084791275921
 21
4246.022712204503
 31
0.0
  0
LINE
  5
12AA
330
1A
100
AcDbEntity
  8
部品1
100
AcDbLine
 10
6285.08479127592
 20
4360.894328662096
 30
0.0
 11
6285.08479127592
 21
4246.022712204503
 31
0.0
  0
LINE
  5
12AB
330
1A
100
AcDbEntity
  8
部品1
100
AcDbLine
 10
3711.084791275921
 20
3982.255508802793
 30
0.0
 11
3645.08479127592
 21
3982.255508802793
 31
0.0
  0
LINE
  5
12AC
330
1A
100
AcDbEntity
  8
部品1
100
AcDbLine
 10
3708.08479127592
 20
4175.710028715442
 30
0.0
 11
3648.08479127592
 21
4175.710028715443
 31
0.0
  0
LINE
  5
12AD
330
1A
100
AcDbEntity
  8
部品1
100
AcDbLine
 10
3711.08479127592
 20
4157.705008802792
 30
0.0
 11
3645.084791275921
 21
4157.705008802792
 31
0.0
  0
LINE
  5
12AE
330
1A
100
AcDbEntity
  8
部品1
100
AcDbLine
 10
3645.084791275921
 20
4234.880323646386
 30
0.0
 11
3645.08479127592
 21
3982.255508802793
 31
0.0
  0
LINE
  5
12AF
330
1A
100
AcDbEntity
  8
部品1
100
AcDbLine
 10
3711.084791275919
 20
4234.880323646386
 30
0.0
 11
3711.084791275921
 21
3982.255508802793
 31
0.0
  0
LINE
  5
12B0
330
1A
100
AcDbEntity
  8
部品1
100
AcDbLine
 10
3708.084791275919
 20
4237.880323646386
 30
0.0
 11
3648.084791275921
 21
4237.880323646386
 31
0.0
  0
LINE
  5
12B1
330
1A
100
AcDbEntity
  8
部品1
100
AcDbLine
 10
3660.08479127592
 20
4157.705008802792
 30
0.0
 11
3660.08479127592
 21
3982.255508802794
 31
0.0
  0
LINE
  5
12B2
330
1A
100
AcDbEntity
  8
部品1
100
AcDbLine
 10
3696.084791275919
 20
4157.705008802792
 30
0.0
 11
3696.084791275921
 21
3982.255508802794
 31
0.0
  0
LINE
  5
12B3
330
1A
100
AcDbEntity
  8
部品1
100
AcDbLine
 10
3665.08479127592
 20
4157.705008802792
 30
0.0
 11
3665.084791275921
 21
3982.255508802794
 31
0.0
  0
LINE
  5
12B4
330
1A
100
AcDbEntity
  8
部品1
100
AcDbLine
 10
3691.084791275919
 20
4157.705008802792
 30
0.0
 11
3691.08479127592
 21
3982.255508802794
 31
0.0
  0
ARC
  5
12B5
330
1A
100
AcDbEntity
  8
部品1
100
AcDbCircle
 10
3648.084791275921
 20
4234.880323646386
 30
0.0
 40
3.0
100
AcDbArc
 50
89.99999999999959
 51
179.9999999999998
  0
ARC
  5
12B6
330
1A
100
AcDbEntity
  8
部品1
100
AcDbCircle
 10
3708.084791275919
 20
4234.880323646386
 30
0.0
 40
3.0
100
AcDbArc
 50
0.0000000000004071
 51
90.0
  0
ARC
  5
12B7
330
1A
100
AcDbEntity
  8
部品1
100
AcDbCircle
 10
3708.08479127592
 20
4178.710028715442
 30
0.0
 40
3.0
100
AcDbArc
 50
270.0000000000004
 51
0.0000000000003053
  0
ARC
  5
12B8
330
1A
100
AcDbEntity
  8
部品1
100
AcDbCircle
 10
3648.08479127592
 20
4178.710028715443
 30
0.0
 40
3.0
100
AcDbArc
 50
179.9999999999998
 51
270.0
  0
LINE
  5
12B9
330
1A
100
AcDbEntity
  8
部品1
100
AcDbLine
 10
6025.084791275921
 20
4234.880323646386
 30
0.0
 11
6025.084791275919
 21
3982.255508802793
 31
0.0
  0
LINE
  5
12BA
330
1A
100
AcDbEntity
  8
部品1
100
AcDbLine
 10
6091.084791275919
 20
4234.880323646386
 30
0.0
 11
6091.084791275921
 21
3982.255508802793
 31
0.0
  0
LINE
  5
12BB
330
1A
100
AcDbEntity
  8
部品1
100
AcDbLine
 10
6040.084791275921
 20
4157.705008802792
 30
0.0
 11
6040.08479127592
 21
3982.255508802794
 31
0.0
  0
LINE
  5
12BC
330
1A
100
AcDbEntity
  8
部品1
100
AcDbLine
 10
6045.084791275922
 20
4157.705008802792
 30
0.0
 11
6045.08479127592
 21
3982.255508802794
 31
0.0
  0
LINE
  5
12BD
330
1A
100
AcDbEntity
  8
部品1
100
AcDbLine
 10
6071.08479127592
 20
4157.705008802792
 30
0.0
 11
6071.08479127592
 21
3982.255508802794
 31
0.0
  0
LINE
  5
12BE
330
1A
100
AcDbEntity
  8
部品1
100
AcDbLine
 10
6076.084791275921
 20
4157.705008802792
 30
0.0
 11
6076.084791275921
 21
3982.255508802794
 31
0.0
  0
LINE
  5
12BF
330
1A
100
AcDbEntity
  8
部品1
100
AcDbLine
 10
6025.08479127592
 20
3982.255508802793
 30
0.0
 11
6091.08479127592
 21
3982.255508802793
 31
0.0
  0
ARC
  5
12C0
330
1A
100
AcDbEntity
  8
部品1
100
AcDbCircle
 10
6088.08479127592
 20
4178.710028715443
 30
0.0
 40
3.0
100
AcDbArc
 50
270.0
 51
0.0000000000002036
  0
LINE
  5
12C1
330
1A
100
AcDbEntity
  8
部品1
100
AcDbLine
 10
6028.08479127592
 20
4175.710028715442
 30
0.0
 11
6088.08479127592
 21
4175.710028715443
 31
0.0
  0
ARC
  5
12C2
330
1A
100
AcDbEntity
  8
部品1
100
AcDbCircle
 10
6028.08479127592
 20
4178.710028715442
 30
0.0
 40
3.0
100
AcDbArc
 50
179.9999999999997
 51
269.9999999999996
  0
ARC
  5
12C3
330
1A
100
AcDbEntity
  8
部品1
100
AcDbCircle
 10
6028.084791275921
 20
4234.880323646386
 30
0.0
 40
3.0
100
AcDbArc
 50
90.0
 51
179.9999999999996
  0
LINE
  5
12C4
330
1A
100
AcDbEntity
  8
部品1
100
AcDbLine
 10
6028.084791275921
 20
4237.880323646386
 30
0.0
 11
6088.084791275919
 21
4237.880323646386
 31
0.0
  0
ARC
  5
12C5
330
1A
100
AcDbEntity
  8
部品1
100
AcDbCircle
 10
6088.084791275919
 20
4234.880323646386
 30
0.0
 40
3.0
100
AcDbArc
 50
0.0000000000002036
 51
90.0000000000004
  0
LINE
  5
12C6
330
1A
100
AcDbEntity
  8
部品1
100
AcDbLine
 10
6025.08479127592
 20
4157.705008802792
 30
0.0
 11
6091.08479127592
 21
4157.705008802792
 31
0.0
  0
LINE
  5
12C7
330
1A
100
AcDbEntity
  8
部品1
100
AcDbLine
 10
6290.638331381174
 20
4132.265801634864
 30
0.0
 11
6247.506633194894
 21
4132.265801634864
 31
0.0
  0
LINE
  5
12C8
330
1A
100
AcDbEntity
  8
部品1
100
AcDbLine
 10
3428.662949356946
 20
4347.894328662096
 30
0.0
 11
3428.662949356945
 21
4233.854627425388
 31
0.0
  0
LINE
  5
12CA
330
1A
100
AcDbEntity
  8
部品1
100
AcDbLine
 10
3483.662949356945
 20
4246.022712204503
 30
0.0
 11
3483.662949356946
 21
4132.265801634865
 31
0.0
  0
LINE
  5
12CB
330
1A
100
AcDbEntity
  8
部品1
100
AcDbLine
 10
6307.506633194894
 20
4347.894328662096
 30
0.0
 11
6307.506633194894
 21
4233.854627425369
 31
0.0
  0
LINE
  5
12CD
330
1A
100
AcDbEntity
  8
部品1
100
AcDbLine
 10
6252.506633194895
 20
4246.022712204503
 30
0.0
 11
6252.506633194894
 21
4132.265801634865
 31
0.0
  0
LINE
  5
12CF
330
1A
100
AcDbEntity
  8
部品1
100
AcDbLine
 10
3488.662949356946
 20
4132.265801634865
 30
0.0
 11
3445.531251170666
 21
4132.265801634865
 31
0.0
  0
LINE
  5
12D0
330
1A
100
AcDbEntity
  8
部品1
100
AcDbLine
 10
6247.506633194894
 20
4094.264684008542
 30
0.0
 11
6091.084791275919
 21
4094.264684008541
 31
0.0
  0
LINE
  5
12D1
330
1A
100
AcDbEntity
  8
部品1
100
AcDbLine
 10
3488.662949356946
 20
4143.767589266857
 30
0.0
 11
3488.662949356946
 21
4094.264684008541
 31
0.0
  0
LINE
  5
12D2
330
1A
100
AcDbEntity
  8
部品1
100
AcDbLine
 10
6247.506633194893
 20
4143.767589266857
 30
0.0
 11
6247.506633194894
 21
4094.264684008542
 31
0.0
  0
LINE
  5
12D3
330
1A
100
AcDbEntity
  8
部品1
100
AcDbLine
 10
6252.506633194894
 20
4143.767589266857
 30
0.0
 11
6091.084791275921
 21
4143.767589266857
 31
0.0
  0
LINE
  5
12D4
330
1A
100
AcDbEntity
  8
部品1
100
AcDbLine
 10
6252.506633194894
 20
4173.764693433525
 30
0.0
 11
6091.084791275919
 21
4173.764693433525
 31
0.0
  0
LINE
  5
12D5
330
1A
100
AcDbEntity
  8
部品1
100
AcDbLine
 10
6252.506633194895
 20
4203.76179760019
 30
0.0
 11
6091.084791275919
 21
4203.76179760019
 31
0.0
  0
LINE
  5
12D6
330
1A
100
AcDbEntity
  8
部品1
100
AcDbLine
 10
6252.506633194895
 20
4233.758901766857
 30
0.0
 11
6091.084791275919
 21
4233.758901766857
 31
0.0
  0
LINE
  5
12D7
330
1A
100
AcDbEntity
  8
部品1
100
AcDbLine
 10
6025.084791275922
 20
4233.758901766857
 30
0.0
 11
3711.084791275919
 21
4233.758901766857
 31
0.0
  0
LINE
  5
12D8
330
1A
100
AcDbEntity
  8
部品1
100
AcDbLine
 10
6025.084791275922
 20
4203.761797600191
 30
0.0
 11
3711.08479127592
 21
4203.761797600191
 31
0.0
  0
LINE
  5
12D9
330
1A
100
AcDbEntity
  8
部品1
100
AcDbLine
 10
6025.084791275922
 20
4173.764693433525
 30
0.0
 11
3711.08479127592
 21
4173.764693433525
 31
0.0
  0
LINE
  5
12DA
330
1A
100
AcDbEntity
  8
部品1
100
AcDbLine
 10
6025.084791275921
 20
4143.767589266857
 30
0.0
 11
3711.08479127592
 21
4143.767589266857
 31
0.0
  0
LINE
  5
12DB
330
1A
100
AcDbEntity
  8
部品1
100
AcDbLine
 10
3645.084791275922
 20
4233.758901766857
 30
0.0
 11
3483.662949356945
 21
4233.758901766857
 31
0.0
  0
LINE
  5
12DC
330
1A
100
AcDbEntity
  8
部品1
100
AcDbLine
 10
3645.084791275921
 20
4203.761797600191
 30
0.0
 11
3483.662949356945
 21
4203.761797600191
 31
0.0
  0
LINE
  5
12DD
330
1A
100
AcDbEntity
  8
部品1
100
AcDbLine
 10
3645.084791275921
 20
4173.764693433525
 30
0.0
 11
3483.662949356945
 21
4173.764693433525
 31
0.0
  0
LINE
  5
12DE
330
1A
100
AcDbEntity
  8
部品1
100
AcDbLine
 10
3645.084791275921
 20
4143.767589266857
 30
0.0
 11
3483.662949356946
 21
4143.767589266857
 31
0.0
  0
LINE
  5
12DF
330
1A
100
AcDbEntity
  8
部品1
100
AcDbLine
 10
3645.084791275921
 20
4094.264684008541
 30
0.0
 11
3488.662949356947
 21
4094.264684008541
 31
0.0
  0
LINE
  5
12E0
330
1A
100
AcDbEntity
  8
部品1
100
AcDbLine
 10
3498.662949356946
 20
4143.767589266857
 30
0.0
 11
3498.662949356947
 21
4094.264684008541
 31
0.0
  0
LINE
  5
12E1
330
1A
100
AcDbEntity
  8
部品1
100
AcDbLine
 10
6237.506633194893
 20
4143.767589266857
 30
0.0
 11
6237.506633194893
 21
4094.264684008542
 31
0.0
  0
LINE
  5
12E3
330
1A
100
AcDbEntity
  8
部品1
100
AcDbLine
 10
3543.08479127592
 20
4094.26468400854
 30
0.0
 11
3543.08479127592
 21
2399.894328662096
 31
0.0
  0
LINE
  5
12E4
330
1A
100
AcDbEntity
  8
部品1
100
AcDbLine
 10
3613.08479127592
 20
4094.26468400854
 30
0.0
 11
3613.08479127592
 21
2399.894328662096
 31
0.0
  0
LINE
  5
12E5
330
1A
100
AcDbEntity
  8
部品1
100
AcDbLine
 10
3645.08479127592
 20
3982.255508802793
 30
0.0
 11
3543.084791275921
 21
3982.255508802793
 31
0.0
  0
LINE
  5
12E6
330
1A
100
AcDbEntity
  8
部品1
100
AcDbLine
 10
3648.08479127592
 20
3957.255508802793
 30
0.0
 11
3543.084791275921
 21
3957.255508802793
 31
0.0
  0
LINE
  5
12E7
330
1A
100
AcDbEntity
  8
部品1
100
AcDbLine
 10
3648.08479127592
 20
2463.494379650221
 30
0.0
 11
3543.084791275921
 21
2463.494379650221
 31
0.0
  0
LINE
  5
12E8
330
1A
100
AcDbEntity
  8
部品1
100
AcDbLine
 10
3648.08479127592
 20
2438.494379650221
 30
0.0
 11
3543.084791275921
 21
2438.494379650221
 31
0.0
  0
LINE
  5
12E9
330
1A
100
AcDbEntity
  8
部品1
100
AcDbLine
 10
3503.08479127592
 20
2329.894328662097
 30
0.0
 11
3543.08479127592
 21
2329.894328662096
 31
0.0
  0
LINE
  5
12EA
330
1A
100
AcDbEntity
  8
部品1
100
AcDbLine
 10
3503.08479127592
 20
2399.894328662096
 30
0.0
 11
3543.08479127592
 21
2399.894328662096
 31
0.0
  0
LINE
  5
12EB
330
1A
100
AcDbEntity
  8
部品1
100
AcDbLine
 10
3503.08479127592
 20
2399.894328662096
 30
0.0
 11
3503.08479127592
 21
2329.894328662096
 31
0.0
  0
ARC
  5
12EC
330
1A
100
AcDbEntity
  8
部品1
100
AcDbCircle
 10
3543.08479127592
 20
2399.894328662096
 30
0.0
 40
70.0
100
AcDbArc
 50
270.0
 51
0.0
  0
LINE
  5
12ED
330
1A
100
AcDbEntity
  8
部品1
100
AcDbLine
 10
6025.084791275921
 20
4094.264684008542
 30
0.0
 11
3711.084791275921
 21
4094.26468400854
 31
0.0
  0
DIMENSION
  5
12FC
330
1A
100
AcDbEntity
  8
寸法
100
AcDbDimension
  2
*D20
 10
3678.08479127592
 20
4677.110116486521
 30
0.0
 11
3559.01268241991
 21
4787.02060836555
 31
0.0
 70
   160
 71
     5
 42
-1.0
  3
物置仕様図40
100
AcDbAlignedDimension
 13
3428.08479127592
 23
4360.894328662096
 33
0.0
 14
3678.08479127592
 24
4332.209710363466
 34
0.0
100
AcDbRotatedDimension
  0
DIMENSION
  5
1308
330
1A
100
AcDbEntity
  8
寸法
100
AcDbDimension
  2
*D21
 10
6058.08479127592
 20
4677.110116486521
 30
0.0
 11
4868.084791275919
 21
4777.121927510143
 31
0.0
 70
    32
 71
     5
 42
-1.0
  3
物置仕様図40
100
AcDbAlignedDimension
 13
3678.08479127592
 23
4332.209710363466
 33
0.0
 14
6058.08479127592
 24
4332.209710363466
 34
0.0
100
AcDbRotatedDimension
1001
ACAD
1000
DSTYLE
1002
{
1070
    75
1070
     1
1002
}
  0
DIMENSION
  5
1316
330
1A
100
AcDbEntity
  8
寸法
100
AcDbDimension
  2
*D22
 10
6308.08479127592
 20
4677.110116486521
 30
0.0
 11
6169.820471908192
 21
4805.110519351536
 31
0.0
 70
   160
 71
     5
 42
-1.0
  3
物置仕様図40
100
AcDbAlignedDimension
 13
6058.08479127592
 23
4332.209710363466
 33
0.0
 14
6308.08479127592
 24
4360.894328662096
 34
0.0
100
AcDbRotatedDimension
1001
ACAD
1000
DSTYLE
1002
{
1070
    75
1070
     1
1002
}
  0
DIMENSION
  5
1346
330
1A
100
AcDbEntity
  8
寸法
100
AcDbDimension
  2
*D23
 10
6308.08479127592
 20
4957.110116486521
 30
0.0
 11
4868.084791275919
 21
5057.121927510143
 31
0.0
 70
    32
 71
     5
 42
-1.0
  3
物置仕様図40
100
AcDbAlignedDimension
 13
3428.08479127592
 23
4360.894328662096
 33
0.0
 14
6308.08479127592
 24
4360.894328662096
 34
0.0
100
AcDbRotatedDimension
  0
DIMENSION
  5
1353
330
1A
100
AcDbEntity
  8
寸法
100
AcDbDimension
  2
*D24
 10
8916.327550881034
 20
4674.33418098768
 30
0.0
 11
8541.327550881034
 21
4774.33418098768
 31
0.0
 70
    32
 71
     5
 42
-1.0
  3
物置仕様図40
100
AcDbAlignedDimension
 13
8166.327550881035
 23
4360.894328662096
 33
0.0
 14
8916.327550881034
 24
4063.913661418744
 34
0.0
100
AcDbRotatedDimension
  0
DIMENSION
  5
135F
330
1A
100
AcDbEntity
  8
寸法
100
AcDbDimension
  2
*D25
 10
10566.32755088103
 20
4674.33418098768
 30
0.0
 11
9741.327550881033
 21
4774.33418098768
 31
0.0
 70
    32
 71
     5
 42
1650.0
  3
物置仕様図40
100
AcDbAlignedDimension
 13
8916.327550881034
 23
4063.913661418744
 33
0.0
 14
10566.32755088103
 24
4360.894328662096
 34
0.0
100
AcDbRotatedDimension
1001
ACAD
1000
DSTYLE
1002
{
1070
    75
1070
     1
1002
}
  0
DIMENSION
  5
136B
330
1A
100
AcDbEntity
  8
寸法
100
AcDbDimension
  2
*D26
 10
12216.32755088103
 20
4674.33418098768
 30
0.0
 11
11391.32755088103
 21
4774.33418098768
 31
0.0
 70
    32
 71
     5
 42
1649.999999999998
  3
物置仕様図40
100
AcDbAlignedDimension
 13
10566.32755088103
 23
4360.894328662096
 33
0.0
 14
12216.32755088103
 24
4104.761062302259
 34
0.0
100
AcDbRotatedDimension
1001
ACAD
1000
DSTYLE
1002
{
1070
    75
1070
     1
1002
}
  0
DIMENSION
  5
1377
330
1A
100
AcDbEntity
  8
細線
100
AcDbDimension
  2
*D27
 10
12966.32755088103
 20
4674.33418098768
 30
0.0
 11
12591.32755088103
 21
4774.33418098768
 31
0.0
 70
    32
 71
     5
 42
-1.0
  3
物置仕様図40
100
AcDbAlignedDimension
 13
12216.32755088103
 23
4104.761062302259
 33
0.0
 14
12966.32755088103
 24
4360.894328662096
 34
0.0
100
AcDbRotatedDimension
1001
ACAD
1000
DSTYLE
1002
{
1070
    75
1070
     1
1002
}
  0
DIMENSION
  5
1384
330
1A
100
AcDbEntity
  8
寸法
100
AcDbDimension
  2
*D28
 10
12966.32755088103
 20
4954.33418098768
 30
0.0
 11
10566.32755088103
 21
5054.33418098768
 31
0.0
 70
    32
 71
     5
 42
-1.0
  3
物置仕様図40
100
AcDbAlignedDimension
 13
8166.327550881035
 23
4360.894328662096
 33
0.0
 14
12966.32755088103
 24
4360.894328662096
 34
0.0
100
AcDbRotatedDimension
  0
DIMENSION
  5
1391
330
1A
100
AcDbEntity
  8
寸法
100
AcDbDimension
  2
*D29
 10
7471.797351915796
 20
2249.894328662096
 30
0.0
 11
7371.785540892175
 21
3305.394328662096
 31
0.0
 70
    32
 71
     5
 42
-1.0
  3
物置仕様図40
100
AcDbAlignedDimension
 13
8166.327550881035
 23
4360.894328662096
 33
0.0
 14
7509.042633282217
 24
2249.894328662096
 34
0.0
 50
90.0
100
AcDbRotatedDimension
  0
LINE
  5
1472
330
1A
100
AcDbEntity
  8
部品1
100
AcDbLine
 10
6246.584791275921
 20
8251.199787121853
 30
0.0
 11
6246.584791275919
 21
10546.19978712185
 31
0.0
  0
LINE
  5
1473
330
1A
100
AcDbEntity
  8
部品1
100
AcDbLine
 10
6229.584791275921
 20
8251.199787121853
 30
0.0
 11
6229.584791275919
 21
10546.19978712185
 31
0.0
  0
LWPOLYLINE
  5
14CE
330
1A
100
AcDbEntity
  8
部品1
100
AcDbPolyline
 90
        4
 70
     1
 43
0.0
 10
4549.578624896039
 20
5656.330101804512
 10
4549.578624896039
 20
5434.745842764243
 10
5186.590957655801
 20
5434.745842764243
 10
5186.590957655801
 20
5656.330101804512
  0
TEXT
  5
14D4
330
1A
100
AcDbEntity
  8
部品1
100
AcDbText
 10
4604.666440362056
 20
5483.152496604192
 30
0.0
 40
120.0
  1
平面図
  7
MSGOTHIC
100
AcDbText
  0
LWPOLYLINE
  5
14D5
330
1A
100
AcDbEntity
  8
部品1
100
AcDbPolyline
 90
        4
 70
     1
 43
0.0
 10
4549.578624896039
 20
1835.787997662201
 10
4549.578624896039
 20
1614.203738621932
 10
5186.590957655801
 20
1614.203738621932
 10
5186.590957655801
 20
1835.787997662201
  0
TEXT
  5
14DB
330
1A
100
AcDbEntity
  8
部品1
100
AcDbText
 10
4605.778683418433
 20
1661.34932093572
 30
0.0
 40
120.0
  1
正面図
  7
MSGOTHIC
100
AcDbText
  0
TEXT
  5
14DC
330
1A
100
AcDbEntity
  8
部品1
100
AcDbText
 10
10293.11671623383
 20
1661.349320935723
 30
0.0
 40
120.0
  1
側面図
  7
MSGOTHIC
100
AcDbText
  0
LWPOLYLINE
  5
14DD
330
1A
100
AcDbEntity
  8
部品1
100
AcDbPolyline
 90
        4
 70
     1
 43
0.0
 10
10250.6492307777
 20
1835.787997662204
 10
10250.6492307777
 20
1614.203738621936
 10
10887.66156353746
 20
1614.203738621936
 10
10887.66156353746
 20
1835.787997662204
  0
ARC
  5
14E3
330
1A
100
AcDbEntity
  8
部品1
100
AcDbCircle
 10
3445.531251170666
 20
4145.265801634865
 30
0.0
 40
13.0
100
AcDbArc
 50
182.4923318052741
 51
270.0
  0
LINE
  5
14E4
330
1A
100
AcDbEntity
  8
部品1
100
AcDbLine
 10
3428.662949356945
 20
4233.85462742539
 30
0.0
 11
3432.54354851487
 21
4144.700487806423
 31
0.0
  0
LINE
  5
14E5
330
1A
100
AcDbEntity
  8
部品1
100
AcDbLine
 10
6307.506633194893
 20
4233.854627425362
 30
0.0
 11
6303.62603403697
 21
4144.700487806423
 31
0.0
  0
ARC
  5
14E6
330
1A
100
AcDbEntity
  8
部品1
100
AcDbCircle
 10
6290.638331381174
 20
4145.265801634864
 30
0.0
 40
13.0
100
AcDbArc
 50
270.0
 51
357.5076681947258
  0
LINE
  5
17F3
330
1A
100
AcDbEntity
  8
細線
100
AcDbLine
 10
3860.976994860818
 20
2249.894328662096
 30
0.0
 11
3910.976994860817
 21
2299.894328662096
 31
0.0
  0
LINE
  5
17F4
330
1A
100
AcDbEntity
  8
細線
100
AcDbLine
 10
3894.652955314827
 20
2249.894328662096
 30
0.0
 11
3944.652955314827
 21
2299.894328662096
 31
0.0
  0
LINE
  5
17F5
330
1A
100
AcDbEntity
  8
細線
100
AcDbLine
 10
3928.328915768836
 20
2249.894328662096
 30
0.0
 11
3978.328915768836
 21
2299.894328662096
 31
0.0
  0
LINE
  5
17F6
330
1A
100
AcDbEntity
  8
細線
100
AcDbLine
 10
4762.283689843125
 20
2249.894328662096
 30
0.0
 11
4812.283689843125
 21
2299.894328662096
 31
0.0
  0
LINE
  5
17F7
330
1A
100
AcDbEntity
  8
細線
100
AcDbLine
 10
4795.959650297134
 20
2249.894328662096
 30
0.0
 11
4845.959650297134
 21
2299.894328662096
 31
0.0
  0
LINE
  5
17F8
330
1A
100
AcDbEntity
  8
細線
100
AcDbLine
 10
4728.607729389116
 20
2249.894328662096
 30
0.0
 11
4778.607729389116
 21
2299.894328662096
 31
0.0
  0
LINE
  5
17F9
330
1A
100
AcDbEntity
  8
細線
100
AcDbLine
 10
5596.238463917415
 20
2249.894328662096
 30
0.0
 11
5646.238463917418
 21
2299.894328662097
 31
0.0
  0
LINE
  5
17FA
330
1A
100
AcDbEntity
  8
細線
100
AcDbLine
 10
5629.914424371424
 20
2249.894328662096
 30
0.0
 11
5679.914424371424
 21
2299.894328662097
 31
0.0
  0
LINE
  5
17FB
330
1A
100
AcDbEntity
  8
細線
100
AcDbLine
 10
5663.590384825432
 20
2249.894328662096
 30
0.0
 11
5713.590384825433
 21
2299.894328662096
 31
0.0
  0
LINE
  5
17FC
330
1A
100
AcDbEntity
  8
細線
100
AcDbLine
 10
8233.679471789054
 20
2249.894328662096
 30
0.0
 11
8283.679471789055
 21
2299.894328662096
 31
0.0
  0
LINE
  5
17FD
330
1A
100
AcDbEntity
  8
細線
100
AcDbLine
 10
8200.003511335046
 20
2249.894328662096
 30
0.0
 11
8250.003511335044
 21
2299.894328662096
 31
0.0
  0
LINE
  5
17FE
330
1A
100
AcDbEntity
  8
細線
100
AcDbLine
 10
8166.327550881034
 20
2249.894328662096
 30
0.0
 11
8216.327550881034
 21
2299.894328662096
 31
0.0
  0
LINE
  5
17FF
330
1A
100
AcDbEntity
  8
細線
100
AcDbLine
 10
9311.310206317351
 20
2249.894328662096
 30
0.0
 11
9361.310206317352
 21
2299.894328662096
 31
0.0
  0
LINE
  5
1800
330
1A
100
AcDbEntity
  8
細線
100
AcDbLine
 10
9243.958285409332
 20
2249.894328662096
 30
0.0
 11
9293.958285409333
 21
2299.894328662096
 31
0.0
  0
LINE
  5
1801
330
1A
100
AcDbEntity
  8
細線
100
AcDbLine
 10
9277.634245863342
 20
2249.894328662096
 30
0.0
 11
9327.634245863341
 21
2299.894328662096
 31
0.0
  0
LINE
  5
1802
330
1A
100
AcDbEntity
  8
細線
100
AcDbLine
 10
10355.26498039164
 20
2249.894328662096
 30
0.0
 11
10405.26498039164
 21
2299.894328662096
 31
0.0
  0
LINE
  5
1803
330
1A
100
AcDbEntity
  8
細線
100
AcDbLine
 10
10321.58901993763
 20
2249.894328662096
 30
0.0
 11
10371.58901993763
 21
2299.894328662096
 31
0.0
  0
LINE
  5
1804
330
1A
100
AcDbEntity
  8
細線
100
AcDbLine
 10
10388.94094084565
 20
2249.894328662096
 30
0.0
 11
10438.94094084565
 21
2299.894328662096
 31
0.0
  0
LINE
  5
1805
330
1A
100
AcDbEntity
  8
細線
100
AcDbLine
 10
11466.57167537395
 20
2249.894328662096
 30
0.0
 11
11516.57167537395
 21
2299.894328662096
 31
0.0
  0
LINE
  5
1806
330
1A
100
AcDbEntity
  8
細線
100
AcDbLine
 10
11432.89571491994
 20
2249.894328662096
 30
0.0
 11
11482.89571491994
 21
2299.894328662096
 31
0.0
  0
LINE
  5
1807
330
1A
100
AcDbEntity
  8
細線
100
AcDbLine
 10
11399.21975446593
 20
2249.894328662096
 30
0.0
 11
11449.21975446593
 21
2299.894328662096
 31
0.0
  0
LINE
  5
1808
330
1A
100
AcDbEntity
  8
細線
100
AcDbLine
 10
12510.52644944824
 20
2249.894328662096
 30
0.0
 11
12560.52644944824
 21
2299.894328662096
 31
0.0
  0
LINE
  5
1809
330
1A
100
AcDbEntity
  8
細線
100
AcDbLine
 10
12476.85048899423
 20
2249.894328662096
 30
0.0
 11
12526.85048899423
 21
2299.894328662096
 31
0.0
  0
LINE
  5
180A
330
1A
100
AcDbEntity
  8
細線
100
AcDbLine
 10
12544.20240990224
 20
2249.894328662096
 30
0.0
 11
12594.20240990225
 21
2299.894328662096
 31
0.0
  0
MTEXT
  5
1C51
330
1A
100
AcDbEntity
  8
0
100
AcDbMText
 10
12113.85383347236
 20
11207.9349056396
 30
0.0
 40
140.0
 41
212.9488506697089
 71
     1
 72
     5
  1

  7
MSMINCHO
 73
     1
 44
1.0
1001
ACAD
1000
MTEXTBEGIN
1070
    73
1070
     1
1070
    44
1040
1.0
1070
    74
1070
     0
1000
MTEXTEND
  0
LINE
  5
1FA6
330
1A
100
AcDbEntity
  8
寸法
100
AcDbLine
 10
13292.38068801944
 20
4376.31392493918
 30
0.0
 11
13297.81315821441
 21
4261.442308481587
 31
0.0
  0
INSERT
  5
1FA8
330
1A
100
AcDbEntity
  8
寸法
100
AcDbBlockReference
  2
_DOTSMALL
 10
13292.38068801944
 20
4376.31392493918
 30
0.0
 41
100.0
 42
100.0
 43
100.0
 50
92.70759559448954
  0
INSERT
  5
1FA9
330
1A
100
AcDbEntity
  8
寸法
100
AcDbBlockReference
  2
_DOTSMALL
 10
13297.81315821441
 20
4261.442308481587
 30
0.0
 41
100.0
 42
100.0
 43
100.0
 50
272.7075955944895
  0
POINT
  5
1FAC
330
1A
100
AcDbEntity
  8
寸法
100
AcDbPoint
 10
13297.81315821441
 20
4261.442308481587
 30
0.0
  0
LINE
  5
1FAD
330
1A
100
AcDbEntity
  8
寸法
100
AcDbLine
 10
13006.28289573585
 20
4362.783883512444
 30
0.0
 11
13332.33603287426
 21
4378.203479789605
 31
0.0
  0
LINE
  5
1FAE
330
1A
100
AcDbEntity
  8
寸法
100
AcDbLine
 10
13011.71536593082
 20
4247.912267054852
 30
0.0
 11
13337.76850306923
 21
4263.331863332012
 31
0.0
  0
LINE
  5
1FAF
330
1A
100
AcDbEntity
  8
寸法
100
AcDbLine
 10
13292.38068801944
 20
4376.31392493918
 30
0.0
 11
13297.81315821441
 21
4261.442308481588
 31
0.0
  0
INSERT
  5
1FB1
330
1A
100
AcDbEntity
  8
寸法
100
AcDbBlockReference
  2
_DOTSMALL
 10
13292.38068801944
 20
4376.31392493918
 30
0.0
 41
100.0
 42
100.0
 43
100.0
 50
92.70759559448954
  0
INSERT
  5
1FB2
330
1A
100
AcDbEntity
  8
寸法
100
AcDbBlockReference
  2
_DOTSMALL
 10
13297.81315821441
 20
4261.442308481588
 30
0.0
 41
100.0
 42
100.0
 43
100.0
 50
272.7075955944895
  0
POINT
  5
1FB3
330
1A
100
AcDbEntity
  8
部品1
100
AcDbPoint
 10
12966.32755088103
 20
4360.894328662021
 30
0.0
  0
POINT
  5
1FB4
330
1A
100
AcDbEntity
  8
部品1
100
AcDbPoint
 10
12971.760021076
 20
4246.022712204427
 30
0.0
  0
POINT
  5
1FB5
330
1A
100
AcDbEntity
  8
寸法
100
AcDbPoint
 10
13297.81315821441
 20
4261.442308481588
 30
0.0
  0
MTEXT
  5
1FFC
330
1A
100
AcDbEntity
  8
寸法
 62
     7
100
AcDbMText
 10
13415.99491520555
 20
4329.47664442312
 30
0.0
 40
120.0
 41
0.0
 71
     5
 72
     1
  1
\A1;115
 11
-0.0472388712606028
 21
0.9988836213703898
 31
0.0
 73
     1
 44
1.0
1001
ACAD
1000
MTEXTBEGIN
1070
    73
1070
     1
1070
    44
1040
1.0
1070
    74
1070
     0
1000
MTEXTEND
  0
LINE
  5
200E
330
1A
100
AcDbEntity
  8
仕様書枠
 48
50.0
100
AcDbLine
 10
128.8000000000011
 20
264.0
 30
0.0
 11
16296.0
 21
263.9999999999999
 31
0.0
  0
LINE
  5
200F
330
1A
100
AcDbEntity
  8
仕様書枠
 48
50.0
100
AcDbLine
 10
13096.0
 20
1064.0
 30
0.0
 11
14240.0
 21
1064.0
 31
0.0
  0
TEXT
  5
2010
330
1A
100
AcDbEntity
  8
文字
 62
     7
 48
50.0
100
AcDbText
 10
13198.2053442172
 20
492.5435242569015
 30
0.0
 40
100.0
  1
○間口奥行寸法は柱芯寸法です。    
  7
STYLE2
100
AcDbText
  0
TEXT
  5
2011
330
1A
100
AcDbEntity
  8
文字
 62
     7
 48
50.0
100
AcDbText
 10
13190.23669998441
 20
741.2740661031254
 30
0.0
 40
160.0
  1
機種名
  7
STYLE2
100
AcDbText
  0
TEXT
  5
2012
330
1A
100
AcDbEntity
  8
文字
 62
     7
 48
50.0
100
AcDbText
 10
13151.7790565769
 20
1159.09060742994
 30
0.0
 40
200.0
  1
外 形 図
  7
STYLE2
100
AcDbText
  0
LINE
  5
2013
330
1A
100
AcDbEntity
  8
文字
 62
     7
 48
50.0
100
AcDbLine
 10
13176.0
 20
664.0
 30
0.0
 11
16216.0
 21
664.0
 31
0.0
  0
LINE
  5
2014
330
1A
100
AcDbEntity
  8
仕様書枠
 48
50.0
100
AcDbLine
 10
13096.0
 20
1464.0
 30
0.0
 11
16296.0
 21
1464.0
 31
0.0
  0
LINE
  5
2015
330
1A
100
AcDbEntity
  8
仕様書枠
  6
Continuous
 48
50.0
100
AcDbLine
 10
13096.0
 20
1464.0
 30
0.0
 11
13096.0
 21
264.0
 31
0.0
  0
TEXT
  5
2016
330
1A
100
AcDbEntity
  8
文字
 62
     7
 48
50.0
100
AcDbText
 10
14840.42318972916
 20
1102.252727072919
 30
0.0
 40
100.0
  1
～一般型～
  7
STYLE2
100
AcDbText
  0
TEXT
  5
2017
330
1A
100
AcDbEntity
  8
文字
 62
     7
 48
50.0
100
AcDbText
 10
14680.88337980707
 20
747.8967129911413
 30
0.0
 40
160.0
  1
BF-２４V
  7
MSGOTHIC
100
AcDbText
  0
LINE
  5
2019
330
1A
100
AcDbEntity
  8
仕様書枠
  6
Continuous
 48
50.0
100
AcDbLine
 10
14240.0
 20
1464.0
 30
0.0
 11
14240.0
 21
1064.0
 31
0.0
  0
LINE
  5
201A
330
1A
100
AcDbEntity
  8
仕様書枠
 48
50.0
100
AcDbLine
 10
16296.0
 20
1464.0
 30
0.0
 11
16296.0
 21
263.9999999999999
 31
0.0
  0
TEXT
  5
201B
330
1A
100
AcDbEntity
  8
仕様書枠
 62
     7
 48
50.0
100
AcDbText
 10
14507.17944936723
 20
1295.557706291228
 30
0.0
 40
100.0
  1
NO.01     <縮尺> S=1/40
  7
STYLE2
100
AcDbText
  0
LINE
  5
207A
330
1A
100
AcDbEntity
  8
寸法
100
AcDbLine
 10
6923.537714463041
 20
10616.19978712185
 30
0.0
 11
6923.537714463041
 21
10816.19978712185
 31
0.0
  0
LINE
  5
207B
330
1A
100
AcDbEntity
  8
寸法
100
AcDbLine
 10
6923.537714463041
 20
5816.199787121851
 30
0.0
 11
6923.537714463041
 21
5616.199787121851
 31
0.0
  0
TEXT
  5
214A
330
1A
100
AcDbEntity
  8
文字
 62
     7
 48
50.0
100
AcDbText
 10
14498.73845357747
 20
9237.519084173349
 30
0.0
 40
108.152
  1
F12            2.3
  7
STYLE1
100
AcDbText
  0
TEXT
  5
214B
330
1A
100
AcDbEntity
  8
文字
 62
     7
 48
50.0
100
AcDbText
 10
14477.29191412362
 20
9421.377484173353
 30
0.0
 40
108.152
  1
Y10            0.7
  7
STYLE1
100
AcDbText
  0
TEXT
  5
214C
330
1A
100
AcDbEntity
  8
文字
 62
     7
 48
50.0
100
AcDbText
 10
14477.29191412362
 20
9605.235884173351
 30
0.0
 40
108.152
  1
Y10            0.7
  7
STYLE1
100
AcDbText
  0
TEXT
  5
214D
330
1A
100
AcDbEntity
  8
文字
 62
     7
 48
50.0
100
AcDbText
 10
14477.29191412362
 20
9789.094284173351
 30
0.0
 40
108.152
  1
Y10            0.5
  7
STYLE1
100
AcDbText
  0
TEXT
  5
214E
330
1A
100
AcDbEntity
  8
文字
 62
     7
 48
50.0
100
AcDbText
 10
14477.29191412362
 20
9972.95268417335
 30
0.0
 40
108.152
  1
Y10            0.6
  7
STYLE1
100
AcDbText
  0
TEXT
  5
214F
330
1A
100
AcDbEntity
  8
文字
 62
     7
 48
50.0
100
AcDbText
 10
14498.73845357745
 20
10340.66948417335
 30
0.0
 40
108.152
  1
PZ            2.3
  7
STYLE1
100
AcDbText
  0
TEXT
  5
2150
330
1A
100
AcDbEntity
  8
文字
 62
     7
 48
50.0
100
AcDbText
 10
12978.83067957903
 20
10156.81108417335
 30
0.0
 40
108.152
  1
母屋
  7
STYLE1
100
AcDbText
  0
TEXT
  5
2151
330
1A
100
AcDbEntity
  8
文字
 62
     7
 48
50.0
100
AcDbText
 10
14498.73845357747
 20
10156.81108417335
 30
0.0
 40
108.152
  1
F12            1.6
  7
STYLE1
100
AcDbText
  0
LINE
  5
2152
330
1A
100
AcDbEntity
  8
部品1
100
AcDbLine
 10
12488.01615817746
 20
10859.35160972518
 30
0.0
 11
12488.01615817746
 21
8285.334009725184
 31
0.0
  0
TEXT
  5
2153
330
1A
100
AcDbEntity
  8
文字
 62
     7
 48
50.0
100
AcDbText
 10
14498.73845357747
 20
8869.802284173351
 30
0.0
 40
108.152
  1
硬質塩化ビニール
  7
STYLE1
100
AcDbText
  0
TEXT
  5
2154
330
1A
100
AcDbEntity
  8
文字
 62
     7
 48
50.0
100
AcDbText
 10
14498.73845357746
 20
10524.52788417335
 30
0.0
 40
108.152
  1
PZ            2.3
  7
STYLE1
100
AcDbText
  0
LINE
  5
2155
330
1A
100
AcDbEntity
  8
部品1
100
AcDbLine
 10
15888.01615817746
 20
8285.334009725181
 30
0.0
 11
12488.01615817746
 21
8285.334009725184
 31
0.0
  0
LINE
  5
2156
330
1A
100
AcDbEntity
  8
部品1
100
AcDbLine
 10
15888.01615817746
 20
9020.767609725181
 30
0.0
 11
12488.01615817746
 21
9020.767609725181
 31
0.0
  0
LINE
  5
2157
330
1A
100
AcDbEntity
  8
部品1
100
AcDbLine
 10
15888.01615817746
 20
9572.342809725183
 30
0.0
 11
12488.01615817746
 21
9572.342809725183
 31
0.0
  0
LINE
  5
2158
330
1A
100
AcDbEntity
  8
部品1
100
AcDbLine
 10
15888.01615817746
 20
8653.050809725181
 30
0.0
 11
12488.01615817746
 21
8653.050809725181
 31
0.0
  0
LINE
  5
2159
330
1A
100
AcDbEntity
  8
部品1
100
AcDbLine
 10
15888.01615817746
 20
8469.192409725181
 30
0.0
 11
12488.01615817746
 21
8469.192409725183
 31
0.0
  0
LINE
  5
215A
330
1A
100
AcDbEntity
  8
部品1
100
AcDbLine
 10
15888.01615817746
 20
8836.909209725178
 30
0.0
 11
12488.01615817746
 21
8836.909209725178
 31
0.0
  0
TEXT
  5
215B
330
1A
100
AcDbEntity
  8
文字
 62
     7
 48
50.0
100
AcDbText
 10
12641.4744520849
 20
9605.23588417335
 30
0.0
 40
108.152
  1
6
  7
STYLE1
100
AcDbText
  0
TEXT
  5
215C
330
1A
100
AcDbEntity
  8
文字
 62
     7
 48
50.0
100
AcDbText
 10
12641.47445208489
 20
9421.377484173351
 30
0.0
 40
108.152
  1
7
  7
STYLE1
100
AcDbText
  0
TEXT
  5
215D
330
1A
100
AcDbEntity
  8
文字
 62
     7
 48
50.0
100
AcDbText
 10
12641.47445208489
 20
9053.660684173349
 30
0.0
 40
108.152
  1
9
  7
STYLE1
100
AcDbText
  0
TEXT
  5
215E
330
1A
100
AcDbEntity
  8
文字
 62
     7
 48
50.0
100
AcDbText
 10
12641.47445208489
 20
9237.519084173349
 30
0.0
 40
108.152
  1
8
  7
STYLE1
100
AcDbText
  0
TEXT
  5
215F
330
1A
100
AcDbEntity
  8
文字
 62
     7
 48
50.0
100
AcDbText
 10
12617.23450786862
 20
8869.802284173347
 30
0.0
 40
108.152
  1
10
  7
STYLE1
100
AcDbText
  0
TEXT
  5
2160
330
1A
100
AcDbEntity
  8
文字
 62
     7
 48
50.0
100
AcDbText
 10
12641.4744520849
 20
9789.094284173348
 30
0.0
 40
108.152
  1
5
  7
STYLE1
100
AcDbText
  0
TEXT
  5
2161
330
1A
100
AcDbEntity
  8
文字
 62
     7
 48
50.0
100
AcDbText
 10
12978.83067957903
 20
9421.377484173353
 30
0.0
 40
108.152
  1
鼻隠シ
  7
STYLE1
100
AcDbText
  0
TEXT
  5
2162
330
1A
100
AcDbEntity
  8
文字
 62
     7
 48
50.0
100
AcDbText
 10
12978.83067957903
 20
10340.66948417335
 30
0.0
 40
108.152
  1
梁
  7
STYLE1
100
AcDbText
  0
TEXT
  5
2163
330
1A
100
AcDbEntity
  8
文字
 62
     7
 48
50.0
100
AcDbText
 10
12978.83067957903
 20
10524.52788417335
 30
0.0
 40
108.152
  1
柱
  7
STYLE1
100
AcDbText
  0
TEXT
  5
2164
330
1A
100
AcDbEntity
  8
文字
 62
     7
 48
50.0
100
AcDbText
 10
14322.62167258801
 20
10708.38628417335
 30
0.0
 40
108.152
  1
材料（材質）　　単位mm
  7
STYLE1
100
AcDbText
  0
TEXT
  5
2165
330
1A
100
AcDbEntity
  8
文字
 62
     7
 48
50.0
100
AcDbText
 10
13165.66396550777
 20
10708.38628417335
 30
0.0
 40
108.152
  1
部　　品　　名
  7
STYLE1
100
AcDbText
  0
TEXT
  5
2166
330
1A
100
AcDbEntity
  8
文字
 62
     7
 48
50.0
100
AcDbText
 10
12641.4744520849
 20
10156.81108417335
 30
0.0
 40
108.152
  1
3
  7
STYLE1
100
AcDbText
  0
TEXT
  5
2167
330
1A
100
AcDbEntity
  8
文字
 62
     7
 48
50.0
100
AcDbText
 10
12641.4744520849
 20
9972.95268417335
 30
0.0
 40
108.152
  1
4
  7
STYLE1
100
AcDbText
  0
TEXT
  5
2168
330
1A
100
AcDbEntity
  8
文字
 62
     7
 48
50.0
100
AcDbText
 10
12641.4744520849
 20
10340.66948417335
 30
0.0
 40
108.152
  1
2
  7
STYLE1
100
AcDbText
  0
TEXT
  5
2169
330
1A
100
AcDbEntity
  8
文字
 62
     7
 48
50.0
100
AcDbText
 10
12641.4744520849
 20
10524.52788417335
 30
0.0
 40
108.152
  1
1
  7
STYLE1
100
AcDbText
  0
TEXT
  5
216A
330
1A
100
AcDbEntity
  8
文字
 62
     7
 48
50.0
100
AcDbText
 10
12561.69598128554
 20
10708.38628417335
 30
0.0
 40
108.152
  1
品番
  7
STYLE1
100
AcDbText
  0
LINE
  5
216B
330
1A
100
AcDbEntity
  8
部品1
100
AcDbLine
 10
15888.01615817746
 20
10123.91800972518
 30
0.0
 11
12488.01615817746
 21
10123.91800972518
 31
0.0
  0
LINE
  5
216C
330
1A
100
AcDbEntity
  8
部品1
100
AcDbLine
 10
15888.01615817746
 20
9756.201209725183
 30
0.0
 11
12488.01615817746
 21
9756.201209725183
 31
0.0
  0
LINE
  5
216D
330
1A
100
AcDbEntity
  8
部品1
100
AcDbLine
 10
15888.01615817746
 20
9940.059609725182
 30
0.0
 11
12488.01615817746
 21
9940.059609725182
 31
0.0
  0
LINE
  5
216E
330
1A
100
AcDbEntity
  8
部品1
100
AcDbLine
 10
15888.01615817746
 20
10491.63480972518
 30
0.0
 11
12488.01615817746
 21
10491.63480972518
 31
0.0
  0
LINE
  5
216F
330
1A
100
AcDbEntity
  8
部品1
100
AcDbLine
 10
15888.01615817746
 20
10307.77640972518
 30
0.0
 11
12488.01615817746
 21
10307.77640972518
 31
0.0
  0
LINE
  5
2170
330
1A
100
AcDbEntity
  8
部品1
100
AcDbLine
 10
15888.01615817746
 20
10675.49320972518
 30
0.0
 11
12488.01615817746
 21
10675.49320972518
 31
0.0
  0
LINE
  5
2171
330
1A
100
AcDbEntity
  8
部品1
100
AcDbLine
 10
12878.33779855103
 20
10859.35160972518
 30
0.0
 11
12878.33779855105
 21
8836.909209725178
 31
0.0
  0
LINE
  5
2172
330
1A
100
AcDbEntity
  8
部品1
100
AcDbLine
 10
14241.94271817747
 20
10859.35160972518
 30
0.0
 11
14241.94271817747
 21
8836.909209725178
 31
0.0
  0
LINE
  5
2173
330
1A
100
AcDbEntity
  8
部品1
100
AcDbLine
 10
15888.01615817746
 20
8285.334009725181
 30
0.0
 11
15888.01615817746
 21
10859.35160972518
 31
0.0
  0
LINE
  5
2174
330
1A
100
AcDbEntity
  8
部品1
100
AcDbLine
 10
15888.01615817746
 20
10859.35160972518
 30
0.0
 11
12488.01615817746
 21
10859.35160972518
 31
0.0
  0
LINE
  5
2175
330
1A
100
AcDbEntity
  8
部品1
100
AcDbLine
 10
15888.01615817746
 20
9204.626009725183
 30
0.0
 11
12488.01615817746
 21
9204.626009725187
 31
0.0
  0
TEXT
  5
2176
330
1A
100
AcDbEntity
  8
文字
 62
     7
 48
50.0
100
AcDbText
 10
12978.83067957904
 20
9972.95268417335
 30
0.0
 40
108.152
  1
腰パネル
  7
STYLE1
100
AcDbText
  0
TEXT
  5
2177
330
1A
100
AcDbEntity
  8
文字
 62
     7
 48
50.0
100
AcDbText
 10
12978.83067957903
 20
9789.094284173351
 30
0.0
 40
108.152
  1
屋根パネル
  7
STYLE1
100
AcDbText
  0
TEXT
  5
2178
330
1A
100
AcDbEntity
  8
文字
 62
     7
 48
50.0
100
AcDbText
 10
12978.83067957903
 20
9237.519084173349
 30
0.0
 40
108.152
  1
プレート
  7
STYLE1
100
AcDbText
  0
TEXT
  5
2179
330
1A
100
AcDbEntity
  8
文字
 62
     7
 48
50.0
100
AcDbText
 10
12978.83067957903
 20
9053.660684173349
 30
0.0
 40
108.152
  1
車止メ棒
  7
STYLE1
100
AcDbText
  0
TEXT
  5
217A
330
1A
100
AcDbEntity
  8
文字
 62
     7
 48
50.0
100
AcDbText
 10
12978.83067957903
 20
8869.802284173355
 30
0.0
 40
108.152
  1
雨とい
  7
STYLE1
100
AcDbText
  0
TEXT
  5
217B
330
1A
100
AcDbEntity
  8
文字
 62
     7
 48
50.0
100
AcDbText
 10
12596.74331928297
 20
8502.085484173349
 30
0.0
 40
108.152
  1
F12→溶融亜鉛めっき鋼板(JIS G 3302)
  7
STYLE1
100
AcDbText
  0
TEXT
  5
217C
330
1A
100
AcDbEntity
  8
文字
 62
     7
 48
50.0
100
AcDbText
 10
12596.74331928296
 20
8318.227084173347
 30
0.0
 40
108.152
  1
Y10→溶融亜鉛-5％アルミニウム合金めっき鋼板(JIS G 3317)
 41
0.9
  7
STYLE1
100
AcDbText
  0
TEXT
  5
217D
330
1A
100
AcDbEntity
  8
文字
 62
     7
 48
50.0
100
AcDbText
 10
12596.74331928318
 20
8685.943884173347
 30
0.0
 40
108.152
  1
PZ→一般構造用角形鋼管(JIS G 3466)
 41
0.9
  7
STYLE1
100
AcDbText
  0
LINE
  5
217E
330
1A
100
AcDbEntity
  8
部品1
100
AcDbLine
 10
15888.01615817746
 20
9388.484409725183
 30
0.0
 11
12488.01615817746
 21
9388.484409725183
 31
0.0
  0
TEXT
  5
217F
330
1A
100
AcDbEntity
  8
文字
 62
     7
 48
50.0
100
AcDbText
 10
12978.83067957903
 20
9605.235884173351
 30
0.0
 40
108.152
  1
妻板
  7
STYLE1
100
AcDbText
  0
TEXT
  5
2180
330
1A
100
AcDbEntity
  8
文字
 62
     7
 48
50.0
100
AcDbText
 10
14498.73845357748
 20
9053.660684173349
 30
0.0
 40
108.152
  1
F12            1.2
  7
STYLE1
100
AcDbText
  0
TEXT
  5
2191
330
1A
100
AcDbEntity
  8
部品1
 48
50.0
100
AcDbText
 10
2762.169655558357
 20
2289.285629092425
 30
0.0
 40
100.0
  1
▽G.L
  7
STYLE2
100
AcDbText
  0
LINE
  5
21B4
330
1A
100
AcDbEntity
  8
点線
 48
10.0
100
AcDbLine
 10
3578.084791275919
 20
1994.894328662095
 30
0.0
 11
3648.08479127592
 21
1994.894328662095
 31
0.0
  0
LINE
  5
21B5
330
1A
100
AcDbEntity
  8
点線
 48
10.0
100
AcDbLine
 10
3708.084791275921
 20
1994.894328662097
 30
0.0
 11
3778.08479127592
 21
1994.894328662097
 31
0.0
  0
LINE
  5
21B6
330
1A
100
AcDbEntity
  8
点線
 48
10.0
100
AcDbLine
 10
3708.084791275921
 20
2004.894328662096
 30
0.0
 11
3778.08479127592
 21
2004.894328662096
 31
0.0
  0
LINE
  5
21B7
330
1A
100
AcDbEntity
  8
点線
 48
10.0
100
AcDbLine
 10
3578.084791275919
 20
2004.894328662095
 30
0.0
 11
3648.08479127592
 21
2004.894328662095
 31
0.0
  0
LINE
  5
21B8
330
1A
100
AcDbEntity
  8
点線
 48
10.0
100
AcDbLine
 10
3778.08479127592
 20
2004.894328662096
 30
0.0
 11
3778.08479127592
 21
1994.894328662095
 31
0.0
  0
LINE
  5
21B9
330
1A
100
AcDbEntity
  8
点線
 48
10.0
100
AcDbLine
 10
3578.084791275919
 20
2004.894328662095
 30
0.0
 11
3578.084791275919
 21
1994.894328662095
 31
0.0
  0
LINE
  5
21BA
330
1A
100
AcDbEntity
  8
点線
 48
50.0
100
AcDbLine
 10
3708.084791275921
 20
1979.894328662096
 30
0.0
 11
3648.08479127592
 21
1979.894328662096
 31
0.0
  0
LINE
  5
21BB
330
1A
100
AcDbEntity
  8
点線
 48
50.0
100
AcDbLine
 10
6088.084791275921
 20
1979.894328662103
 30
0.0
 11
6028.084791275921
 21
1979.894328662103
 31
0.0
  0
LINE
  5
21BC
330
1A
100
AcDbEntity
  8
点線
 48
10.0
100
AcDbLine
 10
5958.08479127592
 20
2004.894328662102
 30
0.0
 11
5958.08479127592
 21
1994.894328662101
 31
0.0
  0
LINE
  5
21BD
330
1A
100
AcDbEntity
  8
点線
 48
10.0
100
AcDbLine
 10
6158.084791275921
 20
2004.894328662103
 30
0.0
 11
6158.084791275921
 21
1994.894328662102
 31
0.0
  0
LINE
  5
21BE
330
1A
100
AcDbEntity
  8
点線
 48
10.0
100
AcDbLine
 10
5958.08479127592
 20
2004.894328662102
 30
0.0
 11
6028.084791275921
 21
2004.894328662102
 31
0.0
  0
LINE
  5
21BF
330
1A
100
AcDbEntity
  8
点線
 48
10.0
100
AcDbLine
 10
6088.084791275921
 20
2004.894328662103
 30
0.0
 11
6158.084791275921
 21
2004.894328662103
 31
0.0
  0
LINE
  5
21C0
330
1A
100
AcDbEntity
  8
点線
 48
10.0
100
AcDbLine
 10
6088.084791275921
 20
1994.894328662103
 30
0.0
 11
6158.084791275921
 21
1994.894328662103
 31
0.0
  0
LINE
  5
21C1
330
1A
100
AcDbEntity
  8
点線
 48
10.0
100
AcDbLine
 10
5958.08479127592
 20
1994.894328662101
 30
0.0
 11
6028.084791275921
 21
1994.894328662101
 31
0.0
  0
LINE
  5
21CF
330
1A
100
AcDbEntity
  8
点線
 48
6.0
100
AcDbLine
 10
3498.084791275921
 20
10401.69978712185
 30
0.0
 11
3458.084791275921
 21
10401.69978712185
 31
0.0
  0
LINE
  5
21D0
330
1A
100
AcDbEntity
  8
点線
 48
6.0
100
AcDbLine
 10
3498.08479127592
 20
10336.69978712185
 30
0.0
 11
3458.084791275921
 21
10336.69978712185
 31
0.0
  0
LINE
  5
21D1
330
1A
100
AcDbEntity
  8
点線
 48
6.0
100
AcDbLine
 10
3458.084791275921
 20
10336.69978712185
 30
0.0
 11
3458.084791275921
 21
10401.69978712185
 31
0.0
  0
LINE
  5
21D2
330
1A
100
AcDbEntity
  8
点線
 48
6.0
100
AcDbLine
 10
3498.08479127592
 20
9767.399787121851
 30
0.0
 11
3458.084791275921
 21
9767.399787121851
 31
0.0
  0
LINE
  5
21D3
330
1A
100
AcDbEntity
  8
点線
 48
6.0
100
AcDbLine
 10
3498.08479127592
 20
9702.399787121851
 30
0.0
 11
3458.084791275921
 21
9702.399787121851
 31
0.0
  0
LINE
  5
21D4
330
1A
100
AcDbEntity
  8
点線
 48
6.0
100
AcDbLine
 10
3458.084791275921
 20
9702.399787121851
 30
0.0
 11
3458.084791275921
 21
9767.399787121851
 31
0.0
  0
LINE
  5
21D5
330
1A
100
AcDbEntity
  8
点線
 48
6.0
100
AcDbLine
 10
3498.08479127592
 20
9133.099787121851
 30
0.0
 11
3458.08479127592
 21
9133.099787121851
 31
0.0
  0
LINE
  5
21D6
330
1A
100
AcDbEntity
  8
点線
 48
6.0
100
AcDbLine
 10
3498.08479127592
 20
9068.099787121848
 30
0.0
 11
3458.08479127592
 21
9068.099787121848
 31
0.0
  0
LINE
  5
21D7
330
1A
100
AcDbEntity
  8
点線
 48
6.0
100
AcDbLine
 10
3458.08479127592
 20
9068.099787121848
 30
0.0
 11
3458.08479127592
 21
9133.099787121851
 31
0.0
  0
LINE
  5
21D8
330
1A
100
AcDbEntity
  8
点線
 48
6.0
100
AcDbLine
 10
3498.08479127592
 20
8498.799787121848
 30
0.0
 11
3458.08479127592
 21
8498.799787121848
 31
0.0
  0
LINE
  5
21DA
330
1A
100
AcDbEntity
  8
点線
 48
6.0
100
AcDbLine
 10
3498.08479127592
 20
8433.799787121845
 30
0.0
 11
3458.08479127592
 21
8433.799787121845
 31
0.0
  0
LINE
  5
21DB
330
1A
100
AcDbEntity
  8
点線
 48
6.0
100
AcDbLine
 10
3458.08479127592
 20
8433.799787121845
 30
0.0
 11
3458.08479127592
 21
8498.799787121848
 31
0.0
  0
LINE
  5
21DC
330
1A
100
AcDbEntity
  8
点線
 48
6.0
100
AcDbLine
 10
3498.08479127592
 20
10356.69978712185
 30
0.0
 11
3458.084791275921
 21
10356.69978712185
 31
0.0
  0
LINE
  5
21DD
330
1A
100
AcDbEntity
  8
点線
 48
6.0
100
AcDbLine
 10
3498.08479127592
 20
9722.399787121851
 30
0.0
 11
3458.084791275921
 21
9722.399787121851
 31
0.0
  0
LINE
  5
21DE
330
1A
100
AcDbEntity
  8
点線
 48
6.0
100
AcDbLine
 10
3498.08479127592
 20
9088.099787121851
 30
0.0
 11
3458.08479127592
 21
9088.099787121851
 31
0.0
  0
LINE
  5
21E0
330
1A
100
AcDbEntity
  8
点線
 48
6.0
100
AcDbLine
 10
3498.08479127592
 20
8453.79978712185
 30
0.0
 11
3458.08479127592
 21
8453.79978712185
 31
0.0
  0
LINE
  5
21E1
330
1A
100
AcDbEntity
  8
点線
 48
6.0
100
AcDbLine
 10
3498.08479127592
 20
7998.599787121853
 30
0.0
 11
3458.08479127592
 21
7998.599787121853
 31
0.0
  0
LINE
  5
21E8
330
1A
100
AcDbEntity
  8
点線
 48
6.0
100
AcDbLine
 10
3498.08479127592
 20
7978.599787121855
 30
0.0
 11
3458.08479127592
 21
7978.599787121855
 31
0.0
  0
LINE
  5
21EE
330
1A
100
AcDbEntity
  8
点線
 48
6.0
100
AcDbLine
 10
3498.08479127592
 20
7933.599787121855
 30
0.0
 11
3458.08479127592
 21
7933.599787121855
 31
0.0
  0
LINE
  5
21F4
330
1A
100
AcDbEntity
  8
点線
 48
6.0
100
AcDbLine
 10
3498.08479127592
 20
7364.299787121851
 30
0.0
 11
3458.08479127592
 21
7364.299787121851
 31
0.0
  0
LINE
  5
21FA
330
1A
100
AcDbEntity
  8
点線
 48
6.0
100
AcDbLine
 10
3498.08479127592
 20
7344.299787121852
 30
0.0
 11
3458.08479127592
 21
7344.299787121852
 31
0.0
  0
LINE
  5
2200
330
1A
100
AcDbEntity
  8
点線
 48
6.0
100
AcDbLine
 10
3498.08479127592
 20
7299.299787121852
 30
0.0
 11
3458.08479127592
 21
7299.299787121852
 31
0.0
  0
LINE
  5
2206
330
1A
100
AcDbEntity
  8
点線
 48
6.0
100
AcDbLine
 10
3498.08479127592
 20
6729.999787121852
 30
0.0
 11
3458.08479127592
 21
6729.999787121852
 31
0.0
  0
LINE
  5
220C
330
1A
100
AcDbEntity
  8
点線
 48
6.0
100
AcDbLine
 10
3498.08479127592
 20
6709.999787121851
 30
0.0
 11
3458.08479127592
 21
6709.999787121851
 31
0.0
  0
LINE
  5
2212
330
1A
100
AcDbEntity
  8
点線
 48
6.0
100
AcDbLine
 10
3498.08479127592
 20
6664.999787121852
 30
0.0
 11
3458.08479127592
 21
6664.999787121852
 31
0.0
  0
LINE
  5
2218
330
1A
100
AcDbEntity
  8
点線
 48
6.0
100
AcDbLine
 10
3498.08479127592
 20
6095.699787121851
 30
0.0
 11
3458.08479127592
 21
6095.699787121851
 31
0.0
  0
LINE
  5
2224
330
1A
100
AcDbEntity
  8
点線
 48
6.0
100
AcDbLine
 10
3498.08479127592
 20
6075.699787121852
 30
0.0
 11
3458.08479127592
 21
6075.699787121852
 31
0.0
  0
LINE
  5
222A
330
1A
100
AcDbEntity
  8
点線
 48
6.0
100
AcDbLine
 10
3498.08479127592
 20
6030.699787121852
 30
0.0
 11
3458.08479127592
 21
6030.699787121852
 31
0.0
  0
LINE
  5
222B
330
1A
100
AcDbEntity
  8
点線
 48
6.0
100
AcDbLine
 10
3458.08479127592
 20
7998.599787121853
 30
0.0
 11
3458.08479127592
 21
7933.599787121855
 31
0.0
  0
LINE
  5
222C
330
1A
100
AcDbEntity
  8
点線
 48
6.0
100
AcDbLine
 10
3458.08479127592
 20
7364.299787121851
 30
0.0
 11
3458.08479127592
 21
7299.299787121852
 31
0.0
  0
LINE
  5
222D
330
1A
100
AcDbEntity
  8
点線
 48
6.0
100
AcDbLine
 10
3458.08479127592
 20
6729.999787121852
 30
0.0
 11
3458.08479127592
 21
6664.999787121852
 31
0.0
  0
LINE
  5
222E
330
1A
100
AcDbEntity
  8
点線
 48
6.0
100
AcDbLine
 10
3458.08479127592
 20
6095.699787121851
 30
0.0
 11
3458.08479127592
 21
6030.699787121852
 31
0.0
  0
LINE
  5
222F
330
1A
100
AcDbEntity
  8
点線
 48
6.0
100
AcDbLine
 10
3648.08479127592
 20
10401.69978712185
 30
0.0
 11
3648.08479127592
 21
10336.69978712185
 31
0.0
  0
LINE
  5
2230
330
1A
100
AcDbEntity
  8
点線
 48
6.0
100
AcDbLine
 10
3708.084791275921
 20
10401.69978712185
 30
0.0
 11
3708.084791275921
 21
10336.69978712185
 31
0.0
  0
LINE
  5
2231
330
1A
100
AcDbEntity
  8
点線
 48
6.0
100
AcDbLine
 10
3648.08479127592
 20
9767.399787121851
 30
0.0
 11
3648.084791275921
 21
9702.399787121851
 31
0.0
  0
LINE
  5
2232
330
1A
100
AcDbEntity
  8
点線
 48
6.0
100
AcDbLine
 10
3708.084791275921
 20
9767.399787121851
 30
0.0
 11
3708.084791275921
 21
9702.399787121851
 31
0.0
  0
LINE
  5
2233
330
1A
100
AcDbEntity
  8
点線
 48
6.0
100
AcDbLine
 10
3648.08479127592
 20
9133.099787121851
 30
0.0
 11
3648.08479127592
 21
9068.099787121848
 31
0.0
  0
LINE
  5
2235
330
1A
100
AcDbEntity
  8
点線
 48
6.0
100
AcDbLine
 10
3708.084791275921
 20
9133.099787121851
 30
0.0
 11
3708.084791275921
 21
9068.099787121848
 31
0.0
  0
LINE
  5
2236
330
1A
100
AcDbEntity
  8
点線
 48
6.0
100
AcDbLine
 10
3648.08479127592
 20
8498.799787121848
 30
0.0
 11
3648.08479127592
 21
8433.799787121845
 31
0.0
  0
LINE
  5
2237
330
1A
100
AcDbEntity
  8
点線
 48
6.0
100
AcDbLine
 10
3708.084791275921
 20
8498.799787121848
 30
0.0
 11
3708.084791275921
 21
8433.799787121845
 31
0.0
  0
LINE
  5
2238
330
1A
100
AcDbEntity
  8
点線
 48
6.0
100
AcDbLine
 10
3648.08479127592
 20
7998.599787121853
 30
0.0
 11
3648.08479127592
 21
7933.599787121855
 31
0.0
  0
LINE
  5
2239
330
1A
100
AcDbEntity
  8
点線
 48
6.0
100
AcDbLine
 10
3708.084791275921
 20
7998.599787121853
 30
0.0
 11
3708.084791275919
 21
7933.599787121855
 31
0.0
  0
LINE
  5
223A
330
1A
100
AcDbEntity
  8
点線
 48
6.0
100
AcDbLine
 10
3648.08479127592
 20
7364.29978712185
 30
0.0
 11
3648.08479127592
 21
7299.299787121852
 31
0.0
  0
LINE
  5
223B
330
1A
100
AcDbEntity
  8
点線
 48
6.0
100
AcDbLine
 10
3708.084791275921
 20
7364.29978712185
 30
0.0
 11
3708.084791275919
 21
7299.299787121852
 31
0.0
  0
LINE
  5
223C
330
1A
100
AcDbEntity
  8
点線
 48
6.0
100
AcDbLine
 10
3648.08479127592
 20
6729.999787121852
 30
0.0
 11
3648.08479127592
 21
6664.999787121852
 31
0.0
  0
LINE
  5
223D
330
1A
100
AcDbEntity
  8
点線
 48
6.0
100
AcDbLine
 10
3708.084791275921
 20
6729.999787121852
 30
0.0
 11
3708.084791275921
 21
6664.999787121852
 31
0.0
  0
LINE
  5
223E
330
1A
100
AcDbEntity
  8
点線
 48
6.0
100
AcDbLine
 10
3648.084791275924
 20
6095.699787121851
 30
0.0
 11
3648.084791275924
 21
6030.699787121852
 31
0.0
  0
LINE
  5
223F
330
1A
100
AcDbEntity
  8
点線
 48
6.0
100
AcDbLine
 10
3708.084791275925
 20
6095.699787121851
 30
0.0
 11
3708.084791275925
 21
6030.699787121852
 31
0.0
  0
LINE
  5
2256
330
1A
100
AcDbEntity
  8
点線
 48
6.0
100
AcDbLine
 10
6278.084791275919
 20
10401.69978712185
 30
0.0
 11
6278.084791275919
 21
10336.69978712185
 31
0.0
  0
LINE
  5
2257
330
1A
100
AcDbEntity
  8
点線
 48
6.0
100
AcDbLine
 10
6278.084791275919
 20
9767.399787121853
 30
0.0
 11
6278.084791275917
 21
9702.399787121851
 31
0.0
  0
LINE
  5
2258
330
1A
100
AcDbEntity
  8
点線
 48
6.0
100
AcDbLine
 10
6278.084791275917
 20
9133.099787121849
 30
0.0
 11
6278.084791275919
 21
9068.09978712185
 31
0.0
  0
LINE
  5
2259
330
1A
100
AcDbEntity
  8
点線
 48
6.0
100
AcDbLine
 10
6278.084791275919
 20
8498.799787121846
 30
0.0
 11
6278.084791275919
 21
8433.799787121849
 31
0.0
  0
LINE
  5
225A
330
1A
100
AcDbEntity
  8
点線
 48
6.0
100
AcDbLine
 10
6278.084791275917
 20
7998.599787121856
 30
0.0
 11
6278.084791275919
 21
7933.599787121855
 31
0.0
  0
LINE
  5
225B
330
1A
100
AcDbEntity
  8
点線
 48
6.0
100
AcDbLine
 10
6278.084791275917
 20
7364.299787121852
 30
0.0
 11
6278.084791275917
 21
7299.299787121855
 31
0.0
  0
LINE
  5
225C
330
1A
100
AcDbEntity
  8
点線
 48
6.0
100
AcDbLine
 10
6278.084791275916
 20
6729.999787121851
 30
0.0
 11
6278.084791275916
 21
6664.999787121853
 31
0.0
  0
LINE
  5
225D
330
1A
100
AcDbEntity
  8
点線
 48
6.0
100
AcDbLine
 10
6278.084791275917
 20
6095.699787121851
 30
0.0
 11
6278.084791275917
 21
6030.699787121852
 31
0.0
  0
VIEWPORT
  5
22
102
{ACAD_XDICTIONARY
360
22AF
102
}
330
17
100
AcDbEntity
 67
     1
  8
0
100
AcDbViewport
 10
261.5176991150442
 20
154.7242978687078
 30
0.0
 40
523.0353982300885
 41
309.4485957374157
 68
     1
 69
     1
 12
261.5176991150442
 22
154.7242978687078
 13
0.0
 23
0.0
 14
1.0
 24
1.0
 15
10.0
 25
10.0
 16
0.0
 26
0.0
 36
1.0
 17
0.0
 27
0.0
 37
0.0
 42
50.0
 43
0.0
 44
0.0
 45
309.4485957374157
 50
0.0
 51
0.0
 72
   100
 90
    32768
  1

281
     0
 71
     1
 74
     0
110
0.0
120
0.0
130
0.0
111
1.0
121
0.0
131
0.0
112
0.0
122
1.0
132
0.0
 79
     0
146
0.0
  0
ENDSEC
  0
SECTION
  2
OBJECTS
  0
DICTIONARY
  5
C
330
0
100
AcDbDictionary
281
     1
  3
ACAD_COLOR
350
20E1
  3
ACAD_GROUP
350
D
  3
ACAD_LAYOUT
350
20E2
  3
ACAD_MATERIAL
350
20E0
  3
ACAD_MLINESTYLE
350
E
  3
ACAD_PLOTSETTINGS
350
20E3
  3
ACAD_PLOTSTYLENAME
350
20DE
  3
ACDBHEADERROUNDTRIPXREC
350
22AC
  3
AcDbVariableDictionary
350
22A8
  0
DICTIONARY
  5
210C
330
2
100
AcDbDictionary
280
     1
281
     1
  3
ACAD_LAYERFILTERS
360
21CD
  3
ACAD_LAYERSTATES
360
210D
  0
DICTIONARY
  5
22AF
330
22
100
AcDbDictionary
280
     1
281
     1
  3
ACAD_XREC_ROUNDTRIP
360
22B0
  0
DICTIONARY
  5
20E1
102
{ACAD_REACTORS
330
C
102
}
330
C
100
AcDbDictionary
281
     1
  0
DICTIONARY
  5
D
102
{ACAD_REACTORS
330
C
102
}
330
C
100
AcDbDictionary
281
     1
  0
DICTIONARY
  5
20E2
102
{ACAD_REACTORS
330
C
102
}
330
C
100
AcDbDictionary
281
     1
  3
Model
350
20E4
  3
レイアウト1
350
20E5
  0
DICTIONARY
  5
20E0
102
{ACAD_REACTORS
330
C
102
}
330
C
100
AcDbDictionary
281
     1
  0
DICTIONARY
  5
E
102
{ACAD_REACTORS
330
C
102
}
330
C
100
AcDbDictionary
281
     1
  3
STANDARD
350
13
  0
DICTIONARY
  5
20E3
102
{ACAD_REACTORS
330
C
102
}
330
C
100
AcDbDictionary
281
     1
  0
ACDBDICTIONARYWDFLT
  5
20DE
102
{ACAD_REACTORS
330
C
102
}
330
C
100
AcDbDictionary
281
     1
  3
Normal
350
20DF
100
AcDbDictionaryWithDefault
340
20DF
  0
DICTIONARY
  5
22AC
102
{ACAD_REACTORS
330
C
102
}
330
C
100
AcDbDictionary
281
     1
  3
COLORDICT
350
22AE
  3
MATERIALDICT
350
22AD
  0
DICTIONARY
  5
22A8
102
{ACAD_REACTORS
330
C
102
}
330
C
100
AcDbDictionary
281
     1
  3
DIMASSOC
350
22A9
  3
PROJECTNAME
350
22AA
  0
DICTIONARY
  5
21CD
102
{ACAD_REACTORS
330
210C
102
}
330
210C
100
AcDbDictionary
281
     1
  0
DICTIONARY
  5
210D
102
{ACAD_REACTORS
330
210C
102
}
330
210C
100
AcDbDictionary
281
     1
  0
XRECORD
  5
22B0
102
{ACAD_REACTORS
330
22AF
102
}
330
22AF
100
AcDbXrecord
280
     1
102
SHADEPLOT
 70
     0
  0
LAYOUT
  5
20E4
102
{ACAD_XDICTIONARY
360
22B1
102
}
102
{ACAD_REACTORS
330
20E2
102
}
330
20E2
100
AcDbPlotSettings
  1

  2
iR C3880
  4
A3
  6

 40
5.873749732971191
 41
5.873747825622558
 42
5.873748779296875
 43
5.873748779296875
 44
296.9259948730469
 45
419.9466552734374
 46
0.0
 47
0.0
 48
0.0
 49
0.0
140
0.0
141
0.0
142
1.0
143
40.0
 70
 11952
 72
     1
 73
     1
 74
     2
  7
inaba.ctb
 75
    24
147
0.025
148
0.0
149
0.0
100
AcDbLayout
  1
Model
 70
     1
 71
     0
 10
0.0
 20
0.0
 11
12.0
 21
9.0
 12
0.0
 22
0.0
 32
0.0
 14
0.0
 24
0.0
 34
0.0
 15
0.0
 25
0.0
 35
0.0
146
0.0
 13
0.0
 23
0.0
 33
0.0
 16
1.0
 26
0.0
 36
0.0
 17
0.0
 27
1.0
 37
0.0
 76
     0
330
1A
  0
LAYOUT
  5
20E5
102
{ACAD_XDICTIONARY
360
22B3
102
}
102
{ACAD_REACTORS
330
20E2
102
}
330
20E2
100
AcDbPlotSettings
  1

  2
自動 EPSON LP-8400FX (TATENO 上)
  4

  6

 40
0.0
 41
0.0
 42
0.0
 43
0.0
 44
0.0
 45
0.0
 46
0.0
 47
0.0
 48
0.0
 49
0.0
140
0.0
141
0.0
142
1.0
143
1.0
 70
   688
 72
     0
 73
     0
 74
     5
  7
inaba.ctb
 75
    16
147
1.0
148
0.0
149
0.0
100
AcDbLayout
  1
レイアウト1
 70
     1
 71
     1
 10
0.0
 20
0.0
 11
420.0
 21
297.0
 12
0.0
 22
0.0
 32
0.0
 14
1.000000000000000E+20
 24
1.000000000000000E+20
 34
1.000000000000000E+20
 15
-1.000000000000000E+20
 25
-1.000000000000000E+20
 35
-1.000000000000000E+20
146
0.0
 13
0.0
 23
0.0
 33
0.0
 16
1.0
 26
0.0
 36
0.0
 17
0.0
 27
1.0
 37
0.0
 76
     0
330
17
331
22
  0
MLINESTYLE
  5
13
102
{ACAD_REACTORS
330
E
102
}
330
E
100
AcDbMlineStyle
  2
STANDARD
 70
     0
  3

 62
     0
 51
90.0
 52
90.0
 71
     2
 49
0.5
 62
   256
  6
BYLAYER
 49
-0.5
 62
   256
  6
BYLAYER
  0
ACDBPLACEHOLDER
  5
20DF
102
{ACAD_REACTORS
330
20DE
102
}
330
20DE
  0
XRECORD
  5
22AE
102
{ACAD_REACTORS
330
22AC
102
}
330
22AC
100
AcDbXrecord
280
     1
340
20E1
  0
XRECORD
  5
22AD
102
{ACAD_REACTORS
330
22AC
102
}
330
22AC
100
AcDbXrecord
280
     1
340
20E0
  0
DICTIONARYVAR
  5
22A9
102
{ACAD_REACTORS
330
22A8
102
}
330
22A8
100
DictionaryVariables
280
     0
  1
1
  0
DICTIONARYVAR
  5
22AA
102
{ACAD_REACTORS
330
22A8
102
}
330
22A8
100
DictionaryVariables
280
     0
  1

  0
DICTIONARY
  5
22B1
330
20E4
100
AcDbDictionary
280
     1
281
     1
  3
ACAD_XREC_ROUNDTRIP
360
22B2
  0
DICTIONARY
  5
22B3
330
20E5
100
AcDbDictionary
280
     1
281
     1
  3
ACAD_XREC_ROUNDTRIP
360
22B4
  0
XRECORD
  5
22B2
102
{ACAD_REACTORS
330
22B1
102
}
330
22B1
100
AcDbXrecord
280
     1
102
SHADEPLOT
 70
     0
102
SHADEPLOTRESLEVEL
 70
     2
102
SHADEPLOTCUSTOMDPI
 70
   300
  0
XRECORD
  5
22B4
102
{ACAD_REACTORS
330
22B3
102
}
330
22B3
100
AcDbXrecord
280
     1
102
SHADEPLOT
 70
     0
102
SHADEPLOTRESLEVEL
 70
     2
102
SHADEPLOTCUSTOMDPI
 70
   300
  0
ENDSEC
  0
EOF
