  0
SECTION
  2
HEADER
  9
$ACADVER
  1
AC1015
  9
$ACADMAINTVER
 70
    20
  9
$DWGCODEPAGE
  3
ANSI_932
  9
$INSBASE
 10
0.0
 20
0.0
 30
0.0
  9
$EXTMIN
 10
128.8000000000029
 20
264.0
 30
0.0
  9
$EXTMAX
 10
16296.0
 20
10919.41427062826
 30
0.0
  9
$LIMMIN
 10
0.0
 20
0.0
  9
$LIMMAX
 10
16800.0
 20
11880.0
  9
$ORTHOMODE
 70
     0
  9
$REGENMODE
 70
     1
  9
$FILLMODE
 70
     1
  9
$QTEXTMODE
 70
     0
  9
$MIRRTEXT
 70
     1
  9
$LTSCALE
 40
7.0
  9
$ATTMODE
 70
     1
  9
$TEXTSIZE
 40
3.5
  9
$TRACEWID
 40
1.0
  9
$TEXTSTYLE
  7
MSGOTHIC
  9
$CLAYER
  8
仕様書枠
  9
$CELTYPE
  6
BYLAYER
  9
$CECOLOR
 62
   256
  9
$CELTSCALE
 40
50.0
  9
$DISPSILH
 70
     0
  9
$DIMSCALE
 40
40.0
  9
$DIMASZ
 40
2.5
  9
$DIMEXO
 40
1.0
  9
$DIMDLI
 40
7.0
  9
$DIMRND
 40
0.0
  9
$DIMDLE
 40
0.0
  9
$DIMEXE
 40
1.0
  9
$DIMTP
 40
0.0
  9
$DIMTM
 40
0.0
  9
$DIMTXT
 40
3.0
  9
$DIMCEN
 40
2.5
  9
$DIMTSZ
 40
0.0
  9
$DIMTOL
 70
     0
  9
$DIMLIM
 70
     0
  9
$DIMTIH
 70
     0
  9
$DIMTOH
 70
     0
  9
$DIMSE1
 70
     0
  9
$DIMSE2
 70
     0
  9
$DIMTAD
 70
     3
  9
$DIMZIN
 70
     8
  9
$DIMBLK
  1

  9
$DIMASO
 70
     1
  9
$DIMSHO
 70
     1
  9
$DIMPOST
  1

  9
$DIMAPOST
  1

  9
$DIMALT
 70
     0
  9
$DIMALTD
 70
     2
  9
$DIMALTF
 40
0.0394
  9
$DIMLFAC
 40
1.0
  9
$DIMTOFL
 70
     0
  9
$DIMTVP
 40
1.0
  9
$DIMTIX
 70
     0
  9
$DIMSOXD
 70
     0
  9
$DIMSAH
 70
     1
  9
$DIMBLK1
  1
DOTSMALL
  9
$DIMBLK2
  1
DOTSMALL
  9
$DIMSTYLE
  2
物置仕様図40
  9
$DIMCLRD
 70
     4
  9
$DIMCLRE
 70
     4
  9
$DIMCLRT
 70
     7
  9
$DIMTFAC
 40
1.0
  9
$DIMGAP
 40
1.0
  9
$DIMJUST
 70
     0
  9
$DIMSD1
 70
     0
  9
$DIMSD2
 70
     0
  9
$DIMTOLJ
 70
     1
  9
$DIMTZIN
 70
     8
  9
$DIMALTZ
 70
     0
  9
$DIMALTTZ
 70
     0
  9
$DIMUPT
 70
     0
  9
$DIMDEC
 70
     2
  9
$DIMTDEC
 70
     2
  9
$DIMALTU
 70
     2
  9
$DIMALTTD
 70
     2
  9
$DIMTXSTY
  7
STANDARD
  9
$DIMAUNIT
 70
     0
  9
$DIMADEC
 70
     0
  9
$DIMALTRND
 40
0.0
  9
$DIMAZIN
 70
     0
  9
$DIMDSEP
 70
    46
  9
$DIMATFIT
 70
     3
  9
$DIMFRAC
 70
     0
  9
$DIMLDRBLK
  1

  9
$DIMLUNIT
 70
     2
  9
$DIMLWD
 70
    -2
  9
$DIMLWE
 70
    -2
  9
$DIMTMOVE
 70
     2
  9
$LUNITS
 70
     2
  9
$LUPREC
 70
     1
  9
$SKETCHINC
 40
1.0
  9
$FILLETRAD
 40
5.0
  9
$AUNITS
 70
     0
  9
$AUPREC
 70
     1
  9
$MENU
  1
.
  9
$ELEVATION
 40
0.0
  9
$PELEVATION
 40
0.0
  9
$THICKNESS
 40
0.0
  9
$LIMCHECK
 70
     0
  9
$CHAMFERA
 40
400.0
  9
$CHAMFERB
 40
400.0
  9
$CHAMFERC
 40
800.0
  9
$CHAMFERD
 40
0.0
  9
$SKPOLY
 70
     0
  9
$TDCREATE
 40
2450696.487780324
  9
$TDUCREATE
 40
2450696.112780324
  9
$TDUPDATE
 40
2455579.570402014
  9
$TDUUPDATE
 40
2455579.195402014
  9
$TDINDWG
 40
0.4343523495
  9
$TDUSRTIMER
 40
0.4343523495
  9
$USRTIMER
 70
     1
  9
$ANGBASE
 50
0.0
  9
$ANGDIR
 70
     0
  9
$PDMODE
 70
     0
  9
$PDSIZE
 40
0.0
  9
$PLINEWID
 40
0.0
  9
$SPLFRAME
 70
     0
  9
$SPLINETYPE
 70
     6
  9
$SPLINESEGS
 70
     8
  9
$HANDSEED
  5
260E
  9
$SURFTAB1
 70
     6
  9
$SURFTAB2
 70
     6
  9
$SURFTYPE
 70
     6
  9
$SURFU
 70
     6
  9
$SURFV
 70
     6
  9
$UCSBASE
  2

  9
$UCSNAME
  2

  9
$UCSORG
 10
0.0
 20
0.0
 30
0.0
  9
$UCSXDIR
 10
1.0
 20
0.0
 30
0.0
  9
$UCSYDIR
 10
0.0
 20
1.0
 30
0.0
  9
$UCSORTHOREF
  2

  9
$UCSORTHOVIEW
 70
     0
  9
$UCSORGTOP
 10
0.0
 20
0.0
 30
0.0
  9
$UCSORGBOTTOM
 10
0.0
 20
0.0
 30
0.0
  9
$UCSORGLEFT
 10
0.0
 20
0.0
 30
0.0
  9
$UCSORGRIGHT
 10
0.0
 20
0.0
 30
0.0
  9
$UCSORGFRONT
 10
0.0
 20
0.0
 30
0.0
  9
$UCSORGBACK
 10
0.0
 20
0.0
 30
0.0
  9
$PUCSBASE
  2

  9
$PUCSNAME
  2

  9
$PUCSORG
 10
0.0
 20
0.0
 30
0.0
  9
$PUCSXDIR
 10
1.0
 20
0.0
 30
0.0
  9
$PUCSYDIR
 10
0.0
 20
1.0
 30
0.0
  9
$PUCSORTHOREF
  2

  9
$PUCSORTHOVIEW
 70
     0
  9
$PUCSORGTOP
 10
0.0
 20
0.0
 30
0.0
  9
$PUCSORGBOTTOM
 10
0.0
 20
0.0
 30
0.0
  9
$PUCSORGLEFT
 10
0.0
 20
0.0
 30
0.0
  9
$PUCSORGRIGHT
 10
0.0
 20
0.0
 30
0.0
  9
$PUCSORGFRONT
 10
0.0
 20
0.0
 30
0.0
  9
$PUCSORGBACK
 10
0.0
 20
0.0
 30
0.0
  9
$USERI1
 70
     0
  9
$USERI2
 70
     0
  9
$USERI3
 70
     0
  9
$USERI4
 70
     0
  9
$USERI5
 70
     0
  9
$USERR1
 40
0.0
  9
$USERR2
 40
0.0
  9
$USERR3
 40
0.0
  9
$USERR4
 40
0.0
  9
$USERR5
 40
0.0
  9
$WORLDVIEW
 70
     1
  9
$SHADEDGE
 70
     3
  9
$SHADEDIF
 70
    70
  9
$TILEMODE
 70
     1
  9
$MAXACTVP
 70
    16
  9
$PINSBASE
 10
0.0
 20
0.0
 30
0.0
  9
$PLIMCHECK
 70
     0
  9
$PEXTMIN
 10
1.000000000000000E+20
 20
1.000000000000000E+20
 30
1.000000000000000E+20
  9
$PEXTMAX
 10
-1.000000000000000E+20
 20
-1.000000000000000E+20
 30
-1.000000000000000E+20
  9
$PLIMMIN
 10
0.0
 20
0.0
  9
$PLIMMAX
 10
420.0
 20
297.0
  9
$UNITMODE
 70
     0
  9
$VISRETAIN
 70
     0
  9
$PLINEGEN
 70
     0
  9
$PSLTSCALE
 70
     1
  9
$TREEDEPTH
 70
  3020
  9
$CMLSTYLE
  2
STANDARD
  9
$CMLJUST
 70
     0
  9
$CMLSCALE
 40
1.0
  9
$PROXYGRAPHICS
 70
     1
  9
$MEASUREMENT
 70
     1
  9
$CELWEIGHT
370
    -1
  9
$ENDCAPS
280
     0
  9
$JOINSTYLE
280
     0
  9
$LWDISPLAY
290
     0
  9
$INSUNITS
 70
     0
  9
$HYPERLINKBASE
  1

  9
$STYLESHEET
  1
inaba.ctb
  9
$XEDIT
290
     1
  9
$CEPSNTYPE
380
     0
  9
$PSTYLEMODE
290
     1
  9
$FINGERPRINTGUID
  2
{79BAF060-0357-455F-9BB3-0AEA31AB33DF}
  9
$VERSIONGUID
  2
{76B50F28-95B7-48C2-ACA2-850CFE1D2044}
  9
$EXTNAMES
290
     1
  9
$PSVPSCALE
 40
0.0
  9
$OLESTARTUP
290
     0
  0
ENDSEC
  0
SECTION
  2
CLASSES
  0
CLASS
  1
ACDBDICTIONARYWDFLT
  2
AcDbDictionaryWithDefault
  3
ObjectDBX Classes
 90
        0
280
     0
281
     0
  0
CLASS
  1
DICTIONARYVAR
  2
AcDbDictionaryVar
  3
ObjectDBX Classes
 90
        0
280
     0
281
     0
  0
CLASS
  1
ACDBPLACEHOLDER
  2
AcDbPlaceHolder
  3
ObjectDBX Classes
 90
        0
280
     0
281
     0
  0
CLASS
  1
LAYOUT
  2
AcDbLayout
  3
ObjectDBX Classes
 90
        0
280
     0
281
     0
  0
ENDSEC
  0
SECTION
  2
TABLES
  0
TABLE
  2
VPORT
  5
8
330
0
100
AcDbSymbolTable
 70
     2
  0
VPORT
  5
2604
330
8
100
AcDbSymbolTableRecord
100
AcDbViewportTableRecord
  2
*Active
 70
     0
 10
0.0
 20
0.0
 11
1.0
 21
1.0
 12
10067.6157982568
 22
5591.499966219414
 13
0.0
 23
0.0
 14
420.0
 24
420.0
 15
420.0
 25
420.0
 16
0.0
 26
0.0
 36
1.0
 17
0.0
 27
0.0
 37
0.0
 40
13252.7886968784
 41
1.5075
 42
50.0
 43
0.0
 44
0.0
 50
0.0
 51
0.0
 71
     0
 72
   100
 73
     1
 74
     0
 75
     0
 76
     0
 77
     0
 78
     1
281
     0
 65
     1
110
0.0
120
0.0
130
0.0
111
1.0
121
0.0
131
0.0
112
0.0
122
1.0
132
0.0
 79
     0
146
0.0
  0
ENDTAB
  0
TABLE
  2
LTYPE
  5
5
330
0
100
AcDbSymbolTable
 70
     3
  0
LTYPE
  5
14
330
5
100
AcDbSymbolTableRecord
100
AcDbLinetypeTableRecord
  2
BYBLOCK
 70
     0
  3

 72
    65
 73
     0
 40
0.0
  0
LTYPE
  5
15
330
5
100
AcDbSymbolTableRecord
100
AcDbLinetypeTableRecord
  2
BYLAYER
 70
     0
  3

 72
    65
 73
     0
 40
0.0
  0
LTYPE
  5
16
330
5
100
AcDbSymbolTableRecord
100
AcDbLinetypeTableRecord
  2
CONTINUOUS
 70
     0
  3
Solid line
 72
    65
 73
     0
 40
0.0
  0
LTYPE
  5
61
330
5
100
AcDbSymbolTableRecord
100
AcDbLinetypeTableRecord
  2
CENTER
 70
     0
  3
____ _ ____ _ ____ _ ____ _ ____ _ ____ _ ____ 
 72
    65
 73
     4
 40
2.0
 49
1.25
 74
     0
 49
-0.25
 74
     0
 49
0.25
 74
     0
 49
-0.25
 74
     0
  0
LTYPE
  5
62
330
5
100
AcDbSymbolTableRecord
100
AcDbLinetypeTableRecord
  2
HIDDEN
 70
     0
  3
__ __ __ __ __ __ __ __ __ __ __ __ __ __ __ __
 72
    65
 73
     2
 40
0.375
 49
0.25
 74
     0
 49
-0.125
 74
     0
  0
ENDTAB
  0
TABLE
  2
LAYER
  5
2
102
{ACAD_XDICTIONARY
360
17DD
102
}
330
0
100
AcDbSymbolTable
 70
    10
  0
LAYER
  5
F
330
2
100
AcDbSymbolTableRecord
100
AcDbLayerTableRecord
  2
0
 70
     0
 62
     7
  6
CONTINUOUS
370
    -3
390
17B1
  0
LAYER
  5
63
330
2
100
AcDbSymbolTableRecord
100
AcDbLayerTableRecord
  2
細線
 70
     0
 62
     5
  6
CONTINUOUS
370
    -3
390
17B1
  0
LAYER
  5
64
330
2
100
AcDbSymbolTableRecord
100
AcDbLayerTableRecord
  2
寸法
 70
     0
 62
     4
  6
CONTINUOUS
370
    -3
390
17B1
  0
LAYER
  5
65
330
2
100
AcDbSymbolTableRecord
100
AcDbLayerTableRecord
  2
センター
 70
     0
 62
     3
  6
CENTER
370
    -3
390
17B1
  0
LAYER
  5
92A
330
2
100
AcDbSymbolTableRecord
100
AcDbLayerTableRecord
  2
DEFPOINTS
 70
     0
 62
     7
  6
CONTINUOUS
290
     0
370
    -3
390
17B1
  0
LAYER
  5
118B
330
2
100
AcDbSymbolTableRecord
100
AcDbLayerTableRecord
  2
Ｇ．Ｌ
 70
     0
 62
    30
  6
CONTINUOUS
370
    -3
390
17B1
  0
LAYER
  5
13EC
330
2
100
AcDbSymbolTableRecord
100
AcDbLayerTableRecord
  2
文字
 70
     0
 62
     7
  6
CONTINUOUS
370
    -3
390
17B1
  0
LAYER
  5
13ED
330
2
100
AcDbSymbolTableRecord
100
AcDbLayerTableRecord
  2
仕様書枠
 70
     0
 62
   230
  6
CONTINUOUS
370
    -3
390
17B1
  0
LAYER
  5
1748
330
2
100
AcDbSymbolTableRecord
100
AcDbLayerTableRecord
  2
部品1
 70
     0
 62
     7
  6
CONTINUOUS
370
    -3
390
17B1
  0
LAYER
  5
187A
330
2
100
AcDbSymbolTableRecord
100
AcDbLayerTableRecord
  2
点線
 70
     0
 62
     2
  6
HIDDEN
370
    -3
390
17B1
  0
ENDTAB
  0
TABLE
  2
STYLE
  5
3
330
0
100
AcDbSymbolTable
 70
     7
  0
STYLE
  5
10
330
3
100
AcDbSymbolTableRecord
100
AcDbTextStyleTableRecord
  2
STANDARD
 70
     0
 40
0.0
 41
1.0
 50
0.0
 71
     0
 42
100.0
  3
ISOCP
  4
C:\Program Files\AutoCAD LT\bigfont.shx
  0
STYLE
  5
373
330
3
100
AcDbSymbolTableRecord
100
AcDbTextStyleTableRecord
  2
MSGOTHIC
 70
     0
 40
0.0
 41
1.0
 50
0.0
 71
     0
 42
3.5
  3
MS PGothic.ttf
  4

1001
ACAD
1000
MS PGothic
1071
    32818
  0
STYLE
  5
374
330
3
100
AcDbSymbolTableRecord
100
AcDbTextStyleTableRecord
  2
MSMINCHO
 70
     0
 40
0.0
 41
1.0
 50
0.0
 71
     0
 42
1.199999999999999
  3
msminch2.TTF
  4

  0
STYLE
  5
13EE
330
3
100
AcDbSymbolTableRecord
100
AcDbTextStyleTableRecord
  2
STYLE2
 70
     0
 40
0.0
 41
1.0
 50
0.0
 71
     0
 42
100.0
  3
MS PGothic.ttf
  4

1001
ACAD
1000
MS PGothic
1071
    32818
  0
STYLE
  5
17DC
330
3
100
AcDbSymbolTableRecord
100
AcDbTextStyleTableRecord
  2
STYLE1
 70
     0
 40
0.0
 41
1.0
 50
0.0
 71
     0
 42
4.0
  3
isocp.shx
  4
bigfont.shx
  0
STYLE
  5
19E4
330
3
100
AcDbSymbolTableRecord
100
AcDbTextStyleTableRecord
  2

 70
     1
 40
0.0
 41
1.0
 50
0.0
 71
     0
 42
100.0
  3
ltypeshp.shx
  4

  0
STYLE
  5
19E5
330
3
100
AcDbSymbolTableRecord
100
AcDbTextStyleTableRecord
  2
STYLE3
 70
     0
 40
0.0
 41
1.0
 50
0.0
 71
     0
 42
100.0
  3
MS PGothic.ttf
  4

1001
ACAD
1000
MS PGothic
1071
    32818
  0
ENDTAB
  0
TABLE
  2
VIEW
  5
6
330
0
100
AcDbSymbolTable
 70
     0
  0
ENDTAB
  0
TABLE
  2
UCS
  5
7
330
0
100
AcDbSymbolTable
 70
     0
  0
ENDTAB
  0
TABLE
  2
APPID
  5
9
330
0
100
AcDbSymbolTable
 70
     1
  0
APPID
  5
11
330
9
100
AcDbSymbolTableRecord
100
AcDbRegAppTableRecord
  2
ACAD
 70
     0
  0
ENDTAB
  0
TABLE
  2
DIMSTYLE
  5
A
330
0
100
AcDbSymbolTable
 70
     3
100
AcDbDimStyleTable
 71
     1
340
92
  0
DIMSTYLE
105
1D
330
A
100
AcDbSymbolTableRecord
100
AcDbDimStyleTableRecord
  2
STANDARD
 70
     0
340
10
  0
DIMSTYLE
105
92
102
{ACAD_REACTORS
330
1F3D
330
1F3E
330
1F3F
330
1F40
330
1F41
330
1F42
330
1F43
330
1F44
330
1F45
330
1F46
330
1F47
330
1F48
330
1F49
330
1F4D
330
1F4E
330
1F4F
330
1F50
330
1F51
330
1F52
330
1F53
330
1F54
330
1F55
330
1F56
330
1F57
330
1F58
330
1F59
330
1F5A
330
1F5B
330
1F5C
330
1F5D
330
1F5E
330
1F5F
330
1F60
102
}
330
A
100
AcDbSymbolTableRecord
100
AcDbDimStyleTableRecord
  2
物置仕様図40
 70
     0
 40
40.0
 41
2.5
 42
1.0
 43
7.0
 44
1.0
 73
     0
 74
     0
 77
     3
 78
     8
140
3.0
141
2.5
143
0.0394
145
1.0
147
1.0
173
     1
176
     4
177
     4
178
     7
271
     2
272
     2
279
     2
284
     8
340
10
341
E5C
343
E5C
344
E5C
  0
DIMSTYLE
105
19E6
330
A
100
AcDbSymbolTableRecord
100
AcDbDimStyleTableRecord
  2
INABA_S30G
 70
     0
 40
30.0
 41
2.5
 42
0.5
 43
7.0
 44
1.5
 73
     0
 74
     0
 77
     3
 78
     8
140
3.0
141
0.0
143
0.0394
147
1.0
172
     1
173
     1
174
     1
175
     1
178
     7
271
     1
340
17DC
341
E5C
343
E5C
344
E5C
  0
ENDTAB
  0
TABLE
  2
BLOCK_RECORD
  5
1
330
0
100
AcDbSymbolTable
 70
    35
  0
BLOCK_RECORD
  5
1A
330
1
100
AcDbSymbolTableRecord
100
AcDbBlockTableRecord
  2
*MODEL_SPACE
340
17B6
  0
BLOCK_RECORD
  5
17
330
1
100
AcDbSymbolTableRecord
100
AcDbBlockTableRecord
  2
*PAPER_SPACE
340
17B7
  0
BLOCK_RECORD
  5
E5C
330
1
100
AcDbSymbolTableRecord
100
AcDbBlockTableRecord
  2
_DOTSMALL
340
0
102
{BLKREFS
331
24D8
331
24D9
331
24DF
331
24E0
331
24E7
331
24E8
331
24F0
331
24F1
331
24F8
331
24F9
331
2500
331
2501
331
2507
331
2508
331
250F
331
2510
331
2518
331
2519
331
2520
331
2521
331
2529
331
252A
331
2532
331
2533
331
2539
331
253A
331
2542
331
2543
331
254B
331
254C
331
2553
331
2554
331
255B
331
255C
331
2563
331
2564
331
256B
331
256C
331
2574
331
2575
331
257D
331
257E
331
2585
331
2586
331
258D
331
258E
331
2595
331
2596
331
259E
331
259F
331
25A8
331
25A9
331
25B2
331
25B3
331
25BB
331
25BC
331
25C2
331
25C3
331
25CC
331
25CD
331
25D3
331
25D4
331
25DC
331
25DD
331
25E6
331
25E7
102
}
  0
BLOCK_RECORD
  5
1B74
330
1
100
AcDbSymbolTableRecord
100
AcDbBlockTableRecord
  2
A$C7B953DBE
340
0
102
{BLKREFS
331
1F2C
102
}
  0
BLOCK_RECORD
  5
212B
330
1
100
AcDbSymbolTableRecord
100
AcDbBlockTableRecord
  2
*D2
340
0
  0
BLOCK_RECORD
  5
2137
330
1
100
AcDbSymbolTableRecord
100
AcDbBlockTableRecord
  2
*D3
340
0
  0
BLOCK_RECORD
  5
2143
330
1
100
AcDbSymbolTableRecord
100
AcDbBlockTableRecord
  2
*D4
340
0
  0
BLOCK_RECORD
  5
214E
330
1
100
AcDbSymbolTableRecord
100
AcDbBlockTableRecord
  2
*D5
340
0
  0
BLOCK_RECORD
  5
215A
330
1
100
AcDbSymbolTableRecord
100
AcDbBlockTableRecord
  2
*D6
340
0
  0
BLOCK_RECORD
  5
2165
330
1
100
AcDbSymbolTableRecord
100
AcDbBlockTableRecord
  2
*D7
340
0
  0
BLOCK_RECORD
  5
2171
330
1
100
AcDbSymbolTableRecord
100
AcDbBlockTableRecord
  2
*D8
340
0
  0
BLOCK_RECORD
  5
217E
330
1
100
AcDbSymbolTableRecord
100
AcDbBlockTableRecord
  2
*D9
340
0
  0
BLOCK_RECORD
  5
218A
330
1
100
AcDbSymbolTableRecord
100
AcDbBlockTableRecord
  2
*D10
340
0
  0
BLOCK_RECORD
  5
2196
330
1
100
AcDbSymbolTableRecord
100
AcDbBlockTableRecord
  2
*D11
340
0
  0
BLOCK_RECORD
  5
21A1
330
1
100
AcDbSymbolTableRecord
100
AcDbBlockTableRecord
  2
*D12
340
0
  0
BLOCK_RECORD
  5
21AC
330
1
100
AcDbSymbolTableRecord
100
AcDbBlockTableRecord
  2
*D13
340
0
  0
BLOCK_RECORD
  5
21B7
330
1
100
AcDbSymbolTableRecord
100
AcDbBlockTableRecord
  2
*D14
340
0
  0
BLOCK_RECORD
  5
21C3
330
1
100
AcDbSymbolTableRecord
100
AcDbBlockTableRecord
  2
*D15
340
0
  0
BLOCK_RECORD
  5
21CF
330
1
100
AcDbSymbolTableRecord
100
AcDbBlockTableRecord
  2
*D16
340
0
  0
BLOCK_RECORD
  5
21DA
330
1
100
AcDbSymbolTableRecord
100
AcDbBlockTableRecord
  2
*D17
340
0
  0
BLOCK_RECORD
  5
21E5
330
1
100
AcDbSymbolTableRecord
100
AcDbBlockTableRecord
  2
*D18
340
0
  0
BLOCK_RECORD
  5
21F1
330
1
100
AcDbSymbolTableRecord
100
AcDbBlockTableRecord
  2
*D19
340
0
  0
BLOCK_RECORD
  5
21FC
330
1
100
AcDbSymbolTableRecord
100
AcDbBlockTableRecord
  2
*D20
340
0
  0
BLOCK_RECORD
  5
2208
330
1
100
AcDbSymbolTableRecord
100
AcDbBlockTableRecord
  2
*D21
340
0
  0
BLOCK_RECORD
  5
2213
330
1
100
AcDbSymbolTableRecord
100
AcDbBlockTableRecord
  2
*D22
340
0
  0
BLOCK_RECORD
  5
221E
330
1
100
AcDbSymbolTableRecord
100
AcDbBlockTableRecord
  2
*D23
340
0
  0
BLOCK_RECORD
  5
2229
330
1
100
AcDbSymbolTableRecord
100
AcDbBlockTableRecord
  2
*D24
340
0
  0
BLOCK_RECORD
  5
2235
330
1
100
AcDbSymbolTableRecord
100
AcDbBlockTableRecord
  2
*D25
340
0
  0
BLOCK_RECORD
  5
2241
330
1
100
AcDbSymbolTableRecord
100
AcDbBlockTableRecord
  2
*D26
340
0
  0
BLOCK_RECORD
  5
224C
330
1
100
AcDbSymbolTableRecord
100
AcDbBlockTableRecord
  2
*D27
340
0
  0
BLOCK_RECORD
  5
2257
330
1
100
AcDbSymbolTableRecord
100
AcDbBlockTableRecord
  2
*D28
340
0
  0
BLOCK_RECORD
  5
2262
330
1
100
AcDbSymbolTableRecord
100
AcDbBlockTableRecord
  2
*D29
340
0
  0
BLOCK_RECORD
  5
226D
330
1
100
AcDbSymbolTableRecord
100
AcDbBlockTableRecord
  2
*D30
340
0
  0
BLOCK_RECORD
  5
2278
330
1
100
AcDbSymbolTableRecord
100
AcDbBlockTableRecord
  2
*D31
340
0
  0
BLOCK_RECORD
  5
2283
330
1
100
AcDbSymbolTableRecord
100
AcDbBlockTableRecord
  2
*D32
340
0
  0
BLOCK_RECORD
  5
228E
330
1
100
AcDbSymbolTableRecord
100
AcDbBlockTableRecord
  2
*D33
340
0
  0
BLOCK_RECORD
  5
2299
330
1
100
AcDbSymbolTableRecord
100
AcDbBlockTableRecord
  2
*D34
340
0
  0
ENDTAB
  0
ENDSEC
  0
SECTION
  2
BLOCKS
  0
BLOCK
  5
1B
330
1A
100
AcDbEntity
  8
0
100
AcDbBlockBegin
  2
*MODEL_SPACE
 70
     0
 10
0.0
 20
0.0
 30
0.0
  3
*MODEL_SPACE
  1

  0
ENDBLK
  5
1C
330
1A
100
AcDbEntity
  8
0
100
AcDbBlockEnd
  0
BLOCK
  5
18
330
17
100
AcDbEntity
 67
     1
  8
0
100
AcDbBlockBegin
  2
*PAPER_SPACE
 70
     0
 10
0.0
 20
0.0
 30
0.0
  3
*PAPER_SPACE
  1

  0
ENDBLK
  5
19
330
17
100
AcDbEntity
 67
     1
  8
0
100
AcDbBlockEnd
  0
BLOCK
  5
E5D
330
E5C
100
AcDbEntity
  8
0
100
AcDbBlockBegin
  2
_DOTSMALL
 70
     0
 10
0.0
 20
0.0
 30
0.0
  3
_DOTSMALL
  1

  0
LWPOLYLINE
  5
E5E
330
E5C
100
AcDbEntity
  8
0
  6
ByBlock
 62
     0
100
AcDbPolyline
 90
        2
 70
     1
 43
0.5
 10
-0.0625
 20
0.0
 42
1.0
 10
0.0625
 20
0.0
 42
1.0
  0
ENDBLK
  5
E62
330
E5C
100
AcDbEntity
  8
0
100
AcDbBlockEnd
  0
BLOCK
  5
1B75
330
1B74
100
AcDbEntity
  8
0
100
AcDbBlockBegin
  2
A$C7B953DBE
 70
     0
 10
0.0
 20
0.0
 30
0.0
  3
A$C7B953DBE
  1

  0
LINE
  5
1B76
330
1B74
100
AcDbEntity
  8
細線
100
AcDbLine
 10
67.35189350465407
 20
0.0000199159508156
 30
0.0
 11
117.351893504654
 21
50.00001991595127
 31
0.0
  0
LINE
  5
1B77
330
1B74
100
AcDbEntity
  8
細線
100
AcDbLine
 10
33.67593305064474
 20
0.0000199159508156
 30
0.0
 11
83.67593305064474
 21
50.00001991595127
 31
0.0
  0
LINE
  5
1B78
330
1B74
100
AcDbEntity
  8
細線
100
AcDbLine
 10
-0.0000274033645837
 20
0.0000199159508156
 30
0.0
 11
49.99997259663541
 21
50.00001991595127
 31
0.0
  0
LINE
  5
1B79
330
1B74
100
AcDbEntity
  8
細線
100
AcDbLine
 10
867.6307071249338
 20
0.0000199159512704
 30
0.0
 11
917.6307071249338
 21
50.00001991595127
 31
0.0
  0
LINE
  5
1B7A
330
1B74
100
AcDbEntity
  8
細線
100
AcDbLine
 10
901.3066675789431
 20
0.0000199159512704
 30
0.0
 11
951.3066675789431
 21
50.00001991595127
 31
0.0
  0
LINE
  5
1B7B
330
1B74
100
AcDbEntity
  8
細線
100
AcDbLine
 10
934.9826280329525
 20
0.0000199159512704
 30
0.0
 11
984.9826280329525
 21
50.00001991595127
 31
0.0
  0
LINE
  5
1B7C
330
1B74
100
AcDbEntity
  8
細線
100
AcDbLine
 10
1735.261441653232
 20
0.0000199159512704
 30
0.0
 11
1785.261441653236
 21
50.00001991595218
 31
0.0
  0
LINE
  5
1B7D
330
1B74
100
AcDbEntity
  8
細線
100
AcDbLine
 10
1802.613362561251
 20
0.0000199159512704
 30
0.0
 11
1852.613362561251
 21
50.00001991595127
 31
0.0
  0
LINE
  5
1B7E
330
1B74
100
AcDbEntity
  8
細線
100
AcDbLine
 10
1768.937402107242
 20
0.0000199159512704
 30
0.0
 11
1818.937402107241
 21
50.00001991595218
 31
0.0
  0
LINE
  5
1B7F
330
1B74
100
AcDbEntity
  8
細線
100
AcDbLine
 10
4339.026489070862
 20
0.0000199159512704
 30
0.0
 11
4389.026489070862
 21
50.00001991595127
 31
0.0
  0
LINE
  5
1B80
330
1B74
100
AcDbEntity
  8
細線
100
AcDbLine
 10
4372.702449524871
 20
0.0000199159508156
 30
0.0
 11
4422.702449524871
 21
50.00001991595127
 31
0.0
  0
LINE
  5
1B81
330
1B74
100
AcDbEntity
  8
細線
100
AcDbLine
 10
4305.350528616853
 20
0.0000199159512704
 30
0.0
 11
4355.350528616853
 21
50.00001991595127
 31
0.0
  0
LINE
  5
1B82
330
1B74
100
AcDbEntity
  8
細線
100
AcDbLine
 10
5416.657223599161
 20
0.0000199159512704
 30
0.0
 11
5466.657223599161
 21
50.00001991595127
 31
0.0
  0
LINE
  5
1B83
330
1B74
100
AcDbEntity
  8
細線
100
AcDbLine
 10
5382.981263145151
 20
0.0000199159512704
 30
0.0
 11
5432.981263145151
 21
50.00001991595127
 31
0.0
  0
LINE
  5
1B84
330
1B74
100
AcDbEntity
  8
細線
100
AcDbLine
 10
5450.33318405317
 20
0.0000199159512704
 30
0.0
 11
5500.33318405317
 21
50.00001991595127
 31
0.0
  0
LINE
  5
1B85
330
1B74
100
AcDbEntity
  8
細線
100
AcDbLine
 10
6460.61199767345
 20
0.0000199159508156
 30
0.0
 11
6510.61199767345
 21
50.00001991595127
 31
0.0
  0
LINE
  5
1B86
330
1B74
100
AcDbEntity
  8
細線
100
AcDbLine
 10
6494.287958127459
 20
0.0000199159508156
 30
0.0
 11
6544.287958127459
 21
50.00001991595127
 31
0.0
  0
LINE
  5
1B87
330
1B74
100
AcDbEntity
  8
細線
100
AcDbLine
 10
6527.963918581469
 20
0.0000199159508156
 30
0.0
 11
6577.963918581469
 21
50.00001991595127
 31
0.0
  0
LINE
  5
1B88
330
1B74
100
AcDbEntity
  8
細線
100
AcDbLine
 10
7538.242732201749
 20
0.0000199159508156
 30
0.0
 11
7588.242732201749
 21
50.00001991595127
 31
0.0
  0
LINE
  5
1B89
330
1B74
100
AcDbEntity
  8
細線
100
AcDbLine
 10
7571.918692655758
 20
0.0000199159508156
 30
0.0
 11
7621.918692655758
 21
50.00001991595127
 31
0.0
  0
LINE
  5
1B8A
330
1B74
100
AcDbEntity
  8
細線
100
AcDbLine
 10
7605.594653109768
 20
0.0000199159508156
 30
0.0
 11
7655.594653109767
 21
50.00001991595127
 31
0.0
  0
LINE
  5
1B8B
330
1B74
100
AcDbEntity
  8
細線
100
AcDbLine
 10
8683.225387638065
 20
0.0000199159512704
 30
0.0
 11
8733.225387638066
 21
50.00001991595127
 31
0.0
  0
LINE
  5
1B8C
330
1B74
100
AcDbEntity
  8
細線
100
AcDbLine
 10
8649.549427184057
 20
0.0000199159512704
 30
0.0
 11
8699.549427184058
 21
50.00001991595127
 31
0.0
  0
LINE
  5
1B8D
330
1B74
100
AcDbEntity
  8
細線
100
AcDbLine
 10
8615.873466730047
 20
0.0000199159512704
 30
0.0
 11
8665.873466730046
 21
50.00001991595127
 31
0.0
  0
ENDBLK
  5
1B8E
330
1B74
100
AcDbEntity
  8
0
100
AcDbBlockEnd
  0
BLOCK
  5
2135
330
212B
100
AcDbEntity
  8
0
 48
50.0
100
AcDbBlockBegin
  2
*D2
 70
     1
 10
0.0
 20
0.0
 30
0.0
  3
*D2
  1

  0
LINE
  5
25E2
330
212B
100
AcDbEntity
  8
寸法
 62
     4
 48
50.0
370
    -2
100
AcDbLine
 10
6128.08479127592
 20
1920.515874945158
 30
0.0
 11
6594.602443373149
 21
1920.515874945158
 31
0.0
  0
LINE
  5
25E3
330
212B
100
AcDbEntity
  8
寸法
 62
     4
 48
50.0
370
    -2
100
AcDbLine
 10
6728.266128291223
 20
2190.515874945158
 30
0.0
 11
6514.602443373151
 21
2190.515874945158
 31
0.0
  0
LINE
  5
25E4
330
212B
100
AcDbEntity
  8
寸法
 62
     4
 48
50.0
370
    -2
100
AcDbLine
 10
6554.60244337315
 20
1920.515874945158
 30
0.0
 11
6554.60244337315
 21
2190.515874945158
 31
0.0
  0
MTEXT
  5
25E5
330
212B
100
AcDbEntity
  8
寸法
 62
     7
 48
50.0
100
AcDbMText
 10
6274.567010302284
 20
2055.515874945159
 30
0.0
 40
120.0
 41
0.0
 71
     5
 72
     1
  1
\A1;270
 11
0.0000000000000001
 21
1.0
 31
0.0
 73
     1
 44
1.0
1001
ACAD
1000
MTEXTBEGIN
1070
    73
1070
     1
1070
    44
1040
1.0
1070
    74
1070
     0
1000
MTEXTEND
  0
INSERT
  5
25E6
330
212B
100
AcDbEntity
  8
寸法
 62
     4
 48
50.0
370
    -2
100
AcDbBlockReference
  2
_DOTSMALL
 10
6554.60244337315
 20
1920.515874945158
 30
0.0
 41
100.0
 42
100.0
 43
100.0
 50
270.0
  0
INSERT
  5
25E7
330
212B
100
AcDbEntity
  8
寸法
 62
     4
 48
50.0
370
    -2
100
AcDbBlockReference
  2
_DOTSMALL
 10
6554.60244337315
 20
2190.515874945158
 30
0.0
 41
100.0
 42
100.0
 43
100.0
 50
90.0
  0
POINT
  5
25E8
330
212B
100
AcDbEntity
  8
DEFPOINTS
 62
     0
 48
50.0
100
AcDbPoint
 10
6088.08479127592
 20
1920.515874945158
 30
0.0
  0
POINT
  5
25E9
330
212B
100
AcDbEntity
  8
DEFPOINTS
 62
     0
 48
50.0
100
AcDbPoint
 10
6768.266128291223
 20
2190.515874945158
 30
0.0
  0
POINT
  5
25EA
330
212B
100
AcDbEntity
  8
DEFPOINTS
 62
     0
 48
50.0
100
AcDbPoint
 10
6554.60244337315
 20
2190.515874945158
 30
0.0
  0
ENDBLK
  5
2136
330
212B
100
AcDbEntity
  8
0
 48
50.0
100
AcDbBlockEnd
  0
BLOCK
  5
2141
330
2137
100
AcDbEntity
  8
0
 48
50.0
100
AcDbBlockBegin
  2
*D3
 70
     1
 10
0.0
 20
0.0
 30
0.0
  3
*D3
  1

  0
LINE
  5
25D9
330
2137
100
AcDbEntity
  8
寸法
 62
     4
 48
50.0
370
    -2
100
AcDbLine
 10
10526.32755088103
 20
4500.515874945159
 30
0.0
 11
7252.756801734111
 21
4500.515874945159
 31
0.0
  0
LINE
  5
25DA
330
2137
100
AcDbEntity
  8
寸法
 62
     4
 48
50.0
370
    -2
100
AcDbLine
 10
7315.84789518988
 20
2190.515874945158
 30
0.0
 11
7332.75680173411
 21
2190.515874945158
 31
0.0
  0
LINE
  5
25DB
330
2137
100
AcDbEntity
  8
寸法
 62
     4
 48
50.0
370
    -2
100
AcDbLine
 10
7292.756801734111
 20
4500.515874945159
 30
0.0
 11
7292.756801734111
 21
2190.515874945158
 31
0.0
  0
INSERT
  5
25DC
330
2137
100
AcDbEntity
  8
寸法
 62
     4
 48
50.0
370
    -2
100
AcDbBlockReference
  2
_DOTSMALL
 10
7292.756801734111
 20
4500.515874945159
 30
0.0
 41
100.0
 42
100.0
 43
100.0
 50
90.0
  0
INSERT
  5
25DD
330
2137
100
AcDbEntity
  8
寸法
 62
     4
 48
50.0
370
    -2
100
AcDbBlockReference
  2
_DOTSMALL
 10
7292.756801734111
 20
2190.515874945158
 30
0.0
 41
100.0
 42
100.0
 43
100.0
 50
270.0
  0
MTEXT
  5
25DE
330
2137
100
AcDbEntity
  8
寸法
 62
     7
 48
50.0
100
AcDbMText
 10
7192.744990710489
 20
3345.515874945161
 30
0.0
 40
120.0
 41
0.0
 71
     5
 72
     1
  1
\A1;2310
 11
0.0000000000000001
 21
1.0
 31
0.0
 73
     1
 44
1.0
1001
ACAD
1000
MTEXTBEGIN
1070
    73
1070
     1
1070
    44
1040
1.0
1070
    74
1070
     0
1000
MTEXTEND
  0
POINT
  5
25DF
330
2137
100
AcDbEntity
  8
DEFPOINTS
 62
     0
 48
50.0
100
AcDbPoint
 10
10566.32755088103
 20
4500.515874945159
 30
0.0
  0
POINT
  5
25E0
330
2137
100
AcDbEntity
  8
DEFPOINTS
 62
     0
 48
50.0
100
AcDbPoint
 10
7275.84789518988
 20
2190.515874945158
 30
0.0
  0
POINT
  5
25E1
330
2137
100
AcDbEntity
  8
DEFPOINTS
 62
     0
 48
50.0
100
AcDbPoint
 10
7292.756801734111
 20
2190.515874945158
 30
0.0
  0
ENDBLK
  5
2142
330
2137
100
AcDbEntity
  8
0
 48
50.0
100
AcDbBlockEnd
  0
BLOCK
  5
214C
330
2143
100
AcDbEntity
  8
0
 48
50.0
100
AcDbBlockBegin
  2
*D4
 70
     1
 10
0.0
 20
0.0
 30
0.0
  3
*D4
  1

  0
LINE
  5
25D1
330
2143
100
AcDbEntity
  8
寸法
 62
     4
 48
50.0
370
    -2
100
AcDbLine
 10
7575.652178531019
 20
2190.515874945158
 30
0.0
 11
7626.483483459029
 21
2190.515874945158
 31
0.0
  0
LINE
  5
25D2
330
2143
100
AcDbEntity
  8
寸法
 62
     4
 48
50.0
370
    -2
100
AcDbLine
 10
7586.48348345903
 20
4387.515874945158
 30
0.0
 11
7586.48348345903
 21
2190.515874945158
 31
0.0
  0
INSERT
  5
25D3
330
2143
100
AcDbEntity
  8
寸法
 62
     4
 48
50.0
370
    -2
100
AcDbBlockReference
  2
_DOTSMALL
 10
7586.48348345903
 20
4387.515874945158
 30
0.0
 41
100.0
 42
100.0
 43
100.0
 50
90.0
  0
INSERT
  5
25D4
330
2143
100
AcDbEntity
  8
寸法
 62
     4
 48
50.0
370
    -2
100
AcDbBlockReference
  2
_DOTSMALL
 10
7586.48348345903
 20
2190.515874945158
 30
0.0
 41
100.0
 42
100.0
 43
100.0
 50
270.0
  0
MTEXT
  5
25D5
330
2143
100
AcDbEntity
  8
寸法
 62
     7
 48
50.0
100
AcDbMText
 10
7486.471672435406
 20
3289.01587494516
 30
0.0
 40
120.0
 41
0.0
 71
     5
 72
     1
  1
\A1;2197
 11
0.0000000000000001
 21
1.0
 31
0.0
 73
     1
 44
1.0
1001
ACAD
1000
MTEXTBEGIN
1070
    73
1070
     1
1070
    44
1040
1.0
1070
    74
1070
     0
1000
MTEXTEND
  0
POINT
  5
25D6
330
2143
100
AcDbEntity
  8
DEFPOINTS
 62
     0
 48
50.0
100
AcDbPoint
 10
8166.327550881034
 20
4387.515874945158
 30
0.0
  0
POINT
  5
25D7
330
2143
100
AcDbEntity
  8
DEFPOINTS
 62
     0
 48
50.0
100
AcDbPoint
 10
7535.652178531018
 20
2190.515874945158
 30
0.0
  0
POINT
  5
25D8
330
2143
100
AcDbEntity
  8
DEFPOINTS
 62
     0
 48
50.0
100
AcDbPoint
 10
7586.48348345903
 20
2190.515874945158
 30
0.0
  0
ENDBLK
  5
214D
330
2143
100
AcDbEntity
  8
0
 48
50.0
100
AcDbBlockEnd
  0
BLOCK
  5
2158
330
214E
100
AcDbEntity
  8
0
 48
50.0
100
AcDbBlockBegin
  2
*D5
 70
     1
 10
0.0
 20
0.0
 30
0.0
  3
*D5
  1

  0
LINE
  5
25C8
330
214E
100
AcDbEntity
  8
寸法
 62
     4
 48
50.0
370
    -2
100
AcDbLine
 10
10526.32755088103
 20
4500.515874945159
 30
0.0
 11
7546.483483459029
 21
4500.515874945159
 31
0.0
  0
LINE
  5
25C9
330
214E
100
AcDbEntity
  8
寸法
 62
     4
 48
50.0
370
    -2
100
AcDbLine
 10
8126.327550881034
 20
4387.515874945158
 30
0.0
 11
7546.483483459029
 21
4387.515874945158
 31
0.0
  0
LINE
  5
25CA
330
214E
100
AcDbEntity
  8
寸法
 62
     4
 48
50.0
370
    -2
100
AcDbLine
 10
7586.48348345903
 20
4500.515874945159
 30
0.0
 11
7586.48348345903
 21
4387.515874945158
 31
0.0
  0
MTEXT
  5
25CB
330
214E
100
AcDbEntity
  8
寸法
 62
     7
 48
50.0
100
AcDbMText
 10
7467.842311419059
 20
4635.943408831954
 30
0.0
 40
120.0
 41
0.0
 71
     5
 72
     1
  1
\A1;113
 11
0.0000000000000001
 21
1.0
 31
0.0
 73
     1
 44
1.0
1001
ACAD
1000
MTEXTBEGIN
1070
    73
1070
     1
1070
    44
1040
1.0
1070
    74
1070
     0
1000
MTEXTEND
  0
INSERT
  5
25CC
330
214E
100
AcDbEntity
  8
寸法
 62
     4
 48
50.0
370
    -2
100
AcDbBlockReference
  2
_DOTSMALL
 10
7586.48348345903
 20
4500.515874945159
 30
0.0
 41
100.0
 42
100.0
 43
100.0
 50
90.0
  0
INSERT
  5
25CD
330
214E
100
AcDbEntity
  8
寸法
 62
     4
 48
50.0
370
    -2
100
AcDbBlockReference
  2
_DOTSMALL
 10
7586.48348345903
 20
4387.515874945158
 30
0.0
 41
100.0
 42
100.0
 43
100.0
 50
270.0
  0
POINT
  5
25CE
330
214E
100
AcDbEntity
  8
DEFPOINTS
 62
     0
 48
50.0
100
AcDbPoint
 10
10566.32755088103
 20
4500.515874945159
 30
0.0
  0
POINT
  5
25CF
330
214E
100
AcDbEntity
  8
DEFPOINTS
 62
     0
 48
50.0
100
AcDbPoint
 10
8166.327550881034
 20
4387.515874945158
 30
0.0
  0
POINT
  5
25D0
330
214E
100
AcDbEntity
  8
DEFPOINTS
 62
     0
 48
50.0
100
AcDbPoint
 10
7586.48348345903
 20
4387.515874945158
 30
0.0
  0
ENDBLK
  5
2159
330
214E
100
AcDbEntity
  8
0
 48
50.0
100
AcDbBlockEnd
  0
BLOCK
  5
2163
330
215A
100
AcDbEntity
  8
0
 48
50.0
100
AcDbBlockBegin
  2
*D6
 70
     1
 10
0.0
 20
0.0
 30
0.0
  3
*D6
  1

  0
LINE
  5
25C0
330
215A
100
AcDbEntity
  8
寸法
 62
     4
 48
50.0
370
    -2
100
AcDbLine
 10
8906.327550881036
 20
3340.515874945159
 30
0.0
 11
8038.354899444726
 21
3340.515874945159
 31
0.0
  0
LINE
  5
25C1
330
215A
100
AcDbEntity
  8
寸法
 62
     4
 48
50.0
370
    -2
100
AcDbLine
 10
8078.354899444727
 20
2440.515874945158
 30
0.0
 11
8078.354899444727
 21
3340.515874945159
 31
0.0
  0
INSERT
  5
25C2
330
215A
100
AcDbEntity
  8
寸法
 62
     4
 48
50.0
370
    -2
100
AcDbBlockReference
  2
_DOTSMALL
 10
8078.354899444727
 20
2440.515874945158
 30
0.0
 41
100.0
 42
100.0
 43
100.0
 50
270.0
  0
INSERT
  5
25C3
330
215A
100
AcDbEntity
  8
寸法
 62
     4
 48
50.0
370
    -2
100
AcDbBlockReference
  2
_DOTSMALL
 10
8078.354899444727
 20
3340.515874945159
 30
0.0
 41
100.0
 42
100.0
 43
100.0
 50
90.0
  0
MTEXT
  5
25C4
330
215A
100
AcDbEntity
  8
寸法
 62
     7
 48
50.0
100
AcDbMText
 10
7978.354899444726
 20
2890.51587494516
 30
0.0
 40
120.0
 41
0.0
 71
     5
 72
     1
  1
\A1;900
 11
0.0000000000000001
 21
1.0
 31
0.0
 73
     1
 44
1.0
1001
ACAD
1000
MTEXTBEGIN
1070
    73
1070
     1
1070
    44
1040
1.0
1070
    74
1070
     0
1000
MTEXTEND
  0
POINT
  5
25C5
330
215A
100
AcDbEntity
  8
DEFPOINTS
 62
     0
 48
50.0
100
AcDbPoint
 10
8946.327550881035
 20
2440.515874945158
 30
0.0
  0
POINT
  5
25C6
330
215A
100
AcDbEntity
  8
DEFPOINTS
 62
     0
 48
50.0
100
AcDbPoint
 10
8946.327550881035
 20
3340.515874945159
 30
0.0
  0
POINT
  5
25C7
330
215A
100
AcDbEntity
  8
DEFPOINTS
 62
     0
 48
50.0
100
AcDbPoint
 10
8078.354899444727
 20
3340.515874945159
 30
0.0
  0
ENDBLK
  5
2164
330
215A
100
AcDbEntity
  8
0
 48
50.0
100
AcDbBlockEnd
  0
BLOCK
  5
216F
330
2165
100
AcDbEntity
  8
0
 48
50.0
100
AcDbBlockBegin
  2
*D7
 70
     1
 10
0.0
 20
0.0
 30
0.0
  3
*D7
  1

  0
LINE
  5
25B7
330
2165
100
AcDbEntity
  8
寸法
 62
     4
 48
50.0
370
    -2
100
AcDbLine
 10
8102.254670437178
 20
2190.515874945158
 30
0.0
 11
8118.354899444726
 21
2190.515874945158
 31
0.0
  0
LINE
  5
25B8
330
2165
100
AcDbEntity
  8
寸法
 62
     4
 48
50.0
370
    -2
100
AcDbLine
 10
8906.327550881036
 20
2440.515874945158
 30
0.0
 11
8038.354899444726
 21
2440.515874945158
 31
0.0
  0
LINE
  5
25B9
330
2165
100
AcDbEntity
  8
寸法
 62
     4
 48
50.0
370
    -2
100
AcDbLine
 10
8078.354899444727
 20
2190.515874945158
 30
0.0
 11
8078.354899444727
 21
2440.515874945158
 31
0.0
  0
MTEXT
  5
25BA
330
2165
100
AcDbEntity
  8
寸法
 62
     7
 48
50.0
100
AcDbMText
 10
7967.79826238547
 20
2315.515874945158
 30
0.0
 40
120.0
 41
0.0
 71
     5
 72
     1
  1
\A1;250
 11
0.0000000000000001
 21
1.0
 31
0.0
 73
     1
 44
1.0
1001
ACAD
1000
MTEXTBEGIN
1070
    73
1070
     1
1070
    44
1040
1.0
1070
    74
1070
     0
1000
MTEXTEND
  0
INSERT
  5
25BB
330
2165
100
AcDbEntity
  8
寸法
 62
     4
 48
50.0
370
    -2
100
AcDbBlockReference
  2
_DOTSMALL
 10
8078.354899444727
 20
2190.515874945158
 30
0.0
 41
100.0
 42
100.0
 43
100.0
 50
270.0
  0
INSERT
  5
25BC
330
2165
100
AcDbEntity
  8
寸法
 62
     4
 48
50.0
370
    -2
100
AcDbBlockReference
  2
_DOTSMALL
 10
8078.354899444727
 20
2440.515874945158
 30
0.0
 41
100.0
 42
100.0
 43
100.0
 50
90.0
  0
POINT
  5
25BD
330
2165
100
AcDbEntity
  8
DEFPOINTS
 62
     0
 48
50.0
100
AcDbPoint
 10
8062.254670437178
 20
2190.515874945158
 30
0.0
  0
POINT
  5
25BE
330
2165
100
AcDbEntity
  8
DEFPOINTS
 62
     0
 48
50.0
100
AcDbPoint
 10
8946.327550881035
 20
2440.515874945158
 30
0.0
  0
POINT
  5
25BF
330
2165
100
AcDbEntity
  8
DEFPOINTS
 62
     0
 48
50.0
100
AcDbPoint
 10
8078.354899444727
 20
2440.515874945158
 30
0.0
  0
ENDBLK
  5
2170
330
2165
100
AcDbEntity
  8
0
 48
50.0
100
AcDbBlockEnd
  0
BLOCK
  5
217C
330
2171
100
AcDbEntity
  8
0
 48
50.0
100
AcDbBlockBegin
  2
*D8
 70
     1
 10
0.0
 20
0.0
 30
0.0
  3
*D8
  1

  0
LINE
  5
25AD
330
2171
100
AcDbEntity
  8
寸法
 62
     4
 48
50.0
370
    -2
100
AcDbLine
 10
13006.32755088103
 20
2240.515874945158
 30
0.0
 11
13523.45611201606
 21
2240.515874945158
 31
0.0
  0
LINE
  5
25AE
330
2171
100
AcDbEntity
  8
寸法
 62
     4
 48
50.0
370
    -2
100
AcDbLine
 10
13455.59992105415
 20
2190.515874945158
 30
0.0
 11
13443.45611201606
 21
2190.515874945158
 31
0.0
  0
LINE
  5
25AF
330
2171
100
AcDbEntity
  8
寸法
 62
     4
 48
50.0
370
    -2
100
AcDbLine
 10
13483.45611201606
 20
2240.515874945158
 30
0.0
 11
13483.45611201606
 21
2340.515874945158
 31
0.0
  0
LINE
  5
25B0
330
2171
100
AcDbEntity
  8
寸法
 62
     4
 48
50.0
370
    -2
100
AcDbLine
 10
13483.45611201606
 20
2190.515874945158
 30
0.0
 11
13483.45611201606
 21
2090.515874945158
 31
0.0
  0
MTEXT
  5
25B1
330
2171
100
AcDbEntity
  8
寸法
 62
     7
 48
50.0
100
AcDbMText
 10
13362.01802163522
 20
2370.918921423119
 30
0.0
 40
120.0
 41
0.0
 71
     5
 72
     1
  1
\A1;50
 11
0.0000000000000001
 21
1.0
 31
0.0
 73
     1
 44
1.0
1001
ACAD
1000
MTEXTBEGIN
1070
    73
1070
     1
1070
    44
1040
1.0
1070
    74
1070
     0
1000
MTEXTEND
  0
INSERT
  5
25B2
330
2171
100
AcDbEntity
  8
寸法
 62
     4
 48
50.0
370
    -2
100
AcDbBlockReference
  2
_DOTSMALL
 10
13483.45611201606
 20
2240.515874945158
 30
0.0
 41
100.0
 42
100.0
 43
100.0
 50
270.0
  0
INSERT
  5
25B3
330
2171
100
AcDbEntity
  8
寸法
 62
     4
 48
50.0
370
    -2
100
AcDbBlockReference
  2
_DOTSMALL
 10
13483.45611201606
 20
2190.515874945158
 30
0.0
 41
100.0
 42
100.0
 43
100.0
 50
90.0
  0
POINT
  5
25B4
330
2171
100
AcDbEntity
  8
DEFPOINTS
 62
     0
 48
50.0
100
AcDbPoint
 10
12966.32755088103
 20
2240.515874945158
 30
0.0
  0
POINT
  5
25B5
330
2171
100
AcDbEntity
  8
DEFPOINTS
 62
     0
 48
50.0
100
AcDbPoint
 10
13495.59992105415
 20
2190.515874945158
 30
0.0
  0
POINT
  5
25B6
330
2171
100
AcDbEntity
  8
DEFPOINTS
 62
     0
 48
50.0
100
AcDbPoint
 10
13483.45611201606
 20
2190.515874945158
 30
0.0
  0
ENDBLK
  5
217D
330
2171
100
AcDbEntity
  8
0
 48
50.0
100
AcDbBlockEnd
  0
BLOCK
  5
2188
330
217E
100
AcDbEntity
  8
0
 48
50.0
100
AcDbBlockBegin
  2
*D9
 70
     1
 10
0.0
 20
0.0
 30
0.0
  3
*D9
  1

  0
LINE
  5
25A4
330
217E
100
AcDbEntity
  8
寸法
 62
     4
 48
50.0
370
    -2
100
AcDbLine
 10
12970.33206907485
 20
4387.3273288802
 30
0.0
 11
13535.09745646965
 21
4360.73629189037
 31
0.0
  0
LINE
  5
25A5
330
217E
100
AcDbEntity
  8
寸法
 62
     4
 48
50.0
370
    -2
100
AcDbLine
 10
12964.92347741464
 20
4272.454585654256
 30
0.0
 11
13529.68886480943
 21
4245.863548664426
 31
0.0
  0
LINE
  5
25A6
330
217E
100
AcDbEntity
  8
寸法
 62
     4
 48
50.0
370
    -2
100
AcDbLine
 10
13495.14171969541
 20
4362.61754116349
 30
0.0
 11
13489.73312803519
 21
4247.744797937547
 31
0.0
  0
MTEXT
  5
25A7
330
217E
100
AcDbEntity
  8
寸法
 62
     7
 48
50.0
100
AcDbMText
 10
13380.41454453202
 20
4491.456581387213
 30
0.0
 40
120.0
 41
0.0
 71
     5
 72
     1
  1
\A1;115
 11
0.0470312318279977
 21
0.9988934193560099
 31
0.0
 73
     1
 44
1.0
1001
ACAD
1000
MTEXTBEGIN
1070
    73
1070
     1
1070
    44
1040
1.0
1070
    74
1070
     0
1000
MTEXTEND
  0
INSERT
  5
25A8
330
217E
100
AcDbEntity
  8
寸法
 62
     4
 48
50.0
370
    -2
100
AcDbBlockReference
  2
_DOTSMALL
 10
13495.14171969541
 20
4362.61754116349
 30
0.0
 41
100.0
 42
100.0
 43
100.0
 50
87.30431450645136
  0
INSERT
  5
25A9
330
217E
100
AcDbEntity
  8
寸法
 62
     4
 48
50.0
370
    -2
100
AcDbBlockReference
  2
_DOTSMALL
 10
13489.73312803519
 20
4247.744797937547
 30
0.0
 41
100.0
 42
100.0
 43
100.0
 50
267.3043145064514
  0
POINT
  5
25AA
330
217E
100
AcDbEntity
  8
DEFPOINTS
 62
     0
 48
50.0
100
AcDbPoint
 10
12930.37633230061
 20
4389.20857815332
 30
0.0
  0
POINT
  5
25AB
330
217E
100
AcDbEntity
  8
DEFPOINTS
 62
     0
 48
50.0
100
AcDbPoint
 10
12924.9677406404
 20
4274.335834927376
 30
0.0
  0
POINT
  5
25AC
330
217E
100
AcDbEntity
  8
DEFPOINTS
 62
     0
 48
50.0
100
AcDbPoint
 10
13489.73312803519
 20
4247.744797937547
 30
0.0
  0
ENDBLK
  5
2189
330
217E
100
AcDbEntity
  8
0
 48
50.0
100
AcDbBlockEnd
  0
BLOCK
  5
2194
330
218A
100
AcDbEntity
  8
0
 48
50.0
100
AcDbBlockBegin
  2
*D10
 70
     1
 10
0.0
 20
0.0
 30
0.0
  3
*D10
  1

  0
LINE
  5
259B
330
218A
100
AcDbEntity
  8
寸法
 62
     4
 48
50.0
370
    -2
100
AcDbLine
 10
8166.327550881034
 20
4427.515874945158
 30
0.0
 11
8166.327550881034
 21
5115.283571974691
 31
0.0
  0
LINE
  5
259C
330
218A
100
AcDbEntity
  8
寸法
 62
     4
 48
50.0
370
    -2
100
AcDbLine
 10
12966.32755088103
 20
4427.515874945158
 30
0.0
 11
12966.32755088103
 21
5115.283571974691
 31
0.0
  0
LINE
  5
259D
330
218A
100
AcDbEntity
  8
寸法
 62
     4
 48
50.0
370
    -2
100
AcDbLine
 10
8166.327550881034
 20
5075.283571974691
 30
0.0
 11
12966.32755088103
 21
5075.283571974691
 31
0.0
  0
INSERT
  5
259E
330
218A
100
AcDbEntity
  8
寸法
 62
     4
 48
50.0
370
    -2
100
AcDbBlockReference
  2
_DOTSMALL
 10
8166.327550881034
 20
5075.283571974691
 30
0.0
 41
100.0
 42
100.0
 43
100.0
 50
180.0
  0
INSERT
  5
259F
330
218A
100
AcDbEntity
  8
寸法
 62
     4
 48
50.0
370
    -2
100
AcDbBlockReference
  2
_DOTSMALL
 10
12966.32755088103
 20
5075.283571974691
 30
0.0
 41
100.0
 42
100.0
 43
100.0
  0
MTEXT
  5
25A0
330
218A
100
AcDbEntity
  8
寸法
 62
     7
 48
50.0
100
AcDbMText
 10
10566.32755088103
 20
5175.283571974691
 30
0.0
 40
120.0
 41
0.0
 71
     5
 72
     1
  1
\A1;4800
 73
     1
 44
1.0
1001
ACAD
1000
MTEXTBEGIN
1070
    73
1070
     1
1070
    44
1040
1.0
1070
    74
1070
     0
1000
MTEXTEND
  0
POINT
  5
25A1
330
218A
100
AcDbEntity
  8
DEFPOINTS
 62
     0
 48
50.0
100
AcDbPoint
 10
8166.327550881034
 20
4387.515874945158
 30
0.0
  0
POINT
  5
25A2
330
218A
100
AcDbEntity
  8
DEFPOINTS
 62
     0
 48
50.0
100
AcDbPoint
 10
12966.32755088103
 20
4387.515874945158
 30
0.0
  0
POINT
  5
25A3
330
218A
100
AcDbEntity
  8
DEFPOINTS
 62
     0
 48
50.0
100
AcDbPoint
 10
12966.32755088103
 20
5075.283571974691
 30
0.0
  0
ENDBLK
  5
2195
330
218A
100
AcDbEntity
  8
0
 48
50.0
100
AcDbBlockEnd
  0
BLOCK
  5
219F
330
2196
100
AcDbEntity
  8
0
 48
50.0
100
AcDbBlockBegin
  2
*D11
 70
     1
 10
0.0
 20
0.0
 30
0.0
  3
*D11
  1

  0
LINE
  5
2593
330
2196
100
AcDbEntity
  8
寸法
 62
     4
 48
50.0
370
    -2
100
AcDbLine
 10
12966.32755088103
 20
4427.515874945158
 30
0.0
 11
12966.32755088103
 21
4835.283571974691
 31
0.0
  0
LINE
  5
2594
330
2196
100
AcDbEntity
  8
寸法
 62
     4
 48
50.0
370
    -2
100
AcDbLine
 10
12216.32755088103
 20
4795.283571974691
 30
0.0
 11
12966.32755088103
 21
4795.283571974691
 31
0.0
  0
INSERT
  5
2595
330
2196
100
AcDbEntity
  8
寸法
 62
     4
 48
50.0
370
    -2
100
AcDbBlockReference
  2
_DOTSMALL
 10
12216.32755088103
 20
4795.283571974691
 30
0.0
 41
100.0
 42
100.0
 43
100.0
 50
180.0
  0
INSERT
  5
2596
330
2196
100
AcDbEntity
  8
寸法
 62
     4
 48
50.0
370
    -2
100
AcDbBlockReference
  2
_DOTSMALL
 10
12966.32755088103
 20
4795.283571974691
 30
0.0
 41
100.0
 42
100.0
 43
100.0
  0
MTEXT
  5
2597
330
2196
100
AcDbEntity
  8
寸法
 62
     7
 48
50.0
100
AcDbMText
 10
12591.32755088103
 20
4895.28357197469
 30
0.0
 40
120.0
 41
0.0
 71
     5
 72
     1
  1
\A1;750
 73
     1
 44
1.0
1001
ACAD
1000
MTEXTBEGIN
1070
    73
1070
     1
1070
    44
1040
1.0
1070
    74
1070
     0
1000
MTEXTEND
  0
POINT
  5
2598
330
2196
100
AcDbEntity
  8
DEFPOINTS
 62
     0
 48
50.0
100
AcDbPoint
 10
12216.32755088103
 20
4004.535207701803
 30
0.0
  0
POINT
  5
2599
330
2196
100
AcDbEntity
  8
DEFPOINTS
 62
     0
 48
50.0
100
AcDbPoint
 10
12966.32755088103
 20
4387.515874945158
 30
0.0
  0
POINT
  5
259A
330
2196
100
AcDbEntity
  8
DEFPOINTS
 62
     0
 48
50.0
100
AcDbPoint
 10
12966.32755088103
 20
4795.283571974691
 30
0.0
  0
ENDBLK
  5
21A0
330
2196
100
AcDbEntity
  8
0
 48
50.0
100
AcDbBlockEnd
  0
BLOCK
  5
21AA
330
21A1
100
AcDbEntity
  8
0
 48
50.0
100
AcDbBlockBegin
  2
*D12
 70
     1
 10
0.0
 20
0.0
 30
0.0
  3
*D12
  1

  0
LINE
  5
258B
330
21A1
100
AcDbEntity
  8
寸法
 62
     4
 48
50.0
370
    -2
100
AcDbLine
 10
12216.32755088103
 20
4044.535207701803
 30
0.0
 11
12216.32755088103
 21
4835.283571974691
 31
0.0
  0
LINE
  5
258C
330
21A1
100
AcDbEntity
  8
寸法
 62
     4
 48
50.0
370
    -2
100
AcDbLine
 10
10566.32755088103
 20
4795.283571974691
 30
0.0
 11
12216.32755088103
 21
4795.283571974691
 31
0.0
  0
INSERT
  5
258D
330
21A1
100
AcDbEntity
  8
寸法
 62
     4
 48
50.0
370
    -2
100
AcDbBlockReference
  2
_DOTSMALL
 10
10566.32755088103
 20
4795.283571974691
 30
0.0
 41
100.0
 42
100.0
 43
100.0
 50
180.0
  0
INSERT
  5
258E
330
21A1
100
AcDbEntity
  8
寸法
 62
     4
 48
50.0
370
    -2
100
AcDbBlockReference
  2
_DOTSMALL
 10
12216.32755088103
 20
4795.283571974691
 30
0.0
 41
100.0
 42
100.0
 43
100.0
  0
MTEXT
  5
258F
330
21A1
100
AcDbEntity
  8
寸法
 62
     7
 48
50.0
100
AcDbMText
 10
11391.32755088103
 20
4895.28357197469
 30
0.0
 40
120.0
 41
0.0
 71
     5
 72
     1
  1
\A1;1650
 73
     1
 44
1.0
1001
ACAD
1000
MTEXTBEGIN
1070
    73
1070
     1
1070
    44
1040
1.0
1070
    74
1070
     0
1000
MTEXTEND
  0
POINT
  5
2590
330
21A1
100
AcDbEntity
  8
DEFPOINTS
 62
     0
 48
50.0
100
AcDbPoint
 10
10566.32755088103
 20
4038.701291035141
 30
0.0
  0
POINT
  5
2591
330
21A1
100
AcDbEntity
  8
DEFPOINTS
 62
     0
 48
50.0
100
AcDbPoint
 10
12216.32755088103
 20
4004.535207701803
 30
0.0
  0
POINT
  5
2592
330
21A1
100
AcDbEntity
  8
DEFPOINTS
 62
     0
 48
50.0
100
AcDbPoint
 10
12216.32755088103
 20
4795.283571974691
 30
0.0
  0
ENDBLK
  5
21AB
330
21A1
100
AcDbEntity
  8
0
 48
50.0
100
AcDbBlockEnd
  0
BLOCK
  5
21B5
330
21AC
100
AcDbEntity
  8
0
 48
50.0
100
AcDbBlockBegin
  2
*D13
 70
     1
 10
0.0
 20
0.0
 30
0.0
  3
*D13
  1

  0
LINE
  5
2583
330
21AC
100
AcDbEntity
  8
寸法
 62
     4
 48
50.0
370
    -2
100
AcDbLine
 10
10566.32755088103
 20
4540.515874945159
 30
0.0
 11
10566.32755088103
 21
4835.283571974691
 31
0.0
  0
LINE
  5
2584
330
21AC
100
AcDbEntity
  8
寸法
 62
     4
 48
50.0
370
    -2
100
AcDbLine
 10
8916.327550881034
 20
4795.283571974691
 30
0.0
 11
10566.32755088103
 21
4795.283571974691
 31
0.0
  0
INSERT
  5
2585
330
21AC
100
AcDbEntity
  8
寸法
 62
     4
 48
50.0
370
    -2
100
AcDbBlockReference
  2
_DOTSMALL
 10
8916.327550881034
 20
4795.283571974691
 30
0.0
 41
100.0
 42
100.0
 43
100.0
 50
180.0
  0
INSERT
  5
2586
330
21AC
100
AcDbEntity
  8
寸法
 62
     4
 48
50.0
370
    -2
100
AcDbBlockReference
  2
_DOTSMALL
 10
10566.32755088103
 20
4795.283571974691
 30
0.0
 41
100.0
 42
100.0
 43
100.0
  0
MTEXT
  5
2587
330
21AC
100
AcDbEntity
  8
寸法
 62
     7
 48
50.0
100
AcDbMText
 10
9741.327550881033
 20
4895.28357197469
 30
0.0
 40
120.0
 41
0.0
 71
     5
 72
     1
  1
\A1;1650
 73
     1
 44
1.0
1001
ACAD
1000
MTEXTBEGIN
1070
    73
1070
     1
1070
    44
1040
1.0
1070
    74
1070
     0
1000
MTEXTEND
  0
POINT
  5
2588
330
21AC
100
AcDbEntity
  8
DEFPOINTS
 62
     0
 48
50.0
100
AcDbPoint
 10
8916.327550881034
 20
4004.535207701807
 30
0.0
  0
POINT
  5
2589
330
21AC
100
AcDbEntity
  8
DEFPOINTS
 62
     0
 48
50.0
100
AcDbPoint
 10
10566.32755088103
 20
4500.515874945159
 30
0.0
  0
POINT
  5
258A
330
21AC
100
AcDbEntity
  8
DEFPOINTS
 62
     0
 48
50.0
100
AcDbPoint
 10
10566.32755088103
 20
4795.283571974691
 30
0.0
  0
ENDBLK
  5
21B6
330
21AC
100
AcDbEntity
  8
0
 48
50.0
100
AcDbBlockEnd
  0
BLOCK
  5
21C1
330
21B7
100
AcDbEntity
  8
0
 48
50.0
100
AcDbBlockBegin
  2
*D14
 70
     1
 10
0.0
 20
0.0
 30
0.0
  3
*D14
  1

  0
LINE
  5
257A
330
21B7
100
AcDbEntity
  8
寸法
 62
     4
 48
50.0
370
    -2
100
AcDbLine
 10
8166.327550881034
 20
4427.515874945158
 30
0.0
 11
8166.327550881034
 21
4835.283571974691
 31
0.0
  0
LINE
  5
257B
330
21B7
100
AcDbEntity
  8
寸法
 62
     4
 48
50.0
370
    -2
100
AcDbLine
 10
8916.327550881034
 20
4044.535207701807
 30
0.0
 11
8916.327550881034
 21
4835.283571974691
 31
0.0
  0
LINE
  5
257C
330
21B7
100
AcDbEntity
  8
寸法
 62
     4
 48
50.0
370
    -2
100
AcDbLine
 10
8166.327550881034
 20
4795.283571974691
 30
0.0
 11
8916.327550881034
 21
4795.283571974691
 31
0.0
  0
INSERT
  5
257D
330
21B7
100
AcDbEntity
  8
寸法
 62
     4
 48
50.0
370
    -2
100
AcDbBlockReference
  2
_DOTSMALL
 10
8166.327550881034
 20
4795.283571974691
 30
0.0
 41
100.0
 42
100.0
 43
100.0
 50
180.0
  0
INSERT
  5
257E
330
21B7
100
AcDbEntity
  8
寸法
 62
     4
 48
50.0
370
    -2
100
AcDbBlockReference
  2
_DOTSMALL
 10
8916.327550881034
 20
4795.283571974691
 30
0.0
 41
100.0
 42
100.0
 43
100.0
  0
MTEXT
  5
257F
330
21B7
100
AcDbEntity
  8
寸法
 62
     7
 48
50.0
100
AcDbMText
 10
8541.327550881034
 20
4895.28357197469
 30
0.0
 40
120.0
 41
0.0
 71
     5
 72
     1
  1
\A1;750
 73
     1
 44
1.0
1001
ACAD
1000
MTEXTBEGIN
1070
    73
1070
     1
1070
    44
1040
1.0
1070
    74
1070
     0
1000
MTEXTEND
  0
POINT
  5
2580
330
21B7
100
AcDbEntity
  8
DEFPOINTS
 62
     0
 48
50.0
100
AcDbPoint
 10
8166.327550881034
 20
4387.515874945158
 30
0.0
  0
POINT
  5
2581
330
21B7
100
AcDbEntity
  8
DEFPOINTS
 62
     0
 48
50.0
100
AcDbPoint
 10
8916.327550881034
 20
4004.535207701807
 30
0.0
  0
POINT
  5
2582
330
21B7
100
AcDbEntity
  8
DEFPOINTS
 62
     0
 48
50.0
100
AcDbPoint
 10
8916.327550881034
 20
4795.283571974691
 30
0.0
  0
ENDBLK
  5
21C2
330
21B7
100
AcDbEntity
  8
0
 48
50.0
100
AcDbBlockEnd
  0
BLOCK
  5
21CD
330
21C3
100
AcDbEntity
  8
0
 48
50.0
100
AcDbBlockBegin
  2
*D15
 70
     1
 10
0.0
 20
0.0
 30
0.0
  3
*D15
  1

  0
LINE
  5
2571
330
21C3
100
AcDbEntity
  8
寸法
 62
     4
 48
50.0
370
    -2
100
AcDbLine
 10
3428.08479127592
 20
4540.515874945159
 30
0.0
 11
3428.08479127592
 21
5116.07474097994
 31
0.0
  0
LINE
  5
2572
330
21C3
100
AcDbEntity
  8
寸法
 62
     4
 48
50.0
370
    -2
100
AcDbLine
 10
6308.08479127592
 20
4540.515874945159
 30
0.0
 11
6308.08479127592
 21
5116.07474097994
 31
0.0
  0
LINE
  5
2573
330
21C3
100
AcDbEntity
  8
寸法
 62
     4
 48
50.0
370
    -2
100
AcDbLine
 10
3428.08479127592
 20
5076.07474097994
 30
0.0
 11
6308.08479127592
 21
5076.07474097994
 31
0.0
  0
INSERT
  5
2574
330
21C3
100
AcDbEntity
  8
寸法
 62
     4
 48
50.0
370
    -2
100
AcDbBlockReference
  2
_DOTSMALL
 10
3428.08479127592
 20
5076.07474097994
 30
0.0
 41
100.0
 42
100.0
 43
100.0
 50
180.0
  0
INSERT
  5
2575
330
21C3
100
AcDbEntity
  8
寸法
 62
     4
 48
50.0
370
    -2
100
AcDbBlockReference
  2
_DOTSMALL
 10
6308.08479127592
 20
5076.07474097994
 30
0.0
 41
100.0
 42
100.0
 43
100.0
  0
MTEXT
  5
2576
330
21C3
100
AcDbEntity
  8
寸法
 62
     7
 48
50.0
100
AcDbMText
 10
4868.084791275919
 20
5176.086552003562
 30
0.0
 40
120.0
 41
0.0
 71
     5
 72
     1
  1
\A1;2880
 73
     1
 44
1.0
1001
ACAD
1000
MTEXTBEGIN
1070
    73
1070
     1
1070
    44
1040
1.0
1070
    74
1070
     0
1000
MTEXTEND
  0
POINT
  5
2577
330
21C3
100
AcDbEntity
  8
DEFPOINTS
 62
     0
 48
50.0
100
AcDbPoint
 10
3428.08479127592
 20
4500.515874945159
 30
0.0
  0
POINT
  5
2578
330
21C3
100
AcDbEntity
  8
DEFPOINTS
 62
     0
 48
50.0
100
AcDbPoint
 10
6308.08479127592
 20
4500.515874945159
 30
0.0
  0
POINT
  5
2579
330
21C3
100
AcDbEntity
  8
DEFPOINTS
 62
     0
 48
50.0
100
AcDbPoint
 10
6308.08479127592
 20
5076.07474097994
 30
0.0
  0
ENDBLK
  5
21CE
330
21C3
100
AcDbEntity
  8
0
 48
50.0
100
AcDbBlockEnd
  0
BLOCK
  5
21D8
330
21CF
100
AcDbEntity
  8
0
 48
50.0
100
AcDbBlockBegin
  2
*D16
 70
     1
 10
0.0
 20
0.0
 30
0.0
  3
*D16
  1

  0
LINE
  5
2569
330
21CF
100
AcDbEntity
  8
寸法
 62
     4
 48
50.0
370
    -2
100
AcDbLine
 10
6308.08479127592
 20
4540.515874945159
 30
0.0
 11
6308.08479127592
 21
4836.074740979941
 31
0.0
  0
LINE
  5
256A
330
21CF
100
AcDbEntity
  8
寸法
 62
     4
 48
50.0
370
    -2
100
AcDbLine
 10
6058.08479127592
 20
4796.074740979941
 30
0.0
 11
6308.08479127592
 21
4796.074740979941
 31
0.0
  0
INSERT
  5
256B
330
21CF
100
AcDbEntity
  8
寸法
 62
     4
 48
50.0
370
    -2
100
AcDbBlockReference
  2
_DOTSMALL
 10
6058.08479127592
 20
4796.074740979941
 30
0.0
 41
100.0
 42
100.0
 43
100.0
 50
180.0
  0
INSERT
  5
256C
330
21CF
100
AcDbEntity
  8
寸法
 62
     4
 48
50.0
370
    -2
100
AcDbBlockReference
  2
_DOTSMALL
 10
6308.08479127592
 20
4796.074740979941
 30
0.0
 41
100.0
 42
100.0
 43
100.0
  0
MTEXT
  5
256D
330
21CF
100
AcDbEntity
  8
寸法
 62
     7
 48
50.0
100
AcDbMText
 10
6183.08479127592
 20
4896.086552003563
 30
0.0
 40
120.0
 41
0.0
 71
     5
 72
     1
  1
\A1;250
 73
     1
 44
1.0
1001
ACAD
1000
MTEXTBEGIN
1070
    73
1070
     1
1070
    44
1040
1.0
1070
    74
1070
     0
1000
MTEXTEND
  0
POINT
  5
256E
330
21CF
100
AcDbEntity
  8
DEFPOINTS
 62
     0
 48
50.0
100
AcDbPoint
 10
6058.08479127592
 20
4272.831256646528
 30
0.0
  0
POINT
  5
256F
330
21CF
100
AcDbEntity
  8
DEFPOINTS
 62
     0
 48
50.0
100
AcDbPoint
 10
6308.08479127592
 20
4500.515874945159
 30
0.0
  0
POINT
  5
2570
330
21CF
100
AcDbEntity
  8
DEFPOINTS
 62
     0
 48
50.0
100
AcDbPoint
 10
6308.08479127592
 20
4796.074740979941
 30
0.0
  0
ENDBLK
  5
21D9
330
21CF
100
AcDbEntity
  8
0
 48
50.0
100
AcDbBlockEnd
  0
BLOCK
  5
21E3
330
21DA
100
AcDbEntity
  8
0
 48
50.0
100
AcDbBlockBegin
  2
*D17
 70
     1
 10
0.0
 20
0.0
 30
0.0
  3
*D17
  1

  0
LINE
  5
2561
330
21DA
100
AcDbEntity
  8
寸法
 62
     4
 48
50.0
370
    -2
100
AcDbLine
 10
6058.08479127592
 20
4312.831256646528
 30
0.0
 11
6058.08479127592
 21
4836.074740979941
 31
0.0
  0
LINE
  5
2562
330
21DA
100
AcDbEntity
  8
寸法
 62
     4
 48
50.0
370
    -2
100
AcDbLine
 10
3678.08479127592
 20
4796.074740979941
 30
0.0
 11
6058.08479127592
 21
4796.074740979941
 31
0.0
  0
INSERT
  5
2563
330
21DA
100
AcDbEntity
  8
寸法
 62
     4
 48
50.0
370
    -2
100
AcDbBlockReference
  2
_DOTSMALL
 10
3678.08479127592
 20
4796.074740979941
 30
0.0
 41
100.0
 42
100.0
 43
100.0
 50
180.0
  0
INSERT
  5
2564
330
21DA
100
AcDbEntity
  8
寸法
 62
     4
 48
50.0
370
    -2
100
AcDbBlockReference
  2
_DOTSMALL
 10
6058.08479127592
 20
4796.074740979941
 30
0.0
 41
100.0
 42
100.0
 43
100.0
  0
MTEXT
  5
2565
330
21DA
100
AcDbEntity
  8
寸法
 62
     7
 48
50.0
100
AcDbMText
 10
4868.084791275919
 20
4896.086552003563
 30
0.0
 40
120.0
 41
0.0
 71
     5
 72
     1
  1
\A1;2380
 73
     1
 44
1.0
1001
ACAD
1000
MTEXTBEGIN
1070
    73
1070
     1
1070
    44
1040
1.0
1070
    74
1070
     0
1000
MTEXTEND
  0
POINT
  5
2566
330
21DA
100
AcDbEntity
  8
DEFPOINTS
 62
     0
 48
50.0
100
AcDbPoint
 10
3678.08479127592
 20
4272.831256646528
 30
0.0
  0
POINT
  5
2567
330
21DA
100
AcDbEntity
  8
DEFPOINTS
 62
     0
 48
50.0
100
AcDbPoint
 10
6058.08479127592
 20
4272.831256646528
 30
0.0
  0
POINT
  5
2568
330
21DA
100
AcDbEntity
  8
DEFPOINTS
 62
     0
 48
50.0
100
AcDbPoint
 10
6058.08479127592
 20
4796.074740979941
 30
0.0
  0
ENDBLK
  5
21E4
330
21DA
100
AcDbEntity
  8
0
 48
50.0
100
AcDbBlockEnd
  0
BLOCK
  5
21EF
330
21E5
100
AcDbEntity
  8
0
 48
50.0
100
AcDbBlockBegin
  2
*D18
 70
     1
 10
0.0
 20
0.0
 30
0.0
  3
*D18
  1

  0
LINE
  5
2558
330
21E5
100
AcDbEntity
  8
寸法
 62
     4
 48
50.0
370
    -2
100
AcDbLine
 10
3428.08479127592
 20
4540.515874945159
 30
0.0
 11
3428.08479127592
 21
4836.074740979941
 31
0.0
  0
LINE
  5
2559
330
21E5
100
AcDbEntity
  8
寸法
 62
     4
 48
50.0
370
    -2
100
AcDbLine
 10
3678.08479127592
 20
4312.831256646528
 30
0.0
 11
3678.08479127592
 21
4836.074740979941
 31
0.0
  0
LINE
  5
255A
330
21E5
100
AcDbEntity
  8
寸法
 62
     4
 48
50.0
370
    -2
100
AcDbLine
 10
3428.08479127592
 20
4796.074740979941
 30
0.0
 11
3678.08479127592
 21
4796.074740979941
 31
0.0
  0
INSERT
  5
255B
330
21E5
100
AcDbEntity
  8
寸法
 62
     4
 48
50.0
370
    -2
100
AcDbBlockReference
  2
_DOTSMALL
 10
3428.08479127592
 20
4796.074740979941
 30
0.0
 41
100.0
 42
100.0
 43
100.0
 50
180.0
  0
INSERT
  5
255C
330
21E5
100
AcDbEntity
  8
寸法
 62
     4
 48
50.0
370
    -2
100
AcDbBlockReference
  2
_DOTSMALL
 10
3678.08479127592
 20
4796.074740979941
 30
0.0
 41
100.0
 42
100.0
 43
100.0
  0
MTEXT
  5
255D
330
21E5
100
AcDbEntity
  8
寸法
 62
     7
 48
50.0
100
AcDbMText
 10
3553.08479127592
 20
4896.086552003563
 30
0.0
 40
120.0
 41
0.0
 71
     5
 72
     1
  1
\A1;250
 73
     1
 44
1.0
1001
ACAD
1000
MTEXTBEGIN
1070
    73
1070
     1
1070
    44
1040
1.0
1070
    74
1070
     0
1000
MTEXTEND
  0
POINT
  5
255E
330
21E5
100
AcDbEntity
  8
DEFPOINTS
 62
     0
 48
50.0
100
AcDbPoint
 10
3428.08479127592
 20
4500.515874945159
 30
0.0
  0
POINT
  5
255F
330
21E5
100
AcDbEntity
  8
DEFPOINTS
 62
     0
 48
50.0
100
AcDbPoint
 10
3678.08479127592
 20
4272.831256646528
 30
0.0
  0
POINT
  5
2560
330
21E5
100
AcDbEntity
  8
DEFPOINTS
 62
     0
 48
50.0
100
AcDbPoint
 10
3678.08479127592
 20
4796.074740979941
 30
0.0
  0
ENDBLK
  5
21F0
330
21E5
100
AcDbEntity
  8
0
 48
50.0
100
AcDbBlockEnd
  0
BLOCK
  5
21FA
330
21F1
100
AcDbEntity
  8
0
 48
50.0
100
AcDbBlockBegin
  2
*D19
 70
     1
 10
0.0
 20
0.0
 30
0.0
  3
*D19
  1

  0
LINE
  5
2550
330
21F1
100
AcDbEntity
  8
寸法
 62
     4
 48
50.0
370
    -2
100
AcDbLine
 10
3388.08479127592
 20
7942.214270628266
 30
0.0
 11
2814.415140076315
 21
7942.214270628266
 31
0.0
  0
LINE
  5
2551
330
21F1
100
AcDbEntity
  8
寸法
 62
     4
 48
50.0
370
    -2
100
AcDbLine
 10
2854.415140076315
 20
8219.414270628261
 30
0.0
 11
2854.415140076315
 21
7942.214270628266
 31
0.0
  0
MTEXT
  5
2552
330
21F1
100
AcDbEntity
  8
寸法
 62
     7
 48
50.0
100
AcDbMText
 10
2694.403329052693
 20
7995.442239698609
 30
0.0
 40
120.0
 41
0.0
 71
     5
 72
     1
  1
\A1;277.2
 11
0.0000000000000001
 21
1.0
 31
0.0
 73
     1
 44
1.0
1001
ACAD
1000
MTEXTBEGIN
1070
    73
1070
     1
1070
    44
1040
1.0
1070
    74
1070
     0
1000
MTEXTEND
  0
INSERT
  5
2553
330
21F1
100
AcDbEntity
  8
寸法
 62
     4
 48
50.0
370
    -2
100
AcDbBlockReference
  2
_DOTSMALL
 10
2854.415140076315
 20
8219.414270628261
 30
0.0
 41
100.0
 42
100.0
 43
100.0
 50
90.0
  0
INSERT
  5
2554
330
21F1
100
AcDbEntity
  8
寸法
 62
     4
 48
50.0
370
    -2
100
AcDbBlockReference
  2
_DOTSMALL
 10
2854.415140076315
 20
7942.214270628266
 30
0.0
 41
100.0
 42
100.0
 43
100.0
 50
270.0
  0
POINT
  5
2555
330
21F1
100
AcDbEntity
  8
DEFPOINTS
 62
     0
 48
50.0
100
AcDbPoint
 10
3428.08479127592
 20
8219.414270628261
 30
0.0
  0
POINT
  5
2556
330
21F1
100
AcDbEntity
  8
DEFPOINTS
 62
     0
 48
50.0
100
AcDbPoint
 10
3428.08479127592
 20
7942.214270628266
 30
0.0
  0
POINT
  5
2557
330
21F1
100
AcDbEntity
  8
DEFPOINTS
 62
     0
 48
50.0
100
AcDbPoint
 10
2854.415140076315
 20
7942.214270628266
 30
0.0
  0
ENDBLK
  5
21FB
330
21F1
100
AcDbEntity
  8
0
 48
50.0
100
AcDbBlockEnd
  0
BLOCK
  5
2206
330
21FC
100
AcDbEntity
  8
0
 48
50.0
100
AcDbBlockBegin
  2
*D20
 70
     1
 10
0.0
 20
0.0
 30
0.0
  3
*D20
  1

  0
LINE
  5
2547
330
21FC
100
AcDbEntity
  8
寸法
 62
     4
 48
50.0
370
    -2
100
AcDbLine
 10
6299.584791275913
 20
10495.41427062826
 30
0.0
 11
6963.53771446304
 21
10495.41427062826
 31
0.0
  0
LINE
  5
2548
330
21FC
100
AcDbEntity
  8
寸法
 62
     4
 48
50.0
370
    -2
100
AcDbLine
 10
6338.084791275919
 20
10619.41427062826
 30
0.0
 11
6963.53771446304
 21
10619.41427062826
 31
0.0
  0
LINE
  5
2549
330
21FC
100
AcDbEntity
  8
寸法
 62
     4
 48
50.0
370
    -2
100
AcDbLine
 10
6923.537714463041
 20
10495.41427062826
 30
0.0
 11
6923.537714463041
 21
10619.41427062826
 31
0.0
  0
MTEXT
  5
254A
330
21FC
100
AcDbEntity
  8
寸法
 62
     7
 48
50.0
100
AcDbMText
 10
6816.120316553067
 20
10756.41304757595
 30
0.0
 40
120.0
 41
0.0
 71
     5
 72
     1
  1
\A1;124
 11
0.0000000000000001
 21
1.0
 31
0.0
 73
     1
 44
1.0
1001
ACAD
1000
MTEXTBEGIN
1070
    73
1070
     1
1070
    44
1040
1.0
1070
    74
1070
     0
1000
MTEXTEND
  0
INSERT
  5
254B
330
21FC
100
AcDbEntity
  8
寸法
 62
     4
 48
50.0
370
    -2
100
AcDbBlockReference
  2
_DOTSMALL
 10
6923.537714463041
 20
10495.41427062826
 30
0.0
 41
100.0
 42
100.0
 43
100.0
 50
270.0
  0
INSERT
  5
254C
330
21FC
100
AcDbEntity
  8
寸法
 62
     4
 48
50.0
370
    -2
100
AcDbBlockReference
  2
_DOTSMALL
 10
6923.537714463041
 20
10619.41427062826
 30
0.0
 41
100.0
 42
100.0
 43
100.0
 50
90.0
  0
POINT
  5
254D
330
21FC
100
AcDbEntity
  8
DEFPOINTS
 62
     0
 48
50.0
100
AcDbPoint
 10
6259.584791275912
 20
10495.41427062826
 30
0.0
  0
POINT
  5
254E
330
21FC
100
AcDbEntity
  8
DEFPOINTS
 62
     0
 48
50.0
100
AcDbPoint
 10
6298.084791275919
 20
10619.41427062826
 30
0.0
  0
POINT
  5
254F
330
21FC
100
AcDbEntity
  8
DEFPOINTS
 62
     0
 48
50.0
100
AcDbPoint
 10
6923.537714463041
 20
10619.41427062826
 30
0.0
  0
ENDBLK
  5
2207
330
21FC
100
AcDbEntity
  8
0
 48
50.0
100
AcDbBlockEnd
  0
BLOCK
  5
2211
330
2208
100
AcDbEntity
  8
0
 48
50.0
100
AcDbBlockBegin
  2
*D21
 70
     1
 10
0.0
 20
0.0
 30
0.0
  3
*D21
  1

  0
LINE
  5
253F
330
2208
100
AcDbEntity
  8
寸法
 62
     4
 48
50.0
370
    -2
100
AcDbLine
 10
6338.08479127592
 20
5819.414270628262
 30
0.0
 11
6963.53771446304
 21
5819.414270628262
 31
0.0
  0
LINE
  5
2540
330
2208
100
AcDbEntity
  8
寸法
 62
     4
 48
50.0
370
    -2
100
AcDbLine
 10
6923.537714463041
 20
5943.414270628266
 30
0.0
 11
6923.537714463041
 21
5819.414270628262
 31
0.0
  0
MTEXT
  5
2541
330
2208
100
AcDbEntity
  8
寸法
 62
     7
 48
50.0
100
AcDbMText
 10
6813.207916493695
 20
5684.363708905454
 30
0.0
 40
120.0
 41
0.0
 71
     5
 72
     1
  1
\A1;124
 11
0.0000000000000001
 21
1.0
 31
0.0
 73
     1
 44
1.0
1001
ACAD
1000
MTEXTBEGIN
1070
    73
1070
     1
1070
    44
1040
1.0
1070
    74
1070
     0
1000
MTEXTEND
  0
INSERT
  5
2542
330
2208
100
AcDbEntity
  8
寸法
 62
     4
 48
50.0
370
    -2
100
AcDbBlockReference
  2
_DOTSMALL
 10
6923.537714463041
 20
5943.414270628266
 30
0.0
 41
100.0
 42
100.0
 43
100.0
 50
90.0
  0
INSERT
  5
2543
330
2208
100
AcDbEntity
  8
寸法
 62
     4
 48
50.0
370
    -2
100
AcDbBlockReference
  2
_DOTSMALL
 10
6923.537714463041
 20
5819.414270628262
 30
0.0
 41
100.0
 42
100.0
 43
100.0
 50
270.0
  0
POINT
  5
2544
330
2208
100
AcDbEntity
  8
DEFPOINTS
 62
     0
 48
50.0
100
AcDbPoint
 10
6259.58479127592
 20
5943.414270628266
 30
0.0
  0
POINT
  5
2545
330
2208
100
AcDbEntity
  8
DEFPOINTS
 62
     0
 48
50.0
100
AcDbPoint
 10
6298.08479127592
 20
5819.414270628262
 30
0.0
  0
POINT
  5
2546
330
2208
100
AcDbEntity
  8
DEFPOINTS
 62
     0
 48
50.0
100
AcDbPoint
 10
6923.537714463041
 20
5819.414270628262
 30
0.0
  0
ENDBLK
  5
2212
330
2208
100
AcDbEntity
  8
0
 48
50.0
100
AcDbBlockEnd
  0
BLOCK
  5
221C
330
2213
100
AcDbEntity
  8
0
 48
50.0
100
AcDbBlockBegin
  2
*D22
 70
     1
 10
0.0
 20
0.0
 30
0.0
  3
*D22
  1

  0
LINE
  5
2537
330
2213
100
AcDbEntity
  8
寸法
 62
     4
 48
50.0
370
    -2
100
AcDbLine
 10
6299.58479127592
 20
5943.414270628266
 30
0.0
 11
6963.53771446304
 21
5943.414270628266
 31
0.0
  0
LINE
  5
2538
330
2213
100
AcDbEntity
  8
寸法
 62
     4
 48
50.0
370
    -2
100
AcDbLine
 10
6923.537714463042
 20
8079.414270628261
 30
0.0
 11
6923.537714463041
 21
5943.414270628266
 31
0.0
  0
INSERT
  5
2539
330
2213
100
AcDbEntity
  8
寸法
 62
     4
 48
50.0
370
    -2
100
AcDbBlockReference
  2
_DOTSMALL
 10
6923.537714463042
 20
8079.414270628261
 30
0.0
 41
100.0
 42
100.0
 43
100.0
 50
90.0
  0
INSERT
  5
253A
330
2213
100
AcDbEntity
  8
寸法
 62
     4
 48
50.0
370
    -2
100
AcDbBlockReference
  2
_DOTSMALL
 10
6923.537714463041
 20
5943.414270628266
 30
0.0
 41
100.0
 42
100.0
 43
100.0
 50
270.0
  0
MTEXT
  5
253B
330
2213
100
AcDbEntity
  8
寸法
 62
     7
 48
50.0
100
AcDbMText
 10
6823.525903439417
 20
7011.414270628266
 30
0.0
 40
120.0
 41
0.0
 71
     5
 72
     1
  1
\A1;2136
 11
0.0000000000000001
 21
1.0
 31
0.0
 73
     1
 44
1.0
1001
ACAD
1000
MTEXTBEGIN
1070
    73
1070
     1
1070
    44
1040
1.0
1070
    74
1070
     0
1000
MTEXTEND
  0
POINT
  5
253C
330
2213
100
AcDbEntity
  8
DEFPOINTS
 62
     0
 48
50.0
100
AcDbPoint
 10
6263.08479127592
 20
8079.414270628261
 30
0.0
  0
POINT
  5
253D
330
2213
100
AcDbEntity
  8
DEFPOINTS
 62
     0
 48
50.0
100
AcDbPoint
 10
6259.58479127592
 20
5943.414270628266
 30
0.0
  0
POINT
  5
253E
330
2213
100
AcDbEntity
  8
DEFPOINTS
 62
     0
 48
50.0
100
AcDbPoint
 10
6923.537714463041
 20
5943.414270628266
 30
0.0
  0
ENDBLK
  5
221D
330
2213
100
AcDbEntity
  8
0
 48
50.0
100
AcDbBlockEnd
  0
BLOCK
  5
2227
330
221E
100
AcDbEntity
  8
0
 48
50.0
100
AcDbBlockBegin
  2
*D23
 70
     1
 10
0.0
 20
0.0
 30
0.0
  3
*D23
  1

  0
LINE
  5
252F
330
221E
100
AcDbEntity
  8
寸法
 62
     4
 48
50.0
370
    -2
100
AcDbLine
 10
6303.08479127592
 20
8079.414270628261
 30
0.0
 11
6963.53771446304
 21
8079.414270628261
 31
0.0
  0
LINE
  5
2530
330
221E
100
AcDbEntity
  8
寸法
 62
     4
 48
50.0
370
    -2
100
AcDbLine
 10
6923.537714463041
 20
8359.414270628262
 30
0.0
 11
6923.537714463041
 21
8079.414270628261
 31
0.0
  0
MTEXT
  5
2531
330
221E
100
AcDbEntity
  8
寸法
 62
     7
 48
50.0
100
AcDbMText
 10
6797.235163748367
 20
8219.414270628261
 30
0.0
 40
120.0
 41
0.0
 71
     5
 72
     1
  1
\A1;280
 11
0.0000000000000001
 21
1.0
 31
0.0
 73
     1
 44
1.0
1001
ACAD
1000
MTEXTBEGIN
1070
    73
1070
     1
1070
    44
1040
1.0
1070
    74
1070
     0
1000
MTEXTEND
  0
INSERT
  5
2532
330
221E
100
AcDbEntity
  8
寸法
 62
     4
 48
50.0
370
    -2
100
AcDbBlockReference
  2
_DOTSMALL
 10
6923.537714463041
 20
8359.414270628262
 30
0.0
 41
100.0
 42
100.0
 43
100.0
 50
90.0
  0
INSERT
  5
2533
330
221E
100
AcDbEntity
  8
寸法
 62
     4
 48
50.0
370
    -2
100
AcDbBlockReference
  2
_DOTSMALL
 10
6923.537714463041
 20
8079.414270628261
 30
0.0
 41
100.0
 42
100.0
 43
100.0
 50
270.0
  0
POINT
  5
2534
330
221E
100
AcDbEntity
  8
DEFPOINTS
 62
     0
 48
50.0
100
AcDbPoint
 10
6263.084791275919
 20
8359.414270628262
 30
0.0
  0
POINT
  5
2535
330
221E
100
AcDbEntity
  8
DEFPOINTS
 62
     0
 48
50.0
100
AcDbPoint
 10
6263.08479127592
 20
8079.414270628261
 30
0.0
  0
POINT
  5
2536
330
221E
100
AcDbEntity
  8
DEFPOINTS
 62
     0
 48
50.0
100
AcDbPoint
 10
6923.537714463041
 20
8079.414270628261
 30
0.0
  0
ENDBLK
  5
2228
330
221E
100
AcDbEntity
  8
0
 48
50.0
100
AcDbBlockEnd
  0
BLOCK
  5
2233
330
2229
100
AcDbEntity
  8
0
 48
50.0
100
AcDbBlockBegin
  2
*D24
 70
     1
 10
0.0
 20
0.0
 30
0.0
  3
*D24
  1

  0
LINE
  5
2526
330
2229
100
AcDbEntity
  8
寸法
 62
     4
 48
50.0
370
    -2
100
AcDbLine
 10
6299.584791275913
 20
10495.41427062826
 30
0.0
 11
6963.537714463041
 21
10495.41427062826
 31
0.0
  0
LINE
  5
2527
330
2229
100
AcDbEntity
  8
寸法
 62
     4
 48
50.0
370
    -2
100
AcDbLine
 10
6303.084791275919
 20
8359.414270628262
 30
0.0
 11
6963.53771446304
 21
8359.414270628262
 31
0.0
  0
LINE
  5
2528
330
2229
100
AcDbEntity
  8
寸法
 62
     4
 48
50.0
370
    -2
100
AcDbLine
 10
6923.537714463042
 20
10495.41427062826
 30
0.0
 11
6923.537714463041
 21
8359.414270628262
 31
0.0
  0
INSERT
  5
2529
330
2229
100
AcDbEntity
  8
寸法
 62
     4
 48
50.0
370
    -2
100
AcDbBlockReference
  2
_DOTSMALL
 10
6923.537714463042
 20
10495.41427062826
 30
0.0
 41
100.0
 42
100.0
 43
100.0
 50
90.0
  0
INSERT
  5
252A
330
2229
100
AcDbEntity
  8
寸法
 62
     4
 48
50.0
370
    -2
100
AcDbBlockReference
  2
_DOTSMALL
 10
6923.537714463041
 20
8359.414270628262
 30
0.0
 41
100.0
 42
100.0
 43
100.0
 50
270.0
  0
MTEXT
  5
252B
330
2229
100
AcDbEntity
  8
寸法
 62
     7
 48
50.0
100
AcDbMText
 10
6823.525903439417
 20
9427.414270628267
 30
0.0
 40
120.0
 41
0.0
 71
     5
 72
     1
  1
\A1;2136
 11
0.0000000000000001
 21
1.0
 31
0.0
 73
     1
 44
1.0
1001
ACAD
1000
MTEXTBEGIN
1070
    73
1070
     1
1070
    44
1040
1.0
1070
    74
1070
     0
1000
MTEXTEND
  0
POINT
  5
252C
330
2229
100
AcDbEntity
  8
DEFPOINTS
 62
     0
 48
50.0
100
AcDbPoint
 10
6259.584791275912
 20
10495.41427062826
 30
0.0
  0
POINT
  5
252D
330
2229
100
AcDbEntity
  8
DEFPOINTS
 62
     0
 48
50.0
100
AcDbPoint
 10
6263.084791275919
 20
8359.414270628262
 30
0.0
  0
POINT
  5
252E
330
2229
100
AcDbEntity
  8
DEFPOINTS
 62
     0
 48
50.0
100
AcDbPoint
 10
6923.537714463041
 20
8359.414270628262
 30
0.0
  0
ENDBLK
  5
2234
330
2229
100
AcDbEntity
  8
0
 48
50.0
100
AcDbBlockEnd
  0
BLOCK
  5
223F
330
2235
100
AcDbEntity
  8
0
 48
50.0
100
AcDbBlockBegin
  2
*D25
 70
     1
 10
0.0
 20
0.0
 30
0.0
  3
*D25
  1

  0
LINE
  5
251D
330
2235
100
AcDbEntity
  8
寸法
 62
     4
 48
50.0
370
    -2
100
AcDbLine
 10
3398.08479127592
 20
10619.41427062826
 30
0.0
 11
2534.415140076316
 21
10619.41427062826
 31
0.0
  0
LINE
  5
251E
330
2235
100
AcDbEntity
  8
寸法
 62
     4
 48
50.0
370
    -2
100
AcDbLine
 10
3398.08479127592
 20
5819.414270628262
 30
0.0
 11
2534.415140076315
 21
5819.414270628262
 31
0.0
  0
LINE
  5
251F
330
2235
100
AcDbEntity
  8
寸法
 62
     4
 48
50.0
370
    -2
100
AcDbLine
 10
2574.415140076316
 20
10619.41427062826
 30
0.0
 11
2574.415140076315
 21
5819.414270628262
 31
0.0
  0
INSERT
  5
2520
330
2235
100
AcDbEntity
  8
寸法
 62
     4
 48
50.0
370
    -2
100
AcDbBlockReference
  2
_DOTSMALL
 10
2574.415140076316
 20
10619.41427062826
 30
0.0
 41
100.0
 42
100.0
 43
100.0
 50
90.0
  0
INSERT
  5
2521
330
2235
100
AcDbEntity
  8
寸法
 62
     4
 48
50.0
370
    -2
100
AcDbBlockReference
  2
_DOTSMALL
 10
2574.415140076315
 20
5819.414270628262
 30
0.0
 41
100.0
 42
100.0
 43
100.0
 50
270.0
  0
MTEXT
  5
2522
330
2235
100
AcDbEntity
  8
寸法
 62
     7
 48
50.0
100
AcDbMText
 10
2474.415140076314
 20
8219.414270628261
 30
0.0
 40
120.0
 41
0.0
 71
     5
 72
     1
  1
\A1;4800
 11
0.0000000000000001
 21
1.0
 31
0.0
 73
     1
 44
1.0
1001
ACAD
1000
MTEXTBEGIN
1070
    73
1070
     1
1070
    44
1040
1.0
1070
    74
1070
     0
1000
MTEXTEND
  0
POINT
  5
2523
330
2235
100
AcDbEntity
  8
DEFPOINTS
 62
     0
 48
50.0
100
AcDbPoint
 10
3438.08479127592
 20
10619.41427062826
 30
0.0
  0
POINT
  5
2524
330
2235
100
AcDbEntity
  8
DEFPOINTS
 62
     0
 48
50.0
100
AcDbPoint
 10
3438.08479127592
 20
5819.414270628262
 30
0.0
  0
POINT
  5
2525
330
2235
100
AcDbEntity
  8
DEFPOINTS
 62
     0
 48
50.0
100
AcDbPoint
 10
2574.415140076315
 20
5819.414270628262
 30
0.0
  0
ENDBLK
  5
2240
330
2235
100
AcDbEntity
  8
0
 48
50.0
100
AcDbBlockEnd
  0
BLOCK
  5
224A
330
2241
100
AcDbEntity
  8
0
 48
50.0
100
AcDbBlockBegin
  2
*D26
 70
     1
 10
0.0
 20
0.0
 30
0.0
  3
*D26
  1

  0
LINE
  5
2515
330
2241
100
AcDbEntity
  8
寸法
 62
     4
 48
50.0
370
    -2
100
AcDbLine
 10
3398.08479127592
 20
5819.414270628262
 30
0.0
 11
2814.415140076315
 21
5819.414270628262
 31
0.0
  0
LINE
  5
2516
330
2241
100
AcDbEntity
  8
寸法
 62
     4
 48
50.0
370
    -2
100
AcDbLine
 10
2854.415140076315
 20
6056.414270628262
 30
0.0
 11
2854.415140076315
 21
5819.414270628262
 31
0.0
  0
MTEXT
  5
2517
330
2241
100
AcDbEntity
  8
寸法
 62
     7
 48
50.0
100
AcDbMText
 10
2694.403329052692
 20
5937.914270628263
 30
0.0
 40
120.0
 41
0.0
 71
     5
 72
     1
  1
\A1;237
 11
0.0000000000000001
 21
1.0
 31
0.0
 73
     1
 44
1.0
1001
ACAD
1000
MTEXTBEGIN
1070
    73
1070
     1
1070
    44
1040
1.0
1070
    74
1070
     0
1000
MTEXTEND
  0
INSERT
  5
2518
330
2241
100
AcDbEntity
  8
寸法
 62
     4
 48
50.0
370
    -2
100
AcDbBlockReference
  2
_DOTSMALL
 10
2854.415140076315
 20
6056.414270628262
 30
0.0
 41
100.0
 42
100.0
 43
100.0
 50
90.0
  0
INSERT
  5
2519
330
2241
100
AcDbEntity
  8
寸法
 62
     4
 48
50.0
370
    -2
100
AcDbBlockReference
  2
_DOTSMALL
 10
2854.415140076315
 20
5819.414270628262
 30
0.0
 41
100.0
 42
100.0
 43
100.0
 50
270.0
  0
POINT
  5
251A
330
2241
100
AcDbEntity
  8
DEFPOINTS
 62
     0
 48
50.0
100
AcDbPoint
 10
3428.08479127592
 20
6056.414270628262
 30
0.0
  0
POINT
  5
251B
330
2241
100
AcDbEntity
  8
DEFPOINTS
 62
     0
 48
50.0
100
AcDbPoint
 10
3438.08479127592
 20
5819.414270628262
 30
0.0
  0
POINT
  5
251C
330
2241
100
AcDbEntity
  8
DEFPOINTS
 62
     0
 48
50.0
100
AcDbPoint
 10
2854.415140076315
 20
5819.414270628262
 30
0.0
  0
ENDBLK
  5
224B
330
2241
100
AcDbEntity
  8
0
 48
50.0
100
AcDbBlockEnd
  0
BLOCK
  5
2255
330
224C
100
AcDbEntity
  8
0
 48
50.0
100
AcDbBlockBegin
  2
*D27
 70
     1
 10
0.0
 20
0.0
 30
0.0
  3
*D27
  1

  0
LINE
  5
250D
330
224C
100
AcDbEntity
  8
寸法
 62
     4
 48
50.0
370
    -2
100
AcDbLine
 10
3388.08479127592
 20
6056.414270628262
 30
0.0
 11
2814.415140076315
 21
6056.414270628262
 31
0.0
  0
LINE
  5
250E
330
224C
100
AcDbEntity
  8
寸法
 62
     4
 48
50.0
370
    -2
100
AcDbLine
 10
2854.415140076315
 20
6685.014270628262
 30
0.0
 11
2854.415140076315
 21
6056.414270628262
 31
0.0
  0
INSERT
  5
250F
330
224C
100
AcDbEntity
  8
寸法
 62
     4
 48
50.0
370
    -2
100
AcDbBlockReference
  2
_DOTSMALL
 10
2854.415140076315
 20
6685.014270628262
 30
0.0
 41
100.0
 42
100.0
 43
100.0
 50
90.0
  0
INSERT
  5
2510
330
224C
100
AcDbEntity
  8
寸法
 62
     4
 48
50.0
370
    -2
100
AcDbBlockReference
  2
_DOTSMALL
 10
2854.415140076315
 20
6056.414270628262
 30
0.0
 41
100.0
 42
100.0
 43
100.0
 50
270.0
  0
MTEXT
  5
2511
330
224C
100
AcDbEntity
  8
寸法
 62
     7
 48
50.0
100
AcDbMText
 10
2754.403329052692
 20
6370.714270628263
 30
0.0
 40
120.0
 41
0.0
 71
     5
 72
     1
  1
\A1;628.6
 11
0.0000000000000001
 21
1.0
 31
0.0
 73
     1
 44
1.0
1001
ACAD
1000
MTEXTBEGIN
1070
    73
1070
     1
1070
    44
1040
1.0
1070
    74
1070
     0
1000
MTEXTEND
  0
POINT
  5
2512
330
224C
100
AcDbEntity
  8
DEFPOINTS
 62
     0
 48
50.0
100
AcDbPoint
 10
3428.08479127592
 20
6685.014270628262
 30
0.0
  0
POINT
  5
2513
330
224C
100
AcDbEntity
  8
DEFPOINTS
 62
     0
 48
50.0
100
AcDbPoint
 10
3428.08479127592
 20
6056.414270628262
 30
0.0
  0
POINT
  5
2514
330
224C
100
AcDbEntity
  8
DEFPOINTS
 62
     0
 48
50.0
100
AcDbPoint
 10
2854.415140076315
 20
6056.414270628262
 30
0.0
  0
ENDBLK
  5
2256
330
224C
100
AcDbEntity
  8
0
 48
50.0
100
AcDbBlockEnd
  0
BLOCK
  5
2260
330
2257
100
AcDbEntity
  8
0
 48
50.0
100
AcDbBlockBegin
  2
*D28
 70
     1
 10
0.0
 20
0.0
 30
0.0
  3
*D28
  1

  0
LINE
  5
2505
330
2257
100
AcDbEntity
  8
寸法
 62
     4
 48
50.0
370
    -2
100
AcDbLine
 10
3388.08479127592
 20
6685.014270628262
 30
0.0
 11
2814.415140076315
 21
6685.014270628262
 31
0.0
  0
LINE
  5
2506
330
2257
100
AcDbEntity
  8
寸法
 62
     4
 48
50.0
370
    -2
100
AcDbLine
 10
2854.415140076316
 20
7313.614270628263
 30
0.0
 11
2854.415140076315
 21
6685.014270628262
 31
0.0
  0
INSERT
  5
2507
330
2257
100
AcDbEntity
  8
寸法
 62
     4
 48
50.0
370
    -2
100
AcDbBlockReference
  2
_DOTSMALL
 10
2854.415140076316
 20
7313.614270628263
 30
0.0
 41
100.0
 42
100.0
 43
100.0
 50
90.0
  0
INSERT
  5
2508
330
2257
100
AcDbEntity
  8
寸法
 62
     4
 48
50.0
370
    -2
100
AcDbBlockReference
  2
_DOTSMALL
 10
2854.415140076315
 20
6685.014270628262
 30
0.0
 41
100.0
 42
100.0
 43
100.0
 50
270.0
  0
MTEXT
  5
2509
330
2257
100
AcDbEntity
  8
寸法
 62
     7
 48
50.0
100
AcDbMText
 10
2754.403329052692
 20
6999.314270628264
 30
0.0
 40
120.0
 41
0.0
 71
     5
 72
     1
  1
\A1;628.6
 11
0.0000000000000001
 21
1.0
 31
0.0
 73
     1
 44
1.0
1001
ACAD
1000
MTEXTBEGIN
1070
    73
1070
     1
1070
    44
1040
1.0
1070
    74
1070
     0
1000
MTEXTEND
  0
POINT
  5
250A
330
2257
100
AcDbEntity
  8
DEFPOINTS
 62
     0
 48
50.0
100
AcDbPoint
 10
3428.08479127592
 20
7313.614270628263
 30
0.0
  0
POINT
  5
250B
330
2257
100
AcDbEntity
  8
DEFPOINTS
 62
     0
 48
50.0
100
AcDbPoint
 10
3428.08479127592
 20
6685.014270628262
 30
0.0
  0
POINT
  5
250C
330
2257
100
AcDbEntity
  8
DEFPOINTS
 62
     0
 48
50.0
100
AcDbPoint
 10
2854.415140076315
 20
6685.014270628262
 30
0.0
  0
ENDBLK
  5
2261
330
2257
100
AcDbEntity
  8
0
 48
50.0
100
AcDbBlockEnd
  0
BLOCK
  5
226B
330
2262
100
AcDbEntity
  8
0
 48
50.0
100
AcDbBlockBegin
  2
*D29
 70
     1
 10
0.0
 20
0.0
 30
0.0
  3
*D29
  1

  0
LINE
  5
24FD
330
2262
100
AcDbEntity
  8
寸法
 62
     4
 48
50.0
370
    -2
100
AcDbLine
 10
3388.08479127592
 20
7313.614270628263
 30
0.0
 11
2814.415140076315
 21
7313.614270628263
 31
0.0
  0
LINE
  5
24FE
330
2262
100
AcDbEntity
  8
寸法
 62
     4
 48
50.0
370
    -2
100
AcDbLine
 10
2854.415140076315
 20
7942.214270628266
 30
0.0
 11
2854.415140076315
 21
7313.614270628263
 31
0.0
  0
MTEXT
  5
24FF
330
2262
100
AcDbEntity
  8
寸法
 62
     7
 48
50.0
100
AcDbMText
 10
2694.415140076315
 20
7539.245297372741
 30
0.0
 40
120.0
 41
0.0
 71
     5
 72
     1
  1
\A1;628.6
 11
0.0000000000000001
 21
1.0
 31
0.0
 73
     1
 44
1.0
1001
ACAD
1000
MTEXTBEGIN
1070
    73
1070
     1
1070
    44
1040
1.0
1070
    74
1070
     0
1000
MTEXTEND
  0
INSERT
  5
2500
330
2262
100
AcDbEntity
  8
寸法
 62
     4
 48
50.0
370
    -2
100
AcDbBlockReference
  2
_DOTSMALL
 10
2854.415140076315
 20
7942.214270628266
 30
0.0
 41
100.0
 42
100.0
 43
100.0
 50
90.0
  0
INSERT
  5
2501
330
2262
100
AcDbEntity
  8
寸法
 62
     4
 48
50.0
370
    -2
100
AcDbBlockReference
  2
_DOTSMALL
 10
2854.415140076315
 20
7313.614270628263
 30
0.0
 41
100.0
 42
100.0
 43
100.0
 50
270.0
  0
POINT
  5
2502
330
2262
100
AcDbEntity
  8
DEFPOINTS
 62
     0
 48
50.0
100
AcDbPoint
 10
3428.08479127592
 20
7942.214270628266
 30
0.0
  0
POINT
  5
2503
330
2262
100
AcDbEntity
  8
DEFPOINTS
 62
     0
 48
50.0
100
AcDbPoint
 10
3428.08479127592
 20
7313.614270628263
 30
0.0
  0
POINT
  5
2504
330
2262
100
AcDbEntity
  8
DEFPOINTS
 62
     0
 48
50.0
100
AcDbPoint
 10
2854.415140076315
 20
7313.614270628263
 30
0.0
  0
ENDBLK
  5
226C
330
2262
100
AcDbEntity
  8
0
 48
50.0
100
AcDbBlockEnd
  0
BLOCK
  5
2276
330
226D
100
AcDbEntity
  8
0
 48
50.0
100
AcDbBlockBegin
  2
*D30
 70
     1
 10
0.0
 20
0.0
 30
0.0
  3
*D30
  1

  0
LINE
  5
24F5
330
226D
100
AcDbEntity
  8
寸法
 62
     4
 48
50.0
370
    -2
100
AcDbLine
 10
3388.08479127592
 20
8219.414270628261
 30
0.0
 11
2814.415140076315
 21
8219.414270628261
 31
0.0
  0
LINE
  5
24F6
330
226D
100
AcDbEntity
  8
寸法
 62
     4
 48
50.0
370
    -2
100
AcDbLine
 10
2854.415140076315
 20
8496.614270628256
 30
0.0
 11
2854.415140076315
 21
8219.414270628261
 31
0.0
  0
MTEXT
  5
24F7
330
226D
100
AcDbEntity
  8
寸法
 62
     7
 48
50.0
100
AcDbMText
 10
2694.403329052693
 20
8455.946322159034
 30
0.0
 40
120.0
 41
0.0
 71
     5
 72
     1
  1
\A1;277.2
 11
0.0000000000000001
 21
1.0
 31
0.0
 73
     1
 44
1.0
1001
ACAD
1000
MTEXTBEGIN
1070
    73
1070
     1
1070
    44
1040
1.0
1070
    74
1070
     0
1000
MTEXTEND
  0
INSERT
  5
24F8
330
226D
100
AcDbEntity
  8
寸法
 62
     4
 48
50.0
370
    -2
100
AcDbBlockReference
  2
_DOTSMALL
 10
2854.415140076315
 20
8496.614270628256
 30
0.0
 41
100.0
 42
100.0
 43
100.0
 50
90.0
  0
INSERT
  5
24F9
330
226D
100
AcDbEntity
  8
寸法
 62
     4
 48
50.0
370
    -2
100
AcDbBlockReference
  2
_DOTSMALL
 10
2854.415140076315
 20
8219.414270628261
 30
0.0
 41
100.0
 42
100.0
 43
100.0
 50
270.0
  0
POINT
  5
24FA
330
226D
100
AcDbEntity
  8
DEFPOINTS
 62
     0
 48
50.0
100
AcDbPoint
 10
3428.08479127592
 20
8496.614270628256
 30
0.0
  0
POINT
  5
24FB
330
226D
100
AcDbEntity
  8
DEFPOINTS
 62
     0
 48
50.0
100
AcDbPoint
 10
3428.08479127592
 20
8219.414270628261
 30
0.0
  0
POINT
  5
24FC
330
226D
100
AcDbEntity
  8
DEFPOINTS
 62
     0
 48
50.0
100
AcDbPoint
 10
2854.415140076315
 20
8219.414270628261
 30
0.0
  0
ENDBLK
  5
2277
330
226D
100
AcDbEntity
  8
0
 48
50.0
100
AcDbBlockEnd
  0
BLOCK
  5
2281
330
2278
100
AcDbEntity
  8
0
 48
50.0
100
AcDbBlockBegin
  2
*D31
 70
     1
 10
0.0
 20
0.0
 30
0.0
  3
*D31
  1

  0
LINE
  5
24ED
330
2278
100
AcDbEntity
  8
寸法
 62
     4
 48
50.0
370
    -2
100
AcDbLine
 10
3388.08479127592
 20
8496.614270628256
 30
0.0
 11
2814.415140076315
 21
8496.614270628256
 31
0.0
  0
LINE
  5
24EE
330
2278
100
AcDbEntity
  8
寸法
 62
     4
 48
50.0
370
    -2
100
AcDbLine
 10
2854.415140076315
 20
9125.21427062826
 30
0.0
 11
2854.415140076315
 21
8496.614270628256
 31
0.0
  0
MTEXT
  5
24EF
330
2278
100
AcDbEntity
  8
寸法
 62
     7
 48
50.0
100
AcDbMText
 10
2694.415140076315
 20
8905.394790974057
 30
0.0
 40
120.0
 41
0.0
 71
     5
 72
     1
  1
\A1;628.6
 11
0.0000000000000001
 21
1.0
 31
0.0
 73
     1
 44
1.0
1001
ACAD
1000
MTEXTBEGIN
1070
    73
1070
     1
1070
    44
1040
1.0
1070
    74
1070
     0
1000
MTEXTEND
  0
INSERT
  5
24F0
330
2278
100
AcDbEntity
  8
寸法
 62
     4
 48
50.0
370
    -2
100
AcDbBlockReference
  2
_DOTSMALL
 10
2854.415140076315
 20
9125.21427062826
 30
0.0
 41
100.0
 42
100.0
 43
100.0
 50
90.0
  0
INSERT
  5
24F1
330
2278
100
AcDbEntity
  8
寸法
 62
     4
 48
50.0
370
    -2
100
AcDbBlockReference
  2
_DOTSMALL
 10
2854.415140076315
 20
8496.614270628256
 30
0.0
 41
100.0
 42
100.0
 43
100.0
 50
270.0
  0
POINT
  5
24F2
330
2278
100
AcDbEntity
  8
DEFPOINTS
 62
     0
 48
50.0
100
AcDbPoint
 10
3428.08479127592
 20
9125.21427062826
 30
0.0
  0
POINT
  5
24F3
330
2278
100
AcDbEntity
  8
DEFPOINTS
 62
     0
 48
50.0
100
AcDbPoint
 10
3428.08479127592
 20
8496.614270628256
 30
0.0
  0
POINT
  5
24F4
330
2278
100
AcDbEntity
  8
DEFPOINTS
 62
     0
 48
50.0
100
AcDbPoint
 10
2854.415140076315
 20
8496.614270628256
 30
0.0
  0
ENDBLK
  5
2282
330
2278
100
AcDbEntity
  8
0
 48
50.0
100
AcDbBlockEnd
  0
BLOCK
  5
228C
330
2283
100
AcDbEntity
  8
0
 48
50.0
100
AcDbBlockBegin
  2
*D32
 70
     1
 10
0.0
 20
0.0
 30
0.0
  3
*D32
  1

  0
LINE
  5
24E5
330
2283
100
AcDbEntity
  8
寸法
 62
     4
 48
50.0
370
    -2
100
AcDbLine
 10
3388.08479127592
 20
9125.21427062826
 30
0.0
 11
2814.415140076315
 21
9125.21427062826
 31
0.0
  0
LINE
  5
24E6
330
2283
100
AcDbEntity
  8
寸法
 62
     4
 48
50.0
370
    -2
100
AcDbLine
 10
2854.415140076316
 20
9753.814270628261
 30
0.0
 11
2854.415140076315
 21
9125.21427062826
 31
0.0
  0
INSERT
  5
24E7
330
2283
100
AcDbEntity
  8
寸法
 62
     4
 48
50.0
370
    -2
100
AcDbBlockReference
  2
_DOTSMALL
 10
2854.415140076316
 20
9753.814270628261
 30
0.0
 41
100.0
 42
100.0
 43
100.0
 50
90.0
  0
INSERT
  5
24E8
330
2283
100
AcDbEntity
  8
寸法
 62
     4
 48
50.0
370
    -2
100
AcDbBlockReference
  2
_DOTSMALL
 10
2854.415140076315
 20
9125.21427062826
 30
0.0
 41
100.0
 42
100.0
 43
100.0
 50
270.0
  0
MTEXT
  5
24E9
330
2283
100
AcDbEntity
  8
寸法
 62
     7
 48
50.0
100
AcDbMText
 10
2754.403329052692
 20
9439.514270628261
 30
0.0
 40
120.0
 41
0.0
 71
     5
 72
     1
  1
\A1;628.6
 11
0.0000000000000001
 21
1.0
 31
0.0
 73
     1
 44
1.0
1001
ACAD
1000
MTEXTBEGIN
1070
    73
1070
     1
1070
    44
1040
1.0
1070
    74
1070
     0
1000
MTEXTEND
  0
POINT
  5
24EA
330
2283
100
AcDbEntity
  8
DEFPOINTS
 62
     0
 48
50.0
100
AcDbPoint
 10
3428.08479127592
 20
9753.814270628261
 30
0.0
  0
POINT
  5
24EB
330
2283
100
AcDbEntity
  8
DEFPOINTS
 62
     0
 48
50.0
100
AcDbPoint
 10
3428.08479127592
 20
9125.21427062826
 30
0.0
  0
POINT
  5
24EC
330
2283
100
AcDbEntity
  8
DEFPOINTS
 62
     0
 48
50.0
100
AcDbPoint
 10
2854.415140076315
 20
9125.21427062826
 30
0.0
  0
ENDBLK
  5
228D
330
2283
100
AcDbEntity
  8
0
 48
50.0
100
AcDbBlockEnd
  0
BLOCK
  5
2297
330
228E
100
AcDbEntity
  8
0
 48
50.0
100
AcDbBlockBegin
  2
*D33
 70
     1
 10
0.0
 20
0.0
 30
0.0
  3
*D33
  1

  0
LINE
  5
24DD
330
228E
100
AcDbEntity
  8
寸法
 62
     4
 48
50.0
370
    -2
100
AcDbLine
 10
3388.08479127592
 20
9753.814270628261
 30
0.0
 11
2814.415140076315
 21
9753.814270628261
 31
0.0
  0
LINE
  5
24DE
330
228E
100
AcDbEntity
  8
寸法
 62
     4
 48
50.0
370
    -2
100
AcDbLine
 10
2854.415140076315
 20
10382.41427062826
 30
0.0
 11
2854.415140076315
 21
9753.814270628261
 31
0.0
  0
INSERT
  5
24DF
330
228E
100
AcDbEntity
  8
寸法
 62
     4
 48
50.0
370
    -2
100
AcDbBlockReference
  2
_DOTSMALL
 10
2854.415140076315
 20
10382.41427062826
 30
0.0
 41
100.0
 42
100.0
 43
100.0
 50
90.0
  0
INSERT
  5
24E0
330
228E
100
AcDbEntity
  8
寸法
 62
     4
 48
50.0
370
    -2
100
AcDbBlockReference
  2
_DOTSMALL
 10
2854.415140076315
 20
9753.814270628261
 30
0.0
 41
100.0
 42
100.0
 43
100.0
 50
270.0
  0
MTEXT
  5
24E1
330
228E
100
AcDbEntity
  8
寸法
 62
     7
 48
50.0
100
AcDbMText
 10
2754.403329052691
 20
10068.11427062826
 30
0.0
 40
120.0
 41
0.0
 71
     5
 72
     1
  1
\A1;628.6
 11
0.0000000000000001
 21
1.0
 31
0.0
 73
     1
 44
1.0
1001
ACAD
1000
MTEXTBEGIN
1070
    73
1070
     1
1070
    44
1040
1.0
1070
    74
1070
     0
1000
MTEXTEND
  0
POINT
  5
24E2
330
228E
100
AcDbEntity
  8
DEFPOINTS
 62
     0
 48
50.0
100
AcDbPoint
 10
3428.08479127592
 20
10382.41427062826
 30
0.0
  0
POINT
  5
24E3
330
228E
100
AcDbEntity
  8
DEFPOINTS
 62
     0
 48
50.0
100
AcDbPoint
 10
3428.08479127592
 20
9753.814270628261
 30
0.0
  0
POINT
  5
24E4
330
228E
100
AcDbEntity
  8
DEFPOINTS
 62
     0
 48
50.0
100
AcDbPoint
 10
2854.415140076315
 20
9753.814270628261
 30
0.0
  0
ENDBLK
  5
2298
330
228E
100
AcDbEntity
  8
0
 48
50.0
100
AcDbBlockEnd
  0
BLOCK
  5
22A3
330
2299
100
AcDbEntity
  8
0
 48
50.0
100
AcDbBlockBegin
  2
*D34
 70
     1
 10
0.0
 20
0.0
 30
0.0
  3
*D34
  1

  0
LINE
  5
24D4
330
2299
100
AcDbEntity
  8
寸法
 62
     4
 48
50.0
370
    -2
100
AcDbLine
 10
3398.08479127592
 20
10619.41427062826
 30
0.0
 11
2814.415140076315
 21
10619.41427062826
 31
0.0
  0
LINE
  5
24D5
330
2299
100
AcDbEntity
  8
寸法
 62
     4
 48
50.0
370
    -2
100
AcDbLine
 10
3388.08479127592
 20
10382.41427062826
 30
0.0
 11
2814.415140076315
 21
10382.41427062826
 31
0.0
  0
LINE
  5
24D6
330
2299
100
AcDbEntity
  8
寸法
 62
     4
 48
50.0
370
    -2
100
AcDbLine
 10
2854.415140076315
 20
10619.41427062826
 30
0.0
 11
2854.415140076315
 21
10382.41427062826
 31
0.0
  0
MTEXT
  5
24D7
330
2299
100
AcDbEntity
  8
寸法
 62
     7
 48
50.0
100
AcDbMText
 10
2694.403329052691
 20
10500.91427062826
 30
0.0
 40
120.0
 41
0.0
 71
     5
 72
     1
  1
\A1;237
 11
0.0000000000000001
 21
1.0
 31
0.0
 73
     1
 44
1.0
1001
ACAD
1000
MTEXTBEGIN
1070
    73
1070
     1
1070
    44
1040
1.0
1070
    74
1070
     0
1000
MTEXTEND
  0
INSERT
  5
24D8
330
2299
100
AcDbEntity
  8
寸法
 62
     4
 48
50.0
370
    -2
100
AcDbBlockReference
  2
_DOTSMALL
 10
2854.415140076315
 20
10619.41427062826
 30
0.0
 41
100.0
 42
100.0
 43
100.0
 50
90.0
  0
INSERT
  5
24D9
330
2299
100
AcDbEntity
  8
寸法
 62
     4
 48
50.0
370
    -2
100
AcDbBlockReference
  2
_DOTSMALL
 10
2854.415140076315
 20
10382.41427062826
 30
0.0
 41
100.0
 42
100.0
 43
100.0
 50
270.0
  0
POINT
  5
24DA
330
2299
100
AcDbEntity
  8
DEFPOINTS
 62
     0
 48
50.0
100
AcDbPoint
 10
3438.08479127592
 20
10619.41427062826
 30
0.0
  0
POINT
  5
24DB
330
2299
100
AcDbEntity
  8
DEFPOINTS
 62
     0
 48
50.0
100
AcDbPoint
 10
3428.08479127592
 20
10382.41427062826
 30
0.0
  0
POINT
  5
24DC
330
2299
100
AcDbEntity
  8
DEFPOINTS
 62
     0
 48
50.0
100
AcDbPoint
 10
2854.415140076315
 20
10382.41427062826
 30
0.0
  0
ENDBLK
  5
22A4
330
2299
100
AcDbEntity
  8
0
 48
50.0
100
AcDbBlockEnd
  0
ENDSEC
  0
SECTION
  2
ENTITIES
  0
MTEXT
  5
1411
330
1A
100
AcDbEntity
  8
0
100
AcDbMText
 10
12113.85383347236
 20
11207.9349056396
 30
0.0
 40
140.0
 41
212.9488506697089
 71
     1
 72
     5
  1

  7
MSMINCHO
 73
     1
 44
1.0
1001
ACAD
1000
MTEXTBEGIN
1070
    73
1070
     1
1070
    44
1040
1.0
1070
    74
1070
     0
1000
MTEXTEND
  0
LINE
  5
1E5F
330
1A
100
AcDbEntity
  8
点線
 48
6.0
100
AcDbLine
 10
6278.084791275916
 20
6078.914270628262
 30
0.0
 11
6278.084791275919
 21
6013.914270628262
 31
0.0
  0
LINE
  5
1E60
330
1A
100
AcDbEntity
  8
点線
 48
6.0
100
AcDbLine
 10
6278.084791275919
 20
6707.514270628265
 30
0.0
 11
6278.084791275919
 21
6642.514270628263
 31
0.0
  0
LINE
  5
1E61
330
1A
100
AcDbEntity
  8
点線
 48
6.0
100
AcDbLine
 10
6278.084791275916
 20
7336.114270628262
 30
0.0
 11
6278.084791275919
 21
7271.114270628263
 31
0.0
  0
LINE
  5
1E62
330
1A
100
AcDbEntity
  8
点線
 48
6.0
100
AcDbLine
 10
6278.084791275919
 20
7964.714270628265
 30
0.0
 11
6278.084791275919
 21
7899.714270628265
 31
0.0
  0
LINE
  5
1E63
330
1A
100
AcDbEntity
  8
点線
 48
6.0
100
AcDbLine
 10
6278.084791275919
 20
8539.114270628259
 30
0.0
 11
6278.084791275919
 21
8474.114270628259
 31
0.0
  0
LINE
  5
1E64
330
1A
100
AcDbEntity
  8
点線
 48
6.0
100
AcDbLine
 10
6278.084791275919
 20
9167.714270628261
 30
0.0
 11
6278.084791275919
 21
9102.714270628263
 31
0.0
  0
LINE
  5
1E65
330
1A
100
AcDbEntity
  8
点線
 48
6.0
100
AcDbLine
 10
6278.084791275919
 20
9796.314270628261
 30
0.0
 11
6278.084791275919
 21
9731.31427062826
 31
0.0
  0
LINE
  5
1E66
330
1A
100
AcDbEntity
  8
点線
 48
6.0
100
AcDbLine
 10
6278.084791275919
 20
10424.91427062826
 30
0.0
 11
6278.084791275919
 21
10359.91427062826
 31
0.0
  0
LINE
  5
1E67
330
1A
100
AcDbEntity
  8
点線
 48
6.0
100
AcDbLine
 10
3708.084791275924
 20
6078.914270628262
 30
0.0
 11
3708.084791275924
 21
6013.914270628262
 31
0.0
  0
LINE
  5
1E68
330
1A
100
AcDbEntity
  8
点線
 48
6.0
100
AcDbLine
 10
3648.084791275924
 20
6078.914270628262
 30
0.0
 11
3648.084791275924
 21
6013.914270628262
 31
0.0
  0
LINE
  5
1E69
330
1A
100
AcDbEntity
  8
点線
 48
6.0
100
AcDbLine
 10
3708.084791275921
 20
6707.514270628262
 30
0.0
 11
3708.084791275921
 21
6642.514270628263
 31
0.0
  0
LINE
  5
1E6A
330
1A
100
AcDbEntity
  8
点線
 48
6.0
100
AcDbLine
 10
3648.08479127592
 20
6707.514270628262
 30
0.0
 11
3648.08479127592
 21
6642.514270628263
 31
0.0
  0
LINE
  5
1E6B
330
1A
100
AcDbEntity
  8
点線
 48
6.0
100
AcDbLine
 10
3708.084791275921
 20
7336.114270628262
 30
0.0
 11
3708.084791275921
 21
7271.114270628263
 31
0.0
  0
LINE
  5
1E6C
330
1A
100
AcDbEntity
  8
点線
 48
6.0
100
AcDbLine
 10
3648.08479127592
 20
7336.114270628262
 30
0.0
 11
3648.08479127592
 21
7271.114270628263
 31
0.0
  0
LINE
  5
1E6D
330
1A
100
AcDbEntity
  8
点線
 48
6.0
100
AcDbLine
 10
3708.084791275921
 20
7964.714270628265
 30
0.0
 11
3708.084791275921
 21
7899.714270628265
 31
0.0
  0
LINE
  5
1E6E
330
1A
100
AcDbEntity
  8
点線
 48
6.0
100
AcDbLine
 10
3648.08479127592
 20
7964.714270628265
 30
0.0
 11
3648.08479127592
 21
7899.714270628265
 31
0.0
  0
LINE
  5
1E6F
330
1A
100
AcDbEntity
  8
点線
 48
6.0
100
AcDbLine
 10
3708.084791275921
 20
8539.114270628259
 30
0.0
 11
3708.084791275921
 21
8474.114270628259
 31
0.0
  0
LINE
  5
1E70
330
1A
100
AcDbEntity
  8
点線
 48
6.0
100
AcDbLine
 10
3648.08479127592
 20
8539.114270628259
 30
0.0
 11
3648.08479127592
 21
8474.114270628259
 31
0.0
  0
LINE
  5
1E71
330
1A
100
AcDbEntity
  8
点線
 48
6.0
100
AcDbLine
 10
3708.084791275921
 20
9167.714270628261
 30
0.0
 11
3708.084791275921
 21
9102.714270628261
 31
0.0
  0
LINE
  5
1E72
330
1A
100
AcDbEntity
  8
点線
 48
6.0
100
AcDbLine
 10
3648.08479127592
 20
9167.714270628259
 30
0.0
 11
3648.08479127592
 21
9102.714270628261
 31
0.0
  0
LINE
  5
1E73
330
1A
100
AcDbEntity
  8
点線
 48
6.0
100
AcDbLine
 10
3708.084791275921
 20
9796.314270628261
 30
0.0
 11
3708.084791275921
 21
9731.314270628262
 31
0.0
  0
LINE
  5
1E74
330
1A
100
AcDbEntity
  8
点線
 48
6.0
100
AcDbLine
 10
3648.08479127592
 20
9796.314270628261
 30
0.0
 11
3648.08479127592
 21
9731.314270628262
 31
0.0
  0
LINE
  5
1E75
330
1A
100
AcDbEntity
  8
点線
 48
6.0
100
AcDbLine
 10
3708.084791275921
 20
10424.91427062826
 30
0.0
 11
3708.084791275921
 21
10359.91427062826
 31
0.0
  0
LINE
  5
1E76
330
1A
100
AcDbEntity
  8
点線
 48
6.0
100
AcDbLine
 10
3648.08479127592
 20
10424.91427062826
 30
0.0
 11
3648.08479127592
 21
10359.91427062826
 31
0.0
  0
LINE
  5
1E77
330
1A
100
AcDbEntity
  8
点線
 48
6.0
100
AcDbLine
 10
3458.084791275918
 20
6078.914270628262
 30
0.0
 11
3458.084791275918
 21
6013.914270628262
 31
0.0
  0
LINE
  5
1E78
330
1A
100
AcDbEntity
  8
点線
 48
6.0
100
AcDbLine
 10
3458.084791275921
 20
6707.514270628265
 30
0.0
 11
3458.084791275918
 21
6642.514270628263
 31
0.0
  0
LINE
  5
1E79
330
1A
100
AcDbEntity
  8
点線
 48
6.0
100
AcDbLine
 10
3458.084791275918
 20
7336.114270628262
 30
0.0
 11
3458.084791275921
 21
7271.114270628263
 31
0.0
  0
LINE
  5
1E7A
330
1A
100
AcDbEntity
  8
点線
 48
6.0
100
AcDbLine
 10
3458.084791275918
 20
7964.714270628265
 30
0.0
 11
3458.084791275918
 21
7899.714270628265
 31
0.0
  0
LINE
  5
1E7B
330
1A
100
AcDbEntity
  8
点線
 48
6.0
100
AcDbLine
 10
3458.084791275921
 20
8539.114270628259
 30
0.0
 11
3458.084791275921
 21
8474.114270628257
 31
0.0
  0
LINE
  5
1E7C
330
1A
100
AcDbEntity
  8
点線
 48
6.0
100
AcDbLine
 10
3458.084791275918
 20
9167.714270628259
 30
0.0
 11
3458.084791275921
 21
9102.714270628261
 31
0.0
  0
LINE
  5
1E7D
330
1A
100
AcDbEntity
  8
点線
 48
6.0
100
AcDbLine
 10
3458.084791275921
 20
9796.314270628261
 30
0.0
 11
3458.084791275918
 21
9731.31427062826
 31
0.0
  0
LINE
  5
1E7E
330
1A
100
AcDbEntity
  8
点線
 48
6.0
100
AcDbLine
 10
3498.08479127592
 20
6013.914270628262
 30
0.0
 11
3458.084791275921
 21
6013.914270628262
 31
0.0
  0
LINE
  5
1E7F
330
1A
100
AcDbEntity
  8
点線
 48
6.0
100
AcDbLine
 10
3498.08479127592
 20
6033.914270628262
 30
0.0
 11
3458.084791275921
 21
6033.914270628262
 31
0.0
  0
LINE
  5
1E80
330
1A
100
AcDbEntity
  8
点線
 48
6.0
100
AcDbLine
 10
3498.08479127592
 20
6078.914270628262
 30
0.0
 11
3458.084791275921
 21
6078.914270628262
 31
0.0
  0
LINE
  5
1E81
330
1A
100
AcDbEntity
  8
点線
 48
6.0
100
AcDbLine
 10
3498.08479127592
 20
6642.514270628263
 30
0.0
 11
3458.084791275921
 21
6642.514270628263
 31
0.0
  0
LINE
  5
1E82
330
1A
100
AcDbEntity
  8
点線
 48
6.0
100
AcDbLine
 10
3498.08479127592
 20
6662.514270628261
 30
0.0
 11
3458.084791275921
 21
6662.514270628261
 31
0.0
  0
LINE
  5
1E83
330
1A
100
AcDbEntity
  8
点線
 48
6.0
100
AcDbLine
 10
3498.08479127592
 20
6707.514270628262
 30
0.0
 11
3458.084791275921
 21
6707.514270628262
 31
0.0
  0
LINE
  5
1E84
330
1A
100
AcDbEntity
  8
点線
 48
6.0
100
AcDbLine
 10
3498.08479127592
 20
7271.114270628263
 30
0.0
 11
3458.084791275921
 21
7271.114270628263
 31
0.0
  0
LINE
  5
1E85
330
1A
100
AcDbEntity
  8
点線
 48
6.0
100
AcDbLine
 10
3498.08479127592
 20
7291.114270628263
 30
0.0
 11
3458.084791275921
 21
7291.114270628263
 31
0.0
  0
LINE
  5
1E86
330
1A
100
AcDbEntity
  8
点線
 48
6.0
100
AcDbLine
 10
3498.08479127592
 20
7336.114270628262
 30
0.0
 11
3458.084791275921
 21
7336.114270628262
 31
0.0
  0
LINE
  5
1E87
330
1A
100
AcDbEntity
  8
点線
 48
6.0
100
AcDbLine
 10
3498.08479127592
 20
7899.714270628265
 30
0.0
 11
3458.084791275921
 21
7899.714270628265
 31
0.0
  0
LINE
  5
1E88
330
1A
100
AcDbEntity
  8
点線
 48
6.0
100
AcDbLine
 10
3498.08479127592
 20
7919.714270628265
 30
0.0
 11
3458.084791275921
 21
7919.714270628265
 31
0.0
  0
LINE
  5
1E89
330
1A
100
AcDbEntity
  8
点線
 48
6.0
100
AcDbLine
 10
3498.08479127592
 20
7964.714270628265
 30
0.0
 11
3458.084791275921
 21
7964.714270628265
 31
0.0
  0
LINE
  5
1E8A
330
1A
100
AcDbEntity
  8
点線
 48
6.0
100
AcDbLine
 10
3498.08479127592
 20
8474.114270628259
 30
0.0
 11
3458.084791275921
 21
8474.114270628259
 31
0.0
  0
LINE
  5
1E8B
330
1A
100
AcDbEntity
  8
点線
 48
6.0
100
AcDbLine
 10
3498.08479127592
 20
8519.114270628259
 30
0.0
 11
3458.084791275921
 21
8519.114270628259
 31
0.0
  0
LINE
  5
1E8C
330
1A
100
AcDbEntity
  8
点線
 48
6.0
100
AcDbLine
 10
3498.08479127592
 20
8539.114270628259
 30
0.0
 11
3458.084791275921
 21
8539.114270628259
 31
0.0
  0
LINE
  5
1E8D
330
1A
100
AcDbEntity
  8
点線
 48
6.0
100
AcDbLine
 10
3498.08479127592
 20
9102.714270628261
 30
0.0
 11
3458.084791275921
 21
9102.714270628261
 31
0.0
  0
LINE
  5
1E8E
330
1A
100
AcDbEntity
  8
点線
 48
6.0
100
AcDbLine
 10
3498.08479127592
 20
9147.714270628261
 30
0.0
 11
3458.084791275921
 21
9147.714270628261
 31
0.0
  0
LINE
  5
1E8F
330
1A
100
AcDbEntity
  8
点線
 48
6.0
100
AcDbLine
 10
3498.08479127592
 20
9167.714270628261
 30
0.0
 11
3458.084791275921
 21
9167.714270628261
 31
0.0
  0
LINE
  5
1E90
330
1A
100
AcDbEntity
  8
点線
 48
6.0
100
AcDbLine
 10
3498.08479127592
 20
9731.314270628262
 30
0.0
 11
3458.084791275921
 21
9731.314270628262
 31
0.0
  0
LINE
  5
1E91
330
1A
100
AcDbEntity
  8
点線
 48
6.0
100
AcDbLine
 10
3498.08479127592
 20
9776.314270628262
 30
0.0
 11
3458.084791275921
 21
9776.314270628262
 31
0.0
  0
LINE
  5
1E92
330
1A
100
AcDbEntity
  8
点線
 48
6.0
100
AcDbLine
 10
3498.08479127592
 20
9796.314270628261
 30
0.0
 11
3458.084791275921
 21
9796.314270628261
 31
0.0
  0
LINE
  5
1E93
330
1A
100
AcDbEntity
  8
点線
 48
6.0
100
AcDbLine
 10
3498.08479127592
 20
10404.91427062826
 30
0.0
 11
3458.084791275921
 21
10404.91427062826
 31
0.0
  0
LINE
  5
1E94
330
1A
100
AcDbEntity
  8
点線
 48
6.0
100
AcDbLine
 10
3498.08479127592
 20
10359.91427062826
 30
0.0
 11
3458.084791275921
 21
10359.91427062826
 31
0.0
  0
LINE
  5
1E95
330
1A
100
AcDbEntity
  8
点線
 48
6.0
100
AcDbLine
 10
3498.08479127592
 20
10424.91427062826
 30
0.0
 11
3458.084791275921
 21
10424.91427062826
 31
0.0
  0
LINE
  5
1E96
330
1A
100
AcDbEntity
  8
点線
 48
6.0
100
AcDbLine
 10
3458.084791275921
 20
10424.91427062826
 30
0.0
 11
3458.084791275921
 21
10359.91427062826
 31
0.0
  0
LINE
  5
1E97
330
1A
100
AcDbEntity
  8
点線
 48
10.0
100
AcDbLine
 10
5958.084791275918
 20
1945.515874945158
 30
0.0
 11
5958.084791275918
 21
1935.515874945158
 31
0.0
  0
LINE
  5
1E98
330
1A
100
AcDbEntity
  8
点線
 48
10.0
100
AcDbLine
 10
6158.08479127592
 20
1945.515874945158
 30
0.0
 11
6158.08479127592
 21
1935.515874945158
 31
0.0
  0
LINE
  5
1E99
330
1A
100
AcDbEntity
  8
点線
 48
10.0
100
AcDbLine
 10
5958.084791275918
 20
1945.515874945158
 30
0.0
 11
6028.08479127592
 21
1945.515874945158
 31
0.0
  0
LINE
  5
1E9A
330
1A
100
AcDbEntity
  8
点線
 48
10.0
100
AcDbLine
 10
6088.08479127592
 20
1945.515874945158
 30
0.0
 11
6158.08479127592
 21
1945.515874945158
 31
0.0
  0
LINE
  5
1E9B
330
1A
100
AcDbEntity
  8
点線
 48
10.0
100
AcDbLine
 10
6088.08479127592
 20
1935.515874945158
 30
0.0
 11
6158.08479127592
 21
1935.515874945158
 31
0.0
  0
LINE
  5
1E9C
330
1A
100
AcDbEntity
  8
点線
 48
10.0
100
AcDbLine
 10
5958.084791275918
 20
1935.515874945158
 30
0.0
 11
6028.08479127592
 21
1935.515874945158
 31
0.0
  0
LINE
  5
1E9D
330
1A
100
AcDbEntity
  8
点線
 48
10.0
100
AcDbLine
 10
3578.084791275919
 20
1935.515874945158
 30
0.0
 11
3648.08479127592
 21
1935.515874945158
 31
0.0
  0
LINE
  5
1E9E
330
1A
100
AcDbEntity
  8
点線
 48
10.0
100
AcDbLine
 10
3708.084791275921
 20
1935.515874945158
 30
0.0
 11
3778.08479127592
 21
1935.515874945158
 31
0.0
  0
LINE
  5
1E9F
330
1A
100
AcDbEntity
  8
点線
 48
10.0
100
AcDbLine
 10
3708.084791275921
 20
1945.515874945158
 30
0.0
 11
3778.08479127592
 21
1945.515874945158
 31
0.0
  0
LINE
  5
1EA0
330
1A
100
AcDbEntity
  8
点線
 48
10.0
100
AcDbLine
 10
3578.084791275919
 20
1945.515874945158
 30
0.0
 11
3648.08479127592
 21
1945.515874945158
 31
0.0
  0
LINE
  5
1EA1
330
1A
100
AcDbEntity
  8
点線
 48
10.0
100
AcDbLine
 10
3778.08479127592
 20
1945.515874945158
 30
0.0
 11
3778.08479127592
 21
1935.515874945158
 31
0.0
  0
LINE
  5
1EA2
330
1A
100
AcDbEntity
  8
点線
 48
10.0
100
AcDbLine
 10
3578.084791275919
 20
1945.515874945158
 30
0.0
 11
3578.084791275919
 21
1935.515874945158
 31
0.0
  0
TEXT
  5
1EA3
330
1A
100
AcDbEntity
  8
部品1
 48
50.0
100
AcDbText
 10
2755.194718537512
 20
2229.907175375487
 30
0.0
 40
100.0
  1
▽G.L
  7
STYLE2
100
AcDbText
  0
TEXT
  5
1EA4
330
1A
100
AcDbEntity
  8
文字
 62
     7
 48
50.0
100
AcDbText
 10
14471.43536713046
 20
8887.611511297413
 30
0.0
 40
108.152
  1
Y10            1.0
  7
STYLE1
100
AcDbText
  0
TEXT
  5
1EA5
330
1A
100
AcDbEntity
  8
文字
 62
     7
 48
50.0
100
AcDbText
 10
14492.88190658431
 20
9255.328311297409
 30
0.0
 40
108.152
  1
F12            2.3
  7
STYLE1
100
AcDbText
  0
TEXT
  5
1EA6
330
1A
100
AcDbEntity
  8
文字
 62
     7
 48
50.0
100
AcDbText
 10
14471.43536713046
 20
9439.186711297413
 30
0.0
 40
108.152
  1
Y10            0.7
  7
STYLE1
100
AcDbText
  0
TEXT
  5
1EA7
330
1A
100
AcDbEntity
  8
文字
 62
     7
 48
50.0
100
AcDbText
 10
14471.43536713046
 20
9623.045111297413
 30
0.0
 40
108.152
  1
Y10            0.7
  7
STYLE1
100
AcDbText
  0
TEXT
  5
1EA8
330
1A
100
AcDbEntity
  8
文字
 62
     7
 48
50.0
100
AcDbText
 10
14471.43536713046
 20
9806.903511297413
 30
0.0
 40
108.152
  1
Y10            0.5
  7
STYLE1
100
AcDbText
  0
TEXT
  5
1EA9
330
1A
100
AcDbEntity
  8
文字
 62
     7
 48
50.0
100
AcDbText
 10
14471.43536713046
 20
9990.761911297411
 30
0.0
 40
108.152
  1
Y10            0.6
  7
STYLE1
100
AcDbText
  0
TEXT
  5
1EAA
330
1A
100
AcDbEntity
  8
文字
 62
     7
 48
50.0
100
AcDbText
 10
14492.8819065843
 20
10358.47871129741
 30
0.0
 40
108.152
  1
F12            2.3
  7
STYLE1
100
AcDbText
  0
TEXT
  5
1EAB
330
1A
100
AcDbEntity
  8
文字
 62
     7
 48
50.0
100
AcDbText
 10
12972.97413258588
 20
10174.62031129741
 30
0.0
 40
108.152
  1
母屋
  7
STYLE1
100
AcDbText
  0
TEXT
  5
1EAC
330
1A
100
AcDbEntity
  8
文字
 62
     7
 48
50.0
100
AcDbText
 10
14492.88190658432
 20
10174.62031129741
 30
0.0
 40
108.152
  1
F12            2.3
  7
STYLE1
100
AcDbText
  0
LINE
  5
1EAD
330
1A
100
AcDbEntity
  8
部品1
100
AcDbLine
 10
12482.15961118431
 20
10877.16083684924
 30
0.0
 11
12482.15961118431
 21
8303.143236849244
 31
0.0
  0
TEXT
  5
1EAE
330
1A
100
AcDbEntity
  8
文字
 62
     7
 48
50.0
100
AcDbText
 10
14492.88190658431
 20
10542.33711129741
 30
0.0
 40
108.152
  1
PZ            2.3
  7
STYLE1
100
AcDbText
  0
LINE
  5
1EAF
330
1A
100
AcDbEntity
  8
部品1
100
AcDbLine
 10
15882.15961118431
 20
8303.143236849242
 30
0.0
 11
12482.15961118431
 21
8303.143236849244
 31
0.0
  0
LINE
  5
1EB0
330
1A
100
AcDbEntity
  8
部品1
100
AcDbLine
 10
15882.15961118431
 20
9038.576836849241
 30
0.0
 11
12482.15961118431
 21
9038.576836849243
 31
0.0
  0
LINE
  5
1EB1
330
1A
100
AcDbEntity
  8
部品1
100
AcDbLine
 10
15882.15961118431
 20
9590.152036849243
 30
0.0
 11
12482.1596111843
 21
9590.152036849243
 31
0.0
  0
LINE
  5
1EB2
330
1A
100
AcDbEntity
  8
部品1
100
AcDbLine
 10
15882.15961118431
 20
8670.860036849241
 30
0.0
 11
12482.15961118431
 21
8670.860036849241
 31
0.0
  0
LINE
  5
1EB3
330
1A
100
AcDbEntity
  8
部品1
100
AcDbLine
 10
15882.15961118431
 20
8487.001636849241
 30
0.0
 11
12482.15961118431
 21
8487.001636849242
 31
0.0
  0
LINE
  5
1EB4
330
1A
100
AcDbEntity
  8
部品1
100
AcDbLine
 10
15882.15961118431
 20
8854.718436849237
 30
0.0
 11
12482.1596111843
 21
8854.718436849237
 31
0.0
  0
TEXT
  5
1EB5
330
1A
100
AcDbEntity
  8
文字
 62
     7
 48
50.0
100
AcDbText
 10
12635.61790509175
 20
9623.045111297409
 30
0.0
 40
108.152
  1
6
  7
STYLE1
100
AcDbText
  0
TEXT
  5
1EB6
330
1A
100
AcDbEntity
  8
文字
 62
     7
 48
50.0
100
AcDbText
 10
12635.61790509174
 20
9439.186711297411
 30
0.0
 40
108.152
  1
7
  7
STYLE1
100
AcDbText
  0
TEXT
  5
1EB7
330
1A
100
AcDbEntity
  8
文字
 62
     7
 48
50.0
100
AcDbText
 10
12635.61790509174
 20
9071.469911297409
 30
0.0
 40
108.152
  1
9
  7
STYLE1
100
AcDbText
  0
TEXT
  5
1EB8
330
1A
100
AcDbEntity
  8
文字
 62
     7
 48
50.0
100
AcDbText
 10
12635.61790509174
 20
9255.328311297409
 30
0.0
 40
108.152
  1
8
  7
STYLE1
100
AcDbText
  0
TEXT
  5
1EB9
330
1A
100
AcDbEntity
  8
文字
 62
     7
 48
50.0
100
AcDbText
 10
12611.37796087547
 20
8887.611511297407
 30
0.0
 40
108.152
  1
10
  7
STYLE1
100
AcDbText
  0
TEXT
  5
1EBA
330
1A
100
AcDbEntity
  8
文字
 62
     7
 48
50.0
100
AcDbText
 10
12635.61790509175
 20
9806.903511297408
 30
0.0
 40
108.152
  1
5
  7
STYLE1
100
AcDbText
  0
TEXT
  5
1EBB
330
1A
100
AcDbEntity
  8
文字
 62
     7
 48
50.0
100
AcDbText
 10
12972.97413258588
 20
9439.186711297413
 30
0.0
 40
108.152
  1
鼻隠シ
  7
STYLE1
100
AcDbText
  0
TEXT
  5
1EBC
330
1A
100
AcDbEntity
  8
文字
 62
     7
 48
50.0
100
AcDbText
 10
12972.97413258588
 20
10358.47871129741
 30
0.0
 40
108.152
  1
梁
  7
STYLE1
100
AcDbText
  0
TEXT
  5
1EBD
330
1A
100
AcDbEntity
  8
文字
 62
     7
 48
50.0
100
AcDbText
 10
12972.97413258587
 20
10542.33711129741
 30
0.0
 40
108.152
  1
柱
  7
STYLE1
100
AcDbText
  0
TEXT
  5
1EBE
330
1A
100
AcDbEntity
  8
文字
 62
     7
 48
50.0
100
AcDbText
 10
14316.76512559486
 20
10726.19551129741
 30
0.0
 40
108.152
  1
材料（材質）　　単位mm
  7
STYLE1
100
AcDbText
  0
TEXT
  5
1EBF
330
1A
100
AcDbEntity
  8
文字
 62
     7
 48
50.0
100
AcDbText
 10
13159.80741851461
 20
10726.19551129741
 30
0.0
 40
108.152
  1
部　　品　　名
  7
STYLE1
100
AcDbText
  0
TEXT
  5
1EC0
330
1A
100
AcDbEntity
  8
文字
 62
     7
 48
50.0
100
AcDbText
 10
12635.61790509175
 20
10174.62031129741
 30
0.0
 40
108.152
  1
3
  7
STYLE1
100
AcDbText
  0
TEXT
  5
1EC1
330
1A
100
AcDbEntity
  8
文字
 62
     7
 48
50.0
100
AcDbText
 10
12635.61790509175
 20
9990.761911297411
 30
0.0
 40
108.152
  1
4
  7
STYLE1
100
AcDbText
  0
TEXT
  5
1EC2
330
1A
100
AcDbEntity
  8
文字
 62
     7
 48
50.0
100
AcDbText
 10
12635.61790509175
 20
10358.47871129741
 30
0.0
 40
108.152
  1
2
  7
STYLE1
100
AcDbText
  0
TEXT
  5
1EC3
330
1A
100
AcDbEntity
  8
文字
 62
     7
 48
50.0
100
AcDbText
 10
12635.61790509175
 20
10542.33711129741
 30
0.0
 40
108.152
  1
1
  7
STYLE1
100
AcDbText
  0
TEXT
  5
1EC4
330
1A
100
AcDbEntity
  8
文字
 62
     7
 48
50.0
100
AcDbText
 10
12555.83943429238
 20
10726.19551129741
 30
0.0
 40
108.152
  1
品番
  7
STYLE1
100
AcDbText
  0
LINE
  5
1EC5
330
1A
100
AcDbEntity
  8
部品1
100
AcDbLine
 10
15882.15961118431
 20
10141.72723684924
 30
0.0
 11
12482.15961118431
 21
10141.72723684924
 31
0.0
  0
LINE
  5
1EC6
330
1A
100
AcDbEntity
  8
部品1
100
AcDbLine
 10
15882.15961118431
 20
9774.010436849245
 30
0.0
 11
12482.15961118431
 21
9774.010436849245
 31
0.0
  0
LINE
  5
1EC7
330
1A
100
AcDbEntity
  8
部品1
100
AcDbLine
 10
15882.15961118431
 20
9957.868836849241
 30
0.0
 11
12482.15961118431
 21
9957.868836849241
 31
0.0
  0
LINE
  5
1EC8
330
1A
100
AcDbEntity
  8
部品1
100
AcDbLine
 10
15882.15961118431
 20
10509.44403684924
 30
0.0
 11
12482.1596111843
 21
10509.44403684924
 31
0.0
  0
LINE
  5
1EC9
330
1A
100
AcDbEntity
  8
部品1
100
AcDbLine
 10
15882.15961118431
 20
10325.58563684924
 30
0.0
 11
12482.1596111843
 21
10325.58563684924
 31
0.0
  0
LINE
  5
1ECA
330
1A
100
AcDbEntity
  8
部品1
100
AcDbLine
 10
15882.15961118431
 20
10693.30243684924
 30
0.0
 11
12482.1596111843
 21
10693.30243684924
 31
0.0
  0
LINE
  5
1ECB
330
1A
100
AcDbEntity
  8
部品1
100
AcDbLine
 10
12872.48125155787
 20
10877.16083684924
 30
0.0
 11
12872.48125155789
 21
8854.718436849237
 31
0.0
  0
LINE
  5
1ECC
330
1A
100
AcDbEntity
  8
部品1
100
AcDbLine
 10
14236.08617118431
 20
10877.16083684924
 30
0.0
 11
14236.08617118431
 21
8854.718436849237
 31
0.0
  0
LINE
  5
1ECD
330
1A
100
AcDbEntity
  8
部品1
100
AcDbLine
 10
15882.15961118431
 20
8303.143236849242
 30
0.0
 11
15882.15961118431
 21
10877.16083684924
 31
0.0
  0
LINE
  5
1ECE
330
1A
100
AcDbEntity
  8
部品1
100
AcDbLine
 10
15882.15961118431
 20
10877.16083684924
 30
0.0
 11
12482.1596111843
 21
10877.16083684924
 31
0.0
  0
LINE
  5
1ECF
330
1A
100
AcDbEntity
  8
部品1
100
AcDbLine
 10
15882.15961118431
 20
9222.435236849243
 30
0.0
 11
12482.15961118431
 21
9222.435236849246
 31
0.0
  0
TEXT
  5
1ED0
330
1A
100
AcDbEntity
  8
文字
 62
     7
 48
50.0
100
AcDbText
 10
12972.97413258588
 20
9990.761911297411
 30
0.0
 40
108.152
  1
腰パネル
  7
STYLE1
100
AcDbText
  0
TEXT
  5
1ED1
330
1A
100
AcDbEntity
  8
文字
 62
     7
 48
50.0
100
AcDbText
 10
12972.97413258588
 20
9806.903511297413
 30
0.0
 40
108.152
  1
屋根パネル
  7
STYLE1
100
AcDbText
  0
TEXT
  5
1ED2
330
1A
100
AcDbEntity
  8
文字
 62
     7
 48
50.0
100
AcDbText
 10
12972.97413258588
 20
9255.328311297409
 30
0.0
 40
108.152
  1
プレート
  7
STYLE1
100
AcDbText
  0
TEXT
  5
1ED3
330
1A
100
AcDbEntity
  8
文字
 62
     7
 48
50.0
100
AcDbText
 10
12972.97413258588
 20
9071.469911297411
 30
0.0
 40
108.152
  1
車止メ棒
  7
STYLE1
100
AcDbText
  0
TEXT
  5
1ED4
330
1A
100
AcDbEntity
  8
文字
 62
     7
 48
50.0
100
AcDbText
 10
12972.97413258588
 20
8887.611511297414
 30
0.0
 40
108.152
  1
棟板
  7
STYLE1
100
AcDbText
  0
TEXT
  5
1ED5
330
1A
100
AcDbEntity
  8
文字
 62
     7
 48
50.0
100
AcDbText
 10
12590.88677228981
 20
8519.894711297409
 30
0.0
 40
108.152
  1
F12→溶融亜鉛めっき鋼板(JIS G 3302)
  7
STYLE1
100
AcDbText
  0
TEXT
  5
1ED6
330
1A
100
AcDbEntity
  8
文字
 62
     7
 48
50.0
100
AcDbText
 10
12590.8867722898
 20
8336.036311297407
 30
0.0
 40
108.152
  1
Y10→溶融亜鉛-5％アルミニウム合金めっき鋼板(JIS G 3317)
 41
0.9
  7
STYLE1
100
AcDbText
  0
TEXT
  5
1ED7
330
1A
100
AcDbEntity
  8
文字
 62
     7
 48
50.0
100
AcDbText
 10
12590.88677229002
 20
8703.753111297407
 30
0.0
 40
108.152
  1
PZ→一般構造用角形鋼管(JIS G 3466)
 41
0.9
  7
STYLE1
100
AcDbText
  0
LINE
  5
1ED8
330
1A
100
AcDbEntity
  8
部品1
100
AcDbLine
 10
15882.15961118431
 20
9406.293636849243
 30
0.0
 11
12482.1596111843
 21
9406.293636849243
 31
0.0
  0
TEXT
  5
1ED9
330
1A
100
AcDbEntity
  8
文字
 62
     7
 48
50.0
100
AcDbText
 10
12972.97413258588
 20
9623.045111297413
 30
0.0
 40
108.152
  1
妻板
  7
STYLE1
100
AcDbText
  0
TEXT
  5
1EDA
330
1A
100
AcDbEntity
  8
文字
 62
     7
 48
50.0
100
AcDbText
 10
14492.88190658432
 20
9071.469911297411
 30
0.0
 40
108.152
  1
F12            1.2
  7
STYLE1
100
AcDbText
  0
TEXT
  5
1EDB
330
1A
100
AcDbEntity
  8
仕様書枠
 62
     7
 48
50.0
100
AcDbText
 10
14507.17944936723
 20
1295.557706291227
 30
0.0
 40
100.0
  1
NO.02     <縮尺> S=1/40
  7
STYLE2
100
AcDbText
  0
LINE
  5
1EDC
330
1A
100
AcDbEntity
  8
寸法
100
AcDbLine
 10
7586.48348345903
 20
4500.515874945159
 30
0.0
 11
7586.48348345903
 21
4800.515874945158
 31
0.0
  0
LINE
  5
1EDD
330
1A
100
AcDbEntity
  8
寸法
100
AcDbLine
 10
6923.537714463041
 20
5819.414270628262
 30
0.0
 11
6923.537714463041
 21
5519.414270628262
 31
0.0
  0
LINE
  5
1EDE
330
1A
100
AcDbEntity
  8
寸法
100
AcDbLine
 10
6923.537714463041
 20
10619.41427062826
 30
0.0
 11
6923.537714463041
 21
10919.41427062826
 31
0.0
  0
LINE
  5
1EDF
330
1A
100
AcDbEntity
  8
部品1
100
AcDbLine
 10
6249.58479127592
 20
4472.54899328792
 30
0.0
 11
6263.08479127592
 21
4472.54899328792
 31
0.0
  0
LINE
  5
1EE0
330
1A
100
AcDbEntity
  8
部品1
100
AcDbLine
 10
6249.58479127592
 20
4490.548993287917
 30
0.0
 11
6249.58479127592
 21
4387.515874945158
 31
0.0
  0
LINE
  5
1EE1
330
1A
100
AcDbEntity
  8
部品1
100
AcDbLine
 10
6215.084791275922
 20
4490.548993287917
 30
0.0
 11
6215.084791275922
 21
4387.515874945158
 31
0.0
  0
LINE
  5
1EE2
330
1A
100
AcDbEntity
  8
部品1
100
AcDbLine
 10
6215.084791275923
 20
4490.548993287921
 30
0.0
 11
6249.584791275918
 21
4490.548993287917
 31
0.0
  0
LINE
  5
1EE3
330
1A
100
AcDbEntity
  8
部品1
100
AcDbLine
 10
5998.08479127592
 20
4472.54899328792
 30
0.0
 11
6215.08479127592
 21
4472.54899328792
 31
0.0
  0
LINE
  5
1EE4
330
1A
100
AcDbEntity
  8
部品1
100
AcDbLine
 10
5998.08479127592
 20
4490.548993287917
 30
0.0
 11
5998.08479127592
 21
4387.515874945158
 31
0.0
  0
LINE
  5
1EE5
330
1A
100
AcDbEntity
  8
部品1
100
AcDbLine
 10
5953.084791275919
 20
4490.548993287917
 30
0.0
 11
5953.084791275919
 21
4387.515874945158
 31
0.0
  0
LINE
  5
1EE6
330
1A
100
AcDbEntity
  8
部品1
100
AcDbLine
 10
5953.084791275919
 20
4490.548993287917
 30
0.0
 11
5998.08479127592
 21
4490.548993287917
 31
0.0
  0
LINE
  5
1EE7
330
1A
100
AcDbEntity
  8
部品1
100
AcDbLine
 10
5925.08479127592
 20
4490.548993287917
 30
0.0
 11
5925.08479127592
 21
4387.515874945158
 31
0.0
  0
LINE
  5
1EE8
330
1A
100
AcDbEntity
  8
部品1
100
AcDbLine
 10
5880.08479127592
 20
4490.548993287917
 30
0.0
 11
5880.08479127592
 21
4387.515874945158
 31
0.0
  0
LINE
  5
1EE9
330
1A
100
AcDbEntity
  8
部品1
100
AcDbLine
 10
5880.084791275922
 20
4490.548993287917
 30
0.0
 11
5925.08479127592
 21
4490.548993287917
 31
0.0
  0
LINE
  5
1EEA
330
1A
100
AcDbEntity
  8
部品1
100
AcDbLine
 10
5925.08479127592
 20
4472.54899328792
 30
0.0
 11
5953.084791275919
 21
4472.54899328792
 31
0.0
  0
LINE
  5
1EEB
330
1A
100
AcDbEntity
  8
部品1
100
AcDbLine
 10
5669.584791275919
 20
4472.54899328792
 30
0.0
 11
5880.08479127592
 21
4472.54899328792
 31
0.0
  0
LINE
  5
1EEC
330
1A
100
AcDbEntity
  8
部品1
100
AcDbLine
 10
5635.084791275922
 20
4490.548993287917
 30
0.0
 11
5635.084791275923
 21
4387.515874945158
 31
0.0
  0
LINE
  5
1EED
330
1A
100
AcDbEntity
  8
部品1
100
AcDbLine
 10
5669.584791275919
 20
4490.548993287917
 30
0.0
 11
5669.584791275919
 21
4387.515874945158
 31
0.0
  0
LINE
  5
1EEE
330
1A
100
AcDbEntity
  8
部品1
100
AcDbLine
 10
5635.084791275923
 20
4490.548993287921
 30
0.0
 11
5669.584791275919
 21
4490.548993287917
 31
0.0
  0
LINE
  5
1EEF
330
1A
100
AcDbEntity
  8
部品1
100
AcDbLine
 10
5419.262452336433
 20
4472.54899328792
 30
0.0
 11
5635.084791275923
 21
4472.54899328792
 31
0.0
  0
LINE
  5
1EF0
330
1A
100
AcDbEntity
  8
部品1
100
AcDbLine
 10
5345.08479127592
 20
4472.54899328792
 30
0.0
 11
5373.08479127592
 21
4472.54899328792
 31
0.0
  0
LINE
  5
1EF1
330
1A
100
AcDbEntity
  8
部品1
100
AcDbLine
 10
5300.08479127592
 20
4490.548993287917
 30
0.0
 11
5300.08479127592
 21
4387.515874945158
 31
0.0
  0
LINE
  5
1EF2
330
1A
100
AcDbEntity
  8
部品1
100
AcDbLine
 10
5345.08479127592
 20
4490.548993287917
 30
0.0
 11
5345.08479127592
 21
4387.515874945158
 31
0.0
  0
LINE
  5
1EF3
330
1A
100
AcDbEntity
  8
部品1
100
AcDbLine
 10
5300.08479127592
 20
4490.548993287917
 30
0.0
 11
5345.08479127592
 21
4490.548993287921
 31
0.0
  0
LINE
  5
1EF4
330
1A
100
AcDbEntity
  8
部品1
100
AcDbLine
 10
5373.08479127592
 20
4490.548993287921
 30
0.0
 11
5373.08479127592
 21
4387.515874945158
 31
0.0
  0
LINE
  5
1EF5
330
1A
100
AcDbEntity
  8
部品1
100
AcDbLine
 10
5419.26245233643
 20
4490.548993287921
 30
0.0
 11
5419.262452336429
 21
4387.515874945158
 31
0.0
  0
LINE
  5
1EF6
330
1A
100
AcDbEntity
  8
部品1
100
AcDbLine
 10
5373.08479127592
 20
4490.548993287921
 30
0.0
 11
5419.262452336429
 21
4490.548993287917
 31
0.0
  0
LINE
  5
1EF7
330
1A
100
AcDbEntity
  8
部品1
100
AcDbLine
 10
5055.084791275916
 20
4490.548993287917
 30
0.0
 11
5055.084791275918
 21
4387.515874945158
 31
0.0
  0
LINE
  5
1EF8
330
1A
100
AcDbEntity
  8
部品1
100
AcDbLine
 10
5089.58479127592
 20
4490.548993287917
 30
0.0
 11
5089.58479127592
 21
4387.515874945158
 31
0.0
  0
LINE
  5
1EF9
330
1A
100
AcDbEntity
  8
部品1
100
AcDbLine
 10
5055.084791275916
 20
4490.548993287917
 30
0.0
 11
5089.58479127592
 21
4490.548993287917
 31
0.0
  0
LINE
  5
1EFA
330
1A
100
AcDbEntity
  8
部品1
100
AcDbLine
 10
4936.084791275924
 20
4490.548993287921
 30
0.0
 11
4936.084791275924
 21
4387.515874945158
 31
0.0
  0
LINE
  5
1EFB
330
1A
100
AcDbEntity
  8
部品1
100
AcDbLine
 10
4891.08479127592
 20
4490.548993287921
 30
0.0
 11
4891.08479127592
 21
4387.515874945158
 31
0.0
  0
LINE
  5
1EFC
330
1A
100
AcDbEntity
  8
部品1
100
AcDbLine
 10
4818.08479127592
 20
4490.548993287921
 30
0.0
 11
4818.08479127592
 21
4387.515874945158
 31
0.0
  0
LINE
  5
1EFD
330
1A
100
AcDbEntity
  8
部品1
100
AcDbLine
 10
4863.08479127592
 20
4490.548993287921
 30
0.0
 11
4863.08479127592
 21
4387.515874945158
 31
0.0
  0
LINE
  5
1EFE
330
1A
100
AcDbEntity
  8
部品1
100
AcDbLine
 10
4863.08479127592
 20
4472.54899328792
 30
0.0
 11
4891.08479127592
 21
4472.54899328792
 31
0.0
  0
LINE
  5
1EFF
330
1A
100
AcDbEntity
  8
部品1
100
AcDbLine
 10
4863.08479127592
 20
4490.548993287917
 30
0.0
 11
4818.08479127592
 21
4490.548993287921
 31
0.0
  0
LINE
  5
1F00
330
1A
100
AcDbEntity
  8
部品1
100
AcDbLine
 10
4936.084791275924
 20
4490.548993287917
 30
0.0
 11
4891.08479127592
 21
4490.548993287917
 31
0.0
  0
LINE
  5
1F01
330
1A
100
AcDbEntity
  8
部品1
100
AcDbLine
 10
4936.084791275924
 20
4472.54899328792
 30
0.0
 11
5055.08479127592
 21
4472.54899328792
 31
0.0
  0
LINE
  5
1F02
330
1A
100
AcDbEntity
  8
部品1
100
AcDbLine
 10
4681.08479127592
 20
4472.548993287925
 30
0.0
 11
4818.08479127592
 21
4472.54899328792
 31
0.0
  0
LINE
  5
1F03
330
1A
100
AcDbEntity
  8
部品1
100
AcDbLine
 10
5089.58479127592
 20
4472.54899328792
 30
0.0
 11
5300.08479127592
 21
4472.54899328792
 31
0.0
  0
LINE
  5
1F04
330
1A
100
AcDbEntity
  8
部品1
100
AcDbLine
 10
4681.08479127592
 20
4490.548993287921
 30
0.0
 11
4681.08479127592
 21
4387.515874945158
 31
0.0
  0
LINE
  5
1F05
330
1A
100
AcDbEntity
  8
部品1
100
AcDbLine
 10
4646.58479127592
 20
4490.548993287921
 30
0.0
 11
4646.58479127592
 21
4387.515874945158
 31
0.0
  0
LINE
  5
1F06
330
1A
100
AcDbEntity
  8
部品1
100
AcDbLine
 10
4681.08479127592
 20
4490.548993287921
 30
0.0
 11
4646.58479127592
 21
4490.548993287921
 31
0.0
  0
LINE
  5
1F07
330
1A
100
AcDbEntity
  8
部品1
100
AcDbLine
 10
4436.084791275919
 20
4490.548993287921
 30
0.0
 11
4436.084791275919
 21
4387.515874945158
 31
0.0
  0
LINE
  5
1F08
330
1A
100
AcDbEntity
  8
部品1
100
AcDbLine
 10
4391.08479127592
 20
4490.548993287921
 30
0.0
 11
4391.08479127592
 21
4387.515874945158
 31
0.0
  0
LINE
  5
1F09
330
1A
100
AcDbEntity
  8
部品1
100
AcDbLine
 10
4363.08479127592
 20
4490.548993287921
 30
0.0
 11
4363.08479127592
 21
4387.515874945158
 31
0.0
  0
LINE
  5
1F0A
330
1A
100
AcDbEntity
  8
部品1
100
AcDbLine
 10
4318.08479127592
 20
4490.548993287921
 30
0.0
 11
4318.08479127592
 21
4387.515874945158
 31
0.0
  0
LINE
  5
1F0B
330
1A
100
AcDbEntity
  8
部品1
100
AcDbLine
 10
4363.08479127592
 20
4472.54899328792
 30
0.0
 11
4391.08479127592
 21
4472.54899328792
 31
0.0
  0
LINE
  5
1F0C
330
1A
100
AcDbEntity
  8
部品1
100
AcDbLine
 10
4363.08479127592
 20
4490.548993287917
 30
0.0
 11
4318.08479127592
 21
4490.548993287917
 31
0.0
  0
LINE
  5
1F0D
330
1A
100
AcDbEntity
  8
部品1
100
AcDbLine
 10
4436.084791275919
 20
4490.548993287917
 30
0.0
 11
4391.08479127592
 21
4490.548993287921
 31
0.0
  0
LINE
  5
1F0E
330
1A
100
AcDbEntity
  8
部品1
100
AcDbLine
 10
4101.08479127592
 20
4472.54899328792
 30
0.0
 11
4318.08479127592
 21
4472.54899328792
 31
0.0
  0
LINE
  5
1F0F
330
1A
100
AcDbEntity
  8
部品1
100
AcDbLine
 10
4436.084791275919
 20
4472.54899328792
 30
0.0
 11
4646.58479127592
 21
4472.54899328792
 31
0.0
  0
LINE
  5
1F10
330
1A
100
AcDbEntity
  8
部品1
100
AcDbLine
 10
4101.08479127592
 20
4490.548993287921
 30
0.0
 11
4101.08479127592
 21
4387.515874945158
 31
0.0
  0
LINE
  5
1F11
330
1A
100
AcDbEntity
  8
部品1
100
AcDbLine
 10
4066.58479127592
 20
4490.548993287921
 30
0.0
 11
4066.584791275921
 21
4387.515874945158
 31
0.0
  0
LINE
  5
1F12
330
1A
100
AcDbEntity
  8
部品1
100
AcDbLine
 10
4101.08479127592
 20
4490.548993287917
 30
0.0
 11
4066.58479127592
 21
4490.548993287921
 31
0.0
  0
LINE
  5
1F13
330
1A
100
AcDbEntity
  8
部品1
100
AcDbLine
 10
3856.08479127592
 20
4490.548993287921
 30
0.0
 11
3811.08479127592
 21
4490.548993287921
 31
0.0
  0
LINE
  5
1F14
330
1A
100
AcDbEntity
  8
部品1
100
AcDbLine
 10
3811.08479127592
 20
4490.548993287921
 30
0.0
 11
3811.08479127592
 21
4387.515874945158
 31
0.0
  0
LINE
  5
1F15
330
1A
100
AcDbEntity
  8
部品1
100
AcDbLine
 10
3856.08479127592
 20
4490.548993287921
 30
0.0
 11
3856.08479127592
 21
4387.515874945158
 31
0.0
  0
LINE
  5
1F16
330
1A
100
AcDbEntity
  8
部品1
100
AcDbLine
 10
3856.08479127592
 20
4472.54899328792
 30
0.0
 11
4066.58479127592
 21
4472.54899328792
 31
0.0
  0
LINE
  5
1F17
330
1A
100
AcDbEntity
  8
部品1
100
AcDbLine
 10
3783.08479127592
 20
4490.548993287921
 30
0.0
 11
3783.084791275922
 21
4387.515874945158
 31
0.0
  0
LINE
  5
1F18
330
1A
100
AcDbEntity
  8
部品1
100
AcDbLine
 10
3738.084791275918
 20
4490.548993287921
 30
0.0
 11
3738.08479127592
 21
4387.515874945158
 31
0.0
  0
LINE
  5
1F19
330
1A
100
AcDbEntity
  8
部品1
100
AcDbLine
 10
3783.08479127592
 20
4490.548993287921
 30
0.0
 11
3738.084791275918
 21
4490.548993287921
 31
0.0
  0
LINE
  5
1F1A
330
1A
100
AcDbEntity
  8
部品1
100
AcDbLine
 10
3783.084791275922
 20
4472.54899328792
 30
0.0
 11
3811.08479127592
 21
4472.54899328792
 31
0.0
  0
LINE
  5
1F1B
330
1A
100
AcDbEntity
  8
部品1
100
AcDbLine
 10
3521.08479127592
 20
4472.54899328792
 30
0.0
 11
3738.08479127592
 21
4472.54899328792
 31
0.0
  0
LINE
  5
1F1C
330
1A
100
AcDbEntity
  8
部品1
100
AcDbLine
 10
3521.08479127592
 20
4490.548993287921
 30
0.0
 11
3521.08479127592
 21
4387.515874945158
 31
0.0
  0
LINE
  5
1F1D
330
1A
100
AcDbEntity
  8
部品1
100
AcDbLine
 10
3486.58479127592
 20
4490.548993287921
 30
0.0
 11
3486.58479127592
 21
4387.515874945158
 31
0.0
  0
LINE
  5
1F1E
330
1A
100
AcDbEntity
  8
部品1
100
AcDbLine
 10
3473.08479127592
 20
4472.54899328792
 30
0.0
 11
3486.58479127592
 21
4472.54899328792
 31
0.0
  0
LINE
  5
1F1F
330
1A
100
AcDbEntity
  8
部品1
100
AcDbLine
 10
3521.08479127592
 20
4490.548993287921
 30
0.0
 11
3486.58479127592
 21
4490.548993287921
 31
0.0
  0
TEXT
  5
1F20
330
1A
100
AcDbEntity
  8
文字
 62
     7
 48
50.0
100
AcDbText
 10
13190.23669998442
 20
741.2740661031275
 30
0.0
 40
160.0
  1
機種名
  7
STYLE2
100
AcDbText
  0
LINE
  5
1F21
330
1A
100
AcDbEntity
  8
仕様書枠
 48
50.0
100
AcDbLine
 10
13096.0
 20
1064.0
 30
0.0
 11
14240.0
 21
1064.0
 31
0.0
  0
TEXT
  5
1F22
330
1A
100
AcDbEntity
  8
文字
 62
     7
 48
50.0
100
AcDbText
 10
13151.7790565769
 20
1159.090607429942
 30
0.0
 40
200.0
  1
外 形 図
  7
STYLE2
100
AcDbText
  0
LINE
  5
1F23
330
1A
100
AcDbEntity
  8
仕様書枠
  6
Continuous
 48
50.0
100
AcDbLine
 10
14240.0
 20
1464.0
 30
0.0
 11
14240.0
 21
1064.0
 31
0.0
  0
TEXT
  5
1F24
330
1A
100
AcDbEntity
  8
文字
 62
     7
 48
50.0
100
AcDbText
 10
14840.42318972916
 20
1102.252727072919
 30
0.0
 40
100.0
  1
～多雪地型～
  7
STYLE2
100
AcDbText
  0
TEXT
  5
1F25
330
1A
100
AcDbEntity
  8
文字
 62
     7
 48
50.0
100
AcDbText
 10
14532.99295953052
 20
747.8967129911398
 30
0.0
 40
160.0
  1
BF-２４A 
  7
MSGOTHIC
100
AcDbText
  0
TEXT
  5
1F26
330
1A
100
AcDbEntity
  8
文字
 62
     7
 48
50.0
100
AcDbText
 10
13198.2053442172
 20
492.5435242569001
 30
0.0
 40
100.0
  1
○間口奥行寸法は柱芯寸法です。    
  7
STYLE2
100
AcDbText
  0
LINE
  5
1F27
330
1A
100
AcDbEntity
  8
文字
 62
     7
 48
50.0
100
AcDbLine
 10
13176.0
 20
664.0
 30
0.0
 11
16216.0
 21
664.0
 31
0.0
  0
LINE
  5
1F28
330
1A
100
AcDbEntity
  8
仕様書枠
 48
50.0
100
AcDbLine
 10
13096.0
 20
1464.0
 30
0.0
 11
16296.0
 21
1464.0
 31
0.0
  0
LINE
  5
1F29
330
1A
100
AcDbEntity
  8
仕様書枠
  6
Continuous
 48
50.0
100
AcDbLine
 10
13096.0
 20
1464.0
 30
0.0
 11
13096.0
 21
264.0
 31
0.0
  0
LINE
  5
1F2A
330
1A
100
AcDbEntity
  8
仕様書枠
 48
50.0
100
AcDbLine
 10
16296.0
 20
1464.0
 30
0.0
 11
16296.0
 21
264.0
 31
0.0
  0
LINE
  5
1F2B
330
1A
100
AcDbEntity
  8
仕様書枠
 48
50.0
100
AcDbLine
 10
128.8000000000029
 20
264.0
 30
0.0
 11
16296.0
 21
264.0
 31
0.0
  0
INSERT
  5
1F2C
330
1A
100
AcDbEntity
  8
0
100
AcDbBlockReference
  2
A$C7B953DBE
 10
3920.627454234978
 20
2190.515874945158
 30
0.0
  0
LINE
  5
1F2D
330
1A
100
AcDbEntity
  8
部品1
100
AcDbLine
 10
6246.584791275922
 20
8359.414270628262
 30
0.0
 11
6246.58479127592
 21
10495.41427062826
 31
0.0
  0
LINE
  5
1F2E
330
1A
100
AcDbEntity
  8
部品1
100
AcDbLine
 10
6229.584791275922
 20
8359.414270628262
 30
0.0
 11
6229.58479127592
 21
10495.41427062826
 31
0.0
  0
LWPOLYLINE
  5
1F2F
330
1A
100
AcDbEntity
  8
部品1
100
AcDbPolyline
 90
        4
 70
     1
 43
0.0
 10
10245.80301695318
 20
1775.032828621283
 10
10245.80301695318
 20
1553.448569581014
 10
10882.81534971294
 20
1553.448569581014
 10
10882.81534971294
 20
1775.032828621283
  0
TEXT
  5
1F30
330
1A
100
AcDbEntity
  8
部品1
100
AcDbText
 10
10288.27050240931
 20
1600.594151894802
 30
0.0
 40
120.0
  1
側面図
  7
MSGOTHIC
100
AcDbText
  0
TEXT
  5
1F31
330
1A
100
AcDbEntity
  8
部品1
100
AcDbText
 10
4598.808172129655
 20
1600.594151894802
 30
0.0
 40
120.0
  1
正面図
  7
MSGOTHIC
100
AcDbText
  0
LWPOLYLINE
  5
1F32
330
1A
100
AcDbEntity
  8
部品1
100
AcDbPolyline
 90
        4
 70
     1
 43
0.0
 10
4556.340686673524
 20
1775.032828621283
 10
4556.340686673524
 20
1553.448569581014
 10
5193.353019433285
 20
1553.448569581014
 10
5193.353019433285
 20
1775.032828621283
  0
TEXT
  5
1F33
330
1A
100
AcDbEntity
  8
部品1
100
AcDbText
 10
4598.808172129655
 20
5483.422250658431
 30
0.0
 40
120.0
  1
平面図
  7
MSGOTHIC
100
AcDbText
  0
LWPOLYLINE
  5
1F34
330
1A
100
AcDbEntity
  8
部品1
100
AcDbPolyline
 90
        4
 70
     1
 43
0.0
 10
4556.340686673524
 20
5657.860927384913
 10
4556.340686673524
 20
5436.276668344644
 10
5193.353019433285
 20
5436.276668344644
 10
5193.353019433285
 20
5657.860927384913
  0
LINE
  5
1F35
330
1A
100
AcDbEntity
  8
部品1
100
AcDbLine
 10
3438.08479127592
 20
5819.414270628264
 30
0.0
 11
6298.08479127592
 21
5819.414270628262
 31
0.0
  0
LINE
  5
1F36
330
1A
100
AcDbEntity
  8
部品1
100
AcDbLine
 10
3476.584791275928
 20
5943.414270628266
 30
0.0
 11
6259.58479127592
 21
5943.414270628266
 31
0.0
  0
LINE
  5
1F37
330
1A
100
AcDbEntity
  8
センター
 48
10.0
100
AcDbLine
 10
3458.084791275918
 20
6056.414270628262
 30
0.0
 11
6278.084791275915
 21
6056.414270628262
 31
0.0
  0
LINE
  5
1F38
330
1A
100
AcDbEntity
  8
センター
 48
10.0
100
AcDbLine
 10
3458.084791275921
 20
6685.014270628262
 30
0.0
 11
6278.084791275916
 21
6685.014270628262
 31
0.0
  0
LINE
  5
1F39
330
1A
100
AcDbEntity
  8
センター
 48
10.0
100
AcDbLine
 10
3458.084791275918
 20
7313.614270628261
 30
0.0
 11
6278.084791275919
 21
7313.614270628263
 31
0.0
  0
LINE
  5
1F3A
330
1A
100
AcDbEntity
  8
センター
 48
10.0
100
AcDbLine
 10
3458.084791275918
 20
7942.214270628257
 30
0.0
 11
6278.084791275919
 21
7942.214270628267
 31
0.0
  0
LINE
  5
1F3B
330
1A
100
AcDbEntity
  8
部品1
100
AcDbLine
 10
3473.08479127592
 20
8359.41427062826
 30
0.0
 11
6263.084791275918
 21
8359.414270628262
 31
0.0
  0
LINE
  5
1F3C
330
1A
100
AcDbEntity
  8
部品1
100
AcDbLine
 10
3999.584917119792
 20
10719.41427062826
 30
0.0
 11
5508.114866345844
 21
5719.414270628262
 31
0.0
  0
DIMENSION
  5
1F3D
330
1A
100
AcDbEntity
  8
寸法
100
AcDbDimension
  2
*D2
 10
6554.60244337315
 20
2190.515874945158
 30
0.0
 11
6274.567010302284
 21
2055.515874945159
 31
0.0
 70
    32
 71
     5
 42
270.0
  3
物置仕様図40
100
AcDbAlignedDimension
 13
6088.08479127592
 23
1920.515874945158
 33
0.0
 14
6768.266128291223
 24
2190.515874945158
 34
0.0
 50
90.0
100
AcDbRotatedDimension
  0
DIMENSION
  5
1F3E
330
1A
100
AcDbEntity
  8
寸法
100
AcDbDimension
  2
*D3
 10
7292.756801734111
 20
2190.515874945158
 30
0.0
 11
7192.744990710489
 21
3345.515874945161
 31
0.0
 70
    32
 71
     5
 42
2310.000000000001
  3
物置仕様図40
100
AcDbAlignedDimension
 13
10566.32755088103
 23
4500.515874945159
 33
0.0
 14
7275.84789518988
 24
2190.515874945158
 34
0.0
 50
90.0
100
AcDbRotatedDimension
  0
DIMENSION
  5
1F3F
330
1A
100
AcDbEntity
  8
寸法
100
AcDbDimension
  2
*D4
 10
7586.48348345903
 20
2190.515874945158
 30
0.0
 11
7486.471672435406
 21
3289.01587494516
 31
0.0
 70
    32
 71
     5
 42
2197.0
  3
物置仕様図40
100
AcDbAlignedDimension
 13
8166.327550881034
 23
4387.515874945158
 33
0.0
 14
7535.652178531018
 24
2190.515874945158
 34
0.0
 50
90.0
100
AcDbRotatedDimension
1001
ACAD
1000
DSTYLE
1002
{
1070
    75
1070
     1
1002
}
  0
DIMENSION
  5
1F40
330
1A
100
AcDbEntity
  8
寸法
100
AcDbDimension
  2
*D5
 10
7586.48348345903
 20
4387.515874945158
 30
0.0
 11
7467.842311419059
 21
4635.943408831954
 31
0.0
 70
   160
 71
     5
 42
113.0000000000009
  3
物置仕様図40
100
AcDbAlignedDimension
 13
10566.32755088103
 23
4500.515874945159
 33
0.0
 14
8166.327550881034
 24
4387.515874945158
 34
0.0
 50
90.0
100
AcDbRotatedDimension
  0
DIMENSION
  5
1F41
330
1A
100
AcDbEntity
  8
寸法
100
AcDbDimension
  2
*D6
 10
8078.354899444727
 20
3340.515874945159
 30
0.0
 11
7978.354899444726
 21
2890.51587494516
 31
0.0
 70
    32
 71
     5
 42
900.0
  3
物置仕様図40
100
AcDbAlignedDimension
 13
8946.327550881035
 23
2440.515874945158
 33
0.0
 14
8946.327550881035
 24
3340.515874945159
 34
0.0
 50
90.0
100
AcDbRotatedDimension
1001
ACAD
1000
DSTYLE
1002
{
1070
    75
1070
     1
1002
}
  0
DIMENSION
  5
1F42
330
1A
100
AcDbEntity
  8
寸法
100
AcDbDimension
  2
*D7
 10
8078.354899444727
 20
2440.515874945158
 30
0.0
 11
7967.79826238547
 21
2315.515874945158
 31
0.0
 70
   160
 71
     5
 42
250.0
  3
物置仕様図40
100
AcDbAlignedDimension
 13
8062.254670437178
 23
2190.515874945158
 33
0.0
 14
8946.327550881035
 24
2440.515874945158
 34
0.0
 50
90.0
100
AcDbRotatedDimension
  0
DIMENSION
  5
1F43
330
1A
100
AcDbEntity
  8
寸法
100
AcDbDimension
  2
*D8
 10
13483.45611201606
 20
2190.515874945158
 30
0.0
 11
13362.01802163522
 21
2370.918921423119
 31
0.0
 70
   160
 71
     5
 42
49.99999999999954
  3
物置仕様図40
100
AcDbAlignedDimension
 13
12966.32755088103
 23
2240.515874945158
 33
0.0
 14
13495.59992105415
 24
2190.515874945158
 34
0.0
 50
90.0
100
AcDbRotatedDimension
  0
DIMENSION
  5
1F44
330
1A
100
AcDbEntity
  8
寸法
100
AcDbDimension
  2
*D9
 10
13489.73312803519
 20
4247.744797937547
 30
0.0
 11
13380.41454453202
 21
4491.456581387213
 31
0.0
 70
   161
 71
     5
 42
115.0000000000027
  3
物置仕様図40
100
AcDbAlignedDimension
 13
12930.37633230061
 23
4389.20857815332
 33
0.0
 14
12924.9677406404
 24
4274.335834927376
 34
0.0
  0
DIMENSION
  5
1F45
330
1A
100
AcDbEntity
  8
寸法
100
AcDbDimension
  2
*D10
 10
12966.32755088103
 20
5075.283571974691
 30
0.0
 11
10566.32755088103
 21
5175.283571974691
 31
0.0
 70
    32
 71
     5
 42
4800.0
  3
物置仕様図40
100
AcDbAlignedDimension
 13
8166.327550881034
 23
4387.515874945158
 33
0.0
 14
12966.32755088103
 24
4387.515874945158
 34
0.0
100
AcDbRotatedDimension
  0
DIMENSION
  5
1F46
330
1A
100
AcDbEntity
  8
寸法
100
AcDbDimension
  2
*D11
 10
12966.32755088103
 20
4795.283571974691
 30
0.0
 11
12591.32755088103
 21
4895.28357197469
 31
0.0
 70
    32
 71
     5
 42
750.0000000000018
  3
物置仕様図40
100
AcDbAlignedDimension
 13
12216.32755088103
 23
4004.535207701803
 33
0.0
 14
12966.32755088103
 24
4387.515874945158
 34
0.0
100
AcDbRotatedDimension
1001
ACAD
1000
DSTYLE
1002
{
1070
    75
1070
     1
1002
}
  0
DIMENSION
  5
1F47
330
1A
100
AcDbEntity
  8
寸法
100
AcDbDimension
  2
*D12
 10
12216.32755088103
 20
4795.283571974691
 30
0.0
 11
11391.32755088103
 21
4895.28357197469
 31
0.0
 70
    32
 71
     5
 42
1649.999999999998
  3
物置仕様図40
100
AcDbAlignedDimension
 13
10566.32755088103
 23
4038.701291035141
 33
0.0
 14
12216.32755088103
 24
4004.535207701803
 34
0.0
100
AcDbRotatedDimension
1001
ACAD
1000
DSTYLE
1002
{
1070
    75
1070
     1
1002
}
  0
DIMENSION
  5
1F48
330
1A
100
AcDbEntity
  8
寸法
100
AcDbDimension
  2
*D13
 10
10566.32755088103
 20
4795.283571974691
 30
0.0
 11
9741.327550881033
 21
4895.28357197469
 31
0.0
 70
    32
 71
     5
 42
1650.0
  3
物置仕様図40
100
AcDbAlignedDimension
 13
8916.327550881034
 23
4004.535207701807
 33
0.0
 14
10566.32755088103
 24
4500.515874945159
 34
0.0
100
AcDbRotatedDimension
1001
ACAD
1000
DSTYLE
1002
{
1070
    75
1070
     1
1002
}
  0
DIMENSION
  5
1F49
330
1A
100
AcDbEntity
  8
寸法
100
AcDbDimension
  2
*D14
 10
8916.327550881034
 20
4795.283571974691
 30
0.0
 11
8541.327550881034
 21
4895.28357197469
 31
0.0
 70
    32
 71
     5
 42
750.0
  3
物置仕様図40
100
AcDbAlignedDimension
 13
8166.327550881034
 23
4387.515874945158
 33
0.0
 14
8916.327550881034
 24
4004.535207701807
 34
0.0
100
AcDbRotatedDimension
  0
LINE
  5
1F4A
330
1A
100
AcDbEntity
  8
センター
 48
10.0
100
AcDbLine
 10
12216.32755088103
 20
4004.535207701803
 30
0.0
 11
12216.32755088103
 21
2240.515874945158
 31
0.0
  0
LINE
  5
1F4B
330
1A
100
AcDbEntity
  8
センター
 48
10.0
100
AcDbLine
 10
10566.32755088103
 20
4038.701291035141
 30
0.0
 11
10566.32755088103
 21
2240.515874945158
 31
0.0
  0
LINE
  5
1F4C
330
1A
100
AcDbEntity
  8
センター
 48
10.0
100
AcDbLine
 10
8916.327550881034
 20
4004.535207701807
 30
0.0
 11
8916.327550881034
 21
2240.515874945158
 31
0.0
  0
DIMENSION
  5
1F4D
330
1A
100
AcDbEntity
  8
寸法
100
AcDbDimension
  2
*D15
 10
6308.08479127592
 20
5076.07474097994
 30
0.0
 11
4868.084791275919
 21
5176.086552003562
 31
0.0
 70
    32
 71
     5
 42
2880.0
  3
物置仕様図40
100
AcDbAlignedDimension
 13
3428.08479127592
 23
4500.515874945159
 33
0.0
 14
6308.08479127592
 24
4500.515874945159
 34
0.0
100
AcDbRotatedDimension
  0
DIMENSION
  5
1F4E
330
1A
100
AcDbEntity
  8
寸法
100
AcDbDimension
  2
*D16
 10
6308.08479127592
 20
4796.074740979941
 30
0.0
 11
6183.08479127592
 21
4796.074740979941
 31
0.0
 70
   160
 71
     5
 42
250.0
  3
物置仕様図40
100
AcDbAlignedDimension
 13
6058.08479127592
 23
4272.831256646528
 33
0.0
 14
6308.08479127592
 24
4500.515874945159
 34
0.0
100
AcDbRotatedDimension
1001
ACAD
1000
DSTYLE
1002
{
1070
   279
1070
     0
1070
    75
1070
     1
1002
}
  0
DIMENSION
  5
1F4F
330
1A
100
AcDbEntity
  8
寸法
100
AcDbDimension
  2
*D17
 10
6058.08479127592
 20
4796.074740979941
 30
0.0
 11
4868.084791275919
 21
4896.086552003563
 31
0.0
 70
    32
 71
     5
 42
2380.0
  3
物置仕様図40
100
AcDbAlignedDimension
 13
3678.08479127592
 23
4272.831256646528
 33
0.0
 14
6058.08479127592
 24
4272.831256646528
 34
0.0
100
AcDbRotatedDimension
1001
ACAD
1000
DSTYLE
1002
{
1070
    75
1070
     1
1002
}
  0
DIMENSION
  5
1F50
330
1A
100
AcDbEntity
  8
寸法
100
AcDbDimension
  2
*D18
 10
3678.08479127592
 20
4796.074740979941
 30
0.0
 11
3553.08479127592
 21
4796.074740979941
 31
0.0
 70
   160
 71
     5
 42
250.0
  3
物置仕様図40
100
AcDbAlignedDimension
 13
3428.08479127592
 23
4500.515874945159
 33
0.0
 14
3678.08479127592
 24
4272.831256646528
 34
0.0
100
AcDbRotatedDimension
1001
ACAD
1000
DSTYLE
1002
{
1070
   279
1070
     0
1002
}
  0
DIMENSION
  5
1F51
330
1A
100
AcDbEntity
  8
寸法
100
AcDbDimension
  2
*D19
 10
2854.415140076315
 20
7942.214270628266
 30
0.0
 11
2694.403329052693
 21
7995.442239698609
 31
0.0
 70
   160
 71
     5
 42
277.1999999999962
  3
物置仕様図40
100
AcDbAlignedDimension
 13
3428.08479127592
 23
8219.414270628261
 33
0.0
 14
3428.08479127592
 24
7942.214270628266
 34
0.0
 50
90.0
100
AcDbRotatedDimension
1001
ACAD
1000
DSTYLE
1002
{
1070
    75
1070
     1
1002
}
  0
DIMENSION
  5
1F52
330
1A
100
AcDbEntity
  8
寸法
100
AcDbDimension
  2
*D20
 10
6923.537714463041
 20
10619.41427062826
 30
0.0
 11
6816.120316553067
 21
10756.41304757595
 31
0.0
 70
   160
 71
     5
 42
123.9999999999982
  3
物置仕様図40
100
AcDbAlignedDimension
 13
6259.584791275912
 23
10495.41427062826
 33
0.0
 14
6298.084791275919
 24
10619.41427062826
 34
0.0
 50
90.0
100
AcDbRotatedDimension
  0
DIMENSION
  5
1F53
330
1A
100
AcDbEntity
  8
寸法
100
AcDbDimension
  2
*D21
 10
6923.537714463041
 20
5819.414270628262
 30
0.0
 11
6813.207916493695
 21
5684.363708905454
 31
0.0
 70
   160
 71
     5
 42
124.0000000000036
  3
物置仕様図40
100
AcDbAlignedDimension
 13
6259.58479127592
 23
5943.414270628266
 33
0.0
 14
6298.08479127592
 24
5819.414270628262
 34
0.0
 50
90.0
100
AcDbRotatedDimension
1001
ACAD
1000
DSTYLE
1002
{
1070
    75
1070
     1
1002
}
  0
DIMENSION
  5
1F54
330
1A
100
AcDbEntity
  8
寸法
100
AcDbDimension
  2
*D22
 10
6923.537714463041
 20
5943.414270628266
 30
0.0
 11
6823.525903439417
 21
7011.414270628266
 31
0.0
 70
    32
 71
     5
 42
2135.999999999997
  3
物置仕様図40
100
AcDbAlignedDimension
 13
6263.08479127592
 23
8079.414270628261
 33
0.0
 14
6259.58479127592
 24
5943.414270628266
 34
0.0
 50
90.0
100
AcDbRotatedDimension
1001
ACAD
1000
DSTYLE
1002
{
1070
    75
1070
     1
1002
}
  0
DIMENSION
  5
1F55
330
1A
100
AcDbEntity
  8
寸法
100
AcDbDimension
  2
*D23
 10
6923.537714463041
 20
8079.414270628261
 30
0.0
 11
6797.235163748367
 21
8219.414270628261
 31
0.0
 70
   160
 71
     5
 42
280.0
  3
物置仕様図40
100
AcDbAlignedDimension
 13
6263.084791275919
 23
8359.414270628262
 33
0.0
 14
6263.08479127592
 24
8079.414270628261
 34
0.0
 50
90.0
100
AcDbRotatedDimension
1001
ACAD
1000
DSTYLE
1002
{
1070
    75
1070
     1
1002
}
  0
DIMENSION
  5
1F56
330
1A
100
AcDbEntity
  8
寸法
100
AcDbDimension
  2
*D24
 10
6923.537714463041
 20
8359.414270628262
 30
0.0
 11
6823.525903439417
 21
9427.414270628267
 31
0.0
 70
    32
 71
     5
 42
2136.000000000002
  3
物置仕様図40
100
AcDbAlignedDimension
 13
6259.584791275912
 23
10495.41427062826
 33
0.0
 14
6263.084791275919
 24
8359.414270628262
 34
0.0
 50
90.0
100
AcDbRotatedDimension
  0
DIMENSION
  5
1F57
330
1A
100
AcDbEntity
  8
寸法
100
AcDbDimension
  2
*D25
 10
2574.415140076315
 20
5819.414270628262
 30
0.0
 11
2474.415140076314
 21
8219.414270628261
 31
0.0
 70
    32
 71
     5
 42
4799.999999999999
  3
物置仕様図40
100
AcDbAlignedDimension
 13
3438.08479127592
 23
10619.41427062826
 33
0.0
 14
3438.08479127592
 24
5819.414270628262
 34
0.0
 50
90.0
100
AcDbRotatedDimension
  0
DIMENSION
  5
1F58
330
1A
100
AcDbEntity
  8
寸法
100
AcDbDimension
  2
*D26
 10
2854.415140076315
 20
5819.414270628262
 30
0.0
 11
2694.403329052692
 21
5937.914270628263
 31
0.0
 70
    32
 71
     5
 42
237.0
  3
物置仕様図40
100
AcDbAlignedDimension
 13
3428.08479127592
 23
6056.414270628262
 33
0.0
 14
3438.08479127592
 24
5819.414270628262
 34
0.0
 50
90.0
100
AcDbRotatedDimension
1001
ACAD
1000
DSTYLE
1002
{
1070
    75
1070
     1
1002
}
  0
DIMENSION
  5
1F59
330
1A
100
AcDbEntity
  8
寸法
100
AcDbDimension
  2
*D27
 10
2854.415140076315
 20
6056.414270628262
 30
0.0
 11
2754.403329052692
 21
6370.714270628263
 31
0.0
 70
    32
 71
     5
 42
628.6000000000004
  3
物置仕様図40
100
AcDbAlignedDimension
 13
3428.08479127592
 23
6685.014270628262
 33
0.0
 14
3428.08479127592
 24
6056.414270628262
 34
0.0
 50
90.0
100
AcDbRotatedDimension
1001
ACAD
1000
DSTYLE
1002
{
1070
    75
1070
     1
1002
}
  0
DIMENSION
  5
1F5A
330
1A
100
AcDbEntity
  8
寸法
100
AcDbDimension
  2
*D28
 10
2854.415140076315
 20
6685.014270628262
 30
0.0
 11
2754.403329052692
 21
6999.314270628264
 31
0.0
 70
    32
 71
     5
 42
628.6000000000004
  3
物置仕様図40
100
AcDbAlignedDimension
 13
3428.08479127592
 23
7313.614270628263
 33
0.0
 14
3428.08479127592
 24
6685.014270628262
 34
0.0
 50
90.0
100
AcDbRotatedDimension
1001
ACAD
1000
DSTYLE
1002
{
1070
    75
1070
     1
1002
}
  0
DIMENSION
  5
1F5B
330
1A
100
AcDbEntity
  8
寸法
100
AcDbDimension
  2
*D29
 10
2854.415140076315
 20
7313.614270628263
 30
0.0
 11
2694.415140076315
 21
7539.245297372741
 31
0.0
 70
   160
 71
     5
 42
628.6000000000021
  3
物置仕様図40
100
AcDbAlignedDimension
 13
3428.08479127592
 23
7942.214270628266
 33
0.0
 14
3428.08479127592
 24
7313.614270628263
 34
0.0
 50
90.0
100
AcDbRotatedDimension
1001
ACAD
1000
DSTYLE
1002
{
1070
    75
1070
     1
1002
}
  0
DIMENSION
  5
1F5C
330
1A
100
AcDbEntity
  8
寸法
100
AcDbDimension
  2
*D30
 10
2854.415140076315
 20
8219.414270628261
 30
0.0
 11
2694.403329052693
 21
8455.946322159034
 31
0.0
 70
   160
 71
     5
 42
277.1999999999953
  3
物置仕様図40
100
AcDbAlignedDimension
 13
3428.08479127592
 23
8496.614270628256
 33
0.0
 14
3428.08479127592
 24
8219.414270628261
 34
0.0
 50
90.0
100
AcDbRotatedDimension
1001
ACAD
1000
DSTYLE
1002
{
1070
    75
1070
     1
1002
}
  0
DIMENSION
  5
1F5D
330
1A
100
AcDbEntity
  8
寸法
100
AcDbDimension
  2
*D31
 10
2854.415140076315
 20
8496.614270628256
 30
0.0
 11
2694.415140076315
 21
8905.394790974057
 31
0.0
 70
   160
 71
     5
 42
628.6000000000021
  3
物置仕様図40
100
AcDbAlignedDimension
 13
3428.08479127592
 23
9125.21427062826
 33
0.0
 14
3428.08479127592
 24
8496.614270628256
 34
0.0
 50
90.0
100
AcDbRotatedDimension
1001
ACAD
1000
DSTYLE
1002
{
1070
    75
1070
     1
1002
}
  0
DIMENSION
  5
1F5E
330
1A
100
AcDbEntity
  8
寸法
100
AcDbDimension
  2
*D32
 10
2854.415140076315
 20
9125.21427062826
 30
0.0
 11
2754.403329052692
 21
9439.514270628261
 31
0.0
 70
    32
 71
     5
 42
628.6000000000021
  3
物置仕様図40
100
AcDbAlignedDimension
 13
3428.08479127592
 23
9753.814270628261
 33
0.0
 14
3428.08479127592
 24
9125.21427062826
 34
0.0
 50
90.0
100
AcDbRotatedDimension
1001
ACAD
1000
DSTYLE
1002
{
1070
    75
1070
     1
1002
}
  0
DIMENSION
  5
1F5F
330
1A
100
AcDbEntity
  8
寸法
100
AcDbDimension
  2
*D33
 10
2854.415140076315
 20
9753.814270628261
 30
0.0
 11
2754.403329052691
 21
10068.11427062826
 31
0.0
 70
    32
 71
     5
 42
628.6000000000004
  3
物置仕様図40
100
AcDbAlignedDimension
 13
3428.08479127592
 23
10382.41427062826
 33
0.0
 14
3428.08479127592
 24
9753.814270628261
 34
0.0
 50
90.0
100
AcDbRotatedDimension
1001
ACAD
1000
DSTYLE
1002
{
1070
    75
1070
     1
1002
}
  0
DIMENSION
  5
1F60
330
1A
100
AcDbEntity
  8
寸法
100
AcDbDimension
  2
*D34
 10
2854.415140076315
 20
10382.41427062826
 30
0.0
 11
2694.403329052691
 21
10500.91427062826
 31
0.0
 70
    32
 71
     5
 42
237.0
  3
物置仕様図40
100
AcDbAlignedDimension
 13
3438.08479127592
 23
10619.41427062826
 33
0.0
 14
3428.08479127592
 24
10382.41427062826
 34
0.0
 50
90.0
100
AcDbRotatedDimension
  0
LINE
  5
1F61
330
1A
100
AcDbEntity
  8
部品1
100
AcDbLine
 10
10566.32755088103
 20
4500.515874945159
 30
0.0
 11
10566.32755088103
 21
4385.388477195214
 31
0.0
  0
LINE
  5
1F62
330
1A
100
AcDbEntity
  8
点線
 48
50.0
100
AcDbLine
 10
6088.08479127592
 20
2240.515874945158
 30
0.0
 11
6088.08479127592
 21
1920.515874945158
 31
0.0
  0
LINE
  5
1F63
330
1A
100
AcDbEntity
  8
点線
 48
50.0
100
AcDbLine
 10
6028.08479127592
 20
2240.515874945158
 30
0.0
 11
6028.08479127592
 21
1920.515874945158
 31
0.0
  0
LINE
  5
1F64
330
1A
100
AcDbEntity
  8
点線
 48
50.0
100
AcDbLine
 10
3708.084791275921
 20
2240.515874945158
 30
0.0
 11
3708.084791275921
 21
1920.515874945158
 31
0.0
  0
LINE
  5
1F65
330
1A
100
AcDbEntity
  8
点線
 48
50.0
100
AcDbLine
 10
3648.08479127592
 20
2240.515874945158
 30
0.0
 11
3648.08479127592
 21
1920.515874945158
 31
0.0
  0
LINE
  5
1F66
330
1A
100
AcDbEntity
  8
部品1
100
AcDbLine
 10
6308.08479127592
 20
2240.515874945158
 30
0.0
 11
6308.08479127592
 21
2190.515874945158
 31
0.0
  0
LINE
  5
1F67
330
1A
100
AcDbEntity
  8
部品1
100
AcDbLine
 10
3428.08479127592
 20
2240.515874945158
 30
0.0
 11
3428.08479127592
 21
2190.515874945158
 31
0.0
  0
LINE
  5
1F68
330
1A
100
AcDbEntity
  8
部品1
100
AcDbLine
 10
3428.08479127592
 20
2240.515874945158
 30
0.0
 11
6308.08479127592
 21
2240.515874945158
 31
0.0
  0
LINE
  5
1F69
330
1A
100
AcDbEntity
  8
点線
 48
50.0
100
AcDbLine
 10
3708.084791275921
 20
1920.515874945158
 30
0.0
 11
3648.08479127592
 21
1920.515874945158
 31
0.0
  0
LINE
  5
1F6A
330
1A
100
AcDbEntity
  8
点線
 48
50.0
100
AcDbLine
 10
6088.08479127592
 20
1920.515874945158
 30
0.0
 11
6028.08479127592
 21
1920.515874945158
 31
0.0
  0
LINE
  5
1F6B
330
1A
100
AcDbEntity
  8
部品1
100
AcDbLine
 10
4885.58479127592
 20
2550.515874945159
 30
0.0
 11
4885.58479127592
 21
2485.515874945159
 31
0.0
  0
LINE
  5
1F6C
330
1A
100
AcDbEntity
  8
部品1
100
AcDbLine
 10
4850.58479127592
 20
2550.515874945159
 30
0.0
 11
4850.58479127592
 21
2485.515874945159
 31
0.0
  0
LINE
  5
1F6D
330
1A
100
AcDbEntity
  8
部品1
100
AcDbLine
 10
6028.08479127592
 20
2590.515874945158
 30
0.0
 11
3708.084791275921
 21
2590.515874945158
 31
0.0
  0
LINE
  5
1F6E
330
1A
100
AcDbEntity
  8
部品1
100
AcDbLine
 10
6028.08479127592
 20
2550.515874945159
 30
0.0
 11
3708.084791275921
 21
2550.515874945159
 31
0.0
  0
LINE
  5
1F6F
330
1A
100
AcDbEntity
  8
部品1
100
AcDbLine
 10
6028.08479127592
 20
2920.515874945158
 30
0.0
 11
3708.084791275921
 21
2920.515874945158
 31
0.0
  0
LINE
  5
1F70
330
1A
100
AcDbEntity
  8
部品1
100
AcDbLine
 10
6028.08479127592
 20
2890.515874945159
 30
0.0
 11
3708.084791275921
 21
2890.515874945159
 31
0.0
  0
LINE
  5
1F71
330
1A
100
AcDbEntity
  8
部品1
100
AcDbLine
 10
6028.08479127592
 20
2485.515874945159
 30
0.0
 11
3708.084791275921
 21
2485.515874945159
 31
0.0
  0
LINE
  5
1F72
330
1A
100
AcDbEntity
  8
部品1
100
AcDbLine
 10
6028.08479127592
 20
3295.515874945158
 30
0.0
 11
3708.084791275921
 21
3295.515874945158
 31
0.0
  0
LINE
  5
1F73
330
1A
100
AcDbEntity
  8
細線
100
AcDbLine
 10
6070.08479127592
 20
4145.198518983336
 30
0.0
 11
6070.08479127592
 21
4004.535207701807
 31
0.0
  0
LINE
  5
1F74
330
1A
100
AcDbEntity
  8
細線
100
AcDbLine
 10
6046.084791275919
 20
4145.198518983336
 30
0.0
 11
6046.084791275919
 21
4004.535207701807
 31
0.0
  0
LINE
  5
1F75
330
1A
100
AcDbEntity
  8
細線
100
AcDbLine
 10
6076.084791275921
 20
4145.198518983336
 30
0.0
 11
6076.084791275921
 21
4004.535207701807
 31
0.0
  0
LINE
  5
1F76
330
1A
100
AcDbEntity
  8
細線
100
AcDbLine
 10
6040.08479127592
 20
4145.198518983336
 30
0.0
 11
6040.08479127592
 21
4004.535207701807
 31
0.0
  0
LINE
  5
1F77
330
1A
100
AcDbEntity
  8
細線
100
AcDbLine
 10
3690.08479127592
 20
4145.198518983336
 30
0.0
 11
3690.08479127592
 21
4004.535207701807
 31
0.0
  0
LINE
  5
1F78
330
1A
100
AcDbEntity
  8
細線
100
AcDbLine
 10
3666.08479127592
 20
4145.198518983336
 30
0.0
 11
3666.08479127592
 21
4004.535207701807
 31
0.0
  0
LINE
  5
1F79
330
1A
100
AcDbEntity
  8
細線
100
AcDbLine
 10
3696.08479127592
 20
4145.198518983336
 30
0.0
 11
3696.08479127592
 21
4004.535207701807
 31
0.0
  0
LINE
  5
1F7A
330
1A
100
AcDbEntity
  8
細線
100
AcDbLine
 10
3660.08479127592
 20
4145.198518983336
 30
0.0
 11
3660.08479127592
 21
4004.535207701807
 31
0.0
  0
ARC
  5
1F7B
330
1A
100
AcDbEntity
  8
部品1
100
AcDbCircle
 10
6086.084791275919
 20
4150.198518983335
 30
0.0
 40
5.0
100
AcDbArc
 50
270.0
 51
0.0
  0
ARC
  5
1F7C
330
1A
100
AcDbEntity
  8
部品1
100
AcDbCircle
 10
6030.08479127592
 20
4150.198518983335
 30
0.0
 40
5.0
100
AcDbArc
 50
180.0
 51
270.0
  0
ARC
  5
1F7D
330
1A
100
AcDbEntity
  8
部品1
100
AcDbCircle
 10
3706.08479127592
 20
4150.198518983335
 30
0.0
 40
5.0
100
AcDbArc
 50
270.0
 51
0.0
  0
ARC
  5
1F7E
330
1A
100
AcDbEntity
  8
部品1
100
AcDbCircle
 10
3650.08479127592
 20
4150.198518983335
 30
0.0
 40
5.0
100
AcDbArc
 50
180.0
 51
270.0
  0
LINE
  5
1F7F
330
1A
100
AcDbEntity
  8
部品1
100
AcDbLine
 10
3645.08479127592
 20
4150.198518983335
 30
0.0
 11
3645.08479127592
 21
4004.535207701807
 31
0.0
  0
LINE
  5
1F80
330
1A
100
AcDbEntity
  8
部品1
100
AcDbLine
 10
3711.08479127592
 20
4004.535207701807
 30
0.0
 11
3645.08479127592
 21
4004.535207701807
 31
0.0
  0
LINE
  5
1F81
330
1A
100
AcDbEntity
  8
部品1
100
AcDbLine
 10
3706.08479127592
 20
4145.198518983336
 30
0.0
 11
3650.08479127592
 21
4145.198518983336
 31
0.0
  0
LINE
  5
1F82
330
1A
100
AcDbEntity
  8
部品1
100
AcDbLine
 10
3711.08479127592
 20
4272.831256646528
 30
0.0
 11
3711.08479127592
 21
4004.535207701807
 31
0.0
  0
LINE
  5
1F83
330
1A
100
AcDbEntity
  8
部品1
100
AcDbLine
 10
3645.08479127592
 20
4272.831256646528
 30
0.0
 11
3645.08479127592
 21
4150.198518983335
 31
0.0
  0
LINE
  5
1F84
330
1A
100
AcDbEntity
  8
部品1
100
AcDbLine
 10
6091.08479127592
 20
4004.535207701807
 30
0.0
 11
6025.08479127592
 21
4004.535207701807
 31
0.0
  0
LINE
  5
1F85
330
1A
100
AcDbEntity
  8
部品1
100
AcDbLine
 10
6091.08479127592
 20
4272.831256646528
 30
0.0
 11
6091.08479127592
 21
4004.535207701807
 31
0.0
  0
LINE
  5
1F86
330
1A
100
AcDbEntity
  8
部品1
100
AcDbLine
 10
6025.08479127592
 20
4272.831256646528
 30
0.0
 11
6025.08479127592
 21
4004.535207701807
 31
0.0
  0
LINE
  5
1F87
330
1A
100
AcDbEntity
  8
部品1
100
AcDbLine
 10
6086.084791275919
 20
4145.198518983336
 30
0.0
 11
6030.08479127592
 21
4145.198518983336
 31
0.0
  0
LINE
  5
1F88
330
1A
100
AcDbEntity
  8
部品1
100
AcDbLine
 10
6263.08479127592
 20
4500.515874945159
 30
0.0
 11
6263.08479127592
 21
4387.515874945158
 31
0.0
  0
ARC
  5
1F89
330
1A
100
AcDbEntity
  8
部品1
100
AcDbCircle
 10
6294.505670399507
 20
4374.515874945158
 30
0.0
 40
13.0
100
AcDbArc
 50
357.5036094784615
 51
90.0
  0
LINE
  5
1F8A
330
1A
100
AcDbEntity
  8
部品1
100
AcDbLine
 10
6307.505670399507
 20
4374.515874945158
 30
0.0
 11
6307.505670399507
 21
4487.515874945159
 31
0.0
  0
ARC
  5
1F8B
330
1A
100
AcDbEntity
  8
部品1
100
AcDbCircle
 10
6294.505670399507
 20
4487.515874945159
 30
0.0
 40
13.0
100
AcDbArc
 50
0.0
 51
90.0
  0
ARC
  5
1F8C
330
1A
100
AcDbEntity
  8
部品1
100
AcDbCircle
 10
6290.63921386792
 20
4285.831256646528
 30
0.0
 40
13.0
100
AcDbArc
 50
270.0
 51
357.5036094784615
  0
LINE
  5
1F8D
330
1A
100
AcDbEntity
  8
部品1
100
AcDbLine
 10
6285.08479127592
 20
4387.515874945158
 30
0.0
 11
6285.08479127592
 21
4272.831256646528
 31
0.0
  0
LINE
  5
1F8E
330
1A
100
AcDbEntity
  8
部品1
100
AcDbLine
 10
6307.493332977036
 20
4373.949641095747
 30
0.0
 11
6303.626876445451
 21
4285.265022797117
 31
0.0
  0
ARC
  5
1F8F
330
1A
100
AcDbEntity
  8
部品1
100
AcDbCircle
 10
3441.663912152333
 20
4487.515874945159
 30
0.0
 40
13.0
100
AcDbArc
 50
90.0
 51
180.0
  0
LINE
  5
1F90
330
1A
100
AcDbEntity
  8
部品1
100
AcDbLine
 10
3428.663912152333
 20
4374.515874945158
 30
0.0
 11
3428.663912152333
 21
4487.515874945159
 31
0.0
  0
ARC
  5
1F91
330
1A
100
AcDbEntity
  8
部品1
100
AcDbCircle
 10
3445.53036868392
 20
4285.831256646528
 30
0.0
 40
13.0
100
AcDbArc
 50
182.4963905215386
 51
270.0
  0
ARC
  5
1F92
330
1A
100
AcDbEntity
  8
部品1
100
AcDbCircle
 10
3441.663912152333
 20
4374.515874945158
 30
0.0
 40
13.0
100
AcDbArc
 50
90.0
 51
182.4963905215386
  0
LINE
  5
1F93
330
1A
100
AcDbEntity
  8
部品1
100
AcDbLine
 10
3451.084791275921
 20
4387.515874945158
 30
0.0
 11
3451.084791275921
 21
4272.831256646528
 31
0.0
  0
LINE
  5
1F94
330
1A
100
AcDbEntity
  8
部品1
100
AcDbLine
 10
3428.676249574805
 20
4373.949641095747
 30
0.0
 11
3432.542706106389
 21
4285.265022797117
 31
0.0
  0
LINE
  5
1F95
330
1A
100
AcDbEntity
  8
部品1
100
AcDbLine
 10
3473.08479127592
 20
4500.515874945159
 30
0.0
 11
3473.08479127592
 21
4387.515874945158
 31
0.0
  0
LINE
  5
1F96
330
1A
100
AcDbEntity
  8
細線
100
AcDbLine
 10
6305.258704319398
 20
4322.694134167671
 30
0.0
 11
3430.910878232442
 21
4322.694134167671
 31
0.0
  0
LINE
  5
1F97
330
1A
100
AcDbEntity
  8
細線
100
AcDbLine
 10
6304.736965188964
 20
4310.727043562597
 30
0.0
 11
3431.432617362876
 21
4310.727043562597
 31
0.0
  0
LINE
  5
1F98
330
1A
100
AcDbEntity
  8
部品1
100
AcDbLine
 10
6290.63921386792
 20
4272.831256646528
 30
0.0
 11
3445.53036868392
 21
4272.831256646528
 31
0.0
  0
LINE
  5
1F99
330
1A
100
AcDbEntity
  8
部品1
100
AcDbLine
 10
12966.32755088103
 20
2240.515874945158
 30
0.0
 11
12966.32755088103
 21
2190.515874945158
 31
0.0
  0
LINE
  5
1F9A
330
1A
100
AcDbEntity
  8
部品1
100
AcDbLine
 10
8166.327550881034
 20
2240.515874945158
 30
0.0
 11
8166.327550881034
 21
2190.515874945158
 31
0.0
  0
LINE
  5
1F9B
330
1A
100
AcDbEntity
  8
点線
 48
50.0
100
AcDbLine
 10
12186.32755088103
 20
1920.515874945158
 30
0.0
 11
12246.32755088103
 21
1920.515874945158
 31
0.0
  0
LINE
  5
1F9C
330
1A
100
AcDbEntity
  8
点線
 48
50.0
100
AcDbLine
 10
12246.32755088103
 20
2240.515874945158
 30
0.0
 11
12246.32755088103
 21
1920.515874945158
 31
0.0
  0
LINE
  5
1F9D
330
1A
100
AcDbEntity
  8
点線
 48
50.0
100
AcDbLine
 10
12186.32755088103
 20
2240.515874945158
 30
0.0
 11
12186.32755088103
 21
1920.515874945158
 31
0.0
  0
LINE
  5
1F9E
330
1A
100
AcDbEntity
  8
点線
 48
50.0
100
AcDbLine
 10
10536.32755088103
 20
1920.515874945158
 30
0.0
 11
10596.32755088103
 21
1920.515874945158
 31
0.0
  0
LINE
  5
1F9F
330
1A
100
AcDbEntity
  8
点線
 48
50.0
100
AcDbLine
 10
10596.32755088103
 20
2240.515874945158
 30
0.0
 11
10596.32755088103
 21
1920.515874945158
 31
0.0
  0
LINE
  5
1FA0
330
1A
100
AcDbEntity
  8
点線
 48
50.0
100
AcDbLine
 10
10536.32755088103
 20
2240.515874945158
 30
0.0
 11
10536.32755088103
 21
1920.515874945158
 31
0.0
  0
LINE
  5
1FA1
330
1A
100
AcDbEntity
  8
部品1
100
AcDbLine
 10
8166.327550881034
 20
2240.515874945158
 30
0.0
 11
12966.32755088103
 21
2240.515874945158
 31
0.0
  0
LINE
  5
1FA2
330
1A
100
AcDbEntity
  8
点線
 48
50.0
100
AcDbLine
 10
8946.327550881036
 20
2240.515874945158
 30
0.0
 11
8946.327550881033
 21
1920.515874945158
 31
0.0
  0
LINE
  5
1FA3
330
1A
100
AcDbEntity
  8
点線
 48
50.0
100
AcDbLine
 10
8886.327550881032
 20
2240.515874945158
 30
0.0
 11
8886.327550881032
 21
1920.515874945158
 31
0.0
  0
ARC
  5
1FA4
330
1A
100
AcDbEntity
  8
部品1
100
AcDbCircle
 10
8180.384097710248
 20
4375.163302540259
 30
0.0
 40
13.0
100
AcDbArc
 50
92.69568549355007
 51
184.687779066474
  0
ARC
  5
1FA5
330
1A
100
AcDbEntity
  8
部品1
100
AcDbCircle
 10
8187.662103928083
 20
4286.407380552623
 30
0.0
 40
13.0
100
AcDbArc
 50
184.687779066474
 51
272.69568549355
  0
ARC
  5
1FA6
330
1A
100
AcDbEntity
  8
部品1
100
AcDbCircle
 10
8336.315497464473
 20
4254.863827280561
 30
0.0
 40
5.0
100
AcDbArc
 50
92.69568549355007
 51
194.3850546689469
  0
LINE
  5
1FA7
330
1A
100
AcDbEntity
  8
部品1
100
AcDbLine
 10
8357.352843924223
 20
4152.714146699276
 30
0.0
 11
8331.472257475731
 21
4253.621641138532
 31
0.0
  0
ARC
  5
1FA8
330
1A
100
AcDbEntity
  8
部品1
100
AcDbCircle
 10
8367.039323901707
 20
4155.198518983335
 30
0.0
 40
10.0
100
AcDbArc
 50
194.3850546689469
 51
272.69568549355
  0
LINE
  5
1FA9
330
1A
100
AcDbEntity
  8
部品1
100
AcDbLine
 10
8167.427584773811
 20
4374.100865470132
 30
0.0
 11
8174.705590991647
 21
4285.344943482498
 31
0.0
  0
LINE
  5
1FAA
330
1A
100
AcDbEntity
  8
部品1
100
AcDbLine
 10
8189.315992972884
 20
4388.598247426983
 30
0.0
 11
8198.720158310537
 21
4273.913629128354
 31
0.0
  0
LINE
  5
1FAB
330
1A
100
AcDbEntity
  8
部品1
100
AcDbLine
 10
8431.868641208378
 20
4284.891036864795
 30
0.0
 11
8432.973875156337
 21
4261.417041509928
 31
0.0
  0
LINE
  5
1FAC
330
1A
100
AcDbEntity
  8
部品1
100
AcDbLine
 10
8382.623195634122
 20
4282.572397135674
 30
0.0
 11
8383.728429582085
 21
4259.098401780807
 31
0.0
  0
LINE
  5
1FAD
330
1A
100
AcDbEntity
  8
部品1
100
AcDbLine
 10
8428.978301478913
 20
4261.228916582619
 30
0.0
 11
8434.259908813201
 21
4149.053185588935
 31
0.0
  0
LINE
  5
1FAE
330
1A
100
AcDbEntity
  8
部品1
100
AcDbLine
 10
8388.023671285319
 20
4259.300636077667
 30
0.0
 11
8393.305278619605
 21
4147.12490508399
 31
0.0
  0
LINE
  5
1FAF
330
1A
100
AcDbEntity
  8
部品1
100
AcDbLine
 10
8393.305278619607
 20
4147.12490508399
 30
0.0
 11
8434.259908813201
 21
4149.053185588935
 31
0.0
  0
LINE
  5
1FB0
330
1A
100
AcDbEntity
  8
部品1
100
AcDbLine
 10
8391.199319947691
 20
4149.328297484852
 30
0.0
 11
8393.1971067864
 21
4149.422359948508
 31
0.0
  0
LINE
  5
1FB1
330
1A
100
AcDbEntity
  8
部品1
100
AcDbLine
 10
8386.025884446606
 20
4259.206573614014
 30
0.0
 11
8391.340413643176
 21
4146.331617226784
 31
0.0
  0
LINE
  5
1FB2
330
1A
100
AcDbEntity
  8
部品1
100
AcDbLine
 10
8336.080341305333
 20
4259.858294377344
 30
0.0
 11
8383.5873358866
 21
4262.095082038875
 31
0.0
  0
LINE
  5
1FB3
330
1A
100
AcDbEntity
  8
部品1
100
AcDbLine
 10
8367.509636219988
 20
4145.209584789776
 30
0.0
 11
8391.340413643176
 21
4146.331617226784
 31
0.0
  0
LINE
  5
1FB4
330
1A
100
AcDbEntity
  8
部品1
100
AcDbLine
 10
8729.127550881029
 20
4161.735207701807
 30
0.0
 11
8772.389271539092
 21
4163.77211371612
 31
0.0
  0
LINE
  5
1FB5
330
1A
100
AcDbEntity
  8
部品1
100
AcDbLine
 10
8729.127550881033
 20
4161.735207701807
 30
0.0
 11
8726.728958057782
 21
4212.678772088955
 31
0.0
  0
ARC
  5
1FB6
330
1A
100
AcDbEntity
  8
部品1
100
AcDbCircle
 10
8736.717892251341
 20
4213.149084407239
 30
0.0
 40
10.0
100
AcDbArc
 50
92.69568549355007
 51
182.6956854935742
  0
CIRCLE
  5
1FB7
330
1A
100
AcDbEntity
  8
細線
100
AcDbCircle
 10
8757.54816048534
 20
4196.610456255803
 30
0.0
 40
8.0
  0
LWPOLYLINE
  5
1FB8
330
1A
100
AcDbEntity
  8
細線
100
AcDbPolyline
 90
        6
 70
     1
 43
0.0
 10
8751.048160485341
 20
4200.363233005533
 10
8757.54816048534
 20
4204.116009755267
 10
8764.048160485343
 20
4200.363233005533
 10
8764.048160485343
 20
4192.857679506072
 10
8757.54816048534
 20
4189.104902756338
 10
8751.048160485341
 20
4192.857679506072
  0
CIRCLE
  5
1FB9
330
1A
100
AcDbEntity
  8
細線
100
AcDbCircle
 10
8757.54816048534
 20
4196.610456255803
 30
0.0
 40
6.0
  0
LINE
  5
1FBA
330
1A
100
AcDbEntity
  8
部品1
100
AcDbLine
 10
9016.623671285319
 20
4288.897219411003
 30
0.0
 11
9018.763592333495
 21
4243.447568830303
 31
0.0
  0
ARC
  5
1FBB
330
1A
100
AcDbEntity
  8
部品1
100
AcDbCircle
 10
9023.758059430274
 20
4243.682724989441
 30
0.0
 40
5.0
100
AcDbArc
 50
182.6956854935742
 51
272.69568549355
  0
CIRCLE
  5
1FBC
330
1A
100
AcDbEntity
  8
細線
100
AcDbCircle
 10
8969.313565388819
 20
4206.581077403337
 30
0.0
 40
6.0
  0
LWPOLYLINE
  5
1FBD
330
1A
100
AcDbEntity
  8
細線
100
AcDbPolyline
 90
        6
 70
     1
 43
0.0
 10
8962.813565388819
 20
4210.333854153072
 10
8969.313565388819
 20
4214.086630902806
 10
8975.813565388818
 20
4210.333854153072
 10
8975.813565388818
 20
4202.828300653608
 10
8969.313565388819
 20
4199.075523903877
 10
8962.813565388819
 20
4202.828300653608
  0
CIRCLE
  5
1FBE
330
1A
100
AcDbEntity
  8
細線
100
AcDbCircle
 10
8969.313565388819
 20
4206.581077403337
 30
0.0
 40
8.0
  0
CIRCLE
  5
1FBF
330
1A
100
AcDbEntity
  8
細線
100
AcDbCircle
 10
8916.327550881032
 20
4119.535207701807
 30
0.0
 40
6.0
  0
LWPOLYLINE
  5
1FC0
330
1A
100
AcDbEntity
  8
細線
100
AcDbPolyline
 90
        6
 70
     1
 43
0.0
 10
8909.827550881031
 20
4123.287984451541
 10
8916.327550881032
 20
4127.04076120127
 10
8922.827550881031
 20
4123.287984451541
 10
8922.827550881031
 20
4115.782430952072
 10
8916.327550881032
 20
4112.029654202342
 10
8909.827550881031
 20
4115.782430952072
  0
CIRCLE
  5
1FC1
330
1A
100
AcDbEntity
  8
細線
100
AcDbCircle
 10
8916.327550881032
 20
4119.535207701807
 30
0.0
 40
8.0
  0
CIRCLE
  5
1FC2
330
1A
100
AcDbEntity
  8
細線
100
AcDbCircle
 10
8863.430862937081
 20
4201.59576682957
 30
0.0
 40
6.0
  0
LWPOLYLINE
  5
1FC3
330
1A
100
AcDbEntity
  8
細線
100
AcDbPolyline
 90
        6
 70
     1
 43
0.0
 10
8856.930862937081
 20
4205.348543579304
 10
8863.430862937081
 20
4209.101320329035
 10
8869.93086293708
 20
4205.348543579304
 10
8869.93086293708
 20
4197.84299007984
 10
8863.430862937081
 20
4194.090213330105
 10
8856.930862937081
 20
4197.84299007984
  0
CIRCLE
  5
1FC4
330
1A
100
AcDbEntity
  8
細線
100
AcDbCircle
 10
8863.430862937081
 20
4201.59576682957
 30
0.0
 40
8.0
  0
LINE
  5
1FC5
330
1A
100
AcDbEntity
  8
部品1
100
AcDbLine
 10
9011.223195634123
 20
4312.168980469007
 30
0.0
 11
9012.328429582085
 21
4288.69498511414
 31
0.0
  0
LINE
  5
1FC6
330
1A
100
AcDbEntity
  8
部品1
100
AcDbLine
 10
9064.683803061674
 20
4177.53431457531
 30
0.0
 11
9116.727550881035
 21
4179.984707701805
 31
0.0
  0
LINE
  5
1FC7
330
1A
100
AcDbEntity
  8
部品1
100
AcDbLine
 10
9116.727550881034
 20
4179.984707701805
 30
0.0
 11
9114.328958057805
 21
4230.92827208896
 31
0.0
  0
ARC
  5
1FC8
330
1A
100
AcDbEntity
  8
部品1
100
AcDbCircle
 10
9104.340023864246
 20
4230.45795977068
 30
0.0
 40
10.0
100
AcDbArc
 50
2.695685493574268
 51
92.69568549355007
  0
LINE
  5
1FC9
330
1A
100
AcDbEntity
  8
部品1
100
AcDbLine
 10
9057.578301478914
 20
4290.825499915951
 30
0.0
 11
9059.718222527088
 21
4245.375849335251
 31
0.0
  0
ARC
  5
1FCA
330
1A
100
AcDbEntity
  8
部品1
100
AcDbCircle
 10
9054.723755430307
 20
4245.140693176108
 30
0.0
 40
5.0
100
AcDbArc
 50
272.69568549355
 51
2.695685493574268
  0
CIRCLE
  5
1FCB
330
1A
100
AcDbEntity
  8
細線
100
AcDbCircle
 10
9075.196267840555
 20
4211.566387977109
 30
0.0
 40
6.0
  0
LWPOLYLINE
  5
1FCC
330
1A
100
AcDbEntity
  8
細線
100
AcDbPolyline
 90
        6
 70
     1
 43
0.0
 10
9068.696267840556
 20
4215.319164726839
 10
9075.196267840555
 20
4219.071941476573
 10
9081.696267840554
 20
4215.319164726839
 10
9081.696267840554
 20
4207.813611227375
 10
9075.196267840555
 20
4204.060834477644
 10
9068.696267840556
 20
4207.813611227375
  0
CIRCLE
  5
1FCD
330
1A
100
AcDbEntity
  8
細線
100
AcDbCircle
 10
9075.196267840555
 20
4211.566387977109
 30
0.0
 40
8.0
  0
LINE
  5
1FCE
330
1A
100
AcDbEntity
  8
部品1
100
AcDbLine
 10
9060.468641208379
 20
4314.487620198128
 30
0.0
 11
9061.573875156337
 21
4291.013624843261
 31
0.0
  0
LINE
  5
1FCF
330
1A
100
AcDbEntity
  8
部品1
100
AcDbLine
 10
9023.993215589415
 20
4238.688257892664
 30
0.0
 11
9054.95891158945
 21
4240.146226079331
 31
0.0
  0
LINE
  5
1FD0
330
1A
100
AcDbEntity
  8
部品1
100
AcDbLine
 10
8736.247579933062
 20
4223.138018600803
 30
0.0
 11
9103.869711545966
 21
4240.446893964239
 31
0.0
  0
LINE
  5
1FD1
330
1A
100
AcDbEntity
  8
部品1
100
AcDbLine
 10
9639.823195634125
 20
4341.765563802343
 30
0.0
 11
9640.928429582086
 21
4318.291568447476
 31
0.0
  0
LINE
  5
1FD2
330
1A
100
AcDbEntity
  8
部品1
100
AcDbLine
 10
9645.22367128532
 20
4318.493802744335
 30
0.0
 11
9650.505278619608
 21
4206.318071750654
 31
0.0
  0
LINE
  5
1FD3
330
1A
100
AcDbEntity
  8
部品1
100
AcDbLine
 10
9689.068641208379
 20
4344.084203531464
 30
0.0
 11
9690.173875156338
 21
4320.610208176597
 31
0.0
  0
LINE
  5
1FD4
330
1A
100
AcDbEntity
  8
部品1
100
AcDbLine
 10
9686.178301478914
 20
4320.422083249282
 30
0.0
 11
9691.459908813202
 21
4208.246352255602
 31
0.0
  0
LINE
  5
1FD5
330
1A
100
AcDbEntity
  8
部品1
100
AcDbLine
 10
9650.505278619609
 20
4206.318071750654
 30
0.0
 11
9691.459908813202
 21
4208.246352255602
 31
0.0
  0
LINE
  5
1FD6
330
1A
100
AcDbEntity
  8
部品1
100
AcDbLine
 10
9116.562941569638
 20
4183.48083466955
 30
0.0
 11
9650.397106786405
 21
4208.615526615172
 31
0.0
  0
LINE
  5
1FD7
330
1A
100
AcDbEntity
  8
部品1
100
AcDbLine
 10
10268.42319563412
 20
4371.362147135674
 30
0.0
 11
10269.52842958208
 21
4347.888151780807
 31
0.0
  0
LINE
  5
1FD8
330
1A
100
AcDbEntity
  8
部品1
100
AcDbLine
 10
10317.66864120837
 20
4373.680786864795
 30
0.0
 11
10318.77387515633
 21
4350.206791509928
 31
0.0
  0
LINE
  5
1FD9
330
1A
100
AcDbEntity
  8
部品1
100
AcDbLine
 10
10279.1052786196
 20
4235.914655083987
 30
0.0
 11
10320.0599088132
 21
4237.842935588939
 31
0.0
  0
LINE
  5
1FDA
330
1A
100
AcDbEntity
  8
部品1
100
AcDbLine
 10
10321.32755088103
 20
4236.70129103514
 30
0.0
 11
10322.92130451543
 21
4236.776330268759
 31
0.0
  0
LINE
  5
1FDB
330
1A
100
AcDbEntity
  8
部品1
100
AcDbLine
 10
10319.95173697999
 20
4240.140390453456
 30
0.0
 11
10321.16294156963
 21
4240.197418002884
 31
0.0
  0
LINE
  5
1FDC
330
1A
100
AcDbEntity
  8
部品1
100
AcDbLine
 10
10321.32755088103
 20
4236.70129103514
 30
0.0
 11
10318.9289580578
 21
4287.644855422285
 31
0.0
  0
ARC
  5
1FDD
330
1A
100
AcDbEntity
  8
部品1
100
AcDbCircle
 10
10328.91789225136
 20
4288.115167740565
 30
0.0
 40
10.0
100
AcDbArc
 50
92.69568549355007
 51
182.6956854935742
  0
LINE
  5
1FDE
330
1A
100
AcDbEntity
  8
部品1
100
AcDbLine
 10
10314.77830147891
 20
4350.018666582618
 30
0.0
 11
10320.0599088132
 21
4237.842935588939
 31
0.0
  0
LINE
  5
1FDF
330
1A
100
AcDbEntity
  8
部品1
100
AcDbLine
 10
10273.82367128532
 20
4348.090386077667
 30
0.0
 11
10279.1052786196
 21
4235.914655083987
 31
0.0
  0
LINE
  5
1FE0
330
1A
100
AcDbEntity
  8
部品1
100
AcDbLine
 10
10566.32755088103
 20
4309.30428389959
 30
0.0
 11
10563.85841121006
 21
4361.746188415792
 31
0.0
  0
CIRCLE
  5
1FE1
330
1A
100
AcDbEntity
  8
細線
100
AcDbCircle
 10
10443.61478861494
 20
4275.996093330224
 30
0.0
 40
6.0
  0
LWPOLYLINE
  5
1FE2
330
1A
100
AcDbEntity
  8
細線
100
AcDbPolyline
 90
        6
 70
     1
 43
0.0
 10
10437.11478861494
 20
4279.748870079958
 10
10443.61478861494
 20
4283.501646829689
 10
10450.11478861494
 20
4279.748870079958
 10
10450.11478861494
 20
4272.243316580494
 10
10443.61478861494
 20
4268.49053983076
 10
10437.11478861494
 20
4272.243316580494
  0
CIRCLE
  5
1FE3
330
1A
100
AcDbEntity
  8
細線
100
AcDbCircle
 10
10443.61478861494
 20
4275.996093330224
 30
0.0
 40
8.0
  0
CIRCLE
  5
1FE4
330
1A
100
AcDbEntity
  8
細線
100
AcDbCircle
 10
10545.50191738925
 20
4280.793278976681
 30
0.0
 40
6.0
  0
LWPOLYLINE
  5
1FE5
330
1A
100
AcDbEntity
  8
細線
100
AcDbPolyline
 90
        6
 70
     1
 43
0.0
 10
10539.00191738925
 20
4284.546055726416
 10
10545.50191738925
 20
4288.298832476146
 10
10552.00191738925
 20
4284.546055726416
 10
10552.00191738925
 20
4277.040502226948
 10
10545.50191738925
 20
4273.287725477217
 10
10539.00191738925
 20
4277.040502226948
  0
CIRCLE
  5
1FE6
330
1A
100
AcDbEntity
  8
細線
100
AcDbCircle
 10
10545.50191738925
 20
4280.793278976681
 30
0.0
 40
8.0
  0
CIRCLE
  5
1FE7
330
1A
100
AcDbEntity
  8
細線
100
AcDbCircle
 10
10566.32755088103
 20
4175.70129103514
 30
0.0
 40
6.0
  0
LWPOLYLINE
  5
1FE8
330
1A
100
AcDbEntity
  8
細線
100
AcDbPolyline
 90
        6
 70
     1
 43
0.0
 10
10559.82755088103
 20
4179.45406778487
 10
10566.32755088103
 20
4183.206844534601
 10
10572.82755088103
 20
4179.45406778487
 10
10572.82755088103
 20
4171.948514285406
 10
10566.32755088103
 20
4168.195737535672
 10
10559.82755088103
 20
4171.948514285406
  0
CIRCLE
  5
1FE9
330
1A
100
AcDbEntity
  8
細線
100
AcDbCircle
 10
10566.32755088103
 20
4175.70129103514
 30
0.0
 40
8.0
  0
LINE
  5
1FEA
330
1A
100
AcDbEntity
  8
部品1
100
AcDbLine
 10
10328.44757993308
 20
4298.104101934124
 30
0.0
 11
10566.32755088103
 21
4309.30428389959
 31
0.0
  0
CIRCLE
  5
1FEB
330
1A
100
AcDbEntity
  8
細線
100
AcDbCircle
 10
10341.72765984063
 20
4271.19890768377
 30
0.0
 40
6.0
  0
LWPOLYLINE
  5
1FEC
330
1A
100
AcDbEntity
  8
細線
100
AcDbPolyline
 90
        6
 70
     1
 43
0.0
 10
10335.22765984063
 20
4274.951684433501
 10
10341.72765984063
 20
4278.704461183231
 10
10348.22765984062
 20
4274.951684433501
 10
10348.22765984062
 20
4267.446130934036
 10
10341.72765984063
 20
4263.693354184303
 10
10335.22765984063
 20
4267.446130934036
  0
CIRCLE
  5
1FED
330
1A
100
AcDbEntity
  8
細線
100
AcDbCircle
 10
10341.72765984063
 20
4271.19890768377
 30
0.0
 40
8.0
  0
LINE
  5
1FEE
330
1A
100
AcDbEntity
  8
部品1
100
AcDbLine
 10
9691.351736979999
 20
4210.54380712012
 30
0.0
 11
10278.9971067864
 21
4238.212109948508
 31
0.0
  0
LINE
  5
1FEF
330
1A
100
AcDbEntity
  8
部品1
100
AcDbLine
 10
8882.327550881033
 20
4004.535207701807
 30
0.0
 11
8950.327550881034
 21
4004.535207701807
 31
0.0
  0
LINE
  5
1FF0
330
1A
100
AcDbEntity
  8
部品1
100
AcDbLine
 10
8882.327550881033
 20
4058.888304683743
 30
0.0
 11
8882.327550881033
 21
4004.535207701807
 31
0.0
  0
LINE
  5
1FF1
330
1A
100
AcDbEntity
  8
部品1
100
AcDbLine
 10
8950.327550881032
 20
4057.667104252592
 30
0.0
 11
8950.327550881032
 21
4004.535207701803
 31
0.0
  0
CIRCLE
  5
1FF2
330
1A
100
AcDbEntity
  8
細線
100
AcDbCircle
 10
8916.327550881032
 20
4034.535207701806
 30
0.0
 40
6.0
  0
LWPOLYLINE
  5
1FF3
330
1A
100
AcDbEntity
  8
細線
100
AcDbPolyline
 90
        6
 70
     1
 43
0.0
 10
8909.827550881031
 20
4038.287984451541
 10
8916.327550881032
 20
4042.040761201271
 10
8922.827550881031
 20
4038.287984451541
 10
8922.827550881031
 20
4030.782430952073
 10
8916.327550881032
 20
4027.029654202342
 10
8909.827550881031
 20
4030.782430952073
  0
CIRCLE
  5
1FF4
330
1A
100
AcDbEntity
  8
細線
100
AcDbCircle
 10
8916.327550881032
 20
4034.535207701806
 30
0.0
 40
8.0
  0
LINE
  5
1FF5
330
1A
100
AcDbEntity
  8
部品1
100
AcDbLine
 10
10532.32029473677
 20
4038.701291035141
 30
0.0
 11
10566.32755088103
 21
4038.701291035141
 31
0.0
  0
LINE
  5
1FF6
330
1A
100
AcDbEntity
  8
部品1
100
AcDbLine
 10
8946.327550881033
 20
2440.515874945158
 30
0.0
 11
10536.32755088103
 21
2440.515874945158
 31
0.0
  0
LINE
  5
1FF7
330
1A
100
AcDbEntity
  8
細線
100
AcDbLine
 10
8946.327550881033
 20
2543.515874945159
 30
0.0
 11
10536.32755088103
 21
2543.515874945159
 31
0.0
  0
LINE
  5
1FF8
330
1A
100
AcDbEntity
  8
細線
100
AcDbLine
 10
8946.327550881033
 20
2555.515874945159
 30
0.0
 11
10536.32755088103
 21
2555.515874945159
 31
0.0
  0
LINE
  5
1FF9
330
1A
100
AcDbEntity
  8
細線
100
AcDbLine
 10
8946.327550881033
 20
2884.515874945158
 30
0.0
 11
10536.32755088103
 21
2884.515874945158
 31
0.0
  0
LINE
  5
1FFA
330
1A
100
AcDbEntity
  8
細線
100
AcDbLine
 10
8946.327550881033
 20
2878.515874945159
 30
0.0
 11
10536.32755088103
 21
2878.515874945159
 31
0.0
  0
LINE
  5
1FFB
330
1A
100
AcDbEntity
  8
部品1
100
AcDbLine
 10
8946.327550881033
 20
3340.515874945159
 30
0.0
 11
10536.32755088103
 21
3340.515874945159
 31
0.0
  0
LINE
  5
1FFC
330
1A
100
AcDbEntity
  8
細線
100
AcDbLine
 10
8946.327550881033
 20
3237.515874945159
 30
0.0
 11
10536.32755088103
 21
3237.515874945159
 31
0.0
  0
LINE
  5
1FFD
330
1A
100
AcDbEntity
  8
細線
100
AcDbLine
 10
8946.327550881033
 20
3225.515874945158
 30
0.0
 11
10536.32755088103
 21
3225.515874945158
 31
0.0
  0
ARC
  5
1FFE
330
1A
100
AcDbEntity
  8
部品1
100
AcDbCircle
 10
8777.327550881032
 20
4058.888304683743
 30
0.0
 40
105.0
100
AcDbArc
 50
0.0
 51
92.69568549355007
  0
ARC
  5
1FFF
330
1A
100
AcDbEntity
  8
部品1
100
AcDbCircle
 10
9070.327550881033
 20
4057.667104252592
 30
0.0
 40
120.0
100
AcDbArc
 50
92.69568549355007
 51
180.0
  0
ARC
  5
2000
330
1A
100
AcDbEntity
  8
部品1
100
AcDbCircle
 10
10332.32755088103
 20
4036.997646397554
 30
0.0
 40
200.0
100
AcDbArc
 50
0.4880641401187
 51
92.69568549355007
  0
CIRCLE
  5
2001
330
1A
100
AcDbEntity
  8
細線
100
AcDbCircle
 10
10566.32755088103
 20
4073.70129103514
 30
0.0
 40
6.0
  0
LWPOLYLINE
  5
2002
330
1A
100
AcDbEntity
  8
細線
100
AcDbPolyline
 90
        6
 70
     1
 43
0.0
 10
10559.82755088103
 20
4077.454067784871
 10
10566.32755088103
 20
4081.206844534601
 10
10572.82755088103
 20
4077.454067784871
 10
10572.82755088103
 20
4069.948514285406
 10
10566.32755088103
 20
4066.195737535672
 10
10559.82755088103
 20
4069.948514285406
  0
CIRCLE
  5
2003
330
1A
100
AcDbEntity
  8
細線
100
AcDbCircle
 10
10566.32755088103
 20
4073.70129103514
 30
0.0
 40
8.0
  0
LINE
  5
2004
330
1A
100
AcDbEntity
  8
部品1
100
AcDbLine
 10
8434.151736979996
 20
4151.350640453457
 30
0.0
 11
8728.962941569632
 21
4165.231334669551
 31
0.0
  0
LINE
  5
2005
330
1A
100
AcDbEntity
  8
部品1
100
AcDbLine
 10
8179.772691696483
 20
4388.148916991886
 30
0.0
 11
10566.32755088103
 21
4500.515874945159
 31
0.0
  0
LINE
  5
2006
330
1A
100
AcDbEntity
  8
細線
100
AcDbLine
 10
8171.64294868057
 20
4322.694134167671
 30
0.0
 11
10566.32755088103
 21
4435.443867521277
 31
0.0
  0
LINE
  5
2007
330
1A
100
AcDbEntity
  8
細線
100
AcDbLine
 10
8172.624252889715
 20
4310.727043562597
 30
0.0
 11
10566.32755088103
 21
4423.430573843023
 31
0.0
  0
LINE
  5
2008
330
1A
100
AcDbEntity
  8
部品1
100
AcDbLine
 10
8188.273509941849
 20
4273.421766100997
 30
0.0
 11
10566.32755088103
 21
4385.388477195214
 31
0.0
  0
LINE
  5
2009
330
1A
100
AcDbEntity
  8
部品1
100
AcDbLine
 10
8383.728429582086
 20
4259.098401780807
 30
0.0
 11
10563.85841121006
 21
4361.746188415792
 31
0.0
  0
LINE
  5
200A
330
1A
100
AcDbEntity
  8
部品1
100
AcDbLine
 10
8946.327550881035
 20
4004.535207701803
 30
0.0
 11
8946.327550881035
 21
2240.515874945158
 31
0.0
  0
LINE
  5
200B
330
1A
100
AcDbEntity
  8
部品1
100
AcDbLine
 10
8886.327550881032
 20
4004.535207701807
 30
0.0
 11
8886.327550881032
 21
2240.515874945158
 31
0.0
  0
LINE
  5
200C
330
1A
100
AcDbEntity
  8
部品1
100
AcDbLine
 10
10536.32755088103
 20
4038.701291035141
 30
0.0
 11
10536.32755088103
 21
2240.515874945158
 31
0.0
  0
CIRCLE
  5
200D
330
1A
100
AcDbEntity
  8
細線
100
AcDbCircle
 10
10566.32755088103
 20
4073.70129103514
 30
0.0
 40
8.0
  0
LWPOLYLINE
  5
200E
330
1A
100
AcDbEntity
  8
細線
100
AcDbPolyline
 90
        6
 70
     1
 43
0.0
 10
10572.82755088103
 20
4077.454067784871
 10
10566.32755088103
 20
4081.206844534601
 10
10559.82755088103
 20
4077.454067784871
 10
10559.82755088103
 20
4069.948514285406
 10
10566.32755088103
 20
4066.195737535672
 10
10572.82755088103
 20
4069.948514285406
  0
CIRCLE
  5
200F
330
1A
100
AcDbEntity
  8
細線
100
AcDbCircle
 10
10566.32755088103
 20
4073.70129103514
 30
0.0
 40
6.0
  0
CIRCLE
  5
2010
330
1A
100
AcDbEntity
  8
細線
100
AcDbCircle
 10
10566.32755088103
 20
4175.70129103514
 30
0.0
 40
8.0
  0
LWPOLYLINE
  5
2011
330
1A
100
AcDbEntity
  8
細線
100
AcDbPolyline
 90
        6
 70
     1
 43
0.0
 10
10572.82755088103
 20
4179.45406778487
 10
10566.32755088103
 20
4183.206844534601
 10
10559.82755088103
 20
4179.45406778487
 10
10559.82755088103
 20
4171.948514285406
 10
10566.32755088103
 20
4168.195737535672
 10
10572.82755088103
 20
4171.948514285406
  0
CIRCLE
  5
2012
330
1A
100
AcDbEntity
  8
細線
100
AcDbCircle
 10
10566.32755088103
 20
4175.70129103514
 30
0.0
 40
6.0
  0
CIRCLE
  5
2013
330
1A
100
AcDbEntity
  8
細線
100
AcDbCircle
 10
10790.92744192144
 20
4271.19890768377
 30
0.0
 40
8.0
  0
LWPOLYLINE
  5
2014
330
1A
100
AcDbEntity
  8
細線
100
AcDbPolyline
 90
        6
 70
     1
 43
0.0
 10
10797.42744192144
 20
4274.951684433501
 10
10790.92744192144
 20
4278.704461183231
 10
10784.42744192144
 20
4274.951684433501
 10
10784.42744192144
 20
4267.446130934036
 10
10790.92744192144
 20
4263.693354184303
 10
10797.42744192144
 20
4267.446130934036
  0
CIRCLE
  5
2015
330
1A
100
AcDbEntity
  8
細線
100
AcDbCircle
 10
10790.92744192144
 20
4271.19890768377
 30
0.0
 40
6.0
  0
CIRCLE
  5
2016
330
1A
100
AcDbEntity
  8
細線
100
AcDbCircle
 10
10689.04031314712
 20
4275.996093330224
 30
0.0
 40
8.0
  0
LWPOLYLINE
  5
2017
330
1A
100
AcDbEntity
  8
細線
100
AcDbPolyline
 90
        6
 70
     1
 43
0.0
 10
10695.54031314712
 20
4279.748870079958
 10
10689.04031314712
 20
4283.501646829689
 10
10682.54031314712
 20
4279.748870079958
 10
10682.54031314712
 20
4272.243316580494
 10
10689.04031314712
 20
4268.49053983076
 10
10695.54031314712
 20
4272.243316580494
  0
CIRCLE
  5
2018
330
1A
100
AcDbEntity
  8
細線
100
AcDbCircle
 10
10689.04031314712
 20
4275.996093330224
 30
0.0
 40
6.0
  0
CIRCLE
  5
2019
330
1A
100
AcDbEntity
  8
細線
100
AcDbCircle
 10
10587.15318437281
 20
4280.793278976681
 30
0.0
 40
8.0
  0
LWPOLYLINE
  5
201A
330
1A
100
AcDbEntity
  8
細線
100
AcDbPolyline
 90
        6
 70
     1
 43
0.0
 10
10593.65318437281
 20
4284.546055726416
 10
10587.15318437281
 20
4288.298832476146
 10
10580.65318437281
 20
4284.546055726416
 10
10580.65318437281
 20
4277.040502226948
 10
10587.15318437281
 20
4273.287725477217
 10
10593.65318437281
 20
4277.040502226948
  0
CIRCLE
  5
201B
330
1A
100
AcDbEntity
  8
細線
100
AcDbCircle
 10
10587.15318437281
 20
4280.793278976681
 30
0.0
 40
6.0
  0
CIRCLE
  5
201C
330
1A
100
AcDbEntity
  8
細線
100
AcDbCircle
 10
12216.32755088103
 20
4034.535207701806
 30
0.0
 40
8.0
  0
LWPOLYLINE
  5
201D
330
1A
100
AcDbEntity
  8
細線
100
AcDbPolyline
 90
        6
 70
     1
 43
0.0
 10
12222.82755088103
 20
4038.287984451541
 10
12216.32755088103
 20
4042.040761201271
 10
12209.82755088103
 20
4038.287984451541
 10
12209.82755088103
 20
4030.782430952073
 10
12216.32755088103
 20
4027.029654202342
 10
12222.82755088103
 20
4030.782430952073
  0
CIRCLE
  5
201E
330
1A
100
AcDbEntity
  8
細線
100
AcDbCircle
 10
12216.32755088103
 20
4034.535207701806
 30
0.0
 40
6.0
  0
CIRCLE
  5
201F
330
1A
100
AcDbEntity
  8
細線
100
AcDbCircle
 10
12057.45883392151
 20
4211.566387977109
 30
0.0
 40
8.0
  0
LWPOLYLINE
  5
2020
330
1A
100
AcDbEntity
  8
細線
100
AcDbPolyline
 90
        6
 70
     1
 43
0.0
 10
12063.95883392151
 20
4215.319164726839
 10
12057.45883392151
 20
4219.071941476573
 10
12050.95883392151
 20
4215.319164726839
 10
12050.95883392151
 20
4207.813611227375
 10
12057.45883392151
 20
4204.060834477644
 10
12063.95883392151
 20
4207.813611227375
  0
CIRCLE
  5
2021
330
1A
100
AcDbEntity
  8
細線
100
AcDbCircle
 10
12057.45883392151
 20
4211.566387977109
 30
0.0
 40
6.0
  0
CIRCLE
  5
2022
330
1A
100
AcDbEntity
  8
細線
100
AcDbCircle
 10
12216.32755088103
 20
4119.535207701807
 30
0.0
 40
8.0
  0
LWPOLYLINE
  5
2023
330
1A
100
AcDbEntity
  8
細線
100
AcDbPolyline
 90
        6
 70
     1
 43
0.0
 10
12222.82755088103
 20
4123.287984451541
 10
12216.32755088103
 20
4127.04076120127
 10
12209.82755088103
 20
4123.287984451541
 10
12209.82755088103
 20
4115.782430952072
 10
12216.32755088103
 20
4112.029654202342
 10
12222.82755088103
 20
4115.782430952072
  0
CIRCLE
  5
2024
330
1A
100
AcDbEntity
  8
細線
100
AcDbCircle
 10
12216.32755088103
 20
4119.535207701807
 30
0.0
 40
6.0
  0
CIRCLE
  5
2025
330
1A
100
AcDbEntity
  8
細線
100
AcDbCircle
 10
12163.34153637325
 20
4206.581077403337
 30
0.0
 40
8.0
  0
LWPOLYLINE
  5
2026
330
1A
100
AcDbEntity
  8
細線
100
AcDbPolyline
 90
        6
 70
     1
 43
0.0
 10
12169.84153637324
 20
4210.333854153072
 10
12163.34153637325
 20
4214.086630902806
 10
12156.84153637325
 20
4210.333854153072
 10
12156.84153637325
 20
4202.828300653608
 10
12163.34153637325
 20
4199.075523903877
 10
12169.84153637324
 20
4202.828300653608
  0
CIRCLE
  5
2027
330
1A
100
AcDbEntity
  8
細線
100
AcDbCircle
 10
12163.34153637325
 20
4206.581077403337
 30
0.0
 40
6.0
  0
CIRCLE
  5
2028
330
1A
100
AcDbEntity
  8
細線
100
AcDbCircle
 10
12269.22423882498
 20
4201.59576682957
 30
0.0
 40
8.0
  0
LWPOLYLINE
  5
2029
330
1A
100
AcDbEntity
  8
細線
100
AcDbPolyline
 90
        6
 70
     1
 43
0.0
 10
12275.72423882498
 20
4205.348543579304
 10
12269.22423882498
 20
4209.101320329035
 10
12262.72423882498
 20
4205.348543579304
 10
12262.72423882498
 20
4197.84299007984
 10
12269.22423882498
 20
4194.090213330105
 10
12275.72423882498
 20
4197.84299007984
  0
CIRCLE
  5
202A
330
1A
100
AcDbEntity
  8
細線
100
AcDbCircle
 10
12269.22423882498
 20
4201.59576682957
 30
0.0
 40
6.0
  0
CIRCLE
  5
202B
330
1A
100
AcDbEntity
  8
細線
100
AcDbCircle
 10
12375.10694127672
 20
4196.610456255803
 30
0.0
 40
6.0
  0
LWPOLYLINE
  5
202C
330
1A
100
AcDbEntity
  8
細線
100
AcDbPolyline
 90
        6
 70
     1
 43
0.0
 10
12381.60694127672
 20
4200.363233005533
 10
12375.10694127672
 20
4204.116009755267
 10
12368.60694127672
 20
4200.363233005533
 10
12368.60694127672
 20
4192.857679506072
 10
12375.10694127672
 20
4189.104902756338
 10
12381.60694127672
 20
4192.857679506072
  0
CIRCLE
  5
202D
330
1A
100
AcDbEntity
  8
細線
100
AcDbCircle
 10
12375.10694127672
 20
4196.610456255803
 30
0.0
 40
8.0
  0
LINE
  5
202E
330
1A
100
AcDbEntity
  8
部品1
100
AcDbLine
 10
10566.32755088103
 20
4309.30428389959
 30
0.0
 11
10568.796690552
 21
4361.746188415792
 31
0.0
  0
ARC
  5
202F
330
1A
100
AcDbEntity
  8
部品1
100
AcDbCircle
 10
10803.7372095107
 20
4288.115167740565
 30
0.0
 40
10.0
100
AcDbArc
 50
357.3043145064257
 51
87.30431450644992
  0
LINE
  5
2030
330
1A
100
AcDbEntity
  8
部品1
100
AcDbLine
 10
10804.20752182898
 20
4298.104101934124
 30
0.0
 11
10566.32755088103
 21
4309.30428389959
 31
0.0
  0
ARC
  5
2031
330
1A
100
AcDbEntity
  8
部品1
100
AcDbCircle
 10
10800.32755088103
 20
4036.997646397554
 30
0.0
 40
200.0
100
AcDbArc
 50
87.30431450644992
 51
179.5119358598813
  0
LINE
  5
2032
330
1A
100
AcDbEntity
  8
部品1
100
AcDbLine
 10
10600.33480702529
 20
4038.701291035141
 30
0.0
 11
10566.32755088103
 21
4038.701291035141
 31
0.0
  0
LINE
  5
2033
330
1A
100
AcDbEntity
  8
部品1
100
AcDbLine
 10
10811.32755088103
 20
4236.70129103514
 30
0.0
 11
10813.72614370426
 21
4287.644855422285
 31
0.0
  0
LINE
  5
2034
330
1A
100
AcDbEntity
  8
部品1
100
AcDbLine
 10
10811.32755088103
 20
4236.70129103514
 30
0.0
 11
10809.73379724664
 21
4236.776330268759
 31
0.0
  0
LINE
  5
2035
330
1A
100
AcDbEntity
  8
部品1
100
AcDbLine
 10
6028.08479127592
 20
2440.515874945158
 30
0.0
 11
3708.084791275921
 21
2440.515874945158
 31
0.0
  0
LINE
  5
2036
330
1A
100
AcDbEntity
  8
部品1
100
AcDbLine
 10
6028.08479127592
 20
3340.515874945159
 30
0.0
 11
3708.084791275921
 21
3340.515874945159
 31
0.0
  0
LINE
  5
2037
330
1A
100
AcDbEntity
  8
部品1
100
AcDbLine
 10
6294.505670399507
 20
4387.515874945158
 30
0.0
 11
3441.663912152333
 21
4387.515874945158
 31
0.0
  0
LINE
  5
2038
330
1A
100
AcDbEntity
  8
部品1
100
AcDbLine
 10
6294.505670399507
 20
4500.515874945159
 30
0.0
 11
3441.663912152333
 21
4500.515874945159
 31
0.0
  0
LINE
  5
2039
330
1A
100
AcDbEntity
  8
部品1
100
AcDbLine
 10
12943.33910878918
 20
4388.598247426983
 30
0.0
 11
12933.93494345153
 21
4273.913629128354
 31
0.0
  0
ARC
  5
203A
330
1A
100
AcDbEntity
  8
部品1
100
AcDbCircle
 10
12952.27100405182
 20
4375.163302540259
 30
0.0
 40
13.0
100
AcDbArc
 50
355.312220933526
 51
87.30431450644992
  0
ARC
  5
203B
330
1A
100
AcDbEntity
  8
部品1
100
AcDbCircle
 10
12944.99299783398
 20
4286.407380552623
 30
0.0
 40
13.0
100
AcDbArc
 50
267.3043145064499
 51
355.312220933526
  0
LINE
  5
203C
330
1A
100
AcDbEntity
  8
部品1
100
AcDbLine
 10
12965.22751698825
 20
4374.100865470132
 30
0.0
 11
12957.94951077042
 21
4285.344943482498
 31
0.0
  0
ARC
  5
203D
330
1A
100
AcDbEntity
  8
部品1
100
AcDbCircle
 10
12765.61577786036
 20
4155.198518983335
 30
0.0
 40
10.0
100
AcDbArc
 50
267.3043145064499
 51
345.6149453310531
  0
ARC
  5
203E
330
1A
100
AcDbEntity
  8
部品1
100
AcDbCircle
 10
12796.33960429759
 20
4254.863827280561
 30
0.0
 40
5.0
100
AcDbArc
 50
345.6149453310531
 51
87.30431450644992
  0
LINE
  5
203F
330
1A
100
AcDbEntity
  8
部品1
100
AcDbLine
 10
12775.30225783784
 20
4152.714146699276
 30
0.0
 11
12801.18284428633
 21
4253.621641138532
 31
0.0
  0
LINE
  5
2040
330
1A
100
AcDbEntity
  8
部品1
100
AcDbLine
 10
12765.14546554208
 20
4145.209584789776
 30
0.0
 11
12741.31468811889
 21
4146.331617226784
 31
0.0
  0
LINE
  5
2041
330
1A
100
AcDbEntity
  8
部品1
100
AcDbLine
 10
12796.57476045673
 20
4259.858294377344
 30
0.0
 11
12749.06776587546
 21
4262.095082038875
 31
0.0
  0
LINE
  5
2042
330
1A
100
AcDbEntity
  8
部品1
100
AcDbLine
 10
12746.62921731546
 20
4259.206573614014
 30
0.0
 11
12741.31468811889
 21
4146.331617226784
 31
0.0
  0
ARC
  5
2043
330
1A
100
AcDbEntity
  8
部品1
100
AcDbCircle
 10
12108.89704233179
 20
4243.682724989441
 30
0.0
 40
5.0
100
AcDbArc
 50
267.3043145064499
 51
357.3043145064257
  0
ARC
  5
2044
330
1A
100
AcDbEntity
  8
部品1
100
AcDbCircle
 10
12077.93134633176
 20
4245.140693176108
 30
0.0
 40
5.0
100
AcDbArc
 50
177.3043145064257
 51
267.3043145064499
  0
ARC
  5
2045
330
1A
100
AcDbEntity
  8
部品1
100
AcDbCircle
 10
12395.93720951072
 20
4213.149084407239
 30
0.0
 40
10.0
100
AcDbArc
 50
357.3043145064257
 51
87.30431450644992
  0
ARC
  5
2046
330
1A
100
AcDbEntity
  8
部品1
100
AcDbCircle
 10
12028.31507789782
 20
4230.45795977068
 30
0.0
 40
10.0
100
AcDbArc
 50
87.30431450644992
 51
177.3043145064257
  0
LINE
  5
2047
330
1A
100
AcDbEntity
  8
部品1
100
AcDbLine
 10
12108.66188617265
 20
4238.688257892664
 30
0.0
 11
12077.69619017261
 21
4240.146226079331
 31
0.0
  0
LINE
  5
2048
330
1A
100
AcDbEntity
  8
部品1
100
AcDbLine
 10
12015.92755088103
 20
4179.984707701805
 30
0.0
 11
12018.32614370426
 21
4230.92827208896
 31
0.0
  0
ARC
  5
2049
330
1A
100
AcDbEntity
  8
部品1
100
AcDbCircle
 10
12062.32755088103
 20
4057.667104252592
 30
0.0
 40
120.0
100
AcDbArc
 50
0.0
 51
87.30431450644992
  0
LINE
  5
204A
330
1A
100
AcDbEntity
  8
部品1
100
AcDbLine
 10
12396.407521829
 20
4223.138018600803
 30
0.0
 11
12028.7853902161
 21
4240.446893964239
 31
0.0
  0
LINE
  5
204B
330
1A
100
AcDbEntity
  8
部品1
100
AcDbLine
 10
12403.52755088103
 20
4161.735207701807
 30
0.0
 11
12405.92614370428
 21
4212.678772088955
 31
0.0
  0
ARC
  5
204C
330
1A
100
AcDbEntity
  8
部品1
100
AcDbCircle
 10
12355.32755088103
 20
4058.888304683743
 30
0.0
 40
105.0
100
AcDbArc
 50
87.30431450644992
 51
180.0
  0
LINE
  5
204D
330
1A
100
AcDbEntity
  8
部品1
100
AcDbLine
 10
12250.32755088103
 20
4004.535207701807
 30
0.0
 11
12182.32755088103
 21
4004.535207701807
 31
0.0
  0
LINE
  5
204E
330
1A
100
AcDbEntity
  8
部品1
100
AcDbLine
 10
12250.32755088103
 20
4058.888304683743
 30
0.0
 11
12250.32755088103
 21
4004.535207701807
 31
0.0
  0
LINE
  5
204F
330
1A
100
AcDbEntity
  8
部品1
100
AcDbLine
 10
12182.32755088103
 20
4057.667104252592
 30
0.0
 11
12182.32755088103
 21
4004.535207701803
 31
0.0
  0
LINE
  5
2050
330
1A
100
AcDbEntity
  8
部品1
100
AcDbLine
 10
12067.97129870039
 20
4177.53431457531
 30
0.0
 11
12015.92755088103
 21
4179.984707701805
 31
0.0
  0
LINE
  5
2051
330
1A
100
AcDbEntity
  8
部品1
100
AcDbLine
 10
12403.52755088103
 20
4161.735207701807
 30
0.0
 11
12360.26583022297
 21
4163.77211371612
 31
0.0
  0
LINE
  5
2052
330
1A
100
AcDbEntity
  8
部品1
100
AcDbLine
 10
10812.70336478207
 20
4240.140390453456
 30
0.0
 11
10811.49216019243
 21
4240.197418002884
 31
0.0
  0
LINE
  5
2053
330
1A
100
AcDbEntity
  8
部品1
100
AcDbLine
 10
11441.30336478206
 20
4210.54380712012
 30
0.0
 11
10853.65799497566
 21
4238.212109948508
 31
0.0
  0
LINE
  5
2054
330
1A
100
AcDbEntity
  8
部品1
100
AcDbLine
 10
12016.09216019243
 20
4183.48083466955
 30
0.0
 11
11482.25799497566
 21
4208.615526615172
 31
0.0
  0
LINE
  5
2055
330
1A
100
AcDbEntity
  8
部品1
100
AcDbLine
 10
12698.50336478207
 20
4151.350640453457
 30
0.0
 11
12403.69216019243
 21
4165.231334669551
 31
0.0
  0
LINE
  5
2056
330
1A
100
AcDbEntity
  8
部品1
100
AcDbLine
 10
10858.83143047675
 20
4348.090386077667
 30
0.0
 11
10853.54982314246
 21
4235.914655083987
 31
0.0
  0
LINE
  5
2057
330
1A
100
AcDbEntity
  8
部品1
100
AcDbLine
 10
10853.54982314246
 20
4235.914655083987
 30
0.0
 11
10812.59519294886
 21
4237.842935588939
 31
0.0
  0
LINE
  5
2058
330
1A
100
AcDbEntity
  8
部品1
100
AcDbLine
 10
10817.87680028315
 20
4350.018666582618
 30
0.0
 11
10812.59519294886
 21
4237.842935588939
 31
0.0
  0
LINE
  5
2059
330
1A
100
AcDbEntity
  8
部品1
100
AcDbLine
 10
11487.43143047674
 20
4318.493802744335
 30
0.0
 11
11482.14982314246
 21
4206.318071750654
 31
0.0
  0
LINE
  5
205A
330
1A
100
AcDbEntity
  8
部品1
100
AcDbLine
 10
11482.14982314246
 20
4206.318071750654
 30
0.0
 11
11441.19519294886
 21
4208.246352255602
 31
0.0
  0
LINE
  5
205B
330
1A
100
AcDbEntity
  8
部品1
100
AcDbLine
 10
11446.47680028315
 20
4320.422083249282
 30
0.0
 11
11441.19519294886
 21
4208.246352255602
 31
0.0
  0
LINE
  5
205C
330
1A
100
AcDbEntity
  8
部品1
100
AcDbLine
 10
12116.03143047675
 20
4288.897219411003
 30
0.0
 11
12113.89150942857
 21
4243.447568830303
 31
0.0
  0
LINE
  5
205D
330
1A
100
AcDbEntity
  8
部品1
100
AcDbLine
 10
12075.07680028315
 20
4290.825499915951
 30
0.0
 11
12072.93687923498
 21
4245.375849335251
 31
0.0
  0
LINE
  5
205E
330
1A
100
AcDbEntity
  8
部品1
100
AcDbLine
 10
12739.34982314246
 20
4147.12490508399
 30
0.0
 11
12698.39519294886
 21
4149.053185588935
 31
0.0
  0
LINE
  5
205F
330
1A
100
AcDbEntity
  8
部品1
100
AcDbLine
 10
12744.63143047674
 20
4259.300636077667
 30
0.0
 11
12739.34982314246
 21
4147.12490508399
 31
0.0
  0
LINE
  5
2060
330
1A
100
AcDbEntity
  8
部品1
100
AcDbLine
 10
12703.67680028315
 20
4261.228916582619
 30
0.0
 11
12698.39519294886
 21
4149.053185588935
 31
0.0
  0
LINE
  5
2061
330
1A
100
AcDbEntity
  8
部品1
100
AcDbLine
 10
10814.98646055369
 20
4373.680786864795
 30
0.0
 11
10813.88122660573
 21
4350.206791509928
 31
0.0
  0
LINE
  5
2062
330
1A
100
AcDbEntity
  8
部品1
100
AcDbLine
 10
10864.23190612794
 20
4371.362147135674
 30
0.0
 11
10863.12667217998
 21
4347.888151780807
 31
0.0
  0
LINE
  5
2063
330
1A
100
AcDbEntity
  8
部品1
100
AcDbLine
 10
11443.58646055369
 20
4344.084203531464
 30
0.0
 11
11442.48122660573
 21
4320.610208176597
 31
0.0
  0
LINE
  5
2064
330
1A
100
AcDbEntity
  8
部品1
100
AcDbLine
 10
11492.83190612794
 20
4341.765563802343
 30
0.0
 11
11491.72667217998
 21
4318.291568447476
 31
0.0
  0
LINE
  5
2065
330
1A
100
AcDbEntity
  8
部品1
100
AcDbLine
 10
12072.18646055369
 20
4314.487620198128
 30
0.0
 11
12071.08122660573
 21
4291.013624843261
 31
0.0
  0
LINE
  5
2066
330
1A
100
AcDbEntity
  8
部品1
100
AcDbLine
 10
12121.43190612794
 20
4312.168980469007
 30
0.0
 11
12120.32667217998
 21
4288.69498511414
 31
0.0
  0
LINE
  5
2067
330
1A
100
AcDbEntity
  8
部品1
100
AcDbLine
 10
12700.78646055369
 20
4284.891036864795
 30
0.0
 11
12699.68122660573
 21
4261.417041509928
 31
0.0
  0
LINE
  5
2068
330
1A
100
AcDbEntity
  8
部品1
100
AcDbLine
 10
12750.03190612794
 20
4282.572397135674
 30
0.0
 11
12748.92667217998
 21
4259.098401780807
 31
0.0
  0
LINE
  5
2069
330
1A
100
AcDbEntity
  8
部品1
100
AcDbLine
 10
12741.45578181437
 20
4149.328297484852
 30
0.0
 11
12739.45799497566
 21
4149.422359948508
 31
0.0
  0
LINE
  5
206A
330
1A
100
AcDbEntity
  8
部品1
100
AcDbLine
 10
12748.92667217998
 20
4259.098401780807
 30
0.0
 11
10568.796690552
 21
4361.746188415792
 31
0.0
  0
LINE
  5
206B
330
1A
100
AcDbEntity
  8
点線
 48
50.0
100
AcDbLine
 10
8886.327550881032
 20
1920.515874945158
 30
0.0
 11
8946.327550881033
 21
1920.515874945158
 31
0.0
  0
LINE
  5
206C
330
1A
100
AcDbEntity
  8
細線
100
AcDbLine
 10
12186.32755088103
 20
2878.515874945159
 30
0.0
 11
10596.32755088103
 21
2878.515874945159
 31
0.0
  0
LINE
  5
206D
330
1A
100
AcDbEntity
  8
細線
100
AcDbLine
 10
12186.32755088103
 20
2884.515874945158
 30
0.0
 11
10596.32755088103
 21
2884.515874945158
 31
0.0
  0
LINE
  5
206E
330
1A
100
AcDbEntity
  8
細線
100
AcDbLine
 10
12186.32755088103
 20
2555.515874945159
 30
0.0
 11
10596.32755088103
 21
2555.515874945159
 31
0.0
  0
LINE
  5
206F
330
1A
100
AcDbEntity
  8
細線
100
AcDbLine
 10
12186.32755088103
 20
2543.515874945159
 30
0.0
 11
10596.32755088103
 21
2543.515874945159
 31
0.0
  0
LINE
  5
2070
330
1A
100
AcDbEntity
  8
細線
100
AcDbLine
 10
12186.32755088103
 20
3225.515874945158
 30
0.0
 11
10596.32755088103
 21
3225.515874945158
 31
0.0
  0
LINE
  5
2071
330
1A
100
AcDbEntity
  8
細線
100
AcDbLine
 10
12186.32755088103
 20
3237.515874945159
 30
0.0
 11
10596.32755088103
 21
3237.515874945159
 31
0.0
  0
LINE
  5
2072
330
1A
100
AcDbEntity
  8
細線
100
AcDbLine
 10
12961.01215308149
 20
4322.694134167671
 30
0.0
 11
10566.32755088103
 21
4435.443867521277
 31
0.0
  0
LINE
  5
2073
330
1A
100
AcDbEntity
  8
細線
100
AcDbLine
 10
12960.03084887235
 20
4310.727043562597
 30
0.0
 11
10566.32755088103
 21
4423.430573843023
 31
0.0
  0
LINE
  5
2074
330
1A
100
AcDbEntity
  8
部品1
100
AcDbLine
 10
12186.32755088103
 20
3340.515874945159
 30
0.0
 11
10596.32755088103
 21
3340.515874945159
 31
0.0
  0
LINE
  5
2075
330
1A
100
AcDbEntity
  8
部品1
100
AcDbLine
 10
12186.32755088103
 20
2440.515874945158
 30
0.0
 11
10596.32755088103
 21
2440.515874945158
 31
0.0
  0
LINE
  5
2076
330
1A
100
AcDbEntity
  8
部品1
100
AcDbLine
 10
10596.32755088103
 20
4038.701291035141
 30
0.0
 11
10596.32755088103
 21
2240.515874945158
 31
0.0
  0
LINE
  5
2077
330
1A
100
AcDbEntity
  8
部品1
100
AcDbLine
 10
12186.32755088103
 20
4004.535207701803
 30
0.0
 11
12186.32755088103
 21
2240.515874945158
 31
0.0
  0
LINE
  5
2078
330
1A
100
AcDbEntity
  8
部品1
100
AcDbLine
 10
12246.32755088103
 20
4004.535207701807
 30
0.0
 11
12246.32755088103
 21
2240.515874945158
 31
0.0
  0
LINE
  5
2079
330
1A
100
AcDbEntity
  8
部品1
100
AcDbLine
 10
12944.38159182021
 20
4273.421766100997
 30
0.0
 11
10566.32755088103
 21
4385.388477195214
 31
0.0
  0
LINE
  5
207A
330
1A
100
AcDbEntity
  8
部品1
100
AcDbLine
 10
12952.88241006558
 20
4388.148916991886
 30
0.0
 11
10566.32755088103
 21
4500.515874945159
 31
0.0
  0
LINE
  5
207B
330
1A
100
AcDbEntity
  8
部品1
100
AcDbLine
 10
6088.08479127592
 20
4004.535207701807
 30
0.0
 11
6088.08479127592
 21
2240.515874945158
 31
0.0
  0
LINE
  5
207C
330
1A
100
AcDbEntity
  8
部品1
100
AcDbLine
 10
6028.08479127592
 20
4004.535207701807
 30
0.0
 11
6028.08479127592
 21
2240.515874945158
 31
0.0
  0
LINE
  5
207D
330
1A
100
AcDbEntity
  8
部品1
100
AcDbLine
 10
3708.084791275921
 20
4004.535207701807
 30
0.0
 11
3708.084791275921
 21
2240.515874945158
 31
0.0
  0
LINE
  5
207E
330
1A
100
AcDbEntity
  8
部品1
100
AcDbLine
 10
3648.08479127592
 20
4004.535207701807
 30
0.0
 11
3648.08479127592
 21
2240.515874945158
 31
0.0
  0
LINE
  5
207F
330
1A
100
AcDbEntity
  8
センター
 48
10.0
100
AcDbLine
 10
6058.08479127592
 20
4272.831256646528
 30
0.0
 11
6058.08479127592
 21
1927.20452305047
 31
0.0
  0
LINE
  5
2080
330
1A
100
AcDbEntity
  8
センター
 48
10.0
100
AcDbLine
 10
3678.08479127592
 20
4272.831256646528
 30
0.0
 11
3678.08479127592
 21
1927.20452305047
 31
0.0
  0
LINE
  5
2081
330
1A
100
AcDbEntity
  8
Ｇ．Ｌ
100
AcDbLine
 10
2749.335742647498
 20
2190.515874945158
 30
0.0
 11
13943.42636519888
 21
2190.515874945158
 31
0.0
  0
ARC
  5
2082
330
1A
100
AcDbEntity
  8
部品1
100
AcDbCircle
 10
3438.08479127592
 20
10609.41427062826
 30
0.0
 40
10.0
100
AcDbArc
 50
90.0
 51
180.0
  0
ARC
  5
2083
330
1A
100
AcDbEntity
  8
部品1
100
AcDbCircle
 10
6298.08479127592
 20
5829.414270628262
 30
0.0
 40
10.0
100
AcDbArc
 50
270.0
 51
0.0
  0
LINE
  5
2084
330
1A
100
AcDbEntity
  8
点線
 48
50.0
100
AcDbLine
 10
6028.084791275922
 20
6707.514270628265
 30
0.0
 11
6028.08479127592
 21
7271.114270628263
 31
0.0
  0
LINE
  5
2085
330
1A
100
AcDbEntity
  8
点線
 48
50.0
100
AcDbLine
 10
6088.08479127592
 20
6707.514270628265
 30
0.0
 11
6088.08479127592
 21
7271.114270628263
 31
0.0
  0
LINE
  5
2086
330
1A
100
AcDbEntity
  8
点線
 48
50.0
100
AcDbLine
 10
6088.084791275917
 20
6078.914270628262
 30
0.0
 11
6088.084791275917
 21
6642.514270628263
 31
0.0
  0
LINE
  5
2087
330
1A
100
AcDbEntity
  8
点線
 48
50.0
100
AcDbLine
 10
6028.08479127592
 20
6078.914270628262
 30
0.0
 11
6028.08479127592
 21
6642.514270628263
 31
0.0
  0
LINE
  5
2088
330
1A
100
AcDbEntity
  8
点線
 48
50.0
100
AcDbLine
 10
6088.08479127592
 20
7336.114270628262
 30
0.0
 11
6088.084791275922
 21
7899.714270628265
 31
0.0
  0
LINE
  5
2089
330
1A
100
AcDbEntity
  8
点線
 48
50.0
100
AcDbLine
 10
6028.08479127592
 20
7336.114270628262
 30
0.0
 11
6028.084791275922
 21
7899.714270628265
 31
0.0
  0
LINE
  5
208A
330
1A
100
AcDbEntity
  8
点線
 48
50.0
100
AcDbLine
 10
6028.08479127592
 20
7964.714270628265
 30
0.0
 11
6028.08479127592
 21
8079.414270628261
 31
0.0
  0
LINE
  5
208B
330
1A
100
AcDbEntity
  8
点線
 48
50.0
100
AcDbLine
 10
6088.08479127592
 20
7964.714270628265
 30
0.0
 11
6088.08479127592
 21
8079.414270628261
 31
0.0
  0
LINE
  5
208C
330
1A
100
AcDbEntity
  8
部品1
100
AcDbLine
 10
5419.26245233643
 20
6013.914270628262
 30
0.0
 11
3498.08479127592
 21
6013.914270628262
 31
0.0
  0
LINE
  5
208D
330
1A
100
AcDbEntity
  8
部品1
100
AcDbLine
 10
5413.228332539525
 20
6033.914270628262
 30
0.0
 11
3498.08479127592
 21
6033.914270628262
 31
0.0
  0
LINE
  5
208E
330
1A
100
AcDbEntity
  8
部品1
100
AcDbLine
 10
5399.651562996492
 20
6078.914270628262
 30
0.0
 11
3498.08479127592
 21
6078.914270628262
 31
0.0
  0
LINE
  5
208F
330
1A
100
AcDbEntity
  8
部品1
100
AcDbLine
 10
5229.610067119731
 20
6642.514270628263
 30
0.0
 11
3498.08479127592
 21
6642.514270628263
 31
0.0
  0
LINE
  5
2090
330
1A
100
AcDbEntity
  8
部品1
100
AcDbLine
 10
5223.575947322826
 20
6662.514270628261
 30
0.0
 11
3498.08479127592
 21
6662.514270628261
 31
0.0
  0
LINE
  5
2091
330
1A
100
AcDbEntity
  8
部品1
100
AcDbLine
 10
5209.999177779793
 20
6707.514270628262
 30
0.0
 11
3498.08479127592
 21
6707.514270628262
 31
0.0
  0
LINE
  5
2092
330
1A
100
AcDbEntity
  8
部品1
100
AcDbLine
 10
5039.957681903032
 20
7271.114270628263
 30
0.0
 11
3498.08479127592
 21
7271.114270628263
 31
0.0
  0
LINE
  5
2093
330
1A
100
AcDbEntity
  8
部品1
100
AcDbLine
 10
5033.923562106127
 20
7291.114270628263
 30
0.0
 11
3498.08479127592
 21
7291.114270628263
 31
0.0
  0
LINE
  5
2094
330
1A
100
AcDbEntity
  8
部品1
100
AcDbLine
 10
5020.346792563094
 20
7336.114270628262
 30
0.0
 11
3498.08479127592
 21
7336.114270628262
 31
0.0
  0
LINE
  5
2095
330
1A
100
AcDbEntity
  8
部品1
100
AcDbLine
 10
4830.694407346393
 20
7964.714270628263
 30
0.0
 11
3498.08479127592
 21
7964.714270628265
 31
0.0
  0
LINE
  5
2096
330
1A
100
AcDbEntity
  8
部品1
100
AcDbLine
 10
4844.271176889428
 20
7919.714270628265
 30
0.0
 11
3498.08479127592
 21
7919.714270628265
 31
0.0
  0
LINE
  5
2097
330
1A
100
AcDbEntity
  8
部品1
100
AcDbLine
 10
3498.08479127592
 20
8079.414270628261
 30
0.0
 11
3498.08479127592
 21
5943.414270628262
 31
0.0
  0
LINE
  5
2098
330
1A
100
AcDbEntity
  8
部品1
100
AcDbLine
 10
4850.305296686331
 20
7899.714270628265
 30
0.0
 11
3498.08479127592
 21
7899.714270628265
 31
0.0
  0
LINE
  5
2099
330
1A
100
AcDbEntity
  8
部品1
100
AcDbLine
 10
3648.08479127592
 20
8474.114270628259
 30
0.0
 11
3648.08479127592
 21
8359.414270628262
 31
0.0
  0
LINE
  5
209A
330
1A
100
AcDbEntity
  8
部品1
100
AcDbLine
 10
3708.084791275921
 20
8474.114270628259
 30
0.0
 11
3708.084791275921
 21
8359.414270628262
 31
0.0
  0
LINE
  5
209B
330
1A
100
AcDbEntity
  8
部品1
100
AcDbLine
 10
3708.084791275921
 20
9102.714270628261
 30
0.0
 11
3708.084791275921
 21
8539.11427062826
 31
0.0
  0
LINE
  5
209C
330
1A
100
AcDbEntity
  8
部品1
100
AcDbLine
 10
3648.08479127592
 20
9102.714270628261
 30
0.0
 11
3648.08479127592
 21
8539.11427062826
 31
0.0
  0
LINE
  5
209D
330
1A
100
AcDbEntity
  8
部品1
100
AcDbLine
 10
3648.08479127592
 20
9731.314270628262
 30
0.0
 11
3648.08479127592
 21
9167.714270628259
 31
0.0
  0
LINE
  5
209E
330
1A
100
AcDbEntity
  8
部品1
100
AcDbLine
 10
3708.084791275921
 20
9731.314270628262
 30
0.0
 11
3708.084791275921
 21
9167.714270628261
 31
0.0
  0
LINE
  5
209F
330
1A
100
AcDbEntity
  8
部品1
100
AcDbLine
 10
3708.084791275921
 20
10359.91427062826
 30
0.0
 11
3708.084791275921
 21
9796.314270628261
 31
0.0
  0
LINE
  5
20A0
330
1A
100
AcDbEntity
  8
部品1
100
AcDbLine
 10
3648.08479127592
 20
10359.91427062826
 30
0.0
 11
3648.08479127592
 21
9796.314270628261
 31
0.0
  0
LINE
  5
20A1
330
1A
100
AcDbEntity
  8
部品1
100
AcDbLine
 10
4657.394486779305
 20
8539.11427062826
 30
0.0
 11
3498.08479127592
 21
8539.114270628259
 31
0.0
  0
LINE
  5
20A2
330
1A
100
AcDbEntity
  8
部品1
100
AcDbLine
 10
4663.42860657621
 20
8519.114270628261
 30
0.0
 11
3498.08479127592
 21
8519.114270628259
 31
0.0
  0
LINE
  5
20A3
330
1A
100
AcDbEntity
  8
部品1
100
AcDbLine
 10
4677.005376119245
 20
8474.114270628261
 30
0.0
 11
3498.08479127592
 21
8474.114270628259
 31
0.0
  0
LINE
  5
20A4
330
1A
100
AcDbEntity
  8
部品1
100
AcDbLine
 10
4467.742101562605
 20
9167.714270628261
 30
0.0
 11
3498.08479127592
 21
9167.714270628261
 31
0.0
  0
LINE
  5
20A5
330
1A
100
AcDbEntity
  8
部品1
100
AcDbLine
 10
4473.77622135951
 20
9147.714270628261
 30
0.0
 11
3498.08479127592
 21
9147.714270628261
 31
0.0
  0
LINE
  5
20A6
330
1A
100
AcDbEntity
  8
部品1
100
AcDbLine
 10
4487.352990902543
 20
9102.714270628261
 30
0.0
 11
3498.08479127592
 21
9102.714270628261
 31
0.0
  0
LINE
  5
20A7
330
1A
100
AcDbEntity
  8
部品1
100
AcDbLine
 10
4297.700605685844
 20
9731.314270628262
 30
0.0
 11
3498.08479127592
 21
9731.314270628262
 31
0.0
  0
LINE
  5
20A8
330
1A
100
AcDbEntity
  8
部品1
100
AcDbLine
 10
4284.12383614281
 20
9776.314270628262
 30
0.0
 11
3498.08479127592
 21
9776.314270628262
 31
0.0
  0
LINE
  5
20A9
330
1A
100
AcDbEntity
  8
部品1
100
AcDbLine
 10
4278.089716345906
 20
9796.314270628261
 30
0.0
 11
3498.08479127592
 21
9796.314270628261
 31
0.0
  0
LINE
  5
20AA
330
1A
100
AcDbEntity
  8
部品1
100
AcDbLine
 10
4108.048220469146
 20
10359.91427062826
 30
0.0
 11
3498.08479127592
 21
10359.91427062826
 31
0.0
  0
LINE
  5
20AB
330
1A
100
AcDbEntity
  8
部品1
100
AcDbLine
 10
4094.47145092611
 20
10404.91427062826
 30
0.0
 11
3498.08479127592
 21
10404.91427062826
 31
0.0
  0
LINE
  5
20AC
330
1A
100
AcDbEntity
  8
部品1
100
AcDbLine
 10
4088.437331129205
 20
10424.91427062826
 30
0.0
 11
3498.08479127592
 21
10424.91427062826
 31
0.0
  0
LINE
  5
20AD
330
1A
100
AcDbEntity
  8
部品1
100
AcDbLine
 10
3498.08479127592
 20
10495.41427062826
 30
0.0
 11
3498.08479127592
 21
8359.414270628262
 31
0.0
  0
LINE
  5
20AE
330
1A
100
AcDbEntity
  8
部品1
100
AcDbLine
 10
3999.584917119792
 20
10719.41427062826
 30
0.0
 11
5508.114866345844
 21
5719.414270628262
 31
0.0
  0
LINE
  5
20AF
330
1A
100
AcDbEntity
  8
部品1
100
AcDbLine
 10
3455.58479127592
 20
5838.914270628261
 30
0.0
 11
3476.58479127592
 21
5838.914270628261
 31
0.0
  0
LINE
  5
20B0
330
1A
100
AcDbEntity
  8
部品1
100
AcDbLine
 10
3450.58479127592
 20
5833.914270628262
 30
0.0
 11
3450.58479127592
 21
5819.414270628262
 31
0.0
  0
ARC
  5
20B1
330
1A
100
AcDbEntity
  8
部品1
100
AcDbCircle
 10
3455.58479127592
 20
5833.914270628262
 30
0.0
 40
5.0
100
AcDbArc
 50
90.0
 51
180.0
  0
LINE
  5
20B2
330
1A
100
AcDbEntity
  8
部品1
100
AcDbLine
 10
3476.584791275928
 20
5943.414270628262
 30
0.0
 11
3476.58479127592
 21
5838.914270628261
 31
0.0
  0
ARC
  5
20B3
330
1A
100
AcDbEntity
  8
部品1
100
AcDbCircle
 10
3438.08479127592
 20
5829.414270628262
 30
0.0
 40
10.0
100
AcDbArc
 50
180.0
 51
270.0
  0
LINE
  5
20B4
330
1A
100
AcDbEntity
  8
部品1
100
AcDbLine
 10
3648.084791275922
 20
5977.914270628262
 30
0.0
 11
3708.084791275922
 21
5977.914270628262
 31
0.0
  0
LINE
  5
20B5
330
1A
100
AcDbEntity
  8
部品1
100
AcDbLine
 10
3648.084791275924
 20
6013.914270628262
 30
0.0
 11
3648.084791275922
 21
5977.914270628262
 31
0.0
  0
LINE
  5
20B6
330
1A
100
AcDbEntity
  8
部品1
100
AcDbLine
 10
3708.084791275924
 20
6013.914270628262
 30
0.0
 11
3708.084791275922
 21
5977.914270628262
 31
0.0
  0
LINE
  5
20B7
330
1A
100
AcDbEntity
  8
部品1
100
AcDbLine
 10
3648.08479127592
 20
7271.114270628261
 30
0.0
 11
3648.08479127592
 21
6707.514270628262
 31
0.0
  0
LINE
  5
20B8
330
1A
100
AcDbEntity
  8
部品1
100
AcDbLine
 10
3708.084791275921
 20
7271.114270628261
 30
0.0
 11
3708.084791275921
 21
6707.514270628262
 31
0.0
  0
LINE
  5
20B9
330
1A
100
AcDbEntity
  8
部品1
100
AcDbLine
 10
3648.08479127592
 20
8079.414270628261
 30
0.0
 11
3648.08479127592
 21
7964.714270628265
 31
0.0
  0
LINE
  5
20BA
330
1A
100
AcDbEntity
  8
部品1
100
AcDbLine
 10
3708.084791275921
 20
8079.414270628261
 30
0.0
 11
3708.084791275921
 21
7964.714270628265
 31
0.0
  0
LINE
  5
20BB
330
1A
100
AcDbEntity
  8
部品1
100
AcDbLine
 10
3648.08479127592
 20
7899.714270628265
 30
0.0
 11
3648.08479127592
 21
7336.114270628262
 31
0.0
  0
LINE
  5
20BC
330
1A
100
AcDbEntity
  8
部品1
100
AcDbLine
 10
3708.084791275921
 20
7899.714270628265
 30
0.0
 11
3708.084791275921
 21
7336.114270628262
 31
0.0
  0
LINE
  5
20BD
330
1A
100
AcDbEntity
  8
部品1
100
AcDbLine
 10
3428.08479127592
 20
10609.41427062826
 30
0.0
 11
3428.08479127592
 21
5829.414270628262
 31
0.0
  0
LINE
  5
20BE
330
1A
100
AcDbEntity
  8
部品1
100
AcDbLine
 10
3473.08479127592
 20
10599.91427062826
 30
0.0
 11
3473.08479127592
 21
5838.914270628261
 31
0.0
  0
LINE
  5
20BF
330
1A
100
AcDbEntity
  8
部品1
100
AcDbLine
 10
4800.08479127592
 20
8066.16938620677
 30
0.0
 11
4800.08479127592
 21
8079.414270628261
 31
0.0
  0
LINE
  5
20C0
330
1A
100
AcDbEntity
  8
部品1
100
AcDbLine
 10
3648.08479127592
 20
6642.514270628263
 30
0.0
 11
3648.084791275924
 21
6078.914270628262
 31
0.0
  0
LINE
  5
20C1
330
1A
100
AcDbEntity
  8
部品1
100
AcDbLine
 10
3708.084791275921
 20
6642.514270628263
 30
0.0
 11
3708.084791275924
 21
6078.914270628262
 31
0.0
  0
LINE
  5
20C2
330
1A
100
AcDbEntity
  8
部品1
100
AcDbLine
 10
6285.58479127592
 20
5819.414270628262
 30
0.0
 11
6285.58479127592
 21
5833.914270628262
 31
0.0
  0
ARC
  5
20C3
330
1A
100
AcDbEntity
  8
部品1
100
AcDbCircle
 10
6280.58479127592
 20
5833.914270628262
 30
0.0
 40
5.0
100
AcDbArc
 50
0.0
 51
90.0
  0
LINE
  5
20C4
330
1A
100
AcDbEntity
  8
部品1
100
AcDbLine
 10
6259.58479127592
 20
5838.914270628261
 30
0.0
 11
6259.58479127592
 21
5943.414270628262
 31
0.0
  0
LINE
  5
20C5
330
1A
100
AcDbEntity
  8
部品1
100
AcDbLine
 10
6259.58479127592
 20
5838.914270628261
 30
0.0
 11
6280.58479127592
 21
5838.914270628261
 31
0.0
  0
LINE
  5
20C6
330
1A
100
AcDbEntity
  8
点線
 48
50.0
100
AcDbLine
 10
6028.08479127592
 20
5977.914270628262
 30
0.0
 11
6088.08479127592
 21
5977.914270628262
 31
0.0
  0
LINE
  5
20C7
330
1A
100
AcDbEntity
  8
部品1
100
AcDbLine
 10
6308.08479127592
 20
5829.414270628262
 30
0.0
 11
6308.084791275922
 21
10609.41427062826
 31
0.0
  0
LINE
  5
20C8
330
1A
100
AcDbEntity
  8
部品1
100
AcDbLine
 10
6263.08479127592
 20
5838.914270628261
 30
0.0
 11
6263.084791275923
 21
10599.91427062826
 31
0.0
  0
LINE
  5
20C9
330
1A
100
AcDbEntity
  8
部品1
100
AcDbLine
 10
6249.58479127592
 20
5943.414270628262
 30
0.0
 11
6249.58479127592
 21
8079.414270628261
 31
0.0
  0
LINE
  5
20CA
330
1A
100
AcDbEntity
  8
部品1
100
AcDbLine
 10
6215.08479127592
 20
5943.414270628262
 30
0.0
 11
6215.08479127592
 21
8079.414270628261
 31
0.0
  0
LINE
  5
20CB
330
1A
100
AcDbEntity
  8
部品1
100
AcDbLine
 10
5669.584791275919
 20
5943.414270628262
 30
0.0
 11
5669.584791275919
 21
8079.414270628261
 31
0.0
  0
LINE
  5
20CC
330
1A
100
AcDbEntity
  8
部品1
100
AcDbLine
 10
5635.08479127592
 20
5943.414270628262
 30
0.0
 11
5635.08479127592
 21
8079.414270628261
 31
0.0
  0
LINE
  5
20CD
330
1A
100
AcDbEntity
  8
部品1
100
AcDbLine
 10
5089.58479127592
 20
7106.625957358945
 30
0.0
 11
5089.58479127592
 21
8079.414270628261
 31
0.0
  0
LINE
  5
20CE
330
1A
100
AcDbEntity
  8
部品1
100
AcDbLine
 10
5055.08479127592
 20
7220.975692402986
 30
0.0
 11
5055.08479127592
 21
8079.414270628261
 31
0.0
  0
LINE
  5
20CF
330
1A
100
AcDbEntity
  8
部品1
100
AcDbLine
 10
5880.08479127592
 20
5943.414270628263
 30
0.0
 11
5880.08479127592
 21
8079.414270628261
 31
0.0
  0
LINE
  5
20D0
330
1A
100
AcDbEntity
  8
部品1
100
AcDbLine
 10
5925.08479127592
 20
5943.414270628263
 30
0.0
 11
5925.08479127592
 21
8079.414270628261
 31
0.0
  0
LINE
  5
20D1
330
1A
100
AcDbEntity
  8
部品1
100
AcDbLine
 10
5953.084791275919
 20
5943.414270628263
 30
0.0
 11
5953.084791275919
 21
8079.414270628261
 31
0.0
  0
LINE
  5
20D2
330
1A
100
AcDbEntity
  8
部品1
100
AcDbLine
 10
5998.08479127592
 20
5943.414270628263
 30
0.0
 11
5998.08479127592
 21
8079.414270628261
 31
0.0
  0
LINE
  5
20D3
330
1A
100
AcDbEntity
  8
部品1
100
AcDbLine
 10
5418.084791275919
 20
6017.817610635248
 30
0.0
 11
5418.084791275919
 21
8079.414270628261
 31
0.0
  0
LINE
  5
20D4
330
1A
100
AcDbEntity
  8
部品1
100
AcDbLine
 10
5373.08479127592
 20
6166.969438953561
 30
0.0
 11
5373.08479127592
 21
8079.414270628261
 31
0.0
  0
LINE
  5
20D5
330
1A
100
AcDbEntity
  8
部品1
100
AcDbLine
 10
5345.08479127592
 20
6259.775021018289
 30
0.0
 11
5345.08479127592
 21
8079.414270628261
 31
0.0
  0
LINE
  5
20D6
330
1A
100
AcDbEntity
  8
部品1
100
AcDbLine
 10
5300.084791275922
 20
6408.926849336603
 30
0.0
 11
5300.08479127592
 21
8079.414270628261
 31
0.0
  0
LINE
  5
20D7
330
1A
100
AcDbEntity
  8
部品1
100
AcDbLine
 10
4918.084791275919
 20
7675.060147505409
 30
0.0
 11
4918.084791275919
 21
8079.414270628261
 31
0.0
  0
LINE
  5
20D8
330
1A
100
AcDbEntity
  8
部品1
100
AcDbLine
 10
4873.08479127592
 20
7824.211975823724
 30
0.0
 11
4873.08479127592
 21
8079.414270628261
 31
0.0
  0
LINE
  5
20D9
330
1A
100
AcDbEntity
  8
部品1
100
AcDbLine
 10
4845.084791275922
 20
7917.017557888453
 30
0.0
 11
4845.08479127592
 21
8079.414270628261
 31
0.0
  0
LINE
  5
20DA
330
1A
100
AcDbEntity
  8
部品1
100
AcDbLine
 10
4800.08479127592
 20
8066.16938620677
 30
0.0
 11
4800.08479127592
 21
8079.414270628261
 31
0.0
  0
LINE
  5
20DB
330
1A
100
AcDbEntity
  8
点線
 48
50.0
100
AcDbLine
 10
6088.08479127592
 20
5977.914270628262
 30
0.0
 11
6088.08479127592
 21
6013.914270628262
 31
0.0
  0
LINE
  5
20DC
330
1A
100
AcDbEntity
  8
点線
 48
50.0
100
AcDbLine
 10
6028.08479127592
 20
5977.914270628262
 30
0.0
 11
6028.08479127592
 21
6013.914270628262
 31
0.0
  0
LINE
  5
20DD
330
1A
100
AcDbEntity
  8
部品1
100
AcDbLine
 10
6308.08479127592
 20
8219.414270628261
 30
0.0
 11
3428.08479127592
 21
8219.414270628261
 31
0.0
  0
LINE
  5
20DE
330
1A
100
AcDbEntity
  8
部品1
100
AcDbLine
 10
6263.08479127592
 20
8079.414270628261
 30
0.0
 11
3473.08479127592
 21
8079.414270628261
 31
0.0
  0
LINE
  5
20DF
330
1A
100
AcDbEntity
  8
点線
 48
50.0
100
AcDbLine
 10
5419.26245233643
 20
6013.914270628262
 30
0.0
 11
6278.084791275916
 21
6013.914270628262
 31
0.0
  0
LINE
  5
20E0
330
1A
100
AcDbEntity
  8
点線
 48
50.0
100
AcDbLine
 10
5413.228332539528
 20
6033.914270628262
 30
0.0
 11
6278.084791275919
 21
6033.914270628262
 31
0.0
  0
LINE
  5
20E1
330
1A
100
AcDbEntity
  8
点線
 48
50.0
100
AcDbLine
 10
5399.65156299649
 20
6078.914270628262
 30
0.0
 11
6278.084791275916
 21
6078.914270628262
 31
0.0
  0
LINE
  5
20E2
330
1A
100
AcDbEntity
  8
点線
 48
50.0
100
AcDbLine
 10
5229.610067119729
 20
6642.514270628263
 30
0.0
 11
6278.084791275919
 21
6642.514270628263
 31
0.0
  0
LINE
  5
20E3
330
1A
100
AcDbEntity
  8
点線
 48
50.0
100
AcDbLine
 10
5223.575947322826
 20
6662.51427062826
 30
0.0
 11
6278.084791275919
 21
6662.514270628261
 31
0.0
  0
LINE
  5
20E4
330
1A
100
AcDbEntity
  8
点線
 48
50.0
100
AcDbLine
 10
5209.999177779792
 20
6707.514270628262
 30
0.0
 11
6278.084791275919
 21
6707.514270628265
 31
0.0
  0
LINE
  5
20E5
330
1A
100
AcDbEntity
  8
点線
 48
50.0
100
AcDbLine
 10
5039.95768190303
 20
7271.114270628263
 30
0.0
 11
6278.084791275916
 21
7271.114270628263
 31
0.0
  0
LINE
  5
20E6
330
1A
100
AcDbEntity
  8
点線
 48
50.0
100
AcDbLine
 10
5033.923562106129
 20
7291.114270628263
 30
0.0
 11
6278.084791275919
 21
7291.114270628263
 31
0.0
  0
LINE
  5
20E7
330
1A
100
AcDbEntity
  8
点線
 48
50.0
100
AcDbLine
 10
5020.346792563092
 20
7336.114270628262
 30
0.0
 11
6278.084791275916
 21
7336.114270628262
 31
0.0
  0
LINE
  5
20E8
330
1A
100
AcDbEntity
  8
点線
 48
50.0
100
AcDbLine
 10
4850.305296686331
 20
7899.714270628265
 30
0.0
 11
6278.084791275919
 21
7899.714270628265
 31
0.0
  0
LINE
  5
20E9
330
1A
100
AcDbEntity
  8
点線
 48
50.0
100
AcDbLine
 10
4844.271176889428
 20
7919.714270628265
 30
0.0
 11
6278.084791275916
 21
7919.714270628265
 31
0.0
  0
LINE
  5
20EA
330
1A
100
AcDbEntity
  8
点線
 48
50.0
100
AcDbLine
 10
4830.694407346393
 20
7964.714270628265
 30
0.0
 11
6278.084791275919
 21
7964.714270628265
 31
0.0
  0
LINE
  5
20EB
330
1A
100
AcDbEntity
  8
点線
 48
50.0
100
AcDbLine
 10
6028.084791275919
 20
10424.91427062826
 30
0.0
 11
6028.084791275919
 21
10460.91427062826
 31
0.0
  0
LINE
  5
20EC
330
1A
100
AcDbEntity
  8
点線
 48
50.0
100
AcDbLine
 10
6088.084791275917
 20
10424.91427062826
 30
0.0
 11
6088.084791275917
 21
10460.91427062826
 31
0.0
  0
LINE
  5
20ED
330
1A
100
AcDbEntity
  8
点線
 48
50.0
100
AcDbLine
 10
6028.084791275919
 20
9796.314270628261
 30
0.0
 11
6028.084791275919
 21
10359.91427062826
 31
0.0
  0
LINE
  5
20EE
330
1A
100
AcDbEntity
  8
点線
 48
50.0
100
AcDbLine
 10
6088.084791275917
 20
9796.314270628261
 30
0.0
 11
6088.084791275917
 21
10359.91427062826
 31
0.0
  0
LINE
  5
20EF
330
1A
100
AcDbEntity
  8
点線
 48
50.0
100
AcDbLine
 10
6028.084791275919
 20
9167.714270628264
 30
0.0
 11
6028.084791275919
 21
9731.314270628262
 31
0.0
  0
LINE
  5
20F0
330
1A
100
AcDbEntity
  8
点線
 48
50.0
100
AcDbLine
 10
6088.084791275917
 20
9167.714270628264
 30
0.0
 11
6088.084791275917
 21
9731.314270628262
 31
0.0
  0
LINE
  5
20F1
330
1A
100
AcDbEntity
  8
点線
 48
50.0
100
AcDbLine
 10
6028.084791275919
 20
8539.114270628259
 30
0.0
 11
6028.084791275919
 21
9102.714270628261
 31
0.0
  0
LINE
  5
20F2
330
1A
100
AcDbEntity
  8
点線
 48
50.0
100
AcDbLine
 10
6088.084791275917
 20
8539.114270628259
 30
0.0
 11
6088.084791275917
 21
9102.714270628261
 31
0.0
  0
LINE
  5
20F3
330
1A
100
AcDbEntity
  8
点線
 48
50.0
100
AcDbLine
 10
6088.084791275917
 20
10460.91427062826
 30
0.0
 11
6028.084791275919
 21
10460.91427062826
 31
0.0
  0
LINE
  5
20F4
330
1A
100
AcDbEntity
  8
部品1
100
AcDbLine
 10
3708.084791275921
 20
10460.91427062826
 30
0.0
 11
3648.08479127592
 21
10460.91427062826
 31
0.0
  0
LINE
  5
20F5
330
1A
100
AcDbEntity
  8
点線
 48
50.0
100
AcDbLine
 10
6088.084791275917
 20
8359.414270628262
 30
0.0
 11
6088.084791275917
 21
8474.114270628259
 31
0.0
  0
LINE
  5
20F6
330
1A
100
AcDbEntity
  8
点線
 48
50.0
100
AcDbLine
 10
6028.084791275919
 20
8359.414270628262
 30
0.0
 11
6028.084791275919
 21
8474.114270628259
 31
0.0
  0
LINE
  5
20F7
330
1A
100
AcDbEntity
  8
部品1
100
AcDbLine
 10
3708.084791275921
 20
10460.91427062826
 30
0.0
 11
3708.084791275921
 21
10424.91427062826
 31
0.0
  0
LINE
  5
20F8
330
1A
100
AcDbEntity
  8
部品1
100
AcDbLine
 10
3648.08479127592
 20
10460.91427062826
 30
0.0
 11
3648.08479127592
 21
10424.91427062826
 31
0.0
  0
LINE
  5
20F9
330
1A
100
AcDbEntity
  8
点線
 48
50.0
100
AcDbLine
 10
6278.084791275916
 20
8539.114270628259
 30
0.0
 11
4657.394486779305
 21
8539.114270628259
 31
0.0
  0
LINE
  5
20FA
330
1A
100
AcDbEntity
  8
点線
 48
50.0
100
AcDbLine
 10
6278.084791275919
 20
9167.714270628261
 30
0.0
 11
4467.742101562604
 21
9167.714270628261
 31
0.0
  0
LINE
  5
20FB
330
1A
100
AcDbEntity
  8
点線
 48
50.0
100
AcDbLine
 10
6278.084791275919
 20
9796.314270628261
 30
0.0
 11
4278.089716345906
 21
9796.314270628261
 31
0.0
  0
LINE
  5
20FC
330
1A
100
AcDbEntity
  8
点線
 48
50.0
100
AcDbLine
 10
6278.084791275919
 20
10424.91427062826
 30
0.0
 11
4088.437331129205
 21
10424.91427062826
 31
0.0
  0
LINE
  5
20FD
330
1A
100
AcDbEntity
  8
点線
 48
50.0
100
AcDbLine
 10
6278.084791275919
 20
8519.114270628259
 30
0.0
 11
4663.428606576208
 21
8519.114270628259
 31
0.0
  0
LINE
  5
20FE
330
1A
100
AcDbEntity
  8
点線
 48
50.0
100
AcDbLine
 10
6278.084791275919
 20
8474.114270628259
 30
0.0
 11
4677.005376119245
 21
8474.114270628259
 31
0.0
  0
LINE
  5
20FF
330
1A
100
AcDbEntity
  8
点線
 48
50.0
100
AcDbLine
 10
6278.084791275919
 20
9102.714270628263
 30
0.0
 11
4487.352990902543
 21
9102.714270628261
 31
0.0
  0
LINE
  5
2100
330
1A
100
AcDbEntity
  8
点線
 48
50.0
100
AcDbLine
 10
6278.084791275919
 20
9147.714270628261
 30
0.0
 11
4473.776221359506
 21
9147.714270628261
 31
0.0
  0
LINE
  5
2101
330
1A
100
AcDbEntity
  8
点線
 48
50.0
100
AcDbLine
 10
6278.084791275916
 20
9731.31427062826
 30
0.0
 11
4297.700605685846
 21
9731.314270628262
 31
0.0
  0
LINE
  5
2102
330
1A
100
AcDbEntity
  8
点線
 48
50.0
100
AcDbLine
 10
6278.084791275919
 20
9776.314270628263
 30
0.0
 11
4284.12383614281
 21
9776.314270628262
 31
0.0
  0
LINE
  5
2103
330
1A
100
AcDbEntity
  8
点線
 48
50.0
100
AcDbLine
 10
6278.084791275919
 20
10359.91427062826
 30
0.0
 11
4108.048220469146
 21
10359.91427062826
 31
0.0
  0
LINE
  5
2104
330
1A
100
AcDbEntity
  8
点線
 48
50.0
100
AcDbLine
 10
6278.084791275919
 20
10404.91427062826
 30
0.0
 11
4094.471450926112
 21
10404.91427062826
 31
0.0
  0
LINE
  5
2105
330
1A
100
AcDbEntity
  8
センター
 48
10.0
100
AcDbLine
 10
6278.084791275919
 20
8496.61427062826
 30
0.0
 11
3458.084791275921
 21
8496.614270628255
 31
0.0
  0
LINE
  5
2106
330
1A
100
AcDbEntity
  8
センター
 48
10.0
100
AcDbLine
 10
6278.084791275919
 20
9125.214270628262
 30
0.0
 11
3458.084791275918
 21
9125.21427062826
 31
0.0
  0
LINE
  5
2107
330
1A
100
AcDbEntity
  8
センター
 48
10.0
100
AcDbLine
 10
6278.084791275919
 20
9753.814270628261
 30
0.0
 11
3458.084791275921
 21
9753.814270628264
 31
0.0
  0
LINE
  5
2108
330
1A
100
AcDbEntity
  8
センター
 48
10.0
100
AcDbLine
 10
6278.084791275919
 20
10382.41427062826
 30
0.0
 11
3458.084791275921
 21
10382.41427062826
 31
0.0
  0
LINE
  5
2109
330
1A
100
AcDbEntity
  8
部品1
100
AcDbLine
 10
6016.08479127592
 20
10495.41427062826
 30
0.0
 11
6016.08479127592
 21
8359.414270628262
 31
0.0
  0
LINE
  5
210A
330
1A
100
AcDbEntity
  8
部品1
100
AcDbLine
 10
5971.08479127592
 20
10495.41427062826
 30
0.0
 11
5971.08479127592
 21
8359.414270628262
 31
0.0
  0
LINE
  5
210B
330
1A
100
AcDbEntity
  8
部品1
100
AcDbLine
 10
5943.08479127592
 20
10495.41427062826
 30
0.0
 11
5943.08479127592
 21
8359.414270628262
 31
0.0
  0
LINE
  5
210C
330
1A
100
AcDbEntity
  8
部品1
100
AcDbLine
 10
5898.08479127592
 20
10495.41427062826
 30
0.0
 11
5898.08479127592
 21
8359.414270628262
 31
0.0
  0
LINE
  5
210D
330
1A
100
AcDbEntity
  8
部品1
100
AcDbLine
 10
5436.08479127592
 20
10495.41427062826
 30
0.0
 11
5436.08479127592
 21
8359.414270628262
 31
0.0
  0
LINE
  5
210E
330
1A
100
AcDbEntity
  8
部品1
100
AcDbLine
 10
5391.08479127592
 20
10495.41427062826
 30
0.0
 11
5391.08479127592
 21
8359.414270628262
 31
0.0
  0
LINE
  5
210F
330
1A
100
AcDbEntity
  8
部品1
100
AcDbLine
 10
5363.08479127592
 20
10495.41427062826
 30
0.0
 11
5363.08479127592
 21
8359.414270628262
 31
0.0
  0
LINE
  5
2110
330
1A
100
AcDbEntity
  8
部品1
100
AcDbLine
 10
5318.08479127592
 20
10495.41427062826
 30
0.0
 11
5318.08479127592
 21
8359.414270628262
 31
0.0
  0
LINE
  5
2111
330
1A
100
AcDbEntity
  8
部品1
100
AcDbLine
 10
4936.08479127592
 20
10495.41427062826
 30
0.0
 11
4936.08479127592
 21
8359.414270628262
 31
0.0
  0
LINE
  5
2112
330
1A
100
AcDbEntity
  8
部品1
100
AcDbLine
 10
4891.08479127592
 20
10495.41427062826
 30
0.0
 11
4891.08479127592
 21
8359.414270628262
 31
0.0
  0
LINE
  5
2113
330
1A
100
AcDbEntity
  8
部品1
100
AcDbLine
 10
4863.08479127592
 20
10495.41427062826
 30
0.0
 11
4863.08479127592
 21
8359.414270628262
 31
0.0
  0
LINE
  5
2114
330
1A
100
AcDbEntity
  8
部品1
100
AcDbLine
 10
4818.08479127592
 20
10495.41427062826
 30
0.0
 11
4818.08479127592
 21
8359.414270628262
 31
0.0
  0
LINE
  5
2115
330
1A
100
AcDbEntity
  8
部品1
100
AcDbLine
 10
4436.084791275919
 20
10495.41427062826
 30
0.0
 11
4436.084791275919
 21
9272.641953048248
 31
0.0
  0
LINE
  5
2116
330
1A
100
AcDbEntity
  8
部品1
100
AcDbLine
 10
4391.08479127592
 20
10495.41427062826
 30
0.0
 11
4391.08479127592
 21
9421.793781366563
 31
0.0
  0
LINE
  5
2117
330
1A
100
AcDbEntity
  8
部品1
100
AcDbLine
 10
4363.08479127592
 20
10495.41427062826
 30
0.0
 11
4363.08479127592
 21
9514.599363431292
 31
0.0
  0
LINE
  5
2118
330
1A
100
AcDbEntity
  8
部品1
100
AcDbLine
 10
4318.08479127592
 20
10495.41427062826
 30
0.0
 11
4318.08479127592
 21
9663.751191749607
 31
0.0
  0
LINE
  5
2119
330
1A
100
AcDbEntity
  8
部品1
100
AcDbLine
 10
5681.084791275918
 20
8359.414270628262
 30
0.0
 11
5681.084791275918
 21
10495.41427062826
 31
0.0
  0
LINE
  5
211A
330
1A
100
AcDbEntity
  8
部品1
100
AcDbLine
 10
5646.584791275918
 20
8359.414270628262
 30
0.0
 11
5646.584791275918
 21
10495.41427062826
 31
0.0
  0
LINE
  5
211B
330
1A
100
AcDbEntity
  8
部品1
100
AcDbLine
 10
5101.08479127592
 20
8359.414270628262
 30
0.0
 11
5101.08479127592
 21
10495.41427062826
 31
0.0
  0
LINE
  5
211C
330
1A
100
AcDbEntity
  8
部品1
100
AcDbLine
 10
5066.58479127592
 20
8359.414270628262
 30
0.0
 11
5066.58479127592
 21
10495.41427062826
 31
0.0
  0
LINE
  5
211D
330
1A
100
AcDbEntity
  8
部品1
100
AcDbLine
 10
4681.08479127592
 20
10495.41427062826
 30
0.0
 11
4681.08479127592
 21
8460.593109981866
 31
0.0
  0
LINE
  5
211E
330
1A
100
AcDbEntity
  8
部品1
100
AcDbLine
 10
4646.58479127592
 20
10495.41427062826
 30
0.0
 11
4646.584791275921
 21
8574.942845025907
 31
0.0
  0
LINE
  5
211F
330
1A
100
AcDbEntity
  8
部品1
100
AcDbLine
 10
4101.08479127592
 20
10495.41427062826
 30
0.0
 11
4101.08479127592
 21
10382.99445275125
 31
0.0
  0
LINE
  5
2120
330
1A
100
AcDbEntity
  8
部品1
100
AcDbLine
 10
3476.58479127592
 20
10599.91427062826
 30
0.0
 11
3455.58479127592
 21
10599.91427062826
 31
0.0
  0
LINE
  5
2121
330
1A
100
AcDbEntity
  8
部品1
100
AcDbLine
 10
3476.58479127592
 20
10599.91427062826
 30
0.0
 11
3476.58479127592
 21
10495.41427062826
 31
0.0
  0
ARC
  5
2122
330
1A
100
AcDbEntity
  8
部品1
100
AcDbCircle
 10
6298.084791275918
 20
10609.41427062826
 30
0.0
 40
10.0
100
AcDbArc
 50
0.0
 51
90.0
  0
LINE
  5
2123
330
1A
100
AcDbEntity
  8
部品1
100
AcDbLine
 10
6259.584791275912
 20
10495.41427062826
 30
0.0
 11
6259.584791275918
 21
10599.91427062826
 31
0.0
  0
ARC
  5
2124
330
1A
100
AcDbEntity
  8
部品1
100
AcDbCircle
 10
6280.584791275918
 20
10604.91427062826
 30
0.0
 40
5.0
100
AcDbArc
 50
270.0
 51
0.0
  0
LINE
  5
2125
330
1A
100
AcDbEntity
  8
部品1
100
AcDbLine
 10
6285.584791275918
 20
10604.91427062826
 30
0.0
 11
6285.58479127592
 21
10619.41427062826
 31
0.0
  0
ARC
  5
2126
330
1A
100
AcDbEntity
  8
部品1
100
AcDbCircle
 10
3455.58479127592
 20
10604.91427062826
 30
0.0
 40
5.0
100
AcDbArc
 50
180.0
 51
270.0
  0
LINE
  5
2127
330
1A
100
AcDbEntity
  8
部品1
100
AcDbLine
 10
6280.584791275918
 20
10599.91427062826
 30
0.0
 11
6259.58479127592
 21
10599.91427062826
 31
0.0
  0
LINE
  5
2128
330
1A
100
AcDbEntity
  8
部品1
100
AcDbLine
 10
3450.58479127592
 20
10619.41427062826
 30
0.0
 11
3450.58479127592
 21
10604.91427062826
 31
0.0
  0
LINE
  5
2129
330
1A
100
AcDbEntity
  8
部品1
100
AcDbLine
 10
6259.584791275912
 20
10495.41427062826
 30
0.0
 11
3476.58479127592
 21
10495.41427062826
 31
0.0
  0
LINE
  5
212A
330
1A
100
AcDbEntity
  8
部品1
100
AcDbLine
 10
6298.084791275918
 20
10619.41427062826
 30
0.0
 11
3438.08479127592
 21
10619.41427062826
 31
0.0
  0
VIEWPORT
  5
22
102
{ACAD_XDICTIONARY
360
2608
102
}
330
17
100
AcDbEntity
 67
     1
  8
0
100
AcDbViewport
 10
261.5176991150442
 20
154.7242978687078
 30
0.0
 40
523.0353982300885
 41
309.4485957374157
 68
     1
 69
     1
 12
261.5176991150442
 22
154.7242978687078
 13
0.0
 23
0.0
 14
1.0
 24
1.0
 15
10.0
 25
10.0
 16
0.0
 26
0.0
 36
1.0
 17
0.0
 27
0.0
 37
0.0
 42
50.0
 43
0.0
 44
0.0
 45
309.4485957374157
 50
0.0
 51
0.0
 72
   100
 90
    32768
  1

281
     0
 71
     1
 74
     0
110
0.0
120
0.0
130
0.0
111
1.0
121
0.0
131
0.0
112
0.0
122
1.0
132
0.0
 79
     0
146
0.0
  0
ENDSEC
  0
SECTION
  2
OBJECTS
  0
DICTIONARY
  5
C
330
0
100
AcDbDictionary
281
     1
  3
ACAD_COLOR
350
17B3
  3
ACAD_GROUP
350
D
  3
ACAD_LAYOUT
350
17B4
  3
ACAD_MATERIAL
350
17B2
  3
ACAD_MLINESTYLE
350
E
  3
ACAD_PLOTSETTINGS
350
17B5
  3
ACAD_PLOTSTYLENAME
350
17B0
  3
ACDBHEADERROUNDTRIPXREC
350
2605
  3
AcDbVariableDictionary
350
2601
  0
DICTIONARY
  5
17DD
330
2
100
AcDbDictionary
280
     1
281
     1
  3
ACAD_LAYERFILTERS
360
18C5
  3
ACAD_LAYERSTATES
360
17DE
  0
DICTIONARY
  5
2608
330
22
100
AcDbDictionary
280
     1
281
     1
  3
ACAD_XREC_ROUNDTRIP
360
2609
  0
DICTIONARY
  5
17B3
102
{ACAD_REACTORS
330
C
102
}
330
C
100
AcDbDictionary
281
     1
  0
DICTIONARY
  5
D
102
{ACAD_REACTORS
330
C
102
}
330
C
100
AcDbDictionary
281
     1
  0
DICTIONARY
  5
17B4
102
{ACAD_REACTORS
330
C
102
}
330
C
100
AcDbDictionary
281
     1
  3
Model
350
17B6
  3
レイアウト1
350
17B7
  0
DICTIONARY
  5
17B2
102
{ACAD_REACTORS
330
C
102
}
330
C
100
AcDbDictionary
281
     1
  0
DICTIONARY
  5
E
102
{ACAD_REACTORS
330
C
102
}
330
C
100
AcDbDictionary
281
     1
  3
STANDARD
350
13
  0
DICTIONARY
  5
17B5
102
{ACAD_REACTORS
330
C
102
}
330
C
100
AcDbDictionary
281
     1
  0
ACDBDICTIONARYWDFLT
  5
17B0
102
{ACAD_REACTORS
330
C
102
}
330
C
100
AcDbDictionary
281
     1
  3
Normal
350
17B1
100
AcDbDictionaryWithDefault
340
17B1
  0
DICTIONARY
  5
2605
102
{ACAD_REACTORS
330
C
102
}
330
C
100
AcDbDictionary
281
     1
  3
COLORDICT
350
2607
  3
MATERIALDICT
350
2606
  0
DICTIONARY
  5
2601
102
{ACAD_REACTORS
330
C
102
}
330
C
100
AcDbDictionary
281
     1
  3
DIMASSOC
350
2602
  3
PROJECTNAME
350
2603
  0
DICTIONARY
  5
18C5
102
{ACAD_REACTORS
330
17DD
102
}
330
17DD
100
AcDbDictionary
281
     1
  0
DICTIONARY
  5
17DE
102
{ACAD_REACTORS
330
17DD
102
}
330
17DD
100
AcDbDictionary
281
     1
  0
XRECORD
  5
2609
102
{ACAD_REACTORS
330
2608
102
}
330
2608
100
AcDbXrecord
280
     1
102
SHADEPLOT
 70
     0
  0
LAYOUT
  5
17B6
102
{ACAD_XDICTIONARY
360
260A
102
}
102
{ACAD_REACTORS
330
17B4
102
}
330
17B4
100
AcDbPlotSettings
  1

  2
iR C3880
  4
A3
  6

 40
5.873749732971191
 41
5.873747825622558
 42
5.873748779296875
 43
5.873748779296875
 44
296.9259948730469
 45
419.9466552734374
 46
0.0
 47
0.0
 48
0.0
 49
0.0
140
0.0
141
0.0
142
1.0
143
40.0
 70
 11952
 72
     1
 73
     1
 74
     2
  7
inaba.ctb
 75
    24
147
0.025
148
0.0
149
0.0
100
AcDbLayout
  1
Model
 70
     1
 71
     0
 10
0.0
 20
0.0
 11
12.0
 21
9.0
 12
0.0
 22
0.0
 32
0.0
 14
0.0
 24
0.0
 34
0.0
 15
0.0
 25
0.0
 35
0.0
146
0.0
 13
0.0
 23
0.0
 33
0.0
 16
1.0
 26
0.0
 36
0.0
 17
0.0
 27
1.0
 37
0.0
 76
     0
330
1A
  0
LAYOUT
  5
17B7
102
{ACAD_XDICTIONARY
360
260C
102
}
102
{ACAD_REACTORS
330
17B4
102
}
330
17B4
100
AcDbPlotSettings
  1

  2
自動 EPSON LP-8400FX (TATENO 上)
  4

  6

 40
0.0
 41
0.0
 42
0.0
 43
0.0
 44
0.0
 45
0.0
 46
0.0
 47
0.0
 48
0.0
 49
0.0
140
0.0
141
0.0
142
1.0
143
1.0
 70
   688
 72
     0
 73
     0
 74
     5
  7
inaba.ctb
 75
    16
147
1.0
148
0.0
149
0.0
100
AcDbLayout
  1
レイアウト1
 70
     1
 71
     1
 10
0.0
 20
0.0
 11
420.0
 21
297.0
 12
0.0
 22
0.0
 32
0.0
 14
1.000000000000000E+20
 24
1.000000000000000E+20
 34
1.000000000000000E+20
 15
-1.000000000000000E+20
 25
-1.000000000000000E+20
 35
-1.000000000000000E+20
146
0.0
 13
0.0
 23
0.0
 33
0.0
 16
1.0
 26
0.0
 36
0.0
 17
0.0
 27
1.0
 37
0.0
 76
     0
330
17
331
22
  0
MLINESTYLE
  5
13
102
{ACAD_REACTORS
330
E
102
}
330
E
100
AcDbMlineStyle
  2
STANDARD
 70
     0
  3

 62
     0
 51
90.0
 52
90.0
 71
     2
 49
0.5
 62
   256
  6
BYLAYER
 49
-0.5
 62
   256
  6
BYLAYER
  0
ACDBPLACEHOLDER
  5
17B1
102
{ACAD_REACTORS
330
17B0
102
}
330
17B0
  0
XRECORD
  5
2607
102
{ACAD_REACTORS
330
2605
102
}
330
2605
100
AcDbXrecord
280
     1
340
17B3
  0
XRECORD
  5
2606
102
{ACAD_REACTORS
330
2605
102
}
330
2605
100
AcDbXrecord
280
     1
340
17B2
  0
DICTIONARYVAR
  5
2602
102
{ACAD_REACTORS
330
2601
102
}
330
2601
100
DictionaryVariables
280
     0
  1
1
  0
DICTIONARYVAR
  5
2603
102
{ACAD_REACTORS
330
2601
102
}
330
2601
100
DictionaryVariables
280
     0
  1

  0
DICTIONARY
  5
260A
330
17B6
100
AcDbDictionary
280
     1
281
     1
  3
ACAD_XREC_ROUNDTRIP
360
260B
  0
DICTIONARY
  5
260C
330
17B7
100
AcDbDictionary
280
     1
281
     1
  3
ACAD_XREC_ROUNDTRIP
360
260D
  0
XRECORD
  5
260B
102
{ACAD_REACTORS
330
260A
102
}
330
260A
100
AcDbXrecord
280
     1
102
SHADEPLOT
 70
     0
102
SHADEPLOTRESLEVEL
 70
     2
102
SHADEPLOTCUSTOMDPI
 70
   300
  0
XRECORD
  5
260D
102
{ACAD_REACTORS
330
260C
102
}
330
260C
100
AcDbXrecord
280
     1
102
SHADEPLOT
 70
     0
102
SHADEPLOTRESLEVEL
 70
     2
102
SHADEPLOTCUSTOMDPI
 70
   300
  0
ENDSEC
  0
EOF
