  0
SECTION
  2
HEADER
  9
$ACADVER
  1
AC1015
  9
$ACADMAINTVER
 70
    20
  9
$DWGCODEPAGE
  3
ANSI_932
  9
$INSBASE
 10
0.0
 20
0.0
 30
0.0
  9
$EXTMIN
 10
128.8000000000011
 20
264.0
 30
0.0
  9
$EXTMAX
 10
16296.0
 20
11084.50484645163
 30
0.0
  9
$LIMMIN
 10
0.0
 20
0.0
  9
$LIMMAX
 10
16800.0
 20
11880.0
  9
$ORTHOMODE
 70
     0
  9
$REGENMODE
 70
     1
  9
$FILLMODE
 70
     1
  9
$QTEXTMODE
 70
     0
  9
$MIRRTEXT
 70
     1
  9
$LTSCALE
 40
7.0
  9
$ATTMODE
 70
     1
  9
$TEXTSIZE
 40
3.5
  9
$TRACEWID
 40
1.0
  9
$TEXTSTYLE
  7
MSGOTHIC
  9
$CLAYER
  8
仕様書枠
  9
$CELTYPE
  6
BYLAYER
  9
$CECOLOR
 62
   256
  9
$CELTSCALE
 40
50.0
  9
$DISPSILH
 70
     0
  9
$DIMSCALE
 40
40.0
  9
$DIMASZ
 40
2.5
  9
$DIMEXO
 40
1.0
  9
$DIMDLI
 40
7.0
  9
$DIMRND
 40
0.0
  9
$DIMDLE
 40
0.0
  9
$DIMEXE
 40
1.0
  9
$DIMTP
 40
0.0
  9
$DIMTM
 40
0.0
  9
$DIMTXT
 40
3.0
  9
$DIMCEN
 40
2.5
  9
$DIMTSZ
 40
0.0
  9
$DIMTOL
 70
     0
  9
$DIMLIM
 70
     0
  9
$DIMTIH
 70
     0
  9
$DIMTOH
 70
     0
  9
$DIMSE1
 70
     0
  9
$DIMSE2
 70
     0
  9
$DIMTAD
 70
     3
  9
$DIMZIN
 70
     8
  9
$DIMBLK
  1

  9
$DIMASO
 70
     1
  9
$DIMSHO
 70
     1
  9
$DIMPOST
  1

  9
$DIMAPOST
  1

  9
$DIMALT
 70
     0
  9
$DIMALTD
 70
     2
  9
$DIMALTF
 40
0.0394
  9
$DIMLFAC
 40
1.0
  9
$DIMTOFL
 70
     0
  9
$DIMTVP
 40
1.0
  9
$DIMTIX
 70
     0
  9
$DIMSOXD
 70
     0
  9
$DIMSAH
 70
     1
  9
$DIMBLK1
  1
DOTSMALL
  9
$DIMBLK2
  1
DOTSMALL
  9
$DIMSTYLE
  2
物置仕様図40
  9
$DIMCLRD
 70
     4
  9
$DIMCLRE
 70
     4
  9
$DIMCLRT
 70
     7
  9
$DIMTFAC
 40
1.0
  9
$DIMGAP
 40
1.0
  9
$DIMJUST
 70
     0
  9
$DIMSD1
 70
     0
  9
$DIMSD2
 70
     0
  9
$DIMTOLJ
 70
     1
  9
$DIMTZIN
 70
     8
  9
$DIMALTZ
 70
     0
  9
$DIMALTTZ
 70
     0
  9
$DIMUPT
 70
     0
  9
$DIMDEC
 70
     2
  9
$DIMTDEC
 70
     2
  9
$DIMALTU
 70
     2
  9
$DIMALTTD
 70
     2
  9
$DIMTXSTY
  7
STANDARD
  9
$DIMAUNIT
 70
     0
  9
$DIMADEC
 70
     0
  9
$DIMALTRND
 40
0.0
  9
$DIMAZIN
 70
     0
  9
$DIMDSEP
 70
    46
  9
$DIMATFIT
 70
     3
  9
$DIMFRAC
 70
     0
  9
$DIMLDRBLK
  1

  9
$DIMLUNIT
 70
     2
  9
$DIMLWD
 70
    -2
  9
$DIMLWE
 70
    -2
  9
$DIMTMOVE
 70
     2
  9
$LUNITS
 70
     2
  9
$LUPREC
 70
     1
  9
$SKETCHINC
 40
1.0
  9
$FILLETRAD
 40
5.0
  9
$AUNITS
 70
     0
  9
$AUPREC
 70
     1
  9
$MENU
  1
.
  9
$ELEVATION
 40
0.0
  9
$PELEVATION
 40
0.0
  9
$THICKNESS
 40
0.0
  9
$LIMCHECK
 70
     0
  9
$CHAMFERA
 40
400.0
  9
$CHAMFERB
 40
400.0
  9
$CHAMFERC
 40
800.0
  9
$CHAMFERD
 40
0.0
  9
$SKPOLY
 70
     0
  9
$TDCREATE
 40
2450696.487780324
  9
$TDUCREATE
 40
2450696.112780324
  9
$TDUPDATE
 40
2455579.570608901
  9
$TDUUPDATE
 40
2455579.195608900
  9
$TDINDWG
 40
0.4349444560
  9
$TDUSRTIMER
 40
0.4349444560
  9
$USRTIMER
 70
     1
  9
$ANGBASE
 50
0.0
  9
$ANGDIR
 70
     0
  9
$PDMODE
 70
     0
  9
$PDSIZE
 40
0.0
  9
$PLINEWID
 40
0.0
  9
$SPLFRAME
 70
     0
  9
$SPLINETYPE
 70
     6
  9
$SPLINESEGS
 70
     8
  9
$HANDSEED
  5
27CF
  9
$SURFTAB1
 70
     6
  9
$SURFTAB2
 70
     6
  9
$SURFTYPE
 70
     6
  9
$SURFU
 70
     6
  9
$SURFV
 70
     6
  9
$UCSBASE
  2

  9
$UCSNAME
  2

  9
$UCSORG
 10
0.0
 20
0.0
 30
0.0
  9
$UCSXDIR
 10
1.0
 20
0.0
 30
0.0
  9
$UCSYDIR
 10
0.0
 20
1.0
 30
0.0
  9
$UCSORTHOREF
  2

  9
$UCSORTHOVIEW
 70
     0
  9
$UCSORGTOP
 10
0.0
 20
0.0
 30
0.0
  9
$UCSORGBOTTOM
 10
0.0
 20
0.0
 30
0.0
  9
$UCSORGLEFT
 10
0.0
 20
0.0
 30
0.0
  9
$UCSORGRIGHT
 10
0.0
 20
0.0
 30
0.0
  9
$UCSORGFRONT
 10
0.0
 20
0.0
 30
0.0
  9
$UCSORGBACK
 10
0.0
 20
0.0
 30
0.0
  9
$PUCSBASE
  2

  9
$PUCSNAME
  2

  9
$PUCSORG
 10
0.0
 20
0.0
 30
0.0
  9
$PUCSXDIR
 10
1.0
 20
0.0
 30
0.0
  9
$PUCSYDIR
 10
0.0
 20
1.0
 30
0.0
  9
$PUCSORTHOREF
  2

  9
$PUCSORTHOVIEW
 70
     0
  9
$PUCSORGTOP
 10
0.0
 20
0.0
 30
0.0
  9
$PUCSORGBOTTOM
 10
0.0
 20
0.0
 30
0.0
  9
$PUCSORGLEFT
 10
0.0
 20
0.0
 30
0.0
  9
$PUCSORGRIGHT
 10
0.0
 20
0.0
 30
0.0
  9
$PUCSORGFRONT
 10
0.0
 20
0.0
 30
0.0
  9
$PUCSORGBACK
 10
0.0
 20
0.0
 30
0.0
  9
$USERI1
 70
     0
  9
$USERI2
 70
     0
  9
$USERI3
 70
     0
  9
$USERI4
 70
     0
  9
$USERI5
 70
     0
  9
$USERR1
 40
0.0
  9
$USERR2
 40
0.0
  9
$USERR3
 40
0.0
  9
$USERR4
 40
0.0
  9
$USERR5
 40
0.0
  9
$WORLDVIEW
 70
     1
  9
$SHADEDGE
 70
     3
  9
$SHADEDIF
 70
    70
  9
$TILEMODE
 70
     1
  9
$MAXACTVP
 70
    16
  9
$PINSBASE
 10
0.0
 20
0.0
 30
0.0
  9
$PLIMCHECK
 70
     0
  9
$PEXTMIN
 10
1.000000000000000E+20
 20
1.000000000000000E+20
 30
1.000000000000000E+20
  9
$PEXTMAX
 10
-1.000000000000000E+20
 20
-1.000000000000000E+20
 30
-1.000000000000000E+20
  9
$PLIMMIN
 10
0.0
 20
0.0
  9
$PLIMMAX
 10
420.0
 20
297.0
  9
$UNITMODE
 70
     0
  9
$VISRETAIN
 70
     0
  9
$PLINEGEN
 70
     0
  9
$PSLTSCALE
 70
     1
  9
$TREEDEPTH
 70
  3020
  9
$CMLSTYLE
  2
STANDARD
  9
$CMLJUST
 70
     0
  9
$CMLSCALE
 40
1.0
  9
$PROXYGRAPHICS
 70
     1
  9
$MEASUREMENT
 70
     1
  9
$CELWEIGHT
370
    -1
  9
$ENDCAPS
280
     0
  9
$JOINSTYLE
280
     0
  9
$LWDISPLAY
290
     0
  9
$INSUNITS
 70
     0
  9
$HYPERLINKBASE
  1

  9
$STYLESHEET
  1
inaba.ctb
  9
$XEDIT
290
     1
  9
$CEPSNTYPE
380
     0
  9
$PSTYLEMODE
290
     1
  9
$FINGERPRINTGUID
  2
{79BAF060-0357-455F-9BB3-0AEA31AB33DF}
  9
$VERSIONGUID
  2
{C77FAB49-8E12-485A-AADA-AB2BC0EBCBC3}
  9
$EXTNAMES
290
     1
  9
$PSVPSCALE
 40
0.0
  9
$OLESTARTUP
290
     0
  0
ENDSEC
  0
SECTION
  2
CLASSES
  0
CLASS
  1
ACDBDICTIONARYWDFLT
  2
AcDbDictionaryWithDefault
  3
ObjectDBX Classes
 90
        0
280
     0
281
     0
  0
CLASS
  1
DICTIONARYVAR
  2
AcDbDictionaryVar
  3
ObjectDBX Classes
 90
        0
280
     0
281
     0
  0
CLASS
  1
ACDBPLACEHOLDER
  2
AcDbPlaceHolder
  3
ObjectDBX Classes
 90
        0
280
     0
281
     0
  0
CLASS
  1
LAYOUT
  2
AcDbLayout
  3
ObjectDBX Classes
 90
        0
280
     0
281
     0
  0
ENDSEC
  0
SECTION
  2
TABLES
  0
TABLE
  2
VPORT
  5
8
330
0
100
AcDbSymbolTable
 70
     2
  0
VPORT
  5
27C5
330
8
100
AcDbSymbolTableRecord
100
AcDbViewportTableRecord
  2
*Active
 70
     0
 10
0.0
 20
0.0
 11
1.0
 21
1.0
 12
10067.6157982568
 22
5673.979824713868
 13
0.0
 23
0.0
 14
420.0
 24
420.0
 15
420.0
 25
420.0
 16
0.0
 26
0.0
 36
1.0
 17
0.0
 27
0.0
 37
0.0
 40
13252.7886968784
 41
1.5075
 42
50.0
 43
0.0
 44
0.0
 50
0.0
 51
0.0
 71
     0
 72
   100
 73
     1
 74
     0
 75
     0
 76
     0
 77
     0
 78
     1
281
     0
 65
     1
110
0.0
120
0.0
130
0.0
111
1.0
121
0.0
131
0.0
112
0.0
122
1.0
132
0.0
 79
     0
146
0.0
  0
ENDTAB
  0
TABLE
  2
LTYPE
  5
5
330
0
100
AcDbSymbolTable
 70
     3
  0
LTYPE
  5
14
330
5
100
AcDbSymbolTableRecord
100
AcDbLinetypeTableRecord
  2
BYBLOCK
 70
     0
  3

 72
    65
 73
     0
 40
0.0
  0
LTYPE
  5
15
330
5
100
AcDbSymbolTableRecord
100
AcDbLinetypeTableRecord
  2
BYLAYER
 70
     0
  3

 72
    65
 73
     0
 40
0.0
  0
LTYPE
  5
16
330
5
100
AcDbSymbolTableRecord
100
AcDbLinetypeTableRecord
  2
CONTINUOUS
 70
     0
  3
Solid line
 72
    65
 73
     0
 40
0.0
  0
LTYPE
  5
61
330
5
100
AcDbSymbolTableRecord
100
AcDbLinetypeTableRecord
  2
CENTER
 70
     0
  3
____ _ ____ _ ____ _ ____ _ ____ _ ____ _ ____ 
 72
    65
 73
     4
 40
2.0
 49
1.25
 74
     0
 49
-0.25
 74
     0
 49
0.25
 74
     0
 49
-0.25
 74
     0
  0
LTYPE
  5
62
330
5
100
AcDbSymbolTableRecord
100
AcDbLinetypeTableRecord
  2
HIDDEN
 70
     0
  3
__ __ __ __ __ __ __ __ __ __ __ __ __ __ __ __
 72
    65
 73
     2
 40
0.375
 49
0.25
 74
     0
 49
-0.125
 74
     0
  0
ENDTAB
  0
TABLE
  2
LAYER
  5
2
102
{ACAD_XDICTIONARY
360
17DD
102
}
330
0
100
AcDbSymbolTable
 70
    10
  0
LAYER
  5
F
330
2
100
AcDbSymbolTableRecord
100
AcDbLayerTableRecord
  2
0
 70
     0
 62
     7
  6
CONTINUOUS
370
    -3
390
17B1
  0
LAYER
  5
63
330
2
100
AcDbSymbolTableRecord
100
AcDbLayerTableRecord
  2
細線
 70
     0
 62
     5
  6
CONTINUOUS
370
    -3
390
17B1
  0
LAYER
  5
64
330
2
100
AcDbSymbolTableRecord
100
AcDbLayerTableRecord
  2
寸法
 70
     0
 62
     4
  6
CONTINUOUS
370
    -3
390
17B1
  0
LAYER
  5
65
330
2
100
AcDbSymbolTableRecord
100
AcDbLayerTableRecord
  2
センター
 70
     0
 62
     3
  6
CENTER
370
    -3
390
17B1
  0
LAYER
  5
92A
330
2
100
AcDbSymbolTableRecord
100
AcDbLayerTableRecord
  2
DEFPOINTS
 70
     0
 62
     7
  6
CONTINUOUS
290
     0
370
    -3
390
17B1
  0
LAYER
  5
118B
330
2
100
AcDbSymbolTableRecord
100
AcDbLayerTableRecord
  2
Ｇ．Ｌ
 70
     0
 62
    30
  6
CONTINUOUS
370
    -3
390
17B1
  0
LAYER
  5
13EC
330
2
100
AcDbSymbolTableRecord
100
AcDbLayerTableRecord
  2
文字
 70
     0
 62
     7
  6
CONTINUOUS
370
    -3
390
17B1
  0
LAYER
  5
13ED
330
2
100
AcDbSymbolTableRecord
100
AcDbLayerTableRecord
  2
仕様書枠
 70
     0
 62
   230
  6
CONTINUOUS
370
    -3
390
17B1
  0
LAYER
  5
1748
330
2
100
AcDbSymbolTableRecord
100
AcDbLayerTableRecord
  2
部品1
 70
     0
 62
     7
  6
CONTINUOUS
370
    -3
390
17B1
  0
LAYER
  5
187A
330
2
100
AcDbSymbolTableRecord
100
AcDbLayerTableRecord
  2
点線
 70
     0
 62
     2
  6
HIDDEN
370
    -3
390
17B1
  0
ENDTAB
  0
TABLE
  2
STYLE
  5
3
330
0
100
AcDbSymbolTable
 70
     7
  0
STYLE
  5
10
330
3
100
AcDbSymbolTableRecord
100
AcDbTextStyleTableRecord
  2
STANDARD
 70
     0
 40
0.0
 41
1.0
 50
0.0
 71
     0
 42
100.0
  3
ISOCP
  4
C:\Program Files\AutoCAD LT\bigfont.shx
  0
STYLE
  5
373
330
3
100
AcDbSymbolTableRecord
100
AcDbTextStyleTableRecord
  2
MSGOTHIC
 70
     0
 40
0.0
 41
1.0
 50
0.0
 71
     0
 42
3.5
  3
MS PGothic.ttf
  4

1001
ACAD
1000
MS PGothic
1071
    32818
  0
STYLE
  5
374
330
3
100
AcDbSymbolTableRecord
100
AcDbTextStyleTableRecord
  2
MSMINCHO
 70
     0
 40
0.0
 41
1.0
 50
0.0
 71
     0
 42
1.199999999999999
  3
msminch2.TTF
  4

  0
STYLE
  5
13EE
330
3
100
AcDbSymbolTableRecord
100
AcDbTextStyleTableRecord
  2
STYLE2
 70
     0
 40
0.0
 41
1.0
 50
0.0
 71
     0
 42
100.0
  3
MS PGothic.ttf
  4

1001
ACAD
1000
MS PGothic
1071
    32818
  0
STYLE
  5
17DC
330
3
100
AcDbSymbolTableRecord
100
AcDbTextStyleTableRecord
  2
STYLE1
 70
     0
 40
0.0
 41
1.0
 50
0.0
 71
     0
 42
4.0
  3
isocp.shx
  4
bigfont.shx
  0
STYLE
  5
19E4
330
3
100
AcDbSymbolTableRecord
100
AcDbTextStyleTableRecord
  2

 70
     1
 40
0.0
 41
1.0
 50
0.0
 71
     0
 42
100.0
  3
ltypeshp.shx
  4

  0
STYLE
  5
19E5
330
3
100
AcDbSymbolTableRecord
100
AcDbTextStyleTableRecord
  2
STYLE3
 70
     0
 40
0.0
 41
1.0
 50
0.0
 71
     0
 42
100.0
  3
MS PGothic.ttf
  4

1001
ACAD
1000
MS PGothic
1071
    32818
  0
ENDTAB
  0
TABLE
  2
VIEW
  5
6
330
0
100
AcDbSymbolTable
 70
     0
  0
ENDTAB
  0
TABLE
  2
UCS
  5
7
330
0
100
AcDbSymbolTable
 70
     0
  0
ENDTAB
  0
TABLE
  2
APPID
  5
9
330
0
100
AcDbSymbolTable
 70
     1
  0
APPID
  5
11
330
9
100
AcDbSymbolTableRecord
100
AcDbRegAppTableRecord
  2
ACAD
 70
     0
  0
ENDTAB
  0
TABLE
  2
DIMSTYLE
  5
A
330
0
100
AcDbSymbolTable
 70
     3
100
AcDbDimStyleTable
 71
     1
340
92
  0
DIMSTYLE
105
1D
330
A
100
AcDbSymbolTableRecord
100
AcDbDimStyleTableRecord
  2
STANDARD
 70
     0
340
10
  0
DIMSTYLE
105
92
102
{ACAD_REACTORS
330
201C
330
2067
330
2068
330
206E
330
2076
330
2077
330
2078
330
2094
330
2095
330
2098
330
20AF
330
20B2
330
2183
330
2184
330
219E
330
219F
330
21A0
330
1F1C
330
1F1D
330
1F1E
330
1F1F
330
1F20
330
1F21
330
1F2F
330
1F30
330
1F4A
330
1F6E
330
21AE
330
21B2
330
21B3
330
21BA
330
2230
330
2241
330
2242
102
}
330
A
100
AcDbSymbolTableRecord
100
AcDbDimStyleTableRecord
  2
物置仕様図40
 70
     0
 40
40.0
 41
2.5
 42
1.0
 43
7.0
 44
1.0
 73
     0
 74
     0
 77
     3
 78
     8
140
3.0
141
2.5
143
0.0394
145
1.0
147
1.0
173
     1
176
     4
177
     4
178
     7
271
     2
272
     2
279
     2
284
     8
340
10
341
E5C
343
E5C
344
E5C
  0
DIMSTYLE
105
19E6
330
A
100
AcDbSymbolTableRecord
100
AcDbDimStyleTableRecord
  2
INABA_S30G
 70
     0
 40
30.0
 41
2.5
 42
0.5
 43
7.0
 44
1.5
 73
     0
 74
     0
 77
     3
 78
     8
140
3.0
141
0.0
143
0.0394
147
1.0
172
     1
173
     1
174
     1
175
     1
178
     7
271
     1
340
17DC
341
E5C
343
E5C
344
E5C
  0
ENDTAB
  0
TABLE
  2
BLOCK_RECORD
  5
1
330
0
100
AcDbSymbolTable
 70
    35
  0
BLOCK_RECORD
  5
1A
330
1
100
AcDbSymbolTableRecord
100
AcDbBlockTableRecord
  2
*MODEL_SPACE
340
17B6
  0
BLOCK_RECORD
  5
17
330
1
100
AcDbSymbolTableRecord
100
AcDbBlockTableRecord
  2
*PAPER_SPACE
340
17B7
  0
BLOCK_RECORD
  5
E5C
330
1
100
AcDbSymbolTableRecord
100
AcDbBlockTableRecord
  2
_DOTSMALL
340
0
102
{BLKREFS
331
1F3B
331
1F77
331
2676
331
2677
331
2680
331
2681
331
268A
331
268B
331
2692
331
2693
331
269C
331
269D
331
26A3
331
26A4
331
26AB
331
26AC
331
26BD
331
26BE
331
26C5
331
26C6
331
26D6
331
26D7
331
26DE
331
26DF
331
26E8
331
26E9
331
26F0
331
26F1
331
26F8
331
26F9
331
2700
331
2701
331
2707
331
2708
331
2710
331
2711
331
2717
331
2718
331
2720
331
2721
331
2727
331
2728
331
2730
331
2731
331
2738
331
2739
331
2741
331
2742
331
274A
331
274B
331
2752
331
2753
331
275B
331
275C
331
2764
331
2765
331
276D
331
276E
331
2774
331
2775
331
277D
331
277E
331
2785
331
2786
331
278E
331
278F
331
27A9
331
27AA
331
27B1
331
27B2
102
}
  0
BLOCK_RECORD
  5
22B0
330
1
100
AcDbSymbolTableRecord
100
AcDbBlockTableRecord
  2
*D1
340
0
  0
BLOCK_RECORD
  5
22BB
330
1
100
AcDbSymbolTableRecord
100
AcDbBlockTableRecord
  2
*D2
340
0
  0
BLOCK_RECORD
  5
22C7
330
1
100
AcDbSymbolTableRecord
100
AcDbBlockTableRecord
  2
*D3
340
0
  0
BLOCK_RECORD
  5
22D2
330
1
100
AcDbSymbolTableRecord
100
AcDbBlockTableRecord
  2
*D4
340
0
  0
BLOCK_RECORD
  5
22DD
330
1
100
AcDbSymbolTableRecord
100
AcDbBlockTableRecord
  2
*D5
340
0
  0
BLOCK_RECORD
  5
22E8
330
1
100
AcDbSymbolTableRecord
100
AcDbBlockTableRecord
  2
*D6
340
0
  0
BLOCK_RECORD
  5
22F3
330
1
100
AcDbSymbolTableRecord
100
AcDbBlockTableRecord
  2
*D7
340
0
  0
BLOCK_RECORD
  5
22FE
330
1
100
AcDbSymbolTableRecord
100
AcDbBlockTableRecord
  2
*D8
340
0
  0
BLOCK_RECORD
  5
2309
330
1
100
AcDbSymbolTableRecord
100
AcDbBlockTableRecord
  2
*D9
340
0
  0
BLOCK_RECORD
  5
2314
330
1
100
AcDbSymbolTableRecord
100
AcDbBlockTableRecord
  2
*D10
340
0
  0
BLOCK_RECORD
  5
231F
330
1
100
AcDbSymbolTableRecord
100
AcDbBlockTableRecord
  2
*D11
340
0
  0
BLOCK_RECORD
  5
232B
330
1
100
AcDbSymbolTableRecord
100
AcDbBlockTableRecord
  2
*D12
340
0
  0
BLOCK_RECORD
  5
2336
330
1
100
AcDbSymbolTableRecord
100
AcDbBlockTableRecord
  2
*D13
340
0
  0
BLOCK_RECORD
  5
2342
330
1
100
AcDbSymbolTableRecord
100
AcDbBlockTableRecord
  2
*D14
340
0
  0
BLOCK_RECORD
  5
234D
330
1
100
AcDbSymbolTableRecord
100
AcDbBlockTableRecord
  2
*D15
340
0
  0
BLOCK_RECORD
  5
2359
330
1
100
AcDbSymbolTableRecord
100
AcDbBlockTableRecord
  2
*D16
340
0
  0
BLOCK_RECORD
  5
2365
330
1
100
AcDbSymbolTableRecord
100
AcDbBlockTableRecord
  2
*D17
340
0
  0
BLOCK_RECORD
  5
2370
330
1
100
AcDbSymbolTableRecord
100
AcDbBlockTableRecord
  2
*D18
340
0
  0
BLOCK_RECORD
  5
237C
330
1
100
AcDbSymbolTableRecord
100
AcDbBlockTableRecord
  2
*D19
340
0
  0
BLOCK_RECORD
  5
2387
330
1
100
AcDbSymbolTableRecord
100
AcDbBlockTableRecord
  2
*D20
340
0
  0
BLOCK_RECORD
  5
2392
330
1
100
AcDbSymbolTableRecord
100
AcDbBlockTableRecord
  2
*D21
340
0
  0
BLOCK_RECORD
  5
239D
330
1
100
AcDbSymbolTableRecord
100
AcDbBlockTableRecord
  2
*D22
340
0
  0
BLOCK_RECORD
  5
23A8
330
1
100
AcDbSymbolTableRecord
100
AcDbBlockTableRecord
  2
*D23
340
0
  0
BLOCK_RECORD
  5
23B4
330
1
100
AcDbSymbolTableRecord
100
AcDbBlockTableRecord
  2
*D24
340
0
  0
BLOCK_RECORD
  5
23C0
330
1
100
AcDbSymbolTableRecord
100
AcDbBlockTableRecord
  2
*D25
340
0
  0
BLOCK_RECORD
  5
23CB
330
1
100
AcDbSymbolTableRecord
100
AcDbBlockTableRecord
  2
*D26
340
0
  0
BLOCK_RECORD
  5
23D7
330
1
100
AcDbSymbolTableRecord
100
AcDbBlockTableRecord
  2
*D27
340
0
  0
BLOCK_RECORD
  5
23E3
330
1
100
AcDbSymbolTableRecord
100
AcDbBlockTableRecord
  2
*D28
340
0
  0
BLOCK_RECORD
  5
23EE
330
1
100
AcDbSymbolTableRecord
100
AcDbBlockTableRecord
  2
*D29
340
0
  0
BLOCK_RECORD
  5
23F9
330
1
100
AcDbSymbolTableRecord
100
AcDbBlockTableRecord
  2
*D30
340
0
  0
BLOCK_RECORD
  5
2405
330
1
100
AcDbSymbolTableRecord
100
AcDbBlockTableRecord
  2
*D31
340
0
  0
BLOCK_RECORD
  5
2411
330
1
100
AcDbSymbolTableRecord
100
AcDbBlockTableRecord
  2
*D32
340
0
  0
BLOCK_RECORD
  5
241E
330
1
100
AcDbSymbolTableRecord
100
AcDbBlockTableRecord
  2
*D33
340
0
  0
BLOCK_RECORD
  5
242A
330
1
100
AcDbSymbolTableRecord
100
AcDbBlockTableRecord
  2
*D34
340
0
  0
ENDTAB
  0
ENDSEC
  0
SECTION
  2
BLOCKS
  0
BLOCK
  5
1B
330
1A
100
AcDbEntity
  8
0
100
AcDbBlockBegin
  2
*MODEL_SPACE
 70
     0
 10
0.0
 20
0.0
 30
0.0
  3
*MODEL_SPACE
  1

  0
ENDBLK
  5
1C
330
1A
100
AcDbEntity
  8
0
100
AcDbBlockEnd
  0
BLOCK
  5
18
330
17
100
AcDbEntity
 67
     1
  8
0
100
AcDbBlockBegin
  2
*PAPER_SPACE
 70
     0
 10
0.0
 20
0.0
 30
0.0
  3
*PAPER_SPACE
  1

  0
ENDBLK
  5
19
330
17
100
AcDbEntity
 67
     1
  8
0
100
AcDbBlockEnd
  0
BLOCK
  5
E5D
330
E5C
100
AcDbEntity
  8
0
100
AcDbBlockBegin
  2
_DOTSMALL
 70
     0
 10
0.0
 20
0.0
 30
0.0
  3
_DOTSMALL
  1

  0
LWPOLYLINE
  5
E5E
330
E5C
100
AcDbEntity
  8
0
  6
ByBlock
 62
     0
100
AcDbPolyline
 90
        2
 70
     1
 43
0.5
 10
-0.0625
 20
0.0
 42
1.0
 10
0.0625
 20
0.0
 42
1.0
  0
ENDBLK
  5
E62
330
E5C
100
AcDbEntity
  8
0
100
AcDbBlockEnd
  0
BLOCK
  5
22B9
330
22B0
100
AcDbEntity
  8
0
 48
50.0
100
AcDbBlockBegin
  2
*D1
 70
     1
 10
0.0
 20
0.0
 30
0.0
  3
*D1
  1

  0
LINE
  5
2736
330
22B0
100
AcDbEntity
  8
寸法
 62
     4
 48
50.0
370
    -2
100
AcDbLine
 10
8018.084791275922
 20
4607.702698467849
 30
0.0
 11
8018.084791275922
 21
4903.261564502629
 31
0.0
  0
LINE
  5
2737
330
22B0
100
AcDbEntity
  8
寸法
 62
     4
 48
50.0
370
    -2
100
AcDbLine
 10
7768.084791275923
 20
4863.261564502629
 30
0.0
 11
8018.084791275922
 21
4863.261564502629
 31
0.0
  0
INSERT
  5
2738
330
22B0
100
AcDbEntity
  8
寸法
 62
     4
 48
50.0
370
    -2
100
AcDbBlockReference
  2
_DOTSMALL
 10
7768.084791275923
 20
4863.261564502629
 30
0.0
 41
100.0
 42
100.0
 43
100.0
 50
180.0
  0
INSERT
  5
2739
330
22B0
100
AcDbEntity
  8
寸法
 62
     4
 48
50.0
370
    -2
100
AcDbBlockReference
  2
_DOTSMALL
 10
8018.084791275922
 20
4863.261564502629
 30
0.0
 41
100.0
 42
100.0
 43
100.0
  0
MTEXT
  5
273A
330
22B0
100
AcDbEntity
  8
寸法
 62
     7
 48
50.0
100
AcDbMText
 10
7893.084791275923
 20
4963.273375526251
 30
0.0
 40
120.0
 41
0.0
 71
     5
 72
     1
  1
\A1;250
 73
     1
 44
1.0
1001
ACAD
1000
MTEXTBEGIN
1070
    73
1070
     1
1070
    44
1040
1.0
1070
    74
1070
     0
1000
MTEXTEND
  0
POINT
  5
273B
330
22B0
100
AcDbEntity
  8
DEFPOINTS
 62
     0
 48
50.0
100
AcDbPoint
 10
7768.084791275923
 20
4340.018080169216
 30
0.0
  0
POINT
  5
273C
330
22B0
100
AcDbEntity
  8
DEFPOINTS
 62
     0
 48
50.0
100
AcDbPoint
 10
8018.084791275922
 20
4567.702698467848
 30
0.0
  0
POINT
  5
273D
330
22B0
100
AcDbEntity
  8
DEFPOINTS
 62
     0
 48
50.0
100
AcDbPoint
 10
8018.084791275922
 20
4863.261564502629
 30
0.0
  0
ENDBLK
  5
22BA
330
22B0
100
AcDbEntity
  8
0
 48
50.0
100
AcDbBlockEnd
  0
BLOCK
  5
22C5
330
22BB
100
AcDbEntity
  8
0
 48
50.0
100
AcDbBlockBegin
  2
*D2
 70
     1
 10
0.0
 20
0.0
 30
0.0
  3
*D2
  1

  0
LINE
  5
272D
330
22BB
100
AcDbEntity
  8
寸法
 62
     4
 48
50.0
370
    -2
100
AcDbLine
 10
2728.084791275924
 20
10784.50484645163
 30
0.0
 11
1864.415140076319
 21
10784.50484645163
 31
0.0
  0
LINE
  5
272E
330
22BB
100
AcDbEntity
  8
寸法
 62
     4
 48
50.0
370
    -2
100
AcDbLine
 10
2728.084791275924
 20
5984.504846451631
 30
0.0
 11
1864.415140076318
 21
5984.504846451632
 31
0.0
  0
LINE
  5
272F
330
22BB
100
AcDbEntity
  8
寸法
 62
     4
 48
50.0
370
    -2
100
AcDbLine
 10
1904.41514007632
 20
10784.50484645163
 30
0.0
 11
1904.415140076318
 21
5984.504846451632
 31
0.0
  0
INSERT
  5
2730
330
22BB
100
AcDbEntity
  8
寸法
 62
     4
 48
50.0
370
    -2
100
AcDbBlockReference
  2
_DOTSMALL
 10
1904.41514007632
 20
10784.50484645163
 30
0.0
 41
100.0
 42
100.0
 43
100.0
 50
90.0
  0
INSERT
  5
2731
330
22BB
100
AcDbEntity
  8
寸法
 62
     4
 48
50.0
370
    -2
100
AcDbBlockReference
  2
_DOTSMALL
 10
1904.415140076318
 20
5984.504846451632
 30
0.0
 41
100.0
 42
100.0
 43
100.0
 50
270.0
  0
MTEXT
  5
2732
330
22BB
100
AcDbEntity
  8
寸法
 62
     7
 48
50.0
100
AcDbMText
 10
1804.415140076318
 20
8384.504846451632
 30
0.0
 40
120.0
 41
0.0
 71
     5
 72
     1
  1
\A1;4800
 11
0.0000000000000001
 21
1.0
 31
0.0
 73
     1
 44
1.0
1001
ACAD
1000
MTEXTBEGIN
1070
    73
1070
     1
1070
    44
1040
1.0
1070
    74
1070
     0
1000
MTEXTEND
  0
POINT
  5
2733
330
22BB
100
AcDbEntity
  8
DEFPOINTS
 62
     0
 48
50.0
100
AcDbPoint
 10
2768.084791275924
 20
10784.50484645163
 30
0.0
  0
POINT
  5
2734
330
22BB
100
AcDbEntity
  8
DEFPOINTS
 62
     0
 48
50.0
100
AcDbPoint
 10
2768.084791275924
 20
5984.504846451631
 30
0.0
  0
POINT
  5
2735
330
22BB
100
AcDbEntity
  8
DEFPOINTS
 62
     0
 48
50.0
100
AcDbPoint
 10
1904.415140076318
 20
5984.504846451632
 30
0.0
  0
ENDBLK
  5
22C6
330
22BB
100
AcDbEntity
  8
0
 48
50.0
100
AcDbBlockEnd
  0
BLOCK
  5
22D0
330
22C7
100
AcDbEntity
  8
0
 48
50.0
100
AcDbBlockBegin
  2
*D3
 70
     1
 10
0.0
 20
0.0
 30
0.0
  3
*D3
  1

  0
LINE
  5
2725
330
22C7
100
AcDbEntity
  8
寸法
 62
     4
 48
50.0
370
    -2
100
AcDbLine
 10
2718.084791275924
 20
9290.304846451629
 30
0.0
 11
2144.415140076318
 21
9290.304846451629
 31
0.0
  0
LINE
  5
2726
330
22C7
100
AcDbEntity
  8
寸法
 62
     4
 48
50.0
370
    -2
100
AcDbLine
 10
2184.415140076318
 20
9918.904846451631
 30
0.0
 11
2184.415140076318
 21
9290.304846451629
 31
0.0
  0
INSERT
  5
2727
330
22C7
100
AcDbEntity
  8
寸法
 62
     4
 48
50.0
370
    -2
100
AcDbBlockReference
  2
_DOTSMALL
 10
2184.415140076318
 20
9918.904846451631
 30
0.0
 41
100.0
 42
100.0
 43
100.0
 50
90.0
  0
INSERT
  5
2728
330
22C7
100
AcDbEntity
  8
寸法
 62
     4
 48
50.0
370
    -2
100
AcDbBlockReference
  2
_DOTSMALL
 10
2184.415140076318
 20
9290.304846451629
 30
0.0
 41
100.0
 42
100.0
 43
100.0
 50
270.0
  0
MTEXT
  5
2729
330
22C7
100
AcDbEntity
  8
寸法
 62
     7
 48
50.0
100
AcDbMText
 10
2084.403329052694
 20
9604.60484645163
 30
0.0
 40
120.0
 41
0.0
 71
     5
 72
     1
  1
\A1;628.6
 11
0.0000000000000001
 21
1.0
 31
0.0
 73
     1
 44
1.0
1001
ACAD
1000
MTEXTBEGIN
1070
    73
1070
     1
1070
    44
1040
1.0
1070
    74
1070
     0
1000
MTEXTEND
  0
POINT
  5
272A
330
22C7
100
AcDbEntity
  8
DEFPOINTS
 62
     0
 48
50.0
100
AcDbPoint
 10
2758.084791275924
 20
9918.904846451631
 30
0.0
  0
POINT
  5
272B
330
22C7
100
AcDbEntity
  8
DEFPOINTS
 62
     0
 48
50.0
100
AcDbPoint
 10
2758.084791275924
 20
9290.304846451629
 30
0.0
  0
POINT
  5
272C
330
22C7
100
AcDbEntity
  8
DEFPOINTS
 62
     0
 48
50.0
100
AcDbPoint
 10
2184.415140076318
 20
9290.304846451629
 30
0.0
  0
ENDBLK
  5
22D1
330
22C7
100
AcDbEntity
  8
0
 48
50.0
100
AcDbBlockEnd
  0
BLOCK
  5
22DB
330
22D2
100
AcDbEntity
  8
0
 48
50.0
100
AcDbBlockBegin
  2
*D4
 70
     1
 10
0.0
 20
0.0
 30
0.0
  3
*D4
  1

  0
LINE
  5
271D
330
22D2
100
AcDbEntity
  8
寸法
 62
     4
 48
50.0
370
    -2
100
AcDbLine
 10
2718.084791275924
 20
7478.704846451631
 30
0.0
 11
2144.415140076318
 21
7478.704846451631
 31
0.0
  0
LINE
  5
271E
330
22D2
100
AcDbEntity
  8
寸法
 62
     4
 48
50.0
370
    -2
100
AcDbLine
 10
2184.415140076318
 20
8107.304846451633
 30
0.0
 11
2184.415140076318
 21
7478.704846451631
 31
0.0
  0
MTEXT
  5
271F
330
22D2
100
AcDbEntity
  8
寸法
 62
     7
 48
50.0
100
AcDbMText
 10
2024.415140076319
 20
7704.335873196111
 30
0.0
 40
120.0
 41
0.0
 71
     5
 72
     1
  1
\A1;628.6
 11
0.0000000000000001
 21
1.0
 31
0.0
 73
     1
 44
1.0
1001
ACAD
1000
MTEXTBEGIN
1070
    73
1070
     1
1070
    44
1040
1.0
1070
    74
1070
     0
1000
MTEXTEND
  0
INSERT
  5
2720
330
22D2
100
AcDbEntity
  8
寸法
 62
     4
 48
50.0
370
    -2
100
AcDbBlockReference
  2
_DOTSMALL
 10
2184.415140076318
 20
8107.304846451633
 30
0.0
 41
100.0
 42
100.0
 43
100.0
 50
90.0
  0
INSERT
  5
2721
330
22D2
100
AcDbEntity
  8
寸法
 62
     4
 48
50.0
370
    -2
100
AcDbBlockReference
  2
_DOTSMALL
 10
2184.415140076318
 20
7478.704846451631
 30
0.0
 41
100.0
 42
100.0
 43
100.0
 50
270.0
  0
POINT
  5
2722
330
22D2
100
AcDbEntity
  8
DEFPOINTS
 62
     0
 48
50.0
100
AcDbPoint
 10
2758.084791275924
 20
8107.304846451633
 30
0.0
  0
POINT
  5
2723
330
22D2
100
AcDbEntity
  8
DEFPOINTS
 62
     0
 48
50.0
100
AcDbPoint
 10
2758.084791275924
 20
7478.704846451631
 30
0.0
  0
POINT
  5
2724
330
22D2
100
AcDbEntity
  8
DEFPOINTS
 62
     0
 48
50.0
100
AcDbPoint
 10
2184.415140076318
 20
7478.704846451631
 30
0.0
  0
ENDBLK
  5
22DC
330
22D2
100
AcDbEntity
  8
0
 48
50.0
100
AcDbBlockEnd
  0
BLOCK
  5
22E6
330
22DD
100
AcDbEntity
  8
0
 48
50.0
100
AcDbBlockBegin
  2
*D5
 70
     1
 10
0.0
 20
0.0
 30
0.0
  3
*D5
  1

  0
LINE
  5
2715
330
22DD
100
AcDbEntity
  8
寸法
 62
     4
 48
50.0
370
    -2
100
AcDbLine
 10
2718.084791275924
 20
6850.104846451632
 30
0.0
 11
2144.415140076318
 21
6850.104846451632
 31
0.0
  0
LINE
  5
2716
330
22DD
100
AcDbEntity
  8
寸法
 62
     4
 48
50.0
370
    -2
100
AcDbLine
 10
2184.415140076319
 20
7478.704846451631
 30
0.0
 11
2184.415140076318
 21
6850.104846451632
 31
0.0
  0
INSERT
  5
2717
330
22DD
100
AcDbEntity
  8
寸法
 62
     4
 48
50.0
370
    -2
100
AcDbBlockReference
  2
_DOTSMALL
 10
2184.415140076319
 20
7478.704846451631
 30
0.0
 41
100.0
 42
100.0
 43
100.0
 50
90.0
  0
INSERT
  5
2718
330
22DD
100
AcDbEntity
  8
寸法
 62
     4
 48
50.0
370
    -2
100
AcDbBlockReference
  2
_DOTSMALL
 10
2184.415140076318
 20
6850.104846451632
 30
0.0
 41
100.0
 42
100.0
 43
100.0
 50
270.0
  0
MTEXT
  5
2719
330
22DD
100
AcDbEntity
  8
寸法
 62
     7
 48
50.0
100
AcDbMText
 10
2084.403329052696
 20
7164.404846451633
 30
0.0
 40
120.0
 41
0.0
 71
     5
 72
     1
  1
\A1;628.6
 11
0.0000000000000001
 21
1.0
 31
0.0
 73
     1
 44
1.0
1001
ACAD
1000
MTEXTBEGIN
1070
    73
1070
     1
1070
    44
1040
1.0
1070
    74
1070
     0
1000
MTEXTEND
  0
POINT
  5
271A
330
22DD
100
AcDbEntity
  8
DEFPOINTS
 62
     0
 48
50.0
100
AcDbPoint
 10
2758.084791275924
 20
7478.704846451631
 30
0.0
  0
POINT
  5
271B
330
22DD
100
AcDbEntity
  8
DEFPOINTS
 62
     0
 48
50.0
100
AcDbPoint
 10
2758.084791275924
 20
6850.104846451632
 30
0.0
  0
POINT
  5
271C
330
22DD
100
AcDbEntity
  8
DEFPOINTS
 62
     0
 48
50.0
100
AcDbPoint
 10
2184.415140076318
 20
6850.104846451632
 30
0.0
  0
ENDBLK
  5
22E7
330
22DD
100
AcDbEntity
  8
0
 48
50.0
100
AcDbBlockEnd
  0
BLOCK
  5
22F1
330
22E8
100
AcDbEntity
  8
0
 48
50.0
100
AcDbBlockBegin
  2
*D6
 70
     1
 10
0.0
 20
0.0
 30
0.0
  3
*D6
  1

  0
LINE
  5
270D
330
22E8
100
AcDbEntity
  8
寸法
 62
     4
 48
50.0
370
    -2
100
AcDbLine
 10
2728.084791275924
 20
5984.504846451631
 30
0.0
 11
2144.415140076318
 21
5984.504846451631
 31
0.0
  0
LINE
  5
270E
330
22E8
100
AcDbEntity
  8
寸法
 62
     4
 48
50.0
370
    -2
100
AcDbLine
 10
2184.415140076318
 20
6221.50484645163
 30
0.0
 11
2184.415140076318
 21
5984.504846451631
 31
0.0
  0
MTEXT
  5
270F
330
22E8
100
AcDbEntity
  8
寸法
 62
     7
 48
50.0
100
AcDbMText
 10
2024.403329052695
 20
6103.004846451631
 30
0.0
 40
120.0
 41
0.0
 71
     5
 72
     1
  1
\A1;237
 11
0.0000000000000001
 21
1.0
 31
0.0
 73
     1
 44
1.0
1001
ACAD
1000
MTEXTBEGIN
1070
    73
1070
     1
1070
    44
1040
1.0
1070
    74
1070
     0
1000
MTEXTEND
  0
INSERT
  5
2710
330
22E8
100
AcDbEntity
  8
寸法
 62
     4
 48
50.0
370
    -2
100
AcDbBlockReference
  2
_DOTSMALL
 10
2184.415140076318
 20
6221.50484645163
 30
0.0
 41
100.0
 42
100.0
 43
100.0
 50
90.0
  0
INSERT
  5
2711
330
22E8
100
AcDbEntity
  8
寸法
 62
     4
 48
50.0
370
    -2
100
AcDbBlockReference
  2
_DOTSMALL
 10
2184.415140076318
 20
5984.504846451631
 30
0.0
 41
100.0
 42
100.0
 43
100.0
 50
270.0
  0
POINT
  5
2712
330
22E8
100
AcDbEntity
  8
DEFPOINTS
 62
     0
 48
50.0
100
AcDbPoint
 10
2758.084791275924
 20
6221.50484645163
 30
0.0
  0
POINT
  5
2713
330
22E8
100
AcDbEntity
  8
DEFPOINTS
 62
     0
 48
50.0
100
AcDbPoint
 10
2768.084791275924
 20
5984.504846451631
 30
0.0
  0
POINT
  5
2714
330
22E8
100
AcDbEntity
  8
DEFPOINTS
 62
     0
 48
50.0
100
AcDbPoint
 10
2184.415140076318
 20
5984.504846451631
 30
0.0
  0
ENDBLK
  5
22F2
330
22E8
100
AcDbEntity
  8
0
 48
50.0
100
AcDbBlockEnd
  0
BLOCK
  5
22FC
330
22F3
100
AcDbEntity
  8
0
 48
50.0
100
AcDbBlockBegin
  2
*D7
 70
     1
 10
0.0
 20
0.0
 30
0.0
  3
*D7
  1

  0
LINE
  5
2705
330
22F3
100
AcDbEntity
  8
寸法
 62
     4
 48
50.0
370
    -2
100
AcDbLine
 10
2718.084791275924
 20
6221.50484645163
 30
0.0
 11
2144.415140076318
 21
6221.50484645163
 31
0.0
  0
LINE
  5
2706
330
22F3
100
AcDbEntity
  8
寸法
 62
     4
 48
50.0
370
    -2
100
AcDbLine
 10
2184.415140076318
 20
6850.104846451632
 30
0.0
 11
2184.415140076318
 21
6221.50484645163
 31
0.0
  0
INSERT
  5
2707
330
22F3
100
AcDbEntity
  8
寸法
 62
     4
 48
50.0
370
    -2
100
AcDbBlockReference
  2
_DOTSMALL
 10
2184.415140076318
 20
6850.104846451632
 30
0.0
 41
100.0
 42
100.0
 43
100.0
 50
90.0
  0
INSERT
  5
2708
330
22F3
100
AcDbEntity
  8
寸法
 62
     4
 48
50.0
370
    -2
100
AcDbBlockReference
  2
_DOTSMALL
 10
2184.415140076318
 20
6221.50484645163
 30
0.0
 41
100.0
 42
100.0
 43
100.0
 50
270.0
  0
MTEXT
  5
2709
330
22F3
100
AcDbEntity
  8
寸法
 62
     7
 48
50.0
100
AcDbMText
 10
2084.403329052696
 20
6535.804846451632
 30
0.0
 40
120.0
 41
0.0
 71
     5
 72
     1
  1
\A1;628.6
 11
0.0000000000000001
 21
1.0
 31
0.0
 73
     1
 44
1.0
1001
ACAD
1000
MTEXTBEGIN
1070
    73
1070
     1
1070
    44
1040
1.0
1070
    74
1070
     0
1000
MTEXTEND
  0
POINT
  5
270A
330
22F3
100
AcDbEntity
  8
DEFPOINTS
 62
     0
 48
50.0
100
AcDbPoint
 10
2758.084791275924
 20
6850.104846451632
 30
0.0
  0
POINT
  5
270B
330
22F3
100
AcDbEntity
  8
DEFPOINTS
 62
     0
 48
50.0
100
AcDbPoint
 10
2758.084791275924
 20
6221.50484645163
 30
0.0
  0
POINT
  5
270C
330
22F3
100
AcDbEntity
  8
DEFPOINTS
 62
     0
 48
50.0
100
AcDbPoint
 10
2184.415140076318
 20
6221.50484645163
 30
0.0
  0
ENDBLK
  5
22FD
330
22F3
100
AcDbEntity
  8
0
 48
50.0
100
AcDbBlockEnd
  0
BLOCK
  5
2307
330
22FE
100
AcDbEntity
  8
0
 48
50.0
100
AcDbBlockBegin
  2
*D8
 70
     1
 10
0.0
 20
0.0
 30
0.0
  3
*D8
  1

  0
LINE
  5
26FD
330
22FE
100
AcDbEntity
  8
寸法
 62
     4
 48
50.0
370
    -2
100
AcDbLine
 10
2718.084791275924
 20
8384.504846451632
 30
0.0
 11
2144.415140076318
 21
8384.504846451632
 31
0.0
  0
LINE
  5
26FE
330
22FE
100
AcDbEntity
  8
寸法
 62
     4
 48
50.0
370
    -2
100
AcDbLine
 10
2184.415140076318
 20
8661.704846451627
 30
0.0
 11
2184.415140076318
 21
8384.504846451632
 31
0.0
  0
MTEXT
  5
26FF
330
22FE
100
AcDbEntity
  8
寸法
 62
     7
 48
50.0
100
AcDbMText
 10
2024.403329052697
 20
8621.036897982405
 30
0.0
 40
120.0
 41
0.0
 71
     5
 72
     1
  1
\A1;277.2
 11
0.0000000000000001
 21
1.0
 31
0.0
 73
     1
 44
1.0
1001
ACAD
1000
MTEXTBEGIN
1070
    73
1070
     1
1070
    44
1040
1.0
1070
    74
1070
     0
1000
MTEXTEND
  0
INSERT
  5
2700
330
22FE
100
AcDbEntity
  8
寸法
 62
     4
 48
50.0
370
    -2
100
AcDbBlockReference
  2
_DOTSMALL
 10
2184.415140076318
 20
8661.704846451627
 30
0.0
 41
100.0
 42
100.0
 43
100.0
 50
90.0
  0
INSERT
  5
2701
330
22FE
100
AcDbEntity
  8
寸法
 62
     4
 48
50.0
370
    -2
100
AcDbBlockReference
  2
_DOTSMALL
 10
2184.415140076318
 20
8384.504846451632
 30
0.0
 41
100.0
 42
100.0
 43
100.0
 50
270.0
  0
POINT
  5
2702
330
22FE
100
AcDbEntity
  8
DEFPOINTS
 62
     0
 48
50.0
100
AcDbPoint
 10
2758.084791275924
 20
8661.704846451627
 30
0.0
  0
POINT
  5
2703
330
22FE
100
AcDbEntity
  8
DEFPOINTS
 62
     0
 48
50.0
100
AcDbPoint
 10
2758.084791275924
 20
8384.504846451632
 30
0.0
  0
POINT
  5
2704
330
22FE
100
AcDbEntity
  8
DEFPOINTS
 62
     0
 48
50.0
100
AcDbPoint
 10
2184.415140076318
 20
8384.504846451632
 30
0.0
  0
ENDBLK
  5
2308
330
22FE
100
AcDbEntity
  8
0
 48
50.0
100
AcDbBlockEnd
  0
BLOCK
  5
2312
330
2309
100
AcDbEntity
  8
0
 48
50.0
100
AcDbBlockBegin
  2
*D9
 70
     1
 10
0.0
 20
0.0
 30
0.0
  3
*D9
  1

  0
LINE
  5
26F5
330
2309
100
AcDbEntity
  8
寸法
 62
     4
 48
50.0
370
    -2
100
AcDbLine
 10
2718.084791275924
 20
8661.704846451627
 30
0.0
 11
2144.415140076318
 21
8661.704846451627
 31
0.0
  0
LINE
  5
26F6
330
2309
100
AcDbEntity
  8
寸法
 62
     4
 48
50.0
370
    -2
100
AcDbLine
 10
2184.415140076319
 20
9290.304846451629
 30
0.0
 11
2184.415140076318
 21
8661.704846451627
 31
0.0
  0
MTEXT
  5
26F7
330
2309
100
AcDbEntity
  8
寸法
 62
     7
 48
50.0
100
AcDbMText
 10
2024.415140076319
 20
9070.485366797425
 30
0.0
 40
120.0
 41
0.0
 71
     5
 72
     1
  1
\A1;628.6
 11
0.0000000000000001
 21
1.0
 31
0.0
 73
     1
 44
1.0
1001
ACAD
1000
MTEXTBEGIN
1070
    73
1070
     1
1070
    44
1040
1.0
1070
    74
1070
     0
1000
MTEXTEND
  0
INSERT
  5
26F8
330
2309
100
AcDbEntity
  8
寸法
 62
     4
 48
50.0
370
    -2
100
AcDbBlockReference
  2
_DOTSMALL
 10
2184.415140076319
 20
9290.304846451629
 30
0.0
 41
100.0
 42
100.0
 43
100.0
 50
90.0
  0
INSERT
  5
26F9
330
2309
100
AcDbEntity
  8
寸法
 62
     4
 48
50.0
370
    -2
100
AcDbBlockReference
  2
_DOTSMALL
 10
2184.415140076318
 20
8661.704846451627
 30
0.0
 41
100.0
 42
100.0
 43
100.0
 50
270.0
  0
POINT
  5
26FA
330
2309
100
AcDbEntity
  8
DEFPOINTS
 62
     0
 48
50.0
100
AcDbPoint
 10
2758.084791275924
 20
9290.304846451629
 30
0.0
  0
POINT
  5
26FB
330
2309
100
AcDbEntity
  8
DEFPOINTS
 62
     0
 48
50.0
100
AcDbPoint
 10
2758.084791275924
 20
8661.704846451627
 30
0.0
  0
POINT
  5
26FC
330
2309
100
AcDbEntity
  8
DEFPOINTS
 62
     0
 48
50.0
100
AcDbPoint
 10
2184.415140076318
 20
8661.704846451627
 30
0.0
  0
ENDBLK
  5
2313
330
2309
100
AcDbEntity
  8
0
 48
50.0
100
AcDbBlockEnd
  0
BLOCK
  5
231D
330
2314
100
AcDbEntity
  8
0
 48
50.0
100
AcDbBlockBegin
  2
*D10
 70
     1
 10
0.0
 20
0.0
 30
0.0
  3
*D10
  1

  0
LINE
  5
26ED
330
2314
100
AcDbEntity
  8
寸法
 62
     4
 48
50.0
370
    -2
100
AcDbLine
 10
2718.084791275924
 20
8107.304846451633
 30
0.0
 11
2144.415140076318
 21
8107.304846451633
 31
0.0
  0
LINE
  5
26EE
330
2314
100
AcDbEntity
  8
寸法
 62
     4
 48
50.0
370
    -2
100
AcDbLine
 10
2184.415140076318
 20
8384.504846451632
 30
0.0
 11
2184.415140076318
 21
8107.304846451633
 31
0.0
  0
MTEXT
  5
26EF
330
2314
100
AcDbEntity
  8
寸法
 62
     7
 48
50.0
100
AcDbMText
 10
2024.403329052697
 20
8160.532815521978
 30
0.0
 40
120.0
 41
0.0
 71
     5
 72
     1
  1
\A1;277.2
 11
0.0000000000000001
 21
1.0
 31
0.0
 73
     1
 44
1.0
1001
ACAD
1000
MTEXTBEGIN
1070
    73
1070
     1
1070
    44
1040
1.0
1070
    74
1070
     0
1000
MTEXTEND
  0
INSERT
  5
26F0
330
2314
100
AcDbEntity
  8
寸法
 62
     4
 48
50.0
370
    -2
100
AcDbBlockReference
  2
_DOTSMALL
 10
2184.415140076318
 20
8384.504846451632
 30
0.0
 41
100.0
 42
100.0
 43
100.0
 50
90.0
  0
INSERT
  5
26F1
330
2314
100
AcDbEntity
  8
寸法
 62
     4
 48
50.0
370
    -2
100
AcDbBlockReference
  2
_DOTSMALL
 10
2184.415140076318
 20
8107.304846451633
 30
0.0
 41
100.0
 42
100.0
 43
100.0
 50
270.0
  0
POINT
  5
26F2
330
2314
100
AcDbEntity
  8
DEFPOINTS
 62
     0
 48
50.0
100
AcDbPoint
 10
2758.084791275924
 20
8384.504846451632
 30
0.0
  0
POINT
  5
26F3
330
2314
100
AcDbEntity
  8
DEFPOINTS
 62
     0
 48
50.0
100
AcDbPoint
 10
2758.084791275924
 20
8107.304846451633
 30
0.0
  0
POINT
  5
26F4
330
2314
100
AcDbEntity
  8
DEFPOINTS
 62
     0
 48
50.0
100
AcDbPoint
 10
2184.415140076318
 20
8107.304846451633
 30
0.0
  0
ENDBLK
  5
231E
330
2314
100
AcDbEntity
  8
0
 48
50.0
100
AcDbBlockEnd
  0
BLOCK
  5
2329
330
231F
100
AcDbEntity
  8
0
 48
50.0
100
AcDbBlockBegin
  2
*D11
 70
     1
 10
0.0
 20
0.0
 30
0.0
  3
*D11
  1

  0
LINE
  5
26E4
330
231F
100
AcDbEntity
  8
寸法
 62
     4
 48
50.0
370
    -2
100
AcDbLine
 10
2728.084791275924
 20
10784.50484645163
 30
0.0
 11
2144.415140076318
 21
10784.50484645163
 31
0.0
  0
LINE
  5
26E5
330
231F
100
AcDbEntity
  8
寸法
 62
     4
 48
50.0
370
    -2
100
AcDbLine
 10
2718.084791275924
 20
10547.50484645163
 30
0.0
 11
2144.415140076318
 21
10547.50484645163
 31
0.0
  0
LINE
  5
26E6
330
231F
100
AcDbEntity
  8
寸法
 62
     4
 48
50.0
370
    -2
100
AcDbLine
 10
2184.415140076318
 20
10784.50484645163
 30
0.0
 11
2184.415140076318
 21
10547.50484645163
 31
0.0
  0
MTEXT
  5
26E7
330
231F
100
AcDbEntity
  8
寸法
 62
     7
 48
50.0
100
AcDbMText
 10
2024.403329052695
 20
10666.00484645163
 30
0.0
 40
120.0
 41
0.0
 71
     5
 72
     1
  1
\A1;237
 11
0.0000000000000001
 21
1.0
 31
0.0
 73
     1
 44
1.0
1001
ACAD
1000
MTEXTBEGIN
1070
    73
1070
     1
1070
    44
1040
1.0
1070
    74
1070
     0
1000
MTEXTEND
  0
INSERT
  5
26E8
330
231F
100
AcDbEntity
  8
寸法
 62
     4
 48
50.0
370
    -2
100
AcDbBlockReference
  2
_DOTSMALL
 10
2184.415140076318
 20
10784.50484645163
 30
0.0
 41
100.0
 42
100.0
 43
100.0
 50
90.0
  0
INSERT
  5
26E9
330
231F
100
AcDbEntity
  8
寸法
 62
     4
 48
50.0
370
    -2
100
AcDbBlockReference
  2
_DOTSMALL
 10
2184.415140076318
 20
10547.50484645163
 30
0.0
 41
100.0
 42
100.0
 43
100.0
 50
270.0
  0
POINT
  5
26EA
330
231F
100
AcDbEntity
  8
DEFPOINTS
 62
     0
 48
50.0
100
AcDbPoint
 10
2768.084791275924
 20
10784.50484645163
 30
0.0
  0
POINT
  5
26EB
330
231F
100
AcDbEntity
  8
DEFPOINTS
 62
     0
 48
50.0
100
AcDbPoint
 10
2758.084791275924
 20
10547.50484645163
 30
0.0
  0
POINT
  5
26EC
330
231F
100
AcDbEntity
  8
DEFPOINTS
 62
     0
 48
50.0
100
AcDbPoint
 10
2184.415140076318
 20
10547.50484645163
 30
0.0
  0
ENDBLK
  5
232A
330
231F
100
AcDbEntity
  8
0
 48
50.0
100
AcDbBlockEnd
  0
BLOCK
  5
2334
330
232B
100
AcDbEntity
  8
0
 48
50.0
100
AcDbBlockBegin
  2
*D12
 70
     1
 10
0.0
 20
0.0
 30
0.0
  3
*D12
  1

  0
LINE
  5
26DC
330
232B
100
AcDbEntity
  8
寸法
 62
     4
 48
50.0
370
    -2
100
AcDbLine
 10
2718.084791275924
 20
9918.904846451631
 30
0.0
 11
2144.415140076318
 21
9918.904846451631
 31
0.0
  0
LINE
  5
26DD
330
232B
100
AcDbEntity
  8
寸法
 62
     4
 48
50.0
370
    -2
100
AcDbLine
 10
2184.415140076318
 20
10547.50484645163
 30
0.0
 11
2184.415140076318
 21
9918.904846451631
 31
0.0
  0
INSERT
  5
26DE
330
232B
100
AcDbEntity
  8
寸法
 62
     4
 48
50.0
370
    -2
100
AcDbBlockReference
  2
_DOTSMALL
 10
2184.415140076318
 20
10547.50484645163
 30
0.0
 41
100.0
 42
100.0
 43
100.0
 50
90.0
  0
INSERT
  5
26DF
330
232B
100
AcDbEntity
  8
寸法
 62
     4
 48
50.0
370
    -2
100
AcDbBlockReference
  2
_DOTSMALL
 10
2184.415140076318
 20
9918.904846451631
 30
0.0
 41
100.0
 42
100.0
 43
100.0
 50
270.0
  0
MTEXT
  5
26E0
330
232B
100
AcDbEntity
  8
寸法
 62
     7
 48
50.0
100
AcDbMText
 10
2084.403329052694
 20
10233.20484645163
 30
0.0
 40
120.0
 41
0.0
 71
     5
 72
     1
  1
\A1;628.6
 11
0.0000000000000001
 21
1.0
 31
0.0
 73
     1
 44
1.0
1001
ACAD
1000
MTEXTBEGIN
1070
    73
1070
     1
1070
    44
1040
1.0
1070
    74
1070
     0
1000
MTEXTEND
  0
POINT
  5
26E1
330
232B
100
AcDbEntity
  8
DEFPOINTS
 62
     0
 48
50.0
100
AcDbPoint
 10
2758.084791275924
 20
10547.50484645163
 30
0.0
  0
POINT
  5
26E2
330
232B
100
AcDbEntity
  8
DEFPOINTS
 62
     0
 48
50.0
100
AcDbPoint
 10
2758.084791275924
 20
9918.904846451631
 30
0.0
  0
POINT
  5
26E3
330
232B
100
AcDbEntity
  8
DEFPOINTS
 62
     0
 48
50.0
100
AcDbPoint
 10
2184.415140076318
 20
9918.904846451631
 30
0.0
  0
ENDBLK
  5
2335
330
232B
100
AcDbEntity
  8
0
 48
50.0
100
AcDbBlockEnd
  0
BLOCK
  5
2340
330
2336
100
AcDbEntity
  8
0
 48
50.0
100
AcDbBlockBegin
  2
*D13
 70
     1
 10
0.0
 20
0.0
 30
0.0
  3
*D13
  1

  0
LINE
  5
26D3
330
2336
100
AcDbEntity
  8
寸法
 62
     4
 48
50.0
370
    -2
100
AcDbLine
 10
9876.327550881043
 20
4483.618505172219
 30
0.0
 11
9876.327550881043
 21
5171.386202201751
 31
0.0
  0
LINE
  5
26D4
330
2336
100
AcDbEntity
  8
寸法
 62
     4
 48
50.0
370
    -2
100
AcDbLine
 10
14676.32755088104
 20
4483.618505172219
 30
0.0
 11
14676.32755088104
 21
5171.386202201751
 31
0.0
  0
LINE
  5
26D5
330
2336
100
AcDbEntity
  8
寸法
 62
     4
 48
50.0
370
    -2
100
AcDbLine
 10
9876.327550881043
 20
5131.386202201751
 30
0.0
 11
14676.32755088104
 21
5131.386202201751
 31
0.0
  0
INSERT
  5
26D6
330
2336
100
AcDbEntity
  8
寸法
 62
     4
 48
50.0
370
    -2
100
AcDbBlockReference
  2
_DOTSMALL
 10
9876.327550881043
 20
5131.386202201751
 30
0.0
 41
100.0
 42
100.0
 43
100.0
 50
180.0
  0
INSERT
  5
26D7
330
2336
100
AcDbEntity
  8
寸法
 62
     4
 48
50.0
370
    -2
100
AcDbBlockReference
  2
_DOTSMALL
 10
14676.32755088104
 20
5131.386202201751
 30
0.0
 41
100.0
 42
100.0
 43
100.0
  0
MTEXT
  5
26D8
330
2336
100
AcDbEntity
  8
寸法
 62
     7
 48
50.0
100
AcDbMText
 10
12276.32755088104
 20
5231.38620220175
 30
0.0
 40
120.0
 41
0.0
 71
     5
 72
     1
  1
\A1;4800
 73
     1
 44
1.0
1001
ACAD
1000
MTEXTBEGIN
1070
    73
1070
     1
1070
    44
1040
1.0
1070
    74
1070
     0
1000
MTEXTEND
  0
POINT
  5
26D9
330
2336
100
AcDbEntity
  8
DEFPOINTS
 62
     0
 48
50.0
100
AcDbPoint
 10
9876.327550881043
 20
4443.618505172218
 30
0.0
  0
POINT
  5
26DA
330
2336
100
AcDbEntity
  8
DEFPOINTS
 62
     0
 48
50.0
100
AcDbPoint
 10
14676.32755088104
 20
4443.618505172218
 30
0.0
  0
POINT
  5
26DB
330
2336
100
AcDbEntity
  8
DEFPOINTS
 62
     0
 48
50.0
100
AcDbPoint
 10
14676.32755088104
 20
5131.386202201751
 30
0.0
  0
ENDBLK
  5
2341
330
2336
100
AcDbEntity
  8
0
 48
50.0
100
AcDbBlockEnd
  0
BLOCK
  5
234B
330
2342
100
AcDbEntity
  8
0
 48
50.0
100
AcDbBlockBegin
  2
*D14
 70
     1
 10
0.0
 20
0.0
 30
0.0
  3
*D14
  1

  0
LINE
  5
27AF
330
2342
100
AcDbEntity
  8
寸法
 62
     4
 48
50.0
370
    -2
100
AcDbLine
 10
13926.32755088103
 20
4176.722031224493
 30
0.0
 11
13926.32755088103
 21
4967.470395497379
 31
0.0
  0
LINE
  5
27B0
330
2342
100
AcDbEntity
  8
寸法
 62
     4
 48
50.0
370
    -2
100
AcDbLine
 10
12276.32755088104
 20
4927.47039549738
 30
0.0
 11
13926.32755088103
 21
4927.47039549738
 31
0.0
  0
INSERT
  5
27B1
330
2342
100
AcDbEntity
  8
寸法
 62
     4
 48
50.0
370
    -2
100
AcDbBlockReference
  2
_DOTSMALL
 10
12276.32755088104
 20
4927.47039549738
 30
0.0
 41
100.0
 42
100.0
 43
100.0
 50
180.0
  0
INSERT
  5
27B2
330
2342
100
AcDbEntity
  8
寸法
 62
     4
 48
50.0
370
    -2
100
AcDbBlockReference
  2
_DOTSMALL
 10
13926.32755088103
 20
4927.47039549738
 30
0.0
 41
100.0
 42
100.0
 43
100.0
  0
MTEXT
  5
27B3
330
2342
100
AcDbEntity
  8
寸法
 62
     7
 48
50.0
100
AcDbMText
 10
13101.32755088104
 20
5027.470395497379
 30
0.0
 40
120.0
 41
0.0
 71
     5
 72
     1
  1
\A1;1650
 73
     1
 44
1.0
1001
ACAD
1000
MTEXTBEGIN
1070
    73
1070
     1
1070
    44
1040
1.0
1070
    74
1070
     0
1000
MTEXTEND
  0
POINT
  5
27B4
330
2342
100
AcDbEntity
  8
DEFPOINTS
 62
     0
 48
50.0
100
AcDbPoint
 10
12276.32755088104
 20
4567.702698467845
 30
0.0
  0
POINT
  5
27B5
330
2342
100
AcDbEntity
  8
DEFPOINTS
 62
     0
 48
50.0
100
AcDbPoint
 10
13926.32755088103
 20
4136.722031224493
 30
0.0
  0
POINT
  5
27B6
330
2342
100
AcDbEntity
  8
DEFPOINTS
 62
     0
 48
50.0
100
AcDbPoint
 10
13926.32755088103
 20
4927.47039549738
 30
0.0
  0
ENDBLK
  5
234C
330
2342
100
AcDbEntity
  8
0
 48
50.0
100
AcDbBlockEnd
  0
BLOCK
  5
2357
330
234D
100
AcDbEntity
  8
0
 48
50.0
100
AcDbBlockBegin
  2
*D15
 70
     1
 10
0.0
 20
0.0
 30
0.0
  3
*D15
  1

  0
LINE
  5
26C2
330
234D
100
AcDbEntity
  8
寸法
 62
     4
 48
50.0
370
    -2
100
AcDbLine
 10
12236.32755088104
 20
4567.702698467845
 30
0.0
 11
8962.756801734123
 21
4567.702698467846
 31
0.0
  0
LINE
  5
26C3
330
234D
100
AcDbEntity
  8
寸法
 62
     4
 48
50.0
370
    -2
100
AcDbLine
 10
9025.84789518989
 20
2322.702698467847
 30
0.0
 11
9042.756801734121
 21
2322.702698467847
 31
0.0
  0
LINE
  5
26C4
330
234D
100
AcDbEntity
  8
寸法
 62
     4
 48
50.0
370
    -2
100
AcDbLine
 10
9002.756801734124
 20
4567.702698467846
 30
0.0
 11
9002.756801734122
 21
2322.702698467847
 31
0.0
  0
INSERT
  5
26C5
330
234D
100
AcDbEntity
  8
寸法
 62
     4
 48
50.0
370
    -2
100
AcDbBlockReference
  2
_DOTSMALL
 10
9002.756801734124
 20
4567.702698467846
 30
0.0
 41
100.0
 42
100.0
 43
100.0
 50
90.0
  0
INSERT
  5
26C6
330
234D
100
AcDbEntity
  8
寸法
 62
     4
 48
50.0
370
    -2
100
AcDbBlockReference
  2
_DOTSMALL
 10
9002.756801734122
 20
2322.702698467847
 30
0.0
 41
100.0
 42
100.0
 43
100.0
 50
270.0
  0
MTEXT
  5
26C7
330
234D
100
AcDbEntity
  8
寸法
 62
     7
 48
50.0
100
AcDbMText
 10
8902.7449907105
 20
3445.202698467848
 30
0.0
 40
120.0
 41
0.0
 71
     5
 72
     1
  1
\A1;2245
 11
0.0000000000000001
 21
1.0
 31
0.0
 73
     1
 44
1.0
1001
ACAD
1000
MTEXTBEGIN
1070
    73
1070
     1
1070
    44
1040
1.0
1070
    74
1070
     0
1000
MTEXTEND
  0
POINT
  5
26C8
330
234D
100
AcDbEntity
  8
DEFPOINTS
 62
     0
 48
50.0
100
AcDbPoint
 10
12276.32755088104
 20
4567.702698467845
 30
0.0
  0
POINT
  5
26C9
330
234D
100
AcDbEntity
  8
DEFPOINTS
 62
     0
 48
50.0
100
AcDbPoint
 10
8985.847895189889
 20
2322.702698467847
 30
0.0
  0
POINT
  5
26CA
330
234D
100
AcDbEntity
  8
DEFPOINTS
 62
     0
 48
50.0
100
AcDbPoint
 10
9002.756801734122
 20
2322.702698467847
 30
0.0
  0
ENDBLK
  5
2358
330
234D
100
AcDbEntity
  8
0
 48
50.0
100
AcDbBlockEnd
  0
BLOCK
  5
2363
330
2359
100
AcDbEntity
  8
0
 48
50.0
100
AcDbBlockBegin
  2
*D16
 70
     1
 10
0.0
 20
0.0
 30
0.0
  3
*D16
  1

  0
LINE
  5
26B9
330
2359
100
AcDbEntity
  8
寸法
 62
     4
 48
50.0
370
    -2
100
AcDbLine
 10
12236.84827728145
 20
4567.678180933159
 30
0.0
 11
9256.483483459041
 21
4567.678180933159
 31
0.0
  0
LINE
  5
26BA
330
2359
100
AcDbEntity
  8
寸法
 62
     4
 48
50.0
370
    -2
100
AcDbLine
 10
9835.806824480631
 20
4454.678180933163
 30
0.0
 11
9256.483483459041
 21
4454.678180933163
 31
0.0
  0
LINE
  5
26BB
330
2359
100
AcDbEntity
  8
寸法
 62
     4
 48
50.0
370
    -2
100
AcDbLine
 10
9296.48348345904
 20
4567.678180933159
 30
0.0
 11
9296.48348345904
 21
4454.678180933163
 31
0.0
  0
MTEXT
  5
26BC
330
2359
100
AcDbEntity
  8
寸法
 62
     7
 48
50.0
100
AcDbMText
 10
9177.84231141907
 20
4692.046039059014
 30
0.0
 40
120.0
 41
0.0
 71
     5
 72
     1
  1
\A1;113
 11
0.0000000000000001
 21
1.0
 31
0.0
 73
     1
 44
1.0
1001
ACAD
1000
MTEXTBEGIN
1070
    73
1070
     1
1070
    44
1040
1.0
1070
    74
1070
     0
1000
MTEXTEND
  0
INSERT
  5
26BD
330
2359
100
AcDbEntity
  8
寸法
 62
     4
 48
50.0
370
    -2
100
AcDbBlockReference
  2
_DOTSMALL
 10
9296.48348345904
 20
4567.678180933159
 30
0.0
 41
100.0
 42
100.0
 43
100.0
 50
90.0
  0
INSERT
  5
26BE
330
2359
100
AcDbEntity
  8
寸法
 62
     4
 48
50.0
370
    -2
100
AcDbBlockReference
  2
_DOTSMALL
 10
9296.48348345904
 20
4454.678180933163
 30
0.0
 41
100.0
 42
100.0
 43
100.0
 50
270.0
  0
POINT
  5
26BF
330
2359
100
AcDbEntity
  8
DEFPOINTS
 62
     0
 48
50.0
100
AcDbPoint
 10
12276.84827728145
 20
4567.678180933159
 30
0.0
  0
POINT
  5
26C0
330
2359
100
AcDbEntity
  8
DEFPOINTS
 62
     0
 48
50.0
100
AcDbPoint
 10
9875.806824480632
 20
4454.678180933163
 30
0.0
  0
POINT
  5
26C1
330
2359
100
AcDbEntity
  8
DEFPOINTS
 62
     0
 48
50.0
100
AcDbPoint
 10
9296.48348345904
 20
4454.678180933163
 30
0.0
  0
ENDBLK
  5
2364
330
2359
100
AcDbEntity
  8
0
 48
50.0
100
AcDbBlockEnd
  0
BLOCK
  5
236E
330
2365
100
AcDbEntity
  8
0
 48
50.0
100
AcDbBlockBegin
  2
*D17
 70
     1
 10
0.0
 20
0.0
 30
0.0
  3
*D17
  1

  0
LINE
  5
27A7
330
2365
100
AcDbEntity
  8
寸法
 62
     4
 48
50.0
370
    -2
100
AcDbLine
 10
12276.32755088104
 20
4605.199928951527
 30
0.0
 11
12276.32755088104
 21
4967.470395497379
 31
0.0
  0
LINE
  5
27A8
330
2365
100
AcDbEntity
  8
寸法
 62
     4
 48
50.0
370
    -2
100
AcDbLine
 10
10626.32755088103
 20
4927.47039549738
 30
0.0
 11
12276.32755088104
 21
4927.47039549738
 31
0.0
  0
INSERT
  5
27A9
330
2365
100
AcDbEntity
  8
寸法
 62
     4
 48
50.0
370
    -2
100
AcDbBlockReference
  2
_DOTSMALL
 10
10626.32755088103
 20
4927.47039549738
 30
0.0
 41
100.0
 42
100.0
 43
100.0
 50
180.0
  0
INSERT
  5
27AA
330
2365
100
AcDbEntity
  8
寸法
 62
     4
 48
50.0
370
    -2
100
AcDbBlockReference
  2
_DOTSMALL
 10
12276.32755088104
 20
4927.47039549738
 30
0.0
 41
100.0
 42
100.0
 43
100.0
  0
MTEXT
  5
27AB
330
2365
100
AcDbEntity
  8
寸法
 62
     7
 48
50.0
100
AcDbMText
 10
11451.32755088104
 20
5027.470395497379
 30
0.0
 40
120.0
 41
0.0
 71
     5
 72
     1
  1
\A1;1650
 73
     1
 44
1.0
1001
ACAD
1000
MTEXTBEGIN
1070
    73
1070
     1
1070
    44
1040
1.0
1070
    74
1070
     0
1000
MTEXTEND
  0
POINT
  5
27AC
330
2365
100
AcDbEntity
  8
DEFPOINTS
 62
     0
 48
50.0
100
AcDbPoint
 10
10626.32755088103
 20
4136.722031224495
 30
0.0
  0
POINT
  5
27AD
330
2365
100
AcDbEntity
  8
DEFPOINTS
 62
     0
 48
50.0
100
AcDbPoint
 10
12276.32755088104
 20
4565.199928951527
 30
0.0
  0
POINT
  5
27AE
330
2365
100
AcDbEntity
  8
DEFPOINTS
 62
     0
 48
50.0
100
AcDbPoint
 10
12276.32755088104
 20
4927.47039549738
 30
0.0
  0
ENDBLK
  5
236F
330
2365
100
AcDbEntity
  8
0
 48
50.0
100
AcDbBlockEnd
  0
BLOCK
  5
237A
330
2370
100
AcDbEntity
  8
0
 48
50.0
100
AcDbBlockBegin
  2
*D18
 70
     1
 10
0.0
 20
0.0
 30
0.0
  3
*D18
  1

  0
LINE
  5
278A
330
2370
100
AcDbEntity
  8
寸法
 62
     4
 48
50.0
370
    -2
100
AcDbLine
 10
7838.084791275924
 20
2052.702698467847
 30
0.0
 11
8304.602443373154
 21
2052.702698467847
 31
0.0
  0
LINE
  5
278B
330
2370
100
AcDbEntity
  8
寸法
 62
     4
 48
50.0
370
    -2
100
AcDbLine
 10
8058.084791275925
 20
2322.702698467847
 30
0.0
 11
8304.602443373154
 21
2322.702698467847
 31
0.0
  0
LINE
  5
278C
330
2370
100
AcDbEntity
  8
寸法
 62
     4
 48
50.0
370
    -2
100
AcDbLine
 10
8264.602443373155
 20
2052.702698467847
 30
0.0
 11
8264.602443373155
 21
2322.702698467847
 31
0.0
  0
MTEXT
  5
278D
330
2370
100
AcDbEntity
  8
寸法
 62
     7
 48
50.0
100
AcDbMText
 10
8544.637876444021
 20
2187.702698467848
 30
0.0
 40
120.0
 41
0.0
 71
     5
 72
     1
  1
\A1;270
 11
0.0000000000000001
 21
1.0
 31
0.0
 73
     1
 44
1.0
1001
ACAD
1000
MTEXTBEGIN
1070
    73
1070
     1
1070
    44
1040
1.0
1070
    74
1070
     0
1000
MTEXTEND
  0
INSERT
  5
278E
330
2370
100
AcDbEntity
  8
寸法
 62
     4
 48
50.0
370
    -2
100
AcDbBlockReference
  2
_DOTSMALL
 10
8264.602443373155
 20
2052.702698467847
 30
0.0
 41
100.0
 42
100.0
 43
100.0
 50
270.0
  0
INSERT
  5
278F
330
2370
100
AcDbEntity
  8
寸法
 62
     4
 48
50.0
370
    -2
100
AcDbBlockReference
  2
_DOTSMALL
 10
8264.602443373155
 20
2322.702698467847
 30
0.0
 41
100.0
 42
100.0
 43
100.0
 50
90.0
  0
POINT
  5
2790
330
2370
100
AcDbEntity
  8
DEFPOINTS
 62
     0
 48
50.0
100
AcDbPoint
 10
7798.084791275925
 20
2052.702698467847
 30
0.0
  0
POINT
  5
2791
330
2370
100
AcDbEntity
  8
DEFPOINTS
 62
     0
 48
50.0
100
AcDbPoint
 10
8018.084791275924
 20
2322.702698467847
 30
0.0
  0
POINT
  5
2792
330
2370
100
AcDbEntity
  8
DEFPOINTS
 62
     0
 48
50.0
100
AcDbPoint
 10
8264.602443373155
 20
2322.702698467847
 30
0.0
  0
ENDBLK
  5
237B
330
2370
100
AcDbEntity
  8
0
 48
50.0
100
AcDbBlockEnd
  0
BLOCK
  5
2385
330
237C
100
AcDbEntity
  8
0
 48
50.0
100
AcDbBlockBegin
  2
*D19
 70
     1
 10
0.0
 20
0.0
 30
0.0
  3
*D19
  1

  0
LINE
  5
2782
330
237C
100
AcDbEntity
  8
寸法
 62
     4
 48
50.0
370
    -2
100
AcDbLine
 10
8048.084791275924
 20
10784.50484645163
 30
0.0
 11
8673.537714463043
 21
10784.50484645163
 31
0.0
  0
LINE
  5
2783
330
237C
100
AcDbEntity
  8
寸法
 62
     4
 48
50.0
370
    -2
100
AcDbLine
 10
8633.537714463043
 20
10660.50484645163
 30
0.0
 11
8633.537714463043
 21
10784.50484645163
 31
0.0
  0
MTEXT
  5
2784
330
237C
100
AcDbEntity
  8
寸法
 62
     7
 48
50.0
100
AcDbMText
 10
8526.120316553072
 20
10921.50362339932
 30
0.0
 40
120.0
 41
0.0
 71
     5
 72
     1
  1
\A1;124
 11
0.0000000000000001
 21
1.0
 31
0.0
 73
     1
 44
1.0
1001
ACAD
1000
MTEXTBEGIN
1070
    73
1070
     1
1070
    44
1040
1.0
1070
    74
1070
     0
1000
MTEXTEND
  0
INSERT
  5
2785
330
237C
100
AcDbEntity
  8
寸法
 62
     4
 48
50.0
370
    -2
100
AcDbBlockReference
  2
_DOTSMALL
 10
8633.537714463043
 20
10660.50484645163
 30
0.0
 41
100.0
 42
100.0
 43
100.0
 50
270.0
  0
INSERT
  5
2786
330
237C
100
AcDbEntity
  8
寸法
 62
     4
 48
50.0
370
    -2
100
AcDbBlockReference
  2
_DOTSMALL
 10
8633.537714463043
 20
10784.50484645163
 30
0.0
 41
100.0
 42
100.0
 43
100.0
 50
90.0
  0
POINT
  5
2787
330
237C
100
AcDbEntity
  8
DEFPOINTS
 62
     0
 48
50.0
100
AcDbPoint
 10
7969.584791275917
 20
10660.50484645163
 30
0.0
  0
POINT
  5
2788
330
237C
100
AcDbEntity
  8
DEFPOINTS
 62
     0
 48
50.0
100
AcDbPoint
 10
8008.084791275923
 20
10784.50484645163
 30
0.0
  0
POINT
  5
2789
330
237C
100
AcDbEntity
  8
DEFPOINTS
 62
     0
 48
50.0
100
AcDbPoint
 10
8633.537714463043
 20
10784.50484645163
 30
0.0
  0
ENDBLK
  5
2386
330
237C
100
AcDbEntity
  8
0
 48
50.0
100
AcDbBlockEnd
  0
BLOCK
  5
2390
330
2387
100
AcDbEntity
  8
0
 48
50.0
100
AcDbBlockBegin
  2
*D20
 70
     1
 10
0.0
 20
0.0
 30
0.0
  3
*D20
  1

  0
LINE
  5
277A
330
2387
100
AcDbEntity
  8
寸法
 62
     4
 48
50.0
370
    -2
100
AcDbLine
 10
8048.084791275924
 20
5984.50484645163
 30
0.0
 11
8673.537714463043
 21
5984.50484645163
 31
0.0
  0
LINE
  5
277B
330
2387
100
AcDbEntity
  8
寸法
 62
     4
 48
50.0
370
    -2
100
AcDbLine
 10
8633.537714463043
 20
6108.504846451634
 30
0.0
 11
8633.537714463043
 21
5984.50484645163
 31
0.0
  0
MTEXT
  5
277C
330
2387
100
AcDbEntity
  8
寸法
 62
     7
 48
50.0
100
AcDbMText
 10
8523.207916493699
 20
5849.454284728823
 30
0.0
 40
120.0
 41
0.0
 71
     5
 72
     1
  1
\A1;124
 11
0.0000000000000001
 21
1.0
 31
0.0
 73
     1
 44
1.0
1001
ACAD
1000
MTEXTBEGIN
1070
    73
1070
     1
1070
    44
1040
1.0
1070
    74
1070
     0
1000
MTEXTEND
  0
INSERT
  5
277D
330
2387
100
AcDbEntity
  8
寸法
 62
     4
 48
50.0
370
    -2
100
AcDbBlockReference
  2
_DOTSMALL
 10
8633.537714463043
 20
6108.504846451634
 30
0.0
 41
100.0
 42
100.0
 43
100.0
 50
90.0
  0
INSERT
  5
277E
330
2387
100
AcDbEntity
  8
寸法
 62
     4
 48
50.0
370
    -2
100
AcDbBlockReference
  2
_DOTSMALL
 10
8633.537714463043
 20
5984.50484645163
 30
0.0
 41
100.0
 42
100.0
 43
100.0
 50
270.0
  0
POINT
  5
277F
330
2387
100
AcDbEntity
  8
DEFPOINTS
 62
     0
 48
50.0
100
AcDbPoint
 10
7969.584791275924
 20
6108.504846451634
 30
0.0
  0
POINT
  5
2780
330
2387
100
AcDbEntity
  8
DEFPOINTS
 62
     0
 48
50.0
100
AcDbPoint
 10
8008.084791275924
 20
5984.50484645163
 30
0.0
  0
POINT
  5
2781
330
2387
100
AcDbEntity
  8
DEFPOINTS
 62
     0
 48
50.0
100
AcDbPoint
 10
8633.537714463043
 20
5984.50484645163
 30
0.0
  0
ENDBLK
  5
2391
330
2387
100
AcDbEntity
  8
0
 48
50.0
100
AcDbBlockEnd
  0
BLOCK
  5
239B
330
2392
100
AcDbEntity
  8
0
 48
50.0
100
AcDbBlockBegin
  2
*D21
 70
     1
 10
0.0
 20
0.0
 30
0.0
  3
*D21
  1

  0
LINE
  5
2772
330
2392
100
AcDbEntity
  8
寸法
 62
     4
 48
50.0
370
    -2
100
AcDbLine
 10
8009.584791275925
 20
6108.504846451634
 30
0.0
 11
8673.537714463043
 21
6108.504846451634
 31
0.0
  0
LINE
  5
2773
330
2392
100
AcDbEntity
  8
寸法
 62
     4
 48
50.0
370
    -2
100
AcDbLine
 10
8633.537714463043
 20
8244.504846451631
 30
0.0
 11
8633.537714463043
 21
6108.504846451634
 31
0.0
  0
INSERT
  5
2774
330
2392
100
AcDbEntity
  8
寸法
 62
     4
 48
50.0
370
    -2
100
AcDbBlockReference
  2
_DOTSMALL
 10
8633.537714463043
 20
8244.504846451631
 30
0.0
 41
100.0
 42
100.0
 43
100.0
 50
90.0
  0
INSERT
  5
2775
330
2392
100
AcDbEntity
  8
寸法
 62
     4
 48
50.0
370
    -2
100
AcDbBlockReference
  2
_DOTSMALL
 10
8633.537714463043
 20
6108.504846451634
 30
0.0
 41
100.0
 42
100.0
 43
100.0
 50
270.0
  0
MTEXT
  5
2776
330
2392
100
AcDbEntity
  8
寸法
 62
     7
 48
50.0
100
AcDbMText
 10
8533.52590343942
 20
7176.504846451634
 30
0.0
 40
120.0
 41
0.0
 71
     5
 72
     1
  1
\A1;2136
 11
0.0000000000000001
 21
1.0
 31
0.0
 73
     1
 44
1.0
1001
ACAD
1000
MTEXTBEGIN
1070
    73
1070
     1
1070
    44
1040
1.0
1070
    74
1070
     0
1000
MTEXTEND
  0
POINT
  5
2777
330
2392
100
AcDbEntity
  8
DEFPOINTS
 62
     0
 48
50.0
100
AcDbPoint
 10
7973.084791275924
 20
8244.504846451631
 30
0.0
  0
POINT
  5
2778
330
2392
100
AcDbEntity
  8
DEFPOINTS
 62
     0
 48
50.0
100
AcDbPoint
 10
7969.584791275924
 20
6108.504846451634
 30
0.0
  0
POINT
  5
2779
330
2392
100
AcDbEntity
  8
DEFPOINTS
 62
     0
 48
50.0
100
AcDbPoint
 10
8633.537714463043
 20
6108.504846451634
 30
0.0
  0
ENDBLK
  5
239C
330
2392
100
AcDbEntity
  8
0
 48
50.0
100
AcDbBlockEnd
  0
BLOCK
  5
23A6
330
239D
100
AcDbEntity
  8
0
 48
50.0
100
AcDbBlockBegin
  2
*D22
 70
     1
 10
0.0
 20
0.0
 30
0.0
  3
*D22
  1

  0
LINE
  5
276A
330
239D
100
AcDbEntity
  8
寸法
 62
     4
 48
50.0
370
    -2
100
AcDbLine
 10
8013.084791275923
 20
8244.504846451631
 30
0.0
 11
8673.537714463043
 21
8244.504846451631
 31
0.0
  0
LINE
  5
276B
330
239D
100
AcDbEntity
  8
寸法
 62
     4
 48
50.0
370
    -2
100
AcDbLine
 10
8633.537714463043
 20
8524.504846451632
 30
0.0
 11
8633.537714463043
 21
8244.504846451631
 31
0.0
  0
MTEXT
  5
276C
330
239D
100
AcDbEntity
  8
寸法
 62
     7
 48
50.0
100
AcDbMText
 10
8540.458089084204
 20
8384.50484645163
 30
0.0
 40
120.0
 41
0.0
 71
     5
 72
     1
  1
\A1;280
 11
0.0000000000000001
 21
1.0
 31
0.0
 73
     1
 44
1.0
1001
ACAD
1000
MTEXTBEGIN
1070
    73
1070
     1
1070
    44
1040
1.0
1070
    74
1070
     0
1000
MTEXTEND
  0
INSERT
  5
276D
330
239D
100
AcDbEntity
  8
寸法
 62
     4
 48
50.0
370
    -2
100
AcDbBlockReference
  2
_DOTSMALL
 10
8633.537714463043
 20
8524.504846451632
 30
0.0
 41
100.0
 42
100.0
 43
100.0
 50
90.0
  0
INSERT
  5
276E
330
239D
100
AcDbEntity
  8
寸法
 62
     4
 48
50.0
370
    -2
100
AcDbBlockReference
  2
_DOTSMALL
 10
8633.537714463043
 20
8244.504846451631
 30
0.0
 41
100.0
 42
100.0
 43
100.0
 50
270.0
  0
POINT
  5
276F
330
239D
100
AcDbEntity
  8
DEFPOINTS
 62
     0
 48
50.0
100
AcDbPoint
 10
7973.084791275923
 20
8524.504846451632
 30
0.0
  0
POINT
  5
2770
330
239D
100
AcDbEntity
  8
DEFPOINTS
 62
     0
 48
50.0
100
AcDbPoint
 10
7973.084791275924
 20
8244.504846451631
 30
0.0
  0
POINT
  5
2771
330
239D
100
AcDbEntity
  8
DEFPOINTS
 62
     0
 48
50.0
100
AcDbPoint
 10
8633.537714463043
 20
8244.504846451631
 30
0.0
  0
ENDBLK
  5
23A7
330
239D
100
AcDbEntity
  8
0
 48
50.0
100
AcDbBlockEnd
  0
BLOCK
  5
23B2
330
23A8
100
AcDbEntity
  8
0
 48
50.0
100
AcDbBlockBegin
  2
*D23
 70
     1
 10
0.0
 20
0.0
 30
0.0
  3
*D23
  1

  0
LINE
  5
2761
330
23A8
100
AcDbEntity
  8
寸法
 62
     4
 48
50.0
370
    -2
100
AcDbLine
 10
8009.584791275917
 20
10660.50484645163
 30
0.0
 11
8673.537714463043
 21
10660.50484645163
 31
0.0
  0
LINE
  5
2762
330
23A8
100
AcDbEntity
  8
寸法
 62
     4
 48
50.0
370
    -2
100
AcDbLine
 10
8013.084791275922
 20
8524.504846451632
 30
0.0
 11
8673.537714463043
 21
8524.504846451632
 31
0.0
  0
LINE
  5
2763
330
23A8
100
AcDbEntity
  8
寸法
 62
     4
 48
50.0
370
    -2
100
AcDbLine
 10
8633.537714463043
 20
10660.50484645163
 30
0.0
 11
8633.537714463043
 21
8524.504846451632
 31
0.0
  0
INSERT
  5
2764
330
23A8
100
AcDbEntity
  8
寸法
 62
     4
 48
50.0
370
    -2
100
AcDbBlockReference
  2
_DOTSMALL
 10
8633.537714463043
 20
10660.50484645163
 30
0.0
 41
100.0
 42
100.0
 43
100.0
 50
90.0
  0
INSERT
  5
2765
330
23A8
100
AcDbEntity
  8
寸法
 62
     4
 48
50.0
370
    -2
100
AcDbBlockReference
  2
_DOTSMALL
 10
8633.537714463043
 20
8524.504846451632
 30
0.0
 41
100.0
 42
100.0
 43
100.0
 50
270.0
  0
MTEXT
  5
2766
330
23A8
100
AcDbEntity
  8
寸法
 62
     7
 48
50.0
100
AcDbMText
 10
8533.52590343942
 20
9592.504846451634
 30
0.0
 40
120.0
 41
0.0
 71
     5
 72
     1
  1
\A1;2136
 11
0.0000000000000001
 21
1.0
 31
0.0
 73
     1
 44
1.0
1001
ACAD
1000
MTEXTBEGIN
1070
    73
1070
     1
1070
    44
1040
1.0
1070
    74
1070
     0
1000
MTEXTEND
  0
POINT
  5
2767
330
23A8
100
AcDbEntity
  8
DEFPOINTS
 62
     0
 48
50.0
100
AcDbPoint
 10
7969.584791275917
 20
10660.50484645163
 30
0.0
  0
POINT
  5
2768
330
23A8
100
AcDbEntity
  8
DEFPOINTS
 62
     0
 48
50.0
100
AcDbPoint
 10
7973.084791275923
 20
8524.504846451632
 30
0.0
  0
POINT
  5
2769
330
23A8
100
AcDbEntity
  8
DEFPOINTS
 62
     0
 48
50.0
100
AcDbPoint
 10
8633.537714463043
 20
8524.504846451632
 30
0.0
  0
ENDBLK
  5
23B3
330
23A8
100
AcDbEntity
  8
0
 48
50.0
100
AcDbBlockEnd
  0
BLOCK
  5
23BE
330
23B4
100
AcDbEntity
  8
0
 48
50.0
100
AcDbBlockBegin
  2
*D24
 70
     1
 10
0.0
 20
0.0
 30
0.0
  3
*D24
  1

  0
LINE
  5
2758
330
23B4
100
AcDbEntity
  8
寸法
 62
     4
 48
50.0
370
    -2
100
AcDbLine
 10
2758.084791275924
 20
4607.702698467849
 30
0.0
 11
2758.084791275924
 21
5183.261564502629
 31
0.0
  0
LINE
  5
2759
330
23B4
100
AcDbEntity
  8
寸法
 62
     4
 48
50.0
370
    -2
100
AcDbLine
 10
8018.084791275922
 20
4607.702698467849
 30
0.0
 11
8018.084791275922
 21
5183.261564502629
 31
0.0
  0
LINE
  5
275A
330
23B4
100
AcDbEntity
  8
寸法
 62
     4
 48
50.0
370
    -2
100
AcDbLine
 10
2758.084791275924
 20
5143.261564502629
 30
0.0
 11
8018.084791275922
 21
5143.261564502629
 31
0.0
  0
INSERT
  5
275B
330
23B4
100
AcDbEntity
  8
寸法
 62
     4
 48
50.0
370
    -2
100
AcDbBlockReference
  2
_DOTSMALL
 10
2758.084791275924
 20
5143.261564502629
 30
0.0
 41
100.0
 42
100.0
 43
100.0
 50
180.0
  0
INSERT
  5
275C
330
23B4
100
AcDbEntity
  8
寸法
 62
     4
 48
50.0
370
    -2
100
AcDbBlockReference
  2
_DOTSMALL
 10
8018.084791275922
 20
5143.261564502629
 30
0.0
 41
100.0
 42
100.0
 43
100.0
  0
MTEXT
  5
275D
330
23B4
100
AcDbEntity
  8
寸法
 62
     7
 48
50.0
100
AcDbMText
 10
5388.084791275923
 20
5243.273375526251
 30
0.0
 40
120.0
 41
0.0
 71
     5
 72
     1
  1
\A1;N X 2380 + 500
 73
     1
 44
1.0
1001
ACAD
1000
MTEXTBEGIN
1070
    73
1070
     1
1070
    44
1040
1.0
1070
    74
1070
     0
1000
MTEXTEND
  0
POINT
  5
275E
330
23B4
100
AcDbEntity
  8
DEFPOINTS
 62
     0
 48
50.0
100
AcDbPoint
 10
2758.084791275924
 20
4567.702698467848
 30
0.0
  0
POINT
  5
275F
330
23B4
100
AcDbEntity
  8
DEFPOINTS
 62
     0
 48
50.0
100
AcDbPoint
 10
8018.084791275922
 20
4567.702698467848
 30
0.0
  0
POINT
  5
2760
330
23B4
100
AcDbEntity
  8
DEFPOINTS
 62
     0
 48
50.0
100
AcDbPoint
 10
8018.084791275922
 20
5143.261564502629
 30
0.0
  0
ENDBLK
  5
23BF
330
23B4
100
AcDbEntity
  8
0
 48
50.0
100
AcDbBlockEnd
  0
BLOCK
  5
23C9
330
23C0
100
AcDbEntity
  8
0
 48
50.0
100
AcDbBlockBegin
  2
*D25
 70
     1
 10
0.0
 20
0.0
 30
0.0
  3
*D25
  1

  0
LINE
  5
2750
330
23C0
100
AcDbEntity
  8
寸法
 62
     4
 48
50.0
370
    -2
100
AcDbLine
 10
7768.084791275923
 20
4380.018080169217
 30
0.0
 11
7768.084791275923
 21
4903.261564502629
 31
0.0
  0
LINE
  5
2751
330
23C0
100
AcDbEntity
  8
寸法
 62
     4
 48
50.0
370
    -2
100
AcDbLine
 10
3008.084791275924
 20
4863.261564502629
 30
0.0
 11
7768.084791275923
 21
4863.261564502629
 31
0.0
  0
INSERT
  5
2752
330
23C0
100
AcDbEntity
  8
寸法
 62
     4
 48
50.0
370
    -2
100
AcDbBlockReference
  2
_DOTSMALL
 10
3008.084791275924
 20
4863.261564502629
 30
0.0
 41
100.0
 42
100.0
 43
100.0
 50
180.0
  0
INSERT
  5
2753
330
23C0
100
AcDbEntity
  8
寸法
 62
     4
 48
50.0
370
    -2
100
AcDbBlockReference
  2
_DOTSMALL
 10
7768.084791275923
 20
4863.261564502629
 30
0.0
 41
100.0
 42
100.0
 43
100.0
  0
MTEXT
  5
2754
330
23C0
100
AcDbEntity
  8
寸法
 62
     7
 48
50.0
100
AcDbMText
 10
5388.084791275923
 20
4963.273375526251
 30
0.0
 40
120.0
 41
0.0
 71
     5
 72
     1
  1
\A1;N X 2380
 73
     1
 44
1.0
1001
ACAD
1000
MTEXTBEGIN
1070
    73
1070
     1
1070
    44
1040
1.0
1070
    74
1070
     0
1000
MTEXTEND
  0
POINT
  5
2755
330
23C0
100
AcDbEntity
  8
DEFPOINTS
 62
     0
 48
50.0
100
AcDbPoint
 10
3008.084791275924
 20
4340.018080169216
 30
0.0
  0
POINT
  5
2756
330
23C0
100
AcDbEntity
  8
DEFPOINTS
 62
     0
 48
50.0
100
AcDbPoint
 10
7768.084791275923
 20
4340.018080169216
 30
0.0
  0
POINT
  5
2757
330
23C0
100
AcDbEntity
  8
DEFPOINTS
 62
     0
 48
50.0
100
AcDbPoint
 10
7768.084791275923
 20
4863.261564502629
 30
0.0
  0
ENDBLK
  5
23CA
330
23C0
100
AcDbEntity
  8
0
 48
50.0
100
AcDbBlockEnd
  0
BLOCK
  5
23D5
330
23CB
100
AcDbEntity
  8
0
 48
50.0
100
AcDbBlockBegin
  2
*D26
 70
     1
 10
0.0
 20
0.0
 30
0.0
  3
*D26
  1

  0
LINE
  5
2747
330
23CB
100
AcDbEntity
  8
寸法
 62
     4
 48
50.0
370
    -2
100
AcDbLine
 10
2758.084791275924
 20
4607.702698467849
 30
0.0
 11
2758.084791275924
 21
4903.261564502629
 31
0.0
  0
LINE
  5
2748
330
23CB
100
AcDbEntity
  8
寸法
 62
     4
 48
50.0
370
    -2
100
AcDbLine
 10
3008.084791275924
 20
4380.018080169217
 30
0.0
 11
3008.084791275924
 21
4903.261564502629
 31
0.0
  0
LINE
  5
2749
330
23CB
100
AcDbEntity
  8
寸法
 62
     4
 48
50.0
370
    -2
100
AcDbLine
 10
2758.084791275924
 20
4863.261564502629
 30
0.0
 11
3008.084791275924
 21
4863.261564502629
 31
0.0
  0
INSERT
  5
274A
330
23CB
100
AcDbEntity
  8
寸法
 62
     4
 48
50.0
370
    -2
100
AcDbBlockReference
  2
_DOTSMALL
 10
2758.084791275924
 20
4863.261564502629
 30
0.0
 41
100.0
 42
100.0
 43
100.0
 50
180.0
  0
INSERT
  5
274B
330
23CB
100
AcDbEntity
  8
寸法
 62
     4
 48
50.0
370
    -2
100
AcDbBlockReference
  2
_DOTSMALL
 10
3008.084791275924
 20
4863.261564502629
 30
0.0
 41
100.0
 42
100.0
 43
100.0
  0
MTEXT
  5
274C
330
23CB
100
AcDbEntity
  8
寸法
 62
     7
 48
50.0
100
AcDbMText
 10
2883.084791275924
 20
4963.273375526251
 30
0.0
 40
120.0
 41
0.0
 71
     5
 72
     1
  1
\A1;250
 73
     1
 44
1.0
1001
ACAD
1000
MTEXTBEGIN
1070
    73
1070
     1
1070
    44
1040
1.0
1070
    74
1070
     0
1000
MTEXTEND
  0
POINT
  5
274D
330
23CB
100
AcDbEntity
  8
DEFPOINTS
 62
     0
 48
50.0
100
AcDbPoint
 10
2758.084791275924
 20
4567.702698467848
 30
0.0
  0
POINT
  5
274E
330
23CB
100
AcDbEntity
  8
DEFPOINTS
 62
     0
 48
50.0
100
AcDbPoint
 10
3008.084791275924
 20
4340.018080169216
 30
0.0
  0
POINT
  5
274F
330
23CB
100
AcDbEntity
  8
DEFPOINTS
 62
     0
 48
50.0
100
AcDbPoint
 10
3008.084791275924
 20
4863.261564502629
 30
0.0
  0
ENDBLK
  5
23D6
330
23CB
100
AcDbEntity
  8
0
 48
50.0
100
AcDbBlockEnd
  0
BLOCK
  5
23E1
330
23D7
100
AcDbEntity
  8
0
 48
50.0
100
AcDbBlockBegin
  2
*D27
 70
     1
 10
0.0
 20
0.0
 30
0.0
  3
*D27
  1

  0
LINE
  5
273E
330
23D7
100
AcDbEntity
  8
寸法
 62
     4
 48
50.0
370
    -2
100
AcDbLine
 10
7768.084791275923
 20
2052.702698467847
 30
0.0
 11
7768.084791275923
 21
1759.937971168949
 31
0.0
  0
LINE
  5
273F
330
23D7
100
AcDbEntity
  8
寸法
 62
     4
 48
50.0
370
    -2
100
AcDbLine
 10
5388.084791275923
 20
2052.702698467847
 30
0.0
 11
5388.084791275923
 21
1759.937971168949
 31
0.0
  0
LINE
  5
2740
330
23D7
100
AcDbEntity
  8
寸法
 62
     4
 48
50.0
370
    -2
100
AcDbLine
 10
7768.084791275923
 20
1799.937971168949
 30
0.0
 11
5388.084791275923
 21
1799.937971168949
 31
0.0
  0
INSERT
  5
2741
330
23D7
100
AcDbEntity
  8
寸法
 62
     4
 48
50.0
370
    -2
100
AcDbBlockReference
  2
_DOTSMALL
 10
7768.084791275923
 20
1799.937971168949
 30
0.0
 41
100.0
 42
100.0
 43
100.0
  0
INSERT
  5
2742
330
23D7
100
AcDbEntity
  8
寸法
 62
     4
 48
50.0
370
    -2
100
AcDbBlockReference
  2
_DOTSMALL
 10
5388.084791275923
 20
1799.937971168949
 30
0.0
 41
100.0
 42
100.0
 43
100.0
 50
180.0
  0
MTEXT
  5
2743
330
23D7
100
AcDbEntity
  8
寸法
 62
     7
 48
50.0
100
AcDbMText
 10
6578.084791275924
 20
1899.949782192571
 30
0.0
 40
120.0
 41
0.0
 71
     5
 72
     1
  1
\A1;2380
 73
     1
 44
1.0
1001
ACAD
1000
MTEXTBEGIN
1070
    73
1070
     1
1070
    44
1040
1.0
1070
    74
1070
     0
1000
MTEXTEND
  0
POINT
  5
2744
330
23D7
100
AcDbEntity
  8
DEFPOINTS
 62
     0
 48
50.0
100
AcDbPoint
 10
7768.084791275923
 20
2092.702698467847
 30
0.0
  0
POINT
  5
2745
330
23D7
100
AcDbEntity
  8
DEFPOINTS
 62
     0
 48
50.0
100
AcDbPoint
 10
5388.084791275923
 20
2092.702698467847
 30
0.0
  0
POINT
  5
2746
330
23D7
100
AcDbEntity
  8
DEFPOINTS
 62
     0
 48
50.0
100
AcDbPoint
 10
5388.084791275923
 20
1799.937971168949
 30
0.0
  0
ENDBLK
  5
23E2
330
23D7
100
AcDbEntity
  8
0
 48
50.0
100
AcDbBlockEnd
  0
BLOCK
  5
23EC
330
23E3
100
AcDbEntity
  8
0
 48
50.0
100
AcDbBlockBegin
  2
*D28
 70
     1
 10
0.0
 20
0.0
 30
0.0
  3
*D28
  1

  0
LINE
  5
26A9
330
23E3
100
AcDbEntity
  8
寸法
 62
     4
 48
50.0
370
    -2
100
AcDbLine
 10
9285.652178531028
 20
2322.702698467847
 30
0.0
 11
9336.483483459039
 21
2322.702698467847
 31
0.0
  0
LINE
  5
26AA
330
23E3
100
AcDbEntity
  8
寸法
 62
     4
 48
50.0
370
    -2
100
AcDbLine
 10
9296.483483459041
 20
4454.702698467847
 30
0.0
 11
9296.48348345904
 21
2322.702698467847
 31
0.0
  0
INSERT
  5
26AB
330
23E3
100
AcDbEntity
  8
寸法
 62
     4
 48
50.0
370
    -2
100
AcDbBlockReference
  2
_DOTSMALL
 10
9296.483483459041
 20
4454.702698467847
 30
0.0
 41
100.0
 42
100.0
 43
100.0
 50
90.0
  0
INSERT
  5
26AC
330
23E3
100
AcDbEntity
  8
寸法
 62
     4
 48
50.0
370
    -2
100
AcDbBlockReference
  2
_DOTSMALL
 10
9296.48348345904
 20
2322.702698467847
 30
0.0
 41
100.0
 42
100.0
 43
100.0
 50
270.0
  0
MTEXT
  5
26AD
330
23E3
100
AcDbEntity
  8
寸法
 62
     7
 48
50.0
100
AcDbMText
 10
9196.47167243542
 20
3388.702698467849
 30
0.0
 40
120.0
 41
0.0
 71
     5
 72
     1
  1
\A1;2132
 11
0.0000000000000001
 21
1.0
 31
0.0
 73
     1
 44
1.0
1001
ACAD
1000
MTEXTBEGIN
1070
    73
1070
     1
1070
    44
1040
1.0
1070
    74
1070
     0
1000
MTEXTEND
  0
POINT
  5
26AE
330
23E3
100
AcDbEntity
  8
DEFPOINTS
 62
     0
 48
50.0
100
AcDbPoint
 10
9876.327550881034
 20
4454.702698467847
 30
0.0
  0
POINT
  5
26AF
330
23E3
100
AcDbEntity
  8
DEFPOINTS
 62
     0
 48
50.0
100
AcDbPoint
 10
9245.652178531029
 20
2322.702698467847
 30
0.0
  0
POINT
  5
26B0
330
23E3
100
AcDbEntity
  8
DEFPOINTS
 62
     0
 48
50.0
100
AcDbPoint
 10
9296.48348345904
 20
2322.702698467847
 30
0.0
  0
ENDBLK
  5
23ED
330
23E3
100
AcDbEntity
  8
0
 48
50.0
100
AcDbBlockEnd
  0
BLOCK
  5
23F7
330
23EE
100
AcDbEntity
  8
0
 48
50.0
100
AcDbBlockBegin
  2
*D29
 70
     1
 10
0.0
 20
0.0
 30
0.0
  3
*D29
  1

  0
LINE
  5
26A1
330
23EE
100
AcDbEntity
  8
寸法
 62
     4
 48
50.0
370
    -2
100
AcDbLine
 10
10616.32755088104
 20
3472.702698467847
 30
0.0
 11
9748.354899444731
 21
3472.702698467847
 31
0.0
  0
LINE
  5
26A2
330
23EE
100
AcDbEntity
  8
寸法
 62
     4
 48
50.0
370
    -2
100
AcDbLine
 10
9788.354899444732
 20
2572.702698467847
 30
0.0
 11
9788.354899444732
 21
3472.702698467847
 31
0.0
  0
INSERT
  5
26A3
330
23EE
100
AcDbEntity
  8
寸法
 62
     4
 48
50.0
370
    -2
100
AcDbBlockReference
  2
_DOTSMALL
 10
9788.354899444732
 20
2572.702698467847
 30
0.0
 41
100.0
 42
100.0
 43
100.0
 50
270.0
  0
INSERT
  5
26A4
330
23EE
100
AcDbEntity
  8
寸法
 62
     4
 48
50.0
370
    -2
100
AcDbBlockReference
  2
_DOTSMALL
 10
9788.354899444732
 20
3472.702698467847
 30
0.0
 41
100.0
 42
100.0
 43
100.0
 50
90.0
  0
MTEXT
  5
26A5
330
23EE
100
AcDbEntity
  8
寸法
 62
     7
 48
50.0
100
AcDbMText
 10
9688.354899444732
 20
3022.702698467849
 30
0.0
 40
120.0
 41
0.0
 71
     5
 72
     1
  1
\A1;900
 11
0.0000000000000001
 21
1.0
 31
0.0
 73
     1
 44
1.0
1001
ACAD
1000
MTEXTBEGIN
1070
    73
1070
     1
1070
    44
1040
1.0
1070
    74
1070
     0
1000
MTEXTEND
  0
POINT
  5
26A6
330
23EE
100
AcDbEntity
  8
DEFPOINTS
 62
     0
 48
50.0
100
AcDbPoint
 10
10656.32755088104
 20
2572.702698467847
 30
0.0
  0
POINT
  5
26A7
330
23EE
100
AcDbEntity
  8
DEFPOINTS
 62
     0
 48
50.0
100
AcDbPoint
 10
10656.32755088104
 20
3472.702698467847
 30
0.0
  0
POINT
  5
26A8
330
23EE
100
AcDbEntity
  8
DEFPOINTS
 62
     0
 48
50.0
100
AcDbPoint
 10
9788.354899444732
 20
3472.702698467847
 30
0.0
  0
ENDBLK
  5
23F8
330
23EE
100
AcDbEntity
  8
0
 48
50.0
100
AcDbBlockEnd
  0
BLOCK
  5
2403
330
23F9
100
AcDbEntity
  8
0
 48
50.0
100
AcDbBlockBegin
  2
*D30
 70
     1
 10
0.0
 20
0.0
 30
0.0
  3
*D30
  1

  0
LINE
  5
2698
330
23F9
100
AcDbEntity
  8
寸法
 62
     4
 48
50.0
370
    -2
100
AcDbLine
 10
9812.254670437182
 20
2322.702698467847
 30
0.0
 11
9828.354899444731
 21
2322.702698467847
 31
0.0
  0
LINE
  5
2699
330
23F9
100
AcDbEntity
  8
寸法
 62
     4
 48
50.0
370
    -2
100
AcDbLine
 10
10616.32755088104
 20
2572.702698467847
 30
0.0
 11
9748.354899444731
 21
2572.702698467847
 31
0.0
  0
LINE
  5
269A
330
23F9
100
AcDbEntity
  8
寸法
 62
     4
 48
50.0
370
    -2
100
AcDbLine
 10
9788.354899444732
 20
2322.702698467847
 30
0.0
 11
9788.354899444732
 21
2572.702698467847
 31
0.0
  0
MTEXT
  5
269B
330
23F9
100
AcDbEntity
  8
寸法
 62
     7
 48
50.0
100
AcDbMText
 10
9677.798262385474
 20
2447.702698467847
 30
0.0
 40
120.0
 41
0.0
 71
     5
 72
     1
  1
\A1;250
 11
0.0000000000000001
 21
1.0
 31
0.0
 73
     1
 44
1.0
1001
ACAD
1000
MTEXTBEGIN
1070
    73
1070
     1
1070
    44
1040
1.0
1070
    74
1070
     0
1000
MTEXTEND
  0
INSERT
  5
269C
330
23F9
100
AcDbEntity
  8
寸法
 62
     4
 48
50.0
370
    -2
100
AcDbBlockReference
  2
_DOTSMALL
 10
9788.354899444732
 20
2322.702698467847
 30
0.0
 41
100.0
 42
100.0
 43
100.0
 50
270.0
  0
INSERT
  5
269D
330
23F9
100
AcDbEntity
  8
寸法
 62
     4
 48
50.0
370
    -2
100
AcDbBlockReference
  2
_DOTSMALL
 10
9788.354899444732
 20
2572.702698467847
 30
0.0
 41
100.0
 42
100.0
 43
100.0
 50
90.0
  0
POINT
  5
269E
330
23F9
100
AcDbEntity
  8
DEFPOINTS
 62
     0
 48
50.0
100
AcDbPoint
 10
9772.254670437183
 20
2322.702698467847
 30
0.0
  0
POINT
  5
269F
330
23F9
100
AcDbEntity
  8
DEFPOINTS
 62
     0
 48
50.0
100
AcDbPoint
 10
10656.32755088104
 20
2572.702698467847
 30
0.0
  0
POINT
  5
26A0
330
23F9
100
AcDbEntity
  8
DEFPOINTS
 62
     0
 48
50.0
100
AcDbPoint
 10
9788.354899444732
 20
2572.702698467847
 30
0.0
  0
ENDBLK
  5
2404
330
23F9
100
AcDbEntity
  8
0
 48
50.0
100
AcDbBlockEnd
  0
BLOCK
  5
240F
330
2405
100
AcDbEntity
  8
0
 48
50.0
100
AcDbBlockBegin
  2
*D31
 70
     1
 10
0.0
 20
0.0
 30
0.0
  3
*D31
  1

  0
LINE
  5
268F
330
2405
100
AcDbEntity
  8
寸法
 62
     4
 48
50.0
370
    -2
100
AcDbLine
 10
9876.327550881036
 20
4559.702698467847
 30
0.0
 11
9876.327550881036
 21
4967.470395497379
 31
0.0
  0
LINE
  5
2690
330
2405
100
AcDbEntity
  8
寸法
 62
     4
 48
50.0
370
    -2
100
AcDbLine
 10
10626.32755088103
 20
4176.722031224495
 30
0.0
 11
10626.32755088103
 21
4967.470395497379
 31
0.0
  0
LINE
  5
2691
330
2405
100
AcDbEntity
  8
寸法
 62
     4
 48
50.0
370
    -2
100
AcDbLine
 10
9876.327550881036
 20
4927.47039549738
 30
0.0
 11
10626.32755088103
 21
4927.47039549738
 31
0.0
  0
INSERT
  5
2692
330
2405
100
AcDbEntity
  8
寸法
 62
     4
 48
50.0
370
    -2
100
AcDbBlockReference
  2
_DOTSMALL
 10
9876.327550881036
 20
4927.47039549738
 30
0.0
 41
100.0
 42
100.0
 43
100.0
 50
180.0
  0
INSERT
  5
2693
330
2405
100
AcDbEntity
  8
寸法
 62
     4
 48
50.0
370
    -2
100
AcDbBlockReference
  2
_DOTSMALL
 10
10626.32755088103
 20
4927.47039549738
 30
0.0
 41
100.0
 42
100.0
 43
100.0
  0
MTEXT
  5
2694
330
2405
100
AcDbEntity
  8
寸法
 62
     7
 48
50.0
100
AcDbMText
 10
10251.32755088103
 20
5027.470395497379
 30
0.0
 40
120.0
 41
0.0
 71
     5
 72
     1
  1
\A1;750
 73
     1
 44
1.0
1001
ACAD
1000
MTEXTBEGIN
1070
    73
1070
     1
1070
    44
1040
1.0
1070
    74
1070
     0
1000
MTEXTEND
  0
POINT
  5
2695
330
2405
100
AcDbEntity
  8
DEFPOINTS
 62
     0
 48
50.0
100
AcDbPoint
 10
9876.327550881036
 20
4519.702698467846
 30
0.0
  0
POINT
  5
2696
330
2405
100
AcDbEntity
  8
DEFPOINTS
 62
     0
 48
50.0
100
AcDbPoint
 10
10626.32755088103
 20
4136.722031224495
 30
0.0
  0
POINT
  5
2697
330
2405
100
AcDbEntity
  8
DEFPOINTS
 62
     0
 48
50.0
100
AcDbPoint
 10
10626.32755088103
 20
4927.47039549738
 30
0.0
  0
ENDBLK
  5
2410
330
2405
100
AcDbEntity
  8
0
 48
50.0
100
AcDbBlockEnd
  0
BLOCK
  5
241C
330
2411
100
AcDbEntity
  8
0
 48
50.0
100
AcDbBlockBegin
  2
*D32
 70
     1
 10
0.0
 20
0.0
 30
0.0
  3
*D32
  1

  0
LINE
  5
2685
330
2411
100
AcDbEntity
  8
寸法
 62
     4
 48
50.0
370
    -2
100
AcDbLine
 10
14716.32755088103
 20
2372.702698467847
 30
0.0
 11
15233.45611201606
 21
2372.702698467847
 31
0.0
  0
LINE
  5
2686
330
2411
100
AcDbEntity
  8
寸法
 62
     4
 48
50.0
370
    -2
100
AcDbLine
 10
15165.59992105415
 20
2322.702698467847
 30
0.0
 11
15153.45611201606
 21
2322.702698467847
 31
0.0
  0
LINE
  5
2687
330
2411
100
AcDbEntity
  8
寸法
 62
     4
 48
50.0
370
    -2
100
AcDbLine
 10
15193.45611201606
 20
2372.702698467847
 30
0.0
 11
15193.45611201606
 21
2472.702698467847
 31
0.0
  0
LINE
  5
2688
330
2411
100
AcDbEntity
  8
寸法
 62
     4
 48
50.0
370
    -2
100
AcDbLine
 10
15193.45611201606
 20
2322.702698467847
 30
0.0
 11
15193.45611201606
 21
2222.702698467847
 31
0.0
  0
MTEXT
  5
2689
330
2411
100
AcDbEntity
  8
寸法
 62
     7
 48
50.0
100
AcDbMText
 10
15072.01802163522
 20
2503.105744945808
 30
0.0
 40
120.0
 41
0.0
 71
     5
 72
     1
  1
\A1;50
 11
0.0000000000000001
 21
1.0
 31
0.0
 73
     1
 44
1.0
1001
ACAD
1000
MTEXTBEGIN
1070
    73
1070
     1
1070
    44
1040
1.0
1070
    74
1070
     0
1000
MTEXTEND
  0
INSERT
  5
268A
330
2411
100
AcDbEntity
  8
寸法
 62
     4
 48
50.0
370
    -2
100
AcDbBlockReference
  2
_DOTSMALL
 10
15193.45611201606
 20
2372.702698467847
 30
0.0
 41
100.0
 42
100.0
 43
100.0
 50
270.0
  0
INSERT
  5
268B
330
2411
100
AcDbEntity
  8
寸法
 62
     4
 48
50.0
370
    -2
100
AcDbBlockReference
  2
_DOTSMALL
 10
15193.45611201606
 20
2322.702698467847
 30
0.0
 41
100.0
 42
100.0
 43
100.0
 50
90.0
  0
POINT
  5
268C
330
2411
100
AcDbEntity
  8
DEFPOINTS
 62
     0
 48
50.0
100
AcDbPoint
 10
14676.32755088103
 20
2372.702698467847
 30
0.0
  0
POINT
  5
268D
330
2411
100
AcDbEntity
  8
DEFPOINTS
 62
     0
 48
50.0
100
AcDbPoint
 10
15205.59992105415
 20
2322.702698467847
 30
0.0
  0
POINT
  5
268E
330
2411
100
AcDbEntity
  8
DEFPOINTS
 62
     0
 48
50.0
100
AcDbPoint
 10
15193.45611201606
 20
2322.702698467847
 30
0.0
  0
ENDBLK
  5
241D
330
2411
100
AcDbEntity
  8
0
 48
50.0
100
AcDbBlockEnd
  0
BLOCK
  5
2428
330
241E
100
AcDbEntity
  8
0
 48
50.0
100
AcDbBlockBegin
  2
*D33
 70
     1
 10
0.0
 20
0.0
 30
0.0
  3
*D33
  1

  0
LINE
  5
267C
330
241E
100
AcDbEntity
  8
寸法
 62
     4
 48
50.0
370
    -2
100
AcDbLine
 10
14680.33206907486
 20
4454.514152402888
 30
0.0
 11
15245.09745646966
 21
4427.923115413056
 31
0.0
  0
LINE
  5
267D
330
241E
100
AcDbEntity
  8
寸法
 62
     4
 48
50.0
370
    -2
100
AcDbLine
 10
14674.92347741464
 20
4339.641409176945
 30
0.0
 11
15239.68886480944
 21
4313.050372187114
 31
0.0
  0
LINE
  5
267E
330
241E
100
AcDbEntity
  8
寸法
 62
     4
 48
50.0
370
    -2
100
AcDbLine
 10
15205.14171969542
 20
4429.804364686176
 30
0.0
 11
15199.7331280352
 21
4314.931621460234
 31
0.0
  0
MTEXT
  5
267F
330
241E
100
AcDbEntity
  8
寸法
 62
     7
 48
50.0
100
AcDbMText
 10
15351.00436626226
 20
4370.005614036622
 30
0.0
 40
120.0
 41
0.0
 71
     5
 72
     1
  1
\A1;115
 11
0.0470312318279986
 21
0.9988934193560098
 31
0.0
 73
     1
 44
1.0
1001
ACAD
1000
MTEXTBEGIN
1070
    73
1070
     1
1070
    44
1040
1.0
1070
    74
1070
     0
1000
MTEXTEND
  0
INSERT
  5
2680
330
241E
100
AcDbEntity
  8
寸法
 62
     4
 48
50.0
370
    -2
100
AcDbBlockReference
  2
_DOTSMALL
 10
15205.14171969542
 20
4429.804364686176
 30
0.0
 41
100.0
 42
100.0
 43
100.0
 50
87.30431450645136
  0
INSERT
  5
2681
330
241E
100
AcDbEntity
  8
寸法
 62
     4
 48
50.0
370
    -2
100
AcDbBlockReference
  2
_DOTSMALL
 10
15199.7331280352
 20
4314.931621460234
 30
0.0
 41
100.0
 42
100.0
 43
100.0
 50
267.3043145064514
  0
POINT
  5
2682
330
241E
100
AcDbEntity
  8
DEFPOINTS
 62
     0
 48
50.0
100
AcDbPoint
 10
14640.37633230062
 20
4456.395401676007
 30
0.0
  0
POINT
  5
2683
330
241E
100
AcDbEntity
  8
DEFPOINTS
 62
     0
 48
50.0
100
AcDbPoint
 10
14634.9677406404
 20
4341.522658450065
 30
0.0
  0
POINT
  5
2684
330
241E
100
AcDbEntity
  8
DEFPOINTS
 62
     0
 48
50.0
100
AcDbPoint
 10
15199.7331280352
 20
4314.931621460234
 30
0.0
  0
ENDBLK
  5
2429
330
241E
100
AcDbEntity
  8
0
 48
50.0
100
AcDbBlockEnd
  0
BLOCK
  5
2433
330
242A
100
AcDbEntity
  8
0
 48
50.0
100
AcDbBlockBegin
  2
*D34
 70
     1
 10
0.0
 20
0.0
 30
0.0
  3
*D34
  1

  0
LINE
  5
2674
330
242A
100
AcDbEntity
  8
寸法
 62
     4
 48
50.0
370
    -2
100
AcDbLine
 10
14676.32755088103
 20
4559.702698467847
 30
0.0
 11
14676.32755088103
 21
4967.470395497379
 31
0.0
  0
LINE
  5
2675
330
242A
100
AcDbEntity
  8
寸法
 62
     4
 48
50.0
370
    -2
100
AcDbLine
 10
13926.32755088103
 20
4927.47039549738
 30
0.0
 11
14676.32755088103
 21
4927.47039549738
 31
0.0
  0
INSERT
  5
2676
330
242A
100
AcDbEntity
  8
寸法
 62
     4
 48
50.0
370
    -2
100
AcDbBlockReference
  2
_DOTSMALL
 10
13926.32755088103
 20
4927.47039549738
 30
0.0
 41
100.0
 42
100.0
 43
100.0
 50
180.0
  0
INSERT
  5
2677
330
242A
100
AcDbEntity
  8
寸法
 62
     4
 48
50.0
370
    -2
100
AcDbBlockReference
  2
_DOTSMALL
 10
14676.32755088103
 20
4927.47039549738
 30
0.0
 41
100.0
 42
100.0
 43
100.0
  0
MTEXT
  5
2678
330
242A
100
AcDbEntity
  8
寸法
 62
     7
 48
50.0
100
AcDbMText
 10
14301.32755088104
 20
5027.470395497379
 30
0.0
 40
120.0
 41
0.0
 71
     5
 72
     1
  1
\A1;750
 73
     1
 44
1.0
1001
ACAD
1000
MTEXTBEGIN
1070
    73
1070
     1
1070
    44
1040
1.0
1070
    74
1070
     0
1000
MTEXTEND
  0
POINT
  5
2679
330
242A
100
AcDbEntity
  8
DEFPOINTS
 62
     0
 48
50.0
100
AcDbPoint
 10
13926.32755088103
 20
4136.722031224493
 30
0.0
  0
POINT
  5
267A
330
242A
100
AcDbEntity
  8
DEFPOINTS
 62
     0
 48
50.0
100
AcDbPoint
 10
14676.32755088103
 20
4519.702698467846
 30
0.0
  0
POINT
  5
267B
330
242A
100
AcDbEntity
  8
DEFPOINTS
 62
     0
 48
50.0
100
AcDbPoint
 10
14676.32755088103
 20
4927.47039549738
 30
0.0
  0
ENDBLK
  5
2434
330
242A
100
AcDbEntity
  8
0
 48
50.0
100
AcDbBlockEnd
  0
ENDSEC
  0
SECTION
  2
ENTITIES
  0
MTEXT
  5
1411
330
1A
100
AcDbEntity
  8
0
100
AcDbMText
 10
12113.85383347236
 20
11207.9349056396
 30
0.0
 40
140.0
 41
212.9488506697089
 71
     1
 72
     5
  1

  7
MSMINCHO
 73
     1
 44
1.0
1001
ACAD
1000
MTEXTBEGIN
1070
    73
1070
     1
1070
    44
1040
1.0
1070
    74
1070
     0
1000
MTEXTEND
  0
LINE
  5
1F1A
330
1A
100
AcDbEntity
  8
仕様書枠
 48
50.0
100
AcDbLine
 10
128.8000000000011
 20
264.0
 30
0.0
 11
16296.0
 21
264.0
 31
0.0
  0
LINE
  5
1F1B
330
1A
100
AcDbEntity
  8
Ｇ．Ｌ
100
AcDbLine
 10
2054.212021998306
 20
2322.702698467847
 30
0.0
 11
15653.42636519889
 21
2322.702698467847
 31
0.0
  0
DIMENSION
  5
1F1C
330
1A
100
AcDbEntity
  8
寸法
100
AcDbDimension
  2
*D18
 10
8264.602443373155
 20
2322.702698467847
 30
0.0
 11
8544.637876444021
 21
2187.702698467848
 31
0.0
 70
    32
 71
     5
 42
270.0
  3
物置仕様図40
100
AcDbAlignedDimension
 13
7798.084791275925
 23
2052.702698467847
 33
0.0
 14
8018.084791275924
 24
2322.702698467847
 34
0.0
 50
90.0
100
AcDbRotatedDimension
  0
DIMENSION
  5
1F1D
330
1A
100
AcDbEntity
  8
寸法
100
AcDbDimension
  2
*D19
 10
8633.537714463043
 20
10784.50484645163
 30
0.0
 11
8526.120316553072
 21
10921.50362339932
 31
0.0
 70
   160
 71
     5
 42
123.9999999999982
  3
物置仕様図40
100
AcDbAlignedDimension
 13
7969.584791275917
 23
10660.50484645163
 33
0.0
 14
8008.084791275923
 24
10784.50484645163
 34
0.0
 50
90.0
100
AcDbRotatedDimension
1001
ACAD
1000
DSTYLE
1002
{
1070
    75
1070
     1
1002
}
  0
DIMENSION
  5
1F1E
330
1A
100
AcDbEntity
  8
寸法
100
AcDbDimension
  2
*D20
 10
8633.537714463043
 20
5984.50484645163
 30
0.0
 11
8523.207916493699
 21
5849.454284728823
 31
0.0
 70
   160
 71
     5
 42
124.0000000000045
  3
物置仕様図40
100
AcDbAlignedDimension
 13
7969.584791275924
 23
6108.504846451634
 33
0.0
 14
8008.084791275924
 24
5984.50484645163
 34
0.0
 50
90.0
100
AcDbRotatedDimension
1001
ACAD
1000
DSTYLE
1002
{
1070
    75
1070
     1
1002
}
  0
DIMENSION
  5
1F1F
330
1A
100
AcDbEntity
  8
寸法
100
AcDbDimension
  2
*D21
 10
8633.537714463043
 20
6108.504846451634
 30
0.0
 11
8533.52590343942
 21
7176.504846451634
 31
0.0
 70
    32
 71
     5
 42
2135.999999999997
  3
物置仕様図40
100
AcDbAlignedDimension
 13
7973.084791275924
 23
8244.504846451631
 33
0.0
 14
7969.584791275924
 24
6108.504846451634
 34
0.0
 50
90.0
100
AcDbRotatedDimension
1001
ACAD
1000
DSTYLE
1002
{
1070
    75
1070
     1
1002
}
  0
DIMENSION
  5
1F20
330
1A
100
AcDbEntity
  8
寸法
100
AcDbDimension
  2
*D22
 10
8633.537714463043
 20
8244.504846451631
 30
0.0
 11
8540.458089084204
 21
8384.50484645163
 31
0.0
 70
   160
 71
     5
 42
280.0
  3
物置仕様図40
100
AcDbAlignedDimension
 13
7973.084791275923
 23
8524.504846451632
 33
0.0
 14
7973.084791275924
 24
8244.504846451631
 34
0.0
 50
90.0
100
AcDbRotatedDimension
1001
ACAD
1000
DSTYLE
1002
{
1070
    75
1070
     1
1002
}
  0
DIMENSION
  5
1F21
330
1A
100
AcDbEntity
  8
寸法
100
AcDbDimension
  2
*D23
 10
8633.537714463043
 20
8524.504846451632
 30
0.0
 11
8533.52590343942
 21
9592.504846451634
 31
0.0
 70
    32
 71
     5
 42
2136.000000000002
  3
物置仕様図40
100
AcDbAlignedDimension
 13
7969.584791275917
 23
10660.50484645163
 33
0.0
 14
7973.084791275923
 24
8524.504846451632
 34
0.0
 50
90.0
100
AcDbRotatedDimension
  0
LINE
  5
1F22
330
1A
100
AcDbEntity
  8
部品1
 48
50.0
100
AcDbLine
 10
3508.19011120362
 20
10884.50484645163
 30
0.0
 11
4850.257954527005
 21
5875.839467964367
 31
0.0
  0
LINE
  5
1F23
330
1A
100
AcDbEntity
  8
部品1
100
AcDbLine
 10
4878.636883455509
 20
10073.06233277061
 30
0.0
 11
6142.349765888944
 21
5884.504846451631
 31
0.0
  0
LINE
  5
1F24
330
1A
100
AcDbEntity
  8
部品1
100
AcDbLine
 10
3186.084791275924
 20
4557.735816810607
 30
0.0
 11
3141.084791275926
 21
4557.735816810607
 31
0.0
  0
LINE
  5
1F25
330
1A
100
AcDbEntity
  8
寸法
100
AcDbLine
 10
3008.084791275924
 20
1799.937971168949
 30
0.0
 11
4148.084791275923
 21
1799.937971168949
 31
0.0
  0
LINE
  5
1F26
330
1A
100
AcDbEntity
  8
部品1
100
AcDbLine
 10
2758.084791275924
 20
2372.702698467847
 30
0.0
 11
8018.084791275922
 21
2372.702698467847
 31
0.0
  0
LINE
  5
1F27
330
1A
100
AcDbEntity
  8
部品1
100
AcDbLine
 10
5358.084791275924
 20
3427.702698467849
 30
0.0
 11
3038.084791275924
 21
3427.702698467849
 31
0.0
  0
LINE
  5
1F28
330
1A
100
AcDbEntity
  8
部品1
100
AcDbLine
 10
5358.084791275921
 20
3472.702698467849
 30
0.0
 11
3038.084791275924
 21
3472.702698467849
 31
0.0
  0
LINE
  5
1F29
330
1A
100
AcDbEntity
  8
部品1
100
AcDbLine
 10
5358.084791275921
 20
3022.702698467849
 30
0.0
 11
3038.084791275924
 21
3022.702698467849
 31
0.0
  0
LINE
  5
1F2A
330
1A
100
AcDbEntity
  8
部品1
100
AcDbLine
 10
5358.084791275921
 20
3052.702698467847
 30
0.0
 11
3038.084791275924
 21
3052.702698467849
 31
0.0
  0
LINE
  5
1F2B
330
1A
100
AcDbEntity
  8
部品1
100
AcDbLine
 10
5358.084791275921
 20
2572.702698467849
 30
0.0
 11
3038.084791275924
 21
2572.702698467849
 31
0.0
  0
LINE
  5
1F2C
330
1A
100
AcDbEntity
  8
部品1
100
AcDbLine
 10
5358.084791275924
 20
2617.702698467849
 30
0.0
 11
3038.084791275924
 21
2617.702698467849
 31
0.0
  0
LINE
  5
1F2D
330
1A
100
AcDbEntity
  8
部品1
100
AcDbLine
 10
5358.084791275921
 20
2682.702698467849
 30
0.0
 11
3038.084791275924
 21
2682.702698467849
 31
0.0
  0
LINE
  5
1F2E
330
1A
100
AcDbEntity
  8
部品1
100
AcDbLine
 10
5358.084791275921
 20
2722.702698467847
 30
0.0
 11
3038.084791275924
 21
2722.702698467849
 31
0.0
  0
DIMENSION
  5
1F2F
330
1A
100
AcDbEntity
  8
寸法
100
AcDbDimension
  2
*D24
 10
8018.084791275922
 20
5143.261564502629
 30
0.0
 11
5388.084791275923
 21
5243.273375526251
 31
0.0
 70
    32
  1
N X 2380 + 500
 71
     5
 42
5260.0
  3
物置仕様図40
100
AcDbAlignedDimension
 13
2758.084791275924
 23
4567.702698467848
 33
0.0
 14
8018.084791275922
 24
4567.702698467848
 34
0.0
100
AcDbRotatedDimension
  0
DIMENSION
  5
1F30
330
1A
100
AcDbEntity
  8
寸法
100
AcDbDimension
  2
*D25
 10
7768.084791275923
 20
4863.261564502629
 30
0.0
 11
5388.084791275923
 21
4963.273375526251
 31
0.0
 70
    32
  1
N X 2380
 71
     5
 42
4760.0
  3
物置仕様図40
100
AcDbAlignedDimension
 13
3008.084791275924
 23
4340.018080169216
 33
0.0
 14
7768.084791275923
 24
4340.018080169216
 34
0.0
100
AcDbRotatedDimension
1001
ACAD
1000
DSTYLE
1002
{
1070
    75
1070
     1
1002
}
  0
LINE
  5
1F31
330
1A
100
AcDbEntity
  8
細線
100
AcDbLine
 10
8015.258704319402
 20
4389.880957690358
 30
0.0
 11
2760.910878232446
 21
4389.880957690358
 31
0.0
  0
LINE
  5
1F32
330
1A
100
AcDbEntity
  8
細線
100
AcDbLine
 10
8014.736965188966
 20
4377.913867085288
 30
0.0
 11
2761.43261736288
 21
4377.913867085288
 31
0.0
  0
LINE
  5
1F33
330
1A
100
AcDbEntity
  8
部品1
100
AcDbLine
 10
8000.639213867925
 20
4340.018080169218
 30
0.0
 11
2775.530368683924
 21
4340.018080169216
 31
0.0
  0
LINE
  5
1F34
330
1A
100
AcDbEntity
  8
部品1
100
AcDbLine
 10
8004.505670399508
 20
4454.702698467847
 30
0.0
 11
2771.663912152339
 21
4454.702698467847
 31
0.0
  0
LINE
  5
1F35
330
1A
100
AcDbEntity
  8
部品1
100
AcDbLine
 10
8004.505670399508
 20
4567.702698467846
 30
0.0
 11
2771.663912152339
 21
4567.702698467845
 31
0.0
  0
LINE
  5
1F36
330
1A
100
AcDbEntity
  8
点線
 48
50.0
100
AcDbLine
 10
3038.084791275924
 20
2372.702698467847
 30
0.0
 11
3038.084791275924
 21
2052.702698467847
 31
0.0
  0
LINE
  5
1F37
330
1A
100
AcDbEntity
  8
点線
 48
50.0
100
AcDbLine
 10
2978.084791275924
 20
2372.702698467847
 30
0.0
 11
2978.084791275924
 21
2052.702698467847
 31
0.0
  0
LINE
  5
1F38
330
1A
100
AcDbEntity
  8
センター
 48
10.0
100
AcDbLine
 10
3008.084791275924
 20
4340.018080169216
 30
0.0
 11
3008.084791275924
 21
2059.391346573159
 31
0.0
  0
LINE
  5
1F39
330
1A
100
AcDbEntity
  8
寸法
100
AcDbLine
 10
3008.084791275924
 20
2052.702698467847
 30
0.0
 11
3008.084791275924
 21
1759.937971168949
 31
0.0
  0
POINT
  5
1F3A
330
1A
100
AcDbEntity
  8
寸法
100
AcDbPoint
 10
3008.084791275924
 20
1799.937971168949
 30
0.0
  0
INSERT
  5
1F3B
330
1A
100
AcDbEntity
  8
寸法
100
AcDbBlockReference
  2
_DOTSMALL
 10
3008.084791275924
 20
1799.937971168949
 30
0.0
 41
100.0
 42
100.0
 43
100.0
 50
180.0
  0
LINE
  5
1F3C
330
1A
100
AcDbEntity
  8
点線
 48
50.0
100
AcDbLine
 10
3038.084791275924
 20
2052.702698467847
 30
0.0
 11
2978.084791275924
 21
2052.702698467847
 31
0.0
  0
LINE
  5
1F3D
330
1A
100
AcDbEntity
  8
点線
 48
10.0
100
AcDbLine
 10
2908.084791275922
 20
2077.702698467845
 30
0.0
 11
2908.084791275922
 21
2067.702698467845
 31
0.0
  0
LINE
  5
1F3E
330
1A
100
AcDbEntity
  8
点線
 48
10.0
100
AcDbLine
 10
2908.084791275922
 20
2077.702698467845
 30
0.0
 11
2978.084791275924
 21
2077.702698467845
 31
0.0
  0
LINE
  5
1F3F
330
1A
100
AcDbEntity
  8
点線
 48
10.0
100
AcDbLine
 10
2908.084791275922
 20
2067.702698467845
 30
0.0
 11
2978.084791275924
 21
2067.702698467845
 31
0.0
  0
LINE
  5
1F40
330
1A
100
AcDbEntity
  8
点線
 48
10.0
100
AcDbLine
 10
3108.084791275924
 20
2077.702698467847
 30
0.0
 11
3108.084791275924
 21
2067.702698467847
 31
0.0
  0
LINE
  5
1F41
330
1A
100
AcDbEntity
  8
点線
 48
10.0
100
AcDbLine
 10
3038.084791275924
 20
2077.702698467847
 30
0.0
 11
3108.084791275924
 21
2077.702698467847
 31
0.0
  0
LINE
  5
1F42
330
1A
100
AcDbEntity
  8
点線
 48
10.0
100
AcDbLine
 10
3038.084791275924
 20
2067.702698467847
 30
0.0
 11
3108.084791275924
 21
2067.702698467847
 31
0.0
  0
LINE
  5
1F43
330
1A
100
AcDbEntity
  8
部品1
100
AcDbLine
 10
3038.084791275924
 20
4145.314520810243
 30
0.0
 11
3038.084791275924
 21
2372.702698467847
 31
0.0
  0
LINE
  5
1F44
330
1A
100
AcDbEntity
  8
部品1
100
AcDbLine
 10
2978.084791275924
 20
4145.314520810243
 30
0.0
 11
2978.084791275924
 21
2372.702698467847
 31
0.0
  0
TEXT
  5
1F45
330
1A
100
AcDbEntity
  8
部品1
 48
50.0
100
AcDbText
 10
2060.070997888319
 20
2362.093998898175
 30
0.0
 40
100.0
  1
▽G.L
  7
STYLE2
100
AcDbText
  0
LINE
  5
1F46
330
1A
100
AcDbEntity
  8
部品1
100
AcDbLine
 10
2758.084791275924
 20
2372.702698467847
 30
0.0
 11
2758.084791275924
 21
2322.702698467847
 31
0.0
  0
LINE
  5
1F47
330
1A
100
AcDbEntity
  8
細線
100
AcDbLine
 10
2831.549028706013
 20
2322.702698467847
 30
0.0
 11
2881.549028706013
 21
2372.702698467847
 31
0.0
  0
LINE
  5
1F48
330
1A
100
AcDbEntity
  8
細線
100
AcDbLine
 10
2865.224989160023
 20
2322.702698467847
 30
0.0
 11
2915.224989160023
 21
2372.702698467847
 31
0.0
  0
LINE
  5
1F49
330
1A
100
AcDbEntity
  8
細線
100
AcDbLine
 10
2898.900949614032
 20
2322.702698467847
 30
0.0
 11
2948.900949614032
 21
2372.702698467847
 31
0.0
  0
DIMENSION
  5
1F4A
330
1A
100
AcDbEntity
  8
寸法
100
AcDbDimension
  2
*D26
 10
3008.084791275924
 20
4863.261564502629
 30
0.0
 11
2883.084791275924
 21
4863.261564502629
 31
0.0
 70
   160
 71
     5
 42
250.0
  3
物置仕様図40
100
AcDbAlignedDimension
 13
2758.084791275924
 23
4567.702698467848
 33
0.0
 14
3008.084791275924
 24
4340.018080169216
 34
0.0
100
AcDbRotatedDimension
1001
ACAD
1000
DSTYLE
1002
{
1070
   279
1070
     0
1002
}
  0
LINE
  5
1F4B
330
1A
100
AcDbEntity
  8
部品1
100
AcDbLine
 10
3141.084791275926
 20
4557.735816810611
 30
0.0
 11
3141.084791275926
 21
4454.702698467849
 31
0.0
  0
LINE
  5
1F4C
330
1A
100
AcDbEntity
  8
部品1
100
AcDbLine
 10
3113.084791275925
 20
4557.735816810611
 30
0.0
 11
3113.084791275925
 21
4454.702698467849
 31
0.0
  0
LINE
  5
1F4D
330
1A
100
AcDbEntity
  8
部品1
100
AcDbLine
 10
3068.084791275922
 20
4557.735816810611
 30
0.0
 11
3068.084791275925
 21
4454.702698467849
 31
0.0
  0
LINE
  5
1F4E
330
1A
100
AcDbEntity
  8
部品1
100
AcDbLine
 10
2851.084791275924
 20
4557.735816810611
 30
0.0
 11
2851.084791275926
 21
4454.702698467849
 31
0.0
  0
LINE
  5
1F4F
330
1A
100
AcDbEntity
  8
部品1
100
AcDbLine
 10
2816.584791275924
 20
4557.735816810611
 30
0.0
 11
2816.584791275924
 21
4454.702698467849
 31
0.0
  0
LINE
  5
1F50
330
1A
100
AcDbEntity
  8
部品1
100
AcDbLine
 10
2758.663912152339
 20
4441.702698467849
 30
0.0
 11
2758.663912152339
 21
4554.702698467848
 31
0.0
  0
LINE
  5
1F51
330
1A
100
AcDbEntity
  8
部品1
100
AcDbLine
 10
2803.084791275924
 20
4567.702698467846
 30
0.0
 11
2803.084791275924
 21
4454.702698467849
 31
0.0
  0
LINE
  5
1F52
330
1A
100
AcDbEntity
  8
部品1
100
AcDbLine
 10
2803.084791275926
 20
4539.735816810611
 30
0.0
 11
2816.584791275922
 21
4539.735816810611
 31
0.0
  0
ARC
  5
1F53
330
1A
100
AcDbEntity
  8
部品1
100
AcDbCircle
 10
2775.530368683924
 20
4353.018080169219
 30
0.0
 40
13.0
100
AcDbArc
 50
182.4963905215391
 51
270.0
  0
ARC
  5
1F54
330
1A
100
AcDbEntity
  8
部品1
100
AcDbCircle
 10
2771.663912152339
 20
4441.702698467849
 30
0.0
 40
13.0
100
AcDbArc
 50
90.0
 51
182.4963905215391
  0
LINE
  5
1F55
330
1A
100
AcDbEntity
  8
部品1
100
AcDbLine
 10
2781.084791275924
 20
4454.702698467849
 30
0.0
 11
2781.084791275924
 21
4340.018080169218
 31
0.0
  0
LINE
  5
1F56
330
1A
100
AcDbEntity
  8
部品1
100
AcDbLine
 10
2758.676249574808
 20
4441.136464618433
 30
0.0
 11
2762.542706106393
 21
4352.451846319803
 31
0.0
  0
LINE
  5
1F57
330
1A
100
AcDbEntity
  8
部品1
100
AcDbLine
 10
3041.084791275924
 20
4340.018080169216
 30
0.0
 11
3041.084791275924
 21
4145.314520810243
 31
0.0
  0
LINE
  5
1F58
330
1A
100
AcDbEntity
  8
部品1
100
AcDbLine
 10
2975.084791275924
 20
4340.018080169218
 30
0.0
 11
2975.084791275924
 21
4290.977832091772
 31
0.0
  0
LINE
  5
1F59
330
1A
100
AcDbEntity
  8
部品1
100
AcDbLine
 10
3041.084791275924
 20
4145.314520810243
 30
0.0
 11
2975.084791275924
 21
4145.314520810243
 31
0.0
  0
LINE
  5
1F5A
330
1A
100
AcDbEntity
  8
部品1
100
AcDbLine
 10
3036.084791275924
 20
4285.977832091772
 30
0.0
 11
2980.084791275924
 21
4285.977832091772
 31
0.0
  0
ARC
  5
1F5B
330
1A
100
AcDbEntity
  8
部品1
100
AcDbCircle
 10
2980.084791275924
 20
4290.977832091772
 30
0.0
 40
5.0
100
AcDbArc
 50
180.0
 51
270.0
  0
LINE
  5
1F5C
330
1A
100
AcDbEntity
  8
部品1
100
AcDbLine
 10
2975.084791275924
 20
4290.977832091772
 30
0.0
 11
2975.084791275924
 21
4145.314520810243
 31
0.0
  0
LINE
  5
1F5D
330
1A
100
AcDbEntity
  8
細線
100
AcDbLine
 10
3020.084791275924
 20
4285.977832091772
 30
0.0
 11
3020.084791275924
 21
4145.314520810243
 31
0.0
  0
LINE
  5
1F5E
330
1A
100
AcDbEntity
  8
細線
100
AcDbLine
 10
2996.084791275924
 20
4285.977832091772
 30
0.0
 11
2996.084791275924
 21
4145.314520810243
 31
0.0
  0
LINE
  5
1F5F
330
1A
100
AcDbEntity
  8
細線
100
AcDbLine
 10
3026.084791275924
 20
4285.977832091772
 30
0.0
 11
3026.084791275924
 21
4145.314520810243
 31
0.0
  0
LINE
  5
1F60
330
1A
100
AcDbEntity
  8
細線
100
AcDbLine
 10
2990.084791275924
 20
4285.977832091772
 30
0.0
 11
2990.084791275924
 21
4145.314520810243
 31
0.0
  0
ARC
  5
1F61
330
1A
100
AcDbEntity
  8
部品1
100
AcDbCircle
 10
3036.084791275924
 20
4290.977832091772
 30
0.0
 40
5.0
100
AcDbArc
 50
270.0
 51
0.0
  0
LINE
  5
1F62
330
1A
100
AcDbEntity
  8
部品1
100
AcDbLine
 10
2851.084791275922
 20
4539.735816810611
 30
0.0
 11
3068.084791275924
 21
4539.735816810611
 31
0.0
  0
LINE
  5
1F63
330
1A
100
AcDbEntity
  8
部品1
100
AcDbLine
 10
3113.084791275925
 20
4539.735816810611
 30
0.0
 11
3141.084791275926
 21
4539.735816810611
 31
0.0
  0
LINE
  5
1F64
330
1A
100
AcDbEntity
  8
部品1
100
AcDbLine
 10
2851.084791275924
 20
4557.735816810607
 30
0.0
 11
2816.584791275924
 21
4557.735816810607
 31
0.0
  0
ARC
  5
1F65
330
1A
100
AcDbEntity
  8
部品1
100
AcDbCircle
 10
2771.663912152339
 20
4554.702698467848
 30
0.0
 40
13.0
100
AcDbArc
 50
90.0
 51
180.0
  0
LINE
  5
1F66
330
1A
100
AcDbEntity
  8
部品1
100
AcDbLine
 10
3113.084791275924
 20
4557.735816810607
 30
0.0
 11
3068.084791275922
 21
4557.735816810607
 31
0.0
  0
LINE
  5
1F67
330
1A
100
AcDbEntity
  8
部品1
 48
50.0
100
AcDbLine
 10
3810.292673110313
 20
4668.305379081281
 30
0.0
 11
4497.615399141288
 21
2103.182044336934
 31
0.0
  0
LINE
  5
1F68
330
1A
100
AcDbEntity
  8
点線
 48
50.0
100
AcDbLine
 10
5418.084791275924
 20
2372.702698467849
 30
0.0
 11
5418.084791275924
 21
2052.702698467848
 31
0.0
  0
LINE
  5
1F69
330
1A
100
AcDbEntity
  8
点線
 48
50.0
100
AcDbLine
 10
5358.084791275924
 20
2372.702698467849
 30
0.0
 11
5358.084791275924
 21
2052.702698467848
 31
0.0
  0
LINE
  5
1F6A
330
1A
100
AcDbEntity
  8
センター
 48
10.0
100
AcDbLine
 10
5388.084791275923
 20
4340.018080169218
 30
0.0
 11
5388.084791275923
 21
2059.391346573161
 31
0.0
  0
LINE
  5
1F6B
330
1A
100
AcDbEntity
  8
点線
 48
50.0
100
AcDbLine
 10
7798.084791275922
 20
2372.702698467847
 30
0.0
 11
7798.084791275925
 21
2052.702698467847
 31
0.0
  0
LINE
  5
1F6C
330
1A
100
AcDbEntity
  8
点線
 48
50.0
100
AcDbLine
 10
7738.084791275923
 20
2372.702698467847
 30
0.0
 11
7738.084791275923
 21
2052.702698467847
 31
0.0
  0
LINE
  5
1F6D
330
1A
100
AcDbEntity
  8
センター
 48
10.0
100
AcDbLine
 10
7768.084791275923
 20
4340.018080169216
 30
0.0
 11
7768.084791275923
 21
2059.391346573159
 31
0.0
  0
DIMENSION
  5
1F6E
330
1A
100
AcDbEntity
  8
寸法
100
AcDbDimension
  2
*D27
 10
5388.084791275923
 20
1799.937971168949
 30
0.0
 11
6578.084791275924
 21
1899.949782192571
 31
0.0
 70
    32
 71
     5
 42
2380.0
  3
物置仕様図40
100
AcDbAlignedDimension
 13
7768.084791275923
 23
2092.702698467847
 33
0.0
 14
5388.084791275923
 24
2092.702698467847
 34
0.0
100
AcDbRotatedDimension
  0
LINE
  5
1F6F
330
1A
100
AcDbEntity
  8
寸法
100
AcDbLine
 10
4248.084791275924
 20
1799.937971168949
 30
0.0
 11
5388.084791275923
 21
1799.937971168949
 31
0.0
  0
MTEXT
  5
1F70
330
1A
100
AcDbEntity
  8
寸法
  6
ByBlock
 62
     7
100
AcDbMText
 10
3611.745384668244
 20
1899.949782192571
 30
0.0
 40
120.0
 41
0.0
 71
     5
 72
     1
  1
\A1;2380
 73
     1
 44
1.0
1001
ACAD
1000
MTEXTBEGIN
1070
    73
1070
     1
1070
    44
1040
1.0
1070
    74
1070
     0
1000
MTEXTEND
  0
LWPOLYLINE
  5
1F71
330
1A
100
AcDbEntity
  8
文字
100
AcDbPolyline
 90
        4
 70
     1
 43
0.0
 10
5082.336280796164
 20
1642.78778488995
 10
5082.336280796164
 20
1421.203525849682
 10
5719.348613555926
 20
1421.203525849682
 10
5719.348613555926
 20
1642.78778488995
  0
MTEXT
  5
1F72
330
1A
100
AcDbEntity
  8
寸法
  6
ByBlock
 62
     7
100
AcDbMText
 10
4783.077994594019
 20
1899.949782192571
 30
0.0
 40
120.0
 41
0.0
 71
     5
 72
     1
  1
\A1;2380
 73
     1
 44
1.0
1001
ACAD
1000
MTEXTBEGIN
1070
    73
1070
     1
1070
    44
1040
1.0
1070
    74
1070
     0
1000
MTEXTEND
  0
TEXT
  5
1F73
330
1A
100
AcDbEntity
  8
文字
100
AcDbText
 10
5124.803766252295
 20
1468.349108163469
 30
0.0
 40
120.0
  1
正面図
  7
MSGOTHIC
100
AcDbText
  0
LINE
  5
1F74
330
1A
100
AcDbEntity
  8
点線
 48
10.0
100
AcDbLine
 10
5418.084791275924
 20
2077.702698467847
 30
0.0
 11
5488.084791275923
 21
2077.702698467847
 31
0.0
  0
LINE
  5
1F75
330
1A
100
AcDbEntity
  8
点線
 48
10.0
100
AcDbLine
 10
5418.084791275924
 20
2067.702698467847
 30
0.0
 11
5488.084791275923
 21
2067.702698467847
 31
0.0
  0
LINE
  5
1F76
330
1A
100
AcDbEntity
  8
寸法
100
AcDbLine
 10
5388.084791275923
 20
2059.391346573159
 30
0.0
 11
5388.084791275923
 21
1766.62661927426
 31
0.0
  0
INSERT
  5
1F77
330
1A
100
AcDbEntity
  8
寸法
100
AcDbBlockReference
  2
_DOTSMALL
 10
5388.084791275923
 20
1799.937971168949
 30
0.0
 41
100.0
 42
100.0
 43
100.0
  0
POINT
  5
1F78
330
1A
100
AcDbEntity
  8
寸法
100
AcDbPoint
 10
5388.084791275923
 20
1799.937971168949
 30
0.0
  0
LINE
  5
1F79
330
1A
100
AcDbEntity
  8
点線
 48
10.0
100
AcDbLine
 10
5288.084791275922
 20
2077.702698467845
 30
0.0
 11
5288.084791275922
 21
2067.702698467845
 31
0.0
  0
LINE
  5
1F7A
330
1A
100
AcDbEntity
  8
点線
 48
10.0
100
AcDbLine
 10
5288.084791275922
 20
2077.702698467845
 30
0.0
 11
5358.084791275924
 21
2077.702698467845
 31
0.0
  0
LINE
  5
1F7B
330
1A
100
AcDbEntity
  8
点線
 48
10.0
100
AcDbLine
 10
5288.084791275922
 20
2067.702698467845
 30
0.0
 11
5358.084791275924
 21
2067.702698467845
 31
0.0
  0
LINE
  5
1F7C
330
1A
100
AcDbEntity
  8
点線
 48
50.0
100
AcDbLine
 10
5418.084791275924
 20
2052.702698467847
 30
0.0
 11
5358.084791275924
 21
2052.702698467847
 31
0.0
  0
LINE
  5
1F7D
330
1A
100
AcDbEntity
  8
点線
 48
10.0
100
AcDbLine
 10
5488.084791275923
 20
2077.702698467847
 30
0.0
 11
5488.084791275923
 21
2067.702698467847
 31
0.0
  0
LINE
  5
1F7E
330
1A
100
AcDbEntity
  8
点線
 48
50.0
100
AcDbLine
 10
7798.084791275925
 20
2052.702698467847
 30
0.0
 11
7738.084791275923
 21
2052.702698467847
 31
0.0
  0
LINE
  5
1F7F
330
1A
100
AcDbEntity
  8
点線
 48
10.0
100
AcDbLine
 10
7668.084791275922
 20
2067.702698467845
 30
0.0
 11
7738.084791275923
 21
2067.702698467845
 31
0.0
  0
LINE
  5
1F80
330
1A
100
AcDbEntity
  8
点線
 48
10.0
100
AcDbLine
 10
7668.084791275922
 20
2077.702698467845
 30
0.0
 11
7738.084791275923
 21
2077.702698467845
 31
0.0
  0
LINE
  5
1F81
330
1A
100
AcDbEntity
  8
点線
 48
10.0
100
AcDbLine
 10
7668.084791275922
 20
2077.702698467845
 30
0.0
 11
7668.084791275922
 21
2067.702698467845
 31
0.0
  0
LINE
  5
1F82
330
1A
100
AcDbEntity
  8
点線
 48
10.0
100
AcDbLine
 10
7868.084791275923
 20
2077.702698467847
 30
0.0
 11
7868.084791275923
 21
2067.702698467847
 31
0.0
  0
LINE
  5
1F83
330
1A
100
AcDbEntity
  8
点線
 48
10.0
100
AcDbLine
 10
7798.084791275925
 20
2067.702698467847
 30
0.0
 11
7868.084791275923
 21
2067.702698467847
 31
0.0
  0
LINE
  5
1F84
330
1A
100
AcDbEntity
  8
点線
 48
10.0
100
AcDbLine
 10
7798.084791275925
 20
2077.702698467847
 30
0.0
 11
7868.084791275923
 21
2077.702698467847
 31
0.0
  0
LINE
  5
1F85
330
1A
100
AcDbEntity
  8
部品1
100
AcDbLine
 10
5788.084791275918
 20
4557.735816810607
 30
0.0
 11
5743.084791275922
 21
4557.735816810607
 31
0.0
  0
LINE
  5
1F86
330
1A
100
AcDbEntity
  8
部品1
100
AcDbLine
 10
7738.084791275923
 20
2722.702698467849
 30
0.0
 11
5418.084791275924
 21
2722.702698467849
 31
0.0
  0
LINE
  5
1F87
330
1A
100
AcDbEntity
  8
部品1
100
AcDbLine
 10
7738.084791275923
 20
2682.702698467849
 30
0.0
 11
5418.084791275924
 21
2682.702698467849
 31
0.0
  0
LINE
  5
1F88
330
1A
100
AcDbEntity
  8
部品1
100
AcDbLine
 10
7738.084791275923
 20
3052.702698467849
 30
0.0
 11
5418.084791275924
 21
3052.702698467849
 31
0.0
  0
LINE
  5
1F89
330
1A
100
AcDbEntity
  8
部品1
100
AcDbLine
 10
7738.084791275923
 20
3022.702698467849
 30
0.0
 11
5418.084791275924
 21
3022.702698467849
 31
0.0
  0
LINE
  5
1F8A
330
1A
100
AcDbEntity
  8
部品1
100
AcDbLine
 10
7738.084791275923
 20
2617.702698467849
 30
0.0
 11
5418.084791275924
 21
2617.702698467849
 31
0.0
  0
LINE
  5
1F8B
330
1A
100
AcDbEntity
  8
部品1
100
AcDbLine
 10
7738.084791275923
 20
3427.702698467849
 30
0.0
 11
5418.084791275924
 21
3427.702698467849
 31
0.0
  0
LINE
  5
1F8C
330
1A
100
AcDbEntity
  8
部品1
100
AcDbLine
 10
7738.084791275923
 20
2572.702698467849
 30
0.0
 11
5418.084791275924
 21
2572.702698467849
 31
0.0
  0
LINE
  5
1F8D
330
1A
100
AcDbEntity
  8
部品1
100
AcDbLine
 10
7738.084791275923
 20
3472.702698467849
 30
0.0
 11
5418.084791275924
 21
3472.702698467849
 31
0.0
  0
LINE
  5
1F8E
330
1A
100
AcDbEntity
  8
部品1
100
AcDbLine
 10
5418.084791275924
 20
4145.314520810243
 30
0.0
 11
5418.084791275924
 21
2372.702698467849
 31
0.0
  0
LINE
  5
1F8F
330
1A
100
AcDbEntity
  8
部品1
100
AcDbLine
 10
5358.084791275921
 20
4145.314520810243
 30
0.0
 11
5358.084791275924
 21
2372.702698467849
 31
0.0
  0
SPLINE
  5
1F90
330
1A
100
AcDbEntity
  8
部品1
 48
50.0
100
AcDbSpline
210
0.0
220
0.0
230
1.0
 70
     8
 71
     3
 72
    10
 73
     6
 74
     4
 42
0.0000000001
 43
0.0000000001
 44
0.0000000001
 40
0.0
 40
0.0
 40
0.0
 40
0.0
 40
147.8767566010009
 40
301.8091093202477
 40
466.5049223087734
 40
466.5049223087734
 40
466.5049223087734
 40
466.5049223087734
 10
4133.173235287361
 20
3292.363972602101
 30
0.0
 10
4210.054917782196
 20
3283.459538944264
 30
0.0
 10
4366.966609992323
 20
3265.286032484931
 30
0.0
 10
4044.153200047982
 20
3162.765447845589
 30
0.0
 10
4213.995819717355
 20
3144.130359133385
 30
0.0
 10
4301.785824924247
 20
3134.498062256076
 30
0.0
 11
4133.173235287361
 21
3292.363972602101
 31
0.0
 11
4276.01121359613
 21
3254.090651665773
 31
0.0
 11
4142.701885676956
 21
3177.124475306149
 31
0.0
 11
4301.785824924247
 21
3134.498062256076
 31
0.0
  0
LINE
  5
1F91
330
1A
100
AcDbEntity
  8
細線
100
AcDbLine
 10
3766.53168414233
 20
2322.702698467847
 30
0.0
 11
3816.53168414233
 21
2372.702698467847
 31
0.0
  0
LINE
  5
1F92
330
1A
100
AcDbEntity
  8
細線
100
AcDbLine
 10
3699.179763234312
 20
2322.702698467847
 30
0.0
 11
3749.179763234312
 21
2372.702698467847
 31
0.0
  0
LINE
  5
1F93
330
1A
100
AcDbEntity
  8
細線
100
AcDbLine
 10
3732.855723688321
 20
2322.702698467847
 30
0.0
 11
3782.855723688321
 21
2372.702698467847
 31
0.0
  0
LINE
  5
1F94
330
1A
100
AcDbEntity
  8
部品1
100
AcDbLine
 10
4180.584791275924
 20
2682.702698467849
 30
0.0
 11
4180.584791275924
 21
2617.702698467849
 31
0.0
  0
LINE
  5
1F95
330
1A
100
AcDbEntity
  8
部品1
100
AcDbLine
 10
4215.584791275923
 20
2682.702698467849
 30
0.0
 11
4215.584791275923
 21
2617.702698467849
 31
0.0
  0
LINE
  5
1F96
330
1A
100
AcDbEntity
  8
細線
100
AcDbLine
 10
4600.486458216619
 20
2322.702698467847
 30
0.0
 11
4650.486458216619
 21
2372.702698467847
 31
0.0
  0
LINE
  5
1F97
330
1A
100
AcDbEntity
  8
細線
100
AcDbLine
 10
4566.81049776261
 20
2322.702698467847
 30
0.0
 11
4616.810497762609
 21
2372.702698467847
 31
0.0
  0
LINE
  5
1F98
330
1A
100
AcDbEntity
  8
細線
100
AcDbLine
 10
4634.162418670628
 20
2322.702698467847
 30
0.0
 11
4684.162418670628
 21
2372.702698467847
 31
0.0
  0
LINE
  5
1F99
330
1A
100
AcDbEntity
  8
細線
100
AcDbLine
 10
5644.441232290908
 20
2322.702698467847
 30
0.0
 11
5694.441232290909
 21
2372.702698467847
 31
0.0
  0
LINE
  5
1F9A
330
1A
100
AcDbEntity
  8
細線
100
AcDbLine
 10
5678.117192744918
 20
2322.702698467847
 30
0.0
 11
5728.117192744917
 21
2372.702698467847
 31
0.0
  0
LINE
  5
1F9B
330
1A
100
AcDbEntity
  8
細線
100
AcDbLine
 10
5711.793153198927
 20
2322.702698467847
 30
0.0
 11
5761.793153198927
 21
2372.702698467847
 31
0.0
  0
LINE
  5
1F9C
330
1A
100
AcDbEntity
  8
部品1
100
AcDbLine
 10
4431.084791275924
 20
4539.735816810611
 30
0.0
 11
4568.084791275929
 21
4539.735816810611
 31
0.0
  0
LINE
  5
1F9D
330
1A
100
AcDbEntity
  8
部品1
100
AcDbLine
 10
3766.084791275924
 20
4539.735816810611
 30
0.0
 11
3976.584791275925
 21
4539.735816810611
 31
0.0
  0
LINE
  5
1F9E
330
1A
100
AcDbEntity
  8
部品1
100
AcDbLine
 10
3766.084791275924
 20
4557.735816810607
 30
0.0
 11
3766.084791275926
 21
4454.702698467847
 31
0.0
  0
LINE
  5
1F9F
330
1A
100
AcDbEntity
  8
部品1
100
AcDbLine
 10
3721.084791275924
 20
4557.735816810611
 30
0.0
 11
3721.084791275926
 21
4454.702698467847
 31
0.0
  0
LINE
  5
1FA0
330
1A
100
AcDbEntity
  8
部品1
100
AcDbLine
 10
3693.084791275925
 20
4557.735816810609
 30
0.0
 11
3693.084791275925
 21
4454.702698467849
 31
0.0
  0
LINE
  5
1FA1
330
1A
100
AcDbEntity
  8
部品1
100
AcDbLine
 10
3648.084791275924
 20
4557.735816810609
 30
0.0
 11
3648.084791275925
 21
4454.702698467849
 31
0.0
  0
LINE
  5
1FA2
330
1A
100
AcDbEntity
  8
部品1
100
AcDbLine
 10
3431.084791275926
 20
4557.735816810609
 30
0.0
 11
3431.084791275926
 21
4454.702698467849
 31
0.0
  0
LINE
  5
1FA3
330
1A
100
AcDbEntity
  8
部品1
100
AcDbLine
 10
3396.584791275924
 20
4557.735816810609
 30
0.0
 11
3396.584791275926
 21
4454.702698467849
 31
0.0
  0
LINE
  5
1FA4
330
1A
100
AcDbEntity
  8
部品1
100
AcDbLine
 10
3186.084791275924
 20
4557.735816810609
 30
0.0
 11
3186.084791275926
 21
4454.702698467849
 31
0.0
  0
LINE
  5
1FA5
330
1A
100
AcDbEntity
  8
部品1
100
AcDbLine
 10
3431.084791275926
 20
4539.735816810611
 30
0.0
 11
3648.084791275925
 21
4539.735816810611
 31
0.0
  0
LINE
  5
1FA6
330
1A
100
AcDbEntity
  8
部品1
100
AcDbLine
 10
3186.084791275924
 20
4539.735816810611
 30
0.0
 11
3396.584791275924
 21
4539.735816810611
 31
0.0
  0
LINE
  5
1FA7
330
1A
100
AcDbEntity
  8
部品1
100
AcDbLine
 10
3693.084791275925
 20
4539.735816810611
 30
0.0
 11
3721.084791275926
 21
4539.735816810611
 31
0.0
  0
LINE
  5
1FA8
330
1A
100
AcDbEntity
  8
部品1
100
AcDbLine
 10
3431.084791275924
 20
4557.735816810607
 30
0.0
 11
3396.584791275922
 21
4557.735816810607
 31
0.0
  0
LINE
  5
1FA9
330
1A
100
AcDbEntity
  8
部品1
100
AcDbLine
 10
3693.084791275925
 20
4557.735816810607
 30
0.0
 11
3648.084791275924
 21
4557.735816810607
 31
0.0
  0
LINE
  5
1FAA
330
1A
100
AcDbEntity
  8
部品1
100
AcDbLine
 10
3766.084791275926
 20
4557.735816810607
 30
0.0
 11
3721.084791275924
 21
4557.735816810607
 31
0.0
  0
LINE
  5
1FAB
330
1A
100
AcDbEntity
  8
部品1
100
AcDbLine
 10
4431.084791275924
 20
4557.735816810609
 30
0.0
 11
4431.084791275924
 21
4454.702698467849
 31
0.0
  0
LINE
  5
1FAC
330
1A
100
AcDbEntity
  8
部品1
100
AcDbLine
 10
4396.584791275921
 20
4557.735816810609
 30
0.0
 11
4396.584791275921
 21
4454.702698467849
 31
0.0
  0
LINE
  5
1FAD
330
1A
100
AcDbEntity
  8
部品1
100
AcDbLine
 10
4266.084791275925
 20
4557.735816810609
 30
0.0
 11
4266.084791275925
 21
4454.702698467849
 31
0.0
  0
LINE
  5
1FAE
330
1A
100
AcDbEntity
  8
部品1
100
AcDbLine
 10
4221.084791275923
 20
4557.735816810609
 30
0.0
 11
4221.084791275923
 21
4454.702698467849
 31
0.0
  0
LINE
  5
1FAF
330
1A
100
AcDbEntity
  8
部品1
100
AcDbLine
 10
4148.084791275925
 20
4557.735816810609
 30
0.0
 11
4148.084791275925
 21
4454.702698467849
 31
0.0
  0
LINE
  5
1FB0
330
1A
100
AcDbEntity
  8
部品1
100
AcDbLine
 10
4193.084791275921
 20
4557.735816810609
 30
0.0
 11
4193.084791275921
 21
4454.702698467849
 31
0.0
  0
LINE
  5
1FB1
330
1A
100
AcDbEntity
  8
部品1
100
AcDbLine
 10
4011.084791275924
 20
4557.735816810609
 30
0.0
 11
4011.084791275925
 21
4454.702698467849
 31
0.0
  0
LINE
  5
1FB2
330
1A
100
AcDbEntity
  8
部品1
100
AcDbLine
 10
3976.584791275925
 20
4557.735816810609
 30
0.0
 11
3976.584791275925
 21
4454.702698467845
 31
0.0
  0
LINE
  5
1FB3
330
1A
100
AcDbEntity
  8
部品1
100
AcDbLine
 10
4011.084791275924
 20
4539.735816810611
 30
0.0
 11
4148.084791275925
 21
4539.735816810611
 31
0.0
  0
LINE
  5
1FB4
330
1A
100
AcDbEntity
  8
部品1
100
AcDbLine
 10
4266.084791275927
 20
4539.735816810611
 30
0.0
 11
4396.58479127592
 21
4539.735816810611
 31
0.0
  0
LINE
  5
1FB5
330
1A
100
AcDbEntity
  8
部品1
100
AcDbLine
 10
4193.084791275924
 20
4539.735816810611
 30
0.0
 11
4221.084791275923
 21
4539.735816810611
 31
0.0
  0
LINE
  5
1FB6
330
1A
100
AcDbEntity
  8
部品1
100
AcDbLine
 10
4011.084791275924
 20
4557.735816810607
 30
0.0
 11
3976.584791275925
 21
4557.735816810607
 31
0.0
  0
LINE
  5
1FB7
330
1A
100
AcDbEntity
  8
部品1
100
AcDbLine
 10
4193.084791275921
 20
4557.735816810607
 30
0.0
 11
4148.084791275925
 21
4557.735816810607
 31
0.0
  0
LINE
  5
1FB8
330
1A
100
AcDbEntity
  8
部品1
100
AcDbLine
 10
4266.084791275925
 20
4557.735816810607
 30
0.0
 11
4221.084791275923
 21
4557.735816810607
 31
0.0
  0
LINE
  5
1FB9
330
1A
100
AcDbEntity
  8
部品1
100
AcDbLine
 10
4431.084791275925
 20
4557.735816810605
 30
0.0
 11
4396.584791275921
 21
4557.735816810607
 31
0.0
  0
LINE
  5
1FBA
330
1A
100
AcDbEntity
  8
部品1
100
AcDbLine
 10
5106.084791275927
 20
4539.735816810611
 30
0.0
 11
5236.584791275926
 21
4539.735816810609
 31
0.0
  0
LINE
  5
1FBB
330
1A
100
AcDbEntity
  8
部品1
100
AcDbLine
 10
5106.084791275929
 20
4557.735816810607
 30
0.0
 11
5106.084791275929
 21
4454.702698467849
 31
0.0
  0
LINE
  5
1FBC
330
1A
100
AcDbEntity
  8
部品1
100
AcDbLine
 10
5061.084791275925
 20
4557.735816810607
 30
0.0
 11
5061.084791275925
 21
4454.702698467849
 31
0.0
  0
LINE
  5
1FBD
330
1A
100
AcDbEntity
  8
部品1
100
AcDbLine
 10
5033.084791275925
 20
4557.735816810607
 30
0.0
 11
5033.084791275925
 21
4454.702698467849
 31
0.0
  0
LINE
  5
1FBE
330
1A
100
AcDbEntity
  8
部品1
100
AcDbLine
 10
4988.084791275929
 20
4557.735816810607
 30
0.0
 11
4988.084791275929
 21
4454.702698467849
 31
0.0
  0
LINE
  5
1FBF
330
1A
100
AcDbEntity
  8
部品1
100
AcDbLine
 10
4851.084791275922
 20
4557.735816810609
 30
0.0
 11
4851.084791275922
 21
4454.702698467849
 31
0.0
  0
LINE
  5
1FC0
330
1A
100
AcDbEntity
  8
部品1
100
AcDbLine
 10
4816.584791275921
 20
4557.735816810609
 30
0.0
 11
4816.584791275921
 21
4454.702698467849
 31
0.0
  0
LINE
  5
1FC1
330
1A
100
AcDbEntity
  8
部品1
100
AcDbLine
 10
4686.084791275932
 20
4557.735816810611
 30
0.0
 11
4686.084791275934
 21
4454.702698467852
 31
0.0
  0
LINE
  5
1FC2
330
1A
100
AcDbEntity
  8
部品1
100
AcDbLine
 10
4641.084791275929
 20
4557.735816810609
 30
0.0
 11
4641.084791275929
 21
4454.702698467849
 31
0.0
  0
LINE
  5
1FC3
330
1A
100
AcDbEntity
  8
部品1
100
AcDbLine
 10
4613.084791275929
 20
4557.735816810609
 30
0.0
 11
4613.084791275929
 21
4454.702698467849
 31
0.0
  0
LINE
  5
1FC4
330
1A
100
AcDbEntity
  8
部品1
100
AcDbLine
 10
4568.084791275929
 20
4557.735816810609
 30
0.0
 11
4568.084791275929
 21
4454.702698467849
 31
0.0
  0
LINE
  5
1FC5
330
1A
100
AcDbEntity
  8
部品1
100
AcDbLine
 10
4686.084791275932
 20
4539.735816810611
 30
0.0
 11
4816.584791275921
 21
4539.735816810611
 31
0.0
  0
LINE
  5
1FC6
330
1A
100
AcDbEntity
  8
部品1
100
AcDbLine
 10
4613.084791275929
 20
4539.735816810611
 30
0.0
 11
4641.084791275929
 21
4539.735816810611
 31
0.0
  0
LINE
  5
1FC7
330
1A
100
AcDbEntity
  8
部品1
100
AcDbLine
 10
4851.084791275924
 20
4539.735816810611
 30
0.0
 11
4988.084791275929
 21
4539.735816810611
 31
0.0
  0
LINE
  5
1FC8
330
1A
100
AcDbEntity
  8
部品1
100
AcDbLine
 10
5033.084791275925
 20
4539.735816810611
 30
0.0
 11
5061.084791275925
 21
4539.735816810611
 31
0.0
  0
LINE
  5
1FC9
330
1A
100
AcDbEntity
  8
部品1
100
AcDbLine
 10
4613.084791275929
 20
4557.735816810605
 30
0.0
 11
4568.084791275929
 21
4557.735816810605
 31
0.0
  0
LINE
  5
1FCA
330
1A
100
AcDbEntity
  8
部品1
100
AcDbLine
 10
4686.084791275932
 20
4557.735816810605
 30
0.0
 11
4641.084791275929
 21
4557.735816810605
 31
0.0
  0
LINE
  5
1FCB
330
1A
100
AcDbEntity
  8
部品1
100
AcDbLine
 10
4851.084791275922
 20
4557.735816810607
 30
0.0
 11
4816.584791275921
 21
4557.735816810607
 31
0.0
  0
LINE
  5
1FCC
330
1A
100
AcDbEntity
  8
部品1
100
AcDbLine
 10
5033.084791275925
 20
4557.735816810605
 30
0.0
 11
4988.084791275929
 21
4557.735816810607
 31
0.0
  0
LINE
  5
1FCD
330
1A
100
AcDbEntity
  8
部品1
100
AcDbLine
 10
5106.084791275927
 20
4557.735816810605
 30
0.0
 11
5061.084791275925
 21
4557.735816810605
 31
0.0
  0
LINE
  5
1FCE
330
1A
100
AcDbEntity
  8
部品1
100
AcDbLine
 10
5743.084791275922
 20
4557.735816810607
 30
0.0
 11
5743.084791275922
 21
4454.702698467849
 31
0.0
  0
LINE
  5
1FCF
330
1A
100
AcDbEntity
  8
部品1
100
AcDbLine
 10
5715.084791275922
 20
4557.735816810607
 30
0.0
 11
5715.084791275922
 21
4454.702698467849
 31
0.0
  0
LINE
  5
1FD0
330
1A
100
AcDbEntity
  8
部品1
100
AcDbLine
 10
5670.084791275918
 20
4557.735816810607
 30
0.0
 11
5670.084791275918
 21
4454.702698467849
 31
0.0
  0
LINE
  5
1FD1
330
1A
100
AcDbEntity
  8
部品1
100
AcDbLine
 10
5539.584791275922
 20
4557.735816810607
 30
0.0
 11
5539.584791275924
 21
4454.702698467849
 31
0.0
  0
LINE
  5
1FD2
330
1A
100
AcDbEntity
  8
部品1
100
AcDbLine
 10
5505.084791275922
 20
4557.735816810609
 30
0.0
 11
5505.084791275922
 21
4454.702698467849
 31
0.0
  0
LINE
  5
1FD3
330
1A
100
AcDbEntity
  8
部品1
100
AcDbLine
 10
5271.084791275925
 20
4557.735816810609
 30
0.0
 11
5271.084791275925
 21
4454.702698467849
 31
0.0
  0
LINE
  5
1FD4
330
1A
100
AcDbEntity
  8
部品1
100
AcDbLine
 10
5236.584791275926
 20
4557.735816810607
 30
0.0
 11
5236.584791275923
 21
4454.702698467849
 31
0.0
  0
LINE
  5
1FD5
330
1A
100
AcDbEntity
  8
部品1
100
AcDbLine
 10
5418.084791275922
 20
4557.735816810607
 30
0.0
 11
5418.084791275922
 21
4454.702698467849
 31
0.0
  0
LINE
  5
1FD6
330
1A
100
AcDbEntity
  8
部品1
100
AcDbLine
 10
5358.084791275921
 20
4557.735816810607
 30
0.0
 11
5358.084791275921
 21
4454.702698467849
 31
0.0
  0
LINE
  5
1FD7
330
1A
100
AcDbEntity
  8
部品1
100
AcDbLine
 10
5505.084791275922
 20
4539.735816810609
 30
0.0
 11
5418.084791275922
 21
4539.735816810611
 31
0.0
  0
LINE
  5
1FD8
330
1A
100
AcDbEntity
  8
部品1
100
AcDbLine
 10
5355.084791275925
 20
4340.018080169216
 30
0.0
 11
5355.084791275924
 21
4290.977832091772
 31
0.0
  0
LINE
  5
1FD9
330
1A
100
AcDbEntity
  8
部品1
100
AcDbLine
 10
5421.084791275923
 20
4340.018080169218
 30
0.0
 11
5421.084791275923
 21
4145.314520810243
 31
0.0
  0
LINE
  5
1FDA
330
1A
100
AcDbEntity
  8
細線
100
AcDbLine
 10
5406.084791275923
 20
4285.977832091772
 30
0.0
 11
5406.084791275923
 21
4145.314520810243
 31
0.0
  0
LINE
  5
1FDB
330
1A
100
AcDbEntity
  8
細線
100
AcDbLine
 10
5376.084791275924
 20
4285.977832091772
 30
0.0
 11
5376.084791275924
 21
4145.314520810243
 31
0.0
  0
LINE
  5
1FDC
330
1A
100
AcDbEntity
  8
細線
100
AcDbLine
 10
5400.084791275924
 20
4285.977832091772
 30
0.0
 11
5400.084791275924
 21
4145.314520810243
 31
0.0
  0
ARC
  5
1FDD
330
1A
100
AcDbEntity
  8
部品1
100
AcDbCircle
 10
5416.084791275924
 20
4290.977832091772
 30
0.0
 40
5.0
100
AcDbArc
 50
270.0
 51
0.0
  0
LINE
  5
1FDE
330
1A
100
AcDbEntity
  8
部品1
100
AcDbLine
 10
5355.084791275924
 20
4290.977832091772
 30
0.0
 11
5355.084791275924
 21
4145.314520810243
 31
0.0
  0
ARC
  5
1FDF
330
1A
100
AcDbEntity
  8
部品1
100
AcDbCircle
 10
5360.084791275923
 20
4290.977832091772
 30
0.0
 40
5.0
100
AcDbArc
 50
180.0
 51
270.0
  0
LINE
  5
1FE0
330
1A
100
AcDbEntity
  8
細線
100
AcDbLine
 10
5370.084791275924
 20
4285.977832091772
 30
0.0
 11
5370.084791275924
 21
4145.314520810243
 31
0.0
  0
LINE
  5
1FE1
330
1A
100
AcDbEntity
  8
部品1
100
AcDbLine
 10
5421.084791275923
 20
4145.314520810243
 30
0.0
 11
5355.084791275924
 21
4145.314520810243
 31
0.0
  0
LINE
  5
1FE2
330
1A
100
AcDbEntity
  8
部品1
100
AcDbLine
 10
5416.084791275924
 20
4285.977832091772
 30
0.0
 11
5360.084791275923
 21
4285.977832091772
 31
0.0
  0
LINE
  5
1FE3
330
1A
100
AcDbEntity
  8
部品1
100
AcDbLine
 10
5358.084791275921
 20
4539.735816810609
 30
0.0
 11
5271.084791275925
 21
4539.735816810609
 31
0.0
  0
LINE
  5
1FE4
330
1A
100
AcDbEntity
  8
部品1
100
AcDbLine
 10
5378.084791275924
 20
4340.018080169218
 30
0.0
 11
5378.084791275924
 21
4454.702698467849
 31
0.0
  0
LINE
  5
1FE5
330
1A
100
AcDbEntity
  8
部品1
100
AcDbLine
 10
5670.08479127592
 20
4539.735816810611
 30
0.0
 11
5539.584791275922
 21
4539.735816810609
 31
0.0
  0
LINE
  5
1FE6
330
1A
100
AcDbEntity
  8
部品1
100
AcDbLine
 10
5743.084791275922
 20
4539.735816810611
 30
0.0
 11
5715.084791275922
 21
4539.735816810611
 31
0.0
  0
LINE
  5
1FE7
330
1A
100
AcDbEntity
  8
部品1
100
AcDbLine
 10
5271.084791275925
 20
4557.735816810607
 30
0.0
 11
5236.584791275923
 21
4557.735816810605
 31
0.0
  0
LINE
  5
1FE8
330
1A
100
AcDbEntity
  8
部品1
100
AcDbLine
 10
5358.084791275921
 20
4557.735816810607
 30
0.0
 11
5418.084791275922
 21
4557.735816810607
 31
0.0
  0
LINE
  5
1FE9
330
1A
100
AcDbEntity
  8
部品1
100
AcDbLine
 10
5539.584791275922
 20
4557.735816810607
 30
0.0
 11
5505.084791275922
 21
4557.735816810607
 31
0.0
  0
LINE
  5
1FEA
330
1A
100
AcDbEntity
  8
部品1
100
AcDbLine
 10
5715.084791275922
 20
4557.735816810607
 30
0.0
 11
5670.084791275918
 21
4557.735816810607
 31
0.0
  0
LWPOLYLINE
  5
1FEB
330
1A
100
AcDbEntity
  8
文字
100
AcDbPolyline
 90
        4
 70
     1
 43
0.0
 10
5089.720774136076
 20
5765.077502960412
 10
5089.720774136076
 20
5543.493243920144
 10
5726.733106895838
 20
5543.493243920144
 10
5726.733106895838
 20
5765.077502960412
  0
TEXT
  5
1FEC
330
1A
100
AcDbEntity
  8
文字
100
AcDbText
 10
5132.188259592207
 20
5590.638826233931
 30
0.0
 40
120.0
  1
平面図
  7
MSGOTHIC
100
AcDbText
  0
LINE
  5
1FED
330
1A
100
AcDbEntity
  8
部品1
100
AcDbLine
 10
7798.084791275922
 20
4145.314520810243
 30
0.0
 11
7798.084791275922
 21
2372.702698467847
 31
0.0
  0
LINE
  5
1FEE
330
1A
100
AcDbEntity
  8
部品1
100
AcDbLine
 10
7738.084791275922
 20
4145.314520810243
 30
0.0
 11
7738.084791275923
 21
2372.702698467847
 31
0.0
  0
LINE
  5
1FEF
330
1A
100
AcDbEntity
  8
細線
100
AcDbLine
 10
6545.747927273215
 20
2322.702698467847
 30
0.0
 11
6595.747927273215
 21
2372.702698467847
 31
0.0
  0
LINE
  5
1FF0
330
1A
100
AcDbEntity
  8
細線
100
AcDbLine
 10
6579.423887727225
 20
2322.702698467847
 30
0.0
 11
6629.423887727225
 21
2372.702698467847
 31
0.0
  0
LINE
  5
1FF1
330
1A
100
AcDbEntity
  8
細線
100
AcDbLine
 10
6512.071966819206
 20
2322.702698467847
 30
0.0
 11
6562.071966819207
 21
2372.702698467847
 31
0.0
  0
LINE
  5
1FF2
330
1A
100
AcDbEntity
  8
部品1
100
AcDbLine
 10
6560.584791275923
 20
2682.702698467849
 30
0.0
 11
6560.584791275923
 21
2617.702698467849
 31
0.0
  0
LINE
  5
1FF3
330
1A
100
AcDbEntity
  8
部品1
100
AcDbLine
 10
6595.584791275924
 20
2682.702698467849
 30
0.0
 11
6595.584791275924
 21
2617.702698467849
 31
0.0
  0
LINE
  5
1FF4
330
1A
100
AcDbEntity
  8
細線
100
AcDbLine
 10
7379.702701347506
 20
2322.702698467847
 30
0.0
 11
7429.702701347507
 21
2372.702698467849
 31
0.0
  0
LINE
  5
1FF5
330
1A
100
AcDbEntity
  8
細線
100
AcDbLine
 10
7413.378661801515
 20
2322.702698467847
 30
0.0
 11
7463.378661801517
 21
2372.702698467849
 31
0.0
  0
LINE
  5
1FF6
330
1A
100
AcDbEntity
  8
細線
100
AcDbLine
 10
7447.054622255524
 20
2322.702698467847
 30
0.0
 11
7497.054622255524
 21
2372.702698467847
 31
0.0
  0
LINE
  5
1FF7
330
1A
100
AcDbEntity
  8
部品1
100
AcDbLine
 10
8018.084791275926
 20
2372.702698467847
 30
0.0
 11
8018.084791275926
 21
2322.702698467847
 31
0.0
  0
LINE
  5
1FF8
330
1A
100
AcDbEntity
  8
部品1
100
AcDbLine
 10
7128.084791275921
 20
4557.735816810611
 30
0.0
 11
7083.084791275922
 21
4557.735816810611
 31
0.0
  0
LINE
  5
1FF9
330
1A
100
AcDbEntity
  8
部品1
100
AcDbLine
 10
6510.084791275921
 20
4539.735816810611
 30
0.0
 11
6379.584791275927
 21
4539.735816810611
 31
0.0
  0
LINE
  5
1FFA
330
1A
100
AcDbEntity
  8
部品1
100
AcDbLine
 10
6379.584791275926
 20
4557.735816810609
 30
0.0
 11
6379.584791275926
 21
4454.702698467849
 31
0.0
  0
LINE
  5
1FFB
330
1A
100
AcDbEntity
  8
部品1
100
AcDbLine
 10
6345.084791275923
 20
4557.735816810609
 30
0.0
 11
6345.084791275923
 21
4454.702698467849
 31
0.0
  0
LINE
  5
1FFC
330
1A
100
AcDbEntity
  8
部品1
100
AcDbLine
 10
6208.084791275918
 20
4557.735816810609
 30
0.0
 11
6208.084791275918
 21
4454.702698467849
 31
0.0
  0
LINE
  5
1FFD
330
1A
100
AcDbEntity
  8
部品1
100
AcDbLine
 10
6163.084791275919
 20
4557.735816810609
 30
0.0
 11
6163.084791275919
 21
4454.702698467849
 31
0.0
  0
LINE
  5
1FFE
330
1A
100
AcDbEntity
  8
部品1
100
AcDbLine
 10
6135.084791275918
 20
4557.735816810609
 30
0.0
 11
6135.084791275918
 21
4454.702698467849
 31
0.0
  0
LINE
  5
1FFF
330
1A
100
AcDbEntity
  8
部品1
100
AcDbLine
 10
6090.084791275915
 20
4557.735816810611
 30
0.0
 11
6090.084791275913
 21
4454.702698467852
 31
0.0
  0
LINE
  5
2000
330
1A
100
AcDbEntity
  8
部品1
100
AcDbLine
 10
5959.584791275926
 20
4557.735816810609
 30
0.0
 11
5959.584791275926
 21
4454.702698467849
 31
0.0
  0
LINE
  5
2001
330
1A
100
AcDbEntity
  8
部品1
100
AcDbLine
 10
5925.084791275925
 20
4557.735816810609
 30
0.0
 11
5925.084791275925
 21
4454.702698467849
 31
0.0
  0
LINE
  5
2002
330
1A
100
AcDbEntity
  8
部品1
100
AcDbLine
 10
5788.084791275918
 20
4557.735816810607
 30
0.0
 11
5788.084791275918
 21
4454.702698467849
 31
0.0
  0
LINE
  5
2003
330
1A
100
AcDbEntity
  8
部品1
100
AcDbLine
 10
5925.084791275924
 20
4539.735816810611
 30
0.0
 11
5788.084791275918
 21
4539.735816810611
 31
0.0
  0
LINE
  5
2004
330
1A
100
AcDbEntity
  8
部品1
100
AcDbLine
 10
6090.084791275915
 20
4539.735816810611
 30
0.0
 11
5959.584791275926
 21
4539.735816810611
 31
0.0
  0
LINE
  5
2005
330
1A
100
AcDbEntity
  8
部品1
100
AcDbLine
 10
6345.084791275923
 20
4539.735816810611
 30
0.0
 11
6208.084791275918
 21
4539.735816810611
 31
0.0
  0
LINE
  5
2006
330
1A
100
AcDbEntity
  8
部品1
100
AcDbLine
 10
6163.084791275919
 20
4539.735816810611
 30
0.0
 11
6135.084791275918
 21
4539.735816810611
 31
0.0
  0
LINE
  5
2007
330
1A
100
AcDbEntity
  8
部品1
100
AcDbLine
 10
6135.084791275918
 20
4557.735816810607
 30
0.0
 11
6090.084791275913
 21
4557.735816810607
 31
0.0
  0
LINE
  5
2008
330
1A
100
AcDbEntity
  8
部品1
100
AcDbLine
 10
5959.584791275926
 20
4557.735816810607
 30
0.0
 11
5925.084791275925
 21
4557.735816810607
 31
0.0
  0
LINE
  5
2009
330
1A
100
AcDbEntity
  8
部品1
100
AcDbLine
 10
6208.084791275918
 20
4557.735816810607
 30
0.0
 11
6163.084791275919
 21
4557.735816810607
 31
0.0
  0
LINE
  5
200A
330
1A
100
AcDbEntity
  8
部品1
100
AcDbLine
 10
6379.584791275926
 20
4557.735816810607
 30
0.0
 11
6345.084791275923
 21
4557.735816810607
 31
0.0
  0
LINE
  5
200B
330
1A
100
AcDbEntity
  8
部品1
100
AcDbLine
 10
7083.084791275922
 20
4557.735816810609
 30
0.0
 11
7083.084791275922
 21
4454.702698467849
 31
0.0
  0
LINE
  5
200C
330
1A
100
AcDbEntity
  8
部品1
100
AcDbLine
 10
7055.084791275923
 20
4557.735816810611
 30
0.0
 11
7055.084791275922
 21
4454.702698467847
 31
0.0
  0
LINE
  5
200D
330
1A
100
AcDbEntity
  8
部品1
100
AcDbLine
 10
7010.084791275923
 20
4557.735816810611
 30
0.0
 11
7010.084791275922
 21
4454.702698467847
 31
0.0
  0
LINE
  5
200E
330
1A
100
AcDbEntity
  8
部品1
100
AcDbLine
 10
6799.584791275922
 20
4557.735816810609
 30
0.0
 11
6799.584791275922
 21
4454.702698467845
 31
0.0
  0
LINE
  5
200F
330
1A
100
AcDbEntity
  8
部品1
100
AcDbLine
 10
6765.084791275923
 20
4557.735816810609
 30
0.0
 11
6765.084791275921
 21
4454.702698467849
 31
0.0
  0
LINE
  5
2010
330
1A
100
AcDbEntity
  8
部品1
100
AcDbLine
 10
6583.084791275926
 20
4557.735816810609
 30
0.0
 11
6583.084791275926
 21
4454.702698467849
 31
0.0
  0
LINE
  5
2011
330
1A
100
AcDbEntity
  8
部品1
100
AcDbLine
 10
6628.084791275921
 20
4557.735816810609
 30
0.0
 11
6628.084791275921
 21
4454.702698467849
 31
0.0
  0
LINE
  5
2012
330
1A
100
AcDbEntity
  8
部品1
100
AcDbLine
 10
6555.084791275923
 20
4557.735816810609
 30
0.0
 11
6555.084791275923
 21
4454.702698467849
 31
0.0
  0
LINE
  5
2013
330
1A
100
AcDbEntity
  8
部品1
100
AcDbLine
 10
6510.084791275922
 20
4557.735816810609
 30
0.0
 11
6510.084791275922
 21
4454.702698467849
 31
0.0
  0
LINE
  5
2014
330
1A
100
AcDbEntity
  8
部品1
100
AcDbLine
 10
6765.084791275923
 20
4539.735816810611
 30
0.0
 11
6628.084791275921
 21
4539.735816810611
 31
0.0
  0
LINE
  5
2015
330
1A
100
AcDbEntity
  8
部品1
100
AcDbLine
 10
6583.084791275924
 20
4539.735816810611
 30
0.0
 11
6555.084791275923
 21
4539.735816810611
 31
0.0
  0
LINE
  5
2016
330
1A
100
AcDbEntity
  8
部品1
100
AcDbLine
 10
7010.084791275922
 20
4539.735816810611
 30
0.0
 11
6799.584791275922
 21
4539.735816810611
 31
0.0
  0
LINE
  5
2017
330
1A
100
AcDbEntity
  8
部品1
100
AcDbLine
 10
7083.084791275922
 20
4539.735816810611
 30
0.0
 11
7055.084791275922
 21
4539.735816810611
 31
0.0
  0
LINE
  5
2018
330
1A
100
AcDbEntity
  8
部品1
100
AcDbLine
 10
6628.084791275921
 20
4557.735816810607
 30
0.0
 11
6583.084791275926
 21
4557.735816810607
 31
0.0
  0
LINE
  5
2019
330
1A
100
AcDbEntity
  8
部品1
100
AcDbLine
 10
6555.084791275923
 20
4557.735816810607
 30
0.0
 11
6510.084791275922
 21
4557.735816810607
 31
0.0
  0
LINE
  5
201A
330
1A
100
AcDbEntity
  8
部品1
100
AcDbLine
 10
6799.584791275923
 20
4557.735816810609
 30
0.0
 11
6765.084791275923
 21
4557.735816810609
 31
0.0
  0
LINE
  5
201B
330
1A
100
AcDbEntity
  8
部品1
100
AcDbLine
 10
7055.084791275922
 20
4557.735816810611
 30
0.0
 11
7010.084791275922
 21
4557.735816810611
 31
0.0
  0
DIMENSION
  5
201C
330
1A
100
AcDbEntity
  8
寸法
100
AcDbDimension
  2
*D1
 10
8018.084791275922
 20
4863.261564502629
 30
0.0
 11
7893.084791275923
 21
4863.261564502629
 31
0.0
 70
   160
 71
     5
 42
250.0
  3
物置仕様図40
100
AcDbAlignedDimension
 13
7768.084791275923
 23
4340.018080169216
 33
0.0
 14
8018.084791275922
 24
4567.702698467848
 34
0.0
100
AcDbRotatedDimension
1001
ACAD
1000
DSTYLE
1002
{
1070
   279
1070
     0
1070
    75
1070
     1
1002
}
  0
LINE
  5
201D
330
1A
100
AcDbEntity
  8
部品1
100
AcDbLine
 10
7925.084791275924
 20
4539.735816810611
 30
0.0
 11
7708.084791275924
 21
4539.735816810611
 31
0.0
  0
LINE
  5
201E
330
1A
100
AcDbEntity
  8
部品1
100
AcDbLine
 10
7801.084791275926
 20
4145.314520810243
 30
0.0
 11
7735.084791275923
 21
4145.314520810243
 31
0.0
  0
LINE
  5
201F
330
1A
100
AcDbEntity
  8
部品1
100
AcDbLine
 10
7796.084791275923
 20
4285.977832091772
 30
0.0
 11
7740.084791275923
 21
4285.977832091772
 31
0.0
  0
LINE
  5
2020
330
1A
100
AcDbEntity
  8
部品1
100
AcDbLine
 10
7708.084791275926
 20
4557.735816810611
 30
0.0
 11
7708.084791275924
 21
4454.702698467849
 31
0.0
  0
LINE
  5
2021
330
1A
100
AcDbEntity
  8
部品1
100
AcDbLine
 10
7663.084791275924
 20
4557.735816810611
 30
0.0
 11
7663.084791275922
 21
4454.702698467849
 31
0.0
  0
LINE
  5
2022
330
1A
100
AcDbEntity
  8
部品1
100
AcDbLine
 10
7635.084791275923
 20
4557.735816810611
 30
0.0
 11
7635.084791275923
 21
4454.702698467849
 31
0.0
  0
LINE
  5
2023
330
1A
100
AcDbEntity
  8
部品1
100
AcDbLine
 10
7590.084791275923
 20
4557.735816810609
 30
0.0
 11
7590.084791275923
 21
4454.702698467849
 31
0.0
  0
LINE
  5
2024
330
1A
100
AcDbEntity
  8
部品1
100
AcDbLine
 10
7379.584791275924
 20
4557.735816810609
 30
0.0
 11
7379.584791275921
 21
4454.702698467849
 31
0.0
  0
LINE
  5
2025
330
1A
100
AcDbEntity
  8
部品1
100
AcDbLine
 10
7345.084791275922
 20
4557.735816810609
 30
0.0
 11
7345.084791275922
 21
4454.702698467849
 31
0.0
  0
LINE
  5
2026
330
1A
100
AcDbEntity
  8
部品1
100
AcDbLine
 10
7128.084791275924
 20
4557.735816810609
 30
0.0
 11
7128.084791275921
 21
4454.702698467849
 31
0.0
  0
LINE
  5
2027
330
1A
100
AcDbEntity
  8
部品1
100
AcDbLine
 10
7590.084791275923
 20
4539.735816810611
 30
0.0
 11
7379.584791275924
 21
4539.735816810611
 31
0.0
  0
LINE
  5
2028
330
1A
100
AcDbEntity
  8
部品1
100
AcDbLine
 10
7345.084791275922
 20
4539.735816810611
 30
0.0
 11
7128.084791275921
 21
4539.735816810611
 31
0.0
  0
LINE
  5
2029
330
1A
100
AcDbEntity
  8
部品1
100
AcDbLine
 10
7735.084791275922
 20
4340.018080169218
 30
0.0
 11
7735.084791275923
 21
4145.314520810243
 31
0.0
  0
ARC
  5
202A
330
1A
100
AcDbEntity
  8
部品1
100
AcDbCircle
 10
7740.084791275923
 20
4290.977832091772
 30
0.0
 40
5.0
100
AcDbArc
 50
180.0
 51
270.0
  0
LINE
  5
202B
330
1A
100
AcDbEntity
  8
部品1
100
AcDbLine
 10
7663.084791275922
 20
4539.735816810611
 30
0.0
 11
7635.084791275923
 21
4539.735816810611
 31
0.0
  0
LINE
  5
202C
330
1A
100
AcDbEntity
  8
部品1
100
AcDbLine
 10
7379.584791275924
 20
4557.735816810609
 30
0.0
 11
7345.084791275922
 21
4557.735816810611
 31
0.0
  0
LINE
  5
202D
330
1A
100
AcDbEntity
  8
部品1
100
AcDbLine
 10
7635.084791275923
 20
4557.735816810609
 30
0.0
 11
7590.084791275923
 21
4557.735816810609
 31
0.0
  0
LINE
  5
202E
330
1A
100
AcDbEntity
  8
部品1
100
AcDbLine
 10
7708.084791275924
 20
4557.735816810609
 30
0.0
 11
7663.084791275924
 21
4557.735816810609
 31
0.0
  0
LINE
  5
202F
330
1A
100
AcDbEntity
  8
部品1
100
AcDbLine
 10
7959.584791275924
 20
4557.735816810611
 30
0.0
 11
7959.584791275924
 21
4454.702698467849
 31
0.0
  0
LINE
  5
2030
330
1A
100
AcDbEntity
  8
部品1
100
AcDbLine
 10
7925.084791275924
 20
4557.735816810611
 30
0.0
 11
7925.084791275924
 21
4454.702698467849
 31
0.0
  0
LINE
  5
2031
330
1A
100
AcDbEntity
  8
部品1
100
AcDbLine
 10
7973.084791275924
 20
4567.702698467846
 30
0.0
 11
7973.084791275924
 21
4454.702698467849
 31
0.0
  0
LINE
  5
2032
330
1A
100
AcDbEntity
  8
部品1
100
AcDbLine
 10
8017.505670399508
 20
4441.702698467849
 30
0.0
 11
8017.505670399508
 21
4554.702698467848
 31
0.0
  0
LINE
  5
2033
330
1A
100
AcDbEntity
  8
部品1
100
AcDbLine
 10
7801.084791275926
 20
4340.018080169216
 30
0.0
 11
7801.084791275923
 21
4145.314520810243
 31
0.0
  0
LINE
  5
2034
330
1A
100
AcDbEntity
  8
細線
100
AcDbLine
 10
7780.084791275925
 20
4285.977832091772
 30
0.0
 11
7780.084791275924
 21
4145.314520810243
 31
0.0
  0
LINE
  5
2035
330
1A
100
AcDbEntity
  8
細線
100
AcDbLine
 10
7756.084791275924
 20
4285.977832091772
 30
0.0
 11
7756.084791275924
 21
4145.314520810243
 31
0.0
  0
LINE
  5
2036
330
1A
100
AcDbEntity
  8
細線
100
AcDbLine
 10
7786.084791275925
 20
4285.977832091772
 30
0.0
 11
7786.084791275924
 21
4145.314520810243
 31
0.0
  0
LINE
  5
2037
330
1A
100
AcDbEntity
  8
細線
100
AcDbLine
 10
7750.084791275924
 20
4285.977832091772
 30
0.0
 11
7750.084791275924
 21
4145.314520810243
 31
0.0
  0
ARC
  5
2038
330
1A
100
AcDbEntity
  8
部品1
100
AcDbCircle
 10
7796.084791275923
 20
4290.977832091772
 30
0.0
 40
5.0
100
AcDbArc
 50
270.0
 51
0.0
  0
LINE
  5
2039
330
1A
100
AcDbEntity
  8
部品1
100
AcDbLine
 10
7973.084791275924
 20
4539.735816810611
 30
0.0
 11
7959.584791275924
 21
4539.735816810611
 31
0.0
  0
ARC
  5
203A
330
1A
100
AcDbEntity
  8
部品1
100
AcDbCircle
 10
8004.505670399508
 20
4441.702698467849
 30
0.0
 40
13.0
100
AcDbArc
 50
357.5036094784608
 51
90.0
  0
ARC
  5
203B
330
1A
100
AcDbEntity
  8
部品1
100
AcDbCircle
 10
8000.639213867925
 20
4353.018080169219
 30
0.0
 40
13.0
100
AcDbArc
 50
270.0
 51
357.5036094784608
  0
LINE
  5
203C
330
1A
100
AcDbEntity
  8
部品1
100
AcDbLine
 10
7995.084791275925
 20
4454.702698467849
 30
0.0
 11
7995.084791275925
 21
4340.018080169218
 31
0.0
  0
LINE
  5
203D
330
1A
100
AcDbEntity
  8
部品1
100
AcDbLine
 10
8017.493332977039
 20
4441.136464618433
 30
0.0
 11
8013.626876445455
 21
4352.451846319803
 31
0.0
  0
LINE
  5
203E
330
1A
100
AcDbEntity
  8
部品1
100
AcDbLine
 10
7959.584791275924
 20
4557.735816810611
 30
0.0
 11
7925.084791275924
 21
4557.735816810611
 31
0.0
  0
ARC
  5
203F
330
1A
100
AcDbEntity
  8
部品1
100
AcDbCircle
 10
8004.505670399508
 20
4554.702698467848
 30
0.0
 40
13.0
100
AcDbArc
 50
0.0
 51
90.0
  0
LINE
  5
2040
330
1A
100
AcDbEntity
  8
部品1
100
AcDbLine
 10
5317.274395459247
 20
8619.204846451626
 30
0.0
 11
2828.084791275924
 21
8619.204846451628
 31
0.0
  0
LINE
  5
2041
330
1A
100
AcDbEntity
  8
部品1
100
AcDbLine
 10
6027.85234274269
 20
6264.004846451628
 30
0.0
 11
2828.084791275924
 21
6264.004846451631
 31
0.0
  0
LINE
  5
2042
330
1A
100
AcDbEntity
  8
部品1
100
AcDbLine
 10
5838.199957525989
 20
6892.60484645163
 30
0.0
 11
2828.084791275924
 21
6892.604846451631
 31
0.0
  0
LINE
  5
2043
330
1A
100
AcDbEntity
  8
部品1
100
AcDbLine
 10
5648.54757230929
 20
7521.204846451631
 30
0.0
 11
2828.084791275924
 21
7521.204846451631
 31
0.0
  0
LINE
  5
2044
330
1A
100
AcDbEntity
  8
部品1
100
AcDbLine
 10
5458.895187092586
 20
8149.804846451635
 30
0.0
 11
2828.084791275924
 21
8149.804846451635
 31
0.0
  0
LINE
  5
2045
330
1A
100
AcDbEntity
  8
部品1
100
AcDbLine
 10
5127.622010242545
 20
9247.804846451629
 30
0.0
 11
2828.084791275924
 21
9247.80484645163
 31
0.0
  0
LINE
  5
2046
330
1A
100
AcDbEntity
  8
部品1
100
AcDbLine
 10
4937.969625025847
 20
9876.404846451634
 30
0.0
 11
2828.084791275924
 21
9876.404846451631
 31
0.0
  0
LINE
  5
2047
330
1A
100
AcDbEntity
  8
部品1
100
AcDbLine
 10
4748.317239809148
 20
10505.00484645162
 30
0.0
 11
2828.084791275924
 21
10505.00484645163
 31
0.0
  0
LINE
  5
2048
330
1A
100
AcDbEntity
  8
部品1
100
AcDbLine
 10
4728.706350469209
 20
10570.00484645163
 30
0.0
 11
2828.084791275924
 21
10570.00484645163
 31
0.0
  0
LINE
  5
2049
330
1A
100
AcDbEntity
  8
部品1
100
AcDbLine
 10
4742.283120012244
 20
10525.00484645162
 30
0.0
 11
2828.084791275924
 21
10525.00484645163
 31
0.0
  0
LINE
  5
204A
330
1A
100
AcDbEntity
  8
部品1
100
AcDbLine
 10
4931.935505228945
 20
9896.40484645163
 30
0.0
 11
2828.084791275924
 21
9896.40484645163
 31
0.0
  0
LINE
  5
204B
330
1A
100
AcDbEntity
  8
部品1
100
AcDbLine
 10
4918.358735685909
 20
9941.404846451632
 30
0.0
 11
2828.084791275924
 21
9941.404846451632
 31
0.0
  0
LINE
  5
204C
330
1A
100
AcDbEntity
  8
部品1
100
AcDbLine
 10
5108.01112090261
 20
9312.804846451632
 30
0.0
 11
2828.084791275924
 21
9312.804846451632
 31
0.0
  0
LINE
  5
204D
330
1A
100
AcDbEntity
  8
部品1
100
AcDbLine
 10
5121.587890445642
 20
9267.804846451632
 30
0.0
 11
2828.084791275924
 21
9267.80484645163
 31
0.0
  0
LINE
  5
204E
330
1A
100
AcDbEntity
  8
部品1
100
AcDbLine
 10
5297.663506119309
 20
8684.204846451628
 30
0.0
 11
2828.084791275924
 21
8684.204846451628
 31
0.0
  0
LINE
  5
204F
330
1A
100
AcDbEntity
  8
部品1
100
AcDbLine
 10
5311.240275662343
 20
8639.204846451628
 30
0.0
 11
2828.084791275924
 21
8639.204846451628
 31
0.0
  0
LINE
  5
2050
330
1A
100
AcDbEntity
  8
部品1
100
AcDbLine
 10
2803.084791275924
 20
8524.504846451632
 30
0.0
 11
7973.084791275922
 21
8524.504846451632
 31
0.0
  0
LINE
  5
2051
330
1A
100
AcDbEntity
  8
部品1
100
AcDbLine
 10
5478.506076432527
 20
8084.80484645163
 30
0.0
 11
2828.084791275924
 21
8084.804846451634
 31
0.0
  0
LINE
  5
2052
330
1A
100
AcDbEntity
  8
センター
 48
10.0
100
AcDbLine
 10
2788.084791275924
 20
8107.304846451635
 30
0.0
 11
7988.084791275922
 21
8107.304846451633
 31
0.0
  0
LINE
  5
2053
330
1A
100
AcDbEntity
  8
部品1
100
AcDbLine
 10
5464.929306889493
 20
8129.804846451634
 30
0.0
 11
2828.084791275924
 21
8129.804846451634
 31
0.0
  0
LINE
  5
2054
330
1A
100
AcDbEntity
  8
部品1
100
AcDbLine
 10
5668.15846164923
 20
7456.20484645163
 30
0.0
 11
2828.084791275924
 21
7456.204846451632
 31
0.0
  0
LINE
  5
2055
330
1A
100
AcDbEntity
  8
センター
 48
10.0
100
AcDbLine
 10
2788.084791275924
 20
7478.704846451631
 30
0.0
 11
7988.084791275922
 21
7478.704846451631
 31
0.0
  0
LINE
  5
2056
330
1A
100
AcDbEntity
  8
部品1
100
AcDbLine
 10
5654.581692106193
 20
7501.204846451634
 30
0.0
 11
2828.084791275924
 21
7501.204846451632
 31
0.0
  0
LINE
  5
2057
330
1A
100
AcDbEntity
  8
部品1
100
AcDbLine
 10
5857.810846865929
 20
6827.604846451632
 30
0.0
 11
2828.084791275924
 21
6827.604846451632
 31
0.0
  0
LINE
  5
2058
330
1A
100
AcDbEntity
  8
センター
 48
10.0
100
AcDbLine
 10
2788.084791275924
 20
6850.104846451633
 30
0.0
 11
7988.084791275922
 21
6850.104846451633
 31
0.0
  0
LINE
  5
2059
330
1A
100
AcDbEntity
  8
部品1
100
AcDbLine
 10
5844.234077322892
 20
6872.604846451629
 30
0.0
 11
2828.084791275924
 21
6872.604846451633
 31
0.0
  0
LINE
  5
205A
330
1A
100
AcDbEntity
  8
センター
 48
10.0
100
AcDbLine
 10
2788.084791275924
 20
6221.504846451632
 30
0.0
 11
7988.084791275922
 21
6221.504846451632
 31
0.0
  0
LINE
  5
205B
330
1A
100
AcDbEntity
  8
部品1
100
AcDbLine
 10
6033.886462539593
 20
6244.00484645163
 30
0.0
 11
2828.084791275924
 21
6244.004846451631
 31
0.0
  0
LINE
  5
205C
330
1A
100
AcDbEntity
  8
部品1
100
AcDbLine
 10
6047.463232082628
 20
6199.004846451632
 30
0.0
 11
2828.084791275924
 21
6199.004846451631
 31
0.0
  0
LINE
  5
205D
330
1A
100
AcDbEntity
  8
部品1
100
AcDbLine
 10
2806.584791275931
 20
6108.504846451634
 30
0.0
 11
7969.584791275924
 21
6108.504846451634
 31
0.0
  0
LINE
  5
205E
330
1A
100
AcDbEntity
  8
部品1
100
AcDbLine
 10
2768.084791275924
 20
5984.504846451629
 30
0.0
 11
8008.084791275924
 21
5984.50484645163
 31
0.0
  0
LINE
  5
205F
330
1A
100
AcDbEntity
  8
部品1
100
AcDbLine
 10
8018.084791275922
 20
8384.504846451632
 30
0.0
 11
2758.084791275924
 21
8384.504846451632
 31
0.0
  0
LINE
  5
2060
330
1A
100
AcDbEntity
  8
部品1
100
AcDbLine
 10
7973.084791275924
 20
8244.504846451631
 30
0.0
 11
2803.084791275924
 21
8244.504846451633
 31
0.0
  0
LINE
  5
2061
330
1A
100
AcDbEntity
  8
センター
 48
10.0
100
AcDbLine
 10
7988.084791275922
 20
8661.70484645163
 30
0.0
 11
2788.084791275924
 21
8661.704846451629
 31
0.0
  0
LINE
  5
2062
330
1A
100
AcDbEntity
  8
センター
 48
10.0
100
AcDbLine
 10
7988.084791275922
 20
9290.304846451633
 30
0.0
 11
2788.084791275924
 21
9290.304846451633
 31
0.0
  0
LINE
  5
2063
330
1A
100
AcDbEntity
  8
センター
 48
10.0
100
AcDbLine
 10
7988.084791275923
 20
9918.904846451631
 30
0.0
 11
2788.084791275924
 21
9918.904846451631
 31
0.0
  0
LINE
  5
2064
330
1A
100
AcDbEntity
  8
センター
 48
10.0
100
AcDbLine
 10
7988.084791275923
 20
10547.50484645163
 30
0.0
 11
2788.084791275924
 21
10547.50484645163
 31
0.0
  0
LINE
  5
2065
330
1A
100
AcDbEntity
  8
部品1
100
AcDbLine
 10
7969.584791275917
 20
10660.50484645163
 30
0.0
 11
2806.584791275924
 21
10660.50484645162
 31
0.0
  0
LINE
  5
2066
330
1A
100
AcDbEntity
  8
部品1
100
AcDbLine
 10
8008.084791275923
 20
10784.50484645163
 30
0.0
 11
2768.084791275924
 21
10784.50484645163
 31
0.0
  0
DIMENSION
  5
2067
330
1A
100
AcDbEntity
  8
寸法
100
AcDbDimension
  2
*D2
 10
1904.415140076318
 20
5984.504846451632
 30
0.0
 11
1804.415140076318
 21
8384.504846451632
 31
0.0
 70
    32
 71
     5
 42
4799.999999999999
  3
物置仕様図40
100
AcDbAlignedDimension
 13
2768.084791275924
 23
10784.50484645163
 33
0.0
 14
2768.084791275924
 24
5984.504846451631
 34
0.0
 50
90.0
100
AcDbRotatedDimension
  0
DIMENSION
  5
2068
330
1A
100
AcDbEntity
  8
寸法
100
AcDbDimension
  2
*D3
 10
2184.415140076318
 20
9290.304846451629
 30
0.0
 11
2084.403329052694
 21
9604.60484645163
 31
0.0
 70
    32
 71
     5
 42
628.6000000000021
  3
物置仕様図40
100
AcDbAlignedDimension
 13
2758.084791275924
 23
9918.904846451631
 33
0.0
 14
2758.084791275924
 24
9290.304846451629
 34
0.0
 50
90.0
100
AcDbRotatedDimension
1001
ACAD
1000
DSTYLE
1002
{
1070
    75
1070
     1
1002
}
  0
LINE
  5
2069
330
1A
100
AcDbEntity
  8
部品1
100
AcDbLine
 10
2978.084791275924
 20
9876.404846451631
 30
0.0
 11
2978.084791275924
 21
9312.804846451632
 31
0.0
  0
LINE
  5
206A
330
1A
100
AcDbEntity
  8
部品1
100
AcDbLine
 10
3038.084791275924
 20
9876.404846451631
 30
0.0
 11
3038.084791275924
 21
9312.804846451632
 31
0.0
  0
LINE
  5
206B
330
1A
100
AcDbEntity
  8
部品1
100
AcDbLine
 10
2828.084791275924
 20
10660.50484645163
 30
0.0
 11
2828.084791275924
 21
8524.504846451632
 31
0.0
  0
LINE
  5
206C
330
1A
100
AcDbEntity
  8
部品1
100
AcDbLine
 10
2803.084791275922
 20
10765.00484645163
 30
0.0
 11
2803.084791275924
 21
6004.004846451631
 31
0.0
  0
LINE
  5
206D
330
1A
100
AcDbEntity
  8
部品1
100
AcDbLine
 10
2758.084791275924
 20
10774.50484645163
 30
0.0
 11
2758.084791275924
 21
8384.504846451632
 31
0.0
  0
DIMENSION
  5
206E
330
1A
100
AcDbEntity
  8
寸法
100
AcDbDimension
  2
*D4
 10
2184.415140076318
 20
7478.704846451631
 30
0.0
 11
2024.415140076319
 21
7704.335873196111
 31
0.0
 70
   160
 71
     5
 42
628.6000000000021
  3
物置仕様図40
100
AcDbAlignedDimension
 13
2758.084791275924
 23
8107.304846451633
 33
0.0
 14
2758.084791275924
 24
7478.704846451631
 34
0.0
 50
90.0
100
AcDbRotatedDimension
1001
ACAD
1000
DSTYLE
1002
{
1070
    75
1070
     1
1002
}
  0
LINE
  5
206F
330
1A
100
AcDbEntity
  8
部品1
100
AcDbLine
 10
2828.084791275924
 20
8244.504846451631
 30
0.0
 11
2828.084791275924
 21
6108.50484645163
 31
0.0
  0
LINE
  5
2070
330
1A
100
AcDbEntity
  8
部品1
100
AcDbLine
 10
2978.084791275924
 20
8084.804846451635
 30
0.0
 11
2978.084791275924
 21
7521.204846451631
 31
0.0
  0
LINE
  5
2071
330
1A
100
AcDbEntity
  8
部品1
100
AcDbLine
 10
3038.084791275924
 20
8084.804846451635
 30
0.0
 11
3038.084791275924
 21
7521.204846451631
 31
0.0
  0
LINE
  5
2072
330
1A
100
AcDbEntity
  8
部品1
100
AcDbLine
 10
2758.084791275924
 20
8384.504846451632
 30
0.0
 11
2758.084791275924
 21
5994.504846451631
 31
0.0
  0
LINE
  5
2073
330
1A
100
AcDbEntity
  8
点線
 48
6.0
100
AcDbLine
 10
3038.084791275924
 20
6892.604846451631
 30
0.0
 11
3038.084791275924
 21
6827.604846451632
 31
0.0
  0
LINE
  5
2074
330
1A
100
AcDbEntity
  8
点線
 48
6.0
100
AcDbLine
 10
2978.084791275924
 20
6892.604846451631
 30
0.0
 11
2978.084791275924
 21
6827.604846451632
 31
0.0
  0
LINE
  5
2075
330
1A
100
AcDbEntity
  8
点線
 48
6.0
100
AcDbLine
 10
2788.084791275924
 20
6892.604846451631
 30
0.0
 11
2788.084791275924
 21
6827.604846451632
 31
0.0
  0
DIMENSION
  5
2076
330
1A
100
AcDbEntity
  8
寸法
100
AcDbDimension
  2
*D5
 10
2184.415140076318
 20
6850.104846451632
 30
0.0
 11
2084.403329052696
 21
7164.404846451633
 31
0.0
 70
    32
 71
     5
 42
628.5999999999994
  3
物置仕様図40
100
AcDbAlignedDimension
 13
2758.084791275924
 23
7478.704846451631
 33
0.0
 14
2758.084791275924
 24
6850.104846451632
 34
0.0
 50
90.0
100
AcDbRotatedDimension
1001
ACAD
1000
DSTYLE
1002
{
1070
    75
1070
     1
1002
}
  0
DIMENSION
  5
2077
330
1A
100
AcDbEntity
  8
寸法
100
AcDbDimension
  2
*D6
 10
2184.415140076318
 20
5984.504846451631
 30
0.0
 11
2024.403329052695
 21
6103.004846451631
 31
0.0
 70
    32
 71
     5
 42
236.9999999999991
  3
物置仕様図40
100
AcDbAlignedDimension
 13
2758.084791275924
 23
6221.50484645163
 33
0.0
 14
2768.084791275924
 24
5984.504846451631
 34
0.0
 50
90.0
100
AcDbRotatedDimension
1001
ACAD
1000
DSTYLE
1002
{
1070
    75
1070
     1
1002
}
  0
DIMENSION
  5
2078
330
1A
100
AcDbEntity
  8
寸法
100
AcDbDimension
  2
*D7
 10
2184.415140076318
 20
6221.50484645163
 30
0.0
 11
2084.403329052696
 21
6535.804846451632
 31
0.0
 70
    32
 71
     5
 42
628.6000000000012
  3
物置仕様図40
100
AcDbAlignedDimension
 13
2758.084791275924
 23
6850.104846451632
 33
0.0
 14
2758.084791275924
 24
6221.50484645163
 34
0.0
 50
90.0
100
AcDbRotatedDimension
1001
ACAD
1000
DSTYLE
1002
{
1070
    75
1070
     1
1002
}
  0
LINE
  5
2079
330
1A
100
AcDbEntity
  8
部品1
100
AcDbLine
 10
2978.084791275924
 20
6827.604846451632
 30
0.0
 11
2978.084791275927
 21
6264.004846451633
 31
0.0
  0
LINE
  5
207A
330
1A
100
AcDbEntity
  8
部品1
100
AcDbLine
 10
3038.084791275924
 20
6827.604846451632
 30
0.0
 11
3038.084791275927
 21
6264.004846451633
 31
0.0
  0
LINE
  5
207B
330
1A
100
AcDbEntity
  8
点線
 48
6.0
100
AcDbLine
 10
2828.084791275924
 20
6199.004846451631
 30
0.0
 11
2788.084791275924
 21
6199.004846451631
 31
0.0
  0
LINE
  5
207C
330
1A
100
AcDbEntity
  8
点線
 48
6.0
100
AcDbLine
 10
2828.084791275924
 20
6244.004846451631
 30
0.0
 11
2788.084791275924
 21
6244.004846451631
 31
0.0
  0
LINE
  5
207D
330
1A
100
AcDbEntity
  8
点線
 48
6.0
100
AcDbLine
 10
2828.084791275924
 20
6264.004846451631
 30
0.0
 11
2788.084791275924
 21
6264.004846451631
 31
0.0
  0
LINE
  5
207E
330
1A
100
AcDbEntity
  8
部品1
100
AcDbLine
 10
2785.584791275924
 20
6004.004846451631
 30
0.0
 11
2806.584791275924
 21
6004.004846451631
 31
0.0
  0
LINE
  5
207F
330
1A
100
AcDbEntity
  8
部品1
100
AcDbLine
 10
2780.584791275924
 20
5999.004846451631
 30
0.0
 11
2780.584791275924
 21
5984.504846451631
 31
0.0
  0
ARC
  5
2080
330
1A
100
AcDbEntity
  8
部品1
100
AcDbCircle
 10
2785.584791275924
 20
5999.004846451631
 30
0.0
 40
5.0
100
AcDbArc
 50
90.0
 51
180.0
  0
LINE
  5
2081
330
1A
100
AcDbEntity
  8
部品1
100
AcDbLine
 10
2806.584791275931
 20
6108.504846451631
 30
0.0
 11
2806.584791275924
 21
6004.004846451631
 31
0.0
  0
ARC
  5
2082
330
1A
100
AcDbEntity
  8
部品1
100
AcDbCircle
 10
2768.084791275924
 20
5994.504846451631
 30
0.0
 40
10.0
100
AcDbArc
 50
180.0
 51
270.0
  0
LINE
  5
2083
330
1A
100
AcDbEntity
  8
点線
 48
6.0
100
AcDbLine
 10
2788.084791275924
 20
6264.00484645163
 30
0.0
 11
2788.084791275924
 21
6199.00484645163
 31
0.0
  0
LINE
  5
2084
330
1A
100
AcDbEntity
  8
部品1
100
AcDbLine
 10
2978.084791275929
 20
6199.004846451632
 30
0.0
 11
2978.084791275925
 21
6143.004846451631
 31
0.0
  0
LINE
  5
2085
330
1A
100
AcDbEntity
  8
部品1
100
AcDbLine
 10
3038.08479127593
 20
6199.004846451632
 30
0.0
 11
3038.084791275926
 21
6143.004846451631
 31
0.0
  0
LINE
  5
2086
330
1A
100
AcDbEntity
  8
部品1
100
AcDbLine
 10
2978.084791275925
 20
6143.004846451631
 30
0.0
 11
3038.084791275926
 21
6143.004846451631
 31
0.0
  0
LINE
  5
2087
330
1A
100
AcDbEntity
  8
点線
 48
6.0
100
AcDbLine
 10
2978.084791275927
 20
6264.004846451631
 30
0.0
 11
2978.084791275929
 21
6199.004846451632
 31
0.0
  0
LINE
  5
2088
330
1A
100
AcDbEntity
  8
点線
 48
6.0
100
AcDbLine
 10
3038.084791275927
 20
6264.004846451633
 30
0.0
 11
3038.08479127593
 21
6199.004846451631
 31
0.0
  0
LINE
  5
2089
330
1A
100
AcDbEntity
  8
点線
 48
6.0
100
AcDbLine
 10
2828.084791275924
 20
6827.604846451632
 30
0.0
 11
2788.084791275924
 21
6827.604846451632
 31
0.0
  0
LINE
  5
208A
330
1A
100
AcDbEntity
  8
部品1
100
AcDbLine
 10
2978.084791275924
 20
7456.204846451632
 30
0.0
 11
2978.084791275924
 21
6892.604846451631
 31
0.0
  0
LINE
  5
208B
330
1A
100
AcDbEntity
  8
部品1
100
AcDbLine
 10
3038.084791275924
 20
7456.204846451632
 30
0.0
 11
3038.084791275924
 21
6892.604846451631
 31
0.0
  0
LINE
  5
208C
330
1A
100
AcDbEntity
  8
点線
 48
6.0
100
AcDbLine
 10
2828.084791275924
 20
6872.604846451633
 30
0.0
 11
2788.084791275924
 21
6872.604846451633
 31
0.0
  0
LINE
  5
208D
330
1A
100
AcDbEntity
  8
点線
 48
6.0
100
AcDbLine
 10
2828.084791275924
 20
6892.604846451631
 30
0.0
 11
2788.084791275924
 21
6892.604846451631
 31
0.0
  0
LINE
  5
208E
330
1A
100
AcDbEntity
  8
点線
 48
6.0
100
AcDbLine
 10
2828.084791275924
 20
7456.204846451632
 30
0.0
 11
2788.084791275924
 21
7456.204846451632
 31
0.0
  0
LINE
  5
208F
330
1A
100
AcDbEntity
  8
点線
 48
6.0
100
AcDbLine
 10
2828.084791275924
 20
7501.204846451632
 30
0.0
 11
2788.084791275924
 21
7501.204846451632
 31
0.0
  0
LINE
  5
2090
330
1A
100
AcDbEntity
  8
点線
 48
6.0
100
AcDbLine
 10
2828.084791275924
 20
7521.204846451631
 30
0.0
 11
2788.084791275924
 21
7521.204846451631
 31
0.0
  0
LINE
  5
2091
330
1A
100
AcDbEntity
  8
点線
 48
6.0
100
AcDbLine
 10
2788.084791275924
 20
7521.204846451633
 30
0.0
 11
2788.084791275924
 21
7456.204846451631
 31
0.0
  0
LINE
  5
2092
330
1A
100
AcDbEntity
  8
点線
 48
6.0
100
AcDbLine
 10
2978.084791275924
 20
7521.204846451631
 30
0.0
 11
2978.084791275924
 21
7456.204846451632
 31
0.0
  0
LINE
  5
2093
330
1A
100
AcDbEntity
  8
点線
 48
6.0
100
AcDbLine
 10
3038.084791275924
 20
7521.204846451631
 30
0.0
 11
3038.084791275924
 21
7456.204846451632
 31
0.0
  0
DIMENSION
  5
2094
330
1A
100
AcDbEntity
  8
寸法
100
AcDbDimension
  2
*D8
 10
2184.415140076318
 20
8384.504846451632
 30
0.0
 11
2024.403329052697
 21
8621.036897982405
 31
0.0
 70
   160
 71
     5
 42
277.1999999999953
  3
物置仕様図40
100
AcDbAlignedDimension
 13
2758.084791275924
 23
8661.704846451627
 33
0.0
 14
2758.084791275924
 24
8384.504846451632
 34
0.0
 50
90.0
100
AcDbRotatedDimension
1001
ACAD
1000
DSTYLE
1002
{
1070
    75
1070
     1
1002
}
  0
DIMENSION
  5
2095
330
1A
100
AcDbEntity
  8
寸法
100
AcDbDimension
  2
*D9
 10
2184.415140076318
 20
8661.704846451627
 30
0.0
 11
2024.415140076319
 21
9070.485366797425
 31
0.0
 70
   160
 71
     5
 42
628.6000000000021
  3
物置仕様図40
100
AcDbAlignedDimension
 13
2758.084791275924
 23
9290.304846451629
 33
0.0
 14
2758.084791275924
 24
8661.704846451627
 34
0.0
 50
90.0
100
AcDbRotatedDimension
1001
ACAD
1000
DSTYLE
1002
{
1070
    75
1070
     1
1002
}
  0
LINE
  5
2096
330
1A
100
AcDbEntity
  8
部品1
100
AcDbLine
 10
3038.084791275924
 20
9247.804846451632
 30
0.0
 11
3038.084791275924
 21
8684.204846451628
 31
0.0
  0
LINE
  5
2097
330
1A
100
AcDbEntity
  8
部品1
100
AcDbLine
 10
2978.084791275924
 20
9247.804846451632
 30
0.0
 11
2978.084791275924
 21
8684.204846451628
 31
0.0
  0
DIMENSION
  5
2098
330
1A
100
AcDbEntity
  8
寸法
100
AcDbDimension
  2
*D10
 10
2184.415140076318
 20
8107.304846451633
 30
0.0
 11
2024.403329052697
 21
8160.532815521978
 31
0.0
 70
   160
 71
     5
 42
277.1999999999971
  3
物置仕様図40
100
AcDbAlignedDimension
 13
2758.084791275924
 23
8384.504846451632
 33
0.0
 14
2758.084791275924
 24
8107.304846451633
 34
0.0
 50
90.0
100
AcDbRotatedDimension
1001
ACAD
1000
DSTYLE
1002
{
1070
    75
1070
     1
1002
}
  0
LINE
  5
2099
330
1A
100
AcDbEntity
  8
点線
 48
6.0
100
AcDbLine
 10
2828.084791275924
 20
8084.804846451634
 30
0.0
 11
2788.084791275924
 21
8084.804846451634
 31
0.0
  0
LINE
  5
209A
330
1A
100
AcDbEntity
  8
点線
 48
6.0
100
AcDbLine
 10
2828.084791275924
 20
8129.804846451634
 30
0.0
 11
2788.084791275924
 21
8129.804846451634
 31
0.0
  0
LINE
  5
209B
330
1A
100
AcDbEntity
  8
点線
 48
6.0
100
AcDbLine
 10
2828.084791275924
 20
8149.804846451635
 30
0.0
 11
2788.084791275924
 21
8149.804846451635
 31
0.0
  0
LINE
  5
209C
330
1A
100
AcDbEntity
  8
点線
 48
6.0
100
AcDbLine
 10
2788.084791275924
 20
8149.804846451635
 30
0.0
 11
2788.084791275924
 21
8084.804846451634
 31
0.0
  0
LINE
  5
209D
330
1A
100
AcDbEntity
  8
点線
 48
6.0
100
AcDbLine
 10
2978.084791275924
 20
8149.804846451633
 30
0.0
 11
2978.084791275924
 21
8084.804846451635
 31
0.0
  0
LINE
  5
209E
330
1A
100
AcDbEntity
  8
部品1
100
AcDbLine
 10
2978.084791275924
 20
8244.504846451631
 30
0.0
 11
2978.084791275924
 21
8149.804846451633
 31
0.0
  0
LINE
  5
209F
330
1A
100
AcDbEntity
  8
点線
 48
6.0
100
AcDbLine
 10
3038.084791275924
 20
8149.804846451633
 30
0.0
 11
3038.084791275924
 21
8084.804846451635
 31
0.0
  0
LINE
  5
20A0
330
1A
100
AcDbEntity
  8
部品1
100
AcDbLine
 10
3038.084791275924
 20
8244.504846451631
 30
0.0
 11
3038.084791275924
 21
8149.804846451633
 31
0.0
  0
LINE
  5
20A1
330
1A
100
AcDbEntity
  8
点線
 48
6.0
100
AcDbLine
 10
2828.084791275924
 20
8619.204846451628
 30
0.0
 11
2788.084791275924
 21
8619.204846451628
 31
0.0
  0
LINE
  5
20A2
330
1A
100
AcDbEntity
  8
点線
 48
6.0
100
AcDbLine
 10
2828.084791275924
 20
8639.204846451628
 30
0.0
 11
2788.084791275924
 21
8639.204846451628
 31
0.0
  0
LINE
  5
20A3
330
1A
100
AcDbEntity
  8
点線
 48
6.0
100
AcDbLine
 10
2828.084791275924
 20
8684.204846451628
 30
0.0
 11
2788.084791275924
 21
8684.204846451628
 31
0.0
  0
LINE
  5
20A4
330
1A
100
AcDbEntity
  8
点線
 48
6.0
100
AcDbLine
 10
2788.084791275924
 20
8684.204846451628
 30
0.0
 11
2788.084791275924
 21
8619.204846451628
 31
0.0
  0
LINE
  5
20A5
330
1A
100
AcDbEntity
  8
点線
 48
6.0
100
AcDbLine
 10
2978.084791275924
 20
8684.204846451628
 30
0.0
 11
2978.084791275924
 21
8619.204846451628
 31
0.0
  0
LINE
  5
20A6
330
1A
100
AcDbEntity
  8
部品1
100
AcDbLine
 10
2978.084791275924
 20
8619.204846451628
 30
0.0
 11
2978.084791275924
 21
8524.504846451632
 31
0.0
  0
LINE
  5
20A7
330
1A
100
AcDbEntity
  8
点線
 48
6.0
100
AcDbLine
 10
3038.084791275924
 20
8684.204846451628
 30
0.0
 11
3038.084791275924
 21
8619.204846451628
 31
0.0
  0
LINE
  5
20A8
330
1A
100
AcDbEntity
  8
部品1
100
AcDbLine
 10
3038.084791275924
 20
8619.204846451628
 30
0.0
 11
3038.084791275924
 21
8524.504846451632
 31
0.0
  0
LINE
  5
20A9
330
1A
100
AcDbEntity
  8
点線
 48
6.0
100
AcDbLine
 10
2828.084791275924
 20
9247.80484645163
 30
0.0
 11
2788.084791275924
 21
9247.80484645163
 31
0.0
  0
LINE
  5
20AA
330
1A
100
AcDbEntity
  8
点線
 48
6.0
100
AcDbLine
 10
2828.084791275924
 20
9267.80484645163
 30
0.0
 11
2788.084791275924
 21
9267.80484645163
 31
0.0
  0
LINE
  5
20AB
330
1A
100
AcDbEntity
  8
点線
 48
6.0
100
AcDbLine
 10
2828.084791275924
 20
9312.804846451632
 30
0.0
 11
2788.084791275924
 21
9312.804846451632
 31
0.0
  0
LINE
  5
20AC
330
1A
100
AcDbEntity
  8
点線
 48
6.0
100
AcDbLine
 10
2788.084791275924
 20
9312.804846451632
 30
0.0
 11
2788.084791275924
 21
9247.804846451632
 31
0.0
  0
LINE
  5
20AD
330
1A
100
AcDbEntity
  8
点線
 48
6.0
100
AcDbLine
 10
2978.084791275924
 20
9312.804846451632
 30
0.0
 11
2978.084791275924
 21
9247.80484645163
 31
0.0
  0
LINE
  5
20AE
330
1A
100
AcDbEntity
  8
点線
 48
6.0
100
AcDbLine
 10
3038.084791275924
 20
9312.804846451632
 30
0.0
 11
3038.084791275924
 21
9247.80484645163
 31
0.0
  0
DIMENSION
  5
20AF
330
1A
100
AcDbEntity
  8
寸法
100
AcDbDimension
  2
*D11
 10
2184.415140076318
 20
10547.50484645163
 30
0.0
 11
2024.403329052695
 21
10666.00484645163
 31
0.0
 70
    32
 71
     5
 42
237.0
  3
物置仕様図40
100
AcDbAlignedDimension
 13
2768.084791275924
 23
10784.50484645163
 33
0.0
 14
2758.084791275924
 24
10547.50484645163
 34
0.0
 50
90.0
100
AcDbRotatedDimension
  0
LINE
  5
20B0
330
1A
100
AcDbEntity
  8
部品1
100
AcDbLine
 10
3038.084791275924
 20
10626.00484645163
 30
0.0
 11
3038.084791275924
 21
10570.00484645163
 31
0.0
  0
LINE
  5
20B1
330
1A
100
AcDbEntity
  8
部品1
100
AcDbLine
 10
2978.084791275924
 20
10626.00484645163
 30
0.0
 11
2978.084791275924
 21
10570.00484645163
 31
0.0
  0
DIMENSION
  5
20B2
330
1A
100
AcDbEntity
  8
寸法
100
AcDbDimension
  2
*D12
 10
2184.415140076318
 20
9918.904846451631
 30
0.0
 11
2084.403329052694
 21
10233.20484645163
 31
0.0
 70
    32
 71
     5
 42
628.6000000000004
  3
物置仕様図40
100
AcDbAlignedDimension
 13
2758.084791275924
 23
10547.50484645163
 33
0.0
 14
2758.084791275924
 24
9918.904846451631
 34
0.0
 50
90.0
100
AcDbRotatedDimension
1001
ACAD
1000
DSTYLE
1002
{
1070
    75
1070
     1
1002
}
  0
LINE
  5
20B3
330
1A
100
AcDbEntity
  8
部品1
100
AcDbLine
 10
3038.084791275924
 20
10505.00484645163
 30
0.0
 11
3038.084791275924
 21
9941.40484645163
 31
0.0
  0
LINE
  5
20B4
330
1A
100
AcDbEntity
  8
部品1
100
AcDbLine
 10
2978.084791275924
 20
10505.00484645163
 30
0.0
 11
2978.084791275924
 21
9941.40484645163
 31
0.0
  0
LINE
  5
20B5
330
1A
100
AcDbEntity
  8
点線
 48
6.0
100
AcDbLine
 10
2828.084791275924
 20
9876.404846451631
 30
0.0
 11
2788.084791275924
 21
9876.404846451631
 31
0.0
  0
LINE
  5
20B6
330
1A
100
AcDbEntity
  8
点線
 48
6.0
100
AcDbLine
 10
2828.084791275924
 20
9896.40484645163
 30
0.0
 11
2788.084791275924
 21
9896.40484645163
 31
0.0
  0
LINE
  5
20B7
330
1A
100
AcDbEntity
  8
点線
 48
6.0
100
AcDbLine
 10
2828.084791275924
 20
9941.404846451632
 30
0.0
 11
2788.084791275924
 21
9941.404846451632
 31
0.0
  0
LINE
  5
20B8
330
1A
100
AcDbEntity
  8
点線
 48
6.0
100
AcDbLine
 10
2788.084791275924
 20
9941.404846451632
 30
0.0
 11
2788.084791275924
 21
9876.404846451631
 31
0.0
  0
LINE
  5
20B9
330
1A
100
AcDbEntity
  8
点線
 48
6.0
100
AcDbLine
 10
3038.084791275924
 20
9941.404846451632
 30
0.0
 11
3038.084791275924
 21
9876.404846451631
 31
0.0
  0
LINE
  5
20BA
330
1A
100
AcDbEntity
  8
点線
 48
6.0
100
AcDbLine
 10
2978.084791275924
 20
9941.40484645163
 30
0.0
 11
2978.084791275924
 21
9876.404846451631
 31
0.0
  0
LINE
  5
20BB
330
1A
100
AcDbEntity
  8
点線
 48
6.0
100
AcDbLine
 10
2828.084791275924
 20
10505.00484645163
 30
0.0
 11
2788.084791275924
 21
10505.00484645163
 31
0.0
  0
LINE
  5
20BC
330
1A
100
AcDbEntity
  8
点線
 48
6.0
100
AcDbLine
 10
2828.084791275924
 20
10525.00484645163
 30
0.0
 11
2788.084791275924
 21
10525.00484645163
 31
0.0
  0
LINE
  5
20BD
330
1A
100
AcDbEntity
  8
点線
 48
6.0
100
AcDbLine
 10
2828.084791275924
 20
10570.00484645163
 30
0.0
 11
2788.084791275924
 21
10570.00484645163
 31
0.0
  0
LINE
  5
20BE
330
1A
100
AcDbEntity
  8
点線
 48
6.0
100
AcDbLine
 10
2788.084791275924
 20
10570.00484645163
 30
0.0
 11
2788.084791275924
 21
10505.00484645163
 31
0.0
  0
LINE
  5
20BF
330
1A
100
AcDbEntity
  8
点線
 48
6.0
100
AcDbLine
 10
2978.084791275924
 20
10570.00484645163
 30
0.0
 11
2978.084791275924
 21
10505.00484645163
 31
0.0
  0
LINE
  5
20C0
330
1A
100
AcDbEntity
  8
点線
 48
6.0
100
AcDbLine
 10
3038.084791275924
 20
10570.00484645163
 30
0.0
 11
3038.084791275924
 21
10505.00484645163
 31
0.0
  0
ARC
  5
20C1
330
1A
100
AcDbEntity
  8
部品1
100
AcDbCircle
 10
2768.084791275924
 20
10774.50484645163
 30
0.0
 40
10.0
100
AcDbArc
 50
90.0
 51
180.0
  0
LINE
  5
20C2
330
1A
100
AcDbEntity
  8
部品1
100
AcDbLine
 10
2806.584791275924
 20
10765.00484645163
 30
0.0
 11
2785.584791275924
 21
10765.00484645163
 31
0.0
  0
LINE
  5
20C3
330
1A
100
AcDbEntity
  8
部品1
100
AcDbLine
 10
2806.584791275924
 20
10765.00484645163
 30
0.0
 11
2806.584791275924
 21
10660.50484645163
 31
0.0
  0
ARC
  5
20C4
330
1A
100
AcDbEntity
  8
部品1
100
AcDbCircle
 10
2785.584791275924
 20
10770.00484645163
 30
0.0
 40
5.0
100
AcDbArc
 50
180.0
 51
270.0
  0
LINE
  5
20C5
330
1A
100
AcDbEntity
  8
部品1
100
AcDbLine
 10
2780.584791275924
 20
10784.50484645163
 30
0.0
 11
2780.584791275924
 21
10770.00484645163
 31
0.0
  0
LINE
  5
20C6
330
1A
100
AcDbEntity
  8
部品1
100
AcDbLine
 10
3038.084791275924
 20
10626.00484645163
 30
0.0
 11
2978.084791275924
 21
10626.00484645163
 31
0.0
  0
LINE
  5
20C7
330
1A
100
AcDbEntity
  8
点線
 48
50.0
100
AcDbLine
 10
7738.084791275923
 20
9312.804846451632
 30
0.0
 11
7738.084791275923
 21
9876.404846451631
 31
0.0
  0
LINE
  5
20C8
330
1A
100
AcDbEntity
  8
点線
 48
50.0
100
AcDbLine
 10
7798.084791275922
 20
9312.804846451632
 30
0.0
 11
7798.084791275922
 21
9876.404846451631
 31
0.0
  0
LINE
  5
20C9
330
1A
100
AcDbEntity
  8
部品1
100
AcDbLine
 10
5043.084791275919
 20
10257.05964479872
 30
0.0
 11
5043.084791275919
 21
9528.002196892039
 31
0.0
  0
LINE
  5
20CA
330
1A
100
AcDbEntity
  8
部品1
100
AcDbLine
 10
5015.084791275921
 20
10249.55706741065
 30
0.0
 11
5015.084791275921
 21
9620.807778956766
 31
0.0
  0
LINE
  5
20CB
330
1A
100
AcDbEntity
  8
部品1
100
AcDbLine
 10
5088.08479127592
 20
10660.50484645163
 30
0.0
 11
5088.08479127592
 21
9378.850368573726
 31
0.0
  0
LINE
  5
20CC
330
1A
100
AcDbEntity
  8
部品1
100
AcDbLine
 10
5225.08479127592
 20
10660.50484645163
 30
0.0
 11
5225.084791275918
 21
8924.765913471299
 31
0.0
  0
LINE
  5
20CD
330
1A
100
AcDbEntity
  8
部品1
100
AcDbLine
 10
5259.58479127592
 20
10660.50484645163
 30
0.0
 11
5259.584791275922
 21
8810.416178427249
 31
0.0
  0
LINE
  5
20CE
330
1A
100
AcDbEntity
  8
部品1
100
AcDbLine
 10
5516.584791275924
 20
10660.50484645163
 30
0.0
 11
5516.584791275922
 21
8524.504846451632
 31
0.0
  0
LINE
  5
20CF
330
1A
100
AcDbEntity
  8
部品1
100
AcDbLine
 10
5551.084791275924
 20
10660.50484645163
 30
0.0
 11
5551.084791275924
 21
8524.50484645163
 31
0.0
  0
LINE
  5
20D0
330
1A
100
AcDbEntity
  8
部品1
100
AcDbLine
 10
5688.084791275923
 20
10660.50484645163
 30
0.0
 11
5688.084791275923
 21
8524.504846451632
 31
0.0
  0
LINE
  5
20D1
330
1A
100
AcDbEntity
  8
部品1
100
AcDbLine
 10
5733.084791275924
 20
10660.50484645163
 30
0.0
 11
5733.084791275924
 21
8524.504846451632
 31
0.0
  0
LINE
  5
20D2
330
1A
100
AcDbEntity
  8
部品1
100
AcDbLine
 10
5761.084791275924
 20
10660.50484645163
 30
0.0
 11
5761.084791275924
 21
8524.504846451632
 31
0.0
  0
LINE
  5
20D3
330
1A
100
AcDbEntity
  8
部品1
100
AcDbLine
 10
5806.084791275924
 20
10660.50484645163
 30
0.0
 11
5806.084791275924
 21
8524.504846451632
 31
0.0
  0
LINE
  5
20D4
330
1A
100
AcDbEntity
  8
部品1
100
AcDbLine
 10
6226.084791275924
 20
10660.50484645163
 30
0.0
 11
6226.084791275924
 21
8524.504846451632
 31
0.0
  0
LINE
  5
20D5
330
1A
100
AcDbEntity
  8
部品1
100
AcDbLine
 10
6181.084791275924
 20
10660.50484645163
 30
0.0
 11
6181.084791275924
 21
8524.504846451632
 31
0.0
  0
LINE
  5
20D6
330
1A
100
AcDbEntity
  8
部品1
100
AcDbLine
 10
6153.084791275923
 20
10660.50484645163
 30
0.0
 11
6153.084791275923
 21
8524.504846451632
 31
0.0
  0
LINE
  5
20D7
330
1A
100
AcDbEntity
  8
部品1
100
AcDbLine
 10
6108.084791275924
 20
10660.50484645163
 30
0.0
 11
6108.084791275924
 21
8524.504846451632
 31
0.0
  0
LINE
  5
20D8
330
1A
100
AcDbEntity
  8
部品1
100
AcDbLine
 10
5971.084791275924
 20
10660.50484645163
 30
0.0
 11
5971.084791275924
 21
8524.50484645163
 31
0.0
  0
LINE
  5
20D9
330
1A
100
AcDbEntity
  8
部品1
100
AcDbLine
 10
5936.584791275923
 20
10660.50484645163
 30
0.0
 11
5936.584791275922
 21
8524.504846451632
 31
0.0
  0
LINE
  5
20DA
330
1A
100
AcDbEntity
  8
部品1
100
AcDbLine
 10
5418.084791275918
 20
10660.50484645163
 30
0.0
 11
5418.084791275918
 21
8524.504846451632
 31
0.0
  0
LINE
  5
20DB
330
1A
100
AcDbEntity
  8
部品1
100
AcDbLine
 10
5358.084791275918
 20
10660.50484645163
 30
0.0
 11
5358.084791275921
 21
8524.504846451632
 31
0.0
  0
LINE
  5
20DC
330
1A
100
AcDbEntity
  8
部品1
100
AcDbLine
 10
7726.084791275923
 20
10660.50484645163
 30
0.0
 11
7726.084791275923
 21
8524.504846451632
 31
0.0
  0
LINE
  5
20DD
330
1A
100
AcDbEntity
  8
部品1
100
AcDbLine
 10
7681.084791275925
 20
10660.50484645163
 30
0.0
 11
7681.084791275925
 21
8524.504846451632
 31
0.0
  0
LINE
  5
20DE
330
1A
100
AcDbEntity
  8
部品1
100
AcDbLine
 10
7653.084791275924
 20
10660.50484645163
 30
0.0
 11
7653.084791275924
 21
8524.504846451632
 31
0.0
  0
LINE
  5
20DF
330
1A
100
AcDbEntity
  8
部品1
100
AcDbLine
 10
7608.084791275924
 20
10660.50484645163
 30
0.0
 11
7608.084791275924
 21
8524.504846451632
 31
0.0
  0
LINE
  5
20E0
330
1A
100
AcDbEntity
  8
部品1
100
AcDbLine
 10
7146.084791275923
 20
10660.50484645163
 30
0.0
 11
7146.084791275923
 21
8524.504846451632
 31
0.0
  0
LINE
  5
20E1
330
1A
100
AcDbEntity
  8
部品1
100
AcDbLine
 10
7101.084791275923
 20
10660.50484645163
 30
0.0
 11
7101.084791275923
 21
8524.504846451632
 31
0.0
  0
LINE
  5
20E2
330
1A
100
AcDbEntity
  8
部品1
100
AcDbLine
 10
7073.084791275924
 20
10660.50484645163
 30
0.0
 11
7073.084791275924
 21
8524.504846451632
 31
0.0
  0
LINE
  5
20E3
330
1A
100
AcDbEntity
  8
部品1
100
AcDbLine
 10
7028.084791275924
 20
10660.50484645163
 30
0.0
 11
7028.084791275924
 21
8524.504846451632
 31
0.0
  0
LINE
  5
20E4
330
1A
100
AcDbEntity
  8
部品1
100
AcDbLine
 10
6646.084791275923
 20
10660.50484645163
 30
0.0
 11
6646.084791275923
 21
8524.504846451632
 31
0.0
  0
LINE
  5
20E5
330
1A
100
AcDbEntity
  8
部品1
100
AcDbLine
 10
6601.084791275923
 20
10660.50484645163
 30
0.0
 11
6601.084791275923
 21
8524.504846451632
 31
0.0
  0
LINE
  5
20E6
330
1A
100
AcDbEntity
  8
部品1
100
AcDbLine
 10
6573.084791275923
 20
10660.50484645163
 30
0.0
 11
6573.084791275923
 21
8524.504846451632
 31
0.0
  0
LINE
  5
20E7
330
1A
100
AcDbEntity
  8
部品1
100
AcDbLine
 10
6528.084791275924
 20
10660.50484645163
 30
0.0
 11
6528.084791275924
 21
8524.504846451632
 31
0.0
  0
LINE
  5
20E8
330
1A
100
AcDbEntity
  8
部品1
100
AcDbLine
 10
7391.084791275922
 20
8524.504846451632
 30
0.0
 11
7391.084791275922
 21
10660.50484645163
 31
0.0
  0
LINE
  5
20E9
330
1A
100
AcDbEntity
  8
部品1
100
AcDbLine
 10
7356.584791275922
 20
8524.504846451632
 30
0.0
 11
7356.584791275922
 21
10660.50484645163
 31
0.0
  0
LINE
  5
20EA
330
1A
100
AcDbEntity
  8
部品1
100
AcDbLine
 10
6811.084791275924
 20
8524.504846451632
 30
0.0
 11
6811.084791275924
 21
10660.50484645163
 31
0.0
  0
LINE
  5
20EB
330
1A
100
AcDbEntity
  8
部品1
100
AcDbLine
 10
6776.584791275924
 20
8524.504846451632
 30
0.0
 11
6776.584791275924
 21
10660.50484645163
 31
0.0
  0
LINE
  5
20EC
330
1A
100
AcDbEntity
  8
部品1
100
AcDbLine
 10
6391.084791275924
 20
10660.50484645163
 30
0.0
 11
6391.084791275924
 21
8524.50484645163
 31
0.0
  0
LINE
  5
20ED
330
1A
100
AcDbEntity
  8
部品1
100
AcDbLine
 10
6356.584791275924
 20
10660.50484645163
 30
0.0
 11
6356.584791275921
 21
8524.504846451632
 31
0.0
  0
LINE
  5
20EE
330
1A
100
AcDbEntity
  8
部品1
100
AcDbLine
 10
7973.084791275922
 20
8384.504846451632
 30
0.0
 11
7973.084791275922
 21
10765.00484645163
 31
0.0
  0
LINE
  5
20EF
330
1A
100
AcDbEntity
  8
部品1
100
AcDbLine
 10
7948.084791275926
 20
8524.504846451632
 30
0.0
 11
7948.084791275924
 21
10660.50484645163
 31
0.0
  0
LINE
  5
20F0
330
1A
100
AcDbEntity
  8
部品1
100
AcDbLine
 10
8018.084791275922
 20
8384.504846451632
 30
0.0
 11
8018.084791275922
 21
10774.50484645163
 31
0.0
  0
LINE
  5
20F1
330
1A
100
AcDbEntity
  8
点線
 48
50.0
100
AcDbLine
 10
5648.547572309287
 20
7521.204846451631
 30
0.0
 11
7988.084791275922
 21
7521.204846451635
 31
0.0
  0
LINE
  5
20F2
330
1A
100
AcDbEntity
  8
点線
 48
50.0
100
AcDbLine
 10
5670.08479127592
 20
7456.204846451631
 30
0.0
 11
7988.084791275922
 21
7456.204846451632
 31
0.0
  0
LINE
  5
20F3
330
1A
100
AcDbEntity
  8
点線
 48
50.0
100
AcDbLine
 10
5654.581692106193
 20
7501.204846451635
 30
0.0
 11
7988.084791275922
 21
7501.204846451632
 31
0.0
  0
LINE
  5
20F4
330
1A
100
AcDbEntity
  8
点線
 48
50.0
100
AcDbLine
 10
5458.89518709259
 20
8149.804846451628
 30
0.0
 11
7988.084791275922
 21
8149.804846451626
 31
0.0
  0
LINE
  5
20F5
330
1A
100
AcDbEntity
  8
点線
 48
50.0
100
AcDbLine
 10
5478.506076432528
 20
8084.804846451634
 30
0.0
 11
7988.084791275922
 21
8084.804846451634
 31
0.0
  0
LINE
  5
20F6
330
1A
100
AcDbEntity
  8
点線
 48
50.0
100
AcDbLine
 10
5464.929306889493
 20
8129.804846451632
 30
0.0
 11
7988.084791275922
 21
8129.804846451635
 31
0.0
  0
LINE
  5
20F7
330
1A
100
AcDbEntity
  8
点線
 48
50.0
100
AcDbLine
 10
7988.08479127592
 20
8619.204846451628
 30
0.0
 11
5317.274395459247
 21
8619.204846451628
 31
0.0
  0
LINE
  5
20F8
330
1A
100
AcDbEntity
  8
点線
 48
50.0
100
AcDbLine
 10
7988.084791275922
 20
9247.80484645163
 30
0.0
 11
5127.622010242549
 21
9247.804846451629
 31
0.0
  0
LINE
  5
20F9
330
1A
100
AcDbEntity
  8
点線
 48
50.0
100
AcDbLine
 10
7988.084791275922
 20
8684.204846451631
 30
0.0
 11
5297.663506119313
 21
8684.204846451619
 31
0.0
  0
LINE
  5
20FA
330
1A
100
AcDbEntity
  8
点線
 48
50.0
100
AcDbLine
 10
7988.084791275922
 20
8639.204846451628
 30
0.0
 11
5311.240275662343
 21
8639.204846451626
 31
0.0
  0
LINE
  5
20FB
330
1A
100
AcDbEntity
  8
点線
 48
50.0
100
AcDbLine
 10
7988.084791275922
 20
9267.80484645163
 30
0.0
 11
5121.587890445642
 21
9267.804846451632
 31
0.0
  0
LINE
  5
20FC
330
1A
100
AcDbEntity
  8
点線
 48
50.0
100
AcDbLine
 10
7988.084791275922
 20
9312.804846451632
 30
0.0
 11
5108.01112090261
 21
9312.804846451632
 31
0.0
  0
LINE
  5
20FD
330
1A
100
AcDbEntity
  8
部品1
100
AcDbLine
 10
5715.084791275922
 20
7300.66822733853
 30
0.0
 11
5715.084791275923
 21
8244.504846451631
 31
0.0
  0
LINE
  5
20FE
330
1A
100
AcDbEntity
  8
部品1
100
AcDbLine
 10
5670.08479127592
 20
7449.820055656857
 30
0.0
 11
5670.084791275924
 21
8244.504846451631
 31
0.0
  0
LINE
  5
20FF
330
1A
100
AcDbEntity
  8
部品1
100
AcDbLine
 10
5743.084791275922
 20
7207.862645273808
 30
0.0
 11
5743.084791275924
 21
8244.504846451631
 31
0.0
  0
LINE
  5
2100
330
1A
100
AcDbEntity
  8
部品1
100
AcDbLine
 10
5418.084791275918
 20
8084.804846451637
 30
0.0
 11
5418.084791275918
 21
7521.204846451631
 31
0.0
  0
LINE
  5
2101
330
1A
100
AcDbEntity
  8
部品1
100
AcDbLine
 10
5358.084791275918
 20
8084.804846451637
 30
0.0
 11
5358.084791275918
 21
7521.204846451631
 31
0.0
  0
LINE
  5
2102
330
1A
100
AcDbEntity
  8
点線
 48
6.0
100
AcDbLine
 10
5418.084791275918
 20
6892.60484645163
 30
0.0
 11
5418.084791275918
 21
6827.604846451632
 31
0.0
  0
LINE
  5
2103
330
1A
100
AcDbEntity
  8
点線
 48
6.0
100
AcDbLine
 10
5358.084791275918
 20
6892.604846451631
 30
0.0
 11
5358.084791275918
 21
6827.604846451632
 31
0.0
  0
LINE
  5
2104
330
1A
100
AcDbEntity
  8
部品1
100
AcDbLine
 10
5388.084791275922
 20
6827.604846451632
 30
0.0
 11
5388.084791275922
 21
6892.604846451631
 31
0.0
  0
LINE
  5
2105
330
1A
100
AcDbEntity
  8
部品1
100
AcDbLine
 10
5418.084791275918
 20
6827.604846451632
 30
0.0
 11
5418.084791275922
 21
6264.004846451631
 31
0.0
  0
LINE
  5
2106
330
1A
100
AcDbEntity
  8
部品1
100
AcDbLine
 10
5358.084791275918
 20
6827.604846451632
 30
0.0
 11
5358.084791275921
 21
6264.004846451631
 31
0.0
  0
LINE
  5
2107
330
1A
100
AcDbEntity
  8
部品1
100
AcDbLine
 10
5418.084791275922
 20
6199.004846451629
 30
0.0
 11
5418.084791275922
 21
6143.004846451631
 31
0.0
  0
LINE
  5
2108
330
1A
100
AcDbEntity
  8
部品1
100
AcDbLine
 10
5358.084791275921
 20
6199.004846451629
 30
0.0
 11
5358.084791275921
 21
6143.004846451631
 31
0.0
  0
LINE
  5
2109
330
1A
100
AcDbEntity
  8
部品1
100
AcDbLine
 10
5378.084791275922
 20
6108.504846451634
 30
0.0
 11
5378.084791275922
 21
5984.50484645163
 31
0.0
  0
LINE
  5
210A
330
1A
100
AcDbEntity
  8
部品1
100
AcDbLine
 10
5358.084791275921
 20
6143.004846451631
 30
0.0
 11
5418.084791275922
 21
6143.004846451631
 31
0.0
  0
LINE
  5
210B
330
1A
100
AcDbEntity
  8
点線
 48
6.0
100
AcDbLine
 10
5418.084791275922
 20
6264.004846451631
 30
0.0
 11
5418.084791275922
 21
6199.004846451632
 31
0.0
  0
LINE
  5
210C
330
1A
100
AcDbEntity
  8
点線
 48
6.0
100
AcDbLine
 10
5358.084791275921
 20
6264.00484645163
 30
0.0
 11
5358.084791275921
 21
6199.004846451629
 31
0.0
  0
LINE
  5
210D
330
1A
100
AcDbEntity
  8
部品1
100
AcDbLine
 10
5388.084791275922
 20
6199.004846451633
 30
0.0
 11
5388.084791275922
 21
6264.004846451628
 31
0.0
  0
LINE
  5
210E
330
1A
100
AcDbEntity
  8
部品1
100
AcDbLine
 10
5418.084791275918
 20
7456.204846451626
 30
0.0
 11
5418.084791275918
 21
6892.604846451631
 31
0.0
  0
LINE
  5
210F
330
1A
100
AcDbEntity
  8
部品1
100
AcDbLine
 10
5358.084791275918
 20
7456.204846451626
 30
0.0
 11
5358.084791275918
 21
6892.604846451631
 31
0.0
  0
LINE
  5
2110
330
1A
100
AcDbEntity
  8
点線
 48
6.0
100
AcDbLine
 10
5418.084791275918
 20
7521.204846451631
 30
0.0
 11
5418.084791275918
 21
7456.204846451626
 31
0.0
  0
LINE
  5
2111
330
1A
100
AcDbEntity
  8
点線
 48
6.0
100
AcDbLine
 10
5358.084791275918
 20
7521.204846451631
 30
0.0
 11
5358.084791275918
 21
7456.20484645163
 31
0.0
  0
LINE
  5
2112
330
1A
100
AcDbEntity
  8
部品1
100
AcDbLine
 10
5388.084791275922
 20
7456.20484645163
 30
0.0
 11
5388.084791275922
 21
7521.204846451631
 31
0.0
  0
SPLINE
  5
2113
330
1A
100
AcDbEntity
  8
部品1
 48
50.0
100
AcDbSpline
210
0.0
220
0.0
230
1.0
 70
     8
 71
     3
 72
    10
 73
     6
 74
     4
 42
0.0000000001
 43
0.0000000001
 44
0.0000000001
 40
0.0
 40
0.0
 40
0.0
 40
0.0
 40
147.8767566010009
 40
301.8091093202477
 40
466.5049223087739
 40
466.5049223087739
 40
466.5049223087739
 40
466.5049223087739
 10
3952.004471605149
 20
9057.232360646406
 30
0.0
 10
4028.886154099983
 20
9048.327926988568
 30
0.0
 10
4185.797846310109
 20
9030.154420529235
 30
0.0
 10
3862.984436365767
 20
8927.63383588989
 30
0.0
 10
4032.827056035141
 20
8908.998747177689
 30
0.0
 10
4120.617061242035
 20
8899.36645030038
 30
0.0
 11
3952.004471605149
 21
9057.232360646406
 31
0.0
 11
4094.842449913918
 21
9018.959039710077
 31
0.0
 11
3961.533121994744
 21
8941.992863350455
 31
0.0
 11
4120.617061242035
 21
8899.36645030038
 31
0.0
  0
LINE
  5
2114
330
1A
100
AcDbEntity
  8
点線
 48
6.0
100
AcDbLine
 10
5418.084791275918
 20
8149.804846451635
 30
0.0
 11
5418.084791275918
 21
8084.804846451637
 31
0.0
  0
LINE
  5
2115
330
1A
100
AcDbEntity
  8
点線
 48
6.0
100
AcDbLine
 10
5358.084791275918
 20
8149.804846451628
 30
0.0
 11
5358.084791275918
 21
8084.804846451637
 31
0.0
  0
LINE
  5
2116
330
1A
100
AcDbEntity
  8
部品1
100
AcDbLine
 10
5388.084791275923
 20
8084.804846451632
 30
0.0
 11
5388.084791275923
 21
8149.804846451635
 31
0.0
  0
LINE
  5
2117
330
1A
100
AcDbEntity
  8
部品1
100
AcDbLine
 10
5418.084791275918
 20
8244.504846451631
 30
0.0
 11
5418.084791275918
 21
8149.804846451628
 31
0.0
  0
LINE
  5
2118
330
1A
100
AcDbEntity
  8
部品1
100
AcDbLine
 10
5358.084791275918
 20
8244.504846451631
 30
0.0
 11
5358.084791275918
 21
8149.804846451628
 31
0.0
  0
LINE
  5
2119
330
1A
100
AcDbEntity
  8
部品1
100
AcDbLine
 10
5539.584791275926
 20
7882.360357779955
 30
0.0
 11
5539.584791275924
 21
8244.504846451631
 31
0.0
  0
LINE
  5
211A
330
1A
100
AcDbEntity
  8
部品1
100
AcDbLine
 10
5505.084791275923
 20
7996.710092823999
 30
0.0
 11
5505.084791275923
 21
8244.504846451631
 31
0.0
  0
LINE
  5
211B
330
1A
100
AcDbEntity
  8
点線
 48
6.0
100
AcDbLine
 10
5388.084791275922
 20
8619.204846451628
 30
0.0
 11
5388.084791275922
 21
8684.204846451619
 31
0.0
  0
LINE
  5
211C
330
1A
100
AcDbEntity
  8
点線
 48
6.0
100
AcDbLine
 10
5388.084791275922
 20
9247.804846451627
 30
0.0
 11
5388.084791275922
 21
9312.804846451632
 31
0.0
  0
LINE
  5
211D
330
1A
100
AcDbEntity
  8
点線
 48
50.0
100
AcDbLine
 10
7738.084791275922
 20
7521.204846451633
 30
0.0
 11
7738.084791275923
 21
8084.804846451635
 31
0.0
  0
LINE
  5
211E
330
1A
100
AcDbEntity
  8
点線
 48
50.0
100
AcDbLine
 10
7798.084791275922
 20
7521.204846451635
 30
0.0
 11
7798.084791275925
 21
8084.804846451634
 31
0.0
  0
LINE
  5
211F
330
1A
100
AcDbEntity
  8
部品1
100
AcDbLine
 10
5959.584791275927
 20
6490.276626809009
 30
0.0
 11
5959.584791275924
 21
8244.504846451631
 31
0.0
  0
LINE
  5
2120
330
1A
100
AcDbEntity
  8
部品1
100
AcDbLine
 10
5925.084791275925
 20
6604.626361853057
 30
0.0
 11
5925.084791275924
 21
8244.504846451631
 31
0.0
  0
LINE
  5
2121
330
1A
100
AcDbEntity
  8
部品1
100
AcDbLine
 10
5788.084791275922
 20
7058.710816955493
 30
0.0
 11
5788.084791275924
 21
8244.504846451631
 31
0.0
  0
LINE
  5
2122
330
1A
100
AcDbEntity
  8
部品1
100
AcDbLine
 10
6379.584791275926
 20
6108.504846451634
 30
0.0
 11
6379.584791275924
 21
8244.504846451631
 31
0.0
  0
LINE
  5
2123
330
1A
100
AcDbEntity
  8
部品1
100
AcDbLine
 10
6345.084791275926
 20
6108.504846451634
 30
0.0
 11
6345.084791275923
 21
8244.504846451631
 31
0.0
  0
LINE
  5
2124
330
1A
100
AcDbEntity
  8
部品1
100
AcDbLine
 10
6135.084791275918
 20
6108.504846451634
 30
0.0
 11
6135.084791275923
 21
8244.504846451631
 31
0.0
  0
LINE
  5
2125
330
1A
100
AcDbEntity
  8
部品1
100
AcDbLine
 10
6090.084791275915
 20
6108.504846451634
 30
0.0
 11
6090.084791275923
 21
8244.504846451631
 31
0.0
  0
LINE
  5
2126
330
1A
100
AcDbEntity
  8
部品1
100
AcDbLine
 10
6163.084791275919
 20
6108.504846451634
 30
0.0
 11
6163.084791275924
 21
8244.504846451631
 31
0.0
  0
LINE
  5
2127
330
1A
100
AcDbEntity
  8
部品1
100
AcDbLine
 10
6208.084791275918
 20
6108.504846451634
 30
0.0
 11
6208.084791275924
 21
8244.504846451631
 31
0.0
  0
LINE
  5
2128
330
1A
100
AcDbEntity
  8
部品1
100
AcDbLine
 10
8018.084791275922
 20
5994.50484645163
 30
0.0
 11
8018.084791275922
 21
8384.504846451632
 31
0.0
  0
LINE
  5
2129
330
1A
100
AcDbEntity
  8
部品1
100
AcDbLine
 10
7973.084791275924
 20
6004.004846451631
 30
0.0
 11
7973.084791275924
 21
8384.504846451632
 31
0.0
  0
LINE
  5
212A
330
1A
100
AcDbEntity
  8
部品1
100
AcDbLine
 10
7959.584791275924
 20
6108.504846451631
 30
0.0
 11
7959.584791275924
 21
8244.504846451631
 31
0.0
  0
LINE
  5
212B
330
1A
100
AcDbEntity
  8
部品1
100
AcDbLine
 10
7925.084791275924
 20
6108.504846451631
 30
0.0
 11
7925.084791275924
 21
8244.504846451631
 31
0.0
  0
LINE
  5
212C
330
1A
100
AcDbEntity
  8
部品1
100
AcDbLine
 10
7379.584791275924
 20
6108.504846451631
 30
0.0
 11
7379.584791275924
 21
8244.504846451631
 31
0.0
  0
LINE
  5
212D
330
1A
100
AcDbEntity
  8
部品1
100
AcDbLine
 10
7345.084791275924
 20
6108.504846451631
 30
0.0
 11
7345.084791275924
 21
8244.504846451631
 31
0.0
  0
LINE
  5
212E
330
1A
100
AcDbEntity
  8
部品1
100
AcDbLine
 10
6799.584791275923
 20
6108.504846451631
 30
0.0
 11
6799.584791275923
 21
8244.504846451631
 31
0.0
  0
LINE
  5
212F
330
1A
100
AcDbEntity
  8
部品1
100
AcDbLine
 10
6765.084791275923
 20
6108.504846451631
 30
0.0
 11
6765.084791275923
 21
8244.504846451631
 31
0.0
  0
LINE
  5
2130
330
1A
100
AcDbEntity
  8
部品1
100
AcDbLine
 10
7590.084791275923
 20
6108.504846451634
 30
0.0
 11
7590.084791275923
 21
8244.504846451631
 31
0.0
  0
LINE
  5
2131
330
1A
100
AcDbEntity
  8
部品1
100
AcDbLine
 10
7635.084791275923
 20
6108.504846451634
 30
0.0
 11
7635.084791275923
 21
8244.504846451631
 31
0.0
  0
LINE
  5
2132
330
1A
100
AcDbEntity
  8
部品1
100
AcDbLine
 10
7663.084791275924
 20
6108.504846451634
 30
0.0
 11
7663.084791275924
 21
8244.504846451631
 31
0.0
  0
LINE
  5
2133
330
1A
100
AcDbEntity
  8
部品1
100
AcDbLine
 10
7708.084791275924
 20
6108.504846451634
 30
0.0
 11
7708.084791275924
 21
8244.504846451631
 31
0.0
  0
LINE
  5
2134
330
1A
100
AcDbEntity
  8
部品1
100
AcDbLine
 10
7128.084791275924
 20
6108.504846451634
 30
0.0
 11
7128.084791275924
 21
8244.504846451631
 31
0.0
  0
LINE
  5
2135
330
1A
100
AcDbEntity
  8
部品1
100
AcDbLine
 10
7083.084791275924
 20
6108.504846451634
 30
0.0
 11
7083.084791275924
 21
8244.504846451631
 31
0.0
  0
LINE
  5
2136
330
1A
100
AcDbEntity
  8
部品1
100
AcDbLine
 10
7055.084791275923
 20
6108.504846451634
 30
0.0
 11
7055.084791275923
 21
8244.504846451631
 31
0.0
  0
LINE
  5
2137
330
1A
100
AcDbEntity
  8
部品1
100
AcDbLine
 10
7010.084791275923
 20
6108.504846451634
 30
0.0
 11
7010.084791275923
 21
8244.504846451631
 31
0.0
  0
LINE
  5
2138
330
1A
100
AcDbEntity
  8
部品1
100
AcDbLine
 10
6628.084791275924
 20
6108.504846451634
 30
0.0
 11
6628.084791275924
 21
8244.504846451631
 31
0.0
  0
LINE
  5
2139
330
1A
100
AcDbEntity
  8
部品1
100
AcDbLine
 10
6583.084791275926
 20
6108.504846451634
 30
0.0
 11
6583.084791275924
 21
8244.504846451631
 31
0.0
  0
LINE
  5
213A
330
1A
100
AcDbEntity
  8
部品1
100
AcDbLine
 10
6555.084791275925
 20
6108.504846451634
 30
0.0
 11
6555.084791275923
 21
8244.504846451631
 31
0.0
  0
LINE
  5
213B
330
1A
100
AcDbEntity
  8
部品1
100
AcDbLine
 10
6510.084791275922
 20
6108.504846451634
 30
0.0
 11
6510.084791275923
 21
8244.504846451631
 31
0.0
  0
LINE
  5
213C
330
1A
100
AcDbEntity
  8
点線
 48
50.0
100
AcDbLine
 10
6027.852342742686
 20
6264.00484645163
 30
0.0
 11
7988.084791275922
 21
6264.004846451627
 31
0.0
  0
LINE
  5
213D
330
1A
100
AcDbEntity
  8
点線
 48
50.0
100
AcDbLine
 10
6047.463232082626
 20
6199.004846451635
 30
0.0
 11
7988.084791275922
 21
6199.00484645163
 31
0.0
  0
LINE
  5
213E
330
1A
100
AcDbEntity
  8
点線
 48
50.0
100
AcDbLine
 10
6033.886462539589
 20
6244.004846451636
 30
0.0
 11
7988.084791275922
 21
6244.004846451631
 31
0.0
  0
LINE
  5
213F
330
1A
100
AcDbEntity
  8
点線
 48
50.0
100
AcDbLine
 10
5838.199957525989
 20
6892.604846451631
 30
0.0
 11
7988.084791275922
 21
6892.604846451624
 31
0.0
  0
LINE
  5
2140
330
1A
100
AcDbEntity
  8
点線
 48
50.0
100
AcDbLine
 10
5857.810846865925
 20
6827.604846451632
 30
0.0
 11
7988.084791275922
 21
6827.604846451631
 31
0.0
  0
LINE
  5
2141
330
1A
100
AcDbEntity
  8
点線
 48
50.0
100
AcDbLine
 10
5844.234077322892
 20
6872.604846451633
 30
0.0
 11
7988.084791275922
 21
6872.604846451633
 31
0.0
  0
LINE
  5
2142
330
1A
100
AcDbEntity
  8
点線
 48
6.0
100
AcDbLine
 10
7988.084791275922
 20
6892.604846451625
 30
0.0
 11
7988.084791275922
 21
6827.604846451632
 31
0.0
  0
LINE
  5
2143
330
1A
100
AcDbEntity
  8
点線
 48
50.0
100
AcDbLine
 10
7738.084791275923
 20
6143.004846451631
 30
0.0
 11
7798.084791275925
 21
6143.004846451631
 31
0.0
  0
LINE
  5
2144
330
1A
100
AcDbEntity
  8
点線
 48
50.0
100
AcDbLine
 10
7738.084791275923
 20
6264.004846451627
 30
0.0
 11
7738.084791275925
 21
6827.604846451632
 31
0.0
  0
LINE
  5
2145
330
1A
100
AcDbEntity
  8
点線
 48
50.0
100
AcDbLine
 10
7738.084791275923
 20
6143.004846451631
 30
0.0
 11
7738.084791275923
 21
6199.00484645163
 31
0.0
  0
LINE
  5
2146
330
1A
100
AcDbEntity
  8
点線
 48
50.0
100
AcDbLine
 10
7798.084791275922
 20
6264.004846451627
 30
0.0
 11
7798.084791275925
 21
6827.604846451632
 31
0.0
  0
LINE
  5
2147
330
1A
100
AcDbEntity
  8
点線
 48
50.0
100
AcDbLine
 10
7798.084791275925
 20
6143.004846451631
 30
0.0
 11
7798.084791275922
 21
6199.00484645163
 31
0.0
  0
ARC
  5
2148
330
1A
100
AcDbEntity
  8
部品1
100
AcDbCircle
 10
8008.084791275924
 20
5994.50484645163
 30
0.0
 40
10.0
100
AcDbArc
 50
270.0
 51
0.0
  0
LINE
  5
2149
330
1A
100
AcDbEntity
  8
部品1
100
AcDbLine
 10
7995.584791275923
 20
5984.504846451631
 30
0.0
 11
7995.584791275923
 21
5999.004846451631
 31
0.0
  0
ARC
  5
214A
330
1A
100
AcDbEntity
  8
部品1
100
AcDbCircle
 10
7990.584791275924
 20
5999.004846451631
 30
0.0
 40
5.0
100
AcDbArc
 50
0.0
 51
90.0
  0
LINE
  5
214B
330
1A
100
AcDbEntity
  8
部品1
100
AcDbLine
 10
7969.584791275924
 20
6004.004846451631
 30
0.0
 11
7969.584791275924
 21
6108.504846451631
 31
0.0
  0
LINE
  5
214C
330
1A
100
AcDbEntity
  8
部品1
100
AcDbLine
 10
7969.584791275924
 20
6004.004846451631
 30
0.0
 11
7990.584791275924
 21
6004.004846451631
 31
0.0
  0
LINE
  5
214D
330
1A
100
AcDbEntity
  8
点線
 48
6.0
100
AcDbLine
 10
7988.084791275922
 20
6264.004846451627
 30
0.0
 11
7988.084791275922
 21
6199.004846451631
 31
0.0
  0
LINE
  5
214E
330
1A
100
AcDbEntity
  8
点線
 48
50.0
100
AcDbLine
 10
7738.084791275925
 20
6892.604846451625
 30
0.0
 11
7738.084791275923
 21
7456.204846451633
 31
0.0
  0
LINE
  5
214F
330
1A
100
AcDbEntity
  8
点線
 48
50.0
100
AcDbLine
 10
7798.084791275922
 20
6892.604846451625
 30
0.0
 11
7798.084791275925
 21
7456.204846451633
 31
0.0
  0
LINE
  5
2150
330
1A
100
AcDbEntity
  8
点線
 48
6.0
100
AcDbLine
 10
7988.084791275922
 20
7521.204846451635
 30
0.0
 11
7988.084791275922
 21
7456.204846451633
 31
0.0
  0
LINE
  5
2151
330
1A
100
AcDbEntity
  8
点線
 48
50.0
100
AcDbLine
 10
7738.084791275922
 20
8684.204846451628
 30
0.0
 11
7738.084791275925
 21
9247.80484645163
 31
0.0
  0
LINE
  5
2152
330
1A
100
AcDbEntity
  8
点線
 48
50.0
100
AcDbLine
 10
7798.084791275922
 20
8684.204846451628
 30
0.0
 11
7798.084791275925
 21
9247.80484645163
 31
0.0
  0
LINE
  5
2153
330
1A
100
AcDbEntity
  8
点線
 48
50.0
100
AcDbLine
 10
7738.084791275925
 20
8149.804846451628
 30
0.0
 11
7738.084791275923
 21
8244.504846451631
 31
0.0
  0
LINE
  5
2154
330
1A
100
AcDbEntity
  8
点線
 48
50.0
100
AcDbLine
 10
7738.084791275922
 20
8524.504846451632
 30
0.0
 11
7738.084791275923
 21
8619.204846451628
 31
0.0
  0
LINE
  5
2155
330
1A
100
AcDbEntity
  8
点線
 48
50.0
100
AcDbLine
 10
7798.084791275922
 20
8149.804846451626
 30
0.0
 11
7798.084791275925
 21
8244.504846451631
 31
0.0
  0
LINE
  5
2156
330
1A
100
AcDbEntity
  8
点線
 48
6.0
100
AcDbLine
 10
7988.084791275922
 20
8149.804846451626
 30
0.0
 11
7988.084791275922
 21
8084.804846451634
 31
0.0
  0
LINE
  5
2157
330
1A
100
AcDbEntity
  8
点線
 48
50.0
100
AcDbLine
 10
7798.084791275922
 20
8524.504846451632
 30
0.0
 11
7798.084791275925
 21
8619.204846451628
 31
0.0
  0
LINE
  5
2158
330
1A
100
AcDbEntity
  8
点線
 48
6.0
100
AcDbLine
 10
7988.084791275922
 20
8684.204846451628
 30
0.0
 11
7988.084791275922
 21
8619.20484645163
 31
0.0
  0
LINE
  5
2159
330
1A
100
AcDbEntity
  8
点線
 48
6.0
100
AcDbLine
 10
7988.084791275922
 20
9312.804846451632
 30
0.0
 11
7988.084791275922
 21
9247.80484645163
 31
0.0
  0
LINE
  5
215A
330
1A
100
AcDbEntity
  8
点線
 48
50.0
100
AcDbLine
 10
7988.084791275922
 20
9876.404846451631
 30
0.0
 11
4937.969625025851
 21
9876.404846451631
 31
0.0
  0
LINE
  5
215B
330
1A
100
AcDbEntity
  8
点線
 48
50.0
100
AcDbLine
 10
7988.084791275922
 20
10505.00484645163
 30
0.0
 11
4748.317239809146
 21
10505.00484645163
 31
0.0
  0
LINE
  5
215C
330
1A
100
AcDbEntity
  8
点線
 48
50.0
100
AcDbLine
 10
7988.084791275922
 20
9896.40484645163
 30
0.0
 11
4931.935505228945
 21
9896.40484645163
 31
0.0
  0
LINE
  5
215D
330
1A
100
AcDbEntity
  8
点線
 48
50.0
100
AcDbLine
 10
7988.084791275922
 20
9941.404846451632
 30
0.0
 11
4918.358735685908
 21
9941.404846451632
 31
0.0
  0
LINE
  5
215E
330
1A
100
AcDbEntity
  8
点線
 48
50.0
100
AcDbLine
 10
7988.084791275922
 20
10525.00484645163
 30
0.0
 11
4742.283120012247
 21
10525.00484645163
 31
0.0
  0
LINE
  5
215F
330
1A
100
AcDbEntity
  8
点線
 48
50.0
100
AcDbLine
 10
7988.084791275922
 20
10570.00484645163
 30
0.0
 11
4728.70635046921
 21
10570.00484645163
 31
0.0
  0
LINE
  5
2160
330
1A
100
AcDbEntity
  8
部品1
100
AcDbLine
 10
4839.58479127592
 20
10660.50484645163
 30
0.0
 11
4839.58479127592
 21
10321.4735094635
 31
0.0
  0
LINE
  5
2161
330
1A
100
AcDbEntity
  8
部品1
100
AcDbLine
 10
4805.08479127592
 20
10660.50484645163
 30
0.0
 11
4805.08479127592
 21
10330.71775660237
 31
0.0
  0
LINE
  5
2162
330
1A
100
AcDbEntity
  8
部品1
100
AcDbLine
 10
4970.08479127592
 20
10660.50484645163
 30
0.0
 11
4970.08479127592
 21
10286.50613985124
 31
0.0
  0
LINE
  5
2163
330
1A
100
AcDbEntity
  8
部品1
100
AcDbLine
 10
5015.084791275921
 20
10660.50484645163
 30
0.0
 11
5015.084791275921
 21
10274.44842619184
 31
0.0
  0
LINE
  5
2164
330
1A
100
AcDbEntity
  8
部品1
100
AcDbLine
 10
5043.084791275919
 20
10660.50484645163
 30
0.0
 11
5043.084791275919
 21
10266.94584880377
 31
0.0
  0
LINE
  5
2165
330
1A
100
AcDbEntity
  8
部品1
100
AcDbLine
 10
4633.819816662891
 20
10884.50484645163
 30
0.0
 11
4800.532699096329
 21
10331.93748602576
 31
0.0
  0
LINE
  5
2166
330
1A
100
AcDbEntity
  8
部品1
100
AcDbLine
 10
4970.08479127592
 20
10237.49935375125
 30
0.0
 11
4970.08479127592
 21
9769.959607275081
 31
0.0
  0
LINE
  5
2167
330
1A
100
AcDbEntity
  8
部品1
100
AcDbLine
 10
4617.517178893201
 20
10143.02914673593
 30
0.0
 11
4878.636883455509
 21
10073.06233277061
 31
0.0
  0
LINE
  5
2168
330
1A
100
AcDbEntity
  8
部品1
100
AcDbLine
 10
5061.532699096331
 20
10262.00274680124
 30
0.0
 11
4617.517178893204
 21
10143.02914673593
 31
0.0
  0
LINE
  5
2169
330
1A
100
AcDbEntity
  8
部品1
100
AcDbLine
 10
4800.532699096335
 20
10331.93748602577
 30
0.0
 11
5061.532699096331
 21
10262.00274680124
 31
0.0
  0
LINE
  5
216A
330
1A
100
AcDbEntity
  8
部品1
100
AcDbLine
 10
4839.58479127592
 20
10202.53198413899
 30
0.0
 11
4839.584791275922
 21
10202.49990939819
 31
0.0
  0
LINE
  5
216B
330
1A
100
AcDbEntity
  8
部品1
100
AcDbLine
 10
4839.57583793905
 20
10202.5295850996
 30
0.0
 11
4839.584791275922
 21
10202.49990939819
 31
0.0
  0
LINE
  5
216C
330
1A
100
AcDbEntity
  8
点線
 48
6.0
100
AcDbLine
 10
5388.084791275922
 20
9876.404846451631
 30
0.0
 11
5388.084791275922
 21
9941.404846451632
 31
0.0
  0
LINE
  5
216D
330
1A
100
AcDbEntity
  8
点線
 48
6.0
100
AcDbLine
 10
5388.084791275922
 20
10505.00484645163
 30
0.0
 11
5388.084791275922
 21
10570.00484645163
 31
0.0
  0
LINE
  5
216E
330
1A
100
AcDbEntity
  8
部品1
100
AcDbLine
 10
5398.084791275922
 20
10660.50484645163
 30
0.0
 11
5398.084791275922
 21
10784.50484645163
 31
0.0
  0
LINE
  5
216F
330
1A
100
AcDbEntity
  8
部品1
100
AcDbLine
 10
5418.084791275918
 20
10626.00484645163
 30
0.0
 11
5358.084791275918
 21
10626.00484645163
 31
0.0
  0
LINE
  5
2170
330
1A
100
AcDbEntity
  8
点線
 48
50.0
100
AcDbLine
 10
7738.084791275925
 20
10570.00484645163
 30
0.0
 11
7738.084791275923
 21
10626.00484645163
 31
0.0
  0
LINE
  5
2171
330
1A
100
AcDbEntity
  8
点線
 48
50.0
100
AcDbLine
 10
7798.084791275922
 20
10570.00484645163
 30
0.0
 11
7798.084791275922
 21
10626.00484645163
 31
0.0
  0
LINE
  5
2172
330
1A
100
AcDbEntity
  8
点線
 48
50.0
100
AcDbLine
 10
7738.084791275923
 20
9941.404846451632
 30
0.0
 11
7738.084791275923
 21
10505.00484645163
 31
0.0
  0
LINE
  5
2173
330
1A
100
AcDbEntity
  8
点線
 48
50.0
100
AcDbLine
 10
7798.084791275922
 20
9941.404846451632
 30
0.0
 11
7798.084791275925
 21
10505.00484645163
 31
0.0
  0
LINE
  5
2174
330
1A
100
AcDbEntity
  8
点線
 48
6.0
100
AcDbLine
 10
7988.084791275922
 20
9941.404846451632
 30
0.0
 11
7988.084791275922
 21
9876.404846451631
 31
0.0
  0
LINE
  5
2175
330
1A
100
AcDbEntity
  8
点線
 48
6.0
100
AcDbLine
 10
7988.084791275923
 20
10570.00484645163
 30
0.0
 11
7988.084791275922
 21
10505.00484645163
 31
0.0
  0
LINE
  5
2176
330
1A
100
AcDbEntity
  8
点線
 48
50.0
100
AcDbLine
 10
7798.084791275922
 20
10626.00484645163
 30
0.0
 11
7738.084791275922
 21
10626.00484645163
 31
0.0
  0
ARC
  5
2177
330
1A
100
AcDbEntity
  8
部品1
100
AcDbCircle
 10
8008.084791275923
 20
10774.50484645163
 30
0.0
 40
10.0
100
AcDbArc
 50
0.0
 51
90.0
  0
LINE
  5
2178
330
1A
100
AcDbEntity
  8
部品1
100
AcDbLine
 10
7969.584791275917
 20
10660.50484645163
 30
0.0
 11
7969.584791275922
 21
10765.00484645163
 31
0.0
  0
ARC
  5
2179
330
1A
100
AcDbEntity
  8
部品1
100
AcDbCircle
 10
7990.584791275921
 20
10770.00484645163
 30
0.0
 40
5.0
100
AcDbArc
 50
270.0
 51
0.0
  0
LINE
  5
217A
330
1A
100
AcDbEntity
  8
部品1
100
AcDbLine
 10
7995.584791275923
 20
10770.00484645163
 30
0.0
 11
7995.584791275923
 21
10784.50484645163
 31
0.0
  0
LINE
  5
217B
330
1A
100
AcDbEntity
  8
部品1
100
AcDbLine
 10
7990.584791275921
 20
10765.00484645163
 30
0.0
 11
7969.584791275924
 21
10765.00484645163
 31
0.0
  0
LINE
  5
217C
330
1A
100
AcDbEntity
  8
寸法
100
AcDbLine
 10
8633.537714463043
 20
5984.50484645163
 30
0.0
 11
8633.537714463043
 21
5684.504846451631
 31
0.0
  0
LINE
  5
217D
330
1A
100
AcDbEntity
  8
仕様書枠
 48
50.0
100
AcDbLine
 10
13096.0
 20
1464.0
 30
0.0
 11
16296.0
 21
1464.0
 31
0.0
  0
LINE
  5
217E
330
1A
100
AcDbEntity
  8
文字
 62
     7
 48
50.0
100
AcDbLine
 10
13176.0
 20
664.0
 30
0.0
 11
16216.0
 21
664.0
 31
0.0
  0
TEXT
  5
217F
330
1A
100
AcDbEntity
  8
文字
 62
     7
 48
50.0
100
AcDbText
 10
13151.7790565769
 20
1159.09060742994
 30
0.0
 40
200.0
  1
外 形 図
  7
STYLE2
100
AcDbText
  0
TEXT
  5
2180
330
1A
100
AcDbEntity
  8
文字
 62
     7
 48
50.0
100
AcDbText
 10
13190.23669998441
 20
741.2740661031257
 30
0.0
 40
160.0
  1
機種名
  7
STYLE2
100
AcDbText
  0
TEXT
  5
2181
330
1A
100
AcDbEntity
  8
文字
 62
     7
 48
50.0
100
AcDbText
 10
13198.2053442172
 20
492.5435242569019
 30
0.0
 40
100.0
  1
○間口奥行寸法は柱芯寸法です。    N : 連続数
  7
STYLE2
100
AcDbText
  0
LINE
  5
2182
330
1A
100
AcDbEntity
  8
仕様書枠
 48
50.0
100
AcDbLine
 10
13096.0
 20
1064.0
 30
0.0
 11
14240.0
 21
1064.0
 31
0.0
  0
DIMENSION
  5
2183
330
1A
100
AcDbEntity
  8
寸法
100
AcDbDimension
  2
*D13
 10
14676.32755088104
 20
5131.386202201751
 30
0.0
 11
12276.32755088104
 21
5231.38620220175
 31
0.0
 70
    32
 71
     5
 42
4800.0
  3
物置仕様図40
100
AcDbAlignedDimension
 13
9876.327550881043
 23
4443.618505172218
 33
0.0
 14
14676.32755088104
 24
4443.618505172218
 34
0.0
100
AcDbRotatedDimension
  0
DIMENSION
  5
2184
330
1A
100
AcDbEntity
  8
寸法
100
AcDbDimension
  2
*D14
 10
13926.32755088103
 20
4927.47039549738
 30
0.0
 11
13101.32755088104
 21
5027.470395497379
 31
0.0
 70
    32
 71
     5
 42
1649.999999999991
  3
物置仕様図40
100
AcDbAlignedDimension
 13
12276.32755088104
 23
4567.702698467845
 33
0.0
 14
13926.32755088103
 24
4136.722031224493
 34
0.0
100
AcDbRotatedDimension
1001
ACAD
1000
DSTYLE
1002
{
1070
    75
1070
     1
1002
}
  0
LINE
  5
2185
330
1A
100
AcDbEntity
  8
部品1
100
AcDbLine
 10
9876.327550881036
 20
2372.702698467847
 30
0.0
 11
14676.32755088103
 21
2372.702698467847
 31
0.0
  0
LINE
  5
2186
330
1A
100
AcDbEntity
  8
部品1
100
AcDbLine
 10
13726.09216019243
 20
4324.249081971549
 30
0.0
 11
13192.25799497566
 21
4349.383773917172
 31
0.0
  0
LINE
  5
2187
330
1A
100
AcDbEntity
  8
細線
100
AcDbLine
 10
13896.32755088104
 20
3010.702698467847
 30
0.0
 11
12306.32755088103
 21
3010.702698467849
 31
0.0
  0
LINE
  5
2188
330
1A
100
AcDbEntity
  8
細線
100
AcDbLine
 10
13896.32755088104
 20
3016.702698467847
 30
0.0
 11
12306.32755088103
 21
3016.702698467849
 31
0.0
  0
LINE
  5
2189
330
1A
100
AcDbEntity
  8
細線
100
AcDbLine
 10
13896.32755088104
 20
2687.702698467847
 30
0.0
 11
12306.32755088103
 21
2687.702698467849
 31
0.0
  0
LINE
  5
218A
330
1A
100
AcDbEntity
  8
細線
100
AcDbLine
 10
13896.32755088104
 20
2675.702698467847
 30
0.0
 11
12306.32755088103
 21
2675.702698467849
 31
0.0
  0
LINE
  5
218B
330
1A
100
AcDbEntity
  8
細線
100
AcDbLine
 10
13896.32755088104
 20
3357.702698467847
 30
0.0
 11
12306.32755088103
 21
3357.702698467849
 31
0.0
  0
LINE
  5
218C
330
1A
100
AcDbEntity
  8
細線
100
AcDbLine
 10
13896.32755088104
 20
3369.702698467847
 30
0.0
 11
12306.32755088103
 21
3369.702698467849
 31
0.0
  0
LINE
  5
218D
330
1A
100
AcDbEntity
  8
細線
100
AcDbLine
 10
14671.01215308149
 20
4389.880957690358
 30
0.0
 11
12276.32755088103
 21
4502.630691043965
 31
0.0
  0
LINE
  5
218E
330
1A
100
AcDbEntity
  8
細線
100
AcDbLine
 10
14670.03084887235
 20
4377.913867085286
 30
0.0
 11
12276.32755088103
 21
4490.617397365709
 31
0.0
  0
LINE
  5
218F
330
1A
100
AcDbEntity
  8
部品1
100
AcDbLine
 10
13896.32755088104
 20
3472.702698467847
 30
0.0
 11
12306.32755088103
 21
3472.702698467849
 31
0.0
  0
LINE
  5
2190
330
1A
100
AcDbEntity
  8
部品1
100
AcDbLine
 10
13896.32755088104
 20
2572.702698467847
 30
0.0
 11
12306.32755088103
 21
2572.702698467849
 31
0.0
  0
LINE
  5
2191
330
1A
100
AcDbEntity
  8
部品1
100
AcDbLine
 10
14654.38159182022
 20
4340.608589623683
 30
0.0
 11
12276.32755088103
 21
4452.575300717905
 31
0.0
  0
LINE
  5
2192
330
1A
100
AcDbEntity
  8
部品1
100
AcDbLine
 10
14662.88241006558
 20
4455.335740514574
 30
0.0
 11
12276.32755088103
 21
4567.702698467845
 31
0.0
  0
LINE
  5
2193
330
1A
100
AcDbEntity
  8
点線
 48
50.0
100
AcDbLine
 10
12306.32755088104
 20
2372.702698467847
 30
0.0
 11
12306.32755088104
 21
2042.388114557827
 31
0.0
  0
LINE
  5
2194
330
1A
100
AcDbEntity
  8
点線
 48
50.0
100
AcDbLine
 10
12246.32755088103
 20
2372.702698467847
 30
0.0
 11
12246.32755088103
 21
2042.388114557827
 31
0.0
  0
LINE
  5
2195
330
1A
100
AcDbEntity
  8
点線
 48
50.0
100
AcDbLine
 10
10656.32755088104
 20
2372.702698467847
 30
0.0
 11
10656.32755088103
 21
2052.702698467847
 31
0.0
  0
LINE
  5
2196
330
1A
100
AcDbEntity
  8
点線
 48
50.0
100
AcDbLine
 10
10596.32755088103
 20
2372.702698467847
 30
0.0
 11
10596.32755088103
 21
2052.702698467847
 31
0.0
  0
LINE
  5
2197
330
1A
100
AcDbEntity
  8
点線
 48
50.0
100
AcDbLine
 10
10596.32755088103
 20
2052.702698467847
 30
0.0
 11
10656.32755088103
 21
2052.702698467847
 31
0.0
  0
LINE
  5
2198
330
1A
100
AcDbEntity
  8
仕様書枠
  6
Continuous
 48
50.0
100
AcDbLine
 10
13096.0
 20
1464.0
 30
0.0
 11
13096.0
 21
264.0
 31
0.0
  0
TEXT
  5
2199
330
1A
100
AcDbEntity
  8
文字
100
AcDbText
 10
11999.81820799253
 20
1468.349108163469
 30
0.0
 40
120.0
  1
側面図
  7
MSGOTHIC
100
AcDbText
  0
LWPOLYLINE
  5
219A
330
1A
100
AcDbEntity
  8
文字
100
AcDbPolyline
 90
        4
 70
     1
 43
0.0
 10
11957.3507225364
 20
1642.78778488995
 10
11957.3507225364
 20
1421.203525849682
 10
12594.36305529616
 20
1421.203525849682
 10
12594.36305529616
 20
1642.78778488995
  0
LINE
  5
219B
330
1A
100
AcDbEntity
  8
点線
 48
50.0
100
AcDbLine
 10
12246.32755088103
 20
2042.388114557827
 30
0.0
 11
12306.32755088104
 21
2042.388114557827
 31
0.0
  0
LINE
  5
219C
330
1A
100
AcDbEntity
  8
細線
100
AcDbLine
 10
10987.63424586335
 20
2322.702698467847
 30
0.0
 11
11037.63424586335
 21
2372.702698467847
 31
0.0
  0
LINE
  5
219D
330
1A
100
AcDbEntity
  8
細線
100
AcDbLine
 10
11021.31020631735
 20
2322.702698467847
 30
0.0
 11
11071.31020631735
 21
2372.702698467847
 31
0.0
  0
DIMENSION
  5
219E
330
1A
100
AcDbEntity
  8
寸法
100
AcDbDimension
  2
*D15
 10
9002.756801734122
 20
2322.702698467847
 30
0.0
 11
8902.7449907105
 21
3445.202698467848
 31
0.0
 70
    32
 71
     5
 42
2244.999999999999
  3
物置仕様図40
100
AcDbAlignedDimension
 13
12276.32755088104
 23
4567.702698467845
 33
0.0
 14
8985.847895189889
 24
2322.702698467847
 34
0.0
 50
90.0
100
AcDbRotatedDimension
  0
DIMENSION
  5
219F
330
1A
100
AcDbEntity
  8
寸法
100
AcDbDimension
  2
*D16
 10
9296.48348345904
 20
4454.678180933163
 30
0.0
 11
9177.84231141907
 21
4692.046039059014
 31
0.0
 70
   160
 71
     5
 42
112.9999999999973
  3
物置仕様図40
100
AcDbAlignedDimension
 13
12276.84827728145
 23
4567.678180933159
 33
0.0
 14
9875.806824480632
 24
4454.678180933163
 34
0.0
 50
90.0
100
AcDbRotatedDimension
  0
DIMENSION
  5
21A0
330
1A
100
AcDbEntity
  8
寸法
100
AcDbDimension
  2
*D17
 10
12276.32755088104
 20
4927.47039549738
 30
0.0
 11
11451.32755088104
 21
5027.470395497379
 31
0.0
 70
    32
 71
     5
 42
1650.000000000007
  3
物置仕様図40
100
AcDbAlignedDimension
 13
10626.32755088103
 23
4136.722031224495
 33
0.0
 14
12276.32755088104
 24
4565.199928951527
 34
0.0
100
AcDbRotatedDimension
1001
ACAD
1000
DSTYLE
1002
{
1070
    75
1070
     1
1002
}
  0
LINE
  5
21A1
330
1A
100
AcDbEntity
  8
部品1
100
AcDbLine
 10
10826.56294156964
 20
4324.249081971549
 30
0.0
 11
11360.39710678641
 21
4349.383773917172
 31
0.0
  0
LINE
  5
21A2
330
1A
100
AcDbEntity
  8
部品1
100
AcDbLine
 10
10656.32755088103
 20
2572.702698467847
 30
0.0
 11
12246.32755088103
 21
2572.702698467849
 31
0.0
  0
LINE
  5
21A3
330
1A
100
AcDbEntity
  8
細線
100
AcDbLine
 10
10656.32755088103
 20
2675.702698467847
 30
0.0
 11
12246.32755088103
 21
2675.702698467849
 31
0.0
  0
LINE
  5
21A4
330
1A
100
AcDbEntity
  8
細線
100
AcDbLine
 10
10656.32755088103
 20
2687.702698467847
 30
0.0
 11
12246.32755088103
 21
2687.702698467849
 31
0.0
  0
LINE
  5
21A5
330
1A
100
AcDbEntity
  8
細線
100
AcDbLine
 10
10656.32755088103
 20
3016.702698467847
 30
0.0
 11
12246.32755088103
 21
3016.702698467849
 31
0.0
  0
LINE
  5
21A6
330
1A
100
AcDbEntity
  8
細線
100
AcDbLine
 10
10656.32755088103
 20
3010.702698467847
 30
0.0
 11
12246.32755088103
 21
3010.702698467849
 31
0.0
  0
LINE
  5
21A7
330
1A
100
AcDbEntity
  8
部品1
100
AcDbLine
 10
10656.32755088103
 20
3472.702698467847
 30
0.0
 11
12246.32755088103
 21
3472.702698467849
 31
0.0
  0
LINE
  5
21A8
330
1A
100
AcDbEntity
  8
細線
100
AcDbLine
 10
10656.32755088103
 20
3369.702698467847
 30
0.0
 11
12246.32755088103
 21
3369.702698467849
 31
0.0
  0
LINE
  5
21A9
330
1A
100
AcDbEntity
  8
細線
100
AcDbLine
 10
10656.32755088103
 20
3357.702698467847
 30
0.0
 11
12246.32755088103
 21
3357.702698467849
 31
0.0
  0
LINE
  5
21AA
330
1A
100
AcDbEntity
  8
部品1
100
AcDbLine
 10
9889.772691696485
 20
4455.335740514576
 30
0.0
 11
12276.32755088103
 21
4567.702698467845
 31
0.0
  0
LINE
  5
21AB
330
1A
100
AcDbEntity
  8
細線
100
AcDbLine
 10
9881.642948680571
 20
4389.880957690358
 30
0.0
 11
12276.32755088103
 21
4502.630691043965
 31
0.0
  0
LINE
  5
21AC
330
1A
100
AcDbEntity
  8
細線
100
AcDbLine
 10
9882.624252889717
 20
4377.913867085286
 30
0.0
 11
12276.32755088103
 21
4490.617397365709
 31
0.0
  0
LINE
  5
21AD
330
1A
100
AcDbEntity
  8
部品1
100
AcDbLine
 10
9898.273509941851
 20
4340.608589623683
 30
0.0
 11
12276.32755088104
 21
4452.575300717905
 31
0.0
  0
DIMENSION
  5
21AE
330
1A
100
AcDbEntity
  8
寸法
100
AcDbDimension
  2
*D28
 10
9296.48348345904
 20
2322.702698467847
 30
0.0
 11
9196.47167243542
 21
3388.702698467849
 31
0.0
 70
    32
 71
     5
 42
2132.0
  3
物置仕様図40
100
AcDbAlignedDimension
 13
9876.327550881034
 23
4454.702698467847
 33
0.0
 14
9245.652178531029
 24
2322.702698467847
 34
0.0
 50
90.0
100
AcDbRotatedDimension
1001
ACAD
1000
DSTYLE
1002
{
1070
    75
1070
     1
1002
}
  0
LINE
  5
21AF
330
1A
100
AcDbEntity
  8
センター
 48
10.0
100
AcDbLine
 10
10626.32755088103
 20
4136.722031224495
 30
0.0
 11
10626.32755088103
 21
2372.702698467847
 31
0.0
  0
LINE
  5
21B0
330
1A
100
AcDbEntity
  8
部品1
100
AcDbLine
 10
10656.32755088104
 20
4145.303455003802
 30
0.0
 11
10656.32755088104
 21
2372.702698467847
 31
0.0
  0
LINE
  5
21B1
330
1A
100
AcDbEntity
  8
部品1
100
AcDbLine
 10
10596.32755088103
 20
4145.303455003802
 30
0.0
 11
10596.32755088103
 21
2372.702698467847
 31
0.0
  0
DIMENSION
  5
21B2
330
1A
100
AcDbEntity
  8
寸法
100
AcDbDimension
  2
*D29
 10
9788.354899444732
 20
3472.702698467847
 30
0.0
 11
9688.354899444732
 21
3022.702698467849
 31
0.0
 70
    32
 71
     5
 42
900.0
  3
物置仕様図40
100
AcDbAlignedDimension
 13
10656.32755088104
 23
2572.702698467847
 33
0.0
 14
10656.32755088104
 24
3472.702698467847
 34
0.0
 50
90.0
100
AcDbRotatedDimension
1001
ACAD
1000
DSTYLE
1002
{
1070
    75
1070
     1
1002
}
  0
DIMENSION
  5
21B3
330
1A
100
AcDbEntity
  8
寸法
100
AcDbDimension
  2
*D30
 10
9788.354899444732
 20
2572.702698467847
 30
0.0
 11
9677.798262385474
 21
2447.702698467847
 31
0.0
 70
   160
 71
     5
 42
250.0
  3
物置仕様図40
100
AcDbAlignedDimension
 13
9772.254670437183
 23
2322.702698467847
 33
0.0
 14
10656.32755088104
 24
2572.702698467847
 34
0.0
 50
90.0
100
AcDbRotatedDimension
  0
LINE
  5
21B4
330
1A
100
AcDbEntity
  8
細線
100
AcDbLine
 10
9876.327550881036
 20
2322.702698467847
 30
0.0
 11
9926.327550881037
 21
2372.702698467847
 31
0.0
  0
LINE
  5
21B5
330
1A
100
AcDbEntity
  8
部品1
100
AcDbLine
 10
9876.327550881036
 20
2372.702698467847
 30
0.0
 11
9876.327550881036
 21
2322.702698467847
 31
0.0
  0
LINE
  5
21B6
330
1A
100
AcDbEntity
  8
細線
100
AcDbLine
 10
9910.00351133505
 20
2322.702698467847
 30
0.0
 11
9960.003511335051
 21
2372.702698467847
 31
0.0
  0
LINE
  5
21B7
330
1A
100
AcDbEntity
  8
細線
100
AcDbLine
 10
9943.679471789055
 20
2322.702698467847
 30
0.0
 11
9993.679471789056
 21
2372.702698467847
 31
0.0
  0
LINE
  5
21B8
330
1A
100
AcDbEntity
  8
細線
100
AcDbLine
 10
10953.95828540933
 20
2322.702698467847
 30
0.0
 11
11003.95828540933
 21
2372.702698467847
 31
0.0
  0
LINE
  5
21B9
330
1A
100
AcDbEntity
  8
寸法
100
AcDbLine
 10
9296.48348345904
 20
4567.678180933159
 30
0.0
 11
9296.48348345904
 21
4867.678180933158
 31
0.0
  0
DIMENSION
  5
21BA
330
1A
100
AcDbEntity
  8
寸法
100
AcDbDimension
  2
*D31
 10
10626.32755088103
 20
4927.47039549738
 30
0.0
 11
10251.32755088103
 21
5027.470395497379
 31
0.0
 70
    32
 71
     5
 42
750.0
  3
物置仕様図40
100
AcDbAlignedDimension
 13
9876.327550881036
 23
4519.702698467846
 33
0.0
 14
10626.32755088103
 24
4136.722031224495
 34
0.0
100
AcDbRotatedDimension
  0
LINE
  5
21BB
330
1A
100
AcDbEntity
  8
部品1
100
AcDbLine
 10
10144.15173698
 20
4292.118887755454
 30
0.0
 11
10438.96294156963
 21
4305.999581971549
 31
0.0
  0
ARC
  5
21BC
330
1A
100
AcDbEntity
  8
部品1
100
AcDbCircle
 10
9890.384097710253
 20
4442.350126062946
 30
0.0
 40
13.0
100
AcDbArc
 50
92.69568549355007
 51
184.687779066473
  0
ARC
  5
21BD
330
1A
100
AcDbEntity
  8
部品1
100
AcDbCircle
 10
9897.662103928087
 20
4353.59420407531
 30
0.0
 40
13.0
100
AcDbArc
 50
184.687779066473
 51
272.69568549355
  0
LINE
  5
21BE
330
1A
100
AcDbEntity
  8
部品1
100
AcDbLine
 10
9877.427584773814
 20
4441.287688992821
 30
0.0
 11
9884.70559099165
 21
4352.531767005184
 31
0.0
  0
LINE
  5
21BF
330
1A
100
AcDbEntity
  8
部品1
100
AcDbLine
 10
9899.315992972887
 20
4455.78507094967
 30
0.0
 11
9908.720158310542
 21
4341.100452651042
 31
0.0
  0
LINE
  5
21C0
330
1A
100
AcDbEntity
  8
部品1
100
AcDbLine
 10
10067.35284392423
 20
4293.482394001272
 30
0.0
 11
10054.91829577487
 21
4341.964258998152
 31
0.0
  0
LINE
  5
21C1
330
1A
100
AcDbEntity
  8
部品1
100
AcDbLine
 10
10141.32986307032
 20
4352.052492916815
 30
0.0
 11
10144.2599088132
 21
4289.821432890934
 31
0.0
  0
LINE
  5
21C2
330
1A
100
AcDbEntity
  8
部品1
100
AcDbLine
 10
10100.37523287672
 20
4350.124212411866
 30
0.0
 11
10103.30527861961
 21
4287.893152385986
 31
0.0
  0
LINE
  5
21C3
330
1A
100
AcDbEntity
  8
部品1
100
AcDbLine
 10
10098.37744603801
 20
4350.03014994821
 30
0.0
 11
10101.34041364318
 21
4287.099864528783
 31
0.0
  0
ARC
  5
21C4
330
1A
100
AcDbEntity
  8
部品1
100
AcDbCircle
 10
10077.03932390171
 20
4295.966766285333
 30
0.0
 40
10.0
100
AcDbArc
 50
194.3850546689436
 51
272.69568549355
  0
LINE
  5
21C5
330
1A
100
AcDbEntity
  8
部品1
100
AcDbLine
 10
10103.30527861961
 20
4287.893152385986
 30
0.0
 11
10144.2599088132
 21
4289.821432890934
 31
0.0
  0
LINE
  5
21C6
330
1A
100
AcDbEntity
  8
部品1
100
AcDbLine
 10
10101.19931994769
 20
4290.096544786851
 30
0.0
 11
10103.1971067864
 21
4290.190607250506
 31
0.0
  0
LINE
  5
21C7
330
1A
100
AcDbEntity
  8
部品1
100
AcDbLine
 10
10077.50963621999
 20
4285.977832091772
 30
0.0
 11
10101.34041364318
 21
4287.099864528782
 31
0.0
  0
ARC
  5
21C8
330
1A
100
AcDbEntity
  8
部品1
100
AcDbCircle
 10
10059.76153576361
 20
4343.206445140184
 30
0.0
 40
5.0
100
AcDbArc
 50
92.69568549355007
 51
194.3850546689436
  0
LINE
  5
21C9
330
1A
100
AcDbEntity
  8
部品1
100
AcDbLine
 10
10446.24757993306
 20
4363.906265902798
 30
0.0
 11
10813.86971154597
 21
4381.215141266237
 31
0.0
  0
ARC
  5
21CA
330
1A
100
AcDbEntity
  8
部品1
100
AcDbCircle
 10
10780.32755088103
 20
4198.435351554588
 30
0.0
 40
120.0
100
AcDbArc
 50
92.69568549355007
 51
180.0
  0
LINE
  5
21CB
330
1A
100
AcDbEntity
  8
部品1
100
AcDbLine
 10
10439.12755088103
 20
4302.503455003804
 30
0.0
 11
10436.72895805778
 21
4353.447019390954
 31
0.0
  0
ARC
  5
21CC
330
1A
100
AcDbEntity
  8
部品1
100
AcDbCircle
 10
10487.32755088104
 20
4199.656551985739
 30
0.0
 40
105.0
100
AcDbArc
 50
0.0
 51
92.69568549355007
  0
LINE
  5
21CD
330
1A
100
AcDbEntity
  8
部品1
100
AcDbLine
 10
10439.12755088103
 20
4302.503455003804
 30
0.0
 11
10482.38927153909
 21
4304.54036101812
 31
0.0
  0
CIRCLE
  5
21CE
330
1A
100
AcDbEntity
  8
細線
100
AcDbCircle
 10
10626.32755088103
 20
4260.303455003804
 30
0.0
 40
6.0
  0
LWPOLYLINE
  5
21CF
330
1A
100
AcDbEntity
  8
細線
100
AcDbPolyline
 90
        6
 70
     1
 43
0.0
 10
10619.82755088103
 20
4264.056231753537
 10
10626.32755088103
 20
4267.809008503269
 10
10632.82755088103
 20
4264.056231753537
 10
10632.82755088103
 20
4256.550678254072
 10
10626.32755088103
 20
4252.797901504339
 10
10619.82755088103
 20
4256.550678254072
  0
CIRCLE
  5
21D0
330
1A
100
AcDbEntity
  8
細線
100
AcDbCircle
 10
10626.32755088103
 20
4260.303455003804
 30
0.0
 40
8.0
  0
LINE
  5
21D1
330
1A
100
AcDbEntity
  8
部品1
100
AcDbLine
 10
10592.32755088103
 20
4145.303455003804
 30
0.0
 11
10660.32755088104
 21
4145.303455003802
 31
0.0
  0
LINE
  5
21D2
330
1A
100
AcDbEntity
  8
部品1
100
AcDbLine
 10
10592.32755088103
 20
4199.656551985739
 30
0.0
 11
10592.32755088103
 21
4145.303455003804
 31
0.0
  0
LINE
  5
21D3
330
1A
100
AcDbEntity
  8
部品1
100
AcDbLine
 10
10660.32755088103
 20
4198.435351554588
 30
0.0
 11
10660.32755088103
 21
4145.303455003802
 31
0.0
  0
CIRCLE
  5
21D4
330
1A
100
AcDbEntity
  8
細線
100
AcDbCircle
 10
10626.32755088103
 20
4175.303455003804
 30
0.0
 40
6.0
  0
LWPOLYLINE
  5
21D5
330
1A
100
AcDbEntity
  8
細線
100
AcDbPolyline
 90
        6
 70
     1
 43
0.0
 10
10619.82755088103
 20
4179.056231753537
 10
10626.32755088103
 20
4182.809008503268
 10
10632.82755088103
 20
4179.056231753537
 10
10632.82755088103
 20
4171.550678254072
 10
10626.32755088103
 20
4167.79790150434
 10
10619.82755088103
 20
4171.550678254072
  0
CIRCLE
  5
21D6
330
1A
100
AcDbEntity
  8
細線
100
AcDbCircle
 10
10626.32755088103
 20
4175.303455003804
 30
0.0
 40
8.0
  0
ARC
  5
21D7
330
1A
100
AcDbEntity
  8
部品1
100
AcDbCircle
 10
10446.71789225134
 20
4353.917331709239
 30
0.0
 40
10.0
100
AcDbArc
 50
92.69568549355007
 51
182.6956854935736
  0
CIRCLE
  5
21D8
330
1A
100
AcDbEntity
  8
細線
100
AcDbCircle
 10
10467.54816048534
 20
4337.3787035578
 30
0.0
 40
8.0
  0
LWPOLYLINE
  5
21D9
330
1A
100
AcDbEntity
  8
細線
100
AcDbPolyline
 90
        6
 70
     1
 43
0.0
 10
10461.04816048534
 20
4341.131480307533
 10
10467.54816048534
 20
4344.884257057265
 10
10474.04816048534
 20
4341.131480307533
 10
10474.04816048534
 20
4333.625926808069
 10
10467.54816048534
 20
4329.873150058336
 10
10461.04816048534
 20
4333.625926808069
  0
CIRCLE
  5
21DA
330
1A
100
AcDbEntity
  8
細線
100
AcDbCircle
 10
10467.54816048534
 20
4337.3787035578
 30
0.0
 40
6.0
  0
CIRCLE
  5
21DB
330
1A
100
AcDbEntity
  8
細線
100
AcDbCircle
 10
10679.31356538882
 20
4347.349324705337
 30
0.0
 40
6.0
  0
LWPOLYLINE
  5
21DC
330
1A
100
AcDbEntity
  8
細線
100
AcDbPolyline
 90
        6
 70
     1
 43
0.0
 10
10672.81356538882
 20
4351.10210145507
 10
10679.31356538882
 20
4354.854878204802
 10
10685.81356538882
 20
4351.10210145507
 10
10685.81356538882
 20
4343.596547955605
 10
10679.31356538882
 20
4339.843771205873
 10
10672.81356538882
 20
4343.596547955605
  0
CIRCLE
  5
21DD
330
1A
100
AcDbEntity
  8
細線
100
AcDbCircle
 10
10679.31356538882
 20
4347.349324705337
 30
0.0
 40
8.0
  0
CIRCLE
  5
21DE
330
1A
100
AcDbEntity
  8
細線
100
AcDbCircle
 10
10573.43086293708
 20
4342.36401413157
 30
0.0
 40
6.0
  0
LWPOLYLINE
  5
21DF
330
1A
100
AcDbEntity
  8
細線
100
AcDbPolyline
 90
        6
 70
     1
 43
0.0
 10
10566.93086293708
 20
4346.1167908813
 10
10573.43086293708
 20
4349.869567631034
 10
10579.93086293708
 20
4346.1167908813
 10
10579.93086293708
 20
4338.611237381836
 10
10573.43086293708
 20
4334.858460632105
 10
10566.93086293708
 20
4338.611237381836
  0
CIRCLE
  5
21E0
330
1A
100
AcDbEntity
  8
細線
100
AcDbCircle
 10
10573.43086293708
 20
4342.36401413157
 30
0.0
 40
8.0
  0
LINE
  5
21E1
330
1A
100
AcDbEntity
  8
部品1
100
AcDbLine
 10
10728.97523287672
 20
4379.720795745199
 30
0.0
 11
10731.23273200446
 21
4331.773911616106
 31
0.0
  0
ARC
  5
21E2
330
1A
100
AcDbEntity
  8
部品1
100
AcDbCircle
 10
10736.22719910125
 20
4332.009067775246
 30
0.0
 40
5.0
100
AcDbArc
 50
182.6956854935736
 51
272.69568549355
  0
LINE
  5
21E3
330
1A
100
AcDbEntity
  8
部品1
100
AcDbLine
 10
10774.68380306167
 20
4318.30256187731
 30
0.0
 11
10826.72755088104
 21
4320.752955003801
 31
0.0
  0
LINE
  5
21E4
330
1A
100
AcDbEntity
  8
部品1
100
AcDbLine
 10
10826.72755088103
 20
4320.752955003803
 30
0.0
 11
10824.32895805781
 21
4371.696519390956
 31
0.0
  0
ARC
  5
21E5
330
1A
100
AcDbEntity
  8
部品1
100
AcDbCircle
 10
10814.34002386425
 20
4371.226207072676
 30
0.0
 40
10.0
100
AcDbArc
 50
2.695685493573654
 51
92.69568549355007
  0
LINE
  5
21E6
330
1A
100
AcDbEntity
  8
部品1
100
AcDbLine
 10
10769.92986307031
 20
4381.649076250148
 30
0.0
 11
10772.18736219806
 21
4333.702192121054
 31
0.0
  0
ARC
  5
21E7
330
1A
100
AcDbEntity
  8
部品1
100
AcDbCircle
 10
10767.19289510128
 20
4333.467035961915
 30
0.0
 40
5.0
100
AcDbArc
 50
272.69568549355
 51
2.695685493573654
  0
CIRCLE
  5
21E8
330
1A
100
AcDbEntity
  8
細線
100
AcDbCircle
 10
10785.19626784055
 20
4352.334635279105
 30
0.0
 40
6.0
  0
LWPOLYLINE
  5
21E9
330
1A
100
AcDbEntity
  8
細線
100
AcDbPolyline
 90
        6
 70
     1
 43
0.0
 10
10778.69626784056
 20
4356.087412028839
 10
10785.19626784055
 20
4359.840188778569
 10
10791.69626784056
 20
4356.087412028839
 10
10791.69626784056
 20
4348.581858529374
 10
10785.19626784055
 20
4344.82908177964
 10
10778.69626784056
 20
4348.581858529374
  0
CIRCLE
  5
21EA
330
1A
100
AcDbEntity
  8
細線
100
AcDbCircle
 10
10785.19626784055
 20
4352.334635279105
 30
0.0
 40
8.0
  0
LINE
  5
21EB
330
1A
100
AcDbEntity
  8
部品1
100
AcDbLine
 10
10736.46235526038
 20
4327.014600678467
 30
0.0
 11
10767.42805126042
 21
4328.472568865134
 31
0.0
  0
LINE
  5
21EC
330
1A
100
AcDbEntity
  8
センター
 48
10.0
100
AcDbLine
 10
12276.32755088103
 20
4170.888114557827
 30
0.0
 11
12276.32755088103
 21
2372.702698467847
 31
0.0
  0
LINE
  5
21ED
330
1A
100
AcDbEntity
  8
部品1
100
AcDbLine
 10
12246.32755088104
 20
4179.469538337136
 30
0.0
 11
12246.32755088103
 21
2372.702698467847
 31
0.0
  0
LINE
  5
21EE
330
1A
100
AcDbEntity
  8
部品1
100
AcDbLine
 10
12306.32755088104
 20
4179.469538337136
 30
0.0
 11
12306.32755088103
 21
2372.702698467847
 31
0.0
  0
LINE
  5
21EF
330
1A
100
AcDbEntity
  8
細線
100
AcDbLine
 10
12031.58901993763
 20
2322.702698467847
 30
0.0
 11
12081.58901993763
 21
2372.702698467847
 31
0.0
  0
LINE
  5
21F0
330
1A
100
AcDbEntity
  8
細線
100
AcDbLine
 10
12098.94094084565
 20
2322.702698467847
 30
0.0
 11
12148.94094084565
 21
2372.702698467847
 31
0.0
  0
LINE
  5
21F1
330
1A
100
AcDbEntity
  8
細線
100
AcDbLine
 10
12065.26498039165
 20
2322.702698467847
 30
0.0
 11
12115.26498039164
 21
2372.702698467847
 31
0.0
  0
LINE
  5
21F2
330
1A
100
AcDbEntity
  8
細線
100
AcDbLine
 10
13109.21975446593
 20
2322.702698467847
 30
0.0
 11
13159.21975446593
 21
2372.702698467847
 31
0.0
  0
LINE
  5
21F3
330
1A
100
AcDbEntity
  8
細線
100
AcDbLine
 10
13142.89571491994
 20
2322.702698467847
 30
0.0
 11
13192.89571491994
 21
2372.702698467847
 31
0.0
  0
LINE
  5
21F4
330
1A
100
AcDbEntity
  8
細線
100
AcDbLine
 10
13176.57167537395
 20
2322.702698467847
 30
0.0
 11
13226.57167537395
 21
2372.702698467847
 31
0.0
  0
LINE
  5
21F5
330
1A
100
AcDbEntity
  8
部品1
100
AcDbLine
 10
12514.20752182898
 20
4438.87234923612
 30
0.0
 11
12276.32755088103
 21
4450.072531201586
 31
0.0
  0
ARC
  5
21F6
330
1A
100
AcDbEntity
  8
部品1
100
AcDbCircle
 10
12510.32755088104
 20
4177.765893699554
 30
0.0
 40
200.0
100
AcDbArc
 50
87.30431450644992
 51
179.5119358598813
  0
LINE
  5
21F7
330
1A
100
AcDbEntity
  8
部品1
100
AcDbLine
 10
11401.35173698
 20
4351.31205442212
 30
0.0
 11
11988.9971067864
 21
4378.980357250506
 31
0.0
  0
LINE
  5
21F8
330
1A
100
AcDbEntity
  8
部品1
100
AcDbLine
 10
11357.57523287672
 20
4409.317379078532
 30
0.0
 11
11360.50527861961
 21
4347.086319052652
 31
0.0
  0
LINE
  5
21F9
330
1A
100
AcDbEntity
  8
部品1
100
AcDbLine
 10
11398.52986307032
 20
4411.245659583481
 30
0.0
 11
11401.4599088132
 21
4349.014599557601
 31
0.0
  0
LINE
  5
21FA
330
1A
100
AcDbEntity
  8
部品1
100
AcDbLine
 10
11360.50527861961
 20
4347.086319052652
 30
0.0
 11
11401.4599088132
 21
4349.014599557601
 31
0.0
  0
LINE
  5
21FB
330
1A
100
AcDbEntity
  8
部品1
100
AcDbLine
 10
12276.32755088103
 20
4567.702698467845
 30
0.0
 11
12276.32755088104
 21
4452.575300717905
 31
0.0
  0
LINE
  5
21FC
330
1A
100
AcDbEntity
  8
部品1
100
AcDbLine
 10
11989.10527861961
 20
4376.682902385986
 30
0.0
 11
12030.0599088132
 21
4378.611182890934
 31
0.0
  0
LINE
  5
21FD
330
1A
100
AcDbEntity
  8
部品1
100
AcDbLine
 10
11986.17523287672
 20
4438.913962411866
 30
0.0
 11
11989.10527861961
 21
4376.682902385986
 31
0.0
  0
CIRCLE
  5
21FE
330
1A
100
AcDbEntity
  8
細線
100
AcDbCircle
 10
12276.32755088104
 20
4316.469538337137
 30
0.0
 40
6.0
  0
LWPOLYLINE
  5
21FF
330
1A
100
AcDbEntity
  8
細線
100
AcDbPolyline
 90
        6
 70
     1
 43
0.0
 10
12269.82755088104
 20
4320.222315086868
 10
12276.32755088104
 20
4323.9750918366
 10
12282.82755088104
 20
4320.222315086868
 10
12282.82755088104
 20
4312.716761587404
 10
12276.32755088104
 20
4308.963984837672
 10
12269.82755088104
 20
4312.716761587404
  0
CIRCLE
  5
2200
330
1A
100
AcDbEntity
  8
細線
100
AcDbCircle
 10
12276.32755088104
 20
4316.469538337137
 30
0.0
 40
8.0
  0
ARC
  5
2201
330
1A
100
AcDbEntity
  8
部品1
100
AcDbCircle
 10
12042.32755088103
 20
4177.765893699554
 30
0.0
 40
200.0
100
AcDbArc
 50
0.4880641401187
 51
92.69568549355007
  0
CIRCLE
  5
2202
330
1A
100
AcDbEntity
  8
細線
100
AcDbCircle
 10
12276.32755088103
 20
4316.469538337137
 30
0.0
 40
8.0
  0
LWPOLYLINE
  5
2203
330
1A
100
AcDbEntity
  8
細線
100
AcDbPolyline
 90
        6
 70
     1
 43
0.0
 10
12282.82755088103
 20
4320.222315086868
 10
12276.32755088103
 20
4323.9750918366
 10
12269.82755088103
 20
4320.222315086868
 10
12269.82755088103
 20
4312.716761587404
 10
12276.32755088103
 20
4308.963984837672
 10
12282.82755088103
 20
4312.716761587404
  0
CIRCLE
  5
2204
330
1A
100
AcDbEntity
  8
細線
100
AcDbCircle
 10
12276.32755088103
 20
4316.469538337137
 30
0.0
 40
6.0
  0
LINE
  5
2205
330
1A
100
AcDbEntity
  8
部品1
100
AcDbLine
 10
12242.32029473677
 20
4179.469538337136
 30
0.0
 11
12276.32755088103
 21
4179.469538337136
 31
0.0
  0
CIRCLE
  5
2206
330
1A
100
AcDbEntity
  8
細線
100
AcDbCircle
 10
12276.32755088104
 20
4214.469538337136
 30
0.0
 40
6.0
  0
LWPOLYLINE
  5
2207
330
1A
100
AcDbEntity
  8
細線
100
AcDbPolyline
 90
        6
 70
     1
 43
0.0
 10
12269.82755088104
 20
4218.222315086868
 10
12276.32755088104
 20
4221.975091836601
 10
12282.82755088104
 20
4218.222315086868
 10
12282.82755088104
 20
4210.716761587404
 10
12276.32755088104
 20
4206.963984837671
 10
12269.82755088104
 20
4210.716761587404
  0
CIRCLE
  5
2208
330
1A
100
AcDbEntity
  8
細線
100
AcDbCircle
 10
12276.32755088104
 20
4214.469538337136
 30
0.0
 40
8.0
  0
CIRCLE
  5
2209
330
1A
100
AcDbEntity
  8
細線
100
AcDbCircle
 10
12276.32755088103
 20
4214.469538337136
 30
0.0
 40
8.0
  0
LWPOLYLINE
  5
220A
330
1A
100
AcDbEntity
  8
細線
100
AcDbPolyline
 90
        6
 70
     1
 43
0.0
 10
12282.82755088103
 20
4218.222315086868
 10
12276.32755088103
 20
4221.975091836601
 10
12269.82755088103
 20
4218.222315086868
 10
12269.82755088103
 20
4210.716761587404
 10
12276.32755088103
 20
4206.963984837671
 10
12282.82755088103
 20
4210.716761587404
  0
CIRCLE
  5
220B
330
1A
100
AcDbEntity
  8
細線
100
AcDbCircle
 10
12276.32755088103
 20
4214.469538337136
 30
0.0
 40
6.0
  0
LINE
  5
220C
330
1A
100
AcDbEntity
  8
部品1
100
AcDbLine
 10
12310.33480702529
 20
4179.469538337136
 30
0.0
 11
12276.32755088103
 21
4179.469538337136
 31
0.0
  0
LINE
  5
220D
330
1A
100
AcDbEntity
  8
部品1
100
AcDbLine
 10
12038.44757993309
 20
4438.87234923612
 30
0.0
 11
12276.32755088104
 21
4450.072531201586
 31
0.0
  0
LINE
  5
220E
330
1A
100
AcDbEntity
  8
部品1
100
AcDbLine
 10
12031.32755088103
 20
4377.469538337137
 30
0.0
 11
12032.92130451543
 21
4377.544577570755
 31
0.0
  0
LINE
  5
220F
330
1A
100
AcDbEntity
  8
部品1
100
AcDbLine
 10
12029.95173698
 20
4380.908637755454
 30
0.0
 11
12031.16294156964
 21
4380.965665304883
 31
0.0
  0
LINE
  5
2210
330
1A
100
AcDbEntity
  8
部品1
100
AcDbLine
 10
12031.32755088103
 20
4377.469538337137
 30
0.0
 11
12028.92895805781
 21
4428.41310272428
 31
0.0
  0
ARC
  5
2211
330
1A
100
AcDbEntity
  8
部品1
100
AcDbCircle
 10
12038.91789225137
 20
4428.883415042561
 30
0.0
 40
10.0
100
AcDbArc
 50
92.69568549355007
 51
182.6956854935736
  0
LINE
  5
2212
330
1A
100
AcDbEntity
  8
部品1
100
AcDbLine
 10
12027.12986307031
 20
4440.842242916814
 30
0.0
 11
12030.0599088132
 21
4378.611182890934
 31
0.0
  0
CIRCLE
  5
2213
330
1A
100
AcDbEntity
  8
細線
100
AcDbCircle
 10
12153.61478861494
 20
4416.764340632224
 30
0.0
 40
6.0
  0
LWPOLYLINE
  5
2214
330
1A
100
AcDbEntity
  8
細線
100
AcDbPolyline
 90
        6
 70
     1
 43
0.0
 10
12147.11478861494
 20
4420.517117381954
 10
12153.61478861494
 20
4424.269894131689
 10
12160.11478861494
 20
4420.517117381954
 10
12160.11478861494
 20
4413.01156388249
 10
12153.61478861494
 20
4409.258787132759
 10
12147.11478861494
 20
4413.01156388249
  0
CIRCLE
  5
2215
330
1A
100
AcDbEntity
  8
細線
100
AcDbCircle
 10
12153.61478861494
 20
4416.764340632224
 30
0.0
 40
8.0
  0
CIRCLE
  5
2216
330
1A
100
AcDbEntity
  8
細線
100
AcDbCircle
 10
12051.72765984063
 20
4411.967154985767
 30
0.0
 40
6.0
  0
LWPOLYLINE
  5
2217
330
1A
100
AcDbEntity
  8
細線
100
AcDbPolyline
 90
        6
 70
     1
 43
0.0
 10
12045.22765984063
 20
4415.719931735498
 10
12051.72765984063
 20
4419.472708485231
 10
12058.22765984063
 20
4415.719931735498
 10
12058.22765984063
 20
4408.214378236034
 10
12051.72765984063
 20
4404.461601486302
 10
12045.22765984063
 20
4408.214378236034
  0
CIRCLE
  5
2218
330
1A
100
AcDbEntity
  8
細線
100
AcDbCircle
 10
12051.72765984063
 20
4411.967154985767
 30
0.0
 40
8.0
  0
CIRCLE
  5
2219
330
1A
100
AcDbEntity
  8
細線
100
AcDbCircle
 10
12255.50191738925
 20
4421.561526278679
 30
0.0
 40
6.0
  0
LWPOLYLINE
  5
221A
330
1A
100
AcDbEntity
  8
細線
100
AcDbPolyline
 90
        6
 70
     1
 43
0.0
 10
12249.00191738925
 20
4425.314303028412
 10
12255.50191738925
 20
4429.067079778143
 10
12262.00191738925
 20
4425.314303028412
 10
12262.00191738925
 20
4417.808749528947
 10
12255.50191738925
 20
4414.055972779215
 10
12249.00191738925
 20
4417.808749528947
  0
CIRCLE
  5
221B
330
1A
100
AcDbEntity
  8
細線
100
AcDbCircle
 10
12255.50191738925
 20
4421.561526278679
 30
0.0
 40
8.0
  0
CIRCLE
  5
221C
330
1A
100
AcDbEntity
  8
細線
100
AcDbCircle
 10
12297.15318437281
 20
4421.561526278679
 30
0.0
 40
8.0
  0
LWPOLYLINE
  5
221D
330
1A
100
AcDbEntity
  8
細線
100
AcDbPolyline
 90
        6
 70
     1
 43
0.0
 10
12303.65318437282
 20
4425.314303028412
 10
12297.15318437281
 20
4429.067079778143
 10
12290.65318437281
 20
4425.314303028412
 10
12290.65318437281
 20
4417.808749528947
 10
12297.15318437281
 20
4414.055972779215
 10
12303.65318437282
 20
4417.808749528947
  0
CIRCLE
  5
221E
330
1A
100
AcDbEntity
  8
細線
100
AcDbCircle
 10
12297.15318437281
 20
4421.561526278679
 30
0.0
 40
6.0
  0
LINE
  5
221F
330
1A
100
AcDbEntity
  8
部品1
100
AcDbLine
 10
13151.30336478207
 20
4351.31205442212
 30
0.0
 11
12563.65799497567
 21
4378.980357250506
 31
0.0
  0
CIRCLE
  5
2220
330
1A
100
AcDbEntity
  8
細線
100
AcDbCircle
 10
12500.92744192144
 20
4411.967154985767
 30
0.0
 40
8.0
  0
LWPOLYLINE
  5
2221
330
1A
100
AcDbEntity
  8
細線
100
AcDbPolyline
 90
        6
 70
     1
 43
0.0
 10
12507.42744192144
 20
4415.719931735498
 10
12500.92744192144
 20
4419.472708485231
 10
12494.42744192144
 20
4415.719931735498
 10
12494.42744192144
 20
4408.214378236034
 10
12500.92744192144
 20
4404.461601486302
 10
12507.42744192144
 20
4408.214378236034
  0
CIRCLE
  5
2222
330
1A
100
AcDbEntity
  8
細線
100
AcDbCircle
 10
12500.92744192144
 20
4411.967154985767
 30
0.0
 40
6.0
  0
CIRCLE
  5
2223
330
1A
100
AcDbEntity
  8
細線
100
AcDbCircle
 10
12399.04031314713
 20
4416.764340632224
 30
0.0
 40
8.0
  0
LWPOLYLINE
  5
2224
330
1A
100
AcDbEntity
  8
細線
100
AcDbPolyline
 90
        6
 70
     1
 43
0.0
 10
12405.54031314713
 20
4420.517117381954
 10
12399.04031314713
 20
4424.269894131689
 10
12392.54031314713
 20
4420.517117381954
 10
12392.54031314713
 20
4413.01156388249
 10
12399.04031314713
 20
4409.258787132759
 10
12405.54031314713
 20
4413.01156388249
  0
CIRCLE
  5
2225
330
1A
100
AcDbEntity
  8
細線
100
AcDbCircle
 10
12399.04031314713
 20
4416.764340632224
 30
0.0
 40
6.0
  0
ARC
  5
2226
330
1A
100
AcDbEntity
  8
部品1
100
AcDbCircle
 10
12513.7372095107
 20
4428.883415042561
 30
0.0
 40
10.0
100
AcDbArc
 50
357.3043145064263
 51
87.30431450644992
  0
LINE
  5
2227
330
1A
100
AcDbEntity
  8
部品1
100
AcDbLine
 10
12521.32755088103
 20
4377.469538337137
 30
0.0
 11
12523.72614370426
 21
4428.41310272428
 31
0.0
  0
LINE
  5
2228
330
1A
100
AcDbEntity
  8
部品1
100
AcDbLine
 10
12521.32755088103
 20
4377.469538337137
 30
0.0
 11
12519.73379724664
 21
4377.544577570755
 31
0.0
  0
LINE
  5
2229
330
1A
100
AcDbEntity
  8
部品1
100
AcDbLine
 10
12522.70336478207
 20
4380.908637755454
 30
0.0
 11
12521.49216019243
 21
4380.965665304883
 31
0.0
  0
LINE
  5
222A
330
1A
100
AcDbEntity
  8
部品1
100
AcDbLine
 10
12566.47986888535
 20
4438.913962411866
 30
0.0
 11
12563.54982314246
 21
4376.682902385986
 31
0.0
  0
LINE
  5
222B
330
1A
100
AcDbEntity
  8
部品1
100
AcDbLine
 10
12563.54982314246
 20
4376.682902385986
 30
0.0
 11
12522.59519294887
 21
4378.611182890934
 31
0.0
  0
LINE
  5
222C
330
1A
100
AcDbEntity
  8
部品1
100
AcDbLine
 10
12525.52523869175
 20
4440.842242916814
 30
0.0
 11
12522.59519294887
 21
4378.611182890934
 31
0.0
  0
LINE
  5
222D
330
1A
100
AcDbEntity
  8
部品1
100
AcDbLine
 10
13192.14982314246
 20
4347.086319052652
 30
0.0
 11
13151.19519294887
 21
4349.014599557601
 31
0.0
  0
LINE
  5
222E
330
1A
100
AcDbEntity
  8
部品1
100
AcDbLine
 10
13154.12523869175
 20
4411.245659583481
 30
0.0
 11
13151.19519294887
 21
4349.014599557601
 31
0.0
  0
LINE
  5
222F
330
1A
100
AcDbEntity
  8
部品1
100
AcDbLine
 10
13195.07986888535
 20
4409.317379078532
 30
0.0
 11
13192.14982314246
 21
4347.086319052652
 31
0.0
  0
DIMENSION
  5
2230
330
1A
100
AcDbEntity
  8
寸法
100
AcDbDimension
  2
*D32
 10
15193.45611201606
 20
2322.702698467847
 30
0.0
 11
15072.01802163522
 21
2503.105744945808
 31
0.0
 70
   160
 71
     5
 42
50.0
  3
物置仕様図40
100
AcDbAlignedDimension
 13
14676.32755088103
 23
2372.702698467847
 33
0.0
 14
15205.59992105415
 24
2322.702698467847
 34
0.0
 50
90.0
100
AcDbRotatedDimension
  0
LINE
  5
2231
330
1A
100
AcDbEntity
  8
点線
 48
50.0
100
AcDbLine
 10
13956.32755088104
 20
2372.702698467847
 30
0.0
 11
13956.32755088104
 21
2052.702698467847
 31
0.0
  0
LINE
  5
2232
330
1A
100
AcDbEntity
  8
点線
 48
50.0
100
AcDbLine
 10
13896.32755088103
 20
2372.702698467847
 30
0.0
 11
13896.32755088104
 21
2052.702698467847
 31
0.0
  0
TEXT
  5
2233
330
1A
100
AcDbEntity
  8
仕様書枠
 62
     7
 48
50.0
100
AcDbText
 10
14507.17944936723
 20
1295.557706291229
 30
0.0
 40
100.0
  1
NO.09     <縮尺> S=1/40
  7
STYLE2
100
AcDbText
  0
TEXT
  5
2234
330
1A
100
AcDbEntity
  8
文字
 62
     7
 48
50.0
100
AcDbText
 10
14552.97026913094
 20
747.8967129911416
 30
0.0
 40
160.0
  1
BF-２４AL
  7
MSGOTHIC
100
AcDbText
  0
TEXT
  5
2235
330
1A
100
AcDbEntity
  8
文字
 62
     7
 48
50.0
100
AcDbText
 10
14840.42318972916
 20
1102.252727072919
 30
0.0
 40
100.0
  1
～一般型～
  7
STYLE2
100
AcDbText
  0
LINE
  5
2236
330
1A
100
AcDbEntity
  8
仕様書枠
  6
Continuous
 48
50.0
100
AcDbLine
 10
14240.0
 20
1464.0
 30
0.0
 11
14240.0
 21
1064.0
 31
0.0
  0
LINE
  5
2237
330
1A
100
AcDbEntity
  8
点線
 48
50.0
100
AcDbLine
 10
13896.32755088104
 20
2052.702698467847
 30
0.0
 11
13956.32755088104
 21
2052.702698467847
 31
0.0
  0
LINE
  5
2238
330
1A
100
AcDbEntity
  8
点線
 48
50.0
100
AcDbLine
 10
13896.32755088103
 20
2052.702698467847
 30
0.0
 11
13956.32755088103
 21
2052.702698467847
 31
0.0
  0
LINE
  5
2239
330
1A
100
AcDbEntity
  8
仕様書枠
 48
50.0
100
AcDbLine
 10
16296.0
 20
1464.0
 30
0.0
 11
16296.0
 21
264.0
 31
0.0
  0
LINE
  5
223A
330
1A
100
AcDbEntity
  8
センター
 48
10.0
100
AcDbLine
 10
13926.32755088103
 20
4136.722031224493
 30
0.0
 11
13926.32755088103
 21
2372.702698467847
 31
0.0
  0
LINE
  5
223B
330
1A
100
AcDbEntity
  8
部品1
100
AcDbLine
 10
13896.32755088103
 20
4145.303455003802
 30
0.0
 11
13896.32755088103
 21
2372.702698467847
 31
0.0
  0
LINE
  5
223C
330
1A
100
AcDbEntity
  8
部品1
100
AcDbLine
 10
13956.32755088104
 20
4145.303455003804
 30
0.0
 11
13956.32755088104
 21
2372.702698467847
 31
0.0
  0
LINE
  5
223D
330
1A
100
AcDbEntity
  8
細線
100
AcDbLine
 10
14254.20240990225
 20
2322.702698467847
 30
0.0
 11
14304.20240990225
 21
2372.702698467847
 31
0.0
  0
LINE
  5
223E
330
1A
100
AcDbEntity
  8
細線
100
AcDbLine
 10
14220.52644944824
 20
2322.702698467847
 30
0.0
 11
14270.52644944824
 21
2372.702698467847
 31
0.0
  0
LINE
  5
223F
330
1A
100
AcDbEntity
  8
細線
100
AcDbLine
 10
14186.85048899423
 20
2322.702698467847
 30
0.0
 11
14236.85048899423
 21
2372.702698467847
 31
0.0
  0
LINE
  5
2240
330
1A
100
AcDbEntity
  8
部品1
100
AcDbLine
 10
14676.32755088103
 20
2372.702698467847
 30
0.0
 11
14676.32755088103
 21
2322.702698467847
 31
0.0
  0
DIMENSION
  5
2241
330
1A
100
AcDbEntity
  8
寸法
100
AcDbDimension
  2
*D33
 10
15199.7331280352
 20
4314.931621460234
 30
0.0
 11
15351.00436626226
 21
4370.005614036622
 31
0.0
 70
   161
 71
     5
 42
115.0000000000009
  3
物置仕様図40
100
AcDbAlignedDimension
 13
14640.37633230062
 23
4456.395401676007
 33
0.0
 14
14634.9677406404
 24
4341.522658450065
 34
0.0
  0
DIMENSION
  5
2242
330
1A
100
AcDbEntity
  8
寸法
100
AcDbDimension
  2
*D34
 10
14676.32755088103
 20
4927.47039549738
 30
0.0
 11
14301.32755088104
 21
5027.470395497379
 31
0.0
 70
    32
 71
     5
 42
750.0000000000018
  3
物置仕様図40
100
AcDbAlignedDimension
 13
13926.32755088103
 23
4136.722031224493
 33
0.0
 14
14676.32755088103
 24
4519.702698467846
 34
0.0
100
AcDbRotatedDimension
1001
ACAD
1000
DSTYLE
1002
{
1070
    75
1070
     1
1002
}
  0
LINE
  5
2243
330
1A
100
AcDbEntity
  8
部品1
100
AcDbLine
 10
14408.50336478207
 20
4292.118887755454
 30
0.0
 11
14113.69216019244
 21
4305.999581971549
 31
0.0
  0
CIRCLE
  5
2244
330
1A
100
AcDbEntity
  8
細線
100
AcDbCircle
 10
13979.22423882499
 20
4342.36401413157
 30
0.0
 40
8.0
  0
LWPOLYLINE
  5
2245
330
1A
100
AcDbEntity
  8
細線
100
AcDbPolyline
 90
        6
 70
     1
 43
0.0
 10
13985.72423882499
 20
4346.1167908813
 10
13979.22423882499
 20
4349.869567631034
 10
13972.72423882499
 20
4346.1167908813
 10
13972.72423882499
 20
4338.611237381836
 10
13979.22423882499
 20
4334.858460632105
 10
13985.72423882499
 20
4338.611237381836
  0
CIRCLE
  5
2246
330
1A
100
AcDbEntity
  8
細線
100
AcDbCircle
 10
13979.22423882499
 20
4342.36401413157
 30
0.0
 40
6.0
  0
LINE
  5
2247
330
1A
100
AcDbEntity
  8
部品1
100
AcDbLine
 10
14106.40752182901
 20
4363.906265902798
 30
0.0
 11
13738.7853902161
 21
4381.215141266237
 31
0.0
  0
ARC
  5
2248
330
1A
100
AcDbEntity
  8
部品1
100
AcDbCircle
 10
14065.32755088103
 20
4199.656551985739
 30
0.0
 40
105.0
100
AcDbArc
 50
87.30431450644992
 51
180.0
  0
ARC
  5
2249
330
1A
100
AcDbEntity
  8
部品1
100
AcDbCircle
 10
13772.32755088104
 20
4198.435351554588
 30
0.0
 40
120.0
100
AcDbArc
 50
0.0
 51
87.30431450644992
  0
CIRCLE
  5
224A
330
1A
100
AcDbEntity
  8
細線
100
AcDbCircle
 10
13926.32755088104
 20
4175.303455003804
 30
0.0
 40
8.0
  0
LWPOLYLINE
  5
224B
330
1A
100
AcDbEntity
  8
細線
100
AcDbPolyline
 90
        6
 70
     1
 43
0.0
 10
13932.82755088104
 20
4179.056231753537
 10
13926.32755088104
 20
4182.809008503268
 10
13919.82755088104
 20
4179.056231753537
 10
13919.82755088104
 20
4171.550678254072
 10
13926.32755088104
 20
4167.79790150434
 10
13932.82755088104
 20
4171.550678254072
  0
CIRCLE
  5
224C
330
1A
100
AcDbEntity
  8
細線
100
AcDbCircle
 10
13926.32755088104
 20
4175.303455003804
 30
0.0
 40
6.0
  0
CIRCLE
  5
224D
330
1A
100
AcDbEntity
  8
細線
100
AcDbCircle
 10
13926.32755088104
 20
4260.303455003804
 30
0.0
 40
8.0
  0
LWPOLYLINE
  5
224E
330
1A
100
AcDbEntity
  8
細線
100
AcDbPolyline
 90
        6
 70
     1
 43
0.0
 10
13932.82755088104
 20
4264.056231753537
 10
13926.32755088104
 20
4267.809008503269
 10
13919.82755088104
 20
4264.056231753537
 10
13919.82755088104
 20
4256.550678254072
 10
13926.32755088104
 20
4252.797901504339
 10
13932.82755088104
 20
4256.550678254072
  0
CIRCLE
  5
224F
330
1A
100
AcDbEntity
  8
細線
100
AcDbCircle
 10
13926.32755088104
 20
4260.303455003804
 30
0.0
 40
6.0
  0
LINE
  5
2250
330
1A
100
AcDbEntity
  8
部品1
100
AcDbLine
 10
13960.32755088103
 20
4145.303455003804
 30
0.0
 11
13892.32755088103
 21
4145.303455003802
 31
0.0
  0
LINE
  5
2251
330
1A
100
AcDbEntity
  8
部品1
100
AcDbLine
 10
13960.32755088103
 20
4199.656551985739
 30
0.0
 11
13960.32755088103
 21
4145.303455003804
 31
0.0
  0
LINE
  5
2252
330
1A
100
AcDbEntity
  8
部品1
100
AcDbLine
 10
13892.32755088103
 20
4198.435351554588
 30
0.0
 11
13892.32755088103
 21
4145.303455003802
 31
0.0
  0
LINE
  5
2253
330
1A
100
AcDbEntity
  8
部品1
100
AcDbLine
 10
13816.19274650168
 20
4327.014600678467
 30
0.0
 11
13785.22705050165
 21
4328.472568865134
 31
0.0
  0
CIRCLE
  5
2254
330
1A
100
AcDbEntity
  8
細線
100
AcDbCircle
 10
13767.45883392151
 20
4352.334635279105
 30
0.0
 40
8.0
  0
LWPOLYLINE
  5
2255
330
1A
100
AcDbEntity
  8
細線
100
AcDbPolyline
 90
        6
 70
     1
 43
0.0
 10
13773.95883392151
 20
4356.087412028839
 10
13767.45883392151
 20
4359.840188778569
 10
13760.95883392151
 20
4356.087412028839
 10
13760.95883392151
 20
4348.581858529374
 10
13767.45883392151
 20
4344.82908177964
 10
13773.95883392151
 20
4348.581858529374
  0
CIRCLE
  5
2256
330
1A
100
AcDbEntity
  8
細線
100
AcDbCircle
 10
13767.45883392151
 20
4352.334635279105
 30
0.0
 40
6.0
  0
ARC
  5
2257
330
1A
100
AcDbEntity
  8
部品1
100
AcDbCircle
 10
13785.46220666079
 20
4333.467035961915
 30
0.0
 40
5.0
100
AcDbArc
 50
177.3043145064263
 51
267.3043145064499
  0
ARC
  5
2258
330
1A
100
AcDbEntity
  8
部品1
100
AcDbCircle
 10
13738.31507789782
 20
4371.226207072676
 30
0.0
 40
10.0
100
AcDbArc
 50
87.30431450644992
 51
177.3043145064263
  0
LINE
  5
2259
330
1A
100
AcDbEntity
  8
部品1
100
AcDbLine
 10
13725.92755088104
 20
4320.752955003803
 30
0.0
 11
13728.32614370426
 21
4371.696519390956
 31
0.0
  0
LINE
  5
225A
330
1A
100
AcDbEntity
  8
部品1
100
AcDbLine
 10
13777.97129870039
 20
4318.30256187731
 30
0.0
 11
13725.92755088103
 21
4320.752955003801
 31
0.0
  0
LINE
  5
225B
330
1A
100
AcDbEntity
  8
部品1
100
AcDbLine
 10
13782.72523869175
 20
4381.649076250148
 30
0.0
 11
13780.46773956401
 21
4333.702192121054
 31
0.0
  0
CIRCLE
  5
225C
330
1A
100
AcDbEntity
  8
細線
100
AcDbCircle
 10
13873.34153637325
 20
4347.349324705337
 30
0.0
 40
8.0
  0
LWPOLYLINE
  5
225D
330
1A
100
AcDbEntity
  8
細線
100
AcDbPolyline
 90
        6
 70
     1
 43
0.0
 10
13879.84153637325
 20
4351.10210145507
 10
13873.34153637325
 20
4354.854878204802
 10
13866.84153637325
 20
4351.10210145507
 10
13866.84153637325
 20
4343.596547955605
 10
13873.34153637325
 20
4339.843771205873
 10
13879.84153637325
 20
4343.596547955605
  0
CIRCLE
  5
225E
330
1A
100
AcDbEntity
  8
細線
100
AcDbCircle
 10
13873.34153637325
 20
4347.349324705337
 30
0.0
 40
6.0
  0
ARC
  5
225F
330
1A
100
AcDbEntity
  8
部品1
100
AcDbCircle
 10
13816.42790266082
 20
4332.009067775246
 30
0.0
 40
5.0
100
AcDbArc
 50
267.3043145064499
 51
357.3043145064263
  0
LINE
  5
2260
330
1A
100
AcDbEntity
  8
部品1
100
AcDbLine
 10
13823.67986888535
 20
4379.720795745201
 30
0.0
 11
13821.4223697576
 21
4331.773911616106
 31
0.0
  0
LINE
  5
2261
330
1A
100
AcDbEntity
  8
部品1
100
AcDbLine
 10
14113.52755088103
 20
4302.503455003804
 30
0.0
 11
14115.92614370429
 21
4353.447019390954
 31
0.0
  0
LINE
  5
2262
330
1A
100
AcDbEntity
  8
部品1
100
AcDbLine
 10
14113.52755088104
 20
4302.503455003804
 30
0.0
 11
14070.26583022298
 21
4304.54036101812
 31
0.0
  0
CIRCLE
  5
2263
330
1A
100
AcDbEntity
  8
細線
100
AcDbCircle
 10
14085.10694127673
 20
4337.3787035578
 30
0.0
 40
6.0
  0
LWPOLYLINE
  5
2264
330
1A
100
AcDbEntity
  8
細線
100
AcDbPolyline
 90
        6
 70
     1
 43
0.0
 10
14091.60694127673
 20
4341.131480307533
 10
14085.10694127673
 20
4344.884257057265
 10
14078.60694127673
 20
4341.131480307533
 10
14078.60694127673
 20
4333.625926808069
 10
14085.10694127673
 20
4329.873150058336
 10
14091.60694127673
 20
4333.625926808069
  0
CIRCLE
  5
2265
330
1A
100
AcDbEntity
  8
細線
100
AcDbCircle
 10
14085.10694127673
 20
4337.3787035578
 30
0.0
 40
8.0
  0
ARC
  5
2266
330
1A
100
AcDbEntity
  8
部品1
100
AcDbCircle
 10
14105.93720951073
 20
4353.917331709239
 30
0.0
 40
10.0
100
AcDbArc
 50
357.3043145064263
 51
87.30431450644992
  0
LINE
  5
2267
330
1A
100
AcDbEntity
  8
部品1
100
AcDbLine
 10
14485.30225783784
 20
4293.482394001272
 30
0.0
 11
14497.7368059872
 21
4341.964258998145
 31
0.0
  0
LINE
  5
2268
330
1A
100
AcDbEntity
  8
部品1
100
AcDbLine
 10
14454.27765572406
 20
4350.030149948212
 30
0.0
 11
14451.31468811889
 21
4287.099864528783
 31
0.0
  0
LINE
  5
2269
330
1A
100
AcDbEntity
  8
部品1
100
AcDbLine
 10
14452.27986888535
 20
4350.124212411866
 30
0.0
 11
14449.34982314246
 21
4287.893152385986
 31
0.0
  0
LINE
  5
226A
330
1A
100
AcDbEntity
  8
部品1
100
AcDbLine
 10
14411.32523869175
 20
4352.052492916815
 30
0.0
 11
14408.39519294887
 21
4289.821432890934
 31
0.0
  0
LINE
  5
226B
330
1A
100
AcDbEntity
  8
部品1
100
AcDbLine
 10
14475.14546554208
 20
4285.977832091772
 30
0.0
 11
14451.31468811889
 21
4287.099864528782
 31
0.0
  0
LINE
  5
226C
330
1A
100
AcDbEntity
  8
部品1
100
AcDbLine
 10
14449.34982314246
 20
4287.893152385986
 30
0.0
 11
14408.39519294887
 21
4289.821432890934
 31
0.0
  0
LINE
  5
226D
330
1A
100
AcDbEntity
  8
部品1
100
AcDbLine
 10
14451.45578181438
 20
4290.096544786851
 30
0.0
 11
14449.45799497567
 21
4290.190607250506
 31
0.0
  0
ARC
  5
226E
330
1A
100
AcDbEntity
  8
部品1
100
AcDbCircle
 10
14475.61577786036
 20
4295.966766285333
 30
0.0
 40
10.0
100
AcDbArc
 50
267.3043145064499
 51
345.6149453310563
  0
ARC
  5
226F
330
1A
100
AcDbEntity
  8
部品1
100
AcDbCircle
 10
14492.89356599846
 20
4343.206445140176
 30
0.0
 40
5.0
100
AcDbArc
 50
345.6149453310563
 51
87.30431450644992
  0
LINE
  5
2270
330
1A
100
AcDbEntity
  8
部品1
100
AcDbLine
 10
14653.33910878918
 20
4455.78507094967
 30
0.0
 11
14643.93494345153
 21
4341.100452651042
 31
0.0
  0
ARC
  5
2271
330
1A
100
AcDbEntity
  8
部品1
100
AcDbCircle
 10
14662.27100405182
 20
4442.350126062946
 30
0.0
 40
13.0
100
AcDbArc
 50
355.312220933527
 51
87.30431450644992
  0
ARC
  5
2272
330
1A
100
AcDbEntity
  8
部品1
100
AcDbCircle
 10
14654.99299783398
 20
4353.59420407531
 30
0.0
 40
13.0
100
AcDbArc
 50
267.3043145064499
 51
355.312220933527
  0
LINE
  5
2273
330
1A
100
AcDbEntity
  8
部品1
100
AcDbLine
 10
14675.22751698825
 20
4441.287688992821
 30
0.0
 11
14667.94951077042
 21
4352.531767005184
 31
0.0
  0
LINE
  5
2274
330
1A
100
AcDbEntity
  8
部品1
100
AcDbLine
 10
15890.96517903319
 20
8648.443716848936
 30
0.0
 11
12490.96517903319
 21
8648.443716848936
 31
0.0
  0
LINE
  5
2275
330
1A
100
AcDbEntity
  8
部品1
100
AcDbLine
 10
15890.96517903319
 20
8096.868516848948
 30
0.0
 11
12490.96517903319
 21
8096.868516848948
 31
0.0
  0
LINE
  5
2276
330
1A
100
AcDbEntity
  8
部品1
100
AcDbLine
 10
15890.96517903319
 20
9016.160516848943
 30
0.0
 11
12490.96517903319
 21
9016.160516848945
 31
0.0
  0
LINE
  5
2277
330
1A
100
AcDbEntity
  8
部品1
100
AcDbLine
 10
15890.96517903319
 20
9567.735716848943
 30
0.0
 11
12490.96517903319
 21
9567.735716848943
 31
0.0
  0
LINE
  5
2278
330
1A
100
AcDbEntity
  8
部品1
100
AcDbLine
 10
15890.96517903319
 20
8464.585316848944
 30
0.0
 11
12490.96517903319
 21
8464.585316848944
 31
0.0
  0
LINE
  5
2279
330
1A
100
AcDbEntity
  8
部品1
100
AcDbLine
 10
15890.96517903319
 20
8280.726916848946
 30
0.0
 11
12490.96517903319
 21
8280.726916848946
 31
0.0
  0
LINE
  5
227A
330
1A
100
AcDbEntity
  8
部品1
100
AcDbLine
 10
15890.96517903319
 20
8832.302116848939
 30
0.0
 11
12490.96517903319
 21
8832.302116848939
 31
0.0
  0
TEXT
  5
227B
330
1A
100
AcDbEntity
  8
文字
 62
     7
 48
50.0
100
AcDbText
 10
13168.61298636349
 20
10703.77919129711
 30
0.0
 40
108.152
  1
部　　品　　名
  7
STYLE1
100
AcDbText
  0
LINE
  5
227C
330
1A
100
AcDbEntity
  8
部品1
100
AcDbLine
 10
15890.96517903319
 20
10119.31091684894
 30
0.0
 11
12490.96517903319
 21
10119.31091684894
 31
0.0
  0
LINE
  5
227D
330
1A
100
AcDbEntity
  8
部品1
100
AcDbLine
 10
15890.96517903319
 20
9751.594116848945
 30
0.0
 11
12490.96517903319
 21
9751.594116848945
 31
0.0
  0
LINE
  5
227E
330
1A
100
AcDbEntity
  8
部品1
100
AcDbLine
 10
15890.96517903319
 20
9935.452516848942
 30
0.0
 11
12490.96517903319
 21
9935.452516848942
 31
0.0
  0
LINE
  5
227F
330
1A
100
AcDbEntity
  8
部品1
100
AcDbLine
 10
15890.96517903319
 20
10487.02771684894
 30
0.0
 11
12490.96517903319
 21
10487.02771684894
 31
0.0
  0
LINE
  5
2280
330
1A
100
AcDbEntity
  8
部品1
100
AcDbLine
 10
15890.96517903319
 20
10303.16931684894
 30
0.0
 11
12490.96517903319
 21
10303.16931684894
 31
0.0
  0
LINE
  5
2281
330
1A
100
AcDbEntity
  8
部品1
100
AcDbLine
 10
15890.96517903319
 20
10670.88611684894
 30
0.0
 11
12490.96517903319
 21
10670.88611684894
 31
0.0
  0
LINE
  5
2282
330
1A
100
AcDbEntity
  8
部品1
100
AcDbLine
 10
15890.96517903319
 20
10854.74451684894
 30
0.0
 11
12490.96517903319
 21
10854.74451684894
 31
0.0
  0
LINE
  5
2283
330
1A
100
AcDbEntity
  8
部品1
100
AcDbLine
 10
15890.96517903319
 20
9200.018916848945
 30
0.0
 11
12490.96517903319
 21
9200.018916848947
 31
0.0
  0
TEXT
  5
2284
330
1A
100
AcDbEntity
  8
文字
 62
     7
 48
50.0
100
AcDbText
 10
12599.69234013869
 20
8313.619991297114
 30
0.0
 40
108.152
  1
F12→溶融亜鉛めっき鋼板(JIS G 3302)
  7
STYLE1
100
AcDbText
  0
TEXT
  5
2285
330
1A
100
AcDbEntity
  8
文字
 62
     7
 48
50.0
100
AcDbText
 10
12599.69234013868
 20
8129.761591297111
 30
0.0
 40
108.152
  1
Y10→溶融亜鉛-5％アルミニウム合金めっき鋼板(JIS G 3317)
 41
0.9
  7
STYLE1
100
AcDbText
  0
TEXT
  5
2286
330
1A
100
AcDbEntity
  8
文字
 62
     7
 48
50.0
100
AcDbText
 10
12599.69234013891
 20
8497.478391297113
 30
0.0
 40
108.152
  1
PZ→一般構造用角形鋼管(JIS G 3466)
 41
0.9
  7
STYLE1
100
AcDbText
  0
LINE
  5
2287
330
1A
100
AcDbEntity
  8
部品1
100
AcDbLine
 10
15890.96517903319
 20
9383.877316848943
 30
0.0
 11
12490.96517903319
 21
9383.877316848943
 31
0.0
  0
LINE
  5
2288
330
1A
100
AcDbEntity
  8
部品1
100
AcDbLine
 10
12490.96517903319
 20
10854.74451684894
 30
0.0
 11
12490.96517903319
 21
8096.868516848948
 31
0.0
  0
TEXT
  5
2289
330
1A
100
AcDbEntity
  8
文字
 62
     7
 48
50.0
100
AcDbText
 10
12644.42347294063
 20
9600.628791297111
 30
0.0
 40
108.152
  1
6
  7
STYLE1
100
AcDbText
  0
LINE
  5
228A
330
1A
100
AcDbEntity
  8
部品1
100
AcDbLine
 10
12881.28681940675
 20
10854.74451684894
 30
0.0
 11
12881.28681940678
 21
8648.443716848936
 31
0.0
  0
TEXT
  5
228B
330
1A
100
AcDbEntity
  8
文字
 62
     7
 48
50.0
100
AcDbText
 10
12981.77970043476
 20
9600.628791297113
 30
0.0
 40
108.152
  1
屋根パネル
  7
STYLE1
100
AcDbText
  0
TEXT
  5
228C
330
1A
100
AcDbEntity
  8
文字
 62
     7
 48
50.0
100
AcDbText
 10
12981.77970043476
 20
8681.336791297113
 30
0.0
 40
108.152
  1
棟板
  7
STYLE1
100
AcDbText
  0
TEXT
  5
228D
330
1A
100
AcDbEntity
  8
文字
 62
     7
 48
50.0
100
AcDbText
 10
12620.18352872435
 20
8681.336791297106
 30
0.0
 40
108.152
  1
11
  7
STYLE1
100
AcDbText
  0
TEXT
  5
228E
330
1A
100
AcDbEntity
  8
文字
 62
     7
 48
50.0
100
AcDbText
 10
12981.77970043476
 20
9232.911991297113
 30
0.0
 40
108.152
  1
鼻隠シ
  7
STYLE1
100
AcDbText
  0
TEXT
  5
228F
330
1A
100
AcDbEntity
  8
文字
 62
     7
 48
50.0
100
AcDbText
 10
12981.77970043476
 20
9049.053591297109
 30
0.0
 40
108.152
  1
プレート
  7
STYLE1
100
AcDbText
  0
TEXT
  5
2290
330
1A
100
AcDbEntity
  8
文字
 62
     7
 48
50.0
100
AcDbText
 10
12981.77970043476
 20
8865.195191297111
 30
0.0
 40
108.152
  1
車止メ棒
  7
STYLE1
100
AcDbText
  0
TEXT
  5
2291
330
1A
100
AcDbEntity
  8
文字
 62
     7
 48
50.0
100
AcDbText
 10
12981.77970043476
 20
9416.770391297111
 30
0.0
 40
108.152
  1
妻板
  7
STYLE1
100
AcDbText
  0
TEXT
  5
2292
330
1A
100
AcDbEntity
  8
文字
 62
     7
 48
50.0
100
AcDbText
 10
12644.42347294062
 20
9049.053591297109
 30
0.0
 40
108.152
  1
9
  7
STYLE1
100
AcDbText
  0
TEXT
  5
2293
330
1A
100
AcDbEntity
  8
文字
 62
     7
 48
50.0
100
AcDbText
 10
12620.18352872435
 20
8865.195191297109
 30
0.0
 40
108.152
  1
10
  7
STYLE1
100
AcDbText
  0
TEXT
  5
2294
330
1A
100
AcDbEntity
  8
文字
 62
     7
 48
50.0
100
AcDbText
 10
12644.42347294062
 20
9416.770391297111
 30
0.0
 40
108.152
  1
7
  7
STYLE1
100
AcDbText
  0
TEXT
  5
2295
330
1A
100
AcDbEntity
  8
文字
 62
     7
 48
50.0
100
AcDbText
 10
12644.42347294062
 20
9232.911991297111
 30
0.0
 40
108.152
  1
8
  7
STYLE1
100
AcDbText
  0
LINE
  5
2296
330
1A
100
AcDbEntity
  8
寸法
100
AcDbLine
 10
8633.537714463043
 20
10784.50484645163
 30
0.0
 11
8633.537714463043
 21
11084.50484645163
 31
0.0
  0
TEXT
  5
2297
330
1A
100
AcDbEntity
  8
文字
 62
     7
 48
50.0
100
AcDbText
 10
12981.77970043475
 20
10519.92079129711
 30
0.0
 40
108.152
  1
柱
  7
STYLE1
100
AcDbText
  0
TEXT
  5
2298
330
1A
100
AcDbEntity
  8
文字
 62
     7
 48
50.0
100
AcDbText
 10
12644.42347294063
 20
10519.92079129711
 30
0.0
 40
108.152
  1
1
  7
STYLE1
100
AcDbText
  0
TEXT
  5
2299
330
1A
100
AcDbEntity
  8
文字
 62
     7
 48
50.0
100
AcDbText
 10
12981.77970043476
 20
9968.345591297117
 30
0.0
 40
108.152
  1
梁中屋根板
  7
STYLE1
100
AcDbText
  0
TEXT
  5
229A
330
1A
100
AcDbEntity
  8
文字
 62
     7
 48
50.0
100
AcDbText
 10
12981.77970043476
 20
10152.20399129711
 30
0.0
 40
108.152
  1
母屋
  7
STYLE1
100
AcDbText
  0
TEXT
  5
229B
330
1A
100
AcDbEntity
  8
文字
 62
     7
 48
50.0
100
AcDbText
 10
12981.77970043476
 20
10336.06239129711
 30
0.0
 40
108.152
  1
梁
  7
STYLE1
100
AcDbText
  0
TEXT
  5
229C
330
1A
100
AcDbEntity
  8
文字
 62
     7
 48
50.0
100
AcDbText
 10
12981.77970043477
 20
9784.48719129711
 30
0.0
 40
108.152
  1
腰パネル
  7
STYLE1
100
AcDbText
  0
TEXT
  5
229D
330
1A
100
AcDbEntity
  8
文字
 62
     7
 48
50.0
100
AcDbText
 10
12644.42347294063
 20
9784.48719129711
 30
0.0
 40
108.152
  1
5
  7
STYLE1
100
AcDbText
  0
TEXT
  5
229E
330
1A
100
AcDbEntity
  8
文字
 62
     7
 48
50.0
100
AcDbText
 10
12644.42347294063
 20
9968.345591297111
 30
0.0
 40
108.152
  1
4
  7
STYLE1
100
AcDbText
  0
TEXT
  5
229F
330
1A
100
AcDbEntity
  8
文字
 62
     7
 48
50.0
100
AcDbText
 10
12644.42347294063
 20
10152.20399129711
 30
0.0
 40
108.152
  1
3
  7
STYLE1
100
AcDbText
  0
TEXT
  5
22A0
330
1A
100
AcDbEntity
  8
文字
 62
     7
 48
50.0
100
AcDbText
 10
12644.42347294063
 20
10336.06239129711
 30
0.0
 40
108.152
  1
2
  7
STYLE1
100
AcDbText
  0
TEXT
  5
22A1
330
1A
100
AcDbEntity
  8
文字
 62
     7
 48
50.0
100
AcDbText
 10
12564.64500214127
 20
10703.77919129711
 30
0.0
 40
108.152
  1
品番
  7
STYLE1
100
AcDbText
  0
TEXT
  5
22A2
330
1A
100
AcDbEntity
  8
文字
 62
     7
 48
50.0
100
AcDbText
 10
14480.24093497935
 20
9600.628791297113
 30
0.0
 40
108.152
  1
Y10            0.5
  7
STYLE1
100
AcDbText
  0
LINE
  5
22A3
330
1A
100
AcDbEntity
  8
部品1
100
AcDbLine
 10
14244.89173903319
 20
10854.74451684894
 30
0.0
 11
14244.89173903319
 21
8648.443716848936
 31
0.0
  0
LINE
  5
22A4
330
1A
100
AcDbEntity
  8
部品1
100
AcDbLine
 10
15890.96517903319
 20
8096.868516848948
 30
0.0
 11
15890.96517903319
 21
10854.74451684894
 31
0.0
  0
TEXT
  5
22A5
330
1A
100
AcDbEntity
  8
文字
 62
     7
 48
50.0
100
AcDbText
 10
14480.24093497935
 20
8681.336791297109
 30
0.0
 40
108.152
  1
Y10            1.0
  7
STYLE1
100
AcDbText
  0
TEXT
  5
22A6
330
1A
100
AcDbEntity
  8
文字
 62
     7
 48
50.0
100
AcDbText
 10
14501.68747443319
 20
9049.053591297109
 30
0.0
 40
108.152
  1
F12            2.3
  7
STYLE1
100
AcDbText
  0
TEXT
  5
22A7
330
1A
100
AcDbEntity
  8
文字
 62
     7
 48
50.0
100
AcDbText
 10
14480.24093497935
 20
9232.911991297113
 30
0.0
 40
108.152
  1
Y10            0.7
  7
STYLE1
100
AcDbText
  0
TEXT
  5
22A8
330
1A
100
AcDbEntity
  8
文字
 62
     7
 48
50.0
100
AcDbText
 10
14480.24093497935
 20
9416.770391297111
 30
0.0
 40
108.152
  1
Y10            0.7
  7
STYLE1
100
AcDbText
  0
TEXT
  5
22A9
330
1A
100
AcDbEntity
  8
文字
 62
     7
 48
50.0
100
AcDbText
 10
14501.68747443321
 20
8865.195191297111
 30
0.0
 40
108.152
  1
F12            1.2
  7
STYLE1
100
AcDbText
  0
TEXT
  5
22AA
330
1A
100
AcDbEntity
  8
文字
 62
     7
 48
50.0
100
AcDbText
 10
14480.24093497935
 20
9968.345591297111
 30
0.0
 40
108.152
  1
Y10            1.0
  7
STYLE1
100
AcDbText
  0
TEXT
  5
22AB
330
1A
100
AcDbEntity
  8
文字
 62
     7
 48
50.0
100
AcDbText
 10
14480.24093497935
 20
9784.48719129711
 30
0.0
 40
108.152
  1
Y10            0.6
  7
STYLE1
100
AcDbText
  0
TEXT
  5
22AC
330
1A
100
AcDbEntity
  8
文字
 62
     7
 48
50.0
100
AcDbText
 10
14501.68747443318
 20
10336.06239129711
 30
0.0
 40
108.152
  1
PZ            2.3
  7
STYLE1
100
AcDbText
  0
TEXT
  5
22AD
330
1A
100
AcDbEntity
  8
文字
 62
     7
 48
50.0
100
AcDbText
 10
14501.6874744332
 20
10152.20399129711
 30
0.0
 40
108.152
  1
F12            1.6
  7
STYLE1
100
AcDbText
  0
TEXT
  5
22AE
330
1A
100
AcDbEntity
  8
文字
 62
     7
 48
50.0
100
AcDbText
 10
14501.68747443319
 20
10519.92079129711
 30
0.0
 40
108.152
  1
PZ            2.3
  7
STYLE1
100
AcDbText
  0
TEXT
  5
22AF
330
1A
100
AcDbEntity
  8
文字
 62
     7
 48
50.0
100
AcDbText
 10
14325.57069344374
 20
10703.77919129711
 30
0.0
 40
108.152
  1
材料（材質）　　単位mm
  7
STYLE1
100
AcDbText
  0
VIEWPORT
  5
22
102
{ACAD_XDICTIONARY
360
27C9
102
}
330
17
100
AcDbEntity
 67
     1
  8
0
100
AcDbViewport
 10
261.5176991150442
 20
154.7242978687078
 30
0.0
 40
523.0353982300885
 41
309.4485957374157
 68
     1
 69
     1
 12
261.5176991150442
 22
154.7242978687078
 13
0.0
 23
0.0
 14
1.0
 24
1.0
 15
10.0
 25
10.0
 16
0.0
 26
0.0
 36
1.0
 17
0.0
 27
0.0
 37
0.0
 42
50.0
 43
0.0
 44
0.0
 45
309.4485957374157
 50
0.0
 51
0.0
 72
   100
 90
    32768
  1

281
     0
 71
     1
 74
     0
110
0.0
120
0.0
130
0.0
111
1.0
121
0.0
131
0.0
112
0.0
122
1.0
132
0.0
 79
     0
146
0.0
  0
ENDSEC
  0
SECTION
  2
OBJECTS
  0
DICTIONARY
  5
C
330
0
100
AcDbDictionary
281
     1
  3
ACAD_COLOR
350
17B3
  3
ACAD_GROUP
350
D
  3
ACAD_LAYOUT
350
17B4
  3
ACAD_MATERIAL
350
17B2
  3
ACAD_MLINESTYLE
350
E
  3
ACAD_PLOTSETTINGS
350
17B5
  3
ACAD_PLOTSTYLENAME
350
17B0
  3
ACDBHEADERROUNDTRIPXREC
350
27C6
  3
AcDbVariableDictionary
350
27C2
  0
DICTIONARY
  5
17DD
330
2
100
AcDbDictionary
280
     1
281
     1
  3
ACAD_LAYERFILTERS
360
18C5
  3
ACAD_LAYERSTATES
360
17DE
  0
DICTIONARY
  5
27C9
330
22
100
AcDbDictionary
280
     1
281
     1
  3
ACAD_XREC_ROUNDTRIP
360
27CA
  0
DICTIONARY
  5
17B3
102
{ACAD_REACTORS
330
C
102
}
330
C
100
AcDbDictionary
281
     1
  0
DICTIONARY
  5
D
102
{ACAD_REACTORS
330
C
102
}
330
C
100
AcDbDictionary
281
     1
  0
DICTIONARY
  5
17B4
102
{ACAD_REACTORS
330
C
102
}
330
C
100
AcDbDictionary
281
     1
  3
Model
350
17B6
  3
レイアウト1
350
17B7
  0
DICTIONARY
  5
17B2
102
{ACAD_REACTORS
330
C
102
}
330
C
100
AcDbDictionary
281
     1
  0
DICTIONARY
  5
E
102
{ACAD_REACTORS
330
C
102
}
330
C
100
AcDbDictionary
281
     1
  3
STANDARD
350
13
  0
DICTIONARY
  5
17B5
102
{ACAD_REACTORS
330
C
102
}
330
C
100
AcDbDictionary
281
     1
  0
ACDBDICTIONARYWDFLT
  5
17B0
102
{ACAD_REACTORS
330
C
102
}
330
C
100
AcDbDictionary
281
     1
  3
Normal
350
17B1
100
AcDbDictionaryWithDefault
340
17B1
  0
DICTIONARY
  5
27C6
102
{ACAD_REACTORS
330
C
102
}
330
C
100
AcDbDictionary
281
     1
  3
COLORDICT
350
27C8
  3
MATERIALDICT
350
27C7
  0
DICTIONARY
  5
27C2
102
{ACAD_REACTORS
330
C
102
}
330
C
100
AcDbDictionary
281
     1
  3
DIMASSOC
350
27C3
  3
PROJECTNAME
350
27C4
  0
DICTIONARY
  5
18C5
102
{ACAD_REACTORS
330
17DD
102
}
330
17DD
100
AcDbDictionary
281
     1
  0
DICTIONARY
  5
17DE
102
{ACAD_REACTORS
330
17DD
102
}
330
17DD
100
AcDbDictionary
281
     1
  0
XRECORD
  5
27CA
102
{ACAD_REACTORS
330
27C9
102
}
330
27C9
100
AcDbXrecord
280
     1
102
SHADEPLOT
 70
     0
  0
LAYOUT
  5
17B6
102
{ACAD_XDICTIONARY
360
27CB
102
}
102
{ACAD_REACTORS
330
17B4
102
}
330
17B4
100
AcDbPlotSettings
  1

  2
iR C3880
  4
A3
  6

 40
5.873749732971191
 41
5.873747825622558
 42
5.873748779296875
 43
5.873748779296875
 44
296.9259948730469
 45
419.9466552734374
 46
0.0
 47
0.0
 48
0.0
 49
0.0
140
0.0
141
0.0
142
1.0
143
40.0
 70
 11952
 72
     1
 73
     1
 74
     2
  7
inaba.ctb
 75
    24
147
0.025
148
0.0
149
0.0
100
AcDbLayout
  1
Model
 70
     1
 71
     0
 10
0.0
 20
0.0
 11
12.0
 21
9.0
 12
0.0
 22
0.0
 32
0.0
 14
0.0
 24
0.0
 34
0.0
 15
0.0
 25
0.0
 35
0.0
146
0.0
 13
0.0
 23
0.0
 33
0.0
 16
1.0
 26
0.0
 36
0.0
 17
0.0
 27
1.0
 37
0.0
 76
     0
330
1A
  0
LAYOUT
  5
17B7
102
{ACAD_XDICTIONARY
360
27CD
102
}
102
{ACAD_REACTORS
330
17B4
102
}
330
17B4
100
AcDbPlotSettings
  1

  2
自動 EPSON LP-8400FX (TATENO 上)
  4

  6

 40
0.0
 41
0.0
 42
0.0
 43
0.0
 44
0.0
 45
0.0
 46
0.0
 47
0.0
 48
0.0
 49
0.0
140
0.0
141
0.0
142
1.0
143
1.0
 70
   688
 72
     0
 73
     0
 74
     5
  7
inaba.ctb
 75
    16
147
1.0
148
0.0
149
0.0
100
AcDbLayout
  1
レイアウト1
 70
     1
 71
     1
 10
0.0
 20
0.0
 11
420.0
 21
297.0
 12
0.0
 22
0.0
 32
0.0
 14
1.000000000000000E+20
 24
1.000000000000000E+20
 34
1.000000000000000E+20
 15
-1.000000000000000E+20
 25
-1.000000000000000E+20
 35
-1.000000000000000E+20
146
0.0
 13
0.0
 23
0.0
 33
0.0
 16
1.0
 26
0.0
 36
0.0
 17
0.0
 27
1.0
 37
0.0
 76
     0
330
17
331
22
  0
MLINESTYLE
  5
13
102
{ACAD_REACTORS
330
E
102
}
330
E
100
AcDbMlineStyle
  2
STANDARD
 70
     0
  3

 62
     0
 51
90.0
 52
90.0
 71
     2
 49
0.5
 62
   256
  6
BYLAYER
 49
-0.5
 62
   256
  6
BYLAYER
  0
ACDBPLACEHOLDER
  5
17B1
102
{ACAD_REACTORS
330
17B0
102
}
330
17B0
  0
XRECORD
  5
27C8
102
{ACAD_REACTORS
330
27C6
102
}
330
27C6
100
AcDbXrecord
280
     1
340
17B3
  0
XRECORD
  5
27C7
102
{ACAD_REACTORS
330
27C6
102
}
330
27C6
100
AcDbXrecord
280
     1
340
17B2
  0
DICTIONARYVAR
  5
27C3
102
{ACAD_REACTORS
330
27C2
102
}
330
27C2
100
DictionaryVariables
280
     0
  1
1
  0
DICTIONARYVAR
  5
27C4
102
{ACAD_REACTORS
330
27C2
102
}
330
27C2
100
DictionaryVariables
280
     0
  1

  0
DICTIONARY
  5
27CB
330
17B6
100
AcDbDictionary
280
     1
281
     1
  3
ACAD_XREC_ROUNDTRIP
360
27CC
  0
DICTIONARY
  5
27CD
330
17B7
100
AcDbDictionary
280
     1
281
     1
  3
ACAD_XREC_ROUNDTRIP
360
27CE
  0
XRECORD
  5
27CC
102
{ACAD_REACTORS
330
27CB
102
}
330
27CB
100
AcDbXrecord
280
     1
102
SHADEPLOT
 70
     0
102
SHADEPLOTRESLEVEL
 70
     2
102
SHADEPLOTCUSTOMDPI
 70
   300
  0
XRECORD
  5
27CE
102
{ACAD_REACTORS
330
27CD
102
}
330
27CD
100
AcDbXrecord
280
     1
102
SHADEPLOT
 70
     0
102
SHADEPLOTRESLEVEL
 70
     2
102
SHADEPLOTCUSTOMDPI
 70
   300
  0
ENDSEC
  0
EOF
