  0
SECTION
  2
HEADER
  9
$ACADVER
  1
AC1015
  9
$ACADMAINTVER
 70
    20
  9
$DWGCODEPAGE
  3
ANSI_932
  9
$INSBASE
 10
0.0
 20
0.0
 30
0.0
  9
$EXTMIN
 10
128.8000000000011
 20
264.0
 30
0.0
  9
$EXTMAX
 10
16296.0
 20
10919.41427062826
 30
0.0
  9
$LIMMIN
 10
0.0
 20
0.0
  9
$LIMMAX
 10
16800.0
 20
11880.0
  9
$ORTHOMODE
 70
     0
  9
$REGENMODE
 70
     1
  9
$FILLMODE
 70
     1
  9
$QTEXTMODE
 70
     0
  9
$MIRRTEXT
 70
     1
  9
$LTSCALE
 40
7.0
  9
$ATTMODE
 70
     1
  9
$TEXTSIZE
 40
3.5
  9
$TRACEWID
 40
1.0
  9
$TEXTSTYLE
  7
MSGOTHIC
  9
$CLAYER
  8
仕様書枠
  9
$CELTYPE
  6
BYLAYER
  9
$CECOLOR
 62
   256
  9
$CELTSCALE
 40
50.0
  9
$DISPSILH
 70
     0
  9
$DIMSCALE
 40
40.0
  9
$DIMASZ
 40
2.5
  9
$DIMEXO
 40
1.0
  9
$DIMDLI
 40
7.0
  9
$DIMRND
 40
0.0
  9
$DIMDLE
 40
0.0
  9
$DIMEXE
 40
1.0
  9
$DIMTP
 40
0.0
  9
$DIMTM
 40
0.0
  9
$DIMTXT
 40
3.0
  9
$DIMCEN
 40
2.5
  9
$DIMTSZ
 40
0.0
  9
$DIMTOL
 70
     0
  9
$DIMLIM
 70
     0
  9
$DIMTIH
 70
     0
  9
$DIMTOH
 70
     0
  9
$DIMSE1
 70
     0
  9
$DIMSE2
 70
     0
  9
$DIMTAD
 70
     3
  9
$DIMZIN
 70
     8
  9
$DIMBLK
  1

  9
$DIMASO
 70
     1
  9
$DIMSHO
 70
     1
  9
$DIMPOST
  1

  9
$DIMAPOST
  1

  9
$DIMALT
 70
     0
  9
$DIMALTD
 70
     2
  9
$DIMALTF
 40
0.0394
  9
$DIMLFAC
 40
1.0
  9
$DIMTOFL
 70
     0
  9
$DIMTVP
 40
1.0
  9
$DIMTIX
 70
     0
  9
$DIMSOXD
 70
     0
  9
$DIMSAH
 70
     1
  9
$DIMBLK1
  1
DOTSMALL
  9
$DIMBLK2
  1
DOTSMALL
  9
$DIMSTYLE
  2
物置仕様図40
  9
$DIMCLRD
 70
     4
  9
$DIMCLRE
 70
     4
  9
$DIMCLRT
 70
     7
  9
$DIMTFAC
 40
1.0
  9
$DIMGAP
 40
1.0
  9
$DIMJUST
 70
     0
  9
$DIMSD1
 70
     0
  9
$DIMSD2
 70
     0
  9
$DIMTOLJ
 70
     1
  9
$DIMTZIN
 70
     8
  9
$DIMALTZ
 70
     0
  9
$DIMALTTZ
 70
     0
  9
$DIMUPT
 70
     0
  9
$DIMDEC
 70
     2
  9
$DIMTDEC
 70
     2
  9
$DIMALTU
 70
     2
  9
$DIMALTTD
 70
     2
  9
$DIMTXSTY
  7
STANDARD
  9
$DIMAUNIT
 70
     0
  9
$DIMADEC
 70
     0
  9
$DIMALTRND
 40
0.0
  9
$DIMAZIN
 70
     0
  9
$DIMDSEP
 70
    46
  9
$DIMATFIT
 70
     3
  9
$DIMFRAC
 70
     0
  9
$DIMLDRBLK
  1

  9
$DIMLUNIT
 70
     2
  9
$DIMLWD
 70
    -2
  9
$DIMLWE
 70
    -2
  9
$DIMTMOVE
 70
     2
  9
$LUNITS
 70
     2
  9
$LUPREC
 70
     1
  9
$SKETCHINC
 40
1.0
  9
$FILLETRAD
 40
5.0
  9
$AUNITS
 70
     0
  9
$AUPREC
 70
     1
  9
$MENU
  1
.
  9
$ELEVATION
 40
0.0
  9
$PELEVATION
 40
0.0
  9
$THICKNESS
 40
0.0
  9
$LIMCHECK
 70
     0
  9
$CHAMFERA
 40
400.0
  9
$CHAMFERB
 40
400.0
  9
$CHAMFERC
 40
800.0
  9
$CHAMFERD
 40
0.0
  9
$SKPOLY
 70
     0
  9
$TDCREATE
 40
2450696.487780324
  9
$TDUCREATE
 40
2450696.112780324
  9
$TDUPDATE
 40
2455579.570372349
  9
$TDUUPDATE
 40
2455579.195372350
  9
$TDINDWG
 40
0.4324417361
  9
$TDUSRTIMER
 40
0.4324417361
  9
$USRTIMER
 70
     1
  9
$ANGBASE
 50
0.0
  9
$ANGDIR
 70
     0
  9
$PDMODE
 70
     0
  9
$PDSIZE
 40
0.0
  9
$PLINEWID
 40
0.0
  9
$SPLFRAME
 70
     0
  9
$SPLINETYPE
 70
     6
  9
$SPLINESEGS
 70
     8
  9
$HANDSEED
  5
1A19
  9
$SURFTAB1
 70
     6
  9
$SURFTAB2
 70
     6
  9
$SURFTYPE
 70
     6
  9
$SURFU
 70
     6
  9
$SURFV
 70
     6
  9
$UCSBASE
  2

  9
$UCSNAME
  2

  9
$UCSORG
 10
0.0
 20
0.0
 30
0.0
  9
$UCSXDIR
 10
1.0
 20
0.0
 30
0.0
  9
$UCSYDIR
 10
0.0
 20
1.0
 30
0.0
  9
$UCSORTHOREF
  2

  9
$UCSORTHOVIEW
 70
     0
  9
$UCSORGTOP
 10
0.0
 20
0.0
 30
0.0
  9
$UCSORGBOTTOM
 10
0.0
 20
0.0
 30
0.0
  9
$UCSORGLEFT
 10
0.0
 20
0.0
 30
0.0
  9
$UCSORGRIGHT
 10
0.0
 20
0.0
 30
0.0
  9
$UCSORGFRONT
 10
0.0
 20
0.0
 30
0.0
  9
$UCSORGBACK
 10
0.0
 20
0.0
 30
0.0
  9
$PUCSBASE
  2

  9
$PUCSNAME
  2

  9
$PUCSORG
 10
0.0
 20
0.0
 30
0.0
  9
$PUCSXDIR
 10
1.0
 20
0.0
 30
0.0
  9
$PUCSYDIR
 10
0.0
 20
1.0
 30
0.0
  9
$PUCSORTHOREF
  2

  9
$PUCSORTHOVIEW
 70
     0
  9
$PUCSORGTOP
 10
0.0
 20
0.0
 30
0.0
  9
$PUCSORGBOTTOM
 10
0.0
 20
0.0
 30
0.0
  9
$PUCSORGLEFT
 10
0.0
 20
0.0
 30
0.0
  9
$PUCSORGRIGHT
 10
0.0
 20
0.0
 30
0.0
  9
$PUCSORGFRONT
 10
0.0
 20
0.0
 30
0.0
  9
$PUCSORGBACK
 10
0.0
 20
0.0
 30
0.0
  9
$USERI1
 70
     0
  9
$USERI2
 70
     0
  9
$USERI3
 70
     0
  9
$USERI4
 70
     0
  9
$USERI5
 70
     0
  9
$USERR1
 40
0.0
  9
$USERR2
 40
0.0
  9
$USERR3
 40
0.0
  9
$USERR4
 40
0.0
  9
$USERR5
 40
0.0
  9
$WORLDVIEW
 70
     1
  9
$SHADEDGE
 70
     3
  9
$SHADEDIF
 70
    70
  9
$TILEMODE
 70
     1
  9
$MAXACTVP
 70
    16
  9
$PINSBASE
 10
0.0
 20
0.0
 30
0.0
  9
$PLIMCHECK
 70
     0
  9
$PEXTMIN
 10
1.000000000000000E+20
 20
1.000000000000000E+20
 30
1.000000000000000E+20
  9
$PEXTMAX
 10
-1.000000000000000E+20
 20
-1.000000000000000E+20
 30
-1.000000000000000E+20
  9
$PLIMMIN
 10
0.0
 20
0.0
  9
$PLIMMAX
 10
420.0
 20
297.0
  9
$UNITMODE
 70
     0
  9
$VISRETAIN
 70
     0
  9
$PLINEGEN
 70
     0
  9
$PSLTSCALE
 70
     1
  9
$TREEDEPTH
 70
  3020
  9
$CMLSTYLE
  2
STANDARD
  9
$CMLJUST
 70
     0
  9
$CMLSCALE
 40
1.0
  9
$PROXYGRAPHICS
 70
     1
  9
$MEASUREMENT
 70
     1
  9
$CELWEIGHT
370
    -1
  9
$ENDCAPS
280
     0
  9
$JOINSTYLE
280
     0
  9
$LWDISPLAY
290
     0
  9
$INSUNITS
 70
     0
  9
$HYPERLINKBASE
  1

  9
$STYLESHEET
  1
inaba.ctb
  9
$XEDIT
290
     1
  9
$CEPSNTYPE
380
     0
  9
$PSTYLEMODE
290
     1
  9
$FINGERPRINTGUID
  2
{79BAF060-0357-455F-9BB3-0AEA31AB33DF}
  9
$VERSIONGUID
  2
{5D63A07C-BC7F-4D96-8C37-38F7A3E4C4AC}
  9
$EXTNAMES
290
     1
  9
$PSVPSCALE
 40
0.0
  9
$OLESTARTUP
290
     0
  0
ENDSEC
  0
SECTION
  2
CLASSES
  0
CLASS
  1
ACDBDICTIONARYWDFLT
  2
AcDbDictionaryWithDefault
  3
ObjectDBX Classes
 90
        0
280
     0
281
     0
  0
CLASS
  1
DICTIONARYVAR
  2
AcDbDictionaryVar
  3
ObjectDBX Classes
 90
        0
280
     0
281
     0
  0
CLASS
  1
ACDBPLACEHOLDER
  2
AcDbPlaceHolder
  3
ObjectDBX Classes
 90
        0
280
     0
281
     0
  0
CLASS
  1
LAYOUT
  2
AcDbLayout
  3
ObjectDBX Classes
 90
        0
280
     0
281
     0
  0
ENDSEC
  0
SECTION
  2
TABLES
  0
TABLE
  2
VPORT
  5
8
330
0
100
AcDbSymbolTable
 70
     2
  0
VPORT
  5
1A0F
330
8
100
AcDbSymbolTableRecord
100
AcDbViewportTableRecord
  2
*Active
 70
     0
 10
0.0
 20
0.0
 11
1.0
 21
1.0
 12
10067.6157982568
 22
5591.499966219414
 13
0.0
 23
0.0
 14
420.0
 24
420.0
 15
420.0
 25
420.0
 16
0.0
 26
0.0
 36
1.0
 17
0.0
 27
0.0
 37
0.0
 40
13252.7886968784
 41
1.5075
 42
50.0
 43
0.0
 44
0.0
 50
0.0
 51
0.0
 71
     0
 72
   100
 73
     1
 74
     0
 75
     0
 76
     0
 77
     0
 78
     1
281
     0
 65
     1
110
0.0
120
0.0
130
0.0
111
1.0
121
0.0
131
0.0
112
0.0
122
1.0
132
0.0
 79
     0
146
0.0
  0
ENDTAB
  0
TABLE
  2
LTYPE
  5
5
330
0
100
AcDbSymbolTable
 70
     3
  0
LTYPE
  5
14
330
5
100
AcDbSymbolTableRecord
100
AcDbLinetypeTableRecord
  2
BYBLOCK
 70
     0
  3

 72
    65
 73
     0
 40
0.0
  0
LTYPE
  5
15
330
5
100
AcDbSymbolTableRecord
100
AcDbLinetypeTableRecord
  2
BYLAYER
 70
     0
  3

 72
    65
 73
     0
 40
0.0
  0
LTYPE
  5
16
330
5
100
AcDbSymbolTableRecord
100
AcDbLinetypeTableRecord
  2
CONTINUOUS
 70
     0
  3
Solid line
 72
    65
 73
     0
 40
0.0
  0
LTYPE
  5
61
330
5
100
AcDbSymbolTableRecord
100
AcDbLinetypeTableRecord
  2
CENTER
 70
     0
  3
____ _ ____ _ ____ _ ____ _ ____ _ ____ _ ____ 
 72
    65
 73
     4
 40
2.0
 49
1.25
 74
     0
 49
-0.25
 74
     0
 49
0.25
 74
     0
 49
-0.25
 74
     0
  0
LTYPE
  5
62
330
5
100
AcDbSymbolTableRecord
100
AcDbLinetypeTableRecord
  2
HIDDEN
 70
     0
  3
__ __ __ __ __ __ __ __ __ __ __ __ __ __ __ __
 72
    65
 73
     2
 40
0.375
 49
0.25
 74
     0
 49
-0.125
 74
     0
  0
ENDTAB
  0
TABLE
  2
LAYER
  5
2
102
{ACAD_XDICTIONARY
360
17DD
102
}
330
0
100
AcDbSymbolTable
 70
    10
  0
LAYER
  5
F
330
2
100
AcDbSymbolTableRecord
100
AcDbLayerTableRecord
  2
0
 70
     0
 62
     7
  6
CONTINUOUS
370
    -3
390
17B1
  0
LAYER
  5
63
330
2
100
AcDbSymbolTableRecord
100
AcDbLayerTableRecord
  2
細線
 70
     0
 62
     5
  6
CONTINUOUS
370
    -3
390
17B1
  0
LAYER
  5
64
330
2
100
AcDbSymbolTableRecord
100
AcDbLayerTableRecord
  2
寸法
 70
     0
 62
     4
  6
CONTINUOUS
370
    -3
390
17B1
  0
LAYER
  5
65
330
2
100
AcDbSymbolTableRecord
100
AcDbLayerTableRecord
  2
センター
 70
     0
 62
     3
  6
CENTER
370
    -3
390
17B1
  0
LAYER
  5
92A
330
2
100
AcDbSymbolTableRecord
100
AcDbLayerTableRecord
  2
DEFPOINTS
 70
     0
 62
     7
  6
CONTINUOUS
290
     0
370
    -3
390
17B1
  0
LAYER
  5
118B
330
2
100
AcDbSymbolTableRecord
100
AcDbLayerTableRecord
  2
Ｇ．Ｌ
 70
     0
 62
    30
  6
CONTINUOUS
370
    -3
390
17B1
  0
LAYER
  5
13EC
330
2
100
AcDbSymbolTableRecord
100
AcDbLayerTableRecord
  2
文字
 70
     0
 62
     7
  6
CONTINUOUS
370
    -3
390
17B1
  0
LAYER
  5
13ED
330
2
100
AcDbSymbolTableRecord
100
AcDbLayerTableRecord
  2
仕様書枠
 70
     0
 62
   230
  6
CONTINUOUS
370
    -3
390
17B1
  0
LAYER
  5
1748
330
2
100
AcDbSymbolTableRecord
100
AcDbLayerTableRecord
  2
部品1
 70
     0
 62
     7
  6
CONTINUOUS
370
    -3
390
17B1
  0
LAYER
  5
187A
330
2
100
AcDbSymbolTableRecord
100
AcDbLayerTableRecord
  2
点線
 70
     0
 62
     2
  6
HIDDEN
370
    -3
390
17B1
  0
ENDTAB
  0
TABLE
  2
STYLE
  5
3
330
0
100
AcDbSymbolTable
 70
     7
  0
STYLE
  5
10
330
3
100
AcDbSymbolTableRecord
100
AcDbTextStyleTableRecord
  2
STANDARD
 70
     0
 40
0.0
 41
1.0
 50
0.0
 71
     0
 42
100.0
  3
ISOCP
  4
C:\Program Files\AutoCAD LT\bigfont.shx
  0
STYLE
  5
373
330
3
100
AcDbSymbolTableRecord
100
AcDbTextStyleTableRecord
  2
MSGOTHIC
 70
     0
 40
0.0
 41
1.0
 50
0.0
 71
     0
 42
3.5
  3
MS PGothic.ttf
  4

1001
ACAD
1000
MS PGothic
1071
    32818
  0
STYLE
  5
374
330
3
100
AcDbSymbolTableRecord
100
AcDbTextStyleTableRecord
  2
MSMINCHO
 70
     0
 40
0.0
 41
1.0
 50
0.0
 71
     0
 42
1.199999999999999
  3
msminch2.TTF
  4

  0
STYLE
  5
13EE
330
3
100
AcDbSymbolTableRecord
100
AcDbTextStyleTableRecord
  2
STYLE2
 70
     0
 40
0.0
 41
1.0
 50
0.0
 71
     0
 42
100.0
  3
MS PGothic.ttf
  4

1001
ACAD
1000
MS PGothic
1071
    32818
  0
STYLE
  5
17DC
330
3
100
AcDbSymbolTableRecord
100
AcDbTextStyleTableRecord
  2
STYLE1
 70
     0
 40
0.0
 41
1.0
 50
0.0
 71
     0
 42
4.0
  3
isocp.shx
  4
bigfont.shx
  0
STYLE
  5
19E4
330
3
100
AcDbSymbolTableRecord
100
AcDbTextStyleTableRecord
  2

 70
     1
 40
0.0
 41
1.0
 50
0.0
 71
     0
 42
100.0
  3
ltypeshp.shx
  4

  0
STYLE
  5
19E5
330
3
100
AcDbSymbolTableRecord
100
AcDbTextStyleTableRecord
  2
STYLE3
 70
     0
 40
0.0
 41
1.0
 50
0.0
 71
     0
 42
100.0
  3
MS PGothic.ttf
  4

1001
ACAD
1000
MS PGothic
1071
    32818
  0
ENDTAB
  0
TABLE
  2
VIEW
  5
6
330
0
100
AcDbSymbolTable
 70
     0
  0
ENDTAB
  0
TABLE
  2
UCS
  5
7
330
0
100
AcDbSymbolTable
 70
     0
  0
ENDTAB
  0
TABLE
  2
APPID
  5
9
330
0
100
AcDbSymbolTable
 70
     1
  0
APPID
  5
11
330
9
100
AcDbSymbolTableRecord
100
AcDbRegAppTableRecord
  2
ACAD
 70
     0
  0
ENDTAB
  0
TABLE
  2
DIMSTYLE
  5
A
330
0
100
AcDbSymbolTable
 70
     3
100
AcDbDimStyleTable
 71
     1
340
92
  0
DIMSTYLE
105
1D
330
A
100
AcDbSymbolTableRecord
100
AcDbDimStyleTableRecord
  2
STANDARD
 70
     0
340
10
  0
DIMSTYLE
105
92
102
{ACAD_REACTORS
330
11AB
330
11AC
330
11AD
330
11AE
330
11C4
330
11C8
330
11C9
330
11D5
330
1222
330
1236
330
123D
330
128F
330
92F
330
93B
330
947
330
953
330
95F
330
96B
330
977
330
983
330
991
330
99E
330
9AB
330
9B9
330
9C5
330
9D3
330
9EC
330
A36
330
A98
330
ABE
330
ACC
330
AD9
330
C39
102
}
330
A
100
AcDbSymbolTableRecord
100
AcDbDimStyleTableRecord
  2
物置仕様図40
 70
     0
 40
40.0
 41
2.5
 42
1.0
 43
7.0
 44
1.0
 73
     0
 74
     0
 77
     3
 78
     8
140
3.0
141
2.5
143
0.0394
145
1.0
147
1.0
173
     1
176
     4
177
     4
178
     7
271
     2
272
     2
279
     2
284
     8
340
10
341
E5C
343
E5C
344
E5C
  0
DIMSTYLE
105
19E6
330
A
100
AcDbSymbolTableRecord
100
AcDbDimStyleTableRecord
  2
INABA_S30G
 70
     0
 40
30.0
 41
2.5
 42
0.5
 43
7.0
 44
1.5
 73
     0
 74
     0
 77
     3
 78
     8
140
3.0
141
0.0
143
0.0394
147
1.0
172
     1
173
     1
174
     1
175
     1
178
     7
271
     1
340
17DC
341
E5C
343
E5C
344
E5C
  0
ENDTAB
  0
TABLE
  2
BLOCK_RECORD
  5
1
330
0
100
AcDbSymbolTable
 70
    34
  0
BLOCK_RECORD
  5
1A
330
1
100
AcDbSymbolTableRecord
100
AcDbBlockTableRecord
  2
*MODEL_SPACE
340
17B6
  0
BLOCK_RECORD
  5
17
330
1
100
AcDbSymbolTableRecord
100
AcDbBlockTableRecord
  2
*PAPER_SPACE
340
17B7
  0
BLOCK_RECORD
  5
920
330
1
100
AcDbSymbolTableRecord
100
AcDbBlockTableRecord
  2
*D0
340
0
  0
BLOCK_RECORD
  5
930
330
1
100
AcDbSymbolTableRecord
100
AcDbBlockTableRecord
  2
*D1
340
0
  0
BLOCK_RECORD
  5
93C
330
1
100
AcDbSymbolTableRecord
100
AcDbBlockTableRecord
  2
*D2
340
0
  0
BLOCK_RECORD
  5
948
330
1
100
AcDbSymbolTableRecord
100
AcDbBlockTableRecord
  2
*D3
340
0
  0
BLOCK_RECORD
  5
954
330
1
100
AcDbSymbolTableRecord
100
AcDbBlockTableRecord
  2
*D4
340
0
  0
BLOCK_RECORD
  5
960
330
1
100
AcDbSymbolTableRecord
100
AcDbBlockTableRecord
  2
*D5
340
0
  0
BLOCK_RECORD
  5
96C
330
1
100
AcDbSymbolTableRecord
100
AcDbBlockTableRecord
  2
*D6
340
0
  0
BLOCK_RECORD
  5
978
330
1
100
AcDbSymbolTableRecord
100
AcDbBlockTableRecord
  2
*D7
340
0
  0
BLOCK_RECORD
  5
984
330
1
100
AcDbSymbolTableRecord
100
AcDbBlockTableRecord
  2
*D8
340
0
  0
BLOCK_RECORD
  5
992
330
1
100
AcDbSymbolTableRecord
100
AcDbBlockTableRecord
  2
*D9
340
0
  0
BLOCK_RECORD
  5
99F
330
1
100
AcDbSymbolTableRecord
100
AcDbBlockTableRecord
  2
*D10
340
0
  0
BLOCK_RECORD
  5
9AC
330
1
100
AcDbSymbolTableRecord
100
AcDbBlockTableRecord
  2
*D11
340
0
  0
BLOCK_RECORD
  5
9BA
330
1
100
AcDbSymbolTableRecord
100
AcDbBlockTableRecord
  2
*D12
340
0
  0
BLOCK_RECORD
  5
9C6
330
1
100
AcDbSymbolTableRecord
100
AcDbBlockTableRecord
  2
*D13
340
0
  0
BLOCK_RECORD
  5
9DF
330
1
100
AcDbSymbolTableRecord
100
AcDbBlockTableRecord
  2
*D14
340
0
  0
BLOCK_RECORD
  5
A29
330
1
100
AcDbSymbolTableRecord
100
AcDbBlockTableRecord
  2
*D15
340
0
  0
BLOCK_RECORD
  5
A8A
330
1
100
AcDbSymbolTableRecord
100
AcDbBlockTableRecord
  2
*D16
340
0
  0
BLOCK_RECORD
  5
AB3
330
1
100
AcDbSymbolTableRecord
100
AcDbBlockTableRecord
  2
*D17
340
0
  0
BLOCK_RECORD
  5
ABF
330
1
100
AcDbSymbolTableRecord
100
AcDbBlockTableRecord
  2
*D18
340
0
  0
BLOCK_RECORD
  5
ACD
330
1
100
AcDbSymbolTableRecord
100
AcDbBlockTableRecord
  2
*D19
340
0
  0
BLOCK_RECORD
  5
C2B
330
1
100
AcDbSymbolTableRecord
100
AcDbBlockTableRecord
  2
*D20
340
0
  0
BLOCK_RECORD
  5
E5C
330
1
100
AcDbSymbolTableRecord
100
AcDbBlockTableRecord
  2
_DOTSMALL
340
0
102
{BLKREFS
331
E68
331
E69
331
E71
331
E72
331
E7B
331
E7C
331
E86
331
E87
331
E90
331
E91
331
E9A
331
E9B
331
EA3
331
EA4
331
EAD
331
EAE
331
EB8
331
EB9
331
EC2
331
EC3
331
ECD
331
ECE
331
13B9
331
13BA
331
EE1
331
EE2
331
EEC
331
EED
331
EF6
331
EF7
331
F00
331
F01
331
F29
331
F2A
331
FB6
331
FB7
331
132F
331
1330
331
133B
331
133C
331
1345
331
1346
331
16A1
331
16A2
331
1359
331
135A
331
1363
331
1364
331
136F
331
1370
331
1379
331
137A
331
1391
331
1392
331
139A
331
139B
331
13A6
331
13A7
331
18DA
331
18DB
331
18F5
331
18F6
331
190F
331
1910
331
19FB
331
19FC
102
}
  0
BLOCK_RECORD
  5
129E
330
1
100
AcDbSymbolTableRecord
100
AcDbBlockTableRecord
  2
*D22
340
0
  0
BLOCK_RECORD
  5
12AA
330
1
100
AcDbSymbolTableRecord
100
AcDbBlockTableRecord
  2
*D23
340
0
  0
BLOCK_RECORD
  5
12B6
330
1
100
AcDbSymbolTableRecord
100
AcDbBlockTableRecord
  2
*D24
340
0
  0
BLOCK_RECORD
  5
12C2
330
1
100
AcDbSymbolTableRecord
100
AcDbBlockTableRecord
  2
*D25
340
0
  0
BLOCK_RECORD
  5
12CD
330
1
100
AcDbSymbolTableRecord
100
AcDbBlockTableRecord
  2
*D26
340
0
  0
BLOCK_RECORD
  5
12D8
330
1
100
AcDbSymbolTableRecord
100
AcDbBlockTableRecord
  2
*D27
340
0
  0
BLOCK_RECORD
  5
12E3
330
1
100
AcDbSymbolTableRecord
100
AcDbBlockTableRecord
  2
*D28
340
0
  0
BLOCK_RECORD
  5
12EF
330
1
100
AcDbSymbolTableRecord
100
AcDbBlockTableRecord
  2
*D29
340
0
  0
BLOCK_RECORD
  5
12FB
330
1
100
AcDbSymbolTableRecord
100
AcDbBlockTableRecord
  2
*D30
340
0
  0
BLOCK_RECORD
  5
1306
330
1
100
AcDbSymbolTableRecord
100
AcDbBlockTableRecord
  2
*D31
340
0
  0
BLOCK_RECORD
  5
1314
330
1
100
AcDbSymbolTableRecord
100
AcDbBlockTableRecord
  2
*D32
340
0
  0
BLOCK_RECORD
  5
131F
330
1
100
AcDbSymbolTableRecord
100
AcDbBlockTableRecord
  2
*D33
340
0
  0
ENDTAB
  0
ENDSEC
  0
SECTION
  2
BLOCKS
  0
BLOCK
  5
1B
330
1A
100
AcDbEntity
  8
0
100
AcDbBlockBegin
  2
*MODEL_SPACE
 70
     0
 10
0.0
 20
0.0
 30
0.0
  3
*MODEL_SPACE
  1

  0
ENDBLK
  5
1C
330
1A
100
AcDbEntity
  8
0
100
AcDbBlockEnd
  0
BLOCK
  5
18
330
17
100
AcDbEntity
 67
     1
  8
0
100
AcDbBlockBegin
  2
*PAPER_SPACE
 70
     0
 10
0.0
 20
0.0
 30
0.0
  3
*PAPER_SPACE
  1

  0
ENDBLK
  5
19
330
17
100
AcDbEntity
 67
     1
  8
0
100
AcDbBlockEnd
  0
BLOCK
  5
E63
330
920
100
AcDbEntity
  8
0
100
AcDbBlockBegin
  2
*D0
 70
     1
 10
0.0
 20
0.0
 30
0.0
  3
*D0
  1

  0
LINE
  5
E64
330
920
100
AcDbEntity
  8
0
  6
ByBlock
 62
     4
100
AcDbLine
 10
3398.08479127592
 20
10619.41427062826
 30
0.0
 11
2814.415140076315
 21
10619.41427062826
 31
0.0
  0
LINE
  5
E65
330
920
100
AcDbEntity
  8
0
  6
ByBlock
 62
     4
100
AcDbLine
 10
3388.08479127592
 20
10382.41427062826
 30
0.0
 11
2814.415140076315
 21
10382.41427062826
 31
0.0
  0
LINE
  5
E66
330
920
100
AcDbEntity
  8
0
  6
ByBlock
 62
     4
100
AcDbLine
 10
2854.415140076315
 20
10619.41427062826
 30
0.0
 11
2854.415140076315
 21
10382.41427062826
 31
0.0
  0
MTEXT
  5
E67
330
920
100
AcDbEntity
  8
0
  6
ByBlock
 62
     7
100
AcDbMText
 10
2694.403329052693
 20
10500.91427062826
 30
0.0
 40
120.0
 41
0.0
 71
     5
 72
     1
  1
\A1;237
 11
0.0000000000000001
 21
1.0
 31
0.0
 73
     1
 44
1.0
1001
ACAD
1000
MTEXTBEGIN
1070
    73
1070
     1
1070
    44
1040
1.0
1070
    74
1070
     0
1000
MTEXTEND
  0
INSERT
  5
E68
330
920
100
AcDbEntity
  8
0
  6
ByBlock
 62
     4
100
AcDbBlockReference
  2
_DOTSMALL
 10
2854.415140076315
 20
10619.41427062826
 30
0.0
 41
100.0
 42
100.0
 43
100.0
 50
90.0
  0
INSERT
  5
E69
330
920
100
AcDbEntity
  8
0
  6
ByBlock
 62
     4
100
AcDbBlockReference
  2
_DOTSMALL
 10
2854.415140076315
 20
10382.41427062826
 30
0.0
 41
100.0
 42
100.0
 43
100.0
 50
270.0
  0
POINT
  5
E6A
330
920
100
AcDbEntity
  8
DEFPOINTS
  6
ByBlock
 62
     0
100
AcDbPoint
 10
3438.08479127592
 20
10619.41427062826
 30
0.0
  0
POINT
  5
E6B
330
920
100
AcDbEntity
  8
DEFPOINTS
  6
ByBlock
 62
     0
100
AcDbPoint
 10
3428.08479127592
 20
10382.41427062826
 30
0.0
  0
POINT
  5
E6C
330
920
100
AcDbEntity
  8
DEFPOINTS
  6
ByBlock
 62
     0
100
AcDbPoint
 10
2854.415140076315
 20
10382.41427062826
 30
0.0
  0
ENDBLK
  5
E6D
330
920
100
AcDbEntity
  8
0
100
AcDbBlockEnd
  0
BLOCK
  5
E6E
330
930
100
AcDbEntity
  8
0
100
AcDbBlockBegin
  2
*D1
 70
     1
 10
0.0
 20
0.0
 30
0.0
  3
*D1
  1

  0
LINE
  5
E6F
330
930
100
AcDbEntity
  8
0
  6
ByBlock
 62
     4
100
AcDbLine
 10
3388.08479127592
 20
9753.814270628261
 30
0.0
 11
2814.415140076315
 21
9753.814270628261
 31
0.0
  0
LINE
  5
E70
330
930
100
AcDbEntity
  8
0
  6
ByBlock
 62
     4
100
AcDbLine
 10
2854.415140076315
 20
10382.41427062826
 30
0.0
 11
2854.415140076315
 21
9753.814270628261
 31
0.0
  0
INSERT
  5
E71
330
930
100
AcDbEntity
  8
0
  6
ByBlock
 62
     4
100
AcDbBlockReference
  2
_DOTSMALL
 10
2854.415140076315
 20
10382.41427062826
 30
0.0
 41
100.0
 42
100.0
 43
100.0
 50
90.0
  0
INSERT
  5
E72
330
930
100
AcDbEntity
  8
0
  6
ByBlock
 62
     4
100
AcDbBlockReference
  2
_DOTSMALL
 10
2854.415140076315
 20
9753.814270628261
 30
0.0
 41
100.0
 42
100.0
 43
100.0
 50
270.0
  0
MTEXT
  5
E73
330
930
100
AcDbEntity
  8
0
  6
ByBlock
 62
     7
100
AcDbMText
 10
2754.403329052693
 20
10068.11427062826
 30
0.0
 40
120.0
 41
0.0
 71
     5
 72
     1
  1
\A1;628.6
 11
0.0000000000000001
 21
1.0
 31
0.0
 73
     1
 44
1.0
1001
ACAD
1000
MTEXTBEGIN
1070
    73
1070
     1
1070
    44
1040
1.0
1070
    74
1070
     0
1000
MTEXTEND
  0
POINT
  5
E74
330
930
100
AcDbEntity
  8
DEFPOINTS
  6
ByBlock
 62
     0
100
AcDbPoint
 10
3428.08479127592
 20
10382.41427062826
 30
0.0
  0
POINT
  5
E75
330
930
100
AcDbEntity
  8
DEFPOINTS
  6
ByBlock
 62
     0
100
AcDbPoint
 10
3428.08479127592
 20
9753.814270628261
 30
0.0
  0
POINT
  5
E76
330
930
100
AcDbEntity
  8
DEFPOINTS
  6
ByBlock
 62
     0
100
AcDbPoint
 10
2854.415140076315
 20
9753.814270628261
 30
0.0
  0
ENDBLK
  5
E77
330
930
100
AcDbEntity
  8
0
100
AcDbBlockEnd
  0
BLOCK
  5
E78
330
93C
100
AcDbEntity
  8
0
100
AcDbBlockBegin
  2
*D2
 70
     1
 10
0.0
 20
0.0
 30
0.0
  3
*D2
  1

  0
LINE
  5
E79
330
93C
100
AcDbEntity
  8
0
  6
ByBlock
 62
     4
100
AcDbLine
 10
3388.08479127592
 20
9125.21427062826
 30
0.0
 11
2814.415140076315
 21
9125.21427062826
 31
0.0
  0
LINE
  5
E7A
330
93C
100
AcDbEntity
  8
0
  6
ByBlock
 62
     4
100
AcDbLine
 10
2854.415140076315
 20
9753.814270628261
 30
0.0
 11
2854.415140076315
 21
9125.21427062826
 31
0.0
  0
INSERT
  5
E7B
330
93C
100
AcDbEntity
  8
0
  6
ByBlock
 62
     4
100
AcDbBlockReference
  2
_DOTSMALL
 10
2854.415140076315
 20
9753.814270628261
 30
0.0
 41
100.0
 42
100.0
 43
100.0
 50
90.0
  0
INSERT
  5
E7C
330
93C
100
AcDbEntity
  8
0
  6
ByBlock
 62
     4
100
AcDbBlockReference
  2
_DOTSMALL
 10
2854.415140076315
 20
9125.21427062826
 30
0.0
 41
100.0
 42
100.0
 43
100.0
 50
270.0
  0
MTEXT
  5
E7D
330
93C
100
AcDbEntity
  8
0
  6
ByBlock
 62
     7
100
AcDbMText
 10
2754.403329052693
 20
9439.514270628261
 30
0.0
 40
120.0
 41
0.0
 71
     5
 72
     1
  1
\A1;628.6
 11
0.0000000000000001
 21
1.0
 31
0.0
 73
     1
 44
1.0
1001
ACAD
1000
MTEXTBEGIN
1070
    73
1070
     1
1070
    44
1040
1.0
1070
    74
1070
     0
1000
MTEXTEND
  0
POINT
  5
E7E
330
93C
100
AcDbEntity
  8
DEFPOINTS
  6
ByBlock
 62
     0
100
AcDbPoint
 10
3428.08479127592
 20
9753.814270628261
 30
0.0
  0
POINT
  5
E7F
330
93C
100
AcDbEntity
  8
DEFPOINTS
  6
ByBlock
 62
     0
100
AcDbPoint
 10
3428.08479127592
 20
9125.21427062826
 30
0.0
  0
POINT
  5
E80
330
93C
100
AcDbEntity
  8
DEFPOINTS
  6
ByBlock
 62
     0
100
AcDbPoint
 10
2854.415140076315
 20
9125.21427062826
 30
0.0
  0
ENDBLK
  5
E81
330
93C
100
AcDbEntity
  8
0
100
AcDbBlockEnd
  0
BLOCK
  5
E82
330
948
100
AcDbEntity
  8
0
100
AcDbBlockBegin
  2
*D3
 70
     1
 10
0.0
 20
0.0
 30
0.0
  3
*D3
  1

  0
LINE
  5
E83
330
948
100
AcDbEntity
  8
0
  6
ByBlock
 62
     4
100
AcDbLine
 10
3388.08479127592
 20
8496.614270628256
 30
0.0
 11
2814.415140076315
 21
8496.614270628256
 31
0.0
  0
LINE
  5
E84
330
948
100
AcDbEntity
  8
0
  6
ByBlock
 62
     4
100
AcDbLine
 10
2854.415140076315
 20
9125.21427062826
 30
0.0
 11
2854.415140076315
 21
8496.614270628256
 31
0.0
  0
MTEXT
  5
E85
330
948
100
AcDbEntity
  8
0
  6
ByBlock
 62
     7
100
AcDbMText
 10
2694.415140076315
 20
8905.394790974057
 30
0.0
 40
120.0
 41
0.0
 71
     5
 72
     1
  1
\A1;628.6
 11
0.0000000000000001
 21
1.0
 31
0.0
 73
     1
 44
1.0
1001
ACAD
1000
MTEXTBEGIN
1070
    73
1070
     1
1070
    44
1040
1.0
1070
    74
1070
     0
1000
MTEXTEND
  0
INSERT
  5
E86
330
948
100
AcDbEntity
  8
0
  6
ByBlock
 62
     4
100
AcDbBlockReference
  2
_DOTSMALL
 10
2854.415140076315
 20
9125.21427062826
 30
0.0
 41
100.0
 42
100.0
 43
100.0
 50
90.0
  0
INSERT
  5
E87
330
948
100
AcDbEntity
  8
0
  6
ByBlock
 62
     4
100
AcDbBlockReference
  2
_DOTSMALL
 10
2854.415140076315
 20
8496.614270628256
 30
0.0
 41
100.0
 42
100.0
 43
100.0
 50
270.0
  0
POINT
  5
E88
330
948
100
AcDbEntity
  8
DEFPOINTS
  6
ByBlock
 62
     0
100
AcDbPoint
 10
3428.08479127592
 20
9125.21427062826
 30
0.0
  0
POINT
  5
E89
330
948
100
AcDbEntity
  8
DEFPOINTS
  6
ByBlock
 62
     0
100
AcDbPoint
 10
3428.08479127592
 20
8496.614270628256
 30
0.0
  0
POINT
  5
E8A
330
948
100
AcDbEntity
  8
DEFPOINTS
  6
ByBlock
 62
     0
100
AcDbPoint
 10
2854.415140076315
 20
8496.614270628256
 30
0.0
  0
ENDBLK
  5
E8B
330
948
100
AcDbEntity
  8
0
100
AcDbBlockEnd
  0
BLOCK
  5
E8C
330
954
100
AcDbEntity
  8
0
100
AcDbBlockBegin
  2
*D4
 70
     1
 10
0.0
 20
0.0
 30
0.0
  3
*D4
  1

  0
LINE
  5
E8D
330
954
100
AcDbEntity
  8
0
  6
ByBlock
 62
     4
100
AcDbLine
 10
3388.08479127592
 20
8219.414270628261
 30
0.0
 11
2814.415140076315
 21
8219.414270628261
 31
0.0
  0
LINE
  5
E8E
330
954
100
AcDbEntity
  8
0
  6
ByBlock
 62
     4
100
AcDbLine
 10
2854.415140076315
 20
8496.614270628256
 30
0.0
 11
2854.415140076315
 21
8219.414270628261
 31
0.0
  0
MTEXT
  5
E8F
330
954
100
AcDbEntity
  8
0
  6
ByBlock
 62
     7
100
AcDbMText
 10
2694.403329052693
 20
8455.946322159034
 30
0.0
 40
120.0
 41
0.0
 71
     5
 72
     1
  1
\A1;277.2
 11
0.0000000000000001
 21
1.0
 31
0.0
 73
     1
 44
1.0
1001
ACAD
1000
MTEXTBEGIN
1070
    73
1070
     1
1070
    44
1040
1.0
1070
    74
1070
     0
1000
MTEXTEND
  0
INSERT
  5
E90
330
954
100
AcDbEntity
  8
0
  6
ByBlock
 62
     4
100
AcDbBlockReference
  2
_DOTSMALL
 10
2854.415140076315
 20
8496.614270628256
 30
0.0
 41
100.0
 42
100.0
 43
100.0
 50
90.0
  0
INSERT
  5
E91
330
954
100
AcDbEntity
  8
0
  6
ByBlock
 62
     4
100
AcDbBlockReference
  2
_DOTSMALL
 10
2854.415140076315
 20
8219.414270628261
 30
0.0
 41
100.0
 42
100.0
 43
100.0
 50
270.0
  0
POINT
  5
E92
330
954
100
AcDbEntity
  8
DEFPOINTS
  6
ByBlock
 62
     0
100
AcDbPoint
 10
3428.08479127592
 20
8496.614270628256
 30
0.0
  0
POINT
  5
E93
330
954
100
AcDbEntity
  8
DEFPOINTS
  6
ByBlock
 62
     0
100
AcDbPoint
 10
3428.08479127592
 20
8219.414270628261
 30
0.0
  0
POINT
  5
E94
330
954
100
AcDbEntity
  8
DEFPOINTS
  6
ByBlock
 62
     0
100
AcDbPoint
 10
2854.415140076315
 20
8219.414270628261
 30
0.0
  0
ENDBLK
  5
E95
330
954
100
AcDbEntity
  8
0
100
AcDbBlockEnd
  0
BLOCK
  5
E96
330
960
100
AcDbEntity
  8
0
100
AcDbBlockBegin
  2
*D5
 70
     1
 10
0.0
 20
0.0
 30
0.0
  3
*D5
  1

  0
LINE
  5
E97
330
960
100
AcDbEntity
  8
0
  6
ByBlock
 62
     4
100
AcDbLine
 10
3388.08479127592
 20
7313.614270628261
 30
0.0
 11
2814.415140076315
 21
7313.614270628261
 31
0.0
  0
LINE
  5
E98
330
960
100
AcDbEntity
  8
0
  6
ByBlock
 62
     4
100
AcDbLine
 10
2854.415140076315
 20
7942.214270628264
 30
0.0
 11
2854.415140076315
 21
7313.614270628261
 31
0.0
  0
MTEXT
  5
E99
330
960
100
AcDbEntity
  8
0
  6
ByBlock
 62
     7
100
AcDbMText
 10
2694.415140076315
 20
7539.245297372741
 30
0.0
 40
120.0
 41
0.0
 71
     5
 72
     1
  1
\A1;628.6
 11
0.0000000000000001
 21
1.0
 31
0.0
 73
     1
 44
1.0
1001
ACAD
1000
MTEXTBEGIN
1070
    73
1070
     1
1070
    44
1040
1.0
1070
    74
1070
     0
1000
MTEXTEND
  0
INSERT
  5
E9A
330
960
100
AcDbEntity
  8
0
  6
ByBlock
 62
     4
100
AcDbBlockReference
  2
_DOTSMALL
 10
2854.415140076315
 20
7942.214270628264
 30
0.0
 41
100.0
 42
100.0
 43
100.0
 50
90.0
  0
INSERT
  5
E9B
330
960
100
AcDbEntity
  8
0
  6
ByBlock
 62
     4
100
AcDbBlockReference
  2
_DOTSMALL
 10
2854.415140076315
 20
7313.614270628261
 30
0.0
 41
100.0
 42
100.0
 43
100.0
 50
270.0
  0
POINT
  5
E9C
330
960
100
AcDbEntity
  8
DEFPOINTS
  6
ByBlock
 62
     0
100
AcDbPoint
 10
3428.08479127592
 20
7942.214270628264
 30
0.0
  0
POINT
  5
E9D
330
960
100
AcDbEntity
  8
DEFPOINTS
  6
ByBlock
 62
     0
100
AcDbPoint
 10
3428.08479127592
 20
7313.614270628261
 30
0.0
  0
POINT
  5
E9E
330
960
100
AcDbEntity
  8
DEFPOINTS
  6
ByBlock
 62
     0
100
AcDbPoint
 10
2854.415140076315
 20
7313.614270628261
 30
0.0
  0
ENDBLK
  5
E9F
330
960
100
AcDbEntity
  8
0
100
AcDbBlockEnd
  0
BLOCK
  5
EA0
330
96C
100
AcDbEntity
  8
0
100
AcDbBlockBegin
  2
*D6
 70
     1
 10
0.0
 20
0.0
 30
0.0
  3
*D6
  1

  0
LINE
  5
EA1
330
96C
100
AcDbEntity
  8
0
  6
ByBlock
 62
     4
100
AcDbLine
 10
3388.08479127592
 20
6685.014270628262
 30
0.0
 11
2814.415140076315
 21
6685.014270628262
 31
0.0
  0
LINE
  5
EA2
330
96C
100
AcDbEntity
  8
0
  6
ByBlock
 62
     4
100
AcDbLine
 10
2854.415140076315
 20
7313.614270628261
 30
0.0
 11
2854.415140076315
 21
6685.014270628262
 31
0.0
  0
INSERT
  5
EA3
330
96C
100
AcDbEntity
  8
0
  6
ByBlock
 62
     4
100
AcDbBlockReference
  2
_DOTSMALL
 10
2854.415140076315
 20
7313.614270628261
 30
0.0
 41
100.0
 42
100.0
 43
100.0
 50
90.0
  0
INSERT
  5
EA4
330
96C
100
AcDbEntity
  8
0
  6
ByBlock
 62
     4
100
AcDbBlockReference
  2
_DOTSMALL
 10
2854.415140076315
 20
6685.014270628262
 30
0.0
 41
100.0
 42
100.0
 43
100.0
 50
270.0
  0
MTEXT
  5
EA5
330
96C
100
AcDbEntity
  8
0
  6
ByBlock
 62
     7
100
AcDbMText
 10
2754.403329052693
 20
6999.314270628261
 30
0.0
 40
120.0
 41
0.0
 71
     5
 72
     1
  1
\A1;628.6
 11
0.0000000000000001
 21
1.0
 31
0.0
 73
     1
 44
1.0
1001
ACAD
1000
MTEXTBEGIN
1070
    73
1070
     1
1070
    44
1040
1.0
1070
    74
1070
     0
1000
MTEXTEND
  0
POINT
  5
EA6
330
96C
100
AcDbEntity
  8
DEFPOINTS
  6
ByBlock
 62
     0
100
AcDbPoint
 10
3428.08479127592
 20
7313.614270628261
 30
0.0
  0
POINT
  5
EA7
330
96C
100
AcDbEntity
  8
DEFPOINTS
  6
ByBlock
 62
     0
100
AcDbPoint
 10
3428.08479127592
 20
6685.014270628262
 30
0.0
  0
POINT
  5
EA8
330
96C
100
AcDbEntity
  8
DEFPOINTS
  6
ByBlock
 62
     0
100
AcDbPoint
 10
2854.415140076315
 20
6685.014270628262
 30
0.0
  0
ENDBLK
  5
EA9
330
96C
100
AcDbEntity
  8
0
100
AcDbBlockEnd
  0
BLOCK
  5
EAA
330
978
100
AcDbEntity
  8
0
100
AcDbBlockBegin
  2
*D7
 70
     1
 10
0.0
 20
0.0
 30
0.0
  3
*D7
  1

  0
LINE
  5
EAB
330
978
100
AcDbEntity
  8
0
  6
ByBlock
 62
     4
100
AcDbLine
 10
3388.08479127592
 20
6056.414270628261
 30
0.0
 11
2814.415140076315
 21
6056.414270628261
 31
0.0
  0
LINE
  5
EAC
330
978
100
AcDbEntity
  8
0
  6
ByBlock
 62
     4
100
AcDbLine
 10
2854.415140076315
 20
6685.014270628262
 30
0.0
 11
2854.415140076315
 21
6056.414270628261
 31
0.0
  0
INSERT
  5
EAD
330
978
100
AcDbEntity
  8
0
  6
ByBlock
 62
     4
100
AcDbBlockReference
  2
_DOTSMALL
 10
2854.415140076315
 20
6685.014270628262
 30
0.0
 41
100.0
 42
100.0
 43
100.0
 50
90.0
  0
INSERT
  5
EAE
330
978
100
AcDbEntity
  8
0
  6
ByBlock
 62
     4
100
AcDbBlockReference
  2
_DOTSMALL
 10
2854.415140076315
 20
6056.414270628261
 30
0.0
 41
100.0
 42
100.0
 43
100.0
 50
270.0
  0
MTEXT
  5
EAF
330
978
100
AcDbEntity
  8
0
  6
ByBlock
 62
     7
100
AcDbMText
 10
2754.403329052693
 20
6370.714270628261
 30
0.0
 40
120.0
 41
0.0
 71
     5
 72
     1
  1
\A1;628.6
 11
0.0000000000000001
 21
1.0
 31
0.0
 73
     1
 44
1.0
1001
ACAD
1000
MTEXTBEGIN
1070
    73
1070
     1
1070
    44
1040
1.0
1070
    74
1070
     0
1000
MTEXTEND
  0
POINT
  5
EB0
330
978
100
AcDbEntity
  8
DEFPOINTS
  6
ByBlock
 62
     0
100
AcDbPoint
 10
3428.08479127592
 20
6685.014270628262
 30
0.0
  0
POINT
  5
EB1
330
978
100
AcDbEntity
  8
DEFPOINTS
  6
ByBlock
 62
     0
100
AcDbPoint
 10
3428.08479127592
 20
6056.414270628261
 30
0.0
  0
POINT
  5
EB2
330
978
100
AcDbEntity
  8
DEFPOINTS
  6
ByBlock
 62
     0
100
AcDbPoint
 10
2854.415140076315
 20
6056.414270628261
 30
0.0
  0
ENDBLK
  5
EB3
330
978
100
AcDbEntity
  8
0
100
AcDbBlockEnd
  0
BLOCK
  5
EB4
330
984
100
AcDbEntity
  8
0
100
AcDbBlockBegin
  2
*D8
 70
     1
 10
0.0
 20
0.0
 30
0.0
  3
*D8
  1

  0
LINE
  5
EB5
330
984
100
AcDbEntity
  8
0
  6
ByBlock
 62
     4
100
AcDbLine
 10
3398.08479127592
 20
5819.414270628262
 30
0.0
 11
2814.415140076315
 21
5819.414270628262
 31
0.0
  0
LINE
  5
EB6
330
984
100
AcDbEntity
  8
0
  6
ByBlock
 62
     4
100
AcDbLine
 10
2854.415140076315
 20
6056.414270628261
 30
0.0
 11
2854.415140076315
 21
5819.414270628262
 31
0.0
  0
MTEXT
  5
EB7
330
984
100
AcDbEntity
  8
0
  6
ByBlock
 62
     7
100
AcDbMText
 10
2694.403329052693
 20
5937.914270628262
 30
0.0
 40
120.0
 41
0.0
 71
     5
 72
     1
  1
\A1;237
 11
0.0000000000000001
 21
1.0
 31
0.0
 73
     1
 44
1.0
1001
ACAD
1000
MTEXTBEGIN
1070
    73
1070
     1
1070
    44
1040
1.0
1070
    74
1070
     0
1000
MTEXTEND
  0
INSERT
  5
EB8
330
984
100
AcDbEntity
  8
0
  6
ByBlock
 62
     4
100
AcDbBlockReference
  2
_DOTSMALL
 10
2854.415140076315
 20
6056.414270628261
 30
0.0
 41
100.0
 42
100.0
 43
100.0
 50
90.0
  0
INSERT
  5
EB9
330
984
100
AcDbEntity
  8
0
  6
ByBlock
 62
     4
100
AcDbBlockReference
  2
_DOTSMALL
 10
2854.415140076315
 20
5819.414270628262
 30
0.0
 41
100.0
 42
100.0
 43
100.0
 50
270.0
  0
POINT
  5
EBA
330
984
100
AcDbEntity
  8
DEFPOINTS
  6
ByBlock
 62
     0
100
AcDbPoint
 10
3428.08479127592
 20
6056.414270628261
 30
0.0
  0
POINT
  5
EBB
330
984
100
AcDbEntity
  8
DEFPOINTS
  6
ByBlock
 62
     0
100
AcDbPoint
 10
3438.08479127592
 20
5819.414270628262
 30
0.0
  0
POINT
  5
EBC
330
984
100
AcDbEntity
  8
DEFPOINTS
  6
ByBlock
 62
     0
100
AcDbPoint
 10
2854.415140076315
 20
5819.414270628262
 30
0.0
  0
ENDBLK
  5
EBD
330
984
100
AcDbEntity
  8
0
100
AcDbBlockEnd
  0
BLOCK
  5
EBE
330
992
100
AcDbEntity
  8
0
100
AcDbBlockBegin
  2
*D9
 70
     1
 10
0.0
 20
0.0
 30
0.0
  3
*D9
  1

  0
LINE
  5
EBF
330
992
100
AcDbEntity
  8
0
  6
ByBlock
 62
     4
100
AcDbLine
 10
3398.08479127592
 20
10619.41427062826
 30
0.0
 11
2534.415140076315
 21
10619.41427062826
 31
0.0
  0
LINE
  5
EC0
330
992
100
AcDbEntity
  8
0
  6
ByBlock
 62
     4
100
AcDbLine
 10
3398.08479127592
 20
5819.414270628262
 30
0.0
 11
2534.415140076315
 21
5819.414270628262
 31
0.0
  0
LINE
  5
EC1
330
992
100
AcDbEntity
  8
0
  6
ByBlock
 62
     4
100
AcDbLine
 10
2574.415140076315
 20
10619.41427062826
 30
0.0
 11
2574.415140076315
 21
5819.414270628262
 31
0.0
  0
INSERT
  5
EC2
330
992
100
AcDbEntity
  8
0
  6
ByBlock
 62
     4
100
AcDbBlockReference
  2
_DOTSMALL
 10
2574.415140076315
 20
10619.41427062826
 30
0.0
 41
100.0
 42
100.0
 43
100.0
 50
90.0
  0
INSERT
  5
EC3
330
992
100
AcDbEntity
  8
0
  6
ByBlock
 62
     4
100
AcDbBlockReference
  2
_DOTSMALL
 10
2574.415140076315
 20
5819.414270628262
 30
0.0
 41
100.0
 42
100.0
 43
100.0
 50
270.0
  0
MTEXT
  5
EC4
330
992
100
AcDbEntity
  8
0
  6
ByBlock
 62
     7
100
AcDbMText
 10
2474.415140076315
 20
8219.414270628261
 30
0.0
 40
120.0
 41
0.0
 71
     5
 72
     1
  1
\A1;4800
 11
0.0000000000000001
 21
1.0
 31
0.0
 73
     1
 44
1.0
1001
ACAD
1000
MTEXTBEGIN
1070
    73
1070
     1
1070
    44
1040
1.0
1070
    74
1070
     0
1000
MTEXTEND
  0
POINT
  5
EC5
330
992
100
AcDbEntity
  8
DEFPOINTS
  6
ByBlock
 62
     0
100
AcDbPoint
 10
3438.08479127592
 20
10619.41427062826
 30
0.0
  0
POINT
  5
EC6
330
992
100
AcDbEntity
  8
DEFPOINTS
  6
ByBlock
 62
     0
100
AcDbPoint
 10
3438.08479127592
 20
5819.414270628262
 30
0.0
  0
POINT
  5
EC7
330
992
100
AcDbEntity
  8
DEFPOINTS
  6
ByBlock
 62
     0
100
AcDbPoint
 10
2574.415140076315
 20
5819.414270628262
 30
0.0
  0
ENDBLK
  5
EC8
330
992
100
AcDbEntity
  8
0
100
AcDbBlockEnd
  0
BLOCK
  5
EC9
330
99F
100
AcDbEntity
  8
0
100
AcDbBlockBegin
  2
*D10
 70
     1
 10
0.0
 20
0.0
 30
0.0
  3
*D10
  1

  0
LINE
  5
ECA
330
99F
100
AcDbEntity
  8
0
  6
ByBlock
 62
     4
100
AcDbLine
 10
6299.584791275913
 20
10495.41427062826
 30
0.0
 11
6963.53771446304
 21
10495.41427062826
 31
0.0
  0
LINE
  5
ECB
330
99F
100
AcDbEntity
  8
0
  6
ByBlock
 62
     4
100
AcDbLine
 10
6303.084791275919
 20
8359.414270628262
 30
0.0
 11
6963.53771446304
 21
8359.414270628262
 31
0.0
  0
LINE
  5
ECC
330
99F
100
AcDbEntity
  8
0
  6
ByBlock
 62
     4
100
AcDbLine
 10
6923.537714463041
 20
10495.41427062826
 30
0.0
 11
6923.537714463041
 21
8359.414270628262
 31
0.0
  0
INSERT
  5
ECD
330
99F
100
AcDbEntity
  8
0
  6
ByBlock
 62
     4
100
AcDbBlockReference
  2
_DOTSMALL
 10
6923.537714463041
 20
10495.41427062826
 30
0.0
 41
100.0
 42
100.0
 43
100.0
 50
90.0
  0
INSERT
  5
ECE
330
99F
100
AcDbEntity
  8
0
  6
ByBlock
 62
     4
100
AcDbBlockReference
  2
_DOTSMALL
 10
6923.537714463041
 20
8359.414270628262
 30
0.0
 41
100.0
 42
100.0
 43
100.0
 50
270.0
  0
MTEXT
  5
ECF
330
99F
100
AcDbEntity
  8
0
  6
ByBlock
 62
     7
100
AcDbMText
 10
6823.525903439419
 20
9427.414270628261
 30
0.0
 40
120.0
 41
0.0
 71
     5
 72
     1
  1
\A1;2136
 11
0.0000000000000001
 21
1.0
 31
0.0
 73
     1
 44
1.0
1001
ACAD
1000
MTEXTBEGIN
1070
    73
1070
     1
1070
    44
1040
1.0
1070
    74
1070
     0
1000
MTEXTEND
  0
POINT
  5
ED0
330
99F
100
AcDbEntity
  8
DEFPOINTS
  6
ByBlock
 62
     0
100
AcDbPoint
 10
6259.584791275912
 20
10495.41427062826
 30
0.0
  0
POINT
  5
ED1
330
99F
100
AcDbEntity
  8
DEFPOINTS
  6
ByBlock
 62
     0
100
AcDbPoint
 10
6263.084791275919
 20
8359.414270628262
 30
0.0
  0
POINT
  5
ED2
330
99F
100
AcDbEntity
  8
DEFPOINTS
  6
ByBlock
 62
     0
100
AcDbPoint
 10
6923.537714463041
 20
8359.414270628262
 30
0.0
  0
ENDBLK
  5
ED3
330
99F
100
AcDbEntity
  8
0
100
AcDbBlockEnd
  0
BLOCK
  5
13B5
330
9AC
100
AcDbEntity
  8
0
100
AcDbBlockBegin
  2
*D11
 70
     1
 10
0.0
 20
0.0
 30
0.0
  3
*D11
  1

  0
LINE
  5
13B6
330
9AC
100
AcDbEntity
  8
0
  6
ByBlock
 62
     4
100
AcDbLine
 10
6303.08479127592
 20
8079.414270628261
 30
0.0
 11
6963.53771446304
 21
8079.414270628261
 31
0.0
  0
LINE
  5
13B7
330
9AC
100
AcDbEntity
  8
0
  6
ByBlock
 62
     4
100
AcDbLine
 10
6923.537714463041
 20
8359.414270628262
 30
0.0
 11
6923.537714463041
 21
8079.414270628261
 31
0.0
  0
MTEXT
  5
13B8
330
9AC
100
AcDbEntity
  8
0
  6
ByBlock
 62
     7
100
AcDbMText
 10
6832.397876052702
 20
8219.414270628261
 30
0.0
 40
120.0
 41
0.0
 71
     5
 72
     1
  1
\A1;280
 11
0.0000000000000001
 21
1.0
 31
0.0
 73
     1
 44
1.0
1001
ACAD
1000
MTEXTBEGIN
1070
    73
1070
     1
1070
    44
1040
1.0
1070
    74
1070
     0
1000
MTEXTEND
  0
INSERT
  5
13B9
330
9AC
100
AcDbEntity
  8
0
  6
ByBlock
 62
     4
100
AcDbBlockReference
  2
_DOTSMALL
 10
6923.537714463041
 20
8359.414270628262
 30
0.0
 41
100.0
 42
100.0
 43
100.0
 50
90.0
  0
INSERT
  5
13BA
330
9AC
100
AcDbEntity
  8
0
  6
ByBlock
 62
     4
100
AcDbBlockReference
  2
_DOTSMALL
 10
6923.537714463041
 20
8079.414270628261
 30
0.0
 41
100.0
 42
100.0
 43
100.0
 50
270.0
  0
POINT
  5
13BB
330
9AC
100
AcDbEntity
  8
DEFPOINTS
  6
ByBlock
 62
     0
100
AcDbPoint
 10
6263.084791275919
 20
8359.414270628262
 30
0.0
  0
POINT
  5
13BC
330
9AC
100
AcDbEntity
  8
DEFPOINTS
  6
ByBlock
 62
     0
100
AcDbPoint
 10
6263.08479127592
 20
8079.414270628261
 30
0.0
  0
POINT
  5
13BD
330
9AC
100
AcDbEntity
  8
DEFPOINTS
  6
ByBlock
 62
     0
100
AcDbPoint
 10
6923.537714463041
 20
8079.414270628261
 30
0.0
  0
ENDBLK
  5
13BE
330
9AC
100
AcDbEntity
  8
0
100
AcDbBlockEnd
  0
BLOCK
  5
EDE
330
9BA
100
AcDbEntity
  8
0
100
AcDbBlockBegin
  2
*D12
 70
     1
 10
0.0
 20
0.0
 30
0.0
  3
*D12
  1

  0
LINE
  5
EDF
330
9BA
100
AcDbEntity
  8
0
  6
ByBlock
 62
     4
100
AcDbLine
 10
6299.58479127592
 20
5943.414270628266
 30
0.0
 11
6963.53771446304
 21
5943.414270628266
 31
0.0
  0
LINE
  5
EE0
330
9BA
100
AcDbEntity
  8
0
  6
ByBlock
 62
     4
100
AcDbLine
 10
6923.537714463042
 20
8079.414270628261
 30
0.0
 11
6923.537714463041
 21
5943.414270628266
 31
0.0
  0
INSERT
  5
EE1
330
9BA
100
AcDbEntity
  8
0
  6
ByBlock
 62
     4
100
AcDbBlockReference
  2
_DOTSMALL
 10
6923.537714463042
 20
8079.414270628261
 30
0.0
 41
100.0
 42
100.0
 43
100.0
 50
90.0
  0
INSERT
  5
EE2
330
9BA
100
AcDbEntity
  8
0
  6
ByBlock
 62
     4
100
AcDbBlockReference
  2
_DOTSMALL
 10
6923.537714463041
 20
5943.414270628266
 30
0.0
 41
100.0
 42
100.0
 43
100.0
 50
270.0
  0
MTEXT
  5
EE3
330
9BA
100
AcDbEntity
  8
0
  6
ByBlock
 62
     7
100
AcDbMText
 10
6823.525903439419
 20
7011.414270628264
 30
0.0
 40
120.0
 41
0.0
 71
     5
 72
     1
  1
\A1;2136
 11
0.0000000000000001
 21
1.0
 31
0.0
 73
     1
 44
1.0
1001
ACAD
1000
MTEXTBEGIN
1070
    73
1070
     1
1070
    44
1040
1.0
1070
    74
1070
     0
1000
MTEXTEND
  0
POINT
  5
EE4
330
9BA
100
AcDbEntity
  8
DEFPOINTS
  6
ByBlock
 62
     0
100
AcDbPoint
 10
6263.08479127592
 20
8079.414270628261
 30
0.0
  0
POINT
  5
EE5
330
9BA
100
AcDbEntity
  8
DEFPOINTS
  6
ByBlock
 62
     0
100
AcDbPoint
 10
6259.58479127592
 20
5943.414270628266
 30
0.0
  0
POINT
  5
EE6
330
9BA
100
AcDbEntity
  8
DEFPOINTS
  6
ByBlock
 62
     0
100
AcDbPoint
 10
6923.537714463041
 20
5943.414270628266
 30
0.0
  0
ENDBLK
  5
EE7
330
9BA
100
AcDbEntity
  8
0
100
AcDbBlockEnd
  0
BLOCK
  5
EE8
330
9C6
100
AcDbEntity
  8
0
100
AcDbBlockBegin
  2
*D13
 70
     1
 10
0.0
 20
0.0
 30
0.0
  3
*D13
  1

  0
LINE
  5
EE9
330
9C6
100
AcDbEntity
  8
0
  6
ByBlock
 62
     4
100
AcDbLine
 10
6338.08479127592
 20
5819.414270628261
 30
0.0
 11
6963.53771446304
 21
5819.414270628261
 31
0.0
  0
LINE
  5
EEA
330
9C6
100
AcDbEntity
  8
0
  6
ByBlock
 62
     4
100
AcDbLine
 10
6923.537714463041
 20
5943.414270628266
 30
0.0
 11
6923.537714463041
 21
5819.414270628261
 31
0.0
  0
MTEXT
  5
EEB
330
9C6
100
AcDbEntity
  8
0
  6
ByBlock
 62
     7
100
AcDbMText
 10
6813.207916493695
 20
5684.363708905454
 30
0.0
 40
120.0
 41
0.0
 71
     5
 72
     1
  1
\A1;124
 11
0.0000000000000001
 21
1.0
 31
0.0
 73
     1
 44
1.0
1001
ACAD
1000
MTEXTBEGIN
1070
    73
1070
     1
1070
    44
1040
1.0
1070
    74
1070
     0
1000
MTEXTEND
  0
INSERT
  5
EEC
330
9C6
100
AcDbEntity
  8
0
  6
ByBlock
 62
     4
100
AcDbBlockReference
  2
_DOTSMALL
 10
6923.537714463041
 20
5943.414270628266
 30
0.0
 41
100.0
 42
100.0
 43
100.0
 50
90.0
  0
INSERT
  5
EED
330
9C6
100
AcDbEntity
  8
0
  6
ByBlock
 62
     4
100
AcDbBlockReference
  2
_DOTSMALL
 10
6923.537714463041
 20
5819.414270628261
 30
0.0
 41
100.0
 42
100.0
 43
100.0
 50
270.0
  0
POINT
  5
EEE
330
9C6
100
AcDbEntity
  8
DEFPOINTS
  6
ByBlock
 62
     0
100
AcDbPoint
 10
6259.58479127592
 20
5943.414270628266
 30
0.0
  0
POINT
  5
EEF
330
9C6
100
AcDbEntity
  8
DEFPOINTS
  6
ByBlock
 62
     0
100
AcDbPoint
 10
6298.08479127592
 20
5819.414270628261
 30
0.0
  0
POINT
  5
EF0
330
9C6
100
AcDbEntity
  8
DEFPOINTS
  6
ByBlock
 62
     0
100
AcDbPoint
 10
6923.537714463041
 20
5819.414270628261
 30
0.0
  0
ENDBLK
  5
EF1
330
9C6
100
AcDbEntity
  8
0
100
AcDbBlockEnd
  0
BLOCK
  5
EF2
330
9DF
100
AcDbEntity
  8
0
100
AcDbBlockBegin
  2
*D14
 70
     1
 10
0.0
 20
0.0
 30
0.0
  3
*D14
  1

  0
LINE
  5
EF3
330
9DF
100
AcDbEntity
  8
0
  6
ByBlock
 62
     4
100
AcDbLine
 10
6338.084791275919
 20
10619.41427062826
 30
0.0
 11
6963.53771446304
 21
10619.41427062826
 31
0.0
  0
LINE
  5
EF4
330
9DF
100
AcDbEntity
  8
0
  6
ByBlock
 62
     4
100
AcDbLine
 10
6923.537714463041
 20
10495.41427062826
 30
0.0
 11
6923.537714463041
 21
10619.41427062826
 31
0.0
  0
MTEXT
  5
EF5
330
9DF
100
AcDbEntity
  8
0
  6
ByBlock
 62
     7
100
AcDbMText
 10
6816.120316553067
 20
10756.41304757595
 30
0.0
 40
120.0
 41
0.0
 71
     5
 72
     1
  1
\A1;124
 11
0.0000000000000001
 21
1.0
 31
0.0
 73
     1
 44
1.0
1001
ACAD
1000
MTEXTBEGIN
1070
    73
1070
     1
1070
    44
1040
1.0
1070
    74
1070
     0
1000
MTEXTEND
  0
INSERT
  5
EF6
330
9DF
100
AcDbEntity
  8
0
  6
ByBlock
 62
     4
100
AcDbBlockReference
  2
_DOTSMALL
 10
6923.537714463041
 20
10495.41427062826
 30
0.0
 41
100.0
 42
100.0
 43
100.0
 50
270.0
  0
INSERT
  5
EF7
330
9DF
100
AcDbEntity
  8
0
  6
ByBlock
 62
     4
100
AcDbBlockReference
  2
_DOTSMALL
 10
6923.537714463041
 20
10619.41427062826
 30
0.0
 41
100.0
 42
100.0
 43
100.0
 50
90.0
  0
POINT
  5
EF8
330
9DF
100
AcDbEntity
  8
DEFPOINTS
  6
ByBlock
 62
     0
100
AcDbPoint
 10
6259.584791275912
 20
10495.41427062826
 30
0.0
  0
POINT
  5
EF9
330
9DF
100
AcDbEntity
  8
DEFPOINTS
  6
ByBlock
 62
     0
100
AcDbPoint
 10
6298.084791275919
 20
10619.41427062826
 30
0.0
  0
POINT
  5
EFA
330
9DF
100
AcDbEntity
  8
DEFPOINTS
  6
ByBlock
 62
     0
100
AcDbPoint
 10
6923.537714463041
 20
10619.41427062826
 30
0.0
  0
ENDBLK
  5
EFB
330
9DF
100
AcDbEntity
  8
0
100
AcDbBlockEnd
  0
BLOCK
  5
EFC
330
A29
100
AcDbEntity
  8
0
100
AcDbBlockBegin
  2
*D15
 70
     1
 10
0.0
 20
0.0
 30
0.0
  3
*D15
  1

  0
LINE
  5
EFD
330
A29
100
AcDbEntity
  8
0
  6
ByBlock
 62
     4
100
AcDbLine
 10
3388.08479127592
 20
7942.214270628264
 30
0.0
 11
2814.415140076315
 21
7942.214270628264
 31
0.0
  0
LINE
  5
EFE
330
A29
100
AcDbEntity
  8
0
  6
ByBlock
 62
     4
100
AcDbLine
 10
2854.415140076315
 20
8219.414270628261
 30
0.0
 11
2854.415140076315
 21
7942.214270628264
 31
0.0
  0
MTEXT
  5
EFF
330
A29
100
AcDbEntity
  8
0
  6
ByBlock
 62
     7
100
AcDbMText
 10
2694.403329052693
 20
7995.442239698609
 30
0.0
 40
120.0
 41
0.0
 71
     5
 72
     1
  1
\A1;277.2
 11
0.0000000000000001
 21
1.0
 31
0.0
 73
     1
 44
1.0
1001
ACAD
1000
MTEXTBEGIN
1070
    73
1070
     1
1070
    44
1040
1.0
1070
    74
1070
     0
1000
MTEXTEND
  0
INSERT
  5
F00
330
A29
100
AcDbEntity
  8
0
  6
ByBlock
 62
     4
100
AcDbBlockReference
  2
_DOTSMALL
 10
2854.415140076315
 20
8219.414270628261
 30
0.0
 41
100.0
 42
100.0
 43
100.0
 50
90.0
  0
INSERT
  5
F01
330
A29
100
AcDbEntity
  8
0
  6
ByBlock
 62
     4
100
AcDbBlockReference
  2
_DOTSMALL
 10
2854.415140076315
 20
7942.214270628264
 30
0.0
 41
100.0
 42
100.0
 43
100.0
 50
270.0
  0
POINT
  5
F02
330
A29
100
AcDbEntity
  8
DEFPOINTS
  6
ByBlock
 62
     0
100
AcDbPoint
 10
3428.08479127592
 20
8219.414270628261
 30
0.0
  0
POINT
  5
F03
330
A29
100
AcDbEntity
  8
DEFPOINTS
  6
ByBlock
 62
     0
100
AcDbPoint
 10
3428.08479127592
 20
7942.214270628264
 30
0.0
  0
POINT
  5
F04
330
A29
100
AcDbEntity
  8
DEFPOINTS
  6
ByBlock
 62
     0
100
AcDbPoint
 10
2854.415140076315
 20
7942.214270628264
 30
0.0
  0
ENDBLK
  5
F05
330
A29
100
AcDbEntity
  8
0
100
AcDbBlockEnd
  0
BLOCK
  5
F06
330
A8A
100
AcDbEntity
  8
0
100
AcDbBlockBegin
  2
*D16
 70
     1
 10
0.0
 20
0.0
 30
0.0
  3
*D16
  1

  0
LINE
  5
18F2
330
A8A
100
AcDbEntity
  8
寸法
 62
     4
370
    -2
100
AcDbLine
 10
3428.08479127592
 20
4476.106384399625
 30
0.0
 11
3428.08479127592
 21
4771.665250434407
 31
0.0
  0
LINE
  5
18F3
330
A8A
100
AcDbEntity
  8
寸法
 62
     4
370
    -2
100
AcDbLine
 10
3678.08479127592
 20
4312.831256646528
 30
0.0
 11
3678.08479127592
 21
4771.665250434407
 31
0.0
  0
LINE
  5
18F4
330
A8A
100
AcDbEntity
  8
寸法
 62
     4
370
    -2
100
AcDbLine
 10
3428.08479127592
 20
4731.665250434406
 30
0.0
 11
3678.08479127592
 21
4731.665250434406
 31
0.0
  0
INSERT
  5
18F5
330
A8A
100
AcDbEntity
  8
寸法
 62
     4
370
    -2
100
AcDbBlockReference
  2
_DOTSMALL
 10
3428.08479127592
 20
4731.665250434406
 30
0.0
 41
100.0
 42
100.0
 43
100.0
 50
180.0
  0
INSERT
  5
18F6
330
A8A
100
AcDbEntity
  8
寸法
 62
     4
370
    -2
100
AcDbBlockReference
  2
_DOTSMALL
 10
3678.08479127592
 20
4731.665250434406
 30
0.0
 41
100.0
 42
100.0
 43
100.0
  0
MTEXT
  5
18F7
330
A8A
100
AcDbEntity
  8
寸法
 62
     7
100
AcDbMText
 10
3553.08479127592
 20
4831.677061458028
 30
0.0
 40
120.0
 41
0.0
 71
     5
 72
     1
  1
\A1;250
 73
     1
 44
1.0
1001
ACAD
1000
MTEXTBEGIN
1070
    73
1070
     1
1070
    44
1040
1.0
1070
    74
1070
     0
1000
MTEXTEND
  0
POINT
  5
18F8
330
A8A
100
AcDbEntity
  8
DEFPOINTS
 62
     0
100
AcDbPoint
 10
3428.08479127592
 20
4436.106384399625
 30
0.0
  0
POINT
  5
18F9
330
A8A
100
AcDbEntity
  8
DEFPOINTS
 62
     0
100
AcDbPoint
 10
3678.08479127592
 20
4272.831256646528
 30
0.0
  0
POINT
  5
18FA
330
A8A
100
AcDbEntity
  8
DEFPOINTS
 62
     0
100
AcDbPoint
 10
3678.08479127592
 20
4731.665250434406
 30
0.0
  0
ENDBLK
  5
F10
330
A8A
100
AcDbEntity
  8
0
100
AcDbBlockEnd
  0
BLOCK
  5
F11
330
AB3
100
AcDbEntity
  8
0
100
AcDbBlockBegin
  2
*D17
 70
     1
 10
0.0
 20
0.0
 30
0.0
  3
*D17
  1

  0
LINE
  5
18D8
330
AB3
100
AcDbEntity
  8
寸法
 62
     4
370
    -2
100
AcDbLine
 10
6058.08479127592
 20
4312.831256646528
 30
0.0
 11
6058.08479127592
 21
4771.665250434407
 31
0.0
  0
LINE
  5
18D9
330
AB3
100
AcDbEntity
  8
寸法
 62
     4
370
    -2
100
AcDbLine
 10
3678.08479127592
 20
4731.665250434406
 30
0.0
 11
6058.08479127592
 21
4731.665250434406
 31
0.0
  0
INSERT
  5
18DA
330
AB3
100
AcDbEntity
  8
寸法
 62
     4
370
    -2
100
AcDbBlockReference
  2
_DOTSMALL
 10
3678.08479127592
 20
4731.665250434406
 30
0.0
 41
100.0
 42
100.0
 43
100.0
 50
180.0
  0
INSERT
  5
18DB
330
AB3
100
AcDbEntity
  8
寸法
 62
     4
370
    -2
100
AcDbBlockReference
  2
_DOTSMALL
 10
6058.08479127592
 20
4731.665250434406
 30
0.0
 41
100.0
 42
100.0
 43
100.0
  0
MTEXT
  5
18DC
330
AB3
100
AcDbEntity
  8
寸法
 62
     7
100
AcDbMText
 10
4868.084791275919
 20
4831.677061458028
 30
0.0
 40
120.0
 41
0.0
 71
     5
 72
     1
  1
\A1;2380
 73
     1
 44
1.0
1001
ACAD
1000
MTEXTBEGIN
1070
    73
1070
     1
1070
    44
1040
1.0
1070
    74
1070
     0
1000
MTEXTEND
  0
POINT
  5
18DD
330
AB3
100
AcDbEntity
  8
DEFPOINTS
 62
     0
100
AcDbPoint
 10
3678.08479127592
 20
4272.831256646528
 30
0.0
  0
POINT
  5
18DE
330
AB3
100
AcDbEntity
  8
DEFPOINTS
 62
     0
100
AcDbPoint
 10
6058.08479127592
 20
4272.831256646528
 30
0.0
  0
POINT
  5
18DF
330
AB3
100
AcDbEntity
  8
DEFPOINTS
 62
     0
100
AcDbPoint
 10
6058.08479127592
 20
4731.665250434406
 30
0.0
  0
ENDBLK
  5
F1A
330
AB3
100
AcDbEntity
  8
0
100
AcDbBlockEnd
  0
BLOCK
  5
F1B
330
ABF
100
AcDbEntity
  8
0
100
AcDbBlockBegin
  2
*D18
 70
     1
 10
0.0
 20
0.0
 30
0.0
  3
*D18
  1

  0
LINE
  5
190D
330
ABF
100
AcDbEntity
  8
寸法
 62
     4
370
    -2
100
AcDbLine
 10
6308.08479127592
 20
4476.106384399625
 30
0.0
 11
6308.08479127592
 21
4771.665250434407
 31
0.0
  0
LINE
  5
190E
330
ABF
100
AcDbEntity
  8
寸法
 62
     4
370
    -2
100
AcDbLine
 10
6058.08479127592
 20
4731.665250434406
 30
0.0
 11
6308.08479127592
 21
4731.665250434406
 31
0.0
  0
INSERT
  5
190F
330
ABF
100
AcDbEntity
  8
寸法
 62
     4
370
    -2
100
AcDbBlockReference
  2
_DOTSMALL
 10
6058.08479127592
 20
4731.665250434406
 30
0.0
 41
100.0
 42
100.0
 43
100.0
 50
180.0
  0
INSERT
  5
1910
330
ABF
100
AcDbEntity
  8
寸法
 62
     4
370
    -2
100
AcDbBlockReference
  2
_DOTSMALL
 10
6308.08479127592
 20
4731.665250434406
 30
0.0
 41
100.0
 42
100.0
 43
100.0
  0
MTEXT
  5
1911
330
ABF
100
AcDbEntity
  8
寸法
 62
     7
100
AcDbMText
 10
6183.08479127592
 20
4831.677061458028
 30
0.0
 40
120.0
 41
0.0
 71
     5
 72
     1
  1
\A1;250
 73
     1
 44
1.0
1001
ACAD
1000
MTEXTBEGIN
1070
    73
1070
     1
1070
    44
1040
1.0
1070
    74
1070
     0
1000
MTEXTEND
  0
POINT
  5
1912
330
ABF
100
AcDbEntity
  8
DEFPOINTS
 62
     0
100
AcDbPoint
 10
6058.08479127592
 20
4208.421766100994
 30
0.0
  0
POINT
  5
1913
330
ABF
100
AcDbEntity
  8
DEFPOINTS
 62
     0
100
AcDbPoint
 10
6308.08479127592
 20
4436.106384399625
 30
0.0
  0
POINT
  5
1914
330
ABF
100
AcDbEntity
  8
DEFPOINTS
 62
     0
100
AcDbPoint
 10
6308.08479127592
 20
4731.665250434406
 30
0.0
  0
ENDBLK
  5
F24
330
ABF
100
AcDbEntity
  8
0
100
AcDbBlockEnd
  0
BLOCK
  5
F25
330
ACD
100
AcDbEntity
  8
0
100
AcDbBlockBegin
  2
*D19
 70
     1
 10
0.0
 20
0.0
 30
0.0
  3
*D19
  1

  0
LINE
  5
F26
330
ACD
100
AcDbEntity
  8
0
  6
ByBlock
 62
     4
100
AcDbLine
 10
3428.08479127592
 20
4540.515874945159
 30
0.0
 11
3428.08479127592
 21
5116.07474097994
 31
0.0
  0
LINE
  5
F27
330
ACD
100
AcDbEntity
  8
0
  6
ByBlock
 62
     4
100
AcDbLine
 10
6308.08479127592
 20
4540.515874945159
 30
0.0
 11
6308.08479127592
 21
5116.07474097994
 31
0.0
  0
LINE
  5
F28
330
ACD
100
AcDbEntity
  8
0
  6
ByBlock
 62
     4
100
AcDbLine
 10
3428.08479127592
 20
5076.07474097994
 30
0.0
 11
6308.08479127592
 21
5076.07474097994
 31
0.0
  0
INSERT
  5
F29
330
ACD
100
AcDbEntity
  8
0
  6
ByBlock
 62
     4
100
AcDbBlockReference
  2
_DOTSMALL
 10
3428.08479127592
 20
5076.07474097994
 30
0.0
 41
100.0
 42
100.0
 43
100.0
 50
180.0
  0
INSERT
  5
F2A
330
ACD
100
AcDbEntity
  8
0
  6
ByBlock
 62
     4
100
AcDbBlockReference
  2
_DOTSMALL
 10
6308.08479127592
 20
5076.07474097994
 30
0.0
 41
100.0
 42
100.0
 43
100.0
  0
MTEXT
  5
F2B
330
ACD
100
AcDbEntity
  8
0
  6
ByBlock
 62
     7
100
AcDbMText
 10
4868.084791275919
 20
5176.086552003562
 30
0.0
 40
120.0
 41
0.0
 71
     5
 72
     1
  1
\A1;2880
 73
     1
 44
1.0
1001
ACAD
1000
MTEXTBEGIN
1070
    73
1070
     1
1070
    44
1040
1.0
1070
    74
1070
     0
1000
MTEXTEND
  0
POINT
  5
F2C
330
ACD
100
AcDbEntity
  8
DEFPOINTS
  6
ByBlock
 62
     0
100
AcDbPoint
 10
3428.08479127592
 20
4500.515874945159
 30
0.0
  0
POINT
  5
F2D
330
ACD
100
AcDbEntity
  8
DEFPOINTS
  6
ByBlock
 62
     0
100
AcDbPoint
 10
6308.08479127592
 20
4500.515874945159
 30
0.0
  0
POINT
  5
F2E
330
ACD
100
AcDbEntity
  8
DEFPOINTS
  6
ByBlock
 62
     0
100
AcDbPoint
 10
6308.08479127592
 20
5076.07474097994
 30
0.0
  0
ENDBLK
  5
F2F
330
ACD
100
AcDbEntity
  8
0
100
AcDbBlockEnd
  0
BLOCK
  5
FB1
330
C2B
100
AcDbEntity
  8
0
100
AcDbBlockBegin
  2
*D20
 70
     1
 10
0.0
 20
0.0
 30
0.0
  3
*D20
  1

  0
LINE
  5
FB2
330
C2B
100
AcDbEntity
  8
0
  6
ByBlock
 62
     4
100
AcDbLine
 10
6128.08479127592
 20
1920.515874945158
 30
0.0
 11
6594.602443373151
 21
1920.515874945158
 31
0.0
  0
LINE
  5
FB3
330
C2B
100
AcDbEntity
  8
0
  6
ByBlock
 62
     4
100
AcDbLine
 10
6728.266128291223
 20
2190.515874945158
 30
0.0
 11
6514.602443373151
 21
2190.515874945158
 31
0.0
  0
LINE
  5
FB4
330
C2B
100
AcDbEntity
  8
0
  6
ByBlock
 62
     4
100
AcDbLine
 10
6554.60244337315
 20
1920.515874945158
 30
0.0
 11
6554.60244337315
 21
2190.515874945158
 31
0.0
  0
MTEXT
  5
FB5
330
C2B
100
AcDbEntity
  8
0
  6
ByBlock
 62
     7
100
AcDbMText
 10
6394.59063234953
 20
2055.515874945159
 30
0.0
 40
120.0
 41
0.0
 71
     5
 72
     1
  1
\A1;270
 11
0.0000000000000001
 21
1.0
 31
0.0
 73
     1
 44
1.0
1001
ACAD
1000
MTEXTBEGIN
1070
    73
1070
     1
1070
    44
1040
1.0
1070
    74
1070
     0
1000
MTEXTEND
  0
INSERT
  5
FB6
330
C2B
100
AcDbEntity
  8
0
  6
ByBlock
 62
     4
100
AcDbBlockReference
  2
_DOTSMALL
 10
6554.60244337315
 20
1920.515874945158
 30
0.0
 41
100.0
 42
100.0
 43
100.0
 50
270.0
  0
INSERT
  5
FB7
330
C2B
100
AcDbEntity
  8
0
  6
ByBlock
 62
     4
100
AcDbBlockReference
  2
_DOTSMALL
 10
6554.60244337315
 20
2190.515874945158
 30
0.0
 41
100.0
 42
100.0
 43
100.0
 50
90.0
  0
POINT
  5
FB8
330
C2B
100
AcDbEntity
  8
DEFPOINTS
  6
ByBlock
 62
     0
100
AcDbPoint
 10
6088.08479127592
 20
1920.515874945158
 30
0.0
  0
POINT
  5
FB9
330
C2B
100
AcDbEntity
  8
DEFPOINTS
  6
ByBlock
 62
     0
100
AcDbPoint
 10
6768.266128291223
 20
2190.515874945158
 30
0.0
  0
POINT
  5
FBA
330
C2B
100
AcDbEntity
  8
DEFPOINTS
  6
ByBlock
 62
     0
100
AcDbPoint
 10
6554.60244337315
 20
2190.515874945158
 30
0.0
  0
ENDBLK
  5
FBB
330
C2B
100
AcDbEntity
  8
0
100
AcDbBlockEnd
  0
BLOCK
  5
E5D
330
E5C
100
AcDbEntity
  8
0
100
AcDbBlockBegin
  2
_DOTSMALL
 70
     0
 10
0.0
 20
0.0
 30
0.0
  3
_DOTSMALL
  1

  0
LWPOLYLINE
  5
E5E
330
E5C
100
AcDbEntity
  8
0
  6
ByBlock
 62
     0
100
AcDbPolyline
 90
        2
 70
     1
 43
0.5
 10
-0.0625
 20
0.0
 42
1.0
 10
0.0625
 20
0.0
 42
1.0
  0
ENDBLK
  5
E62
330
E5C
100
AcDbEntity
  8
0
100
AcDbBlockEnd
  0
BLOCK
  5
132B
330
129E
100
AcDbEntity
  8
0
100
AcDbBlockBegin
  2
*D22
 70
     1
 10
0.0
 20
0.0
 30
0.0
  3
*D22
  1

  0
LINE
  5
132C
330
129E
100
AcDbEntity
  8
0
  6
ByBlock
 62
     4
100
AcDbLine
 10
10526.32755088103
 20
4435.515874945157
 30
0.0
 11
7252.756801734119
 21
4435.515874945158
 31
0.0
  0
LINE
  5
132D
330
129E
100
AcDbEntity
  8
0
  6
ByBlock
 62
     4
100
AcDbLine
 10
7315.847895189889
 20
2190.515874945158
 30
0.0
 11
7332.75680173412
 21
2190.515874945158
 31
0.0
  0
LINE
  5
132E
330
129E
100
AcDbEntity
  8
0
  6
ByBlock
 62
     4
100
AcDbLine
 10
7292.75680173412
 20
4435.515874945158
 30
0.0
 11
7292.75680173412
 21
2190.515874945158
 31
0.0
  0
INSERT
  5
132F
330
129E
100
AcDbEntity
  8
0
  6
ByBlock
 62
     4
100
AcDbBlockReference
  2
_DOTSMALL
 10
7292.75680173412
 20
4435.515874945158
 30
0.0
 41
100.0
 42
100.0
 43
100.0
 50
90.0
  0
INSERT
  5
1330
330
129E
100
AcDbEntity
  8
0
  6
ByBlock
 62
     4
100
AcDbBlockReference
  2
_DOTSMALL
 10
7292.75680173412
 20
2190.515874945158
 30
0.0
 41
100.0
 42
100.0
 43
100.0
 50
270.0
  0
MTEXT
  5
1331
330
129E
100
AcDbEntity
  8
0
  6
ByBlock
 62
     7
100
AcDbMText
 10
7192.744990710498
 20
3313.015874945158
 30
0.0
 40
120.0
 41
0.0
 71
     5
 72
     1
  1
\A1;2245
 11
0.0000000000000001
 21
1.0
 31
0.0
 73
     1
 44
1.0
1001
ACAD
1000
MTEXTBEGIN
1070
    73
1070
     1
1070
    44
1040
1.0
1070
    74
1070
     0
1000
MTEXTEND
  0
POINT
  5
1332
330
129E
100
AcDbEntity
  8
DEFPOINTS
  6
ByBlock
 62
     0
100
AcDbPoint
 10
10566.32755088103
 20
4435.515874945157
 30
0.0
  0
POINT
  5
1333
330
129E
100
AcDbEntity
  8
DEFPOINTS
  6
ByBlock
 62
     0
100
AcDbPoint
 10
7275.847895189889
 20
2190.515874945158
 30
0.0
  0
POINT
  5
1334
330
129E
100
AcDbEntity
  8
DEFPOINTS
  6
ByBlock
 62
     0
100
AcDbPoint
 10
7292.75680173412
 20
2190.515874945158
 30
0.0
  0
ENDBLK
  5
1335
330
129E
100
AcDbEntity
  8
0
100
AcDbBlockEnd
  0
BLOCK
  5
1336
330
12AA
100
AcDbEntity
  8
0
100
AcDbBlockBegin
  2
*D23
 70
     1
 10
0.0
 20
0.0
 30
0.0
  3
*D23
  1

  0
LINE
  5
1337
330
12AA
100
AcDbEntity
  8
0
  6
ByBlock
 62
     4
100
AcDbLine
 10
10526.84827728145
 20
4435.49135741047
 30
0.0
 11
7546.483483459039
 21
4435.49135741047
 31
0.0
  0
LINE
  5
1338
330
12AA
100
AcDbEntity
  8
0
  6
ByBlock
 62
     4
100
AcDbLine
 10
8125.80682448063
 20
4322.491357410473
 30
0.0
 11
7546.483483459039
 21
4322.491357410473
 31
0.0
  0
LINE
  5
1339
330
12AA
100
AcDbEntity
  8
0
  6
ByBlock
 62
     4
100
AcDbLine
 10
7586.483483459038
 20
4435.49135741047
 30
0.0
 11
7586.483483459038
 21
4322.491357410473
 31
0.0
  0
MTEXT
  5
133A
330
12AA
100
AcDbEntity
  8
0
  6
ByBlock
 62
     7
100
AcDbMText
 10
7467.842311419068
 20
4559.859215536326
 30
0.0
 40
120.0
 41
0.0
 71
     5
 72
     1
  1
\A1;113
 11
0.0000000000000001
 21
1.0
 31
0.0
 73
     1
 44
1.0
1001
ACAD
1000
MTEXTBEGIN
1070
    73
1070
     1
1070
    44
1040
1.0
1070
    74
1070
     0
1000
MTEXTEND
  0
INSERT
  5
133B
330
12AA
100
AcDbEntity
  8
0
  6
ByBlock
 62
     4
100
AcDbBlockReference
  2
_DOTSMALL
 10
7586.483483459038
 20
4435.49135741047
 30
0.0
 41
100.0
 42
100.0
 43
100.0
 50
90.0
  0
INSERT
  5
133C
330
12AA
100
AcDbEntity
  8
0
  6
ByBlock
 62
     4
100
AcDbBlockReference
  2
_DOTSMALL
 10
7586.483483459038
 20
4322.491357410473
 30
0.0
 41
100.0
 42
100.0
 43
100.0
 50
270.0
  0
POINT
  5
133D
330
12AA
100
AcDbEntity
  8
DEFPOINTS
  6
ByBlock
 62
     0
100
AcDbPoint
 10
10566.84827728145
 20
4435.49135741047
 30
0.0
  0
POINT
  5
133E
330
12AA
100
AcDbEntity
  8
DEFPOINTS
  6
ByBlock
 62
     0
100
AcDbPoint
 10
8165.806824480629
 20
4322.491357410473
 30
0.0
  0
POINT
  5
133F
330
12AA
100
AcDbEntity
  8
DEFPOINTS
  6
ByBlock
 62
     0
100
AcDbPoint
 10
7586.483483459038
 20
4322.491357410473
 30
0.0
  0
ENDBLK
  5
1340
330
12AA
100
AcDbEntity
  8
0
100
AcDbBlockEnd
  0
BLOCK
  5
1341
330
12B6
100
AcDbEntity
  8
0
100
AcDbBlockBegin
  2
*D24
 70
     1
 10
0.0
 20
0.0
 30
0.0
  3
*D24
  1

  0
LINE
  5
1342
330
12B6
100
AcDbEntity
  8
0
  6
ByBlock
 62
     4
100
AcDbLine
 10
8166.327550881042
 20
4351.43168164953
 30
0.0
 11
8166.327550881042
 21
5039.199378679063
 31
0.0
  0
LINE
  5
1343
330
12B6
100
AcDbEntity
  8
0
  6
ByBlock
 62
     4
100
AcDbLine
 10
12966.32755088104
 20
4351.43168164953
 30
0.0
 11
12966.32755088104
 21
5039.199378679063
 31
0.0
  0
LINE
  5
1344
330
12B6
100
AcDbEntity
  8
0
  6
ByBlock
 62
     4
100
AcDbLine
 10
8166.327550881042
 20
4999.199378679063
 30
0.0
 11
12966.32755088104
 21
4999.199378679063
 31
0.0
  0
INSERT
  5
1345
330
12B6
100
AcDbEntity
  8
0
  6
ByBlock
 62
     4
100
AcDbBlockReference
  2
_DOTSMALL
 10
8166.327550881042
 20
4999.199378679063
 30
0.0
 41
100.0
 42
100.0
 43
100.0
 50
180.0
  0
INSERT
  5
1346
330
12B6
100
AcDbEntity
  8
0
  6
ByBlock
 62
     4
100
AcDbBlockReference
  2
_DOTSMALL
 10
12966.32755088104
 20
4999.199378679063
 30
0.0
 41
100.0
 42
100.0
 43
100.0
  0
MTEXT
  5
1347
330
12B6
100
AcDbEntity
  8
0
  6
ByBlock
 62
     7
100
AcDbMText
 10
10566.32755088104
 20
5099.199378679063
 30
0.0
 40
120.0
 41
0.0
 71
     5
 72
     1
  1
\A1;4800
 73
     1
 44
1.0
1001
ACAD
1000
MTEXTBEGIN
1070
    73
1070
     1
1070
    44
1040
1.0
1070
    74
1070
     0
1000
MTEXTEND
  0
POINT
  5
1348
330
12B6
100
AcDbEntity
  8
DEFPOINTS
  6
ByBlock
 62
     0
100
AcDbPoint
 10
8166.327550881042
 20
4311.43168164953
 30
0.0
  0
POINT
  5
1349
330
12B6
100
AcDbEntity
  8
DEFPOINTS
  6
ByBlock
 62
     0
100
AcDbPoint
 10
12966.32755088104
 20
4311.43168164953
 30
0.0
  0
POINT
  5
134A
330
12B6
100
AcDbEntity
  8
DEFPOINTS
  6
ByBlock
 62
     0
100
AcDbPoint
 10
12966.32755088104
 20
4999.199378679063
 30
0.0
  0
ENDBLK
  5
134B
330
12B6
100
AcDbEntity
  8
0
100
AcDbBlockEnd
  0
BLOCK
  5
169E
330
12C2
100
AcDbEntity
  8
0
100
AcDbBlockBegin
  2
*D25
 70
     1
 10
0.0
 20
0.0
 30
0.0
  3
*D25
  1

  0
LINE
  5
169F
330
12C2
100
AcDbEntity
  8
0
  6
ByBlock
 62
     4
100
AcDbLine
 10
10566.32755088104
 20
4473.013105428839
 30
0.0
 11
10566.32755088104
 21
4835.283571974691
 31
0.0
  0
LINE
  5
16A0
330
12C2
100
AcDbEntity
  8
0
  6
ByBlock
 62
     4
100
AcDbLine
 10
8916.327550881042
 20
4795.283571974691
 30
0.0
 11
10566.32755088104
 21
4795.283571974691
 31
0.0
  0
INSERT
  5
16A1
330
12C2
100
AcDbEntity
  8
0
  6
ByBlock
 62
     4
100
AcDbBlockReference
  2
_DOTSMALL
 10
8916.327550881042
 20
4795.283571974691
 30
0.0
 41
100.0
 42
100.0
 43
100.0
 50
180.0
  0
INSERT
  5
16A2
330
12C2
100
AcDbEntity
  8
0
  6
ByBlock
 62
     4
100
AcDbBlockReference
  2
_DOTSMALL
 10
10566.32755088104
 20
4795.283571974691
 30
0.0
 41
100.0
 42
100.0
 43
100.0
  0
MTEXT
  5
16A3
330
12C2
100
AcDbEntity
  8
0
  6
ByBlock
 62
     7
100
AcDbMText
 10
9741.327550881043
 20
4895.28357197469
 30
0.0
 40
120.0
 41
0.0
 71
     5
 72
     1
  1
\A1;1650
 73
     1
 44
1.0
1001
ACAD
1000
MTEXTBEGIN
1070
    73
1070
     1
1070
    44
1040
1.0
1070
    74
1070
     0
1000
MTEXTEND
  0
POINT
  5
16A4
330
12C2
100
AcDbEntity
  8
DEFPOINTS
  6
ByBlock
 62
     0
100
AcDbPoint
 10
8916.327550881042
 20
3937.032438185488
 30
0.0
  0
POINT
  5
16A5
330
12C2
100
AcDbEntity
  8
DEFPOINTS
  6
ByBlock
 62
     0
100
AcDbPoint
 10
10566.32755088104
 20
4433.013105428839
 30
0.0
  0
POINT
  5
16A6
330
12C2
100
AcDbEntity
  8
DEFPOINTS
  6
ByBlock
 62
     0
100
AcDbPoint
 10
10566.32755088104
 20
4795.283571974691
 30
0.0
  0
ENDBLK
  5
16A7
330
12C2
100
AcDbEntity
  8
0
100
AcDbBlockEnd
  0
BLOCK
  5
1356
330
12CD
100
AcDbEntity
  8
0
100
AcDbBlockBegin
  2
*D26
 70
     1
 10
0.0
 20
0.0
 30
0.0
  3
*D26
  1

  0
LINE
  5
1357
330
12CD
100
AcDbEntity
  8
0
  6
ByBlock
 62
     4
100
AcDbLine
 10
7575.652178531027
 20
2190.515874945158
 30
0.0
 11
7626.483483459039
 21
2190.515874945158
 31
0.0
  0
LINE
  5
1358
330
12CD
100
AcDbEntity
  8
0
  6
ByBlock
 62
     4
100
AcDbLine
 10
7586.483483459038
 20
4322.515874945159
 30
0.0
 11
7586.483483459038
 21
2190.515874945158
 31
0.0
  0
INSERT
  5
1359
330
12CD
100
AcDbEntity
  8
0
  6
ByBlock
 62
     4
100
AcDbBlockReference
  2
_DOTSMALL
 10
7586.483483459038
 20
4322.515874945159
 30
0.0
 41
100.0
 42
100.0
 43
100.0
 50
90.0
  0
INSERT
  5
135A
330
12CD
100
AcDbEntity
  8
0
  6
ByBlock
 62
     4
100
AcDbBlockReference
  2
_DOTSMALL
 10
7586.483483459038
 20
2190.515874945158
 30
0.0
 41
100.0
 42
100.0
 43
100.0
 50
270.0
  0
MTEXT
  5
135B
330
12CD
100
AcDbEntity
  8
0
  6
ByBlock
 62
     7
100
AcDbMText
 10
7486.471672435417
 20
3256.515874945159
 30
0.0
 40
120.0
 41
0.0
 71
     5
 72
     1
  1
\A1;2132
 11
0.0000000000000001
 21
1.0
 31
0.0
 73
     1
 44
1.0
1001
ACAD
1000
MTEXTBEGIN
1070
    73
1070
     1
1070
    44
1040
1.0
1070
    74
1070
     0
1000
MTEXTEND
  0
POINT
  5
135C
330
12CD
100
AcDbEntity
  8
DEFPOINTS
  6
ByBlock
 62
     0
100
AcDbPoint
 10
8166.327550881032
 20
4322.515874945159
 30
0.0
  0
POINT
  5
135D
330
12CD
100
AcDbEntity
  8
DEFPOINTS
  6
ByBlock
 62
     0
100
AcDbPoint
 10
7535.652178531027
 20
2190.515874945158
 30
0.0
  0
POINT
  5
135E
330
12CD
100
AcDbEntity
  8
DEFPOINTS
  6
ByBlock
 62
     0
100
AcDbPoint
 10
7586.483483459038
 20
2190.515874945158
 30
0.0
  0
ENDBLK
  5
135F
330
12CD
100
AcDbEntity
  8
0
100
AcDbBlockEnd
  0
BLOCK
  5
1360
330
12D8
100
AcDbEntity
  8
0
100
AcDbBlockBegin
  2
*D27
 70
     1
 10
0.0
 20
0.0
 30
0.0
  3
*D27
  1

  0
LINE
  5
1361
330
12D8
100
AcDbEntity
  8
0
  6
ByBlock
 62
     4
100
AcDbLine
 10
8906.327550881036
 20
3340.515874945159
 30
0.0
 11
8038.354899444728
 21
3340.515874945159
 31
0.0
  0
LINE
  5
1362
330
12D8
100
AcDbEntity
  8
0
  6
ByBlock
 62
     4
100
AcDbLine
 10
8078.354899444729
 20
2440.515874945158
 30
0.0
 11
8078.354899444729
 21
3340.515874945159
 31
0.0
  0
INSERT
  5
1363
330
12D8
100
AcDbEntity
  8
0
  6
ByBlock
 62
     4
100
AcDbBlockReference
  2
_DOTSMALL
 10
8078.354899444729
 20
2440.515874945158
 30
0.0
 41
100.0
 42
100.0
 43
100.0
 50
270.0
  0
INSERT
  5
1364
330
12D8
100
AcDbEntity
  8
0
  6
ByBlock
 62
     4
100
AcDbBlockReference
  2
_DOTSMALL
 10
8078.354899444729
 20
3340.515874945159
 30
0.0
 41
100.0
 42
100.0
 43
100.0
 50
90.0
  0
MTEXT
  5
1365
330
12D8
100
AcDbEntity
  8
0
  6
ByBlock
 62
     7
100
AcDbMText
 10
7978.354899444728
 20
2890.515874945159
 30
0.0
 40
120.0
 41
0.0
 71
     5
 72
     1
  1
\A1;900
 11
0.0000000000000001
 21
1.0
 31
0.0
 73
     1
 44
1.0
1001
ACAD
1000
MTEXTBEGIN
1070
    73
1070
     1
1070
    44
1040
1.0
1070
    74
1070
     0
1000
MTEXTEND
  0
POINT
  5
1366
330
12D8
100
AcDbEntity
  8
DEFPOINTS
  6
ByBlock
 62
     0
100
AcDbPoint
 10
8946.327550881036
 20
2440.515874945158
 30
0.0
  0
POINT
  5
1367
330
12D8
100
AcDbEntity
  8
DEFPOINTS
  6
ByBlock
 62
     0
100
AcDbPoint
 10
8946.327550881036
 20
3340.515874945159
 30
0.0
  0
POINT
  5
1368
330
12D8
100
AcDbEntity
  8
DEFPOINTS
  6
ByBlock
 62
     0
100
AcDbPoint
 10
8078.354899444729
 20
3340.515874945159
 30
0.0
  0
ENDBLK
  5
1369
330
12D8
100
AcDbEntity
  8
0
100
AcDbBlockEnd
  0
BLOCK
  5
136A
330
12E3
100
AcDbEntity
  8
0
100
AcDbBlockBegin
  2
*D28
 70
     1
 10
0.0
 20
0.0
 30
0.0
  3
*D28
  1

  0
LINE
  5
136B
330
12E3
100
AcDbEntity
  8
0
  6
ByBlock
 62
     4
100
AcDbLine
 10
8102.254670437181
 20
2190.515874945158
 30
0.0
 11
8118.354899444728
 21
2190.515874945158
 31
0.0
  0
LINE
  5
136C
330
12E3
100
AcDbEntity
  8
0
  6
ByBlock
 62
     4
100
AcDbLine
 10
8906.327550881036
 20
2440.515874945158
 30
0.0
 11
8038.354899444728
 21
2440.515874945158
 31
0.0
  0
LINE
  5
136D
330
12E3
100
AcDbEntity
  8
0
  6
ByBlock
 62
     4
100
AcDbLine
 10
8078.354899444729
 20
2190.515874945158
 30
0.0
 11
8078.354899444729
 21
2440.515874945158
 31
0.0
  0
MTEXT
  5
136E
330
12E3
100
AcDbEntity
  8
0
  6
ByBlock
 62
     7
100
AcDbMText
 10
7967.798262385471
 20
2315.515874945158
 30
0.0
 40
120.0
 41
0.0
 71
     5
 72
     1
  1
\A1;250
 11
0.0000000000000001
 21
1.0
 31
0.0
 73
     1
 44
1.0
1001
ACAD
1000
MTEXTBEGIN
1070
    73
1070
     1
1070
    44
1040
1.0
1070
    74
1070
     0
1000
MTEXTEND
  0
INSERT
  5
136F
330
12E3
100
AcDbEntity
  8
0
  6
ByBlock
 62
     4
100
AcDbBlockReference
  2
_DOTSMALL
 10
8078.354899444729
 20
2190.515874945158
 30
0.0
 41
100.0
 42
100.0
 43
100.0
 50
270.0
  0
INSERT
  5
1370
330
12E3
100
AcDbEntity
  8
0
  6
ByBlock
 62
     4
100
AcDbBlockReference
  2
_DOTSMALL
 10
8078.354899444729
 20
2440.515874945158
 30
0.0
 41
100.0
 42
100.0
 43
100.0
 50
90.0
  0
POINT
  5
1371
330
12E3
100
AcDbEntity
  8
DEFPOINTS
  6
ByBlock
 62
     0
100
AcDbPoint
 10
8062.25467043718
 20
2190.515874945158
 30
0.0
  0
POINT
  5
1372
330
12E3
100
AcDbEntity
  8
DEFPOINTS
  6
ByBlock
 62
     0
100
AcDbPoint
 10
8946.327550881036
 20
2440.515874945158
 30
0.0
  0
POINT
  5
1373
330
12E3
100
AcDbEntity
  8
DEFPOINTS
  6
ByBlock
 62
     0
100
AcDbPoint
 10
8078.354899444729
 20
2440.515874945158
 30
0.0
  0
ENDBLK
  5
1374
330
12E3
100
AcDbEntity
  8
0
100
AcDbBlockEnd
  0
BLOCK
  5
1375
330
12EF
100
AcDbEntity
  8
0
100
AcDbBlockBegin
  2
*D29
 70
     1
 10
0.0
 20
0.0
 30
0.0
  3
*D29
  1

  0
LINE
  5
1376
330
12EF
100
AcDbEntity
  8
0
  6
ByBlock
 62
     4
100
AcDbLine
 10
8166.327550881034
 20
4427.515874945158
 30
0.0
 11
8166.327550881034
 21
4835.283571974691
 31
0.0
  0
LINE
  5
1377
330
12EF
100
AcDbEntity
  8
0
  6
ByBlock
 62
     4
100
AcDbLine
 10
8916.327550881034
 20
4044.535207701807
 30
0.0
 11
8916.327550881034
 21
4835.283571974691
 31
0.0
  0
LINE
  5
1378
330
12EF
100
AcDbEntity
  8
0
  6
ByBlock
 62
     4
100
AcDbLine
 10
8166.327550881034
 20
4795.283571974691
 30
0.0
 11
8916.327550881034
 21
4795.283571974691
 31
0.0
  0
INSERT
  5
1379
330
12EF
100
AcDbEntity
  8
0
  6
ByBlock
 62
     4
100
AcDbBlockReference
  2
_DOTSMALL
 10
8166.327550881034
 20
4795.283571974691
 30
0.0
 41
100.0
 42
100.0
 43
100.0
 50
180.0
  0
INSERT
  5
137A
330
12EF
100
AcDbEntity
  8
0
  6
ByBlock
 62
     4
100
AcDbBlockReference
  2
_DOTSMALL
 10
8916.327550881034
 20
4795.283571974691
 30
0.0
 41
100.0
 42
100.0
 43
100.0
  0
MTEXT
  5
137B
330
12EF
100
AcDbEntity
  8
0
  6
ByBlock
 62
     7
100
AcDbMText
 10
8541.327550881034
 20
4895.28357197469
 30
0.0
 40
120.0
 41
0.0
 71
     5
 72
     1
  1
\A1;750
 73
     1
 44
1.0
1001
ACAD
1000
MTEXTBEGIN
1070
    73
1070
     1
1070
    44
1040
1.0
1070
    74
1070
     0
1000
MTEXTEND
  0
POINT
  5
137C
330
12EF
100
AcDbEntity
  8
DEFPOINTS
  6
ByBlock
 62
     0
100
AcDbPoint
 10
8166.327550881034
 20
4387.515874945158
 30
0.0
  0
POINT
  5
137D
330
12EF
100
AcDbEntity
  8
DEFPOINTS
  6
ByBlock
 62
     0
100
AcDbPoint
 10
8916.327550881034
 20
4004.535207701807
 30
0.0
  0
POINT
  5
137E
330
12EF
100
AcDbEntity
  8
DEFPOINTS
  6
ByBlock
 62
     0
100
AcDbPoint
 10
8916.327550881034
 20
4795.283571974691
 30
0.0
  0
ENDBLK
  5
137F
330
12EF
100
AcDbEntity
  8
0
100
AcDbBlockEnd
  0
BLOCK
  5
1380
330
12FB
100
AcDbEntity
  8
0
100
AcDbBlockBegin
  2
*D30
 70
     1
 10
0.0
 20
0.0
 30
0.0
  3
*D30
  1

  0
LINE
  5
19F9
330
12FB
100
AcDbEntity
  8
寸法
 62
     4
 48
50.0
370
    -2
100
AcDbLine
 10
12216.32755088103
 20
4044.535207701804
 30
0.0
 11
12216.32755088103
 21
4835.283571974691
 31
0.0
  0
LINE
  5
19FA
330
12FB
100
AcDbEntity
  8
寸法
 62
     4
 48
50.0
370
    -2
100
AcDbLine
 10
10566.32755088104
 20
4795.283571974691
 30
0.0
 11
12216.32755088103
 21
4795.283571974691
 31
0.0
  0
INSERT
  5
19FB
330
12FB
100
AcDbEntity
  8
寸法
 62
     4
 48
50.0
370
    -2
100
AcDbBlockReference
  2
_DOTSMALL
 10
10566.32755088104
 20
4795.283571974691
 30
0.0
 41
100.0
 42
100.0
 43
100.0
 50
180.0
  0
INSERT
  5
19FC
330
12FB
100
AcDbEntity
  8
寸法
 62
     4
 48
50.0
370
    -2
100
AcDbBlockReference
  2
_DOTSMALL
 10
12216.32755088103
 20
4795.283571974691
 30
0.0
 41
100.0
 42
100.0
 43
100.0
  0
MTEXT
  5
19FD
330
12FB
100
AcDbEntity
  8
寸法
 62
     7
 48
50.0
100
AcDbMText
 10
11391.32755088103
 20
4895.28357197469
 30
0.0
 40
120.0
 41
0.0
 71
     5
 72
     1
  1
\A1;1650
 73
     1
 44
1.0
1001
ACAD
1000
MTEXTBEGIN
1070
    73
1070
     1
1070
    44
1040
1.0
1070
    74
1070
     0
1000
MTEXTEND
  0
POINT
  5
19FE
330
12FB
100
AcDbEntity
  8
DEFPOINTS
 62
     0
 48
50.0
100
AcDbPoint
 10
10566.32755088104
 20
3962.61709773951
 30
0.0
  0
POINT
  5
19FF
330
12FB
100
AcDbEntity
  8
DEFPOINTS
 62
     0
 48
50.0
100
AcDbPoint
 10
12216.32755088103
 20
4004.535207701805
 30
0.0
  0
POINT
  5
1A00
330
12FB
100
AcDbEntity
  8
DEFPOINTS
 62
     0
 48
50.0
100
AcDbPoint
 10
12216.32755088103
 20
4795.283571974691
 30
0.0
  0
ENDBLK
  5
1389
330
12FB
100
AcDbEntity
  8
0
100
AcDbBlockEnd
  0
BLOCK
  5
138A
330
1306
100
AcDbEntity
  8
0
100
AcDbBlockBegin
  2
*D31
 70
     1
 10
0.0
 20
0.0
 30
0.0
  3
*D31
  1

  0
LINE
  5
138B
330
1306
100
AcDbEntity
  8
0
  6
ByBlock
 62
     4
100
AcDbLine
 10
13006.32755088103
 20
2240.515874945158
 30
0.0
 11
13523.45611201606
 21
2240.515874945158
 31
0.0
  0
LINE
  5
138C
330
1306
100
AcDbEntity
  8
0
  6
ByBlock
 62
     4
100
AcDbLine
 10
13455.59992105415
 20
2190.515874945158
 30
0.0
 11
13443.45611201606
 21
2190.515874945158
 31
0.0
  0
LINE
  5
138D
330
1306
100
AcDbEntity
  8
0
  6
ByBlock
 62
     4
100
AcDbLine
 10
13483.45611201606
 20
2240.515874945158
 30
0.0
 11
13483.45611201606
 21
2340.515874945158
 31
0.0
  0
LINE
  5
138E
330
1306
100
AcDbEntity
  8
0
  6
ByBlock
 62
     4
100
AcDbLine
 10
13483.45611201606
 20
2190.515874945158
 30
0.0
 11
13483.45611201606
 21
2090.515874945158
 31
0.0
  0
MTEXT
  5
138F
330
1306
100
AcDbEntity
  8
0
  6
ByBlock
 62
     7
100
AcDbMText
 10
13362.01802163522
 20
2370.918921423119
 30
0.0
 40
120.0
 41
0.0
 71
     5
 72
     1
  1
\A1;50
 11
0.0000000000000001
 21
1.0
 31
0.0
 73
     1
 44
1.0
1001
ACAD
1000
MTEXTBEGIN
1070
    73
1070
     1
1070
    44
1040
1.0
1070
    74
1070
     0
1000
MTEXTEND
  0
LINE
  5
1390
330
1306
100
AcDbEntity
  8
0
  6
ByBlock
 62
     4
100
AcDbLine
 10
13483.45611201606
 20
2240.515874945158
 30
0.0
 11
13483.45611201606
 21
2190.515874945158
 31
0.0
  0
INSERT
  5
1391
330
1306
100
AcDbEntity
  8
0
  6
ByBlock
 62
     4
100
AcDbBlockReference
  2
_DOTSMALL
 10
13483.45611201606
 20
2240.515874945158
 30
0.0
 41
100.0
 42
100.0
 43
100.0
 50
270.0
  0
INSERT
  5
1392
330
1306
100
AcDbEntity
  8
0
  6
ByBlock
 62
     4
100
AcDbBlockReference
  2
_DOTSMALL
 10
13483.45611201606
 20
2190.515874945158
 30
0.0
 41
100.0
 42
100.0
 43
100.0
 50
90.0
  0
POINT
  5
1393
330
1306
100
AcDbEntity
  8
DEFPOINTS
  6
ByBlock
 62
     0
100
AcDbPoint
 10
12966.32755088103
 20
2240.515874945158
 30
0.0
  0
POINT
  5
1394
330
1306
100
AcDbEntity
  8
DEFPOINTS
  6
ByBlock
 62
     0
100
AcDbPoint
 10
13495.59992105415
 20
2190.515874945158
 30
0.0
  0
POINT
  5
1395
330
1306
100
AcDbEntity
  8
DEFPOINTS
  6
ByBlock
 62
     0
100
AcDbPoint
 10
13483.45611201606
 20
2190.515874945158
 30
0.0
  0
ENDBLK
  5
1396
330
1306
100
AcDbEntity
  8
0
100
AcDbBlockEnd
  0
BLOCK
  5
1397
330
1314
100
AcDbEntity
  8
0
100
AcDbBlockBegin
  2
*D32
 70
     1
 10
0.0
 20
0.0
 30
0.0
  3
*D32
  1

  0
LINE
  5
1398
330
1314
100
AcDbEntity
  8
0
  6
ByBlock
 62
     4
100
AcDbLine
 10
12966.32755088103
 20
4427.515874945158
 30
0.0
 11
12966.32755088103
 21
4835.283571974691
 31
0.0
  0
LINE
  5
1399
330
1314
100
AcDbEntity
  8
0
  6
ByBlock
 62
     4
100
AcDbLine
 10
12216.32755088103
 20
4795.283571974691
 30
0.0
 11
12966.32755088103
 21
4795.283571974691
 31
0.0
  0
INSERT
  5
139A
330
1314
100
AcDbEntity
  8
0
  6
ByBlock
 62
     4
100
AcDbBlockReference
  2
_DOTSMALL
 10
12216.32755088103
 20
4795.283571974691
 30
0.0
 41
100.0
 42
100.0
 43
100.0
 50
180.0
  0
INSERT
  5
139B
330
1314
100
AcDbEntity
  8
0
  6
ByBlock
 62
     4
100
AcDbBlockReference
  2
_DOTSMALL
 10
12966.32755088103
 20
4795.283571974691
 30
0.0
 41
100.0
 42
100.0
 43
100.0
  0
MTEXT
  5
139C
330
1314
100
AcDbEntity
  8
0
  6
ByBlock
 62
     7
100
AcDbMText
 10
12591.32755088103
 20
4895.28357197469
 30
0.0
 40
120.0
 41
0.0
 71
     5
 72
     1
  1
\A1;750
 73
     1
 44
1.0
1001
ACAD
1000
MTEXTBEGIN
1070
    73
1070
     1
1070
    44
1040
1.0
1070
    74
1070
     0
1000
MTEXTEND
  0
POINT
  5
139D
330
1314
100
AcDbEntity
  8
DEFPOINTS
  6
ByBlock
 62
     0
100
AcDbPoint
 10
12216.32755088103
 20
4004.535207701805
 30
0.0
  0
POINT
  5
139E
330
1314
100
AcDbEntity
  8
DEFPOINTS
  6
ByBlock
 62
     0
100
AcDbPoint
 10
12966.32755088103
 20
4387.515874945158
 30
0.0
  0
POINT
  5
139F
330
1314
100
AcDbEntity
  8
DEFPOINTS
  6
ByBlock
 62
     0
100
AcDbPoint
 10
12966.32755088103
 20
4795.283571974691
 30
0.0
  0
ENDBLK
  5
13A0
330
1314
100
AcDbEntity
  8
0
100
AcDbBlockEnd
  0
BLOCK
  5
13A1
330
131F
100
AcDbEntity
  8
0
100
AcDbBlockBegin
  2
*D33
 70
     1
 10
0.0
 20
0.0
 30
0.0
  3
*D33
  1

  0
LINE
  5
13A2
330
131F
100
AcDbEntity
  8
0
  6
ByBlock
 62
     4
100
AcDbLine
 10
12970.33206907486
 20
4322.327328880199
 30
0.0
 11
13535.09745646966
 21
4295.736291890368
 31
0.0
  0
LINE
  5
13A3
330
131F
100
AcDbEntity
  8
0
  6
ByBlock
 62
     4
100
AcDbLine
 10
12964.92347741464
 20
4207.454585654256
 30
0.0
 11
13529.68886480944
 21
4180.863548664425
 31
0.0
  0
LINE
  5
13A4
330
131F
100
AcDbEntity
  8
0
  6
ByBlock
 62
     4
100
AcDbLine
 10
13495.14171969542
 20
4297.617541163488
 30
0.0
 11
13489.7331280352
 21
4182.744797937545
 31
0.0
  0
MTEXT
  5
13A5
330
131F
100
AcDbEntity
  8
0
  6
ByBlock
 62
     7
100
AcDbMText
 10
13641.00436626226
 20
4237.818790513935
 30
0.0
 40
120.0
 41
0.0
 71
     5
 72
     1
  1
\A1;115
 11
0.0470312318279986
 21
0.9988934193560098
 31
0.0
 73
     1
 44
1.0
1001
ACAD
1000
MTEXTBEGIN
1070
    73
1070
     1
1070
    44
1040
1.0
1070
    74
1070
     0
1000
MTEXTEND
  0
INSERT
  5
13A6
330
131F
100
AcDbEntity
  8
0
  6
ByBlock
 62
     4
100
AcDbBlockReference
  2
_DOTSMALL
 10
13495.14171969542
 20
4297.617541163488
 30
0.0
 41
100.0
 42
100.0
 43
100.0
 50
87.30431450645136
  0
INSERT
  5
13A7
330
131F
100
AcDbEntity
  8
0
  6
ByBlock
 62
     4
100
AcDbBlockReference
  2
_DOTSMALL
 10
13489.7331280352
 20
4182.744797937545
 30
0.0
 41
100.0
 42
100.0
 43
100.0
 50
267.3043145064514
  0
POINT
  5
13A8
330
131F
100
AcDbEntity
  8
DEFPOINTS
  6
ByBlock
 62
     0
100
AcDbPoint
 10
12930.37633230062
 20
4324.20857815332
 30
0.0
  0
POINT
  5
13A9
330
131F
100
AcDbEntity
  8
DEFPOINTS
  6
ByBlock
 62
     0
100
AcDbPoint
 10
12924.9677406404
 20
4209.335834927377
 30
0.0
  0
POINT
  5
13AA
330
131F
100
AcDbEntity
  8
DEFPOINTS
  6
ByBlock
 62
     0
100
AcDbPoint
 10
13489.7331280352
 20
4182.744797937545
 30
0.0
  0
ENDBLK
  5
13AB
330
131F
100
AcDbEntity
  8
0
100
AcDbBlockEnd
  0
ENDSEC
  0
SECTION
  2
ENTITIES
  0
LINE
  5
608
330
1A
100
AcDbEntity
  8
部品1
100
AcDbLine
 10
6308.084791275919
 20
5829.414270628261
 30
0.0
 11
6308.084791275919
 21
10609.41427062826
 31
0.0
  0
LINE
  5
609
330
1A
100
AcDbEntity
  8
部品1
100
AcDbLine
 10
6298.084791275919
 20
10619.41427062826
 30
0.0
 11
3438.08479127592
 21
10619.41427062826
 31
0.0
  0
LINE
  5
60A
330
1A
100
AcDbEntity
  8
部品1
100
AcDbLine
 10
6259.584791275912
 20
10495.41427062826
 30
0.0
 11
3476.58479127592
 21
10495.41427062826
 31
0.0
  0
LINE
  5
623
330
1A
100
AcDbEntity
  8
部品1
100
AcDbLine
 10
3450.58479127592
 20
10619.41427062826
 30
0.0
 11
3450.58479127592
 21
10604.91427062826
 31
0.0
  0
LINE
  5
625
330
1A
100
AcDbEntity
  8
部品1
100
AcDbLine
 10
6280.584791275919
 20
10599.91427062826
 30
0.0
 11
6259.58479127592
 21
10599.91427062826
 31
0.0
  0
ARC
  5
626
330
1A
100
AcDbEntity
  8
部品1
100
AcDbCircle
 10
3455.58479127592
 20
10604.91427062826
 30
0.0
 40
5.0
100
AcDbArc
 50
180.0
 51
270.0
  0
LINE
  5
628
330
1A
100
AcDbEntity
  8
部品1
100
AcDbLine
 10
6285.584791275919
 20
10604.91427062826
 30
0.0
 11
6285.58479127592
 21
10619.41427062826
 31
0.0
  0
ARC
  5
629
330
1A
100
AcDbEntity
  8
部品1
100
AcDbCircle
 10
6280.584791275919
 20
10604.91427062826
 30
0.0
 40
5.0
100
AcDbArc
 50
270.0
 51
359.9999999999973
  0
LINE
  5
62A
330
1A
100
AcDbEntity
  8
部品1
100
AcDbLine
 10
6259.584791275912
 20
10495.41427062826
 30
0.0
 11
6259.584791275919
 21
10599.91427062826
 31
0.0
  0
ARC
  5
62B
330
1A
100
AcDbEntity
  8
部品1
100
AcDbCircle
 10
6298.084791275919
 20
10609.41427062826
 30
0.0
 40
10.0
100
AcDbArc
 50
0.0
 51
90.0
  0
LINE
  5
62C
330
1A
100
AcDbEntity
  8
部品1
100
AcDbLine
 10
3476.58479127592
 20
10599.91427062826
 30
0.0
 11
3476.58479127592
 21
10495.41427062826
 31
0.0
  0
LINE
  5
62D
330
1A
100
AcDbEntity
  8
部品1
100
AcDbLine
 10
3476.58479127592
 20
10599.91427062826
 30
0.0
 11
3455.58479127592
 21
10599.91427062826
 31
0.0
  0
LINE
  5
639
330
1A
100
AcDbEntity
  8
部品1
100
AcDbLine
 10
4101.08479127592
 20
10495.41427062826
 30
0.0
 11
4101.08479127592
 21
10382.99445275125
 31
0.0
  0
LINE
  5
63A
330
1A
100
AcDbEntity
  8
部品1
100
AcDbLine
 10
4646.58479127592
 20
10495.41427062826
 30
0.0
 11
4646.584791275921
 21
8574.942845025907
 31
0.0
  0
LINE
  5
63C
330
1A
100
AcDbEntity
  8
部品1
100
AcDbLine
 10
4681.08479127592
 20
10495.41427062826
 30
0.0
 11
4681.08479127592
 21
8460.593109981866
 31
0.0
  0
LINE
  5
640
330
1A
100
AcDbEntity
  8
部品1
100
AcDbLine
 10
5066.58479127592
 20
8359.414270628262
 30
0.0
 11
5066.58479127592
 21
10495.41427062826
 31
0.0
  0
LINE
  5
642
330
1A
100
AcDbEntity
  8
部品1
100
AcDbLine
 10
5101.08479127592
 20
8359.414270628262
 30
0.0
 11
5101.08479127592
 21
10495.41427062826
 31
0.0
  0
LINE
  5
643
330
1A
100
AcDbEntity
  8
部品1
100
AcDbLine
 10
5646.58479127592
 20
8359.414270628262
 30
0.0
 11
5646.58479127592
 21
10495.41427062826
 31
0.0
  0
LINE
  5
645
330
1A
100
AcDbEntity
  8
部品1
100
AcDbLine
 10
5681.084791275919
 20
8359.414270628262
 30
0.0
 11
5681.084791275919
 21
10495.41427062826
 31
0.0
  0
LINE
  5
64F
330
1A
100
AcDbEntity
  8
部品1
100
AcDbLine
 10
4318.08479127592
 20
10495.41427062826
 30
0.0
 11
4318.08479127592
 21
9663.751191749607
 31
0.0
  0
LINE
  5
650
330
1A
100
AcDbEntity
  8
部品1
100
AcDbLine
 10
4363.08479127592
 20
10495.41427062826
 30
0.0
 11
4363.08479127592
 21
9514.599363431292
 31
0.0
  0
LINE
  5
651
330
1A
100
AcDbEntity
  8
部品1
100
AcDbLine
 10
4391.08479127592
 20
10495.41427062826
 30
0.0
 11
4391.08479127592
 21
9421.793781366563
 31
0.0
  0
LINE
  5
652
330
1A
100
AcDbEntity
  8
部品1
100
AcDbLine
 10
4436.084791275919
 20
10495.41427062826
 30
0.0
 11
4436.084791275919
 21
9272.641953048248
 31
0.0
  0
LINE
  5
657
330
1A
100
AcDbEntity
  8
部品1
100
AcDbLine
 10
4818.08479127592
 20
10495.41427062826
 30
0.0
 11
4818.08479127592
 21
8359.414270628262
 31
0.0
  0
LINE
  5
658
330
1A
100
AcDbEntity
  8
部品1
100
AcDbLine
 10
4863.08479127592
 20
10495.41427062826
 30
0.0
 11
4863.08479127592
 21
8359.414270628262
 31
0.0
  0
LINE
  5
659
330
1A
100
AcDbEntity
  8
部品1
100
AcDbLine
 10
4891.08479127592
 20
10495.41427062826
 30
0.0
 11
4891.08479127592
 21
8359.414270628262
 31
0.0
  0
LINE
  5
65A
330
1A
100
AcDbEntity
  8
部品1
100
AcDbLine
 10
4936.08479127592
 20
10495.41427062826
 30
0.0
 11
4936.08479127592
 21
8359.414270628262
 31
0.0
  0
LINE
  5
65B
330
1A
100
AcDbEntity
  8
部品1
100
AcDbLine
 10
5318.08479127592
 20
10495.41427062826
 30
0.0
 11
5318.08479127592
 21
8359.414270628262
 31
0.0
  0
LINE
  5
65C
330
1A
100
AcDbEntity
  8
部品1
100
AcDbLine
 10
5363.08479127592
 20
10495.41427062826
 30
0.0
 11
5363.08479127592
 21
8359.414270628262
 31
0.0
  0
LINE
  5
65D
330
1A
100
AcDbEntity
  8
部品1
100
AcDbLine
 10
5391.08479127592
 20
10495.41427062826
 30
0.0
 11
5391.08479127592
 21
8359.414270628262
 31
0.0
  0
LINE
  5
65E
330
1A
100
AcDbEntity
  8
部品1
100
AcDbLine
 10
5436.08479127592
 20
10495.41427062826
 30
0.0
 11
5436.08479127592
 21
8359.414270628262
 31
0.0
  0
LINE
  5
65F
330
1A
100
AcDbEntity
  8
部品1
100
AcDbLine
 10
5898.08479127592
 20
10495.41427062826
 30
0.0
 11
5898.08479127592
 21
8359.414270628262
 31
0.0
  0
LINE
  5
660
330
1A
100
AcDbEntity
  8
部品1
100
AcDbLine
 10
5943.08479127592
 20
10495.41427062826
 30
0.0
 11
5943.08479127592
 21
8359.414270628262
 31
0.0
  0
LINE
  5
661
330
1A
100
AcDbEntity
  8
部品1
100
AcDbLine
 10
5971.08479127592
 20
10495.41427062826
 30
0.0
 11
5971.08479127592
 21
8359.414270628262
 31
0.0
  0
LINE
  5
662
330
1A
100
AcDbEntity
  8
部品1
100
AcDbLine
 10
6016.08479127592
 20
10495.41427062826
 30
0.0
 11
6016.08479127592
 21
8359.414270628262
 31
0.0
  0
LINE
  5
663
330
1A
100
AcDbEntity
  8
センター
 48
10.0
100
AcDbLine
 10
6278.084791275919
 20
10382.41427062826
 30
0.0
 11
3458.084791275921
 21
10382.41427062826
 31
0.0
  0
LINE
  5
664
330
1A
100
AcDbEntity
  8
センター
 48
10.0
100
AcDbLine
 10
6278.084791275917
 20
9753.814270628261
 30
0.0
 11
3458.084791275921
 21
9753.814270628264
 31
0.0
  0
LINE
  5
665
330
1A
100
AcDbEntity
  8
センター
 48
10.0
100
AcDbLine
 10
6278.084791275919
 20
9125.214270628262
 30
0.0
 11
3458.084791275921
 21
9125.21427062826
 31
0.0
  0
LINE
  5
666
330
1A
100
AcDbEntity
  8
センター
 48
10.0
100
AcDbLine
 10
6278.084791275919
 20
8496.614270628262
 30
0.0
 11
3458.08479127592
 21
8496.614270628255
 31
0.0
  0
LINE
  5
667
330
1A
100
AcDbEntity
  8
点線
 48
50.0
100
AcDbLine
 10
6278.084791275919
 20
10404.91427062826
 30
0.0
 11
4094.471450926111
 21
10404.91427062826
 31
0.0
  0
LINE
  5
668
330
1A
100
AcDbEntity
  8
点線
 48
50.0
100
AcDbLine
 10
6278.084791275919
 20
10359.91427062826
 30
0.0
 11
4108.048220469146
 21
10359.91427062826
 31
0.0
  0
LINE
  5
669
330
1A
100
AcDbEntity
  8
点線
 48
50.0
100
AcDbLine
 10
6278.084791275917
 20
9776.314270628262
 30
0.0
 11
4284.12383614281
 21
9776.314270628262
 31
0.0
  0
LINE
  5
66A
330
1A
100
AcDbEntity
  8
点線
 48
50.0
100
AcDbLine
 10
6278.084791275919
 20
9731.314270628264
 30
0.0
 11
4297.700605685846
 21
9731.314270628262
 31
0.0
  0
LINE
  5
66B
330
1A
100
AcDbEntity
  8
点線
 48
50.0
100
AcDbLine
 10
6278.084791275919
 20
9147.714270628261
 30
0.0
 11
4473.776221359508
 21
9147.714270628261
 31
0.0
  0
LINE
  5
66C
330
1A
100
AcDbEntity
  8
点線
 48
50.0
100
AcDbLine
 10
6278.084791275917
 20
9102.714270628261
 30
0.0
 11
4487.352990902543
 21
9102.714270628261
 31
0.0
  0
LINE
  5
66D
330
1A
100
AcDbEntity
  8
点線
 48
50.0
100
AcDbLine
 10
6278.084791275919
 20
8474.114270628259
 30
0.0
 11
4677.005376119244
 21
8474.114270628259
 31
0.0
  0
LINE
  5
66E
330
1A
100
AcDbEntity
  8
点線
 48
50.0
100
AcDbLine
 10
6278.084791275919
 20
8519.114270628261
 30
0.0
 11
4663.428606576209
 21
8519.114270628259
 31
0.0
  0
LINE
  5
66F
330
1A
100
AcDbEntity
  8
点線
 48
50.0
100
AcDbLine
 10
6278.084791275919
 20
10424.91427062826
 30
0.0
 11
4088.437331129205
 21
10424.91427062826
 31
0.0
  0
LINE
  5
670
330
1A
100
AcDbEntity
  8
点線
 48
50.0
100
AcDbLine
 10
6278.084791275919
 20
9796.314270628261
 30
0.0
 11
4278.089716345905
 21
9796.314270628261
 31
0.0
  0
LINE
  5
671
330
1A
100
AcDbEntity
  8
点線
 48
50.0
100
AcDbLine
 10
6278.084791275919
 20
9167.714270628261
 30
0.0
 11
4467.742101562605
 21
9167.714270628261
 31
0.0
  0
LINE
  5
672
330
1A
100
AcDbEntity
  8
点線
 48
50.0
100
AcDbLine
 10
6278.084791275917
 20
8539.114270628259
 30
0.0
 11
4657.394486779304
 21
8539.114270628259
 31
0.0
  0
LINE
  5
675
330
1A
100
AcDbEntity
  8
部品1
100
AcDbLine
 10
3648.08479127592
 20
10460.91427062826
 30
0.0
 11
3648.08479127592
 21
10424.91427062826
 31
0.0
  0
LINE
  5
676
330
1A
100
AcDbEntity
  8
部品1
100
AcDbLine
 10
3708.084791275921
 20
10460.91427062826
 30
0.0
 11
3708.084791275921
 21
10424.91427062826
 31
0.0
  0
LINE
  5
677
330
1A
100
AcDbEntity
  8
点線
 48
50.0
100
AcDbLine
 10
6028.084791275919
 20
8359.414270628262
 30
0.0
 11
6028.084791275919
 21
8474.114270628259
 31
0.0
  0
LINE
  5
678
330
1A
100
AcDbEntity
  8
点線
 48
50.0
100
AcDbLine
 10
6088.084791275919
 20
8359.414270628262
 30
0.0
 11
6088.084791275919
 21
8474.114270628259
 31
0.0
  0
LINE
  5
679
330
1A
100
AcDbEntity
  8
部品1
100
AcDbLine
 10
3708.084791275921
 20
10460.91427062826
 30
0.0
 11
3648.08479127592
 21
10460.91427062826
 31
0.0
  0
LINE
  5
67A
330
1A
100
AcDbEntity
  8
点線
 48
50.0
100
AcDbLine
 10
6088.084791275917
 20
10460.91427062826
 30
0.0
 11
6028.084791275919
 21
10460.91427062826
 31
0.0
  0
LINE
  5
67B
330
1A
100
AcDbEntity
  8
点線
 48
50.0
100
AcDbLine
 10
6088.084791275919
 20
8539.114270628259
 30
0.0
 11
6088.084791275919
 21
9102.714270628261
 31
0.0
  0
LINE
  5
67C
330
1A
100
AcDbEntity
  8
点線
 48
50.0
100
AcDbLine
 10
6028.084791275919
 20
8539.114270628259
 30
0.0
 11
6028.084791275919
 21
9102.714270628261
 31
0.0
  0
LINE
  5
67D
330
1A
100
AcDbEntity
  8
点線
 48
50.0
100
AcDbLine
 10
6088.084791275919
 20
9167.714270628264
 30
0.0
 11
6088.084791275919
 21
9731.314270628262
 31
0.0
  0
LINE
  5
67E
330
1A
100
AcDbEntity
  8
点線
 48
50.0
100
AcDbLine
 10
6028.084791275919
 20
9167.714270628264
 30
0.0
 11
6028.084791275919
 21
9731.314270628262
 31
0.0
  0
LINE
  5
67F
330
1A
100
AcDbEntity
  8
点線
 48
50.0
100
AcDbLine
 10
6088.084791275919
 20
9796.314270628261
 30
0.0
 11
6088.084791275917
 21
10359.91427062826
 31
0.0
  0
LINE
  5
680
330
1A
100
AcDbEntity
  8
点線
 48
50.0
100
AcDbLine
 10
6028.084791275919
 20
9796.314270628261
 30
0.0
 11
6028.084791275917
 21
10359.91427062826
 31
0.0
  0
LINE
  5
681
330
1A
100
AcDbEntity
  8
点線
 48
50.0
100
AcDbLine
 10
6088.084791275917
 20
10424.91427062826
 30
0.0
 11
6088.084791275917
 21
10460.91427062826
 31
0.0
  0
LINE
  5
682
330
1A
100
AcDbEntity
  8
点線
 48
50.0
100
AcDbLine
 10
6028.084791275917
 20
10424.91427062826
 30
0.0
 11
6028.084791275919
 21
10460.91427062826
 31
0.0
  0
LINE
  5
683
330
1A
100
AcDbEntity
  8
点線
 48
50.0
100
AcDbLine
 10
4830.694407346393
 20
7964.714270628265
 30
0.0
 11
6278.084791275917
 21
7964.714270628263
 31
0.0
  0
LINE
  5
684
330
1A
100
AcDbEntity
  8
点線
 48
50.0
100
AcDbLine
 10
4844.271176889427
 20
7919.714270628263
 30
0.0
 11
6278.084791275917
 21
7919.714270628266
 31
0.0
  0
LINE
  5
685
330
1A
100
AcDbEntity
  8
点線
 48
50.0
100
AcDbLine
 10
4850.305296686332
 20
7899.714270628265
 30
0.0
 11
6278.084791275919
 21
7899.714270628265
 31
0.0
  0
LINE
  5
686
330
1A
100
AcDbEntity
  8
点線
 48
50.0
100
AcDbLine
 10
5020.346792563092
 20
7336.114270628262
 30
0.0
 11
6278.084791275919
 21
7336.114270628262
 31
0.0
  0
LINE
  5
687
330
1A
100
AcDbEntity
  8
点線
 48
50.0
100
AcDbLine
 10
5033.923562106128
 20
7291.114270628263
 30
0.0
 11
6278.084791275919
 21
7291.114270628262
 31
0.0
  0
LINE
  5
688
330
1A
100
AcDbEntity
  8
点線
 48
50.0
100
AcDbLine
 10
5039.95768190303
 20
7271.114270628263
 30
0.0
 11
6278.084791275917
 21
7271.114270628264
 31
0.0
  0
LINE
  5
689
330
1A
100
AcDbEntity
  8
点線
 48
50.0
100
AcDbLine
 10
5209.999177779792
 20
6707.514270628262
 30
0.0
 11
6278.084791275917
 21
6707.514270628262
 31
0.0
  0
LINE
  5
68A
330
1A
100
AcDbEntity
  8
点線
 48
50.0
100
AcDbLine
 10
5223.575947322826
 20
6662.514270628261
 30
0.0
 11
6278.084791275917
 21
6662.514270628261
 31
0.0
  0
LINE
  5
68B
330
1A
100
AcDbEntity
  8
点線
 48
50.0
100
AcDbLine
 10
5229.61006711973
 20
6642.514270628263
 30
0.0
 11
6278.084791275919
 21
6642.514270628263
 31
0.0
  0
LINE
  5
68C
330
1A
100
AcDbEntity
  8
点線
 48
50.0
100
AcDbLine
 10
5399.65156299649
 20
6078.914270628261
 30
0.0
 11
6278.084791275917
 21
6078.914270628262
 31
0.0
  0
LINE
  5
68D
330
1A
100
AcDbEntity
  8
点線
 48
50.0
100
AcDbLine
 10
5413.228332539526
 20
6033.914270628262
 30
0.0
 11
6278.084791275919
 21
6033.914270628262
 31
0.0
  0
LINE
  5
68E
330
1A
100
AcDbEntity
  8
点線
 48
50.0
100
AcDbLine
 10
5419.26245233643
 20
6013.914270628261
 30
0.0
 11
6278.084791275917
 21
6013.914270628262
 31
0.0
  0
LINE
  5
693
330
1A
100
AcDbEntity
  8
部品1
100
AcDbLine
 10
6263.08479127592
 20
8079.414270628261
 30
0.0
 11
3473.08479127592
 21
8079.414270628261
 31
0.0
  0
LINE
  5
697
330
1A
100
AcDbEntity
  8
点線
 48
50.0
100
AcDbLine
 10
6028.08479127592
 20
5977.914270628262
 30
0.0
 11
6028.08479127592
 21
6013.914270628262
 31
0.0
  0
LINE
  5
698
330
1A
100
AcDbEntity
  8
点線
 48
50.0
100
AcDbLine
 10
6088.08479127592
 20
5977.914270628262
 30
0.0
 11
6088.08479127592
 21
6013.914270628262
 31
0.0
  0
LINE
  5
699
330
1A
100
AcDbEntity
  8
部品1
100
AcDbLine
 10
4800.08479127592
 20
8066.16938620677
 30
0.0
 11
4800.08479127592
 21
8079.414270628261
 31
0.0
  0
LINE
  5
69A
330
1A
100
AcDbEntity
  8
部品1
100
AcDbLine
 10
4845.084791275921
 20
7917.017557888453
 30
0.0
 11
4845.08479127592
 21
8079.414270628261
 31
0.0
  0
LINE
  5
69B
330
1A
100
AcDbEntity
  8
部品1
100
AcDbLine
 10
4873.08479127592
 20
7824.211975823724
 30
0.0
 11
4873.08479127592
 21
8079.414270628261
 31
0.0
  0
LINE
  5
69C
330
1A
100
AcDbEntity
  8
部品1
100
AcDbLine
 10
4918.084791275919
 20
7675.060147505409
 30
0.0
 11
4918.084791275919
 21
8079.414270628261
 31
0.0
  0
LINE
  5
69D
330
1A
100
AcDbEntity
  8
部品1
100
AcDbLine
 10
5300.084791275921
 20
6408.926849336602
 30
0.0
 11
5300.08479127592
 21
8079.414270628261
 31
0.0
  0
LINE
  5
69E
330
1A
100
AcDbEntity
  8
部品1
100
AcDbLine
 10
5345.08479127592
 20
6259.77502101829
 30
0.0
 11
5345.08479127592
 21
8079.414270628261
 31
0.0
  0
LINE
  5
69F
330
1A
100
AcDbEntity
  8
部品1
100
AcDbLine
 10
5373.08479127592
 20
6166.969438953561
 30
0.0
 11
5373.08479127592
 21
8079.414270628261
 31
0.0
  0
LINE
  5
6A0
330
1A
100
AcDbEntity
  8
部品1
100
AcDbLine
 10
5418.084791275919
 20
6017.817610635247
 30
0.0
 11
5418.084791275919
 21
8079.414270628261
 31
0.0
  0
LINE
  5
6A1
330
1A
100
AcDbEntity
  8
部品1
100
AcDbLine
 10
5998.08479127592
 20
5943.414270628263
 30
0.0
 11
5998.08479127592
 21
8079.414270628261
 31
0.0
  0
LINE
  5
6A2
330
1A
100
AcDbEntity
  8
部品1
100
AcDbLine
 10
5953.084791275919
 20
5943.414270628263
 30
0.0
 11
5953.084791275919
 21
8079.414270628261
 31
0.0
  0
LINE
  5
6A3
330
1A
100
AcDbEntity
  8
部品1
100
AcDbLine
 10
5925.08479127592
 20
5943.414270628263
 30
0.0
 11
5925.08479127592
 21
8079.414270628261
 31
0.0
  0
LINE
  5
6A4
330
1A
100
AcDbEntity
  8
部品1
100
AcDbLine
 10
5880.08479127592
 20
5943.414270628263
 30
0.0
 11
5880.08479127592
 21
8079.414270628261
 31
0.0
  0
LINE
  5
6A5
330
1A
100
AcDbEntity
  8
部品1
100
AcDbLine
 10
5055.08479127592
 20
7220.975692402986
 30
0.0
 11
5055.08479127592
 21
8079.414270628261
 31
0.0
  0
LINE
  5
6A6
330
1A
100
AcDbEntity
  8
部品1
100
AcDbLine
 10
5089.58479127592
 20
7106.625957358945
 30
0.0
 11
5089.58479127592
 21
8079.414270628261
 31
0.0
  0
LINE
  5
6A7
330
1A
100
AcDbEntity
  8
部品1
100
AcDbLine
 10
5635.08479127592
 20
5943.414270628262
 30
0.0
 11
5635.08479127592
 21
8079.414270628261
 31
0.0
  0
LINE
  5
6A8
330
1A
100
AcDbEntity
  8
部品1
100
AcDbLine
 10
5669.584791275919
 20
5943.414270628262
 30
0.0
 11
5669.584791275919
 21
8079.414270628261
 31
0.0
  0
LINE
  5
6A9
330
1A
100
AcDbEntity
  8
部品1
100
AcDbLine
 10
6215.08479127592
 20
5943.414270628262
 30
0.0
 11
6215.08479127592
 21
8079.414270628261
 31
0.0
  0
LINE
  5
6AA
330
1A
100
AcDbEntity
  8
部品1
100
AcDbLine
 10
6249.58479127592
 20
5943.414270628262
 30
0.0
 11
6249.58479127592
 21
8079.414270628261
 31
0.0
  0
LINE
  5
6AB
330
1A
100
AcDbEntity
  8
部品1
100
AcDbLine
 10
6263.08479127592
 20
5838.914270628261
 30
0.0
 11
6263.084791275919
 21
10599.91427062826
 31
0.0
  0
LINE
  5
6AD
330
1A
100
AcDbEntity
  8
点線
 48
50.0
100
AcDbLine
 10
6028.08479127592
 20
5977.914270628262
 30
0.0
 11
6088.08479127592
 21
5977.914270628262
 31
0.0
  0
LINE
  5
6AE
330
1A
100
AcDbEntity
  8
部品1
100
AcDbLine
 10
6259.58479127592
 20
5838.914270628261
 30
0.0
 11
6280.58479127592
 21
5838.914270628261
 31
0.0
  0
LINE
  5
6AF
330
1A
100
AcDbEntity
  8
部品1
100
AcDbLine
 10
6259.58479127592
 20
5838.914270628261
 30
0.0
 11
6259.58479127592
 21
5943.414270628262
 31
0.0
  0
ARC
  5
6B0
330
1A
100
AcDbEntity
  8
部品1
100
AcDbCircle
 10
6280.58479127592
 20
5833.914270628262
 30
0.0
 40
5.0
100
AcDbArc
 50
0.0
 51
90.0
  0
LINE
  5
6B1
330
1A
100
AcDbEntity
  8
部品1
100
AcDbLine
 10
6285.58479127592
 20
5819.414270628262
 30
0.0
 11
6285.58479127592
 21
5833.914270628262
 31
0.0
  0
LINE
  5
6B2
330
1A
100
AcDbEntity
  8
部品1
100
AcDbLine
 10
3708.084791275921
 20
6642.514270628263
 30
0.0
 11
3708.084791275924
 21
6078.914270628262
 31
0.0
  0
LINE
  5
6B3
330
1A
100
AcDbEntity
  8
部品1
100
AcDbLine
 10
3648.08479127592
 20
6642.514270628263
 30
0.0
 11
3648.084791275924
 21
6078.914270628262
 31
0.0
  0
LINE
  5
6BC
330
1A
100
AcDbEntity
  8
部品1
100
AcDbLine
 10
4800.08479127592
 20
8066.169386206771
 30
0.0
 11
4800.08479127592
 21
8079.414270628261
 31
0.0
  0
LINE
  5
6C6
330
1A
100
AcDbEntity
  8
部品1
100
AcDbLine
 10
3473.08479127592
 20
10599.91427062826
 30
0.0
 11
3473.08479127592
 21
5838.914270628261
 31
0.0
  0
LINE
  5
6C8
330
1A
100
AcDbEntity
  8
部品1
100
AcDbLine
 10
3428.08479127592
 20
10609.41427062826
 30
0.0
 11
3428.08479127592
 21
5829.414270628262
 31
0.0
  0
LINE
  5
6C9
330
1A
100
AcDbEntity
  8
部品1
100
AcDbLine
 10
3708.084791275921
 20
7899.714270628265
 30
0.0
 11
3708.084791275921
 21
7336.114270628262
 31
0.0
  0
LINE
  5
6CA
330
1A
100
AcDbEntity
  8
部品1
100
AcDbLine
 10
3648.08479127592
 20
7899.714270628265
 30
0.0
 11
3648.08479127592
 21
7336.114270628262
 31
0.0
  0
LINE
  5
6CB
330
1A
100
AcDbEntity
  8
部品1
100
AcDbLine
 10
3708.084791275921
 20
8079.414270628261
 30
0.0
 11
3708.084791275921
 21
7964.714270628265
 31
0.0
  0
LINE
  5
6CC
330
1A
100
AcDbEntity
  8
部品1
100
AcDbLine
 10
3648.08479127592
 20
8079.414270628261
 30
0.0
 11
3648.08479127592
 21
7964.714270628265
 31
0.0
  0
LINE
  5
6CD
330
1A
100
AcDbEntity
  8
部品1
100
AcDbLine
 10
3708.084791275921
 20
7271.114270628261
 30
0.0
 11
3708.084791275921
 21
6707.514270628262
 31
0.0
  0
LINE
  5
6CE
330
1A
100
AcDbEntity
  8
部品1
100
AcDbLine
 10
3648.08479127592
 20
7271.114270628261
 30
0.0
 11
3648.08479127592
 21
6707.514270628262
 31
0.0
  0
LINE
  5
6CF
330
1A
100
AcDbEntity
  8
部品1
100
AcDbLine
 10
3708.084791275924
 20
6013.914270628262
 30
0.0
 11
3708.084791275922
 21
5977.914270628262
 31
0.0
  0
LINE
  5
6D0
330
1A
100
AcDbEntity
  8
部品1
100
AcDbLine
 10
3648.084791275924
 20
6013.914270628262
 30
0.0
 11
3648.084791275922
 21
5977.914270628262
 31
0.0
  0
LINE
  5
6D1
330
1A
100
AcDbEntity
  8
部品1
100
AcDbLine
 10
3648.084791275922
 20
5977.914270628262
 30
0.0
 11
3708.084791275922
 21
5977.914270628262
 31
0.0
  0
ARC
  5
6D2
330
1A
100
AcDbEntity
  8
部品1
100
AcDbCircle
 10
3438.08479127592
 20
5829.414270628262
 30
0.0
 40
10.0
100
AcDbArc
 50
180.0
 51
270.0
  0
LINE
  5
6D3
330
1A
100
AcDbEntity
  8
部品1
100
AcDbLine
 10
3476.584791275928
 20
5943.414270628262
 30
0.0
 11
3476.58479127592
 21
5838.914270628261
 31
0.0
  0
ARC
  5
6D4
330
1A
100
AcDbEntity
  8
部品1
100
AcDbCircle
 10
3455.58479127592
 20
5833.914270628262
 30
0.0
 40
5.0
100
AcDbArc
 50
90.0
 51
179.9999999999973
  0
LINE
  5
6D5
330
1A
100
AcDbEntity
  8
部品1
100
AcDbLine
 10
3450.58479127592
 20
5833.914270628262
 30
0.0
 11
3450.58479127592
 21
5819.414270628262
 31
0.0
  0
LINE
  5
6D6
330
1A
100
AcDbEntity
  8
部品1
100
AcDbLine
 10
3455.58479127592
 20
5838.914270628261
 30
0.0
 11
3476.58479127592
 21
5838.914270628261
 31
0.0
  0
LINE
  5
6DB
330
1A
100
AcDbEntity
  8
部品1
100
AcDbLine
 10
3999.584917119792
 20
10719.41427062826
 30
0.0
 11
5508.114866345844
 21
5719.414270628262
 31
0.0
  0
LINE
  5
6DD
330
1A
100
AcDbEntity
  8
部品1
100
AcDbLine
 10
3498.08479127592
 20
10495.41427062826
 30
0.0
 11
3498.08479127592
 21
8359.414270628262
 31
0.0
  0
LINE
  5
6DE
330
1A
100
AcDbEntity
  8
部品1
100
AcDbLine
 10
4088.437331129205
 20
10424.91427062826
 30
0.0
 11
3498.08479127592
 21
10424.91427062826
 31
0.0
  0
LINE
  5
6DF
330
1A
100
AcDbEntity
  8
部品1
100
AcDbLine
 10
4094.47145092611
 20
10404.91427062826
 30
0.0
 11
3498.08479127592
 21
10404.91427062826
 31
0.0
  0
LINE
  5
6E0
330
1A
100
AcDbEntity
  8
部品1
100
AcDbLine
 10
4108.048220469146
 20
10359.91427062826
 30
0.0
 11
3498.08479127592
 21
10359.91427062826
 31
0.0
  0
LINE
  5
6E2
330
1A
100
AcDbEntity
  8
部品1
100
AcDbLine
 10
4278.089716345905
 20
9796.314270628261
 30
0.0
 11
3498.08479127592
 21
9796.314270628261
 31
0.0
  0
LINE
  5
6E3
330
1A
100
AcDbEntity
  8
部品1
100
AcDbLine
 10
4284.12383614281
 20
9776.314270628262
 30
0.0
 11
3498.08479127592
 21
9776.314270628262
 31
0.0
  0
LINE
  5
6E4
330
1A
100
AcDbEntity
  8
部品1
100
AcDbLine
 10
4297.700605685844
 20
9731.314270628262
 30
0.0
 11
3498.08479127592
 21
9731.314270628262
 31
0.0
  0
LINE
  5
6E5
330
1A
100
AcDbEntity
  8
部品1
100
AcDbLine
 10
4487.352990902543
 20
9102.714270628261
 30
0.0
 11
3498.08479127592
 21
9102.714270628261
 31
0.0
  0
LINE
  5
6E6
330
1A
100
AcDbEntity
  8
部品1
100
AcDbLine
 10
4473.77622135951
 20
9147.714270628261
 30
0.0
 11
3498.08479127592
 21
9147.714270628261
 31
0.0
  0
LINE
  5
6E7
330
1A
100
AcDbEntity
  8
部品1
100
AcDbLine
 10
4467.742101562605
 20
9167.714270628261
 30
0.0
 11
3498.08479127592
 21
9167.714270628261
 31
0.0
  0
LINE
  5
6E8
330
1A
100
AcDbEntity
  8
部品1
100
AcDbLine
 10
4677.005376119245
 20
8474.114270628261
 30
0.0
 11
3498.08479127592
 21
8474.114270628259
 31
0.0
  0
LINE
  5
6E9
330
1A
100
AcDbEntity
  8
部品1
100
AcDbLine
 10
4663.42860657621
 20
8519.114270628261
 30
0.0
 11
3498.08479127592
 21
8519.114270628259
 31
0.0
  0
LINE
  5
6EA
330
1A
100
AcDbEntity
  8
部品1
100
AcDbLine
 10
4657.394486779305
 20
8539.11427062826
 30
0.0
 11
3498.08479127592
 21
8539.114270628259
 31
0.0
  0
LINE
  5
6EB
330
1A
100
AcDbEntity
  8
部品1
100
AcDbLine
 10
3648.08479127592
 20
10359.91427062826
 30
0.0
 11
3648.08479127592
 21
9796.314270628261
 31
0.0
  0
LINE
  5
6EC
330
1A
100
AcDbEntity
  8
部品1
100
AcDbLine
 10
3708.084791275921
 20
10359.91427062826
 30
0.0
 11
3708.084791275921
 21
9796.314270628261
 31
0.0
  0
LINE
  5
6ED
330
1A
100
AcDbEntity
  8
部品1
100
AcDbLine
 10
3708.084791275921
 20
9731.314270628262
 30
0.0
 11
3708.084791275921
 21
9167.714270628261
 31
0.0
  0
LINE
  5
6EE
330
1A
100
AcDbEntity
  8
部品1
100
AcDbLine
 10
3648.08479127592
 20
9731.314270628262
 30
0.0
 11
3648.08479127592
 21
9167.714270628259
 31
0.0
  0
LINE
  5
6EF
330
1A
100
AcDbEntity
  8
部品1
100
AcDbLine
 10
3648.08479127592
 20
9102.714270628261
 30
0.0
 11
3648.08479127592
 21
8539.11427062826
 31
0.0
  0
LINE
  5
6F0
330
1A
100
AcDbEntity
  8
部品1
100
AcDbLine
 10
3708.084791275921
 20
9102.714270628261
 30
0.0
 11
3708.084791275921
 21
8539.11427062826
 31
0.0
  0
LINE
  5
6F1
330
1A
100
AcDbEntity
  8
部品1
100
AcDbLine
 10
3708.084791275921
 20
8474.114270628259
 30
0.0
 11
3708.084791275921
 21
8359.414270628262
 31
0.0
  0
LINE
  5
6F2
330
1A
100
AcDbEntity
  8
部品1
100
AcDbLine
 10
3648.08479127592
 20
8474.114270628259
 30
0.0
 11
3648.08479127592
 21
8359.414270628262
 31
0.0
  0
LINE
  5
6F3
330
1A
100
AcDbEntity
  8
部品1
100
AcDbLine
 10
4850.305296686331
 20
7899.714270628265
 30
0.0
 11
3498.08479127592
 21
7899.714270628265
 31
0.0
  0
LINE
  5
6F4
330
1A
100
AcDbEntity
  8
部品1
100
AcDbLine
 10
3498.08479127592
 20
8079.414270628261
 30
0.0
 11
3498.08479127592
 21
5943.414270628261
 31
0.0
  0
LINE
  5
6F5
330
1A
100
AcDbEntity
  8
部品1
100
AcDbLine
 10
4844.271176889428
 20
7919.714270628263
 30
0.0
 11
3498.08479127592
 21
7919.714270628265
 31
0.0
  0
LINE
  5
6F6
330
1A
100
AcDbEntity
  8
部品1
100
AcDbLine
 10
4830.694407346393
 20
7964.714270628263
 30
0.0
 11
3498.08479127592
 21
7964.714270628265
 31
0.0
  0
LINE
  5
6F7
330
1A
100
AcDbEntity
  8
部品1
100
AcDbLine
 10
5020.346792563094
 20
7336.114270628262
 30
0.0
 11
3498.08479127592
 21
7336.114270628262
 31
0.0
  0
LINE
  5
6F8
330
1A
100
AcDbEntity
  8
部品1
100
AcDbLine
 10
5033.923562106127
 20
7291.114270628263
 30
0.0
 11
3498.08479127592
 21
7291.114270628263
 31
0.0
  0
LINE
  5
6F9
330
1A
100
AcDbEntity
  8
部品1
100
AcDbLine
 10
5039.957681903032
 20
7271.114270628261
 30
0.0
 11
3498.08479127592
 21
7271.114270628263
 31
0.0
  0
LINE
  5
6FA
330
1A
100
AcDbEntity
  8
部品1
100
AcDbLine
 10
5209.999177779792
 20
6707.514270628262
 30
0.0
 11
3498.08479127592
 21
6707.514270628262
 31
0.0
  0
LINE
  5
6FB
330
1A
100
AcDbEntity
  8
部品1
100
AcDbLine
 10
5223.575947322827
 20
6662.514270628261
 30
0.0
 11
3498.08479127592
 21
6662.514270628261
 31
0.0
  0
LINE
  5
6FC
330
1A
100
AcDbEntity
  8
部品1
100
AcDbLine
 10
5229.610067119731
 20
6642.514270628263
 30
0.0
 11
3498.08479127592
 21
6642.514270628263
 31
0.0
  0
LINE
  5
6FD
330
1A
100
AcDbEntity
  8
部品1
100
AcDbLine
 10
5399.651562996492
 20
6078.914270628261
 30
0.0
 11
3498.08479127592
 21
6078.914270628262
 31
0.0
  0
LINE
  5
6FE
330
1A
100
AcDbEntity
  8
部品1
100
AcDbLine
 10
5413.228332539525
 20
6033.914270628261
 30
0.0
 11
3498.08479127592
 21
6033.914270628262
 31
0.0
  0
LINE
  5
6FF
330
1A
100
AcDbEntity
  8
部品1
100
AcDbLine
 10
5419.26245233643
 20
6013.914270628262
 30
0.0
 11
3498.08479127592
 21
6013.914270628262
 31
0.0
  0
LINE
  5
700
330
1A
100
AcDbEntity
  8
点線
 48
50.0
100
AcDbLine
 10
6088.08479127592
 20
7964.714270628265
 30
0.0
 11
6088.08479127592
 21
8079.414270628261
 31
0.0
  0
LINE
  5
701
330
1A
100
AcDbEntity
  8
点線
 48
50.0
100
AcDbLine
 10
6028.08479127592
 20
7964.714270628265
 30
0.0
 11
6028.08479127592
 21
8079.414270628261
 31
0.0
  0
LINE
  5
702
330
1A
100
AcDbEntity
  8
点線
 48
50.0
100
AcDbLine
 10
6028.08479127592
 20
7336.114270628262
 30
0.0
 11
6028.084791275921
 21
7899.714270628265
 31
0.0
  0
LINE
  5
703
330
1A
100
AcDbEntity
  8
点線
 48
50.0
100
AcDbLine
 10
6088.08479127592
 20
7336.114270628262
 30
0.0
 11
6088.084791275921
 21
7899.714270628265
 31
0.0
  0
LINE
  5
704
330
1A
100
AcDbEntity
  8
点線
 48
50.0
100
AcDbLine
 10
6028.08479127592
 20
6078.914270628262
 30
0.0
 11
6028.08479127592
 21
6642.514270628263
 31
0.0
  0
LINE
  5
705
330
1A
100
AcDbEntity
  8
点線
 48
50.0
100
AcDbLine
 10
6088.084791275919
 20
6078.914270628262
 30
0.0
 11
6088.084791275919
 21
6642.514270628263
 31
0.0
  0
LINE
  5
706
330
1A
100
AcDbEntity
  8
点線
 48
50.0
100
AcDbLine
 10
6088.08479127592
 20
6707.514270628265
 30
0.0
 11
6088.08479127592
 21
7271.114270628263
 31
0.0
  0
LINE
  5
707
330
1A
100
AcDbEntity
  8
点線
 48
50.0
100
AcDbLine
 10
6028.084791275921
 20
6707.514270628265
 30
0.0
 11
6028.08479127592
 21
7271.114270628263
 31
0.0
  0
ARC
  5
708
330
1A
100
AcDbEntity
  8
部品1
100
AcDbCircle
 10
6298.08479127592
 20
5829.414270628261
 30
0.0
 40
10.0
100
AcDbArc
 50
270.0
 51
0.0
  0
ARC
  5
709
330
1A
100
AcDbEntity
  8
部品1
100
AcDbCircle
 10
3438.08479127592
 20
10609.41427062826
 30
0.0
 40
10.0
100
AcDbArc
 50
90.0
 51
180.0
  0
LINE
  5
70A
330
1A
100
AcDbEntity
  8
Ｇ．Ｌ
100
AcDbLine
 10
2742.904953666919
 20
2190.515874945158
 30
0.0
 11
13943.42636519888
 21
2190.515874945158
 31
0.0
  0
LINE
  5
70D
330
1A
100
AcDbEntity
  8
センター
 48
10.0
100
AcDbLine
 10
3678.08479127592
 20
4272.831256646528
 30
0.0
 11
3678.08479127592
 21
1927.20452305047
 31
0.0
  0
LINE
  5
70E
330
1A
100
AcDbEntity
  8
センター
 48
10.0
100
AcDbLine
 10
6058.08479127592
 20
4272.831256646528
 30
0.0
 11
6058.08479127592
 21
1927.20452305047
 31
0.0
  0
LINE
  5
70F
330
1A
100
AcDbEntity
  8
部品1
100
AcDbLine
 10
3648.08479127592
 20
4013.116631481116
 30
0.0
 11
3648.08479127592
 21
2240.515874945158
 31
0.0
  0
LINE
  5
710
330
1A
100
AcDbEntity
  8
部品1
100
AcDbLine
 10
3708.084791275921
 20
4013.116631481116
 30
0.0
 11
3708.084791275921
 21
2240.515874945158
 31
0.0
  0
LINE
  5
711
330
1A
100
AcDbEntity
  8
部品1
100
AcDbLine
 10
6028.08479127592
 20
4013.116631481116
 30
0.0
 11
6028.08479127592
 21
2240.515874945158
 31
0.0
  0
LINE
  5
712
330
1A
100
AcDbEntity
  8
部品1
100
AcDbLine
 10
6088.08479127592
 20
4013.116631481116
 30
0.0
 11
6088.08479127592
 21
2240.515874945158
 31
0.0
  0
LINE
  5
776
330
1A
100
AcDbEntity
  8
部品1
100
AcDbLine
 10
6294.505670399507
 20
4436.106384399624
 30
0.0
 11
3441.663912152333
 21
4436.106384399625
 31
0.0
  0
LINE
  5
777
330
1A
100
AcDbEntity
  8
部品1
100
AcDbLine
 10
6294.505670399507
 20
4323.106384399625
 30
0.0
 11
3441.663912152333
 21
4323.106384399625
 31
0.0
  0
LINE
  5
778
330
1A
100
AcDbEntity
  8
部品1
100
AcDbLine
 10
6028.08479127592
 20
3340.51587494516
 30
0.0
 11
3708.084791275921
 21
3340.51587494516
 31
0.0
  0
LINE
  5
779
330
1A
100
AcDbEntity
  8
部品1
100
AcDbLine
 10
6028.08479127592
 20
2440.51587494516
 30
0.0
 11
3708.084791275921
 21
2440.51587494516
 31
0.0
  0
LINE
  5
8CE
330
1A
100
AcDbEntity
  8
部品1
100
AcDbLine
 10
6290.63921386792
 20
4208.421766100995
 30
0.0
 11
3445.53036868392
 21
4208.421766100995
 31
0.0
  0
LINE
  5
8CF
330
1A
100
AcDbEntity
  8
細線
100
AcDbLine
 10
6304.736965188964
 20
4246.317553017064
 30
0.0
 11
3431.432617362876
 21
4246.317553017064
 31
0.0
  0
LINE
  5
8D0
330
1A
100
AcDbEntity
  8
細線
100
AcDbLine
 10
6305.258704319398
 20
4258.284643622137
 30
0.0
 11
3430.910878232442
 21
4258.284643622137
 31
0.0
  0
LINE
  5
8D1
330
1A
100
AcDbEntity
  8
部品1
100
AcDbLine
 10
3473.08479127592
 20
4436.106384399624
 30
0.0
 11
3473.08479127592
 21
4323.106384399625
 31
0.0
  0
LINE
  5
8D3
330
1A
100
AcDbEntity
  8
部品1
100
AcDbLine
 10
3428.676249574805
 20
4309.540150550212
 30
0.0
 11
3432.542706106389
 21
4220.855532251582
 31
0.0
  0
LINE
  5
8D4
330
1A
100
AcDbEntity
  8
部品1
100
AcDbLine
 10
3451.084791275921
 20
4323.106384399625
 30
0.0
 11
3451.084791275921
 21
4208.421766100995
 31
0.0
  0
ARC
  5
8D5
330
1A
100
AcDbEntity
  8
部品1
100
AcDbCircle
 10
3441.663912152333
 20
4310.106384399625
 30
0.0
 40
13.0
100
AcDbArc
 50
90.0
 51
182.496390521537
  0
ARC
  5
8D6
330
1A
100
AcDbEntity
  8
部品1
100
AcDbCircle
 10
3445.53036868392
 20
4221.421766100995
 30
0.0
 40
13.0
100
AcDbArc
 50
182.496390521537
 51
270.0
  0
LINE
  5
8D8
330
1A
100
AcDbEntity
  8
部品1
100
AcDbLine
 10
3428.663912152333
 20
4310.106384399625
 30
0.0
 11
3428.663912152333
 21
4423.106384399625
 31
0.0
  0
ARC
  5
8D9
330
1A
100
AcDbEntity
  8
部品1
100
AcDbCircle
 10
3441.663912152333
 20
4423.106384399625
 30
0.0
 40
13.0
100
AcDbArc
 50
90.0
 51
180.0
  0
LINE
  5
8DA
330
1A
100
AcDbEntity
  8
部品1
100
AcDbLine
 10
6307.493332977036
 20
4309.540150550212
 30
0.0
 11
6303.626876445451
 21
4220.855532251582
 31
0.0
  0
LINE
  5
8DB
330
1A
100
AcDbEntity
  8
部品1
100
AcDbLine
 10
6285.08479127592
 20
4323.106384399625
 30
0.0
 11
6285.08479127592
 21
4208.421766100995
 31
0.0
  0
ARC
  5
8DC
330
1A
100
AcDbEntity
  8
部品1
100
AcDbCircle
 10
6290.63921386792
 20
4221.421766100995
 30
0.0
 40
13.0
100
AcDbArc
 50
270.0
 51
357.503609478463
  0
ARC
  5
8DD
330
1A
100
AcDbEntity
  8
部品1
100
AcDbCircle
 10
6294.505670399507
 20
4423.106384399625
 30
0.0
 40
13.0
100
AcDbArc
 50
0.0
 51
90.0
  0
LINE
  5
8DE
330
1A
100
AcDbEntity
  8
部品1
100
AcDbLine
 10
6307.505670399507
 20
4310.106384399625
 30
0.0
 11
6307.505670399507
 21
4423.106384399625
 31
0.0
  0
ARC
  5
8DF
330
1A
100
AcDbEntity
  8
部品1
100
AcDbCircle
 10
6294.505670399507
 20
4310.106384399625
 30
0.0
 40
13.0
100
AcDbArc
 50
357.503609478463
 51
90.0
  0
LINE
  5
8E0
330
1A
100
AcDbEntity
  8
部品1
100
AcDbLine
 10
6263.08479127592
 20
4436.106384399624
 30
0.0
 11
6263.08479127592
 21
4323.106384399625
 31
0.0
  0
LINE
  5
8E1
330
1A
100
AcDbEntity
  8
部品1
100
AcDbLine
 10
6086.084791275919
 20
4153.779942762646
 30
0.0
 11
6030.08479127592
 21
4153.779942762645
 31
0.0
  0
LINE
  5
8E2
330
1A
100
AcDbEntity
  8
部品1
100
AcDbLine
 10
6025.08479127592
 20
4208.421766100994
 30
0.0
 11
6025.08479127592
 21
4013.116631481117
 31
0.0
  0
LINE
  5
8E3
330
1A
100
AcDbEntity
  8
部品1
100
AcDbLine
 10
6091.08479127592
 20
4208.421766100994
 30
0.0
 11
6091.08479127592
 21
4013.116631481117
 31
0.0
  0
LINE
  5
8E4
330
1A
100
AcDbEntity
  8
部品1
100
AcDbLine
 10
6091.08479127592
 20
4013.116631481116
 30
0.0
 11
6025.08479127592
 21
4013.116631481116
 31
0.0
  0
LINE
  5
8E5
330
1A
100
AcDbEntity
  8
部品1
100
AcDbLine
 10
3645.08479127592
 20
4208.421766100994
 30
0.0
 11
3645.08479127592
 21
4150.198518983335
 31
0.0
  0
LINE
  5
8E6
330
1A
100
AcDbEntity
  8
部品1
100
AcDbLine
 10
3711.08479127592
 20
4208.421766100994
 30
0.0
 11
3711.08479127592
 21
4013.116631481116
 31
0.0
  0
LINE
  5
8E7
330
1A
100
AcDbEntity
  8
部品1
100
AcDbLine
 10
3706.08479127592
 20
4153.779942762645
 30
0.0
 11
3650.08479127592
 21
4153.779942762645
 31
0.0
  0
LINE
  5
8E8
330
1A
100
AcDbEntity
  8
部品1
100
AcDbLine
 10
3711.08479127592
 20
4013.116631481116
 30
0.0
 11
3645.08479127592
 21
4013.116631481116
 31
0.0
  0
LINE
  5
8E9
330
1A
100
AcDbEntity
  8
部品1
100
AcDbLine
 10
3645.08479127592
 20
4158.779942762644
 30
0.0
 11
3645.08479127592
 21
4013.116631481116
 31
0.0
  0
ARC
  5
8EE
330
1A
100
AcDbEntity
  8
部品1
100
AcDbCircle
 10
3650.08479127592
 20
4158.779942762644
 30
0.0
 40
5.0
100
AcDbArc
 50
180.0
 51
270.0000000000008
  0
ARC
  5
8EF
330
1A
100
AcDbEntity
  8
部品1
100
AcDbCircle
 10
3706.08479127592
 20
4158.779942762644
 30
0.0
 40
5.0
100
AcDbArc
 50
270.0000000000009
 51
0.0
  0
ARC
  5
8F0
330
1A
100
AcDbEntity
  8
部品1
100
AcDbCircle
 10
6030.08479127592
 20
4158.779942762644
 30
0.0
 40
5.0
100
AcDbArc
 50
180.0
 51
270.0000000000008
  0
ARC
  5
8F1
330
1A
100
AcDbEntity
  8
部品1
100
AcDbCircle
 10
6086.084791275919
 20
4158.779942762647
 30
0.0
 40
5.0
100
AcDbArc
 50
270.0000000000009
 51
0.0
  0
LINE
  5
8F2
330
1A
100
AcDbEntity
  8
細線
100
AcDbLine
 10
3660.08479127592
 20
4153.779942762643
 30
0.0
 11
3660.08479127592
 21
4013.116631481116
 31
0.0
  0
LINE
  5
8F3
330
1A
100
AcDbEntity
  8
細線
100
AcDbLine
 10
3696.08479127592
 20
4153.779942762645
 30
0.0
 11
3696.08479127592
 21
4013.116631481116
 31
0.0
  0
LINE
  5
8F4
330
1A
100
AcDbEntity
  8
細線
100
AcDbLine
 10
3666.08479127592
 20
4153.779942762645
 30
0.0
 11
3666.08479127592
 21
4013.116631481116
 31
0.0
  0
LINE
  5
8F5
330
1A
100
AcDbEntity
  8
細線
100
AcDbLine
 10
3690.08479127592
 20
4153.779942762645
 30
0.0
 11
3690.08479127592
 21
4013.116631481116
 31
0.0
  0
LINE
  5
8F6
330
1A
100
AcDbEntity
  8
細線
100
AcDbLine
 10
6040.08479127592
 20
4153.779942762645
 30
0.0
 11
6040.08479127592
 21
4013.116631481117
 31
0.0
  0
LINE
  5
8F7
330
1A
100
AcDbEntity
  8
細線
100
AcDbLine
 10
6076.084791275921
 20
4153.779942762646
 30
0.0
 11
6076.084791275921
 21
4013.116631481116
 31
0.0
  0
LINE
  5
8F8
330
1A
100
AcDbEntity
  8
細線
100
AcDbLine
 10
6046.084791275919
 20
4153.779942762645
 30
0.0
 11
6046.084791275919
 21
4013.116631481117
 31
0.0
  0
LINE
  5
8F9
330
1A
100
AcDbEntity
  8
細線
100
AcDbLine
 10
6070.08479127592
 20
4153.779942762646
 30
0.0
 11
6070.08479127592
 21
4013.116631481116
 31
0.0
  0
LINE
  5
8FA
330
1A
100
AcDbEntity
  8
部品1
100
AcDbLine
 10
6028.08479127592
 20
3295.515874945161
 30
0.0
 11
3708.084791275921
 21
3295.515874945161
 31
0.0
  0
LINE
  5
8FB
330
1A
100
AcDbEntity
  8
部品1
100
AcDbLine
 10
6028.08479127592
 20
2485.515874945161
 30
0.0
 11
3708.084791275921
 21
2485.515874945161
 31
0.0
  0
LINE
  5
8FC
330
1A
100
AcDbEntity
  8
部品1
100
AcDbLine
 10
6028.08479127592
 20
2890.51587494516
 30
0.0
 11
3708.084791275921
 21
2890.51587494516
 31
0.0
  0
LINE
  5
8FE
330
1A
100
AcDbEntity
  8
部品1
100
AcDbLine
 10
6028.08479127592
 20
2920.51587494516
 30
0.0
 11
3708.084791275921
 21
2920.51587494516
 31
0.0
  0
LINE
  5
8FF
330
1A
100
AcDbEntity
  8
部品1
100
AcDbLine
 10
6028.08479127592
 20
2550.515874945161
 30
0.0
 11
3708.084791275921
 21
2550.515874945161
 31
0.0
  0
LINE
  5
900
330
1A
100
AcDbEntity
  8
部品1
100
AcDbLine
 10
6028.08479127592
 20
2590.51587494516
 30
0.0
 11
3708.084791275921
 21
2590.51587494516
 31
0.0
  0
LINE
  5
902
330
1A
100
AcDbEntity
  8
部品1
100
AcDbLine
 10
4850.58479127592
 20
2550.515874945161
 30
0.0
 11
4850.58479127592
 21
2485.515874945161
 31
0.0
  0
LINE
  5
903
330
1A
100
AcDbEntity
  8
部品1
100
AcDbLine
 10
4885.58479127592
 20
2550.515874945161
 30
0.0
 11
4885.58479127592
 21
2485.515874945161
 31
0.0
  0
LINE
  5
904
330
1A
100
AcDbEntity
  8
点線
 48
50.0
100
AcDbLine
 10
6088.08479127592
 20
1920.515874945158
 30
0.0
 11
6028.08479127592
 21
1920.515874945158
 31
0.0
  0
LINE
  5
905
330
1A
100
AcDbEntity
  8
点線
 48
50.0
100
AcDbLine
 10
3708.084791275921
 20
1920.515874945158
 30
0.0
 11
3648.08479127592
 21
1920.515874945158
 31
0.0
  0
LINE
  5
906
330
1A
100
AcDbEntity
  8
部品1
100
AcDbLine
 10
3428.08479127592
 20
2240.515874945158
 30
0.0
 11
6308.08479127592
 21
2240.515874945158
 31
0.0
  0
LINE
  5
907
330
1A
100
AcDbEntity
  8
部品1
100
AcDbLine
 10
3428.08479127592
 20
2240.515874945158
 30
0.0
 11
3428.08479127592
 21
2190.515874945158
 31
0.0
  0
LINE
  5
908
330
1A
100
AcDbEntity
  8
部品1
100
AcDbLine
 10
6308.08479127592
 20
2240.515874945158
 30
0.0
 11
6308.08479127592
 21
2190.515874945158
 31
0.0
  0
LINE
  5
909
330
1A
100
AcDbEntity
  8
点線
 48
50.0
100
AcDbLine
 10
3648.08479127592
 20
2240.515874945158
 30
0.0
 11
3648.08479127592
 21
1920.515874945158
 31
0.0
  0
LINE
  5
90A
330
1A
100
AcDbEntity
  8
点線
 48
50.0
100
AcDbLine
 10
3708.084791275921
 20
2240.515874945158
 30
0.0
 11
3708.084791275921
 21
1920.515874945158
 31
0.0
  0
LINE
  5
90B
330
1A
100
AcDbEntity
  8
点線
 48
50.0
100
AcDbLine
 10
6028.08479127592
 20
2240.515874945158
 30
0.0
 11
6028.08479127592
 21
1920.515874945158
 31
0.0
  0
LINE
  5
90C
330
1A
100
AcDbEntity
  8
点線
 48
50.0
100
AcDbLine
 10
6088.08479127592
 20
2240.515874945158
 30
0.0
 11
6088.08479127592
 21
1920.515874945158
 31
0.0
  0
DIMENSION
  5
92F
330
1A
100
AcDbEntity
  8
寸法
100
AcDbDimension
  2
*D0
 10
2854.415140076315
 20
10382.41427062826
 30
0.0
 11
2694.403329052693
 21
10500.91427062826
 31
0.0
 70
    32
 71
     5
 42
-1.0
  3
物置仕様図40
100
AcDbAlignedDimension
 13
3438.08479127592
 23
10619.41427062826
 33
0.0
 14
3428.08479127592
 24
10382.41427062826
 34
0.0
 50
90.0
100
AcDbRotatedDimension
  0
DIMENSION
  5
93B
330
1A
100
AcDbEntity
  8
寸法
100
AcDbDimension
  2
*D1
 10
2854.415140076315
 20
9753.814270628261
 30
0.0
 11
2754.403329052693
 21
10068.11427062826
 31
0.0
 70
    32
 71
     5
 42
-1.0
  3
物置仕様図40
100
AcDbAlignedDimension
 13
3428.08479127592
 23
10382.41427062826
 33
0.0
 14
3428.08479127592
 24
9753.814270628261
 34
0.0
 50
90.0
100
AcDbRotatedDimension
1001
ACAD
1000
DSTYLE
1002
{
1070
    75
1070
     1
1002
}
  0
DIMENSION
  5
947
330
1A
100
AcDbEntity
  8
寸法
100
AcDbDimension
  2
*D2
 10
2854.415140076315
 20
9125.21427062826
 30
0.0
 11
2754.403329052693
 21
9439.514270628261
 31
0.0
 70
    32
 71
     5
 42
-1.0
  3
物置仕様図40
100
AcDbAlignedDimension
 13
3428.08479127592
 23
9753.814270628261
 33
0.0
 14
3428.08479127592
 24
9125.21427062826
 34
0.0
 50
90.0
100
AcDbRotatedDimension
1001
ACAD
1000
DSTYLE
1002
{
1070
    75
1070
     1
1002
}
  0
DIMENSION
  5
953
330
1A
100
AcDbEntity
  8
寸法
100
AcDbDimension
  2
*D3
 10
2854.415140076315
 20
8496.614270628256
 30
0.0
 11
2694.415140076315
 21
8905.394790974057
 31
0.0
 70
   160
 71
     5
 42
-1.0
  3
物置仕様図40
100
AcDbAlignedDimension
 13
3428.08479127592
 23
9125.21427062826
 33
0.0
 14
3428.08479127592
 24
8496.614270628256
 34
0.0
 50
90.0
100
AcDbRotatedDimension
1001
ACAD
1000
DSTYLE
1002
{
1070
    75
1070
     1
1002
}
  0
DIMENSION
  5
95F
330
1A
100
AcDbEntity
  8
寸法
100
AcDbDimension
  2
*D4
 10
2854.415140076315
 20
8219.414270628261
 30
0.0
 11
2694.403329052693
 21
8455.946322159034
 31
0.0
 70
   160
 71
     5
 42
-1.0
  3
物置仕様図40
100
AcDbAlignedDimension
 13
3428.08479127592
 23
8496.614270628256
 33
0.0
 14
3428.08479127592
 24
8219.414270628261
 34
0.0
 50
90.0
100
AcDbRotatedDimension
1001
ACAD
1000
DSTYLE
1002
{
1070
    75
1070
     1
1002
}
  0
DIMENSION
  5
96B
330
1A
100
AcDbEntity
  8
寸法
100
AcDbDimension
  2
*D5
 10
2854.415140076315
 20
7313.614270628261
 30
0.0
 11
2694.415140076315
 21
7539.245297372741
 31
0.0
 70
   160
 71
     5
 42
-1.0
  3
物置仕様図40
100
AcDbAlignedDimension
 13
3428.08479127592
 23
7942.214270628264
 33
0.0
 14
3428.08479127592
 24
7313.614270628261
 34
0.0
 50
90.0
100
AcDbRotatedDimension
1001
ACAD
1000
DSTYLE
1002
{
1070
    75
1070
     1
1002
}
  0
DIMENSION
  5
977
330
1A
100
AcDbEntity
  8
寸法
100
AcDbDimension
  2
*D6
 10
2854.415140076315
 20
6685.014270628262
 30
0.0
 11
2754.403329052693
 21
6999.314270628261
 31
0.0
 70
    32
 71
     5
 42
-1.0
  3
物置仕様図40
100
AcDbAlignedDimension
 13
3428.08479127592
 23
7313.614270628261
 33
0.0
 14
3428.08479127592
 24
6685.014270628262
 34
0.0
 50
90.0
100
AcDbRotatedDimension
1001
ACAD
1000
DSTYLE
1002
{
1070
    75
1070
     1
1002
}
  0
DIMENSION
  5
983
330
1A
100
AcDbEntity
  8
寸法
100
AcDbDimension
  2
*D7
 10
2854.415140076315
 20
6056.414270628261
 30
0.0
 11
2754.403329052693
 21
6370.714270628261
 31
0.0
 70
    32
 71
     5
 42
-1.0
  3
物置仕様図40
100
AcDbAlignedDimension
 13
3428.08479127592
 23
6685.014270628262
 33
0.0
 14
3428.08479127592
 24
6056.414270628261
 34
0.0
 50
90.0
100
AcDbRotatedDimension
1001
ACAD
1000
DSTYLE
1002
{
1070
    75
1070
     1
1002
}
  0
DIMENSION
  5
991
330
1A
100
AcDbEntity
  8
寸法
100
AcDbDimension
  2
*D8
 10
2854.415140076315
 20
5819.414270628262
 30
0.0
 11
2694.403329052693
 21
5937.914270628262
 31
0.0
 70
    32
 71
     5
 42
-1.0
  3
物置仕様図40
100
AcDbAlignedDimension
 13
3428.08479127592
 23
6056.414270628261
 33
0.0
 14
3438.08479127592
 24
5819.414270628262
 34
0.0
 50
90.0
100
AcDbRotatedDimension
1001
ACAD
1000
DSTYLE
1002
{
1070
    75
1070
     1
1002
}
  0
DIMENSION
  5
99E
330
1A
100
AcDbEntity
  8
寸法
100
AcDbDimension
  2
*D9
 10
2574.415140076315
 20
5819.414270628262
 30
0.0
 11
2474.415140076315
 21
8219.414270628261
 31
0.0
 70
    32
 71
     5
 42
-1.0
  3
物置仕様図40
100
AcDbAlignedDimension
 13
3438.08479127592
 23
10619.41427062826
 33
0.0
 14
3438.08479127592
 24
5819.414270628262
 34
0.0
 50
90.0
100
AcDbRotatedDimension
  0
DIMENSION
  5
9AB
330
1A
100
AcDbEntity
  8
寸法
100
AcDbDimension
  2
*D10
 10
6923.537714463041
 20
8359.414270628262
 30
0.0
 11
6823.525903439419
 21
9427.414270628261
 31
0.0
 70
    32
 71
     5
 42
-1.0
  3
物置仕様図40
100
AcDbAlignedDimension
 13
6259.584791275912
 23
10495.41427062826
 33
0.0
 14
6263.084791275919
 24
8359.414270628262
 34
0.0
 50
90.0
100
AcDbRotatedDimension
  0
DIMENSION
  5
9B9
330
1A
100
AcDbEntity
  8
寸法
100
AcDbDimension
  2
*D11
 10
6923.537714463041
 20
8079.414270628261
 30
0.0
 11
6832.397876052702
 21
8219.414270628261
 31
0.0
 70
   160
 71
     5
 42
-1.0
  3
物置仕様図40
100
AcDbAlignedDimension
 13
6263.084791275919
 23
8359.414270628262
 33
0.0
 14
6263.08479127592
 24
8079.414270628261
 34
0.0
 50
90.0
100
AcDbRotatedDimension
1001
ACAD
1000
DSTYLE
1002
{
1070
    75
1070
     1
1002
}
  0
DIMENSION
  5
9C5
330
1A
100
AcDbEntity
  8
寸法
100
AcDbDimension
  2
*D12
 10
6923.537714463041
 20
5943.414270628266
 30
0.0
 11
6823.525903439419
 21
7011.414270628264
 31
0.0
 70
    32
 71
     5
 42
-1.0
  3
物置仕様図40
100
AcDbAlignedDimension
 13
6263.08479127592
 23
8079.414270628261
 33
0.0
 14
6259.58479127592
 24
5943.414270628266
 34
0.0
 50
90.0
100
AcDbRotatedDimension
1001
ACAD
1000
DSTYLE
1002
{
1070
    75
1070
     1
1002
}
  0
DIMENSION
  5
9D3
330
1A
100
AcDbEntity
  8
寸法
100
AcDbDimension
  2
*D13
 10
6923.537714463041
 20
5819.414270628261
 30
0.0
 11
6813.207916493695
 21
5684.363708905454
 31
0.0
 70
   160
 71
     5
 42
-1.0
  3
物置仕様図40
100
AcDbAlignedDimension
 13
6259.58479127592
 23
5943.414270628266
 33
0.0
 14
6298.08479127592
 24
5819.414270628261
 34
0.0
 50
90.0
100
AcDbRotatedDimension
1001
ACAD
1000
DSTYLE
1002
{
1070
    75
1070
     1
1002
}
  0
DIMENSION
  5
9EC
330
1A
100
AcDbEntity
  8
寸法
100
AcDbDimension
  2
*D14
 10
6923.537714463041
 20
10619.41427062826
 30
0.0
 11
6816.120316553067
 21
10756.41304757595
 31
0.0
 70
   160
 71
     5
 42
-1.0
  3
物置仕様図40
100
AcDbAlignedDimension
 13
6259.584791275912
 23
10495.41427062826
 33
0.0
 14
6298.084791275919
 24
10619.41427062826
 34
0.0
 50
90.0
100
AcDbRotatedDimension
1001
ACAD
1000
DSTYLE
1002
{
1070
    75
1070
     1
1002
}
  0
DIMENSION
  5
A36
330
1A
100
AcDbEntity
  8
寸法
100
AcDbDimension
  2
*D15
 10
2854.415140076315
 20
7942.214270628264
 30
0.0
 11
2694.403329052693
 21
7995.442239698609
 31
0.0
 70
   160
 71
     5
 42
-1.0
  3
物置仕様図40
100
AcDbAlignedDimension
 13
3428.08479127592
 23
8219.414270628261
 33
0.0
 14
3428.08479127592
 24
7942.214270628264
 34
0.0
 50
90.0
100
AcDbRotatedDimension
1001
ACAD
1000
DSTYLE
1002
{
1070
    75
1070
     1
1002
}
  0
DIMENSION
  5
A98
330
1A
100
AcDbEntity
  8
寸法
100
AcDbDimension
  2
*D16
 10
3678.08479127592
 20
4731.665250434406
 30
0.0
 11
3553.08479127592
 21
4731.665250434406
 31
0.0
 70
   160
 71
     5
 42
250.0
  3
物置仕様図40
100
AcDbAlignedDimension
 13
3428.08479127592
 23
4436.106384399625
 33
0.0
 14
3678.08479127592
 24
4272.831256646528
 34
0.0
100
AcDbRotatedDimension
1001
ACAD
1000
DSTYLE
1002
{
1070
   279
1070
     0
1002
}
  0
DIMENSION
  5
ABE
330
1A
100
AcDbEntity
  8
寸法
100
AcDbDimension
  2
*D17
 10
6058.08479127592
 20
4731.665250434406
 30
0.0
 11
4868.084791275919
 21
4831.677061458028
 31
0.0
 70
    32
 71
     5
 42
2380.0
  3
物置仕様図40
100
AcDbAlignedDimension
 13
3678.08479127592
 23
4272.831256646528
 33
0.0
 14
6058.08479127592
 24
4272.831256646528
 34
0.0
100
AcDbRotatedDimension
1001
ACAD
1000
DSTYLE
1002
{
1070
    75
1070
     1
1002
}
  0
DIMENSION
  5
ACC
330
1A
100
AcDbEntity
  8
寸法
100
AcDbDimension
  2
*D18
 10
6308.08479127592
 20
4731.665250434406
 30
0.0
 11
6183.08479127592
 21
4731.665250434406
 31
0.0
 70
   160
 71
     5
 42
250.0
  3
物置仕様図40
100
AcDbAlignedDimension
 13
6058.08479127592
 23
4208.421766100994
 33
0.0
 14
6308.08479127592
 24
4436.106384399625
 34
0.0
100
AcDbRotatedDimension
1001
ACAD
1000
DSTYLE
1002
{
1070
   279
1070
     0
1070
    75
1070
     1
1002
}
  0
DIMENSION
  5
AD9
330
1A
100
AcDbEntity
  8
寸法
100
AcDbDimension
  2
*D19
 10
6308.08479127592
 20
5011.665250434407
 30
0.0
 11
4868.084791275919
 21
5176.086552003562
 31
0.0
 12
0.0
 22
-64.40949054553403
 32
0.0
 70
    32
 71
     5
 42
-1.0
  3
物置仕様図40
100
AcDbAlignedDimension
 13
3428.08479127592
 23
4436.106384399625
 33
0.0
 14
6308.08479127592
 24
4436.106384399625
 34
0.0
100
AcDbRotatedDimension
  0
DIMENSION
  5
C39
330
1A
100
AcDbEntity
  8
寸法
100
AcDbDimension
  2
*D20
 10
6554.60244337315
 20
2190.515874945158
 30
0.0
 11
6394.59063234953
 21
2055.515874945159
 31
0.0
 70
    32
 71
     5
 42
-1.0
  3
物置仕様図40
100
AcDbAlignedDimension
 13
6088.08479127592
 23
1920.515874945158
 33
0.0
 14
6768.266128291223
 24
2190.515874945158
 34
0.0
 50
90.0
100
AcDbRotatedDimension
  0
LINE
  5
DCB
330
1A
100
AcDbEntity
  8
部品1
100
AcDbLine
 10
3999.584917119792
 20
10719.41427062826
 30
0.0
 11
5508.114866345844
 21
5719.414270628262
 31
0.0
  0
LINE
  5
DCD
330
1A
100
AcDbEntity
  8
部品1
100
AcDbLine
 10
3473.084791275919
 20
8359.41427062826
 30
0.0
 11
6263.084791275919
 21
8359.414270628262
 31
0.0
  0
LINE
  5
DD0
330
1A
100
AcDbEntity
  8
部品1
100
AcDbLine
 10
3428.08479127592
 20
8219.414270628261
 30
0.0
 11
6308.08479127592
 21
8219.414270628261
 31
0.0
  0
LINE
  5
DD1
330
1A
100
AcDbEntity
  8
センター
 48
10.0
100
AcDbLine
 10
3458.084791275921
 20
7942.21427062826
 30
0.0
 11
6278.084791275919
 21
7942.214270628267
 31
0.0
  0
LINE
  5
DD2
330
1A
100
AcDbEntity
  8
センター
 48
10.0
100
AcDbLine
 10
3458.084791275921
 20
7313.614270628261
 30
0.0
 11
6278.084791275916
 21
7313.614270628261
 31
0.0
  0
LINE
  5
DD3
330
1A
100
AcDbEntity
  8
センター
 48
10.0
100
AcDbLine
 10
3458.084791275921
 20
6685.014270628262
 30
0.0
 11
6278.084791275919
 21
6685.014270628262
 31
0.0
  0
LINE
  5
DD4
330
1A
100
AcDbEntity
  8
センター
 48
10.0
100
AcDbLine
 10
3458.084791275921
 20
6056.414270628261
 30
0.0
 11
6278.084791275919
 21
6056.414270628263
 31
0.0
  0
LINE
  5
DD5
330
1A
100
AcDbEntity
  8
部品1
100
AcDbLine
 10
3476.584791275927
 20
5943.414270628266
 30
0.0
 11
6259.58479127592
 21
5943.414270628266
 31
0.0
  0
LINE
  5
DD6
330
1A
100
AcDbEntity
  8
部品1
100
AcDbLine
 10
3438.08479127592
 20
5819.414270628264
 30
0.0
 11
6298.08479127592
 21
5819.414270628261
 31
0.0
  0
LWPOLYLINE
  5
DFB
330
1A
100
AcDbEntity
  8
部品1
100
AcDbPolyline
 90
        4
 70
     1
 43
0.0
 10
4556.340686673524
 20
5657.860927384913
 10
4556.340686673524
 20
5436.276668344644
 10
5193.353019433285
 20
5436.276668344644
 10
5193.353019433285
 20
5657.860927384913
  0
TEXT
  5
E01
330
1A
100
AcDbEntity
  8
部品1
100
AcDbText
 10
4598.808172129655
 20
5483.422250658431
 30
0.0
 40
120.0
  1
平面図
  7
MSGOTHIC
100
AcDbText
  0
LWPOLYLINE
  5
E02
330
1A
100
AcDbEntity
  8
部品1
100
AcDbPolyline
 90
        4
 70
     1
 43
0.0
 10
4556.340686673524
 20
1775.03282862128
 10
4556.340686673524
 20
1553.448569581012
 10
5193.353019433285
 20
1553.448569581012
 10
5193.353019433285
 20
1775.03282862128
  0
TEXT
  5
E08
330
1A
100
AcDbEntity
  8
部品1
100
AcDbText
 10
4598.808172129655
 20
1600.5941518948
 30
0.0
 40
120.0
  1
正面図
  7
MSGOTHIC
100
AcDbText
  0
TEXT
  5
E09
330
1A
100
AcDbEntity
  8
部品1
100
AcDbText
 10
10288.27050240931
 20
1600.5941518948
 30
0.0
 40
120.0
  1
側面図
  7
MSGOTHIC
100
AcDbText
  0
LWPOLYLINE
  5
E0A
330
1A
100
AcDbEntity
  8
部品1
100
AcDbPolyline
 90
        4
 70
     1
 43
0.0
 10
10245.80301695318
 20
1775.03282862128
 10
10245.80301695318
 20
1553.448569581012
 10
10882.81534971294
 20
1553.448569581012
 10
10882.81534971294
 20
1775.03282862128
  0
LINE
  5
E10
330
1A
100
AcDbEntity
  8
部品1
100
AcDbLine
 10
6229.584791275921
 20
8359.414270628262
 30
0.0
 11
6229.58479127592
 21
10495.41427062826
 31
0.0
  0
LINE
  5
E11
330
1A
100
AcDbEntity
  8
部品1
100
AcDbLine
 10
6246.584791275921
 20
8359.414270628262
 30
0.0
 11
6246.58479127592
 21
10495.41427062826
 31
0.0
  0
LINE
  5
118E
330
1A
100
AcDbEntity
  8
細線
100
AcDbLine
 10
3987.979347739633
 20
2190.515894861109
 30
0.0
 11
4037.979347739632
 21
2240.51589486111
 31
0.0
  0
LINE
  5
118F
330
1A
100
AcDbEntity
  8
細線
100
AcDbLine
 10
3954.303387285623
 20
2190.515894861109
 30
0.0
 11
4004.303387285623
 21
2240.51589486111
 31
0.0
  0
LINE
  5
1190
330
1A
100
AcDbEntity
  8
細線
100
AcDbLine
 10
3920.627426831614
 20
2190.515894861109
 30
0.0
 11
3970.627426831614
 21
2240.51589486111
 31
0.0
  0
LINE
  5
1191
330
1A
100
AcDbEntity
  8
細線
100
AcDbLine
 10
4788.258161359912
 20
2190.51589486111
 30
0.0
 11
4838.258161359912
 21
2240.51589486111
 31
0.0
  0
LINE
  5
1192
330
1A
100
AcDbEntity
  8
細線
100
AcDbLine
 10
4821.934121813922
 20
2190.51589486111
 30
0.0
 11
4871.934121813922
 21
2240.51589486111
 31
0.0
  0
LINE
  5
1193
330
1A
100
AcDbEntity
  8
細線
100
AcDbLine
 10
4855.610082267931
 20
2190.51589486111
 30
0.0
 11
4905.610082267931
 21
2240.51589486111
 31
0.0
  0
LINE
  5
1194
330
1A
100
AcDbEntity
  8
細線
100
AcDbLine
 10
5655.88889588821
 20
2190.51589486111
 30
0.0
 11
5705.888895888215
 21
2240.515894861111
 31
0.0
  0
LINE
  5
1195
330
1A
100
AcDbEntity
  8
細線
100
AcDbLine
 10
5723.24081679623
 20
2190.51589486111
 30
0.0
 11
5773.24081679623
 21
2240.51589486111
 31
0.0
  0
LINE
  5
1196
330
1A
100
AcDbEntity
  8
細線
100
AcDbLine
 10
5689.56485634222
 20
2190.51589486111
 30
0.0
 11
5739.564856342219
 21
2240.515894861111
 31
0.0
  0
DIMENSION
  5
11AB
330
1A
100
AcDbEntity
  8
寸法
100
AcDbDimension
  2
*D22
 10
7292.75680173412
 20
2190.515874945158
 30
0.0
 11
7192.744990710498
 21
3313.015874945158
 31
0.0
 70
    32
 71
     5
 42
-1.0
  3
物置仕様図40
100
AcDbAlignedDimension
 13
10566.32755088103
 23
4435.515874945157
 33
0.0
 14
7275.847895189889
 24
2190.515874945158
 34
0.0
 50
90.0
100
AcDbRotatedDimension
  0
DIMENSION
  5
11AC
330
1A
100
AcDbEntity
  8
寸法
100
AcDbDimension
  2
*D23
 10
7586.483483459038
 20
4322.491357410473
 30
0.0
 11
7467.842311419068
 21
4559.859215536326
 31
0.0
 70
   160
 71
     5
 42
-1.0
  3
物置仕様図40
100
AcDbAlignedDimension
 13
10566.84827728145
 23
4435.49135741047
 33
0.0
 14
8165.806824480629
 24
4322.491357410473
 34
0.0
 50
90.0
100
AcDbRotatedDimension
  0
DIMENSION
  5
11AD
330
1A
100
AcDbEntity
  8
寸法
100
AcDbDimension
  2
*D24
 10
12966.32755088104
 20
4999.199378679063
 30
0.0
 11
10566.32755088104
 21
5099.199378679063
 31
0.0
 70
    32
 71
     5
 42
-1.0
  3
物置仕様図40
100
AcDbAlignedDimension
 13
8166.327550881042
 23
4311.43168164953
 33
0.0
 14
12966.32755088104
 24
4311.43168164953
 34
0.0
100
AcDbRotatedDimension
  0
DIMENSION
  5
11AE
330
1A
100
AcDbEntity
  8
寸法
100
AcDbDimension
  2
*D25
 10
10566.32755088104
 20
4795.283571974691
 30
0.0
 11
9741.327550881043
 21
4895.28357197469
 31
0.0
 70
    32
 71
     5
 42
-1.0
  3
物置仕様図40
100
AcDbAlignedDimension
 13
8916.327550881042
 23
3937.032438185488
 33
0.0
 14
10566.32755088104
 24
4433.013105428839
 34
0.0
100
AcDbRotatedDimension
1001
ACAD
1000
DSTYLE
1002
{
1070
    75
1070
     1
1002
}
  0
LINE
  5
11AF
330
1A
100
AcDbEntity
  8
部品1
100
AcDbLine
 10
8166.327550881034
 20
2240.515874945158
 30
0.0
 11
12966.32755088103
 21
2240.515874945158
 31
0.0
  0
LINE
  5
11B0
330
1A
100
AcDbEntity
  8
部品1
100
AcDbLine
 10
10328.44757993308
 20
4306.685525713432
 30
0.0
 11
10566.32755088103
 21
4317.885707678897
 31
0.0
  0
LINE
  5
11B1
330
1A
100
AcDbEntity
  8
部品1
100
AcDbLine
 10
10532.32029473677
 20
4047.282714814448
 30
0.0
 11
10566.32755088103
 21
4047.282714814448
 31
0.0
  0
LINE
  5
11B2
330
1A
100
AcDbEntity
  8
部品1
100
AcDbLine
 10
8946.327550881035
 20
2440.515874945158
 30
0.0
 11
10536.32755088103
 21
2440.51587494516
 31
0.0
  0
LINE
  5
11B3
330
1A
100
AcDbEntity
  8
細線
100
AcDbLine
 10
8946.327550881035
 20
2543.515874945159
 30
0.0
 11
10536.32755088103
 21
2543.51587494516
 31
0.0
  0
LINE
  5
11B4
330
1A
100
AcDbEntity
  8
細線
100
AcDbLine
 10
8946.327550881035
 20
2555.515874945159
 30
0.0
 11
10536.32755088103
 21
2555.51587494516
 31
0.0
  0
LINE
  5
11B5
330
1A
100
AcDbEntity
  8
細線
100
AcDbLine
 10
8946.327550881035
 20
2884.515874945158
 30
0.0
 11
10536.32755088103
 21
2884.51587494516
 31
0.0
  0
LINE
  5
11B6
330
1A
100
AcDbEntity
  8
細線
100
AcDbLine
 10
8946.327550881035
 20
2878.515874945159
 30
0.0
 11
10536.32755088103
 21
2878.51587494516
 31
0.0
  0
LINE
  5
11B7
330
1A
100
AcDbEntity
  8
部品1
100
AcDbLine
 10
8946.327550881035
 20
3340.515874945159
 30
0.0
 11
10536.32755088103
 21
3340.51587494516
 31
0.0
  0
LINE
  5
11B8
330
1A
100
AcDbEntity
  8
細線
100
AcDbLine
 10
8946.327550881035
 20
3237.515874945159
 30
0.0
 11
10536.32755088103
 21
3237.51587494516
 31
0.0
  0
LINE
  5
11B9
330
1A
100
AcDbEntity
  8
細線
100
AcDbLine
 10
8946.327550881035
 20
3225.515874945158
 30
0.0
 11
10536.32755088103
 21
3225.51587494516
 31
0.0
  0
ARC
  5
11BA
330
1A
100
AcDbEntity
  8
部品1
100
AcDbCircle
 10
10332.32755088103
 20
4045.579070176866
 30
0.0
 40
200.0
100
AcDbArc
 50
0.4880641400717798
 51
92.69568549354952
  0
LINE
  5
11BB
330
1A
100
AcDbEntity
  8
部品1
100
AcDbLine
 10
8179.772691696483
 20
4323.148916991886
 30
0.0
 11
10566.32755088103
 21
4435.515874945157
 31
0.0
  0
LINE
  5
11BC
330
1A
100
AcDbEntity
  8
細線
100
AcDbLine
 10
8171.64294868057
 20
4257.694134167671
 30
0.0
 11
10566.32755088103
 21
4370.443867521276
 31
0.0
  0
LINE
  5
11BD
330
1A
100
AcDbEntity
  8
細線
100
AcDbLine
 10
8172.624252889715
 20
4245.727043562598
 30
0.0
 11
10566.32755088103
 21
4358.430573843022
 31
0.0
  0
LINE
  5
11BE
330
1A
100
AcDbEntity
  8
部品1
100
AcDbLine
 10
8188.273509941849
 20
4208.421766100995
 30
0.0
 11
10566.32755088104
 21
4320.388477195215
 31
0.0
  0
LINE
  5
11C0
330
1A
100
AcDbEntity
  8
点線
 48
50.0
100
AcDbLine
 10
8946.327550881038
 20
2240.515874945158
 30
0.0
 11
8946.327550881035
 21
1920.515874945158
 31
0.0
  0
LINE
  5
11C1
330
1A
100
AcDbEntity
  8
点線
 48
50.0
100
AcDbLine
 10
8886.327550881034
 20
2240.515874945158
 30
0.0
 11
8886.327550881034
 21
1920.515874945158
 31
0.0
  0
LINE
  5
11C2
330
1A
100
AcDbEntity
  8
点線
 48
50.0
100
AcDbLine
 10
8886.327550881034
 20
1920.515874945158
 30
0.0
 11
8946.327550881035
 21
1920.515874945158
 31
0.0
  0
DIMENSION
  5
11C4
330
1A
100
AcDbEntity
  8
寸法
100
AcDbDimension
  2
*D26
 10
7586.483483459038
 20
2190.515874945158
 30
0.0
 11
7486.471672435417
 21
3256.515874945159
 31
0.0
 70
    32
 71
     5
 42
-1.0
  3
物置仕様図40
100
AcDbAlignedDimension
 13
8166.327550881032
 23
4322.515874945159
 33
0.0
 14
7535.652178531027
 24
2190.515874945158
 34
0.0
 50
90.0
100
AcDbRotatedDimension
1001
ACAD
1000
DSTYLE
1002
{
1070
    75
1070
     1
1002
}
  0
LINE
  5
11C5
330
1A
100
AcDbEntity
  8
センター
 48
10.0
100
AcDbLine
 10
8916.327550881034
 20
4004.535207701807
 30
0.0
 11
8916.327550881034
 21
2240.515874945158
 31
0.0
  0
LINE
  5
11C6
330
1A
100
AcDbEntity
  8
部品1
100
AcDbLine
 10
8946.327550881036
 20
4013.116631481115
 30
0.0
 11
8946.327550881036
 21
2240.515874945158
 31
0.0
  0
LINE
  5
11C7
330
1A
100
AcDbEntity
  8
部品1
100
AcDbLine
 10
8886.327550881034
 20
4013.116631481115
 30
0.0
 11
8886.327550881034
 21
2240.515874945158
 31
0.0
  0
DIMENSION
  5
11C8
330
1A
100
AcDbEntity
  8
寸法
100
AcDbDimension
  2
*D27
 10
8078.354899444729
 20
3340.515874945159
 30
0.0
 11
7978.354899444728
 21
2890.515874945159
 31
0.0
 70
    32
 71
     5
 42
-1.0
  3
物置仕様図40
100
AcDbAlignedDimension
 13
8946.327550881036
 23
2440.515874945158
 33
0.0
 14
8946.327550881036
 24
3340.515874945159
 34
0.0
 50
90.0
100
AcDbRotatedDimension
1001
ACAD
1000
DSTYLE
1002
{
1070
    75
1070
     1
1002
}
  0
DIMENSION
  5
11C9
330
1A
100
AcDbEntity
  8
寸法
100
AcDbDimension
  2
*D28
 10
8078.354899444729
 20
2440.515874945158
 30
0.0
 11
7967.798262385471
 21
2315.515874945158
 31
0.0
 70
   160
 71
     5
 42
-1.0
  3
物置仕様図40
100
AcDbAlignedDimension
 13
8062.25467043718
 23
2190.515874945158
 33
0.0
 14
8946.327550881036
 24
2440.515874945158
 34
0.0
 50
90.0
100
AcDbRotatedDimension
  0
LINE
  5
11CA
330
1A
100
AcDbEntity
  8
細線
100
AcDbLine
 10
8166.327550881034
 20
2190.515874945158
 30
0.0
 11
8216.327550881034
 21
2240.515874945158
 31
0.0
  0
LINE
  5
11CB
330
1A
100
AcDbEntity
  8
細線
100
AcDbLine
 10
8233.679471789054
 20
2190.515874945158
 30
0.0
 11
8283.679471789055
 21
2240.515874945158
 31
0.0
  0
LINE
  5
11CC
330
1A
100
AcDbEntity
  8
細線
100
AcDbLine
 10
8200.003511335047
 20
2190.515874945158
 30
0.0
 11
8250.003511335048
 21
2240.515874945158
 31
0.0
  0
LINE
  5
11CD
330
1A
100
AcDbEntity
  8
部品1
100
AcDbLine
 10
8166.327550881034
 20
2240.515874945158
 30
0.0
 11
8166.327550881034
 21
2190.515874945158
 31
0.0
  0
LINE
  5
11CE
330
1A
100
AcDbEntity
  8
細線
100
AcDbLine
 10
9311.310206317351
 20
2190.515874945158
 30
0.0
 11
9361.310206317352
 21
2240.515874945158
 31
0.0
  0
LINE
  5
11CF
330
1A
100
AcDbEntity
  8
細線
100
AcDbLine
 10
9277.634245863346
 20
2190.515874945158
 30
0.0
 11
9327.634245863347
 21
2240.515874945158
 31
0.0
  0
LINE
  5
11D0
330
1A
100
AcDbEntity
  8
細線
100
AcDbLine
 10
9243.958285409332
 20
2190.515874945158
 30
0.0
 11
9293.958285409333
 21
2240.515874945158
 31
0.0
  0
LINE
  5
11D1
330
1A
100
AcDbEntity
  8
細線
100
AcDbLine
 10
10355.26498039164
 20
2190.515874945158
 30
0.0
 11
10405.26498039164
 21
2240.515874945158
 31
0.0
  0
LINE
  5
11D2
330
1A
100
AcDbEntity
  8
細線
100
AcDbLine
 10
10388.94094084565
 20
2190.515874945158
 30
0.0
 11
10438.94094084565
 21
2240.515874945158
 31
0.0
  0
LINE
  5
11D3
330
1A
100
AcDbEntity
  8
細線
100
AcDbLine
 10
10321.58901993763
 20
2190.515874945158
 30
0.0
 11
10371.58901993763
 21
2240.515874945158
 31
0.0
  0
DIMENSION
  5
11D5
330
1A
100
AcDbEntity
  8
寸法
100
AcDbDimension
  2
*D29
 10
8916.327550881034
 20
4795.283571974691
 30
0.0
 11
8541.327550881034
 21
4895.28357197469
 31
0.0
 70
    32
 71
     5
 42
-1.0
  3
物置仕様図40
100
AcDbAlignedDimension
 13
8166.327550881034
 23
4387.515874945158
 33
0.0
 14
8916.327550881034
 24
4004.535207701807
 34
0.0
100
AcDbRotatedDimension
  0
LINE
  5
11D6
330
1A
100
AcDbEntity
  8
部品1
100
AcDbLine
 10
8434.151736979998
 20
4159.932064232765
 30
0.0
 11
8728.962941569632
 21
4173.81275844886
 31
0.0
  0
LINE
  5
11D7
330
1A
100
AcDbEntity
  8
寸法
100
AcDbLine
 10
7586.483483459038
 20
4435.49135741047
 30
0.0
 11
7586.483483459038
 21
4735.49135741047
 31
0.0
  0
LINE
  5
11D8
330
1A
100
AcDbEntity
  8
部品1
100
AcDbLine
 10
8357.352843924225
 20
4161.295570478585
 30
0.0
 11
8344.918295774869
 21
4209.777435475465
 31
0.0
  0
LINE
  5
11D9
330
1A
100
AcDbEntity
  8
部品1
100
AcDbLine
 10
8431.329863070315
 20
4219.865669394127
 30
0.0
 11
8434.259908813203
 21
4157.634609368246
 31
0.0
  0
LINE
  5
11DA
330
1A
100
AcDbEntity
  8
部品1
100
AcDbLine
 10
8390.375232876721
 20
4217.937388889178
 30
0.0
 11
8393.305278619607
 21
4155.706328863298
 31
0.0
  0
LINE
  5
11DB
330
1A
100
AcDbEntity
  8
部品1
100
AcDbLine
 10
8388.377446038006
 20
4217.843326425522
 30
0.0
 11
8391.340413643176
 21
4154.913041006095
 31
0.0
  0
LINE
  5
11DC
330
1A
100
AcDbEntity
  8
部品1
100
AcDbLine
 10
8367.50963621999
 20
4153.791008569085
 30
0.0
 11
8391.340413643176
 21
4154.913041006093
 31
0.0
  0
ARC
  5
11DD
330
1A
100
AcDbEntity
  8
部品1
100
AcDbCircle
 10
8367.039323901709
 20
4163.779942762645
 30
0.0
 40
10.0
100
AcDbArc
 50
194.3850546689919
 51
272.6956854935496
  0
LINE
  5
11DE
330
1A
100
AcDbEntity
  8
部品1
100
AcDbLine
 10
8393.30527861961
 20
4155.706328863298
 30
0.0
 11
8434.259908813203
 21
4157.634609368246
 31
0.0
  0
LINE
  5
11DF
330
1A
100
AcDbEntity
  8
部品1
100
AcDbLine
 10
8391.199319947693
 20
4157.909721264162
 30
0.0
 11
8393.1971067864
 21
4158.003783727817
 31
0.0
  0
ARC
  5
11E0
330
1A
100
AcDbEntity
  8
部品1
100
AcDbCircle
 10
8349.761535763612
 20
4211.019621617495
 30
0.0
 40
5.0
100
AcDbArc
 50
92.69568549354948
 51
194.3850546689908
  0
ARC
  5
11E1
330
1A
100
AcDbEntity
  8
部品1
100
AcDbCircle
 10
8180.38409771025
 20
4310.163302540257
 30
0.0
 40
13.0
100
AcDbArc
 50
92.69568549354943
 51
184.6877790665173
  0
ARC
  5
11E2
330
1A
100
AcDbEntity
  8
部品1
100
AcDbCircle
 10
8187.662103928085
 20
4221.407380552622
 30
0.0
 40
13.0
100
AcDbArc
 50
184.6877790665163
 51
272.6956854935495
  0
LINE
  5
11E3
330
1A
100
AcDbEntity
  8
部品1
100
AcDbLine
 10
8167.427584773811
 20
4309.100865470132
 30
0.0
 11
8174.705590991647
 21
4220.344943482496
 31
0.0
  0
LINE
  5
11E4
330
1A
100
AcDbEntity
  8
部品1
100
AcDbLine
 10
8189.315992972884
 20
4323.598247426983
 30
0.0
 11
8198.720158310541
 21
4208.913629128353
 31
0.0
  0
LINE
  5
11E5
330
1A
100
AcDbEntity
  8
部品1
100
AcDbLine
 10
9116.562941569638
 20
4192.062258448861
 30
0.0
 11
9650.397106786407
 21
4217.196950394483
 31
0.0
  0
LINE
  5
11E6
330
1A
100
AcDbEntity
  8
部品1
100
AcDbLine
 10
9064.683803061674
 20
4186.115738354621
 30
0.0
 11
9116.727550881035
 21
4188.566131481114
 31
0.0
  0
LINE
  5
11E7
330
1A
100
AcDbEntity
  8
部品1
100
AcDbLine
 10
8736.247579933062
 20
4231.71944238011
 30
0.0
 11
9103.869711545966
 21
4249.028317743548
 31
0.0
  0
LINE
  5
11E8
330
1A
100
AcDbEntity
  8
部品1
100
AcDbLine
 10
8729.127550881033
 20
4170.316631481115
 30
0.0
 11
8772.389271539095
 21
4172.353537495431
 31
0.0
  0
LINE
  5
11E9
330
1A
100
AcDbEntity
  8
部品1
100
AcDbLine
 10
8729.127550881035
 20
4170.316631481115
 30
0.0
 11
8726.728958057783
 21
4221.260195868265
 31
0.0
  0
ARC
  5
11EA
330
1A
100
AcDbEntity
  8
部品1
100
AcDbCircle
 10
8777.327550881034
 20
4067.469728463051
 30
0.0
 40
105.0
100
AcDbArc
 50
0.0
 51
92.6956854935492
  0
ARC
  5
11EB
330
1A
100
AcDbEntity
  8
部品1
100
AcDbCircle
 10
9070.327550881035
 20
4066.248528031899
 30
0.0
 40
120.0
100
AcDbArc
 50
92.69568549354971
 51
180.0
  0
CIRCLE
  5
11EC
330
1A
100
AcDbEntity
  8
細線
100
AcDbCircle
 10
8916.327550881034
 20
4128.116631481116
 30
0.0
 40
6.0
  0
LWPOLYLINE
  5
11ED
330
1A
100
AcDbEntity
  8
細線
100
AcDbPolyline
 90
        6
 70
     1
 43
0.0
 10
8909.827550881033
 20
4131.869408230848
 10
8916.327550881034
 20
4135.62218498058
 10
8922.827550881033
 20
4131.869408230848
 10
8922.827550881033
 20
4124.363854731384
 10
8916.327550881034
 20
4120.611077981652
 10
8909.827550881033
 20
4124.363854731384
  0
CIRCLE
  5
11EE
330
1A
100
AcDbEntity
  8
細線
100
AcDbCircle
 10
8916.327550881034
 20
4128.116631481116
 30
0.0
 40
8.0
  0
LINE
  5
11EF
330
1A
100
AcDbEntity
  8
部品1
100
AcDbLine
 10
8882.327550881035
 20
4013.116631481116
 30
0.0
 11
8950.327550881036
 21
4013.116631481115
 31
0.0
  0
LINE
  5
11F0
330
1A
100
AcDbEntity
  8
部品1
100
AcDbLine
 10
8882.327550881035
 20
4067.469728463051
 30
0.0
 11
8882.327550881035
 21
4013.116631481116
 31
0.0
  0
LINE
  5
11F1
330
1A
100
AcDbEntity
  8
部品1
100
AcDbLine
 10
8950.327550881034
 20
4066.248528031899
 30
0.0
 11
8950.327550881034
 21
4013.116631481114
 31
0.0
  0
CIRCLE
  5
11F2
330
1A
100
AcDbEntity
  8
細線
100
AcDbCircle
 10
8916.327550881034
 20
4043.116631481116
 30
0.0
 40
6.0
  0
LWPOLYLINE
  5
11F3
330
1A
100
AcDbEntity
  8
細線
100
AcDbPolyline
 90
        6
 70
     1
 43
0.0
 10
8909.827550881033
 20
4046.869408230849
 10
8916.327550881034
 20
4050.62218498058
 10
8922.827550881033
 20
4046.869408230849
 10
8922.827550881033
 20
4039.363854731384
 10
8916.327550881034
 20
4035.611077981651
 10
8909.827550881033
 20
4039.363854731384
  0
CIRCLE
  5
11F4
330
1A
100
AcDbEntity
  8
細線
100
AcDbCircle
 10
8916.327550881034
 20
4043.116631481116
 30
0.0
 40
8.0
  0
CIRCLE
  5
11F5
330
1A
100
AcDbEntity
  8
細線
100
AcDbCircle
 10
8863.430862937082
 20
4210.17719060888
 30
0.0
 40
8.0
  0
ARC
  5
11F6
330
1A
100
AcDbEntity
  8
部品1
100
AcDbCircle
 10
8736.717892251343
 20
4221.730508186549
 30
0.0
 40
10.0
100
AcDbArc
 50
92.69568549354904
 51
182.6956854935757
  0
CIRCLE
  5
11F7
330
1A
100
AcDbEntity
  8
細線
100
AcDbCircle
 10
8757.548160485344
 20
4205.191880035112
 30
0.0
 40
8.0
  0
LWPOLYLINE
  5
11F8
330
1A
100
AcDbEntity
  8
細線
100
AcDbPolyline
 90
        6
 70
     1
 43
0.0
 10
8751.048160485344
 20
4208.944656784844
 10
8757.548160485344
 20
4212.697433534577
 10
8764.048160485343
 20
4208.944656784844
 10
8764.048160485343
 20
4201.439103285379
 10
8757.548160485344
 20
4197.686326535648
 10
8751.048160485344
 20
4201.439103285379
  0
CIRCLE
  5
11F9
330
1A
100
AcDbEntity
  8
細線
100
AcDbCircle
 10
8757.548160485344
 20
4205.191880035112
 30
0.0
 40
6.0
  0
LINE
  5
11FA
330
1A
100
AcDbEntity
  8
部品1
100
AcDbLine
 10
9018.975232876718
 20
4247.533972222511
 30
0.0
 11
9021.232732004467
 21
4199.587088093418
 31
0.0
  0
ARC
  5
11FB
330
1A
100
AcDbEntity
  8
部品1
100
AcDbCircle
 10
9026.227199101246
 20
4199.822244252558
 30
0.0
 40
5.0
100
AcDbArc
 50
182.6956854935512
 51
272.6956854935509
  0
CIRCLE
  5
11FC
330
1A
100
AcDbEntity
  8
細線
100
AcDbCircle
 10
8969.313565388821
 20
4215.162501182649
 30
0.0
 40
6.0
  0
LWPOLYLINE
  5
11FD
330
1A
100
AcDbEntity
  8
細線
100
AcDbPolyline
 90
        6
 70
     1
 43
0.0
 10
8962.81356538882
 20
4218.915277932381
 10
8969.313565388821
 20
4222.668054682113
 10
8975.81356538882
 20
4218.915277932381
 10
8975.81356538882
 20
4211.409724432916
 10
8969.313565388821
 20
4207.656947683185
 10
8962.81356538882
 20
4211.409724432916
  0
CIRCLE
  5
11FE
330
1A
100
AcDbEntity
  8
細線
100
AcDbCircle
 10
8969.313565388821
 20
4215.162501182649
 30
0.0
 40
8.0
  0
CIRCLE
  5
11FF
330
1A
100
AcDbEntity
  8
細線
100
AcDbCircle
 10
8863.430862937082
 20
4210.17719060888
 30
0.0
 40
6.0
  0
LWPOLYLINE
  5
1200
330
1A
100
AcDbEntity
  8
細線
100
AcDbPolyline
 90
        6
 70
     1
 43
0.0
 10
8856.930862937081
 20
4213.929967358613
 10
8863.430862937082
 20
4217.682744108345
 10
8869.930862937083
 20
4213.929967358613
 10
8869.930862937083
 20
4206.424413859148
 10
8863.430862937082
 20
4202.671637109416
 10
8856.930862937081
 20
4206.424413859148
  0
LINE
  5
1201
330
1A
100
AcDbEntity
  8
部品1
100
AcDbLine
 10
9059.929863070316
 20
4249.462252727459
 30
0.0
 11
9062.187362198059
 21
4201.515368598366
 31
0.0
  0
ARC
  5
1202
330
1A
100
AcDbEntity
  8
部品1
100
AcDbCircle
 10
9057.192895101279
 20
4201.280212439226
 30
0.0
 40
5.0
100
AcDbArc
 50
272.6956854935486
 51
2.695685493549083
  0
CIRCLE
  5
1203
330
1A
100
AcDbEntity
  8
細線
100
AcDbCircle
 10
9075.196267840556
 20
4220.147811756418
 30
0.0
 40
6.0
  0
LWPOLYLINE
  5
1204
330
1A
100
AcDbEntity
  8
細線
100
AcDbPolyline
 90
        6
 70
     1
 43
0.0
 10
9068.696267840556
 20
4223.90058850615
 10
9075.196267840556
 20
4227.653365255881
 10
9081.696267840555
 20
4223.90058850615
 10
9081.696267840555
 20
4216.395035006685
 10
9075.196267840556
 20
4212.642258256953
 10
9068.696267840556
 20
4216.395035006685
  0
CIRCLE
  5
1205
330
1A
100
AcDbEntity
  8
細線
100
AcDbCircle
 10
9075.196267840556
 20
4220.147811756418
 30
0.0
 40
8.0
  0
LINE
  5
1206
330
1A
100
AcDbEntity
  8
部品1
100
AcDbLine
 10
9026.462355260386
 20
4194.827777155778
 30
0.0
 11
9057.428051260421
 21
4196.285745342446
 31
0.0
  0
LINE
  5
1207
330
1A
100
AcDbEntity
  8
部品1
100
AcDbLine
 10
9116.727550881035
 20
4188.566131481115
 30
0.0
 11
9114.328958057807
 21
4239.509695868267
 31
0.0
  0
ARC
  5
1208
330
1A
100
AcDbEntity
  8
部品1
100
AcDbCircle
 10
9104.340023864248
 20
4239.039383549988
 30
0.0
 40
10.0
100
AcDbArc
 50
2.695685493546817
 51
92.69568549354902
  0
LINE
  5
1209
330
1A
100
AcDbEntity
  8
部品1
100
AcDbLine
 10
9691.351736980003
 20
4219.125230899431
 30
0.0
 11
10278.9971067864
 21
4246.793533727817
 31
0.0
  0
LINE
  5
120A
330
1A
100
AcDbEntity
  8
部品1
100
AcDbLine
 10
9647.57523287672
 20
4277.130555555845
 30
0.0
 11
9650.505278619609
 21
4214.899495529964
 31
0.0
  0
LINE
  5
120B
330
1A
100
AcDbEntity
  8
部品1
100
AcDbLine
 10
9688.52986307032
 20
4279.058836060793
 30
0.0
 11
9691.459908813204
 21
4216.827776034912
 31
0.0
  0
LINE
  5
120C
330
1A
100
AcDbEntity
  8
部品1
100
AcDbLine
 10
9650.505278619611
 20
4214.899495529964
 30
0.0
 11
9691.459908813204
 21
4216.827776034912
 31
0.0
  0
LINE
  5
120D
330
1A
100
AcDbEntity
  8
部品1
100
AcDbLine
 10
10279.10527861961
 20
4244.496078863298
 30
0.0
 11
10320.0599088132
 21
4246.424359368246
 31
0.0
  0
LINE
  5
120E
330
1A
100
AcDbEntity
  8
部品1
100
AcDbLine
 10
10276.17523287672
 20
4306.727138889177
 30
0.0
 11
10279.1052786196
 21
4244.496078863298
 31
0.0
  0
LINE
  5
120F
330
1A
100
AcDbEntity
  8
部品1
100
AcDbLine
 10
10321.32755088103
 20
4245.282714814448
 30
0.0
 11
10322.92130451543
 21
4245.357754048067
 31
0.0
  0
LINE
  5
1210
330
1A
100
AcDbEntity
  8
部品1
100
AcDbLine
 10
10319.95173697999
 20
4248.721814232765
 30
0.0
 11
10321.16294156963
 21
4248.778841782194
 31
0.0
  0
LINE
  5
1211
330
1A
100
AcDbEntity
  8
部品1
100
AcDbLine
 10
10321.32755088103
 20
4245.282714814448
 30
0.0
 11
10318.92895805781
 21
4296.226279201593
 31
0.0
  0
ARC
  5
1212
330
1A
100
AcDbEntity
  8
部品1
100
AcDbCircle
 10
10328.91789225137
 20
4296.696591519872
 30
0.0
 40
10.0
100
AcDbArc
 50
92.6956854935492
 51
182.6956854935492
  0
LINE
  5
1213
330
1A
100
AcDbEntity
  8
部品1
100
AcDbLine
 10
10317.12986307031
 20
4308.655419394127
 30
0.0
 11
10320.0599088132
 21
4246.424359368246
 31
0.0
  0
CIRCLE
  5
1214
330
1A
100
AcDbEntity
  8
細線
100
AcDbCircle
 10
10443.61478861494
 20
4284.577517109535
 30
0.0
 40
6.0
  0
LWPOLYLINE
  5
1215
330
1A
100
AcDbEntity
  8
細線
100
AcDbPolyline
 90
        6
 70
     1
 43
0.0
 10
10437.11478861494
 20
4288.330293859266
 10
10443.61478861494
 20
4292.083070608999
 10
10450.11478861494
 20
4288.330293859266
 10
10450.11478861494
 20
4280.824740359802
 10
10443.61478861494
 20
4277.07196361007
 10
10437.11478861494
 20
4280.824740359802
  0
CIRCLE
  5
1216
330
1A
100
AcDbEntity
  8
細線
100
AcDbCircle
 10
10443.61478861494
 20
4284.577517109535
 30
0.0
 40
8.0
  0
CIRCLE
  5
1217
330
1A
100
AcDbEntity
  8
細線
100
AcDbCircle
 10
10341.72765984063
 20
4279.780331463078
 30
0.0
 40
6.0
  0
LWPOLYLINE
  5
1218
330
1A
100
AcDbEntity
  8
細線
100
AcDbPolyline
 90
        6
 70
     1
 43
0.0
 10
10335.22765984063
 20
4283.53310821281
 10
10341.72765984063
 20
4287.285884962543
 10
10348.22765984063
 20
4283.53310821281
 10
10348.22765984063
 20
4276.027554713346
 10
10341.72765984063
 20
4272.274777963613
 10
10335.22765984063
 20
4276.027554713346
  0
CIRCLE
  5
1219
330
1A
100
AcDbEntity
  8
細線
100
AcDbCircle
 10
10341.72765984063
 20
4279.780331463078
 30
0.0
 40
8.0
  0
LINE
  5
121A
330
1A
100
AcDbEntity
  8
点線
 48
50.0
100
AcDbLine
 10
12246.32755088103
 20
2240.515874945158
 30
0.0
 11
12246.32755088103
 21
1920.515874945158
 31
0.0
  0
LINE
  5
121B
330
1A
100
AcDbEntity
  8
点線
 48
50.0
100
AcDbLine
 10
12186.32755088103
 20
2240.515874945158
 30
0.0
 11
12186.32755088103
 21
1920.515874945158
 31
0.0
  0
LINE
  5
121C
330
1A
100
AcDbEntity
  8
点線
 48
50.0
100
AcDbLine
 10
10596.32755088104
 20
2240.515874945158
 30
0.0
 11
10596.32755088103
 21
1910.201291035139
 31
0.0
  0
LINE
  5
121D
330
1A
100
AcDbEntity
  8
点線
 48
50.0
100
AcDbLine
 10
10536.32755088103
 20
2240.515874945158
 30
0.0
 11
10536.32755088103
 21
1910.201291035139
 31
0.0
  0
LINE
  5
121E
330
1A
100
AcDbEntity
  8
点線
 48
50.0
100
AcDbLine
 10
10536.32755088103
 20
1910.201291035139
 30
0.0
 11
10596.32755088103
 21
1910.201291035139
 31
0.0
  0
LINE
  5
121F
330
1A
100
AcDbEntity
  8
点線
 48
50.0
100
AcDbLine
 10
12186.32755088103
 20
1920.515874945158
 30
0.0
 11
12246.32755088103
 21
1920.515874945158
 31
0.0
  0
LINE
  5
1220
330
1A
100
AcDbEntity
  8
点線
 48
50.0
100
AcDbLine
 10
12186.32755088103
 20
1920.515874945158
 30
0.0
 11
12246.32755088103
 21
1920.515874945158
 31
0.0
  0
DIMENSION
  5
1222
330
1A
100
AcDbEntity
  8
寸法
100
AcDbDimension
  2
*D30
 10
12216.32755088103
 20
4795.283571974691
 30
0.0
 11
11391.32755088103
 21
4895.28357197469
 31
0.0
 70
    32
 71
     5
 42
1649.999999999991
  3
物置仕様図40
100
AcDbAlignedDimension
 13
10566.32755088104
 23
3962.61709773951
 33
0.0
 14
12216.32755088103
 24
4004.535207701805
 34
0.0
100
AcDbRotatedDimension
1001
ACAD
1000
DSTYLE
1002
{
1070
    75
1070
     1
1002
}
  0
LINE
  5
1223
330
1A
100
AcDbEntity
  8
センター
 48
10.0
100
AcDbLine
 10
12216.32755088103
 20
4004.535207701805
 30
0.0
 11
12216.32755088103
 21
2240.515874945158
 31
0.0
  0
LINE
  5
1224
330
1A
100
AcDbEntity
  8
センター
 48
10.0
100
AcDbLine
 10
10566.32755088103
 20
4038.701291035138
 30
0.0
 11
10566.32755088103
 21
2240.515874945158
 31
0.0
  0
LINE
  5
1225
330
1A
100
AcDbEntity
  8
部品1
100
AcDbLine
 10
10536.32755088103
 20
4047.282714814448
 30
0.0
 11
10536.32755088103
 21
2240.515874945158
 31
0.0
  0
LINE
  5
1226
330
1A
100
AcDbEntity
  8
部品1
100
AcDbLine
 10
10596.32755088103
 20
4047.282714814448
 30
0.0
 11
10596.32755088103
 21
2240.515874945158
 31
0.0
  0
LINE
  5
1227
330
1A
100
AcDbEntity
  8
部品1
100
AcDbLine
 10
12186.32755088103
 20
4013.116631481115
 30
0.0
 11
12186.32755088103
 21
2240.515874945158
 31
0.0
  0
LINE
  5
1228
330
1A
100
AcDbEntity
  8
部品1
100
AcDbLine
 10
12246.32755088103
 20
4013.116631481116
 30
0.0
 11
12246.32755088103
 21
2240.515874945158
 31
0.0
  0
LINE
  5
122B
330
1A
100
AcDbEntity
  8
細線
100
AcDbLine
 10
11466.57167537395
 20
2190.515874945158
 30
0.0
 11
11516.57167537395
 21
2240.515874945158
 31
0.0
  0
LINE
  5
122C
330
1A
100
AcDbEntity
  8
細線
100
AcDbLine
 10
12186.32755088103
 20
2878.515874945159
 30
0.0
 11
10596.32755088103
 21
2878.51587494516
 31
0.0
  0
LINE
  5
122D
330
1A
100
AcDbEntity
  8
細線
100
AcDbLine
 10
12186.32755088103
 20
2884.515874945158
 30
0.0
 11
10596.32755088103
 21
2884.51587494516
 31
0.0
  0
LINE
  5
122E
330
1A
100
AcDbEntity
  8
細線
100
AcDbLine
 10
12186.32755088103
 20
2555.515874945159
 30
0.0
 11
10596.32755088103
 21
2555.51587494516
 31
0.0
  0
LINE
  5
122F
330
1A
100
AcDbEntity
  8
細線
100
AcDbLine
 10
12186.32755088103
 20
2543.515874945159
 30
0.0
 11
10596.32755088103
 21
2543.51587494516
 31
0.0
  0
LINE
  5
1230
330
1A
100
AcDbEntity
  8
部品1
100
AcDbLine
 10
12186.32755088103
 20
2440.515874945158
 30
0.0
 11
10596.32755088103
 21
2440.51587494516
 31
0.0
  0
LINE
  5
1231
330
1A
100
AcDbEntity
  8
細線
100
AcDbLine
 10
11432.89571491994
 20
2190.515874945158
 30
0.0
 11
11482.89571491994
 21
2240.515874945158
 31
0.0
  0
LINE
  5
1232
330
1A
100
AcDbEntity
  8
細線
100
AcDbLine
 10
11399.21975446593
 20
2190.515874945158
 30
0.0
 11
11449.21975446593
 21
2240.515874945158
 31
0.0
  0
LINE
  5
1233
330
1A
100
AcDbEntity
  8
細線
100
AcDbLine
 10
12186.32755088103
 20
3225.515874945158
 30
0.0
 11
10596.32755088103
 21
3225.51587494516
 31
0.0
  0
LINE
  5
1234
330
1A
100
AcDbEntity
  8
細線
100
AcDbLine
 10
12186.32755088103
 20
3237.515874945159
 30
0.0
 11
10596.32755088103
 21
3237.51587494516
 31
0.0
  0
LINE
  5
1235
330
1A
100
AcDbEntity
  8
部品1
100
AcDbLine
 10
12186.32755088103
 20
3340.515874945159
 30
0.0
 11
10596.32755088103
 21
3340.51587494516
 31
0.0
  0
DIMENSION
  5
1236
330
1A
100
AcDbEntity
  8
寸法
100
AcDbDimension
  2
*D31
 10
13483.45611201606
 20
2190.515874945158
 30
0.0
 11
13362.01802163522
 21
2370.918921423119
 31
0.0
 70
   160
 71
     5
 42
-1.0
  3
物置仕様図40
100
AcDbAlignedDimension
 13
12966.32755088103
 23
2240.515874945158
 33
0.0
 14
13495.59992105415
 24
2190.515874945158
 34
0.0
 50
90.0
100
AcDbRotatedDimension
  0
LINE
  5
1238
330
1A
100
AcDbEntity
  8
細線
100
AcDbLine
 10
12476.85048899423
 20
2190.515874945158
 30
0.0
 11
12526.85048899423
 21
2240.515874945158
 31
0.0
  0
LINE
  5
1239
330
1A
100
AcDbEntity
  8
細線
100
AcDbLine
 10
12510.52644944824
 20
2190.515874945158
 30
0.0
 11
12560.52644944824
 21
2240.515874945158
 31
0.0
  0
LINE
  5
123A
330
1A
100
AcDbEntity
  8
細線
100
AcDbLine
 10
12544.20240990224
 20
2190.515874945158
 30
0.0
 11
12594.20240990225
 21
2240.515874945158
 31
0.0
  0
LINE
  5
123B
330
1A
100
AcDbEntity
  8
部品1
100
AcDbLine
 10
12966.32755088103
 20
2240.515874945158
 30
0.0
 11
12966.32755088103
 21
2190.515874945158
 31
0.0
  0
DIMENSION
  5
123D
330
1A
100
AcDbEntity
  8
寸法
100
AcDbDimension
  2
*D32
 10
12966.32755088103
 20
4795.283571974691
 30
0.0
 11
12591.32755088103
 21
4895.28357197469
 31
0.0
 70
    32
 71
     5
 42
-1.0
  3
物置仕様図40
100
AcDbAlignedDimension
 13
12216.32755088103
 23
4004.535207701805
 33
0.0
 14
12966.32755088103
 24
4387.515874945158
 34
0.0
100
AcDbRotatedDimension
1001
ACAD
1000
DSTYLE
1002
{
1070
    75
1070
     1
1002
}
  0
LINE
  5
123E
330
1A
100
AcDbEntity
  8
部品1
100
AcDbLine
 10
12698.50336478207
 20
4159.932064232765
 30
0.0
 11
12403.69216019243
 21
4173.81275844886
 31
0.0
  0
LINE
  5
123F
330
1A
100
AcDbEntity
  8
細線
100
AcDbLine
 10
12961.01215308149
 20
4257.694134167671
 30
0.0
 11
10566.32755088103
 21
4370.443867521276
 31
0.0
  0
LINE
  5
1240
330
1A
100
AcDbEntity
  8
細線
100
AcDbLine
 10
12960.03084887235
 20
4245.727043562598
 30
0.0
 11
10566.32755088103
 21
4358.430573843022
 31
0.0
  0
LINE
  5
1241
330
1A
100
AcDbEntity
  8
部品1
100
AcDbLine
 10
12944.38159182021
 20
4208.421766100994
 30
0.0
 11
10566.32755088103
 21
4320.388477195215
 31
0.0
  0
LINE
  5
1242
330
1A
100
AcDbEntity
  8
部品1
100
AcDbLine
 10
12952.88241006558
 20
4323.148916991885
 30
0.0
 11
10566.32755088103
 21
4435.515874945157
 31
0.0
  0
LINE
  5
1243
330
1A
100
AcDbEntity
  8
部品1
100
AcDbLine
 10
12016.09216019243
 20
4192.062258448861
 30
0.0
 11
11482.25799497566
 21
4217.196950394483
 31
0.0
  0
LINE
  5
1244
330
1A
100
AcDbEntity
  8
部品1
100
AcDbLine
 10
10566.32755088103
 20
4435.515874945156
 30
0.0
 11
10566.32755088103
 21
4320.388477195215
 31
0.0
  0
LINE
  5
1245
330
1A
100
AcDbEntity
  8
部品1
100
AcDbLine
 10
11441.30336478207
 20
4219.125230899431
 30
0.0
 11
10853.65799497567
 21
4246.793533727817
 31
0.0
  0
ARC
  5
1246
330
1A
100
AcDbEntity
  8
部品1
100
AcDbCircle
 10
10800.32755088103
 20
4045.579070176866
 30
0.0
 40
200.0
100
AcDbArc
 50
87.30431450645047
 51
179.5119358599282
  0
CIRCLE
  5
1247
330
1A
100
AcDbEntity
  8
細線
100
AcDbCircle
 10
10566.32755088103
 20
4082.282714814447
 30
0.0
 40
6.0
  0
LWPOLYLINE
  5
1248
330
1A
100
AcDbEntity
  8
細線
100
AcDbPolyline
 90
        6
 70
     1
 43
0.0
 10
10559.82755088104
 20
4086.03549156418
 10
10566.32755088103
 20
4089.788268313912
 10
10572.82755088103
 20
4086.03549156418
 10
10572.82755088103
 20
4078.529938064716
 10
10566.32755088103
 20
4074.777161314983
 10
10559.82755088104
 20
4078.529938064716
  0
CIRCLE
  5
1249
330
1A
100
AcDbEntity
  8
細線
100
AcDbCircle
 10
10566.32755088103
 20
4082.282714814447
 30
0.0
 40
8.0
  0
CIRCLE
  5
124A
330
1A
100
AcDbEntity
  8
細線
100
AcDbCircle
 10
10566.32755088103
 20
4082.282714814447
 30
0.0
 40
8.0
  0
LWPOLYLINE
  5
124B
330
1A
100
AcDbEntity
  8
細線
100
AcDbPolyline
 90
        6
 70
     1
 43
0.0
 10
10572.82755088103
 20
4086.03549156418
 10
10566.32755088103
 20
4089.788268313912
 10
10559.82755088103
 20
4086.03549156418
 10
10559.82755088103
 20
4078.529938064716
 10
10566.32755088103
 20
4074.777161314983
 10
10572.82755088103
 20
4078.529938064716
  0
CIRCLE
  5
124C
330
1A
100
AcDbEntity
  8
細線
100
AcDbCircle
 10
10566.32755088103
 20
4082.282714814447
 30
0.0
 40
6.0
  0
LINE
  5
124D
330
1A
100
AcDbEntity
  8
部品1
100
AcDbLine
 10
10600.33480702529
 20
4047.282714814448
 30
0.0
 11
10566.32755088103
 21
4047.282714814448
 31
0.0
  0
LINE
  5
124E
330
1A
100
AcDbEntity
  8
部品1
100
AcDbLine
 10
10804.20752182898
 20
4306.685525713432
 30
0.0
 11
10566.32755088103
 21
4317.885707678897
 31
0.0
  0
CIRCLE
  5
124F
330
1A
100
AcDbEntity
  8
細線
100
AcDbCircle
 10
10545.50191738925
 20
4289.374702755991
 30
0.0
 40
6.0
  0
LWPOLYLINE
  5
1250
330
1A
100
AcDbEntity
  8
細線
100
AcDbPolyline
 90
        6
 70
     1
 43
0.0
 10
10539.00191738925
 20
4293.127479505723
 10
10545.50191738925
 20
4296.880256255455
 10
10552.00191738925
 20
4293.127479505723
 10
10552.00191738925
 20
4285.621926006259
 10
10545.50191738925
 20
4281.869149256527
 10
10539.00191738925
 20
4285.621926006259
  0
CIRCLE
  5
1251
330
1A
100
AcDbEntity
  8
細線
100
AcDbCircle
 10
10545.50191738925
 20
4289.374702755991
 30
0.0
 40
8.0
  0
CIRCLE
  5
1252
330
1A
100
AcDbEntity
  8
細線
100
AcDbCircle
 10
10566.32755088103
 20
4184.282714814448
 30
0.0
 40
6.0
  0
LWPOLYLINE
  5
1253
330
1A
100
AcDbEntity
  8
細線
100
AcDbPolyline
 90
        6
 70
     1
 43
0.0
 10
10559.82755088104
 20
4188.03549156418
 10
10566.32755088103
 20
4191.788268313913
 10
10572.82755088103
 20
4188.03549156418
 10
10572.82755088103
 20
4180.529938064715
 10
10566.32755088103
 20
4176.777161314983
 10
10559.82755088104
 20
4180.529938064715
  0
CIRCLE
  5
1254
330
1A
100
AcDbEntity
  8
細線
100
AcDbCircle
 10
10566.32755088103
 20
4184.282714814448
 30
0.0
 40
8.0
  0
CIRCLE
  5
1255
330
1A
100
AcDbEntity
  8
細線
100
AcDbCircle
 10
10566.32755088103
 20
4184.282714814448
 30
0.0
 40
8.0
  0
LWPOLYLINE
  5
1256
330
1A
100
AcDbEntity
  8
細線
100
AcDbPolyline
 90
        6
 70
     1
 43
0.0
 10
10572.82755088103
 20
4188.03549156418
 10
10566.32755088103
 20
4191.788268313913
 10
10559.82755088103
 20
4188.03549156418
 10
10559.82755088103
 20
4180.529938064715
 10
10566.32755088103
 20
4176.777161314983
 10
10572.82755088103
 20
4180.529938064715
  0
CIRCLE
  5
1257
330
1A
100
AcDbEntity
  8
細線
100
AcDbCircle
 10
10566.32755088103
 20
4184.282714814448
 30
0.0
 40
6.0
  0
CIRCLE
  5
1258
330
1A
100
AcDbEntity
  8
細線
100
AcDbCircle
 10
10689.04031314713
 20
4284.577517109535
 30
0.0
 40
8.0
  0
LWPOLYLINE
  5
1259
330
1A
100
AcDbEntity
  8
細線
100
AcDbPolyline
 90
        6
 70
     1
 43
0.0
 10
10695.54031314713
 20
4288.330293859266
 10
10689.04031314713
 20
4292.083070608999
 10
10682.54031314713
 20
4288.330293859266
 10
10682.54031314713
 20
4280.824740359802
 10
10689.04031314713
 20
4277.07196361007
 10
10695.54031314713
 20
4280.824740359802
  0
CIRCLE
  5
125A
330
1A
100
AcDbEntity
  8
細線
100
AcDbCircle
 10
10689.04031314713
 20
4284.577517109535
 30
0.0
 40
6.0
  0
CIRCLE
  5
125B
330
1A
100
AcDbEntity
  8
細線
100
AcDbCircle
 10
10587.15318437281
 20
4289.374702755991
 30
0.0
 40
8.0
  0
LWPOLYLINE
  5
125C
330
1A
100
AcDbEntity
  8
細線
100
AcDbPolyline
 90
        6
 70
     1
 43
0.0
 10
10593.65318437281
 20
4293.127479505723
 10
10587.15318437281
 20
4296.880256255455
 10
10580.65318437281
 20
4293.127479505723
 10
10580.65318437281
 20
4285.621926006259
 10
10587.15318437281
 20
4281.869149256527
 10
10593.65318437281
 20
4285.621926006259
  0
CIRCLE
  5
125D
330
1A
100
AcDbEntity
  8
細線
100
AcDbCircle
 10
10587.15318437281
 20
4289.374702755991
 30
0.0
 40
6.0
  0
CIRCLE
  5
125E
330
1A
100
AcDbEntity
  8
細線
100
AcDbCircle
 10
10790.92744192144
 20
4279.780331463078
 30
0.0
 40
8.0
  0
LWPOLYLINE
  5
125F
330
1A
100
AcDbEntity
  8
細線
100
AcDbPolyline
 90
        6
 70
     1
 43
0.0
 10
10797.42744192144
 20
4283.53310821281
 10
10790.92744192144
 20
4287.285884962543
 10
10784.42744192144
 20
4283.53310821281
 10
10784.42744192144
 20
4276.027554713346
 10
10790.92744192144
 20
4272.274777963613
 10
10797.42744192144
 20
4276.027554713346
  0
CIRCLE
  5
1260
330
1A
100
AcDbEntity
  8
細線
100
AcDbCircle
 10
10790.92744192144
 20
4279.780331463078
 30
0.0
 40
6.0
  0
ARC
  5
1261
330
1A
100
AcDbEntity
  8
部品1
100
AcDbCircle
 10
10803.7372095107
 20
4296.696591519872
 30
0.0
 40
10.0
100
AcDbArc
 50
357.3043145064508
 51
87.30431450645079
  0
LINE
  5
1262
330
1A
100
AcDbEntity
  8
部品1
100
AcDbLine
 10
10811.32755088103
 20
4245.282714814448
 30
0.0
 11
10813.72614370426
 21
4296.226279201593
 31
0.0
  0
LINE
  5
1263
330
1A
100
AcDbEntity
  8
部品1
100
AcDbLine
 10
10811.32755088103
 20
4245.282714814448
 30
0.0
 11
10809.73379724664
 21
4245.357754048067
 31
0.0
  0
LINE
  5
1264
330
1A
100
AcDbEntity
  8
部品1
100
AcDbLine
 10
10812.70336478207
 20
4248.721814232765
 30
0.0
 11
10811.49216019243
 21
4248.778841782194
 31
0.0
  0
LINE
  5
1265
330
1A
100
AcDbEntity
  8
部品1
100
AcDbLine
 10
10856.47986888534
 20
4306.727138889178
 30
0.0
 11
10853.54982314246
 21
4244.496078863298
 31
0.0
  0
LINE
  5
1266
330
1A
100
AcDbEntity
  8
部品1
100
AcDbLine
 10
10853.54982314246
 20
4244.496078863298
 30
0.0
 11
10812.59519294887
 21
4246.424359368246
 31
0.0
  0
LINE
  5
1267
330
1A
100
AcDbEntity
  8
部品1
100
AcDbLine
 10
10815.52523869175
 20
4308.655419394127
 30
0.0
 11
10812.59519294887
 21
4246.424359368246
 31
0.0
  0
LINE
  5
1268
330
1A
100
AcDbEntity
  8
部品1
100
AcDbLine
 10
11485.07986888535
 20
4277.130555555845
 30
0.0
 11
11482.14982314246
 21
4214.899495529964
 31
0.0
  0
LINE
  5
1269
330
1A
100
AcDbEntity
  8
部品1
100
AcDbLine
 10
11482.14982314246
 20
4214.899495529964
 30
0.0
 11
11441.19519294886
 21
4216.827776034912
 31
0.0
  0
LINE
  5
126A
330
1A
100
AcDbEntity
  8
部品1
100
AcDbLine
 10
11444.12523869175
 20
4279.058836060793
 30
0.0
 11
11441.19519294886
 21
4216.827776034912
 31
0.0
  0
ARC
  5
126B
330
1A
100
AcDbEntity
  8
部品1
100
AcDbCircle
 10
12062.32755088103
 20
4066.248528031899
 30
0.0
 40
120.0
100
AcDbArc
 50
0.0
 51
87.3043145064503
  0
LINE
  5
126C
330
1A
100
AcDbEntity
  8
部品1
100
AcDbLine
 10
12403.52755088103
 20
4170.316631481115
 30
0.0
 11
12405.92614370428
 21
4221.260195868265
 31
0.0
  0
ARC
  5
126D
330
1A
100
AcDbEntity
  8
部品1
100
AcDbCircle
 10
12355.32755088103
 20
4067.469728463051
 30
0.0
 40
105.0
100
AcDbArc
 50
87.30431450645077
 51
180.0
  0
LINE
  5
126E
330
1A
100
AcDbEntity
  8
部品1
100
AcDbLine
 10
12403.52755088103
 20
4170.316631481115
 30
0.0
 11
12360.26583022297
 21
4172.353537495431
 31
0.0
  0
CIRCLE
  5
126F
330
1A
100
AcDbEntity
  8
細線
100
AcDbCircle
 10
12216.32755088103
 20
4043.116631481116
 30
0.0
 40
8.0
  0
CIRCLE
  5
1270
330
1A
100
AcDbEntity
  8
細線
100
AcDbCircle
 10
12216.32755088103
 20
4128.116631481116
 30
0.0
 40
8.0
  0
LINE
  5
1271
330
1A
100
AcDbEntity
  8
部品1
100
AcDbLine
 10
12250.32755088103
 20
4013.116631481116
 30
0.0
 11
12182.32755088103
 21
4013.116631481115
 31
0.0
  0
LINE
  5
1272
330
1A
100
AcDbEntity
  8
部品1
100
AcDbLine
 10
12182.32755088103
 20
4066.248528031899
 30
0.0
 11
12182.32755088103
 21
4013.116631481114
 31
0.0
  0
LWPOLYLINE
  5
1273
330
1A
100
AcDbEntity
  8
細線
100
AcDbPolyline
 90
        6
 70
     1
 43
0.0
 10
12222.82755088103
 20
4046.869408230849
 10
12216.32755088103
 20
4050.62218498058
 10
12209.82755088103
 20
4046.869408230849
 10
12209.82755088103
 20
4039.363854731384
 10
12216.32755088103
 20
4035.611077981651
 10
12222.82755088103
 20
4039.363854731384
  0
CIRCLE
  5
1274
330
1A
100
AcDbEntity
  8
細線
100
AcDbCircle
 10
12216.32755088103
 20
4043.116631481116
 30
0.0
 40
6.0
  0
LWPOLYLINE
  5
1275
330
1A
100
AcDbEntity
  8
細線
100
AcDbPolyline
 90
        6
 70
     1
 43
0.0
 10
12222.82755088103
 20
4131.869408230848
 10
12216.32755088103
 20
4135.62218498058
 10
12209.82755088103
 20
4131.869408230848
 10
12209.82755088103
 20
4124.363854731384
 10
12216.32755088103
 20
4120.611077981652
 10
12222.82755088103
 20
4124.363854731384
  0
CIRCLE
  5
1276
330
1A
100
AcDbEntity
  8
細線
100
AcDbCircle
 10
12216.32755088103
 20
4128.116631481116
 30
0.0
 40
6.0
  0
LINE
  5
1277
330
1A
100
AcDbEntity
  8
部品1
100
AcDbLine
 10
12250.32755088103
 20
4067.469728463051
 30
0.0
 11
12250.32755088103
 21
4013.116631481116
 31
0.0
  0
LINE
  5
1278
330
1A
100
AcDbEntity
  8
部品1
100
AcDbLine
 10
12396.407521829
 20
4231.71944238011
 30
0.0
 11
12028.7853902161
 21
4249.028317743548
 31
0.0
  0
CIRCLE
  5
1279
330
1A
100
AcDbEntity
  8
細線
100
AcDbCircle
 10
12057.45883392151
 20
4220.147811756418
 30
0.0
 40
8.0
  0
LWPOLYLINE
  5
127A
330
1A
100
AcDbEntity
  8
細線
100
AcDbPolyline
 90
        6
 70
     1
 43
0.0
 10
12063.95883392151
 20
4223.90058850615
 10
12057.45883392151
 20
4227.653365255881
 10
12050.95883392151
 20
4223.90058850615
 10
12050.95883392151
 20
4216.395035006685
 10
12057.45883392151
 20
4212.642258256953
 10
12063.95883392151
 20
4216.395035006685
  0
CIRCLE
  5
127B
330
1A
100
AcDbEntity
  8
細線
100
AcDbCircle
 10
12057.45883392151
 20
4220.147811756418
 30
0.0
 40
6.0
  0
CIRCLE
  5
127C
330
1A
100
AcDbEntity
  8
細線
100
AcDbCircle
 10
12163.34153637325
 20
4215.162501182649
 30
0.0
 40
8.0
  0
LWPOLYLINE
  5
127D
330
1A
100
AcDbEntity
  8
細線
100
AcDbPolyline
 90
        6
 70
     1
 43
0.0
 10
12169.84153637325
 20
4218.915277932381
 10
12163.34153637325
 20
4222.668054682113
 10
12156.84153637325
 20
4218.915277932381
 10
12156.84153637325
 20
4211.409724432916
 10
12163.34153637325
 20
4207.656947683185
 10
12169.84153637325
 20
4211.409724432916
  0
CIRCLE
  5
127E
330
1A
100
AcDbEntity
  8
細線
100
AcDbCircle
 10
12163.34153637325
 20
4215.162501182649
 30
0.0
 40
6.0
  0
ARC
  5
127F
330
1A
100
AcDbEntity
  8
部品1
100
AcDbCircle
 10
12106.42790266082
 20
4199.822244252558
 30
0.0
 40
5.0
100
AcDbArc
 50
267.304314506449
 51
357.3043145064488
  0
ARC
  5
1280
330
1A
100
AcDbEntity
  8
部品1
100
AcDbCircle
 10
12075.46220666079
 20
4201.280212439226
 30
0.0
 40
5.0
100
AcDbArc
 50
177.3043145064509
 51
267.3043145064514
  0
ARC
  5
1281
330
1A
100
AcDbEntity
  8
部品1
100
AcDbCircle
 10
12028.31507789782
 20
4239.039383549988
 30
0.0
 40
10.0
100
AcDbArc
 50
87.30431450645099
 51
177.3043145064532
  0
LINE
  5
1282
330
1A
100
AcDbEntity
  8
部品1
100
AcDbLine
 10
12106.19274650168
 20
4194.827777155778
 30
0.0
 11
12075.22705050165
 21
4196.285745342446
 31
0.0
  0
LINE
  5
1283
330
1A
100
AcDbEntity
  8
部品1
100
AcDbLine
 10
12015.92755088103
 20
4188.566131481115
 30
0.0
 11
12018.32614370426
 21
4239.509695868267
 31
0.0
  0
LINE
  5
1284
330
1A
100
AcDbEntity
  8
部品1
100
AcDbLine
 10
12067.97129870039
 20
4186.115738354621
 30
0.0
 11
12015.92755088103
 21
4188.566131481114
 31
0.0
  0
LINE
  5
1285
330
1A
100
AcDbEntity
  8
部品1
100
AcDbLine
 10
12113.67986888535
 20
4247.533972222512
 30
0.0
 11
12111.4223697576
 21
4199.587088093418
 31
0.0
  0
LINE
  5
1286
330
1A
100
AcDbEntity
  8
部品1
100
AcDbLine
 10
12072.72523869175
 20
4249.46225272746
 30
0.0
 11
12070.46773956401
 21
4201.515368598367
 31
0.0
  0
CIRCLE
  5
1287
330
1A
100
AcDbEntity
  8
細線
100
AcDbCircle
 10
12269.22423882498
 20
4210.17719060888
 30
0.0
 40
8.0
  0
LWPOLYLINE
  5
1288
330
1A
100
AcDbEntity
  8
細線
100
AcDbPolyline
 90
        6
 70
     1
 43
0.0
 10
12275.72423882498
 20
4213.929967358613
 10
12269.22423882498
 20
4217.682744108345
 10
12262.72423882498
 20
4213.929967358613
 10
12262.72423882498
 20
4206.424413859148
 10
12269.22423882498
 20
4202.671637109416
 10
12275.72423882498
 20
4206.424413859148
  0
CIRCLE
  5
1289
330
1A
100
AcDbEntity
  8
細線
100
AcDbCircle
 10
12269.22423882498
 20
4210.17719060888
 30
0.0
 40
6.0
  0
CIRCLE
  5
128A
330
1A
100
AcDbEntity
  8
細線
100
AcDbCircle
 10
12375.10694127673
 20
4205.191880035112
 30
0.0
 40
6.0
  0
LWPOLYLINE
  5
128B
330
1A
100
AcDbEntity
  8
細線
100
AcDbPolyline
 90
        6
 70
     1
 43
0.0
 10
12381.60694127672
 20
4208.944656784844
 10
12375.10694127673
 20
4212.697433534577
 10
12368.60694127672
 20
4208.944656784844
 10
12368.60694127672
 20
4201.439103285379
 10
12375.10694127673
 20
4197.686326535648
 10
12381.60694127672
 20
4201.439103285379
  0
CIRCLE
  5
128C
330
1A
100
AcDbEntity
  8
細線
100
AcDbCircle
 10
12375.10694127673
 20
4205.191880035112
 30
0.0
 40
8.0
  0
ARC
  5
128D
330
1A
100
AcDbEntity
  8
部品1
100
AcDbCircle
 10
12395.93720951073
 20
4221.730508186549
 30
0.0
 40
10.0
100
AcDbArc
 50
357.3043145064243
 51
87.30431450645097
  0
DIMENSION
  5
128F
330
1A
100
AcDbEntity
  8
寸法
100
AcDbDimension
  2
*D33
 10
13489.7331280352
 20
4182.744797937545
 30
0.0
 11
13641.00436626226
 21
4237.818790513935
 31
0.0
 70
   161
 71
     5
 42
-1.0
  3
物置仕様図40
100
AcDbAlignedDimension
 13
12930.37633230062
 23
4324.208578153319
 33
0.0
 14
12924.9677406404
 24
4209.335834927377
 34
0.0
  0
LINE
  5
1291
330
1A
100
AcDbEntity
  8
部品1
100
AcDbLine
 10
12775.30225783784
 20
4161.295570478585
 30
0.0
 11
12787.7368059872
 21
4209.777435475458
 31
0.0
  0
LINE
  5
1292
330
1A
100
AcDbEntity
  8
部品1
100
AcDbLine
 10
12744.27765572405
 20
4217.843326425524
 30
0.0
 11
12741.31468811889
 21
4154.913041006095
 31
0.0
  0
LINE
  5
1293
330
1A
100
AcDbEntity
  8
部品1
100
AcDbLine
 10
12742.27986888535
 20
4217.937388889178
 30
0.0
 11
12739.34982314246
 21
4155.706328863298
 31
0.0
  0
LINE
  5
1294
330
1A
100
AcDbEntity
  8
部品1
100
AcDbLine
 10
12701.32523869175
 20
4219.865669394127
 30
0.0
 11
12698.39519294887
 21
4157.634609368246
 31
0.0
  0
ARC
  5
1295
330
1A
100
AcDbEntity
  8
部品1
100
AcDbCircle
 10
12765.61577786036
 20
4163.779942762645
 30
0.0
 40
10.0
100
AcDbArc
 50
267.3043145064503
 51
345.6149453310081
  0
LINE
  5
1296
330
1A
100
AcDbEntity
  8
部品1
100
AcDbLine
 10
12765.14546554208
 20
4153.791008569085
 30
0.0
 11
12741.31468811889
 21
4154.913041006093
 31
0.0
  0
LINE
  5
1297
330
1A
100
AcDbEntity
  8
部品1
100
AcDbLine
 10
12739.34982314246
 20
4155.706328863298
 30
0.0
 11
12698.39519294887
 21
4157.634609368246
 31
0.0
  0
LINE
  5
1298
330
1A
100
AcDbEntity
  8
部品1
100
AcDbLine
 10
12741.45578181437
 20
4157.909721264162
 30
0.0
 11
12739.45799497567
 21
4158.003783727817
 31
0.0
  0
ARC
  5
1299
330
1A
100
AcDbEntity
  8
部品1
100
AcDbCircle
 10
12782.89356599846
 20
4211.019621617488
 30
0.0
 40
5.0
100
AcDbArc
 50
345.6149453310092
 51
87.30431450645026
  0
LINE
  5
129A
330
1A
100
AcDbEntity
  8
部品1
100
AcDbLine
 10
12943.33910878918
 20
4323.598247426983
 30
0.0
 11
12933.93494345153
 21
4208.913629128353
 31
0.0
  0
ARC
  5
129B
330
1A
100
AcDbEntity
  8
部品1
100
AcDbCircle
 10
12952.27100405182
 20
4310.163302540257
 30
0.0
 40
13.0
100
AcDbArc
 50
355.3122209334827
 51
87.30431450645056
  0
ARC
  5
129C
330
1A
100
AcDbEntity
  8
部品1
100
AcDbCircle
 10
12944.99299783398
 20
4221.407380552622
 30
0.0
 40
13.0
100
AcDbArc
 50
267.3043145064505
 51
355.3122209334837
  0
LINE
  5
129D
330
1A
100
AcDbEntity
  8
部品1
100
AcDbLine
 10
12965.22751698825
 20
4309.100865470132
 30
0.0
 11
12957.94951077042
 21
4220.344943482497
 31
0.0
  0
LINE
  5
13B4
330
1A
100
AcDbEntity
  8
寸法
100
AcDbLine
 10
6923.537714463041
 20
5819.414270628261
 30
0.0
 11
6923.537714463041
 21
5519.414270628261
 31
0.0
  0
LINE
  5
13BF
330
1A
100
AcDbEntity
  8
寸法
100
AcDbLine
 10
6923.537714463041
 20
10619.41427062826
 30
0.0
 11
6923.537714463041
 21
10919.41427062826
 31
0.0
  0
LINE
  5
1404
330
1A
100
AcDbEntity
  8
仕様書枠
 48
50.0
100
AcDbLine
 10
128.8000000000011
 20
264.0
 30
0.0
 11
16296.0
 21
264.0
 31
0.0
  0
LINE
  5
1405
330
1A
100
AcDbEntity
  8
仕様書枠
 48
50.0
100
AcDbLine
 10
13096.0
 20
1064.0
 30
0.0
 11
14240.0
 21
1064.0
 31
0.0
  0
TEXT
  5
1406
330
1A
100
AcDbEntity
  8
文字
 62
     7
 48
50.0
100
AcDbText
 10
13198.2053442172
 20
492.5435242569014
 30
0.0
 40
100.0
  1
○間口奥行寸法は柱芯寸法です。    
  7
STYLE2
100
AcDbText
  0
TEXT
  5
1407
330
1A
100
AcDbEntity
  8
文字
 62
     7
 48
50.0
100
AcDbText
 10
13190.23669998441
 20
741.2740661031254
 30
0.0
 40
160.0
  1
機種名
  7
STYLE2
100
AcDbText
  0
TEXT
  5
1408
330
1A
100
AcDbEntity
  8
文字
 62
     7
 48
50.0
100
AcDbText
 10
13151.7790565769
 20
1159.09060742994
 30
0.0
 40
200.0
  1
外 形 図
  7
STYLE2
100
AcDbText
  0
LINE
  5
1409
330
1A
100
AcDbEntity
  8
文字
 62
     7
 48
50.0
100
AcDbLine
 10
13176.0
 20
664.0
 30
0.0
 11
16216.0
 21
664.0
 31
0.0
  0
LINE
  5
140A
330
1A
100
AcDbEntity
  8
仕様書枠
 48
50.0
100
AcDbLine
 10
13096.0
 20
1464.0
 30
0.0
 11
16296.0
 21
1464.0
 31
0.0
  0
LINE
  5
140B
330
1A
100
AcDbEntity
  8
仕様書枠
  6
Continuous
 48
50.0
100
AcDbLine
 10
13096.0
 20
1464.0
 30
0.0
 11
13096.0
 21
264.0
 31
0.0
  0
TEXT
  5
140C
330
1A
100
AcDbEntity
  8
文字
 62
     7
 48
50.0
100
AcDbText
 10
14840.42318972916
 20
1102.252727072919
 30
0.0
 40
100.0
  1
～一般型～
  7
STYLE2
100
AcDbText
  0
TEXT
  5
140D
330
1A
100
AcDbEntity
  8
文字
 62
     7
 48
50.0
100
AcDbText
 10
14633.87839483329
 20
747.8967129911413
 30
0.0
 40
160.0
  1
BF-２４A
  7
MSGOTHIC
100
AcDbText
  0
LINE
  5
140F
330
1A
100
AcDbEntity
  8
仕様書枠
  6
Continuous
 48
50.0
100
AcDbLine
 10
14240.0
 20
1464.0
 30
0.0
 11
14240.0
 21
1064.0
 31
0.0
  0
LINE
  5
1410
330
1A
100
AcDbEntity
  8
仕様書枠
 48
50.0
100
AcDbLine
 10
16296.0
 20
1464.0
 30
0.0
 11
16296.0
 21
264.0
 31
0.0
  0
MTEXT
  5
1411
330
1A
100
AcDbEntity
  8
0
100
AcDbMText
 10
12113.85383347236
 20
11207.9349056396
 30
0.0
 40
140.0
 41
212.9488506697089
 71
     1
 72
     5
  1

  7
MSMINCHO
 73
     1
 44
1.0
1001
ACAD
1000
MTEXTBEGIN
1070
    73
1070
     1
1070
    44
1040
1.0
1070
    74
1070
     0
1000
MTEXTEND
  0
LINE
  5
16EC
330
1A
100
AcDbEntity
  8
部品1
100
AcDbLine
 10
3783.084791275922
 20
4408.139502742389
 30
0.0
 11
3811.08479127592
 21
4408.139502742389
 31
0.0
  0
LINE
  5
16ED
330
1A
100
AcDbEntity
  8
部品1
100
AcDbLine
 10
3486.58479127592
 20
4426.139502742388
 30
0.0
 11
3486.58479127592
 21
4323.106384399625
 31
0.0
  0
LINE
  5
16EE
330
1A
100
AcDbEntity
  8
部品1
100
AcDbLine
 10
3521.08479127592
 20
4426.139502742388
 30
0.0
 11
3521.08479127592
 21
4323.106384399625
 31
0.0
  0
LINE
  5
16EF
330
1A
100
AcDbEntity
  8
部品1
100
AcDbLine
 10
3738.084791275918
 20
4426.139502742388
 30
0.0
 11
3738.08479127592
 21
4323.106384399625
 31
0.0
  0
LINE
  5
16F0
330
1A
100
AcDbEntity
  8
部品1
100
AcDbLine
 10
3783.08479127592
 20
4426.139502742388
 30
0.0
 11
3783.084791275922
 21
4323.106384399625
 31
0.0
  0
LINE
  5
16F2
330
1A
100
AcDbEntity
  8
部品1
100
AcDbLine
 10
3473.08479127592
 20
4408.139502742388
 30
0.0
 11
3486.58479127592
 21
4408.139502742389
 31
0.0
  0
LINE
  5
16F3
330
1A
100
AcDbEntity
  8
部品1
100
AcDbLine
 10
3521.08479127592
 20
4408.139502742389
 30
0.0
 11
3738.08479127592
 21
4408.139502742389
 31
0.0
  0
LINE
  5
16F4
330
1A
100
AcDbEntity
  8
部品1
100
AcDbLine
 10
3521.08479127592
 20
4426.139502742386
 30
0.0
 11
3486.58479127592
 21
4426.139502742386
 31
0.0
  0
LINE
  5
16F5
330
1A
100
AcDbEntity
  8
部品1
100
AcDbLine
 10
3783.08479127592
 20
4426.139502742385
 30
0.0
 11
3738.084791275918
 21
4426.139502742386
 31
0.0
  0
LINE
  5
16F6
330
1A
100
AcDbEntity
  8
部品1
100
AcDbLine
 10
3811.08479127592
 20
4426.139502742388
 30
0.0
 11
3811.08479127592
 21
4323.106384399625
 31
0.0
  0
LINE
  5
16F7
330
1A
100
AcDbEntity
  8
部品1
100
AcDbLine
 10
3856.08479127592
 20
4426.139502742386
 30
0.0
 11
3856.08479127592
 21
4323.106384399625
 31
0.0
  0
LINE
  5
16F8
330
1A
100
AcDbEntity
  8
部品1
100
AcDbLine
 10
3856.08479127592
 20
4426.139502742385
 30
0.0
 11
3811.08479127592
 21
4426.139502742385
 31
0.0
  0
LINE
  5
16F9
330
1A
100
AcDbEntity
  8
部品1
100
AcDbLine
 10
3856.08479127592
 20
4408.139502742388
 30
0.0
 11
4066.58479127592
 21
4408.139502742388
 31
0.0
  0
LINE
  5
16FA
330
1A
100
AcDbEntity
  8
部品1
100
AcDbLine
 10
4436.084791275919
 20
4408.139502742389
 30
0.0
 11
4646.58479127592
 21
4408.139502742389
 31
0.0
  0
LINE
  5
16FC
330
1A
100
AcDbEntity
  8
部品1
100
AcDbLine
 10
4066.58479127592
 20
4426.139502742386
 30
0.0
 11
4066.584791275921
 21
4323.106384399625
 31
0.0
  0
LINE
  5
16FD
330
1A
100
AcDbEntity
  8
部品1
100
AcDbLine
 10
4101.08479127592
 20
4426.139502742386
 30
0.0
 11
4101.08479127592
 21
4323.106384399625
 31
0.0
  0
LINE
  5
16FE
330
1A
100
AcDbEntity
  8
部品1
100
AcDbLine
 10
4318.08479127592
 20
4426.139502742386
 30
0.0
 11
4318.08479127592
 21
4323.106384399625
 31
0.0
  0
LINE
  5
16FF
330
1A
100
AcDbEntity
  8
部品1
100
AcDbLine
 10
4363.08479127592
 20
4426.139502742386
 30
0.0
 11
4363.08479127592
 21
4323.106384399625
 31
0.0
  0
LINE
  5
1700
330
1A
100
AcDbEntity
  8
部品1
100
AcDbLine
 10
4391.08479127592
 20
4426.139502742388
 30
0.0
 11
4391.08479127592
 21
4323.106384399625
 31
0.0
  0
LINE
  5
1701
330
1A
100
AcDbEntity
  8
部品1
100
AcDbLine
 10
4436.084791275919
 20
4426.139502742388
 30
0.0
 11
4436.084791275919
 21
4323.106384399625
 31
0.0
  0
LINE
  5
1702
330
1A
100
AcDbEntity
  8
部品1
100
AcDbLine
 10
4101.08479127592
 20
4408.139502742388
 30
0.0
 11
4318.08479127592
 21
4408.139502742388
 31
0.0
  0
LINE
  5
1703
330
1A
100
AcDbEntity
  8
部品1
100
AcDbLine
 10
4101.08479127592
 20
4426.139502742384
 30
0.0
 11
4066.58479127592
 21
4426.139502742385
 31
0.0
  0
LINE
  5
1704
330
1A
100
AcDbEntity
  8
部品1
100
AcDbLine
 10
4436.084791275919
 20
4426.139502742384
 30
0.0
 11
4391.08479127592
 21
4426.139502742385
 31
0.0
  0
LINE
  5
1705
330
1A
100
AcDbEntity
  8
部品1
100
AcDbLine
 10
4363.08479127592
 20
4426.139502742384
 30
0.0
 11
4318.08479127592
 21
4426.139502742384
 31
0.0
  0
LINE
  5
1706
330
1A
100
AcDbEntity
  8
部品1
100
AcDbLine
 10
4363.08479127592
 20
4408.139502742388
 30
0.0
 11
4391.08479127592
 21
4408.139502742389
 31
0.0
  0
LINE
  5
1707
330
1A
100
AcDbEntity
  8
部品1
100
AcDbLine
 10
4646.58479127592
 20
4426.139502742386
 30
0.0
 11
4646.58479127592
 21
4323.106384399622
 31
0.0
  0
LINE
  5
1708
330
1A
100
AcDbEntity
  8
部品1
100
AcDbLine
 10
4681.08479127592
 20
4426.139502742386
 30
0.0
 11
4681.08479127592
 21
4323.106384399625
 31
0.0
  0
LINE
  5
1709
330
1A
100
AcDbEntity
  8
部品1
100
AcDbLine
 10
4681.08479127592
 20
4426.139502742385
 30
0.0
 11
4646.58479127592
 21
4426.139502742385
 31
0.0
  0
LINE
  5
170A
330
1A
100
AcDbEntity
  8
部品1
100
AcDbLine
 10
4681.08479127592
 20
4408.139502742389
 30
0.0
 11
4818.08479127592
 21
4408.139502742389
 31
0.0
  0
LINE
  5
170B
330
1A
100
AcDbEntity
  8
部品1
100
AcDbLine
 10
4863.08479127592
 20
4426.139502742386
 30
0.0
 11
4863.08479127592
 21
4323.106384399626
 31
0.0
  0
LINE
  5
170C
330
1A
100
AcDbEntity
  8
部品1
100
AcDbLine
 10
4818.08479127592
 20
4426.139502742386
 30
0.0
 11
4818.08479127592
 21
4323.106384399626
 31
0.0
  0
LINE
  5
170D
330
1A
100
AcDbEntity
  8
部品1
100
AcDbLine
 10
4891.08479127592
 20
4426.139502742386
 30
0.0
 11
4891.08479127592
 21
4323.106384399626
 31
0.0
  0
LINE
  5
170E
330
1A
100
AcDbEntity
  8
部品1
100
AcDbLine
 10
4936.084791275924
 20
4426.139502742386
 30
0.0
 11
4936.084791275924
 21
4323.106384399626
 31
0.0
  0
LINE
  5
1711
330
1A
100
AcDbEntity
  8
部品1
100
AcDbLine
 10
4936.084791275924
 20
4408.139502742389
 30
0.0
 11
5055.08479127592
 21
4408.139502742389
 31
0.0
  0
LINE
  5
1712
330
1A
100
AcDbEntity
  8
部品1
100
AcDbLine
 10
4936.084791275924
 20
4426.139502742384
 30
0.0
 11
4891.08479127592
 21
4426.139502742384
 31
0.0
  0
LINE
  5
1713
330
1A
100
AcDbEntity
  8
部品1
100
AcDbLine
 10
4863.08479127592
 20
4426.139502742384
 30
0.0
 11
4818.08479127592
 21
4426.139502742385
 31
0.0
  0
LINE
  5
1714
330
1A
100
AcDbEntity
  8
部品1
100
AcDbLine
 10
4863.08479127592
 20
4408.139502742389
 30
0.0
 11
4891.08479127592
 21
4408.139502742389
 31
0.0
  0
LINE
  5
1716
330
1A
100
AcDbEntity
  8
部品1
100
AcDbLine
 10
5055.084791275917
 20
4426.139502742382
 30
0.0
 11
5055.084791275918
 21
4323.106384399625
 31
0.0
  0
LINE
  5
1717
330
1A
100
AcDbEntity
  8
部品1
100
AcDbLine
 10
5089.58479127592
 20
4426.139502742384
 30
0.0
 11
5089.584791275919
 21
4323.106384399625
 31
0.0
  0
LINE
  5
1718
330
1A
100
AcDbEntity
  8
部品1
100
AcDbLine
 10
5300.08479127592
 20
4426.139502742384
 30
0.0
 11
5300.084791275921
 21
4323.106384399625
 31
0.0
  0
LINE
  5
1719
330
1A
100
AcDbEntity
  8
部品1
100
AcDbLine
 10
5345.084791275921
 20
4426.139502742384
 30
0.0
 11
5345.08479127592
 21
4323.106384399625
 31
0.0
  0
LINE
  5
171A
330
1A
100
AcDbEntity
  8
部品1
100
AcDbLine
 10
5373.08479127592
 20
4426.139502742385
 30
0.0
 11
5373.084791275921
 21
4323.106384399625
 31
0.0
  0
LINE
  5
171B
330
1A
100
AcDbEntity
  8
部品1
100
AcDbLine
 10
5419.26245233643
 20
4426.139502742385
 30
0.0
 11
5419.262452336429
 21
4323.106384399625
 31
0.0
  0
LINE
  5
171C
330
1A
100
AcDbEntity
  8
部品1
100
AcDbLine
 10
5635.084791275922
 20
4426.139502742384
 30
0.0
 11
5635.084791275922
 21
4323.106384399625
 31
0.0
  0
LINE
  5
171D
330
1A
100
AcDbEntity
  8
部品1
100
AcDbLine
 10
5669.584791275919
 20
4426.139502742384
 30
0.0
 11
5669.584791275921
 21
4323.106384399625
 31
0.0
  0
LINE
  5
171E
330
1A
100
AcDbEntity
  8
部品1
100
AcDbLine
 10
5880.084791275921
 20
4426.139502742384
 30
0.0
 11
5880.084791275921
 21
4323.106384399625
 31
0.0
  0
LINE
  5
171F
330
1A
100
AcDbEntity
  8
部品1
100
AcDbLine
 10
5925.084791275921
 20
4426.139502742384
 30
0.0
 11
5925.084791275919
 21
4323.106384399625
 31
0.0
  0
LINE
  5
1720
330
1A
100
AcDbEntity
  8
部品1
100
AcDbLine
 10
5953.084791275919
 20
4426.139502742384
 30
0.0
 11
5953.084791275919
 21
4323.106384399625
 31
0.0
  0
LINE
  5
1721
330
1A
100
AcDbEntity
  8
部品1
100
AcDbLine
 10
5998.08479127592
 20
4426.139502742384
 30
0.0
 11
5998.08479127592
 21
4323.106384399625
 31
0.0
  0
LINE
  5
1722
330
1A
100
AcDbEntity
  8
部品1
100
AcDbLine
 10
6215.084791275922
 20
4426.139502742384
 30
0.0
 11
6215.084791275922
 21
4323.106384399625
 31
0.0
  0
LINE
  5
1723
330
1A
100
AcDbEntity
  8
部品1
100
AcDbLine
 10
6249.58479127592
 20
4426.139502742384
 30
0.0
 11
6249.584791275919
 21
4323.106384399625
 31
0.0
  0
LINE
  5
1725
330
1A
100
AcDbEntity
  8
部品1
100
AcDbLine
 10
5089.58479127592
 20
4408.139502742389
 30
0.0
 11
5300.08479127592
 21
4408.139502742388
 31
0.0
  0
LINE
  5
1726
330
1A
100
AcDbEntity
  8
部品1
100
AcDbLine
 10
5345.084791275919
 20
4408.139502742388
 30
0.0
 11
5373.08479127592
 21
4408.139502742388
 31
0.0
  0
LINE
  5
1727
330
1A
100
AcDbEntity
  8
部品1
100
AcDbLine
 10
5419.262452336432
 20
4408.139502742388
 30
0.0
 11
5635.084791275922
 21
4408.139502742388
 31
0.0
  0
LINE
  5
1728
330
1A
100
AcDbEntity
  8
部品1
100
AcDbLine
 10
5669.584791275921
 20
4408.139502742388
 30
0.0
 11
5880.084791275921
 21
4408.139502742388
 31
0.0
  0
LINE
  5
1729
330
1A
100
AcDbEntity
  8
部品1
100
AcDbLine
 10
5925.08479127592
 20
4408.139502742388
 30
0.0
 11
5953.084791275921
 21
4408.139502742388
 31
0.0
  0
LINE
  5
172A
330
1A
100
AcDbEntity
  8
部品1
100
AcDbLine
 10
5998.08479127592
 20
4408.139502742388
 30
0.0
 11
6215.084791275921
 21
4408.139502742388
 31
0.0
  0
LINE
  5
172B
330
1A
100
AcDbEntity
  8
部品1
100
AcDbLine
 10
6249.58479127592
 20
4408.139502742388
 30
0.0
 11
6263.08479127592
 21
4408.139502742388
 31
0.0
  0
LINE
  5
172C
330
1A
100
AcDbEntity
  8
部品1
100
AcDbLine
 10
5055.084791275917
 20
4426.139502742384
 30
0.0
 11
5089.58479127592
 21
4426.139502742384
 31
0.0
  0
LINE
  5
172D
330
1A
100
AcDbEntity
  8
部品1
100
AcDbLine
 10
5300.084791275921
 20
4426.139502742384
 30
0.0
 11
5345.084791275921
 21
4426.139502742385
 31
0.0
  0
LINE
  5
172E
330
1A
100
AcDbEntity
  8
部品1
100
AcDbLine
 10
5373.084791275921
 20
4426.139502742385
 30
0.0
 11
5419.262452336429
 21
4426.139502742384
 31
0.0
  0
LINE
  5
172F
330
1A
100
AcDbEntity
  8
部品1
100
AcDbLine
 10
5635.084791275922
 20
4426.139502742385
 30
0.0
 11
5669.584791275921
 21
4426.139502742384
 31
0.0
  0
LINE
  5
1730
330
1A
100
AcDbEntity
  8
部品1
100
AcDbLine
 10
6215.084791275923
 20
4426.139502742385
 30
0.0
 11
6249.584791275918
 21
4426.139502742384
 31
0.0
  0
LINE
  5
1731
330
1A
100
AcDbEntity
  8
部品1
100
AcDbLine
 10
5953.084791275919
 20
4426.139502742384
 30
0.0
 11
5998.084791275921
 21
4426.139502742384
 31
0.0
  0
LINE
  5
1732
330
1A
100
AcDbEntity
  8
部品1
100
AcDbLine
 10
5880.084791275922
 20
4426.139502742384
 30
0.0
 11
5925.084791275921
 21
4426.139502742384
 31
0.0
  0
TEXT
  5
1750
330
1A
100
AcDbEntity
  8
仕様書枠
 62
     7
 48
50.0
100
AcDbText
 10
14507.17944936723
 20
1295.557706291228
 30
0.0
 40
100.0
  1
NO.01     <縮尺> S=1/40
  7
STYLE2
100
AcDbText
  0
TEXT
  5
181B
330
1A
100
AcDbEntity
  8
文字
 62
     7
 48
50.0
100
AcDbText
 10
14477.03303611237
 20
8862.60155826481
 30
0.0
 40
108.152
  1
Y10            1.0
  7
STYLE1
100
AcDbText
  0
TEXT
  5
181C
330
1A
100
AcDbEntity
  8
文字
 62
     7
 48
50.0
100
AcDbText
 10
14498.47957556622
 20
9046.45995826481
 30
0.0
 40
108.152
  1
F12            1.2
  7
STYLE1
100
AcDbText
  0
TEXT
  5
181D
330
1A
100
AcDbEntity
  8
文字
 62
     7
 48
50.0
100
AcDbText
 10
12978.57180156777
 20
9598.035158264812
 30
0.0
 40
108.152
  1
妻板
  7
STYLE1
100
AcDbText
  0
LINE
  5
181E
330
1A
100
AcDbEntity
  8
部品1
100
AcDbLine
 10
15887.75728016621
 20
9381.283683816642
 30
0.0
 11
12487.7572801662
 21
9381.283683816642
 31
0.0
  0
TEXT
  5
181F
330
1A
100
AcDbEntity
  8
文字
 62
     7
 48
50.0
100
AcDbText
 10
12596.48444127192
 20
8678.743158264808
 30
0.0
 40
108.152
  1
PZ→一般構造用角形鋼管(JIS G 3466)
 41
0.9
  7
STYLE1
100
AcDbText
  0
TEXT
  5
1820
330
1A
100
AcDbEntity
  8
文字
 62
     7
 48
50.0
100
AcDbText
 10
12596.4844412717
 20
8311.026358264806
 30
0.0
 40
108.152
  1
Y10→溶融亜鉛-5％アルミニウム合金めっき鋼板(JIS G 3317)
 41
0.9
  7
STYLE1
100
AcDbText
  0
TEXT
  5
1821
330
1A
100
AcDbEntity
  8
文字
 62
     7
 48
50.0
100
AcDbText
 10
12596.48444127171
 20
8494.884758264808
 30
0.0
 40
108.152
  1
F12→溶融亜鉛めっき鋼板(JIS G 3302)
  7
STYLE1
100
AcDbText
  0
TEXT
  5
1822
330
1A
100
AcDbEntity
  8
文字
 62
     7
 48
50.0
100
AcDbText
 10
12978.57180156777
 20
8862.601558264815
 30
0.0
 40
108.152
  1
棟板
  7
STYLE1
100
AcDbText
  0
TEXT
  5
1823
330
1A
100
AcDbEntity
  8
文字
 62
     7
 48
50.0
100
AcDbText
 10
12978.57180156777
 20
9046.45995826481
 30
0.0
 40
108.152
  1
車止メ棒
  7
STYLE1
100
AcDbText
  0
TEXT
  5
1824
330
1A
100
AcDbEntity
  8
文字
 62
     7
 48
50.0
100
AcDbText
 10
12978.57180156777
 20
9230.318358264808
 30
0.0
 40
108.152
  1
プレート
  7
STYLE1
100
AcDbText
  0
TEXT
  5
1825
330
1A
100
AcDbEntity
  8
文字
 62
     7
 48
50.0
100
AcDbText
 10
12978.57180156777
 20
9781.893558264812
 30
0.0
 40
108.152
  1
屋根パネル
  7
STYLE1
100
AcDbText
  0
TEXT
  5
1826
330
1A
100
AcDbEntity
  8
文字
 62
     7
 48
50.0
100
AcDbText
 10
12978.57180156778
 20
9965.75195826481
 30
0.0
 40
108.152
  1
腰パネル
  7
STYLE1
100
AcDbText
  0
LINE
  5
1827
330
1A
100
AcDbEntity
  8
部品1
100
AcDbLine
 10
15887.75728016621
 20
9197.425283816643
 30
0.0
 11
12487.75728016621
 21
9197.425283816645
 31
0.0
  0
LINE
  5
1828
330
1A
100
AcDbEntity
  8
部品1
100
AcDbLine
 10
15887.75728016621
 20
10852.15088381664
 30
0.0
 11
12487.7572801662
 21
10852.15088381664
 31
0.0
  0
LINE
  5
1829
330
1A
100
AcDbEntity
  8
部品1
100
AcDbLine
 10
15887.75728016621
 20
8278.133283816641
 30
0.0
 11
15887.75728016621
 21
10852.15088381664
 31
0.0
  0
LINE
  5
182A
330
1A
100
AcDbEntity
  8
部品1
100
AcDbLine
 10
14241.68384016621
 20
10852.15088381664
 30
0.0
 11
14241.68384016621
 21
8829.708483816636
 31
0.0
  0
LINE
  5
182B
330
1A
100
AcDbEntity
  8
部品1
100
AcDbLine
 10
12878.07892053977
 20
10852.15088381664
 30
0.0
 11
12878.07892053979
 21
8829.708483816636
 31
0.0
  0
LINE
  5
182C
330
1A
100
AcDbEntity
  8
部品1
100
AcDbLine
 10
15887.75728016621
 20
10668.29248381664
 30
0.0
 11
12487.7572801662
 21
10668.29248381664
 31
0.0
  0
LINE
  5
182D
330
1A
100
AcDbEntity
  8
部品1
100
AcDbLine
 10
15887.75728016621
 20
10300.57568381664
 30
0.0
 11
12487.7572801662
 21
10300.57568381664
 31
0.0
  0
LINE
  5
182E
330
1A
100
AcDbEntity
  8
部品1
100
AcDbLine
 10
15887.75728016621
 20
10484.43408381664
 30
0.0
 11
12487.7572801662
 21
10484.43408381664
 31
0.0
  0
LINE
  5
182F
330
1A
100
AcDbEntity
  8
部品1
100
AcDbLine
 10
15887.75728016621
 20
9932.85888381664
 30
0.0
 11
12487.75728016621
 21
9932.85888381664
 31
0.0
  0
LINE
  5
1830
330
1A
100
AcDbEntity
  8
部品1
100
AcDbLine
 10
15887.75728016621
 20
9749.000483816644
 30
0.0
 11
12487.75728016621
 21
9749.000483816644
 31
0.0
  0
LINE
  5
1831
330
1A
100
AcDbEntity
  8
部品1
100
AcDbLine
 10
15887.75728016621
 20
10116.71728381664
 30
0.0
 11
12487.75728016621
 21
10116.71728381664
 31
0.0
  0
TEXT
  5
1832
330
1A
100
AcDbEntity
  8
文字
 62
     7
 48
50.0
100
AcDbText
 10
12561.43710327428
 20
10701.1855582648
 30
0.0
 40
108.152
  1
品番
  7
STYLE1
100
AcDbText
  0
TEXT
  5
1833
330
1A
100
AcDbEntity
  8
文字
 62
     7
 48
50.0
100
AcDbText
 10
12641.21557407365
 20
10517.32715826481
 30
0.0
 40
108.152
  1
1
  7
STYLE1
100
AcDbText
  0
TEXT
  5
1834
330
1A
100
AcDbEntity
  8
文字
 62
     7
 48
50.0
100
AcDbText
 10
12641.21557407365
 20
10333.46875826481
 30
0.0
 40
108.152
  1
2
  7
STYLE1
100
AcDbText
  0
TEXT
  5
1835
330
1A
100
AcDbEntity
  8
文字
 62
     7
 48
50.0
100
AcDbText
 10
12641.21557407365
 20
9965.75195826481
 30
0.0
 40
108.152
  1
4
  7
STYLE1
100
AcDbText
  0
TEXT
  5
1836
330
1A
100
AcDbEntity
  8
文字
 62
     7
 48
50.0
100
AcDbText
 10
12641.21557407365
 20
10149.61035826481
 30
0.0
 40
108.152
  1
3
  7
STYLE1
100
AcDbText
  0
TEXT
  5
1837
330
1A
100
AcDbEntity
  8
文字
 62
     7
 48
50.0
100
AcDbText
 10
13165.40508749651
 20
10701.1855582648
 30
0.0
 40
108.152
  1
部　　品　　名
  7
STYLE1
100
AcDbText
  0
TEXT
  5
1838
330
1A
100
AcDbEntity
  8
文字
 62
     7
 48
50.0
100
AcDbText
 10
14322.36279457676
 20
10701.1855582648
 30
0.0
 40
108.152
  1
材料（材質）　　単位mm
  7
STYLE1
100
AcDbText
  0
TEXT
  5
1839
330
1A
100
AcDbEntity
  8
文字
 62
     7
 48
50.0
100
AcDbText
 10
12978.57180156777
 20
10517.32715826481
 30
0.0
 40
108.152
  1
柱
  7
STYLE1
100
AcDbText
  0
TEXT
  5
183A
330
1A
100
AcDbEntity
  8
文字
 62
     7
 48
50.0
100
AcDbText
 10
12978.57180156777
 20
10333.46875826481
 30
0.0
 40
108.152
  1
梁
  7
STYLE1
100
AcDbText
  0
TEXT
  5
183B
330
1A
100
AcDbEntity
  8
文字
 62
     7
 48
50.0
100
AcDbText
 10
12978.57180156777
 20
9414.176758264812
 30
0.0
 40
108.152
  1
鼻隠シ
  7
STYLE1
100
AcDbText
  0
TEXT
  5
183C
330
1A
100
AcDbEntity
  8
文字
 62
     7
 48
50.0
100
AcDbText
 10
12641.21557407365
 20
9781.893558264806
 30
0.0
 40
108.152
  1
5
  7
STYLE1
100
AcDbText
  0
TEXT
  5
183D
330
1A
100
AcDbEntity
  8
文字
 62
     7
 48
50.0
100
AcDbText
 10
12616.97562985737
 20
8862.601558264806
 30
0.0
 40
108.152
  1
10
  7
STYLE1
100
AcDbText
  0
TEXT
  5
183E
330
1A
100
AcDbEntity
  8
文字
 62
     7
 48
50.0
100
AcDbText
 10
12641.21557407364
 20
9230.318358264808
 30
0.0
 40
108.152
  1
8
  7
STYLE1
100
AcDbText
  0
TEXT
  5
183F
330
1A
100
AcDbEntity
  8
文字
 62
     7
 48
50.0
100
AcDbText
 10
12641.21557407364
 20
9046.459958264808
 30
0.0
 40
108.152
  1
9
  7
STYLE1
100
AcDbText
  0
TEXT
  5
1840
330
1A
100
AcDbEntity
  8
文字
 62
     7
 48
50.0
100
AcDbText
 10
12641.21557407364
 20
9414.17675826481
 30
0.0
 40
108.152
  1
7
  7
STYLE1
100
AcDbText
  0
TEXT
  5
1841
330
1A
100
AcDbEntity
  8
文字
 62
     7
 48
50.0
100
AcDbText
 10
12641.21557407365
 20
9598.03515826481
 30
0.0
 40
108.152
  1
6
  7
STYLE1
100
AcDbText
  0
LINE
  5
1842
330
1A
100
AcDbEntity
  8
部品1
100
AcDbLine
 10
15887.75728016621
 20
8829.708483816636
 30
0.0
 11
12487.7572801662
 21
8829.708483816636
 31
0.0
  0
LINE
  5
1843
330
1A
100
AcDbEntity
  8
部品1
100
AcDbLine
 10
15887.75728016621
 20
8461.991683816641
 30
0.0
 11
12487.75728016621
 21
8461.991683816643
 31
0.0
  0
LINE
  5
1844
330
1A
100
AcDbEntity
  8
部品1
100
AcDbLine
 10
15887.75728016621
 20
8645.85008381664
 30
0.0
 11
12487.75728016621
 21
8645.85008381664
 31
0.0
  0
LINE
  5
1845
330
1A
100
AcDbEntity
  8
部品1
100
AcDbLine
 10
15887.75728016621
 20
9565.142083816642
 30
0.0
 11
12487.7572801662
 21
9565.142083816642
 31
0.0
  0
LINE
  5
1846
330
1A
100
AcDbEntity
  8
部品1
100
AcDbLine
 10
15887.75728016621
 20
9013.566883816642
 30
0.0
 11
12487.75728016621
 21
9013.566883816642
 31
0.0
  0
LINE
  5
1847
330
1A
100
AcDbEntity
  8
部品1
100
AcDbLine
 10
15887.75728016621
 20
8278.133283816641
 30
0.0
 11
12487.75728016621
 21
8278.133283816643
 31
0.0
  0
TEXT
  5
1848
330
1A
100
AcDbEntity
  8
文字
 62
     7
 48
50.0
100
AcDbText
 10
14498.47957556621
 20
10517.32715826481
 30
0.0
 40
108.152
  1
PZ            2.3
  7
STYLE1
100
AcDbText
  0
LINE
  5
1849
330
1A
100
AcDbEntity
  8
部品1
100
AcDbLine
 10
12487.75728016621
 20
10852.15088381664
 30
0.0
 11
12487.75728016621
 21
8278.133283816643
 31
0.0
  0
TEXT
  5
184A
330
1A
100
AcDbEntity
  8
文字
 62
     7
 48
50.0
100
AcDbText
 10
14498.47957556622
 20
10149.61035826481
 30
0.0
 40
108.152
  1
F12            1.6
  7
STYLE1
100
AcDbText
  0
TEXT
  5
184B
330
1A
100
AcDbEntity
  8
文字
 62
     7
 48
50.0
100
AcDbText
 10
12978.57180156777
 20
10149.61035826481
 30
0.0
 40
108.152
  1
母屋
  7
STYLE1
100
AcDbText
  0
TEXT
  5
184C
330
1A
100
AcDbEntity
  8
文字
 62
     7
 48
50.0
100
AcDbText
 10
14498.4795755662
 20
10333.46875826481
 30
0.0
 40
108.152
  1
PZ            2.3
  7
STYLE1
100
AcDbText
  0
TEXT
  5
184D
330
1A
100
AcDbEntity
  8
文字
 62
     7
 48
50.0
100
AcDbText
 10
14477.03303611237
 20
9965.75195826481
 30
0.0
 40
108.152
  1
Y10            0.6
  7
STYLE1
100
AcDbText
  0
TEXT
  5
184E
330
1A
100
AcDbEntity
  8
文字
 62
     7
 48
50.0
100
AcDbText
 10
14477.03303611237
 20
9781.893558264812
 30
0.0
 40
108.152
  1
Y10            0.5
  7
STYLE1
100
AcDbText
  0
TEXT
  5
184F
330
1A
100
AcDbEntity
  8
文字
 62
     7
 48
50.0
100
AcDbText
 10
14477.03303611237
 20
9598.035158264812
 30
0.0
 40
108.152
  1
Y10            0.7
  7
STYLE1
100
AcDbText
  0
TEXT
  5
1850
330
1A
100
AcDbEntity
  8
文字
 62
     7
 48
50.0
100
AcDbText
 10
14477.03303611237
 20
9414.176758264812
 30
0.0
 40
108.152
  1
Y10            0.7
  7
STYLE1
100
AcDbText
  0
TEXT
  5
1851
330
1A
100
AcDbEntity
  8
文字
 62
     7
 48
50.0
100
AcDbText
 10
14498.47957556621
 20
9230.318358264808
 30
0.0
 40
108.152
  1
F12            2.3
  7
STYLE1
100
AcDbText
  0
TEXT
  5
186E
330
1A
100
AcDbEntity
  8
部品1
 48
50.0
100
AcDbText
 10
2748.763929556933
 20
2229.907175375487
 30
0.0
 40
100.0
  1
▽G.L
  7
STYLE2
100
AcDbText
  0
LINE
  5
1886
330
1A
100
AcDbEntity
  8
点線
 48
10.0
100
AcDbLine
 10
3578.084791275919
 20
1935.515874945157
 30
0.0
 11
3648.08479127592
 21
1935.515874945157
 31
0.0
  0
LINE
  5
1887
330
1A
100
AcDbEntity
  8
点線
 48
10.0
100
AcDbLine
 10
3708.084791275921
 20
1935.515874945159
 30
0.0
 11
3778.08479127592
 21
1935.515874945159
 31
0.0
  0
LINE
  5
1888
330
1A
100
AcDbEntity
  8
点線
 48
10.0
100
AcDbLine
 10
3708.084791275921
 20
1945.515874945159
 30
0.0
 11
3778.08479127592
 21
1945.515874945159
 31
0.0
  0
LINE
  5
1889
330
1A
100
AcDbEntity
  8
点線
 48
10.0
100
AcDbLine
 10
3578.084791275919
 20
1945.515874945157
 30
0.0
 11
3648.08479127592
 21
1945.515874945157
 31
0.0
  0
LINE
  5
188A
330
1A
100
AcDbEntity
  8
点線
 48
10.0
100
AcDbLine
 10
3778.08479127592
 20
1945.515874945159
 30
0.0
 11
3778.08479127592
 21
1935.515874945158
 31
0.0
  0
LINE
  5
188B
330
1A
100
AcDbEntity
  8
点線
 48
10.0
100
AcDbLine
 10
3578.084791275919
 20
1945.515874945157
 30
0.0
 11
3578.084791275919
 21
1935.515874945157
 31
0.0
  0
LINE
  5
189B
330
1A
100
AcDbEntity
  8
点線
 48
10.0
100
AcDbLine
 10
5958.084791275918
 20
1945.515874945157
 30
0.0
 11
5958.084791275918
 21
1935.515874945157
 31
0.0
  0
LINE
  5
189C
330
1A
100
AcDbEntity
  8
点線
 48
10.0
100
AcDbLine
 10
6158.08479127592
 20
1945.515874945159
 30
0.0
 11
6158.08479127592
 21
1935.515874945158
 31
0.0
  0
LINE
  5
189D
330
1A
100
AcDbEntity
  8
点線
 48
10.0
100
AcDbLine
 10
5958.084791275918
 20
1945.515874945157
 30
0.0
 11
6028.08479127592
 21
1945.515874945157
 31
0.0
  0
LINE
  5
189E
330
1A
100
AcDbEntity
  8
点線
 48
10.0
100
AcDbLine
 10
6088.08479127592
 20
1945.515874945159
 30
0.0
 11
6158.08479127592
 21
1945.515874945159
 31
0.0
  0
LINE
  5
189F
330
1A
100
AcDbEntity
  8
点線
 48
10.0
100
AcDbLine
 10
6088.08479127592
 20
1935.515874945159
 30
0.0
 11
6158.08479127592
 21
1935.515874945159
 31
0.0
  0
LINE
  5
18A0
330
1A
100
AcDbEntity
  8
点線
 48
10.0
100
AcDbLine
 10
5958.084791275918
 20
1935.515874945157
 30
0.0
 11
6028.08479127592
 21
1935.515874945157
 31
0.0
  0
LINE
  5
1919
330
1A
100
AcDbEntity
  8
点線
 48
6.0
100
AcDbLine
 10
3458.08479127592
 20
10424.91427062826
 30
0.0
 11
3458.084791275921
 21
10359.91427062826
 31
0.0
  0
LINE
  5
191B
330
1A
100
AcDbEntity
  8
点線
 48
6.0
100
AcDbLine
 10
3498.08479127592
 20
7964.714270628265
 30
0.0
 11
3458.08479127592
 21
7964.714270628265
 31
0.0
  0
LINE
  5
1922
330
1A
100
AcDbEntity
  8
点線
 48
6.0
100
AcDbLine
 10
3498.08479127592
 20
7919.714270628265
 30
0.0
 11
3458.08479127592
 21
7919.714270628265
 31
0.0
  0
LINE
  5
1928
330
1A
100
AcDbEntity
  8
点線
 48
6.0
100
AcDbLine
 10
3498.08479127592
 20
7899.714270628265
 30
0.0
 11
3458.08479127592
 21
7899.714270628265
 31
0.0
  0
LINE
  5
192E
330
1A
100
AcDbEntity
  8
点線
 48
6.0
100
AcDbLine
 10
3498.08479127592
 20
10424.91427062826
 30
0.0
 11
3458.08479127592
 21
10424.91427062826
 31
0.0
  0
LINE
  5
1934
330
1A
100
AcDbEntity
  8
点線
 48
6.0
100
AcDbLine
 10
3498.08479127592
 20
10404.91427062826
 30
0.0
 11
3458.08479127592
 21
10404.91427062826
 31
0.0
  0
LINE
  5
193A
330
1A
100
AcDbEntity
  8
点線
 48
6.0
100
AcDbLine
 10
3498.08479127592
 20
10359.91427062826
 30
0.0
 11
3458.08479127592
 21
10359.91427062826
 31
0.0
  0
LINE
  5
1940
330
1A
100
AcDbEntity
  8
点線
 48
6.0
100
AcDbLine
 10
3498.08479127592
 20
9796.314270628261
 30
0.0
 11
3458.08479127592
 21
9796.314270628261
 31
0.0
  0
LINE
  5
1946
330
1A
100
AcDbEntity
  8
点線
 48
6.0
100
AcDbLine
 10
3498.08479127592
 20
9776.314270628262
 30
0.0
 11
3458.08479127592
 21
9776.314270628262
 31
0.0
  0
LINE
  5
194C
330
1A
100
AcDbEntity
  8
点線
 48
6.0
100
AcDbLine
 10
3498.08479127592
 20
9731.314270628262
 30
0.0
 11
3458.08479127592
 21
9731.314270628262
 31
0.0
  0
LINE
  5
1952
330
1A
100
AcDbEntity
  8
点線
 48
6.0
100
AcDbLine
 10
3498.08479127592
 20
9167.714270628261
 30
0.0
 11
3458.08479127592
 21
9167.714270628261
 31
0.0
  0
LINE
  5
1958
330
1A
100
AcDbEntity
  8
点線
 48
6.0
100
AcDbLine
 10
3498.08479127592
 20
9147.714270628261
 30
0.0
 11
3458.08479127592
 21
9147.714270628261
 31
0.0
  0
LINE
  5
195E
330
1A
100
AcDbEntity
  8
点線
 48
6.0
100
AcDbLine
 10
3498.08479127592
 20
9102.714270628261
 30
0.0
 11
3458.08479127592
 21
9102.714270628261
 31
0.0
  0
LINE
  5
1964
330
1A
100
AcDbEntity
  8
点線
 48
6.0
100
AcDbLine
 10
3498.08479127592
 20
8539.114270628259
 30
0.0
 11
3458.08479127592
 21
8539.114270628259
 31
0.0
  0
LINE
  5
196A
330
1A
100
AcDbEntity
  8
点線
 48
6.0
100
AcDbLine
 10
3498.08479127592
 20
8519.114270628259
 30
0.0
 11
3458.08479127592
 21
8519.114270628259
 31
0.0
  0
LINE
  5
1970
330
1A
100
AcDbEntity
  8
点線
 48
6.0
100
AcDbLine
 10
3498.08479127592
 20
8474.114270628259
 30
0.0
 11
3458.08479127592
 21
8474.114270628259
 31
0.0
  0
LINE
  5
1976
330
1A
100
AcDbEntity
  8
点線
 48
6.0
100
AcDbLine
 10
3498.08479127592
 20
7336.114270628262
 30
0.0
 11
3458.08479127592
 21
7336.114270628262
 31
0.0
  0
LINE
  5
197C
330
1A
100
AcDbEntity
  8
点線
 48
6.0
100
AcDbLine
 10
3498.08479127592
 20
7291.114270628263
 30
0.0
 11
3458.08479127592
 21
7291.114270628263
 31
0.0
  0
LINE
  5
1982
330
1A
100
AcDbEntity
  8
点線
 48
6.0
100
AcDbLine
 10
3498.08479127592
 20
7271.114270628263
 30
0.0
 11
3458.08479127592
 21
7271.114270628263
 31
0.0
  0
LINE
  5
1988
330
1A
100
AcDbEntity
  8
点線
 48
6.0
100
AcDbLine
 10
3498.08479127592
 20
6707.514270628262
 30
0.0
 11
3458.08479127592
 21
6707.514270628262
 31
0.0
  0
LINE
  5
198E
330
1A
100
AcDbEntity
  8
点線
 48
6.0
100
AcDbLine
 10
3498.08479127592
 20
6662.514270628261
 30
0.0
 11
3458.08479127592
 21
6662.514270628261
 31
0.0
  0
LINE
  5
1994
330
1A
100
AcDbEntity
  8
点線
 48
6.0
100
AcDbLine
 10
3498.08479127592
 20
6642.514270628263
 30
0.0
 11
3458.08479127592
 21
6642.514270628263
 31
0.0
  0
LINE
  5
199A
330
1A
100
AcDbEntity
  8
点線
 48
6.0
100
AcDbLine
 10
3498.08479127592
 20
6078.914270628262
 30
0.0
 11
3458.08479127592
 21
6078.914270628262
 31
0.0
  0
LINE
  5
19A0
330
1A
100
AcDbEntity
  8
点線
 48
6.0
100
AcDbLine
 10
3498.08479127592
 20
6033.914270628262
 30
0.0
 11
3458.08479127592
 21
6033.914270628262
 31
0.0
  0
LINE
  5
19A6
330
1A
100
AcDbEntity
  8
点線
 48
6.0
100
AcDbLine
 10
3498.08479127592
 20
6013.914270628262
 30
0.0
 11
3458.08479127592
 21
6013.914270628262
 31
0.0
  0
LINE
  5
19A7
330
1A
100
AcDbEntity
  8
点線
 48
6.0
100
AcDbLine
 10
3458.08479127592
 20
9796.314270628261
 30
0.0
 11
3458.08479127592
 21
9731.31427062826
 31
0.0
  0
LINE
  5
19A8
330
1A
100
AcDbEntity
  8
点線
 48
6.0
100
AcDbLine
 10
3458.08479127592
 20
9167.714270628261
 30
0.0
 11
3458.084791275921
 21
9102.714270628259
 31
0.0
  0
LINE
  5
19A9
330
1A
100
AcDbEntity
  8
点線
 48
6.0
100
AcDbLine
 10
3458.084791275921
 20
8539.114270628259
 30
0.0
 11
3458.084791275921
 21
8474.114270628261
 31
0.0
  0
LINE
  5
19AA
330
1A
100
AcDbEntity
  8
点線
 48
6.0
100
AcDbLine
 10
3458.084791275921
 20
7964.714270628263
 30
0.0
 11
3458.084791275921
 21
7899.714270628265
 31
0.0
  0
LINE
  5
19AB
330
1A
100
AcDbEntity
  8
点線
 48
6.0
100
AcDbLine
 10
3458.084791275921
 20
7336.114270628262
 30
0.0
 11
3458.084791275921
 21
7271.114270628264
 31
0.0
  0
LINE
  5
19AC
330
1A
100
AcDbEntity
  8
点線
 48
6.0
100
AcDbLine
 10
3458.084791275921
 20
6707.514270628262
 30
0.0
 11
3458.084791275921
 21
6642.514270628263
 31
0.0
  0
LINE
  5
19AD
330
1A
100
AcDbEntity
  8
点線
 48
6.0
100
AcDbLine
 10
3458.084791275921
 20
6078.914270628262
 30
0.0
 11
3458.08479127592
 21
6013.914270628262
 31
0.0
  0
LINE
  5
19AF
330
1A
100
AcDbEntity
  8
点線
 48
6.0
100
AcDbLine
 10
6278.084791275919
 20
10424.91427062826
 30
0.0
 11
6278.084791275919
 21
10359.91427062826
 31
0.0
  0
LINE
  5
19B1
330
1A
100
AcDbEntity
  8
点線
 48
6.0
100
AcDbLine
 10
6278.084791275919
 20
9796.314270628261
 30
0.0
 11
6278.084791275919
 21
9731.314270628264
 31
0.0
  0
LINE
  5
19B2
330
1A
100
AcDbEntity
  8
点線
 48
6.0
100
AcDbLine
 10
6278.084791275919
 20
9167.714270628261
 30
0.0
 11
6278.084791275917
 21
9102.714270628261
 31
0.0
  0
LINE
  5
19B3
330
1A
100
AcDbEntity
  8
点線
 48
6.0
100
AcDbLine
 10
6278.084791275919
 20
8539.114270628259
 30
0.0
 11
6278.084791275919
 21
8474.114270628259
 31
0.0
  0
LINE
  5
19B4
330
1A
100
AcDbEntity
  8
点線
 48
6.0
100
AcDbLine
 10
6278.084791275919
 20
7964.714270628263
 30
0.0
 11
6278.084791275919
 21
7899.714270628265
 31
0.0
  0
LINE
  5
19B5
330
1A
100
AcDbEntity
  8
点線
 48
6.0
100
AcDbLine
 10
6278.084791275919
 20
7336.114270628262
 30
0.0
 11
6278.084791275917
 21
7271.114270628264
 31
0.0
  0
LINE
  5
19B6
330
1A
100
AcDbEntity
  8
点線
 48
6.0
100
AcDbLine
 10
6278.084791275917
 20
6707.514270628262
 30
0.0
 11
6278.084791275919
 21
6642.514270628263
 31
0.0
  0
LINE
  5
19B7
330
1A
100
AcDbEntity
  8
点線
 48
6.0
100
AcDbLine
 10
6278.084791275917
 20
6078.914270628262
 30
0.0
 11
6278.084791275917
 21
6013.914270628262
 31
0.0
  0
LINE
  5
19B8
330
1A
100
AcDbEntity
  8
点線
 48
6.0
100
AcDbLine
 10
3648.08479127592
 20
10424.91427062826
 30
0.0
 11
3648.08479127592
 21
10359.91427062826
 31
0.0
  0
LINE
  5
19B9
330
1A
100
AcDbEntity
  8
点線
 48
6.0
100
AcDbLine
 10
3708.084791275921
 20
10424.91427062826
 30
0.0
 11
3708.084791275921
 21
10359.91427062826
 31
0.0
  0
LINE
  5
19BA
330
1A
100
AcDbEntity
  8
点線
 48
6.0
100
AcDbLine
 10
3648.08479127592
 20
9796.314270628261
 30
0.0
 11
3648.08479127592
 21
9731.314270628262
 31
0.0
  0
LINE
  5
19BC
330
1A
100
AcDbEntity
  8
点線
 48
6.0
100
AcDbLine
 10
3708.084791275921
 20
9796.314270628261
 30
0.0
 11
3708.084791275921
 21
9731.314270628262
 31
0.0
  0
LINE
  5
19BD
330
1A
100
AcDbEntity
  8
点線
 48
6.0
100
AcDbLine
 10
3648.08479127592
 20
9167.714270628259
 30
0.0
 11
3648.08479127592
 21
9102.714270628261
 31
0.0
  0
LINE
  5
19BE
330
1A
100
AcDbEntity
  8
点線
 48
6.0
100
AcDbLine
 10
3708.084791275921
 20
9167.714270628261
 30
0.0
 11
3708.084791275921
 21
9102.714270628261
 31
0.0
  0
LINE
  5
19BF
330
1A
100
AcDbEntity
  8
点線
 48
6.0
100
AcDbLine
 10
3648.08479127592
 20
8539.114270628259
 30
0.0
 11
3648.08479127592
 21
8474.114270628259
 31
0.0
  0
LINE
  5
19C0
330
1A
100
AcDbEntity
  8
点線
 48
6.0
100
AcDbLine
 10
3708.084791275921
 20
8539.11427062826
 30
0.0
 11
3708.084791275921
 21
8474.114270628259
 31
0.0
  0
LINE
  5
19C1
330
1A
100
AcDbEntity
  8
点線
 48
6.0
100
AcDbLine
 10
3648.08479127592
 20
7964.714270628265
 30
0.0
 11
3648.08479127592
 21
7899.714270628265
 31
0.0
  0
LINE
  5
19C2
330
1A
100
AcDbEntity
  8
点線
 48
6.0
100
AcDbLine
 10
3708.084791275921
 20
7964.714270628265
 30
0.0
 11
3708.084791275921
 21
7899.714270628265
 31
0.0
  0
LINE
  5
19C3
330
1A
100
AcDbEntity
  8
点線
 48
6.0
100
AcDbLine
 10
3648.08479127592
 20
7336.114270628262
 30
0.0
 11
3648.08479127592
 21
7271.114270628263
 31
0.0
  0
LINE
  5
19C4
330
1A
100
AcDbEntity
  8
点線
 48
6.0
100
AcDbLine
 10
3708.084791275921
 20
7336.114270628262
 30
0.0
 11
3708.084791275921
 21
7271.114270628261
 31
0.0
  0
LINE
  5
19C6
330
1A
100
AcDbEntity
  8
点線
 48
6.0
100
AcDbLine
 10
3648.08479127592
 20
6707.514270628262
 30
0.0
 11
3648.08479127592
 21
6642.514270628263
 31
0.0
  0
LINE
  5
19C7
330
1A
100
AcDbEntity
  8
点線
 48
6.0
100
AcDbLine
 10
3708.084791275921
 20
6707.514270628262
 30
0.0
 11
3708.084791275921
 21
6642.514270628263
 31
0.0
  0
LINE
  5
19C8
330
1A
100
AcDbEntity
  8
点線
 48
6.0
100
AcDbLine
 10
3648.084791275924
 20
6078.914270628262
 30
0.0
 11
3648.084791275924
 21
6013.914270628262
 31
0.0
  0
LINE
  5
19C9
330
1A
100
AcDbEntity
  8
点線
 48
6.0
100
AcDbLine
 10
3708.084791275924
 20
6078.914270628262
 30
0.0
 11
3708.084791275924
 21
6013.914270628262
 31
0.0
  0
VIEWPORT
  5
22
102
{ACAD_XDICTIONARY
360
1A13
102
}
330
17
100
AcDbEntity
 67
     1
  8
0
100
AcDbViewport
 10
261.5176991150442
 20
154.7242978687078
 30
0.0
 40
523.0353982300885
 41
309.4485957374157
 68
     1
 69
     1
 12
261.5176991150442
 22
154.7242978687078
 13
0.0
 23
0.0
 14
1.0
 24
1.0
 15
10.0
 25
10.0
 16
0.0
 26
0.0
 36
1.0
 17
0.0
 27
0.0
 37
0.0
 42
50.0
 43
0.0
 44
0.0
 45
309.4485957374157
 50
0.0
 51
0.0
 72
   100
 90
    32768
  1

281
     0
 71
     1
 74
     0
110
0.0
120
0.0
130
0.0
111
1.0
121
0.0
131
0.0
112
0.0
122
1.0
132
0.0
 79
     0
146
0.0
  0
ENDSEC
  0
SECTION
  2
OBJECTS
  0
DICTIONARY
  5
C
330
0
100
AcDbDictionary
281
     1
  3
ACAD_COLOR
350
17B3
  3
ACAD_GROUP
350
D
  3
ACAD_LAYOUT
350
17B4
  3
ACAD_MATERIAL
350
17B2
  3
ACAD_MLINESTYLE
350
E
  3
ACAD_PLOTSETTINGS
350
17B5
  3
ACAD_PLOTSTYLENAME
350
17B0
  3
ACDBHEADERROUNDTRIPXREC
350
1A10
  3
AcDbVariableDictionary
350
1A0C
  0
DICTIONARY
  5
17DD
330
2
100
AcDbDictionary
280
     1
281
     1
  3
ACAD_LAYERFILTERS
360
18C5
  3
ACAD_LAYERSTATES
360
17DE
  0
DICTIONARY
  5
1A13
330
22
100
AcDbDictionary
280
     1
281
     1
  3
ACAD_XREC_ROUNDTRIP
360
1A14
  0
DICTIONARY
  5
17B3
102
{ACAD_REACTORS
330
C
102
}
330
C
100
AcDbDictionary
281
     1
  0
DICTIONARY
  5
D
102
{ACAD_REACTORS
330
C
102
}
330
C
100
AcDbDictionary
281
     1
  0
DICTIONARY
  5
17B4
102
{ACAD_REACTORS
330
C
102
}
330
C
100
AcDbDictionary
281
     1
  3
Model
350
17B6
  3
レイアウト1
350
17B7
  0
DICTIONARY
  5
17B2
102
{ACAD_REACTORS
330
C
102
}
330
C
100
AcDbDictionary
281
     1
  0
DICTIONARY
  5
E
102
{ACAD_REACTORS
330
C
102
}
330
C
100
AcDbDictionary
281
     1
  3
STANDARD
350
13
  0
DICTIONARY
  5
17B5
102
{ACAD_REACTORS
330
C
102
}
330
C
100
AcDbDictionary
281
     1
  0
ACDBDICTIONARYWDFLT
  5
17B0
102
{ACAD_REACTORS
330
C
102
}
330
C
100
AcDbDictionary
281
     1
  3
Normal
350
17B1
100
AcDbDictionaryWithDefault
340
17B1
  0
DICTIONARY
  5
1A10
102
{ACAD_REACTORS
330
C
102
}
330
C
100
AcDbDictionary
281
     1
  3
COLORDICT
350
1A12
  3
MATERIALDICT
350
1A11
  0
DICTIONARY
  5
1A0C
102
{ACAD_REACTORS
330
C
102
}
330
C
100
AcDbDictionary
281
     1
  3
DIMASSOC
350
1A0D
  3
PROJECTNAME
350
1A0E
  0
DICTIONARY
  5
18C5
102
{ACAD_REACTORS
330
17DD
102
}
330
17DD
100
AcDbDictionary
281
     1
  0
DICTIONARY
  5
17DE
102
{ACAD_REACTORS
330
17DD
102
}
330
17DD
100
AcDbDictionary
281
     1
  0
XRECORD
  5
1A14
102
{ACAD_REACTORS
330
1A13
102
}
330
1A13
100
AcDbXrecord
280
     1
102
SHADEPLOT
 70
     0
  0
LAYOUT
  5
17B6
102
{ACAD_XDICTIONARY
360
1A15
102
}
102
{ACAD_REACTORS
330
17B4
102
}
330
17B4
100
AcDbPlotSettings
  1

  2
iR C3880
  4
A3
  6

 40
5.873749732971191
 41
5.873747825622558
 42
5.873748779296875
 43
5.873748779296875
 44
296.9259948730469
 45
419.9466552734374
 46
0.0
 47
0.0
 48
0.0
 49
0.0
140
0.0
141
0.0
142
1.0
143
40.0
 70
 11952
 72
     1
 73
     1
 74
     2
  7
inaba.ctb
 75
    24
147
0.025
148
0.0
149
0.0
100
AcDbLayout
  1
Model
 70
     1
 71
     0
 10
0.0
 20
0.0
 11
12.0
 21
9.0
 12
0.0
 22
0.0
 32
0.0
 14
0.0
 24
0.0
 34
0.0
 15
0.0
 25
0.0
 35
0.0
146
0.0
 13
0.0
 23
0.0
 33
0.0
 16
1.0
 26
0.0
 36
0.0
 17
0.0
 27
1.0
 37
0.0
 76
     0
330
1A
  0
LAYOUT
  5
17B7
102
{ACAD_XDICTIONARY
360
1A17
102
}
102
{ACAD_REACTORS
330
17B4
102
}
330
17B4
100
AcDbPlotSettings
  1

  2
自動 EPSON LP-8400FX (TATENO 上)
  4

  6

 40
0.0
 41
0.0
 42
0.0
 43
0.0
 44
0.0
 45
0.0
 46
0.0
 47
0.0
 48
0.0
 49
0.0
140
0.0
141
0.0
142
1.0
143
1.0
 70
   688
 72
     0
 73
     0
 74
     5
  7
inaba.ctb
 75
    16
147
1.0
148
0.0
149
0.0
100
AcDbLayout
  1
レイアウト1
 70
     1
 71
     1
 10
0.0
 20
0.0
 11
420.0
 21
297.0
 12
0.0
 22
0.0
 32
0.0
 14
1.000000000000000E+20
 24
1.000000000000000E+20
 34
1.000000000000000E+20
 15
-1.000000000000000E+20
 25
-1.000000000000000E+20
 35
-1.000000000000000E+20
146
0.0
 13
0.0
 23
0.0
 33
0.0
 16
1.0
 26
0.0
 36
0.0
 17
0.0
 27
1.0
 37
0.0
 76
     0
330
17
331
22
  0
MLINESTYLE
  5
13
102
{ACAD_REACTORS
330
E
102
}
330
E
100
AcDbMlineStyle
  2
STANDARD
 70
     0
  3

 62
     0
 51
90.0
 52
90.0
 71
     2
 49
0.5
 62
   256
  6
BYLAYER
 49
-0.5
 62
   256
  6
BYLAYER
  0
ACDBPLACEHOLDER
  5
17B1
102
{ACAD_REACTORS
330
17B0
102
}
330
17B0
  0
XRECORD
  5
1A12
102
{ACAD_REACTORS
330
1A10
102
}
330
1A10
100
AcDbXrecord
280
     1
340
17B3
  0
XRECORD
  5
1A11
102
{ACAD_REACTORS
330
1A10
102
}
330
1A10
100
AcDbXrecord
280
     1
340
17B2
  0
DICTIONARYVAR
  5
1A0D
102
{ACAD_REACTORS
330
1A0C
102
}
330
1A0C
100
DictionaryVariables
280
     0
  1
1
  0
DICTIONARYVAR
  5
1A0E
102
{ACAD_REACTORS
330
1A0C
102
}
330
1A0C
100
DictionaryVariables
280
     0
  1

  0
DICTIONARY
  5
1A15
330
17B6
100
AcDbDictionary
280
     1
281
     1
  3
ACAD_XREC_ROUNDTRIP
360
1A16
  0
DICTIONARY
  5
1A17
330
17B7
100
AcDbDictionary
280
     1
281
     1
  3
ACAD_XREC_ROUNDTRIP
360
1A18
  0
XRECORD
  5
1A16
102
{ACAD_REACTORS
330
1A15
102
}
330
1A15
100
AcDbXrecord
280
     1
102
SHADEPLOT
 70
     0
102
SHADEPLOTRESLEVEL
 70
     2
102
SHADEPLOTCUSTOMDPI
 70
   300
  0
XRECORD
  5
1A18
102
{ACAD_REACTORS
330
1A17
102
}
330
1A17
100
AcDbXrecord
280
     1
102
SHADEPLOT
 70
     0
102
SHADEPLOTRESLEVEL
 70
     2
102
SHADEPLOTCUSTOMDPI
 70
   300
  0
ENDSEC
  0
EOF
