  0
SECTION
  2
HEADER
  9
$ACADVER
  1
AC1015
  9
$ACADMAINTVER
 70
    20
  9
$DWGCODEPAGE
  3
ANSI_932
  9
$INSBASE
 10
0.0
 20
0.0
 30
0.0
  9
$EXTMIN
 10
104.9999999999996
 20
-0.0000000000000682
 30
0.0
  9
$EXTMAX
 10
12230.4
 20
8557.199999999999
 30
0.0
  9
$LIMMIN
 10
0.0
 20
0.0
  9
$LIMMAX
 10
12600.0
 20
8910.0
  9
$ORTHOMODE
 70
     0
  9
$REGENMODE
 70
     1
  9
$FILLMODE
 70
     1
  9
$QTEXTMODE
 70
     0
  9
$MIRRTEXT
 70
     1
  9
$LTSCALE
 40
7.0
  9
$ATTMODE
 70
     1
  9
$TEXTSIZE
 40
100.0
  9
$TRACEWID
 40
1.0
  9
$TEXTSTYLE
  7
STYLE3
  9
$CLAYER
  8
点線
  9
$CELTYPE
  6
BYLAYER
  9
$CECOLOR
 62
   256
  9
$CELTSCALE
 40
50.0
  9
$DISPSILH
 70
     0
  9
$DIMSCALE
 40
30.0
  9
$DIMASZ
 40
2.5
  9
$DIMEXO
 40
0.5
  9
$DIMDLI
 40
7.0
  9
$DIMRND
 40
0.0
  9
$DIMDLE
 40
0.0
  9
$DIMEXE
 40
1.5
  9
$DIMTP
 40
0.0
  9
$DIMTM
 40
0.0
  9
$DIMTXT
 40
3.0
  9
$DIMCEN
 40
0.0
  9
$DIMTSZ
 40
0.0
  9
$DIMTOL
 70
     0
  9
$DIMLIM
 70
     0
  9
$DIMTIH
 70
     1
  9
$DIMTOH
 70
     1
  9
$DIMSE1
 70
     0
  9
$DIMSE2
 70
     0
  9
$DIMTAD
 70
     3
  9
$DIMZIN
 70
     8
  9
$DIMBLK
  1

  9
$DIMASO
 70
     1
  9
$DIMSHO
 70
     1
  9
$DIMPOST
  1

  9
$DIMAPOST
  1

  9
$DIMALT
 70
     0
  9
$DIMALTD
 70
     2
  9
$DIMALTF
 40
0.0394
  9
$DIMLFAC
 40
1.0
  9
$DIMTOFL
 70
     1
  9
$DIMTVP
 40
0.0
  9
$DIMTIX
 70
     1
  9
$DIMSOXD
 70
     1
  9
$DIMSAH
 70
     1
  9
$DIMBLK1
  1
DOTSMALL
  9
$DIMBLK2
  1
DOTSMALL
  9
$DIMSTYLE
  2
INABA_S30G
  9
$DIMCLRD
 70
     0
  9
$DIMCLRE
 70
     0
  9
$DIMCLRT
 70
     7
  9
$DIMTFAC
 40
1.0
  9
$DIMGAP
 40
1.0
  9
$DIMJUST
 70
     0
  9
$DIMSD1
 70
     0
  9
$DIMSD2
 70
     0
  9
$DIMTOLJ
 70
     1
  9
$DIMTZIN
 70
     0
  9
$DIMALTZ
 70
     0
  9
$DIMALTTZ
 70
     0
  9
$DIMUPT
 70
     0
  9
$DIMDEC
 70
     1
  9
$DIMTDEC
 70
     1
  9
$DIMALTU
 70
     2
  9
$DIMALTTD
 70
     2
  9
$DIMTXSTY
  7
STYLE1
  9
$DIMAUNIT
 70
     0
  9
$DIMADEC
 70
     0
  9
$DIMALTRND
 40
0.0
  9
$DIMAZIN
 70
     0
  9
$DIMDSEP
 70
    46
  9
$DIMATFIT
 70
     3
  9
$DIMFRAC
 70
     0
  9
$DIMLDRBLK
  1

  9
$DIMLUNIT
 70
     2
  9
$DIMLWD
 70
    -2
  9
$DIMLWE
 70
    -2
  9
$DIMTMOVE
 70
     0
  9
$LUNITS
 70
     2
  9
$LUPREC
 70
     1
  9
$SKETCHINC
 40
1.0
  9
$FILLETRAD
 40
5.0
  9
$AUNITS
 70
     0
  9
$AUPREC
 70
     0
  9
$MENU
  1
acad
  9
$ELEVATION
 40
0.0
  9
$PELEVATION
 40
0.0
  9
$THICKNESS
 40
0.0
  9
$LIMCHECK
 70
     0
  9
$CHAMFERA
 40
0.0
  9
$CHAMFERB
 40
0.0
  9
$CHAMFERC
 40
0.0
  9
$CHAMFERD
 40
0.0
  9
$SKPOLY
 70
     0
  9
$TDCREATE
 40
2451074.411873148
  9
$TDUCREATE
 40
2451074.036873148
  9
$TDUPDATE
 40
2456139.558301320
  9
$TDUUPDATE
 40
2456139.183301320
  9
$TDINDWG
 40
0.3300297222
  9
$TDUSRTIMER
 40
0.3300297222
  9
$USRTIMER
 70
     1
  9
$ANGBASE
 50
0.0
  9
$ANGDIR
 70
     0
  9
$PDMODE
 70
     3
  9
$PDSIZE
 40
2.0
  9
$PLINEWID
 40
0.0
  9
$SPLFRAME
 70
     0
  9
$SPLINETYPE
 70
     6
  9
$SPLINESEGS
 70
     8
  9
$HANDSEED
  5
136B3
  9
$SURFTAB1
 70
     6
  9
$SURFTAB2
 70
     6
  9
$SURFTYPE
 70
     6
  9
$SURFU
 70
     6
  9
$SURFV
 70
     6
  9
$UCSBASE
  2

  9
$UCSNAME
  2

  9
$UCSORG
 10
0.0
 20
0.0
 30
0.0
  9
$UCSXDIR
 10
1.0
 20
0.0
 30
0.0
  9
$UCSYDIR
 10
0.0
 20
1.0
 30
0.0
  9
$UCSORTHOREF
  2

  9
$UCSORTHOVIEW
 70
     0
  9
$UCSORGTOP
 10
0.0
 20
0.0
 30
0.0
  9
$UCSORGBOTTOM
 10
0.0
 20
0.0
 30
0.0
  9
$UCSORGLEFT
 10
0.0
 20
0.0
 30
0.0
  9
$UCSORGRIGHT
 10
0.0
 20
0.0
 30
0.0
  9
$UCSORGFRONT
 10
0.0
 20
0.0
 30
0.0
  9
$UCSORGBACK
 10
0.0
 20
0.0
 30
0.0
  9
$PUCSBASE
  2

  9
$PUCSNAME
  2

  9
$PUCSORG
 10
0.0
 20
0.0
 30
0.0
  9
$PUCSXDIR
 10
1.0
 20
0.0
 30
0.0
  9
$PUCSYDIR
 10
0.0
 20
1.0
 30
0.0
  9
$PUCSORTHOREF
  2

  9
$PUCSORTHOVIEW
 70
     0
  9
$PUCSORGTOP
 10
0.0
 20
0.0
 30
0.0
  9
$PUCSORGBOTTOM
 10
0.0
 20
0.0
 30
0.0
  9
$PUCSORGLEFT
 10
0.0
 20
0.0
 30
0.0
  9
$PUCSORGRIGHT
 10
0.0
 20
0.0
 30
0.0
  9
$PUCSORGFRONT
 10
0.0
 20
0.0
 30
0.0
  9
$PUCSORGBACK
 10
0.0
 20
0.0
 30
0.0
  9
$USERI1
 70
     0
  9
$USERI2
 70
     0
  9
$USERI3
 70
     0
  9
$USERI4
 70
     0
  9
$USERI5
 70
     0
  9
$USERR1
 40
0.0
  9
$USERR2
 40
0.0
  9
$USERR3
 40
0.0
  9
$USERR4
 40
0.0
  9
$USERR5
 40
0.0
  9
$WORLDVIEW
 70
     1
  9
$SHADEDGE
 70
     3
  9
$SHADEDIF
 70
    70
  9
$TILEMODE
 70
     1
  9
$MAXACTVP
 70
    16
  9
$PINSBASE
 10
0.0
 20
0.0
 30
0.0
  9
$PLIMCHECK
 70
     0
  9
$PEXTMIN
 10
1.000000000000000E+20
 20
1.000000000000000E+20
 30
1.000000000000000E+20
  9
$PEXTMAX
 10
-1.000000000000000E+20
 20
-1.000000000000000E+20
 30
-1.000000000000000E+20
  9
$PLIMMIN
 10
0.0
 20
0.0
  9
$PLIMMAX
 10
420.0
 20
297.0
  9
$UNITMODE
 70
     0
  9
$VISRETAIN
 70
     0
  9
$PLINEGEN
 70
     0
  9
$PSLTSCALE
 70
     0
  9
$TREEDEPTH
 70
  3020
  9
$CMLSTYLE
  2
STANDARD
  9
$CMLJUST
 70
     0
  9
$CMLSCALE
 40
1.0
  9
$PROXYGRAPHICS
 70
     1
  9
$MEASUREMENT
 70
     1
  9
$CELWEIGHT
370
    -1
  9
$ENDCAPS
280
     0
  9
$JOINSTYLE
280
     0
  9
$LWDISPLAY
290
     0
  9
$INSUNITS
 70
     0
  9
$HYPERLINKBASE
  1

  9
$STYLESHEET
  1
inaba.ctb
  9
$XEDIT
290
     1
  9
$CEPSNTYPE
380
     0
  9
$PSTYLEMODE
290
     1
  9
$FINGERPRINTGUID
  2
{696AEDA2-CF37-4C16-A548-8F3E259D4281}
  9
$VERSIONGUID
  2
{9D725E70-BDEE-44C4-B17A-9A78E8F0DD51}
  9
$EXTNAMES
290
     1
  9
$PSVPSCALE
 40
0.0
  9
$OLESTARTUP
290
     0
  0
ENDSEC
  0
SECTION
  2
CLASSES
  0
CLASS
  1
ACDBDICTIONARYWDFLT
  2
AcDbDictionaryWithDefault
  3
ObjectDBX Classes
 90
        0
280
     0
281
     0
  0
CLASS
  1
DICTIONARYVAR
  2
AcDbDictionaryVar
  3
ObjectDBX Classes
 90
        0
280
     0
281
     0
  0
CLASS
  1
ACDBPLACEHOLDER
  2
AcDbPlaceHolder
  3
ObjectDBX Classes
 90
        0
280
     0
281
     0
  0
CLASS
  1
LAYOUT
  2
AcDbLayout
  3
ObjectDBX Classes
 90
        0
280
     0
281
     0
  0
ENDSEC
  0
SECTION
  2
TABLES
  0
TABLE
  2
VPORT
  5
746D
330
0
100
AcDbSymbolTable
 70
     2
  0
VPORT
  5
136AB
330
746D
100
AcDbSymbolTableRecord
100
AcDbViewportTableRecord
  2
*Active
 70
     0
 10
0.0
 20
0.0
 11
1.0
 21
1.0
 12
6666.39893884783
 22
4278.38553736223
 13
0.0
 23
0.0
 14
10.0
 24
10.0
 15
10.0
 25
10.0
 16
0.0
 26
0.0
 36
1.0
 17
0.0
 27
0.0
 37
0.0
 40
8622.235727788611
 41
1.62314939434724
 42
50.0
 43
0.0
 44
0.0
 50
0.0
 51
0.0
 71
     0
 72
     0
 73
     1
 74
     0
 75
     0
 76
     0
 77
     0
 78
     0
281
     0
 65
     1
110
0.0
120
0.0
130
0.0
111
1.0
121
0.0
131
0.0
112
0.0
122
1.0
132
0.0
 79
     0
146
0.0
  0
ENDTAB
  0
TABLE
  2
LTYPE
  5
746A
330
0
100
AcDbSymbolTable
 70
     4
  0
LTYPE
  5
7477
330
746A
100
AcDbSymbolTableRecord
100
AcDbLinetypeTableRecord
  2
BYBLOCK
 70
     0
  3

 72
    65
 73
     0
 40
0.0
  0
LTYPE
  5
7478
330
746A
100
AcDbSymbolTableRecord
100
AcDbLinetypeTableRecord
  2
BYLAYER
 70
     0
  3

 72
    65
 73
     0
 40
0.0
  0
LTYPE
  5
7479
330
746A
100
AcDbSymbolTableRecord
100
AcDbLinetypeTableRecord
  2
CONTINUOUS
 70
     0
  3
Solid line
 72
    65
 73
     0
 40
0.0
  0
LTYPE
  5
781A
330
746A
100
AcDbSymbolTableRecord
100
AcDbLinetypeTableRecord
  2
HIDDEN
 70
     0
  3
__ __ __ __ __ __ __ __ __ __ __ __ __ __ __ __
 72
    65
 73
     2
 40
0.375
 49
0.25
 74
     0
 49
-0.125
 74
     0
  0
LTYPE
  5
781B
330
746A
100
AcDbSymbolTableRecord
100
AcDbLinetypeTableRecord
  2
PHANTOM
 70
     0
  3
______  __  __  ______  __  __  ______  __  __ 
 72
    65
 73
     6
 40
2.5
 49
1.25
 74
     0
 49
-0.25
 74
     0
 49
0.25
 74
     0
 49
-0.25
 74
     0
 49
0.25
 74
     0
 49
-0.25
 74
     0
  0
LTYPE
  5
13571
330
746A
100
AcDbSymbolTableRecord
100
AcDbLinetypeTableRecord
  2
CENTER
 70
     0
  3
Center ____ _ ____ _ ____ _ ____ _ ____ _ ____
 72
    65
 73
     4
 40
50.8
 49
31.75
 74
     0
 49
-6.349999999999999
 74
     0
 49
6.349999999999999
 74
     0
 49
-6.349999999999999
 74
     0
  0
ENDTAB
  0
TABLE
  2
LAYER
  5
7467
102
{ACAD_XDICTIONARY
360
13451
102
}
330
0
100
AcDbSymbolTable
 70
    12
  0
LAYER
  5
7474
330
7467
100
AcDbSymbolTableRecord
100
AcDbLayerTableRecord
  2
0
 70
     0
 62
     7
  6
CONTINUOUS
370
    -3
390
1341B
  0
LAYER
  5
DEB3
330
7467
100
AcDbSymbolTableRecord
100
AcDbLayerTableRecord
  2
寸法
 70
     0
 62
     4
  6
CONTINUOUS
370
    -3
390
1341B
  0
LAYER
  5
DEB4
330
7467
100
AcDbSymbolTableRecord
100
AcDbLayerTableRecord
  2
部品1
 70
     0
 62
     7
  6
CONTINUOUS
370
    -3
390
1341B
  0
LAYER
  5
DEB5
330
7467
100
AcDbSymbolTableRecord
100
AcDbLayerTableRecord
  2
補助
 70
     0
 62
    -1
  6
CONTINUOUS
370
    -3
390
1341B
  0
LAYER
  5
DEB6
330
7467
100
AcDbSymbolTableRecord
100
AcDbLayerTableRecord
  2
文字
 70
     0
 62
     7
  6
CONTINUOUS
370
    -3
390
1341B
  0
LAYER
  5
F255
330
7467
100
AcDbSymbolTableRecord
100
AcDbLayerTableRecord
  2
DEFPOINTS
 70
     0
 62
     7
  6
CONTINUOUS
290
     0
370
    -3
390
1341B
  0
LAYER
  5
10B54
330
7467
100
AcDbSymbolTableRecord
100
AcDbLayerTableRecord
  2
仕様書枠
 70
     0
 62
   230
  6
CONTINUOUS
370
    -3
390
1341B
  0
LAYER
  5
11729
330
7467
100
AcDbSymbolTableRecord
100
AcDbLayerTableRecord
  2
Ｇ．Ｌ
 70
     0
 62
    30
  6
CONTINUOUS
370
    -3
390
1341B
  0
LAYER
  5
1173F
330
7467
100
AcDbSymbolTableRecord
100
AcDbLayerTableRecord
  2
細線
 70
     0
 62
     5
  6
CONTINUOUS
370
    -3
390
1341B
  0
LAYER
  5
11740
330
7467
100
AcDbSymbolTableRecord
100
AcDbLayerTableRecord
  2
点線
 70
     0
 62
     2
  6
HIDDEN
370
    -3
390
1341B
  0
LAYER
  5
1356E
330
7467
100
AcDbSymbolTableRecord
100
AcDbLayerTableRecord
  2
センター
 70
     0
 62
     3
  6
CENTER
370
    -3
390
1341B
  0
LAYER
  5
135FB
330
7467
100
AcDbSymbolTableRecord
100
AcDbLayerTableRecord
  2
想像線
 70
     0
 62
     6
  6
PHANTOM
370
    -3
390
1341B
  0
ENDTAB
  0
TABLE
  2
STYLE
  5
7468
330
0
100
AcDbSymbolTable
 70
     7
  0
STYLE
  5
7475
330
7468
100
AcDbSymbolTableRecord
100
AcDbTextStyleTableRecord
  2
STANDARD
 70
     0
 40
0.0
 41
1.0
 50
0.0
 71
     0
 42
4.0
  3
txt
  4
C:\AutoCAD LT\bigfont.shx
  0
STYLE
  5
763C
330
7468
100
AcDbSymbolTableRecord
100
AcDbTextStyleTableRecord
  2
MSMINCHO
 70
     0
 40
0.0
 41
1.0
 50
0.0
 71
     0
 42
1.199999999999999
  3
C:\AutoCAD LT\msminch2.TTF
  4

  0
STYLE
  5
F706
330
7468
100
AcDbSymbolTableRecord
100
AcDbTextStyleTableRecord
  2
STYLE1
 70
     0
 40
0.0
 41
1.0
 50
0.0
 71
     0
 42
4.0
  3
isocp.shx
  4
bigfont.shx
  0
STYLE
  5
103BF
330
7468
100
AcDbSymbolTableRecord
100
AcDbTextStyleTableRecord
  2
STYLE2
 70
     0
 40
0.0
 41
1.0
 50
0.0
 71
     0
 42
100.0
  3
MS PGothic.ttf
  4

1001
ACAD
1000
MS PGothic
1071
    32818
  0
STYLE
  5
10BAA
330
7468
100
AcDbSymbolTableRecord
100
AcDbTextStyleTableRecord
  2
STYLE3
 70
     0
 40
0.0
 41
1.0
 50
0.0
 71
     0
 42
100.0
  3
MS PGothic.ttf
  4

1001
ACAD
1000
MS PGothic
1071
    32818
  0
STYLE
  5
13570
330
7468
100
AcDbSymbolTableRecord
100
AcDbTextStyleTableRecord
  2

 70
     1
 40
0.0
 41
1.0
 50
0.0
 71
     0
 42
100.0
  3
ltypeshp.shx
  4

  0
STYLE
  5
13662
330
7468
100
AcDbSymbolTableRecord
100
AcDbTextStyleTableRecord
  2
MSPゴシック
 70
     0
 40
0.0
 41
1.0
 50
0.0
 71
     0
 42
4.0
  3
MS PGothic.ttf
  4

1001
ACAD
1000
MS PGothic
1071
    32818
  0
ENDTAB
  0
TABLE
  2
VIEW
  5
746B
330
0
100
AcDbSymbolTable
 70
     0
  0
ENDTAB
  0
TABLE
  2
UCS
  5
746C
330
0
100
AcDbSymbolTable
 70
     0
  0
ENDTAB
  0
TABLE
  2
APPID
  5
746E
330
0
100
AcDbSymbolTable
 70
     6
  0
APPID
  5
7476
330
746E
100
AcDbSymbolTableRecord
100
AcDbRegAppTableRecord
  2
ACAD
 70
     0
  0
APPID
  5
DEA9
330
746E
100
AcDbSymbolTableRecord
100
AcDbRegAppTableRecord
  2
CONTENTBLOCKICON
 70
     0
  0
APPID
  5
DEAA
330
746E
100
AcDbSymbolTableRecord
100
AcDbRegAppTableRecord
  2
CONTENTBLOCKDESCRIPTION
 70
     0
  0
APPID
  5
E71D
330
746E
100
AcDbSymbolTableRecord
100
AcDbRegAppTableRecord
  2
CONTENTTABDATA
 70
     0
  0
APPID
  5
E71E
330
746E
100
AcDbSymbolTableRecord
100
AcDbRegAppTableRecord
  2
CONTENTCURRENTTAB
 70
     0
  0
APPID
  5
F3BA
330
746E
100
AcDbSymbolTableRecord
100
AcDbRegAppTableRecord
  2
DRAWINGVARIABLESXDATA
 70
     0
  0
ENDTAB
  0
TABLE
  2
DIMSTYLE
  5
746F
330
0
100
AcDbSymbolTable
 70
     3
100
AcDbDimStyleTable
 71
     1
340
F71F
  0
DIMSTYLE
105
F71F
102
{ACAD_REACTORS
330
12577
330
1257A
330
12579
330
12578
330
12390
330
125D5
330
12391
330
1238F
330
1238E
330
1238D
330
123DC
330
123DD
330
123F7
330
124CD
330
12447
330
124E7
330
12394
330
12521
330
12426
330
12393
330
12522
330
12523
330
12CE2
330
131D8
330
131F9
330
13203
102
}
330
746F
100
AcDbSymbolTableRecord
100
AcDbDimStyleTableRecord
  2
INABA_S30G
 70
     0
 40
30.0
 41
2.5
 42
0.5
 43
7.0
 44
1.5
 73
     0
 74
     0
 77
     3
 78
     8
140
3.0
141
0.0
143
0.0394
147
1.0
172
     1
173
     1
174
     1
175
     1
178
     7
271
     1
340
F706
341
F770
343
F770
344
F770
  0
DIMSTYLE
105
135FC
330
746F
100
AcDbSymbolTableRecord
100
AcDbDimStyleTableRecord
  2
INABA_1／4
 70
     0
 40
4.0
 41
2.5
 42
0.5
 43
7.0
 44
1.5
 73
     0
 74
     0
 77
     3
 78
     8
140
2.5
141
0.0
143
0.0394
147
0.8
172
     1
173
     1
174
     1
178
     7
271
     2
272
     2
340
7475
341
135EC
343
135EC
344
135EC
  0
DIMSTYLE
105
13663
330
746F
100
AcDbSymbolTableRecord
100
AcDbDimStyleTableRecord
  2
INABA_S40G
 70
     0
 40
40.0
 41
2.5
 42
0.5
 43
7.0
 44
1.5
 73
     0
 74
     0
 77
     3
 78
     8
140
3.0
141
0.0
143
0.0394
147
1.0
172
     1
173
     1
174
     1
178
     7
271
     1
340
F706
341
F770
343
F770
344
F770
  0
ENDTAB
  0
TABLE
  2
BLOCK_RECORD
  5
7466
330
0
100
AcDbSymbolTable
 70
    32
  0
BLOCK_RECORD
  5
747D
330
7466
100
AcDbSymbolTableRecord
100
AcDbBlockTableRecord
  2
*MODEL_SPACE
340
13420
  0
BLOCK_RECORD
  5
747A
330
7466
100
AcDbSymbolTableRecord
100
AcDbBlockTableRecord
  2
*PAPER_SPACE
340
13421
  0
BLOCK_RECORD
  5
F770
330
7466
100
AcDbSymbolTableRecord
100
AcDbBlockTableRecord
  2
_DOTSMALL
340
0
102
{BLKREFS
331
131BA
331
131BB
331
13199
331
1319A
331
131A4
331
131A5
331
13010
331
13011
331
131AF
331
131B0
331
13220
331
13221
331
13313
331
13314
331
13308
331
13309
331
1305D
331
1305E
331
132A2
331
132A3
331
1307E
331
1307F
331
13281
331
13282
331
130C1
331
130C2
331
130CC
331
130CD
331
130D7
331
130D8
331
130E2
331
130E3
331
131C5
331
131C6
331
130F8
331
130F9
331
1322C
331
1322D
331
13237
331
13238
331
13243
331
13244
331
13590
331
13591
331
1359A
331
1359B
331
135AD
331
135AE
331
135C0
331
135C1
331
135C9
331
135CA
102
}
  0
BLOCK_RECORD
  5
11FE5
330
7466
100
AcDbSymbolTableRecord
100
AcDbBlockTableRecord
  2
A$C644A28E3
340
0
102
{BLKREFS
331
12430
102
}
  0
BLOCK_RECORD
  5
11FED
330
7466
100
AcDbSymbolTableRecord
100
AcDbBlockTableRecord
  2
A$C0EDA5930
340
0
102
{BLKREFS
331
1257C
331
125AD
331
125AE
331
125BF
331
125C3
331
125C4
331
125C5
331
125CD
331
125E2
331
125EC
331
125ED
102
}
  0
BLOCK_RECORD
  5
125F7
330
7466
100
AcDbSymbolTableRecord
100
AcDbBlockTableRecord
  2
*D3
340
0
  0
BLOCK_RECORD
  5
12602
330
7466
100
AcDbSymbolTableRecord
100
AcDbBlockTableRecord
  2
*D4
340
0
  0
BLOCK_RECORD
  5
1260D
330
7466
100
AcDbSymbolTableRecord
100
AcDbBlockTableRecord
  2
*D5
340
0
  0
BLOCK_RECORD
  5
12619
330
7466
100
AcDbSymbolTableRecord
100
AcDbBlockTableRecord
  2
*D6
340
0
  0
BLOCK_RECORD
  5
12627
330
7466
100
AcDbSymbolTableRecord
100
AcDbBlockTableRecord
  2
*D7
340
0
  0
BLOCK_RECORD
  5
12633
330
7466
100
AcDbSymbolTableRecord
100
AcDbBlockTableRecord
  2
*D8
340
0
  0
BLOCK_RECORD
  5
1263E
330
7466
100
AcDbSymbolTableRecord
100
AcDbBlockTableRecord
  2
*D9
340
0
  0
BLOCK_RECORD
  5
12656
330
7466
100
AcDbSymbolTableRecord
100
AcDbBlockTableRecord
  2
*D10
340
0
  0
BLOCK_RECORD
  5
12662
330
7466
100
AcDbSymbolTableRecord
100
AcDbBlockTableRecord
  2
*D11
340
0
  0
BLOCK_RECORD
  5
1266D
330
7466
100
AcDbSymbolTableRecord
100
AcDbBlockTableRecord
  2
*D12
340
0
  0
BLOCK_RECORD
  5
1267A
330
7466
100
AcDbSymbolTableRecord
100
AcDbBlockTableRecord
  2
*D13
340
0
  0
BLOCK_RECORD
  5
12690
330
7466
100
AcDbSymbolTableRecord
100
AcDbBlockTableRecord
  2
*D14
340
0
  0
BLOCK_RECORD
  5
1269B
330
7466
100
AcDbSymbolTableRecord
100
AcDbBlockTableRecord
  2
*D15
340
0
  0
BLOCK_RECORD
  5
126A6
330
7466
100
AcDbSymbolTableRecord
100
AcDbBlockTableRecord
  2
*D16
340
0
  0
BLOCK_RECORD
  5
126C0
330
7466
100
AcDbSymbolTableRecord
100
AcDbBlockTableRecord
  2
*D17
340
0
  0
BLOCK_RECORD
  5
126CD
330
7466
100
AcDbSymbolTableRecord
100
AcDbBlockTableRecord
  2
*D18
340
0
  0
BLOCK_RECORD
  5
126D8
330
7466
100
AcDbSymbolTableRecord
100
AcDbBlockTableRecord
  2
*D19
340
0
  0
BLOCK_RECORD
  5
126E3
330
7466
100
AcDbSymbolTableRecord
100
AcDbBlockTableRecord
  2
*D20
340
0
  0
BLOCK_RECORD
  5
126EF
330
7466
100
AcDbSymbolTableRecord
100
AcDbBlockTableRecord
  2
*D21
340
0
  0
BLOCK_RECORD
  5
126FA
330
7466
100
AcDbSymbolTableRecord
100
AcDbBlockTableRecord
  2
*D22
340
0
  0
BLOCK_RECORD
  5
12705
330
7466
100
AcDbSymbolTableRecord
100
AcDbBlockTableRecord
  2
*D23
340
0
  0
BLOCK_RECORD
  5
12711
330
7466
100
AcDbSymbolTableRecord
100
AcDbBlockTableRecord
  2
*D24
340
0
  0
BLOCK_RECORD
  5
12CD6
330
7466
100
AcDbSymbolTableRecord
100
AcDbBlockTableRecord
  2
*D25
340
0
  0
BLOCK_RECORD
  5
131CF
330
7466
100
AcDbSymbolTableRecord
100
AcDbBlockTableRecord
  2
*D26
340
0
  0
BLOCK_RECORD
  5
131ED
330
7466
100
AcDbSymbolTableRecord
100
AcDbBlockTableRecord
  2
*D27
340
0
  0
BLOCK_RECORD
  5
131FA
330
7466
100
AcDbSymbolTableRecord
100
AcDbBlockTableRecord
  2
*D28
340
0
  0
BLOCK_RECORD
  5
135DC
330
7466
100
AcDbSymbolTableRecord
100
AcDbBlockTableRecord
  2
_Closed
340
0
  0
BLOCK_RECORD
  5
135E3
330
7466
100
AcDbSymbolTableRecord
100
AcDbBlockTableRecord
  2
_None
340
0
  0
BLOCK_RECORD
  5
135EC
330
7466
100
AcDbSymbolTableRecord
100
AcDbBlockTableRecord
  2
_OPEN
340
0
  0
ENDTAB
  0
ENDSEC
  0
SECTION
  2
BLOCKS
  0
BLOCK
  5
7489
330
747D
100
AcDbEntity
  8
0
100
AcDbBlockBegin
  2
*MODEL_SPACE
 70
     0
 10
0.0
 20
0.0
 30
0.0
  3
*MODEL_SPACE
  1

  0
ENDBLK
  5
748A
330
747D
100
AcDbEntity
  8
0
100
AcDbBlockEnd
  0
BLOCK
  5
7487
330
747A
100
AcDbEntity
 67
     1
  8
0
100
AcDbBlockBegin
  2
*PAPER_SPACE
 70
     0
 10
0.0
 20
0.0
 30
0.0
  3
*PAPER_SPACE
  1

  0
ENDBLK
  5
7488
330
747A
100
AcDbEntity
 67
     1
  8
0
100
AcDbBlockEnd
  0
BLOCK
  5
F771
330
F770
100
AcDbEntity
  8
0
 48
50.0
100
AcDbBlockBegin
  2
_DOTSMALL
 70
     0
 10
0.0
 20
0.0
 30
0.0
  3
_DOTSMALL
  1

  0
LWPOLYLINE
  5
F772
330
F770
100
AcDbEntity
  8
0
  6
ByBlock
 62
     0
 48
50.0
100
AcDbPolyline
 90
        2
 70
     1
 43
0.5
 10
-0.0625
 20
0.0
 42
1.0
 10
0.0625
 20
0.0
 42
1.0
  0
ENDBLK
  5
F776
330
F770
100
AcDbEntity
  8
0
 48
50.0
100
AcDbBlockEnd
  0
BLOCK
  5
11FEB
330
11FE5
100
AcDbEntity
  8
0
 48
50.0
100
AcDbBlockBegin
  2
A$C644A28E3
 70
     0
 10
0.0
 20
0.0
 30
0.0
  3
A$C644A28E3
  1

  0
ARC
  5
11FE6
330
11FE5
100
AcDbEntity
  8
部品1
 48
50.0
100
AcDbCircle
 10
53.99999260842742
 20
10.0000017156417
 30
0.0
 40
10.0
100
AcDbArc
 50
270.0000000000021
 51
0.0
  0
ARC
  5
11FE7
330
11FE5
100
AcDbEntity
  8
部品1
 48
50.0
100
AcDbCircle
 10
9.999992608427419
 20
10.00000171563806
 30
0.0
 40
10.0
100
AcDbArc
 50
180.0
 51
270.0000000000009
  0
LINE
  5
11FE8
330
11FE5
100
AcDbEntity
  8
部品1
 48
50.0
100
AcDbLine
 10
9.999992608427419
 20
0.0000017156380636
 30
0.0
 11
53.99999260842742
 21
0.0000017156417016
 31
0.0
  0
LINE
  5
11FE9
330
11FE5
100
AcDbEntity
  8
部品1
 48
50.0
100
AcDbLine
 10
63.99999260842742
 20
45.00000171563806
 30
0.0
 11
63.99999260842742
 21
10.0000017156417
 31
0.0
  0
LINE
  5
11FEA
330
11FE5
100
AcDbEntity
  8
部品1
 48
50.0
100
AcDbLine
 10
-0.0000073915725807
 20
45.00000171563806
 30
0.0
 11
-0.0000073915725807
 21
10.00000171563806
 31
0.0
  0
ENDBLK
  5
11FEC
330
11FE5
100
AcDbEntity
  8
0
 48
50.0
100
AcDbBlockEnd
  0
BLOCK
  5
11FF0
330
11FED
100
AcDbEntity
  8
0
 48
50.0
100
AcDbBlockBegin
  2
A$C0EDA5930
 70
     0
 10
0.0
 20
0.0
 30
0.0
  3
A$C0EDA5930
  1

  0
LWPOLYLINE
  5
11FEE
330
11FED
100
AcDbEntity
  8
細線
 48
50.0
100
AcDbPolyline
 90
        6
 70
     1
 43
0.0
 10
2.499964582253596
 20
5.24718422294427
 10
8.999964582253596
 20
1.494407473212049
 10
15.4999645822536
 20
5.24718422294427
 10
15.4999645822536
 20
12.75273772240871
 10
8.999964582253596
 20
16.50551447214093
 10
2.499964582253596
 20
12.75273772240871
  0
CIRCLE
  5
11FEF
330
11FED
100
AcDbEntity
  8
部品1
 48
50.0
100
AcDbCircle
 10
8.999964582253596
 20
8.99996097267649
 30
0.0
 40
9.0
  0
ENDBLK
  5
11FF1
330
11FED
100
AcDbEntity
  8
0
 48
50.0
100
AcDbBlockEnd
  0
BLOCK
  5
131B6
330
125F7
100
AcDbEntity
  8
0
 48
50.0
100
AcDbBlockBegin
  2
*D3
 70
     1
 10
0.0
 20
0.0
 30
0.0
  3
*D3
  1

  0
LINE
  5
131B7
330
125F7
100
AcDbEntity
  8
0
  6
ByBlock
 62
     0
 48
50.0
100
AcDbLine
 10
8404.210680973712
 20
1758.019021987513
 30
0.0
 11
8032.693688665771
 21
1758.019021987513
 31
0.0
  0
LINE
  5
131B8
330
125F7
100
AcDbEntity
  8
0
  6
ByBlock
 62
     0
 48
50.0
100
AcDbLine
 10
9557.014730540791
 20
1488.019021987513
 30
0.0
 11
8032.693688665771
 21
1488.019021987513
 31
0.0
  0
LINE
  5
131B9
330
125F7
100
AcDbEntity
  8
0
  6
ByBlock
 62
     0
 48
50.0
100
AcDbLine
 10
8077.693688665773
 20
1758.019021987513
 30
0.0
 11
8077.693688665773
 21
1488.019021987513
 31
0.0
  0
INSERT
  5
131BA
330
125F7
100
AcDbEntity
  8
0
  6
ByBlock
 62
     0
 48
50.0
100
AcDbBlockReference
  2
_DOTSMALL
 10
8077.693688665773
 20
1758.019021987513
 30
0.0
 41
75.0
 42
75.0
 43
75.0
 50
90.0
  0
INSERT
  5
131BB
330
125F7
100
AcDbEntity
  8
0
  6
ByBlock
 62
     0
 48
50.0
100
AcDbBlockReference
  2
_DOTSMALL
 10
8077.693688665773
 20
1488.019021987513
 30
0.0
 41
75.0
 42
75.0
 43
75.0
 50
270.0
  0
MTEXT
  5
131BC
330
125F7
100
AcDbEntity
  8
0
  6
ByBlock
 62
     7
 48
50.0
100
AcDbMText
 10
8002.684830398056
 20
1623.019021987512
 30
0.0
 40
90.0
 41
0.0
 71
     5
 72
     1
  1
\A1;270
  7
STYLE1
 11
0.0000000000000001
 21
1.0
 31
0.0
 73
     1
 44
1.0
1001
ACAD
1000
MTEXTBEGIN
1070
    73
1070
     1
1070
    44
1040
1.0
1070
    74
1070
     0
1000
MTEXTEND
  0
POINT
  5
131BD
330
125F7
100
AcDbEntity
  8
DEFPOINTS
  6
ByBlock
 62
     0
 48
50.0
100
AcDbPoint
 10
8419.210680973712
 20
1758.019021987513
 30
0.0
  0
POINT
  5
131BE
330
125F7
100
AcDbEntity
  8
DEFPOINTS
  6
ByBlock
 62
     0
 48
50.0
100
AcDbPoint
 10
9572.014730540791
 20
1488.019021987513
 30
0.0
  0
POINT
  5
131BF
330
125F7
100
AcDbEntity
  8
DEFPOINTS
  6
ByBlock
 62
     0
 48
50.0
100
AcDbPoint
 10
8077.693688665773
 20
1488.019021987513
 30
0.0
  0
ENDBLK
  5
131C0
330
125F7
100
AcDbEntity
  8
0
 48
50.0
100
AcDbBlockEnd
  0
BLOCK
  5
13195
330
12602
100
AcDbEntity
  8
0
 48
50.0
100
AcDbBlockBegin
  2
*D4
 70
     1
 10
0.0
 20
0.0
 30
0.0
  3
*D4
  1

  0
LINE
  5
13196
330
12602
100
AcDbEntity
  8
0
  6
ByBlock
 62
     0
 48
50.0
100
AcDbLine
 10
9617.0147305408
 20
2008.019021987513
 30
0.0
 11
8397.519972478155
 21
2008.019021987513
 31
0.0
  0
LINE
  5
13197
330
12602
100
AcDbEntity
  8
0
  6
ByBlock
 62
     0
 48
50.0
100
AcDbLine
 10
8361.037228464029
 20
1758.019021987513
 30
0.0
 11
8487.519972478157
 21
1758.019021987513
 31
0.0
  0
LINE
  5
13198
330
12602
100
AcDbEntity
  8
0
  6
ByBlock
 62
     0
 48
50.0
100
AcDbLine
 10
8442.519972478157
 20
2008.019021987513
 30
0.0
 11
8442.519972478157
 21
1758.019021987513
 31
0.0
  0
INSERT
  5
13199
330
12602
100
AcDbEntity
  8
0
  6
ByBlock
 62
     0
 48
50.0
100
AcDbBlockReference
  2
_DOTSMALL
 10
8442.519972478157
 20
2008.019021987513
 30
0.0
 41
75.0
 42
75.0
 43
75.0
 50
90.0
  0
INSERT
  5
1319A
330
12602
100
AcDbEntity
  8
0
  6
ByBlock
 62
     0
 48
50.0
100
AcDbBlockReference
  2
_DOTSMALL
 10
8442.519972478157
 20
1758.019021987513
 30
0.0
 41
75.0
 42
75.0
 43
75.0
 50
270.0
  0
MTEXT
  5
1319B
330
12602
100
AcDbEntity
  8
0
  6
ByBlock
 62
     7
 48
50.0
100
AcDbMText
 10
8367.51111421044
 20
1883.019021987513
 30
0.0
 40
90.0
 41
0.0
 71
     5
 72
     1
  1
\A1;250
  7
STYLE1
 11
0.0000000000000001
 21
1.0
 31
0.0
 73
     1
 44
1.0
1001
ACAD
1000
MTEXTBEGIN
1070
    73
1070
     1
1070
    44
1040
1.0
1070
    74
1070
     0
1000
MTEXTEND
  0
POINT
  5
1319C
330
12602
100
AcDbEntity
  8
DEFPOINTS
  6
ByBlock
 62
     0
 48
50.0
100
AcDbPoint
 10
9632.014730540801
 20
2008.019021987513
 30
0.0
  0
POINT
  5
1319D
330
12602
100
AcDbEntity
  8
DEFPOINTS
  6
ByBlock
 62
     0
 48
50.0
100
AcDbPoint
 10
8346.037228464028
 20
1758.019021987513
 30
0.0
  0
POINT
  5
1319E
330
12602
100
AcDbEntity
  8
DEFPOINTS
  6
ByBlock
 62
     0
 48
50.0
100
AcDbPoint
 10
8442.519972478157
 20
1758.019021987513
 30
0.0
  0
ENDBLK
  5
1319F
330
12602
100
AcDbEntity
  8
0
 48
50.0
100
AcDbBlockEnd
  0
BLOCK
  5
131A0
330
1260D
100
AcDbEntity
  8
0
 48
50.0
100
AcDbBlockBegin
  2
*D5
 70
     1
 10
0.0
 20
0.0
 30
0.0
  3
*D5
  1

  0
LINE
  5
131A1
330
1260D
100
AcDbEntity
  8
0
  6
ByBlock
 62
     0
 48
50.0
100
AcDbLine
 10
9617.014730540802
 20
2908.019021987513
 30
0.0
 11
8397.519972478155
 21
2908.019021987513
 31
0.0
  0
LINE
  5
131A2
330
1260D
100
AcDbEntity
  8
0
  6
ByBlock
 62
     0
 48
50.0
100
AcDbLine
 10
9617.0147305408
 20
2008.019021987513
 30
0.0
 11
8397.519972478155
 21
2008.019021987513
 31
0.0
  0
LINE
  5
131A3
330
1260D
100
AcDbEntity
  8
0
  6
ByBlock
 62
     0
 48
50.0
100
AcDbLine
 10
8442.519972478157
 20
2908.019021987513
 30
0.0
 11
8442.519972478157
 21
2008.019021987513
 31
0.0
  0
INSERT
  5
131A4
330
1260D
100
AcDbEntity
  8
0
  6
ByBlock
 62
     0
 48
50.0
100
AcDbBlockReference
  2
_DOTSMALL
 10
8442.519972478157
 20
2908.019021987513
 30
0.0
 41
75.0
 42
75.0
 43
75.0
 50
90.0
  0
INSERT
  5
131A5
330
1260D
100
AcDbEntity
  8
0
  6
ByBlock
 62
     0
 48
50.0
100
AcDbBlockReference
  2
_DOTSMALL
 10
8442.519972478157
 20
2008.019021987513
 30
0.0
 41
75.0
 42
75.0
 43
75.0
 50
270.0
  0
MTEXT
  5
131A6
330
1260D
100
AcDbEntity
  8
0
  6
ByBlock
 62
     7
 48
50.0
100
AcDbMText
 10
8367.519972478156
 20
2458.019021987513
 30
0.0
 40
90.0
 41
0.0
 71
     5
 72
     1
  1
\A1;900
  7
STYLE1
 11
0.0000000000000001
 21
1.0
 31
0.0
 73
     1
 44
1.0
1001
ACAD
1000
MTEXTBEGIN
1070
    73
1070
     1
1070
    44
1040
1.0
1070
    74
1070
     0
1000
MTEXTEND
  0
POINT
  5
131A7
330
1260D
100
AcDbEntity
  8
DEFPOINTS
  6
ByBlock
 62
     0
 48
50.0
100
AcDbPoint
 10
9632.014730540802
 20
2908.019021987513
 30
0.0
  0
POINT
  5
131A8
330
1260D
100
AcDbEntity
  8
DEFPOINTS
  6
ByBlock
 62
     0
 48
50.0
100
AcDbPoint
 10
9632.014730540801
 20
2008.019021987513
 30
0.0
  0
POINT
  5
131A9
330
1260D
100
AcDbEntity
  8
DEFPOINTS
  6
ByBlock
 62
     0
 48
50.0
100
AcDbPoint
 10
8442.519972478157
 20
2008.019021987513
 30
0.0
  0
ENDBLK
  5
131AA
330
1260D
100
AcDbEntity
  8
0
 48
50.0
100
AcDbBlockEnd
  0
BLOCK
  5
1300B
330
12619
100
AcDbEntity
  8
0
 48
50.0
100
AcDbBlockBegin
  2
*D6
 70
     1
 10
0.0
 20
0.0
 30
0.0
  3
*D6
  1

  0
LINE
  5
1300C
330
12619
100
AcDbEntity
  8
0
  6
ByBlock
 62
     0
 48
50.0
100
AcDbLine
 10
8851.072929773875
 20
3869.063670320162
 30
0.0
 11
8414.79416475661
 21
3889.746515476537
 31
0.0
  0
LINE
  5
1300D
330
12619
100
AcDbEntity
  8
0
  6
ByBlock
 62
     0
 48
50.0
100
AcDbLine
 10
8852.584597558545
 20
3753.862849516587
 30
0.0
 11
8409.348429013084
 21
3774.875527136521
 31
0.0
  0
LINE
  5
1300E
330
12619
100
AcDbEntity
  8
0
  6
ByBlock
 62
     0
 48
50.0
100
AcDbLine
 10
8454.29794618961
 20
3772.744587062967
 30
0.0
 11
8459.743681933138
 21
3887.615575402983
 31
0.0
  0
LINE
  5
1300F
330
12619
100
AcDbEntity
  8
0
  6
ByBlock
 62
     0
 48
50.0
100
AcDbLine
 10
8459.743681933138
 20
3887.615575402983
 30
0.0
 11
8475.831234004822
 21
4226.962376915047
 31
0.0
  0
INSERT
  5
13010
330
12619
100
AcDbEntity
  8
0
  6
ByBlock
 62
     0
 48
50.0
100
AcDbBlockReference
  2
_DOTSMALL
 10
8454.29794618961
 20
3772.744587062967
 30
0.0
 41
75.0
 42
75.0
 43
75.0
 50
267.2857877838782
  0
INSERT
  5
13011
330
12619
100
AcDbEntity
  8
0
  6
ByBlock
 62
     0
 48
50.0
100
AcDbBlockReference
  2
_DOTSMALL
 10
8459.743681933138
 20
3887.615575402983
 30
0.0
 41
75.0
 42
75.0
 43
75.0
 50
87.28578778387817
  0
MTEXT
  5
13012
330
12619
100
AcDbEntity
  8
0
  6
ByBlock
 62
     7
 48
50.0
100
AcDbMText
 10
8396.423162797358
 20
4135.756404909151
 30
0.0
 40
90.0
 41
0.0
 71
     5
 72
     1
  1
\A1;115
  7
STYLE1
 11
0.0473542238567545
 21
0.9988781594783841
 31
0.0
 73
     1
 44
1.0
1001
ACAD
1000
MTEXTBEGIN
1070
    73
1070
     1
1070
    44
1040
1.0
1070
    74
1070
     0
1000
MTEXTEND
  0
POINT
  5
13013
330
12619
100
AcDbEntity
  8
DEFPOINTS
  6
ByBlock
 62
     0
 48
50.0
100
AcDbPoint
 10
8866.056102166051
 20
3868.353356962311
 30
0.0
 50
2.714212216121843
  0
POINT
  5
13014
330
12619
100
AcDbEntity
  8
DEFPOINTS
  6
ByBlock
 62
     0
 48
50.0
100
AcDbPoint
 10
8867.567769950717
 20
3753.152536158737
 30
0.0
 50
2.714212216121843
  0
POINT
  5
13015
330
12619
100
AcDbEntity
  8
DEFPOINTS
  6
ByBlock
 62
     0
 48
50.0
100
AcDbPoint
 10
8454.29794618961
 20
3772.744587062967
 30
0.0
 50
2.714212216121843
  0
ENDBLK
  5
13016
330
12619
100
AcDbEntity
  8
0
 48
50.0
100
AcDbBlockEnd
  0
BLOCK
  5
131AB
330
12627
100
AcDbEntity
  8
0
 48
50.0
100
AcDbBlockBegin
  2
*D7
 70
     1
 10
0.0
 20
0.0
 30
0.0
  3
*D7
  1

  0
LINE
  5
131AC
330
12627
100
AcDbEntity
  8
0
  6
ByBlock
 62
     0
 48
50.0
100
AcDbLine
 10
8837.014730540799
 20
3869.019021987513
 30
0.0
 11
8032.693688665771
 21
3869.019021987513
 31
0.0
  0
LINE
  5
131AD
330
12627
100
AcDbEntity
  8
0
  6
ByBlock
 62
     0
 48
50.0
100
AcDbLine
 10
8404.210680973712
 20
1758.019021987513
 30
0.0
 11
8032.693688665771
 21
1758.019021987513
 31
0.0
  0
LINE
  5
131AE
330
12627
100
AcDbEntity
  8
0
  6
ByBlock
 62
     0
 48
50.0
100
AcDbLine
 10
8077.693688665771
 20
3869.019021987513
 30
0.0
 11
8077.693688665771
 21
1758.019021987513
 31
0.0
  0
INSERT
  5
131AF
330
12627
100
AcDbEntity
  8
0
  6
ByBlock
 62
     0
 48
50.0
100
AcDbBlockReference
  2
_DOTSMALL
 10
8077.693688665771
 20
3869.019021987513
 30
0.0
 41
75.0
 42
75.0
 43
75.0
 50
90.0
  0
INSERT
  5
131B0
330
12627
100
AcDbEntity
  8
0
  6
ByBlock
 62
     0
 48
50.0
100
AcDbBlockReference
  2
_DOTSMALL
 10
8077.693688665771
 20
1758.019021987513
 30
0.0
 41
75.0
 42
75.0
 43
75.0
 50
270.0
  0
MTEXT
  5
131B1
330
12627
100
AcDbEntity
  8
0
  6
ByBlock
 62
     7
 48
50.0
100
AcDbMText
 10
8002.684830398056
 20
2813.519021987513
 30
0.0
 40
90.0
 41
0.0
 71
     5
 72
     1
  1
\A1;2111
  7
STYLE1
 11
0.0000000000000001
 21
1.0
 31
0.0
 73
     1
 44
1.0
1001
ACAD
1000
MTEXTBEGIN
1070
    73
1070
     1
1070
    44
1040
1.0
1070
    74
1070
     0
1000
MTEXTEND
  0
POINT
  5
131B2
330
12627
100
AcDbEntity
  8
DEFPOINTS
  6
ByBlock
 62
     0
 48
50.0
100
AcDbPoint
 10
8852.014730540799
 20
3869.019021987513
 30
0.0
  0
POINT
  5
131B3
330
12627
100
AcDbEntity
  8
DEFPOINTS
  6
ByBlock
 62
     0
 48
50.0
100
AcDbPoint
 10
8419.210680973712
 20
1758.019021987513
 30
0.0
  0
POINT
  5
131B4
330
12627
100
AcDbEntity
  8
DEFPOINTS
  6
ByBlock
 62
     0
 48
50.0
100
AcDbPoint
 10
8077.693688665771
 20
1758.019021987513
 30
0.0
  0
ENDBLK
  5
131B5
330
12627
100
AcDbEntity
  8
0
 48
50.0
100
AcDbBlockEnd
  0
BLOCK
  5
13326
330
12633
100
AcDbEntity
  8
0
 48
50.0
100
AcDbBlockBegin
  2
*D8
 70
     1
 10
0.0
 20
0.0
 30
0.0
  3
*D8
  1

  0
LINE
  5
135C6
330
12633
100
AcDbEntity
  8
寸法
 62
     0
 48
50.0
370
    -2
100
AcDbLine
 10
2348.932775664512
 20
6088.606999670108
 30
0.0
 11
2068.26083183197
 21
6088.606999670108
 31
0.0
  0
LINE
  5
135C7
330
12633
100
AcDbEntity
  8
寸法
 62
     0
 48
50.0
370
    -2
100
AcDbLine
 10
2348.932775664512
 20
5346.606999670107
 30
0.0
 11
2068.26083183197
 21
5346.606999670107
 31
0.0
  0
LINE
  5
135C8
330
12633
100
AcDbEntity
  8
寸法
 62
     0
 48
50.0
370
    -2
100
AcDbLine
 10
2113.26083183197
 20
6088.606999670108
 30
0.0
 11
2113.26083183197
 21
5346.606999670107
 31
0.0
  0
INSERT
  5
135C9
330
12633
100
AcDbEntity
  8
寸法
 62
     0
 48
50.0
370
    -2
100
AcDbBlockReference
  2
_DOTSMALL
 10
2113.26083183197
 20
6088.606999670108
 30
0.0
 41
75.0
 42
75.0
 43
75.0
 50
90.0
  0
INSERT
  5
135CA
330
12633
100
AcDbEntity
  8
寸法
 62
     0
 48
50.0
370
    -2
100
AcDbBlockReference
  2
_DOTSMALL
 10
2113.26083183197
 20
5346.606999670107
 30
0.0
 41
75.0
 42
75.0
 43
75.0
 50
270.0
  0
MTEXT
  5
135CB
330
12633
100
AcDbEntity
  8
寸法
 62
     7
 48
50.0
100
AcDbMText
 10
2038.251973564253
 20
5717.606999670109
 30
0.0
 40
90.0
 41
0.0
 71
     5
 72
     1
  1
\A1;742
  7
STYLE1
 11
0.0000000000000001
 21
1.0
 31
0.0
 73
     1
 44
1.0
1001
ACAD
1000
MTEXTBEGIN
1070
    73
1070
     1
1070
    44
1040
1.0
1070
    74
1070
     0
1000
MTEXTEND
  0
POINT
  5
135CC
330
12633
100
AcDbEntity
  8
DEFPOINTS
 62
     0
 48
50.0
100
AcDbPoint
 10
2363.932775664512
 20
6088.606999670108
 30
0.0
  0
POINT
  5
135CD
330
12633
100
AcDbEntity
  8
DEFPOINTS
 62
     0
 48
50.0
100
AcDbPoint
 10
2363.932775664512
 20
5346.606999670107
 30
0.0
  0
POINT
  5
135CE
330
12633
100
AcDbEntity
  8
DEFPOINTS
 62
     0
 48
50.0
100
AcDbPoint
 10
2113.26083183197
 20
5346.606999670107
 30
0.0
  0
ENDBLK
  5
13330
330
12633
100
AcDbEntity
  8
0
 48
50.0
100
AcDbBlockEnd
  0
BLOCK
  5
1321C
330
1263E
100
AcDbEntity
  8
0
 48
50.0
100
AcDbBlockBegin
  2
*D9
 70
     1
 10
0.0
 20
0.0
 30
0.0
  3
*D9
  1

  0
LINE
  5
1321D
330
1263E
100
AcDbEntity
  8
0
  6
ByBlock
 62
     0
 48
50.0
100
AcDbLine
 10
6955.714829237159
 20
7809.606999670106
 30
0.0
 11
7720.014808822745
 21
7809.606999670105
 31
0.0
  0
LINE
  5
1321E
330
1263E
100
AcDbEntity
  8
0
  6
ByBlock
 62
     0
 48
50.0
100
AcDbLine
 10
6955.714829237156
 20
5109.606999670103
 30
0.0
 11
7720.014808822743
 21
5109.606999670102
 31
0.0
  0
LINE
  5
1321F
330
1263E
100
AcDbEntity
  8
0
  6
ByBlock
 62
     0
 48
50.0
100
AcDbLine
 10
7675.014808822744
 20
7809.606999670105
 30
0.0
 11
7675.014808822743
 21
5109.606999670102
 31
0.0
  0
INSERT
  5
13220
330
1263E
100
AcDbEntity
  8
0
  6
ByBlock
 62
     0
 48
50.0
100
AcDbBlockReference
  2
_DOTSMALL
 10
7675.014808822744
 20
7809.606999670105
 30
0.0
 41
75.0
 42
75.0
 43
75.0
 50
90.0
  0
INSERT
  5
13221
330
1263E
100
AcDbEntity
  8
0
  6
ByBlock
 62
     0
 48
50.0
100
AcDbBlockReference
  2
_DOTSMALL
 10
7675.014808822743
 20
5109.606999670102
 30
0.0
 41
75.0
 42
75.0
 43
75.0
 50
270.0
  0
MTEXT
  5
13222
330
1263E
100
AcDbEntity
  8
0
  6
ByBlock
 62
     7
 48
50.0
100
AcDbMText
 10
7600.005950555027
 20
6459.606999670104
 30
0.0
 40
90.0
 41
0.0
 71
     5
 72
     1
  1
\A1;2700
  7
STYLE1
 11
0.0000000000000001
 21
1.0
 31
0.0
 73
     1
 44
1.0
1001
ACAD
1000
MTEXTBEGIN
1070
    73
1070
     1
1070
    44
1040
1.0
1070
    74
1070
     0
1000
MTEXTEND
  0
POINT
  5
13223
330
1263E
100
AcDbEntity
  8
DEFPOINTS
  6
ByBlock
 62
     0
 48
50.0
100
AcDbPoint
 10
6940.714829237158
 20
7809.606999670106
 30
0.0
  0
POINT
  5
13224
330
1263E
100
AcDbEntity
  8
DEFPOINTS
  6
ByBlock
 62
     0
 48
50.0
100
AcDbPoint
 10
6940.714829237157
 20
5109.606999670103
 30
0.0
  0
POINT
  5
13225
330
1263E
100
AcDbEntity
  8
DEFPOINTS
  6
ByBlock
 62
     0
 48
50.0
100
AcDbPoint
 10
7675.014808822743
 20
5109.606999670102
 30
0.0
  0
ENDBLK
  5
13226
330
1263E
100
AcDbEntity
  8
0
 48
50.0
100
AcDbBlockEnd
  0
BLOCK
  5
1330F
330
12656
100
AcDbEntity
  8
0
 48
50.0
100
AcDbBlockBegin
  2
*D10
 70
     1
 10
0.0
 20
0.0
 30
0.0
  3
*D10
  1

  0
LINE
  5
13310
330
12656
100
AcDbEntity
  8
0
  6
ByBlock
 62
     0
 48
50.0
100
AcDbLine
 10
3623.932775664512
 20
3883.367940889094
 30
0.0
 11
3623.932775664512
 21
4476.252285394894
 31
0.0
  0
LINE
  5
13311
330
12656
100
AcDbEntity
  8
0
  6
ByBlock
 62
     0
 48
50.0
100
AcDbLine
 10
6503.932775664511
 20
3883.367940889094
 30
0.0
 11
6503.932775664511
 21
4476.252285394894
 31
0.0
  0
LINE
  5
13312
330
12656
100
AcDbEntity
  8
0
  6
ByBlock
 62
     0
 48
50.0
100
AcDbLine
 10
3623.932775664512
 20
4431.252285394894
 30
0.0
 11
6503.932775664511
 21
4431.252285394894
 31
0.0
  0
INSERT
  5
13313
330
12656
100
AcDbEntity
  8
0
  6
ByBlock
 62
     0
 48
50.0
100
AcDbBlockReference
  2
_DOTSMALL
 10
3623.932775664512
 20
4431.252285394894
 30
0.0
 41
75.0
 42
75.0
 43
75.0
 50
180.0
  0
INSERT
  5
13314
330
12656
100
AcDbEntity
  8
0
  6
ByBlock
 62
     0
 48
50.0
100
AcDbBlockReference
  2
_DOTSMALL
 10
6503.932775664511
 20
4431.252285394894
 30
0.0
 41
75.0
 42
75.0
 43
75.0
  0
MTEXT
  5
13315
330
12656
100
AcDbEntity
  8
0
  6
ByBlock
 62
     7
 48
50.0
100
AcDbMText
 10
5063.932775664511
 20
4506.26114366261
 30
0.0
 40
90.0
 41
0.0
 71
     5
 72
     1
  1
\A1;2880
  7
STYLE1
 73
     1
 44
1.0
1001
ACAD
1000
MTEXTBEGIN
1070
    73
1070
     1
1070
    44
1040
1.0
1070
    74
1070
     0
1000
MTEXTEND
  0
POINT
  5
13316
330
12656
100
AcDbEntity
  8
DEFPOINTS
  6
ByBlock
 62
     0
 48
50.0
100
AcDbPoint
 10
3623.932775664512
 20
3868.367940889094
 30
0.0
  0
POINT
  5
13317
330
12656
100
AcDbEntity
  8
DEFPOINTS
  6
ByBlock
 62
     0
 48
50.0
100
AcDbPoint
 10
6503.932775664511
 20
3868.367940889094
 30
0.0
  0
POINT
  5
13318
330
12656
100
AcDbEntity
  8
DEFPOINTS
  6
ByBlock
 62
     0
 48
50.0
100
AcDbPoint
 10
6503.932775664511
 20
4431.252285394894
 30
0.0
  0
ENDBLK
  5
13319
330
12656
100
AcDbEntity
  8
0
 48
50.0
100
AcDbBlockEnd
  0
BLOCK
  5
13304
330
12662
100
AcDbEntity
  8
0
 48
50.0
100
AcDbBlockBegin
  2
*D11
 70
     1
 10
0.0
 20
0.0
 30
0.0
  3
*D11
  1

  0
LINE
  5
13305
330
12662
100
AcDbEntity
  8
0
  6
ByBlock
 62
     0
 48
50.0
100
AcDbLine
 10
3873.932775664512
 20
3760.698835700877
 30
0.0
 11
3873.932775664512
 21
4157.026764312719
 31
0.0
  0
LINE
  5
13306
330
12662
100
AcDbEntity
  8
0
  6
ByBlock
 62
     0
 48
50.0
100
AcDbLine
 10
6253.932775664511
 20
3760.698835700874
 30
0.0
 11
6253.932775664511
 21
4157.026764312719
 31
0.0
  0
LINE
  5
13307
330
12662
100
AcDbEntity
  8
0
  6
ByBlock
 62
     0
 48
50.0
100
AcDbLine
 10
3873.932775664512
 20
4112.026764312719
 30
0.0
 11
6253.932775664511
 21
4112.026764312719
 31
0.0
  0
INSERT
  5
13308
330
12662
100
AcDbEntity
  8
0
  6
ByBlock
 62
     0
 48
50.0
100
AcDbBlockReference
  2
_DOTSMALL
 10
3873.932775664512
 20
4112.026764312719
 30
0.0
 41
75.0
 42
75.0
 43
75.0
 50
180.0
  0
INSERT
  5
13309
330
12662
100
AcDbEntity
  8
0
  6
ByBlock
 62
     0
 48
50.0
100
AcDbBlockReference
  2
_DOTSMALL
 10
6253.932775664511
 20
4112.026764312719
 30
0.0
 41
75.0
 42
75.0
 43
75.0
  0
MTEXT
  5
1330A
330
12662
100
AcDbEntity
  8
0
  6
ByBlock
 62
     7
 48
50.0
100
AcDbMText
 10
5063.932775664511
 20
4187.035622580435
 30
0.0
 40
90.0
 41
0.0
 71
     5
 72
     1
  1
\A1;2380
  7
STYLE1
 73
     1
 44
1.0
1001
ACAD
1000
MTEXTBEGIN
1070
    73
1070
     1
1070
    44
1040
1.0
1070
    74
1070
     0
1000
MTEXTEND
  0
POINT
  5
1330B
330
12662
100
AcDbEntity
  8
DEFPOINTS
  6
ByBlock
 62
     0
 48
50.0
100
AcDbPoint
 10
3873.932775664512
 20
3745.698835700877
 30
0.0
  0
POINT
  5
1330C
330
12662
100
AcDbEntity
  8
DEFPOINTS
  6
ByBlock
 62
     0
 48
50.0
100
AcDbPoint
 10
6253.932775664511
 20
3745.698835700874
 30
0.0
  0
POINT
  5
1330D
330
12662
100
AcDbEntity
  8
DEFPOINTS
  6
ByBlock
 62
     0
 48
50.0
100
AcDbPoint
 10
6253.932775664511
 20
4112.026764312719
 30
0.0
  0
ENDBLK
  5
1330E
330
12662
100
AcDbEntity
  8
0
 48
50.0
100
AcDbBlockEnd
  0
BLOCK
  5
13059
330
1266D
100
AcDbEntity
  8
0
 48
50.0
100
AcDbBlockBegin
  2
*D12
 70
     1
 10
0.0
 20
0.0
 30
0.0
  3
*D12
  1

  0
LINE
  5
1305A
330
1266D
100
AcDbEntity
  8
0
  6
ByBlock
 62
     0
 48
50.0
100
AcDbLine
 10
823.9327756645115
 20
3883.367940889094
 30
0.0
 11
823.9327756645115
 21
4157.026764312721
 31
0.0
  0
LINE
  5
1305B
330
1266D
100
AcDbEntity
  8
0
  6
ByBlock
 62
     0
 48
50.0
100
AcDbLine
 10
1073.932775664511
 20
3760.698835700877
 30
0.0
 11
1073.932775664511
 21
4157.026764312721
 31
0.0
  0
LINE
  5
1305C
330
1266D
100
AcDbEntity
  8
0
  6
ByBlock
 62
     0
 48
50.0
100
AcDbLine
 10
823.9327756645115
 20
4112.026764312722
 30
0.0
 11
1073.932775664511
 21
4112.026764312722
 31
0.0
  0
INSERT
  5
1305D
330
1266D
100
AcDbEntity
  8
0
  6
ByBlock
 62
     0
 48
50.0
100
AcDbBlockReference
  2
_DOTSMALL
 10
823.9327756645115
 20
4112.026764312722
 30
0.0
 41
75.0
 42
75.0
 43
75.0
 50
180.0
  0
INSERT
  5
1305E
330
1266D
100
AcDbEntity
  8
0
  6
ByBlock
 62
     0
 48
50.0
100
AcDbBlockReference
  2
_DOTSMALL
 10
1073.932775664511
 20
4112.026764312722
 30
0.0
 41
75.0
 42
75.0
 43
75.0
  0
MTEXT
  5
1305F
330
1266D
100
AcDbEntity
  8
0
  6
ByBlock
 62
     7
 48
50.0
100
AcDbMText
 10
948.9327756645115
 20
4187.035622580437
 30
0.0
 40
90.0
 41
0.0
 71
     5
 72
     1
  1
\A1;250
  7
STYLE1
 73
     1
 44
1.0
1001
ACAD
1000
MTEXTBEGIN
1070
    73
1070
     1
1070
    44
1040
1.0
1070
    74
1070
     0
1000
MTEXTEND
  0
POINT
  5
13060
330
1266D
100
AcDbEntity
  8
DEFPOINTS
  6
ByBlock
 62
     0
 48
50.0
100
AcDbPoint
 10
823.9327756645115
 20
3868.367940889094
 30
0.0
  0
POINT
  5
13061
330
1266D
100
AcDbEntity
  8
DEFPOINTS
  6
ByBlock
 62
     0
 48
50.0
100
AcDbPoint
 10
1073.932775664511
 20
3745.698835700877
 30
0.0
  0
POINT
  5
13062
330
1266D
100
AcDbEntity
  8
DEFPOINTS
  6
ByBlock
 62
     0
 48
50.0
100
AcDbPoint
 10
1073.932775664511
 20
4112.026764312722
 30
0.0
  0
ENDBLK
  5
13063
330
1266D
100
AcDbEntity
  8
0
 48
50.0
100
AcDbBlockEnd
  0
BLOCK
  5
13064
330
1267A
100
AcDbEntity
  8
0
 48
50.0
100
AcDbBlockBegin
  2
*D13
 70
     1
 10
0.0
 20
0.0
 30
0.0
  3
*D13
  1

  0
LINE
  5
135BD
330
1267A
100
AcDbEntity
  8
寸法
 62
     0
 48
50.0
370
    -2
100
AcDbLine
 10
2348.932775664512
 20
5346.606999670107
 30
0.0
 11
2068.260831831971
 21
5346.606999670107
 31
0.0
  0
LINE
  5
135BE
330
1267A
100
AcDbEntity
  8
寸法
 62
     0
 48
50.0
370
    -2
100
AcDbLine
 10
2433.932775664512
 20
5109.606999670109
 30
0.0
 11
2068.26083183197
 21
5109.606999670109
 31
0.0
  0
LINE
  5
135BF
330
1267A
100
AcDbEntity
  8
寸法
 62
     0
 48
50.0
370
    -2
100
AcDbLine
 10
2113.260831831971
 20
5346.606999670107
 30
0.0
 11
2113.26083183197
 21
5109.606999670109
 31
0.0
  0
INSERT
  5
135C0
330
1267A
100
AcDbEntity
  8
寸法
 62
     0
 48
50.0
370
    -2
100
AcDbBlockReference
  2
_DOTSMALL
 10
2113.260831831971
 20
5346.606999670107
 30
0.0
 41
75.0
 42
75.0
 43
75.0
 50
90.0
  0
INSERT
  5
135C1
330
1267A
100
AcDbEntity
  8
寸法
 62
     0
 48
50.0
370
    -2
100
AcDbBlockReference
  2
_DOTSMALL
 10
2113.26083183197
 20
5109.606999670109
 30
0.0
 41
75.0
 42
75.0
 43
75.0
 50
270.0
  0
MTEXT
  5
135C2
330
1267A
100
AcDbEntity
  8
寸法
 62
     7
 48
50.0
100
AcDbMText
 10
2038.251973564253
 20
5228.106999670108
 30
0.0
 40
90.0
 41
0.0
 71
     5
 72
     1
  1
\A1;237
  7
STYLE1
 11
0.0000000000000001
 21
1.0
 31
0.0
 73
     1
 44
1.0
1001
ACAD
1000
MTEXTBEGIN
1070
    73
1070
     1
1070
    44
1040
1.0
1070
    74
1070
     0
1000
MTEXTEND
  0
POINT
  5
135C3
330
1267A
100
AcDbEntity
  8
DEFPOINTS
 62
     0
 48
50.0
100
AcDbPoint
 10
2363.932775664512
 20
5346.606999670107
 30
0.0
  0
POINT
  5
135C4
330
1267A
100
AcDbEntity
  8
DEFPOINTS
 62
     0
 48
50.0
100
AcDbPoint
 10
2448.932775664512
 20
5109.606999670109
 30
0.0
  0
POINT
  5
135C5
330
1267A
100
AcDbEntity
  8
DEFPOINTS
 62
     0
 48
50.0
100
AcDbPoint
 10
2113.26083183197
 20
5109.606999670109
 30
0.0
  0
ENDBLK
  5
1306E
330
1267A
100
AcDbEntity
  8
0
 48
50.0
100
AcDbBlockEnd
  0
BLOCK
  5
1329E
330
12690
100
AcDbEntity
  8
0
 48
50.0
100
AcDbBlockBegin
  2
*D14
 70
     1
 10
0.0
 20
0.0
 30
0.0
  3
*D14
  1

  0
LINE
  5
1329F
330
12690
100
AcDbEntity
  8
0
  6
ByBlock
 62
     0
 48
50.0
100
AcDbLine
 10
3873.932775664503
 20
1473.019021987513
 30
0.0
 11
3873.932775664503
 21
1282.19399530658
 31
0.0
  0
LINE
  5
132A0
330
12690
100
AcDbEntity
  8
0
  6
ByBlock
 62
     0
 48
50.0
100
AcDbLine
 10
6253.932775664504
 20
1473.019021987509
 30
0.0
 11
6253.932775664504
 21
1282.19399530658
 31
0.0
  0
LINE
  5
132A1
330
12690
100
AcDbEntity
  8
0
  6
ByBlock
 62
     0
 48
50.0
100
AcDbLine
 10
3873.932775664503
 20
1327.19399530658
 30
0.0
 11
6253.932775664504
 21
1327.19399530658
 31
0.0
  0
INSERT
  5
132A2
330
12690
100
AcDbEntity
  8
0
  6
ByBlock
 62
     0
 48
50.0
100
AcDbBlockReference
  2
_DOTSMALL
 10
3873.932775664503
 20
1327.19399530658
 30
0.0
 41
75.0
 42
75.0
 43
75.0
 50
180.0
  0
INSERT
  5
132A3
330
12690
100
AcDbEntity
  8
0
  6
ByBlock
 62
     0
 48
50.0
100
AcDbBlockReference
  2
_DOTSMALL
 10
6253.932775664504
 20
1327.19399530658
 30
0.0
 41
75.0
 42
75.0
 43
75.0
  0
MTEXT
  5
132A4
330
12690
100
AcDbEntity
  8
0
  6
ByBlock
 62
     7
 48
50.0
100
AcDbMText
 10
5063.932775664504
 20
1402.202853574297
 30
0.0
 40
90.0
 41
0.0
 71
     5
 72
     1
  1
\A1;2380
  7
STYLE1
 73
     1
 44
1.0
1001
ACAD
1000
MTEXTBEGIN
1070
    73
1070
     1
1070
    44
1040
1.0
1070
    74
1070
     0
1000
MTEXTEND
  0
POINT
  5
132A5
330
12690
100
AcDbEntity
  8
DEFPOINTS
  6
ByBlock
 62
     0
 48
50.0
100
AcDbPoint
 10
3873.932775664503
 20
1488.019021987513
 30
0.0
  0
POINT
  5
132A6
330
12690
100
AcDbEntity
  8
DEFPOINTS
  6
ByBlock
 62
     0
 48
50.0
100
AcDbPoint
 10
6253.932775664504
 20
1488.01902198751
 30
0.0
  0
POINT
  5
132A7
330
12690
100
AcDbEntity
  8
DEFPOINTS
  6
ByBlock
 62
     0
 48
50.0
100
AcDbPoint
 10
6253.932775664504
 20
1327.19399530658
 30
0.0
  0
ENDBLK
  5
132A8
330
12690
100
AcDbEntity
  8
0
 48
50.0
100
AcDbBlockEnd
  0
BLOCK
  5
1307A
330
1269B
100
AcDbEntity
  8
0
 48
50.0
100
AcDbBlockBegin
  2
*D15
 70
     1
 10
0.0
 20
0.0
 30
0.0
  3
*D15
  1

  0
LINE
  5
1307B
330
1269B
100
AcDbEntity
  8
0
  6
ByBlock
 62
     0
 48
50.0
100
AcDbLine
 10
6673.932775664511
 20
3760.698835700877
 30
0.0
 11
6673.932775664511
 21
4157.026764312721
 31
0.0
  0
LINE
  5
1307C
330
1269B
100
AcDbEntity
  8
0
  6
ByBlock
 62
     0
 48
50.0
100
AcDbLine
 10
6923.932775664511
 20
3883.367940889097
 30
0.0
 11
6923.932775664511
 21
4157.026764312721
 31
0.0
  0
LINE
  5
1307D
330
1269B
100
AcDbEntity
  8
0
  6
ByBlock
 62
     0
 48
50.0
100
AcDbLine
 10
6673.932775664511
 20
4112.026764312722
 30
0.0
 11
6923.932775664511
 21
4112.026764312722
 31
0.0
  0
INSERT
  5
1307E
330
1269B
100
AcDbEntity
  8
0
  6
ByBlock
 62
     0
 48
50.0
100
AcDbBlockReference
  2
_DOTSMALL
 10
6673.932775664511
 20
4112.026764312722
 30
0.0
 41
75.0
 42
75.0
 43
75.0
 50
180.0
  0
INSERT
  5
1307F
330
1269B
100
AcDbEntity
  8
0
  6
ByBlock
 62
     0
 48
50.0
100
AcDbBlockReference
  2
_DOTSMALL
 10
6923.932775664511
 20
4112.026764312722
 30
0.0
 41
75.0
 42
75.0
 43
75.0
  0
MTEXT
  5
13080
330
1269B
100
AcDbEntity
  8
0
  6
ByBlock
 62
     7
 48
50.0
100
AcDbMText
 10
6798.932775664511
 20
4187.035622580437
 30
0.0
 40
90.0
 41
0.0
 71
     5
 72
     1
  1
\A1;250
  7
STYLE1
 73
     1
 44
1.0
1001
ACAD
1000
MTEXTBEGIN
1070
    73
1070
     1
1070
    44
1040
1.0
1070
    74
1070
     0
1000
MTEXTEND
  0
POINT
  5
13081
330
1269B
100
AcDbEntity
  8
DEFPOINTS
  6
ByBlock
 62
     0
 48
50.0
100
AcDbPoint
 10
6673.932775664511
 20
3745.698835700877
 30
0.0
  0
POINT
  5
13082
330
1269B
100
AcDbEntity
  8
DEFPOINTS
  6
ByBlock
 62
     0
 48
50.0
100
AcDbPoint
 10
6923.932775664511
 20
3868.367940889097
 30
0.0
  0
POINT
  5
13083
330
1269B
100
AcDbEntity
  8
DEFPOINTS
  6
ByBlock
 62
     0
 48
50.0
100
AcDbPoint
 10
6923.932775664511
 20
4112.026764312722
 30
0.0
  0
ENDBLK
  5
13084
330
1269B
100
AcDbEntity
  8
0
 48
50.0
100
AcDbBlockEnd
  0
BLOCK
  5
1327B
330
126A6
100
AcDbEntity
  8
0
 48
50.0
100
AcDbBlockBegin
  2
*D16
 70
     1
 10
0.0
 20
0.0
 30
0.0
  3
*D16
  1

  0
LINE
  5
1327C
330
126A6
100
AcDbEntity
  8
0
  6
ByBlock
 62
     0
 48
50.0
100
AcDbLine
 10
6878.932775664498
 20
1808.019021987511
 30
0.0
 11
7083.665956742084
 21
1808.019021987511
 31
0.0
  0
LINE
  5
1327D
330
126A6
100
AcDbEntity
  8
0
  6
ByBlock
 62
     0
 48
50.0
100
AcDbLine
 10
6888.932775664503
 20
1758.019021987513
 30
0.0
 11
7083.665956742084
 21
1758.019021987513
 31
0.0
  0
LINE
  5
1327E
330
126A6
100
AcDbEntity
  8
0
  6
ByBlock
 62
     0
 48
50.0
100
AcDbLine
 10
7038.665956742083
 20
1758.019021987513
 30
0.0
 11
7038.665956742083
 21
1683.019021987513
 31
0.0
  0
LINE
  5
1327F
330
126A6
100
AcDbEntity
  8
0
  6
ByBlock
 62
     0
 48
50.0
100
AcDbLine
 10
7038.665956742083
 20
1808.019021987511
 30
0.0
 11
7038.665956742083
 21
2117.089888129243
 31
0.0
  0
LINE
  5
13280
330
126A6
100
AcDbEntity
  8
0
  6
ByBlock
 62
     0
 48
50.0
100
AcDbLine
 10
7038.665956742083
 20
1758.019021987513
 30
0.0
 11
7038.665956742083
 21
1808.019021987511
 31
0.0
  0
INSERT
  5
13281
330
126A6
100
AcDbEntity
  8
0
  6
ByBlock
 62
     0
 48
50.0
100
AcDbBlockReference
  2
_DOTSMALL
 10
7038.665956742083
 20
1758.019021987513
 30
0.0
 41
75.0
 42
75.0
 43
75.0
 50
90.0
  0
INSERT
  5
13282
330
126A6
100
AcDbEntity
  8
0
  6
ByBlock
 62
     0
 48
50.0
100
AcDbBlockReference
  2
_DOTSMALL
 10
7038.665956742083
 20
1808.019021987511
 30
0.0
 41
75.0
 42
75.0
 43
75.0
 50
270.0
  0
MTEXT
  5
13283
330
126A6
100
AcDbEntity
  8
0
  6
ByBlock
 62
     7
 48
50.0
100
AcDbMText
 10
6963.665956742083
 20
2037.554455058377
 30
0.0
 40
90.0
 41
0.0
 71
     5
 72
     1
  1
\A1;50
  7
STYLE1
 11
0.0000000000000001
 21
1.0
 31
0.0
 73
     1
 44
1.0
1001
ACAD
1000
MTEXTBEGIN
1070
    73
1070
     1
1070
    44
1040
1.0
1070
    74
1070
     0
1000
MTEXTEND
  0
POINT
  5
13284
330
126A6
100
AcDbEntity
  8
DEFPOINTS
  6
ByBlock
 62
     0
 48
50.0
100
AcDbPoint
 10
6863.932775664498
 20
1808.019021987511
 30
0.0
  0
POINT
  5
13285
330
126A6
100
AcDbEntity
  8
DEFPOINTS
  6
ByBlock
 62
     0
 48
50.0
100
AcDbPoint
 10
6873.932775664504
 20
1758.019021987513
 30
0.0
  0
POINT
  5
13286
330
126A6
100
AcDbEntity
  8
DEFPOINTS
  6
ByBlock
 62
     0
 48
50.0
100
AcDbPoint
 10
7038.665956742083
 20
1758.019021987513
 30
0.0
  0
ENDBLK
  5
13287
330
126A6
100
AcDbEntity
  8
0
 48
50.0
100
AcDbBlockEnd
  0
BLOCK
  5
1309C
330
126C0
100
AcDbEntity
  8
0
 48
50.0
100
AcDbBlockBegin
  2
*D17
 70
     1
 10
0.0
 20
0.0
 30
0.0
  3
*D17
  1

  0
LINE
  5
1358D
330
126C0
100
AcDbEntity
  8
寸法
 62
     0
 48
50.0
370
    -2
100
AcDbLine
 10
2433.932775664512
 20
7809.606999670101
 30
0.0
 11
2068.260831831971
 21
7809.606999670101
 31
0.0
  0
LINE
  5
1358E
330
126C0
100
AcDbEntity
  8
寸法
 62
     0
 48
50.0
370
    -2
100
AcDbLine
 10
2348.932775664515
 20
7572.606999670106
 30
0.0
 11
2068.260831831971
 21
7572.606999670106
 31
0.0
  0
LINE
  5
1358F
330
126C0
100
AcDbEntity
  8
寸法
 62
     0
 48
50.0
370
    -2
100
AcDbLine
 10
2113.260831831971
 20
7809.606999670101
 30
0.0
 11
2113.260831831971
 21
7572.606999670106
 31
0.0
  0
INSERT
  5
13590
330
126C0
100
AcDbEntity
  8
寸法
 62
     0
 48
50.0
370
    -2
100
AcDbBlockReference
  2
_DOTSMALL
 10
2113.260831831971
 20
7809.606999670101
 30
0.0
 41
75.0
 42
75.0
 43
75.0
 50
90.0
  0
INSERT
  5
13591
330
126C0
100
AcDbEntity
  8
寸法
 62
     0
 48
50.0
370
    -2
100
AcDbBlockReference
  2
_DOTSMALL
 10
2113.260831831971
 20
7572.606999670106
 30
0.0
 41
75.0
 42
75.0
 43
75.0
 50
270.0
  0
MTEXT
  5
13592
330
126C0
100
AcDbEntity
  8
寸法
 62
     7
 48
50.0
100
AcDbMText
 10
2038.251973564253
 20
7691.106999670103
 30
0.0
 40
90.0
 41
0.0
 71
     5
 72
     1
  1
\A1;237
  7
STYLE1
 11
0.0000000000000001
 21
1.0
 31
0.0
 73
     1
 44
1.0
1001
ACAD
1000
MTEXTBEGIN
1070
    73
1070
     1
1070
    44
1040
1.0
1070
    74
1070
     0
1000
MTEXTEND
  0
POINT
  5
13593
330
126C0
100
AcDbEntity
  8
DEFPOINTS
 62
     0
 48
50.0
100
AcDbPoint
 10
2448.932775664512
 20
7809.606999670101
 30
0.0
  0
POINT
  5
13594
330
126C0
100
AcDbEntity
  8
DEFPOINTS
 62
     0
 48
50.0
100
AcDbPoint
 10
2363.932775664515
 20
7572.606999670106
 30
0.0
  0
POINT
  5
13595
330
126C0
100
AcDbEntity
  8
DEFPOINTS
 62
     0
 48
50.0
100
AcDbPoint
 10
2113.260831831971
 20
7572.606999670106
 30
0.0
  0
ENDBLK
  5
130A6
330
126C0
100
AcDbEntity
  8
0
 48
50.0
100
AcDbBlockEnd
  0
BLOCK
  5
13331
330
126CD
100
AcDbEntity
  8
0
 48
50.0
100
AcDbBlockBegin
  2
*D18
 70
     1
 10
0.0
 20
0.0
 30
0.0
  3
*D18
  1

  0
LINE
  5
135AA
330
126CD
100
AcDbEntity
  8
寸法
 62
     0
 48
50.0
370
    -2
100
AcDbLine
 10
2348.932775664515
 20
6830.606999670109
 30
0.0
 11
2068.26083183197
 21
6830.606999670109
 31
0.0
  0
LINE
  5
135AB
330
126CD
100
AcDbEntity
  8
寸法
 62
     0
 48
50.0
370
    -2
100
AcDbLine
 10
2348.932775664512
 20
6088.606999670108
 30
0.0
 11
2068.26083183197
 21
6088.606999670108
 31
0.0
  0
LINE
  5
135AC
330
126CD
100
AcDbEntity
  8
寸法
 62
     0
 48
50.0
370
    -2
100
AcDbLine
 10
2113.26083183197
 20
6830.606999670109
 30
0.0
 11
2113.26083183197
 21
6088.606999670108
 31
0.0
  0
INSERT
  5
135AD
330
126CD
100
AcDbEntity
  8
寸法
 62
     0
 48
50.0
370
    -2
100
AcDbBlockReference
  2
_DOTSMALL
 10
2113.26083183197
 20
6830.606999670109
 30
0.0
 41
75.0
 42
75.0
 43
75.0
 50
90.0
  0
INSERT
  5
135AE
330
126CD
100
AcDbEntity
  8
寸法
 62
     0
 48
50.0
370
    -2
100
AcDbBlockReference
  2
_DOTSMALL
 10
2113.26083183197
 20
6088.606999670108
 30
0.0
 41
75.0
 42
75.0
 43
75.0
 50
270.0
  0
MTEXT
  5
135AF
330
126CD
100
AcDbEntity
  8
寸法
 62
     7
 48
50.0
100
AcDbMText
 10
2038.251973564253
 20
6459.606999670111
 30
0.0
 40
90.0
 41
0.0
 71
     5
 72
     1
  1
\A1;742
  7
STYLE1
 11
0.0000000000000001
 21
1.0
 31
0.0
 73
     1
 44
1.0
1001
ACAD
1000
MTEXTBEGIN
1070
    73
1070
     1
1070
    44
1040
1.0
1070
    74
1070
     0
1000
MTEXTEND
  0
POINT
  5
135B0
330
126CD
100
AcDbEntity
  8
DEFPOINTS
 62
     0
 48
50.0
100
AcDbPoint
 10
2363.932775664515
 20
6830.606999670109
 30
0.0
  0
POINT
  5
135B1
330
126CD
100
AcDbEntity
  8
DEFPOINTS
 62
     0
 48
50.0
100
AcDbPoint
 10
2363.932775664512
 20
6088.606999670108
 30
0.0
  0
POINT
  5
135B2
330
126CD
100
AcDbEntity
  8
DEFPOINTS
 62
     0
 48
50.0
100
AcDbPoint
 10
2113.26083183197
 20
6088.606999670108
 30
0.0
  0
ENDBLK
  5
1333B
330
126CD
100
AcDbEntity
  8
0
 48
50.0
100
AcDbBlockEnd
  0
BLOCK
  5
1331B
330
126D8
100
AcDbEntity
  8
0
 48
50.0
100
AcDbBlockBegin
  2
*D19
 70
     1
 10
0.0
 20
0.0
 30
0.0
  3
*D19
  1

  0
LINE
  5
13597
330
126D8
100
AcDbEntity
  8
寸法
 62
     0
 48
50.0
370
    -2
100
AcDbLine
 10
2348.932775664515
 20
7572.606999670106
 30
0.0
 11
2068.26083183197
 21
7572.606999670106
 31
0.0
  0
LINE
  5
13598
330
126D8
100
AcDbEntity
  8
寸法
 62
     0
 48
50.0
370
    -2
100
AcDbLine
 10
2348.932775664515
 20
6830.606999670109
 30
0.0
 11
2068.26083183197
 21
6830.606999670109
 31
0.0
  0
LINE
  5
13599
330
126D8
100
AcDbEntity
  8
寸法
 62
     0
 48
50.0
370
    -2
100
AcDbLine
 10
2113.26083183197
 20
7572.606999670106
 30
0.0
 11
2113.26083183197
 21
6830.606999670109
 31
0.0
  0
INSERT
  5
1359A
330
126D8
100
AcDbEntity
  8
寸法
 62
     0
 48
50.0
370
    -2
100
AcDbBlockReference
  2
_DOTSMALL
 10
2113.26083183197
 20
7572.606999670106
 30
0.0
 41
75.0
 42
75.0
 43
75.0
 50
90.0
  0
INSERT
  5
1359B
330
126D8
100
AcDbEntity
  8
寸法
 62
     0
 48
50.0
370
    -2
100
AcDbBlockReference
  2
_DOTSMALL
 10
2113.26083183197
 20
6830.606999670109
 30
0.0
 41
75.0
 42
75.0
 43
75.0
 50
270.0
  0
MTEXT
  5
1359C
330
126D8
100
AcDbEntity
  8
寸法
 62
     7
 48
50.0
100
AcDbMText
 10
2038.251973564253
 20
7201.606999670108
 30
0.0
 40
90.0
 41
0.0
 71
     5
 72
     1
  1
\A1;742
  7
STYLE1
 11
0.0000000000000001
 21
1.0
 31
0.0
 73
     1
 44
1.0
1001
ACAD
1000
MTEXTBEGIN
1070
    73
1070
     1
1070
    44
1040
1.0
1070
    74
1070
     0
1000
MTEXTEND
  0
POINT
  5
1359D
330
126D8
100
AcDbEntity
  8
DEFPOINTS
 62
     0
 48
50.0
100
AcDbPoint
 10
2363.932775664515
 20
7572.606999670106
 30
0.0
  0
POINT
  5
1359E
330
126D8
100
AcDbEntity
  8
DEFPOINTS
 62
     0
 48
50.0
100
AcDbPoint
 10
2363.932775664515
 20
6830.606999670109
 30
0.0
  0
POINT
  5
1359F
330
126D8
100
AcDbEntity
  8
DEFPOINTS
 62
     0
 48
50.0
100
AcDbPoint
 10
2113.26083183197
 20
6830.606999670109
 30
0.0
  0
ENDBLK
  5
13325
330
126D8
100
AcDbEntity
  8
0
 48
50.0
100
AcDbBlockEnd
  0
BLOCK
  5
130BD
330
126E3
100
AcDbEntity
  8
0
 48
50.0
100
AcDbBlockBegin
  2
*D20
 70
     1
 10
0.0
 20
0.0
 30
0.0
  3
*D20
  1

  0
LINE
  5
130BE
330
126E3
100
AcDbEntity
  8
0
  6
ByBlock
 62
     0
 48
50.0
100
AcDbLine
 10
8852.014730540799
 20
3884.019021987512
 30
0.0
 11
8852.014730540799
 21
4485.627285394897
 31
0.0
  0
LINE
  5
130BF
330
126E3
100
AcDbEntity
  8
0
  6
ByBlock
 62
     0
 48
50.0
100
AcDbLine
 10
11552.0147305408
 20
3756.019021987512
 30
0.0
 11
11552.0147305408
 21
4485.627285394897
 31
0.0
  0
LINE
  5
130C0
330
126E3
100
AcDbEntity
  8
0
  6
ByBlock
 62
     0
 48
50.0
100
AcDbLine
 10
8852.014730540799
 20
4440.627285394898
 30
0.0
 11
11552.0147305408
 21
4440.627285394898
 31
0.0
  0
INSERT
  5
130C1
330
126E3
100
AcDbEntity
  8
0
  6
ByBlock
 62
     0
 48
50.0
100
AcDbBlockReference
  2
_DOTSMALL
 10
8852.014730540799
 20
4440.627285394898
 30
0.0
 41
75.0
 42
75.0
 43
75.0
 50
180.0
  0
INSERT
  5
130C2
330
126E3
100
AcDbEntity
  8
0
  6
ByBlock
 62
     0
 48
50.0
100
AcDbBlockReference
  2
_DOTSMALL
 10
11552.0147305408
 20
4440.627285394898
 30
0.0
 41
75.0
 42
75.0
 43
75.0
  0
MTEXT
  5
130C3
330
126E3
100
AcDbEntity
  8
0
  6
ByBlock
 62
     7
 48
50.0
100
AcDbMText
 10
10202.0147305408
 20
4515.636143662614
 30
0.0
 40
90.0
 41
0.0
 71
     5
 72
     1
  1
\A1;2700
  7
STYLE1
 73
     1
 44
1.0
1001
ACAD
1000
MTEXTBEGIN
1070
    73
1070
     1
1070
    44
1040
1.0
1070
    74
1070
     0
1000
MTEXTEND
  0
POINT
  5
130C4
330
126E3
100
AcDbEntity
  8
DEFPOINTS
  6
ByBlock
 62
     0
 48
50.0
100
AcDbPoint
 10
8852.014730540799
 20
3869.019021987513
 30
0.0
  0
POINT
  5
130C5
330
126E3
100
AcDbEntity
  8
DEFPOINTS
  6
ByBlock
 62
     0
 48
50.0
100
AcDbPoint
 10
11552.0147305408
 20
3741.019021987512
 30
0.0
  0
POINT
  5
130C6
330
126E3
100
AcDbEntity
  8
DEFPOINTS
  6
ByBlock
 62
     0
 48
50.0
100
AcDbPoint
 10
11552.0147305408
 20
4440.627285394898
 30
0.0
  0
ENDBLK
  5
130C7
330
126E3
100
AcDbEntity
  8
0
 48
50.0
100
AcDbBlockEnd
  0
BLOCK
  5
130C8
330
126EF
100
AcDbEntity
  8
0
 48
50.0
100
AcDbBlockBegin
  2
*D21
 70
     1
 10
0.0
 20
0.0
 30
0.0
  3
*D21
  1

  0
LINE
  5
130C9
330
126EF
100
AcDbEntity
  8
0
  6
ByBlock
 62
     0
 48
50.0
100
AcDbLine
 10
11252.0147305408
 20
3632.583948142319
 30
0.0
 11
11252.0147305408
 21
4157.026764312723
 31
0.0
  0
LINE
  5
130CA
330
126EF
100
AcDbEntity
  8
0
  6
ByBlock
 62
     0
 48
50.0
100
AcDbLine
 10
11552.0147305408
 20
3756.019021987512
 30
0.0
 11
11552.0147305408
 21
4157.026764312723
 31
0.0
  0
LINE
  5
130CB
330
126EF
100
AcDbEntity
  8
0
  6
ByBlock
 62
     0
 48
50.0
100
AcDbLine
 10
11252.0147305408
 20
4112.026764312722
 30
0.0
 11
11552.0147305408
 21
4112.026764312722
 31
0.0
  0
INSERT
  5
130CC
330
126EF
100
AcDbEntity
  8
0
  6
ByBlock
 62
     0
 48
50.0
100
AcDbBlockReference
  2
_DOTSMALL
 10
11252.0147305408
 20
4112.026764312722
 30
0.0
 41
75.0
 42
75.0
 43
75.0
 50
180.0
  0
INSERT
  5
130CD
330
126EF
100
AcDbEntity
  8
0
  6
ByBlock
 62
     0
 48
50.0
100
AcDbBlockReference
  2
_DOTSMALL
 10
11552.0147305408
 20
4112.026764312722
 30
0.0
 41
75.0
 42
75.0
 43
75.0
  0
MTEXT
  5
130CE
330
126EF
100
AcDbEntity
  8
0
  6
ByBlock
 62
     7
 48
50.0
100
AcDbMText
 10
11402.0147305408
 20
4187.026764312722
 30
0.0
 40
90.0
 41
0.0
 71
     5
 72
     1
  1
\A1;300
  7
STYLE1
 73
     1
 44
1.0
1001
ACAD
1000
MTEXTBEGIN
1070
    73
1070
     1
1070
    44
1040
1.0
1070
    74
1070
     0
1000
MTEXTEND
  0
POINT
  5
130CF
330
126EF
100
AcDbEntity
  8
DEFPOINTS
  6
ByBlock
 62
     0
 48
50.0
100
AcDbPoint
 10
11252.0147305408
 20
3617.583948142319
 30
0.0
  0
POINT
  5
130D0
330
126EF
100
AcDbEntity
  8
DEFPOINTS
  6
ByBlock
 62
     0
 48
50.0
100
AcDbPoint
 10
11552.0147305408
 20
3741.019021987512
 30
0.0
  0
POINT
  5
130D1
330
126EF
100
AcDbEntity
  8
DEFPOINTS
  6
ByBlock
 62
     0
 48
50.0
100
AcDbPoint
 10
11552.0147305408
 20
4112.026764312722
 30
0.0
  0
ENDBLK
  5
130D2
330
126EF
100
AcDbEntity
  8
0
 48
50.0
100
AcDbBlockEnd
  0
BLOCK
  5
130D3
330
126FA
100
AcDbEntity
  8
0
 48
50.0
100
AcDbBlockBegin
  2
*D22
 70
     1
 10
0.0
 20
0.0
 30
0.0
  3
*D22
  1

  0
LINE
  5
130D4
330
126FA
100
AcDbEntity
  8
0
  6
ByBlock
 62
     0
 48
50.0
100
AcDbLine
 10
9602.014730540796
 20
3626.268990943539
 30
0.0
 11
9602.014730540796
 21
4157.026764312723
 31
0.0
  0
LINE
  5
130D5
330
126FA
100
AcDbEntity
  8
0
  6
ByBlock
 62
     0
 48
50.0
100
AcDbLine
 10
11252.0147305408
 20
3632.583948142319
 30
0.0
 11
11252.0147305408
 21
4157.026764312723
 31
0.0
  0
LINE
  5
130D6
330
126FA
100
AcDbEntity
  8
0
  6
ByBlock
 62
     0
 48
50.0
100
AcDbLine
 10
9602.014730540796
 20
4112.026764312722
 30
0.0
 11
11252.0147305408
 21
4112.026764312722
 31
0.0
  0
INSERT
  5
130D7
330
126FA
100
AcDbEntity
  8
0
  6
ByBlock
 62
     0
 48
50.0
100
AcDbBlockReference
  2
_DOTSMALL
 10
9602.014730540796
 20
4112.026764312722
 30
0.0
 41
75.0
 42
75.0
 43
75.0
 50
180.0
  0
INSERT
  5
130D8
330
126FA
100
AcDbEntity
  8
0
  6
ByBlock
 62
     0
 48
50.0
100
AcDbBlockReference
  2
_DOTSMALL
 10
11252.0147305408
 20
4112.026764312722
 30
0.0
 41
75.0
 42
75.0
 43
75.0
  0
MTEXT
  5
130D9
330
126FA
100
AcDbEntity
  8
0
  6
ByBlock
 62
     7
 48
50.0
100
AcDbMText
 10
10427.0147305408
 20
4187.026764312722
 30
0.0
 40
90.0
 41
0.0
 71
     5
 72
     1
  1
\A1;1650
  7
STYLE1
 73
     1
 44
1.0
1001
ACAD
1000
MTEXTBEGIN
1070
    73
1070
     1
1070
    44
1040
1.0
1070
    74
1070
     0
1000
MTEXTEND
  0
POINT
  5
130DA
330
126FA
100
AcDbEntity
  8
DEFPOINTS
  6
ByBlock
 62
     0
 48
50.0
100
AcDbPoint
 10
9602.014730540796
 20
3611.268990943539
 30
0.0
  0
POINT
  5
130DB
330
126FA
100
AcDbEntity
  8
DEFPOINTS
  6
ByBlock
 62
     0
 48
50.0
100
AcDbPoint
 10
11252.0147305408
 20
3617.583948142319
 30
0.0
  0
POINT
  5
130DC
330
126FA
100
AcDbEntity
  8
DEFPOINTS
  6
ByBlock
 62
     0
 48
50.0
100
AcDbPoint
 10
11252.0147305408
 20
4112.026764312722
 30
0.0
  0
ENDBLK
  5
130DD
330
126FA
100
AcDbEntity
  8
0
 48
50.0
100
AcDbBlockEnd
  0
BLOCK
  5
130DE
330
12705
100
AcDbEntity
  8
0
 48
50.0
100
AcDbBlockBegin
  2
*D23
 70
     1
 10
0.0
 20
0.0
 30
0.0
  3
*D23
  1

  0
LINE
  5
130DF
330
12705
100
AcDbEntity
  8
0
  6
ByBlock
 62
     0
 48
50.0
100
AcDbLine
 10
8852.014730540799
 20
3884.019021987512
 30
0.0
 11
8852.014730540799
 21
4157.026764312723
 31
0.0
  0
LINE
  5
130E0
330
12705
100
AcDbEntity
  8
0
  6
ByBlock
 62
     0
 48
50.0
100
AcDbLine
 10
9602.014730540796
 20
3626.268990943539
 30
0.0
 11
9602.014730540796
 21
4157.026764312723
 31
0.0
  0
LINE
  5
130E1
330
12705
100
AcDbEntity
  8
0
  6
ByBlock
 62
     0
 48
50.0
100
AcDbLine
 10
8852.014730540799
 20
4112.026764312722
 30
0.0
 11
9602.014730540796
 21
4112.026764312722
 31
0.0
  0
INSERT
  5
130E2
330
12705
100
AcDbEntity
  8
0
  6
ByBlock
 62
     0
 48
50.0
100
AcDbBlockReference
  2
_DOTSMALL
 10
8852.014730540799
 20
4112.026764312722
 30
0.0
 41
75.0
 42
75.0
 43
75.0
 50
180.0
  0
INSERT
  5
130E3
330
12705
100
AcDbEntity
  8
0
  6
ByBlock
 62
     0
 48
50.0
100
AcDbBlockReference
  2
_DOTSMALL
 10
9602.014730540796
 20
4112.026764312722
 30
0.0
 41
75.0
 42
75.0
 43
75.0
  0
MTEXT
  5
130E4
330
12705
100
AcDbEntity
  8
0
  6
ByBlock
 62
     7
 48
50.0
100
AcDbMText
 10
9227.014730540798
 20
4187.026764312722
 30
0.0
 40
90.0
 41
0.0
 71
     5
 72
     1
  1
\A1;750
  7
STYLE1
 73
     1
 44
1.0
1001
ACAD
1000
MTEXTBEGIN
1070
    73
1070
     1
1070
    44
1040
1.0
1070
    74
1070
     0
1000
MTEXTEND
  0
POINT
  5
130E5
330
12705
100
AcDbEntity
  8
DEFPOINTS
  6
ByBlock
 62
     0
 48
50.0
100
AcDbPoint
 10
8852.014730540799
 20
3869.019021987513
 30
0.0
  0
POINT
  5
130E6
330
12705
100
AcDbEntity
  8
DEFPOINTS
  6
ByBlock
 62
     0
 48
50.0
100
AcDbPoint
 10
9602.014730540796
 20
3611.268990943539
 30
0.0
  0
POINT
  5
130E7
330
12705
100
AcDbEntity
  8
DEFPOINTS
  6
ByBlock
 62
     0
 48
50.0
100
AcDbPoint
 10
9602.014730540796
 20
4112.026764312722
 30
0.0
  0
ENDBLK
  5
130E8
330
12705
100
AcDbEntity
  8
0
 48
50.0
100
AcDbBlockEnd
  0
BLOCK
  5
131C1
330
12711
100
AcDbEntity
  8
0
 48
50.0
100
AcDbBlockBegin
  2
*D24
 70
     1
 10
0.0
 20
0.0
 30
0.0
  3
*D24
  1

  0
LINE
  5
131C2
330
12711
100
AcDbEntity
  8
0
  6
ByBlock
 62
     0
 48
50.0
100
AcDbLine
 10
11567.0147305408
 20
3741.019021987512
 30
0.0
 11
11965.2319373948
 21
3741.019021987512
 31
0.0
  0
LINE
  5
131C3
330
12711
100
AcDbEntity
  8
0
  6
ByBlock
 62
     0
 48
50.0
100
AcDbLine
 10
11681.24260819717
 20
1758.019021987513
 30
0.0
 11
11965.2319373948
 21
1758.019021987513
 31
0.0
  0
LINE
  5
131C4
330
12711
100
AcDbEntity
  8
0
  6
ByBlock
 62
     0
 48
50.0
100
AcDbLine
 10
11920.2319373948
 20
3741.019021987512
 30
0.0
 11
11920.2319373948
 21
1758.019021987513
 31
0.0
  0
INSERT
  5
131C5
330
12711
100
AcDbEntity
  8
0
  6
ByBlock
 62
     0
 48
50.0
100
AcDbBlockReference
  2
_DOTSMALL
 10
11920.2319373948
 20
3741.019021987512
 30
0.0
 41
75.0
 42
75.0
 43
75.0
 50
90.0
  0
INSERT
  5
131C6
330
12711
100
AcDbEntity
  8
0
  6
ByBlock
 62
     0
 48
50.0
100
AcDbBlockReference
  2
_DOTSMALL
 10
11920.2319373948
 20
1758.019021987513
 30
0.0
 41
75.0
 42
75.0
 43
75.0
 50
270.0
  0
MTEXT
  5
131C7
330
12711
100
AcDbEntity
  8
0
  6
ByBlock
 62
     7
 48
50.0
100
AcDbMText
 10
11845.2319373948
 20
2686.541844016541
 30
0.0
 40
90.0
 41
0.0
 71
     5
 72
     1
  1
\A1;1983
  7
STYLE1
 11
0.0000000000000001
 21
1.0
 31
0.0
 73
     1
 44
1.0
1001
ACAD
1000
MTEXTBEGIN
1070
    73
1070
     1
1070
    44
1040
1.0
1070
    74
1070
     0
1000
MTEXTEND
  0
POINT
  5
131C8
330
12711
100
AcDbEntity
  8
DEFPOINTS
  6
ByBlock
 62
     0
 48
50.0
100
AcDbPoint
 10
11552.0147305408
 20
3741.019021987512
 30
0.0
  0
POINT
  5
131C9
330
12711
100
AcDbEntity
  8
DEFPOINTS
  6
ByBlock
 62
     0
 48
50.0
100
AcDbPoint
 10
11666.24260819717
 20
1758.019021987513
 30
0.0
  0
POINT
  5
131CA
330
12711
100
AcDbEntity
  8
DEFPOINTS
  6
ByBlock
 62
     0
 48
50.0
100
AcDbPoint
 10
11920.2319373948
 20
1758.019021987513
 30
0.0
  0
ENDBLK
  5
131CB
330
12711
100
AcDbEntity
  8
0
 48
50.0
100
AcDbBlockEnd
  0
BLOCK
  5
130F4
330
12CD6
100
AcDbEntity
  8
0
 48
50.0
100
AcDbBlockBegin
  2
*D25
 70
     1
 10
0.0
 20
0.0
 30
0.0
  3
*D25
  1

  0
LINE
  5
130F5
330
12CD6
100
AcDbEntity
  8
0
  6
ByBlock
 62
     0
 48
50.0
100
AcDbLine
 10
9602.014730540792
 20
1473.019021987513
 30
0.0
 11
9602.014730540792
 21
1272.818995306581
 31
0.0
  0
LINE
  5
130F6
330
12CD6
100
AcDbEntity
  8
0
  6
ByBlock
 62
     0
 48
50.0
100
AcDbLine
 10
11252.0147305408
 20
1473.019021987514
 30
0.0
 11
11252.0147305408
 21
1272.818995306581
 31
0.0
  0
LINE
  5
130F7
330
12CD6
100
AcDbEntity
  8
0
  6
ByBlock
 62
     0
 48
50.0
100
AcDbLine
 10
9602.014730540792
 20
1317.818995306581
 30
0.0
 11
11252.0147305408
 21
1317.818995306581
 31
0.0
  0
INSERT
  5
130F8
330
12CD6
100
AcDbEntity
  8
0
  6
ByBlock
 62
     0
 48
50.0
100
AcDbBlockReference
  2
_DOTSMALL
 10
9602.014730540792
 20
1317.818995306581
 30
0.0
 41
75.0
 42
75.0
 43
75.0
 50
180.0
  0
INSERT
  5
130F9
330
12CD6
100
AcDbEntity
  8
0
  6
ByBlock
 62
     0
 48
50.0
100
AcDbBlockReference
  2
_DOTSMALL
 10
11252.0147305408
 20
1317.818995306581
 30
0.0
 41
75.0
 42
75.0
 43
75.0
  0
MTEXT
  5
130FA
330
12CD6
100
AcDbEntity
  8
0
  6
ByBlock
 62
     7
 48
50.0
100
AcDbMText
 10
10427.01473054079
 20
1392.818995306581
 30
0.0
 40
90.0
 41
0.0
 71
     5
 72
     1
  1
\A1;1650
  7
STYLE1
 73
     1
 44
1.0
1001
ACAD
1000
MTEXTBEGIN
1070
    73
1070
     1
1070
    44
1040
1.0
1070
    74
1070
     0
1000
MTEXTEND
  0
POINT
  5
130FB
330
12CD6
100
AcDbEntity
  8
DEFPOINTS
  6
ByBlock
 62
     0
 48
50.0
100
AcDbPoint
 10
9602.014730540792
 20
1488.019021987513
 30
0.0
  0
POINT
  5
130FC
330
12CD6
100
AcDbEntity
  8
DEFPOINTS
  6
ByBlock
 62
     0
 48
50.0
100
AcDbPoint
 10
11252.0147305408
 20
1488.019021987514
 30
0.0
  0
POINT
  5
130FD
330
12CD6
100
AcDbEntity
  8
DEFPOINTS
  6
ByBlock
 62
     0
 48
50.0
100
AcDbPoint
 10
11252.0147305408
 20
1317.818995306581
 30
0.0
  0
ENDBLK
  5
130FE
330
12CD6
100
AcDbEntity
  8
0
 48
50.0
100
AcDbBlockEnd
  0
BLOCK
  5
13227
330
131CF
100
AcDbEntity
  8
0
 48
50.0
100
AcDbBlockBegin
  2
*D26
 70
     1
 10
0.0
 20
0.0
 30
0.0
  3
*D26
  1

  0
LINE
  5
13228
330
131CF
100
AcDbEntity
  8
0
  6
ByBlock
 62
     0
 48
50.0
100
AcDbLine
 10
6947.714829237158
 20
7809.606999670106
 30
0.0
 11
7364.367611091023
 21
7809.606999670106
 31
0.0
  0
LINE
  5
13229
330
131CF
100
AcDbEntity
  8
0
  6
ByBlock
 62
     0
 48
50.0
100
AcDbLine
 10
6925.714829237161
 20
7685.606999670105
 30
0.0
 11
7364.367611091023
 21
7685.606999670105
 31
0.0
  0
LINE
  5
1322A
330
131CF
100
AcDbEntity
  8
0
  6
ByBlock
 62
     0
 48
50.0
100
AcDbLine
 10
7319.367611091023
 20
7685.606999670105
 30
0.0
 11
7319.367611091023
 21
7809.606999670106
 31
0.0
  0
LINE
  5
1322B
330
131CF
100
AcDbEntity
  8
0
  6
ByBlock
 62
     0
 48
50.0
100
AcDbLine
 10
7319.367611091023
 20
7809.606999670106
 30
0.0
 11
7319.367611091023
 21
8097.606999670105
 31
0.0
  0
INSERT
  5
1322C
330
131CF
100
AcDbEntity
  8
0
  6
ByBlock
 62
     0
 48
50.0
100
AcDbBlockReference
  2
_DOTSMALL
 10
7319.367611091023
 20
7685.606999670105
 30
0.0
 41
75.0
 42
75.0
 43
75.0
 50
270.0
  0
INSERT
  5
1322D
330
131CF
100
AcDbEntity
  8
0
  6
ByBlock
 62
     0
 48
50.0
100
AcDbBlockReference
  2
_DOTSMALL
 10
7319.367611091023
 20
7809.606999670106
 30
0.0
 41
75.0
 42
75.0
 43
75.0
 50
90.0
  0
MTEXT
  5
1322E
330
131CF
100
AcDbEntity
  8
0
  6
ByBlock
 62
     7
 48
50.0
100
AcDbMText
 10
7244.358752823308
 20
7991.106999670106
 30
0.0
 40
90.0
 41
0.0
 71
     5
 72
     1
  1
\A1;124
  7
STYLE1
 11
0.0000000000000001
 21
1.0
 31
0.0
 73
     1
 44
1.0
1001
ACAD
1000
MTEXTBEGIN
1070
    73
1070
     1
1070
    44
1040
1.0
1070
    74
1070
     0
1000
MTEXTEND
  0
POINT
  5
1322F
330
131CF
100
AcDbEntity
  8
DEFPOINTS
  6
ByBlock
 62
     0
 48
50.0
100
AcDbPoint
 10
6932.714829237159
 20
7809.606999670106
 30
0.0
  0
POINT
  5
13230
330
131CF
100
AcDbEntity
  8
DEFPOINTS
  6
ByBlock
 62
     0
 48
50.0
100
AcDbPoint
 10
6910.714829237161
 20
7685.606999670105
 30
0.0
  0
POINT
  5
13231
330
131CF
100
AcDbEntity
  8
DEFPOINTS
  6
ByBlock
 62
     0
 48
50.0
100
AcDbPoint
 10
7319.367611091023
 20
7685.606999670105
 30
0.0
  0
ENDBLK
  5
13232
330
131CF
100
AcDbEntity
  8
0
 48
50.0
100
AcDbBlockEnd
  0
BLOCK
  5
13233
330
131ED
100
AcDbEntity
  8
0
 48
50.0
100
AcDbBlockBegin
  2
*D27
 70
     1
 10
0.0
 20
0.0
 30
0.0
  3
*D27
  1

  0
LINE
  5
13234
330
131ED
100
AcDbEntity
  8
0
  6
ByBlock
 62
     0
 48
50.0
100
AcDbLine
 10
6925.714829237161
 20
7685.606999670105
 30
0.0
 11
7364.367611091025
 21
7685.606999670105
 31
0.0
  0
LINE
  5
13235
330
131ED
100
AcDbEntity
  8
0
  6
ByBlock
 62
     0
 48
50.0
100
AcDbLine
 10
6925.714829237159
 20
5179.606999670102
 30
0.0
 11
7364.367611091023
 21
5179.606999670102
 31
0.0
  0
LINE
  5
13236
330
131ED
100
AcDbEntity
  8
0
  6
ByBlock
 62
     0
 48
50.0
100
AcDbLine
 10
7319.367611091024
 20
7685.606999670105
 30
0.0
 11
7319.367611091023
 21
5179.606999670102
 31
0.0
  0
INSERT
  5
13237
330
131ED
100
AcDbEntity
  8
0
  6
ByBlock
 62
     0
 48
50.0
100
AcDbBlockReference
  2
_DOTSMALL
 10
7319.367611091024
 20
7685.606999670105
 30
0.0
 41
75.0
 42
75.0
 43
75.0
 50
90.0
  0
INSERT
  5
13238
330
131ED
100
AcDbEntity
  8
0
  6
ByBlock
 62
     0
 48
50.0
100
AcDbBlockReference
  2
_DOTSMALL
 10
7319.367611091023
 20
5179.606999670102
 30
0.0
 41
75.0
 42
75.0
 43
75.0
 50
270.0
  0
MTEXT
  5
13239
330
131ED
100
AcDbEntity
  8
0
  6
ByBlock
 62
     7
 48
50.0
100
AcDbMText
 10
7244.358752823308
 20
6432.606999670103
 30
0.0
 40
90.0
 41
0.0
 71
     5
 72
     1
  1
\A1;2506
  7
STYLE1
 11
0.0000000000000001
 21
1.0
 31
0.0
 73
     1
 44
1.0
1001
ACAD
1000
MTEXTBEGIN
1070
    73
1070
     1
1070
    44
1040
1.0
1070
    74
1070
     0
1000
MTEXTEND
  0
POINT
  5
1323A
330
131ED
100
AcDbEntity
  8
DEFPOINTS
  6
ByBlock
 62
     0
 48
50.0
100
AcDbPoint
 10
6910.714829237161
 20
7685.606999670105
 30
0.0
  0
POINT
  5
1323B
330
131ED
100
AcDbEntity
  8
DEFPOINTS
  6
ByBlock
 62
     0
 48
50.0
100
AcDbPoint
 10
6910.714829237159
 20
5179.606999670102
 30
0.0
  0
POINT
  5
1323C
330
131ED
100
AcDbEntity
  8
DEFPOINTS
  6
ByBlock
 62
     0
 48
50.0
100
AcDbPoint
 10
7319.367611091023
 20
5179.606999670102
 30
0.0
  0
ENDBLK
  5
1323D
330
131ED
100
AcDbEntity
  8
0
 48
50.0
100
AcDbBlockEnd
  0
BLOCK
  5
1323E
330
131FA
100
AcDbEntity
  8
0
 48
50.0
100
AcDbBlockBegin
  2
*D28
 70
     1
 10
0.0
 20
0.0
 30
0.0
  3
*D28
  1

  0
LINE
  5
1323F
330
131FA
100
AcDbEntity
  8
0
  6
ByBlock
 62
     0
 48
50.0
100
AcDbLine
 10
6925.714829237159
 20
5179.606999670102
 30
0.0
 11
7364.367611091023
 21
5179.606999670102
 31
0.0
  0
LINE
  5
13240
330
131FA
100
AcDbEntity
  8
0
  6
ByBlock
 62
     0
 48
50.0
100
AcDbLine
 10
6955.714829237162
 20
5109.606999670103
 30
0.0
 11
7364.367611091023
 21
5109.606999670103
 31
0.0
  0
LINE
  5
13241
330
131FA
100
AcDbEntity
  8
0
  6
ByBlock
 62
     0
 48
50.0
100
AcDbLine
 10
7319.367611091023
 20
5179.606999670102
 30
0.0
 11
7319.367611091023
 21
5109.606999670103
 31
0.0
  0
LINE
  5
13242
330
131FA
100
AcDbEntity
  8
0
  6
ByBlock
 62
     0
 48
50.0
100
AcDbLine
 10
7319.367611091023
 20
5109.606999670103
 30
0.0
 11
7319.367611091023
 21
4875.536133528371
 31
0.0
  0
INSERT
  5
13243
330
131FA
100
AcDbEntity
  8
0
  6
ByBlock
 62
     0
 48
50.0
100
AcDbBlockReference
  2
_DOTSMALL
 10
7319.367611091023
 20
5179.606999670102
 30
0.0
 41
75.0
 42
75.0
 43
75.0
 50
90.0
  0
INSERT
  5
13244
330
131FA
100
AcDbEntity
  8
0
  6
ByBlock
 62
     0
 48
50.0
100
AcDbBlockReference
  2
_DOTSMALL
 10
7319.367611091023
 20
5109.606999670103
 30
0.0
 41
75.0
 42
75.0
 43
75.0
 50
270.0
  0
MTEXT
  5
13245
330
131FA
100
AcDbEntity
  8
0
  6
ByBlock
 62
     7
 48
50.0
100
AcDbMText
 10
7244.367611091023
 20
4955.071566599237
 30
0.0
 40
90.0
 41
0.0
 71
     5
 72
     1
  1
\A1;70
  7
STYLE1
 11
0.0000000000000001
 21
1.0
 31
0.0
 73
     1
 44
1.0
1001
ACAD
1000
MTEXTBEGIN
1070
    73
1070
     1
1070
    44
1040
1.0
1070
    74
1070
     0
1000
MTEXTEND
  0
POINT
  5
13246
330
131FA
100
AcDbEntity
  8
DEFPOINTS
  6
ByBlock
 62
     0
 48
50.0
100
AcDbPoint
 10
6910.714829237159
 20
5179.606999670102
 30
0.0
  0
POINT
  5
13247
330
131FA
100
AcDbEntity
  8
DEFPOINTS
  6
ByBlock
 62
     0
 48
50.0
100
AcDbPoint
 10
6940.714829237162
 20
5109.606999670103
 30
0.0
  0
POINT
  5
13248
330
131FA
100
AcDbEntity
  8
DEFPOINTS
  6
ByBlock
 62
     0
 48
50.0
100
AcDbPoint
 10
7319.367611091023
 20
5109.606999670103
 30
0.0
  0
ENDBLK
  5
13249
330
131FA
100
AcDbEntity
  8
0
 48
50.0
100
AcDbBlockEnd
  0
BLOCK
  5
135E1
330
135DC
100
AcDbEntity
  8
0
 48
50.0
100
AcDbBlockBegin
  2
_Closed
 70
     0
 10
0.0
 20
0.0
 30
0.0
  3
_Closed
  1

  0
LINE
  5
135DD
330
135DC
100
AcDbEntity
  8
0
  6
ByBlock
 62
     0
370
    -2
100
AcDbLine
 10
-1.0
 20
0.1666666666666666
 30
0.0
 11
0.0
 21
0.0
 31
0.0
  0
LINE
  5
135DE
330
135DC
100
AcDbEntity
  8
0
  6
ByBlock
 62
     0
370
    -2
100
AcDbLine
 10
0.0
 20
0.0
 30
0.0
 11
-1.0
 21
-0.1666666666666666
 31
0.0
  0
LINE
  5
135DF
330
135DC
100
AcDbEntity
  8
0
  6
ByBlock
 62
     0
370
    -2
100
AcDbLine
 10
-1.0
 20
0.1666666666666666
 30
0.0
 11
-1.0
 21
-0.1666666666666666
 31
0.0
  0
LINE
  5
135E0
330
135DC
100
AcDbEntity
  8
0
  6
ByBlock
 62
     0
370
    -2
100
AcDbLine
 10
0.0
 20
0.0
 30
0.0
 11
-1.0
 21
0.0
 31
0.0
  0
ENDBLK
  5
135E2
330
135DC
100
AcDbEntity
  8
0
 48
50.0
100
AcDbBlockEnd
  0
BLOCK
  5
135E4
330
135E3
100
AcDbEntity
  8
0
 48
50.0
100
AcDbBlockBegin
  2
_None
 70
     0
 10
0.0
 20
0.0
 30
0.0
  3
_None
  1

  0
ENDBLK
  5
135E5
330
135E3
100
AcDbEntity
  8
0
 48
50.0
100
AcDbBlockEnd
  0
BLOCK
  5
135ED
330
135EC
100
AcDbEntity
  8
0
100
AcDbBlockBegin
  2
_OPEN
 70
     0
 10
0.0
 20
0.0
 30
0.0
  3
_OPEN
  1

  0
LINE
  5
135EE
330
135EC
100
AcDbEntity
  8
0
  6
ByBlock
 62
     0
100
AcDbLine
 10
-1.0
 20
0.1666666666666666
 30
0.0
 11
0.0
 21
0.0
 31
0.0
  0
LINE
  5
135EF
330
135EC
100
AcDbEntity
  8
0
  6
ByBlock
 62
     0
100
AcDbLine
 10
0.0
 20
0.0
 30
0.0
 11
-1.0
 21
-0.1666666666666666
 31
0.0
  0
LINE
  5
135F0
330
135EC
100
AcDbEntity
  8
0
  6
ByBlock
 62
     0
100
AcDbLine
 10
0.0
 20
0.0
 30
0.0
 11
-1.0
 21
0.0
 31
0.0
  0
ENDBLK
  5
135F1
330
135EC
100
AcDbEntity
  8
0
100
AcDbBlockEnd
  0
ENDSEC
  0
SECTION
  2
ENTITIES
  0
MTEXT
  5
763F
330
747D
100
AcDbEntity
  8
0
100
AcDbMText
 10
302.846345836809
 20
280.1983726409901
 30
0.0
 40
3.5
 41
5.323721266742722
 71
     1
 72
     5
  1

  7
MSMINCHO
 73
     1
 44
1.0
1001
ACAD
1000
MTEXTBEGIN
1070
    73
1070
     1
1070
    44
1040
1.0
1070
    74
1070
     0
1000
MTEXTEND
  0
LINE
  5
10B56
330
747D
100
AcDbEntity
  8
補助
  6
PHANTOM
 62
   230
 48
50.0
100
AcDbLine
 10
105.0
 20
0.0
 30
0.0
 11
104.9999999999996
 21
8557.199999999999
 31
0.0
  0
LINE
  5
10B57
330
747D
100
AcDbEntity
  8
補助
  6
PHANTOM
 62
   230
 48
50.0
100
AcDbLine
 10
104.9999999999996
 20
8557.199999999999
 30
0.0
 11
12230.4
 21
8557.199999999999
 31
0.0
  0
LINE
  5
10B59
330
747D
100
AcDbEntity
  8
仕様書枠
  6
Continuous
 48
50.0
100
AcDbLine
 10
9830.400000000002
 20
900.0
 30
0.0
 11
9830.400000000002
 21
-0.0000000000000547
 31
0.0
  0
LINE
  5
10B5C
330
747D
100
AcDbEntity
  8
仕様書枠
 48
50.0
100
AcDbLine
 10
12230.4
 20
900.0
 30
0.0
 11
12230.4
 21
-0.0000000000000682
 31
0.0
  0
LINE
  5
10B5D
330
747D
100
AcDbEntity
  8
仕様書枠
 48
50.0
100
AcDbLine
 10
105.0
 20
0.0
 30
0.0
 11
12230.4
 21
-0.0000000000000682
 31
0.0
  0
LINE
  5
10B5E
330
747D
100
AcDbEntity
  8
補助
  6
PHANTOM
 62
   230
 48
50.0
100
AcDbLine
 10
12230.4
 20
8557.199999999999
 30
0.0
 11
12230.4
 21
900.0
 31
0.0
  0
LINE
  5
10B6C
330
747D
100
AcDbEntity
  8
仕様書枠
 48
50.0
100
AcDbLine
 10
9830.400000000002
 20
900.0
 30
0.0
 11
12230.4
 21
900.0
 31
0.0
  0
LINE
  5
10B6D
330
747D
100
AcDbEntity
  8
補助
  6
PHANTOM
 62
   230
 48
50.0
100
AcDbLine
 10
9830.400000000002
 20
8557.199999999999
 30
0.0
 11
9830.400000000002
 21
3600.0
 31
0.0
  0
LINE
  5
10B6F
330
747D
100
AcDbEntity
  8
補助
  6
PHANTOM
 62
   230
 48
50.0
100
AcDbLine
 10
9830.400000000002
 20
3110.960973647383
 30
0.0
 11
12230.4
 21
3110.960973647383
 31
0.0
  0
LINE
  5
10B72
330
747D
100
AcDbEntity
  8
文字
 62
     7
 48
50.0
100
AcDbLine
 10
9890.400000000001
 20
300.0
 30
0.0
 11
12170.4
 21
300.0
 31
0.0
  0
TEXT
  5
10B73
330
747D
100
AcDbEntity
  8
文字
 62
     7
 48
50.0
100
AcDbText
 10
9872.234292432677
 20
671.3179555724553
 30
0.0
 40
150.0
  1
外 形 図
  7
STYLE2
100
AcDbText
  0
TEXT
  5
10B74
330
747D
100
AcDbEntity
  8
文字
 62
     7
 48
50.0
100
AcDbText
 10
9901.077524988313
 20
357.9555495773441
 30
0.0
 40
120.0
  1
機種名
  7
STYLE2
100
AcDbText
  0
TEXT
  5
10B79
330
747D
100
AcDbEntity
  8
文字
 62
     7
 48
50.0
100
AcDbText
 10
10893.0988779165
 20
773.6682797184214
 30
0.0
 40
75.0
  1
NO.01     <縮尺> S=1/30
  7
STYLE2
100
AcDbText
  0
LINE
  5
10B7B
330
747D
100
AcDbEntity
  8
仕様書枠
 48
50.0
100
AcDbLine
 10
9830.400000000002
 20
600.0
 30
0.0
 11
10688.4
 21
600.0
 31
0.0
  0
LINE
  5
10B88
330
747D
100
AcDbEntity
  8
仕様書枠
  6
Continuous
 48
50.0
100
AcDbLine
 10
10688.4
 20
900.0
 30
0.0
 11
10688.4
 21
600.0
 31
0.0
  0
TEXT
  5
10BB0
330
747D
100
AcDbEntity
  8
文字
 62
     7
 48
50.0
100
AcDbText
 10
11060.85853230337
 20
362.922534743356
 30
0.0
 40
120.0
  1
BF-２４
  7
STYLE3
100
AcDbText
  0
TEXT
  5
10EA8
330
747D
100
AcDbEntity
  8
文字
 62
     7
 48
50.0
100
AcDbText
 10
11138.71739229687
 20
628.6895453046891
 30
0.0
 40
75.0
  1
～一般型～
  7
STYLE2
100
AcDbText
  0
DIMENSION
  5
1238D
330
747D
100
AcDbEntity
  8
寸法
 48
50.0
100
AcDbDimension
  2
*D3
 10
6581.139026612388
 20
1488.019021987513
 30
0.0
 11
6581.139026612388
 21
1623.019021987512
 31
0.0
 12
-1496.554662053384
 22
0.0000000000002274
 32
0.0
 70
   160
 71
     5
 42
-1.0
  3
INABA_S30G
100
AcDbAlignedDimension
 13
6922.656018920328
 23
1758.019021987513
 33
0.0
 14
8075.460068487407
 24
1488.019021987513
 34
0.0
 50
90.0
100
AcDbRotatedDimension
  0
DIMENSION
  5
1238E
330
747D
100
AcDbEntity
  8
寸法
 48
50.0
100
AcDbDimension
  2
*D4
 10
6945.965310424772
 20
1758.019021987513
 30
0.0
 11
6945.965310424772
 21
1883.019021987513
 31
0.0
 12
-1496.554662053384
 22
0.0000000000002274
 32
0.0
 70
   160
 71
     5
 42
-1.0
  3
INABA_S30G
100
AcDbAlignedDimension
 13
8135.460068487416
 23
2008.019021987513
 33
0.0
 14
6849.482566410644
 24
1758.019021987513
 34
0.0
 50
90.0
100
AcDbRotatedDimension
  0
DIMENSION
  5
1238F
330
747D
100
AcDbEntity
  8
寸法
 48
50.0
100
AcDbDimension
  2
*D5
 10
6945.965310424772
 20
2008.019021987514
 30
0.0
 11
6870.965310424772
 21
2458.019021987513
 31
0.0
 12
-1496.554662053384
 22
0.0000000000002274
 32
0.0
 70
    32
 71
     5
 42
-1.0
  3
INABA_S30G
100
AcDbAlignedDimension
 13
8135.460068487418
 23
2908.019021987513
 33
0.0
 14
8135.460068487416
 24
2008.019021987513
 34
0.0
 50
90.0
100
AcDbRotatedDimension
  0
DIMENSION
  5
12390
330
747D
100
AcDbEntity
  8
寸法
 48
50.0
100
AcDbDimension
  2
*D6
 10
6957.743284136227
 20
3772.744587062967
 30
0.0
 11
6974.784362704851
 21
4132.204838119894
 31
0.0
 12
-1496.554662053384
 22
0.0000000000002274
 32
0.0
 70
   160
 71
     5
 42
-1.0
 51
2.714212216121843
  3
INABA_S30G
100
AcDbAlignedDimension
 13
7369.501440112667
 23
3868.353356962312
 33
0.0
 14
7371.013107897333
 24
3753.152536158737
 34
0.0
 50
87.28578778387817
100
AcDbRotatedDimension
  0
DIMENSION
  5
12391
330
747D
100
AcDbEntity
  8
寸法
 48
50.0
100
AcDbDimension
  2
*D7
 10
6581.139026612388
 20
1758.019021987513
 30
0.0
 11
6581.139026612388
 21
2813.519021987513
 31
0.0
 12
-1496.554662053384
 22
0.0000000000002274
 32
0.0
 70
   160
 71
     5
 42
-1.0
  3
INABA_S30G
100
AcDbAlignedDimension
 13
7355.460068487414
 23
3869.019021987514
 33
0.0
 14
6922.656018920328
 24
1758.019021987513
 34
0.0
 50
90.0
100
AcDbRotatedDimension
  0
LINE
  5
12392
330
747D
100
AcDbEntity
  8
Ｇ．Ｌ
 48
50.0
100
AcDbLine
 10
2059.62165654471
 20
1758.019021987513
 30
0.0
 11
10556.20496767242
 21
1758.019021987513
 31
0.0
  0
DIMENSION
  5
12393
330
747D
100
AcDbEntity
  8
寸法
 48
50.0
100
AcDbDimension
  2
*D8
 10
2113.26083183197
 20
5346.606999670107
 30
0.0
 11
2038.251973564253
 21
5717.606999670109
 31
0.0
 70
    32
 71
     5
 42
742.0000000000018
  3
INABA_S30G
100
AcDbAlignedDimension
 13
2363.932775664512
 23
6088.606999670108
 33
0.0
 14
2363.932775664512
 24
5346.606999670107
 34
0.0
 50
90.0
100
AcDbRotatedDimension
  0
DIMENSION
  5
12394
330
747D
100
AcDbEntity
  8
寸法
 48
50.0
100
AcDbDimension
  2
*D9
 10
6033.232755250094
 20
5109.606999670102
 30
0.0
 11
6033.232755250094
 21
6459.606999670104
 31
0.0
 12
-1641.782053572649
 22
0.0
 32
0.0
 70
   160
 71
     5
 42
-1.0
  3
INABA_S30G
100
AcDbAlignedDimension
 13
5298.932775664509
 23
7809.606999670106
 33
0.0
 14
5298.932775664507
 24
5109.606999670103
 34
0.0
 50
90.0
100
AcDbRotatedDimension
  0
LINE
  5
12395
330
747D
100
AcDbEntity
  8
点線
 48
50.0
100
AcDbLine
 10
5093.93277566451
 20
6066.106999670105
 30
0.0
 11
5093.93277566451
 21
5389.106999670103
 31
0.0
  0
LINE
  5
12396
330
747D
100
AcDbEntity
  8
点線
 48
50.0
100
AcDbLine
 10
5033.93277566451
 20
6066.106999670105
 30
0.0
 11
5033.93277566451
 21
5389.106999670103
 31
0.0
  0
LINE
  5
12399
330
747D
100
AcDbEntity
  8
部品1
 48
50.0
100
AcDbLine
 10
2653.932775664512
 20
6066.106999670105
 30
0.0
 11
2653.932775664512
 21
5389.106999670103
 31
0.0
  0
LINE
  5
1239A
330
747D
100
AcDbEntity
  8
部品1
 48
50.0
100
AcDbLine
 10
2713.932775664512
 20
6066.106999670105
 30
0.0
 11
2713.932775664512
 21
5389.106999670103
 31
0.0
  0
LINE
  5
1239B
330
747D
100
AcDbEntity
  8
部品1
 48
50.0
100
AcDbLine
 10
2503.932775664512
 20
7685.606999670105
 30
0.0
 11
2503.932775664512
 21
5179.606999670103
 31
0.0
  0
LINE
  5
1239C
330
747D
100
AcDbEntity
  8
部品1
 48
50.0
100
AcDbLine
 10
3879.25860003474
 20
6373.096298924661
 30
0.0
 11
4275.580162146372
 21
4894.004092988988
 31
0.0
  0
LINE
  5
123A6
330
747D
100
AcDbEntity
  8
部品1
 48
50.0
100
AcDbLine
 10
5021.93277566451
 20
7685.606999670105
 30
0.0
 11
5021.93277566451
 21
5179.606999670106
 31
0.0
  0
LINE
  5
123A7
330
747D
100
AcDbEntity
  8
部品1
 48
50.0
100
AcDbLine
 10
4976.932775664511
 20
7685.606999670105
 30
0.0
 11
4976.932775664511
 21
5179.606999670106
 31
0.0
  0
LINE
  5
123A8
330
747D
100
AcDbEntity
  8
部品1
 48
50.0
100
AcDbLine
 10
4948.932775664511
 20
7685.606999670105
 30
0.0
 11
4948.932775664511
 21
5179.606999670106
 31
0.0
  0
LINE
  5
123A9
330
747D
100
AcDbEntity
  8
部品1
 48
50.0
100
AcDbLine
 10
4903.932775664511
 20
7685.606999670105
 30
0.0
 11
4903.932775664511
 21
5179.606999670106
 31
0.0
  0
LINE
  5
123AA
330
747D
100
AcDbEntity
  8
部品1
 48
50.0
100
AcDbLine
 10
4368.93277566451
 20
7685.606999670105
 30
0.0
 11
4368.93277566451
 21
5179.606999670106
 31
0.0
  0
LINE
  5
123AB
330
747D
100
AcDbEntity
  8
部品1
 48
50.0
100
AcDbLine
 10
4441.93277566451
 20
7685.606999670105
 30
0.0
 11
4441.93277566451
 21
5179.606999670106
 31
0.0
  0
LINE
  5
123AC
330
747D
100
AcDbEntity
  8
部品1
 48
50.0
100
AcDbLine
 10
4323.932775664511
 20
7685.606999670105
 30
0.0
 11
4323.932775664511
 21
5179.606999670106
 31
0.0
  0
LINE
  5
123AD
330
747D
100
AcDbEntity
  8
部品1
 48
50.0
100
AcDbLine
 10
4396.93277566451
 20
7685.606999670105
 30
0.0
 11
4396.93277566451
 21
5179.606999670106
 31
0.0
  0
LINE
  5
123AE
330
747D
100
AcDbEntity
  8
部品1
 48
50.0
100
AcDbLine
 10
5232.432775664511
 20
7685.606999670105
 30
0.0
 11
5232.432775664511
 21
5179.606999670107
 31
0.0
  0
LINE
  5
123AF
330
747D
100
AcDbEntity
  8
部品1
 48
50.0
100
AcDbLine
 10
5255.432775664511
 20
7685.606999670105
 30
0.0
 11
5255.432775664511
 21
5179.606999670107
 31
0.0
  0
LINE
  5
123B0
330
747D
100
AcDbEntity
  8
部品1
 48
50.0
100
AcDbLine
 10
4675.432775664511
 20
7685.606999670105
 30
0.0
 11
4675.432775664511
 21
5179.606999670107
 31
0.0
  0
LINE
  5
123B1
330
747D
100
AcDbEntity
  8
部品1
 48
50.0
100
AcDbLine
 10
4652.43277566451
 20
7685.606999670105
 30
0.0
 11
4652.43277566451
 21
5179.606999670107
 31
0.0
  0
LINE
  5
123B2
330
747D
100
AcDbEntity
  8
部品1
 48
50.0
100
AcDbLine
 10
4072.432775664511
 20
7685.606999670105
 30
0.0
 11
4072.432775664511
 21
5652.160460764125
 31
0.0
  0
LINE
  5
123B3
330
747D
100
AcDbEntity
  8
部品1
 48
50.0
100
AcDbLine
 10
4095.432775664511
 20
7685.606999670105
 30
0.0
 11
4095.432775664511
 21
5566.323292190041
 31
0.0
  0
LINE
  5
123C0
330
747D
100
AcDbEntity
  8
部品1
 48
50.0
100
AcDbLine
 10
3823.932775664511
 20
7685.606999670105
 30
0.0
 11
3823.932775664513
 21
6579.575086444994
 31
0.0
  0
LINE
  5
123C1
330
747D
100
AcDbEntity
  8
部品1
 48
50.0
100
AcDbLine
 10
3868.932775664511
 20
7685.606999670105
 30
0.0
 11
3868.932775664512
 21
6432.606999670105
 31
0.0
  0
LINE
  5
123C2
330
747D
100
AcDbEntity
  8
部品1
 48
50.0
100
AcDbLine
 10
3896.932775664511
 20
7685.606999670105
 30
0.0
 11
3896.932775664512
 21
6432.606999670105
 31
0.0
  0
LINE
  5
123C3
330
747D
100
AcDbEntity
  8
部品1
 48
50.0
100
AcDbLine
 10
3941.932775664511
 20
7685.606999670105
 30
0.0
 11
3941.932775664511
 21
6131.106999670106
 31
0.0
  0
LINE
  5
123CF
330
747D
100
AcDbEntity
  8
部品1
 48
50.0
100
AcDbLine
 10
3675.432775664511
 20
7685.606999670105
 30
0.0
 11
3675.432775664512
 21
7133.784631368967
 31
0.0
  0
LINE
  5
123D3
330
747D
100
AcDbEntity
  8
部品1
 48
50.0
100
AcDbLine
 10
3652.432775664511
 20
7685.606999670105
 30
0.0
 11
3652.432775664511
 21
7219.621799943048
 31
0.0
  0
LINE
  5
123D6
330
747D
100
AcDbEntity
  8
部品1
 48
50.0
100
AcDbLine
 10
5268.93277566451
 20
7790.106999670098
 30
0.0
 11
5268.93277566451
 21
5159.606999670103
 31
0.0
  0
LINE
  5
123D7
330
747D
100
AcDbEntity
  8
部品1
 48
50.0
100
AcDbLine
 10
2478.932775664512
 20
7790.106999670102
 30
0.0
 11
2478.932775664512
 21
5159.606999670107
 31
0.0
  0
LINE
  5
123D8
330
747D
100
AcDbEntity
  8
部品1
 48
50.0
100
AcDbLine
 10
5313.932775664508
 20
7794.606999670105
 30
0.0
 11
5313.932775664512
 21
5124.606999670104
 31
0.0
  0
LINE
  5
123DA
330
747D
100
AcDbEntity
  8
部品1
 48
50.0
100
AcDbLine
 10
2433.932775664512
 20
7794.606999670101
 30
0.0
 11
2433.932775664512
 21
5124.606999670109
 31
0.0
  0
DIMENSION
  5
123DC
330
747D
100
AcDbEntity
  8
寸法
 48
50.0
100
AcDbDimension
  2
*D10
 10
5313.932775664511
 20
4431.252285394894
 30
0.0
 11
3873.932775664511
 21
4506.26114366261
 31
0.0
 12
-1190.0
 22
0.0000000000002274
 32
0.0
 70
    32
 71
     5
 42
-1.0
  3
INABA_S30G
100
AcDbAlignedDimension
 13
2433.932775664512
 23
3868.367940889094
 33
0.0
 14
5313.932775664511
 24
3868.367940889094
 34
0.0
100
AcDbRotatedDimension
  0
DIMENSION
  5
123DD
330
747D
100
AcDbEntity
  8
寸法
 48
50.0
100
AcDbDimension
  2
*D11
 10
5063.932775664511
 20
4112.026764312719
 30
0.0
 11
3873.932775664511
 21
4187.035622580435
 31
0.0
 12
-1190.0
 22
0.0000000000002274
 32
0.0
 70
    32
 71
     5
 42
-1.0
  3
INABA_S30G
100
AcDbAlignedDimension
 13
2683.932775664512
 23
3745.698835700877
 33
0.0
 14
5063.932775664511
 24
3745.698835700874
 34
0.0
100
AcDbRotatedDimension
  0
LINE
  5
123DE
330
747D
100
AcDbEntity
  8
部品1
 48
50.0
100
AcDbLine
 10
5253.932775664498
 20
1808.019021987507
 30
0.0
 11
2493.932775664504
 21
1808.019021987513
 31
0.0
  0
LINE
  5
123EE
330
747D
100
AcDbEntity
  8
細線
 48
50.0
100
AcDbLine
 10
5310.610828480829
 20
3791.820043036952
 30
0.0
 11
2437.254722848193
 21
3791.820043036957
 31
0.0
  0
LINE
  5
123EF
330
747D
100
AcDbEntity
  8
細線
 48
50.0
100
AcDbLine
 10
5311.13293790425
 20
3803.851052743534
 30
0.0
 11
2436.732613424775
 21
3803.851052743535
 31
0.0
  0
LINE
  5
123F0
330
747D
100
AcDbEntity
  8
部品1
 48
50.0
100
AcDbLine
 10
5296.484700660125
 20
3753.152536158739
 30
0.0
 11
2451.380850668899
 21
3753.152536158741
 31
0.0
  0
LINE
  5
123F1
330
747D
100
AcDbEntity
  8
部品1
 48
50.0
100
AcDbLine
 10
5300.356379318857
 20
3868.367940889094
 30
0.0
 11
2447.509172010168
 21
3868.367940889094
 31
0.0
  0
LINE
  5
123F2
330
747D
100
AcDbEntity
  8
部品1
 48
50.0
100
AcDbLine
 10
2503.932775664512
 20
5389.106999670103
 30
0.0
 11
4142.917738130866
 21
5389.106999670103
 31
0.0
  0
LINE
  5
123F3
330
747D
100
AcDbEntity
  8
部品1
 48
50.0
100
AcDbLine
 10
2503.932775664512
 20
5324.106999670107
 30
0.0
 11
4160.33443563889
 21
5324.106999670094
 31
0.0
  0
LINE
  5
123F4
330
747D
100
AcDbEntity
  8
部品1
 48
50.0
100
AcDbLine
 10
2503.932775664512
 20
5369.106999670105
 30
0.0
 11
4148.276721979489
 21
5369.106999670101
 31
0.0
  0
LINE
  5
123F5
330
747D
100
AcDbEntity
  8
部品1
 48
50.0
100
AcDbLine
 10
2478.932775664512
 20
5179.606999670103
 30
0.0
 11
5268.932775664509
 21
5179.606999670102
 31
0.0
  0
LINE
  5
123F6
330
747D
100
AcDbEntity
  8
部品1
 48
50.0
100
AcDbLine
 10
2448.932775664512
 20
5109.606999670109
 30
0.0
 11
5298.932775664512
 21
5109.606999670103
 31
0.0
  0
DIMENSION
  5
123F7
330
747D
100
AcDbEntity
  8
寸法
 48
50.0
100
AcDbDimension
  2
*D12
 10
2683.932775664512
 20
4112.026764312722
 30
0.0
 11
2558.932775664512
 21
4112.026764312722
 31
0.0
 12
1610.0
 22
0.0000000000002274
 32
0.0
 70
   160
 71
     5
 42
-1.0
  3
INABA_S30G
100
AcDbAlignedDimension
 13
2433.932775664512
 23
3868.367940889094
 33
0.0
 14
2683.932775664512
 24
3745.698835700877
 34
0.0
100
AcDbRotatedDimension
  0
LINE
  5
123F8
330
747D
100
AcDbEntity
  8
部品1
 48
50.0
100
AcDbLine
 10
2713.932775664512
 20
3488.763437444073
 30
0.0
 11
2713.932775664512
 21
1808.019021987513
 31
0.0
  0
LINE
  5
123F9
330
747D
100
AcDbEntity
  8
部品1
 48
50.0
100
AcDbLine
 10
2653.932775664512
 20
3488.763437444074
 30
0.0
 11
2653.932775664512
 21
1808.019021987513
 31
0.0
  0
TEXT
  5
123FA
330
747D
100
AcDbEntity
  8
寸法
 62
     7
 48
50.0
100
AcDbText
 10
2120.967323454312
 20
1781.19475287362
 30
0.0
 40
78.4
  1
▽G.L
100
AcDbText
  0
LINE
  5
123FB
330
747D
100
AcDbEntity
  8
点線
 48
50.0
100
AcDbLine
 10
2653.932775664504
 20
1808.019021987513
 30
0.0
 11
2653.932775664504
 21
1488.019021987513
 31
0.0
  0
LINE
  5
123FC
330
747D
100
AcDbEntity
  8
点線
 48
50.0
100
AcDbLine
 10
2713.932775664512
 20
1808.019021987513
 30
0.0
 11
2713.932775664505
 21
1488.019021987513
 31
0.0
  0
LINE
  5
123FD
330
747D
100
AcDbEntity
  8
点線
 48
10.0
100
AcDbLine
 10
2583.932775664504
 20
1503.019021987513
 30
0.0
 11
2653.932775664504
 21
1503.019021987513
 31
0.0
  0
LINE
  5
123FE
330
747D
100
AcDbEntity
  8
点線
 48
10.0
100
AcDbLine
 10
2713.932775664505
 20
1503.019021987515
 30
0.0
 11
2783.932775664505
 21
1503.019021987515
 31
0.0
  0
LINE
  5
123FF
330
747D
100
AcDbEntity
  8
点線
 48
10.0
100
AcDbLine
 10
2713.932775664505
 20
1513.019021987514
 30
0.0
 11
2783.932775664505
 21
1513.019021987514
 31
0.0
  0
LINE
  5
12400
330
747D
100
AcDbEntity
  8
点線
 48
10.0
100
AcDbLine
 10
2583.932775664504
 20
1513.019021987513
 30
0.0
 11
2653.932775664504
 21
1513.019021987513
 31
0.0
  0
LINE
  5
12401
330
747D
100
AcDbEntity
  8
点線
 48
10.0
100
AcDbLine
 10
2783.932775664505
 20
1513.019021987514
 30
0.0
 11
2783.932775664505
 21
1503.019021987514
 31
0.0
  0
LINE
  5
12402
330
747D
100
AcDbEntity
  8
点線
 48
10.0
100
AcDbLine
 10
2583.932775664504
 20
1513.019021987513
 30
0.0
 11
2583.932775664504
 21
1503.019021987513
 31
0.0
  0
LINE
  5
12403
330
747D
100
AcDbEntity
  8
点線
 48
50.0
100
AcDbLine
 10
2653.932775664504
 20
1488.019021987513
 30
0.0
 11
2713.932775664505
 21
1488.019021987514
 31
0.0
  0
LINE
  5
12404
330
747D
100
AcDbEntity
  8
部品1
 48
50.0
100
AcDbLine
 10
2493.932775664504
 20
1808.019021987513
 30
0.0
 11
2483.932775664504
 21
1798.019021987512
 31
0.0
  0
LINE
  5
12405
330
747D
100
AcDbEntity
  8
部品1
 48
50.0
100
AcDbLine
 10
2483.932775664504
 20
1798.019021987512
 30
0.0
 11
2483.932775664504
 21
1758.019021987513
 31
0.0
  0
LINE
  5
12406
330
747D
100
AcDbEntity
  8
細線
 48
50.0
100
AcDbLine
 10
2554.706665397171
 20
1758.019021987513
 30
0.0
 11
2604.70666539717
 21
1808.019021987512
 31
0.0
  0
LINE
  5
12407
330
747D
100
AcDbEntity
  8
細線
 48
50.0
100
AcDbLine
 10
2527.76588539717
 20
1758.019021987513
 30
0.0
 11
2577.765885397169
 21
1808.019021987512
 31
0.0
  0
LINE
  5
12408
330
747D
100
AcDbEntity
  8
細線
 48
50.0
100
AcDbLine
 10
2500.825105397168
 20
1758.019021987513
 30
0.0
 11
2550.825105397168
 21
1808.019021987512
 31
0.0
  0
LINE
  5
12409
330
747D
100
AcDbEntity
  8
細線
 48
50.0
100
AcDbLine
 10
2695.632775664516
 20
3664.263437444074
 30
0.0
 11
2695.632775664516
 21
3488.763437444074
 31
0.0
  0
LINE
  5
1240A
330
747D
100
AcDbEntity
  8
細線
 48
50.0
100
AcDbLine
 10
2672.232775664511
 20
3664.263437444074
 30
0.0
 11
2672.232775664507
 21
3488.763437444074
 31
0.0
  0
LINE
  5
1240B
330
747D
100
AcDbEntity
  8
細線
 48
50.0
100
AcDbLine
 10
2700.932775664516
 20
3664.263437444074
 30
0.0
 11
2700.932775664519
 21
3488.763437444074
 31
0.0
  0
LINE
  5
1240C
330
747D
100
AcDbEntity
  8
細線
 48
50.0
100
AcDbLine
 10
2666.932775664512
 20
3664.263437444074
 30
0.0
 11
2666.932775664508
 21
3488.763437444074
 31
0.0
  0
LINE
  5
1240D
330
747D
100
AcDbEntity
  8
部品1
 48
50.0
100
AcDbLine
 10
2715.932775664512
 20
3740.698835700876
 30
0.0
 11
2715.932775664519
 21
3488.763437444073
 31
0.0
  0
LINE
  5
1240E
330
747D
100
AcDbEntity
  8
部品1
 48
50.0
100
AcDbLine
 10
2651.932775664512
 20
3740.698835700877
 30
0.0
 11
2651.932775664508
 21
3488.763437444074
 31
0.0
  0
LINE
  5
1240F
330
747D
100
AcDbEntity
  8
部品1
 48
50.0
100
AcDbLine
 10
2715.932775664512
 20
3488.763437444073
 30
0.0
 11
2651.932775664512
 21
3488.763437444074
 31
0.0
  0
LINE
  5
12410
330
747D
100
AcDbEntity
  8
部品1
 48
50.0
100
AcDbLine
 10
2651.932775664512
 20
3638.275777857717
 30
0.0
 11
2489.530101015601
 21
3638.275777857717
 31
0.0
  0
LINE
  5
12411
330
747D
100
AcDbEntity
  8
部品1
 48
50.0
100
AcDbLine
 10
2651.932775664512
 20
3673.452074154014
 30
0.0
 11
2489.526709806604
 21
3673.452074154015
 31
0.0
  0
LINE
  5
12412
330
747D
100
AcDbEntity
  8
部品1
 48
50.0
100
AcDbLine
 10
2651.932775664512
 20
3708.62837045031
 30
0.0
 11
2489.523318597608
 21
3708.62837045031
 31
0.0
  0
LINE
  5
12413
330
747D
100
AcDbEntity
  8
部品1
 48
50.0
100
AcDbLine
 10
2653.014381412349
 20
3743.804666746607
 30
0.0
 11
2489.519927388611
 21
3743.804666746607
 31
0.0
  0
LINE
  5
12414
330
747D
100
AcDbEntity
  8
部品1
 48
50.0
100
AcDbLine
 10
2651.932775664512
 20
3626.917431457621
 30
0.0
 11
2451.380850668899
 21
3626.917431457621
 31
0.0
  0
LINE
  5
12415
330
747D
100
AcDbEntity
  8
部品1
 48
50.0
100
AcDbLine
 10
2456.932775664512
 20
3868.367940889094
 30
0.0
 11
2456.932775664512
 21
3753.152536158741
 31
0.0
  0
LINE
  5
12416
330
747D
100
AcDbEntity
  8
部品1
 48
50.0
100
AcDbLine
 10
2489.519026197123
 20
3753.152536158741
 30
0.0
 11
2489.531196029305
 21
3626.91743145762
 31
0.0
  0
LINE
  5
12417
330
747D
100
AcDbEntity
  8
部品1
 48
50.0
100
AcDbLine
 10
2434.509172010168
 20
3855.367940889094
 30
0.0
 11
2434.521396179728
 21
3728.569206009317
 31
0.0
  0
LINE
  5
12418
330
747D
100
AcDbEntity
  8
部品1
 48
50.0
100
AcDbLine
 10
2434.521396179728
 20
3728.569206009317
 30
0.0
 11
2438.393074838464
 21
3639.353801278964
 31
0.0
  0
ARC
  5
12419
330
747D
100
AcDbEntity
  8
部品1
 48
50.0
100
AcDbCircle
 10
2451.380850668899
 20
3639.917431457622
 30
0.0
 40
13.0
100
AcDbArc
 50
182.4849043365733
 51
270.0
  0
ARC
  5
1241A
330
747D
100
AcDbEntity
  8
部品1
 48
50.0
100
AcDbCircle
 10
2451.380850668899
 20
3766.152536158741
 30
0.0
 40
13.0
100
AcDbArc
 50
182.4849043365733
 51
270.0
  0
ARC
  5
1241B
330
747D
100
AcDbEntity
  8
部品1
 48
50.0
100
AcDbCircle
 10
2447.509172010168
 20
3855.367940889094
 30
0.0
 40
13.0
100
AcDbArc
 50
90.00000000000003
 51
182.484904336573
  0
LINE
  5
1241C
330
747D
100
AcDbEntity
  8
部品1
 48
50.0
100
AcDbLine
 10
2434.521396179728
 20
3854.804310710437
 30
0.0
 11
2438.393074838464
 21
3765.588905980084
 31
0.0
  0
ARC
  5
1241D
330
747D
100
AcDbEntity
  8
部品1
 48
50.0
100
AcDbCircle
 10
2710.932775664515
 20
3669.263437444073
 30
0.0
 40
5.0
100
AcDbArc
 50
269.9999999999991
 51
0.0000000000010305
  0
ARC
  5
1241E
330
747D
100
AcDbEntity
  8
部品1
 48
50.0
100
AcDbCircle
 10
2656.932775664512
 20
3669.263437444075
 30
0.0
 40
5.0
100
AcDbArc
 50
179.9999999999992
 51
269.9999999999992
  0
LINE
  5
1241F
330
747D
100
AcDbEntity
  8
部品1
 48
50.0
100
AcDbLine
 10
2710.932775664515
 20
3664.263437444073
 30
0.0
 11
2656.932775664512
 21
3664.263437444074
 31
0.0
  0
ARC
  5
12420
330
747D
100
AcDbEntity
  8
部品1
 48
50.0
100
AcDbCircle
 10
2656.932775664512
 20
3686.874220858927
 30
0.0
 40
5.0
100
AcDbArc
 50
179.9999999999998
 51
269.9999999999991
  0
ARC
  5
12421
330
747D
100
AcDbEntity
  8
部品1
 48
50.0
100
AcDbCircle
 10
2710.932775664515
 20
3686.874220858925
 30
0.0
 40
5.0
100
AcDbArc
 50
270.0
 51
359.9999999999996
  0
ARC
  5
12422
330
747D
100
AcDbEntity
  8
部品1
 48
50.0
100
AcDbCircle
 10
2710.932775664512
 20
3740.698835700876
 30
0.0
 40
5.0
100
AcDbArc
 50
359.9999999999996
 51
89.99999999999911
  0
ARC
  5
12423
330
747D
100
AcDbEntity
  8
部品1
 48
50.0
100
AcDbCircle
 10
2656.932775664512
 20
3740.698835700877
 30
0.0
 40
5.0
100
AcDbArc
 50
90.0
 51
180.0
  0
LINE
  5
12424
330
747D
100
AcDbEntity
  8
部品1
 48
50.0
100
AcDbLine
 10
2710.932775664515
 20
3681.874220858926
 30
0.0
 11
2656.932775664512
 21
3681.874220858926
 31
0.0
  0
LINE
  5
12425
330
747D
100
AcDbEntity
  8
部品1
 48
50.0
100
AcDbLine
 10
2710.932775664512
 20
3745.698835700876
 30
0.0
 11
2656.932775664512
 21
3745.698835700877
 31
0.0
  0
DIMENSION
  5
12426
330
747D
100
AcDbEntity
  8
寸法
 48
50.0
100
AcDbDimension
  2
*D13
 10
2113.26083183197
 20
5109.606999670109
 30
0.0
 11
2113.26083183197
 21
5228.106999670108
 31
0.0
 70
   160
 71
     5
 42
236.9999999999982
  3
INABA_S30G
100
AcDbAlignedDimension
 13
2363.932775664512
 23
5346.606999670107
 33
0.0
 14
2448.932775664512
 24
5109.606999670109
 34
0.0
 50
90.0
100
AcDbRotatedDimension
  0
LINE
  5
12427
330
747D
100
AcDbEntity
  8
部品1
 48
50.0
100
AcDbLine
 10
2456.932775664512
 20
5154.606999670104
 30
0.0
 11
2456.932775664512
 21
5109.606999670103
 31
0.0
  0
ARC
  5
12428
330
747D
100
AcDbEntity
  8
部品1
 48
50.0
100
AcDbCircle
 10
2461.932775664512
 20
5154.606999670104
 30
0.0
 40
5.0
100
AcDbArc
 50
90.00000000000003
 51
180.0
  0
LINE
  5
12429
330
747D
100
AcDbEntity
  8
部品1
 48
50.0
100
AcDbLine
 10
2478.932775664512
 20
5159.606999670103
 30
0.0
 11
2461.932775664512
 21
5159.606999670103
 31
0.0
  0
LINE
  5
1242A
330
747D
100
AcDbEntity
  8
部品1
 48
50.0
100
AcDbLine
 10
2456.932775664512
 20
5132.606999670107
 30
0.0
 11
2433.932775664512
 21
5132.606999670104
 31
0.0
  0
ARC
  5
1242B
330
747D
100
AcDbEntity
  8
部品1
 48
50.0
100
AcDbCircle
 10
2448.932775664512
 20
5124.606999670109
 30
0.0
 40
15.0
100
AcDbArc
 50
180.0
 51
270.0
  0
LINE
  5
1242D
330
747D
100
AcDbEntity
  8
点線
 48
6.0
100
AcDbLine
 10
2463.932775664515
 20
5324.106999670107
 30
0.0
 11
2503.932775664512
 21
5324.106999670107
 31
0.0
  0
LINE
  5
1242E
330
747D
100
AcDbEntity
  8
点線
 48
6.0
100
AcDbLine
 10
2463.932775664515
 20
5389.106999670103
 30
0.0
 11
2503.932775664512
 21
5389.106999670103
 31
0.0
  0
LINE
  5
1242F
330
747D
100
AcDbEntity
  8
点線
 48
6.0
100
AcDbLine
 10
2463.932775664512
 20
5389.106999670107
 30
0.0
 11
2463.932775664512
 21
5324.106999670103
 31
0.0
  0
INSERT
  5
12430
330
747D
100
AcDbEntity
  8
部品1
 48
50.0
100
AcDbBlockReference
  2
A$C644A28E3
 10
2651.932783056084
 20
5279.106997954469
 30
0.0
  0
LINE
  5
12431
330
747D
100
AcDbEntity
  8
点線
 48
6.0
100
AcDbLine
 10
2713.932775664512
 20
5389.106999670103
 30
0.0
 11
2713.932775664512
 21
5324.106999670107
 31
0.0
  0
LINE
  5
12432
330
747D
100
AcDbEntity
  8
点線
 48
6.0
100
AcDbLine
 10
2653.932775664512
 20
5389.106999670103
 30
0.0
 11
2653.932775664512
 21
5324.106999670107
 31
0.0
  0
LWPOLYLINE
  5
12433
330
747D
100
AcDbEntity
  8
部品1
100
AcDbPolyline
 90
        4
 70
     1
 43
0.0
 10
3550.417088024249
 20
1221.730838815044
 10
4197.448463304774
 20
1221.730838815044
 10
4197.448463304774
 20
1029.210682997903
 10
3550.417088024249
 20
1029.210682997903
  0
TEXT
  5
12434
330
747D
100
AcDbEntity
  8
仕様書枠
 62
     7
 48
50.0
100
AcDbText
 10
3581.832164785779
 20
1067.866114464862
 30
0.0
 40
112.0
  1
正 面 図
  7
STYLE2
100
AcDbText
  0
LINE
  5
12445
330
747D
100
AcDbEntity
  8
点線
 48
50.0
100
AcDbLine
 10
4160.33443563889
 20
5324.1069996701
 30
0.0
 11
5283.932775664509
 21
5324.1069996701
 31
0.0
  0
LINE
  5
12446
330
747D
100
AcDbEntity
  8
点線
 48
50.0
100
AcDbLine
 10
4142.917738130866
 20
5389.106999670103
 30
0.0
 11
5283.932775664513
 21
5389.106999670102
 31
0.0
  0
DIMENSION
  5
12447
330
747D
100
AcDbEntity
  8
寸法
 48
50.0
100
AcDbDimension
  2
*D14
 10
5063.932775664504
 20
1327.19399530658
 30
0.0
 11
3873.932775664503
 21
1402.202853574297
 31
0.0
 12
-1190.0
 22
0.0000000000002274
 32
0.0
 70
    32
 71
     5
 42
-1.0
  3
INABA_S30G
100
AcDbAlignedDimension
 13
2683.932775664504
 23
1488.019021987513
 33
0.0
 14
5063.932775664504
 24
1488.01902198751
 34
0.0
100
AcDbRotatedDimension
  0
LINE
  5
12448
330
747D
100
AcDbEntity
  8
部品1
 48
50.0
100
AcDbLine
 10
5033.93277566451
 20
2158.01902198751
 30
0.0
 11
2713.932775664511
 21
2158.019021987514
 31
0.0
  0
LINE
  5
12449
330
747D
100
AcDbEntity
  8
部品1
 48
50.0
100
AcDbLine
 10
5033.93277566451
 20
2118.019021987511
 30
0.0
 11
2713.932775664511
 21
2118.019021987514
 31
0.0
  0
LINE
  5
1244A
330
747D
100
AcDbEntity
  8
部品1
 48
50.0
100
AcDbLine
 10
5031.93277566451
 20
3638.275777857713
 30
0.0
 11
2715.932775664514
 21
3638.275777857715
 31
0.0
  0
LINE
  5
1244B
330
747D
100
AcDbEntity
  8
部品1
 48
50.0
100
AcDbLine
 10
5031.932775664511
 20
3673.452074154015
 30
0.0
 11
2715.932775664514
 21
3673.452074154014
 31
0.0
  0
LINE
  5
1244C
330
747D
100
AcDbEntity
  8
部品1
 48
50.0
100
AcDbLine
 10
5031.93277566451
 20
3708.628370450306
 30
0.0
 11
2715.932775664514
 21
3708.62837045031
 31
0.0
  0
LINE
  5
1244D
330
747D
100
AcDbEntity
  8
部品1
 48
50.0
100
AcDbLine
 10
5033.014381412349
 20
3743.804666746604
 30
0.0
 11
2714.851169916674
 21
3743.804666746607
 31
0.0
  0
LINE
  5
1244E
330
747D
100
AcDbEntity
  8
部品1
 48
50.0
100
AcDbLine
 10
5031.93277566451
 20
3626.917431457618
 30
0.0
 11
2715.932775664514
 21
3626.91743145762
 31
0.0
  0
LINE
  5
1244F
330
747D
100
AcDbEntity
  8
部品1
 48
50.0
100
AcDbLine
 10
5033.93277566451
 20
2488.019021987509
 30
0.0
 11
2713.932775664511
 21
2488.019021987514
 31
0.0
  0
LINE
  5
12450
330
747D
100
AcDbEntity
  8
部品1
 48
50.0
100
AcDbLine
 10
5033.93277566451
 20
2053.01902198751
 30
0.0
 11
2713.932775664511
 21
2053.019021987514
 31
0.0
  0
LINE
  5
12451
330
747D
100
AcDbEntity
  8
部品1
 48
50.0
100
AcDbLine
 10
5033.93277566451
 20
2863.01902198751
 30
0.0
 11
2713.932775664511
 21
2863.019021987514
 31
0.0
  0
LINE
  5
12452
330
747D
100
AcDbEntity
  8
部品1
 48
50.0
100
AcDbLine
 10
5033.93277566451
 20
2008.01902198751
 30
0.0
 11
2713.932775664511
 21
2008.019021987514
 31
0.0
  0
LINE
  5
12453
330
747D
100
AcDbEntity
  8
部品1
 48
50.0
100
AcDbLine
 10
5033.93277566451
 20
2458.019021987509
 30
0.0
 11
2713.932775664511
 21
2458.019021987513
 31
0.0
  0
LINE
  5
12456
330
747D
100
AcDbEntity
  8
部品1
 48
50.0
100
AcDbLine
 10
5033.93277566451
 20
2908.019021987512
 30
0.0
 11
2713.932775664511
 21
2908.019021987514
 31
0.0
  0
LINE
  5
12496
330
747D
100
AcDbEntity
  8
部品1
 48
50.0
100
AcDbLine
 10
3856.432775664511
 20
2118.019021987513
 30
0.0
 11
3856.432775664511
 21
2053.019021987512
 31
0.0
  0
LINE
  5
12497
330
747D
100
AcDbEntity
  8
部品1
 48
50.0
100
AcDbLine
 10
3891.432775664511
 20
2118.019021987513
 30
0.0
 11
3891.432775664511
 21
2053.019021987512
 31
0.0
  0
LWPOLYLINE
  5
124C3
330
747D
100
AcDbEntity
  8
部品1
100
AcDbPolyline
 90
        4
 70
     1
 43
0.0
 10
3550.417088024249
 20
4910.29411185841
 10
4197.448463304774
 20
4910.29411185841
 10
4197.448463304774
 20
4717.773956041271
 10
3550.417088024249
 20
4717.773956041271
  0
TEXT
  5
124C7
330
747D
100
AcDbEntity
  8
仕様書枠
 62
     7
 48
50.0
100
AcDbText
 10
3581.832164785779
 20
4756.429387508228
 30
0.0
 40
112.0
  1
平 面 図
  7
STYLE2
100
AcDbText
  0
DIMENSION
  5
124CD
330
747D
100
AcDbEntity
  8
寸法
 48
50.0
100
AcDbDimension
  2
*D15
 10
5313.932775664511
 20
4112.026764312719
 30
0.0
 11
5188.932775664511
 21
4112.026764312719
 31
0.0
 12
-1610.0
 22
-0.0000000000029559
 32
0.0
 70
   160
 71
     5
 42
-1.0
  3
INABA_S30G
100
AcDbAlignedDimension
 13
5063.932775664511
 23
3745.698835700874
 33
0.0
 14
5313.932775664511
 24
3868.367940889094
 34
0.0
100
AcDbRotatedDimension
  0
LINE
  5
124CE
330
747D
100
AcDbEntity
  8
部品1
 48
50.0
100
AcDbLine
 10
5093.93277566451
 20
3488.763437444072
 30
0.0
 11
5093.93277566451
 21
1808.019021987506
 31
0.0
  0
LINE
  5
124CF
330
747D
100
AcDbEntity
  8
部品1
 48
50.0
100
AcDbLine
 10
5033.93277566451
 20
3488.763437444072
 30
0.0
 11
5033.93277566451
 21
1808.019021987506
 31
0.0
  0
LINE
  5
124D0
330
747D
100
AcDbEntity
  8
点線
 48
50.0
100
AcDbLine
 10
5033.932775664506
 20
1488.019021987509
 30
0.0
 11
5093.932775664503
 21
1488.01902198751
 31
0.0
  0
LINE
  5
124D1
330
747D
100
AcDbEntity
  8
点線
 48
50.0
100
AcDbLine
 10
5033.932775664506
 20
1808.019021987509
 30
0.0
 11
5033.932775664503
 21
1488.019021987509
 31
0.0
  0
LINE
  5
124E3
330
747D
100
AcDbEntity
  8
点線
 48
50.0
100
AcDbLine
 10
5093.93277566451
 20
1808.019021987509
 30
0.0
 11
5093.932775664502
 21
1488.019021987509
 31
0.0
  0
DIMENSION
  5
124E7
330
747D
100
AcDbEntity
  8
寸法
 48
50.0
100
AcDbDimension
  2
*D16
 10
5428.665956742084
 20
1758.019021987509
 30
0.0
 11
5428.665956742084
 21
2037.554455058374
 31
0.0
 12
-1610.0
 22
-0.0000000000029559
 32
0.0
 70
   160
 71
     5
 42
-1.0
  3
INABA_S30G
100
AcDbAlignedDimension
 13
5253.932775664498
 23
1808.019021987507
 33
0.0
 14
5263.932775664503
 24
1758.019021987509
 34
0.0
 50
90.0
100
AcDbRotatedDimension
  0
LINE
  5
124E8
330
747D
100
AcDbEntity
  8
細線
 48
50.0
100
AcDbLine
 10
5165.42490310469
 20
1758.01902198751
 30
0.0
 11
5215.424903104686
 21
1808.019021987507
 31
0.0
  0
LINE
  5
124E9
330
747D
100
AcDbEntity
  8
細線
 48
50.0
100
AcDbLine
 10
5138.484123104685
 20
1758.01902198751
 30
0.0
 11
5188.484123104686
 21
1808.019021987508
 31
0.0
  0
LINE
  5
124EA
330
747D
100
AcDbEntity
  8
細線
 48
50.0
100
AcDbLine
 10
5111.543343104688
 20
1758.01902198751
 30
0.0
 11
5161.543343104685
 21
1808.019021987508
 31
0.0
  0
LINE
  5
124EB
330
747D
100
AcDbEntity
  8
部品1
 48
50.0
100
AcDbLine
 10
5253.932775664498
 20
1808.019021987507
 30
0.0
 11
5263.932775664498
 21
1798.019021987508
 31
0.0
  0
LINE
  5
124EC
330
747D
100
AcDbEntity
  8
部品1
 48
50.0
100
AcDbLine
 10
5263.932775664498
 20
1798.019021987508
 30
0.0
 11
5263.932775664503
 21
1758.01902198751
 31
0.0
  0
LINE
  5
124ED
330
747D
100
AcDbEntity
  8
部品1
 48
50.0
100
AcDbLine
 10
5090.932775664512
 20
3745.698835700873
 30
0.0
 11
5036.93277566451
 21
3745.698835700874
 31
0.0
  0
LINE
  5
124EE
330
747D
100
AcDbEntity
  8
部品1
 48
50.0
100
AcDbLine
 10
5090.932775664515
 20
3681.874220858923
 30
0.0
 11
5036.93277566451
 21
3681.874220858924
 31
0.0
  0
LINE
  5
124EF
330
747D
100
AcDbEntity
  8
部品1
 48
50.0
100
AcDbLine
 10
5090.932775664515
 20
3664.26343744407
 30
0.0
 11
5036.93277566451
 21
3664.263437444071
 31
0.0
  0
LINE
  5
124F0
330
747D
100
AcDbEntity
  8
部品1
 48
50.0
100
AcDbLine
 10
5095.932775664511
 20
3488.763437444071
 30
0.0
 11
5031.932775664511
 21
3488.763437444072
 31
0.0
  0
LINE
  5
124F1
330
747D
100
AcDbEntity
  8
部品1
 48
50.0
100
AcDbLine
 10
5031.932775664511
 20
3740.698835700874
 30
0.0
 11
5031.932775664508
 21
3488.763437444072
 31
0.0
  0
ARC
  5
124F2
330
747D
100
AcDbEntity
  8
部品1
 48
50.0
100
AcDbCircle
 10
5036.93277566451
 20
3740.698835700874
 30
0.0
 40
5.0
100
AcDbArc
 50
90.0
 51
180.0
  0
ARC
  5
124F3
330
747D
100
AcDbEntity
  8
部品1
 48
50.0
100
AcDbCircle
 10
5036.93277566451
 20
3686.874220858924
 30
0.0
 40
5.0
100
AcDbArc
 50
179.9999999999998
 51
269.9999999999991
  0
ARC
  5
124F4
330
747D
100
AcDbEntity
  8
部品1
 48
50.0
100
AcDbCircle
 10
5036.93277566451
 20
3669.263437444072
 30
0.0
 40
5.0
100
AcDbArc
 50
179.9999999999992
 51
269.9999999999992
  0
LINE
  5
124F5
330
747D
100
AcDbEntity
  8
部品1
 48
50.0
100
AcDbLine
 10
5095.932775664512
 20
3740.698835700874
 30
0.0
 11
5095.932775664518
 21
3488.763437444071
 31
0.0
  0
LINE
  5
124F6
330
747D
100
AcDbEntity
  8
細線
 48
50.0
100
AcDbLine
 10
5075.632775664515
 20
3664.263437444071
 30
0.0
 11
5075.632775664517
 21
3488.763437444072
 31
0.0
  0
LINE
  5
124F7
330
747D
100
AcDbEntity
  8
細線
 48
50.0
100
AcDbLine
 10
5080.932775664514
 20
3664.263437444071
 30
0.0
 11
5080.932775664518
 21
3488.763437444072
 31
0.0
  0
LINE
  5
124F8
330
747D
100
AcDbEntity
  8
細線
 48
50.0
100
AcDbLine
 10
5046.932775664511
 20
3664.263437444071
 30
0.0
 11
5046.932775664507
 21
3488.763437444072
 31
0.0
  0
LINE
  5
124F9
330
747D
100
AcDbEntity
  8
細線
 48
50.0
100
AcDbLine
 10
5052.23277566451
 20
3664.263437444071
 30
0.0
 11
5052.232775664508
 21
3488.763437444072
 31
0.0
  0
LINE
  5
124FA
330
747D
100
AcDbEntity
  8
部品1
 48
50.0
100
AcDbLine
 10
5290.932775664511
 20
3868.367940889091
 30
0.0
 11
5290.932775664511
 21
3753.152536158739
 31
0.0
  0
LINE
  5
124FB
330
747D
100
AcDbEntity
  8
部品1
 48
50.0
100
AcDbLine
 10
5258.346525131898
 20
3753.152536158738
 30
0.0
 11
5258.334355299716
 21
3626.917431457618
 31
0.0
  0
LINE
  5
124FC
330
747D
100
AcDbEntity
  8
部品1
 48
50.0
100
AcDbLine
 10
5258.335450313421
 20
3638.275777857714
 30
0.0
 11
5095.932775664515
 21
3638.275777857714
 31
0.0
  0
LINE
  5
124FD
330
747D
100
AcDbEntity
  8
部品1
 48
50.0
100
AcDbLine
 10
5258.338841522416
 20
3673.452074154013
 30
0.0
 11
5095.932775664515
 21
3673.452074154013
 31
0.0
  0
LINE
  5
124FE
330
747D
100
AcDbEntity
  8
部品1
 48
50.0
100
AcDbLine
 10
5258.342232731413
 20
3708.628370450309
 30
0.0
 11
5095.932775664515
 21
3708.628370450308
 31
0.0
  0
LINE
  5
124FF
330
747D
100
AcDbEntity
  8
部品1
 48
50.0
100
AcDbLine
 10
5258.345623940409
 20
3743.804666746604
 30
0.0
 11
5094.851169916673
 21
3743.804666746604
 31
0.0
  0
ARC
  5
12500
330
747D
100
AcDbEntity
  8
部品1
 48
50.0
100
AcDbCircle
 10
5090.932775664512
 20
3740.698835700874
 30
0.0
 40
5.0
100
AcDbArc
 50
359.9999999999996
 51
89.99999999999911
  0
ARC
  5
12501
330
747D
100
AcDbEntity
  8
部品1
 48
50.0
100
AcDbCircle
 10
5090.932775664515
 20
3686.874220858924
 30
0.0
 40
5.0
100
AcDbArc
 50
270.0
 51
359.9999999999996
  0
ARC
  5
12502
330
747D
100
AcDbEntity
  8
部品1
 48
50.0
100
AcDbCircle
 10
5090.932775664515
 20
3669.263437444071
 30
0.0
 40
5.0
100
AcDbArc
 50
269.9999999999991
 51
0.0000000000010305
  0
LINE
  5
12503
330
747D
100
AcDbEntity
  8
部品1
 48
50.0
100
AcDbLine
 10
5313.356379318857
 20
3855.367940889094
 30
0.0
 11
5313.344155149295
 21
3728.569206009317
 31
0.0
  0
LINE
  5
12504
330
747D
100
AcDbEntity
  8
部品1
 48
50.0
100
AcDbLine
 10
5313.344155149295
 20
3728.569206009317
 30
0.0
 11
5309.472476490562
 21
3639.353801278963
 31
0.0
  0
ARC
  5
12505
330
747D
100
AcDbEntity
  8
部品1
 48
50.0
100
AcDbCircle
 10
5296.484700660125
 20
3639.917431457619
 30
0.0
 40
13.0
100
AcDbArc
 50
270.0
 51
357.5150956634288
  0
LINE
  5
12506
330
747D
100
AcDbEntity
  8
部品1
 48
50.0
100
AcDbLine
 10
5296.484700660125
 20
3626.917431457619
 30
0.0
 11
5095.932775664516
 21
3626.917431457618
 31
0.0
  0
ARC
  5
12507
330
747D
100
AcDbEntity
  8
部品1
 48
50.0
100
AcDbCircle
 10
5296.484700660125
 20
3766.152536158739
 30
0.0
 40
13.0
100
AcDbArc
 50
270.0
 51
357.5150956634288
  0
ARC
  5
12508
330
747D
100
AcDbEntity
  8
部品1
 48
50.0
100
AcDbCircle
 10
5300.356379318857
 20
3855.367940889094
 30
0.0
 40
13.0
100
AcDbArc
 50
357.515095663427
 51
90.0
  0
LINE
  5
12509
330
747D
100
AcDbEntity
  8
部品1
 48
50.0
100
AcDbLine
 10
5313.344155149295
 20
3854.804310710437
 30
0.0
 11
5309.472476490562
 21
3765.588905980082
 31
0.0
  0
ARC
  5
1250A
330
747D
100
AcDbEntity
  8
点線
 48
50.0
100
AcDbCircle
 10
5041.932775664511
 20
5289.106999670107
 30
0.0
 40
10.0
100
AcDbArc
 50
180.0
 51
270.0000000000009
  0
LINE
  5
1250B
330
747D
100
AcDbEntity
  8
点線
 48
50.0
100
AcDbLine
 10
5031.932775664511
 20
5324.106999670107
 30
0.0
 11
5031.932775664511
 21
5289.106999670107
 31
0.0
  0
LINE
  5
1250C
330
747D
100
AcDbEntity
  8
部品1
 48
50.0
100
AcDbLine
 10
5290.932775664512
 20
5132.606999670107
 30
0.0
 11
5313.932775664512
 21
5132.606999670104
 31
0.0
  0
ARC
  5
1250D
330
747D
100
AcDbEntity
  8
部品1
 48
50.0
100
AcDbCircle
 10
5298.932775664512
 20
5124.606999670104
 30
0.0
 40
15.0
100
AcDbArc
 50
270.0
 51
0.0000000000000763
  0
ARC
  5
1250E
330
747D
100
AcDbEntity
  8
部品1
 48
50.0
100
AcDbCircle
 10
5285.932775664511
 20
5154.606999670104
 30
0.0
 40
5.0
100
AcDbArc
 50
0.0
 51
89.99999999999998
  0
LINE
  5
1250F
330
747D
100
AcDbEntity
  8
部品1
 48
50.0
100
AcDbLine
 10
5268.93277566451
 20
5159.606999670103
 30
0.0
 11
5285.932775664511
 21
5159.606999670103
 31
0.0
  0
LINE
  5
12510
330
747D
100
AcDbEntity
  8
部品1
 48
50.0
100
AcDbLine
 10
5290.932775664511
 20
5154.606999670104
 30
0.0
 11
5290.932775664512
 21
5109.606999670103
 31
0.0
  0
LINE
  5
12511
330
747D
100
AcDbEntity
  8
点線
 48
50.0
100
AcDbLine
 10
5095.932775664511
 20
5324.106999670107
 30
0.0
 11
5095.932775664511
 21
5289.10699967011
 31
0.0
  0
LINE
  5
12512
330
747D
100
AcDbEntity
  8
点線
 48
50.0
100
AcDbLine
 10
5041.932775664511
 20
5279.106999670108
 30
0.0
 11
5085.93277566451
 21
5279.106999670111
 31
0.0
  0
ARC
  5
12513
330
747D
100
AcDbEntity
  8
点線
 48
50.0
100
AcDbCircle
 10
5085.93277566451
 20
5289.10699967011
 30
0.0
 40
10.0
100
AcDbArc
 50
270.0000000000021
 51
0.0
  0
LINE
  5
12514
330
747D
100
AcDbEntity
  8
点線
 48
6.0
100
AcDbLine
 10
5283.932775664513
 20
5389.106999670107
 30
0.0
 11
5283.93277566451
 21
5324.106999670103
 31
0.0
  0
LINE
  5
12516
330
747D
100
AcDbEntity
  8
部品1
 48
50.0
100
AcDbLine
 10
3563.8795332872
 20
7550.106999670143
 30
0.0
 11
2503.932775664512
 21
7550.106999670106
 31
0.0
  0
LINE
  5
12517
330
747D
100
AcDbEntity
  8
部品1
 48
50.0
100
AcDbLine
 10
3546.4628357792
 20
7615.106999670051
 30
0.0
 11
2503.932775664512
 21
7615.1069996701
 31
0.0
  0
LINE
  5
12518
330
747D
100
AcDbEntity
  8
部品1
 48
50.0
100
AcDbLine
 10
2503.932775664512
 20
6131.106999670105
 30
0.0
 11
3941.932775664511
 21
6131.106999670105
 31
0.0
  0
LINE
  5
12519
330
747D
100
AcDbEntity
  8
部品1
 48
50.0
100
AcDbLine
 10
2503.932775664512
 20
6111.106999670106
 30
0.0
 11
3949.458421195594
 21
6111.106999670105
 31
0.0
  0
LINE
  5
1251A
330
747D
100
AcDbEntity
  8
部品1
 48
50.0
100
AcDbLine
 10
2503.932775664512
 20
6066.106999670105
 30
0.0
 11
3961.516134854995
 21
6066.106999670105
 31
0.0
  0
LINE
  5
1251B
330
747D
100
AcDbEntity
  8
部品1
 48
50.0
100
AcDbLine
 10
2503.932775664512
 20
6808.106999670101
 30
0.0
 11
3762.697834071095
 21
6808.106999670141
 31
0.0
  0
LINE
  5
1251C
330
747D
100
AcDbEntity
  8
部品1
 48
50.0
100
AcDbLine
 10
2503.932775664512
 20
6853.106999670105
 30
0.0
 11
3750.640120411705
 21
6853.106999670102
 31
0.0
  0
LINE
  5
1251D
330
747D
100
AcDbEntity
  8
部品1
 48
50.0
100
AcDbLine
 10
2503.932775664512
 20
6873.106999670105
 30
0.0
 11
3745.281136563081
 21
6873.106999670105
 31
0.0
  0
LINE
  5
1251E
330
747D
100
AcDbEntity
  8
部品1
 48
50.0
100
AcDbLine
 10
3551.821819627801
 20
7595.106999670131
 30
0.0
 11
2503.932775664512
 21
7595.106999670105
 31
0.0
  0
LINE
  5
1251F
330
747D
100
AcDbEntity
  8
部品1
 48
50.0
100
AcDbLine
 10
2478.932775664512
 20
7685.606999670105
 30
0.0
 11
5268.93277566451
 21
7685.606999670105
 31
0.0
  0
LINE
  5
12520
330
747D
100
AcDbEntity
  8
部品1
 48
50.0
100
AcDbLine
 10
2448.932775664512
 20
7809.606999670101
 30
0.0
 11
5298.932775664509
 21
7809.606999670106
 31
0.0
  0
DIMENSION
  5
12521
330
747D
100
AcDbEntity
  8
寸法
 48
50.0
100
AcDbDimension
  2
*D17
 10
2113.260831831971
 20
7572.606999670106
 30
0.0
 11
2113.26083183197
 21
7691.106999670103
 31
0.0
 70
   160
 71
     5
 42
236.9999999999964
  3
INABA_S30G
100
AcDbAlignedDimension
 13
2448.932775664512
 23
7809.606999670101
 33
0.0
 14
2363.932775664515
 24
7572.606999670106
 34
0.0
 50
90.0
100
AcDbRotatedDimension
  0
DIMENSION
  5
12522
330
747D
100
AcDbEntity
  8
寸法
 48
50.0
100
AcDbDimension
  2
*D18
 10
2113.26083183197
 20
6088.606999670108
 30
0.0
 11
2038.251973564253
 21
6459.606999670111
 31
0.0
 70
    32
 71
     5
 42
742.0
  3
INABA_S30G
100
AcDbAlignedDimension
 13
2363.932775664515
 23
6830.606999670109
 33
0.0
 14
2363.932775664512
 24
6088.606999670108
 34
0.0
 50
90.0
100
AcDbRotatedDimension
  0
DIMENSION
  5
12523
330
747D
100
AcDbEntity
  8
寸法
 48
50.0
100
AcDbDimension
  2
*D19
 10
2113.26083183197
 20
6830.606999670109
 30
0.0
 11
2038.251973564253
 21
7201.606999670108
 31
0.0
 70
    32
 71
     5
 42
741.9999999999963
  3
INABA_S30G
100
AcDbAlignedDimension
 13
2363.932775664515
 23
7572.606999670106
 33
0.0
 14
2363.932775664515
 24
6830.606999670109
 34
0.0
 50
90.0
100
AcDbRotatedDimension
  0
LINE
  5
12524
330
747D
100
AcDbEntity
  8
点線
 48
6.0
100
AcDbLine
 10
2713.932775664512
 20
6873.106999670105
 30
0.0
 11
2713.932775664512
 21
6808.106999670101
 31
0.0
  0
LINE
  5
12525
330
747D
100
AcDbEntity
  8
点線
 48
6.0
100
AcDbLine
 10
2653.932775664512
 20
6873.106999670105
 30
0.0
 11
2653.932775664512
 21
6808.106999670101
 31
0.0
  0
LINE
  5
12526
330
747D
100
AcDbEntity
  8
点線
 48
6.0
100
AcDbLine
 10
2463.932775664515
 20
6873.106999670103
 30
0.0
 11
2463.932775664512
 21
6808.106999670106
 31
0.0
  0
LINE
  5
12527
330
747D
100
AcDbEntity
  8
部品1
 48
50.0
100
AcDbLine
 10
2713.932775664512
 20
6808.106999670101
 30
0.0
 11
2713.932775664512
 21
6131.106999670105
 31
0.0
  0
LINE
  5
12528
330
747D
100
AcDbEntity
  8
部品1
 48
50.0
100
AcDbLine
 10
2653.932775664512
 20
6808.106999670101
 30
0.0
 11
2653.932775664512
 21
6131.106999670105
 31
0.0
  0
LINE
  5
1252A
330
747D
100
AcDbEntity
  8
点線
 48
6.0
100
AcDbLine
 10
2463.932775664515
 20
6066.106999670108
 30
0.0
 11
2503.932775664512
 21
6066.106999670108
 31
0.0
  0
LINE
  5
1252B
330
747D
100
AcDbEntity
  8
点線
 48
6.0
100
AcDbLine
 10
2463.932775664515
 20
6131.106999670105
 30
0.0
 11
2503.932775664512
 21
6131.106999670105
 31
0.0
  0
LINE
  5
1252C
330
747D
100
AcDbEntity
  8
点線
 48
6.0
100
AcDbLine
 10
2463.932775664512
 20
6131.106999670109
 30
0.0
 11
2463.932775664512
 21
6066.106999670105
 31
0.0
  0
LINE
  5
1252D
330
747D
100
AcDbEntity
  8
点線
 48
6.0
100
AcDbLine
 10
2713.932775664512
 20
6131.106999670105
 30
0.0
 11
2713.932775664512
 21
6066.106999670105
 31
0.0
  0
LINE
  5
1252E
330
747D
100
AcDbEntity
  8
点線
 48
6.0
100
AcDbLine
 10
2653.932775664512
 20
6131.106999670105
 30
0.0
 11
2653.932775664512
 21
6066.106999670105
 31
0.0
  0
LINE
  5
1252F
330
747D
100
AcDbEntity
  8
点線
 48
6.0
100
AcDbLine
 10
2463.932775664515
 20
6808.106999670108
 30
0.0
 11
2503.932775664512
 21
6808.106999670108
 31
0.0
  0
LINE
  5
12530
330
747D
100
AcDbEntity
  8
部品1
 48
50.0
100
AcDbLine
 10
2653.932775664512
 20
7550.106999670105
 30
0.0
 11
2653.932775664512
 21
6873.106999670105
 31
0.0
  0
LINE
  5
12531
330
747D
100
AcDbEntity
  8
部品1
 48
50.0
100
AcDbLine
 10
2713.932775664512
 20
7550.106999670105
 30
0.0
 11
2713.932775664512
 21
6873.106999670105
 31
0.0
  0
LINE
  5
12533
330
747D
100
AcDbEntity
  8
点線
 48
6.0
100
AcDbLine
 10
2463.932775664515
 20
6873.106999670105
 30
0.0
 11
2503.932775664512
 21
6873.106999670105
 31
0.0
  0
LINE
  5
12535
330
747D
100
AcDbEntity
  8
点線
 48
6.0
100
AcDbLine
 10
2463.932775664515
 20
7615.106999670103
 30
0.0
 11
2503.932775664512
 21
7615.106999670103
 31
0.0
  0
LINE
  5
12536
330
747D
100
AcDbEntity
  8
点線
 48
6.0
100
AcDbLine
 10
2463.932775664515
 20
7550.106999670105
 30
0.0
 11
2503.932775664512
 21
7550.106999670105
 31
0.0
  0
LINE
  5
12537
330
747D
100
AcDbEntity
  8
部品1
 48
50.0
100
AcDbLine
 10
2433.932775664512
 20
7786.606999670102
 30
0.0
 11
2478.932775664512
 21
7786.606999670105
 31
0.0
  0
LINE
  5
12538
330
747D
100
AcDbEntity
  8
部品1
 48
50.0
100
AcDbLine
 10
2456.932775664512
 20
7809.606999670101
 30
0.0
 11
2456.932775664512
 21
7786.606999670105
 31
0.0
  0
LINE
  5
12539
330
747D
100
AcDbEntity
  8
部品1
 48
50.0
100
AcDbLine
 10
2456.932775664512
 20
7790.106999670102
 30
0.0
 11
2478.932775664512
 21
7790.106999670102
 31
0.0
  0
ARC
  5
1253A
330
747D
100
AcDbEntity
  8
部品1
 48
50.0
100
AcDbCircle
 10
2448.932775664512
 20
7794.606999670101
 30
0.0
 40
15.0
100
AcDbArc
 50
90.0
 51
180.0
  0
LINE
  5
1253B
330
747D
100
AcDbEntity
  8
点線
 48
6.0
100
AcDbLine
 10
2463.932775664515
 20
7550.106999670105
 30
0.0
 11
2463.932775664515
 21
7615.106999670105
 31
0.0
  0
LINE
  5
1253C
330
747D
100
AcDbEntity
  8
部品1
 48
50.0
100
AcDbLine
 10
2651.932775664512
 20
7615.106999670103
 30
0.0
 11
2651.932775664512
 21
7630.106999670101
 31
0.0
  0
LINE
  5
1253D
330
747D
100
AcDbEntity
  8
部品1
 48
50.0
100
AcDbLine
 10
2715.932775664512
 20
7615.106999670103
 30
0.0
 11
2715.932775664512
 21
7630.106999670099
 31
0.0
  0
LINE
  5
1253E
330
747D
100
AcDbEntity
  8
点線
 48
6.0
100
AcDbLine
 10
2651.932775664512
 20
7595.106999670102
 30
0.0
 11
2651.932775664512
 21
7615.106999670103
 31
0.0
  0
LINE
  5
1253F
330
747D
100
AcDbEntity
  8
点線
 48
6.0
100
AcDbLine
 10
2715.932775664512
 20
7595.106999670102
 30
0.0
 11
2715.932775664512
 21
7615.106999670103
 31
0.0
  0
LINE
  5
12540
330
747D
100
AcDbEntity
  8
部品1
 48
50.0
100
AcDbLine
 10
2661.932775664512
 20
7640.106999670102
 30
0.0
 11
2705.932775664512
 21
7640.106999670098
 31
0.0
  0
ARC
  5
12541
330
747D
100
AcDbEntity
  8
部品1
 48
50.0
100
AcDbCircle
 10
2661.932775664512
 20
7630.106999670101
 30
0.0
 40
10.0
100
AcDbArc
 50
90.0
 51
180.0
  0
ARC
  5
12542
330
747D
100
AcDbEntity
  8
部品1
 48
50.0
100
AcDbCircle
 10
2705.932775664512
 20
7630.106999670099
 30
0.0
 40
10.0
100
AcDbArc
 50
0.0
 51
90.0
  0
LINE
  5
12543
330
747D
100
AcDbEntity
  8
点線
 48
6.0
100
AcDbLine
 10
2713.932775664512
 20
7595.106999670105
 30
0.0
 11
2713.932775664512
 21
7550.106999670105
 31
0.0
  0
LINE
  5
12544
330
747D
100
AcDbEntity
  8
点線
 48
6.0
100
AcDbLine
 10
2653.932775664512
 20
7595.106999670105
 30
0.0
 11
2653.932775664512
 21
7550.106999670105
 31
0.0
  0
LINE
  5
12545
330
747D
100
AcDbEntity
  8
点線
 48
50.0
100
AcDbLine
 10
3961.516134854996
 20
6066.106999670107
 30
0.0
 11
5283.932775664509
 21
6066.106999670105
 31
0.0
  0
LINE
  5
12546
330
747D
100
AcDbEntity
  8
点線
 48
50.0
100
AcDbLine
 10
3941.932775664511
 20
6131.106999670107
 30
0.0
 11
5283.93277566451
 21
6131.106999670109
 31
0.0
  0
LINE
  5
12547
330
747D
100
AcDbEntity
  8
点線
 48
50.0
100
AcDbLine
 10
3762.697834071104
 20
6808.106999670106
 30
0.0
 11
5283.932775664509
 21
6808.106999670106
 31
0.0
  0
LINE
  5
12548
330
747D
100
AcDbEntity
  8
点線
 48
50.0
100
AcDbLine
 10
3745.281136563082
 20
6873.106999670103
 30
0.0
 11
5283.932775664506
 21
6873.106999670103
 31
0.0
  0
LINE
  5
1254B
330
747D
100
AcDbEntity
  8
部品1
 48
50.0
100
AcDbLine
 10
3471.732584853002
 20
7894.004092988986
 30
0.0
 11
3848.872791399612
 21
6486.497680580035
 31
0.0
  0
LINE
  5
12554
330
747D
100
AcDbEntity
  8
部品1
 48
50.0
100
AcDbLine
 10
3879.25860003474
 20
6373.096298924657
 30
0.0
 11
3982.334157319885
 21
6432.606999670108
 31
0.0
  0
LINE
  5
12555
330
747D
100
AcDbEntity
  8
部品1
 48
50.0
100
AcDbLine
 10
3755.531394009137
 20
6432.606999670103
 30
0.0
 11
3982.334157319885
 21
6432.606999670108
 31
0.0
  0
LINE
  5
12556
330
747D
100
AcDbEntity
  8
部品1
 48
50.0
100
AcDbLine
 10
3884.390371278719
 20
6376.059128433789
 30
0.0
 11
3884.390371278719
 21
6353.944267909315
 31
0.0
  0
LINE
  5
12558
330
747D
100
AcDbEntity
  8
部品1
 48
50.0
100
AcDbLine
 10
3755.531394009133
 20
6432.606999670108
 30
0.0
 11
3848.872791399612
 21
6486.497680580035
 31
0.0
  0
ARC
  5
12565
330
747D
100
AcDbEntity
  8
点線
 48
50.0
100
AcDbCircle
 10
5041.932775664511
 20
7630.106999670101
 30
0.0
 40
10.0
100
AcDbArc
 50
90.0
 51
180.0
  0
LINE
  5
12566
330
747D
100
AcDbEntity
  8
点線
 48
50.0
100
AcDbLine
 10
5033.93277566451
 20
6808.106999670101
 30
0.0
 11
5033.93277566451
 21
6131.106999670105
 31
0.0
  0
LINE
  5
12567
330
747D
100
AcDbEntity
  8
点線
 48
50.0
100
AcDbLine
 10
5033.93277566451
 20
7550.106999670105
 30
0.0
 11
5033.93277566451
 21
6873.106999670105
 31
0.0
  0
LINE
  5
12568
330
747D
100
AcDbEntity
  8
点線
 48
50.0
100
AcDbLine
 10
5031.932775664511
 20
7615.106999670103
 30
0.0
 11
5031.932775664511
 21
7630.106999670101
 31
0.0
  0
LINE
  5
12569
330
747D
100
AcDbEntity
  8
点線
 48
6.0
100
AcDbLine
 10
5283.932775664506
 20
6873.106999670103
 30
0.0
 11
5283.932775664509
 21
6808.106999670106
 31
0.0
  0
LINE
  5
1256A
330
747D
100
AcDbEntity
  8
点線
 48
50.0
100
AcDbLine
 10
5093.93277566451
 20
6808.106999670101
 30
0.0
 11
5093.93277566451
 21
6131.106999670105
 31
0.0
  0
LINE
  5
1256B
330
747D
100
AcDbEntity
  8
点線
 48
6.0
100
AcDbLine
 10
5283.93277566451
 20
6131.106999670109
 30
0.0
 11
5283.93277566451
 21
6066.106999670105
 31
0.0
  0
LINE
  5
1256C
330
747D
100
AcDbEntity
  8
点線
 48
50.0
100
AcDbLine
 10
5093.93277566451
 20
7550.106999670105
 30
0.0
 11
5093.93277566451
 21
6873.106999670105
 31
0.0
  0
LINE
  5
1256D
330
747D
100
AcDbEntity
  8
部品1
 48
50.0
100
AcDbLine
 10
5313.932775664511
 20
7786.606999670102
 30
0.0
 11
5268.93277566451
 21
7786.606999670105
 31
0.0
  0
LINE
  5
1256E
330
747D
100
AcDbEntity
  8
部品1
 48
50.0
100
AcDbLine
 10
5290.932775664511
 20
7790.106999670102
 30
0.0
 11
5268.932775664509
 21
7790.106999670102
 31
0.0
  0
LINE
  5
1256F
330
747D
100
AcDbEntity
  8
部品1
 48
50.0
100
AcDbLine
 10
5290.932775664509
 20
7809.606999670101
 30
0.0
 11
5290.932775664509
 21
7786.606999670105
 31
0.0
  0
ARC
  5
12570
330
747D
100
AcDbEntity
  8
部品1
 48
50.0
100
AcDbCircle
 10
5298.932775664509
 20
7794.606999670105
 30
0.0
 40
15.0
100
AcDbArc
 50
0.0000000000001018
 51
90.0
  0
LINE
  5
12571
330
747D
100
AcDbEntity
  8
点線
 48
50.0
100
AcDbLine
 10
5095.932775664511
 20
7615.106999670103
 30
0.0
 11
5095.932775664511
 21
7630.106999670099
 31
0.0
  0
LINE
  5
12572
330
747D
100
AcDbEntity
  8
点線
 48
50.0
100
AcDbLine
 10
5041.932775664511
 20
7640.106999670102
 30
0.0
 11
5085.93277566451
 21
7640.106999670098
 31
0.0
  0
ARC
  5
12573
330
747D
100
AcDbEntity
  8
点線
 48
50.0
100
AcDbCircle
 10
5085.93277566451
 20
7630.106999670099
 30
0.0
 40
10.0
100
AcDbArc
 50
0.0
 51
90.0
  0
LINE
  5
12574
330
747D
100
AcDbEntity
  8
点線
 48
6.0
100
AcDbLine
 10
5283.932775664506
 20
7550.106999670105
 30
0.0
 11
5283.932775664506
 21
7615.106999670105
 31
0.0
  0
LWPOLYLINE
  5
12575
330
747D
100
AcDbEntity
  8
部品1
100
AcDbPolyline
 90
        4
 70
     1
 43
0.0
 10
8627.314885125969
 20
1220.978460792061
 10
9274.346260406494
 20
1220.978460792061
 10
9274.346260406494
 20
1028.458304974921
 10
8627.314885125969
 20
1028.458304974921
  0
TEXT
  5
12576
330
747D
100
AcDbEntity
  8
仕様書枠
 62
     7
 48
50.0
100
AcDbText
 10
8658.7299618875
 20
1067.113736441879
 30
0.0
 40
112.0
  1
側 面 図
  7
STYLE2
100
AcDbText
  0
DIMENSION
  5
12577
330
747D
100
AcDbEntity
  8
寸法
 48
50.0
100
AcDbDimension
  2
*D20
 10
10055.46006848741
 20
4440.627285394898
 30
0.0
 11
8705.460068487415
 21
4515.636143662614
 31
0.0
 12
-1496.554662053384
 22
0.0000000000002274
 32
0.0
 70
    32
 71
     5
 42
-1.0
  3
INABA_S30G
100
AcDbAlignedDimension
 13
7355.460068487414
 23
3869.019021987514
 33
0.0
 14
10055.46006848741
 24
3741.019021987512
 34
0.0
100
AcDbRotatedDimension
  0
DIMENSION
  5
12578
330
747D
100
AcDbEntity
  8
寸法
 48
50.0
100
AcDbDimension
  2
*D21
 10
10055.46006848741
 20
4112.026764312722
 30
0.0
 11
9905.460068487419
 21
4112.026764312722
 31
0.0
 12
-1496.554662053384
 22
0.0000000000002274
 32
0.0
 70
   160
 71
     5
 42
-1.0
  3
INABA_S30G
100
AcDbAlignedDimension
 13
9755.460068487423
 23
3617.583948142319
 33
0.0
 14
10055.46006848741
 24
3741.019021987512
 34
0.0
100
AcDbRotatedDimension
  0
DIMENSION
  5
12579
330
747D
100
AcDbEntity
  8
寸法
 48
50.0
100
AcDbDimension
  2
*D22
 10
9755.460068487423
 20
4112.026764312722
 30
0.0
 11
8930.460068487418
 21
4187.026764312722
 31
0.0
 12
-1496.554662053384
 22
0.0000000000002274
 32
0.0
 70
    32
 71
     5
 42
-1.0
  3
INABA_S30G
100
AcDbAlignedDimension
 13
8105.460068487412
 23
3611.26899094354
 33
0.0
 14
9755.460068487423
 24
3617.583948142319
 34
0.0
100
AcDbRotatedDimension
  0
DIMENSION
  5
1257A
330
747D
100
AcDbEntity
  8
寸法
 48
50.0
100
AcDbDimension
  2
*D23
 10
8105.460068487412
 20
4112.026764312722
 30
0.0
 11
7730.460068487413
 21
4187.026764312722
 31
0.0
 12
-1496.554662053384
 22
0.0000000000002274
 32
0.0
 70
    32
 71
     5
 42
-1.0
  3
INABA_S30G
100
AcDbAlignedDimension
 13
7355.460068487414
 23
3869.019021987514
 33
0.0
 14
8105.460068487412
 24
3611.26899094354
 34
0.0
100
AcDbRotatedDimension
  0
INSERT
  5
1257C
330
747D
100
AcDbEntity
  8
部品1
 48
50.0
100
AcDbBlockReference
  2
A$C0EDA5930
 10
9666.5498511469
 20
3604.86677157872
 30
0.0
  0
LINE
  5
1257D
330
747D
100
AcDbEntity
  8
部品1
 48
50.0
100
AcDbLine
 10
9567.937457737468
 20
3646.499240711464
 30
0.0
 11
9777.436415327308
 21
3636.567438277572
 31
0.0
  0
ARC
  5
1257E
330
747D
100
AcDbEntity
  8
部品1
 48
50.0
100
AcDbCircle
 10
9601.46006848743
 20
3463.7067394628
 30
0.0
 40
120.0
100
AcDbArc
 50
0.0
 51
87.28578778387857
  0
LINE
  5
1257F
330
747D
100
AcDbEntity
  8
細線
 48
50.0
100
AcDbLine
 10
7357.463293704508
 20
3803.851052743538
 30
0.0
 11
10050.1237107066
 21
3676.199003344919
 31
0.0
  0
LINE
  5
12580
330
747D
100
AcDbEntity
  8
細線
 48
50.0
100
AcDbLine
 10
7357.833119898433
 20
3791.820043036957
 30
0.0
 11
10049.13853696245
 21
3664.232230672439
 31
0.0
  0
LINE
  5
12581
330
747D
100
AcDbEntity
  8
細線
 48
50.0
100
AcDbLine
 10
8135.460068487416
 20
2452.019021987513
 30
0.0
 11
9725.460068487414
 21
2452.019021987513
 31
0.0
  0
LINE
  5
12582
330
747D
100
AcDbEntity
  8
細線
 48
50.0
100
AcDbLine
 10
8135.460068487416
 20
2458.019021987513
 30
0.0
 11
9725.460068487414
 21
2458.019021987513
 31
0.0
  0
LINE
  5
12583
330
747D
100
AcDbEntity
  8
細線
 48
50.0
100
AcDbLine
 10
8135.460068487416
 20
2122.019021987513
 30
0.0
 11
9725.460068487414
 21
2122.019021987512
 31
0.0
  0
LINE
  5
12584
330
747D
100
AcDbEntity
  8
細線
 48
50.0
100
AcDbLine
 10
8135.460068487416
 20
2111.019021987513
 30
0.0
 11
9725.460068487414
 21
2111.019021987512
 31
0.0
  0
LINE
  5
12585
330
747D
100
AcDbEntity
  8
細線
 48
50.0
100
AcDbLine
 10
8135.460068487416
 20
2794.019021987513
 30
0.0
 11
9725.460068487414
 21
2794.019021987513
 31
0.0
  0
LINE
  5
12586
330
747D
100
AcDbEntity
  8
細線
 48
50.0
100
AcDbLine
 10
8135.460068487416
 20
2805.019021987513
 30
0.0
 11
9725.460068487414
 21
2805.019021987513
 31
0.0
  0
LINE
  5
12587
330
747D
100
AcDbEntity
  8
部品1
 48
50.0
100
AcDbLine
 10
8135.460068487416
 20
2908.019021987513
 30
0.0
 11
9725.460068487414
 21
2908.019021987513
 31
0.0
  0
LINE
  5
12588
330
747D
100
AcDbEntity
  8
部品1
 48
50.0
100
AcDbLine
 10
8135.460068487416
 20
2008.019021987513
 30
0.0
 11
9725.460068487414
 21
2008.019021987513
 31
0.0
  0
LINE
  5
12589
330
747D
100
AcDbEntity
  8
部品1
 48
50.0
100
AcDbLine
 10
7371.01310789734
 20
3753.152536158742
 30
0.0
 11
10033.47721798106
 21
3626.932015384402
 31
0.0
  0
LINE
  5
1258A
330
747D
100
AcDbEntity
  8
部品1
 48
50.0
100
AcDbLine
 10
7369.501440112674
 20
3868.353356962316
 30
0.0
 11
10042.01513307045
 21
3741.65641151839
 31
0.0
  0
LINE
  5
1258B
330
747D
100
AcDbEntity
  8
部品1
 48
50.0
100
AcDbLine
 10
8135.460068487418
 20
3488.763437444075
 30
0.0
 11
8135.460068487416
 21
1808.019021987513
 31
0.0
  0
LINE
  5
1258C
330
747D
100
AcDbEntity
  8
部品1
 48
50.0
100
AcDbLine
 10
8075.460068487412
 20
3488.763437444075
 30
0.0
 11
8075.460068487412
 21
1808.019021987513
 31
0.0
  0
LINE
  5
1258D
330
747D
100
AcDbEntity
  8
点線
 48
50.0
100
AcDbLine
 10
8075.460068487412
 20
1808.019021987513
 30
0.0
 11
8075.460068487407
 21
1488.019021987513
 31
0.0
  0
LINE
  5
1258E
330
747D
100
AcDbEntity
  8
点線
 48
50.0
100
AcDbLine
 10
8135.460068487416
 20
1808.019021987513
 30
0.0
 11
8135.460068487407
 21
1488.019021987513
 31
0.0
  0
LINE
  5
1258F
330
747D
100
AcDbEntity
  8
点線
 48
50.0
100
AcDbLine
 10
8075.460068487412
 20
1488.019021987513
 30
0.0
 11
8135.460068487407
 21
1488.019021987514
 31
0.0
  0
LINE
  5
12590
330
747D
100
AcDbEntity
  8
細線
 48
50.0
100
AcDbLine
 10
7239.341628487403
 20
1758.019021987513
 30
0.0
 11
7289.341628487406
 21
1808.019021987513
 31
0.0
  0
LINE
  5
12591
330
747D
100
AcDbEntity
  8
細線
 48
50.0
100
AcDbLine
 10
7212.400848487408
 20
1758.019021987513
 30
0.0
 11
7262.400848487408
 21
1808.019021987513
 31
0.0
  0
LINE
  5
12592
330
747D
100
AcDbEntity
  8
細線
 48
50.0
100
AcDbLine
 10
7185.460068487407
 20
1758.019021987513
 30
0.0
 11
7235.460068487404
 21
1808.019021987513
 31
0.0
  0
LINE
  5
12593
330
747D
100
AcDbEntity
  8
部品1
 48
50.0
100
AcDbLine
 10
7198.593171257769
 20
1808.019021987513
 30
0.0
 11
7185.460068487405
 21
1794.885919217147
 31
0.0
  0
LINE
  5
12594
330
747D
100
AcDbEntity
  8
部品1
 48
50.0
100
AcDbLine
 10
7185.460068487405
 20
1794.885919217147
 30
0.0
 11
7185.460068487407
 21
1758.019021987512
 31
0.0
  0
LINE
  5
125AA
330
747D
100
AcDbEntity
  8
部品1
 48
50.0
100
AcDbLine
 10
8348.30747941678
 20
3646.754157703481
 30
0.0
 11
9049.353474878163
 21
3613.519384585312
 31
0.0
  0
ARC
  5
125AB
330
747D
100
AcDbEntity
  8
部品1
 48
50.0
100
AcDbCircle
 10
8244.460068487414
 20
3543.05543782157
 30
0.0
 40
105.0
100
AcDbArc
 50
87.28578778387767
 51
180.0
  0
ARC
  5
125AC
330
747D
100
AcDbEntity
  8
部品1
 48
50.0
100
AcDbCircle
 10
7951.460068487418
 20
3541.928961685026
 30
0.0
 40
120.0
100
AcDbArc
 50
0.0
 51
87.28578778387857
  0
INSERT
  5
125AD
330
747D
100
AcDbEntity
  8
部品1
 48
50.0
100
AcDbBlockReference
  2
A$C0EDA5930
 10
8096.460103905156
 20
3509.763476471399
 30
0.0
  0
INSERT
  5
125AE
330
747D
100
AcDbEntity
  8
部品1
 48
50.0
100
AcDbBlockReference
  2
A$C0EDA5930
 10
8096.460103905156
 20
3594.763476471399
 30
0.0
  0
LINE
  5
125AF
330
747D
100
AcDbEntity
  8
部品1
 48
50.0
100
AcDbLine
 10
8071.460068487411
 20
3488.763437444075
 30
0.0
 11
8139.460068487412
 21
3488.763437444075
 31
0.0
  0
LINE
  5
125B0
330
747D
100
AcDbEntity
  8
部品1
 48
50.0
100
AcDbLine
 10
8139.460068487412
 20
3488.763437444075
 30
0.0
 11
8139.460068487414
 21
3543.05543782157
 31
0.0
  0
LINE
  5
125B1
330
747D
100
AcDbEntity
  8
部品1
 48
50.0
100
AcDbLine
 10
8071.460068487411
 20
3488.763437444075
 30
0.0
 11
8071.460068487411
 21
3541.928961685026
 31
0.0
  0
LINE
  5
125B2
330
747D
100
AcDbEntity
  8
部品1
 48
50.0
100
AcDbLine
 10
7606.307479416783
 20
3681.930453999779
 30
0.0
 11
7905.225808270907
 21
3667.75951100225
 31
0.0
  0
LINE
  5
125B3
330
747D
100
AcDbEntity
  8
部品1
 48
50.0
100
AcDbLine
 10
7378.504514521972
 20
3867.926544545876
 30
0.0
 11
7382.048682213748
 21
3752.629368191148
 31
0.0
  0
ARC
  5
125B4
330
747D
100
AcDbEntity
  8
部品1
 48
50.0
100
AcDbCircle
 10
7371.628712807478
 20
3766.137952231961
 30
0.0
 40
13.0
100
AcDbArc
 50
181.7606842901233
 51
267.2857877838783
  0
ARC
  5
125B5
330
747D
100
AcDbEntity
  8
部品1
 48
50.0
100
AcDbCircle
 10
7368.885835202537
 20
3855.367940889097
 30
0.0
 40
13.0
100
AcDbArc
 50
87.28578778387824
 51
181.760684290123
  0
LINE
  5
125B6
330
747D
100
AcDbEntity
  8
部品1
 48
50.0
100
AcDbLine
 10
7355.891972778694
 20
3854.968517166418
 30
0.0
 11
7358.634850383636
 21
3765.738528509282
 31
0.0
  0
LINE
  5
125B7
330
747D
100
AcDbEntity
  8
部品1
 48
50.0
100
AcDbLine
 10
7523.11562108034
 20
3739.648423574561
 30
0.0
 11
7533.669073596445
 21
3690.807614758217
 31
0.0
  0
ARC
  5
125B8
330
747D
100
AcDbEntity
  8
部品1
 48
50.0
100
AcDbCircle
 10
7543.44349305807
 20
3692.919657416001
 30
0.0
 40
10.0
100
AcDbArc
 50
192.1929346278251
 51
267.2857877839036
  0
ARC
  5
125B9
330
747D
100
AcDbEntity
  8
部品1
 48
50.0
100
AcDbCircle
 10
7528.002830811153
 20
3740.704444903454
 30
0.0
 40
5.0
100
AcDbArc
 50
87.28578778390007
 51
192.1929346278247
  0
LINE
  5
125BA
330
747D
100
AcDbEntity
  8
部品1
 48
50.0
100
AcDbLine
 10
7542.969950819503
 20
3682.930875821216
 30
0.0
 11
7565.258766430472
 21
3681.874220858926
 31
0.0
  0
LINE
  5
125BB
330
747D
100
AcDbEntity
  8
部品1
 48
50.0
100
AcDbLine
 10
7565.282443542381
 20
3682.373659938685
 30
0.0
 11
7606.236448080993
 21
3680.432136760558
 31
0.0
  0
LINE
  5
125BC
330
747D
100
AcDbEntity
  8
部品1
 48
50.0
100
AcDbLine
 10
7609.148732848183
 20
3741.86314356848
 30
0.0
 11
7606.236448080993
 21
3680.432136760561
 31
0.0
  0
LINE
  5
125BD
330
747D
100
AcDbEntity
  8
部品1
 48
50.0
100
AcDbLine
 10
7568.194728309567
 20
3743.804666746606
 30
0.0
 11
7565.258766430453
 21
3681.874220858928
 31
0.0
  0
LINE
  5
125BE
330
747D
100
AcDbEntity
  8
部品1
 48
50.0
100
AcDbLine
 10
7917.937457737456
 20
3724.721462933689
 30
0.0
 11
8285.559894547887
 21
3707.29343629971
 31
0.0
  0
INSERT
  5
125BF
330
747D
100
AcDbEntity
  8
部品1
 48
50.0
100
AcDbBlockReference
  2
A$C0EDA5930
 10
7937.636870905889
 20
3686.830053604963
 30
0.0
  0
ARC
  5
125C0
330
747D
100
AcDbEntity
  8
部品1
 48
50.0
100
AcDbCircle
 10
7917.463915498889
 20
3714.732681338904
 30
0.0
 40
10.0
100
AcDbArc
 50
87.28578778387824
 51
177.2857877838809
  0
LINE
  5
125C1
330
747D
100
AcDbEntity
  8
部品1
 48
50.0
100
AcDbLine
 10
7905.06006848741
 20
3664.263437444076
 30
0.0
 11
7907.475133904106
 21
3715.206223577472
 31
0.0
  0
LINE
  5
125C2
330
747D
100
AcDbEntity
  8
部品1
 48
50.0
100
AcDbLine
 10
7905.06006848741
 20
3664.263437444076
 30
0.0
 11
7957.142575350228
 21
3661.79434082243
 31
0.0
  0
INSERT
  5
125C3
330
747D
100
AcDbEntity
  8
部品1
 48
50.0
100
AcDbBlockReference
  2
A$C0EDA5930
 10
8255.280125620005
 20
3671.771410418513
 30
0.0
  0
INSERT
  5
125C4
330
747D
100
AcDbEntity
  8
部品1
 48
50.0
100
AcDbBlockReference
  2
A$C0EDA5930
 10
8149.399040715302
 20
3676.79095814733
 30
0.0
  0
INSERT
  5
125C5
330
747D
100
AcDbEntity
  8
部品1
 48
50.0
100
AcDbBlockReference
  2
A$C0EDA5930
 10
8043.517955810598
 20
3681.810505876147
 30
0.0
  0
ARC
  5
125C6
330
747D
100
AcDbEntity
  8
部品1
 48
50.0
100
AcDbCircle
 10
8285.086352309319
 20
3697.304654704927
 30
0.0
 40
10.0
100
AcDbArc
 50
357.2857877838801
 51
87.28578778387818
  0
LINE
  5
125C7
330
747D
100
AcDbEntity
  8
部品1
 48
50.0
100
AcDbLine
 10
8249.432261992375
 20
3647.937644566801
 30
0.0
 11
8292.660068487412
 21
3645.888326332962
 31
0.0
  0
LINE
  5
125C8
330
747D
100
AcDbEntity
  8
部品1
 48
50.0
100
AcDbLine
 10
8292.825808270912
 20
3649.384399891138
 30
0.0
 11
8307.353474878166
 21
3648.695680881608
 31
0.0
  0
LINE
  5
125C9
330
747D
100
AcDbEntity
  8
部品1
 48
50.0
100
AcDbLine
 10
8292.660068487412
 20
3645.888326332963
 30
0.0
 11
8295.075133904104
 21
3696.831112466359
 31
0.0
  0
LINE
  5
125CA
330
747D
100
AcDbEntity
  8
部品1
 48
50.0
100
AcDbLine
 10
8310.194728309566
 20
3708.62837045031
 30
0.0
 11
8307.282443542382
 21
3647.197363642392
 31
0.0
  0
LINE
  5
125CB
330
747D
100
AcDbEntity
  8
部品1
 48
50.0
100
AcDbLine
 10
8351.148732848184
 20
3706.686847272184
 30
0.0
 11
8348.236448080994
 21
3645.255840464265
 31
0.0
  0
LINE
  5
125CC
330
747D
100
AcDbEntity
  8
部品1
 48
50.0
100
AcDbLine
 10
8307.282443542382
 20
3647.197363642389
 30
0.0
 11
8348.236448080994
 21
3645.255840464262
 31
0.0
  0
INSERT
  5
125CD
330
747D
100
AcDbEntity
  8
部品1
 48
50.0
100
AcDbBlockReference
  2
A$C0EDA5930
 10
9586.639598388631
 20
3608.655109487261
 30
0.0
  0
LINE
  5
125CE
330
747D
100
AcDbEntity
  8
部品1
 48
50.0
100
AcDbLine
 10
9555.060068487421
 20
3586.041215221849
 30
0.0
 11
9557.475133904116
 21
3636.984001355247
 31
0.0
  0
LINE
  5
125CF
330
747D
100
AcDbEntity
  8
部品1
 48
50.0
100
AcDbLine
 10
9052.194728309563
 20
3673.452074154014
 30
0.0
 11
9049.282443542377
 21
3612.021067346095
 31
0.0
  0
LINE
  5
125D0
330
747D
100
AcDbEntity
  8
部品1
 48
50.0
100
AcDbLine
 10
9093.148732848179
 20
3671.510550975888
 30
0.0
 11
9090.236448080991
 21
3610.079544167969
 31
0.0
  0
LINE
  5
125D1
330
747D
100
AcDbEntity
  8
部品1
 48
50.0
100
AcDbLine
 10
9090.307479416775
 20
3611.577861407184
 30
0.0
 11
9555.225808270922
 21
3589.537288780025
 31
0.0
  0
LINE
  5
125D2
330
747D
100
AcDbEntity
  8
部品1
 48
50.0
100
AcDbLine
 10
9049.282443542377
 20
3612.021067346093
 30
0.0
 11
9090.236448080991
 21
3610.079544167965
 31
0.0
  0
LINE
  5
125D3
330
747D
100
AcDbEntity
  8
部品1
 48
50.0
100
AcDbLine
 10
9555.060068487421
 20
3586.041215221849
 30
0.0
 11
9607.142575350239
 21
3583.572118600205
 31
0.0
  0
ARC
  5
125D4
330
747D
100
AcDbEntity
  8
部品1
 48
50.0
100
AcDbCircle
 10
9567.463915498899
 20
3636.510459116679
 30
0.0
 40
10.0
100
AcDbArc
 50
87.28578778387824
 51
177.2857877838809
  0
DIMENSION
  5
125D5
330
747D
100
AcDbEntity
  8
寸法
 48
50.0
100
AcDbDimension
  2
*D24
 10
10423.67727534142
 20
1758.019021987513
 30
0.0
 11
10423.67727534142
 21
2686.541844016542
 31
0.0
 12
-1496.554662053384
 22
0.0000000000002274
 32
0.0
 70
   160
 71
     5
 42
-1.0
  3
INABA_S30G
100
AcDbAlignedDimension
 13
10055.46006848741
 23
3741.019021987512
 33
0.0
 14
10169.68794614379
 24
1758.019021987513
 34
0.0
 50
90.0
100
AcDbRotatedDimension
  0
LINE
  5
125D6
330
747D
100
AcDbEntity
  8
部品1
 48
50.0
100
AcDbLine
 10
9785.460068487417
 20
3410.541215221851
 30
0.0
 11
9785.460068487417
 21
1808.019021987512
 31
0.0
  0
LINE
  5
125D7
330
747D
100
AcDbEntity
  8
部品1
 48
50.0
100
AcDbLine
 10
9725.460068487421
 20
3410.541215221851
 30
0.0
 11
9725.460068487421
 21
1808.019021987512
 31
0.0
  0
LINE
  5
125D8
330
747D
100
AcDbEntity
  8
点線
 48
50.0
100
AcDbLine
 10
9785.460068487417
 20
1808.019021987512
 30
0.0
 11
9785.460068487417
 21
1488.019021987512
 31
0.0
  0
LINE
  5
125D9
330
747D
100
AcDbEntity
  8
点線
 48
50.0
100
AcDbLine
 10
9725.460068487421
 20
1808.019021987512
 30
0.0
 11
9725.460068487397
 21
1488.019021987512
 31
0.0
  0
LINE
  5
125DA
330
747D
100
AcDbEntity
  8
点線
 48
50.0
100
AcDbLine
 10
9725.460068487397
 20
1488.019021987514
 30
0.0
 11
9785.460068487417
 21
1488.019021987514
 31
0.0
  0
LINE
  5
125DB
330
747D
100
AcDbEntity
  8
細線
 48
50.0
100
AcDbLine
 10
9785.46006848742
 20
1805.66057206921
 30
0.0
 11
9787.818518405726
 21
1808.019021987511
 31
0.0
  0
LINE
  5
125DC
330
747D
100
AcDbEntity
  8
細線
 48
50.0
100
AcDbLine
 10
9822.522288584963
 20
1758.019021987512
 30
0.0
 11
9872.522288584963
 21
1808.019021987512
 31
0.0
  0
LINE
  5
125DD
330
747D
100
AcDbEntity
  8
細線
 48
50.0
100
AcDbLine
 10
9795.581508584966
 20
1758.019021987512
 30
0.0
 11
9845.581508584963
 21
1808.019021987512
 31
0.0
  0
LINE
  5
125DE
330
747D
100
AcDbEntity
  8
細線
 48
50.0
100
AcDbLine
 10
9768.640728584964
 20
1758.019021987512
 30
0.0
 11
9818.640728584959
 21
1808.019021987512
 31
0.0
  0
LINE
  5
125DF
330
747D
100
AcDbEntity
  8
部品1
 48
50.0
100
AcDbLine
 10
9945.460068487422
 20
1808.019021987512
 30
0.0
 11
9955.460068487424
 21
1798.019021987512
 31
0.0
  0
LINE
  5
125E0
330
747D
100
AcDbEntity
  8
部品1
 48
50.0
100
AcDbLine
 10
9955.460068487424
 20
1798.019021987512
 30
0.0
 11
9955.460068487415
 21
1758.019021987512
 31
0.0
  0
LINE
  5
125E1
330
747D
100
AcDbEntity
  8
部品1
 48
50.0
100
AcDbLine
 10
9786.962873088738
 20
3578.432849777169
 30
0.0
 11
9786.962873088739
 21
3626.578656682788
 31
0.0
  0
INSERT
  5
125E2
330
747D
100
AcDbEntity
  8
部品1
 48
50.0
100
AcDbBlockReference
  2
A$C0EDA5930
 10
9746.460103905169
 20
3601.078433670178
 30
0.0
  0
LINE
  5
125E3
330
747D
100
AcDbEntity
  8
部品1
 48
50.0
100
AcDbLine
 10
9879.632477519647
 20
3627.932068898875
 30
0.0
 11
9864.505907641813
 21
3580.308683366392
 31
0.0
  0
LINE
  5
125E4
330
747D
100
AcDbEntity
  8
部品1
 48
50.0
100
AcDbLine
 10
9835.14873284818
 20
3636.334254679547
 30
0.0
 11
9832.21277096905
 21
3574.40380879187
 31
0.0
  0
LINE
  5
125E5
330
747D
100
AcDbEntity
  8
部品1
 48
50.0
100
AcDbLine
 10
9794.194728309568
 20
3638.275777857718
 30
0.0
 11
9791.282443542382
 21
3576.844771049799
 31
0.0
  0
LINE
  5
125E6
330
747D
100
AcDbEntity
  8
部品1
 48
50.0
100
AcDbLine
 10
9835.148732848184
 20
3636.334254679592
 30
0.0
 11
9832.236448080994
 21
3574.903247871673
 31
0.0
  0
LINE
  5
125E7
330
747D
100
AcDbEntity
  8
部品1
 48
50.0
100
AcDbLine
 10
9789.460068487434
 20
3578.432849777169
 30
0.0
 11
9786.962873088738
 21
3578.432849777169
 31
0.0
  0
LINE
  5
125E8
330
747D
100
AcDbEntity
  8
部品1
 48
50.0
100
AcDbLine
 10
9786.962873088738
 20
3578.55123533681
 30
0.0
 11
9791.353474878166
 21
3578.343088289015
 31
0.0
  0
LINE
  5
125E9
330
747D
100
AcDbEntity
  8
部品1
 48
50.0
100
AcDbLine
 10
9721.460068487424
 20
3410.54121522185
 30
0.0
 11
9789.460068487422
 21
3410.54121522185
 31
0.0
  0
LINE
  5
125EA
330
747D
100
AcDbEntity
  8
部品1
 48
50.0
100
AcDbLine
 10
9789.460068487422
 20
3410.54121522185
 30
0.0
 11
9789.460068487434
 21
3578.432849777169
 31
0.0
  0
LINE
  5
125EB
330
747D
100
AcDbEntity
  8
部品1
 48
50.0
100
AcDbLine
 10
9721.460068487424
 20
3410.54121522185
 30
0.0
 11
9721.460068487424
 21
3463.7067394628
 31
0.0
  0
INSERT
  5
125EC
330
747D
100
AcDbEntity
  8
部品1
 48
50.0
100
AcDbBlockReference
  2
A$C0EDA5930
 10
9746.460103905169
 20
3431.541254249174
 30
0.0
  0
INSERT
  5
125ED
330
747D
100
AcDbEntity
  8
部品1
 48
50.0
100
AcDbBlockReference
  2
A$C0EDA5930
 10
9746.460103905169
 20
3516.541254249173
 30
0.0
  0
LINE
  5
125EE
330
747D
100
AcDbEntity
  8
部品1
 48
50.0
100
AcDbLine
 10
9854.501586579997
 20
3573.347153829562
 30
0.0
 11
9832.212770969031
 21
3574.40380879187
 31
0.0
  0
ARC
  5
125EF
330
747D
100
AcDbEntity
  8
部品1
 48
50.0
100
AcDbCircle
 10
9854.975128818564
 20
3583.335935424347
 30
0.0
 40
10.0
100
AcDbArc
 50
267.2857877838496
 51
342.378640939928
  0
LINE
  5
125F0
330
747D
100
AcDbEntity
  8
部品1
 48
50.0
100
AcDbLine
 10
9791.282443542382
 20
3576.844771049797
 30
0.0
 11
9832.236448080994
 21
3574.903247871669
 31
0.0
  0
ARC
  5
125F1
330
747D
100
AcDbEntity
  8
部品1
 48
50.0
100
AcDbCircle
 10
9776.962873088741
 20
3626.578656682788
 30
0.0
 40
10.0
100
AcDbArc
 50
359.9999999999964
 51
87.28578778387785
  0
ARC
  5
125F2
330
747D
100
AcDbEntity
  8
部品1
 48
50.0
100
AcDbCircle
 10
9874.86708810802
 20
3629.445694927853
 30
0.0
 40
5.0
100
AcDbArc
 50
342.3786409399284
 51
87.28578778385307
  0
LINE
  5
125F3
330
747D
100
AcDbEntity
  8
部品1
 48
50.0
100
AcDbLine
 10
10032.471977585
 20
3742.108827778441
 30
0.0
 11
10023.03072920355
 21
3627.427256333854
 31
0.0
  0
ARC
  5
125F4
330
747D
100
AcDbEntity
  8
部品1
 48
50.0
100
AcDbCircle
 10
10041.39952816032
 20
3728.670995445171
 30
0.0
 40
13.0
100
AcDbArc
 50
355.2936942109123
 51
87.28578778387824
  0
ARC
  5
125F5
330
747D
100
AcDbEntity
  8
部品1
 48
50.0
100
AcDbCircle
 10
10034.0928228912
 20
3639.917431457622
 30
0.0
 40
13.0
100
AcDbArc
 50
267.2857877838783
 51
355.2936942109112
  0
LINE
  5
125F6
330
747D
100
AcDbEntity
  8
部品1
 48
50.0
100
AcDbLine
 10
10054.35569687793
 20
3727.604368912294
 30
0.0
 11
10047.04899160882
 21
3638.850804924744
 31
0.0
  0
DIMENSION
  5
12CE2
330
747D
100
AcDbEntity
  8
寸法
 48
50.0
100
AcDbDimension
  2
*D25
 10
9755.460068487415
 20
1317.818995306581
 30
0.0
 11
8930.460068487411
 21
1392.818995306581
 31
0.0
 12
-1496.554662053384
 22
0.0000000000002274
 32
0.0
 70
    32
 71
     5
 42
-1.0
  3
INABA_S30G
100
AcDbAlignedDimension
 13
8105.460068487408
 23
1488.019021987514
 33
0.0
 14
9755.460068487415
 24
1488.019021987514
 34
0.0
100
AcDbRotatedDimension
  0
LINE
  5
13125
330
747D
100
AcDbEntity
  8
補助
  6
PHANTOM
 62
   230
 48
50.0
100
AcDbLine
 10
11930.4
 20
8182.200000000003
 30
0.0
 11
11930.4
 21
6457.2
 31
0.0
  0
LINE
  5
13126
330
747D
100
AcDbEntity
  8
補助
  6
PHANTOM
 62
   230
 48
50.0
100
AcDbLine
 10
9380.400000000003
 20
8182.199999999999
 30
0.0
 11
9380.400000000003
 21
6457.2
 31
0.0
  0
LINE
  5
13127
330
747D
100
AcDbEntity
  8
補助
  6
PHANTOM
 62
   230
 48
50.0
100
AcDbLine
 10
9380.400000000003
 20
6457.2
 30
0.0
 11
11930.4
 21
6457.2
 31
0.0
  0
LINE
  5
13128
330
747D
100
AcDbEntity
  8
補助
  6
PHANTOM
 62
   230
 48
50.0
100
AcDbLine
 10
9380.400000000003
 20
8182.199999999999
 30
0.0
 11
11930.4
 21
8182.200000000003
 31
0.0
  0
LINE
  5
13157
330
747D
100
AcDbEntity
  8
部品1
 48
50.0
100
AcDbLine
 10
9915.160068487427
 20
3632.778161730767
 30
0.0
 11
9937.660068487431
 21
3563.543985165077
 31
0.0
  0
LINE
  5
13158
330
747D
100
AcDbEntity
  8
部品1
 48
50.0
100
AcDbLine
 10
9997.660068487423
 20
3563.543985165078
 30
0.0
 11
10020.16006848743
 21
3627.563346915952
 31
0.0
  0
LINE
  5
13159
330
747D
100
AcDbEntity
  8
部品1
 48
50.0
100
AcDbLine
 10
9997.660068487423
 20
3541.543985165077
 30
0.0
 11
9997.660068487423
 21
3563.543985165078
 31
0.0
  0
LINE
  5
1315A
330
747D
100
AcDbEntity
  8
部品1
 48
50.0
100
AcDbLine
 10
9997.660068487427
 20
3541.543985165077
 30
0.0
 11
9997.660068487423
 21
3528.358968509799
 31
0.0
  0
LINE
  5
1315B
330
747D
100
AcDbEntity
  8
仕様書枠
 48
50.0
100
AcDbLine
 10
9937.660068487431
 20
3555.809243145465
 30
0.0
 11
9937.660068487431
 21
3555.809243145465
 31
0.0
  0
LINE
  5
1315C
330
747D
100
AcDbEntity
  8
部品1
 48
50.0
100
AcDbLine
 10
9937.660068487424
 20
3541.543985165077
 30
0.0
 11
9937.660068487431
 21
3563.543985165077
 31
0.0
  0
LINE
  5
1315D
330
747D
100
AcDbEntity
  8
部品1
 48
50.0
100
AcDbLine
 10
9983.70373105099
 20
3495.338720173549
 30
0.0
 11
9983.70373105099
 21
3495.338720173549
 31
0.0
  0
LINE
  5
1315E
330
747D
100
AcDbEntity
  8
部品1
 48
50.0
100
AcDbLine
 10
9967.660068487427
 20
3495.33872017355
 30
0.0
 11
9967.660068487424
 21
3495.338720173549
 31
0.0
  0
LINE
  5
1315F
330
747D
100
AcDbEntity
  8
細線
 48
50.0
100
AcDbLine
 10
9979.040839914457
 20
3500.311998645044
 30
0.0
 11
9937.660068487426
 21
3541.543985165077
 31
0.0
  0
ARC
  5
13160
330
747D
100
AcDbEntity
  8
部品1
 48
50.0
100
AcDbCircle
 10
9967.660068487424
 20
3528.358968509802
 30
0.0
 40
30.0
100
AcDbArc
 50
296.7694582856564
 51
359.9999999999946
  0
LINE
  5
13161
330
747D
100
AcDbEntity
  8
細線
 48
50.0
100
AcDbLine
 10
9937.660068487426
 20
3563.543985165078
 30
0.0
 11
9997.660068487423
 21
3563.543985165077
 31
0.0
  0
LINE
  5
13162
330
747D
100
AcDbEntity
  8
部品1
 48
50.0
100
AcDbLine
 10
9937.660068487426
 20
3541.543985165077
 30
0.0
 11
9848.479082404569
 21
3488.729103787414
 31
0.0
  0
LINE
  5
13163
330
747D
100
AcDbEntity
  8
部品1
 48
50.0
100
AcDbLine
 10
9983.70373105099
 20
3503.073462193161
 30
0.0
 11
9889.859853831595
 21
3447.497117267384
 31
0.0
  0
LINE
  5
13164
330
747D
100
AcDbEntity
  8
部品1
 48
50.0
100
AcDbLine
 10
9847.015921711488
 20
3490.18700367408
 30
0.0
 11
9827.077430777983
 21
3478.379004236572
 31
0.0
  0
ARC
  5
13165
330
747D
100
AcDbEntity
  8
部品1
 48
50.0
100
AcDbCircle
 10
9847.460068487427
 20
3443.961739964036
 30
0.0
 40
40.0
100
AcDbArc
 50
120.6349217313126
 51
179.9999999999936
  0
LINE
  5
13166
330
747D
100
AcDbEntity
  8
細線
 48
50.0
100
AcDbLine
 10
9891.323014524672
 20
3446.039217380715
 30
0.0
 11
9847.015921711491
 21
3490.18700367408
 31
0.0
  0
LINE
  5
13167
330
747D
100
AcDbEntity
  8
部品1
 48
50.0
100
AcDbLine
 10
9871.460068487422
 20
3418.27595724146
 30
0.0
 11
9871.460068487426
 21
3434.27595724146
 31
0.0
  0
LINE
  5
13168
330
747D
100
AcDbEntity
  8
部品1
 48
50.0
100
AcDbLine
 10
9807.460068487422
 20
3418.275957241459
 30
0.0
 11
9807.460068487422
 21
3443.961739964036
 31
0.0
  0
LINE
  5
13169
330
747D
100
AcDbEntity
  8
細線
 48
50.0
100
AcDbLine
 10
9871.460068487426
 20
3418.27595724146
 30
0.0
 11
9807.460068487426
 21
3418.275957241459
 31
0.0
  0
LINE
  5
1316A
330
747D
100
AcDbEntity
  8
部品1
 48
50.0
100
AcDbLine
 10
9891.323014524672
 20
3446.039217380715
 30
0.0
 11
9871.460068487429
 21
3434.275957241463
 31
0.0
  0
LINE
  5
1316B
330
747D
100
AcDbEntity
  8
部品1
 48
50.0
100
AcDbLine
 10
9807.460068487422
 20
3426.541215221847
 30
0.0
 11
9807.460068487426
 21
3436.226997944429
 31
0.0
  0
LINE
  5
1316C
330
747D
100
AcDbEntity
  8
部品1
 48
50.0
100
AcDbLine
 10
9869.460068487223
 20
1898.121183408821
 30
0.0
 11
9869.460068487427
 21
3418.27595724146
 31
0.0
  0
LINE
  5
1316D
330
747D
100
AcDbEntity
  8
部品1
 48
50.0
100
AcDbLine
 10
9809.460068487364
 20
1898.12118340882
 30
0.0
 11
9809.460068487423
 21
3418.275957241459
 31
0.0
  0
LINE
  5
1316E
330
747D
100
AcDbEntity
  8
部品1
 48
50.0
100
AcDbLine
 10
9789.460068487422
 20
3410.54121522185
 30
0.0
 11
9869.460068487422
 21
3410.541215221844
 31
0.0
  0
LINE
  5
1316F
330
747D
100
AcDbEntity
  8
部品1
 48
50.0
100
AcDbLine
 10
9785.460068487411
 20
3394.541215221849
 30
0.0
 11
9869.460068487422
 21
3394.541215221845
 31
0.0
  0
LINE
  5
13171
330
747D
100
AcDbEntity
  8
部品1
 48
50.0
100
AcDbLine
 10
9871.460068487419
 20
1898.121183408821
 30
0.0
 11
9807.460068487419
 21
1898.12118340882
 31
0.0
  0
LINE
  5
13172
330
747D
100
AcDbEntity
  8
部品1
 48
50.0
100
AcDbLine
 10
9871.460068487412
 20
1898.121183408821
 30
0.0
 11
9871.460068487419
 21
1876.121183408821
 31
0.0
  0
ARC
  5
13173
330
747D
100
AcDbEntity
  8
部品1
 48
50.0
100
AcDbCircle
 10
9847.460068487421
 20
1866.435400686245
 30
0.0
 40
40.0
100
AcDbArc
 50
180.000000000008
 51
239.365078268689
  0
LINE
  5
13174
330
747D
100
AcDbEntity
  8
部品1
 48
50.0
100
AcDbLine
 10
9807.460068487415
 20
1898.12118340882
 30
0.0
 11
9807.460068487415
 21
1866.435400686245
 31
0.0
  0
LINE
  5
13175
330
747D
100
AcDbEntity
  8
部品1
 48
50.0
100
AcDbLine
 10
9827.152975674248
 20
1831.973397115454
 30
0.0
 11
9827.077430777977
 21
1832.018136413708
 31
0.0
  0
LINE
  5
13176
330
747D
100
AcDbEntity
  8
部品1
 48
50.0
100
AcDbLine
 10
9809.460068487361
 20
1898.12118340882
 30
0.0
 11
9869.460068487233
 21
1898.12118340882
 31
0.0
  0
LINE
  5
13177
330
747D
100
AcDbEntity
  8
部品1
 48
50.0
100
AcDbLine
 10
9785.460068487223
 20
1898.121183408825
 30
0.0
 11
9869.460068487233
 21
1898.12118340882
 31
0.0
  0
LINE
  5
13178
330
747D
100
AcDbEntity
  8
部品1
 48
50.0
100
AcDbLine
 10
9785.460068487411
 20
1914.121183408826
 30
0.0
 11
9869.460068487233
 21
1914.12118340882
 31
0.0
  0
LINE
  5
13179
330
747D
100
AcDbEntity
  8
細線
 48
50.0
100
AcDbLine
 10
9871.460068487422
 20
1876.121183408818
 30
0.0
 11
9827.152975674241
 21
1831.973397115451
 31
0.0
  0
LINE
  5
1317A
330
747D
100
AcDbEntity
  8
細線
 48
50.0
100
AcDbLine
 10
9878.845384859824
 20
1869.423026746435
 30
0.0
 11
9841.737455473193
 21
1825.660572069203
 31
0.0
  0
LINE
  5
1317B
330
747D
100
AcDbEntity
  8
細線
 48
50.0
100
AcDbLine
 10
9878.845384859829
 20
1869.423026746435
 30
0.0
 11
9869.996907794348
 21
1874.663283522153
 31
0.0
  0
LINE
  5
1317C
330
747D
100
AcDbEntity
  8
細線
 48
50.0
100
AcDbLine
 10
9841.737455473193
 20
1825.660572069204
 30
0.0
 11
9828.616136367323
 21
1833.431297002121
 31
0.0
  0
LINE
  5
13194
330
747D
100
AcDbEntity
  8
部品1
 48
50.0
100
AcDbLine
 10
7198.593171257768
 20
1808.019021987513
 30
0.0
 11
9945.46006848742
 21
1808.019021987513
 31
0.0
  0
DIMENSION
  5
131D8
330
747D
100
AcDbEntity
  8
寸法
 48
50.0
100
AcDbDimension
  2
*D26
 10
5677.585557518374
 20
7685.606999670105
 30
0.0
 11
5677.585557518374
 21
7991.106999670106
 31
0.0
 12
-1641.782053572649
 22
0.0
 32
0.0
 70
   160
 71
     5
 42
-1.0
  3
INABA_S30G
100
AcDbAlignedDimension
 13
5290.932775664509
 23
7809.606999670106
 33
0.0
 14
5268.93277566451
 24
7685.606999670105
 34
0.0
 50
90.0
100
AcDbRotatedDimension
  0
DIMENSION
  5
131F9
330
747D
100
AcDbEntity
  8
寸法
 48
50.0
100
AcDbDimension
  2
*D27
 10
5677.585557518374
 20
5179.606999670102
 30
0.0
 11
6022.576699250658
 21
6432.606999670103
 31
0.0
 12
-1641.782053572649
 22
0.0
 32
0.0
 70
    32
 71
     5
 42
-1.0
  3
INABA_S30G
100
AcDbAlignedDimension
 13
5268.93277566451
 23
7685.606999670105
 33
0.0
 14
5268.932775664509
 24
5179.606999670102
 34
0.0
 50
90.0
100
AcDbRotatedDimension
  0
DIMENSION
  5
13203
330
747D
100
AcDbEntity
  8
寸法
 48
50.0
100
AcDbDimension
  2
*D28
 10
5677.585557518374
 20
5109.606999670103
 30
0.0
 11
5677.585557518374
 21
4955.071566599237
 31
0.0
 12
-1641.782053572649
 22
0.0
 32
0.0
 70
   160
 71
     5
 42
-1.0
  3
INABA_S30G
100
AcDbAlignedDimension
 13
5268.932775664509
 23
5179.606999670102
 33
0.0
 14
5298.932775664512
 24
5109.606999670103
 34
0.0
 50
90.0
100
AcDbRotatedDimension
  0
LINE
  5
13348
330
747D
100
AcDbEntity
  8
点線
 48
50.0
100
AcDbLine
 10
3546.462835779185
 20
7615.106999670107
 30
0.0
 11
5283.932775664509
 21
7615.106999670105
 31
0.0
  0
LINE
  5
13349
330
747D
100
AcDbEntity
  8
点線
 48
50.0
100
AcDbLine
 10
3563.879533287208
 20
7550.106999670105
 30
0.0
 11
5283.932775664506
 21
7550.106999670105
 31
0.0
  0
LINE
  5
1335F
330
747D
100
AcDbEntity
  8
細線
 48
50.0
100
AcDbLine
 10
3805.825105397168
 20
1758.019021987513
 30
0.0
 11
3855.825105397168
 21
1808.019021987512
 31
0.0
  0
LINE
  5
13360
330
747D
100
AcDbEntity
  8
細線
 48
50.0
100
AcDbLine
 10
3859.706665397172
 20
1758.019021987513
 30
0.0
 11
3909.70666539717
 21
1808.019021987512
 31
0.0
  0
LINE
  5
13361
330
747D
100
AcDbEntity
  8
細線
 48
50.0
100
AcDbLine
 10
3832.765885397171
 20
1758.019021987513
 30
0.0
 11
3882.765885397169
 21
1808.019021987512
 31
0.0
  0
LINE
  5
13362
330
747D
100
AcDbEntity
  8
細線
 48
50.0
100
AcDbLine
 10
8477.060068487409
 20
1758.019021987513
 30
0.0
 11
8527.060068487404
 21
1808.019021987513
 31
0.0
  0
LINE
  5
13363
330
747D
100
AcDbEntity
  8
細線
 48
50.0
100
AcDbLine
 10
8504.000848487409
 20
1758.019021987513
 30
0.0
 11
8554.00084848741
 21
1808.019021987513
 31
0.0
  0
LINE
  5
13364
330
747D
100
AcDbEntity
  8
細線
 48
50.0
100
AcDbLine
 10
8530.941628487404
 20
1758.019021987513
 30
0.0
 11
8580.941628487407
 21
1808.019021987513
 31
0.0
  0
TEXT
  5
13399
330
747D
100
AcDbEntity
  8
文字
 62
     7
 48
50.0
100
AcDbText
 10
9907.054008162901
 20
171.4076431926769
 30
0.0
 40
75.0
  1
○間口奥行寸法は柱芯寸法です。   
  7
STYLE2
100
AcDbText
  0
TEXT
  5
13492
330
747D
100
AcDbEntity
  8
文字
 62
     7
 48
50.0
100
AcDbText
 10
10888.44172155001
 20
6827.931805836129
 30
0.0
 40
81.11400000000001
  1
F12            1.2
  7
STYLE1
100
AcDbText
  0
TEXT
  5
13493
330
747D
100
AcDbEntity
  8
文字
 62
     7
 48
50.0
100
AcDbText
 10
9748.510891051182
 20
7241.613205836131
 30
0.0
 40
81.11400000000001
  1
妻板
  7
STYLE1
100
AcDbText
  0
LINE
  5
13494
330
747D
100
AcDbEntity
  8
部品1
100
AcDbLine
 10
11930.4
 20
7079.049600000004
 30
0.0
 11
9380.400000000001
 21
7079.049600000004
 31
0.0
  0
TEXT
  5
13495
330
747D
100
AcDbEntity
  8
文字
 62
     7
 48
50.0
100
AcDbText
 10
9461.945370829289
 20
6552.144205836128
 30
0.0
 40
81.11400000000001
  1
PZ→一般構造用角形鋼管(JIS G 3466)
 41
0.9
  7
STYLE1
100
AcDbText
  0
TEXT
  5
13496
330
747D
100
AcDbEntity
  8
文字
 62
     7
 48
50.0
100
AcDbText
 10
9461.945370829125
 20
6276.356605836127
 30
0.0
 40
81.11400000000001
  1
Y10→溶融亜鉛-5％アルミニウム合金めっき鋼板(JIS G 3317)
 41
0.9
  7
STYLE1
100
AcDbText
  0
TEXT
  5
13497
330
747D
100
AcDbEntity
  8
文字
 62
     7
 48
50.0
100
AcDbText
 10
9461.945370829132
 20
6414.250405836128
 30
0.0
 40
81.11400000000001
  1
F12→溶融亜鉛めっき鋼板(JIS G 3302)
  7
STYLE1
100
AcDbText
  0
TEXT
  5
13498
330
747D
100
AcDbEntity
  8
文字
 62
     7
 48
50.0
100
AcDbText
 10
9748.510891051182
 20
6690.038005836133
 30
0.0
 40
81.11400000000001
  1
雨とい(別売)
  7
STYLE1
100
AcDbText
  0
TEXT
  5
13499
330
747D
100
AcDbEntity
  8
文字
 62
     7
 48
50.0
100
AcDbText
 10
9748.510891051182
 20
6827.931805836129
 30
0.0
 40
81.11400000000001
  1
車止メ棒
  7
STYLE1
100
AcDbText
  0
TEXT
  5
1349A
330
747D
100
AcDbEntity
  8
文字
 62
     7
 48
50.0
100
AcDbText
 10
9748.510891051182
 20
6965.825605836129
 30
0.0
 40
81.11400000000001
  1
プレート
  7
STYLE1
100
AcDbText
  0
TEXT
  5
1349B
330
747D
100
AcDbEntity
  8
文字
 62
     7
 48
50.0
100
AcDbText
 10
9748.510891051182
 20
7379.50700583613
 30
0.0
 40
81.11400000000001
  1
屋根パネル
  7
STYLE1
100
AcDbText
  0
TEXT
  5
1349C
330
747D
100
AcDbEntity
  8
文字
 62
     7
 48
50.0
100
AcDbText
 10
9748.510891051184
 20
7517.400805836129
 30
0.0
 40
81.11400000000001
  1
腰パネル
  7
STYLE1
100
AcDbText
  0
LINE
  5
1349F
330
747D
100
AcDbEntity
  8
部品1
100
AcDbLine
 10
11930.4
 20
6941.155800000004
 30
0.0
 11
9380.400000000003
 21
6941.155800000005
 31
0.0
  0
LINE
  5
134A0
330
747D
100
AcDbEntity
  8
部品1
100
AcDbLine
 10
11930.4
 20
8182.200000000003
 30
0.0
 11
9380.400000000001
 21
8182.200000000003
 31
0.0
  0
LINE
  5
134A1
330
747D
100
AcDbEntity
  8
部品1
100
AcDbLine
 10
11930.4
 20
6251.686800000002
 30
0.0
 11
11930.4
 21
8182.200000000003
 31
0.0
  0
LINE
  5
134A2
330
747D
100
AcDbEntity
  8
部品1
100
AcDbLine
 10
10695.84492000001
 20
8182.199999999999
 30
0.0
 11
10695.84492000001
 21
6665.368200000002
 31
0.0
  0
LINE
  5
134A3
330
747D
100
AcDbEntity
  8
部品1
100
AcDbLine
 10
9673.141230280178
 20
8182.200000000003
 30
0.0
 11
9673.141230280194
 21
6665.368200000002
 31
0.0
  0
LINE
  5
134A4
330
747D
100
AcDbEntity
  8
部品1
100
AcDbLine
 10
11930.4
 20
8044.306200000001
 30
0.0
 11
9380.400000000001
 21
8044.306200000002
 31
0.0
  0
LINE
  5
134A5
330
747D
100
AcDbEntity
  8
部品1
100
AcDbLine
 10
11930.4
 20
7768.518600000004
 30
0.0
 11
9380.400000000001
 21
7768.518600000003
 31
0.0
  0
LINE
  5
134A6
330
747D
100
AcDbEntity
  8
部品1
100
AcDbLine
 10
11930.4
 20
7906.412400000004
 30
0.0
 11
9380.400000000001
 21
7906.412400000004
 31
0.0
  0
LINE
  5
134A7
330
747D
100
AcDbEntity
  8
部品1
100
AcDbLine
 10
11930.4
 20
7492.731000000002
 30
0.0
 11
9380.400000000003
 21
7492.731000000002
 31
0.0
  0
LINE
  5
134A8
330
747D
100
AcDbEntity
  8
部品1
100
AcDbLine
 10
11930.4
 20
7354.837200000004
 30
0.0
 11
9380.400000000003
 21
7354.837200000004
 31
0.0
  0
LINE
  5
134A9
330
747D
100
AcDbEntity
  8
部品1
100
AcDbLine
 10
11930.4
 20
7630.624800000004
 30
0.0
 11
9380.400000000003
 21
7630.624800000004
 31
0.0
  0
TEXT
  5
134AA
330
747D
100
AcDbEntity
  8
文字
 62
     7
 48
50.0
100
AcDbText
 10
9435.659867331061
 20
8068.976005836129
 30
0.0
 40
81.11400000000001
  1
品番
  7
STYLE1
100
AcDbText
  0
TEXT
  5
134AB
330
747D
100
AcDbEntity
  8
文字
 62
     7
 48
50.0
100
AcDbText
 10
9495.493720430586
 20
7931.082205836128
 30
0.0
 40
81.11400000000001
  1
1
  7
STYLE1
100
AcDbText
  0
TEXT
  5
134AC
330
747D
100
AcDbEntity
  8
文字
 62
     7
 48
50.0
100
AcDbText
 10
9495.493720430586
 20
7793.18840583613
 30
0.0
 40
81.11400000000001
  1
2
  7
STYLE1
100
AcDbText
  0
TEXT
  5
134AD
330
747D
100
AcDbEntity
  8
文字
 62
     7
 48
50.0
100
AcDbText
 10
9495.493720430586
 20
7517.400805836129
 30
0.0
 40
81.11400000000001
  1
4
  7
STYLE1
100
AcDbText
  0
TEXT
  5
134AE
330
747D
100
AcDbEntity
  8
文字
 62
     7
 48
50.0
100
AcDbText
 10
9495.493720430586
 20
7655.294605836129
 30
0.0
 40
81.11400000000001
  1
3
  7
STYLE1
100
AcDbText
  0
TEXT
  5
134AF
330
747D
100
AcDbEntity
  8
文字
 62
     7
 48
50.0
100
AcDbText
 10
9888.635855497732
 20
8068.976005836129
 30
0.0
 40
81.11400000000001
  1
部　　品　　名
  7
STYLE1
100
AcDbText
  0
TEXT
  5
134B0
330
747D
100
AcDbEntity
  8
文字
 62
     7
 48
50.0
100
AcDbText
 10
10756.35413580791
 20
8068.976005836129
 30
0.0
 40
81.11400000000001
  1
材料（材質）　　単位mm
  7
STYLE1
100
AcDbText
  0
TEXT
  5
134B1
330
747D
100
AcDbEntity
  8
文字
 62
     7
 48
50.0
100
AcDbText
 10
9748.510891051177
 20
7931.082205836128
 30
0.0
 40
81.11400000000001
  1
柱
  7
STYLE1
100
AcDbText
  0
TEXT
  5
134B2
330
747D
100
AcDbEntity
  8
文字
 62
     7
 48
50.0
100
AcDbText
 10
9748.510891051182
 20
7793.18840583613
 30
0.0
 40
81.11400000000001
  1
梁
  7
STYLE1
100
AcDbText
  0
TEXT
  5
134B3
330
747D
100
AcDbEntity
  8
文字
 62
     7
 48
50.0
100
AcDbText
 10
9748.510891051182
 20
7103.71940583613
 30
0.0
 40
81.11400000000001
  1
鼻隠シ
  7
STYLE1
100
AcDbText
  0
TEXT
  5
134B4
330
747D
100
AcDbEntity
  8
文字
 62
     7
 48
50.0
100
AcDbText
 10
9495.493720430586
 20
7379.507005836128
 30
0.0
 40
81.11400000000001
  1
5
  7
STYLE1
100
AcDbText
  0
TEXT
  5
134B5
330
747D
100
AcDbEntity
  8
文字
 62
     7
 48
50.0
100
AcDbText
 10
9477.313762268375
 20
6690.038005836128
 30
0.0
 40
81.11400000000001
  1
10
  7
STYLE1
100
AcDbText
  0
TEXT
  5
134B6
330
747D
100
AcDbEntity
  8
文字
 62
     7
 48
50.0
100
AcDbText
 10
9495.493720430578
 20
6965.825605836129
 30
0.0
 40
81.11400000000001
  1
8
  7
STYLE1
100
AcDbText
  0
TEXT
  5
134B7
330
747D
100
AcDbEntity
  8
文字
 62
     7
 48
50.0
100
AcDbText
 10
9495.493720430578
 20
6827.931805836128
 30
0.0
 40
81.11400000000001
  1
9
  7
STYLE1
100
AcDbText
  0
TEXT
  5
134B8
330
747D
100
AcDbEntity
  8
文字
 62
     7
 48
50.0
100
AcDbText
 10
9495.493720430578
 20
7103.719405836129
 30
0.0
 40
81.11400000000001
  1
7
  7
STYLE1
100
AcDbText
  0
TEXT
  5
134B9
330
747D
100
AcDbEntity
  8
文字
 62
     7
 48
50.0
100
AcDbText
 10
9495.493720430586
 20
7241.61320583613
 30
0.0
 40
81.11400000000001
  1
6
  7
STYLE1
100
AcDbText
  0
LINE
  5
134BA
330
747D
100
AcDbEntity
  8
部品1
100
AcDbLine
 10
11930.4
 20
6665.3682
 30
0.0
 11
9380.400000000001
 21
6665.3682
 31
0.0
  0
LINE
  5
134BB
330
747D
100
AcDbEntity
  8
部品1
100
AcDbLine
 10
11930.4
 20
6389.580600000003
 30
0.0
 11
9380.400000000003
 21
6389.580600000005
 31
0.0
  0
LINE
  5
134BC
330
747D
100
AcDbEntity
  8
部品1
100
AcDbLine
 10
11930.4
 20
6527.474400000002
 30
0.0
 11
9380.400000000003
 21
6527.474400000002
 31
0.0
  0
LINE
  5
134BD
330
747D
100
AcDbEntity
  8
部品1
100
AcDbLine
 10
11930.4
 20
7216.943400000004
 30
0.0
 11
9380.400000000001
 21
7216.943400000004
 31
0.0
  0
LINE
  5
134BE
330
747D
100
AcDbEntity
  8
部品1
100
AcDbLine
 10
11930.4
 20
6803.262000000002
 30
0.0
 11
9380.400000000003
 21
6803.262000000003
 31
0.0
  0
LINE
  5
134C0
330
747D
100
AcDbEntity
  8
部品1
100
AcDbLine
 10
11930.4
 20
6251.686800000003
 30
0.0
 11
9380.400000000003
 21
6251.686800000005
 31
0.0
  0
TEXT
  5
134C1
330
747D
100
AcDbEntity
  8
文字
 62
     7
 48
50.0
100
AcDbText
 10
10888.44172155
 20
7931.082205836128
 30
0.0
 40
81.11400000000001
  1
PZ            2.3
  7
STYLE1
100
AcDbText
  0
TEXT
  5
134C2
330
747D
100
AcDbEntity
  8
文字
 62
     7
 48
50.0
100
AcDbText
 10
10888.44172155001
 20
6690.038005836129
 30
0.0
 40
81.11400000000001
  1
硬質塩化ビニール
  7
STYLE1
100
AcDbText
  0
LINE
  5
134C3
330
747D
100
AcDbEntity
  8
部品1
100
AcDbLine
 10
9380.400000000003
 20
8182.200000000003
 30
0.0
 11
9380.400000000003
 21
6251.686800000005
 31
0.0
  0
TEXT
  5
134C5
330
747D
100
AcDbEntity
  8
文字
 62
     7
 48
50.0
100
AcDbText
 10
10888.44172155001
 20
7655.294605836129
 30
0.0
 40
81.11400000000001
  1
F12            1.6
  7
STYLE1
100
AcDbText
  0
TEXT
  5
134C6
330
747D
100
AcDbEntity
  8
文字
 62
     7
 48
50.0
100
AcDbText
 10
9748.510891051182
 20
7655.294605836129
 30
0.0
 40
81.11400000000001
  1
母屋
  7
STYLE1
100
AcDbText
  0
TEXT
  5
134C7
330
747D
100
AcDbEntity
  8
文字
 62
     7
 48
50.0
100
AcDbText
 10
10888.44172155
 20
7793.18840583613
 30
0.0
 40
81.11400000000001
  1
PZ            2.3
  7
STYLE1
100
AcDbText
  0
TEXT
  5
134C8
330
747D
100
AcDbEntity
  8
文字
 62
     7
 48
50.0
100
AcDbText
 10
10872.35681695962
 20
7517.400805836129
 30
0.0
 40
81.11400000000001
  1
Y10            0.6
  7
STYLE1
100
AcDbText
  0
TEXT
  5
134C9
330
747D
100
AcDbEntity
  8
文字
 62
     7
 48
50.0
100
AcDbText
 10
10872.35681695962
 20
7379.50700583613
 30
0.0
 40
81.11400000000001
  1
Y10            0.5
  7
STYLE1
100
AcDbText
  0
TEXT
  5
134CA
330
747D
100
AcDbEntity
  8
文字
 62
     7
 48
50.0
100
AcDbText
 10
10872.35681695962
 20
7241.613205836131
 30
0.0
 40
81.11400000000001
  1
Y10            0.7
  7
STYLE1
100
AcDbText
  0
TEXT
  5
134CB
330
747D
100
AcDbEntity
  8
文字
 62
     7
 48
50.0
100
AcDbText
 10
10872.35681695962
 20
7103.71940583613
 30
0.0
 40
81.11400000000001
  1
Y10            0.7
  7
STYLE1
100
AcDbText
  0
TEXT
  5
134CC
330
747D
100
AcDbEntity
  8
文字
 62
     7
 48
50.0
100
AcDbText
 10
10888.44172155001
 20
6965.825605836129
 30
0.0
 40
81.11400000000001
  1
F12            2.3
  7
STYLE1
100
AcDbText
  0
LINE
  5
1351B
330
747D
100
AcDbEntity
  8
点線
 48
10.0
100
AcDbLine
 10
4963.932775664503
 20
1513.019021987509
 30
0.0
 11
4963.932775664503
 21
1503.019021987509
 31
0.0
  0
LINE
  5
1351C
330
747D
100
AcDbEntity
  8
点線
 48
10.0
100
AcDbLine
 10
5163.932775664505
 20
1513.019021987511
 30
0.0
 11
5163.932775664505
 21
1503.01902198751
 31
0.0
  0
LINE
  5
1351D
330
747D
100
AcDbEntity
  8
点線
 48
10.0
100
AcDbLine
 10
4963.932775664503
 20
1513.019021987509
 30
0.0
 11
5033.932775664505
 21
1513.019021987509
 31
0.0
  0
LINE
  5
1351E
330
747D
100
AcDbEntity
  8
点線
 48
10.0
100
AcDbLine
 10
5093.932775664504
 20
1513.019021987511
 30
0.0
 11
5163.932775664505
 21
1513.019021987511
 31
0.0
  0
LINE
  5
1351F
330
747D
100
AcDbEntity
  8
点線
 48
10.0
100
AcDbLine
 10
5093.932775664504
 20
1503.019021987511
 30
0.0
 11
5163.932775664505
 21
1503.019021987511
 31
0.0
  0
LINE
  5
13520
330
747D
100
AcDbEntity
  8
点線
 48
10.0
100
AcDbLine
 10
4963.932775664503
 20
1503.019021987509
 30
0.0
 11
5033.932775664505
 21
1503.019021987509
 31
0.0
  0
LINE
  5
1356B
330
747D
100
AcDbEntity
  8
点線
 48
6.0
100
AcDbLine
 10
2503.932775664512
 20
7595.106999670105
 30
0.0
 11
2463.932775664515
 21
7595.106999670105
 31
0.0
  0
LINE
  5
1356C
330
747D
100
AcDbEntity
  8
センター
 48
0.5
100
AcDbLine
 10
2363.932775664515
 20
7572.606999670106
 30
0.0
 11
2563.932775664515
 21
7572.606999670106
 31
0.0
  0
LINE
  5
13596
330
747D
100
AcDbEntity
  8
センター
 48
0.5
100
AcDbLine
 10
2363.932775664515
 20
6830.606999670109
 30
0.0
 11
2563.932775664515
 21
6830.606999670109
 31
0.0
  0
LINE
  5
135A9
330
747D
100
AcDbEntity
  8
センター
 48
0.5
100
AcDbLine
 10
2363.932775664512
 20
6088.606999670108
 30
0.0
 11
2563.932775664512
 21
6088.606999670108
 31
0.0
  0
LINE
  5
135BC
330
747D
100
AcDbEntity
  8
センター
 48
0.5
100
AcDbLine
 10
2363.932775664512
 20
5346.606999670107
 30
0.0
 11
2563.932775664512
 21
5346.606999670107
 31
0.0
  0
LINE
  5
135CF
330
747D
100
AcDbEntity
  8
点線
 48
6.0
100
AcDbLine
 10
2503.932775664512
 20
6853.106999670105
 30
0.0
 11
2463.932775664515
 21
6853.106999670105
 31
0.0
  0
LINE
  5
135D0
330
747D
100
AcDbEntity
  8
点線
 48
6.0
100
AcDbLine
 10
2503.932775664512
 20
6111.106999670106
 30
0.0
 11
2463.932775664512
 21
6111.106999670106
 31
0.0
  0
LINE
  5
135D1
330
747D
100
AcDbEntity
  8
点線
 48
6.0
100
AcDbLine
 10
2503.932775664512
 20
5369.106999670105
 30
0.0
 11
2463.932775664512
 21
5369.106999670105
 31
0.0
  0
LINE
  5
135D3
330
747D
100
AcDbEntity
  8
点線
 48
50.0
100
AcDbLine
 10
3551.821819627801
 20
7595.106999670131
 30
0.0
 11
5283.932775664506
 21
7595.106999670131
 31
0.0
  0
LINE
  5
135D4
330
747D
100
AcDbEntity
  8
点線
 48
50.0
100
AcDbLine
 10
3750.640120411703
 20
6853.106999670102
 30
0.0
 11
5283.932775664508
 21
6853.106999670102
 31
0.0
  0
LINE
  5
135D5
330
747D
100
AcDbEntity
  8
点線
 48
50.0
100
AcDbLine
 10
3949.458421195595
 20
6111.106999670105
 30
0.0
 11
5283.93277566451
 21
6111.106999670105
 31
0.0
  0
LINE
  5
135D6
330
747D
100
AcDbEntity
  8
点線
 48
50.0
100
AcDbLine
 10
4148.276721979489
 20
5369.106999670101
 30
0.0
 11
5283.932775664512
 21
5369.106999670101
 31
0.0
  0
MTEXT
  5
1366A
102
{ACAD_REACTORS
330
1366B
102
}
330
747D
100
AcDbEntity
  8
寸法
 62
     7
 48
50.0
100
AcDbMText
 10
9998.695041451206
 20
2112.48871961367
 30
0.0
 40
100.0
 41
1.0
 71
     4
 72
     1
  1
別売
 73
     1
 44
1.0
1001
ACAD
1000
MTEXTBEGIN
1070
    73
1070
     1
1070
    44
1040
1.0
1070
    74
1070
     0
1000
MTEXTEND
  0
LEADER
  5
1366B
330
747D
100
AcDbEntity
  8
寸法
 48
50.0
100
AcDbLeader
  3
INABA_S40G
 71
     0
 73
     0
 74
     0
 75
     1
 40
100.0
 41
240.0
 76
     3
 10
9839.460068487326
 20
2208.19857032514
 30
0.0
 10
9963.763721536899
 20
2037.512538153052
 30
0.0
 10
9988.763721536898
 20
2037.512538153052
 30
0.0
340
1366A
213
0.068680085692904
223
-14.97618146061723
233
0.0
1001
ACAD
1000
DSTYLE
1002
{
1070
    40
1040
10.0
1070
    77
1070
     3
1002
}
  0
LINE
  5
1367F
330
747D
100
AcDbEntity
  8
部品1
 48
50.0
100
AcDbLine
 10
3823.932775664512
 20
6472.098555781781
 30
0.0
 11
3823.932775664512
 21
6432.606999670105
 31
0.0
  0
LINE
  5
13680
330
747D
100
AcDbEntity
  8
部品1
 48
50.0
100
AcDbLine
 10
3896.932775664512
 20
6383.30048898221
 30
0.0
 11
3896.932775664511
 21
6307.135377492458
 31
0.0
  0
ENDSEC
  0
SECTION
  2
OBJECTS
  0
DICTIONARY
  5
7471
330
0
100
AcDbDictionary
281
     1
  3
ACAD_COLOR
350
1341D
  3
ACAD_GROUP
350
7472
  3
ACAD_LAYOUT
350
1341E
  3
ACAD_MATERIAL
350
1341C
  3
ACAD_MLINESTYLE
350
7473
  3
ACAD_PLOTSETTINGS
350
1341F
  3
ACAD_PLOTSTYLENAME
350
1341A
  3
AcadDim
350
13618
  3
ACDBHEADERROUNDTRIPXREC
350
136AC
  3
AcDbVariableDictionary
350
13533
  3
CONTENTDICTIONARY
350
E71C
  3
DRAWINGVARIABLESDICT
350
F3B9
  0
DICTIONARY
  5
13451
330
7467
100
AcDbDictionary
280
     1
281
     1
  3
ACAD_LAYERFILTERS
360
1356A
  3
ACAD_LAYERSTATES
360
13452
  0
DICTIONARY
  5
1341D
102
{ACAD_REACTORS
330
7471
102
}
330
7471
100
AcDbDictionary
281
     1
  0
DICTIONARY
  5
7472
102
{ACAD_REACTORS
330
7471
102
}
330
7471
100
AcDbDictionary
281
     1
  0
DICTIONARY
  5
1341E
102
{ACAD_REACTORS
330
7471
102
}
330
7471
100
AcDbDictionary
281
     1
  3
Model
350
13420
  3
レイアウト1
350
13421
  0
DICTIONARY
  5
1341C
102
{ACAD_REACTORS
330
7471
102
}
330
7471
100
AcDbDictionary
281
     1
  0
DICTIONARY
  5
7473
102
{ACAD_REACTORS
330
7471
102
}
330
7471
100
AcDbDictionary
281
     1
  3
STANDARD
350
7480
  0
DICTIONARY
  5
1341F
102
{ACAD_REACTORS
330
7471
102
}
330
7471
100
AcDbDictionary
281
     1
  0
ACDBDICTIONARYWDFLT
  5
1341A
102
{ACAD_REACTORS
330
7471
102
}
330
7471
100
AcDbDictionary
281
     1
  3
Normal
350
1341B
100
AcDbDictionaryWithDefault
340
1341B
  0
XRECORD
  5
13618
102
{ACAD_REACTORS
330
7471
102
}
330
7471
100
AcDbXrecord
280
     1
 90
   990106
  3

 60
     0
 61
     0
 62
     1
 63
     3
 64
     0
 65
     0
 66
     0
 67
     3
 68
     1
 69
     0
 70
     0
 71
     0
 72
     0
 40
0.0
170
     0
  0
DICTIONARY
  5
136AC
102
{ACAD_REACTORS
330
7471
102
}
330
7471
100
AcDbDictionary
281
     1
  3
COLORDICT
350
136AE
  3
MATERIALDICT
350
136AD
  0
DICTIONARY
  5
13533
102
{ACAD_REACTORS
330
7471
102
}
330
7471
100
AcDbDictionary
281
     1
  3
DIMASSOC
350
13534
  3
PROJECTNAME
350
13535
  0
DICTIONARY
  5
E71C
102
{ACAD_REACTORS
330
7471
102
}
330
7471
100
AcDbDictionary
281
     1
  0
DICTIONARY
  5
F3B9
102
{ACAD_REACTORS
330
7471
102
}
330
7471
100
AcDbDictionary
281
     1
1001
DRAWINGVARIABLESXDATA
1000
POLARMODE
1000
1
  0
DICTIONARY
  5
1356A
102
{ACAD_REACTORS
330
13451
102
}
330
13451
100
AcDbDictionary
281
     1
  0
DICTIONARY
  5
13452
102
{ACAD_REACTORS
330
13451
102
}
330
13451
100
AcDbDictionary
281
     1
  0
LAYOUT
  5
13420
102
{ACAD_XDICTIONARY
360
136AF
102
}
102
{ACAD_REACTORS
330
1341E
102
}
330
1341E
100
AcDbPlotSettings
  1

  2
CutePDF Writer
  4
A3
  6

 40
3.174999952316284
 41
3.174999952316284
 42
3.17498779296875
 43
3.17498779296875
 44
297.0530090332031
 45
420.1583251953125
 46
0.0
 47
0.0
 48
0.0
 49
0.0
140
0.0
141
0.0
142
1.0
143
30.0
 70
 11952
 72
     1
 73
     1
 74
     2
  7
inaba.ctb
 75
    23
147
0.0333333333333333
148
0.0
149
0.0
100
AcDbLayout
  1
Model
 70
     1
 71
     0
 10
0.0
 20
0.0
 11
12.0
 21
9.0
 12
0.0
 22
0.0
 32
0.0
 14
0.0
 24
0.0
 34
0.0
 15
0.0
 25
0.0
 35
0.0
146
0.0
 13
0.0
 23
0.0
 33
0.0
 16
1.0
 26
0.0
 36
0.0
 17
0.0
 27
1.0
 37
0.0
 76
     0
330
747D
  0
LAYOUT
  5
13421
102
{ACAD_XDICTIONARY
360
136B1
102
}
102
{ACAD_REACTORS
330
1341E
102
}
330
1341E
100
AcDbPlotSettings
  1

  2
Microsoft Office Document Image Writer
  4

  6

 40
0.0
 41
0.0
 42
0.0
 43
0.0
 44
0.0
 45
0.0
 46
0.0
 47
0.0
 48
0.0
 49
0.0
140
0.0
141
0.0
142
1.0
143
1.0
 70
   688
 72
     0
 73
     0
 74
     5
  7
inaba.ctb
 75
    16
147
1.0
148
0.0
149
0.0
100
AcDbLayout
  1
レイアウト1
 70
     0
 71
     1
 10
0.0
 20
0.0
 11
420.0
 21
297.0
 12
0.0
 22
0.0
 32
0.0
 14
1.000000000000000E+20
 24
1.000000000000000E+20
 34
1.000000000000000E+20
 15
-1.000000000000000E+20
 25
-1.000000000000000E+20
 35
-1.000000000000000E+20
146
0.0
 13
0.0
 23
0.0
 33
0.0
 16
1.0
 26
0.0
 36
0.0
 17
0.0
 27
1.0
 37
0.0
 76
     0
330
747A
  0
MLINESTYLE
  5
7480
102
{ACAD_REACTORS
330
7473
102
}
330
7473
100
AcDbMlineStyle
  2
STANDARD
 70
     0
  3

 62
     0
 51
90.0
 52
90.0
 71
     2
 49
0.5
 62
   256
  6
BYLAYER
 49
-0.5
 62
   256
  6
BYLAYER
  0
ACDBPLACEHOLDER
  5
1341B
102
{ACAD_REACTORS
330
1341A
102
}
330
1341A
  0
XRECORD
  5
136AE
102
{ACAD_REACTORS
330
136AC
102
}
330
136AC
100
AcDbXrecord
280
     1
340
1341D
  0
XRECORD
  5
136AD
102
{ACAD_REACTORS
330
136AC
102
}
330
136AC
100
AcDbXrecord
280
     1
340
1341C
  0
DICTIONARYVAR
  5
13534
102
{ACAD_REACTORS
330
13533
102
}
330
13533
100
DictionaryVariables
280
     0
  1
1
  0
DICTIONARYVAR
  5
13535
102
{ACAD_REACTORS
330
13533
102
}
330
13533
100
DictionaryVariables
280
     0
  1

  0
DICTIONARY
  5
136AF
330
13420
100
AcDbDictionary
280
     1
281
     1
  3
ACAD_XREC_ROUNDTRIP
360
136B0
  0
DICTIONARY
  5
136B1
330
13421
100
AcDbDictionary
280
     1
281
     1
  3
ACAD_XREC_ROUNDTRIP
360
136B2
  0
XRECORD
  5
136B0
102
{ACAD_REACTORS
330
136AF
102
}
330
136AF
100
AcDbXrecord
280
     1
102
SHADEPLOT
 70
     0
102
SHADEPLOTRESLEVEL
 70
     2
102
SHADEPLOTCUSTOMDPI
 70
   300
  0
XRECORD
  5
136B2
102
{ACAD_REACTORS
330
136B1
102
}
330
136B1
100
AcDbXrecord
280
     1
102
SHADEPLOT
 70
     0
102
SHADEPLOTRESLEVEL
 70
     2
102
SHADEPLOTCUSTOMDPI
 70
   300
  0
ENDSEC
  0
EOF
