  0
SECTION
  2
HEADER
  9
$ACADVER
  1
AC1015
  9
$ACADMAINTVER
 70
    20
  9
$DWGCODEPAGE
  3
ANSI_932
  9
$INSBASE
 10
0.0
 20
0.0
 30
0.0
  9
$EXTMIN
 10
139.196816621341
 20
-0.5436960005536094
 30
-0.0000000000000058
  9
$EXTMAX
 10
16308.32523385566
 20
11409.94830329749
 30
0.0000000000000104
  9
$LIMMIN
 10
0.0
 20
0.0
  9
$LIMMAX
 10
16800.0
 20
11880.0
  9
$ORTHOMODE
 70
     1
  9
$REGENMODE
 70
     1
  9
$FILLMODE
 70
     1
  9
$QTEXTMODE
 70
     0
  9
$MIRRTEXT
 70
     1
  9
$LTSCALE
 40
5.0
  9
$ATTMODE
 70
     1
  9
$TEXTSIZE
 40
100.0
  9
$TRACEWID
 40
1.0
  9
$TEXTSTYLE
  7
STYLE3
  9
$CLAYER
  8
部品1
  9
$CELTYPE
  6
BYLAYER
  9
$CECOLOR
 62
   256
  9
$CELTSCALE
 40
50.0
  9
$DISPSILH
 70
     0
  9
$DIMSCALE
 40
40.0
  9
$DIMASZ
 40
2.5
  9
$DIMEXO
 40
0.5
  9
$DIMDLI
 40
7.0
  9
$DIMRND
 40
0.0
  9
$DIMDLE
 40
0.0
  9
$DIMEXE
 40
1.5
  9
$DIMTP
 40
0.0
  9
$DIMTM
 40
0.0
  9
$DIMTXT
 40
3.0
  9
$DIMCEN
 40
0.0
  9
$DIMTSZ
 40
0.0
  9
$DIMTOL
 70
     0
  9
$DIMLIM
 70
     0
  9
$DIMTIH
 70
     0
  9
$DIMTOH
 70
     0
  9
$DIMSE1
 70
     0
  9
$DIMSE2
 70
     0
  9
$DIMTAD
 70
     3
  9
$DIMZIN
 70
     8
  9
$DIMBLK
  1

  9
$DIMASO
 70
     1
  9
$DIMSHO
 70
     1
  9
$DIMPOST
  1

  9
$DIMAPOST
  1

  9
$DIMALT
 70
     0
  9
$DIMALTD
 70
     2
  9
$DIMALTF
 40
0.0394
  9
$DIMLFAC
 40
0.5
  9
$DIMTOFL
 70
     1
  9
$DIMTVP
 40
0.0
  9
$DIMTIX
 70
     1
  9
$DIMSOXD
 70
     0
  9
$DIMSAH
 70
     1
  9
$DIMBLK1
  1
DOTSMALL
  9
$DIMBLK2
  1
DOTSMALL
  9
$DIMSTYLE
  2
INABA_S40G詳細用20
  9
$DIMCLRD
 70
     0
  9
$DIMCLRE
 70
     0
  9
$DIMCLRT
 70
     7
  9
$DIMTFAC
 40
1.0
  9
$DIMGAP
 40
1.0
  9
$DIMJUST
 70
     0
  9
$DIMSD1
 70
     0
  9
$DIMSD2
 70
     0
  9
$DIMTOLJ
 70
     1
  9
$DIMTZIN
 70
     0
  9
$DIMALTZ
 70
     0
  9
$DIMALTTZ
 70
     0
  9
$DIMUPT
 70
     0
  9
$DIMDEC
 70
     0
  9
$DIMTDEC
 70
     0
  9
$DIMALTU
 70
     2
  9
$DIMALTTD
 70
     2
  9
$DIMTXSTY
  7
STYLE1
  9
$DIMAUNIT
 70
     0
  9
$DIMADEC
 70
     0
  9
$DIMALTRND
 40
0.0
  9
$DIMAZIN
 70
     0
  9
$DIMDSEP
 70
    46
  9
$DIMATFIT
 70
     3
  9
$DIMFRAC
 70
     0
  9
$DIMLDRBLK
  1
DOTSMALL
  9
$DIMLUNIT
 70
     2
  9
$DIMLWD
 70
    -2
  9
$DIMLWE
 70
    -2
  9
$DIMTMOVE
 70
     0
  9
$LUNITS
 70
     2
  9
$LUPREC
 70
     1
  9
$SKETCHINC
 40
1.0
  9
$FILLETRAD
 40
0.0
  9
$AUNITS
 70
     0
  9
$AUPREC
 70
     0
  9
$MENU
  1
acad
  9
$ELEVATION
 40
0.0
  9
$PELEVATION
 40
0.0
  9
$THICKNESS
 40
0.0
  9
$LIMCHECK
 70
     0
  9
$CHAMFERA
 40
0.0
  9
$CHAMFERB
 40
0.0
  9
$CHAMFERC
 40
0.0
  9
$CHAMFERD
 40
0.0
  9
$SKPOLY
 70
     0
  9
$TDCREATE
 40
2451052.600153125
  9
$TDUCREATE
 40
2451052.225153125
  9
$TDUPDATE
 40
2455091.687741239
  9
$TDUUPDATE
 40
2455091.312741239
  9
$TDINDWG
 40
0.5655047222
  9
$TDUSRTIMER
 40
0.5655047222
  9
$USRTIMER
 70
     1
  9
$ANGBASE
 50
0.0
  9
$ANGDIR
 70
     0
  9
$PDMODE
 70
     3
  9
$PDSIZE
 40
2.0
  9
$PLINEWID
 40
20.0
  9
$SPLFRAME
 70
     0
  9
$SPLINETYPE
 70
     6
  9
$SPLINESEGS
 70
     8
  9
$HANDSEED
  5
1384E
  9
$SURFTAB1
 70
     6
  9
$SURFTAB2
 70
     6
  9
$SURFTYPE
 70
     6
  9
$SURFU
 70
     6
  9
$SURFV
 70
     6
  9
$UCSBASE
  2

  9
$UCSNAME
  2

  9
$UCSORG
 10
0.0
 20
0.0
 30
0.0
  9
$UCSXDIR
 10
1.0
 20
0.0
 30
0.0
  9
$UCSYDIR
 10
0.0
 20
1.0
 30
0.0
  9
$UCSORTHOREF
  2

  9
$UCSORTHOVIEW
 70
     0
  9
$UCSORGTOP
 10
0.0
 20
0.0
 30
0.0
  9
$UCSORGBOTTOM
 10
0.0
 20
0.0
 30
0.0
  9
$UCSORGLEFT
 10
0.0
 20
0.0
 30
0.0
  9
$UCSORGRIGHT
 10
0.0
 20
0.0
 30
0.0
  9
$UCSORGFRONT
 10
0.0
 20
0.0
 30
0.0
  9
$UCSORGBACK
 10
0.0
 20
0.0
 30
0.0
  9
$PUCSBASE
  2

  9
$PUCSNAME
  2

  9
$PUCSORG
 10
0.0
 20
0.0
 30
0.0
  9
$PUCSXDIR
 10
1.0
 20
0.0
 30
0.0
  9
$PUCSYDIR
 10
0.0
 20
1.0
 30
0.0
  9
$PUCSORTHOREF
  2

  9
$PUCSORTHOVIEW
 70
     0
  9
$PUCSORGTOP
 10
0.0
 20
0.0
 30
0.0
  9
$PUCSORGBOTTOM
 10
0.0
 20
0.0
 30
0.0
  9
$PUCSORGLEFT
 10
0.0
 20
0.0
 30
0.0
  9
$PUCSORGRIGHT
 10
0.0
 20
0.0
 30
0.0
  9
$PUCSORGFRONT
 10
0.0
 20
0.0
 30
0.0
  9
$PUCSORGBACK
 10
0.0
 20
0.0
 30
0.0
  9
$USERI1
 70
     0
  9
$USERI2
 70
     0
  9
$USERI3
 70
     0
  9
$USERI4
 70
     0
  9
$USERI5
 70
     0
  9
$USERR1
 40
0.0
  9
$USERR2
 40
0.0
  9
$USERR3
 40
0.0
  9
$USERR4
 40
0.0
  9
$USERR5
 40
0.0
  9
$WORLDVIEW
 70
     1
  9
$SHADEDGE
 70
     3
  9
$SHADEDIF
 70
    70
  9
$TILEMODE
 70
     1
  9
$MAXACTVP
 70
    16
  9
$PINSBASE
 10
0.0
 20
0.0
 30
0.0
  9
$PLIMCHECK
 70
     0
  9
$PEXTMIN
 10
1.000000000000000E+20
 20
1.000000000000000E+20
 30
1.000000000000000E+20
  9
$PEXTMAX
 10
-1.000000000000000E+20
 20
-1.000000000000000E+20
 30
-1.000000000000000E+20
  9
$PLIMMIN
 10
0.0
 20
0.0
  9
$PLIMMAX
 10
420.0
 20
297.0
  9
$UNITMODE
 70
     0
  9
$VISRETAIN
 70
     0
  9
$PLINEGEN
 70
     0
  9
$PSLTSCALE
 70
     0
  9
$TREEDEPTH
 70
  3020
  9
$CMLSTYLE
  2
STANDARD
  9
$CMLJUST
 70
     0
  9
$CMLSCALE
 40
1.0
  9
$PROXYGRAPHICS
 70
     1
  9
$MEASUREMENT
 70
     1
  9
$CELWEIGHT
370
    -1
  9
$ENDCAPS
280
     0
  9
$JOINSTYLE
280
     0
  9
$LWDISPLAY
290
     0
  9
$INSUNITS
 70
     0
  9
$HYPERLINKBASE
  1

  9
$STYLESHEET
  1
inaba.ctb
  9
$XEDIT
290
     1
  9
$CEPSNTYPE
380
     0
  9
$PSTYLEMODE
290
     1
  9
$FINGERPRINTGUID
  2
{76739D65-A91E-4E1D-B17A-CAF058618CF5}
  9
$VERSIONGUID
  2
{74D1EAC3-0733-4ACE-95EB-8F10D120E6B4}
  9
$EXTNAMES
290
     1
  9
$PSVPSCALE
 40
0.0
  9
$OLESTARTUP
290
     0
  0
ENDSEC
  0
SECTION
  2
CLASSES
  0
CLASS
  1
DICTIONARYVAR
  2
AcDbDictionaryVar
  3
ObjectDBX Classes
 90
        0
280
     0
281
     0
  0
CLASS
  1
ACDBDICTIONARYWDFLT
  2
AcDbDictionaryWithDefault
  3
ObjectDBX Classes
 90
        0
280
     0
281
     0
  0
CLASS
  1
ACDBPLACEHOLDER
  2
AcDbPlaceHolder
  3
ObjectDBX Classes
 90
        0
280
     0
281
     0
  0
CLASS
  1
LAYOUT
  2
AcDbLayout
  3
ObjectDBX Classes
 90
        0
280
     0
281
     0
  0
ENDSEC
  0
SECTION
  2
TABLES
  0
TABLE
  2
VPORT
  5
746D
330
0
100
AcDbSymbolTable
 70
     3
  0
VPORT
  5
13846
330
746D
100
AcDbSymbolTableRecord
100
AcDbViewportTableRecord
  2
*Active
 70
     0
 10
0.0
 20
0.0
 11
1.0
 21
1.0
 12
8223.761025238502
 22
5704.702303648472
 13
0.0
 23
0.0
 14
10.0
 24
10.0
 15
10.0
 25
10.0
 16
0.0
 26
0.0
 36
1.0
 17
0.0
 27
0.0
 37
0.0
 40
11493.07698361142
 41
1.492753623188405
 42
50.0
 43
0.0
 44
0.0
 50
0.0
 51
0.0
 71
     0
 72
     0
 73
     1
 74
     0
 75
     0
 76
     0
 77
     0
 78
     0
281
     0
 65
     1
110
0.0
120
0.0
130
0.0
111
1.0
121
0.0
131
0.0
112
0.0
122
1.0
132
0.0
 79
     0
146
0.0
  0
ENDTAB
  0
TABLE
  2
LTYPE
  5
746A
330
0
100
AcDbSymbolTable
 70
     4
  0
LTYPE
  5
7477
330
746A
100
AcDbSymbolTableRecord
100
AcDbLinetypeTableRecord
  2
BYBLOCK
 70
     0
  3

 72
    65
 73
     0
 40
0.0
  0
LTYPE
  5
7478
330
746A
100
AcDbSymbolTableRecord
100
AcDbLinetypeTableRecord
  2
BYLAYER
 70
     0
  3

 72
    65
 73
     0
 40
0.0
  0
LTYPE
  5
7479
330
746A
100
AcDbSymbolTableRecord
100
AcDbLinetypeTableRecord
  2
CONTINUOUS
 70
     0
  3
Solid line
 72
    65
 73
     0
 40
0.0
  0
LTYPE
  5
7816
330
746A
100
AcDbSymbolTableRecord
100
AcDbLinetypeTableRecord
  2
CENTER
 70
     0
  3
____ _ ____ _ ____ _ ____ _ ____ _ ____ _ ____ 
 72
    65
 73
     4
 40
2.0
 49
1.25
 74
     0
 49
-0.25
 74
     0
 49
0.25
 74
     0
 49
-0.25
 74
     0
  0
LTYPE
  5
781A
330
746A
100
AcDbSymbolTableRecord
100
AcDbLinetypeTableRecord
  2
HIDDEN
 70
     0
  3
__ __ __ __ __ __ __ __ __ __ __ __ __ __ __ __
 72
    65
 73
     2
 40
0.375
 49
0.25
 74
     0
 49
-0.125
 74
     0
  0
LTYPE
  5
781B
330
746A
100
AcDbSymbolTableRecord
100
AcDbLinetypeTableRecord
  2
PHANTOM
 70
     0
  3
______  __  __  ______  __  __  ______  __  __ 
 72
    65
 73
     6
 40
2.5
 49
1.25
 74
     0
 49
-0.25
 74
     0
 49
0.25
 74
     0
 49
-0.25
 74
     0
 49
0.25
 74
     0
 49
-0.25
 74
     0
  0
ENDTAB
  0
TABLE
  2
LAYER
  5
7467
330
0
100
AcDbSymbolTable
 70
    12
  0
LAYER
  5
7474
330
7467
100
AcDbSymbolTableRecord
100
AcDbLayerTableRecord
  2
0
 70
     0
 62
     7
  6
CONTINUOUS
370
    -3
390
13210
  0
LAYER
  5
DEB2
330
7467
100
AcDbSymbolTableRecord
100
AcDbLayerTableRecord
  2
センター
 70
     0
 62
     3
  6
CENTER
370
    -3
390
13210
  0
LAYER
  5
DEB3
330
7467
100
AcDbSymbolTableRecord
100
AcDbLayerTableRecord
  2
寸法
 70
     0
 62
     4
  6
CONTINUOUS
370
    -3
390
13210
  0
LAYER
  5
DEB4
330
7467
100
AcDbSymbolTableRecord
100
AcDbLayerTableRecord
  2
部品1
 70
     0
 62
     7
  6
CONTINUOUS
370
    -3
390
13210
  0
LAYER
  5
DEB5
330
7467
100
AcDbSymbolTableRecord
100
AcDbLayerTableRecord
  2
補助
 70
     0
 62
    -1
  6
CONTINUOUS
370
    -3
390
13210
  0
LAYER
  5
DEB6
330
7467
100
AcDbSymbolTableRecord
100
AcDbLayerTableRecord
  2
文字
 70
     0
 62
     7
  6
CONTINUOUS
370
    -3
390
13210
  0
LAYER
  5
F255
330
7467
100
AcDbSymbolTableRecord
100
AcDbLayerTableRecord
  2
DEFPOINTS
 70
     0
 62
     7
  6
CONTINUOUS
290
     0
370
    -3
390
13210
  0
LAYER
  5
10B54
330
7467
100
AcDbSymbolTableRecord
100
AcDbLayerTableRecord
  2
仕様書枠
 70
     0
 62
   230
  6
CONTINUOUS
370
    -3
390
13210
  0
LAYER
  5
11729
330
7467
100
AcDbSymbolTableRecord
100
AcDbLayerTableRecord
  2
Ｇ．Ｌ
 70
     0
 62
   230
  6
CONTINUOUS
370
    -3
390
13210
  0
LAYER
  5
1173F
330
7467
100
AcDbSymbolTableRecord
100
AcDbLayerTableRecord
  2
細線
 70
     0
 62
     6
  6
CONTINUOUS
370
    -3
390
13210
  0
LAYER
  5
11740
330
7467
100
AcDbSymbolTableRecord
100
AcDbLayerTableRecord
  2
点線
 70
     0
 62
     2
  6
HIDDEN
370
    -3
390
13210
  0
LAYER
  5
12296
330
7467
100
AcDbSymbolTableRecord
100
AcDbLayerTableRecord
  2
想像線
 70
     0
 62
     6
  6
PHANTOM
370
    -3
390
13210
  0
ENDTAB
  0
TABLE
  2
STYLE
  5
7468
330
0
100
AcDbSymbolTable
 70
     4
  0
STYLE
  5
7475
330
7468
100
AcDbSymbolTableRecord
100
AcDbTextStyleTableRecord
  2
STANDARD
 70
     0
 40
0.0
 41
1.0
 50
0.0
 71
     0
 42
4.0
  3
txt
  4
C:\AutoCAD LT\bigfont.shx
  0
STYLE
  5
F706
330
7468
100
AcDbSymbolTableRecord
100
AcDbTextStyleTableRecord
  2
STYLE1
 70
     0
 40
0.0
 41
1.0
 50
0.0
 71
     0
 42
4.0
  3
isocp.shx
  4
bigfont.shx
  0
STYLE
  5
103BF
330
7468
100
AcDbSymbolTableRecord
100
AcDbTextStyleTableRecord
  2
STYLE2
 70
     0
 40
0.0
 41
1.0
 50
0.0
 71
     0
 42
100.0
  3
MS PGothic.ttf
  4

1001
ACAD
1000
MS PGothic
1071
    32818
  0
STYLE
  5
10BAA
330
7468
100
AcDbSymbolTableRecord
100
AcDbTextStyleTableRecord
  2
STYLE3
 70
     0
 40
0.0
 41
1.0
 50
0.0
 71
     0
 42
100.0
  3
DFPGothic-EB.ttf
  4

1001
ACAD
1000
DFPGothic-EB
1071
    32818
  0
ENDTAB
  0
TABLE
  2
VIEW
  5
746B
330
0
100
AcDbSymbolTable
 70
     0
  0
ENDTAB
  0
TABLE
  2
UCS
  5
746C
330
0
100
AcDbSymbolTable
 70
     0
  0
ENDTAB
  0
TABLE
  2
APPID
  5
746E
330
0
100
AcDbSymbolTable
 70
     6
  0
APPID
  5
7476
330
746E
100
AcDbSymbolTableRecord
100
AcDbRegAppTableRecord
  2
ACAD
 70
     0
  0
APPID
  5
DEA9
330
746E
100
AcDbSymbolTableRecord
100
AcDbRegAppTableRecord
  2
CONTENTBLOCKICON
 70
     0
  0
APPID
  5
DEAA
330
746E
100
AcDbSymbolTableRecord
100
AcDbRegAppTableRecord
  2
CONTENTBLOCKDESCRIPTION
 70
     0
  0
APPID
  5
E71D
330
746E
100
AcDbSymbolTableRecord
100
AcDbRegAppTableRecord
  2
CONTENTTABDATA
 70
     0
  0
APPID
  5
E71E
330
746E
100
AcDbSymbolTableRecord
100
AcDbRegAppTableRecord
  2
CONTENTCURRENTTAB
 70
     0
  0
APPID
  5
F3BA
330
746E
100
AcDbSymbolTableRecord
100
AcDbRegAppTableRecord
  2
DRAWINGVARIABLESXDATA
 70
     0
  0
ENDTAB
  0
TABLE
  2
DIMSTYLE
  5
746F
330
0
100
AcDbSymbolTable
 70
     4
100
AcDbDimStyleTable
 71
     2
340
13275
340
F71F
  0
DIMSTYLE
105
F71F
102
{ACAD_REACTORS
330
1317E
330
1318E
330
1318F
330
13196
330
131A7
330
131C6
330
131C8
330
11934
330
118E6
330
12C3E
330
12469
330
118C5
330
118AB
330
11892
330
11935
330
118DA
330
1189E
330
11886
330
118B8
330
12328
330
1231E
330
1190F
330
12688
330
12670
330
1233D
102
}
330
746F
100
AcDbSymbolTableRecord
100
AcDbDimStyleTableRecord
  2
INABA_S40G
 70
     0
 40
40.0
 41
2.5
 42
0.5
 43
7.0
 44
1.5
 73
     0
 74
     0
 77
     3
 78
     8
140
3.0
141
0.0
143
0.0394
147
1.0
172
     1
173
     1
174
     1
178
     7
271
     1
340
F706
341
F770
343
F770
344
F770
  0
DIMSTYLE
105
1202D
330
746F
100
AcDbSymbolTableRecord
100
AcDbDimStyleTableRecord
  2
INABA_S30GA
 70
     0
 40
30.0
 41
2.5
 42
0.5
 43
7.0
 44
1.5
 73
     0
 74
     0
 77
     3
 78
     8
140
3.0
141
0.0
143
0.0394
147
1.0
172
     1
173
     1
174
     1
175
     1
178
     7
271
     1
340
F706
341
F770
343
F770
344
F770
  0
DIMSTYLE
105
12C36
330
746F
100
AcDbSymbolTableRecord
100
AcDbDimStyleTableRecord
  2
INABA_S50G
 70
     0
 41
125.0
 42
25.0
 43
7.0
 44
75.0
 73
     0
 74
     0
 77
     3
 78
     8
140
150.0
141
0.0
143
0.0394
147
25.0
172
     1
173
     1
174
     1
178
     7
271
     1
340
F706
341
F770
343
F770
344
F770
  0
DIMSTYLE
105
13275
102
{ACAD_REACTORS
330
13716
330
13726
330
1372D
330
13730
330
13742
330
1375C
330
1375F
102
}
330
746F
100
AcDbSymbolTableRecord
100
AcDbDimStyleTableRecord
  2
INABA_S40G詳細用20
 70
     0
 40
40.0
 41
2.5
 42
0.5
 43
7.0
 44
1.5
 73
     0
 74
     0
 77
     3
 78
     8
140
3.0
141
0.0
143
0.0394
144
0.5
147
1.0
172
     1
173
     1
174
     1
178
     7
271
     0
272
     0
340
F706
341
F770
343
F770
344
F770
  0
ENDTAB
  0
TABLE
  2
BLOCK_RECORD
  5
7466
330
0
100
AcDbSymbolTable
 70
    47
  0
BLOCK_RECORD
  5
747D
330
7466
100
AcDbSymbolTableRecord
100
AcDbBlockTableRecord
  2
*MODEL_SPACE
340
13215
  0
BLOCK_RECORD
  5
747A
330
7466
100
AcDbSymbolTableRecord
100
AcDbBlockTableRecord
  2
*PAPER_SPACE
340
13216
  0
BLOCK_RECORD
  5
DEAC
330
7466
100
AcDbSymbolTableRecord
100
AcDbBlockTableRecord
  2
_OPEN
340
0
  0
BLOCK_RECORD
  5
F770
330
7466
100
AcDbSymbolTableRecord
100
AcDbBlockTableRecord
  2
_DOTSMALL
340
0
102
{BLKREFS
331
1311B
331
1311C
331
13127
331
13128
331
13133
331
13134
331
1313F
331
13140
331
1314D
331
1314E
331
1315A
331
1315B
331
13166
331
13167
331
13530
331
13531
331
13539
331
1353A
331
13542
331
13543
331
1354B
331
1354C
331
13554
331
13555
331
1355D
331
1355E
331
13567
331
13568
331
13570
331
13571
331
1357A
331
1357B
331
13583
331
13584
331
1358E
331
1358F
331
13597
331
13598
331
135A1
331
135A2
331
135AA
331
135AB
331
135B3
331
135B4
331
135BE
331
135BF
331
135C7
331
135C8
331
135D0
331
135D1
331
135D9
331
135DA
331
135E4
331
135E5
331
135ED
331
135EE
331
135F7
331
135F8
331
13600
331
13601
331
1363A
331
1363B
331
13616
331
13617
331
13622
331
13623
331
13648
331
13649
331
1362E
331
1362F
331
13655
331
13656
331
13661
331
13662
331
137FA
331
137FB
331
13803
331
13804
331
1380C
331
1380D
331
13817
331
13818
331
13820
331
13821
331
1382A
331
1382B
331
13833
331
13834
102
}
  0
BLOCK_RECORD
  5
1187B
330
7466
100
AcDbSymbolTableRecord
100
AcDbBlockTableRecord
  2
*D2
340
0
  0
BLOCK_RECORD
  5
11887
330
7466
100
AcDbSymbolTableRecord
100
AcDbBlockTableRecord
  2
*D3
340
0
  0
BLOCK_RECORD
  5
11893
330
7466
100
AcDbSymbolTableRecord
100
AcDbBlockTableRecord
  2
*D4
340
0
  0
BLOCK_RECORD
  5
1189F
330
7466
100
AcDbSymbolTableRecord
100
AcDbBlockTableRecord
  2
*D5
340
0
  0
BLOCK_RECORD
  5
118AC
330
7466
100
AcDbSymbolTableRecord
100
AcDbBlockTableRecord
  2
*D6
340
0
  0
BLOCK_RECORD
  5
118B9
330
7466
100
AcDbSymbolTableRecord
100
AcDbBlockTableRecord
  2
*D7
340
0
  0
BLOCK_RECORD
  5
118D1
330
7466
100
AcDbSymbolTableRecord
100
AcDbBlockTableRecord
  2
*D8
340
0
  0
BLOCK_RECORD
  5
118DB
330
7466
100
AcDbSymbolTableRecord
100
AcDbBlockTableRecord
  2
*D9
340
0
  0
BLOCK_RECORD
  5
11906
330
7466
100
AcDbSymbolTableRecord
100
AcDbBlockTableRecord
  2
*D10
340
0
  0
BLOCK_RECORD
  5
11928
330
7466
100
AcDbSymbolTableRecord
100
AcDbBlockTableRecord
  2
*D11
340
0
  0
BLOCK_RECORD
  5
12312
330
7466
100
AcDbSymbolTableRecord
100
AcDbBlockTableRecord
  2
*D12
340
0
  0
BLOCK_RECORD
  5
1231F
330
7466
100
AcDbSymbolTableRecord
100
AcDbBlockTableRecord
  2
*D13
340
0
  0
BLOCK_RECORD
  5
12335
330
7466
100
AcDbSymbolTableRecord
100
AcDbBlockTableRecord
  2
*D14
340
0
  0
BLOCK_RECORD
  5
1245D
330
7466
100
AcDbSymbolTableRecord
100
AcDbBlockTableRecord
  2
*D15
340
0
  0
BLOCK_RECORD
  5
12664
330
7466
100
AcDbSymbolTableRecord
100
AcDbBlockTableRecord
  2
*D16
340
0
  0
BLOCK_RECORD
  5
1267D
330
7466
100
AcDbSymbolTableRecord
100
AcDbBlockTableRecord
  2
*D17
340
0
  0
BLOCK_RECORD
  5
13117
330
7466
100
AcDbSymbolTableRecord
100
AcDbBlockTableRecord
  2
*D18
340
0
  0
BLOCK_RECORD
  5
13123
330
7466
100
AcDbSymbolTableRecord
100
AcDbBlockTableRecord
  2
*D19
340
0
  0
BLOCK_RECORD
  5
1312F
330
7466
100
AcDbSymbolTableRecord
100
AcDbBlockTableRecord
  2
*D20
340
0
  0
BLOCK_RECORD
  5
1313B
330
7466
100
AcDbSymbolTableRecord
100
AcDbBlockTableRecord
  2
*D21
340
0
  0
BLOCK_RECORD
  5
13147
330
7466
100
AcDbSymbolTableRecord
100
AcDbBlockTableRecord
  2
*D22
340
0
  0
BLOCK_RECORD
  5
13155
330
7466
100
AcDbSymbolTableRecord
100
AcDbBlockTableRecord
  2
*D23
340
0
  0
BLOCK_RECORD
  5
13162
330
7466
100
AcDbSymbolTableRecord
100
AcDbBlockTableRecord
  2
*D24
340
0
  0
BLOCK_RECORD
  5
1316E
330
7466
100
AcDbSymbolTableRecord
100
AcDbBlockTableRecord
  2
A$C78C31950
340
0
  0
BLOCK_RECORD
  5
137A0
330
7466
100
AcDbSymbolTableRecord
100
AcDbBlockTableRecord
  2
*D40
340
0
  0
BLOCK_RECORD
  5
137AC
330
7466
100
AcDbSymbolTableRecord
100
AcDbBlockTableRecord
  2
*D41
340
0
  0
BLOCK_RECORD
  5
137B8
330
7466
100
AcDbSymbolTableRecord
100
AcDbBlockTableRecord
  2
*D42
340
0
  0
BLOCK_RECORD
  5
137C4
330
7466
100
AcDbSymbolTableRecord
100
AcDbBlockTableRecord
  2
*D43
340
0
  0
BLOCK_RECORD
  5
137D2
330
7466
100
AcDbSymbolTableRecord
100
AcDbBlockTableRecord
  2
*D44
340
0
  0
BLOCK_RECORD
  5
137DE
330
7466
100
AcDbSymbolTableRecord
100
AcDbBlockTableRecord
  2
*D45
340
0
  0
BLOCK_RECORD
  5
137EB
330
7466
100
AcDbSymbolTableRecord
100
AcDbBlockTableRecord
  2
*D46
340
0
  0
ENDTAB
  0
ENDSEC
  0
SECTION
  2
BLOCKS
  0
BLOCK
  5
7489
330
747D
100
AcDbEntity
  8
0
100
AcDbBlockBegin
  2
*MODEL_SPACE
 70
     0
 10
0.0
 20
0.0
 30
0.0
  3
*MODEL_SPACE
  1

  0
ENDBLK
  5
748A
330
747D
100
AcDbEntity
  8
0
100
AcDbBlockEnd
  0
BLOCK
  5
7487
330
747A
100
AcDbEntity
 67
     1
  8
0
100
AcDbBlockBegin
  2
*PAPER_SPACE
 70
     0
 10
0.0
 20
0.0
 30
0.0
  3
*PAPER_SPACE
  1

  0
ENDBLK
  5
7488
330
747A
100
AcDbEntity
 67
     1
  8
0
100
AcDbBlockEnd
  0
BLOCK
  5
DEAD
330
DEAC
100
AcDbEntity
  8
0
100
AcDbBlockBegin
  2
_OPEN
 70
     0
 10
0.0
 20
0.0
 30
0.0
  3
_OPEN
  1

  0
LINE
  5
DEAE
330
DEAC
100
AcDbEntity
  8
0
  6
ByBlock
 62
     0
100
AcDbLine
 10
-1.0
 20
0.1666666666666666
 30
0.0
 11
0.0
 21
0.0
 31
0.0
  0
LINE
  5
DEAF
330
DEAC
100
AcDbEntity
  8
0
  6
ByBlock
 62
     0
100
AcDbLine
 10
0.0
 20
0.0
 30
0.0
 11
-1.0
 21
-0.1666666666666666
 31
0.0
  0
LINE
  5
DEB0
330
DEAC
100
AcDbEntity
  8
0
  6
ByBlock
 62
     0
100
AcDbLine
 10
0.0
 20
0.0
 30
0.0
 11
-1.0
 21
0.0
 31
0.0
  0
ENDBLK
  5
DEB1
330
DEAC
100
AcDbEntity
  8
0
100
AcDbBlockEnd
  0
BLOCK
  5
F771
330
F770
100
AcDbEntity
  8
0
 48
50.0
100
AcDbBlockBegin
  2
_DOTSMALL
 70
     0
 10
0.0
 20
0.0
 30
0.0
  3
_DOTSMALL
  1

  0
LWPOLYLINE
  5
F772
330
F770
100
AcDbEntity
  8
0
  6
ByBlock
 62
     0
 48
50.0
100
AcDbPolyline
 90
        2
 70
     1
 43
0.5
 10
-0.0625
 20
0.0
 42
1.0
 10
0.0625
 20
0.0
 42
1.0
  0
ENDBLK
  5
F776
330
F770
100
AcDbEntity
  8
0
 48
50.0
100
AcDbBlockEnd
  0
BLOCK
  5
1233E
330
1187B
100
AcDbEntity
  8
0
 48
50.0
100
AcDbBlockBegin
  2
*D2
 70
     1
 10
0.0
 20
0.0
 30
0.0
  3
*D2
  1

  0
LINE
  5
13576
330
1187B
100
AcDbEntity
  8
寸法
 62
     0
 48
50.0
370
    -2
100
AcDbLine
 10
6603.6
 20
7729.785662218297
 30
0.0
 11
6121.105727429235
 21
7729.785662218297
 31
0.0
  0
LINE
  5
13577
330
1187B
100
AcDbEntity
  8
寸法
 62
     0
 48
50.0
370
    -2
100
AcDbLine
 10
6553.6
 20
7529.785662218298
 30
0.0
 11
6121.105727429235
 21
7529.785662218298
 31
0.0
  0
LINE
  5
13578
330
1187B
100
AcDbEntity
  8
寸法
 62
     0
 48
50.0
370
    -2
100
AcDbLine
 10
6181.105727429235
 20
7529.785662218298
 30
0.0
 11
6181.105727429235
 21
7729.785662218297
 31
0.0
  0
LINE
  5
13579
330
1187B
100
AcDbEntity
  8
寸法
 62
     0
 48
50.0
370
    -2
100
AcDbLine
 10
6181.105727429235
 20
7729.785662218297
 30
0.0
 11
6181.105727429235
 21
8128.927394501761
 31
0.0
  0
INSERT
  5
1357A
330
1187B
100
AcDbEntity
  8
寸法
 62
     0
 48
50.0
370
    -2
100
AcDbBlockReference
  2
_DOTSMALL
 10
6181.105727429235
 20
7529.785662218298
 30
0.0
 41
100.0
 42
100.0
 43
100.0
 50
270.0
  0
INSERT
  5
1357B
330
1187B
100
AcDbEntity
  8
寸法
 62
     0
 48
50.0
370
    -2
100
AcDbBlockReference
  2
_DOTSMALL
 10
6181.105727429235
 20
7729.785662218297
 30
0.0
 41
100.0
 42
100.0
 43
100.0
 50
90.0
  0
MTEXT
  5
1357C
330
1187B
100
AcDbEntity
  8
寸法
 62
     7
 48
50.0
100
AcDbMText
 10
6081.093916405613
 20
7979.356528360032
 30
0.0
 40
120.0
 41
0.0
 71
     5
 72
     1
  1
\A1;200
  7
STYLE1
 11
0.0000000000000001
 21
1.0
 31
0.0
 73
     1
 44
1.0
1001
ACAD
1000
MTEXTBEGIN
1070
    73
1070
     1
1070
    44
1040
1.0
1070
    74
1070
     0
1000
MTEXTEND
  0
POINT
  5
1357D
330
1187B
100
AcDbEntity
  8
DEFPOINTS
 62
     0
 48
50.0
100
AcDbPoint
 10
6623.6
 20
7729.785662218297
 30
0.0
  0
POINT
  5
1357E
330
1187B
100
AcDbEntity
  8
DEFPOINTS
 62
     0
 48
50.0
100
AcDbPoint
 10
6573.6
 20
7529.785662218298
 30
0.0
  0
POINT
  5
1357F
330
1187B
100
AcDbEntity
  8
DEFPOINTS
 62
     0
 48
50.0
100
AcDbPoint
 10
6181.105727429235
 20
7529.785662218298
 30
0.0
  0
ENDBLK
  5
12349
330
1187B
100
AcDbEntity
  8
0
 48
50.0
100
AcDbBlockEnd
  0
BLOCK
  5
125F8
330
11887
100
AcDbEntity
  8
0
 48
50.0
100
AcDbBlockBegin
  2
*D3
 70
     1
 10
0.0
 20
0.0
 30
0.0
  3
*D3
  1

  0
LINE
  5
1355A
330
11887
100
AcDbEntity
  8
寸法
 62
     0
 48
50.0
370
    -2
100
AcDbLine
 10
6553.6
 20
7529.785662218298
 30
0.0
 11
6121.105727429235
 21
7529.785662218298
 31
0.0
  0
LINE
  5
1355B
330
11887
100
AcDbEntity
  8
寸法
 62
     0
 48
50.0
370
    -2
100
AcDbLine
 10
6553.6
 20
5879.785662218298
 30
0.0
 11
6121.105727429235
 21
5879.785662218299
 31
0.0
  0
LINE
  5
1355C
330
11887
100
AcDbEntity
  8
寸法
 62
     0
 48
50.0
370
    -2
100
AcDbLine
 10
6181.105727429235
 20
7529.785662218298
 30
0.0
 11
6181.105727429234
 21
5879.785662218298
 31
0.0
  0
INSERT
  5
1355D
330
11887
100
AcDbEntity
  8
寸法
 62
     0
 48
50.0
370
    -2
100
AcDbBlockReference
  2
_DOTSMALL
 10
6181.105727429235
 20
7529.785662218298
 30
0.0
 41
100.0
 42
100.0
 43
100.0
 50
90.0
  0
INSERT
  5
1355E
330
11887
100
AcDbEntity
  8
寸法
 62
     0
 48
50.0
370
    -2
100
AcDbBlockReference
  2
_DOTSMALL
 10
6181.105727429234
 20
5879.785662218298
 30
0.0
 41
100.0
 42
100.0
 43
100.0
 50
270.0
  0
MTEXT
  5
1355F
330
11887
100
AcDbEntity
  8
寸法
 62
     7
 48
50.0
100
AcDbMText
 10
6081.105727429234
 20
6704.785662218299
 30
0.0
 40
120.0
 41
0.0
 71
     5
 72
     1
  1
\A1;1650
  7
STYLE1
 11
0.0000000000000001
 21
1.0
 31
0.0
 73
     1
 44
1.0
1001
ACAD
1000
MTEXTBEGIN
1070
    73
1070
     1
1070
    44
1040
1.0
1070
    74
1070
     0
1000
MTEXTEND
  0
POINT
  5
13560
330
11887
100
AcDbEntity
  8
DEFPOINTS
 62
     0
 48
50.0
100
AcDbPoint
 10
6573.6
 20
7529.785662218298
 30
0.0
  0
POINT
  5
13561
330
11887
100
AcDbEntity
  8
DEFPOINTS
 62
     0
 48
50.0
100
AcDbPoint
 10
6573.6
 20
5879.785662218298
 30
0.0
  0
POINT
  5
13562
330
11887
100
AcDbEntity
  8
DEFPOINTS
 62
     0
 48
50.0
100
AcDbPoint
 10
6181.105727429234
 20
5879.785662218298
 30
0.0
  0
ENDBLK
  5
12601
330
11887
100
AcDbEntity
  8
0
 48
50.0
100
AcDbBlockEnd
  0
BLOCK
  5
12354
330
11893
100
AcDbEntity
  8
0
 48
50.0
100
AcDbBlockBegin
  2
*D4
 70
     1
 10
0.0
 20
0.0
 30
0.0
  3
*D4
  1

  0
LINE
  5
1356D
330
11893
100
AcDbEntity
  8
寸法
 62
     0
 48
50.0
370
    -2
100
AcDbLine
 10
6603.6
 20
5879.785662218298
 30
0.0
 11
6121.105727429235
 21
5879.785662218299
 31
0.0
  0
LINE
  5
1356E
330
11893
100
AcDbEntity
  8
寸法
 62
     0
 48
50.0
370
    -2
100
AcDbLine
 10
6603.6
 20
4959.785662218298
 30
0.0
 11
6121.105727429235
 21
4959.785662218298
 31
0.0
  0
LINE
  5
1356F
330
11893
100
AcDbEntity
  8
寸法
 62
     0
 48
50.0
370
    -2
100
AcDbLine
 10
6181.105727429234
 20
5879.785662218298
 30
0.0
 11
6181.105727429234
 21
4959.785662218298
 31
0.0
  0
INSERT
  5
13570
330
11893
100
AcDbEntity
  8
寸法
 62
     0
 48
50.0
370
    -2
100
AcDbBlockReference
  2
_DOTSMALL
 10
6181.105727429234
 20
5879.785662218298
 30
0.0
 41
100.0
 42
100.0
 43
100.0
 50
90.0
  0
INSERT
  5
13571
330
11893
100
AcDbEntity
  8
寸法
 62
     0
 48
50.0
370
    -2
100
AcDbBlockReference
  2
_DOTSMALL
 10
6181.105727429234
 20
4959.785662218298
 30
0.0
 41
100.0
 42
100.0
 43
100.0
 50
270.0
  0
MTEXT
  5
13572
330
11893
100
AcDbEntity
  8
寸法
 62
     7
 48
50.0
100
AcDbMText
 10
6081.06491486443
 20
5419.785662218298
 30
0.0
 40
120.0
 41
0.0
 71
     5
 72
     1
  1
\A1;920
  7
STYLE1
 11
0.0000000000000001
 21
1.0
 31
0.0
 73
     1
 44
1.0
1001
ACAD
1000
MTEXTBEGIN
1070
    73
1070
     1
1070
    44
1040
1.0
1070
    74
1070
     0
1000
MTEXTEND
  0
POINT
  5
13573
330
11893
100
AcDbEntity
  8
DEFPOINTS
 62
     0
 48
50.0
100
AcDbPoint
 10
6623.6
 20
5879.785662218298
 30
0.0
  0
POINT
  5
13574
330
11893
100
AcDbEntity
  8
DEFPOINTS
 62
     0
 48
50.0
100
AcDbPoint
 10
6623.6
 20
4959.785662218298
 30
0.0
  0
POINT
  5
13575
330
11893
100
AcDbEntity
  8
DEFPOINTS
 62
     0
 48
50.0
100
AcDbPoint
 10
6181.105727429234
 20
4959.785662218298
 30
0.0
  0
ENDBLK
  5
1235D
330
11893
100
AcDbEntity
  8
0
 48
50.0
100
AcDbBlockEnd
  0
BLOCK
  5
12C94
330
1189F
100
AcDbEntity
  8
0
 48
50.0
100
AcDbBlockBegin
  2
*D5
 70
     1
 10
0.0
 20
0.0
 30
0.0
  3
*D5
  1

  0
LINE
  5
13551
330
1189F
100
AcDbEntity
  8
寸法
 62
     0
 48
50.0
370
    -2
100
AcDbLine
 10
6603.6
 20
7729.785662218297
 30
0.0
 11
5783.812491819077
 21
7729.785662218297
 31
0.0
  0
LINE
  5
13552
330
1189F
100
AcDbEntity
  8
寸法
 62
     0
 48
50.0
370
    -2
100
AcDbLine
 10
6603.6
 20
4959.785662218298
 30
0.0
 11
5783.812491819075
 21
4959.785662218298
 31
0.0
  0
LINE
  5
13553
330
1189F
100
AcDbEntity
  8
寸法
 62
     0
 48
50.0
370
    -2
100
AcDbLine
 10
5843.812491819075
 20
7729.785662218297
 30
0.0
 11
5843.812491819075
 21
4959.785662218298
 31
0.0
  0
INSERT
  5
13554
330
1189F
100
AcDbEntity
  8
寸法
 62
     0
 48
50.0
370
    -2
100
AcDbBlockReference
  2
_DOTSMALL
 10
5843.812491819075
 20
7729.785662218297
 30
0.0
 41
100.0
 42
100.0
 43
100.0
 50
90.0
  0
INSERT
  5
13555
330
1189F
100
AcDbEntity
  8
寸法
 62
     0
 48
50.0
370
    -2
100
AcDbBlockReference
  2
_DOTSMALL
 10
5843.812491819075
 20
4959.785662218298
 30
0.0
 41
100.0
 42
100.0
 43
100.0
 50
270.0
  0
MTEXT
  5
13556
330
1189F
100
AcDbEntity
  8
寸法
 62
     7
 48
50.0
100
AcDbMText
 10
5743.800680795453
 20
6344.785662218299
 30
0.0
 40
120.0
 41
0.0
 71
     5
 72
     1
  1
\A1;基礎寸法 2770
  7
STYLE1
 11
0.0000000000000001
 21
1.0
 31
0.0
 73
     1
 44
1.0
1001
ACAD
1000
MTEXTBEGIN
1070
    73
1070
     1
1070
    44
1040
1.0
1070
    74
1070
     0
1000
MTEXTEND
  0
POINT
  5
13557
330
1189F
100
AcDbEntity
  8
DEFPOINTS
 62
     0
 48
50.0
100
AcDbPoint
 10
6623.6
 20
7729.785662218297
 30
0.0
  0
POINT
  5
13558
330
1189F
100
AcDbEntity
  8
DEFPOINTS
 62
     0
 48
50.0
100
AcDbPoint
 10
6623.6
 20
4959.785662218298
 30
0.0
  0
POINT
  5
13559
330
1189F
100
AcDbEntity
  8
DEFPOINTS
 62
     0
 48
50.0
100
AcDbPoint
 10
5843.812491819075
 20
4959.785662218298
 30
0.0
  0
ENDBLK
  5
12C9E
330
1189F
100
AcDbEntity
  8
0
 48
50.0
100
AcDbBlockEnd
  0
BLOCK
  5
13017
330
118AC
100
AcDbEntity
  8
0
 48
50.0
100
AcDbBlockBegin
  2
*D6
 70
     1
 10
0.0
 20
0.0
 30
0.0
  3
*D6
  1

  0
LINE
  5
13580
330
118AC
100
AcDbEntity
  8
寸法
 62
     0
 48
50.0
370
    -2
100
AcDbLine
 10
6473.600000000002
 20
6249.785662218298
 30
0.0
 11
6473.600000000002
 21
6443.680570935905
 31
0.0
  0
LINE
  5
13581
330
118AC
100
AcDbEntity
  8
寸法
 62
     0
 48
50.0
370
    -2
100
AcDbLine
 10
7173.600000000002
 20
6249.785662218298
 30
0.0
 11
7173.600000000002
 21
6443.680570935905
 31
0.0
  0
LINE
  5
13582
330
118AC
100
AcDbEntity
  8
寸法
 62
     0
 48
50.0
370
    -2
100
AcDbLine
 10
6473.600000000002
 20
6383.680570935904
 30
0.0
 11
7173.600000000002
 21
6383.680570935904
 31
0.0
  0
INSERT
  5
13583
330
118AC
100
AcDbEntity
  8
寸法
 62
     0
 48
50.0
370
    -2
100
AcDbBlockReference
  2
_DOTSMALL
 10
6473.600000000002
 20
6383.680570935904
 30
0.0
 41
100.0
 42
100.0
 43
100.0
 50
180.0
  0
INSERT
  5
13584
330
118AC
100
AcDbEntity
  8
寸法
 62
     0
 48
50.0
370
    -2
100
AcDbBlockReference
  2
_DOTSMALL
 10
7173.600000000002
 20
6383.680570935904
 30
0.0
 41
100.0
 42
100.0
 43
100.0
  0
MTEXT
  5
13585
330
118AC
100
AcDbEntity
  8
寸法
 62
     7
 48
50.0
100
AcDbMText
 10
6823.600000000002
 20
6483.680570935904
 30
0.0
 40
120.0
 41
0.0
 71
     5
 72
     1
  1
\A1;700
  7
STYLE1
 73
     1
 44
1.0
1001
ACAD
1000
MTEXTBEGIN
1070
    73
1070
     1
1070
    44
1040
1.0
1070
    74
1070
     0
1000
MTEXTEND
  0
POINT
  5
13586
330
118AC
100
AcDbEntity
  8
DEFPOINTS
 62
     0
 48
50.0
100
AcDbPoint
 10
6473.600000000002
 20
6229.785662218298
 30
0.0
  0
POINT
  5
13587
330
118AC
100
AcDbEntity
  8
DEFPOINTS
 62
     0
 48
50.0
100
AcDbPoint
 10
7173.600000000002
 20
6229.785662218298
 30
0.0
  0
POINT
  5
13588
330
118AC
100
AcDbEntity
  8
DEFPOINTS
 62
     0
 48
50.0
100
AcDbPoint
 10
7173.600000000002
 20
6383.680570935904
 30
0.0
  0
ENDBLK
  5
13021
330
118AC
100
AcDbEntity
  8
0
 48
50.0
100
AcDbBlockEnd
  0
BLOCK
  5
13061
330
118B9
100
AcDbEntity
  8
0
 48
50.0
100
AcDbBlockBegin
  2
*D7
 70
     1
 10
0.0
 20
0.0
 30
0.0
  3
*D7
  1

  0
LINE
  5
13548
330
118B9
100
AcDbEntity
  8
寸法
 62
     0
 48
50.0
370
    -2
100
AcDbLine
 10
7193.600000000002
 20
6229.785662218298
 30
0.0
 11
7511.59866659393
 21
6229.785662218298
 31
0.0
  0
LINE
  5
13549
330
118B9
100
AcDbEntity
  8
寸法
 62
     0
 48
50.0
370
    -2
100
AcDbLine
 10
7193.600000000002
 20
5529.785662218298
 30
0.0
 11
7511.598666593929
 21
5529.785662218298
 31
0.0
  0
LINE
  5
1354A
330
118B9
100
AcDbEntity
  8
寸法
 62
     0
 48
50.0
370
    -2
100
AcDbLine
 10
7451.598666593929
 20
6229.785662218298
 30
0.0
 11
7451.598666593929
 21
5529.785662218298
 31
0.0
  0
INSERT
  5
1354B
330
118B9
100
AcDbEntity
  8
寸法
 62
     0
 48
50.0
370
    -2
100
AcDbBlockReference
  2
_DOTSMALL
 10
7451.598666593929
 20
6229.785662218298
 30
0.0
 41
100.0
 42
100.0
 43
100.0
 50
90.0
  0
INSERT
  5
1354C
330
118B9
100
AcDbEntity
  8
寸法
 62
     0
 48
50.0
370
    -2
100
AcDbBlockReference
  2
_DOTSMALL
 10
7451.598666593929
 20
5529.785662218298
 30
0.0
 41
100.0
 42
100.0
 43
100.0
 50
270.0
  0
MTEXT
  5
1354D
330
118B9
100
AcDbEntity
  8
寸法
 62
     7
 48
50.0
100
AcDbMText
 10
7351.598666593928
 20
5879.785662218299
 30
0.0
 40
120.0
 41
0.0
 71
     5
 72
     1
  1
\A1;700
  7
STYLE1
 11
0.0000000000000001
 21
1.0
 31
0.0
 73
     1
 44
1.0
1001
ACAD
1000
MTEXTBEGIN
1070
    73
1070
     1
1070
    44
1040
1.0
1070
    74
1070
     0
1000
MTEXTEND
  0
POINT
  5
1354E
330
118B9
100
AcDbEntity
  8
DEFPOINTS
 62
     0
 48
50.0
100
AcDbPoint
 10
7173.600000000002
 20
6229.785662218298
 30
0.0
  0
POINT
  5
1354F
330
118B9
100
AcDbEntity
  8
DEFPOINTS
 62
     0
 48
50.0
100
AcDbPoint
 10
7173.600000000002
 20
5529.785662218298
 30
0.0
  0
POINT
  5
13550
330
118B9
100
AcDbEntity
  8
DEFPOINTS
 62
     0
 48
50.0
100
AcDbPoint
 10
7451.598666593929
 20
5529.785662218298
 30
0.0
  0
ENDBLK
  5
1306B
330
118B9
100
AcDbEntity
  8
0
 48
50.0
100
AcDbBlockEnd
  0
BLOCK
  5
1272D
330
118D1
100
AcDbEntity
  8
0
 48
50.0
100
AcDbBlockBegin
  2
*D8
 70
     1
 10
0.0
 20
0.0
 30
0.0
  3
*D8
  1

  0
LINE
  5
13563
330
118D1
100
AcDbEntity
  8
寸法
 62
     0
 48
50.0
370
    -2
100
AcDbLine
 10
6623.6
 20
4939.785662218297
 30
0.0
 11
6623.6
 21
4583.212687273764
 31
0.0
  0
LINE
  5
13564
330
118D1
100
AcDbEntity
  8
寸法
 62
     0
 48
50.0
370
    -2
100
AcDbLine
 10
6823.6
 20
5609.785662218297
 30
0.0
 11
6823.6
 21
4583.212687273764
 31
0.0
  0
LINE
  5
13565
330
118D1
100
AcDbEntity
  8
寸法
 62
     0
 48
50.0
370
    -2
100
AcDbLine
 10
6823.6
 20
4643.212687273765
 30
0.0
 11
6623.6
 21
4643.212687273765
 31
0.0
  0
LINE
  5
13566
330
118D1
100
AcDbEntity
  8
寸法
 62
     0
 48
50.0
370
    -2
100
AcDbLine
 10
6623.6
 20
4643.212687273765
 30
0.0
 11
6224.458267716536
 21
4643.212687273765
 31
0.0
  0
INSERT
  5
13567
330
118D1
100
AcDbEntity
  8
寸法
 62
     0
 48
50.0
370
    -2
100
AcDbBlockReference
  2
_DOTSMALL
 10
6823.6
 20
4643.212687273765
 30
0.0
 41
100.0
 42
100.0
 43
100.0
  0
INSERT
  5
13568
330
118D1
100
AcDbEntity
  8
寸法
 62
     0
 48
50.0
370
    -2
100
AcDbBlockReference
  2
_DOTSMALL
 10
6623.6
 20
4643.212687273765
 30
0.0
 41
100.0
 42
100.0
 43
100.0
 50
180.0
  0
MTEXT
  5
13569
330
118D1
100
AcDbEntity
  8
寸法
 62
     7
 48
50.0
100
AcDbMText
 10
6374.029133858268
 20
4743.224498297386
 30
0.0
 40
120.0
 41
0.0
 71
     5
 72
     1
  1
\A1;200
  7
STYLE1
 73
     1
 44
1.0
1001
ACAD
1000
MTEXTBEGIN
1070
    73
1070
     1
1070
    44
1040
1.0
1070
    74
1070
     0
1000
MTEXTEND
  0
POINT
  5
1356A
330
118D1
100
AcDbEntity
  8
DEFPOINTS
 62
     0
 48
50.0
100
AcDbPoint
 10
6623.6
 20
4959.785662218298
 30
0.0
  0
POINT
  5
1356B
330
118D1
100
AcDbEntity
  8
DEFPOINTS
 62
     0
 48
50.0
100
AcDbPoint
 10
6823.6
 20
5629.785662218297
 30
0.0
  0
POINT
  5
1356C
330
118D1
100
AcDbEntity
  8
DEFPOINTS
 62
     0
 48
50.0
100
AcDbPoint
 10
6823.6
 20
4643.212687273765
 30
0.0
  0
ENDBLK
  5
12738
330
118D1
100
AcDbEntity
  8
0
 48
50.0
100
AcDbBlockEnd
  0
BLOCK
  5
130EE
330
118DB
100
AcDbEntity
  8
0
 48
50.0
100
AcDbBlockBegin
  2
*D9
 70
     1
 10
0.0
 20
0.0
 30
0.0
  3
*D9
  1

  0
LINE
  5
13536
330
118DB
100
AcDbEntity
  8
寸法
 62
     0
 48
50.0
370
    -2
100
AcDbLine
 10
6823.6
 20
5609.785662218297
 30
0.0
 11
6823.6
 21
4583.212687273764
 31
0.0
  0
LINE
  5
13537
330
118DB
100
AcDbEntity
  8
寸法
 62
     0
 48
50.0
370
    -2
100
AcDbLine
 10
9623.600000000001
 20
5609.785662218298
 30
0.0
 11
9623.600000000001
 21
4583.212687273764
 31
0.0
  0
LINE
  5
13538
330
118DB
100
AcDbEntity
  8
寸法
 62
     0
 48
50.0
370
    -2
100
AcDbLine
 10
6823.6
 20
4643.212687273765
 30
0.0
 11
9623.600000000001
 21
4643.212687273765
 31
0.0
  0
INSERT
  5
13539
330
118DB
100
AcDbEntity
  8
寸法
 62
     0
 48
50.0
370
    -2
100
AcDbBlockReference
  2
_DOTSMALL
 10
6823.6
 20
4643.212687273765
 30
0.0
 41
100.0
 42
100.0
 43
100.0
 50
180.0
  0
INSERT
  5
1353A
330
118DB
100
AcDbEntity
  8
寸法
 62
     0
 48
50.0
370
    -2
100
AcDbBlockReference
  2
_DOTSMALL
 10
9623.600000000001
 20
4643.212687273765
 30
0.0
 41
100.0
 42
100.0
 43
100.0
  0
MTEXT
  5
1353B
330
118DB
100
AcDbEntity
  8
寸法
 62
     7
 48
50.0
100
AcDbMText
 10
8223.600000000001
 20
4743.224498297386
 30
0.0
 40
120.0
 41
0.0
 71
     5
 72
     1
  1
\A1;2800
  7
STYLE1
 73
     1
 44
1.0
1001
ACAD
1000
MTEXTBEGIN
1070
    73
1070
     1
1070
    44
1040
1.0
1070
    74
1070
     0
1000
MTEXTEND
  0
POINT
  5
1353C
330
118DB
100
AcDbEntity
  8
DEFPOINTS
 62
     0
 48
50.0
100
AcDbPoint
 10
6823.6
 20
5629.785662218297
 30
0.0
  0
POINT
  5
1353D
330
118DB
100
AcDbEntity
  8
DEFPOINTS
 62
     0
 48
50.0
100
AcDbPoint
 10
9623.600000000001
 20
5629.785662218298
 30
0.0
  0
POINT
  5
1353E
330
118DB
100
AcDbEntity
  8
DEFPOINTS
 62
     0
 48
50.0
100
AcDbPoint
 10
9623.600000000001
 20
4643.212687273765
 30
0.0
  0
ENDBLK
  5
130F7
330
118DB
100
AcDbEntity
  8
0
 48
50.0
100
AcDbBlockEnd
  0
BLOCK
  5
1275B
330
11906
100
AcDbEntity
  8
0
 48
50.0
100
AcDbBlockBegin
  2
*D10
 70
     1
 10
0.0
 20
0.0
 30
0.0
  3
*D10
  1

  0
LINE
  5
1359D
330
11906
100
AcDbEntity
  8
寸法
 62
     0
 48
50.0
370
    -2
100
AcDbLine
 10
9623.600000000001
 20
5609.785662218298
 30
0.0
 11
9623.600000000001
 21
4583.212687273764
 31
0.0
  0
LINE
  5
1359E
330
11906
100
AcDbEntity
  8
寸法
 62
     0
 48
50.0
370
    -2
100
AcDbLine
 10
9823.6
 20
4939.785662218297
 30
0.0
 11
9823.6
 21
4583.212687273764
 31
0.0
  0
LINE
  5
1359F
330
11906
100
AcDbEntity
  8
寸法
 62
     0
 48
50.0
370
    -2
100
AcDbLine
 10
9623.600000000001
 20
4643.212687273765
 30
0.0
 11
9823.6
 21
4643.212687273765
 31
0.0
  0
LINE
  5
135A0
330
11906
100
AcDbEntity
  8
寸法
 62
     0
 48
50.0
370
    -2
100
AcDbLine
 10
9823.6
 20
4643.212687273765
 30
0.0
 11
10222.74173228346
 21
4643.212687273765
 31
0.0
  0
INSERT
  5
135A1
330
11906
100
AcDbEntity
  8
寸法
 62
     0
 48
50.0
370
    -2
100
AcDbBlockReference
  2
_DOTSMALL
 10
9623.600000000001
 20
4643.212687273765
 30
0.0
 41
100.0
 42
100.0
 43
100.0
 50
180.0
  0
INSERT
  5
135A2
330
11906
100
AcDbEntity
  8
寸法
 62
     0
 48
50.0
370
    -2
100
AcDbBlockReference
  2
_DOTSMALL
 10
9823.6
 20
4643.212687273765
 30
0.0
 41
100.0
 42
100.0
 43
100.0
  0
MTEXT
  5
135A3
330
11906
100
AcDbEntity
  8
寸法
 62
     7
 48
50.0
100
AcDbMText
 10
10073.17086614173
 20
4743.224498297386
 30
0.0
 40
120.0
 41
0.0
 71
     5
 72
     1
  1
\A1;200
  7
STYLE1
 73
     1
 44
1.0
1001
ACAD
1000
MTEXTBEGIN
1070
    73
1070
     1
1070
    44
1040
1.0
1070
    74
1070
     0
1000
MTEXTEND
  0
POINT
  5
135A4
330
11906
100
AcDbEntity
  8
DEFPOINTS
 62
     0
 48
50.0
100
AcDbPoint
 10
9623.600000000001
 20
5629.785662218298
 30
0.0
  0
POINT
  5
135A5
330
11906
100
AcDbEntity
  8
DEFPOINTS
 62
     0
 48
50.0
100
AcDbPoint
 10
9823.6
 20
4959.785662218298
 30
0.0
  0
POINT
  5
135A6
330
11906
100
AcDbEntity
  8
DEFPOINTS
 62
     0
 48
50.0
100
AcDbPoint
 10
9823.6
 20
4643.212687273765
 30
0.0
  0
ENDBLK
  5
12766
330
11906
100
AcDbEntity
  8
0
 48
50.0
100
AcDbBlockEnd
  0
BLOCK
  5
13103
330
11928
100
AcDbEntity
  8
0
 48
50.0
100
AcDbBlockBegin
  2
*D11
 70
     1
 10
0.0
 20
0.0
 30
0.0
  3
*D11
  1

  0
LINE
  5
1352D
330
11928
100
AcDbEntity
  8
寸法
 62
     0
 48
50.0
370
    -2
100
AcDbLine
 10
6623.6
 20
4939.785662218297
 30
0.0
 11
6623.6
 21
4251.259653382771
 31
0.0
  0
LINE
  5
1352E
330
11928
100
AcDbEntity
  8
寸法
 62
     0
 48
50.0
370
    -2
100
AcDbLine
 10
9823.6
 20
4939.785662218297
 30
0.0
 11
9823.6
 21
4251.259653382771
 31
0.0
  0
LINE
  5
1352F
330
11928
100
AcDbEntity
  8
寸法
 62
     0
 48
50.0
370
    -2
100
AcDbLine
 10
6623.6
 20
4311.259653382771
 30
0.0
 11
9823.6
 21
4311.259653382771
 31
0.0
  0
INSERT
  5
13530
330
11928
100
AcDbEntity
  8
寸法
 62
     0
 48
50.0
370
    -2
100
AcDbBlockReference
  2
_DOTSMALL
 10
6623.6
 20
4311.259653382771
 30
0.0
 41
100.0
 42
100.0
 43
100.0
 50
180.0
  0
INSERT
  5
13531
330
11928
100
AcDbEntity
  8
寸法
 62
     0
 48
50.0
370
    -2
100
AcDbBlockReference
  2
_DOTSMALL
 10
9823.6
 20
4311.259653382771
 30
0.0
 41
100.0
 42
100.0
 43
100.0
  0
MTEXT
  5
13532
330
11928
100
AcDbEntity
  8
寸法
 62
     7
 48
50.0
100
AcDbMText
 10
8223.600000000001
 20
4411.271464406392
 30
0.0
 40
120.0
 41
0.0
 71
     5
 72
     1
  1
\A1;基礎寸法 3200
  7
STYLE1
 73
     1
 44
1.0
1001
ACAD
1000
MTEXTBEGIN
1070
    73
1070
     1
1070
    44
1040
1.0
1070
    74
1070
     0
1000
MTEXTEND
  0
POINT
  5
13533
330
11928
100
AcDbEntity
  8
DEFPOINTS
 62
     0
 48
50.0
100
AcDbPoint
 10
6623.6
 20
4959.785662218298
 30
0.0
  0
POINT
  5
13534
330
11928
100
AcDbEntity
  8
DEFPOINTS
 62
     0
 48
50.0
100
AcDbPoint
 10
9823.6
 20
4959.785662218298
 30
0.0
  0
POINT
  5
13535
330
11928
100
AcDbEntity
  8
DEFPOINTS
 62
     0
 48
50.0
100
AcDbPoint
 10
9823.6
 20
4311.259653382771
 30
0.0
  0
ENDBLK
  5
1310D
330
11928
100
AcDbEntity
  8
0
 48
50.0
100
AcDbBlockEnd
  0
BLOCK
  5
1296E
330
12312
100
AcDbEntity
  8
0
 48
50.0
100
AcDbBlockBegin
  2
*D12
 70
     1
 10
0.0
 20
0.0
 30
0.0
  3
*D12
  1

  0
LINE
  5
13594
330
12312
100
AcDbEntity
  8
寸法
 62
     0
 48
50.0
370
    -2
100
AcDbLine
 10
9893.600000000001
 20
7829.785662218299
 30
0.0
 11
10701.88737785239
 21
7829.785662218298
 31
0.0
  0
LINE
  5
13595
330
12312
100
AcDbEntity
  8
寸法
 62
     0
 48
50.0
370
    -2
100
AcDbLine
 10
9893.599999999999
 20
5129.785662218296
 30
0.0
 11
10701.88737785239
 21
5129.785662218295
 31
0.0
  0
LINE
  5
13596
330
12312
100
AcDbEntity
  8
寸法
 62
     0
 48
50.0
370
    -2
100
AcDbLine
 10
10641.88737785239
 20
7829.785662218298
 30
0.0
 11
10641.88737785239
 21
5129.785662218295
 31
0.0
  0
INSERT
  5
13597
330
12312
100
AcDbEntity
  8
寸法
 62
     0
 48
50.0
370
    -2
100
AcDbBlockReference
  2
_DOTSMALL
 10
10641.88737785239
 20
7829.785662218298
 30
0.0
 41
100.0
 42
100.0
 43
100.0
 50
90.0
  0
INSERT
  5
13598
330
12312
100
AcDbEntity
  8
寸法
 62
     0
 48
50.0
370
    -2
100
AcDbBlockReference
  2
_DOTSMALL
 10
10641.88737785239
 20
5129.785662218295
 30
0.0
 41
100.0
 42
100.0
 43
100.0
 50
270.0
  0
MTEXT
  5
13599
330
12312
100
AcDbEntity
  8
寸法
 62
     7
 48
50.0
100
AcDbMText
 10
10541.87556682876
 20
6479.785662218297
 30
0.0
 40
120.0
 41
0.0
 71
     5
 72
     1
  1
\A1;屋根寸法 2700
  7
STYLE1
 11
0.0000000000000001
 21
1.0
 31
0.0
 73
     1
 44
1.0
1001
ACAD
1000
MTEXTBEGIN
1070
    73
1070
     1
1070
    44
1040
1.0
1070
    74
1070
     0
1000
MTEXTEND
  0
POINT
  5
1359A
330
12312
100
AcDbEntity
  8
DEFPOINTS
 62
     0
 48
50.0
100
AcDbPoint
 10
9873.600000000001
 20
7829.785662218299
 30
0.0
  0
POINT
  5
1359B
330
12312
100
AcDbEntity
  8
DEFPOINTS
 62
     0
 48
50.0
100
AcDbPoint
 10
9873.599999999999
 20
5129.785662218296
 30
0.0
  0
POINT
  5
1359C
330
12312
100
AcDbEntity
  8
DEFPOINTS
 62
     0
 48
50.0
100
AcDbPoint
 10
10641.88737785239
 20
5129.785662218295
 30
0.0
  0
ENDBLK
  5
12978
330
12312
100
AcDbEntity
  8
0
 48
50.0
100
AcDbBlockEnd
  0
BLOCK
  5
13077
330
1231F
100
AcDbEntity
  8
0
 48
50.0
100
AcDbBlockBegin
  2
*D13
 70
     1
 10
0.0
 20
0.0
 30
0.0
  3
*D13
  1

  0
LINE
  5
13589
330
1231F
100
AcDbEntity
  8
寸法
 62
     0
 48
50.0
370
    -2
100
AcDbLine
 10
6573.599999999998
 20
7849.785662218299
 30
0.0
 11
6573.599999999998
 21
8220.859626484438
 31
0.0
  0
LINE
  5
1358A
330
1231F
100
AcDbEntity
  8
寸法
 62
     0
 48
50.0
370
    -2
100
AcDbLine
 10
6823.6
 20
7999.785662218297
 30
0.0
 11
6823.6
 21
8220.859626484438
 31
0.0
  0
LINE
  5
1358B
330
1231F
100
AcDbEntity
  8
寸法
 62
     0
 48
50.0
370
    -2
100
AcDbLine
 10
6573.599999999998
 20
8160.859626484437
 30
0.0
 11
6473.599999999999
 21
8160.859626484437
 31
0.0
  0
LINE
  5
1358C
330
1231F
100
AcDbEntity
  8
寸法
 62
     0
 48
50.0
370
    -2
100
AcDbLine
 10
6823.6
 20
8160.859626484437
 30
0.0
 11
6923.6
 21
8160.859626484437
 31
0.0
  0
LINE
  5
1358D
330
1231F
100
AcDbEntity
  8
寸法
 62
     0
 48
50.0
370
    -2
100
AcDbLine
 10
6573.599999999998
 20
8160.859626484437
 30
0.0
 11
6823.6
 21
8160.859626484437
 31
0.0
  0
INSERT
  5
1358E
330
1231F
100
AcDbEntity
  8
寸法
 62
     0
 48
50.0
370
    -2
100
AcDbBlockReference
  2
_DOTSMALL
 10
6573.599999999998
 20
8160.859626484437
 30
0.0
 41
100.0
 42
100.0
 43
100.0
  0
INSERT
  5
1358F
330
1231F
100
AcDbEntity
  8
寸法
 62
     0
 48
50.0
370
    -2
100
AcDbBlockReference
  2
_DOTSMALL
 10
6823.6
 20
8160.859626484437
 30
0.0
 41
100.0
 42
100.0
 43
100.0
 50
180.0
  0
MTEXT
  5
13590
330
1231F
100
AcDbEntity
  8
寸法
 62
     7
 48
50.0
100
AcDbMText
 10
6698.6
 20
8260.871437508059
 30
0.0
 40
120.0
 41
0.0
 71
     5
 72
     1
  1
\A1;250
  7
STYLE1
 73
     1
 44
1.0
1001
ACAD
1000
MTEXTBEGIN
1070
    73
1070
     1
1070
    44
1040
1.0
1070
    74
1070
     0
1000
MTEXTEND
  0
POINT
  5
13591
330
1231F
100
AcDbEntity
  8
DEFPOINTS
 62
     0
 48
50.0
100
AcDbPoint
 10
6573.599999999998
 20
7829.785662218299
 30
0.0
  0
POINT
  5
13592
330
1231F
100
AcDbEntity
  8
DEFPOINTS
 62
     0
 48
50.0
100
AcDbPoint
 10
6823.6
 20
7979.785662218296
 30
0.0
  0
POINT
  5
13593
330
1231F
100
AcDbEntity
  8
DEFPOINTS
 62
     0
 48
50.0
100
AcDbPoint
 10
6823.6
 20
8160.859626484437
 30
0.0
  0
ENDBLK
  5
13083
330
1231F
100
AcDbEntity
  8
0
 48
50.0
100
AcDbBlockEnd
  0
BLOCK
  5
127FB
330
12335
100
AcDbEntity
  8
0
 48
50.0
100
AcDbBlockBegin
  2
*D14
 70
     1
 10
0.0
 20
0.0
 30
0.0
  3
*D14
  1

  0
LINE
  5
135B9
330
12335
100
AcDbEntity
  8
寸法
 62
     0
 48
50.0
370
    -2
100
AcDbLine
 10
9623.600000000003
 20
7799.785662218297
 30
0.0
 11
9623.600000000003
 21
8220.859626484438
 31
0.0
  0
LINE
  5
135BA
330
12335
100
AcDbEntity
  8
寸法
 62
     0
 48
50.0
370
    -2
100
AcDbLine
 10
9873.600000000001
 20
7849.785662218299
 30
0.0
 11
9873.600000000001
 21
8220.859626484438
 31
0.0
  0
LINE
  5
135BB
330
12335
100
AcDbEntity
  8
寸法
 62
     0
 48
50.0
370
    -2
100
AcDbLine
 10
9623.600000000003
 20
8160.859626484437
 30
0.0
 11
9523.600000000001
 21
8160.859626484437
 31
0.0
  0
LINE
  5
135BC
330
12335
100
AcDbEntity
  8
寸法
 62
     0
 48
50.0
370
    -2
100
AcDbLine
 10
9873.600000000001
 20
8160.859626484437
 30
0.0
 11
9973.600000000001
 21
8160.859626484437
 31
0.0
  0
LINE
  5
135BD
330
12335
100
AcDbEntity
  8
寸法
 62
     0
 48
50.0
370
    -2
100
AcDbLine
 10
9623.600000000003
 20
8160.859626484437
 30
0.0
 11
9873.600000000001
 21
8160.859626484437
 31
0.0
  0
INSERT
  5
135BE
330
12335
100
AcDbEntity
  8
寸法
 62
     0
 48
50.0
370
    -2
100
AcDbBlockReference
  2
_DOTSMALL
 10
9623.600000000003
 20
8160.859626484437
 30
0.0
 41
100.0
 42
100.0
 43
100.0
  0
INSERT
  5
135BF
330
12335
100
AcDbEntity
  8
寸法
 62
     0
 48
50.0
370
    -2
100
AcDbBlockReference
  2
_DOTSMALL
 10
9873.600000000001
 20
8160.859626484437
 30
0.0
 41
100.0
 42
100.0
 43
100.0
 50
180.0
  0
MTEXT
  5
135C0
330
12335
100
AcDbEntity
  8
寸法
 62
     7
 48
50.0
100
AcDbMText
 10
9748.600000000003
 20
8260.871437508059
 30
0.0
 40
120.0
 41
0.0
 71
     5
 72
     1
  1
\A1;250
  7
STYLE1
 73
     1
 44
1.0
1001
ACAD
1000
MTEXTBEGIN
1070
    73
1070
     1
1070
    44
1040
1.0
1070
    74
1070
     0
1000
MTEXTEND
  0
POINT
  5
135C1
330
12335
100
AcDbEntity
  8
DEFPOINTS
 62
     0
 48
50.0
100
AcDbPoint
 10
9623.600000000003
 20
7779.785662218298
 30
0.0
  0
POINT
  5
135C2
330
12335
100
AcDbEntity
  8
DEFPOINTS
 62
     0
 48
50.0
100
AcDbPoint
 10
9873.600000000001
 20
7829.785662218299
 30
0.0
  0
POINT
  5
135C3
330
12335
100
AcDbEntity
  8
DEFPOINTS
 62
     0
 48
50.0
100
AcDbPoint
 10
9873.600000000001
 20
8160.859626484437
 30
0.0
  0
ENDBLK
  5
12807
330
12335
100
AcDbEntity
  8
0
 48
50.0
100
AcDbBlockEnd
  0
BLOCK
  5
130E3
330
1245D
100
AcDbEntity
  8
0
 48
50.0
100
AcDbBlockBegin
  2
*D15
 70
     1
 10
0.0
 20
0.0
 30
0.0
  3
*D15
  1

  0
LINE
  5
1353F
330
1245D
100
AcDbEntity
  8
寸法
 62
     0
 48
50.0
370
    -2
100
AcDbLine
 10
6573.599999999998
 20
7849.785662218299
 30
0.0
 11
6573.599999999998
 21
8513.968028740444
 31
0.0
  0
LINE
  5
13540
330
1245D
100
AcDbEntity
  8
寸法
 62
     0
 48
50.0
370
    -2
100
AcDbLine
 10
9873.600000000001
 20
7849.785662218299
 30
0.0
 11
9873.600000000001
 21
8513.968028740444
 31
0.0
  0
LINE
  5
13541
330
1245D
100
AcDbEntity
  8
寸法
 62
     0
 48
50.0
370
    -2
100
AcDbLine
 10
6573.599999999998
 20
8453.968028740446
 30
0.0
 11
9873.600000000001
 21
8453.968028740446
 31
0.0
  0
INSERT
  5
13542
330
1245D
100
AcDbEntity
  8
寸法
 62
     0
 48
50.0
370
    -2
100
AcDbBlockReference
  2
_DOTSMALL
 10
6573.599999999998
 20
8453.968028740446
 30
0.0
 41
100.0
 42
100.0
 43
100.0
 50
180.0
  0
INSERT
  5
13543
330
1245D
100
AcDbEntity
  8
寸法
 62
     0
 48
50.0
370
    -2
100
AcDbBlockReference
  2
_DOTSMALL
 10
9873.600000000001
 20
8453.968028740446
 30
0.0
 41
100.0
 42
100.0
 43
100.0
  0
MTEXT
  5
13544
330
1245D
100
AcDbEntity
  8
寸法
 62
     7
 48
50.0
100
AcDbMText
 10
8223.600000000001
 20
8553.968028740445
 30
0.0
 40
120.0
 41
0.0
 71
     5
 72
     1
  1
\A1;屋根寸法 3300
  7
STYLE1
 73
     1
 44
1.0
1001
ACAD
1000
MTEXTBEGIN
1070
    73
1070
     1
1070
    44
1040
1.0
1070
    74
1070
     0
1000
MTEXTEND
  0
POINT
  5
13545
330
1245D
100
AcDbEntity
  8
DEFPOINTS
 62
     0
 48
50.0
100
AcDbPoint
 10
6573.599999999998
 20
7829.785662218299
 30
0.0
  0
POINT
  5
13546
330
1245D
100
AcDbEntity
  8
DEFPOINTS
 62
     0
 48
50.0
100
AcDbPoint
 10
9873.600000000001
 20
7829.785662218299
 30
0.0
  0
POINT
  5
13547
330
1245D
100
AcDbEntity
  8
DEFPOINTS
 62
     0
 48
50.0
100
AcDbPoint
 10
9873.600000000001
 20
8453.968028740446
 30
0.0
  0
ENDBLK
  5
130ED
330
1245D
100
AcDbEntity
  8
0
 48
50.0
100
AcDbBlockEnd
  0
BLOCK
  5
12665
330
12664
100
AcDbEntity
  8
0
 48
50.0
100
AcDbBlockBegin
  2
*D16
 70
     1
 10
0.0
 20
0.0
 30
0.0
  3
*D16
  1

  0
LINE
  5
135B0
330
12664
100
AcDbEntity
  8
寸法
 62
     0
 48
50.0
370
    -2
100
AcDbLine
 10
9893.600000000002
 20
7529.785662218298
 30
0.0
 11
10402.77950873462
 21
7529.785662218298
 31
0.0
  0
LINE
  5
135B1
330
12664
100
AcDbEntity
  8
寸法
 62
     0
 48
50.0
370
    -2
100
AcDbLine
 10
9893.600000000001
 20
7829.785662218299
 30
0.0
 11
10402.77950873462
 21
7829.785662218298
 31
0.0
  0
LINE
  5
135B2
330
12664
100
AcDbEntity
  8
寸法
 62
     0
 48
50.0
370
    -2
100
AcDbLine
 10
10342.77950873462
 20
7529.785662218298
 30
0.0
 11
10342.77950873462
 21
7829.785662218298
 31
0.0
  0
INSERT
  5
135B3
330
12664
100
AcDbEntity
  8
寸法
 62
     0
 48
50.0
370
    -2
100
AcDbBlockReference
  2
_DOTSMALL
 10
10342.77950873462
 20
7529.785662218298
 30
0.0
 41
100.0
 42
100.0
 43
100.0
 50
270.0
  0
INSERT
  5
135B4
330
12664
100
AcDbEntity
  8
寸法
 62
     0
 48
50.0
370
    -2
100
AcDbBlockReference
  2
_DOTSMALL
 10
10342.77950873462
 20
7829.785662218298
 30
0.0
 41
100.0
 42
100.0
 43
100.0
 50
90.0
  0
MTEXT
  5
135B5
330
12664
100
AcDbEntity
  8
寸法
 62
     7
 48
50.0
100
AcDbMText
 10
10242.77950873462
 20
7679.7856622183
 30
0.0
 40
120.0
 41
0.0
 71
     5
 72
     1
  1
\A1;300
  7
STYLE1
 11
0.0000000000000001
 21
1.0
 31
0.0
 73
     1
 44
1.0
1001
ACAD
1000
MTEXTBEGIN
1070
    73
1070
     1
1070
    44
1040
1.0
1070
    74
1070
     0
1000
MTEXTEND
  0
POINT
  5
135B6
330
12664
100
AcDbEntity
  8
DEFPOINTS
 62
     0
 48
50.0
100
AcDbPoint
 10
9873.600000000003
 20
7529.785662218298
 30
0.0
  0
POINT
  5
135B7
330
12664
100
AcDbEntity
  8
DEFPOINTS
 62
     0
 48
50.0
100
AcDbPoint
 10
9873.600000000001
 20
7829.785662218299
 30
0.0
  0
POINT
  5
135B8
330
12664
100
AcDbEntity
  8
DEFPOINTS
 62
     0
 48
50.0
100
AcDbPoint
 10
10342.77950873462
 20
7829.785662218298
 30
0.0
  0
ENDBLK
  5
1266F
330
12664
100
AcDbEntity
  8
0
 48
50.0
100
AcDbBlockEnd
  0
BLOCK
  5
127BF
330
1267D
100
AcDbEntity
  8
0
 48
50.0
100
AcDbBlockBegin
  2
*D17
 70
     1
 10
0.0
 20
0.0
 30
0.0
  3
*D17
  1

  0
LINE
  5
135A7
330
1267D
100
AcDbEntity
  8
寸法
 62
     0
 48
50.0
370
    -2
100
AcDbLine
 10
9893.600000000001
 20
5879.785662218297
 30
0.0
 11
10402.77950873462
 21
5879.785662218296
 31
0.0
  0
LINE
  5
135A8
330
1267D
100
AcDbEntity
  8
寸法
 62
     0
 48
50.0
370
    -2
100
AcDbLine
 10
9893.600000000001
 20
5129.785662218296
 30
0.0
 11
10402.77950873462
 21
5129.785662218295
 31
0.0
  0
LINE
  5
135A9
330
1267D
100
AcDbEntity
  8
寸法
 62
     0
 48
50.0
370
    -2
100
AcDbLine
 10
10342.77950873462
 20
5879.785662218296
 30
0.0
 11
10342.77950873462
 21
5129.785662218295
 31
0.0
  0
INSERT
  5
135AA
330
1267D
100
AcDbEntity
  8
寸法
 62
     0
 48
50.0
370
    -2
100
AcDbBlockReference
  2
_DOTSMALL
 10
10342.77950873462
 20
5879.785662218296
 30
0.0
 41
100.0
 42
100.0
 43
100.0
 50
90.0
  0
INSERT
  5
135AB
330
1267D
100
AcDbEntity
  8
寸法
 62
     0
 48
50.0
370
    -2
100
AcDbBlockReference
  2
_DOTSMALL
 10
10342.77950873462
 20
5129.785662218295
 30
0.0
 41
100.0
 42
100.0
 43
100.0
 50
270.0
  0
MTEXT
  5
135AC
330
1267D
100
AcDbEntity
  8
寸法
 62
     7
 48
50.0
100
AcDbMText
 10
10242.77950873462
 20
5504.785662218297
 30
0.0
 40
120.0
 41
0.0
 71
     5
 72
     1
  1
\A1;750
  7
STYLE1
 11
0.0000000000000001
 21
1.0
 31
0.0
 73
     1
 44
1.0
1001
ACAD
1000
MTEXTBEGIN
1070
    73
1070
     1
1070
    44
1040
1.0
1070
    74
1070
     0
1000
MTEXTEND
  0
POINT
  5
135AD
330
1267D
100
AcDbEntity
  8
DEFPOINTS
 62
     0
 48
50.0
100
AcDbPoint
 10
9873.600000000001
 20
5879.785662218297
 30
0.0
  0
POINT
  5
135AE
330
1267D
100
AcDbEntity
  8
DEFPOINTS
 62
     0
 48
50.0
100
AcDbPoint
 10
9873.600000000001
 20
5129.785662218296
 30
0.0
  0
POINT
  5
135AF
330
1267D
100
AcDbEntity
  8
DEFPOINTS
 62
     0
 48
50.0
100
AcDbPoint
 10
10342.77950873462
 20
5129.785662218295
 30
0.0
  0
ENDBLK
  5
127C9
330
1267D
100
AcDbEntity
  8
0
 48
50.0
100
AcDbBlockEnd
  0
BLOCK
  5
13121
330
13117
100
AcDbEntity
  8
0
 48
50.0
100
AcDbBlockBegin
  2
*D18
 70
     1
 10
0.0
 20
0.0
 30
0.0
  3
*D18
  1

  0
LINE
  5
13118
330
13117
100
AcDbEntity
  8
0
  6
ByBlock
 62
     0
 48
50.0
100
AcDbLine
 10
18665.32444482295
 20
5311.630025450411
 30
0.0
 11
18398.80529342727
 21
5311.630025450411
 31
0.0
  0
LINE
  5
13119
330
13117
100
AcDbEntity
  8
0
  6
ByBlock
 62
     0
 48
50.0
100
AcDbLine
 10
19317.19944482296
 20
4855.755025450411
 30
0.0
 11
18398.80529342727
 21
4855.755025450411
 31
0.0
  0
LINE
  5
1311A
330
13117
100
AcDbEntity
  8
0
  6
ByBlock
 62
     0
 48
50.0
100
AcDbLine
 10
18458.80529342727
 20
5311.630025450411
 30
0.0
 11
18458.80529342727
 21
4855.755025450411
 31
0.0
  0
INSERT
  5
1311B
330
13117
100
AcDbEntity
  8
0
  6
ByBlock
 62
     0
 48
50.0
100
AcDbBlockReference
  2
_DOTSMALL
 10
18458.80529342727
 20
5311.630025450411
 30
0.0
 41
100.0
 42
100.0
 43
100.0
 50
90.0
  0
INSERT
  5
1311C
330
13117
100
AcDbEntity
  8
0
  6
ByBlock
 62
     0
 48
50.0
100
AcDbBlockReference
  2
_DOTSMALL
 10
18458.80529342727
 20
4855.755025450411
 30
0.0
 41
100.0
 42
100.0
 43
100.0
 50
270.0
  0
MTEXT
  5
1311D
330
13117
100
AcDbEntity
  8
0
  6
ByBlock
 62
     7
 48
50.0
100
AcDbMText
 10
18358.79348240365
 20
5083.692525450412
 30
0.0
 40
120.0
 41
0.0
 71
     5
 72
     1
  1
\A1;220
  7
STYLE1
 11
0.0000000000000001
 21
1.0
 31
0.0
 73
     1
 44
1.0
1001
ACAD
1000
MTEXTBEGIN
1070
    73
1070
     1
1070
    44
1040
1.0
1070
    74
1070
     0
1000
MTEXTEND
  0
POINT
  5
1311E
330
13117
100
AcDbEntity
  8
DEFPOINTS
  6
ByBlock
 62
     0
 48
50.0
100
AcDbPoint
 10
18685.32444482295
 20
5311.630025450411
 30
0.0
  0
POINT
  5
1311F
330
13117
100
AcDbEntity
  8
DEFPOINTS
  6
ByBlock
 62
     0
 48
50.0
100
AcDbPoint
 10
19337.19944482296
 20
4855.755025450411
 30
0.0
  0
POINT
  5
13120
330
13117
100
AcDbEntity
  8
DEFPOINTS
  6
ByBlock
 62
     0
 48
50.0
100
AcDbPoint
 10
18458.80529342727
 20
4855.755025450411
 30
0.0
  0
ENDBLK
  5
13122
330
13117
100
AcDbEntity
  8
0
 48
50.0
100
AcDbBlockEnd
  0
BLOCK
  5
1312D
330
13123
100
AcDbEntity
  8
0
 48
50.0
100
AcDbBlockBegin
  2
*D19
 70
     1
 10
0.0
 20
0.0
 30
0.0
  3
*D19
  1

  0
LINE
  5
13124
330
13123
100
AcDbEntity
  8
0
  6
ByBlock
 62
     0
 48
50.0
100
AcDbLine
 10
18967.19944482295
 20
5399.130025450411
 30
0.0
 11
18176.88952792292
 21
5399.130025450411
 31
0.0
  0
LINE
  5
13125
330
13123
100
AcDbEntity
  8
0
  6
ByBlock
 62
     0
 48
50.0
100
AcDbLine
 10
18539.28066432181
 20
4493.505025450411
 30
0.0
 11
18176.88952792292
 21
4493.505025450411
 31
0.0
  0
LINE
  5
13126
330
13123
100
AcDbEntity
  8
0
  6
ByBlock
 62
     0
 48
50.0
100
AcDbLine
 10
18236.88952792292
 20
5399.130025450411
 30
0.0
 11
18236.88952792292
 21
4493.505025450411
 31
0.0
  0
INSERT
  5
13127
330
13123
100
AcDbEntity
  8
0
  6
ByBlock
 62
     0
 48
50.0
100
AcDbBlockReference
  2
_DOTSMALL
 10
18236.88952792292
 20
5399.130025450411
 30
0.0
 41
100.0
 42
100.0
 43
100.0
 50
90.0
  0
INSERT
  5
13128
330
13123
100
AcDbEntity
  8
0
  6
ByBlock
 62
     0
 48
50.0
100
AcDbBlockReference
  2
_DOTSMALL
 10
18236.88952792292
 20
4493.505025450411
 30
0.0
 41
100.0
 42
100.0
 43
100.0
 50
270.0
  0
MTEXT
  5
13129
330
13123
100
AcDbEntity
  8
0
  6
ByBlock
 62
     7
 48
50.0
100
AcDbMText
 10
18136.88952792292
 20
4946.317525450411
 30
0.0
 40
120.0
 41
0.0
 71
     5
 72
     1
  1
\A1;450
  7
STYLE1
 11
0.0000000000000001
 21
1.0
 31
0.0
 73
     1
 44
1.0
1001
ACAD
1000
MTEXTBEGIN
1070
    73
1070
     1
1070
    44
1040
1.0
1070
    74
1070
     0
1000
MTEXTEND
  0
POINT
  5
1312A
330
13123
100
AcDbEntity
  8
DEFPOINTS
  6
ByBlock
 62
     0
 48
50.0
100
AcDbPoint
 10
18987.19944482295
 20
5399.130025450411
 30
0.0
  0
POINT
  5
1312B
330
13123
100
AcDbEntity
  8
DEFPOINTS
  6
ByBlock
 62
     0
 48
50.0
100
AcDbPoint
 10
18559.28066432181
 20
4493.505025450411
 30
0.0
  0
POINT
  5
1312C
330
13123
100
AcDbEntity
  8
DEFPOINTS
  6
ByBlock
 62
     0
 48
50.0
100
AcDbPoint
 10
18236.88952792292
 20
4493.505025450411
 30
0.0
  0
ENDBLK
  5
1312E
330
13123
100
AcDbEntity
  8
0
 48
50.0
100
AcDbBlockEnd
  0
BLOCK
  5
13139
330
1312F
100
AcDbEntity
  8
0
 48
50.0
100
AcDbBlockBegin
  2
*D20
 70
     1
 10
0.0
 20
0.0
 30
0.0
  3
*D20
  1

  0
LINE
  5
13130
330
1312F
100
AcDbEntity
  8
0
  6
ByBlock
 62
     0
 48
50.0
100
AcDbLine
 10
19317.19944482296
 20
4855.755025450411
 30
0.0
 11
18398.80529342727
 21
4855.755025450411
 31
0.0
  0
LINE
  5
13131
330
1312F
100
AcDbEntity
  8
0
  6
ByBlock
 62
     0
 48
50.0
100
AcDbLine
 10
18539.28066432181
 20
4493.505025450411
 30
0.0
 11
18398.80529342727
 21
4493.505025450411
 31
0.0
  0
LINE
  5
13132
330
1312F
100
AcDbEntity
  8
0
  6
ByBlock
 62
     0
 48
50.0
100
AcDbLine
 10
18458.80529342727
 20
4855.755025450411
 30
0.0
 11
18458.80529342727
 21
4493.505025450411
 31
0.0
  0
INSERT
  5
13133
330
1312F
100
AcDbEntity
  8
0
  6
ByBlock
 62
     0
 48
50.0
100
AcDbBlockReference
  2
_DOTSMALL
 10
18458.80529342727
 20
4855.755025450411
 30
0.0
 41
100.0
 42
100.0
 43
100.0
 50
90.0
  0
INSERT
  5
13134
330
1312F
100
AcDbEntity
  8
0
  6
ByBlock
 62
     0
 48
50.0
100
AcDbBlockReference
  2
_DOTSMALL
 10
18458.80529342727
 20
4493.505025450411
 30
0.0
 41
100.0
 42
100.0
 43
100.0
 50
270.0
  0
MTEXT
  5
13135
330
1312F
100
AcDbEntity
  8
0
  6
ByBlock
 62
     7
 48
50.0
100
AcDbMText
 10
18358.80529342727
 20
4674.630025450411
 30
0.0
 40
120.0
 41
0.0
 71
     5
 72
     1
  1
\A1;180
  7
STYLE1
 11
0.0000000000000001
 21
1.0
 31
0.0
 73
     1
 44
1.0
1001
ACAD
1000
MTEXTBEGIN
1070
    73
1070
     1
1070
    44
1040
1.0
1070
    74
1070
     0
1000
MTEXTEND
  0
POINT
  5
13136
330
1312F
100
AcDbEntity
  8
DEFPOINTS
  6
ByBlock
 62
     0
 48
50.0
100
AcDbPoint
 10
19337.19944482296
 20
4855.755025450411
 30
0.0
  0
POINT
  5
13137
330
1312F
100
AcDbEntity
  8
DEFPOINTS
  6
ByBlock
 62
     0
 48
50.0
100
AcDbPoint
 10
18559.28066432181
 20
4493.505025450411
 30
0.0
  0
POINT
  5
13138
330
1312F
100
AcDbEntity
  8
DEFPOINTS
  6
ByBlock
 62
     0
 48
50.0
100
AcDbPoint
 10
18458.80529342727
 20
4493.505025450411
 30
0.0
  0
ENDBLK
  5
1313A
330
1312F
100
AcDbEntity
  8
0
 48
50.0
100
AcDbBlockEnd
  0
BLOCK
  5
13145
330
1313B
100
AcDbEntity
  8
0
 48
50.0
100
AcDbBlockBegin
  2
*D21
 70
     1
 10
0.0
 20
0.0
 30
0.0
  3
*D21
  1

  0
LINE
  5
1313C
330
1313B
100
AcDbEntity
  8
0
  6
ByBlock
 62
     0
 48
50.0
100
AcDbLine
 10
18685.32444482295
 20
4176.005025450409
 30
0.0
 11
18685.32444482295
 21
3807.883913073845
 31
0.0
  0
LINE
  5
1313D
330
1313B
100
AcDbEntity
  8
0
  6
ByBlock
 62
     0
 48
50.0
100
AcDbLine
 10
20094.07444482295
 20
4176.005025450411
 30
0.0
 11
20094.07444482295
 21
3807.883913073845
 31
0.0
  0
LINE
  5
1313E
330
1313B
100
AcDbEntity
  8
0
  6
ByBlock
 62
     0
 48
50.0
100
AcDbLine
 10
18685.32444482295
 20
3867.883913073845
 30
0.0
 11
20094.07444482295
 21
3867.883913073845
 31
0.0
  0
INSERT
  5
1313F
330
1313B
100
AcDbEntity
  8
0
  6
ByBlock
 62
     0
 48
50.0
100
AcDbBlockReference
  2
_DOTSMALL
 10
18685.32444482295
 20
3867.883913073845
 30
0.0
 41
100.0
 42
100.0
 43
100.0
 50
180.0
  0
INSERT
  5
13140
330
1313B
100
AcDbEntity
  8
0
  6
ByBlock
 62
     0
 48
50.0
100
AcDbBlockReference
  2
_DOTSMALL
 10
20094.07444482295
 20
3867.883913073845
 30
0.0
 41
100.0
 42
100.0
 43
100.0
  0
MTEXT
  5
13141
330
1313B
100
AcDbEntity
  8
0
  6
ByBlock
 62
     7
 48
50.0
100
AcDbMText
 10
19389.69944482295
 20
3967.883913073846
 30
0.0
 40
120.0
 41
0.0
 71
     5
 72
     1
  1
\A1;700
  7
STYLE1
 73
     1
 44
1.0
1001
ACAD
1000
MTEXTBEGIN
1070
    73
1070
     1
1070
    44
1040
1.0
1070
    74
1070
     0
1000
MTEXTEND
  0
POINT
  5
13142
330
1313B
100
AcDbEntity
  8
DEFPOINTS
  6
ByBlock
 62
     0
 48
50.0
100
AcDbPoint
 10
18685.32444482295
 20
4196.00502545041
 30
0.0
  0
POINT
  5
13143
330
1313B
100
AcDbEntity
  8
DEFPOINTS
  6
ByBlock
 62
     0
 48
50.0
100
AcDbPoint
 10
20094.07444482295
 20
4196.005025450411
 30
0.0
  0
POINT
  5
13144
330
1313B
100
AcDbEntity
  8
DEFPOINTS
  6
ByBlock
 62
     0
 48
50.0
100
AcDbPoint
 10
20094.07444482295
 20
3867.883913073845
 30
0.0
  0
ENDBLK
  5
13146
330
1313B
100
AcDbEntity
  8
0
 48
50.0
100
AcDbBlockEnd
  0
BLOCK
  5
13153
330
13147
100
AcDbEntity
  8
0
 48
50.0
100
AcDbBlockBegin
  2
*D22
 70
     1
 10
0.0
 20
0.0
 30
0.0
  3
*D22
  1

  0
LINE
  5
13148
330
13147
100
AcDbEntity
  8
0
  6
ByBlock
 62
     0
 48
50.0
100
AcDbLine
 10
18539.2806643218
 20
4493.505025450411
 30
0.0
 11
18176.88952792292
 21
4493.505025450411
 31
0.0
  0
LINE
  5
13149
330
13147
100
AcDbEntity
  8
0
  6
ByBlock
 62
     0
 48
50.0
100
AcDbLine
 10
18539.28066432181
 20
4406.005025450411
 30
0.0
 11
18176.88952792292
 21
4406.005025450411
 31
0.0
  0
LINE
  5
1314A
330
13147
100
AcDbEntity
  8
0
  6
ByBlock
 62
     0
 48
50.0
100
AcDbLine
 10
18236.88952792292
 20
4493.505025450411
 30
0.0
 11
18236.88952792292
 21
4593.505025450411
 31
0.0
  0
LINE
  5
1314B
330
13147
100
AcDbEntity
  8
0
  6
ByBlock
 62
     0
 48
50.0
100
AcDbLine
 10
18236.88952792292
 20
4406.005025450411
 30
0.0
 11
18236.88952792292
 21
4306.005025450411
 31
0.0
  0
LINE
  5
1314C
330
13147
100
AcDbEntity
  8
0
  6
ByBlock
 62
     0
 48
50.0
100
AcDbLine
 10
18236.88952792292
 20
4493.505025450411
 30
0.0
 11
18236.88952792292
 21
4406.005025450411
 31
0.0
  0
INSERT
  5
1314D
330
13147
100
AcDbEntity
  8
0
  6
ByBlock
 62
     0
 48
50.0
100
AcDbBlockReference
  2
_DOTSMALL
 10
18236.88952792292
 20
4493.505025450411
 30
0.0
 41
100.0
 42
100.0
 43
100.0
 50
270.0
  0
INSERT
  5
1314E
330
13147
100
AcDbEntity
  8
0
  6
ByBlock
 62
     0
 48
50.0
100
AcDbBlockReference
  2
_DOTSMALL
 10
18236.88952792292
 20
4406.005025450411
 30
0.0
 41
100.0
 42
100.0
 43
100.0
 50
90.0
  0
MTEXT
  5
1314F
330
13147
100
AcDbEntity
  8
0
  6
ByBlock
 62
     7
 48
50.0
100
AcDbMText
 10
18136.88952792292
 20
4449.755025450411
 30
0.0
 40
120.0
 41
0.0
 71
     5
 72
     1
  1
\A1;50
  7
STYLE1
 11
0.0000000000000001
 21
1.0
 31
0.0
 73
     1
 44
1.0
1001
ACAD
1000
MTEXTBEGIN
1070
    73
1070
     1
1070
    44
1040
1.0
1070
    74
1070
     0
1000
MTEXTEND
  0
POINT
  5
13150
330
13147
100
AcDbEntity
  8
DEFPOINTS
  6
ByBlock
 62
     0
 48
50.0
100
AcDbPoint
 10
18559.2806643218
 20
4493.505025450411
 30
0.0
  0
POINT
  5
13151
330
13147
100
AcDbEntity
  8
DEFPOINTS
  6
ByBlock
 62
     0
 48
50.0
100
AcDbPoint
 10
18559.28066432181
 20
4406.005025450411
 30
0.0
  0
POINT
  5
13152
330
13147
100
AcDbEntity
  8
DEFPOINTS
  6
ByBlock
 62
     0
 48
50.0
100
AcDbPoint
 10
18236.88952792292
 20
4406.005025450411
 30
0.0
  0
ENDBLK
  5
13154
330
13147
100
AcDbEntity
  8
0
 48
50.0
100
AcDbBlockEnd
  0
BLOCK
  5
13160
330
13155
100
AcDbEntity
  8
0
 48
50.0
100
AcDbBlockBegin
  2
*D23
 70
     1
 10
0.0
 20
0.0
 30
0.0
  3
*D23
  1

  0
LINE
  5
13156
330
13155
100
AcDbEntity
  8
0
  6
ByBlock
 62
     0
 48
50.0
100
AcDbLine
 10
18967.19944482295
 20
5399.130025450411
 30
0.0
 11
18176.88952792292
 21
5399.130025450411
 31
0.0
  0
LINE
  5
13157
330
13155
100
AcDbEntity
  8
0
  6
ByBlock
 62
     0
 48
50.0
100
AcDbLine
 10
19009.19944482295
 20
5486.630025450411
 30
0.0
 11
18176.88952792292
 21
5486.630025450411
 31
0.0
  0
LINE
  5
13158
330
13155
100
AcDbEntity
  8
0
  6
ByBlock
 62
     0
 48
50.0
100
AcDbLine
 10
18236.88952792292
 20
5399.130025450411
 30
0.0
 11
18236.88952792292
 21
5486.630025450411
 31
0.0
  0
LINE
  5
13159
330
13155
100
AcDbEntity
  8
0
  6
ByBlock
 62
     0
 48
50.0
100
AcDbLine
 10
18236.88952792292
 20
5486.630025450411
 30
0.0
 11
18236.88952792292
 21
5894.535537261436
 31
0.0
  0
INSERT
  5
1315A
330
13155
100
AcDbEntity
  8
0
  6
ByBlock
 62
     0
 48
50.0
100
AcDbBlockReference
  2
_DOTSMALL
 10
18236.88952792292
 20
5399.130025450411
 30
0.0
 41
100.0
 42
100.0
 43
100.0
 50
270.0
  0
INSERT
  5
1315B
330
13155
100
AcDbEntity
  8
0
  6
ByBlock
 62
     0
 48
50.0
100
AcDbBlockReference
  2
_DOTSMALL
 10
18236.88952792292
 20
5486.630025450411
 30
0.0
 41
100.0
 42
100.0
 43
100.0
 50
90.0
  0
MTEXT
  5
1315C
330
13155
100
AcDbEntity
  8
0
  6
ByBlock
 62
     7
 48
50.0
100
AcDbMText
 10
18130.88952792292
 20
5740.582781355923
 30
0.0
 40
120.0
 41
0.0
 71
     5
 72
     1
  1
\A1;(50)
  7
STYLE1
 11
0.0000000000000001
 21
1.0
 31
0.0
 73
     1
 44
1.0
1001
ACAD
1000
MTEXTBEGIN
1070
    73
1070
     1
1070
    44
1040
1.0
1070
    74
1070
     0
1000
MTEXTEND
  0
POINT
  5
1315D
330
13155
100
AcDbEntity
  8
DEFPOINTS
  6
ByBlock
 62
     0
 48
50.0
100
AcDbPoint
 10
18987.19944482295
 20
5399.130025450411
 30
0.0
  0
POINT
  5
1315E
330
13155
100
AcDbEntity
  8
DEFPOINTS
  6
ByBlock
 62
     0
 48
50.0
100
AcDbPoint
 10
19029.19944482295
 20
5486.630025450411
 30
0.0
  0
POINT
  5
1315F
330
13155
100
AcDbEntity
  8
DEFPOINTS
  6
ByBlock
 62
     0
 48
50.0
100
AcDbPoint
 10
18236.88952792292
 20
5486.630025450411
 30
0.0
  0
ENDBLK
  5
13161
330
13155
100
AcDbEntity
  8
0
 48
50.0
100
AcDbBlockEnd
  0
BLOCK
  5
1316C
330
13162
100
AcDbEntity
  8
0
 48
50.0
100
AcDbBlockBegin
  2
*D24
 70
     1
 10
0.0
 20
0.0
 30
0.0
  3
*D24
  1

  0
LINE
  5
13163
330
13162
100
AcDbEntity
  8
0
  6
ByBlock
 62
     0
 48
50.0
100
AcDbLine
 10
18967.19944482295
 20
5399.130025450411
 30
0.0
 11
18398.80529342727
 21
5399.130025450411
 31
0.0
  0
LINE
  5
13164
330
13162
100
AcDbEntity
  8
0
  6
ByBlock
 62
     0
 48
50.0
100
AcDbLine
 10
18665.32444482295
 20
5311.630025450411
 30
0.0
 11
18398.80529342727
 21
5311.630025450411
 31
0.0
  0
LINE
  5
13165
330
13162
100
AcDbEntity
  8
0
  6
ByBlock
 62
     0
 48
50.0
100
AcDbLine
 10
18458.80529342727
 20
5399.130025450411
 30
0.0
 11
18458.80529342727
 21
5311.630025450411
 31
0.0
  0
INSERT
  5
13166
330
13162
100
AcDbEntity
  8
0
  6
ByBlock
 62
     0
 48
50.0
100
AcDbBlockReference
  2
_DOTSMALL
 10
18458.80529342727
 20
5399.130025450411
 30
0.0
 41
100.0
 42
100.0
 43
100.0
 50
90.0
  0
INSERT
  5
13167
330
13162
100
AcDbEntity
  8
0
  6
ByBlock
 62
     0
 48
50.0
100
AcDbBlockReference
  2
_DOTSMALL
 10
18458.80529342727
 20
5311.630025450411
 30
0.0
 41
100.0
 42
100.0
 43
100.0
 50
270.0
  0
MTEXT
  5
13168
330
13162
100
AcDbEntity
  8
0
  6
ByBlock
 62
     7
 48
50.0
100
AcDbMText
 10
18358.80529342727
 20
5355.380025450411
 30
0.0
 40
120.0
 41
0.0
 71
     5
 72
     1
  1
\A1;50
  7
STYLE1
 11
0.0000000000000001
 21
1.0
 31
0.0
 73
     1
 44
1.0
1001
ACAD
1000
MTEXTBEGIN
1070
    73
1070
     1
1070
    44
1040
1.0
1070
    74
1070
     0
1000
MTEXTEND
  0
POINT
  5
13169
330
13162
100
AcDbEntity
  8
DEFPOINTS
  6
ByBlock
 62
     0
 48
50.0
100
AcDbPoint
 10
18987.19944482295
 20
5399.130025450411
 30
0.0
  0
POINT
  5
1316A
330
13162
100
AcDbEntity
  8
DEFPOINTS
  6
ByBlock
 62
     0
 48
50.0
100
AcDbPoint
 10
18685.32444482295
 20
5311.630025450411
 30
0.0
  0
POINT
  5
1316B
330
13162
100
AcDbEntity
  8
DEFPOINTS
  6
ByBlock
 62
     0
 48
50.0
100
AcDbPoint
 10
18458.80529342727
 20
5311.630025450411
 30
0.0
  0
ENDBLK
  5
1316D
330
13162
100
AcDbEntity
  8
0
 48
50.0
100
AcDbBlockEnd
  0
BLOCK
  5
13201
330
1316E
100
AcDbEntity
  8
0
 48
50.0
100
AcDbBlockBegin
  2
A$C78C31950
 70
     0
 10
0.0
 20
0.0
 30
0.0
  3
A$C78C31950
  1

  0
LINE
  5
1316F
330
1316E
100
AcDbEntity
  8
部品1
 48
50.0
100
AcDbLine
 10
1935.61983549839
 20
1678.746124591871
 30
0.0
 11
2873.447432872494
 21
1678.746124591869
 31
0.0
  0
LINE
  5
13170
330
1316E
100
AcDbEntity
  8
部品1
 48
50.0
100
AcDbLine
 10
1865.61983549839
 20
1503.746124591869
 30
0.0
 11
2873.447432872494
 21
1503.746124591867
 31
0.0
  0
LINE
  5
13171
330
1316E
100
AcDbEntity
  8
細線
 48
50.0
100
AcDbLine
 10
2072.436622308193
 20
1503.746124591869
 30
0.0
 11
1865.61983549839
 21
1710.562911401674
 31
0.0
  0
LINE
  5
13172
330
1316E
100
AcDbEntity
  8
細線
 48
50.0
100
AcDbLine
 10
2042.738137498356
 20
1503.746124591869
 30
0.0
 11
1865.61983549839
 21
1680.864426591837
 31
0.0
  0
LINE
  5
13173
330
1316E
100
AcDbEntity
  8
細線
 48
50.0
100
AcDbLine
 10
2102.135107118029
 20
1503.746124591869
 30
0.0
 11
1892.135107118021
 21
1713.746124591869
 31
0.0
  0
LINE
  5
13174
330
1316E
100
AcDbEntity
  8
細線
 48
50.0
100
AcDbLine
 10
2003.396963184842
 20
685.6211245918693
 30
0.0
 11
2090.896963184841
 21
598.1211245918693
 31
0.0
  0
LINE
  5
13175
330
1316E
100
AcDbEntity
  8
細線
 48
50.0
100
AcDbLine
 10
1973.698478375005
 20
685.6211245918693
 30
0.0
 11
2061.198478374998
 21
598.1211245918693
 31
0.0
  0
LINE
  5
13176
330
1316E
100
AcDbEntity
  8
細線
 48
50.0
100
AcDbLine
 10
2033.095447994678
 20
685.6211245918693
 30
0.0
 11
2120.595447994685
 21
598.1211245918693
 31
0.0
  0
LINE
  5
13177
330
1316E
100
AcDbEntity
  8
細線
 48
50.0
100
AcDbLine
 10
1985.13271270163
 20
685.6211245918693
 30
0.0
 11
2121.132712701623
 21
821.6211245918712
 31
0.0
  0
LINE
  5
13178
330
1316E
100
AcDbEntity
  8
細線
 48
50.0
100
AcDbLine
 10
1925.735743081972
 20
685.6211245918675
 30
0.0
 11
2061.735743081972
 21
821.6211245918694
 31
0.0
  0
LINE
  5
13179
330
1316E
100
AcDbEntity
  8
細線
 48
50.0
100
AcDbLine
 10
1955.434227891794
 20
685.6211245918693
 30
0.0
 11
2091.434227891787
 21
821.6211245918694
 31
0.0
  0
LINE
  5
1317A
330
1316E
100
AcDbEntity
  8
細線
 48
50.0
100
AcDbLine
 10
1970.619835498382
 20
388.1211245918694
 30
0.0
 11
2047.053584694284
 21
598.1211245918693
 31
0.0
  0
LINE
  5
1317B
330
1316E
100
AcDbEntity
  8
部品1
 48
50.0
100
AcDbLine
 10
982.7010549972438
 20
685.6211245918693
 30
0.0
 11
2643.538615999529
 21
685.6211245918693
 31
0.0
  0
LINE
  5
1317C
330
1316E
100
AcDbEntity
  8
部品1
 48
50.0
100
AcDbLine
 10
982.7010549972438
 20
598.1211245918693
 30
0.0
 11
2643.538615999529
 21
598.1211245918693
 31
0.0
  0
LINE
  5
1317D
330
1316E
100
AcDbEntity
  8
部品1
 48
50.0
100
AcDbLine
 10
982.7010549972438
 20
388.1211245918694
 30
0.0
 11
2643.538615999529
 21
388.1211245918694
 31
0.0
  0
DIMENSION
  5
1317E
330
1316E
100
AcDbEntity
  8
寸法
 48
50.0
100
AcDbDimension
  2
*D21
 10
2517.494835498383
 20
60.00001221530329
 30
0.0
 11
1813.119835498383
 21
160.0000122153033
 31
0.0
 12
-17576.57960932457
 22
-3807.883900858542
 32
0.0
  1
700
 71
     5
 42
-1.0
  3
INABA_S40G
100
AcDbAlignedDimension
 13
1108.744835498382
 23
388.1211245918676
 33
0.0
 14
2517.494835498383
 24
388.1211245918694
 34
0.0
100
AcDbRotatedDimension
  0
LINE
  5
1317F
330
1316E
100
AcDbEntity
  8
部品1
 48
50.0
100
AcDbLine
 10
1233.744835498382
 20
821.6211245918675
 30
0.0
 11
2392.494835498383
 21
821.6211245918712
 31
0.0
  0
LINE
  5
13180
330
1316E
100
AcDbEntity
  8
部品1
 48
50.0
100
AcDbLine
 10
1233.744835498382
 20
849.6211245918694
 30
0.0
 11
2392.494835498383
 21
849.6211245918711
 31
0.0
  0
LINE
  5
13181
330
1316E
100
AcDbEntity
  8
細線
 48
50.0
100
AcDbLine
 10
1753.152915237162
 20
849.6211245918711
 30
0.0
 11
2407.277915237155
 21
1503.746124591867
 31
0.0
  0
LINE
  5
13182
330
1316E
100
AcDbEntity
  8
細線
 48
50.0
100
AcDbLine
 10
1723.454430427333
 20
849.6211245918711
 30
0.0
 11
2377.579430427319
 21
1503.746124591869
 31
0.0
  0
LINE
  5
13183
330
1316E
100
AcDbEntity
  8
細線
 48
50.0
100
AcDbLine
 10
1693.755945617496
 20
849.6211245918711
 30
0.0
 11
2347.880945617482
 21
1503.746124591869
 31
0.0
  0
MTEXT
  5
13184
102
{ACAD_REACTORS
330
13185
102
}
330
1316E
100
AcDbEntity
  8
寸法
 62
     7
 48
50.0
100
AcDbMText
 10
2655.907863178585
 20
989.3562697110446
 30
0.0
 40
120.0
 41
0.0
 71
     4
 72
     1
  1
\A1;カンザシ 
  7
STYLE1
 73
     1
 44
1.0
1001
ACAD
1000
MTEXTBEGIN
1070
    73
1070
     1
1070
    44
1040
1.0
1070
    74
1070
     0
1000
MTEXTEND
  0
LEADER
  5
13185
330
1316E
100
AcDbEntity
  8
寸法
 48
50.0
100
AcDbLeader
  3
INABA_S30GA
 71
     0
 73
     0
 74
     0
 75
     1
 40
120.0
 41
550.0
 76
     3
 10
1813.11983549839
 20
1117.521389644054
 30
0.0
 10
2550.907863178585
 20
899.3562697110446
 30
0.0
 10
2625.907863178585
 20
899.3562697110446
 30
0.0
340
13184
  0
MTEXT
  5
13186
330
1316E
100
AcDbEntity
  8
寸法
 62
     7
 48
50.0
100
AcDbMText
 10
1971.704752030546
 20
1870.640990544412
 30
0.0
 40
120.0
 41
0.0
 71
     4
 72
     1
  1
\A1;水勾配１／１００ 
  7
STYLE1
 73
     1
 44
1.0
1001
ACAD
1000
MTEXTBEGIN
1070
    73
1070
     1
1070
    44
1040
1.0
1070
    74
1070
     0
1000
MTEXTEND
  0
LINE
  5
13187
330
1316E
100
AcDbEntity
  8
文字
 48
50.0
100
AcDbLine
 10
1968.746606081888
 20
1787.647925716179
 30
0.0
 11
3250.576982802555
 21
1787.647925716179
 31
0.0
  0
LINE
  5
13188
330
1316E
100
AcDbEntity
  8
細線
 48
50.0
100
AcDbLine
 10
1865.61983549839
 20
1387.766327127401
 30
0.0
 11
1981.599632962858
 21
1503.746124591871
 31
0.0
  0
LINE
  5
13189
330
1316E
100
AcDbEntity
  8
細線
 48
50.0
100
AcDbLine
 10
1865.61983549839
 20
1417.464811937236
 30
0.0
 11
1951.901148153021
 21
1503.746124591869
 31
0.0
  0
LINE
  5
1318A
330
1316E
100
AcDbEntity
  8
細線
 48
50.0
100
AcDbLine
 10
1865.61983549839
 20
1358.067842317567
 30
0.0
 11
2011.298117772694
 21
1503.746124591869
 31
0.0
  0
LINE
  5
1318B
330
1316E
100
AcDbEntity
  8
細線
 48
50.0
100
AcDbLine
 10
1108.744835498382
 20
1393.152437246499
 30
0.0
 11
1219.338522843758
 21
1503.746124591869
 31
0.0
  0
LINE
  5
1318C
330
1316E
100
AcDbEntity
  8
細線
 48
50.0
100
AcDbLine
 10
1108.744835498382
 20
1422.850922056332
 30
0.0
 11
1189.640038033922
 21
1503.746124591869
 31
0.0
  0
LINE
  5
1318D
330
1316E
100
AcDbEntity
  8
細線
 48
50.0
100
AcDbLine
 10
1108.744835498382
 20
1452.549406866168
 30
0.0
 11
1159.941553224085
 21
1503.746124591869
 31
0.0
  0
DIMENSION
  5
1318E
330
1316E
100
AcDbEntity
  8
寸法
 48
50.0
100
AcDbDimension
  2
*D19
 10
660.3099185983483
 20
685.6211245918693
 30
0.0
 11
560.3099185983483
 21
1138.433624591869
 31
0.0
 12
-17576.57960932457
 22
-3807.883900858542
 32
0.0
  1
450
 71
     5
 42
-1.0
  3
INABA_S40G
100
AcDbAlignedDimension
 13
1410.619835498382
 23
1591.246124591869
 33
0.0
 14
982.7010549972438
 24
685.6211245918693
 34
0.0
 50
90.0
100
AcDbRotatedDimension
  0
DIMENSION
  5
1318F
330
1316E
100
AcDbEntity
  8
寸法
 48
50.0
100
AcDbDimension
  2
*D18
 10
882.2256841027011
 20
1047.871124591869
 30
0.0
 11
782.2138730790793
 21
1275.808624591869
 31
0.0
 12
-17576.57960932457
 22
-3807.883900858542
 32
0.0
  1
220
 71
     5
 42
-1.0
  3
INABA_S40G
100
AcDbAlignedDimension
 13
1108.744835498382
 23
1503.746124591869
 33
0.0
 14
1760.61983549839
 24
1047.871124591869
 34
0.0
 50
90.0
100
AcDbRotatedDimension
  0
LINE
  5
13190
330
1316E
100
AcDbEntity
  8
部品1
 48
50.0
100
AcDbLine
 10
1108.744835498382
 20
685.6211245918693
 30
0.0
 11
1108.744835498382
 21
1503.746124591869
 31
0.0
  0
LINE
  5
13191
330
1316E
100
AcDbEntity
  8
部品1
 48
50.0
100
AcDbLine
 10
1760.61983549839
 20
2065.107575749764
 30
0.0
 11
1760.61983549839
 21
1047.871124591869
 31
0.0
  0
LINE
  5
13192
330
1316E
100
AcDbEntity
  8
部品1
 48
50.0
100
AcDbLine
 10
1865.61983549839
 20
1047.871124591869
 30
0.0
 11
1865.61983549839
 21
2065.107575749764
 31
0.0
  0
LINE
  5
13193
330
1316E
100
AcDbEntity
  8
細線
 48
50.0
100
AcDbLine
 10
1108.744835498382
 20
997.1726397820312
 30
0.0
 11
1615.318320308226
 21
1503.746124591869
 31
0.0
  0
LINE
  5
13194
330
1316E
100
AcDbEntity
  8
細線
 48
50.0
100
AcDbLine
 10
1108.744835498382
 20
1026.871124591862
 30
0.0
 11
1585.61983549839
 21
1503.746124591869
 31
0.0
  0
LINE
  5
13195
330
1316E
100
AcDbEntity
  8
細線
 48
50.0
100
AcDbLine
 10
1108.744835498382
 20
1056.569609401707
 30
0.0
 11
1555.921350688553
 21
1503.746124591869
 31
0.0
  0
DIMENSION
  5
13196
330
1316E
100
AcDbEntity
  8
寸法
 48
50.0
100
AcDbDimension
  2
*D22
 10
660.3099185983483
 20
598.1211245918693
 30
0.0
 11
560.3099185983483
 21
641.8711245918693
 31
0.0
 12
-17576.57960932457
 22
-3807.883900858542
 32
0.0
  1
50
 71
     5
 42
-1.0
  3
INABA_S40G
100
AcDbAlignedDimension
 13
982.7010549972365
 23
685.6211245918693
 33
0.0
 14
982.7010549972438
 24
598.1211245918693
 34
0.0
 50
90.0
100
AcDbRotatedDimension
  0
LINE
  5
13197
330
1316E
100
AcDbEntity
  8
細線
 48
50.0
100
AcDbLine
 10
1550.619835498382
 20
388.1211245918694
 30
0.0
 11
1627.053584694284
 21
598.1211245918693
 31
0.0
  0
LINE
  5
13198
330
1316E
100
AcDbEntity
  8
細線
 48
50.0
100
AcDbLine
 10
1690.619835498382
 20
388.1211245918712
 30
0.0
 11
1767.053584694284
 21
598.1211245918693
 31
0.0
  0
LINE
  5
13199
330
1316E
100
AcDbEntity
  8
細線
 48
50.0
100
AcDbLine
 10
1830.619835498383
 20
388.1211245918712
 30
0.0
 11
1907.053584694284
 21
598.1211245918712
 31
0.0
  0
LINE
  5
1319A
330
1316E
100
AcDbEntity
  8
部品1
 48
50.0
100
AcDbLine
 10
982.7010549972365
 20
685.6211245918675
 30
0.0
 11
982.7010549972438
 21
388.1211245918694
 31
0.0
  0
LINE
  5
1319B
330
1316E
100
AcDbEntity
  8
細線
 48
50.0
100
AcDbLine
 10
990.6198354983827
 20
388.1211245918676
 30
0.0
 11
1067.053584694284
 21
598.1211245918675
 31
0.0
  0
LINE
  5
1319C
330
1316E
100
AcDbEntity
  8
細線
 48
50.0
100
AcDbLine
 10
1270.619835498382
 20
388.1211245918694
 30
0.0
 11
1347.053584694284
 21
598.1211245918675
 31
0.0
  0
LINE
  5
1319D
330
1316E
100
AcDbEntity
  8
細線
 48
50.0
100
AcDbLine
 10
1130.619835498382
 20
388.1211245918676
 30
0.0
 11
1207.053584694284
 21
598.1211245918675
 31
0.0
  0
LINE
  5
1319E
330
1316E
100
AcDbEntity
  8
細線
 48
50.0
100
AcDbLine
 10
1410.619835498382
 20
388.1211245918694
 30
0.0
 11
1487.053584694284
 21
598.1211245918693
 31
0.0
  0
LINE
  5
1319F
330
1316E
100
AcDbEntity
  8
細線
 48
50.0
100
AcDbLine
 10
1003.358793697702
 20
423.1211245918675
 30
0.0
 11
1018.619835498382
 21
388.1211245918676
 31
0.0
  0
LINE
  5
131A0
330
1316E
100
AcDbEntity
  8
細線
 48
50.0
100
AcDbLine
 10
1143.358793697702
 20
423.1211245918675
 30
0.0
 11
1158.619835498382
 21
388.1211245918676
 31
0.0
  0
LINE
  5
131A1
330
1316E
100
AcDbEntity
  8
細線
 48
50.0
100
AcDbLine
 10
1283.358793697702
 20
423.1211245918693
 30
0.0
 11
1298.619835498383
 21
388.1211245918694
 31
0.0
  0
LINE
  5
131A2
330
1316E
100
AcDbEntity
  8
細線
 48
50.0
100
AcDbLine
 10
1703.358793697702
 20
423.1211245918712
 30
0.0
 11
1718.619835498382
 21
388.1211245918712
 31
0.0
  0
LINE
  5
131A3
330
1316E
100
AcDbEntity
  8
細線
 48
50.0
100
AcDbLine
 10
1423.358793697702
 20
423.1211245918693
 30
0.0
 11
1438.619835498382
 21
388.1211245918694
 31
0.0
  0
LINE
  5
131A4
330
1316E
100
AcDbEntity
  8
細線
 48
50.0
100
AcDbLine
 10
1563.358793697702
 20
423.1211245918693
 30
0.0
 11
1578.619835498382
 21
388.1211245918694
 31
0.0
  0
LINE
  5
131A5
330
1316E
100
AcDbEntity
  8
細線
 48
50.0
100
AcDbLine
 10
1843.358793697702
 20
423.1211245918712
 30
0.0
 11
1858.619835498382
 21
388.1211245918712
 31
0.0
  0
LINE
  5
131A6
330
1316E
100
AcDbEntity
  8
細線
 48
50.0
100
AcDbLine
 10
1983.358793697702
 20
423.1211245918693
 30
0.0
 11
1998.619835498383
 21
388.1211245918694
 31
0.0
  0
DIMENSION
  5
131A7
330
1316E
100
AcDbEntity
  8
寸法
 48
50.0
100
AcDbDimension
  2
*D20
 10
882.2256841027011
 20
685.6211245918693
 30
0.0
 11
882.2256841027011
 21
866.7461245918694
 31
0.0
 12
-17576.57960932457
 22
-3807.883900858542
 32
0.0
 70
   128
  1
180
 71
     5
 42
-1.0
  3
INABA_S40G
100
AcDbAlignedDimension
 13
1760.61983549839
 23
1047.871124591869
 33
0.0
 14
982.7010549972438
 24
685.6211245918693
 34
0.0
 50
90.0
100
AcDbRotatedDimension
  0
LINE
  5
131A8
330
1316E
100
AcDbEntity
  8
細線
 48
50.0
100
AcDbLine
 10
1357.173117772701
 20
849.6211245918694
 30
0.0
 11
1760.619835498383
 21
1253.067842317563
 31
0.0
  0
LINE
  5
131A9
330
1316E
100
AcDbEntity
  8
細線
 48
50.0
100
AcDbLine
 10
1327.474632962865
 20
849.6211245918711
 30
0.0
 11
1760.61983549839
 21
1282.766327127403
 31
0.0
  0
LINE
  5
131AA
330
1316E
100
AcDbEntity
  8
細線
 48
50.0
100
AcDbLine
 10
1297.776148153014
 20
849.6211245918711
 30
0.0
 11
1760.61983549839
 21
1312.464811937236
 31
0.0
  0
LINE
  5
131AB
330
1316E
100
AcDbEntity
  8
細線
 48
50.0
100
AcDbLine
 10
1039.053584694284
 20
598.1211245918675
 30
0.0
 11
1054.314626494964
 21
563.1211245918676
 31
0.0
  0
LINE
  5
131AC
330
1316E
100
AcDbEntity
  8
細線
 48
50.0
100
AcDbLine
 10
1193.173117772694
 20
685.6211245918712
 30
0.0
 11
1329.173117772701
 21
821.6211245918675
 31
0.0
  0
LINE
  5
131AD
330
1316E
100
AcDbEntity
  8
細線
 48
50.0
100
AcDbLine
 10
1163.474632962865
 20
685.6211245918693
 30
0.0
 11
1299.474632962872
 21
821.6211245918675
 31
0.0
  0
LINE
  5
131AE
330
1316E
100
AcDbEntity
  8
細線
 48
50.0
100
AcDbLine
 10
1133.776148153014
 20
685.6211245918693
 30
0.0
 11
1269.776148153021
 21
821.6211245918675
 31
0.0
  0
LINE
  5
131AF
330
1316E
100
AcDbEntity
  8
細線
 48
50.0
100
AcDbLine
 10
1211.437368255912
 20
685.6211245918693
 30
0.0
 11
1298.937368255912
 21
598.1211245918693
 31
0.0
  0
LINE
  5
131B0
330
1316E
100
AcDbEntity
  8
細線
 48
50.0
100
AcDbLine
 10
1181.738883446076
 20
685.6211245918675
 30
0.0
 11
1269.238883446076
 21
598.1211245918712
 31
0.0
  0
LINE
  5
131B1
330
1316E
100
AcDbEntity
  8
細線
 48
50.0
100
AcDbLine
 10
1179.053584694284
 20
598.1211245918675
 30
0.0
 11
1194.314626494964
 21
563.1211245918676
 31
0.0
  0
LINE
  5
131B2
330
1316E
100
AcDbEntity
  8
細線
 48
50.0
100
AcDbLine
 10
1241.135853065741
 20
685.6211245918693
 30
0.0
 11
1328.635853065749
 21
598.1211245918693
 31
0.0
  0
LINE
  5
131B3
330
1316E
100
AcDbEntity
  8
細線
 48
50.0
100
AcDbLine
 10
1319.053584694284
 20
598.1211245918675
 30
0.0
 11
1334.314626494965
 21
563.1211245918693
 31
0.0
  0
LINE
  5
131B4
330
1316E
100
AcDbEntity
  8
部品1
 48
50.0
100
AcDbLine
 10
1233.744835498382
 20
821.6211245918712
 30
0.0
 11
1233.744835498382
 21
849.6211245918694
 31
0.0
  0
CIRCLE
  5
131B5
330
1316E
100
AcDbEntity
  8
部品1
 48
5.0
100
AcDbCircle
 10
1273.11983549839
 20
863.6211245918712
 30
0.0
 40
14.0
  0
LINE
  5
131B6
330
1316E
100
AcDbEntity
  8
細線
 48
50.0
100
AcDbLine
 10
1637.115650530217
 20
685.6211245918693
 30
0.0
 11
1724.615650530217
 21
598.1211245918693
 31
0.0
  0
LINE
  5
131B7
330
1316E
100
AcDbEntity
  8
細線
 48
50.0
100
AcDbLine
 10
1589.152915237162
 20
685.6211245918693
 30
0.0
 11
1725.152915237162
 21
821.6211245918694
 31
0.0
  0
LINE
  5
131B8
330
1316E
100
AcDbEntity
  8
細線
 48
50.0
100
AcDbLine
 10
1529.755945617497
 20
685.6211245918693
 30
0.0
 11
1665.755945617511
 21
821.6211245918675
 31
0.0
  0
LINE
  5
131B9
330
1316E
100
AcDbEntity
  8
細線
 48
50.0
100
AcDbLine
 10
1559.454430427333
 20
685.6211245918693
 30
0.0
 11
1695.45443042734
 21
821.6211245918675
 31
0.0
  0
LINE
  5
131BA
330
1316E
100
AcDbEntity
  8
細線
 48
50.0
100
AcDbLine
 10
1459.053584694284
 20
598.1211245918693
 30
0.0
 11
1474.314626494964
 21
563.1211245918693
 31
0.0
  0
LINE
  5
131BB
330
1316E
100
AcDbEntity
  8
細線
 48
50.0
100
AcDbLine
 10
1607.41716572038
 20
685.6211245918693
 30
0.0
 11
1694.91716572038
 21
598.1211245918693
 31
0.0
  0
LINE
  5
131BC
330
1316E
100
AcDbEntity
  8
細線
 48
50.0
100
AcDbLine
 10
1577.718680910544
 20
685.6211245918693
 30
0.0
 11
1665.218680910537
 21
598.1211245918712
 31
0.0
  0
LINE
  5
131BD
330
1316E
100
AcDbEntity
  8
細線
 48
50.0
100
AcDbLine
 10
1599.053584694284
 20
598.1211245918693
 30
0.0
 11
1614.314626494964
 21
563.1211245918693
 31
0.0
  0
CIRCLE
  5
131BE
330
1316E
100
AcDbEntity
  8
部品1
 48
5.0
100
AcDbCircle
 10
1633.11983549839
 20
863.6211245918712
 30
0.0
 40
14.0
  0
LINE
  5
131BF
330
1316E
100
AcDbEntity
  8
細線
 48
50.0
100
AcDbLine
 10
1739.053584694284
 20
598.1211245918693
 30
0.0
 11
1754.314626494965
 21
563.1211245918712
 31
0.0
  0
LINE
  5
131C0
330
1316E
100
AcDbEntity
  8
細線
 48
50.0
100
AcDbLine
 10
1879.053584694284
 20
598.1211245918712
 30
0.0
 11
1894.314626494965
 21
563.1211245918712
 31
0.0
  0
LINE
  5
131C1
330
1316E
100
AcDbEntity
  8
細線
 48
50.0
100
AcDbLine
 10
2019.053584694284
 20
598.1211245918693
 30
0.0
 11
2034.314626494964
 21
563.1211245918693
 31
0.0
  0
CIRCLE
  5
131C2
330
1316E
100
AcDbEntity
  8
部品1
 48
5.0
100
AcDbCircle
 10
1993.11983549839
 20
863.6211245918712
 30
0.0
 40
14.0
  0
CIRCLE
  5
131C3
330
1316E
100
AcDbEntity
  8
部品1
 48
50.0
100
AcDbCircle
 10
1813.11983549839
 20
1117.871124591869
 30
0.0
 40
14.0
  0
LINE
  5
131C4
330
1316E
100
AcDbEntity
  8
部品1
 48
5.0
100
AcDbLine
 10
1760.61983549839
 20
1047.871124591869
 30
0.0
 11
1865.61983549839
 21
1047.871124591869
 31
0.0
  0
LINE
  5
131C5
330
1316E
100
AcDbEntity
  8
Ｇ．Ｌ
 48
50.0
100
AcDbLine
 10
0.0000016983067326
 20
1591.246124591871
 30
0.0
 11
1410.619835498382
 21
1591.246124591869
 31
0.0
  0
DIMENSION
  5
131C6
330
1316E
100
AcDbEntity
  8
寸法
 48
50.0
100
AcDbDimension
  2
*D23
 10
660.3099185983483
 20
1678.746124591869
 30
0.0
 11
660.3099185983483
 21
1932.698880497381
 31
0.0
 12
-17576.57960932457
 22
-3807.883900858542
 32
0.0
 70
   128
  1
(50)
 71
     5
 42
-1.0
  3
INABA_S40G
100
AcDbAlignedDimension
 13
1410.619835498382
 23
1591.246124591869
 33
0.0
 14
1452.619835498382
 24
1678.746124591869
 34
0.0
 50
90.0
100
AcDbRotatedDimension
  0
MTEXT
  5
131C7
330
1316E
100
AcDbEntity
  8
寸法
 62
     7
 48
50.0
100
AcDbMText
 10
8.311566785832837
 20
1668.292663027285
 30
0.0
 40
120.0
 41
0.0
 71
     4
 72
     1
  1
▽G.L
  7
STYLE1
 73
     1
 44
1.0
1001
ACAD
1000
MTEXTBEGIN
1070
    73
1070
     1
1070
    44
1040
1.0
1070
    74
1070
     0
1000
MTEXTEND
  0
DIMENSION
  5
131C8
330
1316E
100
AcDbEntity
  8
寸法
 48
50.0
100
AcDbDimension
  2
*D24
 10
882.2256841027011
 20
1503.746124591869
 30
0.0
 11
882.2256841027011
 21
1547.496124591869
 31
0.0
 12
-17576.57960932457
 22
-3807.883900858542
 32
0.0
 70
   128
  1
50
 71
     5
 42
-1.0
  3
INABA_S40G
100
AcDbAlignedDimension
 13
1410.619835498382
 23
1591.246124591869
 33
0.0
 14
1108.744835498382
 24
1503.746124591869
 34
0.0
 50
90.0
100
AcDbRotatedDimension
  0
LINE
  5
131C9
330
1316E
100
AcDbEntity
  8
部品1
 48
50.0
100
AcDbLine
 10
1108.744835498382
 20
1503.746124591869
 30
0.0
 11
1760.61983549839
 21
1503.746124591869
 31
0.0
  0
LINE
  5
131CA
330
1316E
100
AcDbEntity
  8
部品1
 48
50.0
100
AcDbLine
 10
1725.61983549839
 20
1713.746124591869
 30
0.0
 11
1690.61983549839
 21
1678.746124591869
 31
0.0
  0
LINE
  5
131CB
330
1316E
100
AcDbEntity
  8
部品1
 48
50.0
100
AcDbLine
 10
1452.619835498382
 20
1678.746124591869
 30
0.0
 11
1690.61983549839
 21
1678.746124591869
 31
0.0
  0
LINE
  5
131CC
330
1316E
100
AcDbEntity
  8
細線
 48
50.0
100
AcDbLine
 10
1646.758340033895
 20
1503.746124591867
 30
0.0
 11
1471.758340033895
 21
1678.746124591869
 31
0.0
  0
LINE
  5
131CD
330
1316E
100
AcDbEntity
  8
細線
 48
50.0
100
AcDbLine
 10
1676.456824843725
 20
1503.746124591871
 30
0.0
 11
1501.456824843724
 21
1678.746124591869
 31
0.0
  0
LINE
  5
131CE
330
1316E
100
AcDbEntity
  8
細線
 48
50.0
100
AcDbLine
 10
1706.155309653554
 20
1503.746124591869
 30
0.0
 11
1531.155309653561
 21
1678.746124591869
 31
0.0
  0
LINE
  5
131CF
330
1316E
100
AcDbEntity
  8
部品1
 48
50.0
100
AcDbLine
 10
1410.619835498382
 20
1636.746124591867
 30
0.0
 11
1410.61983549839
 21
1503.746124591869
 31
0.0
  0
LINE
  5
131D0
330
1316E
100
AcDbEntity
  8
部品1
 48
50.0
100
AcDbLine
 10
1410.619835498382
 20
1636.746124591869
 30
0.0
 11
1452.619835498382
 21
1678.746124591869
 31
0.0
  0
LINE
  5
131D1
330
1316E
100
AcDbEntity
  8
部品1
 48
50.0
100
AcDbLine
 10
1900.61983549839
 20
1713.746124591869
 30
0.0
 11
1935.61983549839
 21
1678.746124591869
 31
0.0
  0
LINE
  5
131D2
330
1316E
100
AcDbEntity
  8
部品1
 48
50.0
100
AcDbLine
 10
1865.61983549839
 20
1713.746124591869
 30
0.0
 11
1900.61983549839
 21
1713.746124591869
 31
0.0
  0
LINE
  5
131D3
330
1316E
100
AcDbEntity
  8
部品1
 48
50.0
100
AcDbLine
 10
1725.61983549839
 20
1713.746124591869
 30
0.0
 11
1760.61983549839
 21
1713.746124591869
 31
0.0
  0
LINE
  5
131D4
330
1316E
100
AcDbEntity
  8
細線
 48
50.0
100
AcDbLine
 10
2517.494835498383
 20
1301.279066167372
 30
0.0
 11
2591.186818184335
 21
1503.746124591869
 31
0.0
  0
LINE
  5
131D5
330
1316E
100
AcDbEntity
  8
細線
 48
50.0
100
AcDbLine
 10
2654.753068988433
 20
1293.746124591871
 30
0.0
 11
2731.186818184335
 21
1503.746124591871
 31
0.0
  0
LINE
  5
131D6
330
1316E
100
AcDbEntity
  8
細線
 48
50.0
100
AcDbLine
 10
2794.753068988434
 20
1293.746124591869
 30
0.0
 11
2871.186818184335
 21
1503.746124591867
 31
0.0
  0
LINE
  5
131D7
330
1316E
100
AcDbEntity
  8
部品1
 48
50.0
100
AcDbLine
 10
2517.494835498383
 20
685.6211245918693
 30
0.0
 11
2517.494835498383
 21
1503.746124591869
 31
0.0
  0
MTEXT
  5
131D8
102
{ACAD_REACTORS
330
131D9
102
}
330
1316E
100
AcDbEntity
  8
部品1
 62
     7
 48
5.0
100
AcDbMText
 10
2854.773534016004
 20
503.7440892547819
 30
0.0
 40
120.0
 41
0.0
 71
     4
 72
     1
  1
\A1;4-D10両方向共
  7
STYLE1
 73
     1
 44
1.0
1001
ACAD
1000
MTEXTBEGIN
1070
    73
1070
     1
1070
    44
1040
1.0
1070
    74
1070
     0
1000
MTEXTEND
  0
LEADER
  5
131D9
330
1316E
100
AcDbEntity
  8
寸法
 48
5.0
100
AcDbLeader
  3
INABA_S50G
 71
     0
 73
     0
 74
     0
 75
     1
 40
121.669047558312
 41
937.9999999999999
 76
     3
 10
2353.11983549839
 20
863.6211245918712
 30
0.0
 10
2704.773534016004
 20
417.909565475626
 30
0.0
 10
2829.773534016004
 20
417.909565475626
 30
0.0
340
131D8
1001
ACAD
1000
DSTYLE
1002
{
1070
    40
1040
1.0
1070
   287
1070
     5
1002
}
  0
LINE
  5
131DA
330
1316E
100
AcDbEntity
  8
細線
 48
50.0
100
AcDbLine
 10
2390.619835498382
 20
388.1211245918694
 30
0.0
 11
2467.053584694284
 21
598.1211245918693
 31
0.0
  0
LINE
  5
131DB
330
1316E
100
AcDbEntity
  8
細線
 48
50.0
100
AcDbLine
 10
2250.619835498383
 20
388.1211245918712
 30
0.0
 11
2327.053584694284
 21
598.1211245918712
 31
0.0
  0
LINE
  5
131DC
330
1316E
100
AcDbEntity
  8
細線
 48
50.0
100
AcDbLine
 10
2110.619835498383
 20
388.1211245918712
 30
0.0
 11
2187.053584694284
 21
598.1211245918693
 31
0.0
  0
LINE
  5
131DD
330
1316E
100
AcDbEntity
  8
部品1
 48
50.0
100
AcDbLine
 10
2643.538615999529
 20
685.6211245918675
 30
0.0
 11
2643.538615999529
 21
388.1211245918694
 31
0.0
  0
LINE
  5
131DE
330
1316E
100
AcDbEntity
  8
細線
 48
50.0
100
AcDbLine
 10
2530.619835498383
 20
388.1211245918712
 30
0.0
 11
2607.053584694284
 21
598.1211245918693
 31
0.0
  0
LINE
  5
131DF
330
1316E
100
AcDbEntity
  8
細線
 48
50.0
100
AcDbLine
 10
2123.358793697702
 20
423.1211245918712
 30
0.0
 11
2138.619835498383
 21
388.1211245918712
 31
0.0
  0
LINE
  5
131E0
330
1316E
100
AcDbEntity
  8
細線
 48
50.0
100
AcDbLine
 10
2263.358793697702
 20
423.1211245918712
 30
0.0
 11
2278.619835498383
 21
388.1211245918712
 31
0.0
  0
LINE
  5
131E1
330
1316E
100
AcDbEntity
  8
細線
 48
50.0
100
AcDbLine
 10
2403.358793697702
 20
423.1211245918693
 30
0.0
 11
2418.619835498383
 21
388.1211245918694
 31
0.0
  0
LINE
  5
131E2
330
1316E
100
AcDbEntity
  8
細線
 48
50.0
100
AcDbLine
 10
2543.358793697702
 20
423.1211245918712
 30
0.0
 11
2558.619835498383
 21
388.1211245918712
 31
0.0
  0
LINE
  5
131E3
330
1316E
100
AcDbEntity
  8
部品1
 48
50.0
100
AcDbLine
 10
2517.494835498383
 20
1293.746124591869
 30
0.0
 11
2873.447432872494
 21
1293.746124591869
 31
0.0
  0
LINE
  5
131E4
330
1316E
100
AcDbEntity
  8
細線
 48
50.0
100
AcDbLine
 10
2149.132712701623
 20
849.6211245918694
 30
0.0
 11
2517.494835498383
 21
1217.983247388643
 31
0.0
  0
LINE
  5
131E5
330
1316E
100
AcDbEntity
  8
細線
 48
50.0
100
AcDbLine
 10
2119.434227891787
 20
849.6211245918711
 30
0.0
 11
2517.494835498383
 21
1247.681732198474
 31
0.0
  0
LINE
  5
131E6
330
1316E
100
AcDbEntity
  8
細線
 48
50.0
100
AcDbLine
 10
2089.735743081965
 20
849.6211245918729
 30
0.0
 11
2517.494835498383
 21
1277.380217008313
 31
0.0
  0
CIRCLE
  5
131E7
330
1316E
100
AcDbEntity
  8
部品1
 48
5.0
100
AcDbCircle
 10
2353.11983549839
 20
863.6211245918712
 30
0.0
 40
14.0
  0
LINE
  5
131E8
330
1316E
100
AcDbEntity
  8
細線
 48
50.0
100
AcDbLine
 10
2321.715540546447
 20
685.6211245918657
 30
0.0
 11
2517.494835498383
 21
881.4004195438156
 31
0.0
  0
LINE
  5
131E9
330
1316E
100
AcDbEntity
  8
細線
 48
50.0
100
AcDbLine
 10
2351.414025356269
 20
685.6211245918675
 30
0.0
 11
2517.494835498383
 21
851.7019347339864
 31
0.0
  0
LINE
  5
131EA
330
1316E
100
AcDbEntity
  8
細線
 48
50.0
100
AcDbLine
 10
2159.053584694284
 20
598.1211245918693
 30
0.0
 11
2174.314626494965
 21
563.1211245918712
 31
0.0
  0
LINE
  5
131EB
330
1316E
100
AcDbEntity
  8
細線
 48
50.0
100
AcDbLine
 10
2299.053584694284
 20
598.1211245918712
 30
0.0
 11
2314.314626494965
 21
563.1211245918712
 31
0.0
  0
LINE
  5
131EC
330
1316E
100
AcDbEntity
  8
細線
 48
50.0
100
AcDbLine
 10
2381.112510166106
 20
685.6211245918675
 30
0.0
 11
2517.494835498383
 21
822.0034499241501
 31
0.0
  0
LINE
  5
131ED
330
1316E
100
AcDbEntity
  8
細線
 48
50.0
100
AcDbLine
 10
2429.075245459145
 20
685.6211245918693
 30
0.0
 11
2516.575245459146
 21
598.1211245918693
 31
0.0
  0
LINE
  5
131EE
330
1316E
100
AcDbEntity
  8
細線
 48
50.0
100
AcDbLine
 10
2399.376760649302
 20
685.6211245918693
 30
0.0
 11
2486.876760649309
 21
598.1211245918693
 31
0.0
  0
LINE
  5
131EF
330
1316E
100
AcDbEntity
  8
細線
 48
50.0
100
AcDbLine
 10
2369.678275839473
 20
685.6211245918693
 30
0.0
 11
2457.178275839466
 21
598.1211245918693
 31
0.0
  0
LINE
  5
131F0
330
1316E
100
AcDbEntity
  8
細線
 48
50.0
100
AcDbLine
 10
2439.053584694284
 20
598.1211245918693
 30
0.0
 11
2454.314626494965
 21
563.1211245918693
 31
0.0
  0
LINE
  5
131F1
330
1316E
100
AcDbEntity
  8
細線
 48
50.0
100
AcDbLine
 10
2579.053584694284
 20
598.1211245918693
 30
0.0
 11
2594.314626494965
 21
563.1211245918712
 31
0.0
  0
LINE
  5
131F2
330
1316E
100
AcDbEntity
  8
部品1
 48
50.0
100
AcDbLine
 10
2392.494835498383
 20
821.6211245918675
 30
0.0
 11
2392.494835498383
 21
849.6211245918711
 31
0.0
  0
LINE
  5
131F3
330
1316E
100
AcDbEntity
  8
細線
 48
50.0
100
AcDbLine
 10
2667.492027187753
 20
1328.746124591871
 30
0.0
 11
2682.753068988434
 21
1293.746124591871
 31
0.0
  0
LINE
  5
131F4
330
1316E
100
AcDbEntity
  8
細線
 48
50.0
100
AcDbLine
 10
2527.492027187753
 20
1328.746124591869
 30
0.0
 11
2542.753068988434
 21
1293.746124591871
 31
0.0
  0
LINE
  5
131F5
330
1316E
100
AcDbEntity
  8
細線
 48
50.0
100
AcDbLine
 10
2807.492027187753
 20
1328.746124591869
 30
0.0
 11
2822.753068988433
 21
1293.746124591869
 31
0.0
  0
LINE
  5
131F6
330
1316E
100
AcDbEntity
  8
細線
 48
50.0
100
AcDbLine
 10
2864.396217237129
 20
1503.746124591869
 30
0.0
 11
2689.396217237129
 21
1678.746124591869
 31
0.0
  0
LINE
  5
131F7
330
1316E
100
AcDbEntity
  8
細線
 48
50.0
100
AcDbLine
 10
2834.697732427292
 20
1503.746124591869
 30
0.0
 11
2659.697732427292
 21
1678.746124591869
 31
0.0
  0
LINE
  5
131F8
330
1316E
100
AcDbEntity
  8
細線
 48
50.0
100
AcDbLine
 10
2468.416419772661
 20
1503.746124591869
 30
0.0
 11
2293.416419772661
 21
1678.746124591869
 31
0.0
  0
LINE
  5
131F9
330
1316E
100
AcDbEntity
  8
細線
 48
50.0
100
AcDbLine
 10
2438.717934962824
 20
1503.746124591869
 30
0.0
 11
2263.717934962824
 21
1678.746124591869
 31
0.0
  0
LINE
  5
131FA
330
1316E
100
AcDbEntity
  8
細線
 48
50.0
100
AcDbLine
 10
2498.114904582497
 20
1503.746124591869
 30
0.0
 11
2323.11490458249
 21
1678.746124591869
 31
0.0
  0
LINE
  5
131FB
330
1316E
100
AcDbEntity
  8
細線
 48
50.0
100
AcDbLine
 10
2563.186818184335
 20
1503.746124591869
 30
0.0
 11
2578.447859985015
 21
1468.746124591871
 31
0.0
  0
LINE
  5
131FC
330
1316E
100
AcDbEntity
  8
細線
 48
50.0
100
AcDbLine
 10
2843.186818184335
 20
1503.746124591867
 30
0.0
 11
2858.447859985016
 21
1468.746124591869
 31
0.0
  0
LINE
  5
131FD
330
1316E
100
AcDbEntity
  8
細線
 48
50.0
100
AcDbLine
 10
2873.447432872494
 20
1524.393393766335
 30
0.0
 11
2719.094702046958
 21
1678.746124591869
 31
0.0
  0
LINE
  5
131FE
330
1316E
100
AcDbEntity
  8
細線
 48
50.0
100
AcDbLine
 10
2703.186818184335
 20
1503.746124591871
 30
0.0
 11
2718.447859985023
 21
1468.746124591871
 31
0.0
  0
LINE
  5
131FF
330
1316E
100
AcDbEntity
  8
文字
 48
50.0
100
AcDbLine
 10
3250.576982802555
 20
1787.647925716179
 30
0.0
 11
3136.158286360664
 21
1756.989528405553
 31
0.0
  0
LINE
  5
13200
330
1316E
100
AcDbEntity
  8
文字
 48
50.0
100
AcDbLine
 10
3250.576982802555
 20
1787.647925716179
 30
0.0
 11
3136.158286360664
 21
1818.306323026805
 31
0.0
  0
ENDBLK
  5
13202
330
1316E
100
AcDbEntity
  8
0
 48
50.0
100
AcDbBlockEnd
  0
BLOCK
  5
137AA
330
137A0
100
AcDbEntity
  8
0
 48
50.0
100
AcDbBlockBegin
  2
*D40
 70
     1
 10
0.0
 20
0.0
 30
0.0
  3
*D40
  1

  0
LINE
  5
137F7
330
137A0
100
AcDbEntity
  8
寸法
 62
     0
 48
50.0
370
    -2
100
AcDbLine
 10
7516.834122857979
 20
1176.065215385921
 30
0.0
 11
7516.834122857979
 21
807.9441030093548
 31
0.0
  0
LINE
  5
137F8
330
137A0
100
AcDbEntity
  8
寸法
 62
     0
 48
50.0
370
    -2
100
AcDbLine
 10
8916.834122857979
 20
1176.065215385921
 30
0.0
 11
8916.834122857979
 21
807.9441030093548
 31
0.0
  0
LINE
  5
137F9
330
137A0
100
AcDbEntity
  8
寸法
 62
     0
 48
50.0
370
    -2
100
AcDbLine
 10
7516.834122857979
 20
867.9441030093549
 30
0.0
 11
8916.834122857979
 21
867.9441030093549
 31
0.0
  0
INSERT
  5
137FA
330
137A0
100
AcDbEntity
  8
寸法
 62
     0
 48
50.0
370
    -2
100
AcDbBlockReference
  2
_DOTSMALL
 10
7516.834122857979
 20
867.9441030093549
 30
0.0
 41
100.0
 42
100.0
 43
100.0
 50
180.0
  0
INSERT
  5
137FB
330
137A0
100
AcDbEntity
  8
寸法
 62
     0
 48
50.0
370
    -2
100
AcDbBlockReference
  2
_DOTSMALL
 10
8916.834122857979
 20
867.9441030093549
 30
0.0
 41
100.0
 42
100.0
 43
100.0
  0
MTEXT
  5
137FC
330
137A0
100
AcDbEntity
  8
寸法
 62
     7
 48
50.0
100
AcDbMText
 10
8216.83412285798
 20
967.9441030093549
 30
0.0
 40
120.0
 41
0.0
 71
     5
 72
     1
  1
\A1;700
  7
STYLE1
 73
     1
 44
1.0
1001
ACAD
1000
MTEXTBEGIN
1070
    73
1070
     1
1070
    44
1040
1.0
1070
    74
1070
     0
1000
MTEXTEND
  0
POINT
  5
137FD
330
137A0
100
AcDbEntity
  8
DEFPOINTS
 62
     0
 48
50.0
100
AcDbPoint
 10
7516.834122857979
 20
1196.065215385921
 30
0.0
  0
POINT
  5
137FE
330
137A0
100
AcDbEntity
  8
DEFPOINTS
 62
     0
 48
50.0
100
AcDbPoint
 10
8916.834122857979
 20
1196.065215385921
 30
0.0
  0
POINT
  5
137FF
330
137A0
100
AcDbEntity
  8
DEFPOINTS
 62
     0
 48
50.0
100
AcDbPoint
 10
8916.834122857979
 20
867.9441030093549
 30
0.0
  0
ENDBLK
  5
137AB
330
137A0
100
AcDbEntity
  8
0
 48
50.0
100
AcDbBlockEnd
  0
BLOCK
  5
137B6
330
137AC
100
AcDbEntity
  8
0
 48
50.0
100
AcDbBlockBegin
  2
*D41
 70
     1
 10
0.0
 20
0.0
 30
0.0
  3
*D41
  1

  0
LINE
  5
13800
330
137AC
100
AcDbEntity
  8
寸法
 62
     0
 48
50.0
370
    -2
100
AcDbLine
 10
7496.834122857979
 20
2306.090215385921
 30
0.0
 11
7225.939971462299
 21
2306.090215385921
 31
0.0
  0
LINE
  5
13801
330
137AC
100
AcDbEntity
  8
寸法
 62
     0
 48
50.0
370
    -2
100
AcDbLine
 10
8133.334122857986
 20
1866.015215385921
 30
0.0
 11
7225.939971462297
 21
1866.015215385921
 31
0.0
  0
LINE
  5
13802
330
137AC
100
AcDbEntity
  8
寸法
 62
     0
 48
50.0
370
    -2
100
AcDbLine
 10
7285.939971462299
 20
2306.090215385921
 30
0.0
 11
7285.939971462298
 21
1866.015215385921
 31
0.0
  0
INSERT
  5
13803
330
137AC
100
AcDbEntity
  8
寸法
 62
     0
 48
50.0
370
    -2
100
AcDbBlockReference
  2
_DOTSMALL
 10
7285.939971462299
 20
2306.090215385921
 30
0.0
 41
100.0
 42
100.0
 43
100.0
 50
90.0
  0
INSERT
  5
13804
330
137AC
100
AcDbEntity
  8
寸法
 62
     0
 48
50.0
370
    -2
100
AcDbBlockReference
  2
_DOTSMALL
 10
7285.939971462298
 20
1866.015215385921
 30
0.0
 41
100.0
 42
100.0
 43
100.0
 50
270.0
  0
MTEXT
  5
13805
330
137AC
100
AcDbEntity
  8
寸法
 62
     7
 48
50.0
100
AcDbMText
 10
7185.928160438677
 20
2086.052715385923
 30
0.0
 40
120.0
 41
0.0
 71
     5
 72
     1
  1
\A1;220
  7
STYLE1
 11
0.0000000000000001
 21
1.0
 31
0.0
 73
     1
 44
1.0
1001
ACAD
1000
MTEXTBEGIN
1070
    73
1070
     1
1070
    44
1040
1.0
1070
    74
1070
     0
1000
MTEXTEND
  0
POINT
  5
13806
330
137AC
100
AcDbEntity
  8
DEFPOINTS
 62
     0
 48
50.0
100
AcDbPoint
 10
7516.834122857979
 20
2306.090215385921
 30
0.0
  0
POINT
  5
13807
330
137AC
100
AcDbEntity
  8
DEFPOINTS
 62
     0
 48
50.0
100
AcDbPoint
 10
8153.334122857987
 20
1866.015215385921
 30
0.0
  0
POINT
  5
13808
330
137AC
100
AcDbEntity
  8
DEFPOINTS
 62
     0
 48
50.0
100
AcDbPoint
 10
7285.939971462298
 20
1866.015215385921
 30
0.0
  0
ENDBLK
  5
137B7
330
137AC
100
AcDbEntity
  8
0
 48
50.0
100
AcDbBlockEnd
  0
BLOCK
  5
137C2
330
137B8
100
AcDbEntity
  8
0
 48
50.0
100
AcDbBlockBegin
  2
*D42
 70
     1
 10
0.0
 20
0.0
 30
0.0
  3
*D42
  1

  0
LINE
  5
13809
330
137B8
100
AcDbEntity
  8
寸法
 62
     0
 48
50.0
370
    -2
100
AcDbLine
 10
7794.334122857981
 20
2405.965215385921
 30
0.0
 11
7004.024205957946
 21
2405.965215385922
 31
0.0
  0
LINE
  5
1380A
330
137B8
100
AcDbEntity
  8
寸法
 62
     0
 48
50.0
370
    -2
100
AcDbLine
 10
7366.415342356841
 20
1505.965215385921
 30
0.0
 11
7004.024205957946
 21
1505.965215385921
 31
0.0
  0
LINE
  5
1380B
330
137B8
100
AcDbEntity
  8
寸法
 62
     0
 48
50.0
370
    -2
100
AcDbLine
 10
7064.024205957946
 20
2405.965215385922
 30
0.0
 11
7064.024205957945
 21
1505.965215385921
 31
0.0
  0
INSERT
  5
1380C
330
137B8
100
AcDbEntity
  8
寸法
 62
     0
 48
50.0
370
    -2
100
AcDbBlockReference
  2
_DOTSMALL
 10
7064.024205957946
 20
2405.965215385922
 30
0.0
 41
100.0
 42
100.0
 43
100.0
 50
90.0
  0
INSERT
  5
1380D
330
137B8
100
AcDbEntity
  8
寸法
 62
     0
 48
50.0
370
    -2
100
AcDbBlockReference
  2
_DOTSMALL
 10
7064.024205957945
 20
1505.965215385921
 30
0.0
 41
100.0
 42
100.0
 43
100.0
 50
270.0
  0
MTEXT
  5
1380E
330
137B8
100
AcDbEntity
  8
寸法
 62
     7
 48
50.0
100
AcDbMText
 10
6964.024205957945
 20
1955.965215385922
 30
0.0
 40
120.0
 41
0.0
 71
     5
 72
     1
  1
\A1;450
  7
STYLE1
 11
0.0000000000000001
 21
1.0
 31
0.0
 73
     1
 44
1.0
1001
ACAD
1000
MTEXTBEGIN
1070
    73
1070
     1
1070
    44
1040
1.0
1070
    74
1070
     0
1000
MTEXTEND
  0
POINT
  5
1380F
330
137B8
100
AcDbEntity
  8
DEFPOINTS
 62
     0
 48
50.0
100
AcDbPoint
 10
7814.334122857982
 20
2405.965215385921
 30
0.0
  0
POINT
  5
13810
330
137B8
100
AcDbEntity
  8
DEFPOINTS
 62
     0
 48
50.0
100
AcDbPoint
 10
7386.415342356841
 20
1505.965215385921
 30
0.0
  0
POINT
  5
13811
330
137B8
100
AcDbEntity
  8
DEFPOINTS
 62
     0
 48
50.0
100
AcDbPoint
 10
7064.024205957945
 20
1505.965215385921
 30
0.0
  0
ENDBLK
  5
137C3
330
137B8
100
AcDbEntity
  8
0
 48
50.0
100
AcDbBlockEnd
  0
BLOCK
  5
137D0
330
137C4
100
AcDbEntity
  8
0
 48
50.0
100
AcDbBlockBegin
  2
*D43
 70
     1
 10
0.0
 20
0.0
 30
0.0
  3
*D43
  1

  0
LINE
  5
13812
330
137C4
100
AcDbEntity
  8
寸法
 62
     0
 48
50.0
370
    -2
100
AcDbLine
 10
7366.415342356834
 20
1505.965215385921
 30
0.0
 11
7004.024205957946
 21
1505.965215385921
 31
0.0
  0
LINE
  5
13813
330
137C4
100
AcDbEntity
  8
寸法
 62
     0
 48
50.0
370
    -2
100
AcDbLine
 10
7366.415342356835
 20
1406.065215385921
 30
0.0
 11
7004.024205957946
 21
1406.065215385921
 31
0.0
  0
LINE
  5
13814
330
137C4
100
AcDbEntity
  8
寸法
 62
     0
 48
50.0
370
    -2
100
AcDbLine
 10
7064.024205957945
 20
1505.965215385921
 30
0.0
 11
7064.024205957945
 21
1605.965215385921
 31
0.0
  0
LINE
  5
13815
330
137C4
100
AcDbEntity
  8
寸法
 62
     0
 48
50.0
370
    -2
100
AcDbLine
 10
7064.024205957945
 20
1406.065215385921
 30
0.0
 11
7064.024205957945
 21
1306.065215385921
 31
0.0
  0
LINE
  5
13816
330
137C4
100
AcDbEntity
  8
寸法
 62
     0
 48
50.0
370
    -2
100
AcDbLine
 10
7064.024205957945
 20
1505.965215385921
 30
0.0
 11
7064.024205957945
 21
1406.065215385921
 31
0.0
  0
INSERT
  5
13817
330
137C4
100
AcDbEntity
  8
寸法
 62
     0
 48
50.0
370
    -2
100
AcDbBlockReference
  2
_DOTSMALL
 10
7064.024205957945
 20
1505.965215385921
 30
0.0
 41
100.0
 42
100.0
 43
100.0
 50
270.0
  0
INSERT
  5
13818
330
137C4
100
AcDbEntity
  8
寸法
 62
     0
 48
50.0
370
    -2
100
AcDbBlockReference
  2
_DOTSMALL
 10
7064.024205957945
 20
1406.065215385921
 30
0.0
 41
100.0
 42
100.0
 43
100.0
 50
90.0
  0
MTEXT
  5
13819
330
137C4
100
AcDbEntity
  8
寸法
 62
     7
 48
50.0
100
AcDbMText
 10
6964.024205957945
 20
1456.015215385922
 30
0.0
 40
120.0
 41
0.0
 71
     5
 72
     1
  1
\A1;50
  7
STYLE1
 11
0.0000000000000001
 21
1.0
 31
0.0
 73
     1
 44
1.0
1001
ACAD
1000
MTEXTBEGIN
1070
    73
1070
     1
1070
    44
1040
1.0
1070
    74
1070
     0
1000
MTEXTEND
  0
POINT
  5
1381A
330
137C4
100
AcDbEntity
  8
DEFPOINTS
 62
     0
 48
50.0
100
AcDbPoint
 10
7386.415342356833
 20
1505.965215385921
 30
0.0
  0
POINT
  5
1381B
330
137C4
100
AcDbEntity
  8
DEFPOINTS
 62
     0
 48
50.0
100
AcDbPoint
 10
7386.415342356835
 20
1406.065215385921
 30
0.0
  0
POINT
  5
1381C
330
137C4
100
AcDbEntity
  8
DEFPOINTS
 62
     0
 48
50.0
100
AcDbPoint
 10
7064.024205957945
 20
1406.065215385921
 30
0.0
  0
ENDBLK
  5
137D1
330
137C4
100
AcDbEntity
  8
0
 48
50.0
100
AcDbBlockEnd
  0
BLOCK
  5
137DC
330
137D2
100
AcDbEntity
  8
0
 48
50.0
100
AcDbBlockBegin
  2
*D44
 70
     1
 10
0.0
 20
0.0
 30
0.0
  3
*D44
  1

  0
LINE
  5
1381D
330
137D2
100
AcDbEntity
  8
寸法
 62
     0
 48
50.0
370
    -2
100
AcDbLine
 10
8133.334122857986
 20
1866.015215385921
 30
0.0
 11
7225.939971462297
 21
1866.015215385921
 31
0.0
  0
LINE
  5
1381E
330
137D2
100
AcDbEntity
  8
寸法
 62
     0
 48
50.0
370
    -2
100
AcDbLine
 10
7366.415342356841
 20
1505.965215385921
 30
0.0
 11
7225.939971462297
 21
1505.965215385921
 31
0.0
  0
LINE
  5
1381F
330
137D2
100
AcDbEntity
  8
寸法
 62
     0
 48
50.0
370
    -2
100
AcDbLine
 10
7285.939971462298
 20
1866.015215385921
 30
0.0
 11
7285.939971462298
 21
1505.965215385921
 31
0.0
  0
INSERT
  5
13820
330
137D2
100
AcDbEntity
  8
寸法
 62
     0
 48
50.0
370
    -2
100
AcDbBlockReference
  2
_DOTSMALL
 10
7285.939971462298
 20
1866.015215385921
 30
0.0
 41
100.0
 42
100.0
 43
100.0
 50
90.0
  0
INSERT
  5
13821
330
137D2
100
AcDbEntity
  8
寸法
 62
     0
 48
50.0
370
    -2
100
AcDbBlockReference
  2
_DOTSMALL
 10
7285.939971462298
 20
1505.965215385921
 30
0.0
 41
100.0
 42
100.0
 43
100.0
 50
270.0
  0
MTEXT
  5
13822
330
137D2
100
AcDbEntity
  8
寸法
 62
     7
 48
50.0
100
AcDbMText
 10
7185.939971462298
 20
1687.090215385921
 30
0.0
 40
120.0
 41
0.0
 71
     5
 72
     1
  1
\A1;180
  7
STYLE1
 11
0.0000000000000001
 21
1.0
 31
0.0
 73
     1
 44
1.0
1001
ACAD
1000
MTEXTBEGIN
1070
    73
1070
     1
1070
    44
1040
1.0
1070
    74
1070
     0
1000
MTEXTEND
  0
POINT
  5
13823
330
137D2
100
AcDbEntity
  8
DEFPOINTS
 62
     0
 48
50.0
100
AcDbPoint
 10
8153.334122857987
 20
1866.015215385921
 30
0.0
  0
POINT
  5
13824
330
137D2
100
AcDbEntity
  8
DEFPOINTS
 62
     0
 48
50.0
100
AcDbPoint
 10
7386.415342356841
 20
1505.965215385921
 30
0.0
  0
POINT
  5
13825
330
137D2
100
AcDbEntity
  8
DEFPOINTS
 62
     0
 48
50.0
100
AcDbPoint
 10
7285.939971462298
 20
1505.965215385921
 30
0.0
  0
ENDBLK
  5
137DD
330
137D2
100
AcDbEntity
  8
0
 48
50.0
100
AcDbBlockEnd
  0
BLOCK
  5
137E9
330
137DE
100
AcDbEntity
  8
0
 48
50.0
100
AcDbBlockBegin
  2
*D45
 70
     1
 10
0.0
 20
0.0
 30
0.0
  3
*D45
  1

  0
LINE
  5
13826
330
137DE
100
AcDbEntity
  8
寸法
 62
     0
 48
50.0
370
    -2
100
AcDbLine
 10
7794.334122857981
 20
2405.965215385921
 30
0.0
 11
7004.024205957946
 21
2405.965215385922
 31
0.0
  0
LINE
  5
13827
330
137DE
100
AcDbEntity
  8
寸法
 62
     0
 48
50.0
370
    -2
100
AcDbLine
 10
7843.209122857981
 20
2505.965215385921
 30
0.0
 11
7004.024205957946
 21
2505.965215385922
 31
0.0
  0
LINE
  5
13828
330
137DE
100
AcDbEntity
  8
寸法
 62
     0
 48
50.0
370
    -2
100
AcDbLine
 10
7064.024205957946
 20
2405.965215385922
 30
0.0
 11
7064.024205957946
 21
2505.965215385922
 31
0.0
  0
LINE
  5
13829
330
137DE
100
AcDbEntity
  8
寸法
 62
     0
 48
50.0
370
    -2
100
AcDbLine
 10
7064.024205957946
 20
2505.965215385922
 30
0.0
 11
7064.024205957946
 21
2913.870727196945
 31
0.0
  0
INSERT
  5
1382A
330
137DE
100
AcDbEntity
  8
寸法
 62
     0
 48
50.0
370
    -2
100
AcDbBlockReference
  2
_DOTSMALL
 10
7064.024205957946
 20
2405.965215385922
 30
0.0
 41
100.0
 42
100.0
 43
100.0
 50
270.0
  0
INSERT
  5
1382B
330
137DE
100
AcDbEntity
  8
寸法
 62
     0
 48
50.0
370
    -2
100
AcDbBlockReference
  2
_DOTSMALL
 10
7064.024205957946
 20
2505.965215385922
 30
0.0
 41
100.0
 42
100.0
 43
100.0
 50
90.0
  0
MTEXT
  5
1382C
330
137DE
100
AcDbEntity
  8
寸法
 62
     7
 48
50.0
100
AcDbMText
 10
6958.024205957944
 20
2759.917971291435
 30
0.0
 40
120.0
 41
0.0
 71
     5
 72
     1
  1
\A1;(50)
  7
STYLE1
 11
0.0000000000000001
 21
1.0
 31
0.0
 73
     1
 44
1.0
1001
ACAD
1000
MTEXTBEGIN
1070
    73
1070
     1
1070
    44
1040
1.0
1070
    74
1070
     0
1000
MTEXTEND
  0
POINT
  5
1382D
330
137DE
100
AcDbEntity
  8
DEFPOINTS
 62
     0
 48
50.0
100
AcDbPoint
 10
7814.334122857982
 20
2405.965215385921
 30
0.0
  0
POINT
  5
1382E
330
137DE
100
AcDbEntity
  8
DEFPOINTS
 62
     0
 48
50.0
100
AcDbPoint
 10
7863.209122857981
 20
2505.965215385921
 30
0.0
  0
POINT
  5
1382F
330
137DE
100
AcDbEntity
  8
DEFPOINTS
 62
     0
 48
50.0
100
AcDbPoint
 10
7064.024205957946
 20
2505.965215385922
 30
0.0
  0
ENDBLK
  5
137EA
330
137DE
100
AcDbEntity
  8
0
 48
50.0
100
AcDbBlockEnd
  0
BLOCK
  5
137F5
330
137EB
100
AcDbEntity
  8
0
 48
50.0
100
AcDbBlockBegin
  2
*D46
 70
     1
 10
0.0
 20
0.0
 30
0.0
  3
*D46
  1

  0
LINE
  5
13830
330
137EB
100
AcDbEntity
  8
寸法
 62
     0
 48
50.0
370
    -2
100
AcDbLine
 10
7794.334122857981
 20
2405.965215385921
 30
0.0
 11
7225.939971462299
 21
2405.965215385921
 31
0.0
  0
LINE
  5
13831
330
137EB
100
AcDbEntity
  8
寸法
 62
     0
 48
50.0
370
    -2
100
AcDbLine
 10
7496.834122857977
 20
2306.090215385921
 30
0.0
 11
7225.939971462299
 21
2306.090215385921
 31
0.0
  0
LINE
  5
13832
330
137EB
100
AcDbEntity
  8
寸法
 62
     0
 48
50.0
370
    -2
100
AcDbLine
 10
7285.939971462299
 20
2405.965215385921
 30
0.0
 11
7285.939971462299
 21
2306.090215385921
 31
0.0
  0
INSERT
  5
13833
330
137EB
100
AcDbEntity
  8
寸法
 62
     0
 48
50.0
370
    -2
100
AcDbBlockReference
  2
_DOTSMALL
 10
7285.939971462299
 20
2405.965215385921
 30
0.0
 41
100.0
 42
100.0
 43
100.0
 50
90.0
  0
INSERT
  5
13834
330
137EB
100
AcDbEntity
  8
寸法
 62
     0
 48
50.0
370
    -2
100
AcDbBlockReference
  2
_DOTSMALL
 10
7285.939971462299
 20
2306.090215385921
 30
0.0
 41
100.0
 42
100.0
 43
100.0
 50
270.0
  0
MTEXT
  5
13835
330
137EB
100
AcDbEntity
  8
寸法
 62
     7
 48
50.0
100
AcDbMText
 10
7185.939971462298
 20
2356.027715385923
 30
0.0
 40
120.0
 41
0.0
 71
     5
 72
     1
  1
\A1;50
  7
STYLE1
 11
0.0000000000000001
 21
1.0
 31
0.0
 73
     1
 44
1.0
1001
ACAD
1000
MTEXTBEGIN
1070
    73
1070
     1
1070
    44
1040
1.0
1070
    74
1070
     0
1000
MTEXTEND
  0
POINT
  5
13836
330
137EB
100
AcDbEntity
  8
DEFPOINTS
 62
     0
 48
50.0
100
AcDbPoint
 10
7814.334122857982
 20
2405.965215385921
 30
0.0
  0
POINT
  5
13837
330
137EB
100
AcDbEntity
  8
DEFPOINTS
 62
     0
 48
50.0
100
AcDbPoint
 10
7516.834122857978
 20
2306.090215385921
 30
0.0
  0
POINT
  5
13838
330
137EB
100
AcDbEntity
  8
DEFPOINTS
 62
     0
 48
50.0
100
AcDbPoint
 10
7285.939971462299
 20
2306.090215385921
 30
0.0
  0
ENDBLK
  5
137F6
330
137EB
100
AcDbEntity
  8
0
 48
50.0
100
AcDbBlockEnd
  0
ENDSEC
  0
SECTION
  2
ENTITIES
  0
LINE
  5
10B56
330
747D
100
AcDbEntity
  8
補助
  6
PHANTOM
 62
   230
 48
50.0
100
AcDbLine
 10
140.0
 20
0.0
 30
0.0
 11
139.9999999999995
 21
11409.6
 31
0.0
  0
LINE
  5
10B57
330
747D
100
AcDbEntity
  8
補助
  6
PHANTOM
 62
   230
 48
50.0
100
AcDbLine
 10
139.9999999999995
 20
11409.6
 30
0.0
 11
16307.2
 21
11409.6
 31
0.0
  0
LINE
  5
10B59
330
747D
100
AcDbEntity
  8
仕様書枠
  6
Continuous
 48
50.0
100
AcDbLine
 10
13107.2
 20
1200.0
 30
0.0
 11
13107.2
 21
-0.0000000000000729
 31
0.0
  0
LINE
  5
10B5C
330
747D
100
AcDbEntity
  8
仕様書枠
 48
50.0
100
AcDbLine
 10
16307.2
 20
1200.0
 30
0.0
 11
16307.2
 21
-0.0000000000000909
 31
0.0
  0
LINE
  5
10B5D
330
747D
100
AcDbEntity
  8
仕様書枠
 48
50.0
100
AcDbLine
 10
140.0
 20
0.0
 30
0.0
 11
16307.2
 21
-0.0000000000000909
 31
0.0
  0
LINE
  5
10B5E
330
747D
100
AcDbEntity
  8
補助
  6
PHANTOM
 62
   230
 48
50.0
100
AcDbLine
 10
16307.2
 20
11409.6
 30
0.0
 11
16307.2
 21
1200.0
 31
0.0
  0
LINE
  5
10B6C
330
747D
100
AcDbEntity
  8
仕様書枠
 48
50.0
100
AcDbLine
 10
13107.2
 20
1200.0
 30
0.0
 11
16307.2
 21
1200.0
 31
0.0
  0
LINE
  5
10B72
330
747D
100
AcDbEntity
  8
文字
 62
     7
 48
50.0
100
AcDbLine
 10
13187.2
 20
400.0
 30
0.0
 11
16227.2
 21
400.0
 31
0.0
  0
TEXT
  5
10B73
330
747D
100
AcDbEntity
  8
文字
 48
50.0
100
AcDbText
 10
13162.9790565769
 20
895.0906074299405
 30
0.0
 40
200.0
  1
基 礎 図
  7
STYLE2
100
AcDbText
  0
TEXT
  5
10B74
330
747D
100
AcDbEntity
  8
文字
 48
50.0
100
AcDbText
 10
13201.43669998441
 20
477.2740661031255
 30
0.0
 40
160.0
  1
機種名
  7
STYLE2
100
AcDbText
  0
TEXT
  5
10B75
330
747D
100
AcDbEntity
  8
文字
 48
50.0
100
AcDbText
 10
13209.4053442172
 20
228.5435242569016
 30
0.0
 40
100.0
  1
○間口奥行寸法は柱芯寸法です。
  7
STYLE2
100
AcDbText
  0
LINE
  5
10B7B
330
747D
100
AcDbEntity
  8
仕様書枠
 48
50.0
100
AcDbLine
 10
13107.2
 20
800.0
 30
0.0
 11
14251.2
 21
800.0
 31
0.0
  0
LINE
  5
10B88
330
747D
100
AcDbEntity
  8
仕様書枠
  6
Continuous
 48
50.0
100
AcDbLine
 10
14251.2
 20
1200.0
 30
0.0
 11
14251.2
 21
800.0
 31
0.0
  0
TEXT
  5
10EA8
330
747D
100
AcDbEntity
  8
文字
 48
50.0
100
AcDbText
 10
14654.95645840324
 20
838.2527270729188
 30
0.0
 40
100.0
  1
～一般型・多雪地型～
  7
STYLE2
100
AcDbText
  0
LINE
  5
11794
330
747D
100
AcDbEntity
  8
点線
 48
50.0
100
AcDbLine
 10
6623.6
 20
4959.785662218298
 30
0.0
 11
9823.6
 21
4959.785662218298
 31
0.0
  0
LINE
  5
11795
330
747D
100
AcDbEntity
  8
点線
 48
50.0
100
AcDbLine
 10
9823.6
 20
4959.785662218298
 30
0.0
 11
9823.6
 21
7729.785662218297
 31
0.0
  0
LINE
  5
11796
330
747D
100
AcDbEntity
  8
点線
 48
50.0
100
AcDbLine
 10
9823.6
 20
7729.785662218297
 30
0.0
 11
6623.6
 21
7729.785662218297
 31
0.0
  0
LINE
  5
1179E
330
747D
100
AcDbEntity
  8
センター
 48
50.0
100
AcDbLine
 10
6573.6
 20
5879.785662218298
 30
0.0
 11
7073.6
 21
5879.785662218297
 31
0.0
  0
LINE
  5
117A1
330
747D
100
AcDbEntity
  8
センター
 48
50.0
100
AcDbLine
 10
6573.6
 20
7529.785662218298
 30
0.0
 11
7073.6
 21
7529.785662218298
 31
0.0
  0
LINE
  5
117A5
330
747D
100
AcDbEntity
  8
センター
 48
50.0
100
AcDbLine
 10
9623.600000000001
 20
5629.785662218298
 30
0.0
 11
9623.600000000001
 21
6129.785662218299
 31
0.0
  0
LINE
  5
117CC
330
747D
100
AcDbEntity
  8
文字
 48
50.0
100
AcDbLine
 10
6853.6
 20
7559.785662218295
 30
0.0
 11
6853.6
 21
7499.785662218295
 31
0.0
  0
LINE
  5
117CD
330
747D
100
AcDbEntity
  8
文字
 48
50.0
100
AcDbLine
 10
6793.600000000001
 20
7559.785662218295
 30
0.0
 11
6793.600000000001
 21
7499.785662218295
 31
0.0
  0
LINE
  5
117CE
330
747D
100
AcDbEntity
  8
文字
 48
50.0
100
AcDbLine
 10
6853.6
 20
7499.785662218295
 30
0.0
 11
6793.600000000001
 21
7499.785662218295
 31
0.0
  0
LINE
  5
117CF
330
747D
100
AcDbEntity
  8
文字
 48
50.0
100
AcDbLine
 10
6853.6
 20
7559.785662218295
 30
0.0
 11
6793.600000000001
 21
7559.785662218295
 31
0.0
  0
LINE
  5
117D0
330
747D
100
AcDbEntity
  8
文字
 48
50.0
100
AcDbLine
 10
9653.6
 20
7559.785662218297
 30
0.0
 11
9653.6
 21
7499.785662218295
 31
0.0
  0
LINE
  5
117D1
330
747D
100
AcDbEntity
  8
文字
 48
50.0
100
AcDbLine
 10
9593.6
 20
7559.785662218297
 30
0.0
 11
9593.6
 21
7499.785662218295
 31
0.0
  0
LINE
  5
117D2
330
747D
100
AcDbEntity
  8
文字
 48
50.0
100
AcDbLine
 10
9653.6
 20
7499.785662218295
 30
0.0
 11
9593.6
 21
7499.785662218295
 31
0.0
  0
LINE
  5
117D3
330
747D
100
AcDbEntity
  8
文字
 48
50.0
100
AcDbLine
 10
9653.6
 20
7559.785662218295
 30
0.0
 11
9593.6
 21
7559.785662218295
 31
0.0
  0
LINE
  5
117D4
330
747D
100
AcDbEntity
  8
文字
 48
50.0
100
AcDbLine
 10
6853.6
 20
5909.785662218297
 30
0.0
 11
6853.6
 21
5849.785662218295
 31
0.0
  0
LINE
  5
117D5
330
747D
100
AcDbEntity
  8
文字
 48
50.0
100
AcDbLine
 10
6793.600000000001
 20
5909.785662218297
 30
0.0
 11
6793.600000000001
 21
5849.785662218295
 31
0.0
  0
LINE
  5
117D6
330
747D
100
AcDbEntity
  8
文字
 48
50.0
100
AcDbLine
 10
6853.6
 20
5849.785662218295
 30
0.0
 11
6793.600000000001
 21
5849.785662218295
 31
0.0
  0
LINE
  5
117D7
330
747D
100
AcDbEntity
  8
文字
 48
50.0
100
AcDbLine
 10
6853.6
 20
5909.785662218297
 30
0.0
 11
6793.600000000001
 21
5909.785662218297
 31
0.0
  0
LINE
  5
117D8
330
747D
100
AcDbEntity
  8
文字
 48
50.0
100
AcDbLine
 10
9653.6
 20
5909.785662218297
 30
0.0
 11
9653.6
 21
5849.785662218295
 31
0.0
  0
LINE
  5
117D9
330
747D
100
AcDbEntity
  8
文字
 48
50.0
100
AcDbLine
 10
9593.6
 20
5909.785662218297
 30
0.0
 11
9593.6
 21
5849.785662218295
 31
0.0
  0
LINE
  5
117DA
330
747D
100
AcDbEntity
  8
文字
 48
50.0
100
AcDbLine
 10
9653.6
 20
5849.785662218295
 30
0.0
 11
9593.6
 21
5849.785662218295
 31
0.0
  0
LINE
  5
117DB
330
747D
100
AcDbEntity
  8
文字
 48
50.0
100
AcDbLine
 10
9653.6
 20
5909.785662218297
 30
0.0
 11
9593.6
 21
5909.785662218297
 31
0.0
  0
LINE
  5
117F2
330
747D
100
AcDbEntity
  8
センター
 48
50.0
100
AcDbLine
 10
6823.6
 20
7779.785662218298
 30
0.0
 11
6823.6
 21
7279.785662218298
 31
0.0
  0
LINE
  5
117F3
330
747D
100
AcDbEntity
  8
センター
 48
50.0
100
AcDbLine
 10
9373.599999999999
 20
7529.785662218298
 30
0.0
 11
9873.600000000001
 21
7529.785662218298
 31
0.0
  0
LINE
  5
117F4
330
747D
100
AcDbEntity
  8
センター
 48
50.0
100
AcDbLine
 10
6823.6
 20
6129.785662218297
 30
0.0
 11
6823.6
 21
5629.785662218297
 31
0.0
  0
LINE
  5
117F5
330
747D
100
AcDbEntity
  8
センター
 48
50.0
100
AcDbLine
 10
9623.600000000003
 20
7279.785662218298
 30
0.0
 11
9623.600000000003
 21
7779.785662218298
 31
0.0
  0
LINE
  5
117F6
330
747D
100
AcDbEntity
  8
センター
 48
50.0
100
AcDbLine
 10
9373.600000000001
 20
5879.785662218298
 30
0.0
 11
9873.600000000001
 21
5879.785662218297
 31
0.0
  0
DIMENSION
  5
11886
330
747D
100
AcDbEntity
  8
寸法
 48
50.0
100
AcDbDimension
  2
*D2
 10
6181.105727429235
 20
7529.785662218298
 30
0.0
 11
6181.105727429234
 21
7979.356528360032
 31
0.0
 70
   160
 71
     5
 42
200.0
  3
INABA_S40G
100
AcDbAlignedDimension
 13
6623.6
 23
7729.785662218297
 33
0.0
 14
6573.6
 24
7529.785662218298
 34
0.0
 50
90.0
100
AcDbRotatedDimension
  0
DIMENSION
  5
11892
330
747D
100
AcDbEntity
  8
寸法
 48
50.0
100
AcDbDimension
  2
*D3
 10
6181.105727429234
 20
5879.785662218298
 30
0.0
 11
6081.105727429234
 21
6704.785662218299
 31
0.0
 70
    32
 71
     5
 42
1649.999999999999
  3
INABA_S40G
100
AcDbAlignedDimension
 13
6573.6
 23
7529.785662218298
 33
0.0
 14
6573.6
 24
5879.785662218298
 34
0.0
 50
90.0
100
AcDbRotatedDimension
  0
DIMENSION
  5
1189E
330
747D
100
AcDbEntity
  8
寸法
 48
50.0
100
AcDbDimension
  2
*D4
 10
6181.105727429234
 20
4959.785662218298
 30
0.0
 11
6081.06491486443
 21
5419.785662218298
 31
0.0
 70
    32
 71
     5
 42
920.0000000000009
  3
INABA_S40G
100
AcDbAlignedDimension
 13
6623.6
 23
5879.785662218298
 33
0.0
 14
6623.6
 24
4959.785662218298
 34
0.0
 50
90.0
100
AcDbRotatedDimension
  0
DIMENSION
  5
118AB
330
747D
100
AcDbEntity
  8
寸法
 48
50.0
100
AcDbDimension
  2
*D5
 10
5843.812491819075
 20
4959.785662218298
 30
0.0
 11
5743.800680795453
 21
6344.785662218299
 31
0.0
 70
    32
  1
基礎寸法 <>
 71
     5
 42
2770.0
  3
INABA_S40G
100
AcDbAlignedDimension
 13
6623.6
 23
7729.785662218297
 33
0.0
 14
6623.6
 24
4959.785662218298
 34
0.0
 50
90.0
100
AcDbRotatedDimension
  0
DIMENSION
  5
118B8
330
747D
100
AcDbEntity
  8
寸法
 48
50.0
100
AcDbDimension
  2
*D6
 10
7173.600000000002
 20
6383.680570935904
 30
0.0
 11
6823.600000000002
 21
6483.680570935904
 31
0.0
 70
    32
 71
     5
 42
700.0
  3
INABA_S40G
100
AcDbAlignedDimension
 13
6473.600000000002
 23
6229.785662218298
 33
0.0
 14
7173.600000000002
 24
6229.785662218298
 34
0.0
100
AcDbRotatedDimension
  0
DIMENSION
  5
118C5
330
747D
100
AcDbEntity
  8
寸法
 48
50.0
100
AcDbDimension
  2
*D7
 10
7451.598666593929
 20
5529.785662218298
 30
0.0
 11
7351.598666593928
 21
5879.785662218299
 31
0.0
 70
    32
 71
     5
 42
700.0
  3
INABA_S40G
100
AcDbAlignedDimension
 13
7173.600000000002
 23
6229.785662218298
 33
0.0
 14
7173.600000000002
 24
5529.785662218298
 34
0.0
 50
90.0
100
AcDbRotatedDimension
  0
DIMENSION
  5
118DA
330
747D
100
AcDbEntity
  8
寸法
 48
50.0
100
AcDbDimension
  2
*D8
 10
6823.6
 20
4643.212687273765
 30
0.0
 11
6374.029133858268
 21
4643.212687273765
 31
0.0
 70
   160
 71
     5
 42
200.0
  3
INABA_S40G
100
AcDbAlignedDimension
 13
6623.6
 23
4959.785662218298
 33
0.0
 14
6823.6
 24
5629.785662218297
 34
0.0
100
AcDbRotatedDimension
  0
DIMENSION
  5
118E6
330
747D
100
AcDbEntity
  8
寸法
 48
50.0
100
AcDbDimension
  2
*D9
 10
9623.600000000001
 20
4643.212687273765
 30
0.0
 11
8223.600000000001
 21
4743.224498297386
 31
0.0
 70
    32
 71
     5
 42
2800.0
  3
INABA_S40G
100
AcDbAlignedDimension
 13
6823.6
 23
5629.785662218297
 33
0.0
 14
9623.600000000001
 24
5629.785662218298
 34
0.0
100
AcDbRotatedDimension
  0
DIMENSION
  5
1190F
330
747D
100
AcDbEntity
  8
寸法
 48
50.0
100
AcDbDimension
  2
*D10
 10
9823.6
 20
4643.212687273765
 30
0.0
 11
10073.17086614173
 21
4643.212687273765
 31
0.0
 70
   160
 71
     5
 42
200.0
  3
INABA_S40G
100
AcDbAlignedDimension
 13
9623.600000000001
 23
5629.785662218298
 33
0.0
 14
9823.6
 24
4959.785662218298
 34
0.0
100
AcDbRotatedDimension
  0
DIMENSION
  5
11934
330
747D
100
AcDbEntity
  8
寸法
 48
50.0
100
AcDbDimension
  2
*D11
 10
9823.6
 20
4311.259653382771
 30
0.0
 11
8223.600000000001
 21
4311.259653382771
 31
0.0
 70
   160
  1
基礎寸法 <>
 71
     5
 42
3200.0
  3
INABA_S40G
100
AcDbAlignedDimension
 13
6623.6
 23
4959.785662218298
 33
0.0
 14
9823.6
 24
4959.785662218298
 34
0.0
100
AcDbRotatedDimension
  0
LEADER
  5
11935
330
747D
100
AcDbEntity
  8
寸法
 48
50.0
100
AcDbLeader
  3
INABA_S40G
 73
     0
 74
     0
 75
     1
 40
120.0
 41
144.0
 76
     3
 10
6823.6
 20
5879.785662218297
 30
0.0
 10
7009.567328914769
 20
5293.820296107689
 30
0.0
 10
7109.56732891477
 20
5293.820296107689
 30
0.0
340
11936
  0
MTEXT
  5
11936
102
{ACAD_REACTORS
330
11935
102
}
330
747D
100
AcDbEntity
  8
寸法
 62
     7
 48
50.0
100
AcDbMText
 10
7149.567328914769
 20
5393.82029610769
 30
0.0
 40
120.0
 41
0.0
 71
     4
 72
     1
  1
\A1;柱
  7
STYLE1
 73
     1
 44
1.0
1001
ACAD
1000
MTEXTBEGIN
1070
    73
1070
     1
1070
    44
1040
1.0
1070
    74
1070
     0
1000
MTEXTEND
  0
MTEXT
  5
11B0C
330
747D
100
AcDbEntity
  8
寸法
 62
     7
 48
50.0
100
AcDbMText
 10
7414.577540237196
 20
6767.188671714579
 30
0.0
 40
120.0
 41
0.0
 71
     4
 72
     1
  1
\A1;床コンクリート打コテ押エ
  7
STYLE1
 73
     1
 44
1.0
1001
ACAD
1000
MTEXTBEGIN
1070
    73
1070
     1
1070
    44
1040
1.0
1070
    74
1070
     0
1000
MTEXTEND
  0
LINE
  5
11B10
330
747D
100
AcDbEntity
  8
文字
 48
50.0
100
AcDbLine
 10
8086.733845680306
 20
6564.086171071223
 30
0.0
 11
8086.733845680306
 21
5206.308964879638
 31
0.0
  0
LINE
  5
11B12
330
747D
100
AcDbEntity
  8
文字
 48
50.0
100
AcDbLine
 10
8086.733845680306
 20
5206.308964879638
 30
0.0
 11
8130.53155612406
 21
5369.764245510909
 31
0.0
  0
LINE
  5
11B13
330
747D
100
AcDbEntity
  8
文字
 48
50.0
100
AcDbLine
 10
8086.733845680306
 20
5206.308964879638
 30
0.0
 11
8042.936135236555
 21
5369.764245510909
 31
0.0
  0
MTEXT
  5
11B43
330
747D
100
AcDbEntity
  8
寸法
 62
     7
 48
50.0
100
AcDbMText
 10
7968.172324497117
 20
5428.335893079111
 30
0.0
 40
120.0
 41
0.0
 71
     4
 72
     1
  1
\A1;水勾配１／１００ 
  7
STYLE1
 11
0.0000000000000001
 21
1.0
 31
0.0
 73
     1
 44
1.0
1001
ACAD
1000
MTEXTBEGIN
1070
    73
1070
     1
1070
    44
1040
1.0
1070
    74
1070
     0
1000
MTEXTEND
  0
TEXT
  5
11F11
330
747D
100
AcDbEntity
  8
仕様書枠
 62
     7
 48
50.0
100
AcDbText
 10
14518.37944936722
 20
1031.557706291228
 30
0.0
 40
100.0
  1
NO.2     <縮尺> S=1/40
  7
STYLE2
100
AcDbText
  0
LINE
  5
11F1F
330
747D
100
AcDbEntity
  8
点線
 48
50.0
100
AcDbLine
 10
6623.6
 20
7729.785662218297
 30
0.0
 11
6623.6
 21
4959.785662218298
 31
0.0
  0
LINE
  5
11F89
330
747D
100
AcDbEntity
  8
寸法
 48
50.0
100
AcDbLine
 10
6823.6
 20
7979.785662218297
 30
0.0
 11
7247.156384581534
 21
7979.785662218297
 31
0.0
  0
LINE
  5
11F8A
330
747D
100
AcDbEntity
  8
寸法
 48
50.0
100
AcDbLine
 10
7247.156384581534
 20
7979.785662218297
 30
0.0
 11
7067.600766943238
 21
8027.897444960951
 31
0.0
  0
LINE
  5
11F8B
330
747D
100
AcDbEntity
  8
寸法
 48
50.0
100
AcDbLine
 10
7067.600766943238
 20
8027.897444960951
 30
0.0
 11
7067.600766943238
 21
7918.00641342503
 31
0.0
  0
MTEXT
  5
11F8C
330
747D
100
AcDbEntity
  8
寸法
 62
     7
 48
50.0
100
AcDbMText
 10
7323.829604762178
 20
7993.335942926918
 30
0.0
 40
120.0
 41
0.0
 71
     4
 72
     1
  1
A
  7
STYLE1
 73
     1
 44
1.0
1001
ACAD
1000
MTEXTBEGIN
1070
    73
1070
     1
1070
    44
1040
1.0
1070
    74
1070
     0
1000
MTEXTEND
  0
LINE
  5
11F8D
330
747D
100
AcDbEntity
  8
寸法
 48
50.0
100
AcDbLine
 10
6823.6
 20
7079.785662218298
 30
0.0
 11
7247.156384581534
 21
7079.785662218298
 31
0.0
  0
LINE
  5
11F8E
330
747D
100
AcDbEntity
  8
寸法
 48
50.0
100
AcDbLine
 10
7247.156384581534
 20
7079.785662218298
 30
0.0
 11
7067.600766943238
 21
7031.673879475646
 31
0.0
  0
LINE
  5
11F8F
330
747D
100
AcDbEntity
  8
寸法
 48
50.0
100
AcDbLine
 10
7067.600766943238
 20
7031.673879475646
 30
0.0
 11
7067.600766943238
 21
7141.564911011565
 31
0.0
  0
MTEXT
  5
11F90
330
747D
100
AcDbEntity
  8
寸法
 62
     7
 48
50.0
100
AcDbMText
 10
7323.829604762178
 20
7093.33594292692
 30
0.0
 40
120.0
 41
0.0
 71
     4
 72
     1
  1
A'
  7
STYLE1
 73
     1
 44
1.0
1001
ACAD
1000
MTEXTBEGIN
1070
    73
1070
     1
1070
    44
1040
1.0
1070
    74
1070
     0
1000
MTEXTEND
  0
LINE
  5
12295
330
747D
100
AcDbEntity
  8
想像線
 48
50.0
100
AcDbLine
 10
9873.599999999999
 20
5129.785662218296
 30
0.0
 11
9873.600000000003
 21
7829.785662218299
 31
0.0
  0
LINE
  5
122E1
330
747D
100
AcDbEntity
  8
寸法
 48
50.0
100
AcDbLine
 10
6823.6
 20
7279.785662218298
 30
0.0
 11
6823.6
 21
7079.785662218298
 31
0.0
  0
LINE
  5
122E2
330
747D
100
AcDbEntity
  8
寸法
 48
50.0
100
AcDbLine
 10
6823.6
 20
7979.785662218296
 30
0.0
 11
6823.6
 21
7779.785662218298
 31
0.0
  0
DIMENSION
  5
1231E
330
747D
100
AcDbEntity
  8
寸法
 48
50.0
100
AcDbDimension
  2
*D12
 10
10641.88737785239
 20
5129.785662218295
 30
0.0
 11
10541.87556682876
 21
6479.785662218297
 31
0.0
 70
    32
  1
屋根寸法 <>
 71
     5
 42
2700.000000000004
  3
INABA_S40G
100
AcDbAlignedDimension
 13
9873.600000000001
 23
7829.785662218299
 33
0.0
 14
9873.599999999999
 24
5129.785662218296
 34
0.0
 50
90.0
100
AcDbRotatedDimension
  0
DIMENSION
  5
12328
330
747D
100
AcDbEntity
  8
寸法
 48
50.0
100
AcDbDimension
  2
*D13
 10
6823.6
 20
8160.859626484437
 30
0.0
 11
6698.6
 21
8260.871437508059
 31
0.0
 70
    32
 71
     5
 42
250.0000000000009
  3
INABA_S40G
100
AcDbAlignedDimension
 13
6573.599999999998
 23
7829.785662218299
 33
0.0
 14
6823.6
 24
7979.785662218296
 34
0.0
100
AcDbRotatedDimension
  0
DIMENSION
  5
1233D
330
747D
100
AcDbEntity
  8
寸法
 48
50.0
100
AcDbDimension
  2
*D14
 10
9873.600000000001
 20
8160.859626484437
 30
0.0
 11
9748.600000000003
 21
8260.871437508059
 31
0.0
 70
    32
 71
     5
 42
249.9999999999982
  3
INABA_S40G
100
AcDbAlignedDimension
 13
9623.600000000003
 23
7779.785662218298
 33
0.0
 14
9873.600000000001
 24
7829.785662218299
 34
0.0
100
AcDbRotatedDimension
  0
DIMENSION
  5
12469
330
747D
100
AcDbEntity
  8
寸法
 48
50.0
100
AcDbDimension
  2
*D15
 10
9873.600000000001
 20
8453.968028740446
 30
0.0
 11
8223.600000000001
 21
8553.968028740445
 31
0.0
 70
    32
  1
屋根寸法 <>
 71
     5
 42
3300.000000000001
  3
INABA_S40G
100
AcDbAlignedDimension
 13
6573.599999999998
 23
7829.785662218299
 33
0.0
 14
9873.600000000001
 24
7829.785662218299
 34
0.0
100
AcDbRotatedDimension
  0
LINE
  5
12566
330
747D
100
AcDbEntity
  8
想像線
 48
50.0
100
AcDbLine
 10
6573.599999999998
 20
7829.785662218299
 30
0.0
 11
9873.600000000001
 21
7829.785662218299
 31
0.0
  0
DIMENSION
  5
12670
330
747D
100
AcDbEntity
  8
寸法
 48
50.0
100
AcDbDimension
  2
*D16
 10
10342.77950873462
 20
7829.785662218298
 30
0.0
 11
10242.77950873462
 21
7679.7856622183
 31
0.0
 70
    32
 71
     5
 42
300.0000000000009
  3
INABA_S40G
100
AcDbAlignedDimension
 13
9873.600000000003
 23
7529.785662218298
 33
0.0
 14
9873.600000000001
 24
7829.785662218299
 34
0.0
 50
90.0
100
AcDbRotatedDimension
  0
DIMENSION
  5
12688
330
747D
100
AcDbEntity
  8
寸法
 48
50.0
100
AcDbDimension
  2
*D17
 10
10342.77950873462
 20
5129.785662218295
 30
0.0
 11
10242.77950873462
 21
5504.785662218297
 31
0.0
 70
    32
 71
     5
 42
750.0000000000018
  3
INABA_S40G
100
AcDbAlignedDimension
 13
9873.600000000001
 23
5879.785662218297
 33
0.0
 14
9873.600000000001
 24
5129.785662218296
 34
0.0
 50
90.0
100
AcDbRotatedDimension
  0
LINE
  5
12985
330
747D
100
AcDbEntity
  8
想像線
 48
50.0
100
AcDbLine
 10
6573.6
 20
7172.270182285584
 30
0.0
 11
6573.599999999998
 21
7829.785662218299
 31
0.0
  0
MTEXT
  5
12C3D
102
{ACAD_REACTORS
330
12C3E
102
}
330
747D
100
AcDbEntity
  8
部品1
 62
     7
 48
50.0
100
AcDbMText
 10
8782.636562530802
 20
8115.841048660728
 30
0.0
 40
120.0
 41
0.0
 71
     6
 72
     1
  1
\A1;屋根の外寸
  7
STYLE1
 73
     1
 44
1.0
1001
ACAD
1000
MTEXTBEGIN
1070
    73
1070
     1
1070
    44
1040
1.0
1070
    74
1070
     0
1000
MTEXTEND
  0
LEADER
  5
12C3E
330
747D
100
AcDbEntity
  8
寸法
 48
50.0
100
AcDbLeader
  3
INABA_S40G
 73
     0
 75
     1
 40
120.0
 41
672.0
 76
     3
 10
9069.921438022083
 20
7829.785662218299
 30
0.0
 10
8922.636562530801
 20
8015.841048660728
 30
0.0
 10
8822.636562530801
 20
8015.841048660728
 30
0.0
340
12C3D
  0
LINE
  5
12C3F
330
747D
100
AcDbEntity
  8
想像線
 48
50.0
100
AcDbLine
 10
8853.6
 20
5129.785662218296
 30
0.0
 11
9873.599999999999
 21
5129.785662218296
 31
0.0
  0
LINE
  5
12FDB
330
747D
100
AcDbEntity
  8
部品1
 48
50.0
100
AcDbLine
 10
9273.600000000001
 20
7879.785662218298
 30
0.0
 11
9973.600000000002
 21
7879.785662218298
 31
0.0
  0
LINE
  5
12FDC
330
747D
100
AcDbEntity
  8
部品1
 48
50.0
100
AcDbLine
 10
9973.600000000002
 20
7879.785662218298
 30
0.0
 11
9973.600000000002
 21
7179.785662218297
 31
0.0
  0
LINE
  5
12FDD
330
747D
100
AcDbEntity
  8
部品1
 48
50.0
100
AcDbLine
 10
9973.600000000002
 20
7179.785662218297
 30
0.0
 11
9273.600000000001
 21
7179.785662218297
 31
0.0
  0
LINE
  5
12FDE
330
747D
100
AcDbEntity
  8
部品1
 48
50.0
100
AcDbLine
 10
9273.600000000001
 20
7179.785662218297
 30
0.0
 11
9273.600000000001
 21
7879.785662218298
 31
0.0
  0
LINE
  5
12FDF
330
747D
100
AcDbEntity
  8
部品1
 48
50.0
100
AcDbLine
 10
9273.600000000001
 20
6229.785662218298
 30
0.0
 11
9973.600000000002
 21
6229.785662218298
 31
0.0
  0
LINE
  5
12FE0
330
747D
100
AcDbEntity
  8
部品1
 48
50.0
100
AcDbLine
 10
9273.600000000001
 20
5529.785662218298
 30
0.0
 11
9273.600000000001
 21
6229.785662218298
 31
0.0
  0
LINE
  5
12FE1
330
747D
100
AcDbEntity
  8
部品1
 48
50.0
100
AcDbLine
 10
9973.600000000002
 20
5529.785662218298
 30
0.0
 11
9273.600000000001
 21
5529.785662218298
 31
0.0
  0
LINE
  5
12FE2
330
747D
100
AcDbEntity
  8
部品1
 48
50.0
100
AcDbLine
 10
9973.600000000002
 20
6229.785662218298
 30
0.0
 11
9973.600000000002
 21
5529.785662218298
 31
0.0
  0
LINE
  5
12FE3
330
747D
100
AcDbEntity
  8
部品1
 48
50.0
100
AcDbLine
 10
7173.600000000002
 20
7179.785662218297
 30
0.0
 11
6473.600000000002
 21
7179.785662218297
 31
0.0
  0
LINE
  5
12FE4
330
747D
100
AcDbEntity
  8
部品1
 48
50.0
100
AcDbLine
 10
6473.600000000002
 20
7179.785662218297
 30
0.0
 11
6473.600000000002
 21
7879.785662218298
 31
0.0
  0
LINE
  5
12FE5
330
747D
100
AcDbEntity
  8
部品1
 48
50.0
100
AcDbLine
 10
6473.600000000002
 20
5529.785662218298
 30
0.0
 11
6473.600000000002
 21
6229.785662218298
 31
0.0
  0
LINE
  5
12FE6
330
747D
100
AcDbEntity
  8
部品1
 48
50.0
100
AcDbLine
 10
6473.600000000002
 20
6229.785662218298
 30
0.0
 11
7173.600000000002
 21
6229.785662218298
 31
0.0
  0
LINE
  5
12FE7
330
747D
100
AcDbEntity
  8
部品1
 48
50.0
100
AcDbLine
 10
7173.600000000002
 20
6229.785662218298
 30
0.0
 11
7173.600000000002
 21
5529.785662218298
 31
0.0
  0
LINE
  5
12FE8
330
747D
100
AcDbEntity
  8
部品1
 48
50.0
100
AcDbLine
 10
7173.600000000002
 20
5529.785662218298
 30
0.0
 11
6473.600000000002
 21
5529.785662218298
 31
0.0
  0
LINE
  5
12FE9
330
747D
100
AcDbEntity
  8
部品1
 48
50.0
100
AcDbLine
 10
6473.600000000002
 20
7879.785662218298
 30
0.0
 11
7173.600000000002
 21
7879.785662218298
 31
0.0
  0
LINE
  5
12FEA
330
747D
100
AcDbEntity
  8
部品1
 48
50.0
100
AcDbLine
 10
7173.600000000002
 20
7879.785662218298
 30
0.0
 11
7173.600000000002
 21
7179.785662218297
 31
0.0
  0
TEXT
  5
133AF
330
747D
100
AcDbEntity
  8
文字
 62
     7
 48
50.0
100
AcDbText
 10
14747.8113764045
 20
483.8967129911414
 30
0.0
 40
160.0
  1
BＦ-２８
  7
STYLE2
100
AcDbText
  0
MTEXT
  5
13706
330
747D
100
AcDbEntity
  8
寸法
 62
     7
 48
50.0
100
AcDbMText
 10
8375.419039390143
 20
2690.985081338464
 30
0.0
 40
120.0
 41
0.0
 71
     4
 72
     1
  1
\A1;水勾配１／１００ 
  7
STYLE1
 73
     1
 44
1.0
1001
ACAD
1000
MTEXTBEGIN
1070
    73
1070
     1
1070
    44
1040
1.0
1070
    74
1070
     0
1000
MTEXTEND
  0
MTEXT
  5
13707
330
747D
100
AcDbEntity
  8
寸法
 62
     7
 48
50.0
100
AcDbMText
 10
6412.025854145432
 20
2483.011753821337
 30
0.0
 40
120.0
 41
0.0
 71
     4
 72
     1
  1
▽G.L
  7
STYLE1
 73
     1
 44
1.0
1001
ACAD
1000
MTEXTBEGIN
1070
    73
1070
     1
1070
    44
1040
1.0
1070
    74
1070
     0
1000
MTEXTEND
  0
MTEXT
  5
13708
102
{ACAD_REACTORS
330
13772
102
}
330
747D
100
AcDbEntity
  8
部品1
 62
     7
 48
5.0
100
AcDbMText
 10
9258.487821375601
 20
1324.088180048833
 30
0.0
 40
120.0
 41
0.0
 71
     4
 72
     1
  1
\A1;4-D10両方向共
  7
STYLE1
 73
     1
 44
1.0
1001
ACAD
1000
MTEXTBEGIN
1070
    73
1070
     1
1070
    44
1040
1.0
1070
    74
1070
     0
1000
MTEXTEND
  0
MTEXT
  5
13709
102
{ACAD_REACTORS
330
1370D
102
}
330
747D
100
AcDbEntity
  8
寸法
 62
     7
 48
50.0
100
AcDbMText
 10
9059.622150538181
 20
1809.700360505096
 30
0.0
 40
120.0
 41
0.0
 71
     4
 72
     1
  1
\A1;カンザシ 
  7
STYLE1
 73
     1
 44
1.0
1001
ACAD
1000
MTEXTBEGIN
1070
    73
1070
     1
1070
    44
1040
1.0
1070
    74
1070
     0
1000
MTEXTEND
  0
LINE
  5
1370A
330
747D
100
AcDbEntity
  8
細線
 48
50.0
100
AcDbLine
 10
8494.150909667789
 20
2306.090215385921
 30
0.0
 11
8273.334122857987
 21
2526.907002195727
 31
0.0
  0
LINE
  5
1370B
330
747D
100
AcDbEntity
  8
細線
 48
50.0
100
AcDbLine
 10
8464.452424857954
 20
2306.090215385921
 30
0.0
 11
8273.334122857987
 21
2497.208517385891
 31
0.0
  0
LINE
  5
1370C
330
747D
100
AcDbEntity
  8
部品1
 48
50.0
100
AcDbLine
 10
8344.209122857987
 20
2505.965215385923
 30
0.0
 11
9278.036720232091
 21
2505.965215385921
 31
0.0
  0
LEADER
  5
1370D
330
747D
100
AcDbEntity
  8
寸法
 48
50.0
100
AcDbLeader
  3
INABA_S40G詳細用20
 71
     0
 73
     0
 74
     0
 75
     1
 40
120.0
 41
550.0
 76
     3
 10
8216.834122857987
 20
1937.865480438106
 30
0.0
 10
8919.622150538181
 20
1709.700360505096
 30
0.0
 10
9019.622150538181
 20
1709.700360505096
 30
0.0
  0
CIRCLE
  5
1370E
330
747D
100
AcDbEntity
  8
部品1
 48
5.0
100
AcDbCircle
 10
8396.834122857987
 20
1683.965215385923
 30
0.0
 40
14.0
  0
LINE
  5
1370F
330
747D
100
AcDbEntity
  8
細線
 48
50.0
100
AcDbLine
 10
8387.0730810573
 20
1231.065215385921
 30
0.0
 11
8402.334122857979
 21
1196.065215385921
 31
0.0
  0
LINE
  5
13710
330
747D
100
AcDbEntity
  8
文字
 48
50.0
100
AcDbLine
 10
8372.460893441484
 20
2607.992016510231
 30
0.0
 11
9654.291270162152
 21
2607.992016510231
 31
0.0
  0
LINE
  5
13711
330
747D
100
AcDbEntity
  8
細線
 48
50.0
100
AcDbLine
 10
8097.470232977093
 20
1669.965215385923
 30
0.0
 11
8733.595232977078
 21
2306.09021538592
 31
0.0
  0
LINE
  5
13712
330
747D
100
AcDbEntity
  8
細線
 48
50.0
100
AcDbLine
 10
8127.168717786929
 20
1669.965215385923
 30
0.0
 11
8763.293717786915
 21
2306.09021538592
 31
0.0
  0
LINE
  5
13713
330
747D
100
AcDbEntity
  8
細線
 48
50.0
100
AcDbLine
 10
8156.867202596759
 20
1669.965215385923
 30
0.0
 11
8792.992202596755
 21
2306.090215385919
 31
0.0
  0
LINE
  5
13714
330
747D
100
AcDbEntity
  8
部品1
 48
50.0
100
AcDbLine
 10
7637.459122857979
 20
1669.965215385921
 30
0.0
 11
8796.209122857979
 21
1669.965215385923
 31
0.0
  0
LINE
  5
13715
330
747D
100
AcDbEntity
  8
部品1
 48
50.0
100
AcDbLine
 10
7637.459122857979
 20
1641.965215385919
 30
0.0
 11
8796.209122857979
 21
1641.965215385923
 31
0.0
  0
DIMENSION
  5
13716
330
747D
100
AcDbEntity
  8
寸法
 48
50.0
100
AcDbDimension
  2
*D40
 10
8916.834122857979
 20
867.9441030093549
 30
0.0
 11
8216.83412285798
 21
967.9441030093549
 31
0.0
 70
    32
 71
     5
 42
700.0
  3
INABA_S40G詳細用20
100
AcDbAlignedDimension
 13
7516.834122857979
 23
1196.065215385921
 33
0.0
 14
8916.834122857979
 24
1196.065215385921
 34
0.0
100
AcDbRotatedDimension
  0
LINE
  5
13717
330
747D
100
AcDbEntity
  8
部品1
 48
50.0
100
AcDbLine
 10
7386.415342356841
 20
1196.065215385921
 30
0.0
 11
9047.252903359126
 21
1196.065215385921
 31
0.0
  0
LINE
  5
13718
330
747D
100
AcDbEntity
  8
部品1
 48
50.0
100
AcDbLine
 10
7386.415342356841
 20
1406.065215385921
 30
0.0
 11
9047.252903359126
 21
1406.065215385921
 31
0.0
  0
LINE
  5
13719
330
747D
100
AcDbEntity
  8
部品1
 48
50.0
100
AcDbLine
 10
7386.415342356841
 20
1505.965215385921
 30
0.0
 11
9047.252903359126
 21
1505.965215385921
 31
0.0
  0
LINE
  5
1371A
330
747D
100
AcDbEntity
  8
細線
 48
50.0
100
AcDbLine
 10
8374.334122857979
 20
1196.065215385921
 30
0.0
 11
8450.76787205388
 21
1406.065215385921
 31
0.0
  0
LINE
  5
1371B
330
747D
100
AcDbEntity
  8
細線
 48
50.0
100
AcDbLine
 10
8359.148515251391
 20
1505.965215385921
 30
0.0
 11
8495.148515251385
 21
1641.965215385921
 31
0.0
  0
LINE
  5
1371C
330
747D
100
AcDbEntity
  8
細線
 48
50.0
100
AcDbLine
 10
8329.450030441568
 20
1505.965215385919
 30
0.0
 11
8465.450030441569
 21
1641.965215385921
 31
0.0
  0
LINE
  5
1371D
330
747D
100
AcDbEntity
  8
細線
 48
50.0
100
AcDbLine
 10
8388.847000061227
 20
1505.965215385921
 30
0.0
 11
8524.847000061219
 21
1641.965215385923
 31
0.0
  0
LINE
  5
1371E
330
747D
100
AcDbEntity
  8
細線
 48
50.0
100
AcDbLine
 10
8377.412765734602
 20
1505.965215385921
 30
0.0
 11
8477.312765734593
 21
1406.065215385921
 31
0.0
  0
LINE
  5
1371F
330
747D
100
AcDbEntity
  8
細線
 48
50.0
100
AcDbLine
 10
8523.849394477627
 20
2306.090215385921
 30
0.0
 11
8288.974394477618
 21
2540.965215385922
 31
0.0
  0
LINE
  5
13720
330
747D
100
AcDbEntity
  8
部品1
 48
50.0
100
AcDbLine
 10
8273.334122857987
 20
2306.090215385921
 30
0.0
 11
9277.161720232092
 21
2306.090215385919
 31
0.0
  0
LINE
  5
13721
330
747D
100
AcDbEntity
  8
文字
 48
50.0
100
AcDbLine
 10
7729.267327271163
 20
421.222831790903
 30
0.0
 11
8864.436144981754
 21
421.222831790903
 31
0.0
  0
TEXT
  5
13722
330
747D
100
AcDbEntity
  8
文字
 62
     7
 48
50.0
100
AcDbText
 10
7800.291121844726
 20
249.7862569918616
 30
0.0
 40
105.0
  1
A-A' 断面 1/20
  7
STYLE2
100
AcDbText
  0
LINE
  5
13723
330
747D
100
AcDbEntity
  8
文字
 48
50.0
100
AcDbLine
 10
7729.267327271163
 20
183.222831790903
 30
0.0
 11
8864.436144981754
 21
183.2228317909029
 31
0.0
  0
LINE
  5
13724
330
747D
100
AcDbEntity
  8
細線
 48
50.0
100
AcDbLine
 10
8273.334122857985
 20
2182.411933111618
 30
0.0
 11
8397.012405132292
 21
2306.090215385921
 31
0.0
  0
LINE
  5
13725
330
747D
100
AcDbEntity
  8
細線
 48
50.0
100
AcDbLine
 10
8273.334122857985
 20
2212.110417921454
 30
0.0
 11
8367.313920322452
 21
2306.090215385921
 31
0.0
  0
DIMENSION
  5
13726
330
747D
100
AcDbEntity
  8
寸法
 48
50.0
100
AcDbDimension
  2
*D41
 10
7285.939971462298
 20
1866.015215385921
 30
0.0
 11
7185.928160438677
 21
2086.052715385923
 31
0.0
 70
    32
 71
     5
 42
220.0375
  3
INABA_S40G詳細用20
100
AcDbAlignedDimension
 13
7516.834122857979
 23
2306.090215385921
 33
0.0
 14
8153.334122857987
 24
1866.015215385921
 34
0.0
 50
90.0
100
AcDbRotatedDimension
  0
LINE
  5
13727
330
747D
100
AcDbEntity
  8
部品1
 48
50.0
100
AcDbLine
 10
8273.334122857987
 20
1866.01521538592
 30
0.0
 11
8273.334122857987
 21
2885.451666543815
 31
0.0
  0
LINE
  5
13728
330
747D
100
AcDbEntity
  8
部品1
 48
50.0
100
AcDbLine
 10
8153.334122857987
 20
2885.451666543815
 30
0.0
 11
8153.334122857987
 21
1866.015215385921
 31
0.0
  0
LINE
  5
13729
330
747D
100
AcDbEntity
  8
細線
 48
50.0
100
AcDbLine
 10
7516.834122857979
 20
1881.288700195758
 30
0.0
 11
7941.63563804815
 21
2306.090215385921
 31
0.0
  0
LINE
  5
1372A
330
747D
100
AcDbEntity
  8
細線
 48
50.0
100
AcDbLine
 10
7516.834122857979
 20
1851.590215385914
 30
0.0
 11
7971.334122857989
 21
2306.090215385921
 31
0.0
  0
LINE
  5
1372B
330
747D
100
AcDbEntity
  8
細線
 48
50.0
100
AcDbLine
 10
7516.834122857978
 20
1821.891730576083
 30
0.0
 11
8001.032607667822
 21
2306.090215385921
 31
0.0
  0
LINE
  5
1372C
330
747D
100
AcDbEntity
  8
部品1
 48
50.0
100
AcDbLine
 10
7516.834122857979
 20
1505.965215385921
 30
0.0
 11
7516.834122857978
 21
2306.090215385921
 31
0.0
  0
DIMENSION
  5
1372D
330
747D
100
AcDbEntity
  8
寸法
 48
50.0
100
AcDbDimension
  2
*D42
 10
7064.024205957945
 20
1505.965215385921
 30
0.0
 11
6964.024205957945
 21
1955.965215385922
 31
0.0
 70
    32
 71
     5
 42
450.0
  3
INABA_S40G詳細用20
100
AcDbAlignedDimension
 13
7814.334122857982
 23
2405.965215385921
 33
0.0
 14
7386.415342356841
 24
1505.965215385921
 34
0.0
 50
90.0
100
AcDbRotatedDimension
  0
LINE
  5
1372E
330
747D
100
AcDbEntity
  8
細線
 48
50.0
100
AcDbLine
 10
7516.834122857979
 20
2217.871528040552
 30
0.0
 11
7605.052810203351
 21
2306.090215385921
 31
0.0
  0
LINE
  5
1372F
330
747D
100
AcDbEntity
  8
文字
 48
50.0
100
AcDbLine
 10
7729.267327271163
 20
421.222831790903
 30
0.0
 11
7729.267327271163
 21
183.222831790903
 31
0.0
  0
DIMENSION
  5
13730
330
747D
100
AcDbEntity
  8
寸法
 48
50.0
100
AcDbDimension
  2
*D43
 10
7064.024205957945
 20
1406.065215385921
 30
0.0
 11
6964.024205957945
 21
1456.015215385922
 31
0.0
 70
    32
 71
     5
 42
49.95000000000004
  3
INABA_S40G詳細用20
100
AcDbAlignedDimension
 13
7386.415342356833
 23
1505.965215385921
 33
0.0
 14
7386.415342356835
 24
1406.065215385921
 34
0.0
 50
90.0
100
AcDbRotatedDimension
  0
LINE
  5
13731
330
747D
100
AcDbEntity
  8
細線
 48
50.0
100
AcDbLine
 10
7814.33412285798
 20
1196.065215385921
 30
0.0
 11
7890.767872053881
 21
1406.065215385921
 31
0.0
  0
LINE
  5
13732
330
747D
100
AcDbEntity
  8
細線
 48
50.0
100
AcDbLine
 10
7534.334122857979
 20
1196.065215385919
 30
0.0
 11
7610.767872053881
 21
1406.065215385919
 31
0.0
  0
LINE
  5
13733
330
747D
100
AcDbEntity
  8
細線
 48
50.0
100
AcDbLine
 10
7674.334122857979
 20
1196.065215385921
 30
0.0
 11
7750.767872053881
 21
1406.065215385919
 31
0.0
  0
LINE
  5
13734
330
747D
100
AcDbEntity
  8
細線
 48
50.0
100
AcDbLine
 10
7394.33412285798
 20
1196.065215385919
 30
0.0
 11
7470.767872053881
 21
1406.065215385919
 31
0.0
  0
LINE
  5
13735
330
747D
100
AcDbEntity
  8
部品1
 48
50.0
100
AcDbLine
 10
7386.415342356833
 20
1505.965215385919
 30
0.0
 11
7386.415342356842
 21
1196.065215385921
 31
0.0
  0
LINE
  5
13736
330
747D
100
AcDbEntity
  8
細線
 48
50.0
100
AcDbLine
 10
8234.334122857978
 20
1196.065215385923
 30
0.0
 11
8310.767872053881
 21
1406.065215385923
 31
0.0
  0
LINE
  5
13737
330
747D
100
AcDbEntity
  8
細線
 48
50.0
100
AcDbLine
 10
8094.334122857979
 20
1196.065215385923
 30
0.0
 11
8170.767872053881
 21
1406.065215385921
 31
0.0
  0
LINE
  5
13738
330
747D
100
AcDbEntity
  8
細線
 48
50.0
100
AcDbLine
 10
7954.334122857979
 20
1196.065215385921
 30
0.0
 11
8030.76787205388
 21
1406.065215385921
 31
0.0
  0
LINE
  5
13739
330
747D
100
AcDbEntity
  8
細線
 48
50.0
100
AcDbLine
 10
7407.073081057298
 20
1231.065215385919
 30
0.0
 11
7422.334122857979
 21
1196.065215385919
 31
0.0
  0
LINE
  5
1373A
330
747D
100
AcDbEntity
  8
細線
 48
50.0
100
AcDbLine
 10
7547.073081057298
 20
1231.065215385919
 30
0.0
 11
7562.334122857979
 21
1196.065215385919
 31
0.0
  0
LINE
  5
1373B
330
747D
100
AcDbEntity
  8
細線
 48
50.0
100
AcDbLine
 10
7687.073081057299
 20
1231.065215385921
 30
0.0
 11
7702.33412285798
 21
1196.065215385921
 31
0.0
  0
LINE
  5
1373C
330
747D
100
AcDbEntity
  8
細線
 48
50.0
100
AcDbLine
 10
7827.073081057299
 20
1231.065215385921
 30
0.0
 11
7842.33412285798
 21
1196.065215385921
 31
0.0
  0
LINE
  5
1373D
330
747D
100
AcDbEntity
  8
細線
 48
50.0
100
AcDbLine
 10
7967.073081057299
 20
1231.065215385921
 30
0.0
 11
7982.334122857979
 21
1196.065215385921
 31
0.0
  0
LINE
  5
1373E
330
747D
100
AcDbEntity
  8
細線
 48
50.0
100
AcDbLine
 10
8107.073081057299
 20
1231.065215385923
 30
0.0
 11
8122.33412285798
 21
1196.065215385923
 31
0.0
  0
LINE
  5
1373F
330
747D
100
AcDbEntity
  8
細線
 48
50.0
100
AcDbLine
 10
8247.073081057299
 20
1231.065215385923
 30
0.0
 11
8262.334122857978
 21
1196.065215385923
 31
0.0
  0
LINE
  5
13740
330
747D
100
AcDbEntity
  8
細線
 48
50.0
100
AcDbLine
 10
7731.188920322463
 20
1669.965215385923
 30
0.0
 11
8153.334122857987
 21
2092.110417921455
 31
0.0
  0
LINE
  5
13741
330
747D
100
AcDbEntity
  8
細線
 48
50.0
100
AcDbLine
 10
7701.49043551261
 20
1669.965215385923
 30
0.0
 11
8153.334122857987
 21
2121.808902731288
 31
0.0
  0
DIMENSION
  5
13742
330
747D
100
AcDbEntity
  8
寸法
 48
50.0
100
AcDbDimension
  2
*D44
 10
7285.939971462298
 20
1505.965215385921
 30
0.0
 11
7285.939971462298
 21
1687.090215385921
 31
0.0
 70
   160
 71
     5
 42
180.0250000000001
  3
INABA_S40G詳細用20
100
AcDbAlignedDimension
 13
8153.334122857987
 23
1866.015215385921
 33
0.0
 14
7386.415342356841
 24
1505.965215385921
 34
0.0
 50
90.0
100
AcDbRotatedDimension
  0
LINE
  5
13743
330
747D
100
AcDbEntity
  8
細線
 48
50.0
100
AcDbLine
 10
7644.850140425339
 20
1505.965215385921
 30
0.0
 11
7744.750140425345
 21
1406.065215385921
 31
0.0
  0
LINE
  5
13744
330
747D
100
AcDbEntity
  8
細線
 48
50.0
100
AcDbLine
 10
7537.49043551261
 20
1505.965215385921
 30
0.0
 11
7673.490435512619
 21
1641.965215385919
 31
0.0
  0
LINE
  5
13745
330
747D
100
AcDbEntity
  8
細線
 48
50.0
100
AcDbLine
 10
7567.188920322462
 20
1505.965215385921
 30
0.0
 11
7703.188920322469
 21
1641.965215385919
 31
0.0
  0
LINE
  5
13746
330
747D
100
AcDbEntity
  8
細線
 48
50.0
100
AcDbLine
 10
7596.887405132291
 20
1505.965215385923
 30
0.0
 11
7732.887405132299
 21
1641.965215385919
 31
0.0
  0
LINE
  5
13747
330
747D
100
AcDbEntity
  8
細線
 48
50.0
100
AcDbLine
 10
7442.767872053881
 20
1406.065215385919
 30
0.0
 11
7458.028913854561
 21
1371.065215385919
 31
0.0
  0
LINE
  5
13748
330
747D
100
AcDbEntity
  8
細線
 48
50.0
100
AcDbLine
 10
7722.76787205388
 20
1406.065215385919
 30
0.0
 11
7738.028913854562
 21
1371.065215385921
 31
0.0
  0
LINE
  5
13749
330
747D
100
AcDbEntity
  8
細線
 48
50.0
100
AcDbLine
 10
7582.767872053882
 20
1406.065215385919
 30
0.0
 11
7598.028913854562
 21
1371.065215385919
 31
0.0
  0
LINE
  5
1374A
330
747D
100
AcDbEntity
  8
細線
 48
50.0
100
AcDbLine
 10
7585.453170805672
 20
1505.965215385919
 30
0.0
 11
7685.353170805672
 21
1406.065215385921
 31
0.0
  0
LINE
  5
1374B
330
747D
100
AcDbEntity
  8
細線
 48
50.0
100
AcDbLine
 10
7615.15165561551
 20
1505.965215385921
 30
0.0
 11
7715.05165561551
 21
1406.065215385921
 31
0.0
  0
CIRCLE
  5
1374C
330
747D
100
AcDbEntity
  8
部品1
 48
5.0
100
AcDbCircle
 10
7676.834122857987
 20
1683.965215385923
 30
0.0
 40
14.0
  0
LINE
  5
1374D
330
747D
100
AcDbEntity
  8
部品1
 48
50.0
100
AcDbLine
 10
7637.459122857979
 20
1641.965215385923
 30
0.0
 11
7637.459122857979
 21
1669.965215385921
 31
0.0
  0
LINE
  5
1374E
330
747D
100
AcDbEntity
  8
細線
 48
50.0
100
AcDbLine
 10
7760.887405132298
 20
1669.965215385921
 30
0.0
 11
8153.334122857987
 21
2062.411933111622
 31
0.0
  0
LINE
  5
1374F
330
747D
100
AcDbEntity
  8
細線
 48
50.0
100
AcDbLine
 10
7981.432968270141
 20
1505.965215385921
 30
0.0
 11
8081.332968270137
 21
1406.065215385921
 31
0.0
  0
LINE
  5
13750
330
747D
100
AcDbEntity
  8
細線
 48
50.0
100
AcDbLine
 10
8011.131453079977
 20
1505.965215385921
 30
0.0
 11
8111.031453079979
 21
1406.065215385921
 31
0.0
  0
LINE
  5
13751
330
747D
100
AcDbEntity
  8
細線
 48
50.0
100
AcDbLine
 10
7963.168717786929
 20
1505.965215385921
 30
0.0
 11
8099.168717786936
 21
1641.965215385919
 31
0.0
  0
LINE
  5
13752
330
747D
100
AcDbEntity
  8
細線
 48
50.0
100
AcDbLine
 10
7992.867202596759
 20
1505.965215385921
 30
0.0
 11
8128.867202596758
 21
1641.965215385921
 31
0.0
  0
LINE
  5
13753
330
747D
100
AcDbEntity
  8
細線
 48
50.0
100
AcDbLine
 10
8040.829937889814
 20
1505.965215385921
 30
0.0
 11
8140.729937889814
 21
1406.065215385921
 31
0.0
  0
LINE
  5
13754
330
747D
100
AcDbEntity
  8
細線
 48
50.0
100
AcDbLine
 10
7933.470232977093
 20
1505.965215385921
 30
0.0
 11
8069.470232977108
 21
1641.965215385919
 31
0.0
  0
LINE
  5
13755
330
747D
100
AcDbEntity
  8
細線
 48
50.0
100
AcDbLine
 10
7862.767872053881
 20
1406.065215385921
 30
0.0
 11
7878.028913854561
 21
1371.065215385921
 31
0.0
  0
LINE
  5
13756
330
747D
100
AcDbEntity
  8
細線
 48
50.0
100
AcDbLine
 10
8002.76787205388
 20
1406.065215385921
 30
0.0
 11
8018.028913854562
 21
1371.065215385921
 31
0.0
  0
CIRCLE
  5
13757
330
747D
100
AcDbEntity
  8
部品1
 48
5.0
100
AcDbCircle
 10
8036.834122857987
 20
1683.965215385923
 30
0.0
 40
14.0
  0
LINE
  5
13758
330
747D
100
AcDbEntity
  8
細線
 48
50.0
100
AcDbLine
 10
8142.76787205388
 20
1406.065215385921
 30
0.0
 11
8158.028913854561
 21
1371.065215385923
 31
0.0
  0
LINE
  5
13759
330
747D
100
AcDbEntity
  8
細線
 48
50.0
100
AcDbLine
 10
8282.767872053881
 20
1406.065215385923
 30
0.0
 11
8298.028913854562
 21
1371.065215385923
 31
0.0
  0
LINE
  5
1375A
330
747D
100
AcDbEntity
  8
部品1
 48
5.0
100
AcDbLine
 10
8153.334122857986
 20
1866.01521538592
 30
0.0
 11
8273.334122857987
 21
1866.01521538592
 31
0.0
  0
CIRCLE
  5
1375B
330
747D
100
AcDbEntity
  8
部品1
 48
50.0
100
AcDbCircle
 10
8216.834122857987
 20
1938.215215385921
 30
0.0
 40
14.0
  0
DIMENSION
  5
1375C
330
747D
100
AcDbEntity
  8
寸法
 48
50.0
100
AcDbDimension
  2
*D45
 10
7064.024205957946
 20
2505.965215385922
 30
0.0
 11
7064.024205957945
 21
2759.917971291435
 31
0.0
 70
   160
  1
(<>)
 71
     5
 42
50.0
  3
INABA_S40G詳細用20
100
AcDbAlignedDimension
 13
7814.334122857982
 23
2405.965215385921
 33
0.0
 14
7863.209122857981
 24
2505.965215385921
 34
0.0
 50
90.0
100
AcDbRotatedDimension
  0
LINE
  5
1375D
330
747D
100
AcDbEntity
  8
Ｇ．Ｌ
 48
50.0
100
AcDbLine
 10
6403.714289057905
 20
2405.965215385923
 30
0.0
 11
7814.334122857982
 21
2405.965215385921
 31
0.0
  0
LINE
  5
1375E
330
747D
100
AcDbEntity
  8
部品1
 48
50.0
100
AcDbLine
 10
7516.834122857979
 20
2306.090215385921
 30
0.0
 11
8153.334122857987
 21
2306.090215385921
 31
0.0
  0
DIMENSION
  5
1375F
330
747D
100
AcDbEntity
  8
寸法
 48
50.0
100
AcDbDimension
  2
*D46
 10
7285.939971462299
 20
2306.090215385921
 30
0.0
 11
7285.939971462298
 21
2356.027715385923
 31
0.0
 70
   160
 71
     5
 42
49.9375
  3
INABA_S40G詳細用20
100
AcDbAlignedDimension
 13
7814.334122857982
 23
2405.965215385921
 33
0.0
 14
7516.834122857978
 24
2306.090215385921
 34
0.0
 50
90.0
100
AcDbRotatedDimension
  0
LINE
  5
13760
330
747D
100
AcDbEntity
  8
細線
 48
50.0
100
AcDbLine
 10
7516.834122857978
 20
2277.268497660219
 30
0.0
 11
7545.655840583679
 21
2306.090215385921
 31
0.0
  0
LINE
  5
13761
330
747D
100
AcDbEntity
  8
細線
 48
50.0
100
AcDbLine
 10
7516.834122857978
 20
2247.570012850383
 30
0.0
 11
7575.354325393519
 21
2306.090215385921
 31
0.0
  0
LINE
  5
13762
330
747D
100
AcDbEntity
  8
部品1
 48
50.0
100
AcDbLine
 10
7863.209122857981
 20
2505.965215385921
 30
0.0
 11
8084.209122857986
 21
2505.965215385921
 31
0.0
  0
LINE
  5
13763
330
747D
100
AcDbEntity
  8
細線
 48
50.0
100
AcDbLine
 10
8127.869597013152
 20
2306.090215385921
 30
0.0
 11
7927.994597013159
 21
2505.965215385921
 31
0.0
  0
LINE
  5
13764
330
747D
100
AcDbEntity
  8
細線
 48
50.0
100
AcDbLine
 10
8098.171112203322
 20
2306.090215385921
 30
0.0
 11
7898.296112203322
 21
2505.965215385921
 31
0.0
  0
LINE
  5
13765
330
747D
100
AcDbEntity
  8
部品1
 48
50.0
100
AcDbLine
 10
7814.33412285798
 20
2457.090215385921
 30
0.0
 11
7863.209122857981
 21
2505.965215385921
 31
0.0
  0
LINE
  5
13766
330
747D
100
AcDbEntity
  8
細線
 48
50.0
100
AcDbLine
 10
8068.472627393488
 20
2306.090215385921
 30
0.0
 11
7868.597627393492
 21
2505.965215385921
 31
0.0
  0
LINE
  5
13767
330
747D
100
AcDbEntity
  8
部品1
 48
50.0
100
AcDbLine
 10
7814.33412285798
 20
2457.09021538592
 30
0.0
 11
7814.334122857987
 21
2306.090215385921
 31
0.0
  0
LINE
  5
13768
330
747D
100
AcDbEntity
  8
細線
 48
50.0
100
AcDbLine
 10
8273.334122857985
 20
2241.808902731287
 30
0.0
 11
8337.615435512619
 21
2306.090215385921
 31
0.0
  0
LINE
  5
13769
330
747D
100
AcDbEntity
  8
部品1
 48
50.0
100
AcDbLine
 10
8119.209122857986
 20
2540.965215385921
 30
0.0
 11
8084.209122857986
 21
2505.965215385921
 31
0.0
  0
LINE
  5
1376A
330
747D
100
AcDbEntity
  8
部品1
 48
50.0
100
AcDbLine
 10
8119.209122857986
 20
2540.965215385921
 30
0.0
 11
8153.334122857987
 21
2540.965215385921
 31
0.0
  0
LINE
  5
1376B
330
747D
100
AcDbEntity
  8
部品1
 48
50.0
100
AcDbLine
 10
8309.209122857986
 20
2540.965215385921
 30
0.0
 11
8344.209122857987
 21
2505.965215385921
 31
0.0
  0
LINE
  5
1376C
330
747D
100
AcDbEntity
  8
部品1
 48
50.0
100
AcDbLine
 10
8273.334122857987
 20
2540.965215385921
 30
0.0
 11
8309.209122857986
 21
2540.965215385921
 31
0.0
  0
LINE
  5
1376D
330
747D
100
AcDbEntity
  8
部品1
 48
50.0
100
AcDbLine
 10
8916.834122857979
 20
1505.965215385921
 30
0.0
 11
8916.834122857979
 21
2306.090215385919
 31
0.0
  0
LINE
  5
1376E
330
747D
100
AcDbEntity
  8
細線
 48
50.0
100
AcDbLine
 10
9198.467356348031
 20
2096.090215385921
 30
0.0
 11
9274.90110554393
 21
2306.090215385919
 31
0.0
  0
LINE
  5
1376F
330
747D
100
AcDbEntity
  8
細線
 48
50.0
100
AcDbLine
 10
9058.46735634803
 20
2096.090215385923
 30
0.0
 11
9134.901105543931
 21
2306.090215385923
 31
0.0
  0
LINE
  5
13770
330
747D
100
AcDbEntity
  8
細線
 48
50.0
100
AcDbLine
 10
8918.467356348029
 20
2096.09021538592
 30
0.0
 11
8994.901105543931
 21
2306.090215385921
 31
0.0
  0
LINE
  5
13771
330
747D
100
AcDbEntity
  8
文字
 48
50.0
100
AcDbLine
 10
8864.436144981752
 20
421.222831790903
 30
0.0
 11
8864.436144981752
 21
183.222831790903
 31
0.0
  0
LEADER
  5
13772
330
747D
100
AcDbEntity
  8
寸法
 48
5.0
100
AcDbLeader
  3
INABA_S40G詳細用20
 71
     0
 73
     0
 74
     0
 75
     1
 40
121.669047558312
 41
937.9999999999999
 76
     3
 10
8756.834122857986
 20
1683.965215385923
 30
0.0
 10
9118.4878213756
 20
1223.253656269678
 30
0.0
 10
9218.487821375601
 20
1223.253656269678
 30
0.0
  0
LINE
  5
13773
330
747D
100
AcDbEntity
  8
細線
 48
50.0
100
AcDbLine
 10
8934.334122857979
 20
1196.065215385923
 30
0.0
 11
9010.767872053881
 21
1406.065215385921
 31
0.0
  0
LINE
  5
13774
330
747D
100
AcDbEntity
  8
部品1
 48
50.0
100
AcDbLine
 10
9047.252903359126
 20
1505.965215385919
 30
0.0
 11
9047.252903359128
 21
1196.065215385921
 31
0.0
  0
LINE
  5
13775
330
747D
100
AcDbEntity
  8
細線
 48
50.0
100
AcDbLine
 10
8514.334122857979
 20
1196.065215385923
 30
0.0
 11
8590.767872053881
 21
1406.065215385921
 31
0.0
  0
LINE
  5
13776
330
747D
100
AcDbEntity
  8
細線
 48
50.0
100
AcDbLine
 10
8654.33412285798
 20
1196.065215385923
 30
0.0
 11
8730.767872053879
 21
1406.065215385923
 31
0.0
  0
LINE
  5
13777
330
747D
100
AcDbEntity
  8
細線
 48
50.0
100
AcDbLine
 10
8794.33412285798
 20
1196.065215385921
 30
0.0
 11
8870.76787205388
 21
1406.065215385921
 31
0.0
  0
LINE
  5
13778
330
747D
100
AcDbEntity
  8
細線
 48
50.0
100
AcDbLine
 10
8527.073081057299
 20
1231.065215385923
 30
0.0
 11
8542.33412285798
 21
1196.065215385923
 31
0.0
  0
LINE
  5
13779
330
747D
100
AcDbEntity
  8
細線
 48
50.0
100
AcDbLine
 10
8667.073081057299
 20
1231.065215385923
 30
0.0
 11
8682.334122857978
 21
1196.065215385923
 31
0.0
  0
LINE
  5
1377A
330
747D
100
AcDbEntity
  8
細線
 48
50.0
100
AcDbLine
 10
8807.073081057298
 20
1231.065215385921
 30
0.0
 11
8822.334122857979
 21
1196.065215385921
 31
0.0
  0
LINE
  5
1377B
330
747D
100
AcDbEntity
  8
細線
 48
50.0
100
AcDbLine
 10
8947.073081057299
 20
1231.065215385923
 30
0.0
 11
8962.33412285798
 21
1196.065215385923
 31
0.0
  0
LINE
  5
1377C
330
747D
100
AcDbEntity
  8
部品1
 48
50.0
100
AcDbLine
 10
8916.834122857979
 20
2096.090215385921
 30
0.0
 11
9277.161720232092
 21
2096.090215385921
 31
0.0
  0
LINE
  5
1377D
330
747D
100
AcDbEntity
  8
細線
 48
50.0
100
AcDbLine
 10
8493.450030441563
 20
1669.965215385925
 30
0.0
 11
8916.834122857979
 21
2093.349307802363
 31
0.0
  0
LINE
  5
1377E
330
747D
100
AcDbEntity
  8
細線
 48
50.0
100
AcDbLine
 10
8523.148515251383
 20
1669.965215385923
 30
0.0
 11
8916.834122857983
 21
2063.650822992527
 31
0.0
  0
LINE
  5
1377F
330
747D
100
AcDbEntity
  8
細線
 48
50.0
100
AcDbLine
 10
8552.84700006122
 20
1669.965215385921
 30
0.0
 11
8916.834122857979
 21
2033.952338182696
 31
0.0
  0
LINE
  5
13780
330
747D
100
AcDbEntity
  8
細線
 48
50.0
100
AcDbLine
 10
8725.429827906044
 20
1505.965215385917
 30
0.0
 11
8921.209122857979
 21
1701.744510337867
 31
0.0
  0
LINE
  5
13781
330
747D
100
AcDbEntity
  8
細線
 48
50.0
100
AcDbLine
 10
8562.76787205388
 20
1406.065215385921
 30
0.0
 11
8578.028913854561
 21
1371.065215385923
 31
0.0
  0
LINE
  5
13782
330
747D
100
AcDbEntity
  8
細線
 48
50.0
100
AcDbLine
 10
8422.76787205388
 20
1406.065215385921
 30
0.0
 11
8438.028913854562
 21
1371.065215385921
 31
0.0
  0
LINE
  5
13783
330
747D
100
AcDbEntity
  8
細線
 48
50.0
100
AcDbLine
 10
8436.809735354275
 20
1505.965215385921
 30
0.0
 11
8536.709735354282
 21
1406.065215385921
 31
0.0
  0
LINE
  5
13784
330
747D
100
AcDbEntity
  8
細線
 48
50.0
100
AcDbLine
 10
8407.111250544437
 20
1505.965215385921
 30
0.0
 11
8507.01125054444
 21
1406.065215385921
 31
0.0
  0
LINE
  5
13785
330
747D
100
AcDbEntity
  8
細線
 48
50.0
100
AcDbLine
 10
8702.767872053881
 20
1406.065215385923
 30
0.0
 11
8718.028913854562
 21
1371.065215385923
 31
0.0
  0
LINE
  5
13786
330
747D
100
AcDbEntity
  8
細線
 48
50.0
100
AcDbLine
 10
8784.826797525703
 20
1505.965215385919
 30
0.0
 11
8921.209122857979
 21
1642.347540718201
 31
0.0
  0
LINE
  5
13787
330
747D
100
AcDbEntity
  8
細線
 48
50.0
100
AcDbLine
 10
8755.128312715866
 20
1505.965215385919
 30
0.0
 11
8921.209122857979
 21
1672.046025528038
 31
0.0
  0
LINE
  5
13788
330
747D
100
AcDbEntity
  8
細線
 48
50.0
100
AcDbLine
 10
8803.0910480089
 20
1505.965215385921
 30
0.0
 11
8902.991048008907
 21
1406.065215385921
 31
0.0
  0
LINE
  5
13789
330
747D
100
AcDbEntity
  8
細線
 48
50.0
100
AcDbLine
 10
8832.789532818742
 20
1505.965215385921
 30
0.0
 11
8932.689532818743
 21
1406.065215385921
 31
0.0
  0
LINE
  5
1378A
330
747D
100
AcDbEntity
  8
細線
 48
50.0
100
AcDbLine
 10
8842.767872053881
 20
1406.065215385921
 30
0.0
 11
8858.02891385456
 21
1371.065215385921
 31
0.0
  0
LINE
  5
1378B
330
747D
100
AcDbEntity
  8
細線
 48
50.0
100
AcDbLine
 10
8773.39256319907
 20
1505.965215385921
 30
0.0
 11
8873.292563199063
 21
1406.065215385921
 31
0.0
  0
LINE
  5
1378C
330
747D
100
AcDbEntity
  8
細線
 48
50.0
100
AcDbLine
 10
8982.767872053882
 20
1406.065215385921
 30
0.0
 11
8998.028913854561
 21
1371.065215385923
 31
0.0
  0
LINE
  5
1378D
330
747D
100
AcDbEntity
  8
部品1
 48
50.0
100
AcDbLine
 10
8796.209122857979
 20
1641.965215385919
 30
0.0
 11
8796.209122857979
 21
1669.965215385923
 31
0.0
  0
CIRCLE
  5
1378E
330
747D
100
AcDbEntity
  8
部品1
 48
5.0
100
AcDbCircle
 10
8756.834122857986
 20
1683.965215385923
 30
0.0
 40
14.0
  0
LINE
  5
1378F
330
747D
100
AcDbEntity
  8
細線
 48
50.0
100
AcDbLine
 10
8931.206314547351
 20
2131.090215385921
 30
0.0
 11
8946.46735634803
 21
2096.090215385923
 31
0.0
  0
LINE
  5
13790
330
747D
100
AcDbEntity
  8
細線
 48
50.0
100
AcDbLine
 10
9211.20631454735
 20
2131.090215385921
 30
0.0
 11
9226.467356348029
 21
2096.090215385921
 31
0.0
  0
LINE
  5
13791
330
747D
100
AcDbEntity
  8
細線
 48
50.0
100
AcDbLine
 10
9071.20631454735
 20
2131.090215385923
 30
0.0
 11
9086.46735634803
 21
2096.090215385923
 31
0.0
  0
TEXT
  5
13792
330
747D
100
AcDbEntity
  8
部品1
 62
     7
100
AcDbText
 10
9911.509990148013
 20
862.9564973948063
 30
0.0
 40
120.0
  1
（注意）
  7
STYLE1
100
AcDbText
  0
LINE
  5
13793
330
747D
100
AcDbEntity
  8
細線
 48
50.0
100
AcDbLine
 10
8919.829191942096
 20
2306.090215385919
 30
0.0
 11
8719.954191942084
 21
2505.965215385922
 31
0.0
  0
LINE
  5
13794
330
747D
100
AcDbEntity
  8
細線
 48
50.0
100
AcDbLine
 10
8860.432222322419
 20
2306.090215385919
 30
0.0
 11
8660.557222322422
 21
2505.965215385923
 31
0.0
  0
LINE
  5
13795
330
747D
100
AcDbEntity
  8
細線
 48
50.0
100
AcDbLine
 10
8890.130707132257
 20
2306.090215385919
 30
0.0
 11
8690.255707132257
 21
2505.965215385923
 31
0.0
  0
LINE
  5
13796
330
747D
100
AcDbEntity
  8
細線
 48
50.0
100
AcDbLine
 10
8966.90110554393
 20
2306.090215385921
 30
0.0
 11
8982.162147344613
 21
2271.090215385923
 31
0.0
  0
LINE
  5
13797
330
747D
100
AcDbEntity
  8
細線
 48
50.0
100
AcDbLine
 10
9277.161720232092
 20
2344.737484560387
 30
0.0
 11
9115.933989406556
 21
2505.965215385922
 31
0.0
  0
LINE
  5
13798
330
747D
100
AcDbEntity
  8
細線
 48
50.0
100
AcDbLine
 10
9256.412019786893
 20
2306.090215385919
 30
0.0
 11
9056.537019786887
 21
2505.965215385922
 31
0.0
  0
LINE
  5
13799
330
747D
100
AcDbEntity
  8
細線
 48
50.0
100
AcDbLine
 10
9277.161720232092
 20
2315.038999750557
 30
0.0
 11
9086.235504596725
 21
2505.965215385922
 31
0.0
  0
LINE
  5
1379A
330
747D
100
AcDbEntity
  8
細線
 48
50.0
100
AcDbLine
 10
9106.901105543931
 20
2306.090215385923
 30
0.0
 11
9122.162147344619
 21
2271.090215385923
 31
0.0
  0
LINE
  5
1379B
330
747D
100
AcDbEntity
  8
細線
 48
50.0
100
AcDbLine
 10
9246.901105543932
 20
2306.090215385919
 30
0.0
 11
9262.162147344612
 21
2271.090215385921
 31
0.0
  0
LINE
  5
1379C
330
747D
100
AcDbEntity
  8
文字
 48
50.0
100
AcDbLine
 10
9654.291270162152
 20
2607.992016510231
 30
0.0
 11
9539.872573720261
 21
2577.333619199605
 31
0.0
  0
LINE
  5
1379D
330
747D
100
AcDbEntity
  8
文字
 48
50.0
100
AcDbLine
 10
9654.291270162152
 20
2607.992016510231
 30
0.0
 11
9539.872573720261
 21
2638.650413820857
 31
0.0
  0
TEXT
  5
1379E
330
747D
100
AcDbEntity
  8
部品1
 62
     7
100
AcDbText
 10
9911.509990148013
 20
462.9564973948062
 30
0.0
 40
120.0
  1
   地域の実情に合わせて設計してください。 
  7
STYLE1
100
AcDbText
  0
TEXT
  5
1379F
330
747D
100
AcDbEntity
  8
部品1
 62
     7
100
AcDbText
 10
9911.509990148013
 20
662.9564973948063
 30
0.0
 40
120.0
  1
   基礎寸法は標準施工を示します。
  7
STYLE1
100
AcDbText
  0
ENDSEC
  0
SECTION
  2
OBJECTS
  0
DICTIONARY
  5
7471
330
0
100
AcDbDictionary
281
     1
  3
ACAD_COLOR
350
13212
  3
ACAD_GROUP
350
7472
  3
ACAD_LAYOUT
350
13213
  3
ACAD_MATERIAL
350
13211
  3
ACAD_MLINESTYLE
350
7473
  3
ACAD_PLOTSETTINGS
350
13214
  3
ACAD_PLOTSTYLENAME
350
1320F
  3
ACDBHEADERROUNDTRIPXREC
350
13847
  3
ACDBVARIABLEDICTIONARY
350
11B74
  3
CONTENTDICTIONARY
350
E71C
  3
DRAWINGVARIABLESDICT
350
F3B9
  0
DICTIONARY
  5
13212
102
{ACAD_REACTORS
330
7471
102
}
330
7471
100
AcDbDictionary
281
     1
  0
DICTIONARY
  5
7472
102
{ACAD_REACTORS
330
7471
102
}
330
7471
100
AcDbDictionary
281
     1
  0
DICTIONARY
  5
13213
102
{ACAD_REACTORS
330
7471
102
}
330
7471
100
AcDbDictionary
281
     1
  3
Model
350
13215
  3
レイアウト1
350
13216
  0
DICTIONARY
  5
13211
102
{ACAD_REACTORS
330
7471
102
}
330
7471
100
AcDbDictionary
281
     1
  0
DICTIONARY
  5
7473
102
{ACAD_REACTORS
330
7471
102
}
330
7471
100
AcDbDictionary
281
     1
  3
STANDARD
350
7480
  0
DICTIONARY
  5
13214
102
{ACAD_REACTORS
330
7471
102
}
330
7471
100
AcDbDictionary
281
     1
  0
ACDBDICTIONARYWDFLT
  5
1320F
102
{ACAD_REACTORS
330
7471
102
}
330
7471
100
AcDbDictionary
281
     1
  3
Normal
350
13210
100
AcDbDictionaryWithDefault
340
13210
  0
DICTIONARY
  5
13847
102
{ACAD_REACTORS
330
7471
102
}
330
7471
100
AcDbDictionary
281
     1
  3
COLORDICT
350
13849
  3
MATERIALDICT
350
13848
  0
DICTIONARY
  5
11B74
102
{ACAD_REACTORS
330
7471
102
}
330
7471
100
AcDbDictionary
281
     1
  3
DIMASSOC
350
13844
  3
PROJECTNAME
350
13845
  3
SORTENTS
350
11B75
  0
DICTIONARY
  5
E71C
102
{ACAD_REACTORS
330
7471
102
}
330
7471
100
AcDbDictionary
281
     1
  0
DICTIONARY
  5
F3B9
102
{ACAD_REACTORS
330
7471
102
}
330
7471
100
AcDbDictionary
281
     1
1001
DRAWINGVARIABLESXDATA
1000
POLARMODE
1000
1
  0
LAYOUT
  5
13215
102
{ACAD_XDICTIONARY
360
1384A
102
}
102
{ACAD_REACTORS
330
13213
102
}
330
13213
100
AcDbPlotSettings
  1

  2
iR C3880
  4
A3
  6

 40
5.873749732971191
 41
5.873747825622558
 42
5.873748779296875
 43
5.873748779296875
 44
296.9259948730469
 45
419.9466552734374
 46
0.0
 47
0.0
 48
0.0
 49
0.0
140
0.0
141
0.0
142
1.0
143
41.65811991999086
 70
 11952
 72
     1
 73
     1
 74
     2
  7
inaba.ctb
 75
     0
147
0.0240049239360925
148
0.0
149
0.0
100
AcDbLayout
  1
Model
 70
     1
 71
     0
 10
0.0
 20
0.0
 11
12.0
 21
9.0
 12
0.0
 22
0.0
 32
0.0
 14
0.0
 24
0.0
 34
0.0
 15
0.0
 25
0.0
 35
0.0
146
0.0
 13
0.0
 23
0.0
 33
0.0
 16
1.0
 26
0.0
 36
0.0
 17
0.0
 27
1.0
 37
0.0
 76
     0
330
747D
  0
LAYOUT
  5
13216
102
{ACAD_XDICTIONARY
360
1384C
102
}
102
{ACAD_REACTORS
330
13213
102
}
330
13213
100
AcDbPlotSettings
  1

  2
Microsoft XPS Document Writer
  4

  6

 40
0.0
 41
0.0
 42
0.0
 43
0.0
 44
0.0
 45
0.0
 46
0.0
 47
0.0
 48
0.0
 49
0.0
140
0.0
141
0.0
142
1.0
143
1.0
 70
   688
 72
     0
 73
     0
 74
     5
  7
inaba.ctb
 75
    16
147
1.0
148
0.0
149
0.0
100
AcDbLayout
  1
レイアウト1
 70
     0
 71
     1
 10
0.0
 20
0.0
 11
420.0
 21
297.0
 12
0.0
 22
0.0
 32
0.0
 14
1.000000000000000E+20
 24
1.000000000000000E+20
 34
1.000000000000000E+20
 15
-1.000000000000000E+20
 25
-1.000000000000000E+20
 35
-1.000000000000000E+20
146
0.0
 13
0.0
 23
0.0
 33
0.0
 16
1.0
 26
0.0
 36
0.0
 17
0.0
 27
1.0
 37
0.0
 76
     0
330
747A
  0
MLINESTYLE
  5
7480
102
{ACAD_REACTORS
330
7473
102
}
330
7473
100
AcDbMlineStyle
  2
STANDARD
 70
     0
  3

 62
     0
 51
90.0
 52
90.0
 71
     2
 49
0.5
 62
   256
  6
BYLAYER
 49
-0.5
 62
   256
  6
BYLAYER
  0
ACDBPLACEHOLDER
  5
13210
102
{ACAD_REACTORS
330
1320F
102
}
330
1320F
  0
XRECORD
  5
13849
102
{ACAD_REACTORS
330
13847
102
}
330
13847
100
AcDbXrecord
280
     1
340
13212
  0
XRECORD
  5
13848
102
{ACAD_REACTORS
330
13847
102
}
330
13847
100
AcDbXrecord
280
     1
340
13211
  0
DICTIONARYVAR
  5
13844
102
{ACAD_REACTORS
330
11B74
102
}
330
11B74
100
DictionaryVariables
280
     0
  1
1
  0
DICTIONARYVAR
  5
13845
102
{ACAD_REACTORS
330
11B74
102
}
330
11B74
100
DictionaryVariables
280
     0
  1

  0
DICTIONARYVAR
  5
11B75
102
{ACAD_REACTORS
330
11B74
102
}
330
11B74
100
DictionaryVariables
280
     0
  1
96
  0
DICTIONARY
  5
1384A
330
13215
100
AcDbDictionary
280
     1
281
     1
  3
ACAD_XREC_ROUNDTRIP
360
1384B
  0
DICTIONARY
  5
1384C
330
13216
100
AcDbDictionary
280
     1
281
     1
  3
ACAD_XREC_ROUNDTRIP
360
1384D
  0
XRECORD
  5
1384B
102
{ACAD_REACTORS
330
1384A
102
}
330
1384A
100
AcDbXrecord
280
     1
102
SHADEPLOT
 70
     0
102
SHADEPLOTRESLEVEL
 70
     2
102
SHADEPLOTCUSTOMDPI
 70
   300
  0
XRECORD
  5
1384D
102
{ACAD_REACTORS
330
1384C
102
}
330
1384C
100
AcDbXrecord
280
     1
102
SHADEPLOT
 70
     0
102
SHADEPLOTRESLEVEL
 70
     2
102
SHADEPLOTCUSTOMDPI
 70
   300
  0
ENDSEC
  0
EOF
