  0
SECTION
  2
HEADER
  9
$ACADVER
  1
AC1015
  9
$ACADMAINTVER
 70
    20
  9
$DWGCODEPAGE
  3
ANSI_932
  9
$INSBASE
 10
0.0
 20
0.0
 30
0.0
  9
$EXTMIN
 10
139.196816621341
 20
-0.1809895088663325
 30
-0.0000000000000153
  9
$EXTMAX
 10
16308.32523385566
 20
11409.92679107295
 30
0.0
  9
$LIMMIN
 10
0.0
 20
0.0
  9
$LIMMAX
 10
16800.0
 20
11880.0
  9
$ORTHOMODE
 70
     1
  9
$REGENMODE
 70
     1
  9
$FILLMODE
 70
     1
  9
$QTEXTMODE
 70
     0
  9
$MIRRTEXT
 70
     1
  9
$LTSCALE
 40
5.0
  9
$ATTMODE
 70
     1
  9
$TEXTSIZE
 40
4.0
  9
$TRACEWID
 40
1.0
  9
$TEXTSTYLE
  7
STYLE1
  9
$CLAYER
  8
部品1
  9
$CELTYPE
  6
BYLAYER
  9
$CECOLOR
 62
   256
  9
$CELTSCALE
 40
50.0
  9
$DISPSILH
 70
     0
  9
$DIMSCALE
 40
40.0
  9
$DIMASZ
 40
2.5
  9
$DIMEXO
 40
0.5
  9
$DIMDLI
 40
7.0
  9
$DIMRND
 40
0.0
  9
$DIMDLE
 40
0.0
  9
$DIMEXE
 40
1.5
  9
$DIMTP
 40
0.0
  9
$DIMTM
 40
0.0
  9
$DIMTXT
 40
3.0
  9
$DIMCEN
 40
0.0
  9
$DIMTSZ
 40
0.0
  9
$DIMTOL
 70
     0
  9
$DIMLIM
 70
     0
  9
$DIMTIH
 70
     0
  9
$DIMTOH
 70
     0
  9
$DIMSE1
 70
     0
  9
$DIMSE2
 70
     0
  9
$DIMTAD
 70
     3
  9
$DIMZIN
 70
     8
  9
$DIMBLK
  1

  9
$DIMASO
 70
     1
  9
$DIMSHO
 70
     1
  9
$DIMPOST
  1

  9
$DIMAPOST
  1

  9
$DIMALT
 70
     0
  9
$DIMALTD
 70
     2
  9
$DIMALTF
 40
0.0394
  9
$DIMLFAC
 40
1.0
  9
$DIMTOFL
 70
     1
  9
$DIMTVP
 40
0.0
  9
$DIMTIX
 70
     1
  9
$DIMSOXD
 70
     0
  9
$DIMSAH
 70
     1
  9
$DIMBLK1
  1
DOTSMALL
  9
$DIMBLK2
  1
DOTSMALL
  9
$DIMSTYLE
  2
INABA_S40G
  9
$DIMCLRD
 70
     0
  9
$DIMCLRE
 70
     0
  9
$DIMCLRT
 70
     7
  9
$DIMTFAC
 40
1.0
  9
$DIMGAP
 40
1.0
  9
$DIMJUST
 70
     0
  9
$DIMSD1
 70
     0
  9
$DIMSD2
 70
     0
  9
$DIMTOLJ
 70
     1
  9
$DIMTZIN
 70
     0
  9
$DIMALTZ
 70
     0
  9
$DIMALTTZ
 70
     0
  9
$DIMUPT
 70
     0
  9
$DIMDEC
 70
     1
  9
$DIMTDEC
 70
     4
  9
$DIMALTU
 70
     2
  9
$DIMALTTD
 70
     2
  9
$DIMTXSTY
  7
STYLE1
  9
$DIMAUNIT
 70
     0
  9
$DIMADEC
 70
     0
  9
$DIMALTRND
 40
0.0
  9
$DIMAZIN
 70
     0
  9
$DIMDSEP
 70
    46
  9
$DIMATFIT
 70
     3
  9
$DIMFRAC
 70
     0
  9
$DIMLDRBLK
  1

  9
$DIMLUNIT
 70
     2
  9
$DIMLWD
 70
    -2
  9
$DIMLWE
 70
    -2
  9
$DIMTMOVE
 70
     0
  9
$LUNITS
 70
     2
  9
$LUPREC
 70
     1
  9
$SKETCHINC
 40
1.0
  9
$FILLETRAD
 40
5.0
  9
$AUNITS
 70
     0
  9
$AUPREC
 70
     0
  9
$MENU
  1
acad
  9
$ELEVATION
 40
0.0
  9
$PELEVATION
 40
0.0
  9
$THICKNESS
 40
0.0
  9
$LIMCHECK
 70
     0
  9
$CHAMFERA
 40
0.0
  9
$CHAMFERB
 40
0.0
  9
$CHAMFERC
 40
0.0
  9
$CHAMFERD
 40
0.0
  9
$SKPOLY
 70
     0
  9
$TDCREATE
 40
2451052.600153125
  9
$TDUCREATE
 40
2451052.225153125
  9
$TDUPDATE
 40
2455091.676674618
  9
$TDUUPDATE
 40
2455091.301674618
  9
$TDINDWG
 40
0.3771797106
  9
$TDUSRTIMER
 40
0.3771797106
  9
$USRTIMER
 70
     1
  9
$ANGBASE
 50
0.0
  9
$ANGDIR
 70
     0
  9
$PDMODE
 70
     3
  9
$PDSIZE
 40
2.0
  9
$PLINEWID
 40
0.0
  9
$SPLFRAME
 70
     0
  9
$SPLINETYPE
 70
     6
  9
$SPLINESEGS
 70
     8
  9
$HANDSEED
  5
1328C
  9
$SURFTAB1
 70
     6
  9
$SURFTAB2
 70
     6
  9
$SURFTYPE
 70
     6
  9
$SURFU
 70
     6
  9
$SURFV
 70
     6
  9
$UCSBASE
  2

  9
$UCSNAME
  2

  9
$UCSORG
 10
0.0
 20
0.0
 30
0.0
  9
$UCSXDIR
 10
1.0
 20
0.0
 30
0.0
  9
$UCSYDIR
 10
0.0
 20
1.0
 30
0.0
  9
$UCSORTHOREF
  2

  9
$UCSORTHOVIEW
 70
     0
  9
$UCSORGTOP
 10
0.0
 20
0.0
 30
0.0
  9
$UCSORGBOTTOM
 10
0.0
 20
0.0
 30
0.0
  9
$UCSORGLEFT
 10
0.0
 20
0.0
 30
0.0
  9
$UCSORGRIGHT
 10
0.0
 20
0.0
 30
0.0
  9
$UCSORGFRONT
 10
0.0
 20
0.0
 30
0.0
  9
$UCSORGBACK
 10
0.0
 20
0.0
 30
0.0
  9
$PUCSBASE
  2

  9
$PUCSNAME
  2

  9
$PUCSORG
 10
0.0
 20
0.0
 30
0.0
  9
$PUCSXDIR
 10
1.0
 20
0.0
 30
0.0
  9
$PUCSYDIR
 10
0.0
 20
1.0
 30
0.0
  9
$PUCSORTHOREF
  2

  9
$PUCSORTHOVIEW
 70
     0
  9
$PUCSORGTOP
 10
0.0
 20
0.0
 30
0.0
  9
$PUCSORGBOTTOM
 10
0.0
 20
0.0
 30
0.0
  9
$PUCSORGLEFT
 10
0.0
 20
0.0
 30
0.0
  9
$PUCSORGRIGHT
 10
0.0
 20
0.0
 30
0.0
  9
$PUCSORGFRONT
 10
0.0
 20
0.0
 30
0.0
  9
$PUCSORGBACK
 10
0.0
 20
0.0
 30
0.0
  9
$USERI1
 70
     0
  9
$USERI2
 70
     0
  9
$USERI3
 70
     0
  9
$USERI4
 70
     0
  9
$USERI5
 70
     0
  9
$USERR1
 40
0.0
  9
$USERR2
 40
0.0
  9
$USERR3
 40
0.0
  9
$USERR4
 40
0.0
  9
$USERR5
 40
0.0
  9
$WORLDVIEW
 70
     1
  9
$SHADEDGE
 70
     3
  9
$SHADEDIF
 70
    70
  9
$TILEMODE
 70
     1
  9
$MAXACTVP
 70
    16
  9
$PINSBASE
 10
0.0
 20
0.0
 30
0.0
  9
$PLIMCHECK
 70
     0
  9
$PEXTMIN
 10
1.000000000000000E+20
 20
1.000000000000000E+20
 30
1.000000000000000E+20
  9
$PEXTMAX
 10
-1.000000000000000E+20
 20
-1.000000000000000E+20
 30
-1.000000000000000E+20
  9
$PLIMMIN
 10
0.0
 20
0.0
  9
$PLIMMAX
 10
420.0
 20
297.0
  9
$UNITMODE
 70
     0
  9
$VISRETAIN
 70
     0
  9
$PLINEGEN
 70
     0
  9
$PSLTSCALE
 70
     0
  9
$TREEDEPTH
 70
  3020
  9
$CMLSTYLE
  2
STANDARD
  9
$CMLJUST
 70
     0
  9
$CMLSCALE
 40
1.0
  9
$PROXYGRAPHICS
 70
     1
  9
$MEASUREMENT
 70
     1
  9
$CELWEIGHT
370
    -1
  9
$ENDCAPS
280
     0
  9
$JOINSTYLE
280
     0
  9
$LWDISPLAY
290
     0
  9
$INSUNITS
 70
     0
  9
$HYPERLINKBASE
  1

  9
$STYLESHEET
  1
inaba.ctb
  9
$XEDIT
290
     1
  9
$CEPSNTYPE
380
     0
  9
$PSTYLEMODE
290
     1
  9
$FINGERPRINTGUID
  2
{75B18900-CEBF-49DD-8AE4-C321C062D30F}
  9
$VERSIONGUID
  2
{36A15CBE-6BC5-4E5E-A5B6-422F47B5AB49}
  9
$EXTNAMES
290
     1
  9
$PSVPSCALE
 40
0.0
  9
$OLESTARTUP
290
     0
  0
ENDSEC
  0
SECTION
  2
CLASSES
  0
CLASS
  1
DICTIONARYVAR
  2
AcDbDictionaryVar
  3
ObjectDBX Classes
 90
        0
280
     0
281
     0
  0
CLASS
  1
ACDBDICTIONARYWDFLT
  2
AcDbDictionaryWithDefault
  3
ObjectDBX Classes
 90
        0
280
     0
281
     0
  0
CLASS
  1
ACDBPLACEHOLDER
  2
AcDbPlaceHolder
  3
ObjectDBX Classes
 90
        0
280
     0
281
     0
  0
CLASS
  1
LAYOUT
  2
AcDbLayout
  3
ObjectDBX Classes
 90
        0
280
     0
281
     0
  0
ENDSEC
  0
SECTION
  2
TABLES
  0
TABLE
  2
VPORT
  5
746D
330
0
100
AcDbSymbolTable
 70
     3
  0
VPORT
  5
13284
330
746D
100
AcDbSymbolTableRecord
100
AcDbViewportTableRecord
  2
*Active
 70
     0
 10
0.0
 20
0.0
 11
1.0
 21
1.0
 12
8223.761025238502
 22
5704.872900782046
 13
0.0
 23
0.0
 14
10.0
 24
10.0
 15
10.0
 25
10.0
 16
0.0
 26
0.0
 36
1.0
 17
0.0
 27
0.0
 37
0.0
 40
11492.6899840601
 41
1.492753623188405
 42
50.0
 43
0.0
 44
0.0
 50
0.0
 51
0.0
 71
     0
 72
     0
 73
     1
 74
     0
 75
     0
 76
     0
 77
     0
 78
     0
281
     0
 65
     1
110
0.0
120
0.0
130
0.0
111
1.0
121
0.0
131
0.0
112
0.0
122
1.0
132
0.0
 79
     0
146
0.0
  0
ENDTAB
  0
TABLE
  2
LTYPE
  5
746A
330
0
100
AcDbSymbolTable
 70
     4
  0
LTYPE
  5
7477
330
746A
100
AcDbSymbolTableRecord
100
AcDbLinetypeTableRecord
  2
BYBLOCK
 70
     0
  3

 72
    65
 73
     0
 40
0.0
  0
LTYPE
  5
7478
330
746A
100
AcDbSymbolTableRecord
100
AcDbLinetypeTableRecord
  2
BYLAYER
 70
     0
  3

 72
    65
 73
     0
 40
0.0
  0
LTYPE
  5
7479
330
746A
100
AcDbSymbolTableRecord
100
AcDbLinetypeTableRecord
  2
CONTINUOUS
 70
     0
  3
Solid line
 72
    65
 73
     0
 40
0.0
  0
LTYPE
  5
7816
330
746A
100
AcDbSymbolTableRecord
100
AcDbLinetypeTableRecord
  2
CENTER
 70
     0
  3
____ _ ____ _ ____ _ ____ _ ____ _ ____ _ ____ 
 72
    65
 73
     4
 40
2.0
 49
1.25
 74
     0
 49
-0.25
 74
     0
 49
0.25
 74
     0
 49
-0.25
 74
     0
  0
LTYPE
  5
781A
330
746A
100
AcDbSymbolTableRecord
100
AcDbLinetypeTableRecord
  2
HIDDEN
 70
     0
  3
__ __ __ __ __ __ __ __ __ __ __ __ __ __ __ __
 72
    65
 73
     2
 40
0.375
 49
0.25
 74
     0
 49
-0.125
 74
     0
  0
LTYPE
  5
781B
330
746A
100
AcDbSymbolTableRecord
100
AcDbLinetypeTableRecord
  2
PHANTOM
 70
     0
  3
______  __  __  ______  __  __  ______  __  __ 
 72
    65
 73
     6
 40
2.5
 49
1.25
 74
     0
 49
-0.25
 74
     0
 49
0.25
 74
     0
 49
-0.25
 74
     0
 49
0.25
 74
     0
 49
-0.25
 74
     0
  0
ENDTAB
  0
TABLE
  2
LAYER
  5
7467
330
0
100
AcDbSymbolTable
 70
    12
  0
LAYER
  5
7474
330
7467
100
AcDbSymbolTableRecord
100
AcDbLayerTableRecord
  2
0
 70
     0
 62
     7
  6
CONTINUOUS
370
    -3
390
12B3C
  0
LAYER
  5
DEB2
330
7467
100
AcDbSymbolTableRecord
100
AcDbLayerTableRecord
  2
センター
 70
     0
 62
     3
  6
CENTER
370
    -3
390
12B3C
  0
LAYER
  5
DEB3
330
7467
100
AcDbSymbolTableRecord
100
AcDbLayerTableRecord
  2
寸法
 70
     0
 62
     4
  6
CONTINUOUS
370
    -3
390
12B3C
  0
LAYER
  5
DEB4
330
7467
100
AcDbSymbolTableRecord
100
AcDbLayerTableRecord
  2
部品1
 70
     0
 62
     7
  6
CONTINUOUS
370
    -3
390
12B3C
  0
LAYER
  5
DEB5
330
7467
100
AcDbSymbolTableRecord
100
AcDbLayerTableRecord
  2
補助
 70
     0
 62
    -1
  6
CONTINUOUS
370
    -3
390
12B3C
  0
LAYER
  5
DEB6
330
7467
100
AcDbSymbolTableRecord
100
AcDbLayerTableRecord
  2
文字
 70
     0
 62
     7
  6
CONTINUOUS
370
    -3
390
12B3C
  0
LAYER
  5
F255
330
7467
100
AcDbSymbolTableRecord
100
AcDbLayerTableRecord
  2
DEFPOINTS
 70
     0
 62
     7
  6
CONTINUOUS
290
     0
370
    -3
390
12B3C
  0
LAYER
  5
10B54
330
7467
100
AcDbSymbolTableRecord
100
AcDbLayerTableRecord
  2
仕様書枠
 70
     0
 62
   230
  6
CONTINUOUS
370
    -3
390
12B3C
  0
LAYER
  5
11729
330
7467
100
AcDbSymbolTableRecord
100
AcDbLayerTableRecord
  2
Ｇ．Ｌ
 70
     0
 62
   230
  6
CONTINUOUS
370
    -3
390
12B3C
  0
LAYER
  5
1173F
330
7467
100
AcDbSymbolTableRecord
100
AcDbLayerTableRecord
  2
細線
 70
     0
 62
     6
  6
CONTINUOUS
370
    -3
390
12B3C
  0
LAYER
  5
11740
330
7467
100
AcDbSymbolTableRecord
100
AcDbLayerTableRecord
  2
点線
 70
     0
 62
     2
  6
HIDDEN
370
    -3
390
12B3C
  0
LAYER
  5
11FF2
330
7467
100
AcDbSymbolTableRecord
100
AcDbLayerTableRecord
  2
想像線
 70
     0
 62
     6
  6
PHANTOM
370
    -3
390
12B3C
  0
ENDTAB
  0
TABLE
  2
STYLE
  5
7468
330
0
100
AcDbSymbolTable
 70
     4
  0
STYLE
  5
7475
330
7468
100
AcDbSymbolTableRecord
100
AcDbTextStyleTableRecord
  2
STANDARD
 70
     0
 40
0.0
 41
1.0
 50
0.0
 71
     0
 42
4.0
  3
txt
  4
C:\AutoCAD LT\bigfont.shx
  0
STYLE
  5
F706
330
7468
100
AcDbSymbolTableRecord
100
AcDbTextStyleTableRecord
  2
STYLE1
 70
     0
 40
0.0
 41
1.0
 50
0.0
 71
     0
 42
4.0
  3
isocp.shx
  4
bigfont.shx
  0
STYLE
  5
103BF
330
7468
100
AcDbSymbolTableRecord
100
AcDbTextStyleTableRecord
  2
STYLE2
 70
     0
 40
0.0
 41
1.0
 50
0.0
 71
     0
 42
100.0
  3
MS PGothic.ttf
  4

1001
ACAD
1000
MS PGothic
1071
    32818
  0
STYLE
  5
10BAA
330
7468
100
AcDbSymbolTableRecord
100
AcDbTextStyleTableRecord
  2
STYLE3
 70
     0
 40
0.0
 41
1.0
 50
0.0
 71
     0
 42
100.0
  3
DFPGothic-EB.ttf
  4

1001
ACAD
1000
DFPGothic-EB
1071
    32818
  0
ENDTAB
  0
TABLE
  2
VIEW
  5
746B
330
0
100
AcDbSymbolTable
 70
     0
  0
ENDTAB
  0
TABLE
  2
UCS
  5
746C
330
0
100
AcDbSymbolTable
 70
     0
  0
ENDTAB
  0
TABLE
  2
APPID
  5
746E
330
0
100
AcDbSymbolTable
 70
     6
  0
APPID
  5
7476
330
746E
100
AcDbSymbolTableRecord
100
AcDbRegAppTableRecord
  2
ACAD
 70
     0
  0
APPID
  5
DEA9
330
746E
100
AcDbSymbolTableRecord
100
AcDbRegAppTableRecord
  2
CONTENTBLOCKICON
 70
     0
  0
APPID
  5
DEAA
330
746E
100
AcDbSymbolTableRecord
100
AcDbRegAppTableRecord
  2
CONTENTBLOCKDESCRIPTION
 70
     0
  0
APPID
  5
E71D
330
746E
100
AcDbSymbolTableRecord
100
AcDbRegAppTableRecord
  2
CONTENTTABDATA
 70
     0
  0
APPID
  5
E71E
330
746E
100
AcDbSymbolTableRecord
100
AcDbRegAppTableRecord
  2
CONTENTCURRENTTAB
 70
     0
  0
APPID
  5
F3BA
330
746E
100
AcDbSymbolTableRecord
100
AcDbRegAppTableRecord
  2
DRAWINGVARIABLESXDATA
 70
     0
  0
ENDTAB
  0
TABLE
  2
DIMSTYLE
  5
746F
330
0
100
AcDbSymbolTable
 70
     5
100
AcDbDimStyleTable
 71
     0
  0
DIMSTYLE
105
7484
330
746F
100
AcDbSymbolTableRecord
100
AcDbDimStyleTableRecord
  2
JIS
 70
     0
 41
2.5
 42
1.0
 43
7.0
 44
1.0
 73
     0
 74
     0
 77
     1
 78
     8
140
2.5
141
0.0
143
0.0394
147
0.0
172
     1
174
     1
175
     1
340
7475
  0
DIMSTYLE
105
F236
102
{ACAD_REACTORS
330
11A91
102
}
330
746F
100
AcDbSymbolTableRecord
100
AcDbDimStyleTableRecord
  2
INABA_S40
 70
     0
 40
40.0
 41
2.5
 42
0.5
 43
7.0
 44
1.5
 73
     0
 74
     0
 77
     3
 78
     8
140
3.0
141
0.0
143
0.0394
147
1.0
172
     1
173
     1
174
     1
175
     1
178
     7
289
     0
340
7475
341
DEAC
343
DEAC
344
DEAC
  0
DIMSTYLE
105
F71F
102
{ACAD_REACTORS
330
11A2D
330
11A71
330
11AC5
330
11AF3
330
12312
330
12311
330
12317
330
12319
330
12318
330
12313
330
127E0
330
1197F
330
11980
330
11981
330
11982
330
11983
330
11A2C
330
11A91
102
}
330
746F
100
AcDbSymbolTableRecord
100
AcDbDimStyleTableRecord
  2
INABA_S40G
 70
     0
 40
40.0
 41
2.5
 42
0.5
 43
7.0
 44
1.5
 73
     0
 74
     0
 77
     3
 78
     8
140
3.0
141
0.0
143
0.0394
147
1.0
172
     1
173
     1
174
     1
178
     7
271
     1
340
F706
341
F770
343
F770
344
F770
  0
DIMSTYLE
105
11FF3
330
746F
100
AcDbSymbolTableRecord
100
AcDbDimStyleTableRecord
  2
INABA_S50G
 70
     0
 41
125.0
 42
25.0
 43
7.0
 44
75.0
 73
     0
 74
     0
 77
     3
 78
     8
140
150.0
141
0.0
143
0.0394
147
25.0
172
     1
173
     1
174
     1
178
     7
271
     1
340
F706
341
F770
343
F770
344
F770
  0
DIMSTYLE
105
12BA1
102
{ACAD_REACTORS
330
13135
330
1313E
330
13140
330
1314A
330
1314E
330
1314F
330
13151
102
}
330
746F
100
AcDbSymbolTableRecord
100
AcDbDimStyleTableRecord
  2
INABA_S40G詳細用20
 70
     0
 40
40.0
 41
2.5
 42
0.5
 43
7.0
 44
1.5
 73
     0
 74
     0
 77
     3
 78
     8
140
3.0
141
0.0
143
0.0394
144
0.5
147
1.0
172
     1
173
     1
174
     1
178
     7
271
     0
272
     0
340
F706
341
F770
343
F770
344
F770
  0
ENDTAB
  0
TABLE
  2
BLOCK_RECORD
  5
7466
330
0
100
AcDbSymbolTable
 70
    56
  0
BLOCK_RECORD
  5
747D
330
7466
100
AcDbSymbolTableRecord
100
AcDbBlockTableRecord
  2
*MODEL_SPACE
340
12B41
  0
BLOCK_RECORD
  5
747A
330
7466
100
AcDbSymbolTableRecord
100
AcDbBlockTableRecord
  2
*PAPER_SPACE
340
12B42
  0
BLOCK_RECORD
  5
DEAC
330
7466
100
AcDbSymbolTableRecord
100
AcDbBlockTableRecord
  2
_OPEN
340
0
  0
BLOCK_RECORD
  5
F770
330
7466
100
AcDbSymbolTableRecord
100
AcDbBlockTableRecord
  2
_DOTSMALL
340
0
102
{BLKREFS
331
11D5B
331
11D5C
331
123D6
331
123D7
331
123EA
331
123EB
331
123F4
331
123F5
331
123FE
331
123FF
331
12383
331
12384
331
1278E
331
1278F
331
12799
331
1279A
331
122FD
331
122FE
331
12755
331
12756
331
1230A
331
1230B
331
127CE
331
127CF
331
12322
331
12323
331
1232E
331
1232F
331
127D9
331
127DA
331
12348
331
12349
331
12356
331
12357
331
12362
331
12363
331
127F1
331
127F2
331
12D5F
331
12D60
331
12D68
331
12D69
331
12D71
331
12D72
331
12D7A
331
12D7B
331
12D83
331
12D84
331
12D8C
331
12D8D
331
12D97
331
12D98
331
12DED
331
12DEE
331
12DF9
331
12DFA
331
12DC6
331
12DC7
331
12DD2
331
12DD3
331
12DBA
331
12DBB
331
12DAE
331
12DAF
331
12DE0
331
12DE1
331
12FD3
331
12FD4
331
12FDC
331
12FDD
331
12FE5
331
12FE6
331
12FEE
331
12FEF
331
12FF7
331
12FF8
331
13000
331
13001
331
1300B
331
1300C
331
13045
331
1302C
331
1302D
331
13020
331
13021
331
13052
331
13053
331
1305F
331
13060
331
1306B
331
1306C
331
13038
331
13039
331
13044
331
13243
331
13244
331
1324C
331
1324D
331
13255
331
13256
331
1325E
331
1325F
331
13267
331
13268
331
13270
331
13271
331
1327B
331
1327C
102
}
  0
BLOCK_RECORD
  5
11984
330
7466
100
AcDbSymbolTableRecord
100
AcDbBlockTableRecord
  2
*D2
340
0
  0
BLOCK_RECORD
  5
11990
330
7466
100
AcDbSymbolTableRecord
100
AcDbBlockTableRecord
  2
*D3
340
0
  0
BLOCK_RECORD
  5
1199B
330
7466
100
AcDbSymbolTableRecord
100
AcDbBlockTableRecord
  2
*D4
340
0
  0
BLOCK_RECORD
  5
119A6
330
7466
100
AcDbSymbolTableRecord
100
AcDbBlockTableRecord
  2
*D5
340
0
  0
BLOCK_RECORD
  5
119B1
330
7466
100
AcDbSymbolTableRecord
100
AcDbBlockTableRecord
  2
*D6
340
0
  0
BLOCK_RECORD
  5
11A30
330
7466
100
AcDbSymbolTableRecord
100
AcDbBlockTableRecord
  2
*D7
340
0
  0
BLOCK_RECORD
  5
11A3C
330
7466
100
AcDbSymbolTableRecord
100
AcDbBlockTableRecord
  2
*D8
340
0
  0
BLOCK_RECORD
  5
11A69
330
7466
100
AcDbSymbolTableRecord
100
AcDbBlockTableRecord
  2
*D9
340
0
  0
BLOCK_RECORD
  5
11A86
330
7466
100
AcDbSymbolTableRecord
100
AcDbBlockTableRecord
  2
*D10
340
0
  0
BLOCK_RECORD
  5
11ABD
330
7466
100
AcDbSymbolTableRecord
100
AcDbBlockTableRecord
  2
*D11
340
0
  0
BLOCK_RECORD
  5
11AE8
330
7466
100
AcDbSymbolTableRecord
100
AcDbBlockTableRecord
  2
*D12
340
0
  0
BLOCK_RECORD
  5
1231D
330
7466
100
AcDbSymbolTableRecord
100
AcDbBlockTableRecord
  2
*D13
340
0
  0
BLOCK_RECORD
  5
12329
330
7466
100
AcDbSymbolTableRecord
100
AcDbBlockTableRecord
  2
*D14
340
0
  0
BLOCK_RECORD
  5
12335
330
7466
100
AcDbSymbolTableRecord
100
AcDbBlockTableRecord
  2
*D15
340
0
  0
BLOCK_RECORD
  5
12341
330
7466
100
AcDbSymbolTableRecord
100
AcDbBlockTableRecord
  2
*D16
340
0
  0
BLOCK_RECORD
  5
1234F
330
7466
100
AcDbSymbolTableRecord
100
AcDbBlockTableRecord
  2
*D17
340
0
  0
BLOCK_RECORD
  5
1235D
330
7466
100
AcDbSymbolTableRecord
100
AcDbBlockTableRecord
  2
*D18
340
0
  0
BLOCK_RECORD
  5
127E1
330
7466
100
AcDbSymbolTableRecord
100
AcDbBlockTableRecord
  2
*D19
340
0
  0
BLOCK_RECORD
  5
12F78
330
7466
100
AcDbSymbolTableRecord
100
AcDbBlockTableRecord
  2
*D34
340
0
  0
BLOCK_RECORD
  5
12F85
330
7466
100
AcDbSymbolTableRecord
100
AcDbBlockTableRecord
  2
*D35
340
0
  0
BLOCK_RECORD
  5
12F91
330
7466
100
AcDbSymbolTableRecord
100
AcDbBlockTableRecord
  2
*D36
340
0
  0
BLOCK_RECORD
  5
12F9D
330
7466
100
AcDbSymbolTableRecord
100
AcDbBlockTableRecord
  2
*D37
340
0
  0
BLOCK_RECORD
  5
12FA9
330
7466
100
AcDbSymbolTableRecord
100
AcDbBlockTableRecord
  2
*D38
340
0
  0
BLOCK_RECORD
  5
12FB5
330
7466
100
AcDbSymbolTableRecord
100
AcDbBlockTableRecord
  2
*D39
340
0
  0
BLOCK_RECORD
  5
12FC1
330
7466
100
AcDbSymbolTableRecord
100
AcDbBlockTableRecord
  2
*D40
340
0
  0
BLOCK_RECORD
  5
1301B
330
7466
100
AcDbSymbolTableRecord
100
AcDbBlockTableRecord
  2
*D41
340
0
  0
BLOCK_RECORD
  5
13027
330
7466
100
AcDbSymbolTableRecord
100
AcDbBlockTableRecord
  2
*D42
340
0
  0
BLOCK_RECORD
  5
13033
330
7466
100
AcDbSymbolTableRecord
100
AcDbBlockTableRecord
  2
*D43
340
0
  0
BLOCK_RECORD
  5
1303F
330
7466
100
AcDbSymbolTableRecord
100
AcDbBlockTableRecord
  2
*D44
340
0
  0
BLOCK_RECORD
  5
1304B
330
7466
100
AcDbSymbolTableRecord
100
AcDbBlockTableRecord
  2
*D45
340
0
  0
BLOCK_RECORD
  5
13059
330
7466
100
AcDbSymbolTableRecord
100
AcDbBlockTableRecord
  2
*D46
340
0
  0
BLOCK_RECORD
  5
13066
330
7466
100
AcDbSymbolTableRecord
100
AcDbBlockTableRecord
  2
*D47
340
0
  0
BLOCK_RECORD
  5
131E8
330
7466
100
AcDbSymbolTableRecord
100
AcDbBlockTableRecord
  2
*D49
340
0
  0
BLOCK_RECORD
  5
131F5
330
7466
100
AcDbSymbolTableRecord
100
AcDbBlockTableRecord
  2
*D50
340
0
  0
BLOCK_RECORD
  5
13201
330
7466
100
AcDbSymbolTableRecord
100
AcDbBlockTableRecord
  2
*D51
340
0
  0
BLOCK_RECORD
  5
1320D
330
7466
100
AcDbSymbolTableRecord
100
AcDbBlockTableRecord
  2
*D52
340
0
  0
BLOCK_RECORD
  5
13219
330
7466
100
AcDbSymbolTableRecord
100
AcDbBlockTableRecord
  2
*D53
340
0
  0
BLOCK_RECORD
  5
13225
330
7466
100
AcDbSymbolTableRecord
100
AcDbBlockTableRecord
  2
*D54
340
0
  0
BLOCK_RECORD
  5
13231
330
7466
100
AcDbSymbolTableRecord
100
AcDbBlockTableRecord
  2
*D55
340
0
  0
ENDTAB
  0
ENDSEC
  0
SECTION
  2
BLOCKS
  0
BLOCK
  5
7489
330
747D
100
AcDbEntity
  8
0
100
AcDbBlockBegin
  2
*MODEL_SPACE
 70
     0
 10
0.0
 20
0.0
 30
0.0
  3
*MODEL_SPACE
  1

  0
ENDBLK
  5
748A
330
747D
100
AcDbEntity
  8
0
100
AcDbBlockEnd
  0
BLOCK
  5
7487
330
747A
100
AcDbEntity
 67
     1
  8
0
100
AcDbBlockBegin
  2
*PAPER_SPACE
 70
     0
 10
0.0
 20
0.0
 30
0.0
  3
*PAPER_SPACE
  1

  0
ENDBLK
  5
7488
330
747A
100
AcDbEntity
 67
     1
  8
0
100
AcDbBlockEnd
  0
BLOCK
  5
DEAD
330
DEAC
100
AcDbEntity
  8
0
100
AcDbBlockBegin
  2
_OPEN
 70
     0
 10
0.0
 20
0.0
 30
0.0
  3
_OPEN
  1

  0
LINE
  5
DEAE
330
DEAC
100
AcDbEntity
  8
0
  6
ByBlock
 62
     0
100
AcDbLine
 10
-1.0
 20
0.1666666666666666
 30
0.0
 11
0.0
 21
0.0
 31
0.0
  0
LINE
  5
DEAF
330
DEAC
100
AcDbEntity
  8
0
  6
ByBlock
 62
     0
100
AcDbLine
 10
0.0
 20
0.0
 30
0.0
 11
-1.0
 21
-0.1666666666666666
 31
0.0
  0
LINE
  5
DEB0
330
DEAC
100
AcDbEntity
  8
0
  6
ByBlock
 62
     0
100
AcDbLine
 10
0.0
 20
0.0
 30
0.0
 11
-1.0
 21
0.0
 31
0.0
  0
ENDBLK
  5
DEB1
330
DEAC
100
AcDbEntity
  8
0
100
AcDbBlockEnd
  0
BLOCK
  5
F771
330
F770
100
AcDbEntity
  8
0
 48
50.0
100
AcDbBlockBegin
  2
_DOTSMALL
 70
     0
 10
0.0
 20
0.0
 30
0.0
  3
_DOTSMALL
  1

  0
LWPOLYLINE
  5
F772
330
F770
100
AcDbEntity
  8
0
  6
ByBlock
 62
     0
 48
50.0
100
AcDbPolyline
 90
        2
 70
     1
 43
0.5
 10
-0.0625
 20
0.0
 42
1.0
 10
0.0625
 20
0.0
 42
1.0
  0
ENDBLK
  5
F776
330
F770
100
AcDbEntity
  8
0
 48
50.0
100
AcDbBlockEnd
  0
BLOCK
  5
123D2
330
11984
100
AcDbEntity
  8
0
 48
50.0
100
AcDbBlockBegin
  2
*D2
 70
     1
 10
0.0
 20
0.0
 30
0.0
  3
*D2
  1

  0
LINE
  5
123D3
330
11984
100
AcDbEntity
  8
0
  6
ByBlock
 62
     0
 48
50.0
100
AcDbLine
 10
6843.253519151359
 20
10206.74038870937
 30
0.0
 11
6360.759246580593
 21
10206.74038870937
 31
0.0
  0
LINE
  5
123D4
330
11984
100
AcDbEntity
  8
0
  6
ByBlock
 62
     0
 48
50.0
100
AcDbLine
 10
6793.25351915136
 20
9286.740388709375
 30
0.0
 11
6360.759246580593
 21
9286.740388709375
 31
0.0
  0
LINE
  5
123D5
330
11984
100
AcDbEntity
  8
0
  6
ByBlock
 62
     0
 48
50.0
100
AcDbLine
 10
6420.759246580594
 20
10206.74038870937
 30
0.0
 11
6420.759246580594
 21
9286.740388709375
 31
0.0
  0
INSERT
  5
123D6
330
11984
100
AcDbEntity
  8
0
  6
ByBlock
 62
     0
 48
50.0
100
AcDbBlockReference
  2
_DOTSMALL
 10
6420.759246580594
 20
10206.74038870937
 30
0.0
 41
100.0
 42
100.0
 43
100.0
 50
90.0
  0
INSERT
  5
123D7
330
11984
100
AcDbEntity
  8
0
  6
ByBlock
 62
     0
 48
50.0
100
AcDbBlockReference
  2
_DOTSMALL
 10
6420.759246580594
 20
9286.740388709375
 30
0.0
 41
100.0
 42
100.0
 43
100.0
 50
270.0
  0
MTEXT
  5
123D8
330
11984
100
AcDbEntity
  8
0
  6
ByBlock
 62
     7
 48
50.0
100
AcDbMText
 10
6320.71843401579
 20
9746.740388709376
 30
0.0
 40
120.0
 41
0.0
 71
     5
 72
     1
  1
\A1;920
  7
STYLE1
 11
0.0000000000000001
 21
1.0
 31
0.0
 73
     1
 44
1.0
1001
ACAD
1000
MTEXTBEGIN
1070
    73
1070
     1
1070
    44
1040
1.0
1070
    74
1070
     0
1000
MTEXTEND
  0
POINT
  5
123D9
330
11984
100
AcDbEntity
  8
DEFPOINTS
  6
ByBlock
 62
     0
 48
50.0
100
AcDbPoint
 10
6863.25351915136
 20
10206.74038870937
 30
0.0
  0
POINT
  5
123DA
330
11984
100
AcDbEntity
  8
DEFPOINTS
  6
ByBlock
 62
     0
 48
50.0
100
AcDbPoint
 10
6813.253519151361
 20
9286.740388709375
 30
0.0
  0
POINT
  5
123DB
330
11984
100
AcDbEntity
  8
DEFPOINTS
  6
ByBlock
 62
     0
 48
50.0
100
AcDbPoint
 10
6420.759246580594
 20
9286.740388709375
 30
0.0
  0
ENDBLK
  5
123DC
330
11984
100
AcDbEntity
  8
0
 48
50.0
100
AcDbBlockEnd
  0
BLOCK
  5
123E7
330
11990
100
AcDbEntity
  8
0
 48
50.0
100
AcDbBlockBegin
  2
*D3
 70
     1
 10
0.0
 20
0.0
 30
0.0
  3
*D3
  1

  0
LINE
  5
123E8
330
11990
100
AcDbEntity
  8
0
  6
ByBlock
 62
     0
 48
50.0
100
AcDbLine
 10
6793.25351915136
 20
7636.740388709376
 30
0.0
 11
6360.759246580593
 21
7636.740388709376
 31
0.0
  0
LINE
  5
123E9
330
11990
100
AcDbEntity
  8
0
  6
ByBlock
 62
     0
 48
50.0
100
AcDbLine
 10
6420.759246580594
 20
9286.740388709375
 30
0.0
 11
6420.759246580594
 21
7636.740388709376
 31
0.0
  0
INSERT
  5
123EA
330
11990
100
AcDbEntity
  8
0
  6
ByBlock
 62
     0
 48
50.0
100
AcDbBlockReference
  2
_DOTSMALL
 10
6420.759246580594
 20
9286.740388709375
 30
0.0
 41
100.0
 42
100.0
 43
100.0
 50
90.0
  0
INSERT
  5
123EB
330
11990
100
AcDbEntity
  8
0
  6
ByBlock
 62
     0
 48
50.0
100
AcDbBlockReference
  2
_DOTSMALL
 10
6420.759246580594
 20
7636.740388709376
 30
0.0
 41
100.0
 42
100.0
 43
100.0
 50
270.0
  0
MTEXT
  5
123EC
330
11990
100
AcDbEntity
  8
0
  6
ByBlock
 62
     7
 48
50.0
100
AcDbMText
 10
6320.759246580593
 20
8461.740388709376
 30
0.0
 40
120.0
 41
0.0
 71
     5
 72
     1
  1
\A1;1650
  7
STYLE1
 11
0.0000000000000001
 21
1.0
 31
0.0
 73
     1
 44
1.0
1001
ACAD
1000
MTEXTBEGIN
1070
    73
1070
     1
1070
    44
1040
1.0
1070
    74
1070
     0
1000
MTEXTEND
  0
POINT
  5
123ED
330
11990
100
AcDbEntity
  8
DEFPOINTS
  6
ByBlock
 62
     0
 48
50.0
100
AcDbPoint
 10
6813.253519151361
 20
9286.740388709375
 30
0.0
  0
POINT
  5
123EE
330
11990
100
AcDbEntity
  8
DEFPOINTS
  6
ByBlock
 62
     0
 48
50.0
100
AcDbPoint
 10
6813.253519151359
 20
7636.740388709376
 30
0.0
  0
POINT
  5
123EF
330
11990
100
AcDbEntity
  8
DEFPOINTS
  6
ByBlock
 62
     0
 48
50.0
100
AcDbPoint
 10
6420.759246580594
 20
7636.740388709376
 30
0.0
  0
ENDBLK
  5
123F0
330
11990
100
AcDbEntity
  8
0
 48
50.0
100
AcDbBlockEnd
  0
BLOCK
  5
123F1
330
1199B
100
AcDbEntity
  8
0
 48
50.0
100
AcDbBlockBegin
  2
*D4
 70
     1
 10
0.0
 20
0.0
 30
0.0
  3
*D4
  1

  0
LINE
  5
123F2
330
1199B
100
AcDbEntity
  8
0
  6
ByBlock
 62
     0
 48
50.0
100
AcDbLine
 10
6793.25351915136
 20
5986.740388709377
 30
0.0
 11
6360.759246580593
 21
5986.740388709377
 31
0.0
  0
LINE
  5
123F3
330
1199B
100
AcDbEntity
  8
0
  6
ByBlock
 62
     0
 48
50.0
100
AcDbLine
 10
6420.759246580594
 20
7636.740388709376
 30
0.0
 11
6420.759246580594
 21
5986.740388709377
 31
0.0
  0
INSERT
  5
123F4
330
1199B
100
AcDbEntity
  8
0
  6
ByBlock
 62
     0
 48
50.0
100
AcDbBlockReference
  2
_DOTSMALL
 10
6420.759246580594
 20
7636.740388709376
 30
0.0
 41
100.0
 42
100.0
 43
100.0
 50
90.0
  0
INSERT
  5
123F5
330
1199B
100
AcDbEntity
  8
0
  6
ByBlock
 62
     0
 48
50.0
100
AcDbBlockReference
  2
_DOTSMALL
 10
6420.759246580594
 20
5986.740388709377
 30
0.0
 41
100.0
 42
100.0
 43
100.0
 50
270.0
  0
MTEXT
  5
123F6
330
1199B
100
AcDbEntity
  8
0
  6
ByBlock
 62
     7
 48
50.0
100
AcDbMText
 10
6320.759246580593
 20
6811.740388709377
 30
0.0
 40
120.0
 41
0.0
 71
     5
 72
     1
  1
\A1;1650
  7
STYLE1
 11
0.0000000000000001
 21
1.0
 31
0.0
 73
     1
 44
1.0
1001
ACAD
1000
MTEXTBEGIN
1070
    73
1070
     1
1070
    44
1040
1.0
1070
    74
1070
     0
1000
MTEXTEND
  0
POINT
  5
123F7
330
1199B
100
AcDbEntity
  8
DEFPOINTS
  6
ByBlock
 62
     0
 48
50.0
100
AcDbPoint
 10
6813.253519151359
 20
7636.740388709376
 30
0.0
  0
POINT
  5
123F8
330
1199B
100
AcDbEntity
  8
DEFPOINTS
  6
ByBlock
 62
     0
 48
50.0
100
AcDbPoint
 10
6813.253519151359
 20
5986.740388709377
 30
0.0
  0
POINT
  5
123F9
330
1199B
100
AcDbEntity
  8
DEFPOINTS
  6
ByBlock
 62
     0
 48
50.0
100
AcDbPoint
 10
6420.759246580594
 20
5986.740388709377
 30
0.0
  0
ENDBLK
  5
123FA
330
1199B
100
AcDbEntity
  8
0
 48
50.0
100
AcDbBlockEnd
  0
BLOCK
  5
123FB
330
119A6
100
AcDbEntity
  8
0
 48
50.0
100
AcDbBlockBegin
  2
*D5
 70
     1
 10
0.0
 20
0.0
 30
0.0
  3
*D5
  1

  0
LINE
  5
123FC
330
119A6
100
AcDbEntity
  8
0
  6
ByBlock
 62
     0
 48
50.0
100
AcDbLine
 10
6843.253519151359
 20
5066.740388709376
 30
0.0
 11
6360.759246580593
 21
5066.740388709376
 31
0.0
  0
LINE
  5
123FD
330
119A6
100
AcDbEntity
  8
0
  6
ByBlock
 62
     0
 48
50.0
100
AcDbLine
 10
6420.759246580594
 20
5986.740388709377
 30
0.0
 11
6420.759246580594
 21
5066.740388709376
 31
0.0
  0
INSERT
  5
123FE
330
119A6
100
AcDbEntity
  8
0
  6
ByBlock
 62
     0
 48
50.0
100
AcDbBlockReference
  2
_DOTSMALL
 10
6420.759246580594
 20
5986.740388709377
 30
0.0
 41
100.0
 42
100.0
 43
100.0
 50
90.0
  0
INSERT
  5
123FF
330
119A6
100
AcDbEntity
  8
0
  6
ByBlock
 62
     0
 48
50.0
100
AcDbBlockReference
  2
_DOTSMALL
 10
6420.759246580594
 20
5066.740388709376
 30
0.0
 41
100.0
 42
100.0
 43
100.0
 50
270.0
  0
MTEXT
  5
12400
330
119A6
100
AcDbEntity
  8
0
  6
ByBlock
 62
     7
 48
50.0
100
AcDbMText
 10
6320.71843401579
 20
5526.740388709377
 30
0.0
 40
120.0
 41
0.0
 71
     5
 72
     1
  1
\A1;920
  7
STYLE1
 11
0.0000000000000001
 21
1.0
 31
0.0
 73
     1
 44
1.0
1001
ACAD
1000
MTEXTBEGIN
1070
    73
1070
     1
1070
    44
1040
1.0
1070
    74
1070
     0
1000
MTEXTEND
  0
POINT
  5
12401
330
119A6
100
AcDbEntity
  8
DEFPOINTS
  6
ByBlock
 62
     0
 48
50.0
100
AcDbPoint
 10
6813.253519151359
 20
5986.740388709377
 30
0.0
  0
POINT
  5
12402
330
119A6
100
AcDbEntity
  8
DEFPOINTS
  6
ByBlock
 62
     0
 48
50.0
100
AcDbPoint
 10
6863.25351915136
 20
5066.740388709376
 30
0.0
  0
POINT
  5
12403
330
119A6
100
AcDbEntity
  8
DEFPOINTS
  6
ByBlock
 62
     0
 48
50.0
100
AcDbPoint
 10
6420.759246580594
 20
5066.740388709376
 30
0.0
  0
ENDBLK
  5
12404
330
119A6
100
AcDbEntity
  8
0
 48
50.0
100
AcDbBlockEnd
  0
BLOCK
  5
1237F
330
119B1
100
AcDbEntity
  8
0
 48
50.0
100
AcDbBlockBegin
  2
*D6
 70
     1
 10
0.0
 20
0.0
 30
0.0
  3
*D6
  1

  0
LINE
  5
12380
330
119B1
100
AcDbEntity
  8
0
  6
ByBlock
 62
     0
 48
50.0
100
AcDbLine
 10
6843.253519151359
 20
10206.74038870937
 30
0.0
 11
5915.268362853058
 21
10206.74038870937
 31
0.0
  0
LINE
  5
12381
330
119B1
100
AcDbEntity
  8
0
  6
ByBlock
 62
     0
 48
50.0
100
AcDbLine
 10
6843.253519151359
 20
5066.740388709376
 30
0.0
 11
5915.268362853058
 21
5066.740388709376
 31
0.0
  0
LINE
  5
12382
330
119B1
100
AcDbEntity
  8
0
  6
ByBlock
 62
     0
 48
50.0
100
AcDbLine
 10
5975.268362853058
 20
10206.74038870937
 30
0.0
 11
5975.268362853057
 21
5066.740388709376
 31
0.0
  0
INSERT
  5
12383
330
119B1
100
AcDbEntity
  8
0
  6
ByBlock
 62
     0
 48
50.0
100
AcDbBlockReference
  2
_DOTSMALL
 10
5975.268362853058
 20
10206.74038870937
 30
0.0
 41
100.0
 42
100.0
 43
100.0
 50
90.0
  0
INSERT
  5
12384
330
119B1
100
AcDbEntity
  8
0
  6
ByBlock
 62
     0
 48
50.0
100
AcDbBlockReference
  2
_DOTSMALL
 10
5975.268362853057
 20
5066.740388709376
 30
0.0
 41
100.0
 42
100.0
 43
100.0
 50
270.0
  0
MTEXT
  5
12385
330
119B1
100
AcDbEntity
  8
0
  6
ByBlock
 62
     7
 48
50.0
100
AcDbMText
 10
5875.268362853058
 20
7636.740388709376
 30
0.0
 40
120.0
 41
0.0
 71
     5
 72
     1
  1
\A1;基礎寸法 5140
  7
STYLE1
 11
0.0000000000000001
 21
1.0
 31
0.0
 73
     1
 44
1.0
1001
ACAD
1000
MTEXTBEGIN
1070
    73
1070
     1
1070
    44
1040
1.0
1070
    74
1070
     0
1000
MTEXTEND
  0
POINT
  5
12386
330
119B1
100
AcDbEntity
  8
DEFPOINTS
  6
ByBlock
 62
     0
 48
50.0
100
AcDbPoint
 10
6863.25351915136
 20
10206.74038870937
 30
0.0
  0
POINT
  5
12387
330
119B1
100
AcDbEntity
  8
DEFPOINTS
  6
ByBlock
 62
     0
 48
50.0
100
AcDbPoint
 10
6863.25351915136
 20
5066.740388709376
 30
0.0
  0
POINT
  5
12388
330
119B1
100
AcDbEntity
  8
DEFPOINTS
  6
ByBlock
 62
     0
 48
50.0
100
AcDbPoint
 10
5975.268362853057
 20
5066.740388709376
 30
0.0
  0
ENDBLK
  5
12389
330
119B1
100
AcDbEntity
  8
0
 48
50.0
100
AcDbBlockEnd
  0
BLOCK
  5
1278A
330
11A30
100
AcDbEntity
  8
0
 48
50.0
100
AcDbBlockBegin
  2
*D7
 70
     1
 10
0.0
 20
0.0
 30
0.0
  3
*D7
  1

  0
LINE
  5
1278B
330
11A30
100
AcDbEntity
  8
0
  6
ByBlock
 62
     0
 48
50.0
100
AcDbLine
 10
5543.600000000004
 20
7956.740388709377
 30
0.0
 11
5543.600000000004
 21
8140.635297426983
 31
0.0
  0
LINE
  5
1278C
330
11A30
100
AcDbEntity
  8
0
  6
ByBlock
 62
     0
 48
50.0
100
AcDbLine
 10
6143.600000000004
 20
7956.740388709377
 30
0.0
 11
6143.600000000004
 21
8140.635297426983
 31
0.0
  0
LINE
  5
1278D
330
11A30
100
AcDbEntity
  8
0
  6
ByBlock
 62
     0
 48
50.0
100
AcDbLine
 10
5543.600000000004
 20
8080.635297426983
 30
0.0
 11
6143.600000000004
 21
8080.635297426983
 31
0.0
  0
INSERT
  5
1278E
330
11A30
100
AcDbEntity
  8
0
  6
ByBlock
 62
     0
 48
50.0
100
AcDbBlockReference
  2
_DOTSMALL
 10
5543.600000000004
 20
8080.635297426983
 30
0.0
 41
100.0
 42
100.0
 43
100.0
 50
180.0
  0
INSERT
  5
1278F
330
11A30
100
AcDbEntity
  8
0
  6
ByBlock
 62
     0
 48
50.0
100
AcDbBlockReference
  2
_DOTSMALL
 10
6143.600000000004
 20
8080.635297426983
 30
0.0
 41
100.0
 42
100.0
 43
100.0
  0
MTEXT
  5
12790
330
11A30
100
AcDbEntity
  8
0
  6
ByBlock
 62
     7
 48
50.0
100
AcDbMText
 10
5843.600000000004
 20
8180.635297426983
 30
0.0
 40
120.0
 41
0.0
 71
     5
 72
     1
  1
\A1;600
  7
STYLE1
 73
     1
 44
1.0
1001
ACAD
1000
MTEXTBEGIN
1070
    73
1070
     1
1070
    44
1040
1.0
1070
    74
1070
     0
1000
MTEXTEND
  0
POINT
  5
12791
330
11A30
100
AcDbEntity
  8
DEFPOINTS
  6
ByBlock
 62
     0
 48
50.0
100
AcDbPoint
 10
5543.600000000004
 20
7936.740388709377
 30
0.0
  0
POINT
  5
12792
330
11A30
100
AcDbEntity
  8
DEFPOINTS
  6
ByBlock
 62
     0
 48
50.0
100
AcDbPoint
 10
6143.600000000004
 20
7936.740388709377
 30
0.0
  0
POINT
  5
12793
330
11A30
100
AcDbEntity
  8
DEFPOINTS
  6
ByBlock
 62
     0
 48
50.0
100
AcDbPoint
 10
6143.600000000004
 20
8080.635297426983
 30
0.0
  0
ENDBLK
  5
12794
330
11A30
100
AcDbEntity
  8
0
 48
50.0
100
AcDbBlockEnd
  0
BLOCK
  5
12795
330
11A3C
100
AcDbEntity
  8
0
 48
50.0
100
AcDbBlockBegin
  2
*D8
 70
     1
 10
0.0
 20
0.0
 30
0.0
  3
*D8
  1

  0
LINE
  5
12796
330
11A3C
100
AcDbEntity
  8
0
  6
ByBlock
 62
     0
 48
50.0
100
AcDbLine
 10
6163.600000000004
 20
7936.740388709377
 30
0.0
 11
6417.461657003389
 21
7936.740388709377
 31
0.0
  0
LINE
  5
12797
330
11A3C
100
AcDbEntity
  8
0
  6
ByBlock
 62
     0
 48
50.0
100
AcDbLine
 10
6163.600000000004
 20
7336.740388709377
 30
0.0
 11
6417.461657003389
 21
7336.740388709377
 31
0.0
  0
LINE
  5
12798
330
11A3C
100
AcDbEntity
  8
0
  6
ByBlock
 62
     0
 48
50.0
100
AcDbLine
 10
6357.46165700339
 20
7936.740388709377
 30
0.0
 11
6357.461657003389
 21
7336.740388709377
 31
0.0
  0
INSERT
  5
12799
330
11A3C
100
AcDbEntity
  8
0
  6
ByBlock
 62
     0
 48
50.0
100
AcDbBlockReference
  2
_DOTSMALL
 10
6357.46165700339
 20
7936.740388709377
 30
0.0
 41
100.0
 42
100.0
 43
100.0
 50
90.0
  0
INSERT
  5
1279A
330
11A3C
100
AcDbEntity
  8
0
  6
ByBlock
 62
     0
 48
50.0
100
AcDbBlockReference
  2
_DOTSMALL
 10
6357.461657003389
 20
7336.740388709377
 30
0.0
 41
100.0
 42
100.0
 43
100.0
 50
270.0
  0
MTEXT
  5
1279B
330
11A3C
100
AcDbEntity
  8
0
  6
ByBlock
 62
     7
 48
50.0
100
AcDbMText
 10
6257.461657003389
 20
7636.740388709377
 30
0.0
 40
120.0
 41
0.0
 71
     5
 72
     1
  1
\A1;600
  7
STYLE1
 11
0.0000000000000001
 21
1.0
 31
0.0
 73
     1
 44
1.0
1001
ACAD
1000
MTEXTBEGIN
1070
    73
1070
     1
1070
    44
1040
1.0
1070
    74
1070
     0
1000
MTEXTEND
  0
POINT
  5
1279C
330
11A3C
100
AcDbEntity
  8
DEFPOINTS
  6
ByBlock
 62
     0
 48
50.0
100
AcDbPoint
 10
6143.600000000004
 20
7936.740388709377
 30
0.0
  0
POINT
  5
1279D
330
11A3C
100
AcDbEntity
  8
DEFPOINTS
  6
ByBlock
 62
     0
 48
50.0
100
AcDbPoint
 10
6143.600000000004
 20
7336.740388709377
 30
0.0
  0
POINT
  5
1279E
330
11A3C
100
AcDbEntity
  8
DEFPOINTS
  6
ByBlock
 62
     0
 48
50.0
100
AcDbPoint
 10
6357.461657003389
 20
7336.740388709377
 30
0.0
  0
ENDBLK
  5
1279F
330
11A3C
100
AcDbEntity
  8
0
 48
50.0
100
AcDbBlockEnd
  0
BLOCK
  5
122F8
330
11A69
100
AcDbEntity
  8
0
 48
50.0
100
AcDbBlockBegin
  2
*D9
 70
     1
 10
0.0
 20
0.0
 30
0.0
  3
*D9
  1

  0
LINE
  5
122F9
330
11A69
100
AcDbEntity
  8
0
  6
ByBlock
 62
     0
 48
50.0
100
AcDbLine
 10
6863.25351915136
 20
5046.740388709376
 30
0.0
 11
6863.25351915136
 21
4640.024272680078
 31
0.0
  0
LINE
  5
122FA
330
11A69
100
AcDbEntity
  8
0
  6
ByBlock
 62
     0
 48
50.0
100
AcDbLine
 10
7063.253519151359
 20
5716.740388709379
 30
0.0
 11
7063.253519151359
 21
4640.024272680078
 31
0.0
  0
LINE
  5
122FB
330
11A69
100
AcDbEntity
  8
0
  6
ByBlock
 62
     0
 48
50.0
100
AcDbLine
 10
7063.253519151359
 20
4700.024272680079
 30
0.0
 11
6863.25351915136
 21
4700.024272680079
 31
0.0
  0
LINE
  5
122FC
330
11A69
100
AcDbEntity
  8
0
  6
ByBlock
 62
     0
 48
50.0
100
AcDbLine
 10
6863.25351915136
 20
4700.024272680079
 30
0.0
 11
6464.111786867896
 21
4700.024272680079
 31
0.0
  0
INSERT
  5
122FD
330
11A69
100
AcDbEntity
  8
0
  6
ByBlock
 62
     0
 48
50.0
100
AcDbBlockReference
  2
_DOTSMALL
 10
7063.253519151359
 20
4700.024272680079
 30
0.0
 41
100.0
 42
100.0
 43
100.0
  0
INSERT
  5
122FE
330
11A69
100
AcDbEntity
  8
0
  6
ByBlock
 62
     0
 48
50.0
100
AcDbBlockReference
  2
_DOTSMALL
 10
6863.25351915136
 20
4700.024272680079
 30
0.0
 41
100.0
 42
100.0
 43
100.0
 50
180.0
  0
MTEXT
  5
122FF
330
11A69
100
AcDbEntity
  8
0
  6
ByBlock
 62
     7
 48
50.0
100
AcDbMText
 10
6613.682653009627
 20
4800.036083703701
 30
0.0
 40
120.0
 41
0.0
 71
     5
 72
     1
  1
\A1;200
  7
STYLE1
 73
     1
 44
1.0
1001
ACAD
1000
MTEXTBEGIN
1070
    73
1070
     1
1070
    44
1040
1.0
1070
    74
1070
     0
1000
MTEXTEND
  0
POINT
  5
12300
330
11A69
100
AcDbEntity
  8
DEFPOINTS
  6
ByBlock
 62
     0
 48
50.0
100
AcDbPoint
 10
6863.25351915136
 20
5066.740388709376
 30
0.0
  0
POINT
  5
12301
330
11A69
100
AcDbEntity
  8
DEFPOINTS
  6
ByBlock
 62
     0
 48
50.0
100
AcDbPoint
 10
7063.253519151359
 20
5736.740388709378
 30
0.0
  0
POINT
  5
12302
330
11A69
100
AcDbEntity
  8
DEFPOINTS
  6
ByBlock
 62
     0
 48
50.0
100
AcDbPoint
 10
7063.253519151359
 20
4700.024272680079
 30
0.0
  0
ENDBLK
  5
12303
330
11A69
100
AcDbEntity
  8
0
 48
50.0
100
AcDbBlockEnd
  0
BLOCK
  5
12751
330
11A86
100
AcDbEntity
  8
0
 48
50.0
100
AcDbBlockBegin
  2
*D10
 70
     1
 10
0.0
 20
0.0
 30
0.0
  3
*D10
  1

  0
LINE
  5
12752
330
11A86
100
AcDbEntity
  8
0
  6
ByBlock
 62
     0
 48
50.0
100
AcDbLine
 10
8223.600000000004
 20
5716.740388709379
 30
0.0
 11
8223.600000000004
 21
4640.024272680078
 31
0.0
  0
LINE
  5
12753
330
11A86
100
AcDbEntity
  8
0
  6
ByBlock
 62
     0
 48
50.0
100
AcDbLine
 10
10603.6
 20
5716.740388709379
 30
0.0
 11
10603.6
 21
4640.024272680078
 31
0.0
  0
LINE
  5
12754
330
11A86
100
AcDbEntity
  8
0
  6
ByBlock
 62
     0
 48
50.0
100
AcDbLine
 10
8223.600000000004
 20
4700.024272680079
 30
0.0
 11
10603.6
 21
4700.024272680079
 31
0.0
  0
INSERT
  5
12755
330
11A86
100
AcDbEntity
  8
0
  6
ByBlock
 62
     0
 48
50.0
100
AcDbBlockReference
  2
_DOTSMALL
 10
8223.600000000004
 20
4700.024272680079
 30
0.0
 41
100.0
 42
100.0
 43
100.0
 50
180.0
  0
INSERT
  5
12756
330
11A86
100
AcDbEntity
  8
0
  6
ByBlock
 62
     0
 48
50.0
100
AcDbBlockReference
  2
_DOTSMALL
 10
10603.6
 20
4700.024272680079
 30
0.0
 41
100.0
 42
100.0
 43
100.0
  0
MTEXT
  5
12757
330
11A86
100
AcDbEntity
  8
0
  6
ByBlock
 62
     7
 48
50.0
100
AcDbMText
 10
9413.600000000004
 20
4800.036083703701
 30
0.0
 40
120.0
 41
0.0
 71
     5
 72
     1
  1
\A1;2380
  7
STYLE1
 73
     1
 44
1.0
1001
ACAD
1000
MTEXTBEGIN
1070
    73
1070
     1
1070
    44
1040
1.0
1070
    74
1070
     0
1000
MTEXTEND
  0
POINT
  5
12758
330
11A86
100
AcDbEntity
  8
DEFPOINTS
  6
ByBlock
 62
     0
 48
50.0
100
AcDbPoint
 10
8223.600000000004
 20
5736.740388709378
 30
0.0
  0
POINT
  5
12759
330
11A86
100
AcDbEntity
  8
DEFPOINTS
  6
ByBlock
 62
     0
 48
50.0
100
AcDbPoint
 10
10603.6
 20
5736.74038870938
 30
0.0
  0
POINT
  5
1275A
330
11A86
100
AcDbEntity
  8
DEFPOINTS
  6
ByBlock
 62
     0
 48
50.0
100
AcDbPoint
 10
10603.6
 20
4700.024272680079
 30
0.0
  0
ENDBLK
  5
1275B
330
11A86
100
AcDbEntity
  8
0
 48
50.0
100
AcDbBlockEnd
  0
BLOCK
  5
12305
330
11ABD
100
AcDbEntity
  8
0
 48
50.0
100
AcDbBlockBegin
  2
*D11
 70
     1
 10
0.0
 20
0.0
 30
0.0
  3
*D11
  1

  0
LINE
  5
12306
330
11ABD
100
AcDbEntity
  8
0
  6
ByBlock
 62
     0
 48
50.0
100
AcDbLine
 10
11823.25351915136
 20
5716.740388709379
 30
0.0
 11
11823.25351915136
 21
4640.024272680078
 31
0.0
  0
LINE
  5
12307
330
11ABD
100
AcDbEntity
  8
0
  6
ByBlock
 62
     0
 48
50.0
100
AcDbLine
 10
12023.25351915136
 20
5046.740388709377
 30
0.0
 11
12023.25351915136
 21
4640.024272680078
 31
0.0
  0
LINE
  5
12308
330
11ABD
100
AcDbEntity
  8
0
  6
ByBlock
 62
     0
 48
50.0
100
AcDbLine
 10
11823.25351915136
 20
4700.024272680079
 30
0.0
 11
12023.25351915136
 21
4700.024272680079
 31
0.0
  0
LINE
  5
12309
330
11ABD
100
AcDbEntity
  8
0
  6
ByBlock
 62
     0
 48
50.0
100
AcDbLine
 10
12023.25351915136
 20
4700.024272680079
 30
0.0
 11
12422.39525143482
 21
4700.024272680079
 31
0.0
  0
INSERT
  5
1230A
330
11ABD
100
AcDbEntity
  8
0
  6
ByBlock
 62
     0
 48
50.0
100
AcDbBlockReference
  2
_DOTSMALL
 10
11823.25351915136
 20
4700.024272680079
 30
0.0
 41
100.0
 42
100.0
 43
100.0
 50
180.0
  0
INSERT
  5
1230B
330
11ABD
100
AcDbEntity
  8
0
  6
ByBlock
 62
     0
 48
50.0
100
AcDbBlockReference
  2
_DOTSMALL
 10
12023.25351915136
 20
4700.024272680079
 30
0.0
 41
100.0
 42
100.0
 43
100.0
  0
MTEXT
  5
1230C
330
11ABD
100
AcDbEntity
  8
0
  6
ByBlock
 62
     7
 48
50.0
100
AcDbMText
 10
12272.82438529309
 20
4800.036083703701
 30
0.0
 40
120.0
 41
0.0
 71
     5
 72
     1
  1
\A1;200
  7
STYLE1
 73
     1
 44
1.0
1001
ACAD
1000
MTEXTBEGIN
1070
    73
1070
     1
1070
    44
1040
1.0
1070
    74
1070
     0
1000
MTEXTEND
  0
POINT
  5
1230D
330
11ABD
100
AcDbEntity
  8
DEFPOINTS
  6
ByBlock
 62
     0
 48
50.0
100
AcDbPoint
 10
11823.25351915136
 20
5736.74038870938
 30
0.0
  0
POINT
  5
1230E
330
11ABD
100
AcDbEntity
  8
DEFPOINTS
  6
ByBlock
 62
     0
 48
50.0
100
AcDbPoint
 10
12023.25351915136
 20
5066.740388709376
 30
0.0
  0
POINT
  5
1230F
330
11ABD
100
AcDbEntity
  8
DEFPOINTS
  6
ByBlock
 62
     0
 48
50.0
100
AcDbPoint
 10
12023.25351915136
 20
4700.024272680079
 30
0.0
  0
ENDBLK
  5
12310
330
11ABD
100
AcDbEntity
  8
0
 48
50.0
100
AcDbBlockEnd
  0
BLOCK
  5
127CA
330
11AE8
100
AcDbEntity
  8
0
 48
50.0
100
AcDbBlockBegin
  2
*D12
 70
     1
 10
0.0
 20
0.0
 30
0.0
  3
*D12
  1

  0
LINE
  5
127CB
330
11AE8
100
AcDbEntity
  8
0
  6
ByBlock
 62
     0
 48
50.0
100
AcDbLine
 10
5643.600000000004
 20
5046.740388709377
 30
0.0
 11
5643.600000000004
 21
4275.453801511459
 31
0.0
  0
LINE
  5
127CC
330
11AE8
100
AcDbEntity
  8
0
  6
ByBlock
 62
     0
 48
50.0
100
AcDbLine
 10
10803.6
 20
5046.740388709377
 30
0.0
 11
10803.6
 21
4275.453801511459
 31
0.0
  0
LINE
  5
127CD
330
11AE8
100
AcDbEntity
  8
0
  6
ByBlock
 62
     0
 48
50.0
100
AcDbLine
 10
5643.600000000004
 20
4335.453801511459
 30
0.0
 11
10803.6
 21
4335.453801511459
 31
0.0
  0
INSERT
  5
127CE
330
11AE8
100
AcDbEntity
  8
0
  6
ByBlock
 62
     0
 48
50.0
100
AcDbBlockReference
  2
_DOTSMALL
 10
5643.600000000004
 20
4335.453801511459
 30
0.0
 41
100.0
 42
100.0
 43
100.0
 50
180.0
  0
INSERT
  5
127CF
330
11AE8
100
AcDbEntity
  8
0
  6
ByBlock
 62
     0
 48
50.0
100
AcDbBlockReference
  2
_DOTSMALL
 10
10803.6
 20
4335.453801511459
 30
0.0
 41
100.0
 42
100.0
 43
100.0
  0
MTEXT
  5
127D0
330
11AE8
100
AcDbEntity
  8
0
  6
ByBlock
 62
     7
 48
50.0
100
AcDbMText
 10
8223.600000000004
 20
4435.453801511459
 30
0.0
 40
120.0
 41
0.0
 71
     5
 72
     1
  1
\A1;基礎寸法 5160
  7
STYLE1
 73
     1
 44
1.0
1001
ACAD
1000
MTEXTBEGIN
1070
    73
1070
     1
1070
    44
1040
1.0
1070
    74
1070
     0
1000
MTEXTEND
  0
POINT
  5
127D1
330
11AE8
100
AcDbEntity
  8
DEFPOINTS
  6
ByBlock
 62
     0
 48
50.0
100
AcDbPoint
 10
5643.600000000004
 20
5066.740388709376
 30
0.0
  0
POINT
  5
127D2
330
11AE8
100
AcDbEntity
  8
DEFPOINTS
  6
ByBlock
 62
     0
 48
50.0
100
AcDbPoint
 10
10803.6
 20
5066.740388709376
 30
0.0
  0
POINT
  5
127D3
330
11AE8
100
AcDbEntity
  8
DEFPOINTS
  6
ByBlock
 62
     0
 48
50.0
100
AcDbPoint
 10
10803.6
 20
4335.453801511459
 30
0.0
  0
ENDBLK
  5
127D4
330
11AE8
100
AcDbEntity
  8
0
 48
50.0
100
AcDbBlockEnd
  0
BLOCK
  5
1231E
330
1231D
100
AcDbEntity
  8
0
 48
50.0
100
AcDbBlockBegin
  2
*D13
 70
     1
 10
0.0
 20
0.0
 30
0.0
  3
*D13
  1

  0
LINE
  5
1231F
330
1231D
100
AcDbEntity
  8
0
  6
ByBlock
 62
     0
 48
50.0
100
AcDbLine
 10
4625.156574488157
 20
5986.740388709375
 30
0.0
 11
5134.336083222783
 21
5986.740388709375
 31
0.0
  0
LINE
  5
12320
330
1231D
100
AcDbEntity
  8
0
  6
ByBlock
 62
     0
 48
50.0
100
AcDbLine
 10
4625.156574488157
 20
5236.740388709375
 30
0.0
 11
5134.336083222783
 21
5236.740388709375
 31
0.0
  0
LINE
  5
12321
330
1231D
100
AcDbEntity
  8
0
  6
ByBlock
 62
     0
 48
50.0
100
AcDbLine
 10
5074.336083222783
 20
5986.740388709375
 30
0.0
 11
5074.336083222783
 21
5236.740388709375
 31
0.0
  0
INSERT
  5
12322
330
1231D
100
AcDbEntity
  8
0
  6
ByBlock
 62
     0
 48
50.0
100
AcDbBlockReference
  2
_DOTSMALL
 10
5074.336083222783
 20
5986.740388709375
 30
0.0
 41
100.0
 42
100.0
 43
100.0
 50
90.0
  0
INSERT
  5
12323
330
1231D
100
AcDbEntity
  8
0
  6
ByBlock
 62
     0
 48
50.0
100
AcDbBlockReference
  2
_DOTSMALL
 10
5074.336083222783
 20
5236.740388709375
 30
0.0
 41
100.0
 42
100.0
 43
100.0
 50
270.0
  0
MTEXT
  5
12324
330
1231D
100
AcDbEntity
  8
0
  6
ByBlock
 62
     7
 48
50.0
100
AcDbMText
 10
4974.336083222783
 20
5611.740388709375
 30
0.0
 40
120.0
 41
0.0
 71
     5
 72
     1
  1
\A1;750
  7
STYLE1
 11
0.0000000000000001
 21
1.0
 31
0.0
 73
     1
 44
1.0
1001
ACAD
1000
MTEXTBEGIN
1070
    73
1070
     1
1070
    44
1040
1.0
1070
    74
1070
     0
1000
MTEXTEND
  0
POINT
  5
12325
330
1231D
100
AcDbEntity
  8
DEFPOINTS
  6
ByBlock
 62
     0
 48
50.0
100
AcDbPoint
 10
4605.156574488157
 20
5986.740388709375
 30
0.0
  0
POINT
  5
12326
330
1231D
100
AcDbEntity
  8
DEFPOINTS
  6
ByBlock
 62
     0
 48
50.0
100
AcDbPoint
 10
4605.156574488157
 20
5236.740388709375
 30
0.0
  0
POINT
  5
12327
330
1231D
100
AcDbEntity
  8
DEFPOINTS
  6
ByBlock
 62
     0
 48
50.0
100
AcDbPoint
 10
5074.336083222783
 20
5236.740388709375
 30
0.0
  0
ENDBLK
  5
12328
330
1231D
100
AcDbEntity
  8
0
 48
50.0
100
AcDbBlockEnd
  0
BLOCK
  5
1232A
330
12329
100
AcDbEntity
  8
0
 48
50.0
100
AcDbBlockBegin
  2
*D14
 70
     1
 10
0.0
 20
0.0
 30
0.0
  3
*D14
  1

  0
LINE
  5
1232B
330
12329
100
AcDbEntity
  8
0
  6
ByBlock
 62
     0
 48
50.0
100
AcDbLine
 10
4625.156574488157
 20
10036.74038870938
 30
0.0
 11
5433.443952340544
 21
10036.74038870938
 31
0.0
  0
LINE
  5
1232C
330
12329
100
AcDbEntity
  8
0
  6
ByBlock
 62
     0
 48
50.0
100
AcDbLine
 10
4625.156574488155
 20
5236.740388709375
 30
0.0
 11
5433.443952340543
 21
5236.740388709375
 31
0.0
  0
LINE
  5
1232D
330
12329
100
AcDbEntity
  8
0
  6
ByBlock
 62
     0
 48
50.0
100
AcDbLine
 10
5373.443952340545
 20
10036.74038870938
 30
0.0
 11
5373.443952340544
 21
5236.740388709375
 31
0.0
  0
INSERT
  5
1232E
330
12329
100
AcDbEntity
  8
0
  6
ByBlock
 62
     0
 48
50.0
100
AcDbBlockReference
  2
_DOTSMALL
 10
5373.443952340545
 20
10036.74038870938
 30
0.0
 41
100.0
 42
100.0
 43
100.0
 50
90.0
  0
INSERT
  5
1232F
330
12329
100
AcDbEntity
  8
0
  6
ByBlock
 62
     0
 48
50.0
100
AcDbBlockReference
  2
_DOTSMALL
 10
5373.443952340544
 20
5236.740388709375
 30
0.0
 41
100.0
 42
100.0
 43
100.0
 50
270.0
  0
MTEXT
  5
12330
330
12329
100
AcDbEntity
  8
0
  6
ByBlock
 62
     7
 48
50.0
100
AcDbMText
 10
5273.443952340545
 20
7636.740388709377
 30
0.0
 40
120.0
 41
0.0
 71
     5
 72
     1
  1
\A1;屋根寸法 4800
  7
STYLE1
 11
0.0000000000000001
 21
1.0
 31
0.0
 73
     1
 44
1.0
1001
ACAD
1000
MTEXTBEGIN
1070
    73
1070
     1
1070
    44
1040
1.0
1070
    74
1070
     0
1000
MTEXTEND
  0
POINT
  5
12331
330
12329
100
AcDbEntity
  8
DEFPOINTS
  6
ByBlock
 62
     0
 48
50.0
100
AcDbPoint
 10
4605.156574488157
 20
10036.74038870938
 30
0.0
  0
POINT
  5
12332
330
12329
100
AcDbEntity
  8
DEFPOINTS
  6
ByBlock
 62
     0
 48
50.0
100
AcDbPoint
 10
4605.156574488155
 20
5236.740388709375
 30
0.0
  0
POINT
  5
12333
330
12329
100
AcDbEntity
  8
DEFPOINTS
  6
ByBlock
 62
     0
 48
50.0
100
AcDbPoint
 10
5373.443952340544
 20
5236.740388709375
 30
0.0
  0
ENDBLK
  5
12334
330
12329
100
AcDbEntity
  8
0
 48
50.0
100
AcDbBlockEnd
  0
BLOCK
  5
127D5
330
12335
100
AcDbEntity
  8
0
 48
50.0
100
AcDbBlockBegin
  2
*D15
 70
     1
 10
0.0
 20
0.0
 30
0.0
  3
*D15
  1

  0
LINE
  5
127D6
330
12335
100
AcDbEntity
  8
0
  6
ByBlock
 62
     0
 48
50.0
100
AcDbLine
 10
5593.600000000001
 20
10056.74038870938
 30
0.0
 11
5593.600000000001
 21
10720.92275523152
 31
0.0
  0
LINE
  5
127D7
330
12335
100
AcDbEntity
  8
0
  6
ByBlock
 62
     0
 48
50.0
100
AcDbLine
 10
10853.6
 20
10056.74038870938
 30
0.0
 11
10853.6
 21
10720.92275523152
 31
0.0
  0
LINE
  5
127D8
330
12335
100
AcDbEntity
  8
0
  6
ByBlock
 62
     0
 48
50.0
100
AcDbLine
 10
5593.600000000001
 20
10660.92275523152
 30
0.0
 11
10853.6
 21
10660.92275523152
 31
0.0
  0
INSERT
  5
127D9
330
12335
100
AcDbEntity
  8
0
  6
ByBlock
 62
     0
 48
50.0
100
AcDbBlockReference
  2
_DOTSMALL
 10
5593.600000000001
 20
10660.92275523152
 30
0.0
 41
100.0
 42
100.0
 43
100.0
 50
180.0
  0
INSERT
  5
127DA
330
12335
100
AcDbEntity
  8
0
  6
ByBlock
 62
     0
 48
50.0
100
AcDbBlockReference
  2
_DOTSMALL
 10
10853.6
 20
10660.92275523152
 30
0.0
 41
100.0
 42
100.0
 43
100.0
  0
MTEXT
  5
127DB
330
12335
100
AcDbEntity
  8
0
  6
ByBlock
 62
     7
 48
50.0
100
AcDbMText
 10
8223.600000000001
 20
10760.93456625514
 30
0.0
 40
120.0
 41
0.0
 71
     5
 72
     1
  1
\A1;屋根寸法 5260
  7
STYLE1
 73
     1
 44
1.0
1001
ACAD
1000
MTEXTBEGIN
1070
    73
1070
     1
1070
    44
1040
1.0
1070
    74
1070
     0
1000
MTEXTEND
  0
POINT
  5
127DC
330
12335
100
AcDbEntity
  8
DEFPOINTS
  6
ByBlock
 62
     0
 48
50.0
100
AcDbPoint
 10
5593.600000000001
 20
10036.74038870938
 30
0.0
  0
POINT
  5
127DD
330
12335
100
AcDbEntity
  8
DEFPOINTS
  6
ByBlock
 62
     0
 48
50.0
100
AcDbPoint
 10
10853.6
 20
10036.74038870938
 30
0.0
  0
POINT
  5
127DE
330
12335
100
AcDbEntity
  8
DEFPOINTS
  6
ByBlock
 62
     0
 48
50.0
100
AcDbPoint
 10
10853.6
 20
10660.92275523152
 30
0.0
  0
ENDBLK
  5
127DF
330
12335
100
AcDbEntity
  8
0
 48
50.0
100
AcDbBlockEnd
  0
BLOCK
  5
12342
330
12341
100
AcDbEntity
  8
0
 48
50.0
100
AcDbBlockBegin
  2
*D16
 70
     1
 10
0.0
 20
0.0
 30
0.0
  3
*D16
  1

  0
LINE
  5
12343
330
12341
100
AcDbEntity
  8
0
  6
ByBlock
 62
     0
 48
50.0
100
AcDbLine
 10
1725.156574488156
 20
10056.74038870938
 30
0.0
 11
1725.156574488156
 21
10427.81435297551
 31
0.0
  0
LINE
  5
12344
330
12341
100
AcDbEntity
  8
0
  6
ByBlock
 62
     0
 48
50.0
100
AcDbLine
 10
1975.156574488159
 20
9556.740388709375
 30
0.0
 11
1975.156574488159
 21
10427.81435297551
 31
0.0
  0
LINE
  5
12345
330
12341
100
AcDbEntity
  8
0
  6
ByBlock
 62
     0
 48
50.0
100
AcDbLine
 10
1725.156574488156
 20
10367.81435297552
 30
0.0
 11
1625.156574488155
 21
10367.81435297552
 31
0.0
  0
LINE
  5
12346
330
12341
100
AcDbEntity
  8
0
  6
ByBlock
 62
     0
 48
50.0
100
AcDbLine
 10
1975.156574488159
 20
10367.81435297552
 30
0.0
 11
2075.156574488159
 21
10367.81435297552
 31
0.0
  0
LINE
  5
12347
330
12341
100
AcDbEntity
  8
0
  6
ByBlock
 62
     0
 48
50.0
100
AcDbLine
 10
1725.156574488156
 20
10367.81435297552
 30
0.0
 11
1975.156574488159
 21
10367.81435297552
 31
0.0
  0
INSERT
  5
12348
330
12341
100
AcDbEntity
  8
0
  6
ByBlock
 62
     0
 48
50.0
100
AcDbBlockReference
  2
_DOTSMALL
 10
1725.156574488156
 20
10367.81435297552
 30
0.0
 41
100.0
 42
100.0
 43
100.0
  0
INSERT
  5
12349
330
12341
100
AcDbEntity
  8
0
  6
ByBlock
 62
     0
 48
50.0
100
AcDbBlockReference
  2
_DOTSMALL
 10
1975.156574488159
 20
10367.81435297552
 30
0.0
 41
100.0
 42
100.0
 43
100.0
 50
180.0
  0
MTEXT
  5
1234A
330
12341
100
AcDbEntity
  8
0
  6
ByBlock
 62
     7
 48
50.0
100
AcDbMText
 10
1850.156574488157
 20
10467.82616399914
 30
0.0
 40
120.0
 41
0.0
 71
     5
 72
     1
  1
\A1;250
  7
STYLE1
 73
     1
 44
1.0
1001
ACAD
1000
MTEXTBEGIN
1070
    73
1070
     1
1070
    44
1040
1.0
1070
    74
1070
     0
1000
MTEXTEND
  0
POINT
  5
1234B
330
12341
100
AcDbEntity
  8
DEFPOINTS
  6
ByBlock
 62
     0
 48
50.0
100
AcDbPoint
 10
1725.156574488156
 20
10036.74038870938
 30
0.0
  0
POINT
  5
1234C
330
12341
100
AcDbEntity
  8
DEFPOINTS
  6
ByBlock
 62
     0
 48
50.0
100
AcDbPoint
 10
1975.156574488159
 20
9536.740388709375
 30
0.0
  0
POINT
  5
1234D
330
12341
100
AcDbEntity
  8
DEFPOINTS
  6
ByBlock
 62
     0
 48
50.0
100
AcDbPoint
 10
1975.156574488159
 20
10367.81435297552
 30
0.0
  0
ENDBLK
  5
1234E
330
12341
100
AcDbEntity
  8
0
 48
50.0
100
AcDbBlockEnd
  0
BLOCK
  5
12350
330
1234F
100
AcDbEntity
  8
0
 48
50.0
100
AcDbBlockBegin
  2
*D17
 70
     1
 10
0.0
 20
0.0
 30
0.0
  3
*D17
  1

  0
LINE
  5
12351
330
1234F
100
AcDbEntity
  8
0
  6
ByBlock
 62
     0
 48
50.0
100
AcDbLine
 10
4355.156574488159
 20
9556.740388709378
 30
0.0
 11
4355.156574488159
 21
10427.81435297551
 31
0.0
  0
LINE
  5
12352
330
1234F
100
AcDbEntity
  8
0
  6
ByBlock
 62
     0
 48
50.0
100
AcDbLine
 10
4605.156574488156
 20
10056.74038870938
 30
0.0
 11
4605.156574488156
 21
10427.81435297551
 31
0.0
  0
LINE
  5
12353
330
1234F
100
AcDbEntity
  8
0
  6
ByBlock
 62
     0
 48
50.0
100
AcDbLine
 10
4355.156574488159
 20
10367.81435297552
 30
0.0
 11
4255.156574488159
 21
10367.81435297552
 31
0.0
  0
LINE
  5
12354
330
1234F
100
AcDbEntity
  8
0
  6
ByBlock
 62
     0
 48
50.0
100
AcDbLine
 10
4605.156574488156
 20
10367.81435297552
 30
0.0
 11
4705.156574488156
 21
10367.81435297552
 31
0.0
  0
LINE
  5
12355
330
1234F
100
AcDbEntity
  8
0
  6
ByBlock
 62
     0
 48
50.0
100
AcDbLine
 10
4355.156574488159
 20
10367.81435297552
 30
0.0
 11
4605.156574488156
 21
10367.81435297552
 31
0.0
  0
INSERT
  5
12356
330
1234F
100
AcDbEntity
  8
0
  6
ByBlock
 62
     0
 48
50.0
100
AcDbBlockReference
  2
_DOTSMALL
 10
4355.156574488159
 20
10367.81435297552
 30
0.0
 41
100.0
 42
100.0
 43
100.0
  0
INSERT
  5
12357
330
1234F
100
AcDbEntity
  8
0
  6
ByBlock
 62
     0
 48
50.0
100
AcDbBlockReference
  2
_DOTSMALL
 10
4605.156574488156
 20
10367.81435297552
 30
0.0
 41
100.0
 42
100.0
 43
100.0
 50
180.0
  0
MTEXT
  5
12358
330
1234F
100
AcDbEntity
  8
0
  6
ByBlock
 62
     7
 48
50.0
100
AcDbMText
 10
4480.156574488157
 20
10467.82616399914
 30
0.0
 40
120.0
 41
0.0
 71
     5
 72
     1
  1
\A1;250
  7
STYLE1
 73
     1
 44
1.0
1001
ACAD
1000
MTEXTBEGIN
1070
    73
1070
     1
1070
    44
1040
1.0
1070
    74
1070
     0
1000
MTEXTEND
  0
POINT
  5
12359
330
1234F
100
AcDbEntity
  8
DEFPOINTS
  6
ByBlock
 62
     0
 48
50.0
100
AcDbPoint
 10
4355.156574488159
 20
9536.740388709379
 30
0.0
  0
POINT
  5
1235A
330
1234F
100
AcDbEntity
  8
DEFPOINTS
  6
ByBlock
 62
     0
 48
50.0
100
AcDbPoint
 10
4605.156574488156
 20
10036.74038870938
 30
0.0
  0
POINT
  5
1235B
330
1234F
100
AcDbEntity
  8
DEFPOINTS
  6
ByBlock
 62
     0
 48
50.0
100
AcDbPoint
 10
4605.156574488156
 20
10367.81435297552
 30
0.0
  0
ENDBLK
  5
1235C
330
1234F
100
AcDbEntity
  8
0
 48
50.0
100
AcDbBlockEnd
  0
BLOCK
  5
1235E
330
1235D
100
AcDbEntity
  8
0
 48
50.0
100
AcDbBlockBegin
  2
*D18
 70
     1
 10
0.0
 20
0.0
 30
0.0
  3
*D18
  1

  0
LINE
  5
1235F
330
1235D
100
AcDbEntity
  8
0
  6
ByBlock
 62
     0
 48
50.0
100
AcDbLine
 10
4625.156574488157
 20
9286.740388709379
 30
0.0
 11
5134.336083222783
 21
9286.740388709379
 31
0.0
  0
LINE
  5
12360
330
1235D
100
AcDbEntity
  8
0
  6
ByBlock
 62
     0
 48
50.0
100
AcDbLine
 10
4625.156574488157
 20
10036.74038870938
 30
0.0
 11
5134.336083222783
 21
10036.74038870938
 31
0.0
  0
LINE
  5
12361
330
1235D
100
AcDbEntity
  8
0
  6
ByBlock
 62
     0
 48
50.0
100
AcDbLine
 10
5074.336083222783
 20
9286.740388709379
 30
0.0
 11
5074.336083222783
 21
10036.74038870938
 31
0.0
  0
INSERT
  5
12362
330
1235D
100
AcDbEntity
  8
0
  6
ByBlock
 62
     0
 48
50.0
100
AcDbBlockReference
  2
_DOTSMALL
 10
5074.336083222783
 20
9286.740388709379
 30
0.0
 41
100.0
 42
100.0
 43
100.0
 50
270.0
  0
INSERT
  5
12363
330
1235D
100
AcDbEntity
  8
0
  6
ByBlock
 62
     0
 48
50.0
100
AcDbBlockReference
  2
_DOTSMALL
 10
5074.336083222783
 20
10036.74038870938
 30
0.0
 41
100.0
 42
100.0
 43
100.0
 50
90.0
  0
MTEXT
  5
12364
330
1235D
100
AcDbEntity
  8
0
  6
ByBlock
 62
     7
 48
50.0
100
AcDbMText
 10
4974.336083222783
 20
9661.740388709379
 30
0.0
 40
120.0
 41
0.0
 71
     5
 72
     1
  1
\A1;750
  7
STYLE1
 11
0.0000000000000001
 21
1.0
 31
0.0
 73
     1
 44
1.0
1001
ACAD
1000
MTEXTBEGIN
1070
    73
1070
     1
1070
    44
1040
1.0
1070
    74
1070
     0
1000
MTEXTEND
  0
POINT
  5
12365
330
1235D
100
AcDbEntity
  8
DEFPOINTS
  6
ByBlock
 62
     0
 48
50.0
100
AcDbPoint
 10
4605.156574488157
 20
9286.740388709379
 30
0.0
  0
POINT
  5
12366
330
1235D
100
AcDbEntity
  8
DEFPOINTS
  6
ByBlock
 62
     0
 48
50.0
100
AcDbPoint
 10
4605.156574488157
 20
10036.74038870938
 30
0.0
  0
POINT
  5
12367
330
1235D
100
AcDbEntity
  8
DEFPOINTS
  6
ByBlock
 62
     0
 48
50.0
100
AcDbPoint
 10
5074.336083222783
 20
10036.74038870938
 30
0.0
  0
ENDBLK
  5
12368
330
1235D
100
AcDbEntity
  8
0
 48
50.0
100
AcDbBlockEnd
  0
BLOCK
  5
127ED
330
127E1
100
AcDbEntity
  8
0
 48
50.0
100
AcDbBlockBegin
  2
*D19
 70
     1
 10
0.0
 20
0.0
 30
0.0
  3
*D19
  1

  0
LINE
  5
127EE
330
127E1
100
AcDbEntity
  8
0
  6
ByBlock
 62
     0
 48
50.0
100
AcDbLine
 10
8223.600000000004
 20
5716.740388709379
 30
0.0
 11
8223.600000000004
 21
4640.024272680078
 31
0.0
  0
LINE
  5
127EF
330
127E1
100
AcDbEntity
  8
0
  6
ByBlock
 62
     0
 48
50.0
100
AcDbLine
 10
5843.600000000004
 20
5716.740388709379
 30
0.0
 11
5843.600000000004
 21
4640.024272680078
 31
0.0
  0
LINE
  5
127F0
330
127E1
100
AcDbEntity
  8
0
  6
ByBlock
 62
     0
 48
50.0
100
AcDbLine
 10
8223.600000000004
 20
4700.024272680079
 30
0.0
 11
5843.600000000004
 21
4700.024272680079
 31
0.0
  0
INSERT
  5
127F1
330
127E1
100
AcDbEntity
  8
0
  6
ByBlock
 62
     0
 48
50.0
100
AcDbBlockReference
  2
_DOTSMALL
 10
8223.600000000004
 20
4700.024272680079
 30
0.0
 41
100.0
 42
100.0
 43
100.0
  0
INSERT
  5
127F2
330
127E1
100
AcDbEntity
  8
0
  6
ByBlock
 62
     0
 48
50.0
100
AcDbBlockReference
  2
_DOTSMALL
 10
5843.600000000004
 20
4700.024272680079
 30
0.0
 41
100.0
 42
100.0
 43
100.0
 50
180.0
  0
MTEXT
  5
127F3
330
127E1
100
AcDbEntity
  8
0
  6
ByBlock
 62
     7
 48
50.0
100
AcDbMText
 10
7033.600000000004
 20
4800.036083703701
 30
0.0
 40
120.0
 41
0.0
 71
     5
 72
     1
  1
\A1;2380
  7
STYLE1
 73
     1
 44
1.0
1001
ACAD
1000
MTEXTBEGIN
1070
    73
1070
     1
1070
    44
1040
1.0
1070
    74
1070
     0
1000
MTEXTEND
  0
POINT
  5
127F4
330
127E1
100
AcDbEntity
  8
DEFPOINTS
  6
ByBlock
 62
     0
 48
50.0
100
AcDbPoint
 10
8223.600000000004
 20
5736.740388709378
 30
0.0
  0
POINT
  5
127F5
330
127E1
100
AcDbEntity
  8
DEFPOINTS
  6
ByBlock
 62
     0
 48
50.0
100
AcDbPoint
 10
5843.600000000004
 20
5736.74038870938
 30
0.0
  0
POINT
  5
127F6
330
127E1
100
AcDbEntity
  8
DEFPOINTS
  6
ByBlock
 62
     0
 48
50.0
100
AcDbPoint
 10
5843.600000000004
 20
4700.024272680079
 30
0.0
  0
ENDBLK
  5
127F7
330
127E1
100
AcDbEntity
  8
0
 48
50.0
100
AcDbBlockEnd
  0
BLOCK
  5
12F83
330
12F78
100
AcDbEntity
  8
0
 48
50.0
100
AcDbBlockBegin
  2
*D34
 70
     1
 10
0.0
 20
0.0
 30
0.0
  3
*D34
  1

  0
LINE
  5
12FCF
330
12F78
100
AcDbEntity
  8
寸法
 62
     0
 48
50.0
370
    -2
100
AcDbLine
 10
6343.789827176104
 20
2272.319098397104
 30
0.0
 11
5921.671157149674
 21
2272.319098397104
 31
0.0
  0
LINE
  5
12FD0
330
12F78
100
AcDbEntity
  8
寸法
 62
     0
 48
50.0
370
    -2
100
AcDbLine
 10
9317.712012910034
 20
2371.653473397105
 30
0.0
 11
5921.671157149674
 21
2371.653473397106
 31
0.0
  0
LINE
  5
12FD1
330
12F78
100
AcDbEntity
  8
寸法
 62
     0
 48
50.0
370
    -2
100
AcDbLine
 10
5981.671157149674
 20
2272.319098397104
 30
0.0
 11
5981.671157149674
 21
2371.653473397106
 31
0.0
  0
LINE
  5
12FD2
330
12F78
100
AcDbEntity
  8
寸法
 62
     0
 48
50.0
370
    -2
100
AcDbLine
 10
5981.671157149674
 20
2371.653473397106
 30
0.0
 11
5981.671157149674
 21
2809.106627858645
 31
0.0
  0
INSERT
  5
12FD3
330
12F78
100
AcDbEntity
  8
寸法
 62
     0
 48
50.0
370
    -2
100
AcDbBlockReference
  2
_DOTSMALL
 10
5981.671157149674
 20
2272.319098397104
 30
0.0
 41
100.0
 42
100.0
 43
100.0
 50
270.0
  0
INSERT
  5
12FD4
330
12F78
100
AcDbEntity
  8
寸法
 62
     0
 48
50.0
370
    -2
100
AcDbBlockReference
  2
_DOTSMALL
 10
5981.671157149674
 20
2371.653473397106
 30
0.0
 41
100.0
 42
100.0
 43
100.0
 50
90.0
  0
MTEXT
  5
12FD5
330
12F78
100
AcDbEntity
  8
寸法
 62
     7
 48
50.0
100
AcDbMText
 10
5875.671157149673
 20
2655.153871953134
 30
0.0
 40
120.0
 41
0.0
 71
     5
 72
     1
  1
\A1;(50)
  7
STYLE1
 11
0.0000000000000001
 21
1.0
 31
0.0
 73
     1
 44
1.0
1001
ACAD
1000
MTEXTBEGIN
1070
    73
1070
     1
1070
    44
1040
1.0
1070
    74
1070
     0
1000
MTEXTEND
  0
POINT
  5
12FD6
330
12F78
100
AcDbEntity
  8
DEFPOINTS
 62
     0
 48
50.0
100
AcDbPoint
 10
6363.789827176105
 20
2272.319098397104
 30
0.0
  0
POINT
  5
12FD7
330
12F78
100
AcDbEntity
  8
DEFPOINTS
 62
     0
 48
50.0
100
AcDbPoint
 10
9337.712012910033
 20
2371.653473397105
 30
0.0
  0
POINT
  5
12FD8
330
12F78
100
AcDbEntity
  8
DEFPOINTS
 62
     0
 48
50.0
100
AcDbPoint
 10
5981.671157149674
 20
2371.653473397106
 30
0.0
  0
ENDBLK
  5
12F84
330
12F78
100
AcDbEntity
  8
0
 48
50.0
100
AcDbBlockEnd
  0
BLOCK
  5
12F8F
330
12F85
100
AcDbEntity
  8
0
 48
50.0
100
AcDbBlockBegin
  2
*D35
 70
     1
 10
0.0
 20
0.0
 30
0.0
  3
*D35
  1

  0
LINE
  5
12FD9
330
12F85
100
AcDbEntity
  8
寸法
 62
     0
 48
50.0
370
    -2
100
AcDbLine
 10
6343.789827176105
 20
2272.319098397104
 30
0.0
 11
6097.711804370892
 21
2272.319098397104
 31
0.0
  0
LINE
  5
12FDA
330
12F85
100
AcDbEntity
  8
寸法
 62
     0
 48
50.0
370
    -2
100
AcDbLine
 10
6307.975533552198
 20
2171.778473397104
 30
0.0
 11
6097.711804370892
 21
2171.778473397104
 31
0.0
  0
LINE
  5
12FDB
330
12F85
100
AcDbEntity
  8
寸法
 62
     0
 48
50.0
370
    -2
100
AcDbLine
 10
6157.711804370893
 20
2272.319098397104
 30
0.0
 11
6157.711804370893
 21
2171.778473397104
 31
0.0
  0
INSERT
  5
12FDC
330
12F85
100
AcDbEntity
  8
寸法
 62
     0
 48
50.0
370
    -2
100
AcDbBlockReference
  2
_DOTSMALL
 10
6157.711804370893
 20
2272.319098397104
 30
0.0
 41
100.0
 42
100.0
 43
100.0
 50
90.0
  0
INSERT
  5
12FDD
330
12F85
100
AcDbEntity
  8
寸法
 62
     0
 48
50.0
370
    -2
100
AcDbBlockReference
  2
_DOTSMALL
 10
6157.711804370893
 20
2171.778473397104
 30
0.0
 41
100.0
 42
100.0
 43
100.0
 50
270.0
  0
MTEXT
  5
12FDE
330
12F85
100
AcDbEntity
  8
寸法
 62
     7
 48
50.0
100
AcDbMText
 10
6057.711804370891
 20
2222.048785897105
 30
0.0
 40
120.0
 41
0.0
 71
     5
 72
     1
  1
\A1;50
  7
STYLE1
 11
0.0000000000000001
 21
1.0
 31
0.0
 73
     1
 44
1.0
1001
ACAD
1000
MTEXTBEGIN
1070
    73
1070
     1
1070
    44
1040
1.0
1070
    74
1070
     0
1000
MTEXTEND
  0
POINT
  5
12FDF
330
12F85
100
AcDbEntity
  8
DEFPOINTS
 62
     0
 48
50.0
100
AcDbPoint
 10
6363.789827176105
 20
2272.319098397104
 30
0.0
  0
POINT
  5
12FE0
330
12F85
100
AcDbEntity
  8
DEFPOINTS
 62
     0
 48
50.0
100
AcDbPoint
 10
6327.975533552198
 20
2171.778473397104
 30
0.0
  0
POINT
  5
12FE1
330
12F85
100
AcDbEntity
  8
DEFPOINTS
 62
     0
 48
50.0
100
AcDbPoint
 10
6157.711804370893
 20
2171.778473397104
 30
0.0
  0
ENDBLK
  5
12F90
330
12F85
100
AcDbEntity
  8
0
 48
50.0
100
AcDbBlockEnd
  0
BLOCK
  5
12F9B
330
12F91
100
AcDbEntity
  8
0
 48
50.0
100
AcDbBlockBegin
  2
*D36
 70
     1
 10
0.0
 20
0.0
 30
0.0
  3
*D36
  1

  0
LINE
  5
12FE2
330
12F91
100
AcDbEntity
  8
寸法
 62
     0
 48
50.0
370
    -2
100
AcDbLine
 10
6343.789827176105
 20
2272.319098397104
 30
0.0
 11
5921.671157149674
 21
2272.319098397104
 31
0.0
  0
LINE
  5
12FE3
330
12F91
100
AcDbEntity
  8
寸法
 62
     0
 48
50.0
370
    -2
100
AcDbLine
 10
6851.142525974295
 20
1371.653473397103
 30
0.0
 11
5921.671157149674
 21
1371.653473397103
 31
0.0
  0
LINE
  5
12FE4
330
12F91
100
AcDbEntity
  8
寸法
 62
     0
 48
50.0
370
    -2
100
AcDbLine
 10
5981.671157149675
 20
2272.319098397104
 30
0.0
 11
5981.671157149674
 21
1371.653473397103
 31
0.0
  0
INSERT
  5
12FE5
330
12F91
100
AcDbEntity
  8
寸法
 62
     0
 48
50.0
370
    -2
100
AcDbBlockReference
  2
_DOTSMALL
 10
5981.671157149675
 20
2272.319098397104
 30
0.0
 41
100.0
 42
100.0
 43
100.0
 50
90.0
  0
INSERT
  5
12FE6
330
12F91
100
AcDbEntity
  8
寸法
 62
     0
 48
50.0
370
    -2
100
AcDbBlockReference
  2
_DOTSMALL
 10
5981.671157149674
 20
1371.653473397103
 30
0.0
 41
100.0
 42
100.0
 43
100.0
 50
270.0
  0
MTEXT
  5
12FE7
330
12F91
100
AcDbEntity
  8
寸法
 62
     7
 48
50.0
100
AcDbMText
 10
5881.671157149674
 20
1821.986285897105
 30
0.0
 40
120.0
 41
0.0
 71
     5
 72
     1
  1
\A1;450
  7
STYLE1
 11
0.0000000000000001
 21
1.0
 31
0.0
 73
     1
 44
1.0
1001
ACAD
1000
MTEXTBEGIN
1070
    73
1070
     1
1070
    44
1040
1.0
1070
    74
1070
     0
1000
MTEXTEND
  0
POINT
  5
12FE8
330
12F91
100
AcDbEntity
  8
DEFPOINTS
 62
     0
 48
50.0
100
AcDbPoint
 10
6363.789827176105
 20
2272.319098397104
 30
0.0
  0
POINT
  5
12FE9
330
12F91
100
AcDbEntity
  8
DEFPOINTS
 62
     0
 48
50.0
100
AcDbPoint
 10
6871.142525974295
 20
1371.653473397103
 30
0.0
  0
POINT
  5
12FEA
330
12F91
100
AcDbEntity
  8
DEFPOINTS
 62
     0
 48
50.0
100
AcDbPoint
 10
5981.671157149674
 20
1371.653473397103
 30
0.0
  0
ENDBLK
  5
12F9C
330
12F91
100
AcDbEntity
  8
0
 48
50.0
100
AcDbBlockEnd
  0
BLOCK
  5
12FA7
330
12F9D
100
AcDbEntity
  8
0
 48
50.0
100
AcDbBlockBegin
  2
*D37
 70
     1
 10
0.0
 20
0.0
 30
0.0
  3
*D37
  1

  0
LINE
  5
12FEB
330
12F9D
100
AcDbEntity
  8
寸法
 62
     0
 48
50.0
370
    -2
100
AcDbLine
 10
7502.206150475267
 20
1730.799723397104
 30
0.0
 11
6102.345878162889
 21
1730.799723397104
 31
0.0
  0
LINE
  5
12FEC
330
12F9D
100
AcDbEntity
  8
寸法
 62
     0
 48
50.0
370
    -2
100
AcDbLine
 10
6851.142525974295
 20
1371.653473397103
 30
0.0
 11
6102.345878162889
 21
1371.653473397103
 31
0.0
  0
LINE
  5
12FED
330
12F9D
100
AcDbEntity
  8
寸法
 62
     0
 48
50.0
370
    -2
100
AcDbLine
 10
6162.34587816289
 20
1730.799723397104
 30
0.0
 11
6162.34587816289
 21
1371.653473397103
 31
0.0
  0
INSERT
  5
12FEE
330
12F9D
100
AcDbEntity
  8
寸法
 62
     0
 48
50.0
370
    -2
100
AcDbBlockReference
  2
_DOTSMALL
 10
6162.34587816289
 20
1730.799723397104
 30
0.0
 41
100.0
 42
100.0
 43
100.0
 50
90.0
  0
INSERT
  5
12FEF
330
12F9D
100
AcDbEntity
  8
寸法
 62
     0
 48
50.0
370
    -2
100
AcDbBlockReference
  2
_DOTSMALL
 10
6162.34587816289
 20
1371.653473397103
 30
0.0
 41
100.0
 42
100.0
 43
100.0
 50
270.0
  0
MTEXT
  5
12FF0
330
12F9D
100
AcDbEntity
  8
寸法
 62
     7
 48
50.0
100
AcDbMText
 10
6062.34587816289
 20
1515.026598397103
 30
0.0
 40
120.0
 41
0.0
 71
     5
 72
     1
  1
\A1;180
  7
STYLE1
 11
0.0000000000000001
 21
1.0
 31
0.0
 73
     1
 44
1.0
1001
ACAD
1000
MTEXTBEGIN
1070
    73
1070
     1
1070
    44
1040
1.0
1070
    74
1070
     0
1000
MTEXTEND
  0
POINT
  5
12FF1
330
12F9D
100
AcDbEntity
  8
DEFPOINTS
 62
     0
 48
50.0
100
AcDbPoint
 10
7522.206150475266
 20
1730.799723397104
 30
0.0
  0
POINT
  5
12FF2
330
12F9D
100
AcDbEntity
  8
DEFPOINTS
 62
     0
 48
50.0
100
AcDbPoint
 10
6871.142525974295
 20
1371.653473397103
 30
0.0
  0
POINT
  5
12FF3
330
12F9D
100
AcDbEntity
  8
DEFPOINTS
 62
     0
 48
50.0
100
AcDbPoint
 10
6162.34587816289
 20
1371.653473397103
 30
0.0
  0
ENDBLK
  5
12FA8
330
12F9D
100
AcDbEntity
  8
0
 48
50.0
100
AcDbBlockEnd
  0
BLOCK
  5
12FB3
330
12FA9
100
AcDbEntity
  8
0
 48
50.0
100
AcDbBlockBegin
  2
*D38
 70
     1
 10
0.0
 20
0.0
 30
0.0
  3
*D38
  1

  0
LINE
  5
12FF4
330
12FA9
100
AcDbEntity
  8
寸法
 62
     0
 48
50.0
370
    -2
100
AcDbLine
 10
6307.975533552198
 20
2171.778473397104
 30
0.0
 11
6102.34587816289
 21
2171.778473397104
 31
0.0
  0
LINE
  5
12FF5
330
12FA9
100
AcDbEntity
  8
寸法
 62
     0
 48
50.0
370
    -2
100
AcDbLine
 10
7502.206150475267
 20
1730.799723397104
 30
0.0
 11
6102.345878162889
 21
1730.799723397104
 31
0.0
  0
LINE
  5
12FF6
330
12FA9
100
AcDbEntity
  8
寸法
 62
     0
 48
50.0
370
    -2
100
AcDbLine
 10
6162.345878162891
 20
2171.778473397104
 30
0.0
 11
6162.34587816289
 21
1730.799723397104
 31
0.0
  0
INSERT
  5
12FF7
330
12FA9
100
AcDbEntity
  8
寸法
 62
     0
 48
50.0
370
    -2
100
AcDbBlockReference
  2
_DOTSMALL
 10
6162.345878162891
 20
2171.778473397104
 30
0.0
 41
100.0
 42
100.0
 43
100.0
 50
90.0
  0
INSERT
  5
12FF8
330
12FA9
100
AcDbEntity
  8
寸法
 62
     0
 48
50.0
370
    -2
100
AcDbBlockReference
  2
_DOTSMALL
 10
6162.34587816289
 20
1730.799723397104
 30
0.0
 41
100.0
 42
100.0
 43
100.0
 50
270.0
  0
MTEXT
  5
12FF9
330
12FA9
100
AcDbEntity
  8
寸法
 62
     7
 48
50.0
100
AcDbMText
 10
6062.334067139268
 20
1951.289098397104
 30
0.0
 40
120.0
 41
0.0
 71
     5
 72
     1
  1
\A1;220
  7
STYLE1
 11
0.0000000000000001
 21
1.0
 31
0.0
 73
     1
 44
1.0
1001
ACAD
1000
MTEXTBEGIN
1070
    73
1070
     1
1070
    44
1040
1.0
1070
    74
1070
     0
1000
MTEXTEND
  0
POINT
  5
12FFA
330
12FA9
100
AcDbEntity
  8
DEFPOINTS
 62
     0
 48
50.0
100
AcDbPoint
 10
6327.975533552198
 20
2171.778473397104
 30
0.0
  0
POINT
  5
12FFB
330
12FA9
100
AcDbEntity
  8
DEFPOINTS
 62
     0
 48
50.0
100
AcDbPoint
 10
7522.206150475266
 20
1730.799723397104
 30
0.0
  0
POINT
  5
12FFC
330
12FA9
100
AcDbEntity
  8
DEFPOINTS
 62
     0
 48
50.0
100
AcDbPoint
 10
6162.34587816289
 20
1730.799723397104
 30
0.0
  0
ENDBLK
  5
12FB4
330
12FA9
100
AcDbEntity
  8
0
 48
50.0
100
AcDbBlockEnd
  0
BLOCK
  5
12FBF
330
12FB5
100
AcDbEntity
  8
0
 48
50.0
100
AcDbBlockBegin
  2
*D39
 70
     1
 10
0.0
 20
0.0
 30
0.0
  3
*D39
  1

  0
LINE
  5
12FFD
330
12FB5
100
AcDbEntity
  8
寸法
 62
     0
 48
50.0
370
    -2
100
AcDbLine
 10
6967.356645224433
 20
1041.753473397105
 30
0.0
 11
6967.356645224433
 21
719.5662246076198
 31
0.0
  0
LINE
  5
12FFE
330
12FB5
100
AcDbEntity
  8
寸法
 62
     0
 48
50.0
370
    -2
100
AcDbLine
 10
8167.356645224433
 20
1041.753473397105
 30
0.0
 11
8167.356645224433
 21
719.5662246076198
 31
0.0
  0
LINE
  5
12FFF
330
12FB5
100
AcDbEntity
  8
寸法
 62
     0
 48
50.0
370
    -2
100
AcDbLine
 10
6967.356645224433
 20
779.5662246076199
 30
0.0
 11
8167.356645224433
 21
779.5662246076199
 31
0.0
  0
INSERT
  5
13000
330
12FB5
100
AcDbEntity
  8
寸法
 62
     0
 48
50.0
370
    -2
100
AcDbBlockReference
  2
_DOTSMALL
 10
6967.356645224433
 20
779.5662246076199
 30
0.0
 41
100.0
 42
100.0
 43
100.0
 50
180.0
  0
INSERT
  5
13001
330
12FB5
100
AcDbEntity
  8
寸法
 62
     0
 48
50.0
370
    -2
100
AcDbBlockReference
  2
_DOTSMALL
 10
8167.356645224433
 20
779.5662246076199
 30
0.0
 41
100.0
 42
100.0
 43
100.0
  0
MTEXT
  5
13002
330
12FB5
100
AcDbEntity
  8
寸法
 62
     7
 48
50.0
100
AcDbMText
 10
7567.356645224433
 20
879.5662246076199
 30
0.0
 40
120.0
 41
0.0
 71
     5
 72
     1
  1
\A1;600
  7
STYLE1
 73
     1
 44
1.0
1001
ACAD
1000
MTEXTBEGIN
1070
    73
1070
     1
1070
    44
1040
1.0
1070
    74
1070
     0
1000
MTEXTEND
  0
POINT
  5
13003
330
12FB5
100
AcDbEntity
  8
DEFPOINTS
 62
     0
 48
50.0
100
AcDbPoint
 10
6967.356645224433
 20
1061.753473397105
 30
0.0
  0
POINT
  5
13004
330
12FB5
100
AcDbEntity
  8
DEFPOINTS
 62
     0
 48
50.0
100
AcDbPoint
 10
8167.356645224433
 20
1061.753473397105
 30
0.0
  0
POINT
  5
13005
330
12FB5
100
AcDbEntity
  8
DEFPOINTS
 62
     0
 48
50.0
100
AcDbPoint
 10
8167.356645224433
 20
779.5662246076199
 30
0.0
  0
ENDBLK
  5
12FC0
330
12FB5
100
AcDbEntity
  8
0
 48
50.0
100
AcDbBlockEnd
  0
BLOCK
  5
12FCD
330
12FC1
100
AcDbEntity
  8
0
 48
50.0
100
AcDbBlockBegin
  2
*D40
 70
     1
 10
0.0
 20
0.0
 30
0.0
  3
*D40
  1

  0
LINE
  5
13006
330
12FC1
100
AcDbEntity
  8
寸法
 62
     0
 48
50.0
370
    -2
100
AcDbLine
 10
6851.142525974303
 20
1371.653473397103
 30
0.0
 11
5921.671157149674
 21
1371.653473397103
 31
0.0
  0
LINE
  5
13007
330
12FC1
100
AcDbEntity
  8
寸法
 62
     0
 48
50.0
370
    -2
100
AcDbLine
 10
6851.142525974295
 20
1271.753473397105
 30
0.0
 11
5921.671157149674
 21
1271.753473397105
 31
0.0
  0
LINE
  5
13008
330
12FC1
100
AcDbEntity
  8
寸法
 62
     0
 48
50.0
370
    -2
100
AcDbLine
 10
5981.671157149674
 20
1371.653473397103
 30
0.0
 11
5981.671157149674
 21
1471.653473397103
 31
0.0
  0
LINE
  5
13009
330
12FC1
100
AcDbEntity
  8
寸法
 62
     0
 48
50.0
370
    -2
100
AcDbLine
 10
5981.671157149674
 20
1271.753473397105
 30
0.0
 11
5981.671157149674
 21
1171.753473397105
 31
0.0
  0
LINE
  5
1300A
330
12FC1
100
AcDbEntity
  8
寸法
 62
     0
 48
50.0
370
    -2
100
AcDbLine
 10
5981.671157149674
 20
1371.653473397103
 30
0.0
 11
5981.671157149674
 21
1271.753473397105
 31
0.0
  0
INSERT
  5
1300B
330
12FC1
100
AcDbEntity
  8
寸法
 62
     0
 48
50.0
370
    -2
100
AcDbBlockReference
  2
_DOTSMALL
 10
5981.671157149674
 20
1371.653473397103
 30
0.0
 41
100.0
 42
100.0
 43
100.0
 50
270.0
  0
INSERT
  5
1300C
330
12FC1
100
AcDbEntity
  8
寸法
 62
     0
 48
50.0
370
    -2
100
AcDbBlockReference
  2
_DOTSMALL
 10
5981.671157149674
 20
1271.753473397105
 30
0.0
 41
100.0
 42
100.0
 43
100.0
 50
90.0
  0
MTEXT
  5
1300D
330
12FC1
100
AcDbEntity
  8
寸法
 62
     7
 48
50.0
100
AcDbMText
 10
5881.671157149674
 20
1321.703473397105
 30
0.0
 40
120.0
 41
0.0
 71
     5
 72
     1
  1
\A1;50
  7
STYLE1
 11
0.0000000000000001
 21
1.0
 31
0.0
 73
     1
 44
1.0
1001
ACAD
1000
MTEXTBEGIN
1070
    73
1070
     1
1070
    44
1040
1.0
1070
    74
1070
     0
1000
MTEXTEND
  0
POINT
  5
1300E
330
12FC1
100
AcDbEntity
  8
DEFPOINTS
 62
     0
 48
50.0
100
AcDbPoint
 10
6871.142525974303
 20
1371.653473397103
 30
0.0
  0
POINT
  5
1300F
330
12FC1
100
AcDbEntity
  8
DEFPOINTS
 62
     0
 48
50.0
100
AcDbPoint
 10
6871.142525974295
 20
1271.753473397105
 30
0.0
  0
POINT
  5
13010
330
12FC1
100
AcDbEntity
  8
DEFPOINTS
 62
     0
 48
50.0
100
AcDbPoint
 10
5981.671157149674
 20
1271.753473397105
 30
0.0
  0
ENDBLK
  5
12FCE
330
12FC1
100
AcDbEntity
  8
0
 48
50.0
100
AcDbBlockEnd
  0
BLOCK
  5
1301C
330
1301B
100
AcDbEntity
  8
0
 48
50.0
100
AcDbBlockBegin
  2
*D41
 70
     1
 10
0.0
 20
0.0
 30
0.0
  3
*D41
  1

  0
LINE
  5
1301D
330
1301B
100
AcDbEntity
  8
寸法
 62
     0
 48
50.0
370
    -2
100
AcDbLine
 10
6967.356645224433
 20
1041.753473397105
 30
0.0
 11
6967.356645224433
 21
719.5662246076198
 31
0.0
  0
LINE
  5
1301E
330
1301B
100
AcDbEntity
  8
寸法
 62
     0
 48
50.0
370
    -2
100
AcDbLine
 10
8167.356645224433
 20
1041.753473397105
 30
0.0
 11
8167.356645224433
 21
719.5662246076198
 31
0.0
  0
LINE
  5
1301F
330
1301B
100
AcDbEntity
  8
寸法
 62
     0
 48
50.0
370
    -2
100
AcDbLine
 10
6967.356645224433
 20
779.5662246076199
 30
0.0
 11
8167.356645224433
 21
779.5662246076199
 31
0.0
  0
INSERT
  5
13020
330
1301B
100
AcDbEntity
  8
寸法
 62
     0
 48
50.0
370
    -2
100
AcDbBlockReference
  2
_DOTSMALL
 10
6967.356645224433
 20
779.5662246076199
 30
0.0
 41
100.0
 42
100.0
 43
100.0
 50
180.0
  0
INSERT
  5
13021
330
1301B
100
AcDbEntity
  8
寸法
 62
     0
 48
50.0
370
    -2
100
AcDbBlockReference
  2
_DOTSMALL
 10
8167.356645224433
 20
779.5662246076199
 30
0.0
 41
100.0
 42
100.0
 43
100.0
  0
MTEXT
  5
13022
330
1301B
100
AcDbEntity
  8
寸法
 62
     7
 48
50.0
100
AcDbMText
 10
7567.356645224433
 20
879.5662246076199
 30
0.0
 40
120.0
 41
0.0
 71
     5
 72
     1
  1
\A1;600
  7
STYLE1
 73
     1
 44
1.0
1001
ACAD
1000
MTEXTBEGIN
1070
    73
1070
     1
1070
    44
1040
1.0
1070
    74
1070
     0
1000
MTEXTEND
  0
POINT
  5
13023
330
1301B
100
AcDbEntity
  8
DEFPOINTS
 62
     0
 48
50.0
100
AcDbPoint
 10
6967.356645224433
 20
1061.753473397105
 30
0.0
  0
POINT
  5
13024
330
1301B
100
AcDbEntity
  8
DEFPOINTS
 62
     0
 48
50.0
100
AcDbPoint
 10
8167.356645224433
 20
1061.753473397105
 30
0.0
  0
POINT
  5
13025
330
1301B
100
AcDbEntity
  8
DEFPOINTS
 62
     0
 48
50.0
100
AcDbPoint
 10
8167.356645224433
 20
779.5662246076199
 30
0.0
  0
ENDBLK
  5
13026
330
1301B
100
AcDbEntity
  8
0
 48
50.0
100
AcDbBlockEnd
  0
BLOCK
  5
13028
330
13027
100
AcDbEntity
  8
0
 48
50.0
100
AcDbBlockBegin
  2
*D42
 70
     1
 10
0.0
 20
0.0
 30
0.0
  3
*D42
  1

  0
LINE
  5
13029
330
13027
100
AcDbEntity
  8
寸法
 62
     0
 48
50.0
370
    -2
100
AcDbLine
 10
6307.975533552198
 20
2171.778473397104
 30
0.0
 11
6102.34587816289
 21
2171.778473397104
 31
0.0
  0
LINE
  5
1302A
330
13027
100
AcDbEntity
  8
寸法
 62
     0
 48
50.0
370
    -2
100
AcDbLine
 10
7502.206150475267
 20
1730.799723397104
 30
0.0
 11
6102.345878162889
 21
1730.799723397104
 31
0.0
  0
LINE
  5
1302B
330
13027
100
AcDbEntity
  8
寸法
 62
     0
 48
50.0
370
    -2
100
AcDbLine
 10
6162.345878162891
 20
2171.778473397104
 30
0.0
 11
6162.34587816289
 21
1730.799723397104
 31
0.0
  0
INSERT
  5
1302C
330
13027
100
AcDbEntity
  8
寸法
 62
     0
 48
50.0
370
    -2
100
AcDbBlockReference
  2
_DOTSMALL
 10
6162.345878162891
 20
2171.778473397104
 30
0.0
 41
100.0
 42
100.0
 43
100.0
 50
90.0
  0
INSERT
  5
1302D
330
13027
100
AcDbEntity
  8
寸法
 62
     0
 48
50.0
370
    -2
100
AcDbBlockReference
  2
_DOTSMALL
 10
6162.34587816289
 20
1730.799723397104
 30
0.0
 41
100.0
 42
100.0
 43
100.0
 50
270.0
  0
MTEXT
  5
1302E
330
13027
100
AcDbEntity
  8
寸法
 62
     7
 48
50.0
100
AcDbMText
 10
6062.334067139268
 20
1951.289098397104
 30
0.0
 40
120.0
 41
0.0
 71
     5
 72
     1
  1
\A1;220
  7
STYLE1
 11
0.0000000000000001
 21
1.0
 31
0.0
 73
     1
 44
1.0
1001
ACAD
1000
MTEXTBEGIN
1070
    73
1070
     1
1070
    44
1040
1.0
1070
    74
1070
     0
1000
MTEXTEND
  0
POINT
  5
1302F
330
13027
100
AcDbEntity
  8
DEFPOINTS
 62
     0
 48
50.0
100
AcDbPoint
 10
6327.975533552198
 20
2171.778473397104
 30
0.0
  0
POINT
  5
13030
330
13027
100
AcDbEntity
  8
DEFPOINTS
 62
     0
 48
50.0
100
AcDbPoint
 10
7522.206150475266
 20
1730.799723397104
 30
0.0
  0
POINT
  5
13031
330
13027
100
AcDbEntity
  8
DEFPOINTS
 62
     0
 48
50.0
100
AcDbPoint
 10
6162.34587816289
 20
1730.799723397104
 30
0.0
  0
ENDBLK
  5
13032
330
13027
100
AcDbEntity
  8
0
 48
50.0
100
AcDbBlockEnd
  0
BLOCK
  5
13034
330
13033
100
AcDbEntity
  8
0
 48
50.0
100
AcDbBlockBegin
  2
*D43
 70
     1
 10
0.0
 20
0.0
 30
0.0
  3
*D43
  1

  0
LINE
  5
13035
330
13033
100
AcDbEntity
  8
寸法
 62
     0
 48
50.0
370
    -2
100
AcDbLine
 10
6343.789827176105
 20
2272.319098397104
 30
0.0
 11
5921.671157149674
 21
2272.319098397104
 31
0.0
  0
LINE
  5
13036
330
13033
100
AcDbEntity
  8
寸法
 62
     0
 48
50.0
370
    -2
100
AcDbLine
 10
6851.142525974295
 20
1371.653473397103
 30
0.0
 11
5921.671157149674
 21
1371.653473397103
 31
0.0
  0
LINE
  5
13037
330
13033
100
AcDbEntity
  8
寸法
 62
     0
 48
50.0
370
    -2
100
AcDbLine
 10
5981.671157149675
 20
2272.319098397104
 30
0.0
 11
5981.671157149674
 21
1371.653473397103
 31
0.0
  0
INSERT
  5
13038
330
13033
100
AcDbEntity
  8
寸法
 62
     0
 48
50.0
370
    -2
100
AcDbBlockReference
  2
_DOTSMALL
 10
5981.671157149675
 20
2272.319098397104
 30
0.0
 41
100.0
 42
100.0
 43
100.0
 50
90.0
  0
INSERT
  5
13039
330
13033
100
AcDbEntity
  8
寸法
 62
     0
 48
50.0
370
    -2
100
AcDbBlockReference
  2
_DOTSMALL
 10
5981.671157149674
 20
1371.653473397103
 30
0.0
 41
100.0
 42
100.0
 43
100.0
 50
270.0
  0
MTEXT
  5
1303A
330
13033
100
AcDbEntity
  8
寸法
 62
     7
 48
50.0
100
AcDbMText
 10
5881.671157149674
 20
1821.986285897105
 30
0.0
 40
120.0
 41
0.0
 71
     5
 72
     1
  1
\A1;450
  7
STYLE1
 11
0.0000000000000001
 21
1.0
 31
0.0
 73
     1
 44
1.0
1001
ACAD
1000
MTEXTBEGIN
1070
    73
1070
     1
1070
    44
1040
1.0
1070
    74
1070
     0
1000
MTEXTEND
  0
POINT
  5
1303B
330
13033
100
AcDbEntity
  8
DEFPOINTS
 62
     0
 48
50.0
100
AcDbPoint
 10
6363.789827176105
 20
2272.319098397104
 30
0.0
  0
POINT
  5
1303C
330
13033
100
AcDbEntity
  8
DEFPOINTS
 62
     0
 48
50.0
100
AcDbPoint
 10
6871.142525974295
 20
1371.653473397103
 30
0.0
  0
POINT
  5
1303D
330
13033
100
AcDbEntity
  8
DEFPOINTS
 62
     0
 48
50.0
100
AcDbPoint
 10
5981.671157149674
 20
1371.653473397103
 30
0.0
  0
ENDBLK
  5
1303E
330
13033
100
AcDbEntity
  8
0
 48
50.0
100
AcDbBlockEnd
  0
BLOCK
  5
13040
330
1303F
100
AcDbEntity
  8
0
 48
50.0
100
AcDbBlockBegin
  2
*D44
 70
     1
 10
0.0
 20
0.0
 30
0.0
  3
*D44
  1

  0
LINE
  5
13041
330
1303F
100
AcDbEntity
  8
寸法
 62
     0
 48
50.0
370
    -2
100
AcDbLine
 10
7487.206150475266
 20
1730.799723397104
 30
0.0
 11
6102.345878162889
 21
1730.799723397104
 31
0.0
  0
LINE
  5
13042
330
1303F
100
AcDbEntity
  8
寸法
 62
     0
 48
50.0
370
    -2
100
AcDbLine
 10
6851.142525974295
 20
1371.653473397103
 30
0.0
 11
6102.345878162889
 21
1371.653473397103
 31
0.0
  0
LINE
  5
13043
330
1303F
100
AcDbEntity
  8
寸法
 62
     0
 48
50.0
370
    -2
100
AcDbLine
 10
6162.34587816289
 20
1730.799723397104
 30
0.0
 11
6162.34587816289
 21
1371.653473397103
 31
0.0
  0
INSERT
  5
13044
330
1303F
100
AcDbEntity
  8
寸法
 62
     0
 48
50.0
370
    -2
100
AcDbBlockReference
  2
_DOTSMALL
 10
6162.34587816289
 20
1730.799723397104
 30
0.0
 41
100.0
 42
100.0
 43
100.0
 50
90.0
  0
INSERT
  5
13045
330
1303F
100
AcDbEntity
  8
寸法
 62
     0
 48
50.0
370
    -2
100
AcDbBlockReference
  2
_DOTSMALL
 10
6162.34587816289
 20
1371.653473397103
 30
0.0
 41
100.0
 42
100.0
 43
100.0
 50
270.0
  0
MTEXT
  5
13046
330
1303F
100
AcDbEntity
  8
寸法
 62
     7
 48
50.0
100
AcDbMText
 10
6062.34587816289
 20
1515.026598397103
 30
0.0
 40
120.0
 41
0.0
 71
     5
 72
     1
  1
\A1;180
  7
STYLE1
 11
0.0000000000000001
 21
1.0
 31
0.0
 73
     1
 44
1.0
1001
ACAD
1000
MTEXTBEGIN
1070
    73
1070
     1
1070
    44
1040
1.0
1070
    74
1070
     0
1000
MTEXTEND
  0
POINT
  5
13047
330
1303F
100
AcDbEntity
  8
DEFPOINTS
 62
     0
 48
50.0
100
AcDbPoint
 10
7507.206150475266
 20
1730.799723397104
 30
0.0
  0
POINT
  5
13048
330
1303F
100
AcDbEntity
  8
DEFPOINTS
 62
     0
 48
50.0
100
AcDbPoint
 10
6871.142525974295
 20
1371.653473397103
 30
0.0
  0
POINT
  5
13049
330
1303F
100
AcDbEntity
  8
DEFPOINTS
 62
     0
 48
50.0
100
AcDbPoint
 10
6162.34587816289
 20
1371.653473397103
 30
0.0
  0
ENDBLK
  5
1304A
330
1303F
100
AcDbEntity
  8
0
 48
50.0
100
AcDbBlockEnd
  0
BLOCK
  5
1304C
330
1304B
100
AcDbEntity
  8
0
 48
50.0
100
AcDbBlockBegin
  2
*D45
 70
     1
 10
0.0
 20
0.0
 30
0.0
  3
*D45
  1

  0
LINE
  5
1304D
330
1304B
100
AcDbEntity
  8
寸法
 62
     0
 48
50.0
370
    -2
100
AcDbLine
 10
6851.142525974303
 20
1371.653473397103
 30
0.0
 11
5921.671157149674
 21
1371.653473397103
 31
0.0
  0
LINE
  5
1304E
330
1304B
100
AcDbEntity
  8
寸法
 62
     0
 48
50.0
370
    -2
100
AcDbLine
 10
6851.142525974295
 20
1271.753473397105
 30
0.0
 11
5921.671157149674
 21
1271.753473397105
 31
0.0
  0
LINE
  5
1304F
330
1304B
100
AcDbEntity
  8
寸法
 62
     0
 48
50.0
370
    -2
100
AcDbLine
 10
5981.671157149674
 20
1371.653473397103
 30
0.0
 11
5981.671157149674
 21
1471.653473397103
 31
0.0
  0
LINE
  5
13050
330
1304B
100
AcDbEntity
  8
寸法
 62
     0
 48
50.0
370
    -2
100
AcDbLine
 10
5981.671157149674
 20
1271.753473397105
 30
0.0
 11
5981.671157149674
 21
1171.753473397105
 31
0.0
  0
LINE
  5
13051
330
1304B
100
AcDbEntity
  8
寸法
 62
     0
 48
50.0
370
    -2
100
AcDbLine
 10
5981.671157149674
 20
1371.653473397103
 30
0.0
 11
5981.671157149674
 21
1271.753473397105
 31
0.0
  0
INSERT
  5
13052
330
1304B
100
AcDbEntity
  8
寸法
 62
     0
 48
50.0
370
    -2
100
AcDbBlockReference
  2
_DOTSMALL
 10
5981.671157149674
 20
1371.653473397103
 30
0.0
 41
100.0
 42
100.0
 43
100.0
 50
270.0
  0
INSERT
  5
13053
330
1304B
100
AcDbEntity
  8
寸法
 62
     0
 48
50.0
370
    -2
100
AcDbBlockReference
  2
_DOTSMALL
 10
5981.671157149674
 20
1271.753473397105
 30
0.0
 41
100.0
 42
100.0
 43
100.0
 50
90.0
  0
MTEXT
  5
13054
330
1304B
100
AcDbEntity
  8
寸法
 62
     7
 48
50.0
100
AcDbMText
 10
5881.671157149674
 20
1321.703473397105
 30
0.0
 40
120.0
 41
0.0
 71
     5
 72
     1
  1
\A1;50
  7
STYLE1
 11
0.0000000000000001
 21
1.0
 31
0.0
 73
     1
 44
1.0
1001
ACAD
1000
MTEXTBEGIN
1070
    73
1070
     1
1070
    44
1040
1.0
1070
    74
1070
     0
1000
MTEXTEND
  0
POINT
  5
13055
330
1304B
100
AcDbEntity
  8
DEFPOINTS
 62
     0
 48
50.0
100
AcDbPoint
 10
6871.142525974303
 20
1371.653473397103
 30
0.0
  0
POINT
  5
13056
330
1304B
100
AcDbEntity
  8
DEFPOINTS
 62
     0
 48
50.0
100
AcDbPoint
 10
6871.142525974295
 20
1271.753473397105
 30
0.0
  0
POINT
  5
13057
330
1304B
100
AcDbEntity
  8
DEFPOINTS
 62
     0
 48
50.0
100
AcDbPoint
 10
5981.671157149674
 20
1271.753473397105
 30
0.0
  0
ENDBLK
  5
13058
330
1304B
100
AcDbEntity
  8
0
 48
50.0
100
AcDbBlockEnd
  0
BLOCK
  5
1305A
330
13059
100
AcDbEntity
  8
0
 48
50.0
100
AcDbBlockBegin
  2
*D46
 70
     1
 10
0.0
 20
0.0
 30
0.0
  3
*D46
  1

  0
LINE
  5
1305B
330
13059
100
AcDbEntity
  8
寸法
 62
     0
 48
50.0
370
    -2
100
AcDbLine
 10
6343.789827176104
 20
2272.319098397104
 30
0.0
 11
5921.671157149674
 21
2272.319098397104
 31
0.0
  0
LINE
  5
1305C
330
13059
100
AcDbEntity
  8
寸法
 62
     0
 48
50.0
370
    -2
100
AcDbLine
 10
9302.560497758518
 20
2371.50195824559
 30
0.0
 11
5921.671157149674
 21
2371.501958245591
 31
0.0
  0
LINE
  5
1305D
330
13059
100
AcDbEntity
  8
寸法
 62
     0
 48
50.0
370
    -2
100
AcDbLine
 10
5981.671157149674
 20
2272.319098397104
 30
0.0
 11
5981.671157149674
 21
2371.501958245591
 31
0.0
  0
LINE
  5
1305E
330
13059
100
AcDbEntity
  8
寸法
 62
     0
 48
50.0
370
    -2
100
AcDbLine
 10
5981.671157149674
 20
2371.501958245591
 30
0.0
 11
5981.671157149674
 21
2809.106627858645
 31
0.0
  0
INSERT
  5
1305F
330
13059
100
AcDbEntity
  8
寸法
 62
     0
 48
50.0
370
    -2
100
AcDbBlockReference
  2
_DOTSMALL
 10
5981.671157149674
 20
2272.319098397104
 30
0.0
 41
100.0
 42
100.0
 43
100.0
 50
270.0
  0
INSERT
  5
13060
330
13059
100
AcDbEntity
  8
寸法
 62
     0
 48
50.0
370
    -2
100
AcDbBlockReference
  2
_DOTSMALL
 10
5981.671157149674
 20
2371.501958245591
 30
0.0
 41
100.0
 42
100.0
 43
100.0
 50
90.0
  0
MTEXT
  5
13061
330
13059
100
AcDbEntity
  8
寸法
 62
     7
 48
50.0
100
AcDbMText
 10
5875.671157149673
 20
2655.153871953134
 30
0.0
 40
120.0
 41
0.0
 71
     5
 72
     1
  1
\A1;(50)
  7
STYLE1
 11
0.0000000000000001
 21
1.0
 31
0.0
 73
     1
 44
1.0
1001
ACAD
1000
MTEXTBEGIN
1070
    73
1070
     1
1070
    44
1040
1.0
1070
    74
1070
     0
1000
MTEXTEND
  0
POINT
  5
13062
330
13059
100
AcDbEntity
  8
DEFPOINTS
 62
     0
 48
50.0
100
AcDbPoint
 10
6363.789827176105
 20
2272.319098397104
 30
0.0
  0
POINT
  5
13063
330
13059
100
AcDbEntity
  8
DEFPOINTS
 62
     0
 48
50.0
100
AcDbPoint
 10
9322.560497758518
 20
2371.50195824559
 30
0.0
  0
POINT
  5
13064
330
13059
100
AcDbEntity
  8
DEFPOINTS
 62
     0
 48
50.0
100
AcDbPoint
 10
5981.671157149674
 20
2371.501958245591
 30
0.0
  0
ENDBLK
  5
13065
330
13059
100
AcDbEntity
  8
0
 48
50.0
100
AcDbBlockEnd
  0
BLOCK
  5
13067
330
13066
100
AcDbEntity
  8
0
 48
50.0
100
AcDbBlockBegin
  2
*D47
 70
     1
 10
0.0
 20
0.0
 30
0.0
  3
*D47
  1

  0
LINE
  5
13068
330
13066
100
AcDbEntity
  8
寸法
 62
     0
 48
50.0
370
    -2
100
AcDbLine
 10
6343.789827176105
 20
2272.319098397104
 30
0.0
 11
6097.711804370892
 21
2272.319098397104
 31
0.0
  0
LINE
  5
13069
330
13066
100
AcDbEntity
  8
寸法
 62
     0
 48
50.0
370
    -2
100
AcDbLine
 10
6307.975533552198
 20
2171.778473397104
 30
0.0
 11
6097.711804370892
 21
2171.778473397104
 31
0.0
  0
LINE
  5
1306A
330
13066
100
AcDbEntity
  8
寸法
 62
     0
 48
50.0
370
    -2
100
AcDbLine
 10
6157.711804370893
 20
2272.319098397104
 30
0.0
 11
6157.711804370893
 21
2171.778473397104
 31
0.0
  0
INSERT
  5
1306B
330
13066
100
AcDbEntity
  8
寸法
 62
     0
 48
50.0
370
    -2
100
AcDbBlockReference
  2
_DOTSMALL
 10
6157.711804370893
 20
2272.319098397104
 30
0.0
 41
100.0
 42
100.0
 43
100.0
 50
90.0
  0
INSERT
  5
1306C
330
13066
100
AcDbEntity
  8
寸法
 62
     0
 48
50.0
370
    -2
100
AcDbBlockReference
  2
_DOTSMALL
 10
6157.711804370893
 20
2171.778473397104
 30
0.0
 41
100.0
 42
100.0
 43
100.0
 50
270.0
  0
MTEXT
  5
1306D
330
13066
100
AcDbEntity
  8
寸法
 62
     7
 48
50.0
100
AcDbMText
 10
6057.711804370891
 20
2222.048785897105
 30
0.0
 40
120.0
 41
0.0
 71
     5
 72
     1
  1
\A1;50
  7
STYLE1
 11
0.0000000000000001
 21
1.0
 31
0.0
 73
     1
 44
1.0
1001
ACAD
1000
MTEXTBEGIN
1070
    73
1070
     1
1070
    44
1040
1.0
1070
    74
1070
     0
1000
MTEXTEND
  0
POINT
  5
1306E
330
13066
100
AcDbEntity
  8
DEFPOINTS
 62
     0
 48
50.0
100
AcDbPoint
 10
6363.789827176105
 20
2272.319098397104
 30
0.0
  0
POINT
  5
1306F
330
13066
100
AcDbEntity
  8
DEFPOINTS
 62
     0
 48
50.0
100
AcDbPoint
 10
6327.975533552198
 20
2171.778473397104
 30
0.0
  0
POINT
  5
13070
330
13066
100
AcDbEntity
  8
DEFPOINTS
 62
     0
 48
50.0
100
AcDbPoint
 10
6157.711804370893
 20
2171.778473397104
 30
0.0
  0
ENDBLK
  5
13071
330
13066
100
AcDbEntity
  8
0
 48
50.0
100
AcDbBlockEnd
  0
BLOCK
  5
131F3
330
131E8
100
AcDbEntity
  8
0
 48
50.0
100
AcDbBlockBegin
  2
*D49
 70
     1
 10
0.0
 20
0.0
 30
0.0
  3
*D49
  1

  0
LINE
  5
1323F
330
131E8
100
AcDbEntity
  8
寸法
 62
     0
 48
50.0
370
    -2
100
AcDbLine
 10
6343.789827176104
 20
2272.319098397104
 30
0.0
 11
5921.671157149674
 21
2272.319098397104
 31
0.0
  0
LINE
  5
13240
330
131E8
100
AcDbEntity
  8
寸法
 62
     0
 48
50.0
370
    -2
100
AcDbLine
 10
9302.560497758518
 20
2371.50195824559
 30
0.0
 11
5921.671157149674
 21
2371.501958245591
 31
0.0
  0
LINE
  5
13241
330
131E8
100
AcDbEntity
  8
寸法
 62
     0
 48
50.0
370
    -2
100
AcDbLine
 10
5981.671157149674
 20
2272.319098397104
 30
0.0
 11
5981.671157149674
 21
2371.501958245591
 31
0.0
  0
LINE
  5
13242
330
131E8
100
AcDbEntity
  8
寸法
 62
     0
 48
50.0
370
    -2
100
AcDbLine
 10
5981.671157149674
 20
2371.501958245591
 30
0.0
 11
5981.671157149674
 21
2809.106627858645
 31
0.0
  0
INSERT
  5
13243
330
131E8
100
AcDbEntity
  8
寸法
 62
     0
 48
50.0
370
    -2
100
AcDbBlockReference
  2
_DOTSMALL
 10
5981.671157149674
 20
2272.319098397104
 30
0.0
 41
100.0
 42
100.0
 43
100.0
 50
270.0
  0
INSERT
  5
13244
330
131E8
100
AcDbEntity
  8
寸法
 62
     0
 48
50.0
370
    -2
100
AcDbBlockReference
  2
_DOTSMALL
 10
5981.671157149674
 20
2371.501958245591
 30
0.0
 41
100.0
 42
100.0
 43
100.0
 50
90.0
  0
MTEXT
  5
13245
330
131E8
100
AcDbEntity
  8
寸法
 62
     7
 48
50.0
100
AcDbMText
 10
5875.671157149673
 20
2655.153871953134
 30
0.0
 40
120.0
 41
0.0
 71
     5
 72
     1
  1
\A1;(50)
  7
STYLE1
 11
0.0000000000000001
 21
1.0
 31
0.0
 73
     1
 44
1.0
1001
ACAD
1000
MTEXTBEGIN
1070
    73
1070
     1
1070
    44
1040
1.0
1070
    74
1070
     0
1000
MTEXTEND
  0
POINT
  5
13246
330
131E8
100
AcDbEntity
  8
DEFPOINTS
 62
     0
 48
50.0
100
AcDbPoint
 10
6363.789827176105
 20
2272.319098397104
 30
0.0
  0
POINT
  5
13247
330
131E8
100
AcDbEntity
  8
DEFPOINTS
 62
     0
 48
50.0
100
AcDbPoint
 10
9322.560497758518
 20
2371.50195824559
 30
0.0
  0
POINT
  5
13248
330
131E8
100
AcDbEntity
  8
DEFPOINTS
 62
     0
 48
50.0
100
AcDbPoint
 10
5981.671157149674
 20
2371.501958245591
 30
0.0
  0
ENDBLK
  5
131F4
330
131E8
100
AcDbEntity
  8
0
 48
50.0
100
AcDbBlockEnd
  0
BLOCK
  5
131FF
330
131F5
100
AcDbEntity
  8
0
 48
50.0
100
AcDbBlockBegin
  2
*D50
 70
     1
 10
0.0
 20
0.0
 30
0.0
  3
*D50
  1

  0
LINE
  5
13249
330
131F5
100
AcDbEntity
  8
寸法
 62
     0
 48
50.0
370
    -2
100
AcDbLine
 10
6343.789827176105
 20
2272.319098397104
 30
0.0
 11
6097.711804370892
 21
2272.319098397104
 31
0.0
  0
LINE
  5
1324A
330
131F5
100
AcDbEntity
  8
寸法
 62
     0
 48
50.0
370
    -2
100
AcDbLine
 10
6307.975533552198
 20
2171.778473397104
 30
0.0
 11
6097.711804370892
 21
2171.778473397104
 31
0.0
  0
LINE
  5
1324B
330
131F5
100
AcDbEntity
  8
寸法
 62
     0
 48
50.0
370
    -2
100
AcDbLine
 10
6157.711804370893
 20
2272.319098397104
 30
0.0
 11
6157.711804370893
 21
2171.778473397104
 31
0.0
  0
INSERT
  5
1324C
330
131F5
100
AcDbEntity
  8
寸法
 62
     0
 48
50.0
370
    -2
100
AcDbBlockReference
  2
_DOTSMALL
 10
6157.711804370893
 20
2272.319098397104
 30
0.0
 41
100.0
 42
100.0
 43
100.0
 50
90.0
  0
INSERT
  5
1324D
330
131F5
100
AcDbEntity
  8
寸法
 62
     0
 48
50.0
370
    -2
100
AcDbBlockReference
  2
_DOTSMALL
 10
6157.711804370893
 20
2171.778473397104
 30
0.0
 41
100.0
 42
100.0
 43
100.0
 50
270.0
  0
MTEXT
  5
1324E
330
131F5
100
AcDbEntity
  8
寸法
 62
     7
 48
50.0
100
AcDbMText
 10
6057.711804370891
 20
2222.048785897105
 30
0.0
 40
120.0
 41
0.0
 71
     5
 72
     1
  1
\A1;50
  7
STYLE1
 11
0.0000000000000001
 21
1.0
 31
0.0
 73
     1
 44
1.0
1001
ACAD
1000
MTEXTBEGIN
1070
    73
1070
     1
1070
    44
1040
1.0
1070
    74
1070
     0
1000
MTEXTEND
  0
POINT
  5
1324F
330
131F5
100
AcDbEntity
  8
DEFPOINTS
 62
     0
 48
50.0
100
AcDbPoint
 10
6363.789827176105
 20
2272.319098397104
 30
0.0
  0
POINT
  5
13250
330
131F5
100
AcDbEntity
  8
DEFPOINTS
 62
     0
 48
50.0
100
AcDbPoint
 10
6327.975533552198
 20
2171.778473397104
 30
0.0
  0
POINT
  5
13251
330
131F5
100
AcDbEntity
  8
DEFPOINTS
 62
     0
 48
50.0
100
AcDbPoint
 10
6157.711804370893
 20
2171.778473397104
 30
0.0
  0
ENDBLK
  5
13200
330
131F5
100
AcDbEntity
  8
0
 48
50.0
100
AcDbBlockEnd
  0
BLOCK
  5
1320B
330
13201
100
AcDbEntity
  8
0
 48
50.0
100
AcDbBlockBegin
  2
*D51
 70
     1
 10
0.0
 20
0.0
 30
0.0
  3
*D51
  1

  0
LINE
  5
13252
330
13201
100
AcDbEntity
  8
寸法
 62
     0
 48
50.0
370
    -2
100
AcDbLine
 10
6343.789827176105
 20
2272.319098397104
 30
0.0
 11
5921.671157149674
 21
2272.319098397104
 31
0.0
  0
LINE
  5
13253
330
13201
100
AcDbEntity
  8
寸法
 62
     0
 48
50.0
370
    -2
100
AcDbLine
 10
6851.142525974295
 20
1371.653473397103
 30
0.0
 11
5921.671157149674
 21
1371.653473397103
 31
0.0
  0
LINE
  5
13254
330
13201
100
AcDbEntity
  8
寸法
 62
     0
 48
50.0
370
    -2
100
AcDbLine
 10
5981.671157149675
 20
2272.319098397104
 30
0.0
 11
5981.671157149674
 21
1371.653473397103
 31
0.0
  0
INSERT
  5
13255
330
13201
100
AcDbEntity
  8
寸法
 62
     0
 48
50.0
370
    -2
100
AcDbBlockReference
  2
_DOTSMALL
 10
5981.671157149675
 20
2272.319098397104
 30
0.0
 41
100.0
 42
100.0
 43
100.0
 50
90.0
  0
INSERT
  5
13256
330
13201
100
AcDbEntity
  8
寸法
 62
     0
 48
50.0
370
    -2
100
AcDbBlockReference
  2
_DOTSMALL
 10
5981.671157149674
 20
1371.653473397103
 30
0.0
 41
100.0
 42
100.0
 43
100.0
 50
270.0
  0
MTEXT
  5
13257
330
13201
100
AcDbEntity
  8
寸法
 62
     7
 48
50.0
100
AcDbMText
 10
5881.671157149674
 20
1821.986285897105
 30
0.0
 40
120.0
 41
0.0
 71
     5
 72
     1
  1
\A1;450
  7
STYLE1
 11
0.0000000000000001
 21
1.0
 31
0.0
 73
     1
 44
1.0
1001
ACAD
1000
MTEXTBEGIN
1070
    73
1070
     1
1070
    44
1040
1.0
1070
    74
1070
     0
1000
MTEXTEND
  0
POINT
  5
13258
330
13201
100
AcDbEntity
  8
DEFPOINTS
 62
     0
 48
50.0
100
AcDbPoint
 10
6363.789827176105
 20
2272.319098397104
 30
0.0
  0
POINT
  5
13259
330
13201
100
AcDbEntity
  8
DEFPOINTS
 62
     0
 48
50.0
100
AcDbPoint
 10
6871.142525974295
 20
1371.653473397103
 30
0.0
  0
POINT
  5
1325A
330
13201
100
AcDbEntity
  8
DEFPOINTS
 62
     0
 48
50.0
100
AcDbPoint
 10
5981.671157149674
 20
1371.653473397103
 30
0.0
  0
ENDBLK
  5
1320C
330
13201
100
AcDbEntity
  8
0
 48
50.0
100
AcDbBlockEnd
  0
BLOCK
  5
13217
330
1320D
100
AcDbEntity
  8
0
 48
50.0
100
AcDbBlockBegin
  2
*D52
 70
     1
 10
0.0
 20
0.0
 30
0.0
  3
*D52
  1

  0
LINE
  5
1325B
330
1320D
100
AcDbEntity
  8
寸法
 62
     0
 48
50.0
370
    -2
100
AcDbLine
 10
7487.206150475266
 20
1730.799723397104
 30
0.0
 11
6102.345878162889
 21
1730.799723397104
 31
0.0
  0
LINE
  5
1325C
330
1320D
100
AcDbEntity
  8
寸法
 62
     0
 48
50.0
370
    -2
100
AcDbLine
 10
6851.142525974295
 20
1371.653473397103
 30
0.0
 11
6102.345878162889
 21
1371.653473397103
 31
0.0
  0
LINE
  5
1325D
330
1320D
100
AcDbEntity
  8
寸法
 62
     0
 48
50.0
370
    -2
100
AcDbLine
 10
6162.34587816289
 20
1730.799723397104
 30
0.0
 11
6162.34587816289
 21
1371.653473397103
 31
0.0
  0
INSERT
  5
1325E
330
1320D
100
AcDbEntity
  8
寸法
 62
     0
 48
50.0
370
    -2
100
AcDbBlockReference
  2
_DOTSMALL
 10
6162.34587816289
 20
1730.799723397104
 30
0.0
 41
100.0
 42
100.0
 43
100.0
 50
90.0
  0
INSERT
  5
1325F
330
1320D
100
AcDbEntity
  8
寸法
 62
     0
 48
50.0
370
    -2
100
AcDbBlockReference
  2
_DOTSMALL
 10
6162.34587816289
 20
1371.653473397103
 30
0.0
 41
100.0
 42
100.0
 43
100.0
 50
270.0
  0
MTEXT
  5
13260
330
1320D
100
AcDbEntity
  8
寸法
 62
     7
 48
50.0
100
AcDbMText
 10
6062.34587816289
 20
1515.026598397103
 30
0.0
 40
120.0
 41
0.0
 71
     5
 72
     1
  1
\A1;180
  7
STYLE1
 11
0.0000000000000001
 21
1.0
 31
0.0
 73
     1
 44
1.0
1001
ACAD
1000
MTEXTBEGIN
1070
    73
1070
     1
1070
    44
1040
1.0
1070
    74
1070
     0
1000
MTEXTEND
  0
POINT
  5
13261
330
1320D
100
AcDbEntity
  8
DEFPOINTS
 62
     0
 48
50.0
100
AcDbPoint
 10
7507.206150475266
 20
1730.799723397104
 30
0.0
  0
POINT
  5
13262
330
1320D
100
AcDbEntity
  8
DEFPOINTS
 62
     0
 48
50.0
100
AcDbPoint
 10
6871.142525974295
 20
1371.653473397103
 30
0.0
  0
POINT
  5
13263
330
1320D
100
AcDbEntity
  8
DEFPOINTS
 62
     0
 48
50.0
100
AcDbPoint
 10
6162.34587816289
 20
1371.653473397103
 30
0.0
  0
ENDBLK
  5
13218
330
1320D
100
AcDbEntity
  8
0
 48
50.0
100
AcDbBlockEnd
  0
BLOCK
  5
13223
330
13219
100
AcDbEntity
  8
0
 48
50.0
100
AcDbBlockBegin
  2
*D53
 70
     1
 10
0.0
 20
0.0
 30
0.0
  3
*D53
  1

  0
LINE
  5
13264
330
13219
100
AcDbEntity
  8
寸法
 62
     0
 48
50.0
370
    -2
100
AcDbLine
 10
6307.975533552198
 20
2171.778473397104
 30
0.0
 11
6102.34587816289
 21
2171.778473397104
 31
0.0
  0
LINE
  5
13265
330
13219
100
AcDbEntity
  8
寸法
 62
     0
 48
50.0
370
    -2
100
AcDbLine
 10
7502.206150475267
 20
1730.799723397104
 30
0.0
 11
6102.345878162889
 21
1730.799723397104
 31
0.0
  0
LINE
  5
13266
330
13219
100
AcDbEntity
  8
寸法
 62
     0
 48
50.0
370
    -2
100
AcDbLine
 10
6162.345878162891
 20
2171.778473397104
 30
0.0
 11
6162.34587816289
 21
1730.799723397104
 31
0.0
  0
INSERT
  5
13267
330
13219
100
AcDbEntity
  8
寸法
 62
     0
 48
50.0
370
    -2
100
AcDbBlockReference
  2
_DOTSMALL
 10
6162.345878162891
 20
2171.778473397104
 30
0.0
 41
100.0
 42
100.0
 43
100.0
 50
90.0
  0
INSERT
  5
13268
330
13219
100
AcDbEntity
  8
寸法
 62
     0
 48
50.0
370
    -2
100
AcDbBlockReference
  2
_DOTSMALL
 10
6162.34587816289
 20
1730.799723397104
 30
0.0
 41
100.0
 42
100.0
 43
100.0
 50
270.0
  0
MTEXT
  5
13269
330
13219
100
AcDbEntity
  8
寸法
 62
     7
 48
50.0
100
AcDbMText
 10
6062.334067139268
 20
1951.289098397104
 30
0.0
 40
120.0
 41
0.0
 71
     5
 72
     1
  1
\A1;220
  7
STYLE1
 11
0.0000000000000001
 21
1.0
 31
0.0
 73
     1
 44
1.0
1001
ACAD
1000
MTEXTBEGIN
1070
    73
1070
     1
1070
    44
1040
1.0
1070
    74
1070
     0
1000
MTEXTEND
  0
POINT
  5
1326A
330
13219
100
AcDbEntity
  8
DEFPOINTS
 62
     0
 48
50.0
100
AcDbPoint
 10
6327.975533552198
 20
2171.778473397104
 30
0.0
  0
POINT
  5
1326B
330
13219
100
AcDbEntity
  8
DEFPOINTS
 62
     0
 48
50.0
100
AcDbPoint
 10
7522.206150475266
 20
1730.799723397104
 30
0.0
  0
POINT
  5
1326C
330
13219
100
AcDbEntity
  8
DEFPOINTS
 62
     0
 48
50.0
100
AcDbPoint
 10
6162.34587816289
 20
1730.799723397104
 30
0.0
  0
ENDBLK
  5
13224
330
13219
100
AcDbEntity
  8
0
 48
50.0
100
AcDbBlockEnd
  0
BLOCK
  5
1322F
330
13225
100
AcDbEntity
  8
0
 48
50.0
100
AcDbBlockBegin
  2
*D54
 70
     1
 10
0.0
 20
0.0
 30
0.0
  3
*D54
  1

  0
LINE
  5
1326D
330
13225
100
AcDbEntity
  8
寸法
 62
     0
 48
50.0
370
    -2
100
AcDbLine
 10
6967.356645224433
 20
1041.753473397105
 30
0.0
 11
6967.356645224433
 21
719.5662246076198
 31
0.0
  0
LINE
  5
1326E
330
13225
100
AcDbEntity
  8
寸法
 62
     0
 48
50.0
370
    -2
100
AcDbLine
 10
8167.356645224433
 20
1041.753473397105
 30
0.0
 11
8167.356645224433
 21
719.5662246076198
 31
0.0
  0
LINE
  5
1326F
330
13225
100
AcDbEntity
  8
寸法
 62
     0
 48
50.0
370
    -2
100
AcDbLine
 10
6967.356645224433
 20
779.5662246076199
 30
0.0
 11
8167.356645224433
 21
779.5662246076199
 31
0.0
  0
INSERT
  5
13270
330
13225
100
AcDbEntity
  8
寸法
 62
     0
 48
50.0
370
    -2
100
AcDbBlockReference
  2
_DOTSMALL
 10
6967.356645224433
 20
779.5662246076199
 30
0.0
 41
100.0
 42
100.0
 43
100.0
 50
180.0
  0
INSERT
  5
13271
330
13225
100
AcDbEntity
  8
寸法
 62
     0
 48
50.0
370
    -2
100
AcDbBlockReference
  2
_DOTSMALL
 10
8167.356645224433
 20
779.5662246076199
 30
0.0
 41
100.0
 42
100.0
 43
100.0
  0
MTEXT
  5
13272
330
13225
100
AcDbEntity
  8
寸法
 62
     7
 48
50.0
100
AcDbMText
 10
7567.356645224433
 20
879.5662246076199
 30
0.0
 40
120.0
 41
0.0
 71
     5
 72
     1
  1
\A1;600
  7
STYLE1
 73
     1
 44
1.0
1001
ACAD
1000
MTEXTBEGIN
1070
    73
1070
     1
1070
    44
1040
1.0
1070
    74
1070
     0
1000
MTEXTEND
  0
POINT
  5
13273
330
13225
100
AcDbEntity
  8
DEFPOINTS
 62
     0
 48
50.0
100
AcDbPoint
 10
6967.356645224433
 20
1061.753473397105
 30
0.0
  0
POINT
  5
13274
330
13225
100
AcDbEntity
  8
DEFPOINTS
 62
     0
 48
50.0
100
AcDbPoint
 10
8167.356645224433
 20
1061.753473397105
 30
0.0
  0
POINT
  5
13275
330
13225
100
AcDbEntity
  8
DEFPOINTS
 62
     0
 48
50.0
100
AcDbPoint
 10
8167.356645224433
 20
779.5662246076199
 30
0.0
  0
ENDBLK
  5
13230
330
13225
100
AcDbEntity
  8
0
 48
50.0
100
AcDbBlockEnd
  0
BLOCK
  5
1323D
330
13231
100
AcDbEntity
  8
0
 48
50.0
100
AcDbBlockBegin
  2
*D55
 70
     1
 10
0.0
 20
0.0
 30
0.0
  3
*D55
  1

  0
LINE
  5
13276
330
13231
100
AcDbEntity
  8
寸法
 62
     0
 48
50.0
370
    -2
100
AcDbLine
 10
6851.142525974303
 20
1371.653473397103
 30
0.0
 11
5921.671157149674
 21
1371.653473397103
 31
0.0
  0
LINE
  5
13277
330
13231
100
AcDbEntity
  8
寸法
 62
     0
 48
50.0
370
    -2
100
AcDbLine
 10
6851.142525974295
 20
1271.753473397105
 30
0.0
 11
5921.671157149674
 21
1271.753473397105
 31
0.0
  0
LINE
  5
13278
330
13231
100
AcDbEntity
  8
寸法
 62
     0
 48
50.0
370
    -2
100
AcDbLine
 10
5981.671157149674
 20
1371.653473397103
 30
0.0
 11
5981.671157149674
 21
1471.653473397103
 31
0.0
  0
LINE
  5
13279
330
13231
100
AcDbEntity
  8
寸法
 62
     0
 48
50.0
370
    -2
100
AcDbLine
 10
5981.671157149674
 20
1271.753473397105
 30
0.0
 11
5981.671157149674
 21
1171.753473397105
 31
0.0
  0
LINE
  5
1327A
330
13231
100
AcDbEntity
  8
寸法
 62
     0
 48
50.0
370
    -2
100
AcDbLine
 10
5981.671157149674
 20
1371.653473397103
 30
0.0
 11
5981.671157149674
 21
1271.753473397105
 31
0.0
  0
INSERT
  5
1327B
330
13231
100
AcDbEntity
  8
寸法
 62
     0
 48
50.0
370
    -2
100
AcDbBlockReference
  2
_DOTSMALL
 10
5981.671157149674
 20
1371.653473397103
 30
0.0
 41
100.0
 42
100.0
 43
100.0
 50
270.0
  0
INSERT
  5
1327C
330
13231
100
AcDbEntity
  8
寸法
 62
     0
 48
50.0
370
    -2
100
AcDbBlockReference
  2
_DOTSMALL
 10
5981.671157149674
 20
1271.753473397105
 30
0.0
 41
100.0
 42
100.0
 43
100.0
 50
90.0
  0
MTEXT
  5
1327D
330
13231
100
AcDbEntity
  8
寸法
 62
     7
 48
50.0
100
AcDbMText
 10
5881.671157149674
 20
1321.703473397105
 30
0.0
 40
120.0
 41
0.0
 71
     5
 72
     1
  1
\A1;50
  7
STYLE1
 11
0.0000000000000001
 21
1.0
 31
0.0
 73
     1
 44
1.0
1001
ACAD
1000
MTEXTBEGIN
1070
    73
1070
     1
1070
    44
1040
1.0
1070
    74
1070
     0
1000
MTEXTEND
  0
POINT
  5
1327E
330
13231
100
AcDbEntity
  8
DEFPOINTS
 62
     0
 48
50.0
100
AcDbPoint
 10
6871.142525974303
 20
1371.653473397103
 30
0.0
  0
POINT
  5
1327F
330
13231
100
AcDbEntity
  8
DEFPOINTS
 62
     0
 48
50.0
100
AcDbPoint
 10
6871.142525974295
 20
1271.753473397105
 30
0.0
  0
POINT
  5
13280
330
13231
100
AcDbEntity
  8
DEFPOINTS
 62
     0
 48
50.0
100
AcDbPoint
 10
5981.671157149674
 20
1271.753473397105
 30
0.0
  0
ENDBLK
  5
1323E
330
13231
100
AcDbEntity
  8
0
 48
50.0
100
AcDbBlockEnd
  0
ENDSEC
  0
SECTION
  2
ENTITIES
  0
LINE
  5
10B56
330
747D
100
AcDbEntity
  8
補助
  6
PHANTOM
 62
   230
 48
50.0
100
AcDbLine
 10
140.0
 20
0.0
 30
0.0
 11
139.9999999999995
 21
11409.6
 31
0.0
  0
LINE
  5
10B57
330
747D
100
AcDbEntity
  8
補助
  6
PHANTOM
 62
   230
 48
50.0
100
AcDbLine
 10
139.9999999999995
 20
11409.6
 30
0.0
 11
16307.2
 21
11409.6
 31
0.0
  0
LINE
  5
10B59
330
747D
100
AcDbEntity
  8
仕様書枠
  6
Continuous
 48
50.0
100
AcDbLine
 10
13107.2
 20
1200.0
 30
0.0
 11
13107.2
 21
-0.0000000000000729
 31
0.0
  0
LINE
  5
10B5C
330
747D
100
AcDbEntity
  8
仕様書枠
 48
50.0
100
AcDbLine
 10
16307.2
 20
1200.0
 30
0.0
 11
16307.2
 21
-0.0000000000000909
 31
0.0
  0
LINE
  5
10B5D
330
747D
100
AcDbEntity
  8
仕様書枠
 48
50.0
100
AcDbLine
 10
140.0
 20
0.0
 30
0.0
 11
16307.2
 21
-0.0000000000000909
 31
0.0
  0
LINE
  5
10B5E
330
747D
100
AcDbEntity
  8
補助
  6
PHANTOM
 62
   230
 48
50.0
100
AcDbLine
 10
16307.2
 20
11409.6
 30
0.0
 11
16307.2
 21
1200.0
 31
0.0
  0
LINE
  5
10B6C
330
747D
100
AcDbEntity
  8
仕様書枠
 48
50.0
100
AcDbLine
 10
13107.2
 20
1200.0
 30
0.0
 11
16307.2
 21
1200.0
 31
0.0
  0
LINE
  5
10B6D
330
747D
100
AcDbEntity
  8
補助
  6
PHANTOM
 62
   230
 48
50.0
100
AcDbLine
 10
13107.2
 20
11409.6
 30
0.0
 11
13107.2
 21
4800.0
 31
0.0
  0
LINE
  5
10B6F
330
747D
100
AcDbEntity
  8
補助
  6
PHANTOM
 62
   230
 48
50.0
100
AcDbLine
 10
13107.2
 20
4800.0
 30
0.0
 11
16307.2
 21
4800.0
 31
0.0
  0
LINE
  5
10B72
330
747D
100
AcDbEntity
  8
文字
 62
     7
 48
50.0
100
AcDbLine
 10
13187.2
 20
400.0
 30
0.0
 11
16227.2
 21
400.0
 31
0.0
  0
TEXT
  5
10B73
330
747D
100
AcDbEntity
  8
文字
 48
50.0
100
AcDbText
 10
13162.9790565769
 20
895.0906074299405
 30
0.0
 40
200.0
  1
基 礎 図
  7
STYLE2
100
AcDbText
  0
TEXT
  5
10B74
330
747D
100
AcDbEntity
  8
文字
 48
50.0
100
AcDbText
 10
13201.43669998441
 20
477.2740661031255
 30
0.0
 40
160.0
  1
機種名
  7
STYLE2
100
AcDbText
  0
LINE
  5
10B7B
330
747D
100
AcDbEntity
  8
仕様書枠
 48
50.0
100
AcDbLine
 10
13107.2
 20
800.0
 30
0.0
 11
14251.2
 21
800.0
 31
0.0
  0
LINE
  5
10B88
330
747D
100
AcDbEntity
  8
仕様書枠
  6
Continuous
 48
50.0
100
AcDbLine
 10
14251.2
 20
1200.0
 30
0.0
 11
14251.2
 21
800.0
 31
0.0
  0
TEXT
  5
10EA8
330
747D
100
AcDbEntity
  8
文字
 48
50.0
100
AcDbText
 10
14851.24476374909
 20
838.2527270729188
 30
0.0
 40
100.0
  1
～一般型～
  7
STYLE2
100
AcDbText
  0
LINE
  5
11799
330
747D
100
AcDbEntity
  8
点線
 48
50.0
100
AcDbLine
 10
5643.600000000004
 20
10206.74038870937
 30
0.0
 11
5643.600000000004
 21
5066.740388709376
 31
0.0
  0
LINE
  5
1179B
330
747D
100
AcDbEntity
  8
点線
 48
50.0
100
AcDbLine
 10
10803.6
 20
10206.74038870937
 30
0.0
 11
5643.600000000005
 21
10206.74038870938
 31
0.0
  0
LINE
  5
1179C
330
747D
100
AcDbEntity
  8
点線
 48
50.0
100
AcDbLine
 10
10803.6
 20
10206.74038870937
 30
0.0
 11
10803.6
 21
5066.740388709376
 31
0.0
  0
LINE
  5
11806
330
747D
100
AcDbEntity
  8
センター
 48
50.0
100
AcDbLine
 10
6093.600000000005
 20
9286.740388709375
 30
0.0
 11
5593.600000000005
 21
9286.740388709375
 31
0.0
  0
LINE
  5
1180A
330
747D
100
AcDbEntity
  8
センター
 48
50.0
100
AcDbLine
 10
5843.600000000005
 20
9536.740388709375
 30
0.0
 11
5843.600000000005
 21
9036.740388709375
 31
0.0
  0
LINE
  5
1180C
330
747D
100
AcDbEntity
  8
文字
 48
50.0
100
AcDbLine
 10
5873.600000000005
 20
9256.740388709374
 30
0.0
 11
5813.600000000005
 21
9256.740388709374
 31
0.0
  0
LINE
  5
1180D
330
747D
100
AcDbEntity
  8
文字
 48
50.0
100
AcDbLine
 10
5873.600000000005
 20
9316.740388709375
 30
0.0
 11
5813.600000000005
 21
9316.740388709375
 31
0.0
  0
LINE
  5
1180E
330
747D
100
AcDbEntity
  8
文字
 48
50.0
100
AcDbLine
 10
5813.600000000005
 20
9316.740388709375
 30
0.0
 11
5813.600000000005
 21
9256.740388709374
 31
0.0
  0
LINE
  5
1180F
330
747D
100
AcDbEntity
  8
文字
 48
50.0
100
AcDbLine
 10
5873.600000000005
 20
9316.740388709375
 30
0.0
 11
5873.600000000005
 21
9256.740388709374
 31
0.0
  0
LINE
  5
11810
330
747D
100
AcDbEntity
  8
センター
 48
50.0
100
AcDbLine
 10
8473.600000000004
 20
9286.740388709375
 30
0.0
 11
7973.600000000004
 21
9286.740388709375
 31
0.0
  0
LINE
  5
11814
330
747D
100
AcDbEntity
  8
センター
 48
50.0
100
AcDbLine
 10
8223.600000000004
 20
9536.740388709375
 30
0.0
 11
8223.600000000004
 21
9036.740388709379
 31
0.0
  0
LINE
  5
11816
330
747D
100
AcDbEntity
  8
文字
 48
50.0
100
AcDbLine
 10
8253.600000000004
 20
9256.740388709374
 30
0.0
 11
8193.600000000003
 21
9256.740388709374
 31
0.0
  0
LINE
  5
11817
330
747D
100
AcDbEntity
  8
文字
 48
50.0
100
AcDbLine
 10
8253.600000000004
 20
9316.740388709376
 30
0.0
 11
8193.600000000003
 21
9316.740388709376
 31
0.0
  0
LINE
  5
11818
330
747D
100
AcDbEntity
  8
文字
 48
50.0
100
AcDbLine
 10
8193.600000000003
 20
9316.740388709378
 30
0.0
 11
8193.600000000003
 21
9256.740388709374
 31
0.0
  0
LINE
  5
11819
330
747D
100
AcDbEntity
  8
文字
 48
50.0
100
AcDbLine
 10
8253.600000000004
 20
9316.740388709378
 30
0.0
 11
8253.600000000004
 21
9256.740388709374
 31
0.0
  0
LINE
  5
1181A
330
747D
100
AcDbEntity
  8
センター
 48
50.0
100
AcDbLine
 10
10853.6
 20
9286.740388709375
 30
0.0
 11
10353.6
 21
9286.740388709375
 31
0.0
  0
LINE
  5
1181E
330
747D
100
AcDbEntity
  8
センター
 48
50.0
100
AcDbLine
 10
10603.6
 20
9536.740388709375
 30
0.0
 11
10603.6
 21
9036.740388709375
 31
0.0
  0
LINE
  5
11820
330
747D
100
AcDbEntity
  8
文字
 48
50.0
100
AcDbLine
 10
10633.6
 20
9256.740388709374
 30
0.0
 11
10573.6
 21
9256.740388709374
 31
0.0
  0
LINE
  5
11821
330
747D
100
AcDbEntity
  8
文字
 48
50.0
100
AcDbLine
 10
10633.6
 20
9316.740388709375
 30
0.0
 11
10573.6
 21
9316.740388709375
 31
0.0
  0
LINE
  5
11822
330
747D
100
AcDbEntity
  8
文字
 48
50.0
100
AcDbLine
 10
10573.6
 20
9316.740388709375
 30
0.0
 11
10573.6
 21
9256.740388709374
 31
0.0
  0
LINE
  5
11823
330
747D
100
AcDbEntity
  8
文字
 48
50.0
100
AcDbLine
 10
10633.6
 20
9316.740388709375
 30
0.0
 11
10633.6
 21
9256.740388709374
 31
0.0
  0
LINE
  5
11824
330
747D
100
AcDbEntity
  8
センター
 48
50.0
100
AcDbLine
 10
6093.600000000004
 20
7636.740388709376
 30
0.0
 11
5593.600000000004
 21
7636.740388709376
 31
0.0
  0
LINE
  5
11828
330
747D
100
AcDbEntity
  8
センター
 48
50.0
100
AcDbLine
 10
5843.600000000004
 20
7886.740388709376
 30
0.0
 11
5843.600000000004
 21
7386.740388709378
 31
0.0
  0
LINE
  5
1182A
330
747D
100
AcDbEntity
  8
文字
 48
50.0
100
AcDbLine
 10
5873.600000000004
 20
7606.740388709376
 30
0.0
 11
5813.600000000004
 21
7606.740388709376
 31
0.0
  0
LINE
  5
1182B
330
747D
100
AcDbEntity
  8
文字
 48
50.0
100
AcDbLine
 10
5873.600000000004
 20
7666.740388709377
 30
0.0
 11
5813.600000000004
 21
7666.740388709377
 31
0.0
  0
LINE
  5
1182C
330
747D
100
AcDbEntity
  8
文字
 48
50.0
100
AcDbLine
 10
5813.600000000004
 20
7666.740388709378
 30
0.0
 11
5813.600000000004
 21
7606.740388709376
 31
0.0
  0
LINE
  5
1182D
330
747D
100
AcDbEntity
  8
文字
 48
50.0
100
AcDbLine
 10
5873.600000000004
 20
7666.740388709378
 30
0.0
 11
5873.600000000004
 21
7606.740388709376
 31
0.0
  0
LINE
  5
1182E
330
747D
100
AcDbEntity
  8
センター
 48
50.0
100
AcDbLine
 10
8473.600000000004
 20
7636.740388709377
 30
0.0
 11
7973.600000000004
 21
7636.740388709377
 31
0.0
  0
LINE
  5
11832
330
747D
100
AcDbEntity
  8
センター
 48
50.0
100
AcDbLine
 10
8223.600000000004
 20
7886.740388709377
 30
0.0
 11
8223.600000000004
 21
7386.740388709378
 31
0.0
  0
LINE
  5
11834
330
747D
100
AcDbEntity
  8
文字
 48
50.0
100
AcDbLine
 10
8253.600000000004
 20
7606.740388709377
 30
0.0
 11
8193.600000000003
 21
7606.740388709377
 31
0.0
  0
LINE
  5
11835
330
747D
100
AcDbEntity
  8
文字
 48
50.0
100
AcDbLine
 10
8253.600000000004
 20
7666.740388709378
 30
0.0
 11
8193.600000000003
 21
7666.740388709378
 31
0.0
  0
LINE
  5
11836
330
747D
100
AcDbEntity
  8
文字
 48
50.0
100
AcDbLine
 10
8193.600000000003
 20
7666.740388709378
 30
0.0
 11
8193.600000000003
 21
7606.740388709377
 31
0.0
  0
LINE
  5
11837
330
747D
100
AcDbEntity
  8
文字
 48
50.0
100
AcDbLine
 10
8253.600000000004
 20
7666.740388709378
 30
0.0
 11
8253.600000000004
 21
7606.740388709377
 31
0.0
  0
LINE
  5
11838
330
747D
100
AcDbEntity
  8
センター
 48
50.0
100
AcDbLine
 10
10853.6
 20
7636.740388709376
 30
0.0
 11
10353.6
 21
7636.740388709376
 31
0.0
  0
LINE
  5
1183C
330
747D
100
AcDbEntity
  8
センター
 48
50.0
100
AcDbLine
 10
10603.6
 20
7886.740388709376
 30
0.0
 11
10603.6
 21
7386.740388709378
 31
0.0
  0
LINE
  5
1183E
330
747D
100
AcDbEntity
  8
文字
 48
50.0
100
AcDbLine
 10
10633.6
 20
7606.740388709376
 30
0.0
 11
10573.6
 21
7606.740388709376
 31
0.0
  0
LINE
  5
1183F
330
747D
100
AcDbEntity
  8
文字
 48
50.0
100
AcDbLine
 10
10633.6
 20
7666.740388709377
 30
0.0
 11
10573.6
 21
7666.740388709377
 31
0.0
  0
LINE
  5
11840
330
747D
100
AcDbEntity
  8
文字
 48
50.0
100
AcDbLine
 10
10573.6
 20
7666.740388709378
 30
0.0
 11
10573.6
 21
7606.740388709376
 31
0.0
  0
LINE
  5
11841
330
747D
100
AcDbEntity
  8
文字
 48
50.0
100
AcDbLine
 10
10633.6
 20
7666.740388709378
 30
0.0
 11
10633.6
 21
7606.740388709376
 31
0.0
  0
LINE
  5
11842
330
747D
100
AcDbEntity
  8
センター
 48
50.0
100
AcDbLine
 10
6093.600000000004
 20
5986.740388709377
 30
0.0
 11
5593.600000000004
 21
5986.740388709377
 31
0.0
  0
LINE
  5
11846
330
747D
100
AcDbEntity
  8
センター
 48
50.0
100
AcDbLine
 10
5843.600000000004
 20
6236.740388709377
 30
0.0
 11
5843.600000000004
 21
5736.740388709378
 31
0.0
  0
LINE
  5
11848
330
747D
100
AcDbEntity
  8
文字
 48
50.0
100
AcDbLine
 10
5873.600000000004
 20
5956.740388709377
 30
0.0
 11
5813.600000000004
 21
5956.740388709377
 31
0.0
  0
LINE
  5
11849
330
747D
100
AcDbEntity
  8
文字
 48
50.0
100
AcDbLine
 10
5873.600000000004
 20
6016.740388709377
 30
0.0
 11
5813.600000000004
 21
6016.740388709377
 31
0.0
  0
LINE
  5
1184A
330
747D
100
AcDbEntity
  8
文字
 48
50.0
100
AcDbLine
 10
5813.600000000004
 20
6016.740388709379
 30
0.0
 11
5813.600000000004
 21
5956.740388709377
 31
0.0
  0
LINE
  5
1184B
330
747D
100
AcDbEntity
  8
文字
 48
50.0
100
AcDbLine
 10
5873.600000000004
 20
6016.740388709379
 30
0.0
 11
5873.600000000004
 21
5956.740388709377
 31
0.0
  0
LINE
  5
1184C
330
747D
100
AcDbEntity
  8
センター
 48
50.0
100
AcDbLine
 10
8473.600000000004
 20
5986.740388709377
 30
0.0
 11
7973.600000000004
 21
5986.740388709377
 31
0.0
  0
LINE
  5
11850
330
747D
100
AcDbEntity
  8
センター
 48
50.0
100
AcDbLine
 10
8223.600000000004
 20
6236.740388709377
 30
0.0
 11
8223.600000000004
 21
5736.740388709378
 31
0.0
  0
LINE
  5
11852
330
747D
100
AcDbEntity
  8
文字
 48
50.0
100
AcDbLine
 10
8253.600000000004
 20
5956.740388709377
 30
0.0
 11
8193.600000000003
 21
5956.740388709377
 31
0.0
  0
LINE
  5
11853
330
747D
100
AcDbEntity
  8
文字
 48
50.0
100
AcDbLine
 10
8253.600000000004
 20
6016.740388709377
 30
0.0
 11
8193.600000000003
 21
6016.740388709377
 31
0.0
  0
LINE
  5
11854
330
747D
100
AcDbEntity
  8
文字
 48
50.0
100
AcDbLine
 10
8193.600000000003
 20
6016.740388709379
 30
0.0
 11
8193.600000000003
 21
5956.740388709377
 31
0.0
  0
LINE
  5
11855
330
747D
100
AcDbEntity
  8
文字
 48
50.0
100
AcDbLine
 10
8253.600000000004
 20
6016.740388709379
 30
0.0
 11
8253.600000000004
 21
5956.740388709377
 31
0.0
  0
LINE
  5
11856
330
747D
100
AcDbEntity
  8
センター
 48
50.0
100
AcDbLine
 10
10853.6
 20
5986.740388709377
 30
0.0
 11
10353.6
 21
5986.740388709377
 31
0.0
  0
LINE
  5
1185A
330
747D
100
AcDbEntity
  8
センター
 48
50.0
100
AcDbLine
 10
10603.6
 20
6236.740388709377
 30
0.0
 11
10603.6
 21
5736.740388709378
 31
0.0
  0
LINE
  5
1185C
330
747D
100
AcDbEntity
  8
文字
 48
50.0
100
AcDbLine
 10
10633.6
 20
5956.740388709377
 30
0.0
 11
10573.6
 21
5956.740388709377
 31
0.0
  0
LINE
  5
1185D
330
747D
100
AcDbEntity
  8
文字
 48
50.0
100
AcDbLine
 10
10633.6
 20
6016.740388709377
 30
0.0
 11
10573.6
 21
6016.740388709377
 31
0.0
  0
LINE
  5
1185E
330
747D
100
AcDbEntity
  8
文字
 48
50.0
100
AcDbLine
 10
10573.6
 20
6016.740388709379
 30
0.0
 11
10573.6
 21
5956.740388709377
 31
0.0
  0
LINE
  5
1185F
330
747D
100
AcDbEntity
  8
文字
 48
50.0
100
AcDbLine
 10
10633.6
 20
6016.740388709379
 30
0.0
 11
10633.6
 21
5956.740388709377
 31
0.0
  0
LINE
  5
11864
330
747D
100
AcDbEntity
  8
文字
 48
50.0
100
AcDbLine
 10
9413.600000000004
 20
7100.236447089942
 30
0.0
 11
9413.600000000004
 21
5742.459240898356
 31
0.0
  0
LINE
  5
11865
330
747D
100
AcDbEntity
  8
文字
 48
50.0
100
AcDbLine
 10
9413.600000000004
 20
5742.459240898356
 30
0.0
 11
9369.802289556252
 21
5905.914521529627
 31
0.0
  0
LINE
  5
11866
330
747D
100
AcDbEntity
  8
文字
 48
50.0
100
AcDbLine
 10
9413.600000000004
 20
5742.459240898356
 30
0.0
 11
9457.397710443755
 21
5905.914521529627
 31
0.0
  0
LINE
  5
11869
330
747D
100
AcDbEntity
  8
文字
 48
50.0
100
AcDbLine
 10
9413.600000000004
 20
9531.021536520398
 30
0.0
 11
9369.802289556252
 21
9367.566255889128
 31
0.0
  0
LINE
  5
1186B
330
747D
100
AcDbEntity
  8
文字
 48
50.0
100
AcDbLine
 10
9413.600000000004
 20
8173.244330328811
 30
0.0
 11
9413.600000000004
 21
9531.021536520398
 31
0.0
  0
LINE
  5
1186C
330
747D
100
AcDbEntity
  8
文字
 48
50.0
100
AcDbLine
 10
9413.600000000004
 20
9531.021536520398
 30
0.0
 11
9457.397710443755
 21
9367.566255889128
 31
0.0
  0
DIMENSION
  5
1197F
330
747D
100
AcDbEntity
  8
寸法
 48
50.0
100
AcDbDimension
  2
*D6
 10
4755.614843701702
 20
5066.740388709376
 30
0.0
 11
4655.614843701703
 21
7636.740388709376
 31
0.0
 12
-1219.653519151356
 22
0.0
 32
0.0
 70
    32
  1
基礎寸法 <>
 71
     5
 42
-1.0
  3
INABA_S40G
100
AcDbAlignedDimension
 13
5643.600000000004
 23
10206.74038870937
 33
0.0
 14
5643.600000000004
 24
5066.740388709376
 34
0.0
 50
90.0
100
AcDbRotatedDimension
  0
DIMENSION
  5
11980
330
747D
100
AcDbEntity
  8
寸法
 48
50.0
100
AcDbDimension
  2
*D2
 10
5201.105727429238
 20
9286.740388709375
 30
0.0
 11
5101.064914864434
 21
9746.740388709376
 31
0.0
 12
-1219.653519151356
 22
0.0
 32
0.0
 70
    32
 71
     5
 42
-1.0
  3
INABA_S40G
100
AcDbAlignedDimension
 13
5643.600000000004
 23
10206.74038870937
 33
0.0
 14
5593.600000000005
 24
9286.740388709375
 34
0.0
 50
90.0
100
AcDbRotatedDimension
  0
DIMENSION
  5
11981
330
747D
100
AcDbEntity
  8
寸法
 48
50.0
100
AcDbDimension
  2
*D3
 10
5201.105727429238
 20
7636.740388709376
 30
0.0
 11
5101.105727429239
 21
8461.740388709376
 31
0.0
 12
-1219.653519151356
 22
0.0
 32
0.0
 70
    32
 71
     5
 42
-1.0
  3
INABA_S40G
100
AcDbAlignedDimension
 13
5593.600000000005
 23
9286.740388709375
 33
0.0
 14
5593.600000000004
 24
7636.740388709376
 34
0.0
 50
90.0
100
AcDbRotatedDimension
1001
ACAD
1000
DSTYLE
1002
{
1070
    75
1070
     1
1070
   279
1070
     1
1002
}
  0
DIMENSION
  5
11982
330
747D
100
AcDbEntity
  8
寸法
 48
50.0
100
AcDbDimension
  2
*D4
 10
5201.105727429238
 20
5986.740388709377
 30
0.0
 11
5101.105727429239
 21
6811.740388709377
 31
0.0
 12
-1219.653519151356
 22
0.0
 32
0.0
 70
    32
 71
     5
 42
-1.0
  3
INABA_S40G
100
AcDbAlignedDimension
 13
5593.600000000004
 23
7636.740388709376
 33
0.0
 14
5593.600000000004
 24
5986.740388709377
 34
0.0
 50
90.0
100
AcDbRotatedDimension
1001
ACAD
1000
DSTYLE
1002
{
1070
    75
1070
     1
1070
   279
1070
     1
1002
}
  0
DIMENSION
  5
11983
330
747D
100
AcDbEntity
  8
寸法
 48
50.0
100
AcDbDimension
  2
*D5
 10
5201.105727429238
 20
5066.740388709376
 30
0.0
 11
5101.064914864434
 21
5526.740388709377
 31
0.0
 12
-1219.653519151356
 22
0.0
 32
0.0
 70
    32
 71
     5
 42
-1.0
  3
INABA_S40G
100
AcDbAlignedDimension
 13
5593.600000000004
 23
5986.740388709377
 33
0.0
 14
5643.600000000004
 24
5066.740388709376
 34
0.0
 50
90.0
100
AcDbRotatedDimension
1001
ACAD
1000
DSTYLE
1002
{
1070
    75
1070
     1
1070
   279
1070
     1
1002
}
  0
DIMENSION
  5
11A2C
330
747D
100
AcDbEntity
  8
寸法
 48
50.0
100
AcDbDimension
  2
*D7
 10
6143.600000000004
 20
8080.635297426983
 30
0.0
 11
5843.600000000004
 21
8180.635297426983
 31
0.0
 70
    32
 71
     5
 42
-1.0
  3
INABA_S40G
100
AcDbAlignedDimension
 13
5543.600000000004
 23
7936.740388709377
 33
0.0
 14
6143.600000000004
 24
7936.740388709377
 34
0.0
100
AcDbRotatedDimension
  0
DIMENSION
  5
11A2D
330
747D
100
AcDbEntity
  8
寸法
 48
50.0
100
AcDbDimension
  2
*D8
 10
6357.461657003389
 20
7336.740388709377
 30
0.0
 11
6257.461657003389
 21
7636.740388709377
 31
0.0
 70
    32
 71
     5
 42
-1.0
  3
INABA_S40G
100
AcDbAlignedDimension
 13
6143.600000000004
 23
7936.740388709377
 33
0.0
 14
6143.600000000004
 24
7336.740388709377
 34
0.0
 50
90.0
100
AcDbRotatedDimension
  0
MTEXT
  5
11A2E
102
{ACAD_REACTORS
330
11A2F
102
}
330
747D
100
AcDbEntity
  8
寸法
 62
     7
 48
50.0
100
AcDbMText
 10
6284.703057644488
 20
7072.046179050059
 30
0.0
 40
120.0
 41
0.0
 71
     4
 72
     1
  1
\A1;柱
  7
STYLE1
 73
     1
 44
1.0
1001
ACAD
1000
MTEXTBEGIN
1070
    73
1070
     1
1070
    44
1040
1.0
1070
    74
1070
     0
1000
MTEXTEND
  0
LEADER
  5
11A2F
330
747D
100
AcDbEntity
  8
寸法
 48
50.0
100
AcDbLeader
  3
INABA_S40
 73
     0
 74
     0
 75
     1
 40
120.0
 41
144.0
 76
     3
 10
5843.600000000004
 20
7636.740388709376
 30
0.0
 10
6144.703057644488
 20
6972.046179050059
 30
0.0
 10
6244.703057644489
 20
6972.046179050059
 30
0.0
340
11A2E
  0
LINE
  5
11A68
330
747D
100
AcDbEntity
  8
点線
 48
50.0
100
AcDbLine
 10
5643.600000000005
 20
5066.740388709376
 30
0.0
 11
10803.6
 21
5066.740388709376
 31
0.0
  0
DIMENSION
  5
11A71
330
747D
100
AcDbEntity
  8
寸法
 48
50.0
100
AcDbDimension
  2
*D9
 10
5843.600000000004
 20
4700.024272680079
 30
0.0
 11
5394.029133858271
 21
4700.024272680079
 31
0.0
 12
-1219.653519151356
 22
0.0
 32
0.0
 70
   160
 71
     5
 42
-1.0
  3
INABA_S40G
100
AcDbAlignedDimension
 13
5643.600000000004
 23
5066.740388709376
 33
0.0
 14
5843.600000000004
 24
5736.740388709378
 34
0.0
100
AcDbRotatedDimension
  0
DIMENSION
  5
11A91
330
747D
100
AcDbEntity
  8
寸法
 48
50.0
100
AcDbDimension
  2
*D10
 10
10603.6
 20
4700.024272680079
 30
0.0
 11
9413.600000000004
 21
4800.036083703701
 31
0.0
 70
    32
 71
     5
 42
-1.0
  3
INABA_S40G
100
AcDbAlignedDimension
 13
8223.600000000004
 23
5736.740388709378
 33
0.0
 14
10603.6
 24
5736.74038870938
 34
0.0
100
AcDbRotatedDimension
1001
ACAD
1000
DSTYLE
1002
{
1002
}
  0
DIMENSION
  5
11AC5
330
747D
100
AcDbEntity
  8
寸法
 48
50.0
100
AcDbDimension
  2
*D11
 10
10803.6
 20
4700.024272680079
 30
0.0
 11
11053.17086614173
 21
4700.024272680079
 31
0.0
 12
-1219.653519151356
 22
0.0
 32
0.0
 70
   160
 71
     5
 42
-1.0
  3
INABA_S40G
100
AcDbAlignedDimension
 13
10603.6
 23
5736.74038870938
 33
0.0
 14
10803.6
 24
5066.740388709376
 34
0.0
100
AcDbRotatedDimension
  0
DIMENSION
  5
11AF3
330
747D
100
AcDbEntity
  8
寸法
 48
50.0
100
AcDbDimension
  2
*D12
 10
10803.6
 20
4335.453801511459
 30
0.0
 11
8223.600000000004
 21
4435.453801511459
 31
0.0
 70
    32
  1
基礎寸法 <>
 71
     5
 42
-1.0
  3
INABA_S40G
100
AcDbAlignedDimension
 13
5643.600000000004
 23
5066.740388709376
 33
0.0
 14
10803.6
 24
5066.740388709376
 34
0.0
100
AcDbRotatedDimension
  0
MTEXT
  5
11B0D
330
747D
100
AcDbEntity
  8
寸法
 62
     7
 48
50.0
100
AcDbMText
 10
8627.029014849028
 20
9753.355387444379
 30
0.0
 40
120.0
 41
0.0
 71
     4
 72
     1
  1
\A1;床コンクリート打コテ押エ
  7
STYLE1
 73
     1
 44
1.0
1001
ACAD
1000
MTEXTBEGIN
1070
    73
1070
     1
1070
    44
1040
1.0
1070
    74
1070
     0
1000
MTEXTEND
  0
MTEXT
  5
11B44
330
747D
100
AcDbEntity
  8
寸法
 62
     7
 48
50.0
100
AcDbMText
 10
9295.038478816813
 20
8177.470253112604
 30
0.0
 40
120.0
 41
0.0
 71
     4
 72
     1
  1
\A1;水勾配１／１００ 
  7
STYLE1
 11
0.0000000000000001
 21
1.0
 31
0.0
 73
     1
 44
1.0
1001
ACAD
1000
MTEXTBEGIN
1070
    73
1070
     1
1070
    44
1040
1.0
1070
    74
1070
     0
1000
MTEXTEND
  0
MTEXT
  5
11B45
330
747D
100
AcDbEntity
  8
寸法
 62
     7
 48
50.0
100
AcDbMText
 10
9295.038478816813
 20
5964.486169097829
 30
0.0
 40
120.0
 41
0.0
 71
     4
 72
     1
  1
\A1;水勾配１／１００ 
  7
STYLE1
 11
0.0000000000000001
 21
1.0
 31
0.0
 73
     1
 44
1.0
1001
ACAD
1000
MTEXTBEGIN
1070
    73
1070
     1
1070
    44
1040
1.0
1070
    74
1070
     0
1000
MTEXTEND
  0
INSERT
  5
11D5B
330
747D
100
AcDbEntity
  8
寸法
 48
50.0
100
AcDbBlockReference
  2
_DOTSMALL
 10
5843.600000000005
 20
4700.024272680079
 30
0.0
 41
100.0
 42
100.0
 43
100.0
 50
180.0
  0
INSERT
  5
11D5C
330
747D
100
AcDbEntity
  8
寸法
 48
50.0
100
AcDbBlockReference
  2
_DOTSMALL
 10
8223.600000000004
 20
4700.024272680079
 30
0.0
 41
100.0
 42
100.0
 43
100.0
  0
POINT
  5
11D60
330
747D
100
AcDbEntity
  8
寸法
 48
50.0
100
AcDbPoint
 10
8223.600000000004
 20
4700.024272680079
 30
0.0
  0
LINE
  5
11EDB
330
747D
100
AcDbEntity
  8
寸法
 48
50.0
100
AcDbLine
 10
8223.600000000004
 20
9036.740388709379
 30
0.0
 11
8223.600000000004
 21
7886.740388709377
 31
0.0
  0
LINE
  5
11EE0
330
747D
100
AcDbEntity
  8
寸法
 48
50.0
100
AcDbLine
 10
8223.600000000004
 20
7386.740388709378
 30
0.0
 11
8223.600000000004
 21
7037.984839121637
 31
0.0
  0
LINE
  5
11EE1
330
747D
100
AcDbEntity
  8
寸法
 48
50.0
100
AcDbLine
 10
8223.600000000004
 20
7037.984839121637
 30
0.0
 11
8826.712002219833
 21
7037.984839121637
 31
0.0
  0
LINE
  5
11EE2
330
747D
100
AcDbEntity
  8
寸法
 48
50.0
100
AcDbLine
 10
8826.712002219833
 20
7037.984839121637
 30
0.0
 11
8647.156384581538
 21
6989.873056378984
 31
0.0
  0
LINE
  5
11EE3
330
747D
100
AcDbEntity
  8
寸法
 48
50.0
100
AcDbLine
 10
8647.156384581538
 20
6989.873056378984
 30
0.0
 11
8647.156384581538
 21
7099.764087914905
 31
0.0
  0
LINE
  5
11EEC
330
747D
100
AcDbEntity
  8
寸法
 48
50.0
100
AcDbLine
 10
8223.600000000004
 20
9536.740388709375
 30
0.0
 11
8223.600000000004
 21
10427.32477625326
 31
0.0
  0
LINE
  5
11EED
330
747D
100
AcDbEntity
  8
寸法
 48
50.0
100
AcDbLine
 10
8223.600000000004
 20
10427.32477625326
 30
0.0
 11
8826.712002219833
 21
10427.32477625326
 31
0.0
  0
LINE
  5
11EEE
330
747D
100
AcDbEntity
  8
寸法
 48
50.0
100
AcDbLine
 10
8826.712002219833
 20
10427.32477625326
 30
0.0
 11
8647.156384581538
 21
10475.43655899591
 31
0.0
  0
LINE
  5
11EEF
330
747D
100
AcDbEntity
  8
寸法
 48
50.0
100
AcDbLine
 10
8647.156384581538
 20
10475.43655899591
 30
0.0
 11
8647.156384581538
 21
10365.54552745999
 31
0.0
  0
MTEXT
  5
11EF1
330
747D
100
AcDbEntity
  8
寸法
 62
     7
 48
50.0
100
AcDbMText
 10
8903.385222400478
 20
7051.535119830258
 30
0.0
 40
120.0
 41
0.0
 71
     4
 72
     1
  1
A'
  7
STYLE1
 73
     1
 44
1.0
1001
ACAD
1000
MTEXTBEGIN
1070
    73
1070
     1
1070
    44
1040
1.0
1070
    74
1070
     0
1000
MTEXTEND
  0
MTEXT
  5
11EF2
330
747D
100
AcDbEntity
  8
寸法
 62
     7
 48
50.0
100
AcDbMText
 10
8903.385222400478
 20
10440.87505696188
 30
0.0
 40
120.0
 41
0.0
 71
     4
 72
     1
  1
A
  7
STYLE1
 73
     1
 44
1.0
1001
ACAD
1000
MTEXTBEGIN
1070
    73
1070
     1
1070
    44
1040
1.0
1070
    74
1070
     0
1000
MTEXTEND
  0
TEXT
  5
11F11
330
747D
100
AcDbEntity
  8
仕様書枠
 62
     7
 48
50.0
100
AcDbText
 10
14518.37944936722
 20
1031.557706291228
 30
0.0
 40
100.0
  1
NO.3     <縮尺> S=1/40
  7
STYLE2
100
AcDbText
  0
DIMENSION
  5
12311
330
747D
100
AcDbEntity
  8
寸法
 48
50.0
100
AcDbDimension
  2
*D14
 10
11621.88737785238
 20
5236.740388709375
 30
0.0
 11
11521.88737785239
 21
7636.740388709377
 31
0.0
 12
6248.443425511844
 22
0.0
 32
0.0
 70
    32
  1
屋根寸法 <>
 71
     5
 42
-1.0
  3
INABA_S40G
100
AcDbAlignedDimension
 13
10853.6
 23
10036.74038870938
 33
0.0
 14
10853.6
 24
5236.740388709375
 34
0.0
 50
90.0
100
AcDbRotatedDimension
  0
DIMENSION
  5
12312
330
747D
100
AcDbEntity
  8
寸法
 48
50.0
100
AcDbDimension
  2
*D13
 10
11322.77950873462
 20
5236.740388709375
 30
0.0
 11
11222.77950873462
 21
5611.740388709375
 31
0.0
 12
6248.443425511844
 22
0.0
 32
0.0
 70
    32
 71
     5
 42
-1.0
  3
INABA_S40G
100
AcDbAlignedDimension
 13
10853.6
 23
5986.740388709375
 33
0.0
 14
10853.6
 24
5236.740388709375
 34
0.0
 50
90.0
100
AcDbRotatedDimension
1001
ACAD
1000
DSTYLE
1002
{
1002
}
  0
DIMENSION
  5
12313
330
747D
100
AcDbEntity
  8
寸法
 48
50.0
100
AcDbDimension
  2
*D18
 10
11322.77950873462
 20
10036.74038870938
 30
0.0
 11
11222.77950873462
 21
9661.740388709379
 31
0.0
 12
6248.443425511844
 22
0.0
 32
0.0
 70
    32
 71
     5
 42
-1.0
  3
INABA_S40G
100
AcDbAlignedDimension
 13
10853.6
 23
9286.740388709379
 33
0.0
 14
10853.6
 24
10036.74038870938
 34
0.0
 50
90.0
100
AcDbRotatedDimension
1001
ACAD
1000
DSTYLE
1002
{
1002
}
  0
LINE
  5
12314
330
747D
100
AcDbEntity
  8
想像線
 48
50.0
100
AcDbLine
 10
10853.6
 20
5236.740388709375
 30
0.0
 11
10853.6
 21
10036.74038870938
 31
0.0
  0
LINE
  5
12315
330
747D
100
AcDbEntity
  8
想像線
 48
50.0
100
AcDbLine
 10
9833.600000000002
 20
5236.740388709375
 30
0.0
 11
10853.6
 21
5236.740388709375
 31
0.0
  0
DIMENSION
  5
12317
330
747D
100
AcDbEntity
  8
寸法
 48
50.0
100
AcDbDimension
  2
*D15
 10
10853.6
 20
10660.92275523152
 30
0.0
 11
8223.600000000001
 21
10760.93456625514
 31
0.0
 70
    32
  1
屋根寸法 <>
 71
     5
 42
-1.0
  3
INABA_S40G
100
AcDbAlignedDimension
 13
5593.600000000001
 23
10036.74038870938
 33
0.0
 14
10853.6
 24
10036.74038870938
 34
0.0
100
AcDbRotatedDimension
  0
DIMENSION
  5
12318
330
747D
100
AcDbEntity
  8
寸法
 48
50.0
100
AcDbDimension
  2
*D17
 10
10853.6
 20
10367.81435297552
 30
0.0
 11
10728.6
 21
10467.82616399914
 31
0.0
 12
6248.443425511844
 22
0.0
 32
0.0
 70
    32
 71
     5
 42
-1.0
  3
INABA_S40G
100
AcDbAlignedDimension
 13
10603.6
 23
9536.740388709379
 33
0.0
 14
10853.6
 24
10036.74038870938
 34
0.0
100
AcDbRotatedDimension
1001
ACAD
1000
DSTYLE
1002
{
1002
}
  0
DIMENSION
  5
12319
330
747D
100
AcDbEntity
  8
寸法
 48
50.0
100
AcDbDimension
  2
*D16
 10
5843.600000000004
 20
10367.81435297552
 30
0.0
 11
5718.600000000001
 21
10467.82616399914
 31
0.0
 12
3868.443425511844
 22
0.0
 32
0.0
 70
    32
 71
     5
 42
-1.0
  3
INABA_S40G
100
AcDbAlignedDimension
 13
5593.600000000001
 23
10036.74038870938
 33
0.0
 14
5843.600000000004
 24
9536.740388709375
 34
0.0
100
AcDbRotatedDimension
  0
LINE
  5
1231A
330
747D
100
AcDbEntity
  8
想像線
 48
50.0
100
AcDbLine
 10
5593.600000000001
 20
9379.224908776665
 30
0.0
 11
5593.600000000001
 21
10036.74038870938
 31
0.0
  0
MTEXT
  5
1231B
102
{ACAD_REACTORS
330
1231C
102
}
330
747D
100
AcDbEntity
  8
部品1
 62
     7
 48
50.0
100
AcDbMText
 10
7265.240047243175
 20
10436.86468955635
 30
0.0
 40
120.0
 41
0.0
 71
     6
 72
     1
  1
\A1;屋根の外寸
  7
STYLE1
 73
     1
 44
1.0
1001
ACAD
1000
MTEXTBEGIN
1070
    73
1070
     1
1070
    44
1040
1.0
1070
    74
1070
     0
1000
MTEXTEND
  0
LEADER
  5
1231C
330
747D
100
AcDbEntity
  8
寸法
 48
50.0
100
AcDbLeader
  3
INABA_S50G
 73
     0
 75
     1
 40
120.0
 41
683.3137084989848
 76
     3
 10
7635.557402806445
 20
10036.74038870938
 30
0.0
 10
7415.240047243175
 20
10351.86468955635
 30
0.0
 10
7290.240047243175
 20
10351.86468955635
 30
0.0
340
1231B
1001
ACAD
1000
DSTYLE
1002
{
1070
   341
1005
0
1070
    40
1040
1.0
1070
   343
1005
0
1070
   344
1005
0
1002
}
  0
LINE
  5
123BE
330
747D
100
AcDbEntity
  8
想像線
 48
50.0
100
AcDbLine
 10
5593.600000000001
 20
10036.74038870937
 30
0.0
 11
10853.6
 21
10036.74038870938
 31
0.0
  0
TEXT
  5
12730
330
747D
100
AcDbEntity
  8
寸法
 62
     7
100
AcDbText
 10
13238.56983116483
 20
2138.7178517333
 30
0.0
 40
120.0
  1
（注意）
  7
STYLE1
100
AcDbText
  0
TEXT
  5
12731
330
747D
100
AcDbEntity
  8
寸法
 62
     7
100
AcDbText
 10
13238.56983116483
 20
1938.7178517333
 30
0.0
 40
120.0
  1
   基礎寸法は標準施工を示します。
  7
STYLE1
100
AcDbText
  0
TEXT
  5
12732
330
747D
100
AcDbEntity
  8
寸法
 62
     7
100
AcDbText
 10
13238.56983116483
 20
1738.7178517333
 30
0.0
 40
120.0
  1
   地域の実情に合わせて設計してください。 
  7
STYLE1
100
AcDbText
  0
TEXT
  5
12739
330
747D
100
AcDbEntity
  8
文字
 48
50.0
100
AcDbText
 10
13209.17076958826
 20
228.5638109379615
 30
0.0
 40
100.0
  1
○間口奥行寸法は柱芯寸法です。
  7
STYLE2
100
AcDbText
  0
LINE
  5
1275C
330
747D
100
AcDbEntity
  8
部品1
 48
50.0
100
AcDbLine
 10
7923.600000000004
 20
7936.740388709377
 30
0.0
 11
8523.600000000005
 21
7936.740388709377
 31
0.0
  0
LINE
  5
1275D
330
747D
100
AcDbEntity
  8
部品1
 48
50.0
100
AcDbLine
 10
8523.600000000005
 20
7936.740388709377
 30
0.0
 11
8523.600000000005
 21
7336.740388709377
 31
0.0
  0
LINE
  5
1275E
330
747D
100
AcDbEntity
  8
部品1
 48
50.0
100
AcDbLine
 10
8523.600000000005
 20
7336.740388709377
 30
0.0
 11
7923.600000000004
 21
7336.740388709377
 31
0.0
  0
LINE
  5
1275F
330
747D
100
AcDbEntity
  8
部品1
 48
50.0
100
AcDbLine
 10
7923.600000000004
 20
7336.740388709377
 30
0.0
 11
7923.600000000004
 21
7936.740388709377
 31
0.0
  0
LINE
  5
12761
330
747D
100
AcDbEntity
  8
部品1
 48
50.0
100
AcDbLine
 10
10303.6
 20
7936.740388709377
 30
0.0
 11
10903.6
 21
7936.740388709377
 31
0.0
  0
LINE
  5
12762
330
747D
100
AcDbEntity
  8
部品1
 48
50.0
100
AcDbLine
 10
10903.6
 20
7936.740388709377
 30
0.0
 11
10903.6
 21
7336.740388709377
 31
0.0
  0
LINE
  5
12763
330
747D
100
AcDbEntity
  8
部品1
 48
50.0
100
AcDbLine
 10
10903.6
 20
7336.740388709377
 30
0.0
 11
10303.6
 21
7336.740388709377
 31
0.0
  0
LINE
  5
12764
330
747D
100
AcDbEntity
  8
部品1
 48
50.0
100
AcDbLine
 10
10303.6
 20
7336.740388709377
 30
0.0
 11
10303.6
 21
7936.740388709377
 31
0.0
  0
LINE
  5
12765
330
747D
100
AcDbEntity
  8
部品1
 48
50.0
100
AcDbLine
 10
5543.600000000004
 20
7936.740388709377
 30
0.0
 11
6143.600000000004
 21
7936.740388709377
 31
0.0
  0
LINE
  5
12766
330
747D
100
AcDbEntity
  8
部品1
 48
50.0
100
AcDbLine
 10
5543.600000000004
 20
7336.740388709377
 30
0.0
 11
5543.600000000004
 21
7936.740388709377
 31
0.0
  0
LINE
  5
12767
330
747D
100
AcDbEntity
  8
部品1
 48
50.0
100
AcDbLine
 10
6143.600000000004
 20
7336.740388709377
 30
0.0
 11
5543.600000000004
 21
7336.740388709377
 31
0.0
  0
LINE
  5
12768
330
747D
100
AcDbEntity
  8
部品1
 48
50.0
100
AcDbLine
 10
6143.600000000004
 20
7936.740388709377
 30
0.0
 11
6143.600000000004
 21
7336.740388709377
 31
0.0
  0
LINE
  5
127A0
330
747D
100
AcDbEntity
  8
部品1
 48
50.0
100
AcDbLine
 10
6143.600000000004
 20
9586.740388709378
 30
0.0
 11
6143.600000000004
 21
8986.740388709376
 31
0.0
  0
LINE
  5
127A1
330
747D
100
AcDbEntity
  8
部品1
 48
50.0
100
AcDbLine
 10
5543.600000000004
 20
9586.740388709378
 30
0.0
 11
6143.600000000004
 21
9586.740388709378
 31
0.0
  0
LINE
  5
127A2
330
747D
100
AcDbEntity
  8
部品1
 48
50.0
100
AcDbLine
 10
6143.600000000004
 20
8986.740388709376
 30
0.0
 11
5543.600000000004
 21
8986.740388709376
 31
0.0
  0
LINE
  5
127A3
330
747D
100
AcDbEntity
  8
部品1
 48
50.0
100
AcDbLine
 10
5543.600000000004
 20
8986.740388709376
 30
0.0
 11
5543.600000000004
 21
9586.740388709378
 31
0.0
  0
LINE
  5
127A4
330
747D
100
AcDbEntity
  8
部品1
 48
50.0
100
AcDbLine
 10
7923.600000000004
 20
9586.740388709378
 30
0.0
 11
8523.600000000005
 21
9586.740388709378
 31
0.0
  0
LINE
  5
127A5
330
747D
100
AcDbEntity
  8
部品1
 48
50.0
100
AcDbLine
 10
7923.600000000004
 20
8986.740388709376
 30
0.0
 11
7923.600000000004
 21
9586.740388709378
 31
0.0
  0
LINE
  5
127A6
330
747D
100
AcDbEntity
  8
部品1
 48
50.0
100
AcDbLine
 10
8523.600000000005
 20
8986.740388709376
 30
0.0
 11
7923.600000000004
 21
8986.740388709376
 31
0.0
  0
LINE
  5
127A7
330
747D
100
AcDbEntity
  8
部品1
 48
50.0
100
AcDbLine
 10
8523.600000000005
 20
9586.740388709378
 30
0.0
 11
8523.600000000005
 21
8986.740388709376
 31
0.0
  0
LINE
  5
127A8
330
747D
100
AcDbEntity
  8
部品1
 48
50.0
100
AcDbLine
 10
10303.6
 20
8986.740388709376
 30
0.0
 11
10303.6
 21
9586.740388709378
 31
0.0
  0
LINE
  5
127A9
330
747D
100
AcDbEntity
  8
部品1
 48
50.0
100
AcDbLine
 10
10303.6
 20
9586.740388709378
 30
0.0
 11
10903.6
 21
9586.740388709378
 31
0.0
  0
LINE
  5
127AA
330
747D
100
AcDbEntity
  8
部品1
 48
50.0
100
AcDbLine
 10
10903.6
 20
9586.740388709378
 30
0.0
 11
10903.6
 21
8986.740388709376
 31
0.0
  0
LINE
  5
127AB
330
747D
100
AcDbEntity
  8
部品1
 48
50.0
100
AcDbLine
 10
10903.6
 20
8986.740388709376
 30
0.0
 11
10303.6
 21
8986.740388709376
 31
0.0
  0
LINE
  5
127AC
330
747D
100
AcDbEntity
  8
部品1
 48
50.0
100
AcDbLine
 10
10303.6
 20
5686.740388709377
 30
0.0
 11
10303.6
 21
6286.740388709377
 31
0.0
  0
LINE
  5
127AD
330
747D
100
AcDbEntity
  8
部品1
 48
50.0
100
AcDbLine
 10
10903.6
 20
5686.740388709377
 30
0.0
 11
10303.6
 21
5686.740388709377
 31
0.0
  0
LINE
  5
127AE
330
747D
100
AcDbEntity
  8
部品1
 48
50.0
100
AcDbLine
 10
10303.6
 20
6286.740388709377
 30
0.0
 11
10903.6
 21
6286.740388709377
 31
0.0
  0
LINE
  5
127AF
330
747D
100
AcDbEntity
  8
部品1
 48
50.0
100
AcDbLine
 10
10903.6
 20
6286.740388709377
 30
0.0
 11
10903.6
 21
5686.740388709377
 31
0.0
  0
LINE
  5
127B0
330
747D
100
AcDbEntity
  8
部品1
 48
50.0
100
AcDbLine
 10
8523.600000000005
 20
5686.740388709377
 30
0.0
 11
7923.600000000004
 21
5686.740388709377
 31
0.0
  0
LINE
  5
127B1
330
747D
100
AcDbEntity
  8
部品1
 48
50.0
100
AcDbLine
 10
7923.600000000004
 20
6286.740388709377
 30
0.0
 11
8523.600000000005
 21
6286.740388709377
 31
0.0
  0
LINE
  5
127B2
330
747D
100
AcDbEntity
  8
部品1
 48
50.0
100
AcDbLine
 10
8523.600000000005
 20
6286.740388709377
 30
0.0
 11
8523.600000000005
 21
5686.740388709377
 31
0.0
  0
LINE
  5
127B3
330
747D
100
AcDbEntity
  8
部品1
 48
50.0
100
AcDbLine
 10
7923.600000000004
 20
5686.740388709377
 30
0.0
 11
7923.600000000004
 21
6286.740388709377
 31
0.0
  0
LINE
  5
127B4
330
747D
100
AcDbEntity
  8
部品1
 48
50.0
100
AcDbLine
 10
6143.600000000004
 20
6286.740388709377
 30
0.0
 11
6143.600000000004
 21
5686.740388709377
 31
0.0
  0
LINE
  5
127B5
330
747D
100
AcDbEntity
  8
部品1
 48
50.0
100
AcDbLine
 10
5543.600000000004
 20
6286.740388709377
 30
0.0
 11
6143.600000000004
 21
6286.740388709377
 31
0.0
  0
LINE
  5
127B6
330
747D
100
AcDbEntity
  8
部品1
 48
50.0
100
AcDbLine
 10
6143.600000000004
 20
5686.740388709377
 30
0.0
 11
5543.600000000004
 21
5686.740388709377
 31
0.0
  0
LINE
  5
127B7
330
747D
100
AcDbEntity
  8
部品1
 48
50.0
100
AcDbLine
 10
5543.600000000004
 20
5686.740388709377
 30
0.0
 11
5543.600000000004
 21
6286.740388709377
 31
0.0
  0
DIMENSION
  5
127E0
330
747D
100
AcDbEntity
  8
寸法
 48
50.0
100
AcDbDimension
  2
*D19
 10
5843.600000000004
 20
4700.024272680079
 30
0.0
 11
7033.600000000004
 21
4800.036083703701
 31
0.0
 70
    32
 71
     5
 42
-1.0
  3
INABA_S40G
100
AcDbAlignedDimension
 13
8223.600000000004
 23
5736.740388709378
 33
0.0
 14
5843.600000000004
 24
5736.74038870938
 34
0.0
100
AcDbRotatedDimension
1001
ACAD
1000
DSTYLE
1002
{
1002
}
  0
TEXT
  5
12D03
330
747D
100
AcDbEntity
  8
文字
 62
     7
 48
50.0
100
AcDbText
 10
14747.8113764045
 20
483.8967129911414
 30
0.0
 40
160.0
  1
BＦ-２４VL-2
  7
STYLE2
100
AcDbText
  0
HATCH
  5
1312F
330
747D
100
AcDbEntity
  8
細線
 48
50.0
100
AcDbHatch
 10
0.0
 20
0.0
 30
0.0
210
0.0
220
0.0
230
1.0
  2
PLAST
 70
     0
 71
     0
 91
        5
 92
        7
 72
     0
 73
     1
 93
        6
 10
10354.9548933749
 20
2362.480397697104
 10
9563.586884749872
 20
2371.480910386698
 10
9533.313991906684
 20
2401.753803229881
 10
9503.213662073909
 20
2401.753803229882
 10
9503.213662073909
 20
2171.778473397103
 10
10354.95489337491
 20
2171.778473397103
 97
        0
 92
        7
 72
     0
 73
     1
 93
        6
 10
9382.912672575582
 20
2401.753803229882
 10
9352.81234274281
 20
2401.753803229881
 10
9322.560497758514
 20
2371.50195824559
 10
8531.17144127459
 20
2363.588067680751
 10
8531.171441274588
 20
2171.778473397103
 10
9382.912672575582
 20
2171.778473397103
 97
        0
 92
        7
 72
     0
 73
     1
 93
        6
 10
8479.248371274591
 20
2363.068836980751
 10
7687.593561154648
 20
2355.152288879551
 10
7657.607469806372
 20
2385.138380227838
 10
7627.507139973592
 20
2385.138380227838
 10
7627.507139973592
 20
2171.778473397104
 10
8479.248371274595
 20
2171.778473397104
 97
        0
 92
        7
 72
     0
 73
     1
 93
        6
 10
7507.206150475266
 20
2385.138380227838
 10
7477.105820642489
 20
2385.138380227838
 10
7444.690700689548
 20
2352.723260274901
 10
6800.550727849851
 20
2346.281860546503
 10
6800.550727849851
 20
2171.778473397103
 10
7507.206150475266
 20
2171.778473397104
 97
        0
 92
        7
 72
     0
 73
     1
 93
        5
 10
6748.627657849849
 20
2345.762629846503
 10
6435.610521715038
 20
2342.632458485155
 10
6363.789827176105
 20
2272.319098397103
 10
6363.789827176105
 20
2171.778473397104
 10
6748.627657849846
 20
2171.778473397104
 97
        0
 75
     0
 76
     1
 52
45.0
 41
60.0
 77
     0
 78
     3
 53
45.0
 43
0.0
 44
0.0
 45
-269.4076836320746
 46
269.4076836320746
 79
     0
 53
45.0
 43
-33.67596045400933
 44
33.67596045400933
 45
-269.4076836320746
 46
269.4076836320746
 79
     0
 53
45.0
 43
-67.35192090801866
 44
67.35192090801866
 45
-269.4076836320746
 46
269.4076836320746
 79
     0
 47
4.770536170264612
 98
        5
 10
9676.443011882701
 20
2249.655522388206
 10
9056.026287161541
 20
2278.278737214747
 10
8091.994110641818
 20
2259.1966118372
 10
7223.410664075069
 20
2278.278737214747
 10
6588.676583922584
 20
2249.655522388206
  0
LINE
  5
13130
330
747D
100
AcDbEntity
  8
細線
 48
50.0
100
AcDbLine
 10
8396.813658530623
 20
1904.635869400447
 30
0.0
 11
8479.248371274596
 21
2131.123381243741
 31
0.0
  0
LINE
  5
13131
330
747D
100
AcDbEntity
  8
部品1
 48
50.0
100
AcDbLine
 10
7687.593561154651
 20
2355.152288879551
 30
0.0
 11
8479.248371274591
 21
2363.068836980751
 31
0.0
  0
LINE
  5
13132
330
747D
100
AcDbEntity
  8
部品1
 48
50.0
100
AcDbLine
 10
7627.507139973594
 20
2171.778473397103
 30
0.0
 11
8479.248371274591
 21
2171.778473397103
 31
0.0
  0
LINE
  5
13133
330
747D
100
AcDbEntity
  8
部品1
 48
50.0
100
AcDbLine
 10
9266.564750487665
 20
2531.099169784787
 30
0.0
 11
8146.139304852786
 21
2522.790247627517
 31
0.0
  0
MTEXT
  5
13134
330
747D
100
AcDbEntity
  8
寸法
 62
     7
 48
50.0
100
AcDbMText
 10
8167.134188600142
 20
2639.512223180492
 30
0.0
 40
120.0
 41
0.0
 71
     4
 72
     1
  1
\A1;水勾配１／１００ 
  7
STYLE1
 73
     1
 44
1.0
1001
ACAD
1000
MTEXTBEGIN
1070
    73
1070
     1
1070
    44
1040
1.0
1070
    74
1070
     0
1000
MTEXTEND
  0
DIMENSION
  5
13135
330
747D
100
AcDbEntity
  8
寸法
 48
50.0
100
AcDbDimension
  2
*D49
 10
5981.671157149674
 20
2371.501958245591
 30
0.0
 11
5981.671157149673
 21
2655.153871953134
 31
0.0
 70
   160
  1
(<>)
 71
     5
 42
49.59142992424358
  3
INABA_S40G詳細用20
100
AcDbAlignedDimension
 13
6363.789827176105
 23
2272.319098397104
 33
0.0
 14
9322.560497758518
 24
2371.50195824559
 34
0.0
 50
90.0
100
AcDbRotatedDimension
  0
LINE
  5
13136
330
747D
100
AcDbEntity
  8
部品1
 48
50.0
100
AcDbLine
 10
8167.356645224435
 20
1904.635869400447
 30
0.0
 11
8479.248371274591
 21
1904.635869400447
 31
0.0
  0
LEADER
  5
13137
330
747D
100
AcDbEntity
  8
寸法
 48
50.0
100
AcDbLeader
  3
INABA_S40G詳細用20
 71
     0
 73
     0
 74
     0
 75
     1
 40
120.0
 41
550.0
 76
     3
 10
7567.356645224437
 20
1791.000383062655
 30
0.0
 10
8042.039573354584
 20
1494.397056148721
 30
0.0
 10
8142.039573354585
 20
1494.397056148721
 30
0.0
  0
MTEXT
  5
13138
102
{ACAD_REACTORS
330
13137
102
}
330
747D
100
AcDbEntity
  8
寸法
 62
     7
 48
50.0
100
AcDbMText
 10
8182.039573354584
 20
1594.397056148721
 30
0.0
 40
120.0
 41
0.0
 71
     4
 72
     1
  1
\A1;カンザシ 
  7
STYLE1
 73
     1
 44
1.0
1001
ACAD
1000
MTEXTBEGIN
1070
    73
1070
     1
1070
    44
1040
1.0
1070
    74
1070
     0
1000
MTEXTEND
  0
LINE
  5
13139
330
747D
100
AcDbEntity
  8
部品1
 48
100.0
100
AcDbLine
 10
7430.882479959493
 20
3519.746835418324
 30
0.0
 11
9016.317520040507
 21
3519.746835418324
 31
0.0
  0
TEXT
  5
1313A
330
747D
100
AcDbEntity
  8
部品1
 48
100.0
100
AcDbText
 10
7489.996858427514
 20
3239.473899836655
 30
0.0
 40
138.46152
  1
基礎断面図 1/20
  7
STYLE2
100
AcDbText
  0
LINE
  5
1313B
330
747D
100
AcDbEntity
  8
部品1
 48
100.0
100
AcDbLine
 10
7430.882479959493
 20
3127.439195418325
 30
0.0
 11
9016.317520040507
 21
3127.439195418325
 31
0.0
  0
TEXT
  5
1313C
330
747D
100
AcDbEntity
  8
部品1
 48
100.0
100
AcDbText
 10
7723.137946626582
 20
351.0056814446116
 30
0.0
 40
138.46152
  1
A-A'断面
  7
STYLE2
100
AcDbText
  0
LWPOLYLINE
  5
1313D
330
747D
100
AcDbEntity
  8
部品1
 48
100.0
100
AcDbPolyline
 90
        6
 70
     0
 43
0.0
 10
7430.882479959493
 20
3323.593015418325
 10
4479.038562473961
 20
3323.593015418325
 10
4479.038562473961
 20
238.9709770262789
 10
11968.16143752604
 20
238.9709770262789
 10
11968.16143752604
 20
3323.593015418325
 10
9016.317520040507
 20
3323.593015418325
  0
DIMENSION
  5
1313E
330
747D
100
AcDbEntity
  8
寸法
 48
50.0
100
AcDbDimension
  2
*D50
 10
6157.711804370893
 20
2171.778473397104
 30
0.0
 11
6157.711804370891
 21
2222.048785897105
 31
0.0
 70
   160
 71
     5
 42
50.27031250000004
  3
INABA_S40G詳細用20
100
AcDbAlignedDimension
 13
6363.789827176105
 23
2272.319098397104
 33
0.0
 14
6327.975533552198
 24
2171.778473397104
 34
0.0
 50
90.0
100
AcDbRotatedDimension
  0
LINE
  5
1313F
330
747D
100
AcDbEntity
  8
部品1
 48
50.0
100
AcDbLine
 10
6363.789827176103
 20
2171.778473397103
 30
0.0
 11
6363.789827176105
 21
2272.319098397104
 31
0.0
  0
DIMENSION
  5
13140
330
747D
100
AcDbEntity
  8
寸法
 48
50.0
100
AcDbDimension
  2
*D51
 10
5981.671157149674
 20
1371.653473397103
 30
0.0
 11
5881.671157149674
 21
1821.986285897105
 31
0.0
 70
    32
 71
     5
 42
450.3328125000003
  3
INABA_S40G詳細用20
100
AcDbAlignedDimension
 13
6363.789827176105
 23
2272.319098397104
 33
0.0
 14
6871.142525974295
 24
1371.653473397103
 34
0.0
 50
90.0
100
AcDbRotatedDimension
  0
LINE
  5
13141
330
747D
100
AcDbEntity
  8
部品1
 48
50.0
100
AcDbLine
 10
6748.627657849846
 20
2421.939754832522
 30
0.0
 11
6748.627657849846
 21
1841.716830795493
 31
0.0
  0
LINE
  5
13142
330
747D
100
AcDbEntity
  8
部品1
 48
50.0
100
AcDbLine
 10
6800.550727849851
 20
2421.939754832522
 30
0.0
 11
6800.550727849851
 21
1841.716830795493
 31
0.0
  0
LINE
  5
13143
330
747D
100
AcDbEntity
  8
部品1
 48
50.0
100
AcDbLine
 10
7627.507139973592
 20
1730.799723397104
 30
0.0
 11
7627.507139973592
 21
2556.934212383462
 31
0.0
  0
LINE
  5
13144
330
747D
100
AcDbEntity
  8
部品1
 48
50.0
100
AcDbLine
 10
7507.206150475266
 20
2556.934212383462
 30
0.0
 11
7507.206150475266
 21
1730.799723397104
 31
0.0
  0
HATCH
  5
13145
330
747D
100
AcDbEntity
  8
細線
 48
50.0
100
AcDbHatch
 10
0.0
 20
0.0
 30
0.0
210
0.0
220
0.0
230
1.0
  2
PLAST
 70
     0
 71
     0
 91
        2
 92
        7
 72
     0
 73
     1
 93
        8
 10
8167.356645224433
 20
2171.778473397103
 10
7627.507139973594
 20
2171.778473397103
 10
7627.507139973592
 20
1730.799723397104
 10
7507.206150475266
 20
1730.799723397104
 10
7507.206150475266
 20
2171.778473397104
 10
6967.35664522443
 20
2171.778473397103
 10
6967.35664522443
 20
1371.653473397103
 10
8167.356645224433
 20
1371.653473397103
 97
        0
 92
       22
 72
     1
 73
     1
 93
       20
 10
7971.356645224422
 20
1537.253473397106
 42
-0.4142135623731332
 10
7957.356645224422
 20
1523.253473397105
 42
0.0
 10
7996.731645224421
 20
1523.253473397105
 42
0.0
 10
7996.731645224421
 20
1495.253473397103
 42
0.0
 10
7137.981645224423
 20
1495.253473397106
 42
0.0
 10
7137.98164522442
 20
1523.253473397106
 42
0.0
 10
7177.356645224422
 20
1523.253473397106
 42
-0.4142135623731046
 10
7163.356645224422
 20
1537.253473397106
 42
-1.0
 10
7191.356645224423
 20
1537.253473397106
 42
-0.4142135623730951
 10
7177.356645224422
 20
1523.253473397106
 42
0.0
 10
7437.356645224422
 20
1523.253473397106
 42
-0.4142135623731094
 10
7423.356645224422
 20
1537.253473397106
 42
-1.0
 10
7451.356645224421
 20
1537.253473397106
 42
-0.4142135623731094
 10
7437.356645224422
 20
1523.253473397106
 42
0.0
 10
7697.356645224423
 20
1523.253473397105
 42
-0.4142135623731189
 10
7683.356645224423
 20
1537.253473397106
 42
-1.0
 10
7711.356645224423
 20
1537.253473397106
 42
-0.4142135623731189
 10
7697.356645224423
 20
1523.253473397105
 42
0.0
 10
7957.356645224422
 20
1523.253473397105
 42
-0.4142135623731332
 10
7943.356645224422
 20
1537.253473397106
 42
-1.0
 97
        0
 75
     0
 76
     1
 52
315.0
 41
60.0
 77
     0
 78
     3
 53
315.0
 43
0.0
 44
0.0
 45
269.4076836320747
 46
269.4076836320746
 79
     0
 53
315.0
 43
33.67596045400933
 44
33.67596045400932
 45
269.4076836320747
 46
269.4076836320746
 79
     0
 53
315.0
 43
67.35192090801866
 44
67.35192090801864
 45
269.4076836320747
 46
269.4076836320746
 79
     0
 47
3.228008460117151
 98
        2
 10
7827.483671423215
 20
2033.438737927943
 10
7827.483671423215
 20
2033.438737927943
  0
HATCH
  5
13146
330
747D
100
AcDbEntity
  8
細線
 48
50.0
100
AcDbHatch
 10
0.0
 20
0.0
 30
0.0
210
0.0
220
0.0
230
1.0
  2
PLAST
 70
     0
 71
     0
 91
        1
 92
        7
 72
     0
 73
     1
 93
        4
 10
8263.570764474556
 20
1371.653473397103
 10
6871.142525974295
 20
1371.653473397103
 10
6871.142525974295
 20
1271.753473397105
 10
8263.570764474556
 20
1271.753473397105
 97
        0
 75
     0
 76
     1
 52
45.0
 41
60.0
 77
     0
 78
     3
 53
45.0
 43
0.0
 44
0.0
 45
-269.4076836320746
 46
269.4076836320746
 79
     0
 53
45.0
 43
-33.67596045400933
 44
33.67596045400933
 45
-269.4076836320746
 46
269.4076836320746
 79
     0
 53
45.0
 43
-67.35192090801866
 44
67.35192090801866
 45
-269.4076836320746
 46
269.4076836320746
 79
     0
 47
2.021456610930475
 98
        1
 10
8049.316621317405
 20
1348.963404449929
  0
LINE
  5
13147
330
747D
100
AcDbEntity
  8
部品1
 48
50.0
100
AcDbLine
 10
6800.55072784985
 20
2171.778473397103
 30
0.0
 11
7507.206150475268
 21
2171.778473397104
 31
0.0
  0
LINE
  5
13148
330
747D
100
AcDbEntity
  8
細線
 48
50.0
100
AcDbLine
 10
7024.856645224438
 20
1061.753473397105
 30
0.0
 11
7101.290394420338
 21
1271.753473397103
 31
0.0
  0
LINE
  5
13149
330
747D
100
AcDbEntity
  8
細線
 48
50.0
100
AcDbLine
 10
7073.290394420339
 20
1271.753473397103
 30
0.0
 11
7088.551436221019
 21
1236.753473397105
 31
0.0
  0
DIMENSION
  5
1314A
330
747D
100
AcDbEntity
  8
寸法
 48
50.0
100
AcDbDimension
  2
*D52
 10
6162.34587816289
 20
1371.653473397103
 30
0.0
 11
6162.34587816289
 21
1515.026598397103
 31
0.0
 70
   160
 71
     5
 42
179.5731250000003
  3
INABA_S40G詳細用20
100
AcDbAlignedDimension
 13
7507.206150475266
 23
1730.799723397104
 33
0.0
 14
6871.142525974295
 24
1371.653473397103
 34
0.0
 50
90.0
100
AcDbRotatedDimension
  0
LINE
  5
1314B
330
747D
100
AcDbEntity
  8
部品1
 48
50.0
100
AcDbLine
 10
6871.142525974298
 20
1271.753473397105
 30
0.0
 11
8263.570764474556
 21
1271.753473397105
 31
0.0
  0
LINE
  5
1314C
330
747D
100
AcDbEntity
  8
部品1
 48
50.0
100
AcDbLine
 10
6871.142525974298
 20
1061.753473397105
 30
0.0
 11
8263.570764474556
 21
1061.753473397105
 31
0.0
  0
LINE
  5
1314D
330
747D
100
AcDbEntity
  8
部品1
 48
50.0
100
AcDbLine
 10
6871.142525974295
 20
1371.653473397103
 30
0.0
 11
8263.570764474556
 21
1371.653473397103
 31
0.0
  0
DIMENSION
  5
1314E
330
747D
100
AcDbEntity
  8
寸法
 48
50.0
100
AcDbDimension
  2
*D53
 10
6162.34587816289
 20
1730.799723397104
 30
0.0
 11
6062.334067139268
 21
1951.289098397104
 31
0.0
 70
    32
 71
     5
 42
220.489375
  3
INABA_S40G詳細用20
100
AcDbAlignedDimension
 13
6327.975533552198
 23
2171.778473397104
 33
0.0
 14
7522.206150475266
 24
1730.799723397104
 34
0.0
 50
90.0
100
AcDbRotatedDimension
  0
DIMENSION
  5
1314F
330
747D
100
AcDbEntity
  8
寸法
 48
50.0
100
AcDbDimension
  2
*D54
 10
8167.356645224433
 20
779.5662246076199
 30
0.0
 11
7567.356645224433
 21
879.5662246076199
 31
0.0
 70
    32
 71
     5
 42
600.0000000000004
  3
INABA_S40G詳細用20
100
AcDbAlignedDimension
 13
6967.356645224433
 23
1061.753473397105
 33
0.0
 14
8167.356645224433
 24
1061.753473397105
 34
0.0
100
AcDbRotatedDimension
  0
LINE
  5
13150
330
747D
100
AcDbEntity
  8
部品1
 48
50.0
100
AcDbLine
 10
6871.142525974295
 20
1371.653473397103
 30
0.0
 11
6871.142525974295
 21
1061.753473397105
 31
0.0
  0
DIMENSION
  5
13151
330
747D
100
AcDbEntity
  8
寸法
 48
50.0
100
AcDbDimension
  2
*D55
 10
5981.671157149674
 20
1271.753473397105
 30
0.0
 11
5881.671157149674
 21
1321.703473397105
 31
0.0
 70
    32
 71
     5
 42
49.94999999999925
  3
INABA_S40G詳細用20
100
AcDbAlignedDimension
 13
6871.142525974303
 23
1371.653473397103
 33
0.0
 14
6871.142525974295
 24
1271.753473397105
 34
0.0
 50
90.0
100
AcDbRotatedDimension
  0
LINE
  5
13152
330
747D
100
AcDbEntity
  8
細線
 48
50.0
100
AcDbLine
 10
6897.595603423757
 20
1096.753473397105
 30
0.0
 11
6912.856645224438
 21
1061.753473397105
 31
0.0
  0
LINE
  5
13153
330
747D
100
AcDbEntity
  8
細線
 48
50.0
100
AcDbLine
 10
6884.856645224438
 20
1061.753473397105
 30
0.0
 11
6961.290394420339
 21
1271.753473397103
 31
0.0
  0
LINE
  5
13154
330
747D
100
AcDbEntity
  8
細線
 48
50.0
100
AcDbLine
 10
7037.595603423756
 20
1096.753473397105
 30
0.0
 11
7052.856645224436
 21
1061.753473397105
 31
0.0
  0
LINE
  5
13155
330
747D
100
AcDbEntity
  8
細線
 48
50.0
100
AcDbLine
 10
6933.290394420339
 20
1271.753473397103
 30
0.0
 11
6948.55143622102
 21
1236.753473397105
 31
0.0
  0
LINE
  5
13156
330
747D
100
AcDbEntity
  8
細線
 48
50.0
100
AcDbLine
 10
6369.555001964011
 20
1904.635869400448
 30
0.0
 11
6466.786958123155
 21
2171.778473397104
 31
0.0
  0
LINE
  5
13157
330
747D
100
AcDbEntity
  8
部品1
 48
50.0
100
AcDbLine
 10
6327.975533552186
 20
2171.778473397103
 30
0.0
 11
6748.627657849846
 21
2171.778473397103
 31
0.0
  0
LINE
  5
13158
330
747D
100
AcDbEntity
  8
部品1
 48
50.0
100
AcDbLine
 10
6327.975533552187
 20
1904.635869400447
 30
0.0
 11
6748.627657849846
 21
1904.635869400447
 31
0.0
  0
LINE
  5
13159
330
747D
100
AcDbEntity
  8
部品1
 48
50.0
100
AcDbLine
 10
6327.975533552198
 20
2171.778473397104
 30
0.0
 11
6327.975533552187
 21
1904.635869400447
 31
0.0
  0
LINE
  5
1315A
330
747D
100
AcDbEntity
  8
細線
 48
50.0
100
AcDbLine
 10
6380.534997866067
 20
1934.736199233222
 30
0.0
 11
6393.659637631564
 21
1904.635869400447
 31
0.0
  0
LINE
  5
1315B
330
747D
100
AcDbEntity
  8
部品1
 48
50.0
100
AcDbLine
 10
6967.356645224433
 20
1371.653473397103
 30
0.0
 11
6967.356645224431
 21
2171.778473397103
 31
0.0
  0
LINE
  5
1315C
330
747D
100
AcDbEntity
  8
細線
 48
50.0
100
AcDbLine
 10
6572.280867620671
 20
1904.635869400448
 30
0.0
 11
6669.512823779817
 21
2171.778473397105
 31
0.0
  0
LINE
  5
1315D
330
747D
100
AcDbEntity
  8
細線
 48
50.0
100
AcDbLine
 10
6583.260863522728
 20
1934.736199233222
 30
0.0
 11
6596.385503288225
 21
1904.635869400447
 31
0.0
  0
LINE
  5
1315E
330
747D
100
AcDbEntity
  8
細線
 48
50.0
100
AcDbLine
 10
6442.645092865091
 20
2171.778473397104
 30
0.0
 11
6455.803307681155
 21
2141.601141824525
 31
0.0
  0
LINE
  5
1315F
330
747D
100
AcDbEntity
  8
細線
 48
50.0
100
AcDbLine
 10
6645.370958521751
 20
2171.778473397104
 30
0.0
 11
6658.529173337817
 21
2141.601141824525
 31
0.0
  0
LINE
  5
13160
330
747D
100
AcDbEntity
  8
細線
 48
50.0
100
AcDbLine
 10
6800.550727849854
 20
1974.817417691123
 30
0.0
 11
6872.238689436478
 21
2171.778473397104
 31
0.0
  0
LINE
  5
13161
330
747D
100
AcDbEntity
  8
部品1
 48
50.0
100
AcDbLine
 10
6800.550727849851
 20
1904.635869400447
 30
0.0
 11
6967.356645224431
 21
1904.635869400447
 31
0.0
  0
LINE
  5
13162
330
747D
100
AcDbEntity
  8
細線
 48
50.0
100
AcDbLine
 10
6848.096824178414
 20
2171.778473397104
 30
0.0
 11
6861.255038994478
 21
2141.601141824525
 31
0.0
  0
LINE
  5
13163
330
747D
100
AcDbEntity
  8
部品1
 48
50.0
100
AcDbLine
 10
8263.570764474556
 20
1371.653473397103
 30
0.0
 11
8263.570764474556
 21
1061.753473397105
 31
0.0
  0
LINE
  5
13164
330
747D
100
AcDbEntity
  8
細線
 48
50.0
100
AcDbLine
 10
7724.856645224438
 20
1061.753473397105
 30
0.0
 11
7801.290394420338
 21
1271.753473397105
 31
0.0
  0
LINE
  5
13165
330
747D
100
AcDbEntity
  8
細線
 48
50.0
100
AcDbLine
 10
7737.595603423756
 20
1096.753473397105
 30
0.0
 11
7752.856645224436
 21
1061.753473397105
 31
0.0
  0
LINE
  5
13166
330
747D
100
AcDbEntity
  8
細線
 48
50.0
100
AcDbLine
 10
7164.856645224436
 20
1061.753473397105
 30
0.0
 11
7241.290394420338
 21
1271.753473397105
 31
0.0
  0
LINE
  5
13167
330
747D
100
AcDbEntity
  8
細線
 48
50.0
100
AcDbLine
 10
7177.595603423757
 20
1096.753473397105
 30
0.0
 11
7192.856645224437
 21
1061.753473397105
 31
0.0
  0
LINE
  5
13168
330
747D
100
AcDbEntity
  8
細線
 48
50.0
100
AcDbLine
 10
7304.856645224437
 20
1061.753473397105
 30
0.0
 11
7381.290394420338
 21
1271.753473397105
 31
0.0
  0
LINE
  5
13169
330
747D
100
AcDbEntity
  8
細線
 48
50.0
100
AcDbLine
 10
7317.595603423756
 20
1096.753473397105
 30
0.0
 11
7332.856645224437
 21
1061.753473397105
 31
0.0
  0
LINE
  5
1316A
330
747D
100
AcDbEntity
  8
細線
 48
50.0
100
AcDbLine
 10
7213.290394420337
 20
1271.753473397105
 30
0.0
 11
7228.551436221019
 21
1236.753473397105
 31
0.0
  0
LINE
  5
1316B
330
747D
100
AcDbEntity
  8
細線
 48
50.0
100
AcDbLine
 10
7353.290394420338
 20
1271.753473397105
 30
0.0
 11
7368.551436221018
 21
1236.753473397105
 31
0.0
  0
LINE
  5
1316C
330
747D
100
AcDbEntity
  8
細線
 48
50.0
100
AcDbLine
 10
7584.856645224437
 20
1061.753473397106
 30
0.0
 11
7661.290394420338
 21
1271.753473397106
 31
0.0
  0
LINE
  5
1316D
330
747D
100
AcDbEntity
  8
細線
 48
50.0
100
AcDbLine
 10
7597.595603423757
 20
1096.753473397106
 30
0.0
 11
7612.856645224437
 21
1061.753473397106
 31
0.0
  0
LINE
  5
1316E
330
747D
100
AcDbEntity
  8
細線
 48
50.0
100
AcDbLine
 10
7444.856645224437
 20
1061.753473397106
 30
0.0
 11
7521.290394420337
 21
1271.753473397105
 31
0.0
  0
LINE
  5
1316F
330
747D
100
AcDbEntity
  8
細線
 48
50.0
100
AcDbLine
 10
7457.595603423756
 20
1096.753473397106
 30
0.0
 11
7472.856645224436
 21
1061.753473397106
 31
0.0
  0
LINE
  5
13170
330
747D
100
AcDbEntity
  8
細線
 48
50.0
100
AcDbLine
 10
7493.290394420339
 20
1271.753473397105
 30
0.0
 11
7508.551436221019
 21
1236.753473397106
 31
0.0
  0
LINE
  5
13171
330
747D
100
AcDbEntity
  8
細線
 48
50.0
100
AcDbLine
 10
7633.290394420338
 20
1271.753473397106
 30
0.0
 11
7648.551436221019
 21
1236.753473397106
 31
0.0
  0
LINE
  5
13172
330
747D
100
AcDbEntity
  8
細線
 48
50.0
100
AcDbLine
 10
8004.856645224437
 20
1061.753473397106
 30
0.0
 11
8081.290394420339
 21
1271.753473397106
 31
0.0
  0
LINE
  5
13173
330
747D
100
AcDbEntity
  8
細線
 48
50.0
100
AcDbLine
 10
8017.595603423755
 20
1096.753473397106
 30
0.0
 11
8032.856645224438
 21
1061.753473397106
 31
0.0
  0
LINE
  5
13174
330
747D
100
AcDbEntity
  8
細線
 48
50.0
100
AcDbLine
 10
7864.856645224437
 20
1061.753473397106
 30
0.0
 11
7941.290394420338
 21
1271.753473397105
 31
0.0
  0
LINE
  5
13175
330
747D
100
AcDbEntity
  8
細線
 48
50.0
100
AcDbLine
 10
7877.595603423756
 20
1096.753473397106
 30
0.0
 11
7892.856645224437
 21
1061.753473397106
 31
0.0
  0
LINE
  5
13176
330
747D
100
AcDbEntity
  8
細線
 48
50.0
100
AcDbLine
 10
7773.290394420339
 20
1271.753473397105
 30
0.0
 11
7788.551436221019
 21
1236.753473397105
 31
0.0
  0
LINE
  5
13177
330
747D
100
AcDbEntity
  8
細線
 48
50.0
100
AcDbLine
 10
8053.290394420338
 20
1271.753473397106
 30
0.0
 11
8068.551436221019
 21
1236.753473397106
 31
0.0
  0
LINE
  5
13178
330
747D
100
AcDbEntity
  8
細線
 48
50.0
100
AcDbLine
 10
7913.290394420338
 20
1271.753473397105
 30
0.0
 11
7928.551436221019
 21
1236.753473397106
 31
0.0
  0
LINE
  5
13179
330
747D
100
AcDbEntity
  8
細線
 48
50.0
100
AcDbLine
 10
8144.856645224436
 20
1061.753473397105
 30
0.0
 11
8221.290394420323
 21
1271.753473397104
 31
0.0
  0
LINE
  5
1317A
330
747D
100
AcDbEntity
  8
細線
 48
50.0
100
AcDbLine
 10
8157.595603423756
 20
1096.753473397105
 30
0.0
 11
8172.856645224436
 21
1061.753473397105
 31
0.0
  0
LINE
  5
1317B
330
747D
100
AcDbEntity
  8
細線
 48
50.0
100
AcDbLine
 10
8193.290394420325
 20
1271.753473397106
 30
0.0
 11
8208.551436221005
 21
1236.753473397106
 31
0.0
  0
LINE
  5
1317C
330
747D
100
AcDbEntity
  8
部品1
 48
50.0
100
AcDbLine
 10
7996.731645224421
 20
1495.253473397103
 30
0.0
 11
7137.981645224423
 21
1495.253473397106
 31
0.0
  0
LINE
  5
1317D
330
747D
100
AcDbEntity
  8
部品1
 48
50.0
100
AcDbLine
 10
7996.731645224421
 20
1523.253473397105
 30
0.0
 11
7137.981645224423
 21
1523.253473397106
 31
0.0
  0
CIRCLE
  5
1317E
330
747D
100
AcDbEntity
  8
部品1
 48
5.0
100
AcDbCircle
 10
7177.356645224422
 20
1537.253473397106
 30
0.0
 40
14.0
  0
LINE
  5
1317F
330
747D
100
AcDbEntity
  8
部品1
 48
50.0
100
AcDbLine
 10
7137.981645224423
 20
1495.253473397103
 30
0.0
 11
7137.981645224423
 21
1523.253473397106
 31
0.0
  0
CIRCLE
  5
13180
330
747D
100
AcDbEntity
  8
部品1
 48
5.0
100
AcDbCircle
 10
7697.356645224423
 20
1537.253473397106
 30
0.0
 40
14.0
  0
CIRCLE
  5
13181
330
747D
100
AcDbEntity
  8
部品1
 48
5.0
100
AcDbCircle
 10
7437.356645224422
 20
1537.253473397106
 30
0.0
 40
14.0
  0
LINE
  5
13182
330
747D
100
AcDbEntity
  8
部品1
 48
5.0
100
AcDbLine
 10
7507.206150475266
 20
1730.799723397104
 30
0.0
 11
7627.507139973592
 21
1730.799723397104
 31
0.0
  0
CIRCLE
  5
13183
330
747D
100
AcDbEntity
  8
部品1
 48
50.0
100
AcDbCircle
 10
7567.356645224437
 20
1791.000383062655
 30
0.0
 40
12.0401319331104
  0
LINE
  5
13184
330
747D
100
AcDbEntity
  8
部品1
 48
50.0
100
AcDbLine
 10
8167.356645224433
 20
1371.653473397103
 30
0.0
 11
8167.356645224433
 21
2171.778473397103
 31
0.0
  0
CIRCLE
  5
13185
330
747D
100
AcDbEntity
  8
部品1
 48
5.0
100
AcDbCircle
 10
7957.356645224422
 20
1537.253473397106
 30
0.0
 40
14.0
  0
LINE
  5
13186
330
747D
100
AcDbEntity
  8
部品1
 48
50.0
100
AcDbLine
 10
7996.731645224421
 20
1495.253473397106
 30
0.0
 11
7996.731645224421
 21
1523.253473397105
 31
0.0
  0
LINE
  5
13187
330
747D
100
AcDbEntity
  8
細線
 48
50.0
100
AcDbLine
 10
8194.087792873961
 20
1904.635869400447
 30
0.0
 11
8291.319749033107
 21
2171.778473397104
 31
0.0
  0
LINE
  5
13188
330
747D
100
AcDbEntity
  8
細線
 48
50.0
100
AcDbLine
 10
8205.067788776018
 20
1934.736199233222
 30
0.0
 11
8218.192428541515
 21
1904.635869400447
 31
0.0
  0
LINE
  5
13189
330
747D
100
AcDbEntity
  8
細線
 48
50.0
100
AcDbLine
 10
8267.17788377504
 20
2171.778473397104
 30
0.0
 11
8280.336098591105
 21
2141.601141824525
 31
0.0
  0
LINE
  5
1318A
330
747D
100
AcDbEntity
  8
Ｇ．Ｌ
 48
50.0
100
AcDbLine
 10
5506.227576651132
 20
2272.319098397104
 30
0.0
 11
6363.789827176102
 21
2272.319098397104
 31
0.0
  0
MTEXT
  5
1318B
330
747D
100
AcDbEntity
  8
寸法
 62
     7
 48
50.0
100
AcDbMText
 10
5522.027965284028
 20
2347.642611346253
 30
0.0
 40
120.0
 41
0.0
 71
     4
 72
     1
  1
▽G.L
  7
STYLE1
 73
     1
 44
1.0
1001
ACAD
1000
MTEXTBEGIN
1070
    73
1070
     1
1070
    44
1040
1.0
1070
    74
1070
     0
1000
MTEXTEND
  0
LINE
  5
1318C
330
747D
100
AcDbEntity
  8
部品1
 48
50.0
100
AcDbLine
 10
6800.550727849851
 20
2346.281860546504
 30
0.0
 11
7444.690700689548
 21
2352.723260274901
 31
0.0
  0
LINE
  5
1318D
330
747D
100
AcDbEntity
  8
部品1
 48
50.0
100
AcDbLine
 10
6363.789827176105
 20
2272.319098397104
 30
0.0
 11
6435.610521715038
 21
2342.632458485155
 31
0.0
  0
LINE
  5
1318E
330
747D
100
AcDbEntity
  8
部品1
 48
50.0
100
AcDbLine
 10
6435.610521715038
 20
2342.632458485155
 30
0.0
 11
6748.627657849848
 21
2345.762629846504
 31
0.0
  0
LINE
  5
1318F
330
747D
100
AcDbEntity
  8
部品1
 48
100.0
100
AcDbLine
 10
7430.882479959493
 20
3519.746835418326
 30
0.0
 11
7430.882479959493
 21
3127.439195418326
 31
0.0
  0
LINE
  5
13190
330
747D
100
AcDbEntity
  8
部品1
 48
50.0
100
AcDbLine
 10
7477.105820642496
 20
2385.138380227838
 30
0.0
 11
7507.206150475266
 21
2385.138380227838
 31
0.0
  0
LINE
  5
13191
330
747D
100
AcDbEntity
  8
部品1
 48
50.0
100
AcDbLine
 10
7477.105820642488
 20
2385.138380227838
 30
0.0
 11
7444.690700689548
 21
2352.723260274901
 31
0.0
  0
LINE
  5
13192
330
747D
100
AcDbEntity
  8
部品1
 48
50.0
100
AcDbLine
 10
7627.507139973592
 20
2385.138380227838
 30
0.0
 11
7657.607469806364
 21
2385.138380227838
 31
0.0
  0
LINE
  5
13193
330
747D
100
AcDbEntity
  8
部品1
 48
50.0
100
AcDbLine
 10
7657.607469806371
 20
2385.138380227838
 30
0.0
 11
7687.593561154648
 21
2355.15228887955
 31
0.0
  0
LINE
  5
13194
330
747D
100
AcDbEntity
  8
部品1
 48
50.0
100
AcDbLine
 10
8146.139304852786
 20
2522.790247627517
 30
0.0
 11
8215.129189751021
 21
2533.941815635307
 31
0.0
  0
LINE
  5
13195
330
747D
100
AcDbEntity
  8
部品1
 48
50.0
100
AcDbLine
 10
8146.139304852786
 20
2522.790247627517
 30
0.0
 11
8215.364972692066
 21
2513.210654759934
 31
0.0
  0
LINE
  5
13196
330
747D
100
AcDbEntity
  8
部品1
 48
50.0
100
AcDbLine
 10
9382.912672575582
 20
2556.934212383462
 30
0.0
 11
9382.912672575582
 21
1730.799723397104
 31
0.0
  0
LINE
  5
13197
330
747D
100
AcDbEntity
  8
部品1
 48
50.0
100
AcDbLine
 10
9503.213662073909
 20
1730.799723397104
 30
0.0
 11
9503.213662073909
 21
2556.934212383462
 31
0.0
  0
LINE
  5
13198
330
747D
100
AcDbEntity
  8
部品1
 48
50.0
100
AcDbLine
 10
8479.248371274591
 20
2421.939754832522
 30
0.0
 11
8479.248371274591
 21
1841.716830795493
 31
0.0
  0
LINE
  5
13199
330
747D
100
AcDbEntity
  8
部品1
 48
50.0
100
AcDbLine
 10
8531.17144127459
 20
2421.939754832522
 30
0.0
 11
8531.17144127459
 21
1841.716830795493
 31
0.0
  0
LEADER
  5
1319A
330
747D
100
AcDbEntity
  8
寸法
 48
5.0
100
AcDbLeader
  3
INABA_S40G詳細用20
 71
     0
 73
     0
 74
     0
 75
     1
 40
121.669047558312
 41
937.9999999999999
 76
     3
 10
9833.063167324738
 20
1537.253473397106
 30
0.0
 10
10078.9575592602
 20
1147.751905860606
 30
0.0
 10
10178.9575592602
 20
1147.751905860606
 30
0.0
  0
MTEXT
  5
1319B
102
{ACAD_REACTORS
330
1319A
102
}
330
747D
100
AcDbEntity
  8
部品1
 62
     7
 48
5.0
100
AcDbMText
 10
10218.9575592602
 20
1248.586429639761
 30
0.0
 40
120.0
 41
0.0
 71
     4
 72
     1
  1
\A1;4-D10両方向共
  7
STYLE1
 73
     1
 44
1.0
1001
ACAD
1000
MTEXTBEGIN
1070
    73
1070
     1
1070
    44
1040
1.0
1070
    74
1070
     0
1000
MTEXTEND
  0
HATCH
  5
1319C
330
747D
100
AcDbEntity
  8
細線
 48
50.0
100
AcDbHatch
 10
0.0
 20
0.0
 30
0.0
210
0.0
220
0.0
230
1.0
  2
PLAST
 70
     0
 71
     0
 91
        2
 92
        7
 72
     0
 73
     1
 93
        8
 10
10043.06316732474
 20
2171.778473397103
 10
9503.213662073905
 20
2171.778473397103
 10
9503.213662073909
 20
1730.799723397104
 10
9382.912672575582
 20
1730.799723397104
 10
9382.912672575582
 20
2171.778473397103
 10
8843.063167324746
 20
2171.778473397103
 10
8843.063167324746
 20
1371.653473397103
 10
10043.06316732475
 20
1371.653473397103
 97
        0
 92
       22
 72
     1
 73
     1
 93
       20
 10
9587.063167324737
 20
1537.253473397106
 42
-0.4142135623731189
 10
9573.063167324738
 20
1523.253473397105
 42
0.0
 10
9833.063167324738
 20
1523.253473397105
 42
-0.4142135623731332
 10
9819.063167324737
 20
1537.253473397106
 42
-1.0
 10
9847.063167324737
 20
1537.253473397106
 42
-0.4142135623731332
 10
9833.063167324738
 20
1523.253473397105
 42
0.0
 10
9872.438167324737
 20
1523.253473397105
 42
0.0
 10
9872.438167324737
 20
1495.253473397102
 42
0.0
 10
9013.688167324737
 20
1495.253473397106
 42
0.0
 10
9013.688167324737
 20
1523.253473397106
 42
0.0
 10
9053.063167324737
 20
1523.253473397106
 42
-0.4142135623731046
 10
9039.063167324737
 20
1537.253473397106
 42
-1.0
 10
9067.063167324738
 20
1537.253473397106
 42
-0.4142135623730951
 10
9053.063167324737
 20
1523.253473397106
 42
0.0
 10
9313.063167324738
 20
1523.253473397106
 42
-0.4142135623731094
 10
9299.063167324737
 20
1537.253473397106
 42
-1.0
 10
9327.063167324737
 20
1537.253473397106
 42
-0.4142135623731094
 10
9313.063167324738
 20
1523.253473397106
 42
0.0
 10
9573.063167324738
 20
1523.253473397105
 42
-0.4142135623731189
 10
9559.063167324737
 20
1537.253473397106
 42
-1.0
 97
        0
 75
     0
 76
     1
 52
315.0
 41
60.0
 77
     0
 78
     3
 53
315.0
 43
0.0
 44
0.0
 45
269.4076836320747
 46
269.4076836320746
 79
     0
 53
315.0
 43
33.67596045400933
 44
33.67596045400932
 45
269.4076836320747
 46
269.4076836320746
 79
     0
 53
315.0
 43
67.35192090801866
 44
67.35192090801864
 45
269.4076836320747
 46
269.4076836320746
 79
     0
 47
4.770536170264612
 98
        2
 10
9647.808420859298
 20
1925.259069847281
 10
9647.808420859298
 20
1925.259069847281
  0
LINE
  5
1319D
330
747D
100
AcDbEntity
  8
部品1
 48
50.0
100
AcDbLine
 10
9872.438167324737
 20
1523.253473397105
 30
0.0
 11
9013.688167324737
 21
1523.253473397106
 31
0.0
  0
LINE
  5
1319E
330
747D
100
AcDbEntity
  8
部品1
 48
50.0
100
AcDbLine
 10
9872.438167324737
 20
1495.253473397103
 30
0.0
 11
9013.688167324737
 21
1495.253473397106
 31
0.0
  0
LINE
  5
1319F
330
747D
100
AcDbEntity
  8
部品1
 48
50.0
100
AcDbLine
 10
8746.849048074611
 20
1371.653473397103
 30
0.0
 11
10139.27728657487
 21
1371.653473397103
 31
0.0
  0
LINE
  5
131A0
330
747D
100
AcDbEntity
  8
部品1
 48
50.0
100
AcDbLine
 10
8746.849048074611
 20
1061.753473397105
 30
0.0
 11
10139.27728657487
 21
1061.753473397105
 31
0.0
  0
LINE
  5
131A1
330
747D
100
AcDbEntity
  8
部品1
 48
50.0
100
AcDbLine
 10
8746.849048074611
 20
1271.753473397105
 30
0.0
 11
10139.27728657487
 21
1271.753473397105
 31
0.0
  0
HATCH
  5
131A2
330
747D
100
AcDbEntity
  8
細線
 48
50.0
100
AcDbHatch
 10
0.0
 20
0.0
 30
0.0
210
0.0
220
0.0
230
1.0
  2
PLAST
 70
     0
 71
     0
 91
        1
 92
        7
 72
     0
 73
     1
 93
        4
 10
10139.27728657487
 20
1371.653473397103
 10
8746.849048074611
 20
1371.653473397103
 10
8746.849048074611
 20
1271.753473397105
 10
10139.27728657487
 20
1271.753473397105
 97
        0
 75
     0
 76
     1
 52
45.0
 41
60.0
 77
     0
 78
     3
 53
45.0
 43
1875.706522100314
 44
0.0
 45
-269.4076836320746
 46
269.4076836320746
 79
     0
 53
45.0
 43
1842.030561646305
 44
33.67596045400933
 45
-269.4076836320746
 46
269.4076836320746
 79
     0
 53
45.0
 43
1808.354601192295
 44
67.35192090801866
 45
-269.4076836320746
 46
269.4076836320746
 79
     0
 47
2.021456610930475
 98
        1
 10
9925.023143417718
 20
1348.963404449929
  0
LINE
  5
131A3
330
747D
100
AcDbEntity
  8
部品1
 48
50.0
100
AcDbLine
 10
9503.213662073909
 20
2171.778473397103
 30
0.0
 11
10354.95489337491
 21
2171.778473397103
 31
0.0
  0
LINE
  5
131A4
330
747D
100
AcDbEntity
  8
部品1
 48
50.0
100
AcDbLine
 10
8746.849048074611
 20
1371.653473397103
 30
0.0
 11
8746.849048074611
 21
1061.753473397105
 31
0.0
  0
LINE
  5
131A5
330
747D
100
AcDbEntity
  8
細線
 48
50.0
100
AcDbLine
 10
9053.302125524071
 20
1096.753473397105
 30
0.0
 11
9068.563167324752
 21
1061.753473397105
 31
0.0
  0
LINE
  5
131A6
330
747D
100
AcDbEntity
  8
細線
 48
50.0
100
AcDbLine
 10
9040.563167324751
 20
1061.753473397105
 30
0.0
 11
9116.996916520653
 21
1271.753473397105
 31
0.0
  0
LINE
  5
131A7
330
747D
100
AcDbEntity
  8
細線
 48
50.0
100
AcDbLine
 10
8913.30212552407
 20
1096.753473397105
 30
0.0
 11
8928.563167324751
 21
1061.753473397105
 31
0.0
  0
LINE
  5
131A8
330
747D
100
AcDbEntity
  8
細線
 48
50.0
100
AcDbLine
 10
8760.563167324752
 20
1061.753473397105
 30
0.0
 11
8836.996916520652
 21
1271.753473397103
 31
0.0
  0
LINE
  5
131A9
330
747D
100
AcDbEntity
  8
細線
 48
50.0
100
AcDbLine
 10
8773.302125524072
 20
1096.753473397105
 30
0.0
 11
8788.563167324751
 21
1061.753473397105
 31
0.0
  0
LINE
  5
131AA
330
747D
100
AcDbEntity
  8
細線
 48
50.0
100
AcDbLine
 10
8900.563167324753
 20
1061.753473397105
 30
0.0
 11
8976.996916520652
 21
1271.753473397103
 31
0.0
  0
LINE
  5
131AB
330
747D
100
AcDbEntity
  8
細線
 48
50.0
100
AcDbLine
 10
8808.996916520653
 20
1271.753473397103
 30
0.0
 11
8824.257958321334
 21
1236.753473397105
 31
0.0
  0
LINE
  5
131AC
330
747D
100
AcDbEntity
  8
細線
 48
50.0
100
AcDbLine
 10
8948.996916520654
 20
1271.753473397103
 30
0.0
 11
8964.257958321333
 21
1236.753473397105
 31
0.0
  0
LINE
  5
131AD
330
747D
100
AcDbEntity
  8
細線
 48
50.0
100
AcDbLine
 10
9320.563167324753
 20
1061.753473397106
 30
0.0
 11
9396.996916520654
 21
1271.753473397105
 31
0.0
  0
LINE
  5
131AE
330
747D
100
AcDbEntity
  8
細線
 48
50.0
100
AcDbLine
 10
9333.30212552407
 20
1096.753473397106
 30
0.0
 11
9348.563167324753
 21
1061.753473397106
 31
0.0
  0
LINE
  5
131AF
330
747D
100
AcDbEntity
  8
細線
 48
50.0
100
AcDbLine
 10
9193.302125524072
 20
1096.753473397105
 30
0.0
 11
9208.563167324752
 21
1061.753473397105
 31
0.0
  0
LINE
  5
131B0
330
747D
100
AcDbEntity
  8
細線
 48
50.0
100
AcDbLine
 10
9180.563167324752
 20
1061.753473397105
 30
0.0
 11
9256.996916520654
 21
1271.753473397105
 31
0.0
  0
LINE
  5
131B1
330
747D
100
AcDbEntity
  8
細線
 48
50.0
100
AcDbLine
 10
9088.996916520654
 20
1271.753473397105
 30
0.0
 11
9104.257958321333
 21
1236.753473397105
 31
0.0
  0
LINE
  5
131B2
330
747D
100
AcDbEntity
  8
細線
 48
50.0
100
AcDbLine
 10
9368.996916520654
 20
1271.753473397105
 30
0.0
 11
9384.257958321333
 21
1236.753473397106
 31
0.0
  0
LINE
  5
131B3
330
747D
100
AcDbEntity
  8
細線
 48
50.0
100
AcDbLine
 10
9228.996916520653
 20
1271.753473397105
 30
0.0
 11
9244.257958321334
 21
1236.753473397105
 31
0.0
  0
LINE
  5
131B4
330
747D
100
AcDbEntity
  8
細線
 48
50.0
100
AcDbLine
 10
9473.302125524071
 20
1096.753473397106
 30
0.0
 11
9488.563167324752
 21
1061.753473397106
 31
0.0
  0
LINE
  5
131B5
330
747D
100
AcDbEntity
  8
細線
 48
50.0
100
AcDbLine
 10
9460.563167324751
 20
1061.753473397106
 30
0.0
 11
9536.996916520653
 21
1271.753473397106
 31
0.0
  0
LINE
  5
131B6
330
747D
100
AcDbEntity
  8
細線
 48
50.0
100
AcDbLine
 10
9613.302125524072
 20
1096.753473397105
 30
0.0
 11
9628.563167324752
 21
1061.753473397105
 31
0.0
  0
LINE
  5
131B7
330
747D
100
AcDbEntity
  8
細線
 48
50.0
100
AcDbLine
 10
9600.563167324752
 20
1061.753473397105
 30
0.0
 11
9676.996916520653
 21
1271.753473397105
 31
0.0
  0
LINE
  5
131B8
330
747D
100
AcDbEntity
  8
細線
 48
50.0
100
AcDbLine
 10
9508.996916520652
 20
1271.753473397106
 30
0.0
 11
9524.257958321333
 21
1236.753473397106
 31
0.0
  0
LINE
  5
131B9
330
747D
100
AcDbEntity
  8
細線
 48
50.0
100
AcDbLine
 10
9648.996916520653
 20
1271.753473397105
 30
0.0
 11
9664.257958321334
 21
1236.753473397105
 31
0.0
  0
CIRCLE
  5
131BA
330
747D
100
AcDbEntity
  8
部品1
 48
5.0
100
AcDbCircle
 10
9053.063167324737
 20
1537.253473397106
 30
0.0
 40
14.0
  0
LINE
  5
131BB
330
747D
100
AcDbEntity
  8
部品1
 48
50.0
100
AcDbLine
 10
9382.912672575582
 20
2171.778473397103
 30
0.0
 11
8531.17144127459
 21
2171.778473397103
 31
0.0
  0
LINE
  5
131BC
330
747D
100
AcDbEntity
  8
部品1
 48
50.0
100
AcDbLine
 10
8843.063167324748
 20
1371.653473397103
 30
0.0
 11
8843.063167324746
 21
2171.778473397103
 31
0.0
  0
LINE
  5
131BD
330
747D
100
AcDbEntity
  8
部品1
 48
50.0
100
AcDbLine
 10
9013.688167324737
 20
1495.253473397103
 30
0.0
 11
9013.688167324737
 21
1523.253473397106
 31
0.0
  0
LINE
  5
131BE
330
747D
100
AcDbEntity
  8
部品1
 48
50.0
100
AcDbLine
 10
8843.063167324746
 20
1904.635869400447
 30
0.0
 11
8531.17144127459
 21
1904.635869400447
 31
0.0
  0
LINE
  5
131BF
330
747D
100
AcDbEntity
  8
細線
 48
50.0
100
AcDbLine
 10
8599.539524187285
 20
1904.635869400448
 30
0.0
 11
8696.771480346431
 21
2171.778473397104
 31
0.0
  0
LINE
  5
131C0
330
747D
100
AcDbEntity
  8
細線
 48
50.0
100
AcDbLine
 10
8407.793654432678
 20
1934.736199233222
 30
0.0
 11
8420.918294198175
 21
1904.635869400447
 31
0.0
  0
LINE
  5
131C1
330
747D
100
AcDbEntity
  8
細線
 48
50.0
100
AcDbLine
 10
8610.519520089338
 20
1934.736199233222
 30
0.0
 11
8623.644159854837
 21
1904.635869400447
 31
0.0
  0
LINE
  5
131C2
330
747D
100
AcDbEntity
  8
細線
 48
50.0
100
AcDbLine
 10
8469.903749431702
 20
2171.778473397104
 30
0.0
 11
8479.248371274591
 21
2150.347317597077
 31
0.0
  0
LINE
  5
131C3
330
747D
100
AcDbEntity
  8
細線
 48
50.0
100
AcDbLine
 10
8672.629615088364
 20
2171.778473397104
 30
0.0
 11
8685.78782990443
 21
2141.601141824525
 31
0.0
  0
LINE
  5
131C4
330
747D
100
AcDbEntity
  8
細線
 48
50.0
100
AcDbLine
 10
8802.265389843945
 20
1904.635869400447
 30
0.0
 11
8843.063167324748
 21
2016.726841792887
 31
0.0
  0
LINE
  5
131C5
330
747D
100
AcDbEntity
  8
細線
 48
50.0
100
AcDbLine
 10
8813.245385746002
 20
1934.736199233222
 30
0.0
 11
8826.370025511499
 21
1904.635869400447
 31
0.0
  0
LINE
  5
131C6
330
747D
100
AcDbEntity
  8
部品1
 48
5.0
100
AcDbLine
 10
9382.91267257558
 20
1730.799723397104
 30
0.0
 11
9503.213662073909
 21
1730.799723397104
 31
0.0
  0
CIRCLE
  5
131C7
330
747D
100
AcDbEntity
  8
部品1
 48
5.0
100
AcDbCircle
 10
9313.063167324738
 20
1537.253473397106
 30
0.0
 40
14.0
  0
CIRCLE
  5
131C8
330
747D
100
AcDbEntity
  8
部品1
 48
5.0
100
AcDbCircle
 10
9573.063167324738
 20
1537.253473397106
 30
0.0
 40
14.0
  0
CIRCLE
  5
131C9
330
747D
100
AcDbEntity
  8
部品1
 48
50.0
100
AcDbCircle
 10
9443.063167324751
 20
1791.000383062655
 30
0.0
 40
12.0401319331104
  0
LINE
  5
131CA
330
747D
100
AcDbEntity
  8
部品1
 48
50.0
100
AcDbLine
 10
10139.27728657487
 20
1371.653473397103
 30
0.0
 11
10139.27728657487
 21
1061.753473397105
 31
0.0
  0
LINE
  5
131CB
330
747D
100
AcDbEntity
  8
細線
 48
50.0
100
AcDbLine
 10
10033.30212552407
 20
1096.753473397105
 30
0.0
 11
10048.56316732475
 21
1061.753473397105
 31
0.0
  0
LINE
  5
131CC
330
747D
100
AcDbEntity
  8
細線
 48
50.0
100
AcDbLine
 10
10020.56316732475
 20
1061.753473397105
 30
0.0
 11
10096.99691652064
 21
1271.753473397104
 31
0.0
  0
LINE
  5
131CD
330
747D
100
AcDbEntity
  8
細線
 48
50.0
100
AcDbLine
 10
9753.302125524072
 20
1096.753473397106
 30
0.0
 11
9768.563167324751
 21
1061.753473397106
 31
0.0
  0
LINE
  5
131CE
330
747D
100
AcDbEntity
  8
細線
 48
50.0
100
AcDbLine
 10
9740.563167324751
 20
1061.753473397106
 30
0.0
 11
9816.996916520654
 21
1271.753473397105
 31
0.0
  0
LINE
  5
131CF
330
747D
100
AcDbEntity
  8
細線
 48
50.0
100
AcDbLine
 10
9893.302125524073
 20
1096.753473397106
 30
0.0
 11
9908.563167324752
 21
1061.753473397106
 31
0.0
  0
LINE
  5
131D0
330
747D
100
AcDbEntity
  8
細線
 48
50.0
100
AcDbLine
 10
9880.563167324751
 20
1061.753473397106
 30
0.0
 11
9956.996916520653
 21
1271.753473397106
 31
0.0
  0
LINE
  5
131D1
330
747D
100
AcDbEntity
  8
細線
 48
50.0
100
AcDbLine
 10
9788.996916520654
 20
1271.753473397105
 30
0.0
 11
9804.257958321334
 21
1236.753473397106
 31
0.0
  0
LINE
  5
131D2
330
747D
100
AcDbEntity
  8
細線
 48
50.0
100
AcDbLine
 10
9928.996916520652
 20
1271.753473397106
 30
0.0
 11
9944.257958321335
 21
1236.753473397106
 31
0.0
  0
LINE
  5
131D3
330
747D
100
AcDbEntity
  8
細線
 48
50.0
100
AcDbLine
 10
10068.99691652064
 20
1271.753473397106
 30
0.0
 11
10084.25795832132
 21
1236.753473397106
 31
0.0
  0
LINE
  5
131D4
330
747D
100
AcDbEntity
  8
部品1
 48
50.0
100
AcDbLine
 10
10043.06316732475
 20
1371.653473397103
 30
0.0
 11
10043.06316732475
 21
2171.778473397103
 31
0.0
  0
CIRCLE
  5
131D5
330
747D
100
AcDbEntity
  8
部品1
 48
5.0
100
AcDbCircle
 10
9833.063167324738
 20
1537.253473397106
 30
0.0
 40
14.0
  0
LINE
  5
131D6
330
747D
100
AcDbEntity
  8
部品1
 48
50.0
100
AcDbLine
 10
9872.438167324737
 20
1495.253473397106
 30
0.0
 11
9872.438167324737
 21
1523.253473397105
 31
0.0
  0
LINE
  5
131D7
330
747D
100
AcDbEntity
  8
細線
 48
50.0
100
AcDbLine
 10
10221.34644944057
 20
1904.635869400448
 30
0.0
 11
10318.57840559972
 21
2171.778473397103
 31
0.0
  0
LINE
  5
131D8
330
747D
100
AcDbEntity
  8
細線
 48
50.0
100
AcDbLine
 10
10043.06316732475
 20
1971.791315752021
 30
0.0
 11
10115.85253994306
 21
2171.778473397104
 31
0.0
  0
LINE
  5
131D9
330
747D
100
AcDbEntity
  8
部品1
 48
50.0
100
AcDbLine
 10
10043.06316732474
 20
1904.635869400445
 30
0.0
 11
10354.95489337491
 21
1904.635869400447
 31
0.0
  0
LINE
  5
131DA
330
747D
100
AcDbEntity
  8
細線
 48
50.0
100
AcDbLine
 10
10232.32644534263
 20
1934.736199233222
 30
0.0
 11
10245.45108510813
 21
1904.635869400447
 31
0.0
  0
LINE
  5
131DB
330
747D
100
AcDbEntity
  8
細線
 48
50.0
100
AcDbLine
 10
10091.71067468499
 20
2171.778473397103
 30
0.0
 11
10104.86888950106
 21
2141.601141824525
 31
0.0
  0
LINE
  5
131DC
330
747D
100
AcDbEntity
  8
細線
 48
50.0
100
AcDbLine
 10
10294.43654034165
 20
2171.778473397103
 30
0.0
 11
10307.59475515772
 21
2141.601141824525
 31
0.0
  0
LINE
  5
131DD
330
747D
100
AcDbEntity
  8
部品1
 48
50.0
100
AcDbLine
 10
9563.586884749872
 20
2371.480910386697
 30
0.0
 11
10354.95489337491
 21
2362.480397697104
 31
0.0
  0
LINE
  5
131DE
330
747D
100
AcDbEntity
  8
部品1
 48
50.0
100
AcDbLine
 10
9619.561584161839
 20
2531.099169784787
 30
0.0
 11
10739.98702979672
 21
2522.790247627517
 31
0.0
  0
MTEXT
  5
131DF
330
747D
100
AcDbEntity
  8
寸法
 62
     7
 48
50.0
100
AcDbMText
 10
9628.612747611242
 20
2646.955097062761
 30
0.0
 40
120.0
 41
0.0
 71
     4
 72
     1
  1
\A1;水勾配１／１００ 
  7
STYLE1
 73
     1
 44
1.0
1001
ACAD
1000
MTEXTBEGIN
1070
    73
1070
     1
1070
    44
1040
1.0
1070
    74
1070
     0
1000
MTEXTEND
  0
LINE
  5
131E0
330
747D
100
AcDbEntity
  8
部品1
 48
100.0
100
AcDbLine
 10
9016.317520040507
 20
3519.746835418325
 30
0.0
 11
9016.317520040507
 21
3127.439195418324
 31
0.0
  0
LINE
  5
131E1
330
747D
100
AcDbEntity
  8
部品1
 48
50.0
100
AcDbLine
 10
8531.17144127459
 20
2363.588067680751
 30
0.0
 11
9322.560497758519
 21
2371.50195824559
 31
0.0
  0
LINE
  5
131E2
330
747D
100
AcDbEntity
  8
部品1
 48
50.0
100
AcDbLine
 10
9352.812342742812
 20
2401.753803229882
 30
0.0
 11
9322.560497758518
 21
2371.50195824559
 31
0.0
  0
LINE
  5
131E3
330
747D
100
AcDbEntity
  8
部品1
 48
50.0
100
AcDbLine
 10
9352.812342742812
 20
2401.753803229882
 30
0.0
 11
9382.912672575582
 21
2401.753803229882
 31
0.0
  0
LINE
  5
131E4
330
747D
100
AcDbEntity
  8
部品1
 48
50.0
100
AcDbLine
 10
9533.313991906686
 20
2401.753803229881
 30
0.0
 11
9563.586884749872
 21
2371.480910386697
 31
0.0
  0
LINE
  5
131E5
330
747D
100
AcDbEntity
  8
部品1
 48
50.0
100
AcDbLine
 10
9503.213662073909
 20
2401.753803229882
 30
0.0
 11
9533.313991906686
 21
2401.753803229882
 31
0.0
  0
LINE
  5
131E6
330
747D
100
AcDbEntity
  8
部品1
 48
50.0
100
AcDbLine
 10
10739.98702979672
 20
2522.790247627517
 30
0.0
 11
10670.76136195743
 21
2513.210654759934
 31
0.0
  0
LINE
  5
131E7
330
747D
100
AcDbEntity
  8
部品1
 48
50.0
100
AcDbLine
 10
10739.98702979672
 20
2522.790247627517
 30
0.0
 11
10670.99714489848
 21
2533.941815635307
 31
0.0
  0
ENDSEC
  0
SECTION
  2
OBJECTS
  0
DICTIONARY
  5
7471
330
0
100
AcDbDictionary
281
     1
  3
ACAD_COLOR
350
12B3E
  3
ACAD_GROUP
350
7472
  3
ACAD_LAYOUT
350
12B3F
  3
ACAD_MATERIAL
350
12B3D
  3
ACAD_MLINESTYLE
350
7473
  3
ACAD_PLOTSETTINGS
350
12B40
  3
ACAD_PLOTSTYLENAME
350
12B3B
  3
ACDBHEADERROUNDTRIPXREC
350
13285
  3
ACDBVARIABLEDICTIONARY
350
11B74
  3
CONTENTDICTIONARY
350
E71C
  3
DRAWINGVARIABLESDICT
350
F3B9
  0
DICTIONARY
  5
12B3E
102
{ACAD_REACTORS
330
7471
102
}
330
7471
100
AcDbDictionary
281
     1
  0
DICTIONARY
  5
7472
102
{ACAD_REACTORS
330
7471
102
}
330
7471
100
AcDbDictionary
281
     1
  0
DICTIONARY
  5
12B3F
102
{ACAD_REACTORS
330
7471
102
}
330
7471
100
AcDbDictionary
281
     1
  3
Model
350
12B41
  3
レイアウト1
350
12B42
  0
DICTIONARY
  5
12B3D
102
{ACAD_REACTORS
330
7471
102
}
330
7471
100
AcDbDictionary
281
     1
  0
DICTIONARY
  5
7473
102
{ACAD_REACTORS
330
7471
102
}
330
7471
100
AcDbDictionary
281
     1
  3
STANDARD
350
7480
  0
DICTIONARY
  5
12B40
102
{ACAD_REACTORS
330
7471
102
}
330
7471
100
AcDbDictionary
281
     1
  0
ACDBDICTIONARYWDFLT
  5
12B3B
102
{ACAD_REACTORS
330
7471
102
}
330
7471
100
AcDbDictionary
281
     1
  3
Normal
350
12B3C
100
AcDbDictionaryWithDefault
340
12B3C
  0
DICTIONARY
  5
13285
102
{ACAD_REACTORS
330
7471
102
}
330
7471
100
AcDbDictionary
281
     1
  3
COLORDICT
350
13287
  3
MATERIALDICT
350
13286
  0
DICTIONARY
  5
11B74
102
{ACAD_REACTORS
330
7471
102
}
330
7471
100
AcDbDictionary
281
     1
  3
DIMASSOC
350
13282
  3
PROJECTNAME
350
13283
  3
SORTENTS
350
11B75
  0
DICTIONARY
  5
E71C
102
{ACAD_REACTORS
330
7471
102
}
330
7471
100
AcDbDictionary
281
     1
  0
DICTIONARY
  5
F3B9
102
{ACAD_REACTORS
330
7471
102
}
330
7471
100
AcDbDictionary
281
     1
1001
DRAWINGVARIABLESXDATA
1000
POLARMODE
1000
1
  0
LAYOUT
  5
12B41
102
{ACAD_XDICTIONARY
360
13288
102
}
102
{ACAD_REACTORS
330
12B3F
102
}
330
12B3F
100
AcDbPlotSettings
  1

  2
iR C3880
  4
A3
  6

 40
5.873749732971191
 41
5.873747825622558
 42
5.873748779296875
 43
5.873748779296875
 44
296.9259948730469
 45
419.9466552734374
 46
0.0
 47
0.0
 48
0.0
 49
0.0
140
0.0
141
0.0
142
1.0
143
41.65811991999086
 70
 11952
 72
     1
 73
     1
 74
     2
  7
inaba.ctb
 75
     0
147
0.0240049239360925
148
0.0
149
0.0
100
AcDbLayout
  1
Model
 70
     1
 71
     0
 10
0.0
 20
0.0
 11
12.0
 21
9.0
 12
0.0
 22
0.0
 32
0.0
 14
0.0
 24
0.0
 34
0.0
 15
0.0
 25
0.0
 35
0.0
146
0.0
 13
0.0
 23
0.0
 33
0.0
 16
1.0
 26
0.0
 36
0.0
 17
0.0
 27
1.0
 37
0.0
 76
     0
330
747D
  0
LAYOUT
  5
12B42
102
{ACAD_XDICTIONARY
360
1328A
102
}
102
{ACAD_REACTORS
330
12B3F
102
}
330
12B3F
100
AcDbPlotSettings
  1

  2
Microsoft XPS Document Writer
  4

  6

 40
0.0
 41
0.0
 42
0.0
 43
0.0
 44
0.0
 45
0.0
 46
0.0
 47
0.0
 48
0.0
 49
0.0
140
0.0
141
0.0
142
1.0
143
1.0
 70
   688
 72
     0
 73
     0
 74
     5
  7
inaba.ctb
 75
    16
147
1.0
148
0.0
149
0.0
100
AcDbLayout
  1
レイアウト1
 70
     0
 71
     1
 10
0.0
 20
0.0
 11
420.0
 21
297.0
 12
0.0
 22
0.0
 32
0.0
 14
1.000000000000000E+20
 24
1.000000000000000E+20
 34
1.000000000000000E+20
 15
-1.000000000000000E+20
 25
-1.000000000000000E+20
 35
-1.000000000000000E+20
146
0.0
 13
0.0
 23
0.0
 33
0.0
 16
1.0
 26
0.0
 36
0.0
 17
0.0
 27
1.0
 37
0.0
 76
     0
330
747A
  0
MLINESTYLE
  5
7480
102
{ACAD_REACTORS
330
7473
102
}
330
7473
100
AcDbMlineStyle
  2
STANDARD
 70
     0
  3

 62
     0
 51
90.0
 52
90.0
 71
     2
 49
0.5
 62
   256
  6
BYLAYER
 49
-0.5
 62
   256
  6
BYLAYER
  0
ACDBPLACEHOLDER
  5
12B3C
102
{ACAD_REACTORS
330
12B3B
102
}
330
12B3B
  0
XRECORD
  5
13287
102
{ACAD_REACTORS
330
13285
102
}
330
13285
100
AcDbXrecord
280
     1
340
12B3E
  0
XRECORD
  5
13286
102
{ACAD_REACTORS
330
13285
102
}
330
13285
100
AcDbXrecord
280
     1
340
12B3D
  0
DICTIONARYVAR
  5
13282
102
{ACAD_REACTORS
330
11B74
102
}
330
11B74
100
DictionaryVariables
280
     0
  1
1
  0
DICTIONARYVAR
  5
13283
102
{ACAD_REACTORS
330
11B74
102
}
330
11B74
100
DictionaryVariables
280
     0
  1

  0
DICTIONARYVAR
  5
11B75
102
{ACAD_REACTORS
330
11B74
102
}
330
11B74
100
DictionaryVariables
280
     0
  1
96
  0
DICTIONARY
  5
13288
330
12B41
100
AcDbDictionary
280
     1
281
     1
  3
ACAD_XREC_ROUNDTRIP
360
13289
  0
DICTIONARY
  5
1328A
330
12B42
100
AcDbDictionary
280
     1
281
     1
  3
ACAD_XREC_ROUNDTRIP
360
1328B
  0
XRECORD
  5
13289
102
{ACAD_REACTORS
330
13288
102
}
330
13288
100
AcDbXrecord
280
     1
102
SHADEPLOT
 70
     0
102
SHADEPLOTRESLEVEL
 70
     2
102
SHADEPLOTCUSTOMDPI
 70
   300
  0
XRECORD
  5
1328B
102
{ACAD_REACTORS
330
1328A
102
}
330
1328A
100
AcDbXrecord
280
     1
102
SHADEPLOT
 70
     0
102
SHADEPLOTRESLEVEL
 70
     2
102
SHADEPLOTCUSTOMDPI
 70
   300
  0
ENDSEC
  0
EOF
