  0
SECTION
  2
HEADER
  9
$ACADVER
  1
AC1015
  9
$ACADMAINTVER
 70
    20
  9
$DWGCODEPAGE
  3
ANSI_932
  9
$INSBASE
 10
0.0
 20
0.0
 30
0.0
  9
$EXTMIN
 10
139.196816621341
 20
-0.7248735957364261
 30
-0.0000000000000064
  9
$EXTMAX
 10
16308.32523385566
 20
11409.94113503667
 30
0.0000000000000089
  9
$LIMMIN
 10
0.0
 20
0.0
  9
$LIMMAX
 10
16800.0
 20
11880.0
  9
$ORTHOMODE
 70
     1
  9
$REGENMODE
 70
     1
  9
$FILLMODE
 70
     1
  9
$QTEXTMODE
 70
     0
  9
$MIRRTEXT
 70
     1
  9
$LTSCALE
 40
5.0
  9
$ATTMODE
 70
     1
  9
$TEXTSIZE
 40
4.0
  9
$TRACEWID
 40
1.0
  9
$TEXTSTYLE
  7
STYLE1
  9
$CLAYER
  8
部品1
  9
$CELTYPE
  6
BYLAYER
  9
$CECOLOR
 62
   256
  9
$CELTSCALE
 40
50.0
  9
$DISPSILH
 70
     0
  9
$DIMSCALE
 40
40.0
  9
$DIMASZ
 40
2.5
  9
$DIMEXO
 40
0.5
  9
$DIMDLI
 40
7.0
  9
$DIMRND
 40
0.0
  9
$DIMDLE
 40
0.0
  9
$DIMEXE
 40
1.5
  9
$DIMTP
 40
0.0
  9
$DIMTM
 40
0.0
  9
$DIMTXT
 40
3.0
  9
$DIMCEN
 40
0.0
  9
$DIMTSZ
 40
0.0
  9
$DIMTOL
 70
     0
  9
$DIMLIM
 70
     0
  9
$DIMTIH
 70
     0
  9
$DIMTOH
 70
     0
  9
$DIMSE1
 70
     0
  9
$DIMSE2
 70
     0
  9
$DIMTAD
 70
     3
  9
$DIMZIN
 70
     8
  9
$DIMBLK
  1

  9
$DIMASO
 70
     1
  9
$DIMSHO
 70
     1
  9
$DIMPOST
  1

  9
$DIMAPOST
  1

  9
$DIMALT
 70
     0
  9
$DIMALTD
 70
     2
  9
$DIMALTF
 40
0.0394
  9
$DIMLFAC
 40
1.0
  9
$DIMTOFL
 70
     1
  9
$DIMTVP
 40
0.0
  9
$DIMTIX
 70
     1
  9
$DIMSOXD
 70
     0
  9
$DIMSAH
 70
     1
  9
$DIMBLK1
  1
DOTSMALL
  9
$DIMBLK2
  1
DOTSMALL
  9
$DIMSTYLE
  2
INABA_S40G
  9
$DIMCLRD
 70
     0
  9
$DIMCLRE
 70
     0
  9
$DIMCLRT
 70
     7
  9
$DIMTFAC
 40
1.0
  9
$DIMGAP
 40
1.0
  9
$DIMJUST
 70
     0
  9
$DIMSD1
 70
     0
  9
$DIMSD2
 70
     0
  9
$DIMTOLJ
 70
     1
  9
$DIMTZIN
 70
     0
  9
$DIMALTZ
 70
     0
  9
$DIMALTTZ
 70
     0
  9
$DIMUPT
 70
     0
  9
$DIMDEC
 70
     1
  9
$DIMTDEC
 70
     4
  9
$DIMALTU
 70
     2
  9
$DIMALTTD
 70
     2
  9
$DIMTXSTY
  7
STYLE1
  9
$DIMAUNIT
 70
     0
  9
$DIMADEC
 70
     0
  9
$DIMALTRND
 40
0.0
  9
$DIMAZIN
 70
     0
  9
$DIMDSEP
 70
    46
  9
$DIMATFIT
 70
     3
  9
$DIMFRAC
 70
     0
  9
$DIMLDRBLK
  1

  9
$DIMLUNIT
 70
     2
  9
$DIMLWD
 70
    -2
  9
$DIMLWE
 70
    -2
  9
$DIMTMOVE
 70
     0
  9
$LUNITS
 70
     2
  9
$LUPREC
 70
     1
  9
$SKETCHINC
 40
1.0
  9
$FILLETRAD
 40
5.0
  9
$AUNITS
 70
     0
  9
$AUPREC
 70
     0
  9
$MENU
  1
acad
  9
$ELEVATION
 40
0.0
  9
$PELEVATION
 40
0.0
  9
$THICKNESS
 40
0.0
  9
$LIMCHECK
 70
     0
  9
$CHAMFERA
 40
0.0
  9
$CHAMFERB
 40
0.0
  9
$CHAMFERC
 40
0.0
  9
$CHAMFERD
 40
0.0
  9
$SKPOLY
 70
     0
  9
$TDCREATE
 40
2451052.600153125
  9
$TDUCREATE
 40
2451052.225153125
  9
$TDUPDATE
 40
2455091.673021736
  9
$TDUUPDATE
 40
2455091.298021736
  9
$TDINDWG
 40
0.4130878356
  9
$TDUSRTIMER
 40
0.4130878356
  9
$USRTIMER
 70
     1
  9
$ANGBASE
 50
0.0
  9
$ANGDIR
 70
     0
  9
$PDMODE
 70
     3
  9
$PDSIZE
 40
2.0
  9
$PLINEWID
 40
0.0
  9
$SPLFRAME
 70
     0
  9
$SPLINETYPE
 70
     6
  9
$SPLINESEGS
 70
     8
  9
$HANDSEED
  5
1399B
  9
$SURFTAB1
 70
     6
  9
$SURFTAB2
 70
     6
  9
$SURFTYPE
 70
     6
  9
$SURFU
 70
     6
  9
$SURFV
 70
     6
  9
$UCSBASE
  2

  9
$UCSNAME
  2

  9
$UCSORG
 10
0.0
 20
0.0
 30
0.0
  9
$UCSXDIR
 10
1.0
 20
0.0
 30
0.0
  9
$UCSYDIR
 10
0.0
 20
1.0
 30
0.0
  9
$UCSORTHOREF
  2

  9
$UCSORTHOVIEW
 70
     0
  9
$UCSORGTOP
 10
0.0
 20
0.0
 30
0.0
  9
$UCSORGBOTTOM
 10
0.0
 20
0.0
 30
0.0
  9
$UCSORGLEFT
 10
0.0
 20
0.0
 30
0.0
  9
$UCSORGRIGHT
 10
0.0
 20
0.0
 30
0.0
  9
$UCSORGFRONT
 10
0.0
 20
0.0
 30
0.0
  9
$UCSORGBACK
 10
0.0
 20
0.0
 30
0.0
  9
$PUCSBASE
  2

  9
$PUCSNAME
  2

  9
$PUCSORG
 10
0.0
 20
0.0
 30
0.0
  9
$PUCSXDIR
 10
1.0
 20
0.0
 30
0.0
  9
$PUCSYDIR
 10
0.0
 20
1.0
 30
0.0
  9
$PUCSORTHOREF
  2

  9
$PUCSORTHOVIEW
 70
     0
  9
$PUCSORGTOP
 10
0.0
 20
0.0
 30
0.0
  9
$PUCSORGBOTTOM
 10
0.0
 20
0.0
 30
0.0
  9
$PUCSORGLEFT
 10
0.0
 20
0.0
 30
0.0
  9
$PUCSORGRIGHT
 10
0.0
 20
0.0
 30
0.0
  9
$PUCSORGFRONT
 10
0.0
 20
0.0
 30
0.0
  9
$PUCSORGBACK
 10
0.0
 20
0.0
 30
0.0
  9
$USERI1
 70
     0
  9
$USERI2
 70
     0
  9
$USERI3
 70
     0
  9
$USERI4
 70
     0
  9
$USERI5
 70
     0
  9
$USERR1
 40
0.0
  9
$USERR2
 40
0.0
  9
$USERR3
 40
0.0
  9
$USERR4
 40
0.0
  9
$USERR5
 40
0.0
  9
$WORLDVIEW
 70
     1
  9
$SHADEDGE
 70
     3
  9
$SHADEDIF
 70
    70
  9
$TILEMODE
 70
     1
  9
$MAXACTVP
 70
    16
  9
$PINSBASE
 10
0.0
 20
0.0
 30
0.0
  9
$PLIMCHECK
 70
     0
  9
$PEXTMIN
 10
1.000000000000000E+20
 20
1.000000000000000E+20
 30
1.000000000000000E+20
  9
$PEXTMAX
 10
-1.000000000000000E+20
 20
-1.000000000000000E+20
 30
-1.000000000000000E+20
  9
$PLIMMIN
 10
0.0
 20
0.0
  9
$PLIMMAX
 10
420.0
 20
297.0
  9
$UNITMODE
 70
     0
  9
$VISRETAIN
 70
     0
  9
$PLINEGEN
 70
     0
  9
$PSLTSCALE
 70
     0
  9
$TREEDEPTH
 70
  3020
  9
$CMLSTYLE
  2
STANDARD
  9
$CMLJUST
 70
     0
  9
$CMLSCALE
 40
1.0
  9
$PROXYGRAPHICS
 70
     1
  9
$MEASUREMENT
 70
     1
  9
$CELWEIGHT
370
    -1
  9
$ENDCAPS
280
     0
  9
$JOINSTYLE
280
     0
  9
$LWDISPLAY
290
     0
  9
$INSUNITS
 70
     0
  9
$HYPERLINKBASE
  1

  9
$STYLESHEET
  1
inaba.ctb
  9
$XEDIT
290
     1
  9
$CEPSNTYPE
380
     0
  9
$PSTYLEMODE
290
     1
  9
$FINGERPRINTGUID
  2
{D6182669-FE0B-4E38-A4CA-6BB546AAADD1}
  9
$VERSIONGUID
  2
{36A19BFE-403C-420E-8DA7-9FFC3F3A0E79}
  9
$EXTNAMES
290
     1
  9
$PSVPSCALE
 40
0.0
  9
$OLESTARTUP
290
     0
  0
ENDSEC
  0
SECTION
  2
CLASSES
  0
CLASS
  1
DICTIONARYVAR
  2
AcDbDictionaryVar
  3
ObjectDBX Classes
 90
        0
280
     0
281
     0
  0
CLASS
  1
ACDBDICTIONARYWDFLT
  2
AcDbDictionaryWithDefault
  3
ObjectDBX Classes
 90
        0
280
     0
281
     0
  0
CLASS
  1
ACDBPLACEHOLDER
  2
AcDbPlaceHolder
  3
ObjectDBX Classes
 90
        0
280
     0
281
     0
  0
CLASS
  1
LAYOUT
  2
AcDbLayout
  3
ObjectDBX Classes
 90
        0
280
     0
281
     0
  0
ENDSEC
  0
SECTION
  2
TABLES
  0
TABLE
  2
VPORT
  5
746D
330
0
100
AcDbSymbolTable
 70
     3
  0
VPORT
  5
13993
330
746D
100
AcDbSymbolTableRecord
100
AcDbViewportTableRecord
  2
*Active
 70
     0
 10
0.0
 20
0.0
 11
1.0
 21
1.0
 12
8223.761025238502
 22
5704.608130720468
 13
0.0
 23
0.0
 14
10.0
 24
10.0
 15
10.0
 25
10.0
 16
0.0
 26
0.0
 36
1.0
 17
0.0
 27
0.0
 37
0.0
 40
11493.25225236195
 41
1.492753623188405
 42
50.0
 43
0.0
 44
0.0
 50
0.0
 51
0.0
 71
     0
 72
     0
 73
     1
 74
     0
 75
     0
 76
     0
 77
     0
 78
     0
281
     0
 65
     1
110
0.0
120
0.0
130
0.0
111
1.0
121
0.0
131
0.0
112
0.0
122
1.0
132
0.0
 79
     0
146
0.0
  0
ENDTAB
  0
TABLE
  2
LTYPE
  5
746A
330
0
100
AcDbSymbolTable
 70
     4
  0
LTYPE
  5
7477
330
746A
100
AcDbSymbolTableRecord
100
AcDbLinetypeTableRecord
  2
BYBLOCK
 70
     0
  3

 72
    65
 73
     0
 40
0.0
  0
LTYPE
  5
7478
330
746A
100
AcDbSymbolTableRecord
100
AcDbLinetypeTableRecord
  2
BYLAYER
 70
     0
  3

 72
    65
 73
     0
 40
0.0
  0
LTYPE
  5
7479
330
746A
100
AcDbSymbolTableRecord
100
AcDbLinetypeTableRecord
  2
CONTINUOUS
 70
     0
  3
Solid line
 72
    65
 73
     0
 40
0.0
  0
LTYPE
  5
7816
330
746A
100
AcDbSymbolTableRecord
100
AcDbLinetypeTableRecord
  2
CENTER
 70
     0
  3
____ _ ____ _ ____ _ ____ _ ____ _ ____ _ ____ 
 72
    65
 73
     4
 40
2.0
 49
1.25
 74
     0
 49
-0.25
 74
     0
 49
0.25
 74
     0
 49
-0.25
 74
     0
  0
LTYPE
  5
781A
330
746A
100
AcDbSymbolTableRecord
100
AcDbLinetypeTableRecord
  2
HIDDEN
 70
     0
  3
__ __ __ __ __ __ __ __ __ __ __ __ __ __ __ __
 72
    65
 73
     2
 40
0.375
 49
0.25
 74
     0
 49
-0.125
 74
     0
  0
LTYPE
  5
781B
330
746A
100
AcDbSymbolTableRecord
100
AcDbLinetypeTableRecord
  2
PHANTOM
 70
     0
  3
______  __  __  ______  __  __  ______  __  __ 
 72
    65
 73
     6
 40
2.5
 49
1.25
 74
     0
 49
-0.25
 74
     0
 49
0.25
 74
     0
 49
-0.25
 74
     0
 49
0.25
 74
     0
 49
-0.25
 74
     0
  0
ENDTAB
  0
TABLE
  2
LAYER
  5
7467
330
0
100
AcDbSymbolTable
 70
    12
  0
LAYER
  5
7474
330
7467
100
AcDbSymbolTableRecord
100
AcDbLayerTableRecord
  2
0
 70
     0
 62
     7
  6
CONTINUOUS
370
    -3
390
12F9A
  0
LAYER
  5
DEB2
330
7467
100
AcDbSymbolTableRecord
100
AcDbLayerTableRecord
  2
センター
 70
     0
 62
     3
  6
CENTER
370
    -3
390
12F9A
  0
LAYER
  5
DEB3
330
7467
100
AcDbSymbolTableRecord
100
AcDbLayerTableRecord
  2
寸法
 70
     0
 62
     4
  6
CONTINUOUS
370
    -3
390
12F9A
  0
LAYER
  5
DEB4
330
7467
100
AcDbSymbolTableRecord
100
AcDbLayerTableRecord
  2
部品1
 70
     0
 62
     7
  6
CONTINUOUS
370
    -3
390
12F9A
  0
LAYER
  5
DEB5
330
7467
100
AcDbSymbolTableRecord
100
AcDbLayerTableRecord
  2
補助
 70
     0
 62
    -1
  6
CONTINUOUS
370
    -3
390
12F9A
  0
LAYER
  5
DEB6
330
7467
100
AcDbSymbolTableRecord
100
AcDbLayerTableRecord
  2
文字
 70
     0
 62
     7
  6
CONTINUOUS
370
    -3
390
12F9A
  0
LAYER
  5
F255
330
7467
100
AcDbSymbolTableRecord
100
AcDbLayerTableRecord
  2
DEFPOINTS
 70
     0
 62
     7
  6
CONTINUOUS
290
     0
370
    -3
390
12F9A
  0
LAYER
  5
10B54
330
7467
100
AcDbSymbolTableRecord
100
AcDbLayerTableRecord
  2
仕様書枠
 70
     0
 62
   230
  6
CONTINUOUS
370
    -3
390
12F9A
  0
LAYER
  5
11729
330
7467
100
AcDbSymbolTableRecord
100
AcDbLayerTableRecord
  2
Ｇ．Ｌ
 70
     0
 62
   230
  6
CONTINUOUS
370
    -3
390
12F9A
  0
LAYER
  5
1173F
330
7467
100
AcDbSymbolTableRecord
100
AcDbLayerTableRecord
  2
細線
 70
     0
 62
     6
  6
CONTINUOUS
370
    -3
390
12F9A
  0
LAYER
  5
11740
330
7467
100
AcDbSymbolTableRecord
100
AcDbLayerTableRecord
  2
点線
 70
     0
 62
     2
  6
HIDDEN
370
    -3
390
12F9A
  0
LAYER
  5
11FF2
330
7467
100
AcDbSymbolTableRecord
100
AcDbLayerTableRecord
  2
想像線
 70
     0
 62
     6
  6
PHANTOM
370
    -3
390
12F9A
  0
ENDTAB
  0
TABLE
  2
STYLE
  5
7468
330
0
100
AcDbSymbolTable
 70
     5
  0
STYLE
  5
7475
330
7468
100
AcDbSymbolTableRecord
100
AcDbTextStyleTableRecord
  2
STANDARD
 70
     0
 40
0.0
 41
1.0
 50
0.0
 71
     0
 42
4.0
  3
txt
  4
C:\AutoCAD LT\bigfont.shx
  0
STYLE
  5
F706
330
7468
100
AcDbSymbolTableRecord
100
AcDbTextStyleTableRecord
  2
STYLE1
 70
     0
 40
0.0
 41
1.0
 50
0.0
 71
     0
 42
4.0
  3
isocp.shx
  4
bigfont.shx
  0
STYLE
  5
103BF
330
7468
100
AcDbSymbolTableRecord
100
AcDbTextStyleTableRecord
  2
STYLE2
 70
     0
 40
0.0
 41
1.0
 50
0.0
 71
     0
 42
100.0
  3
MS PGothic.ttf
  4

1001
ACAD
1000
MS PGothic
1071
    32818
  0
STYLE
  5
10BAA
330
7468
100
AcDbSymbolTableRecord
100
AcDbTextStyleTableRecord
  2
STYLE3
 70
     0
 40
0.0
 41
1.0
 50
0.0
 71
     0
 42
100.0
  3
DFPGothic-EB.ttf
  4

1001
ACAD
1000
DFPGothic-EB
1071
    32818
  0
STYLE
  5
12CBF
330
7468
100
AcDbSymbolTableRecord
100
AcDbTextStyleTableRecord
  2
ISOCP
 70
     0
 40
0.0
 41
1.0
 50
0.0
 71
     0
 42
120.0
  3
isocp.shx
  4
bigfont.shx
  0
ENDTAB
  0
TABLE
  2
VIEW
  5
746B
330
0
100
AcDbSymbolTable
 70
     0
  0
ENDTAB
  0
TABLE
  2
UCS
  5
746C
330
0
100
AcDbSymbolTable
 70
     0
  0
ENDTAB
  0
TABLE
  2
APPID
  5
746E
330
0
100
AcDbSymbolTable
 70
     6
  0
APPID
  5
7476
330
746E
100
AcDbSymbolTableRecord
100
AcDbRegAppTableRecord
  2
ACAD
 70
     0
  0
APPID
  5
DEA9
330
746E
100
AcDbSymbolTableRecord
100
AcDbRegAppTableRecord
  2
CONTENTBLOCKICON
 70
     0
  0
APPID
  5
DEAA
330
746E
100
AcDbSymbolTableRecord
100
AcDbRegAppTableRecord
  2
CONTENTBLOCKDESCRIPTION
 70
     0
  0
APPID
  5
E71D
330
746E
100
AcDbSymbolTableRecord
100
AcDbRegAppTableRecord
  2
CONTENTTABDATA
 70
     0
  0
APPID
  5
E71E
330
746E
100
AcDbSymbolTableRecord
100
AcDbRegAppTableRecord
  2
CONTENTCURRENTTAB
 70
     0
  0
APPID
  5
F3BA
330
746E
100
AcDbSymbolTableRecord
100
AcDbRegAppTableRecord
  2
DRAWINGVARIABLESXDATA
 70
     0
  0
ENDTAB
  0
TABLE
  2
DIMSTYLE
  5
746F
330
0
100
AcDbSymbolTable
 70
     5
100
AcDbDimStyleTable
 71
     0
  0
DIMSTYLE
105
7484
330
746F
100
AcDbSymbolTableRecord
100
AcDbDimStyleTableRecord
  2
JIS
 70
     0
 41
2.5
 42
1.0
 43
7.0
 44
1.0
 73
     0
 74
     0
 77
     1
 78
     8
140
2.5
141
0.0
143
0.0394
147
0.0
172
     1
174
     1
175
     1
340
7475
  0
DIMSTYLE
105
F236
330
746F
100
AcDbSymbolTableRecord
100
AcDbDimStyleTableRecord
  2
INABA_S40
 70
     0
 40
40.0
 41
2.5
 42
0.5
 43
7.0
 44
1.5
 73
     0
 74
     0
 77
     3
 78
     8
140
3.0
141
0.0
143
0.0394
147
1.0
172
     1
173
     1
174
     1
175
     1
178
     7
289
     0
340
7475
341
DEAC
343
DEAC
344
DEAC
  0
DIMSTYLE
105
F71F
102
{ACAD_REACTORS
330
1187A
330
11886
330
11892
330
1189E
330
118AB
330
118B8
330
118C5
330
118DA
330
118E6
330
1190F
330
11934
330
121B9
330
121B8
330
12228
330
1222E
330
1222B
330
12291
102
}
330
746F
100
AcDbSymbolTableRecord
100
AcDbDimStyleTableRecord
  2
INABA_S40G
 70
     0
 40
40.0
 41
2.5
 42
0.5
 43
7.0
 44
1.5
 73
     0
 74
     0
 77
     3
 78
     8
140
3.0
141
0.0
143
0.0394
147
1.0
172
     1
173
     1
174
     1
178
     7
271
     1
340
F706
341
F770
343
F770
344
F770
  0
DIMSTYLE
105
11FF3
330
746F
100
AcDbSymbolTableRecord
100
AcDbDimStyleTableRecord
  2
INABA_S50G
 70
     0
 41
125.0
 42
25.0
 43
7.0
 44
75.0
 73
     0
 74
     0
 77
     3
 78
     8
140
150.0
141
0.0
143
0.0394
147
25.0
172
     1
173
     1
174
     1
178
     7
271
     1
340
F706
341
F770
343
F770
344
F770
  0
DIMSTYLE
105
13040
102
{ACAD_REACTORS
330
13844
330
1384D
330
1384F
330
13859
330
1385D
330
1385E
330
13860
102
}
330
746F
100
AcDbSymbolTableRecord
100
AcDbDimStyleTableRecord
  2
INABA_S40G詳細用20
 70
     0
 40
40.0
 41
2.5
 42
0.5
 43
7.0
 44
1.5
 73
     0
 74
     0
 77
     3
 78
     8
140
3.0
141
0.0
143
0.0394
144
0.5
147
1.0
172
     1
173
     1
174
     1
178
     7
271
     0
272
     0
340
F706
341
F770
343
F770
344
F770
  0
ENDTAB
  0
TABLE
  2
BLOCK_RECORD
  5
7466
330
0
100
AcDbSymbolTable
 70
    70
  0
BLOCK_RECORD
  5
747D
330
7466
100
AcDbSymbolTableRecord
100
AcDbBlockTableRecord
  2
*MODEL_SPACE
340
12F9F
  0
BLOCK_RECORD
  5
747A
330
7466
100
AcDbSymbolTableRecord
100
AcDbBlockTableRecord
  2
*PAPER_SPACE
340
12FA0
  0
BLOCK_RECORD
  5
DEAC
330
7466
100
AcDbSymbolTableRecord
100
AcDbBlockTableRecord
  2
_OPEN
340
0
  0
BLOCK_RECORD
  5
F770
330
7466
100
AcDbSymbolTableRecord
100
AcDbBlockTableRecord
  2
_DOTSMALL
340
0
102
{BLKREFS
331
12413
331
12414
331
12427
331
12428
331
1244F
331
12450
331
12445
331
12446
331
1227F
331
12280
331
12C1F
331
12C20
331
12C35
331
12C36
331
120DD
331
120DE
331
12470
331
12471
331
120F3
331
120F4
331
12486
331
12487
331
121E7
331
121E8
331
121DC
331
121DD
331
12C40
331
12C41
331
12C5A
331
12C5B
331
12C4D
331
12C4E
331
122A2
331
122A3
331
131FE
331
131FF
331
13207
331
13208
331
13210
331
13211
331
13219
331
1321A
331
13222
331
13223
331
1322B
331
1322C
331
13236
331
13237
331
13296
331
13297
331
132A2
331
132A3
331
1326F
331
13270
331
1327B
331
1327C
331
13263
331
13264
331
13257
331
13258
331
13289
331
1328A
331
1347C
331
1347D
331
13485
331
13486
331
1348E
331
1348F
331
13497
331
13498
331
134A0
331
134A1
331
134A9
331
134AA
331
134B4
331
134B5
331
134EE
331
134D5
331
134D6
331
134C9
331
134CA
331
134FB
331
134FC
331
13508
331
13509
331
13514
331
13515
331
134E1
331
134E2
331
134ED
331
136EC
331
136ED
331
136F5
331
136F6
331
136FE
331
136FF
331
13707
331
13708
331
13710
331
13711
331
13719
331
1371A
331
13724
331
13725
331
1376E
331
1376F
331
1377A
331
1377B
331
13747
331
13748
331
13753
331
13754
331
1373B
331
1373C
331
1372F
331
13730
331
13761
331
13762
331
13952
331
13953
331
1395B
331
1395C
331
13964
331
13965
331
1396D
331
1396E
331
13976
331
13977
331
1397F
331
13980
331
1398A
331
1398B
102
}
  0
BLOCK_RECORD
  5
1186E
330
7466
100
AcDbSymbolTableRecord
100
AcDbBlockTableRecord
  2
*D2
340
0
  0
BLOCK_RECORD
  5
1187B
330
7466
100
AcDbSymbolTableRecord
100
AcDbBlockTableRecord
  2
*D3
340
0
  0
BLOCK_RECORD
  5
11887
330
7466
100
AcDbSymbolTableRecord
100
AcDbBlockTableRecord
  2
*D4
340
0
  0
BLOCK_RECORD
  5
11893
330
7466
100
AcDbSymbolTableRecord
100
AcDbBlockTableRecord
  2
*D5
340
0
  0
BLOCK_RECORD
  5
1189F
330
7466
100
AcDbSymbolTableRecord
100
AcDbBlockTableRecord
  2
*D6
340
0
  0
BLOCK_RECORD
  5
118AC
330
7466
100
AcDbSymbolTableRecord
100
AcDbBlockTableRecord
  2
*D7
340
0
  0
BLOCK_RECORD
  5
118B9
330
7466
100
AcDbSymbolTableRecord
100
AcDbBlockTableRecord
  2
*D8
340
0
  0
BLOCK_RECORD
  5
118D1
330
7466
100
AcDbSymbolTableRecord
100
AcDbBlockTableRecord
  2
*D9
340
0
  0
BLOCK_RECORD
  5
118DB
330
7466
100
AcDbSymbolTableRecord
100
AcDbBlockTableRecord
  2
*D10
340
0
  0
BLOCK_RECORD
  5
11906
330
7466
100
AcDbSymbolTableRecord
100
AcDbBlockTableRecord
  2
*D11
340
0
  0
BLOCK_RECORD
  5
11928
330
7466
100
AcDbSymbolTableRecord
100
AcDbBlockTableRecord
  2
*D12
340
0
  0
BLOCK_RECORD
  5
121CB
330
7466
100
AcDbSymbolTableRecord
100
AcDbBlockTableRecord
  2
*D13
340
0
  0
BLOCK_RECORD
  5
121D7
330
7466
100
AcDbSymbolTableRecord
100
AcDbBlockTableRecord
  2
*D14
340
0
  0
BLOCK_RECORD
  5
1222F
330
7466
100
AcDbSymbolTableRecord
100
AcDbBlockTableRecord
  2
*D15
340
0
  0
BLOCK_RECORD
  5
1223B
330
7466
100
AcDbSymbolTableRecord
100
AcDbBlockTableRecord
  2
*D16
340
0
  0
BLOCK_RECORD
  5
12249
330
7466
100
AcDbSymbolTableRecord
100
AcDbBlockTableRecord
  2
*D17
340
0
  0
BLOCK_RECORD
  5
12292
330
7466
100
AcDbSymbolTableRecord
100
AcDbBlockTableRecord
  2
*D18
340
0
  0
BLOCK_RECORD
  5
13421
330
7466
100
AcDbSymbolTableRecord
100
AcDbBlockTableRecord
  2
*D33
340
0
  0
BLOCK_RECORD
  5
1342E
330
7466
100
AcDbSymbolTableRecord
100
AcDbBlockTableRecord
  2
*D34
340
0
  0
BLOCK_RECORD
  5
1343A
330
7466
100
AcDbSymbolTableRecord
100
AcDbBlockTableRecord
  2
*D35
340
0
  0
BLOCK_RECORD
  5
13446
330
7466
100
AcDbSymbolTableRecord
100
AcDbBlockTableRecord
  2
*D36
340
0
  0
BLOCK_RECORD
  5
13452
330
7466
100
AcDbSymbolTableRecord
100
AcDbBlockTableRecord
  2
*D37
340
0
  0
BLOCK_RECORD
  5
1345E
330
7466
100
AcDbSymbolTableRecord
100
AcDbBlockTableRecord
  2
*D38
340
0
  0
BLOCK_RECORD
  5
1346A
330
7466
100
AcDbSymbolTableRecord
100
AcDbBlockTableRecord
  2
*D39
340
0
  0
BLOCK_RECORD
  5
134C4
330
7466
100
AcDbSymbolTableRecord
100
AcDbBlockTableRecord
  2
*D40
340
0
  0
BLOCK_RECORD
  5
134D0
330
7466
100
AcDbSymbolTableRecord
100
AcDbBlockTableRecord
  2
*D41
340
0
  0
BLOCK_RECORD
  5
134DC
330
7466
100
AcDbSymbolTableRecord
100
AcDbBlockTableRecord
  2
*D42
340
0
  0
BLOCK_RECORD
  5
134E8
330
7466
100
AcDbSymbolTableRecord
100
AcDbBlockTableRecord
  2
*D43
340
0
  0
BLOCK_RECORD
  5
134F4
330
7466
100
AcDbSymbolTableRecord
100
AcDbBlockTableRecord
  2
*D44
340
0
  0
BLOCK_RECORD
  5
13502
330
7466
100
AcDbSymbolTableRecord
100
AcDbBlockTableRecord
  2
*D45
340
0
  0
BLOCK_RECORD
  5
1350F
330
7466
100
AcDbSymbolTableRecord
100
AcDbBlockTableRecord
  2
*D46
340
0
  0
BLOCK_RECORD
  5
13691
330
7466
100
AcDbSymbolTableRecord
100
AcDbBlockTableRecord
  2
*D48
340
0
  0
BLOCK_RECORD
  5
1369E
330
7466
100
AcDbSymbolTableRecord
100
AcDbBlockTableRecord
  2
*D49
340
0
  0
BLOCK_RECORD
  5
136AA
330
7466
100
AcDbSymbolTableRecord
100
AcDbBlockTableRecord
  2
*D50
340
0
  0
BLOCK_RECORD
  5
136B6
330
7466
100
AcDbSymbolTableRecord
100
AcDbBlockTableRecord
  2
*D51
340
0
  0
BLOCK_RECORD
  5
136C2
330
7466
100
AcDbSymbolTableRecord
100
AcDbBlockTableRecord
  2
*D52
340
0
  0
BLOCK_RECORD
  5
136CE
330
7466
100
AcDbSymbolTableRecord
100
AcDbBlockTableRecord
  2
*D53
340
0
  0
BLOCK_RECORD
  5
136DA
330
7466
100
AcDbSymbolTableRecord
100
AcDbBlockTableRecord
  2
*D54
340
0
  0
BLOCK_RECORD
  5
1372A
330
7466
100
AcDbSymbolTableRecord
100
AcDbBlockTableRecord
  2
*D55
340
0
  0
BLOCK_RECORD
  5
13736
330
7466
100
AcDbSymbolTableRecord
100
AcDbBlockTableRecord
  2
*D56
340
0
  0
BLOCK_RECORD
  5
13742
330
7466
100
AcDbSymbolTableRecord
100
AcDbBlockTableRecord
  2
*D57
340
0
  0
BLOCK_RECORD
  5
1374E
330
7466
100
AcDbSymbolTableRecord
100
AcDbBlockTableRecord
  2
*D58
340
0
  0
BLOCK_RECORD
  5
1375A
330
7466
100
AcDbSymbolTableRecord
100
AcDbBlockTableRecord
  2
*D59
340
0
  0
BLOCK_RECORD
  5
13768
330
7466
100
AcDbSymbolTableRecord
100
AcDbBlockTableRecord
  2
*D60
340
0
  0
BLOCK_RECORD
  5
13775
330
7466
100
AcDbSymbolTableRecord
100
AcDbBlockTableRecord
  2
*D61
340
0
  0
BLOCK_RECORD
  5
138F7
330
7466
100
AcDbSymbolTableRecord
100
AcDbBlockTableRecord
  2
*D63
340
0
  0
BLOCK_RECORD
  5
13904
330
7466
100
AcDbSymbolTableRecord
100
AcDbBlockTableRecord
  2
*D64
340
0
  0
BLOCK_RECORD
  5
13910
330
7466
100
AcDbSymbolTableRecord
100
AcDbBlockTableRecord
  2
*D65
340
0
  0
BLOCK_RECORD
  5
1391C
330
7466
100
AcDbSymbolTableRecord
100
AcDbBlockTableRecord
  2
*D66
340
0
  0
BLOCK_RECORD
  5
13928
330
7466
100
AcDbSymbolTableRecord
100
AcDbBlockTableRecord
  2
*D67
340
0
  0
BLOCK_RECORD
  5
13934
330
7466
100
AcDbSymbolTableRecord
100
AcDbBlockTableRecord
  2
*D68
340
0
  0
BLOCK_RECORD
  5
13940
330
7466
100
AcDbSymbolTableRecord
100
AcDbBlockTableRecord
  2
*D69
340
0
  0
ENDTAB
  0
ENDSEC
  0
SECTION
  2
BLOCKS
  0
BLOCK
  5
7489
330
747D
100
AcDbEntity
  8
0
100
AcDbBlockBegin
  2
*MODEL_SPACE
 70
     0
 10
0.0
 20
0.0
 30
0.0
  3
*MODEL_SPACE
  1

  0
ENDBLK
  5
748A
330
747D
100
AcDbEntity
  8
0
100
AcDbBlockEnd
  0
BLOCK
  5
7487
330
747A
100
AcDbEntity
 67
     1
  8
0
100
AcDbBlockBegin
  2
*PAPER_SPACE
 70
     0
 10
0.0
 20
0.0
 30
0.0
  3
*PAPER_SPACE
  1

  0
ENDBLK
  5
7488
330
747A
100
AcDbEntity
 67
     1
  8
0
100
AcDbBlockEnd
  0
BLOCK
  5
DEAD
330
DEAC
100
AcDbEntity
  8
0
100
AcDbBlockBegin
  2
_OPEN
 70
     0
 10
0.0
 20
0.0
 30
0.0
  3
_OPEN
  1

  0
LINE
  5
DEAE
330
DEAC
100
AcDbEntity
  8
0
  6
ByBlock
 62
     0
100
AcDbLine
 10
-1.0
 20
0.1666666666666666
 30
0.0
 11
0.0
 21
0.0
 31
0.0
  0
LINE
  5
DEAF
330
DEAC
100
AcDbEntity
  8
0
  6
ByBlock
 62
     0
100
AcDbLine
 10
0.0
 20
0.0
 30
0.0
 11
-1.0
 21
-0.1666666666666666
 31
0.0
  0
LINE
  5
DEB0
330
DEAC
100
AcDbEntity
  8
0
  6
ByBlock
 62
     0
100
AcDbLine
 10
0.0
 20
0.0
 30
0.0
 11
-1.0
 21
0.0
 31
0.0
  0
ENDBLK
  5
DEB1
330
DEAC
100
AcDbEntity
  8
0
100
AcDbBlockEnd
  0
BLOCK
  5
F771
330
F770
100
AcDbEntity
  8
0
 48
50.0
100
AcDbBlockBegin
  2
_DOTSMALL
 70
     0
 10
0.0
 20
0.0
 30
0.0
  3
_DOTSMALL
  1

  0
LWPOLYLINE
  5
F772
330
F770
100
AcDbEntity
  8
0
  6
ByBlock
 62
     0
 48
50.0
100
AcDbPolyline
 90
        2
 70
     1
 43
0.5
 10
-0.0625
 20
0.0
 42
1.0
 10
0.0625
 20
0.0
 42
1.0
  0
ENDBLK
  5
F776
330
F770
100
AcDbEntity
  8
0
 48
50.0
100
AcDbBlockEnd
  0
BLOCK
  5
1240F
330
1186E
100
AcDbEntity
  8
0
 48
50.0
100
AcDbBlockBegin
  2
*D2
 70
     1
 10
0.0
 20
0.0
 30
0.0
  3
*D2
  1

  0
LINE
  5
12410
330
1186E
100
AcDbEntity
  8
0
  6
ByBlock
 62
     0
 48
50.0
100
AcDbLine
 10
1755.156574488159
 20
10206.74038870937
 30
0.0
 11
1272.662301917393
 21
10206.74038870937
 31
0.0
  0
LINE
  5
12411
330
1186E
100
AcDbEntity
  8
0
  6
ByBlock
 62
     0
 48
50.0
100
AcDbLine
 10
1705.156574488159
 20
9286.740388709375
 30
0.0
 11
1272.662301917393
 21
9286.740388709375
 31
0.0
  0
LINE
  5
12412
330
1186E
100
AcDbEntity
  8
0
  6
ByBlock
 62
     0
 48
50.0
100
AcDbLine
 10
1332.662301917393
 20
10206.74038870937
 30
0.0
 11
1332.662301917393
 21
9286.740388709375
 31
0.0
  0
INSERT
  5
12413
330
1186E
100
AcDbEntity
  8
0
  6
ByBlock
 62
     0
 48
50.0
100
AcDbBlockReference
  2
_DOTSMALL
 10
1332.662301917393
 20
10206.74038870937
 30
0.0
 41
100.0
 42
100.0
 43
100.0
 50
90.0
  0
INSERT
  5
12414
330
1186E
100
AcDbEntity
  8
0
  6
ByBlock
 62
     0
 48
50.0
100
AcDbBlockReference
  2
_DOTSMALL
 10
1332.662301917393
 20
9286.740388709375
 30
0.0
 41
100.0
 42
100.0
 43
100.0
 50
270.0
  0
MTEXT
  5
12415
330
1186E
100
AcDbEntity
  8
0
  6
ByBlock
 62
     7
 48
50.0
100
AcDbMText
 10
1232.621489352589
 20
9746.740388709376
 30
0.0
 40
120.0
 41
0.0
 71
     5
 72
     1
  1
\A1;920
  7
STYLE1
 11
0.0000000000000001
 21
1.0
 31
0.0
 73
     1
 44
1.0
1001
ACAD
1000
MTEXTBEGIN
1070
    73
1070
     1
1070
    44
1040
1.0
1070
    74
1070
     0
1000
MTEXTEND
  0
POINT
  5
12416
330
1186E
100
AcDbEntity
  8
DEFPOINTS
  6
ByBlock
 62
     0
 48
50.0
100
AcDbPoint
 10
1775.156574488159
 20
10206.74038870937
 30
0.0
  0
POINT
  5
12417
330
1186E
100
AcDbEntity
  8
DEFPOINTS
  6
ByBlock
 62
     0
 48
50.0
100
AcDbPoint
 10
1725.156574488159
 20
9286.740388709375
 30
0.0
  0
POINT
  5
12418
330
1186E
100
AcDbEntity
  8
DEFPOINTS
  6
ByBlock
 62
     0
 48
50.0
100
AcDbPoint
 10
1332.662301917393
 20
9286.740388709375
 30
0.0
  0
ENDBLK
  5
12419
330
1186E
100
AcDbEntity
  8
0
 48
50.0
100
AcDbBlockEnd
  0
BLOCK
  5
12424
330
1187B
100
AcDbEntity
  8
0
 48
50.0
100
AcDbBlockBegin
  2
*D3
 70
     1
 10
0.0
 20
0.0
 30
0.0
  3
*D3
  1

  0
LINE
  5
12425
330
1187B
100
AcDbEntity
  8
0
  6
ByBlock
 62
     0
 48
50.0
100
AcDbLine
 10
1705.156574488159
 20
7636.740388709377
 30
0.0
 11
1272.662301917393
 21
7636.740388709377
 31
0.0
  0
LINE
  5
12426
330
1187B
100
AcDbEntity
  8
0
  6
ByBlock
 62
     0
 48
50.0
100
AcDbLine
 10
1332.662301917393
 20
9286.740388709375
 30
0.0
 11
1332.662301917393
 21
7636.740388709377
 31
0.0
  0
INSERT
  5
12427
330
1187B
100
AcDbEntity
  8
0
  6
ByBlock
 62
     0
 48
50.0
100
AcDbBlockReference
  2
_DOTSMALL
 10
1332.662301917393
 20
9286.740388709375
 30
0.0
 41
100.0
 42
100.0
 43
100.0
 50
90.0
  0
INSERT
  5
12428
330
1187B
100
AcDbEntity
  8
0
  6
ByBlock
 62
     0
 48
50.0
100
AcDbBlockReference
  2
_DOTSMALL
 10
1332.662301917393
 20
7636.740388709377
 30
0.0
 41
100.0
 42
100.0
 43
100.0
 50
270.0
  0
MTEXT
  5
12429
330
1187B
100
AcDbEntity
  8
0
  6
ByBlock
 62
     7
 48
50.0
100
AcDbMText
 10
1232.662301917393
 20
8461.740388709376
 30
0.0
 40
120.0
 41
0.0
 71
     5
 72
     1
  1
\A1;1650
  7
STYLE1
 11
0.0000000000000001
 21
1.0
 31
0.0
 73
     1
 44
1.0
1001
ACAD
1000
MTEXTBEGIN
1070
    73
1070
     1
1070
    44
1040
1.0
1070
    74
1070
     0
1000
MTEXTEND
  0
POINT
  5
1242A
330
1187B
100
AcDbEntity
  8
DEFPOINTS
  6
ByBlock
 62
     0
 48
50.0
100
AcDbPoint
 10
1725.156574488159
 20
9286.740388709375
 30
0.0
  0
POINT
  5
1242B
330
1187B
100
AcDbEntity
  8
DEFPOINTS
  6
ByBlock
 62
     0
 48
50.0
100
AcDbPoint
 10
1725.156574488159
 20
7636.740388709377
 30
0.0
  0
POINT
  5
1242C
330
1187B
100
AcDbEntity
  8
DEFPOINTS
  6
ByBlock
 62
     0
 48
50.0
100
AcDbPoint
 10
1332.662301917393
 20
7636.740388709377
 30
0.0
  0
ENDBLK
  5
1242D
330
1187B
100
AcDbEntity
  8
0
 48
50.0
100
AcDbBlockEnd
  0
BLOCK
  5
1244C
330
11887
100
AcDbEntity
  8
0
 48
50.0
100
AcDbBlockBegin
  2
*D4
 70
     1
 10
0.0
 20
0.0
 30
0.0
  3
*D4
  1

  0
LINE
  5
1244D
330
11887
100
AcDbEntity
  8
0
  6
ByBlock
 62
     0
 48
50.0
100
AcDbLine
 10
1705.156574488159
 20
5986.740388709378
 30
0.0
 11
1272.662301917393
 21
5986.740388709378
 31
0.0
  0
LINE
  5
1244E
330
11887
100
AcDbEntity
  8
0
  6
ByBlock
 62
     0
 48
50.0
100
AcDbLine
 10
1332.662301917393
 20
7636.740388709377
 30
0.0
 11
1332.662301917393
 21
5986.740388709378
 31
0.0
  0
INSERT
  5
1244F
330
11887
100
AcDbEntity
  8
0
  6
ByBlock
 62
     0
 48
50.0
100
AcDbBlockReference
  2
_DOTSMALL
 10
1332.662301917393
 20
7636.740388709377
 30
0.0
 41
100.0
 42
100.0
 43
100.0
 50
90.0
  0
INSERT
  5
12450
330
11887
100
AcDbEntity
  8
0
  6
ByBlock
 62
     0
 48
50.0
100
AcDbBlockReference
  2
_DOTSMALL
 10
1332.662301917393
 20
5986.740388709378
 30
0.0
 41
100.0
 42
100.0
 43
100.0
 50
270.0
  0
MTEXT
  5
12451
330
11887
100
AcDbEntity
  8
0
  6
ByBlock
 62
     7
 48
50.0
100
AcDbMText
 10
1232.662301917393
 20
6811.740388709377
 30
0.0
 40
120.0
 41
0.0
 71
     5
 72
     1
  1
\A1;1650
  7
STYLE1
 11
0.0000000000000001
 21
1.0
 31
0.0
 73
     1
 44
1.0
1001
ACAD
1000
MTEXTBEGIN
1070
    73
1070
     1
1070
    44
1040
1.0
1070
    74
1070
     0
1000
MTEXTEND
  0
POINT
  5
12452
330
11887
100
AcDbEntity
  8
DEFPOINTS
  6
ByBlock
 62
     0
 48
50.0
100
AcDbPoint
 10
1725.156574488159
 20
7636.740388709377
 30
0.0
  0
POINT
  5
12453
330
11887
100
AcDbEntity
  8
DEFPOINTS
  6
ByBlock
 62
     0
 48
50.0
100
AcDbPoint
 10
1725.156574488159
 20
5986.740388709378
 30
0.0
  0
POINT
  5
12454
330
11887
100
AcDbEntity
  8
DEFPOINTS
  6
ByBlock
 62
     0
 48
50.0
100
AcDbPoint
 10
1332.662301917393
 20
5986.740388709378
 30
0.0
  0
ENDBLK
  5
12455
330
11887
100
AcDbEntity
  8
0
 48
50.0
100
AcDbBlockEnd
  0
BLOCK
  5
12442
330
11893
100
AcDbEntity
  8
0
 48
50.0
100
AcDbBlockBegin
  2
*D5
 70
     1
 10
0.0
 20
0.0
 30
0.0
  3
*D5
  1

  0
LINE
  5
12443
330
11893
100
AcDbEntity
  8
0
  6
ByBlock
 62
     0
 48
50.0
100
AcDbLine
 10
1755.156574488159
 20
5066.740388709376
 30
0.0
 11
1272.662301917393
 21
5066.740388709376
 31
0.0
  0
LINE
  5
12444
330
11893
100
AcDbEntity
  8
0
  6
ByBlock
 62
     0
 48
50.0
100
AcDbLine
 10
1332.662301917393
 20
5986.740388709378
 30
0.0
 11
1332.662301917393
 21
5066.740388709376
 31
0.0
  0
INSERT
  5
12445
330
11893
100
AcDbEntity
  8
0
  6
ByBlock
 62
     0
 48
50.0
100
AcDbBlockReference
  2
_DOTSMALL
 10
1332.662301917393
 20
5986.740388709378
 30
0.0
 41
100.0
 42
100.0
 43
100.0
 50
90.0
  0
INSERT
  5
12446
330
11893
100
AcDbEntity
  8
0
  6
ByBlock
 62
     0
 48
50.0
100
AcDbBlockReference
  2
_DOTSMALL
 10
1332.662301917393
 20
5066.740388709376
 30
0.0
 41
100.0
 42
100.0
 43
100.0
 50
270.0
  0
MTEXT
  5
12447
330
11893
100
AcDbEntity
  8
0
  6
ByBlock
 62
     7
 48
50.0
100
AcDbMText
 10
1232.621489352589
 20
5526.740388709377
 30
0.0
 40
120.0
 41
0.0
 71
     5
 72
     1
  1
\A1;920
  7
STYLE1
 11
0.0000000000000001
 21
1.0
 31
0.0
 73
     1
 44
1.0
1001
ACAD
1000
MTEXTBEGIN
1070
    73
1070
     1
1070
    44
1040
1.0
1070
    74
1070
     0
1000
MTEXTEND
  0
POINT
  5
12448
330
11893
100
AcDbEntity
  8
DEFPOINTS
  6
ByBlock
 62
     0
 48
50.0
100
AcDbPoint
 10
1725.156574488159
 20
5986.740388709378
 30
0.0
  0
POINT
  5
12449
330
11893
100
AcDbEntity
  8
DEFPOINTS
  6
ByBlock
 62
     0
 48
50.0
100
AcDbPoint
 10
1775.156574488159
 20
5066.740388709376
 30
0.0
  0
POINT
  5
1244A
330
11893
100
AcDbEntity
  8
DEFPOINTS
  6
ByBlock
 62
     0
 48
50.0
100
AcDbPoint
 10
1332.662301917393
 20
5066.740388709376
 30
0.0
  0
ENDBLK
  5
1244B
330
11893
100
AcDbEntity
  8
0
 48
50.0
100
AcDbBlockEnd
  0
BLOCK
  5
1227B
330
1189F
100
AcDbEntity
  8
0
 48
50.0
100
AcDbBlockBegin
  2
*D6
 70
     1
 10
0.0
 20
0.0
 30
0.0
  3
*D6
  1

  0
LINE
  5
1227C
330
1189F
100
AcDbEntity
  8
0
  6
ByBlock
 62
     0
 48
50.0
100
AcDbLine
 10
1755.156574488159
 20
10206.74038870937
 30
0.0
 11
827.1714181898571
 21
10206.74038870937
 31
0.0
  0
LINE
  5
1227D
330
1189F
100
AcDbEntity
  8
0
  6
ByBlock
 62
     0
 48
50.0
100
AcDbLine
 10
1755.156574488159
 20
5066.740388709376
 30
0.0
 11
827.171418189857
 21
5066.740388709376
 31
0.0
  0
LINE
  5
1227E
330
1189F
100
AcDbEntity
  8
0
  6
ByBlock
 62
     0
 48
50.0
100
AcDbLine
 10
887.1714181898571
 20
10206.74038870937
 30
0.0
 11
887.1714181898569
 21
5066.740388709376
 31
0.0
  0
INSERT
  5
1227F
330
1189F
100
AcDbEntity
  8
0
  6
ByBlock
 62
     0
 48
50.0
100
AcDbBlockReference
  2
_DOTSMALL
 10
887.1714181898571
 20
10206.74038870937
 30
0.0
 41
100.0
 42
100.0
 43
100.0
 50
90.0
  0
INSERT
  5
12280
330
1189F
100
AcDbEntity
  8
0
  6
ByBlock
 62
     0
 48
50.0
100
AcDbBlockReference
  2
_DOTSMALL
 10
887.1714181898569
 20
5066.740388709376
 30
0.0
 41
100.0
 42
100.0
 43
100.0
 50
270.0
  0
MTEXT
  5
12281
330
1189F
100
AcDbEntity
  8
0
  6
ByBlock
 62
     7
 48
50.0
100
AcDbMText
 10
787.171418189857
 20
7636.740388709377
 30
0.0
 40
120.0
 41
0.0
 71
     5
 72
     1
  1
\A1;基礎寸法 5140
  7
STYLE1
 11
0.0000000000000001
 21
1.0
 31
0.0
 73
     1
 44
1.0
1001
ACAD
1000
MTEXTBEGIN
1070
    73
1070
     1
1070
    44
1040
1.0
1070
    74
1070
     0
1000
MTEXTEND
  0
POINT
  5
12282
330
1189F
100
AcDbEntity
  8
DEFPOINTS
  6
ByBlock
 62
     0
 48
50.0
100
AcDbPoint
 10
1775.156574488159
 20
10206.74038870937
 30
0.0
  0
POINT
  5
12283
330
1189F
100
AcDbEntity
  8
DEFPOINTS
  6
ByBlock
 62
     0
 48
50.0
100
AcDbPoint
 10
1775.156574488159
 20
5066.740388709376
 30
0.0
  0
POINT
  5
12284
330
1189F
100
AcDbEntity
  8
DEFPOINTS
  6
ByBlock
 62
     0
 48
50.0
100
AcDbPoint
 10
887.1714181898569
 20
5066.740388709376
 30
0.0
  0
ENDBLK
  5
12285
330
1189F
100
AcDbEntity
  8
0
 48
50.0
100
AcDbBlockEnd
  0
BLOCK
  5
12C1B
330
118AC
100
AcDbEntity
  8
0
 48
50.0
100
AcDbBlockBegin
  2
*D7
 70
     1
 10
0.0
 20
0.0
 30
0.0
  3
*D7
  1

  0
LINE
  5
12C1C
330
118AC
100
AcDbEntity
  8
0
  6
ByBlock
 62
     0
 48
50.0
100
AcDbLine
 10
6733.600000000002
 20
7956.740388709376
 30
0.0
 11
6733.600000000002
 21
8200.635297426982
 31
0.0
  0
LINE
  5
12C1D
330
118AC
100
AcDbEntity
  8
0
  6
ByBlock
 62
     0
 48
50.0
100
AcDbLine
 10
7333.600000000003
 20
7956.740388709376
 30
0.0
 11
7333.600000000003
 21
8200.635297426982
 31
0.0
  0
LINE
  5
12C1E
330
118AC
100
AcDbEntity
  8
0
  6
ByBlock
 62
     0
 48
50.0
100
AcDbLine
 10
6733.600000000002
 20
8140.635297426983
 30
0.0
 11
7333.600000000003
 21
8140.635297426983
 31
0.0
  0
INSERT
  5
12C1F
330
118AC
100
AcDbEntity
  8
0
  6
ByBlock
 62
     0
 48
50.0
100
AcDbBlockReference
  2
_DOTSMALL
 10
6733.600000000002
 20
8140.635297426983
 30
0.0
 41
100.0
 42
100.0
 43
100.0
 50
180.0
  0
INSERT
  5
12C20
330
118AC
100
AcDbEntity
  8
0
  6
ByBlock
 62
     0
 48
50.0
100
AcDbBlockReference
  2
_DOTSMALL
 10
7333.600000000003
 20
8140.635297426983
 30
0.0
 41
100.0
 42
100.0
 43
100.0
  0
MTEXT
  5
12C21
330
118AC
100
AcDbEntity
  8
0
  6
ByBlock
 62
     7
 48
50.0
100
AcDbMText
 10
7033.600000000003
 20
8240.635297426983
 30
0.0
 40
120.0
 41
0.0
 71
     5
 72
     1
  1
\A1;600
  7
STYLE1
 73
     1
 44
1.0
1001
ACAD
1000
MTEXTBEGIN
1070
    73
1070
     1
1070
    44
1040
1.0
1070
    74
1070
     0
1000
MTEXTEND
  0
POINT
  5
12C22
330
118AC
100
AcDbEntity
  8
DEFPOINTS
  6
ByBlock
 62
     0
 48
50.0
100
AcDbPoint
 10
6733.600000000002
 20
7936.740388709376
 30
0.0
  0
POINT
  5
12C23
330
118AC
100
AcDbEntity
  8
DEFPOINTS
  6
ByBlock
 62
     0
 48
50.0
100
AcDbPoint
 10
7333.600000000003
 20
7936.740388709376
 30
0.0
  0
POINT
  5
12C24
330
118AC
100
AcDbEntity
  8
DEFPOINTS
  6
ByBlock
 62
     0
 48
50.0
100
AcDbPoint
 10
7333.600000000003
 20
8140.635297426983
 30
0.0
  0
ENDBLK
  5
12C25
330
118AC
100
AcDbEntity
  8
0
 48
50.0
100
AcDbBlockEnd
  0
BLOCK
  5
12C31
330
118B9
100
AcDbEntity
  8
0
 48
50.0
100
AcDbBlockBegin
  2
*D8
 70
     1
 10
0.0
 20
0.0
 30
0.0
  3
*D8
  1

  0
LINE
  5
12C32
330
118B9
100
AcDbEntity
  8
0
  6
ByBlock
 62
     0
 48
50.0
100
AcDbLine
 10
7353.600000000003
 20
7936.740388709376
 30
0.0
 11
7667.46165700339
 21
7936.740388709376
 31
0.0
  0
LINE
  5
12C33
330
118B9
100
AcDbEntity
  8
0
  6
ByBlock
 62
     0
 48
50.0
100
AcDbLine
 10
7353.600000000003
 20
7336.740388709376
 30
0.0
 11
7667.461657003389
 21
7336.740388709376
 31
0.0
  0
LINE
  5
12C34
330
118B9
100
AcDbEntity
  8
0
  6
ByBlock
 62
     0
 48
50.0
100
AcDbLine
 10
7607.461657003391
 20
7936.740388709376
 30
0.0
 11
7607.46165700339
 21
7336.740388709376
 31
0.0
  0
INSERT
  5
12C35
330
118B9
100
AcDbEntity
  8
0
  6
ByBlock
 62
     0
 48
50.0
100
AcDbBlockReference
  2
_DOTSMALL
 10
7607.461657003391
 20
7936.740388709376
 30
0.0
 41
100.0
 42
100.0
 43
100.0
 50
90.0
  0
INSERT
  5
12C36
330
118B9
100
AcDbEntity
  8
0
  6
ByBlock
 62
     0
 48
50.0
100
AcDbBlockReference
  2
_DOTSMALL
 10
7607.46165700339
 20
7336.740388709376
 30
0.0
 41
100.0
 42
100.0
 43
100.0
 50
270.0
  0
MTEXT
  5
12C37
330
118B9
100
AcDbEntity
  8
0
  6
ByBlock
 62
     7
 48
50.0
100
AcDbMText
 10
7507.461657003391
 20
7636.740388709376
 30
0.0
 40
120.0
 41
0.0
 71
     5
 72
     1
  1
\A1;600
  7
STYLE1
 11
0.0000000000000001
 21
1.0
 31
0.0
 73
     1
 44
1.0
1001
ACAD
1000
MTEXTBEGIN
1070
    73
1070
     1
1070
    44
1040
1.0
1070
    74
1070
     0
1000
MTEXTEND
  0
POINT
  5
12C38
330
118B9
100
AcDbEntity
  8
DEFPOINTS
  6
ByBlock
 62
     0
 48
50.0
100
AcDbPoint
 10
7333.600000000003
 20
7936.740388709376
 30
0.0
  0
POINT
  5
12C39
330
118B9
100
AcDbEntity
  8
DEFPOINTS
  6
ByBlock
 62
     0
 48
50.0
100
AcDbPoint
 10
7333.600000000003
 20
7336.740388709376
 30
0.0
  0
POINT
  5
12C3A
330
118B9
100
AcDbEntity
  8
DEFPOINTS
  6
ByBlock
 62
     0
 48
50.0
100
AcDbPoint
 10
7607.46165700339
 20
7336.740388709376
 30
0.0
  0
ENDBLK
  5
12C3B
330
118B9
100
AcDbEntity
  8
0
 48
50.0
100
AcDbBlockEnd
  0
BLOCK
  5
120D8
330
118D1
100
AcDbEntity
  8
0
 48
50.0
100
AcDbBlockBegin
  2
*D9
 70
     1
 10
0.0
 20
0.0
 30
0.0
  3
*D9
  1

  0
LINE
  5
120D9
330
118D1
100
AcDbEntity
  8
0
  6
ByBlock
 62
     0
 48
50.0
100
AcDbLine
 10
1775.156574488159
 20
5046.740388709377
 30
0.0
 11
1775.156574488159
 21
4639.427037335172
 31
0.0
  0
LINE
  5
120DA
330
118D1
100
AcDbEntity
  8
0
  6
ByBlock
 62
     0
 48
50.0
100
AcDbLine
 10
1975.156574488159
 20
5716.740388709377
 30
0.0
 11
1975.156574488159
 21
4639.427037335172
 31
0.0
  0
LINE
  5
120DB
330
118D1
100
AcDbEntity
  8
0
  6
ByBlock
 62
     0
 48
50.0
100
AcDbLine
 10
1975.156574488159
 20
4699.427037335172
 30
0.0
 11
1775.156574488159
 21
4699.427037335172
 31
0.0
  0
LINE
  5
120DC
330
118D1
100
AcDbEntity
  8
0
  6
ByBlock
 62
     0
 48
50.0
100
AcDbLine
 10
1775.156574488159
 20
4699.427037335172
 30
0.0
 11
1376.014842204694
 21
4699.427037335172
 31
0.0
  0
INSERT
  5
120DD
330
118D1
100
AcDbEntity
  8
0
  6
ByBlock
 62
     0
 48
50.0
100
AcDbBlockReference
  2
_DOTSMALL
 10
1975.156574488159
 20
4699.427037335172
 30
0.0
 41
100.0
 42
100.0
 43
100.0
  0
INSERT
  5
120DE
330
118D1
100
AcDbEntity
  8
0
  6
ByBlock
 62
     0
 48
50.0
100
AcDbBlockReference
  2
_DOTSMALL
 10
1775.156574488159
 20
4699.427037335172
 30
0.0
 41
100.0
 42
100.0
 43
100.0
 50
180.0
  0
MTEXT
  5
120DF
330
118D1
100
AcDbEntity
  8
0
  6
ByBlock
 62
     7
 48
50.0
100
AcDbMText
 10
1525.585708346427
 20
4799.438848358794
 30
0.0
 40
120.0
 41
0.0
 71
     5
 72
     1
  1
\A1;200
  7
STYLE1
 73
     1
 44
1.0
1001
ACAD
1000
MTEXTBEGIN
1070
    73
1070
     1
1070
    44
1040
1.0
1070
    74
1070
     0
1000
MTEXTEND
  0
POINT
  5
120E0
330
118D1
100
AcDbEntity
  8
DEFPOINTS
  6
ByBlock
 62
     0
 48
50.0
100
AcDbPoint
 10
1775.156574488159
 20
5066.740388709376
 30
0.0
  0
POINT
  5
120E1
330
118D1
100
AcDbEntity
  8
DEFPOINTS
  6
ByBlock
 62
     0
 48
50.0
100
AcDbPoint
 10
1975.156574488159
 20
5736.740388709377
 30
0.0
  0
POINT
  5
120E2
330
118D1
100
AcDbEntity
  8
DEFPOINTS
  6
ByBlock
 62
     0
 48
50.0
100
AcDbPoint
 10
1975.156574488159
 20
4699.427037335172
 30
0.0
  0
ENDBLK
  5
120E3
330
118D1
100
AcDbEntity
  8
0
 48
50.0
100
AcDbBlockEnd
  0
BLOCK
  5
1246D
330
118DB
100
AcDbEntity
  8
0
 48
50.0
100
AcDbBlockBegin
  2
*D10
 70
     1
 10
0.0
 20
0.0
 30
0.0
  3
*D10
  1

  0
LINE
  5
1246E
330
118DB
100
AcDbEntity
  8
0
  6
ByBlock
 62
     0
 48
50.0
100
AcDbLine
 10
9413.600000000004
 20
5716.740388709378
 30
0.0
 11
9413.600000000004
 21
4639.427037335172
 31
0.0
  0
LINE
  5
1246F
330
118DB
100
AcDbEntity
  8
0
  6
ByBlock
 62
     0
 48
50.0
100
AcDbLine
 10
7033.600000000004
 20
4699.427037335172
 30
0.0
 11
9413.600000000004
 21
4699.427037335172
 31
0.0
  0
INSERT
  5
12470
330
118DB
100
AcDbEntity
  8
0
  6
ByBlock
 62
     0
 48
50.0
100
AcDbBlockReference
  2
_DOTSMALL
 10
7033.600000000004
 20
4699.427037335172
 30
0.0
 41
100.0
 42
100.0
 43
100.0
 50
180.0
  0
INSERT
  5
12471
330
118DB
100
AcDbEntity
  8
0
  6
ByBlock
 62
     0
 48
50.0
100
AcDbBlockReference
  2
_DOTSMALL
 10
9413.600000000004
 20
4699.427037335172
 30
0.0
 41
100.0
 42
100.0
 43
100.0
  0
MTEXT
  5
12472
330
118DB
100
AcDbEntity
  8
0
  6
ByBlock
 62
     7
 48
50.0
100
AcDbMText
 10
8223.600000000004
 20
4799.438848358794
 30
0.0
 40
120.0
 41
0.0
 71
     5
 72
     1
  1
\A1;2380
  7
STYLE1
 73
     1
 44
1.0
1001
ACAD
1000
MTEXTBEGIN
1070
    73
1070
     1
1070
    44
1040
1.0
1070
    74
1070
     0
1000
MTEXTEND
  0
POINT
  5
12473
330
118DB
100
AcDbEntity
  8
DEFPOINTS
  6
ByBlock
 62
     0
 48
50.0
100
AcDbPoint
 10
7033.600000000004
 20
5736.740388709377
 30
0.0
  0
POINT
  5
12474
330
118DB
100
AcDbEntity
  8
DEFPOINTS
  6
ByBlock
 62
     0
 48
50.0
100
AcDbPoint
 10
9413.600000000004
 20
5736.740388709378
 30
0.0
  0
POINT
  5
12475
330
118DB
100
AcDbEntity
  8
DEFPOINTS
  6
ByBlock
 62
     0
 48
50.0
100
AcDbPoint
 10
9413.600000000004
 20
4699.427037335172
 30
0.0
  0
ENDBLK
  5
12476
330
118DB
100
AcDbEntity
  8
0
 48
50.0
100
AcDbBlockEnd
  0
BLOCK
  5
120EE
330
11906
100
AcDbEntity
  8
0
 48
50.0
100
AcDbBlockBegin
  2
*D11
 70
     1
 10
0.0
 20
0.0
 30
0.0
  3
*D11
  1

  0
LINE
  5
120EF
330
11906
100
AcDbEntity
  8
0
  6
ByBlock
 62
     0
 48
50.0
100
AcDbLine
 10
4355.156574488159
 20
5716.740388709378
 30
0.0
 11
4355.156574488159
 21
4640.024272680078
 31
0.0
  0
LINE
  5
120F0
330
11906
100
AcDbEntity
  8
0
  6
ByBlock
 62
     0
 48
50.0
100
AcDbLine
 10
4555.156574488159
 20
5046.740388709377
 30
0.0
 11
4555.156574488159
 21
4640.024272680078
 31
0.0
  0
LINE
  5
120F1
330
11906
100
AcDbEntity
  8
0
  6
ByBlock
 62
     0
 48
50.0
100
AcDbLine
 10
4355.156574488159
 20
4700.024272680079
 30
0.0
 11
4555.156574488159
 21
4700.024272680079
 31
0.0
  0
LINE
  5
120F2
330
11906
100
AcDbEntity
  8
0
  6
ByBlock
 62
     0
 48
50.0
100
AcDbLine
 10
4555.156574488159
 20
4700.024272680079
 30
0.0
 11
4954.298306771623
 21
4700.024272680079
 31
0.0
  0
INSERT
  5
120F3
330
11906
100
AcDbEntity
  8
0
  6
ByBlock
 62
     0
 48
50.0
100
AcDbBlockReference
  2
_DOTSMALL
 10
4355.156574488159
 20
4700.024272680079
 30
0.0
 41
100.0
 42
100.0
 43
100.0
 50
180.0
  0
INSERT
  5
120F4
330
11906
100
AcDbEntity
  8
0
  6
ByBlock
 62
     0
 48
50.0
100
AcDbBlockReference
  2
_DOTSMALL
 10
4555.156574488159
 20
4700.024272680079
 30
0.0
 41
100.0
 42
100.0
 43
100.0
  0
MTEXT
  5
120F5
330
11906
100
AcDbEntity
  8
0
  6
ByBlock
 62
     7
 48
50.0
100
AcDbMText
 10
4804.727440629891
 20
4800.036083703701
 30
0.0
 40
120.0
 41
0.0
 71
     5
 72
     1
  1
\A1;200
  7
STYLE1
 73
     1
 44
1.0
1001
ACAD
1000
MTEXTBEGIN
1070
    73
1070
     1
1070
    44
1040
1.0
1070
    74
1070
     0
1000
MTEXTEND
  0
POINT
  5
120F6
330
11906
100
AcDbEntity
  8
DEFPOINTS
  6
ByBlock
 62
     0
 48
50.0
100
AcDbPoint
 10
4355.156574488159
 20
5736.740388709378
 30
0.0
  0
POINT
  5
120F7
330
11906
100
AcDbEntity
  8
DEFPOINTS
  6
ByBlock
 62
     0
 48
50.0
100
AcDbPoint
 10
4555.156574488159
 20
5066.740388709376
 30
0.0
  0
POINT
  5
120F8
330
11906
100
AcDbEntity
  8
DEFPOINTS
  6
ByBlock
 62
     0
 48
50.0
100
AcDbPoint
 10
4555.156574488159
 20
4700.024272680079
 30
0.0
  0
ENDBLK
  5
120F9
330
11906
100
AcDbEntity
  8
0
 48
50.0
100
AcDbBlockEnd
  0
BLOCK
  5
12482
330
11928
100
AcDbEntity
  8
0
 48
50.0
100
AcDbBlockBegin
  2
*D12
 70
     1
 10
0.0
 20
0.0
 30
0.0
  3
*D12
  1

  0
LINE
  5
12483
330
11928
100
AcDbEntity
  8
0
  6
ByBlock
 62
     0
 48
50.0
100
AcDbLine
 10
6833.600000000004
 20
5046.740388709377
 30
0.0
 11
6833.600000000004
 21
4275.453801511459
 31
0.0
  0
LINE
  5
12484
330
11928
100
AcDbEntity
  8
0
  6
ByBlock
 62
     0
 48
50.0
100
AcDbLine
 10
9613.600000000005
 20
5046.740388709378
 30
0.0
 11
9613.600000000005
 21
4275.453801511459
 31
0.0
  0
LINE
  5
12485
330
11928
100
AcDbEntity
  8
0
  6
ByBlock
 62
     0
 48
50.0
100
AcDbLine
 10
6833.600000000004
 20
4335.453801511459
 30
0.0
 11
9613.600000000005
 21
4335.453801511459
 31
0.0
  0
INSERT
  5
12486
330
11928
100
AcDbEntity
  8
0
  6
ByBlock
 62
     0
 48
50.0
100
AcDbBlockReference
  2
_DOTSMALL
 10
6833.600000000004
 20
4335.453801511459
 30
0.0
 41
100.0
 42
100.0
 43
100.0
 50
180.0
  0
INSERT
  5
12487
330
11928
100
AcDbEntity
  8
0
  6
ByBlock
 62
     0
 48
50.0
100
AcDbBlockReference
  2
_DOTSMALL
 10
9613.600000000005
 20
4335.453801511459
 30
0.0
 41
100.0
 42
100.0
 43
100.0
  0
MTEXT
  5
12488
330
11928
100
AcDbEntity
  8
0
  6
ByBlock
 62
     7
 48
50.0
100
AcDbMText
 10
8223.600000000004
 20
4435.465612535081
 30
0.0
 40
120.0
 41
0.0
 71
     5
 72
     1
  1
\A1;基礎寸法 2780
  7
STYLE1
 73
     1
 44
1.0
1001
ACAD
1000
MTEXTBEGIN
1070
    73
1070
     1
1070
    44
1040
1.0
1070
    74
1070
     0
1000
MTEXTEND
  0
POINT
  5
12489
330
11928
100
AcDbEntity
  8
DEFPOINTS
  6
ByBlock
 62
     0
 48
50.0
100
AcDbPoint
 10
6833.600000000004
 20
5066.740388709376
 30
0.0
  0
POINT
  5
1248A
330
11928
100
AcDbEntity
  8
DEFPOINTS
  6
ByBlock
 62
     0
 48
50.0
100
AcDbPoint
 10
9613.600000000005
 20
5066.740388709377
 30
0.0
  0
POINT
  5
1248B
330
11928
100
AcDbEntity
  8
DEFPOINTS
  6
ByBlock
 62
     0
 48
50.0
100
AcDbPoint
 10
9613.600000000005
 20
4335.453801511459
 30
0.0
  0
ENDBLK
  5
1248C
330
11928
100
AcDbEntity
  8
0
 48
50.0
100
AcDbBlockEnd
  0
BLOCK
  5
121E3
330
121CB
100
AcDbEntity
  8
0
 48
50.0
100
AcDbBlockBegin
  2
*D13
 70
     1
 10
0.0
 20
0.0
 30
0.0
  3
*D13
  1

  0
LINE
  5
121E4
330
121CB
100
AcDbEntity
  8
0
  6
ByBlock
 62
     0
 48
50.0
100
AcDbLine
 10
4625.156574488157
 20
10036.74038870938
 30
0.0
 11
5433.443952340544
 21
10036.74038870938
 31
0.0
  0
LINE
  5
121E5
330
121CB
100
AcDbEntity
  8
0
  6
ByBlock
 62
     0
 48
50.0
100
AcDbLine
 10
4625.156574488155
 20
5236.740388709375
 30
0.0
 11
5433.443952340543
 21
5236.740388709375
 31
0.0
  0
LINE
  5
121E6
330
121CB
100
AcDbEntity
  8
0
  6
ByBlock
 62
     0
 48
50.0
100
AcDbLine
 10
5373.443952340545
 20
10036.74038870938
 30
0.0
 11
5373.443952340544
 21
5236.740388709375
 31
0.0
  0
INSERT
  5
121E7
330
121CB
100
AcDbEntity
  8
0
  6
ByBlock
 62
     0
 48
50.0
100
AcDbBlockReference
  2
_DOTSMALL
 10
5373.443952340545
 20
10036.74038870938
 30
0.0
 41
100.0
 42
100.0
 43
100.0
 50
90.0
  0
INSERT
  5
121E8
330
121CB
100
AcDbEntity
  8
0
  6
ByBlock
 62
     0
 48
50.0
100
AcDbBlockReference
  2
_DOTSMALL
 10
5373.443952340544
 20
5236.740388709375
 30
0.0
 41
100.0
 42
100.0
 43
100.0
 50
270.0
  0
MTEXT
  5
121E9
330
121CB
100
AcDbEntity
  8
0
  6
ByBlock
 62
     7
 48
50.0
100
AcDbMText
 10
5273.443952340545
 20
7636.740388709377
 30
0.0
 40
120.0
 41
0.0
 71
     5
 72
     1
  1
\A1;屋根寸法 4800
  7
STYLE1
 11
0.0000000000000001
 21
1.0
 31
0.0
 73
     1
 44
1.0
1001
ACAD
1000
MTEXTBEGIN
1070
    73
1070
     1
1070
    44
1040
1.0
1070
    74
1070
     0
1000
MTEXTEND
  0
POINT
  5
121EA
330
121CB
100
AcDbEntity
  8
DEFPOINTS
  6
ByBlock
 62
     0
 48
50.0
100
AcDbPoint
 10
4605.156574488157
 20
10036.74038870938
 30
0.0
  0
POINT
  5
121EB
330
121CB
100
AcDbEntity
  8
DEFPOINTS
  6
ByBlock
 62
     0
 48
50.0
100
AcDbPoint
 10
4605.156574488155
 20
5236.740388709375
 30
0.0
  0
POINT
  5
121EC
330
121CB
100
AcDbEntity
  8
DEFPOINTS
  6
ByBlock
 62
     0
 48
50.0
100
AcDbPoint
 10
5373.443952340544
 20
5236.740388709375
 30
0.0
  0
ENDBLK
  5
121ED
330
121CB
100
AcDbEntity
  8
0
 48
50.0
100
AcDbBlockEnd
  0
BLOCK
  5
121D8
330
121D7
100
AcDbEntity
  8
0
 48
50.0
100
AcDbBlockBegin
  2
*D14
 70
     1
 10
0.0
 20
0.0
 30
0.0
  3
*D14
  1

  0
LINE
  5
121D9
330
121D7
100
AcDbEntity
  8
0
  6
ByBlock
 62
     0
 48
50.0
100
AcDbLine
 10
4446.818983031596
 20
13496.09363307662
 30
0.0
 11
4955.998491766223
 21
13496.09363307662
 31
0.0
  0
LINE
  5
121DA
330
121D7
100
AcDbEntity
  8
0
  6
ByBlock
 62
     0
 48
50.0
100
AcDbLine
 10
4446.818983031596
 20
12746.09363307661
 30
0.0
 11
4955.998491766223
 21
12746.09363307661
 31
0.0
  0
LINE
  5
121DB
330
121D7
100
AcDbEntity
  8
0
  6
ByBlock
 62
     0
 48
50.0
100
AcDbLine
 10
4895.998491766222
 20
13496.09363307662
 30
0.0
 11
4895.998491766222
 21
12746.09363307661
 31
0.0
  0
INSERT
  5
121DC
330
121D7
100
AcDbEntity
  8
0
  6
ByBlock
 62
     0
 48
50.0
100
AcDbBlockReference
  2
_DOTSMALL
 10
4895.998491766222
 20
13496.09363307662
 30
0.0
 41
100.0
 42
100.0
 43
100.0
 50
90.0
  0
INSERT
  5
121DD
330
121D7
100
AcDbEntity
  8
0
  6
ByBlock
 62
     0
 48
50.0
100
AcDbBlockReference
  2
_DOTSMALL
 10
4895.998491766222
 20
12746.09363307661
 30
0.0
 41
100.0
 42
100.0
 43
100.0
 50
270.0
  0
MTEXT
  5
121DE
330
121D7
100
AcDbEntity
  8
0
  6
ByBlock
 62
     7
 48
50.0
100
AcDbMText
 10
4795.998491766222
 20
13121.09363307661
 30
0.0
 40
120.0
 41
0.0
 71
     5
 72
     1
  1
\A1;750
  7
STYLE1
 11
0.0000000000000001
 21
1.0
 31
0.0
 73
     1
 44
1.0
1001
ACAD
1000
MTEXTBEGIN
1070
    73
1070
     1
1070
    44
1040
1.0
1070
    74
1070
     0
1000
MTEXTEND
  0
POINT
  5
121DF
330
121D7
100
AcDbEntity
  8
DEFPOINTS
  6
ByBlock
 62
     0
 48
50.0
100
AcDbPoint
 10
4426.818983031597
 20
13496.09363307662
 30
0.0
  0
POINT
  5
121E0
330
121D7
100
AcDbEntity
  8
DEFPOINTS
  6
ByBlock
 62
     0
 48
50.0
100
AcDbPoint
 10
4426.818983031597
 20
12746.09363307661
 30
0.0
  0
POINT
  5
121E1
330
121D7
100
AcDbEntity
  8
DEFPOINTS
  6
ByBlock
 62
     0
 48
50.0
100
AcDbPoint
 10
4895.998491766222
 20
12746.09363307661
 30
0.0
  0
ENDBLK
  5
121E2
330
121D7
100
AcDbEntity
  8
0
 48
50.0
100
AcDbBlockEnd
  0
BLOCK
  5
12C3C
330
1222F
100
AcDbEntity
  8
0
 48
50.0
100
AcDbBlockBegin
  2
*D15
 70
     1
 10
0.0
 20
0.0
 30
0.0
  3
*D15
  1

  0
LINE
  5
12C3D
330
1222F
100
AcDbEntity
  8
0
  6
ByBlock
 62
     0
 48
50.0
100
AcDbLine
 10
6783.599999999999
 20
10056.74038870938
 30
0.0
 11
6783.599999999999
 21
10962.80501405645
 31
0.0
  0
LINE
  5
12C3E
330
1222F
100
AcDbEntity
  8
0
  6
ByBlock
 62
     0
 48
50.0
100
AcDbLine
 10
9663.600000000002
 20
10056.74038870938
 30
0.0
 11
9663.600000000002
 21
10962.80501405645
 31
0.0
  0
LINE
  5
12C3F
330
1222F
100
AcDbEntity
  8
0
  6
ByBlock
 62
     0
 48
50.0
100
AcDbLine
 10
6783.599999999999
 20
10902.80501405645
 30
0.0
 11
9663.600000000002
 21
10902.80501405645
 31
0.0
  0
INSERT
  5
12C40
330
1222F
100
AcDbEntity
  8
0
  6
ByBlock
 62
     0
 48
50.0
100
AcDbBlockReference
  2
_DOTSMALL
 10
6783.599999999999
 20
10902.80501405645
 30
0.0
 41
100.0
 42
100.0
 43
100.0
 50
180.0
  0
INSERT
  5
12C41
330
1222F
100
AcDbEntity
  8
0
  6
ByBlock
 62
     0
 48
50.0
100
AcDbBlockReference
  2
_DOTSMALL
 10
9663.600000000002
 20
10902.80501405645
 30
0.0
 41
100.0
 42
100.0
 43
100.0
  0
MTEXT
  5
12C42
330
1222F
100
AcDbEntity
  8
0
  6
ByBlock
 62
     7
 48
50.0
100
AcDbMText
 10
8223.600000000002
 20
11002.81682508007
 30
0.0
 40
120.0
 41
0.0
 71
     5
 72
     1
  1
\A1;屋根寸法 2880
  7
STYLE1
 73
     1
 44
1.0
1001
ACAD
1000
MTEXTBEGIN
1070
    73
1070
     1
1070
    44
1040
1.0
1070
    74
1070
     0
1000
MTEXTEND
  0
POINT
  5
12C43
330
1222F
100
AcDbEntity
  8
DEFPOINTS
  6
ByBlock
 62
     0
 48
50.0
100
AcDbPoint
 10
6783.599999999999
 20
10036.74038870938
 30
0.0
  0
POINT
  5
12C44
330
1222F
100
AcDbEntity
  8
DEFPOINTS
  6
ByBlock
 62
     0
 48
50.0
100
AcDbPoint
 10
9663.600000000002
 20
10036.74038870938
 30
0.0
  0
POINT
  5
12C45
330
1222F
100
AcDbEntity
  8
DEFPOINTS
  6
ByBlock
 62
     0
 48
50.0
100
AcDbPoint
 10
9663.600000000002
 20
10902.80501405645
 30
0.0
  0
ENDBLK
  5
12C46
330
1222F
100
AcDbEntity
  8
0
 48
50.0
100
AcDbBlockEnd
  0
BLOCK
  5
12C54
330
1223B
100
AcDbEntity
  8
0
 48
50.0
100
AcDbBlockBegin
  2
*D16
 70
     1
 10
0.0
 20
0.0
 30
0.0
  3
*D16
  1

  0
LINE
  5
12C55
330
1223B
100
AcDbEntity
  8
0
  6
ByBlock
 62
     0
 48
50.0
100
AcDbLine
 10
9413.600000000004
 20
9556.740388709378
 30
0.0
 11
9413.600000000004
 21
10669.69661180045
 31
0.0
  0
LINE
  5
12C56
330
1223B
100
AcDbEntity
  8
0
  6
ByBlock
 62
     0
 48
50.0
100
AcDbLine
 10
9663.600000000002
 20
10056.74038870938
 30
0.0
 11
9663.600000000002
 21
10669.69661180045
 31
0.0
  0
LINE
  5
12C57
330
1223B
100
AcDbEntity
  8
0
  6
ByBlock
 62
     0
 48
50.0
100
AcDbLine
 10
9413.600000000004
 20
10609.69661180045
 30
0.0
 11
9313.600000000004
 21
10609.69661180045
 31
0.0
  0
LINE
  5
12C58
330
1223B
100
AcDbEntity
  8
0
  6
ByBlock
 62
     0
 48
50.0
100
AcDbLine
 10
9663.600000000002
 20
10609.69661180045
 30
0.0
 11
9763.600000000003
 21
10609.69661180045
 31
0.0
  0
LINE
  5
12C59
330
1223B
100
AcDbEntity
  8
0
  6
ByBlock
 62
     0
 48
50.0
100
AcDbLine
 10
9413.600000000004
 20
10609.69661180045
 30
0.0
 11
9663.600000000002
 21
10609.69661180045
 31
0.0
  0
INSERT
  5
12C5A
330
1223B
100
AcDbEntity
  8
0
  6
ByBlock
 62
     0
 48
50.0
100
AcDbBlockReference
  2
_DOTSMALL
 10
9413.600000000004
 20
10609.69661180045
 30
0.0
 41
100.0
 42
100.0
 43
100.0
  0
INSERT
  5
12C5B
330
1223B
100
AcDbEntity
  8
0
  6
ByBlock
 62
     0
 48
50.0
100
AcDbBlockReference
  2
_DOTSMALL
 10
9663.600000000002
 20
10609.69661180045
 30
0.0
 41
100.0
 42
100.0
 43
100.0
 50
180.0
  0
MTEXT
  5
12C5C
330
1223B
100
AcDbEntity
  8
0
  6
ByBlock
 62
     7
 48
50.0
100
AcDbMText
 10
9538.600000000002
 20
10709.70842282407
 30
0.0
 40
120.0
 41
0.0
 71
     5
 72
     1
  1
\A1;250
  7
STYLE1
 73
     1
 44
1.0
1001
ACAD
1000
MTEXTBEGIN
1070
    73
1070
     1
1070
    44
1040
1.0
1070
    74
1070
     0
1000
MTEXTEND
  0
POINT
  5
12C5D
330
1223B
100
AcDbEntity
  8
DEFPOINTS
  6
ByBlock
 62
     0
 48
50.0
100
AcDbPoint
 10
9413.600000000004
 20
9536.740388709379
 30
0.0
  0
POINT
  5
12C5E
330
1223B
100
AcDbEntity
  8
DEFPOINTS
  6
ByBlock
 62
     0
 48
50.0
100
AcDbPoint
 10
9663.600000000002
 20
10036.74038870938
 30
0.0
  0
POINT
  5
12C5F
330
1223B
100
AcDbEntity
  8
DEFPOINTS
  6
ByBlock
 62
     0
 48
50.0
100
AcDbPoint
 10
9663.600000000002
 20
10609.69661180045
 30
0.0
  0
ENDBLK
  5
12C60
330
1223B
100
AcDbEntity
  8
0
 48
50.0
100
AcDbBlockEnd
  0
BLOCK
  5
12C47
330
12249
100
AcDbEntity
  8
0
 48
50.0
100
AcDbBlockBegin
  2
*D17
 70
     1
 10
0.0
 20
0.0
 30
0.0
  3
*D17
  1

  0
LINE
  5
12C48
330
12249
100
AcDbEntity
  8
0
  6
ByBlock
 62
     0
 48
50.0
100
AcDbLine
 10
6783.599999999999
 20
10056.74038870938
 30
0.0
 11
6783.599999999999
 21
10669.69661180045
 31
0.0
  0
LINE
  5
12C49
330
12249
100
AcDbEntity
  8
0
  6
ByBlock
 62
     0
 48
50.0
100
AcDbLine
 10
7033.600000000004
 20
9556.740388709375
 30
0.0
 11
7033.600000000004
 21
10669.69661180045
 31
0.0
  0
LINE
  5
12C4A
330
12249
100
AcDbEntity
  8
0
  6
ByBlock
 62
     0
 48
50.0
100
AcDbLine
 10
6783.599999999999
 20
10609.69661180045
 30
0.0
 11
6683.6
 21
10609.69661180045
 31
0.0
  0
LINE
  5
12C4B
330
12249
100
AcDbEntity
  8
0
  6
ByBlock
 62
     0
 48
50.0
100
AcDbLine
 10
7033.600000000004
 20
10609.69661180045
 30
0.0
 11
7133.600000000004
 21
10609.69661180045
 31
0.0
  0
LINE
  5
12C4C
330
12249
100
AcDbEntity
  8
0
  6
ByBlock
 62
     0
 48
50.0
100
AcDbLine
 10
6783.599999999999
 20
10609.69661180045
 30
0.0
 11
7033.600000000004
 21
10609.69661180045
 31
0.0
  0
INSERT
  5
12C4D
330
12249
100
AcDbEntity
  8
0
  6
ByBlock
 62
     0
 48
50.0
100
AcDbBlockReference
  2
_DOTSMALL
 10
6783.599999999999
 20
10609.69661180045
 30
0.0
 41
100.0
 42
100.0
 43
100.0
  0
INSERT
  5
12C4E
330
12249
100
AcDbEntity
  8
0
  6
ByBlock
 62
     0
 48
50.0
100
AcDbBlockReference
  2
_DOTSMALL
 10
7033.600000000004
 20
10609.69661180045
 30
0.0
 41
100.0
 42
100.0
 43
100.0
 50
180.0
  0
MTEXT
  5
12C4F
330
12249
100
AcDbEntity
  8
0
  6
ByBlock
 62
     7
 48
50.0
100
AcDbMText
 10
6908.600000000003
 20
10709.70842282407
 30
0.0
 40
120.0
 41
0.0
 71
     5
 72
     1
  1
\A1;250
  7
STYLE1
 73
     1
 44
1.0
1001
ACAD
1000
MTEXTBEGIN
1070
    73
1070
     1
1070
    44
1040
1.0
1070
    74
1070
     0
1000
MTEXTEND
  0
POINT
  5
12C50
330
12249
100
AcDbEntity
  8
DEFPOINTS
  6
ByBlock
 62
     0
 48
50.0
100
AcDbPoint
 10
6783.599999999999
 20
10036.74038870938
 30
0.0
  0
POINT
  5
12C51
330
12249
100
AcDbEntity
  8
DEFPOINTS
  6
ByBlock
 62
     0
 48
50.0
100
AcDbPoint
 10
7033.600000000004
 20
9536.740388709375
 30
0.0
  0
POINT
  5
12C52
330
12249
100
AcDbEntity
  8
DEFPOINTS
  6
ByBlock
 62
     0
 48
50.0
100
AcDbPoint
 10
7033.600000000004
 20
10609.69661180045
 30
0.0
  0
ENDBLK
  5
12C53
330
12249
100
AcDbEntity
  8
0
 48
50.0
100
AcDbBlockEnd
  0
BLOCK
  5
1229E
330
12292
100
AcDbEntity
  8
0
 48
50.0
100
AcDbBlockBegin
  2
*D18
 70
     1
 10
0.0
 20
0.0
 30
0.0
  3
*D18
  1

  0
LINE
  5
1229F
330
12292
100
AcDbEntity
  8
0
  6
ByBlock
 62
     0
 48
50.0
100
AcDbLine
 10
4625.156574488157
 20
9286.740388709379
 30
0.0
 11
5134.336083222783
 21
9286.740388709379
 31
0.0
  0
LINE
  5
122A0
330
12292
100
AcDbEntity
  8
0
  6
ByBlock
 62
     0
 48
50.0
100
AcDbLine
 10
4625.156574488157
 20
10036.74038870938
 30
0.0
 11
5134.336083222783
 21
10036.74038870938
 31
0.0
  0
LINE
  5
122A1
330
12292
100
AcDbEntity
  8
0
  6
ByBlock
 62
     0
 48
50.0
100
AcDbLine
 10
5074.336083222783
 20
9286.740388709379
 30
0.0
 11
5074.336083222783
 21
10036.74038870938
 31
0.0
  0
INSERT
  5
122A2
330
12292
100
AcDbEntity
  8
0
  6
ByBlock
 62
     0
 48
50.0
100
AcDbBlockReference
  2
_DOTSMALL
 10
5074.336083222783
 20
9286.740388709379
 30
0.0
 41
100.0
 42
100.0
 43
100.0
 50
270.0
  0
INSERT
  5
122A3
330
12292
100
AcDbEntity
  8
0
  6
ByBlock
 62
     0
 48
50.0
100
AcDbBlockReference
  2
_DOTSMALL
 10
5074.336083222783
 20
10036.74038870938
 30
0.0
 41
100.0
 42
100.0
 43
100.0
 50
90.0
  0
MTEXT
  5
122A4
330
12292
100
AcDbEntity
  8
0
  6
ByBlock
 62
     7
 48
50.0
100
AcDbMText
 10
4974.336083222783
 20
9661.740388709379
 30
0.0
 40
120.0
 41
0.0
 71
     5
 72
     1
  1
\A1;750
  7
STYLE1
 11
0.0000000000000001
 21
1.0
 31
0.0
 73
     1
 44
1.0
1001
ACAD
1000
MTEXTBEGIN
1070
    73
1070
     1
1070
    44
1040
1.0
1070
    74
1070
     0
1000
MTEXTEND
  0
POINT
  5
122A5
330
12292
100
AcDbEntity
  8
DEFPOINTS
  6
ByBlock
 62
     0
 48
50.0
100
AcDbPoint
 10
4605.156574488157
 20
9286.740388709379
 30
0.0
  0
POINT
  5
122A6
330
12292
100
AcDbEntity
  8
DEFPOINTS
  6
ByBlock
 62
     0
 48
50.0
100
AcDbPoint
 10
4605.156574488157
 20
10036.74038870938
 30
0.0
  0
POINT
  5
122A7
330
12292
100
AcDbEntity
  8
DEFPOINTS
  6
ByBlock
 62
     0
 48
50.0
100
AcDbPoint
 10
5074.336083222783
 20
10036.74038870938
 30
0.0
  0
ENDBLK
  5
122A8
330
12292
100
AcDbEntity
  8
0
 48
50.0
100
AcDbBlockEnd
  0
BLOCK
  5
1342C
330
13421
100
AcDbEntity
  8
0
 48
50.0
100
AcDbBlockBegin
  2
*D33
 70
     1
 10
0.0
 20
0.0
 30
0.0
  3
*D33
  1

  0
LINE
  5
13478
330
13421
100
AcDbEntity
  8
寸法
 62
     0
 48
50.0
370
    -2
100
AcDbLine
 10
6343.789827176104
 20
2272.319098397104
 30
0.0
 11
5921.671157149674
 21
2272.319098397104
 31
0.0
  0
LINE
  5
13479
330
13421
100
AcDbEntity
  8
寸法
 62
     0
 48
50.0
370
    -2
100
AcDbLine
 10
9317.712012910034
 20
2371.653473397105
 30
0.0
 11
5921.671157149674
 21
2371.653473397106
 31
0.0
  0
LINE
  5
1347A
330
13421
100
AcDbEntity
  8
寸法
 62
     0
 48
50.0
370
    -2
100
AcDbLine
 10
5981.671157149674
 20
2272.319098397104
 30
0.0
 11
5981.671157149674
 21
2371.653473397106
 31
0.0
  0
LINE
  5
1347B
330
13421
100
AcDbEntity
  8
寸法
 62
     0
 48
50.0
370
    -2
100
AcDbLine
 10
5981.671157149674
 20
2371.653473397106
 30
0.0
 11
5981.671157149674
 21
2809.106627858645
 31
0.0
  0
INSERT
  5
1347C
330
13421
100
AcDbEntity
  8
寸法
 62
     0
 48
50.0
370
    -2
100
AcDbBlockReference
  2
_DOTSMALL
 10
5981.671157149674
 20
2272.319098397104
 30
0.0
 41
100.0
 42
100.0
 43
100.0
 50
270.0
  0
INSERT
  5
1347D
330
13421
100
AcDbEntity
  8
寸法
 62
     0
 48
50.0
370
    -2
100
AcDbBlockReference
  2
_DOTSMALL
 10
5981.671157149674
 20
2371.653473397106
 30
0.0
 41
100.0
 42
100.0
 43
100.0
 50
90.0
  0
MTEXT
  5
1347E
330
13421
100
AcDbEntity
  8
寸法
 62
     7
 48
50.0
100
AcDbMText
 10
5875.671157149673
 20
2655.153871953134
 30
0.0
 40
120.0
 41
0.0
 71
     5
 72
     1
  1
\A1;(50)
  7
STYLE1
 11
0.0000000000000001
 21
1.0
 31
0.0
 73
     1
 44
1.0
1001
ACAD
1000
MTEXTBEGIN
1070
    73
1070
     1
1070
    44
1040
1.0
1070
    74
1070
     0
1000
MTEXTEND
  0
POINT
  5
1347F
330
13421
100
AcDbEntity
  8
DEFPOINTS
 62
     0
 48
50.0
100
AcDbPoint
 10
6363.789827176105
 20
2272.319098397104
 30
0.0
  0
POINT
  5
13480
330
13421
100
AcDbEntity
  8
DEFPOINTS
 62
     0
 48
50.0
100
AcDbPoint
 10
9337.712012910033
 20
2371.653473397105
 30
0.0
  0
POINT
  5
13481
330
13421
100
AcDbEntity
  8
DEFPOINTS
 62
     0
 48
50.0
100
AcDbPoint
 10
5981.671157149674
 20
2371.653473397106
 30
0.0
  0
ENDBLK
  5
1342D
330
13421
100
AcDbEntity
  8
0
 48
50.0
100
AcDbBlockEnd
  0
BLOCK
  5
13438
330
1342E
100
AcDbEntity
  8
0
 48
50.0
100
AcDbBlockBegin
  2
*D34
 70
     1
 10
0.0
 20
0.0
 30
0.0
  3
*D34
  1

  0
LINE
  5
13482
330
1342E
100
AcDbEntity
  8
寸法
 62
     0
 48
50.0
370
    -2
100
AcDbLine
 10
6343.789827176105
 20
2272.319098397104
 30
0.0
 11
6097.711804370892
 21
2272.319098397104
 31
0.0
  0
LINE
  5
13483
330
1342E
100
AcDbEntity
  8
寸法
 62
     0
 48
50.0
370
    -2
100
AcDbLine
 10
6307.975533552198
 20
2171.778473397104
 30
0.0
 11
6097.711804370892
 21
2171.778473397104
 31
0.0
  0
LINE
  5
13484
330
1342E
100
AcDbEntity
  8
寸法
 62
     0
 48
50.0
370
    -2
100
AcDbLine
 10
6157.711804370893
 20
2272.319098397104
 30
0.0
 11
6157.711804370893
 21
2171.778473397104
 31
0.0
  0
INSERT
  5
13485
330
1342E
100
AcDbEntity
  8
寸法
 62
     0
 48
50.0
370
    -2
100
AcDbBlockReference
  2
_DOTSMALL
 10
6157.711804370893
 20
2272.319098397104
 30
0.0
 41
100.0
 42
100.0
 43
100.0
 50
90.0
  0
INSERT
  5
13486
330
1342E
100
AcDbEntity
  8
寸法
 62
     0
 48
50.0
370
    -2
100
AcDbBlockReference
  2
_DOTSMALL
 10
6157.711804370893
 20
2171.778473397104
 30
0.0
 41
100.0
 42
100.0
 43
100.0
 50
270.0
  0
MTEXT
  5
13487
330
1342E
100
AcDbEntity
  8
寸法
 62
     7
 48
50.0
100
AcDbMText
 10
6057.711804370891
 20
2222.048785897105
 30
0.0
 40
120.0
 41
0.0
 71
     5
 72
     1
  1
\A1;50
  7
STYLE1
 11
0.0000000000000001
 21
1.0
 31
0.0
 73
     1
 44
1.0
1001
ACAD
1000
MTEXTBEGIN
1070
    73
1070
     1
1070
    44
1040
1.0
1070
    74
1070
     0
1000
MTEXTEND
  0
POINT
  5
13488
330
1342E
100
AcDbEntity
  8
DEFPOINTS
 62
     0
 48
50.0
100
AcDbPoint
 10
6363.789827176105
 20
2272.319098397104
 30
0.0
  0
POINT
  5
13489
330
1342E
100
AcDbEntity
  8
DEFPOINTS
 62
     0
 48
50.0
100
AcDbPoint
 10
6327.975533552198
 20
2171.778473397104
 30
0.0
  0
POINT
  5
1348A
330
1342E
100
AcDbEntity
  8
DEFPOINTS
 62
     0
 48
50.0
100
AcDbPoint
 10
6157.711804370893
 20
2171.778473397104
 30
0.0
  0
ENDBLK
  5
13439
330
1342E
100
AcDbEntity
  8
0
 48
50.0
100
AcDbBlockEnd
  0
BLOCK
  5
13444
330
1343A
100
AcDbEntity
  8
0
 48
50.0
100
AcDbBlockBegin
  2
*D35
 70
     1
 10
0.0
 20
0.0
 30
0.0
  3
*D35
  1

  0
LINE
  5
1348B
330
1343A
100
AcDbEntity
  8
寸法
 62
     0
 48
50.0
370
    -2
100
AcDbLine
 10
6343.789827176105
 20
2272.319098397104
 30
0.0
 11
5921.671157149674
 21
2272.319098397104
 31
0.0
  0
LINE
  5
1348C
330
1343A
100
AcDbEntity
  8
寸法
 62
     0
 48
50.0
370
    -2
100
AcDbLine
 10
6851.142525974295
 20
1371.653473397103
 30
0.0
 11
5921.671157149674
 21
1371.653473397103
 31
0.0
  0
LINE
  5
1348D
330
1343A
100
AcDbEntity
  8
寸法
 62
     0
 48
50.0
370
    -2
100
AcDbLine
 10
5981.671157149675
 20
2272.319098397104
 30
0.0
 11
5981.671157149674
 21
1371.653473397103
 31
0.0
  0
INSERT
  5
1348E
330
1343A
100
AcDbEntity
  8
寸法
 62
     0
 48
50.0
370
    -2
100
AcDbBlockReference
  2
_DOTSMALL
 10
5981.671157149675
 20
2272.319098397104
 30
0.0
 41
100.0
 42
100.0
 43
100.0
 50
90.0
  0
INSERT
  5
1348F
330
1343A
100
AcDbEntity
  8
寸法
 62
     0
 48
50.0
370
    -2
100
AcDbBlockReference
  2
_DOTSMALL
 10
5981.671157149674
 20
1371.653473397103
 30
0.0
 41
100.0
 42
100.0
 43
100.0
 50
270.0
  0
MTEXT
  5
13490
330
1343A
100
AcDbEntity
  8
寸法
 62
     7
 48
50.0
100
AcDbMText
 10
5881.671157149674
 20
1821.986285897105
 30
0.0
 40
120.0
 41
0.0
 71
     5
 72
     1
  1
\A1;450
  7
STYLE1
 11
0.0000000000000001
 21
1.0
 31
0.0
 73
     1
 44
1.0
1001
ACAD
1000
MTEXTBEGIN
1070
    73
1070
     1
1070
    44
1040
1.0
1070
    74
1070
     0
1000
MTEXTEND
  0
POINT
  5
13491
330
1343A
100
AcDbEntity
  8
DEFPOINTS
 62
     0
 48
50.0
100
AcDbPoint
 10
6363.789827176105
 20
2272.319098397104
 30
0.0
  0
POINT
  5
13492
330
1343A
100
AcDbEntity
  8
DEFPOINTS
 62
     0
 48
50.0
100
AcDbPoint
 10
6871.142525974295
 20
1371.653473397103
 30
0.0
  0
POINT
  5
13493
330
1343A
100
AcDbEntity
  8
DEFPOINTS
 62
     0
 48
50.0
100
AcDbPoint
 10
5981.671157149674
 20
1371.653473397103
 30
0.0
  0
ENDBLK
  5
13445
330
1343A
100
AcDbEntity
  8
0
 48
50.0
100
AcDbBlockEnd
  0
BLOCK
  5
13450
330
13446
100
AcDbEntity
  8
0
 48
50.0
100
AcDbBlockBegin
  2
*D36
 70
     1
 10
0.0
 20
0.0
 30
0.0
  3
*D36
  1

  0
LINE
  5
13494
330
13446
100
AcDbEntity
  8
寸法
 62
     0
 48
50.0
370
    -2
100
AcDbLine
 10
7502.206150475267
 20
1730.799723397104
 30
0.0
 11
6102.345878162889
 21
1730.799723397104
 31
0.0
  0
LINE
  5
13495
330
13446
100
AcDbEntity
  8
寸法
 62
     0
 48
50.0
370
    -2
100
AcDbLine
 10
6851.142525974295
 20
1371.653473397103
 30
0.0
 11
6102.345878162889
 21
1371.653473397103
 31
0.0
  0
LINE
  5
13496
330
13446
100
AcDbEntity
  8
寸法
 62
     0
 48
50.0
370
    -2
100
AcDbLine
 10
6162.34587816289
 20
1730.799723397104
 30
0.0
 11
6162.34587816289
 21
1371.653473397103
 31
0.0
  0
INSERT
  5
13497
330
13446
100
AcDbEntity
  8
寸法
 62
     0
 48
50.0
370
    -2
100
AcDbBlockReference
  2
_DOTSMALL
 10
6162.34587816289
 20
1730.799723397104
 30
0.0
 41
100.0
 42
100.0
 43
100.0
 50
90.0
  0
INSERT
  5
13498
330
13446
100
AcDbEntity
  8
寸法
 62
     0
 48
50.0
370
    -2
100
AcDbBlockReference
  2
_DOTSMALL
 10
6162.34587816289
 20
1371.653473397103
 30
0.0
 41
100.0
 42
100.0
 43
100.0
 50
270.0
  0
MTEXT
  5
13499
330
13446
100
AcDbEntity
  8
寸法
 62
     7
 48
50.0
100
AcDbMText
 10
6062.34587816289
 20
1515.026598397103
 30
0.0
 40
120.0
 41
0.0
 71
     5
 72
     1
  1
\A1;180
  7
STYLE1
 11
0.0000000000000001
 21
1.0
 31
0.0
 73
     1
 44
1.0
1001
ACAD
1000
MTEXTBEGIN
1070
    73
1070
     1
1070
    44
1040
1.0
1070
    74
1070
     0
1000
MTEXTEND
  0
POINT
  5
1349A
330
13446
100
AcDbEntity
  8
DEFPOINTS
 62
     0
 48
50.0
100
AcDbPoint
 10
7522.206150475266
 20
1730.799723397104
 30
0.0
  0
POINT
  5
1349B
330
13446
100
AcDbEntity
  8
DEFPOINTS
 62
     0
 48
50.0
100
AcDbPoint
 10
6871.142525974295
 20
1371.653473397103
 30
0.0
  0
POINT
  5
1349C
330
13446
100
AcDbEntity
  8
DEFPOINTS
 62
     0
 48
50.0
100
AcDbPoint
 10
6162.34587816289
 20
1371.653473397103
 30
0.0
  0
ENDBLK
  5
13451
330
13446
100
AcDbEntity
  8
0
 48
50.0
100
AcDbBlockEnd
  0
BLOCK
  5
1345C
330
13452
100
AcDbEntity
  8
0
 48
50.0
100
AcDbBlockBegin
  2
*D37
 70
     1
 10
0.0
 20
0.0
 30
0.0
  3
*D37
  1

  0
LINE
  5
1349D
330
13452
100
AcDbEntity
  8
寸法
 62
     0
 48
50.0
370
    -2
100
AcDbLine
 10
6307.975533552198
 20
2171.778473397104
 30
0.0
 11
6102.34587816289
 21
2171.778473397104
 31
0.0
  0
LINE
  5
1349E
330
13452
100
AcDbEntity
  8
寸法
 62
     0
 48
50.0
370
    -2
100
AcDbLine
 10
7502.206150475267
 20
1730.799723397104
 30
0.0
 11
6102.345878162889
 21
1730.799723397104
 31
0.0
  0
LINE
  5
1349F
330
13452
100
AcDbEntity
  8
寸法
 62
     0
 48
50.0
370
    -2
100
AcDbLine
 10
6162.345878162891
 20
2171.778473397104
 30
0.0
 11
6162.34587816289
 21
1730.799723397104
 31
0.0
  0
INSERT
  5
134A0
330
13452
100
AcDbEntity
  8
寸法
 62
     0
 48
50.0
370
    -2
100
AcDbBlockReference
  2
_DOTSMALL
 10
6162.345878162891
 20
2171.778473397104
 30
0.0
 41
100.0
 42
100.0
 43
100.0
 50
90.0
  0
INSERT
  5
134A1
330
13452
100
AcDbEntity
  8
寸法
 62
     0
 48
50.0
370
    -2
100
AcDbBlockReference
  2
_DOTSMALL
 10
6162.34587816289
 20
1730.799723397104
 30
0.0
 41
100.0
 42
100.0
 43
100.0
 50
270.0
  0
MTEXT
  5
134A2
330
13452
100
AcDbEntity
  8
寸法
 62
     7
 48
50.0
100
AcDbMText
 10
6062.334067139268
 20
1951.289098397104
 30
0.0
 40
120.0
 41
0.0
 71
     5
 72
     1
  1
\A1;220
  7
STYLE1
 11
0.0000000000000001
 21
1.0
 31
0.0
 73
     1
 44
1.0
1001
ACAD
1000
MTEXTBEGIN
1070
    73
1070
     1
1070
    44
1040
1.0
1070
    74
1070
     0
1000
MTEXTEND
  0
POINT
  5
134A3
330
13452
100
AcDbEntity
  8
DEFPOINTS
 62
     0
 48
50.0
100
AcDbPoint
 10
6327.975533552198
 20
2171.778473397104
 30
0.0
  0
POINT
  5
134A4
330
13452
100
AcDbEntity
  8
DEFPOINTS
 62
     0
 48
50.0
100
AcDbPoint
 10
7522.206150475266
 20
1730.799723397104
 30
0.0
  0
POINT
  5
134A5
330
13452
100
AcDbEntity
  8
DEFPOINTS
 62
     0
 48
50.0
100
AcDbPoint
 10
6162.34587816289
 20
1730.799723397104
 30
0.0
  0
ENDBLK
  5
1345D
330
13452
100
AcDbEntity
  8
0
 48
50.0
100
AcDbBlockEnd
  0
BLOCK
  5
13468
330
1345E
100
AcDbEntity
  8
0
 48
50.0
100
AcDbBlockBegin
  2
*D38
 70
     1
 10
0.0
 20
0.0
 30
0.0
  3
*D38
  1

  0
LINE
  5
134A6
330
1345E
100
AcDbEntity
  8
寸法
 62
     0
 48
50.0
370
    -2
100
AcDbLine
 10
6967.356645224433
 20
1041.753473397105
 30
0.0
 11
6967.356645224433
 21
719.5662246076198
 31
0.0
  0
LINE
  5
134A7
330
1345E
100
AcDbEntity
  8
寸法
 62
     0
 48
50.0
370
    -2
100
AcDbLine
 10
8167.356645224433
 20
1041.753473397105
 30
0.0
 11
8167.356645224433
 21
719.5662246076198
 31
0.0
  0
LINE
  5
134A8
330
1345E
100
AcDbEntity
  8
寸法
 62
     0
 48
50.0
370
    -2
100
AcDbLine
 10
6967.356645224433
 20
779.5662246076199
 30
0.0
 11
8167.356645224433
 21
779.5662246076199
 31
0.0
  0
INSERT
  5
134A9
330
1345E
100
AcDbEntity
  8
寸法
 62
     0
 48
50.0
370
    -2
100
AcDbBlockReference
  2
_DOTSMALL
 10
6967.356645224433
 20
779.5662246076199
 30
0.0
 41
100.0
 42
100.0
 43
100.0
 50
180.0
  0
INSERT
  5
134AA
330
1345E
100
AcDbEntity
  8
寸法
 62
     0
 48
50.0
370
    -2
100
AcDbBlockReference
  2
_DOTSMALL
 10
8167.356645224433
 20
779.5662246076199
 30
0.0
 41
100.0
 42
100.0
 43
100.0
  0
MTEXT
  5
134AB
330
1345E
100
AcDbEntity
  8
寸法
 62
     7
 48
50.0
100
AcDbMText
 10
7567.356645224433
 20
879.5662246076199
 30
0.0
 40
120.0
 41
0.0
 71
     5
 72
     1
  1
\A1;600
  7
STYLE1
 73
     1
 44
1.0
1001
ACAD
1000
MTEXTBEGIN
1070
    73
1070
     1
1070
    44
1040
1.0
1070
    74
1070
     0
1000
MTEXTEND
  0
POINT
  5
134AC
330
1345E
100
AcDbEntity
  8
DEFPOINTS
 62
     0
 48
50.0
100
AcDbPoint
 10
6967.356645224433
 20
1061.753473397105
 30
0.0
  0
POINT
  5
134AD
330
1345E
100
AcDbEntity
  8
DEFPOINTS
 62
     0
 48
50.0
100
AcDbPoint
 10
8167.356645224433
 20
1061.753473397105
 30
0.0
  0
POINT
  5
134AE
330
1345E
100
AcDbEntity
  8
DEFPOINTS
 62
     0
 48
50.0
100
AcDbPoint
 10
8167.356645224433
 20
779.5662246076199
 30
0.0
  0
ENDBLK
  5
13469
330
1345E
100
AcDbEntity
  8
0
 48
50.0
100
AcDbBlockEnd
  0
BLOCK
  5
13476
330
1346A
100
AcDbEntity
  8
0
 48
50.0
100
AcDbBlockBegin
  2
*D39
 70
     1
 10
0.0
 20
0.0
 30
0.0
  3
*D39
  1

  0
LINE
  5
134AF
330
1346A
100
AcDbEntity
  8
寸法
 62
     0
 48
50.0
370
    -2
100
AcDbLine
 10
6851.142525974303
 20
1371.653473397103
 30
0.0
 11
5921.671157149674
 21
1371.653473397103
 31
0.0
  0
LINE
  5
134B0
330
1346A
100
AcDbEntity
  8
寸法
 62
     0
 48
50.0
370
    -2
100
AcDbLine
 10
6851.142525974295
 20
1271.753473397105
 30
0.0
 11
5921.671157149674
 21
1271.753473397105
 31
0.0
  0
LINE
  5
134B1
330
1346A
100
AcDbEntity
  8
寸法
 62
     0
 48
50.0
370
    -2
100
AcDbLine
 10
5981.671157149674
 20
1371.653473397103
 30
0.0
 11
5981.671157149674
 21
1471.653473397103
 31
0.0
  0
LINE
  5
134B2
330
1346A
100
AcDbEntity
  8
寸法
 62
     0
 48
50.0
370
    -2
100
AcDbLine
 10
5981.671157149674
 20
1271.753473397105
 30
0.0
 11
5981.671157149674
 21
1171.753473397105
 31
0.0
  0
LINE
  5
134B3
330
1346A
100
AcDbEntity
  8
寸法
 62
     0
 48
50.0
370
    -2
100
AcDbLine
 10
5981.671157149674
 20
1371.653473397103
 30
0.0
 11
5981.671157149674
 21
1271.753473397105
 31
0.0
  0
INSERT
  5
134B4
330
1346A
100
AcDbEntity
  8
寸法
 62
     0
 48
50.0
370
    -2
100
AcDbBlockReference
  2
_DOTSMALL
 10
5981.671157149674
 20
1371.653473397103
 30
0.0
 41
100.0
 42
100.0
 43
100.0
 50
270.0
  0
INSERT
  5
134B5
330
1346A
100
AcDbEntity
  8
寸法
 62
     0
 48
50.0
370
    -2
100
AcDbBlockReference
  2
_DOTSMALL
 10
5981.671157149674
 20
1271.753473397105
 30
0.0
 41
100.0
 42
100.0
 43
100.0
 50
90.0
  0
MTEXT
  5
134B6
330
1346A
100
AcDbEntity
  8
寸法
 62
     7
 48
50.0
100
AcDbMText
 10
5881.671157149674
 20
1321.703473397105
 30
0.0
 40
120.0
 41
0.0
 71
     5
 72
     1
  1
\A1;50
  7
STYLE1
 11
0.0000000000000001
 21
1.0
 31
0.0
 73
     1
 44
1.0
1001
ACAD
1000
MTEXTBEGIN
1070
    73
1070
     1
1070
    44
1040
1.0
1070
    74
1070
     0
1000
MTEXTEND
  0
POINT
  5
134B7
330
1346A
100
AcDbEntity
  8
DEFPOINTS
 62
     0
 48
50.0
100
AcDbPoint
 10
6871.142525974303
 20
1371.653473397103
 30
0.0
  0
POINT
  5
134B8
330
1346A
100
AcDbEntity
  8
DEFPOINTS
 62
     0
 48
50.0
100
AcDbPoint
 10
6871.142525974295
 20
1271.753473397105
 30
0.0
  0
POINT
  5
134B9
330
1346A
100
AcDbEntity
  8
DEFPOINTS
 62
     0
 48
50.0
100
AcDbPoint
 10
5981.671157149674
 20
1271.753473397105
 30
0.0
  0
ENDBLK
  5
13477
330
1346A
100
AcDbEntity
  8
0
 48
50.0
100
AcDbBlockEnd
  0
BLOCK
  5
134C5
330
134C4
100
AcDbEntity
  8
0
 48
50.0
100
AcDbBlockBegin
  2
*D40
 70
     1
 10
0.0
 20
0.0
 30
0.0
  3
*D40
  1

  0
LINE
  5
134C6
330
134C4
100
AcDbEntity
  8
寸法
 62
     0
 48
50.0
370
    -2
100
AcDbLine
 10
6967.356645224433
 20
1041.753473397105
 30
0.0
 11
6967.356645224433
 21
719.5662246076198
 31
0.0
  0
LINE
  5
134C7
330
134C4
100
AcDbEntity
  8
寸法
 62
     0
 48
50.0
370
    -2
100
AcDbLine
 10
8167.356645224433
 20
1041.753473397105
 30
0.0
 11
8167.356645224433
 21
719.5662246076198
 31
0.0
  0
LINE
  5
134C8
330
134C4
100
AcDbEntity
  8
寸法
 62
     0
 48
50.0
370
    -2
100
AcDbLine
 10
6967.356645224433
 20
779.5662246076199
 30
0.0
 11
8167.356645224433
 21
779.5662246076199
 31
0.0
  0
INSERT
  5
134C9
330
134C4
100
AcDbEntity
  8
寸法
 62
     0
 48
50.0
370
    -2
100
AcDbBlockReference
  2
_DOTSMALL
 10
6967.356645224433
 20
779.5662246076199
 30
0.0
 41
100.0
 42
100.0
 43
100.0
 50
180.0
  0
INSERT
  5
134CA
330
134C4
100
AcDbEntity
  8
寸法
 62
     0
 48
50.0
370
    -2
100
AcDbBlockReference
  2
_DOTSMALL
 10
8167.356645224433
 20
779.5662246076199
 30
0.0
 41
100.0
 42
100.0
 43
100.0
  0
MTEXT
  5
134CB
330
134C4
100
AcDbEntity
  8
寸法
 62
     7
 48
50.0
100
AcDbMText
 10
7567.356645224433
 20
879.5662246076199
 30
0.0
 40
120.0
 41
0.0
 71
     5
 72
     1
  1
\A1;600
  7
STYLE1
 73
     1
 44
1.0
1001
ACAD
1000
MTEXTBEGIN
1070
    73
1070
     1
1070
    44
1040
1.0
1070
    74
1070
     0
1000
MTEXTEND
  0
POINT
  5
134CC
330
134C4
100
AcDbEntity
  8
DEFPOINTS
 62
     0
 48
50.0
100
AcDbPoint
 10
6967.356645224433
 20
1061.753473397105
 30
0.0
  0
POINT
  5
134CD
330
134C4
100
AcDbEntity
  8
DEFPOINTS
 62
     0
 48
50.0
100
AcDbPoint
 10
8167.356645224433
 20
1061.753473397105
 30
0.0
  0
POINT
  5
134CE
330
134C4
100
AcDbEntity
  8
DEFPOINTS
 62
     0
 48
50.0
100
AcDbPoint
 10
8167.356645224433
 20
779.5662246076199
 30
0.0
  0
ENDBLK
  5
134CF
330
134C4
100
AcDbEntity
  8
0
 48
50.0
100
AcDbBlockEnd
  0
BLOCK
  5
134D1
330
134D0
100
AcDbEntity
  8
0
 48
50.0
100
AcDbBlockBegin
  2
*D41
 70
     1
 10
0.0
 20
0.0
 30
0.0
  3
*D41
  1

  0
LINE
  5
134D2
330
134D0
100
AcDbEntity
  8
寸法
 62
     0
 48
50.0
370
    -2
100
AcDbLine
 10
6307.975533552198
 20
2171.778473397104
 30
0.0
 11
6102.34587816289
 21
2171.778473397104
 31
0.0
  0
LINE
  5
134D3
330
134D0
100
AcDbEntity
  8
寸法
 62
     0
 48
50.0
370
    -2
100
AcDbLine
 10
7502.206150475267
 20
1730.799723397104
 30
0.0
 11
6102.345878162889
 21
1730.799723397104
 31
0.0
  0
LINE
  5
134D4
330
134D0
100
AcDbEntity
  8
寸法
 62
     0
 48
50.0
370
    -2
100
AcDbLine
 10
6162.345878162891
 20
2171.778473397104
 30
0.0
 11
6162.34587816289
 21
1730.799723397104
 31
0.0
  0
INSERT
  5
134D5
330
134D0
100
AcDbEntity
  8
寸法
 62
     0
 48
50.0
370
    -2
100
AcDbBlockReference
  2
_DOTSMALL
 10
6162.345878162891
 20
2171.778473397104
 30
0.0
 41
100.0
 42
100.0
 43
100.0
 50
90.0
  0
INSERT
  5
134D6
330
134D0
100
AcDbEntity
  8
寸法
 62
     0
 48
50.0
370
    -2
100
AcDbBlockReference
  2
_DOTSMALL
 10
6162.34587816289
 20
1730.799723397104
 30
0.0
 41
100.0
 42
100.0
 43
100.0
 50
270.0
  0
MTEXT
  5
134D7
330
134D0
100
AcDbEntity
  8
寸法
 62
     7
 48
50.0
100
AcDbMText
 10
6062.334067139268
 20
1951.289098397104
 30
0.0
 40
120.0
 41
0.0
 71
     5
 72
     1
  1
\A1;220
  7
STYLE1
 11
0.0000000000000001
 21
1.0
 31
0.0
 73
     1
 44
1.0
1001
ACAD
1000
MTEXTBEGIN
1070
    73
1070
     1
1070
    44
1040
1.0
1070
    74
1070
     0
1000
MTEXTEND
  0
POINT
  5
134D8
330
134D0
100
AcDbEntity
  8
DEFPOINTS
 62
     0
 48
50.0
100
AcDbPoint
 10
6327.975533552198
 20
2171.778473397104
 30
0.0
  0
POINT
  5
134D9
330
134D0
100
AcDbEntity
  8
DEFPOINTS
 62
     0
 48
50.0
100
AcDbPoint
 10
7522.206150475266
 20
1730.799723397104
 30
0.0
  0
POINT
  5
134DA
330
134D0
100
AcDbEntity
  8
DEFPOINTS
 62
     0
 48
50.0
100
AcDbPoint
 10
6162.34587816289
 20
1730.799723397104
 30
0.0
  0
ENDBLK
  5
134DB
330
134D0
100
AcDbEntity
  8
0
 48
50.0
100
AcDbBlockEnd
  0
BLOCK
  5
134DD
330
134DC
100
AcDbEntity
  8
0
 48
50.0
100
AcDbBlockBegin
  2
*D42
 70
     1
 10
0.0
 20
0.0
 30
0.0
  3
*D42
  1

  0
LINE
  5
134DE
330
134DC
100
AcDbEntity
  8
寸法
 62
     0
 48
50.0
370
    -2
100
AcDbLine
 10
6343.789827176105
 20
2272.319098397104
 30
0.0
 11
5921.671157149674
 21
2272.319098397104
 31
0.0
  0
LINE
  5
134DF
330
134DC
100
AcDbEntity
  8
寸法
 62
     0
 48
50.0
370
    -2
100
AcDbLine
 10
6851.142525974295
 20
1371.653473397103
 30
0.0
 11
5921.671157149674
 21
1371.653473397103
 31
0.0
  0
LINE
  5
134E0
330
134DC
100
AcDbEntity
  8
寸法
 62
     0
 48
50.0
370
    -2
100
AcDbLine
 10
5981.671157149675
 20
2272.319098397104
 30
0.0
 11
5981.671157149674
 21
1371.653473397103
 31
0.0
  0
INSERT
  5
134E1
330
134DC
100
AcDbEntity
  8
寸法
 62
     0
 48
50.0
370
    -2
100
AcDbBlockReference
  2
_DOTSMALL
 10
5981.671157149675
 20
2272.319098397104
 30
0.0
 41
100.0
 42
100.0
 43
100.0
 50
90.0
  0
INSERT
  5
134E2
330
134DC
100
AcDbEntity
  8
寸法
 62
     0
 48
50.0
370
    -2
100
AcDbBlockReference
  2
_DOTSMALL
 10
5981.671157149674
 20
1371.653473397103
 30
0.0
 41
100.0
 42
100.0
 43
100.0
 50
270.0
  0
MTEXT
  5
134E3
330
134DC
100
AcDbEntity
  8
寸法
 62
     7
 48
50.0
100
AcDbMText
 10
5881.671157149674
 20
1821.986285897105
 30
0.0
 40
120.0
 41
0.0
 71
     5
 72
     1
  1
\A1;450
  7
STYLE1
 11
0.0000000000000001
 21
1.0
 31
0.0
 73
     1
 44
1.0
1001
ACAD
1000
MTEXTBEGIN
1070
    73
1070
     1
1070
    44
1040
1.0
1070
    74
1070
     0
1000
MTEXTEND
  0
POINT
  5
134E4
330
134DC
100
AcDbEntity
  8
DEFPOINTS
 62
     0
 48
50.0
100
AcDbPoint
 10
6363.789827176105
 20
2272.319098397104
 30
0.0
  0
POINT
  5
134E5
330
134DC
100
AcDbEntity
  8
DEFPOINTS
 62
     0
 48
50.0
100
AcDbPoint
 10
6871.142525974295
 20
1371.653473397103
 30
0.0
  0
POINT
  5
134E6
330
134DC
100
AcDbEntity
  8
DEFPOINTS
 62
     0
 48
50.0
100
AcDbPoint
 10
5981.671157149674
 20
1371.653473397103
 30
0.0
  0
ENDBLK
  5
134E7
330
134DC
100
AcDbEntity
  8
0
 48
50.0
100
AcDbBlockEnd
  0
BLOCK
  5
134E9
330
134E8
100
AcDbEntity
  8
0
 48
50.0
100
AcDbBlockBegin
  2
*D43
 70
     1
 10
0.0
 20
0.0
 30
0.0
  3
*D43
  1

  0
LINE
  5
134EA
330
134E8
100
AcDbEntity
  8
寸法
 62
     0
 48
50.0
370
    -2
100
AcDbLine
 10
7487.206150475266
 20
1730.799723397104
 30
0.0
 11
6102.345878162889
 21
1730.799723397104
 31
0.0
  0
LINE
  5
134EB
330
134E8
100
AcDbEntity
  8
寸法
 62
     0
 48
50.0
370
    -2
100
AcDbLine
 10
6851.142525974295
 20
1371.653473397103
 30
0.0
 11
6102.345878162889
 21
1371.653473397103
 31
0.0
  0
LINE
  5
134EC
330
134E8
100
AcDbEntity
  8
寸法
 62
     0
 48
50.0
370
    -2
100
AcDbLine
 10
6162.34587816289
 20
1730.799723397104
 30
0.0
 11
6162.34587816289
 21
1371.653473397103
 31
0.0
  0
INSERT
  5
134ED
330
134E8
100
AcDbEntity
  8
寸法
 62
     0
 48
50.0
370
    -2
100
AcDbBlockReference
  2
_DOTSMALL
 10
6162.34587816289
 20
1730.799723397104
 30
0.0
 41
100.0
 42
100.0
 43
100.0
 50
90.0
  0
INSERT
  5
134EE
330
134E8
100
AcDbEntity
  8
寸法
 62
     0
 48
50.0
370
    -2
100
AcDbBlockReference
  2
_DOTSMALL
 10
6162.34587816289
 20
1371.653473397103
 30
0.0
 41
100.0
 42
100.0
 43
100.0
 50
270.0
  0
MTEXT
  5
134EF
330
134E8
100
AcDbEntity
  8
寸法
 62
     7
 48
50.0
100
AcDbMText
 10
6062.34587816289
 20
1515.026598397103
 30
0.0
 40
120.0
 41
0.0
 71
     5
 72
     1
  1
\A1;180
  7
STYLE1
 11
0.0000000000000001
 21
1.0
 31
0.0
 73
     1
 44
1.0
1001
ACAD
1000
MTEXTBEGIN
1070
    73
1070
     1
1070
    44
1040
1.0
1070
    74
1070
     0
1000
MTEXTEND
  0
POINT
  5
134F0
330
134E8
100
AcDbEntity
  8
DEFPOINTS
 62
     0
 48
50.0
100
AcDbPoint
 10
7507.206150475266
 20
1730.799723397104
 30
0.0
  0
POINT
  5
134F1
330
134E8
100
AcDbEntity
  8
DEFPOINTS
 62
     0
 48
50.0
100
AcDbPoint
 10
6871.142525974295
 20
1371.653473397103
 30
0.0
  0
POINT
  5
134F2
330
134E8
100
AcDbEntity
  8
DEFPOINTS
 62
     0
 48
50.0
100
AcDbPoint
 10
6162.34587816289
 20
1371.653473397103
 30
0.0
  0
ENDBLK
  5
134F3
330
134E8
100
AcDbEntity
  8
0
 48
50.0
100
AcDbBlockEnd
  0
BLOCK
  5
134F5
330
134F4
100
AcDbEntity
  8
0
 48
50.0
100
AcDbBlockBegin
  2
*D44
 70
     1
 10
0.0
 20
0.0
 30
0.0
  3
*D44
  1

  0
LINE
  5
134F6
330
134F4
100
AcDbEntity
  8
寸法
 62
     0
 48
50.0
370
    -2
100
AcDbLine
 10
6851.142525974303
 20
1371.653473397103
 30
0.0
 11
5921.671157149674
 21
1371.653473397103
 31
0.0
  0
LINE
  5
134F7
330
134F4
100
AcDbEntity
  8
寸法
 62
     0
 48
50.0
370
    -2
100
AcDbLine
 10
6851.142525974295
 20
1271.753473397105
 30
0.0
 11
5921.671157149674
 21
1271.753473397105
 31
0.0
  0
LINE
  5
134F8
330
134F4
100
AcDbEntity
  8
寸法
 62
     0
 48
50.0
370
    -2
100
AcDbLine
 10
5981.671157149674
 20
1371.653473397103
 30
0.0
 11
5981.671157149674
 21
1471.653473397103
 31
0.0
  0
LINE
  5
134F9
330
134F4
100
AcDbEntity
  8
寸法
 62
     0
 48
50.0
370
    -2
100
AcDbLine
 10
5981.671157149674
 20
1271.753473397105
 30
0.0
 11
5981.671157149674
 21
1171.753473397105
 31
0.0
  0
LINE
  5
134FA
330
134F4
100
AcDbEntity
  8
寸法
 62
     0
 48
50.0
370
    -2
100
AcDbLine
 10
5981.671157149674
 20
1371.653473397103
 30
0.0
 11
5981.671157149674
 21
1271.753473397105
 31
0.0
  0
INSERT
  5
134FB
330
134F4
100
AcDbEntity
  8
寸法
 62
     0
 48
50.0
370
    -2
100
AcDbBlockReference
  2
_DOTSMALL
 10
5981.671157149674
 20
1371.653473397103
 30
0.0
 41
100.0
 42
100.0
 43
100.0
 50
270.0
  0
INSERT
  5
134FC
330
134F4
100
AcDbEntity
  8
寸法
 62
     0
 48
50.0
370
    -2
100
AcDbBlockReference
  2
_DOTSMALL
 10
5981.671157149674
 20
1271.753473397105
 30
0.0
 41
100.0
 42
100.0
 43
100.0
 50
90.0
  0
MTEXT
  5
134FD
330
134F4
100
AcDbEntity
  8
寸法
 62
     7
 48
50.0
100
AcDbMText
 10
5881.671157149674
 20
1321.703473397105
 30
0.0
 40
120.0
 41
0.0
 71
     5
 72
     1
  1
\A1;50
  7
STYLE1
 11
0.0000000000000001
 21
1.0
 31
0.0
 73
     1
 44
1.0
1001
ACAD
1000
MTEXTBEGIN
1070
    73
1070
     1
1070
    44
1040
1.0
1070
    74
1070
     0
1000
MTEXTEND
  0
POINT
  5
134FE
330
134F4
100
AcDbEntity
  8
DEFPOINTS
 62
     0
 48
50.0
100
AcDbPoint
 10
6871.142525974303
 20
1371.653473397103
 30
0.0
  0
POINT
  5
134FF
330
134F4
100
AcDbEntity
  8
DEFPOINTS
 62
     0
 48
50.0
100
AcDbPoint
 10
6871.142525974295
 20
1271.753473397105
 30
0.0
  0
POINT
  5
13500
330
134F4
100
AcDbEntity
  8
DEFPOINTS
 62
     0
 48
50.0
100
AcDbPoint
 10
5981.671157149674
 20
1271.753473397105
 30
0.0
  0
ENDBLK
  5
13501
330
134F4
100
AcDbEntity
  8
0
 48
50.0
100
AcDbBlockEnd
  0
BLOCK
  5
13503
330
13502
100
AcDbEntity
  8
0
 48
50.0
100
AcDbBlockBegin
  2
*D45
 70
     1
 10
0.0
 20
0.0
 30
0.0
  3
*D45
  1

  0
LINE
  5
13504
330
13502
100
AcDbEntity
  8
寸法
 62
     0
 48
50.0
370
    -2
100
AcDbLine
 10
6343.789827176104
 20
2272.319098397104
 30
0.0
 11
5921.671157149674
 21
2272.319098397104
 31
0.0
  0
LINE
  5
13505
330
13502
100
AcDbEntity
  8
寸法
 62
     0
 48
50.0
370
    -2
100
AcDbLine
 10
9302.560497758518
 20
2371.50195824559
 30
0.0
 11
5921.671157149674
 21
2371.501958245591
 31
0.0
  0
LINE
  5
13506
330
13502
100
AcDbEntity
  8
寸法
 62
     0
 48
50.0
370
    -2
100
AcDbLine
 10
5981.671157149674
 20
2272.319098397104
 30
0.0
 11
5981.671157149674
 21
2371.501958245591
 31
0.0
  0
LINE
  5
13507
330
13502
100
AcDbEntity
  8
寸法
 62
     0
 48
50.0
370
    -2
100
AcDbLine
 10
5981.671157149674
 20
2371.501958245591
 30
0.0
 11
5981.671157149674
 21
2809.106627858645
 31
0.0
  0
INSERT
  5
13508
330
13502
100
AcDbEntity
  8
寸法
 62
     0
 48
50.0
370
    -2
100
AcDbBlockReference
  2
_DOTSMALL
 10
5981.671157149674
 20
2272.319098397104
 30
0.0
 41
100.0
 42
100.0
 43
100.0
 50
270.0
  0
INSERT
  5
13509
330
13502
100
AcDbEntity
  8
寸法
 62
     0
 48
50.0
370
    -2
100
AcDbBlockReference
  2
_DOTSMALL
 10
5981.671157149674
 20
2371.501958245591
 30
0.0
 41
100.0
 42
100.0
 43
100.0
 50
90.0
  0
MTEXT
  5
1350A
330
13502
100
AcDbEntity
  8
寸法
 62
     7
 48
50.0
100
AcDbMText
 10
5875.671157149673
 20
2655.153871953134
 30
0.0
 40
120.0
 41
0.0
 71
     5
 72
     1
  1
\A1;(50)
  7
STYLE1
 11
0.0000000000000001
 21
1.0
 31
0.0
 73
     1
 44
1.0
1001
ACAD
1000
MTEXTBEGIN
1070
    73
1070
     1
1070
    44
1040
1.0
1070
    74
1070
     0
1000
MTEXTEND
  0
POINT
  5
1350B
330
13502
100
AcDbEntity
  8
DEFPOINTS
 62
     0
 48
50.0
100
AcDbPoint
 10
6363.789827176105
 20
2272.319098397104
 30
0.0
  0
POINT
  5
1350C
330
13502
100
AcDbEntity
  8
DEFPOINTS
 62
     0
 48
50.0
100
AcDbPoint
 10
9322.560497758518
 20
2371.50195824559
 30
0.0
  0
POINT
  5
1350D
330
13502
100
AcDbEntity
  8
DEFPOINTS
 62
     0
 48
50.0
100
AcDbPoint
 10
5981.671157149674
 20
2371.501958245591
 30
0.0
  0
ENDBLK
  5
1350E
330
13502
100
AcDbEntity
  8
0
 48
50.0
100
AcDbBlockEnd
  0
BLOCK
  5
13510
330
1350F
100
AcDbEntity
  8
0
 48
50.0
100
AcDbBlockBegin
  2
*D46
 70
     1
 10
0.0
 20
0.0
 30
0.0
  3
*D46
  1

  0
LINE
  5
13511
330
1350F
100
AcDbEntity
  8
寸法
 62
     0
 48
50.0
370
    -2
100
AcDbLine
 10
6343.789827176105
 20
2272.319098397104
 30
0.0
 11
6097.711804370892
 21
2272.319098397104
 31
0.0
  0
LINE
  5
13512
330
1350F
100
AcDbEntity
  8
寸法
 62
     0
 48
50.0
370
    -2
100
AcDbLine
 10
6307.975533552198
 20
2171.778473397104
 30
0.0
 11
6097.711804370892
 21
2171.778473397104
 31
0.0
  0
LINE
  5
13513
330
1350F
100
AcDbEntity
  8
寸法
 62
     0
 48
50.0
370
    -2
100
AcDbLine
 10
6157.711804370893
 20
2272.319098397104
 30
0.0
 11
6157.711804370893
 21
2171.778473397104
 31
0.0
  0
INSERT
  5
13514
330
1350F
100
AcDbEntity
  8
寸法
 62
     0
 48
50.0
370
    -2
100
AcDbBlockReference
  2
_DOTSMALL
 10
6157.711804370893
 20
2272.319098397104
 30
0.0
 41
100.0
 42
100.0
 43
100.0
 50
90.0
  0
INSERT
  5
13515
330
1350F
100
AcDbEntity
  8
寸法
 62
     0
 48
50.0
370
    -2
100
AcDbBlockReference
  2
_DOTSMALL
 10
6157.711804370893
 20
2171.778473397104
 30
0.0
 41
100.0
 42
100.0
 43
100.0
 50
270.0
  0
MTEXT
  5
13516
330
1350F
100
AcDbEntity
  8
寸法
 62
     7
 48
50.0
100
AcDbMText
 10
6057.711804370891
 20
2222.048785897105
 30
0.0
 40
120.0
 41
0.0
 71
     5
 72
     1
  1
\A1;50
  7
STYLE1
 11
0.0000000000000001
 21
1.0
 31
0.0
 73
     1
 44
1.0
1001
ACAD
1000
MTEXTBEGIN
1070
    73
1070
     1
1070
    44
1040
1.0
1070
    74
1070
     0
1000
MTEXTEND
  0
POINT
  5
13517
330
1350F
100
AcDbEntity
  8
DEFPOINTS
 62
     0
 48
50.0
100
AcDbPoint
 10
6363.789827176105
 20
2272.319098397104
 30
0.0
  0
POINT
  5
13518
330
1350F
100
AcDbEntity
  8
DEFPOINTS
 62
     0
 48
50.0
100
AcDbPoint
 10
6327.975533552198
 20
2171.778473397104
 30
0.0
  0
POINT
  5
13519
330
1350F
100
AcDbEntity
  8
DEFPOINTS
 62
     0
 48
50.0
100
AcDbPoint
 10
6157.711804370893
 20
2171.778473397104
 30
0.0
  0
ENDBLK
  5
1351A
330
1350F
100
AcDbEntity
  8
0
 48
50.0
100
AcDbBlockEnd
  0
BLOCK
  5
1369C
330
13691
100
AcDbEntity
  8
0
 48
50.0
100
AcDbBlockBegin
  2
*D48
 70
     1
 10
0.0
 20
0.0
 30
0.0
  3
*D48
  1

  0
LINE
  5
136E8
330
13691
100
AcDbEntity
  8
寸法
 62
     0
 48
50.0
370
    -2
100
AcDbLine
 10
6575.20488191632
 20
-1548.909059429417
 30
0.0
 11
6153.086211889889
 21
-1548.909059429417
 31
0.0
  0
LINE
  5
136E9
330
13691
100
AcDbEntity
  8
寸法
 62
     0
 48
50.0
370
    -2
100
AcDbLine
 10
9533.975552498734
 20
-1449.726199580931
 30
0.0
 11
6153.086211889889
 21
-1449.72619958093
 31
0.0
  0
LINE
  5
136EA
330
13691
100
AcDbEntity
  8
寸法
 62
     0
 48
50.0
370
    -2
100
AcDbLine
 10
6213.08621188989
 20
-1548.909059429417
 30
0.0
 11
6213.08621188989
 21
-1449.72619958093
 31
0.0
  0
LINE
  5
136EB
330
13691
100
AcDbEntity
  8
寸法
 62
     0
 48
50.0
370
    -2
100
AcDbLine
 10
6213.08621188989
 20
-1449.72619958093
 30
0.0
 11
6213.08621188989
 21
-1012.121529967876
 31
0.0
  0
INSERT
  5
136EC
330
13691
100
AcDbEntity
  8
寸法
 62
     0
 48
50.0
370
    -2
100
AcDbBlockReference
  2
_DOTSMALL
 10
6213.08621188989
 20
-1548.909059429417
 30
0.0
 41
100.0
 42
100.0
 43
100.0
 50
270.0
  0
INSERT
  5
136ED
330
13691
100
AcDbEntity
  8
寸法
 62
     0
 48
50.0
370
    -2
100
AcDbBlockReference
  2
_DOTSMALL
 10
6213.08621188989
 20
-1449.72619958093
 30
0.0
 41
100.0
 42
100.0
 43
100.0
 50
90.0
  0
MTEXT
  5
136EE
330
13691
100
AcDbEntity
  8
寸法
 62
     7
 48
50.0
100
AcDbMText
 10
6107.086211889889
 20
-1166.074285873387
 30
0.0
 40
120.0
 41
0.0
 71
     5
 72
     1
  1
\A1;(50)
  7
STYLE1
 11
0.0000000000000001
 21
1.0
 31
0.0
 73
     1
 44
1.0
1001
ACAD
1000
MTEXTBEGIN
1070
    73
1070
     1
1070
    44
1040
1.0
1070
    74
1070
     0
1000
MTEXTEND
  0
POINT
  5
136EF
330
13691
100
AcDbEntity
  8
DEFPOINTS
 62
     0
 48
50.0
100
AcDbPoint
 10
6595.204881916321
 20
-1548.909059429417
 30
0.0
  0
POINT
  5
136F0
330
13691
100
AcDbEntity
  8
DEFPOINTS
 62
     0
 48
50.0
100
AcDbPoint
 10
9553.975552498734
 20
-1449.726199580931
 30
0.0
  0
POINT
  5
136F1
330
13691
100
AcDbEntity
  8
DEFPOINTS
 62
     0
 48
50.0
100
AcDbPoint
 10
6213.08621188989
 20
-1449.72619958093
 30
0.0
  0
ENDBLK
  5
1369D
330
13691
100
AcDbEntity
  8
0
 48
50.0
100
AcDbBlockEnd
  0
BLOCK
  5
136A8
330
1369E
100
AcDbEntity
  8
0
 48
50.0
100
AcDbBlockBegin
  2
*D49
 70
     1
 10
0.0
 20
0.0
 30
0.0
  3
*D49
  1

  0
LINE
  5
136F2
330
1369E
100
AcDbEntity
  8
寸法
 62
     0
 48
50.0
370
    -2
100
AcDbLine
 10
6575.204881916322
 20
-1548.909059429417
 30
0.0
 11
6329.126859111108
 21
-1548.909059429417
 31
0.0
  0
LINE
  5
136F3
330
1369E
100
AcDbEntity
  8
寸法
 62
     0
 48
50.0
370
    -2
100
AcDbLine
 10
6539.390588292414
 20
-1649.449684429417
 30
0.0
 11
6329.126859111108
 21
-1649.449684429417
 31
0.0
  0
LINE
  5
136F4
330
1369E
100
AcDbEntity
  8
寸法
 62
     0
 48
50.0
370
    -2
100
AcDbLine
 10
6389.126859111108
 20
-1548.909059429417
 30
0.0
 11
6389.126859111108
 21
-1649.449684429417
 31
0.0
  0
INSERT
  5
136F5
330
1369E
100
AcDbEntity
  8
寸法
 62
     0
 48
50.0
370
    -2
100
AcDbBlockReference
  2
_DOTSMALL
 10
6389.126859111108
 20
-1548.909059429417
 30
0.0
 41
100.0
 42
100.0
 43
100.0
 50
90.0
  0
INSERT
  5
136F6
330
1369E
100
AcDbEntity
  8
寸法
 62
     0
 48
50.0
370
    -2
100
AcDbBlockReference
  2
_DOTSMALL
 10
6389.126859111108
 20
-1649.449684429417
 30
0.0
 41
100.0
 42
100.0
 43
100.0
 50
270.0
  0
MTEXT
  5
136F7
330
1369E
100
AcDbEntity
  8
寸法
 62
     7
 48
50.0
100
AcDbMText
 10
6289.126859111108
 20
-1599.179371929416
 30
0.0
 40
120.0
 41
0.0
 71
     5
 72
     1
  1
\A1;50
  7
STYLE1
 11
0.0000000000000001
 21
1.0
 31
0.0
 73
     1
 44
1.0
1001
ACAD
1000
MTEXTBEGIN
1070
    73
1070
     1
1070
    44
1040
1.0
1070
    74
1070
     0
1000
MTEXTEND
  0
POINT
  5
136F8
330
1369E
100
AcDbEntity
  8
DEFPOINTS
 62
     0
 48
50.0
100
AcDbPoint
 10
6595.204881916322
 20
-1548.909059429417
 30
0.0
  0
POINT
  5
136F9
330
1369E
100
AcDbEntity
  8
DEFPOINTS
 62
     0
 48
50.0
100
AcDbPoint
 10
6559.390588292415
 20
-1649.449684429417
 30
0.0
  0
POINT
  5
136FA
330
1369E
100
AcDbEntity
  8
DEFPOINTS
 62
     0
 48
50.0
100
AcDbPoint
 10
6389.126859111108
 20
-1649.449684429417
 30
0.0
  0
ENDBLK
  5
136A9
330
1369E
100
AcDbEntity
  8
0
 48
50.0
100
AcDbBlockEnd
  0
BLOCK
  5
136B4
330
136AA
100
AcDbEntity
  8
0
 48
50.0
100
AcDbBlockBegin
  2
*D50
 70
     1
 10
0.0
 20
0.0
 30
0.0
  3
*D50
  1

  0
LINE
  5
136FB
330
136AA
100
AcDbEntity
  8
寸法
 62
     0
 48
50.0
370
    -2
100
AcDbLine
 10
6575.204881916322
 20
-1548.909059429417
 30
0.0
 11
6153.086211889892
 21
-1548.909059429417
 31
0.0
  0
LINE
  5
136FC
330
136AA
100
AcDbEntity
  8
寸法
 62
     0
 48
50.0
370
    -2
100
AcDbLine
 10
7082.557580714513
 20
-2449.574684429418
 30
0.0
 11
6153.08621188989
 21
-2449.574684429418
 31
0.0
  0
LINE
  5
136FD
330
136AA
100
AcDbEntity
  8
寸法
 62
     0
 48
50.0
370
    -2
100
AcDbLine
 10
6213.086211889891
 20
-1548.909059429417
 30
0.0
 11
6213.086211889891
 21
-2449.574684429418
 31
0.0
  0
INSERT
  5
136FE
330
136AA
100
AcDbEntity
  8
寸法
 62
     0
 48
50.0
370
    -2
100
AcDbBlockReference
  2
_DOTSMALL
 10
6213.086211889891
 20
-1548.909059429417
 30
0.0
 41
100.0
 42
100.0
 43
100.0
 50
90.0
  0
INSERT
  5
136FF
330
136AA
100
AcDbEntity
  8
寸法
 62
     0
 48
50.0
370
    -2
100
AcDbBlockReference
  2
_DOTSMALL
 10
6213.086211889891
 20
-2449.574684429418
 30
0.0
 41
100.0
 42
100.0
 43
100.0
 50
270.0
  0
MTEXT
  5
13700
330
136AA
100
AcDbEntity
  8
寸法
 62
     7
 48
50.0
100
AcDbMText
 10
6113.086211889891
 20
-1999.241871929417
 30
0.0
 40
120.0
 41
0.0
 71
     5
 72
     1
  1
\A1;450
  7
STYLE1
 11
0.0000000000000001
 21
1.0
 31
0.0
 73
     1
 44
1.0
1001
ACAD
1000
MTEXTBEGIN
1070
    73
1070
     1
1070
    44
1040
1.0
1070
    74
1070
     0
1000
MTEXTEND
  0
POINT
  5
13701
330
136AA
100
AcDbEntity
  8
DEFPOINTS
 62
     0
 48
50.0
100
AcDbPoint
 10
6595.204881916322
 20
-1548.909059429417
 30
0.0
  0
POINT
  5
13702
330
136AA
100
AcDbEntity
  8
DEFPOINTS
 62
     0
 48
50.0
100
AcDbPoint
 10
7102.557580714513
 20
-2449.574684429418
 30
0.0
  0
POINT
  5
13703
330
136AA
100
AcDbEntity
  8
DEFPOINTS
 62
     0
 48
50.0
100
AcDbPoint
 10
6213.086211889891
 20
-2449.574684429418
 30
0.0
  0
ENDBLK
  5
136B5
330
136AA
100
AcDbEntity
  8
0
 48
50.0
100
AcDbBlockEnd
  0
BLOCK
  5
136C0
330
136B6
100
AcDbEntity
  8
0
 48
50.0
100
AcDbBlockBegin
  2
*D51
 70
     1
 10
0.0
 20
0.0
 30
0.0
  3
*D51
  1

  0
LINE
  5
13704
330
136B6
100
AcDbEntity
  8
寸法
 62
     0
 48
50.0
370
    -2
100
AcDbLine
 10
7718.621205215483
 20
-2090.428434429417
 30
0.0
 11
6333.760932903106
 21
-2090.428434429417
 31
0.0
  0
LINE
  5
13705
330
136B6
100
AcDbEntity
  8
寸法
 62
     0
 48
50.0
370
    -2
100
AcDbLine
 10
7082.557580714513
 20
-2449.574684429418
 30
0.0
 11
6333.760932903106
 21
-2449.574684429418
 31
0.0
  0
LINE
  5
13706
330
136B6
100
AcDbEntity
  8
寸法
 62
     0
 48
50.0
370
    -2
100
AcDbLine
 10
6393.760932903106
 20
-2090.428434429417
 30
0.0
 11
6393.760932903106
 21
-2449.574684429418
 31
0.0
  0
INSERT
  5
13707
330
136B6
100
AcDbEntity
  8
寸法
 62
     0
 48
50.0
370
    -2
100
AcDbBlockReference
  2
_DOTSMALL
 10
6393.760932903106
 20
-2090.428434429417
 30
0.0
 41
100.0
 42
100.0
 43
100.0
 50
90.0
  0
INSERT
  5
13708
330
136B6
100
AcDbEntity
  8
寸法
 62
     0
 48
50.0
370
    -2
100
AcDbBlockReference
  2
_DOTSMALL
 10
6393.760932903106
 20
-2449.574684429418
 30
0.0
 41
100.0
 42
100.0
 43
100.0
 50
270.0
  0
MTEXT
  5
13709
330
136B6
100
AcDbEntity
  8
寸法
 62
     7
 48
50.0
100
AcDbMText
 10
6293.760932903107
 20
-2306.201559429418
 30
0.0
 40
120.0
 41
0.0
 71
     5
 72
     1
  1
\A1;180
  7
STYLE1
 11
0.0000000000000001
 21
1.0
 31
0.0
 73
     1
 44
1.0
1001
ACAD
1000
MTEXTBEGIN
1070
    73
1070
     1
1070
    44
1040
1.0
1070
    74
1070
     0
1000
MTEXTEND
  0
POINT
  5
1370A
330
136B6
100
AcDbEntity
  8
DEFPOINTS
 62
     0
 48
50.0
100
AcDbPoint
 10
7738.621205215483
 20
-2090.428434429417
 30
0.0
  0
POINT
  5
1370B
330
136B6
100
AcDbEntity
  8
DEFPOINTS
 62
     0
 48
50.0
100
AcDbPoint
 10
7102.557580714513
 20
-2449.574684429418
 30
0.0
  0
POINT
  5
1370C
330
136B6
100
AcDbEntity
  8
DEFPOINTS
 62
     0
 48
50.0
100
AcDbPoint
 10
6393.760932903106
 20
-2449.574684429418
 30
0.0
  0
ENDBLK
  5
136C1
330
136B6
100
AcDbEntity
  8
0
 48
50.0
100
AcDbBlockEnd
  0
BLOCK
  5
136CC
330
136C2
100
AcDbEntity
  8
0
 48
50.0
100
AcDbBlockBegin
  2
*D52
 70
     1
 10
0.0
 20
0.0
 30
0.0
  3
*D52
  1

  0
LINE
  5
1370D
330
136C2
100
AcDbEntity
  8
寸法
 62
     0
 48
50.0
370
    -2
100
AcDbLine
 10
6539.390588292414
 20
-1649.449684429417
 30
0.0
 11
6333.760932903107
 21
-1649.449684429417
 31
0.0
  0
LINE
  5
1370E
330
136C2
100
AcDbEntity
  8
寸法
 62
     0
 48
50.0
370
    -2
100
AcDbLine
 10
7733.621205215484
 20
-2090.428434429417
 30
0.0
 11
6333.760932903107
 21
-2090.428434429417
 31
0.0
  0
LINE
  5
1370F
330
136C2
100
AcDbEntity
  8
寸法
 62
     0
 48
50.0
370
    -2
100
AcDbLine
 10
6393.760932903107
 20
-1649.449684429417
 30
0.0
 11
6393.760932903107
 21
-2090.428434429417
 31
0.0
  0
INSERT
  5
13710
330
136C2
100
AcDbEntity
  8
寸法
 62
     0
 48
50.0
370
    -2
100
AcDbBlockReference
  2
_DOTSMALL
 10
6393.760932903107
 20
-1649.449684429417
 30
0.0
 41
100.0
 42
100.0
 43
100.0
 50
90.0
  0
INSERT
  5
13711
330
136C2
100
AcDbEntity
  8
寸法
 62
     0
 48
50.0
370
    -2
100
AcDbBlockReference
  2
_DOTSMALL
 10
6393.760932903107
 20
-2090.428434429417
 30
0.0
 41
100.0
 42
100.0
 43
100.0
 50
270.0
  0
MTEXT
  5
13712
330
136C2
100
AcDbEntity
  8
寸法
 62
     7
 48
50.0
100
AcDbMText
 10
6293.749121879486
 20
-1869.939059429416
 30
0.0
 40
120.0
 41
0.0
 71
     5
 72
     1
  1
\A1;220
  7
STYLE1
 11
0.0000000000000001
 21
1.0
 31
0.0
 73
     1
 44
1.0
1001
ACAD
1000
MTEXTBEGIN
1070
    73
1070
     1
1070
    44
1040
1.0
1070
    74
1070
     0
1000
MTEXTEND
  0
POINT
  5
13713
330
136C2
100
AcDbEntity
  8
DEFPOINTS
 62
     0
 48
50.0
100
AcDbPoint
 10
6559.390588292415
 20
-1649.449684429417
 30
0.0
  0
POINT
  5
13714
330
136C2
100
AcDbEntity
  8
DEFPOINTS
 62
     0
 48
50.0
100
AcDbPoint
 10
7753.621205215484
 20
-2090.428434429417
 30
0.0
  0
POINT
  5
13715
330
136C2
100
AcDbEntity
  8
DEFPOINTS
 62
     0
 48
50.0
100
AcDbPoint
 10
6393.760932903107
 20
-2090.428434429417
 30
0.0
  0
ENDBLK
  5
136CD
330
136C2
100
AcDbEntity
  8
0
 48
50.0
100
AcDbBlockEnd
  0
BLOCK
  5
136D8
330
136CE
100
AcDbEntity
  8
0
 48
50.0
100
AcDbBlockBegin
  2
*D53
 70
     1
 10
0.0
 20
0.0
 30
0.0
  3
*D53
  1

  0
LINE
  5
13716
330
136CE
100
AcDbEntity
  8
寸法
 62
     0
 48
50.0
370
    -2
100
AcDbLine
 10
7198.771699964649
 20
-2779.474684429417
 30
0.0
 11
7198.771699964649
 21
-3101.661933218901
 31
0.0
  0
LINE
  5
13717
330
136CE
100
AcDbEntity
  8
寸法
 62
     0
 48
50.0
370
    -2
100
AcDbLine
 10
8398.771699964651
 20
-2779.474684429417
 30
0.0
 11
8398.771699964651
 21
-3101.661933218901
 31
0.0
  0
LINE
  5
13718
330
136CE
100
AcDbEntity
  8
寸法
 62
     0
 48
50.0
370
    -2
100
AcDbLine
 10
7198.771699964649
 20
-3041.661933218901
 30
0.0
 11
8398.771699964651
 21
-3041.661933218901
 31
0.0
  0
INSERT
  5
13719
330
136CE
100
AcDbEntity
  8
寸法
 62
     0
 48
50.0
370
    -2
100
AcDbBlockReference
  2
_DOTSMALL
 10
7198.771699964649
 20
-3041.661933218901
 30
0.0
 41
100.0
 42
100.0
 43
100.0
 50
180.0
  0
INSERT
  5
1371A
330
136CE
100
AcDbEntity
  8
寸法
 62
     0
 48
50.0
370
    -2
100
AcDbBlockReference
  2
_DOTSMALL
 10
8398.771699964651
 20
-3041.661933218901
 30
0.0
 41
100.0
 42
100.0
 43
100.0
  0
MTEXT
  5
1371B
330
136CE
100
AcDbEntity
  8
寸法
 62
     7
 48
50.0
100
AcDbMText
 10
7798.771699964651
 20
-2941.661933218901
 30
0.0
 40
120.0
 41
0.0
 71
     5
 72
     1
  1
\A1;600
  7
STYLE1
 73
     1
 44
1.0
1001
ACAD
1000
MTEXTBEGIN
1070
    73
1070
     1
1070
    44
1040
1.0
1070
    74
1070
     0
1000
MTEXTEND
  0
POINT
  5
1371C
330
136CE
100
AcDbEntity
  8
DEFPOINTS
 62
     0
 48
50.0
100
AcDbPoint
 10
7198.771699964649
 20
-2759.474684429417
 30
0.0
  0
POINT
  5
1371D
330
136CE
100
AcDbEntity
  8
DEFPOINTS
 62
     0
 48
50.0
100
AcDbPoint
 10
8398.771699964651
 20
-2759.474684429417
 30
0.0
  0
POINT
  5
1371E
330
136CE
100
AcDbEntity
  8
DEFPOINTS
 62
     0
 48
50.0
100
AcDbPoint
 10
8398.771699964651
 20
-3041.661933218901
 30
0.0
  0
ENDBLK
  5
136D9
330
136CE
100
AcDbEntity
  8
0
 48
50.0
100
AcDbBlockEnd
  0
BLOCK
  5
136E6
330
136DA
100
AcDbEntity
  8
0
 48
50.0
100
AcDbBlockBegin
  2
*D54
 70
     1
 10
0.0
 20
0.0
 30
0.0
  3
*D54
  1

  0
LINE
  5
1371F
330
136DA
100
AcDbEntity
  8
寸法
 62
     0
 48
50.0
370
    -2
100
AcDbLine
 10
7082.55758071452
 20
-2449.574684429418
 30
0.0
 11
6153.08621188989
 21
-2449.574684429418
 31
0.0
  0
LINE
  5
13720
330
136DA
100
AcDbEntity
  8
寸法
 62
     0
 48
50.0
370
    -2
100
AcDbLine
 10
7082.557580714513
 20
-2549.474684429416
 30
0.0
 11
6153.08621188989
 21
-2549.474684429416
 31
0.0
  0
LINE
  5
13721
330
136DA
100
AcDbEntity
  8
寸法
 62
     0
 48
50.0
370
    -2
100
AcDbLine
 10
6213.086211889891
 20
-2449.574684429418
 30
0.0
 11
6213.086211889891
 21
-2349.574684429418
 31
0.0
  0
LINE
  5
13722
330
136DA
100
AcDbEntity
  8
寸法
 62
     0
 48
50.0
370
    -2
100
AcDbLine
 10
6213.086211889891
 20
-2549.474684429416
 30
0.0
 11
6213.086211889891
 21
-2649.474684429416
 31
0.0
  0
LINE
  5
13723
330
136DA
100
AcDbEntity
  8
寸法
 62
     0
 48
50.0
370
    -2
100
AcDbLine
 10
6213.086211889891
 20
-2449.574684429418
 30
0.0
 11
6213.086211889891
 21
-2549.474684429416
 31
0.0
  0
INSERT
  5
13724
330
136DA
100
AcDbEntity
  8
寸法
 62
     0
 48
50.0
370
    -2
100
AcDbBlockReference
  2
_DOTSMALL
 10
6213.086211889891
 20
-2449.574684429418
 30
0.0
 41
100.0
 42
100.0
 43
100.0
 50
270.0
  0
INSERT
  5
13725
330
136DA
100
AcDbEntity
  8
寸法
 62
     0
 48
50.0
370
    -2
100
AcDbBlockReference
  2
_DOTSMALL
 10
6213.086211889891
 20
-2549.474684429416
 30
0.0
 41
100.0
 42
100.0
 43
100.0
 50
90.0
  0
MTEXT
  5
13726
330
136DA
100
AcDbEntity
  8
寸法
 62
     7
 48
50.0
100
AcDbMText
 10
6113.086211889891
 20
-2499.524684429417
 30
0.0
 40
120.0
 41
0.0
 71
     5
 72
     1
  1
\A1;50
  7
STYLE1
 11
0.0000000000000001
 21
1.0
 31
0.0
 73
     1
 44
1.0
1001
ACAD
1000
MTEXTBEGIN
1070
    73
1070
     1
1070
    44
1040
1.0
1070
    74
1070
     0
1000
MTEXTEND
  0
POINT
  5
13727
330
136DA
100
AcDbEntity
  8
DEFPOINTS
 62
     0
 48
50.0
100
AcDbPoint
 10
7102.55758071452
 20
-2449.574684429418
 30
0.0
  0
POINT
  5
13728
330
136DA
100
AcDbEntity
  8
DEFPOINTS
 62
     0
 48
50.0
100
AcDbPoint
 10
7102.557580714513
 20
-2549.474684429416
 30
0.0
  0
POINT
  5
13729
330
136DA
100
AcDbEntity
  8
DEFPOINTS
 62
     0
 48
50.0
100
AcDbPoint
 10
6213.086211889891
 20
-2549.474684429416
 30
0.0
  0
ENDBLK
  5
136E7
330
136DA
100
AcDbEntity
  8
0
 48
50.0
100
AcDbBlockEnd
  0
BLOCK
  5
1372B
330
1372A
100
AcDbEntity
  8
0
 48
50.0
100
AcDbBlockBegin
  2
*D55
 70
     1
 10
0.0
 20
0.0
 30
0.0
  3
*D55
  1

  0
LINE
  5
1372C
330
1372A
100
AcDbEntity
  8
寸法
 62
     0
 48
50.0
370
    -2
100
AcDbLine
 10
6967.356645224433
 20
1041.753473397105
 30
0.0
 11
6967.356645224433
 21
719.5662246076198
 31
0.0
  0
LINE
  5
1372D
330
1372A
100
AcDbEntity
  8
寸法
 62
     0
 48
50.0
370
    -2
100
AcDbLine
 10
8167.356645224433
 20
1041.753473397105
 30
0.0
 11
8167.356645224433
 21
719.5662246076198
 31
0.0
  0
LINE
  5
1372E
330
1372A
100
AcDbEntity
  8
寸法
 62
     0
 48
50.0
370
    -2
100
AcDbLine
 10
6967.356645224433
 20
779.5662246076199
 30
0.0
 11
8167.356645224433
 21
779.5662246076199
 31
0.0
  0
INSERT
  5
1372F
330
1372A
100
AcDbEntity
  8
寸法
 62
     0
 48
50.0
370
    -2
100
AcDbBlockReference
  2
_DOTSMALL
 10
6967.356645224433
 20
779.5662246076199
 30
0.0
 41
100.0
 42
100.0
 43
100.0
 50
180.0
  0
INSERT
  5
13730
330
1372A
100
AcDbEntity
  8
寸法
 62
     0
 48
50.0
370
    -2
100
AcDbBlockReference
  2
_DOTSMALL
 10
8167.356645224433
 20
779.5662246076199
 30
0.0
 41
100.0
 42
100.0
 43
100.0
  0
MTEXT
  5
13731
330
1372A
100
AcDbEntity
  8
寸法
 62
     7
 48
50.0
100
AcDbMText
 10
7567.356645224433
 20
879.5662246076199
 30
0.0
 40
120.0
 41
0.0
 71
     5
 72
     1
  1
\A1;600
  7
STYLE1
 73
     1
 44
1.0
1001
ACAD
1000
MTEXTBEGIN
1070
    73
1070
     1
1070
    44
1040
1.0
1070
    74
1070
     0
1000
MTEXTEND
  0
POINT
  5
13732
330
1372A
100
AcDbEntity
  8
DEFPOINTS
 62
     0
 48
50.0
100
AcDbPoint
 10
6967.356645224433
 20
1061.753473397105
 30
0.0
  0
POINT
  5
13733
330
1372A
100
AcDbEntity
  8
DEFPOINTS
 62
     0
 48
50.0
100
AcDbPoint
 10
8167.356645224433
 20
1061.753473397105
 30
0.0
  0
POINT
  5
13734
330
1372A
100
AcDbEntity
  8
DEFPOINTS
 62
     0
 48
50.0
100
AcDbPoint
 10
8167.356645224433
 20
779.5662246076199
 30
0.0
  0
ENDBLK
  5
13735
330
1372A
100
AcDbEntity
  8
0
 48
50.0
100
AcDbBlockEnd
  0
BLOCK
  5
13737
330
13736
100
AcDbEntity
  8
0
 48
50.0
100
AcDbBlockBegin
  2
*D56
 70
     1
 10
0.0
 20
0.0
 30
0.0
  3
*D56
  1

  0
LINE
  5
13738
330
13736
100
AcDbEntity
  8
寸法
 62
     0
 48
50.0
370
    -2
100
AcDbLine
 10
6307.975533552198
 20
2171.778473397104
 30
0.0
 11
6102.34587816289
 21
2171.778473397104
 31
0.0
  0
LINE
  5
13739
330
13736
100
AcDbEntity
  8
寸法
 62
     0
 48
50.0
370
    -2
100
AcDbLine
 10
7502.206150475267
 20
1730.799723397104
 30
0.0
 11
6102.345878162889
 21
1730.799723397104
 31
0.0
  0
LINE
  5
1373A
330
13736
100
AcDbEntity
  8
寸法
 62
     0
 48
50.0
370
    -2
100
AcDbLine
 10
6162.345878162891
 20
2171.778473397104
 30
0.0
 11
6162.34587816289
 21
1730.799723397104
 31
0.0
  0
INSERT
  5
1373B
330
13736
100
AcDbEntity
  8
寸法
 62
     0
 48
50.0
370
    -2
100
AcDbBlockReference
  2
_DOTSMALL
 10
6162.345878162891
 20
2171.778473397104
 30
0.0
 41
100.0
 42
100.0
 43
100.0
 50
90.0
  0
INSERT
  5
1373C
330
13736
100
AcDbEntity
  8
寸法
 62
     0
 48
50.0
370
    -2
100
AcDbBlockReference
  2
_DOTSMALL
 10
6162.34587816289
 20
1730.799723397104
 30
0.0
 41
100.0
 42
100.0
 43
100.0
 50
270.0
  0
MTEXT
  5
1373D
330
13736
100
AcDbEntity
  8
寸法
 62
     7
 48
50.0
100
AcDbMText
 10
6062.334067139268
 20
1951.289098397104
 30
0.0
 40
120.0
 41
0.0
 71
     5
 72
     1
  1
\A1;220
  7
STYLE1
 11
0.0000000000000001
 21
1.0
 31
0.0
 73
     1
 44
1.0
1001
ACAD
1000
MTEXTBEGIN
1070
    73
1070
     1
1070
    44
1040
1.0
1070
    74
1070
     0
1000
MTEXTEND
  0
POINT
  5
1373E
330
13736
100
AcDbEntity
  8
DEFPOINTS
 62
     0
 48
50.0
100
AcDbPoint
 10
6327.975533552198
 20
2171.778473397104
 30
0.0
  0
POINT
  5
1373F
330
13736
100
AcDbEntity
  8
DEFPOINTS
 62
     0
 48
50.0
100
AcDbPoint
 10
7522.206150475266
 20
1730.799723397104
 30
0.0
  0
POINT
  5
13740
330
13736
100
AcDbEntity
  8
DEFPOINTS
 62
     0
 48
50.0
100
AcDbPoint
 10
6162.34587816289
 20
1730.799723397104
 30
0.0
  0
ENDBLK
  5
13741
330
13736
100
AcDbEntity
  8
0
 48
50.0
100
AcDbBlockEnd
  0
BLOCK
  5
13743
330
13742
100
AcDbEntity
  8
0
 48
50.0
100
AcDbBlockBegin
  2
*D57
 70
     1
 10
0.0
 20
0.0
 30
0.0
  3
*D57
  1

  0
LINE
  5
13744
330
13742
100
AcDbEntity
  8
寸法
 62
     0
 48
50.0
370
    -2
100
AcDbLine
 10
6343.789827176105
 20
2272.319098397104
 30
0.0
 11
5921.671157149674
 21
2272.319098397104
 31
0.0
  0
LINE
  5
13745
330
13742
100
AcDbEntity
  8
寸法
 62
     0
 48
50.0
370
    -2
100
AcDbLine
 10
6851.142525974295
 20
1371.653473397103
 30
0.0
 11
5921.671157149674
 21
1371.653473397103
 31
0.0
  0
LINE
  5
13746
330
13742
100
AcDbEntity
  8
寸法
 62
     0
 48
50.0
370
    -2
100
AcDbLine
 10
5981.671157149675
 20
2272.319098397104
 30
0.0
 11
5981.671157149674
 21
1371.653473397103
 31
0.0
  0
INSERT
  5
13747
330
13742
100
AcDbEntity
  8
寸法
 62
     0
 48
50.0
370
    -2
100
AcDbBlockReference
  2
_DOTSMALL
 10
5981.671157149675
 20
2272.319098397104
 30
0.0
 41
100.0
 42
100.0
 43
100.0
 50
90.0
  0
INSERT
  5
13748
330
13742
100
AcDbEntity
  8
寸法
 62
     0
 48
50.0
370
    -2
100
AcDbBlockReference
  2
_DOTSMALL
 10
5981.671157149674
 20
1371.653473397103
 30
0.0
 41
100.0
 42
100.0
 43
100.0
 50
270.0
  0
MTEXT
  5
13749
330
13742
100
AcDbEntity
  8
寸法
 62
     7
 48
50.0
100
AcDbMText
 10
5881.671157149674
 20
1821.986285897105
 30
0.0
 40
120.0
 41
0.0
 71
     5
 72
     1
  1
\A1;450
  7
STYLE1
 11
0.0000000000000001
 21
1.0
 31
0.0
 73
     1
 44
1.0
1001
ACAD
1000
MTEXTBEGIN
1070
    73
1070
     1
1070
    44
1040
1.0
1070
    74
1070
     0
1000
MTEXTEND
  0
POINT
  5
1374A
330
13742
100
AcDbEntity
  8
DEFPOINTS
 62
     0
 48
50.0
100
AcDbPoint
 10
6363.789827176105
 20
2272.319098397104
 30
0.0
  0
POINT
  5
1374B
330
13742
100
AcDbEntity
  8
DEFPOINTS
 62
     0
 48
50.0
100
AcDbPoint
 10
6871.142525974295
 20
1371.653473397103
 30
0.0
  0
POINT
  5
1374C
330
13742
100
AcDbEntity
  8
DEFPOINTS
 62
     0
 48
50.0
100
AcDbPoint
 10
5981.671157149674
 20
1371.653473397103
 30
0.0
  0
ENDBLK
  5
1374D
330
13742
100
AcDbEntity
  8
0
 48
50.0
100
AcDbBlockEnd
  0
BLOCK
  5
1374F
330
1374E
100
AcDbEntity
  8
0
 48
50.0
100
AcDbBlockBegin
  2
*D58
 70
     1
 10
0.0
 20
0.0
 30
0.0
  3
*D58
  1

  0
LINE
  5
13750
330
1374E
100
AcDbEntity
  8
寸法
 62
     0
 48
50.0
370
    -2
100
AcDbLine
 10
7487.206150475266
 20
1730.799723397104
 30
0.0
 11
6102.345878162889
 21
1730.799723397104
 31
0.0
  0
LINE
  5
13751
330
1374E
100
AcDbEntity
  8
寸法
 62
     0
 48
50.0
370
    -2
100
AcDbLine
 10
6851.142525974295
 20
1371.653473397103
 30
0.0
 11
6102.345878162889
 21
1371.653473397103
 31
0.0
  0
LINE
  5
13752
330
1374E
100
AcDbEntity
  8
寸法
 62
     0
 48
50.0
370
    -2
100
AcDbLine
 10
6162.34587816289
 20
1730.799723397104
 30
0.0
 11
6162.34587816289
 21
1371.653473397103
 31
0.0
  0
INSERT
  5
13753
330
1374E
100
AcDbEntity
  8
寸法
 62
     0
 48
50.0
370
    -2
100
AcDbBlockReference
  2
_DOTSMALL
 10
6162.34587816289
 20
1730.799723397104
 30
0.0
 41
100.0
 42
100.0
 43
100.0
 50
90.0
  0
INSERT
  5
13754
330
1374E
100
AcDbEntity
  8
寸法
 62
     0
 48
50.0
370
    -2
100
AcDbBlockReference
  2
_DOTSMALL
 10
6162.34587816289
 20
1371.653473397103
 30
0.0
 41
100.0
 42
100.0
 43
100.0
 50
270.0
  0
MTEXT
  5
13755
330
1374E
100
AcDbEntity
  8
寸法
 62
     7
 48
50.0
100
AcDbMText
 10
6062.34587816289
 20
1515.026598397103
 30
0.0
 40
120.0
 41
0.0
 71
     5
 72
     1
  1
\A1;180
  7
STYLE1
 11
0.0000000000000001
 21
1.0
 31
0.0
 73
     1
 44
1.0
1001
ACAD
1000
MTEXTBEGIN
1070
    73
1070
     1
1070
    44
1040
1.0
1070
    74
1070
     0
1000
MTEXTEND
  0
POINT
  5
13756
330
1374E
100
AcDbEntity
  8
DEFPOINTS
 62
     0
 48
50.0
100
AcDbPoint
 10
7507.206150475266
 20
1730.799723397104
 30
0.0
  0
POINT
  5
13757
330
1374E
100
AcDbEntity
  8
DEFPOINTS
 62
     0
 48
50.0
100
AcDbPoint
 10
6871.142525974295
 20
1371.653473397103
 30
0.0
  0
POINT
  5
13758
330
1374E
100
AcDbEntity
  8
DEFPOINTS
 62
     0
 48
50.0
100
AcDbPoint
 10
6162.34587816289
 20
1371.653473397103
 30
0.0
  0
ENDBLK
  5
13759
330
1374E
100
AcDbEntity
  8
0
 48
50.0
100
AcDbBlockEnd
  0
BLOCK
  5
1375B
330
1375A
100
AcDbEntity
  8
0
 48
50.0
100
AcDbBlockBegin
  2
*D59
 70
     1
 10
0.0
 20
0.0
 30
0.0
  3
*D59
  1

  0
LINE
  5
1375C
330
1375A
100
AcDbEntity
  8
寸法
 62
     0
 48
50.0
370
    -2
100
AcDbLine
 10
6851.142525974303
 20
1371.653473397103
 30
0.0
 11
5921.671157149674
 21
1371.653473397103
 31
0.0
  0
LINE
  5
1375D
330
1375A
100
AcDbEntity
  8
寸法
 62
     0
 48
50.0
370
    -2
100
AcDbLine
 10
6851.142525974295
 20
1271.753473397105
 30
0.0
 11
5921.671157149674
 21
1271.753473397105
 31
0.0
  0
LINE
  5
1375E
330
1375A
100
AcDbEntity
  8
寸法
 62
     0
 48
50.0
370
    -2
100
AcDbLine
 10
5981.671157149674
 20
1371.653473397103
 30
0.0
 11
5981.671157149674
 21
1471.653473397103
 31
0.0
  0
LINE
  5
1375F
330
1375A
100
AcDbEntity
  8
寸法
 62
     0
 48
50.0
370
    -2
100
AcDbLine
 10
5981.671157149674
 20
1271.753473397105
 30
0.0
 11
5981.671157149674
 21
1171.753473397105
 31
0.0
  0
LINE
  5
13760
330
1375A
100
AcDbEntity
  8
寸法
 62
     0
 48
50.0
370
    -2
100
AcDbLine
 10
5981.671157149674
 20
1371.653473397103
 30
0.0
 11
5981.671157149674
 21
1271.753473397105
 31
0.0
  0
INSERT
  5
13761
330
1375A
100
AcDbEntity
  8
寸法
 62
     0
 48
50.0
370
    -2
100
AcDbBlockReference
  2
_DOTSMALL
 10
5981.671157149674
 20
1371.653473397103
 30
0.0
 41
100.0
 42
100.0
 43
100.0
 50
270.0
  0
INSERT
  5
13762
330
1375A
100
AcDbEntity
  8
寸法
 62
     0
 48
50.0
370
    -2
100
AcDbBlockReference
  2
_DOTSMALL
 10
5981.671157149674
 20
1271.753473397105
 30
0.0
 41
100.0
 42
100.0
 43
100.0
 50
90.0
  0
MTEXT
  5
13763
330
1375A
100
AcDbEntity
  8
寸法
 62
     7
 48
50.0
100
AcDbMText
 10
5881.671157149674
 20
1321.703473397105
 30
0.0
 40
120.0
 41
0.0
 71
     5
 72
     1
  1
\A1;50
  7
STYLE1
 11
0.0000000000000001
 21
1.0
 31
0.0
 73
     1
 44
1.0
1001
ACAD
1000
MTEXTBEGIN
1070
    73
1070
     1
1070
    44
1040
1.0
1070
    74
1070
     0
1000
MTEXTEND
  0
POINT
  5
13764
330
1375A
100
AcDbEntity
  8
DEFPOINTS
 62
     0
 48
50.0
100
AcDbPoint
 10
6871.142525974303
 20
1371.653473397103
 30
0.0
  0
POINT
  5
13765
330
1375A
100
AcDbEntity
  8
DEFPOINTS
 62
     0
 48
50.0
100
AcDbPoint
 10
6871.142525974295
 20
1271.753473397105
 30
0.0
  0
POINT
  5
13766
330
1375A
100
AcDbEntity
  8
DEFPOINTS
 62
     0
 48
50.0
100
AcDbPoint
 10
5981.671157149674
 20
1271.753473397105
 30
0.0
  0
ENDBLK
  5
13767
330
1375A
100
AcDbEntity
  8
0
 48
50.0
100
AcDbBlockEnd
  0
BLOCK
  5
13769
330
13768
100
AcDbEntity
  8
0
 48
50.0
100
AcDbBlockBegin
  2
*D60
 70
     1
 10
0.0
 20
0.0
 30
0.0
  3
*D60
  1

  0
LINE
  5
1376A
330
13768
100
AcDbEntity
  8
寸法
 62
     0
 48
50.0
370
    -2
100
AcDbLine
 10
6343.789827176104
 20
2272.319098397104
 30
0.0
 11
5921.671157149674
 21
2272.319098397104
 31
0.0
  0
LINE
  5
1376B
330
13768
100
AcDbEntity
  8
寸法
 62
     0
 48
50.0
370
    -2
100
AcDbLine
 10
9302.560497758518
 20
2371.50195824559
 30
0.0
 11
5921.671157149674
 21
2371.501958245591
 31
0.0
  0
LINE
  5
1376C
330
13768
100
AcDbEntity
  8
寸法
 62
     0
 48
50.0
370
    -2
100
AcDbLine
 10
5981.671157149674
 20
2272.319098397104
 30
0.0
 11
5981.671157149674
 21
2371.501958245591
 31
0.0
  0
LINE
  5
1376D
330
13768
100
AcDbEntity
  8
寸法
 62
     0
 48
50.0
370
    -2
100
AcDbLine
 10
5981.671157149674
 20
2371.501958245591
 30
0.0
 11
5981.671157149674
 21
2809.106627858645
 31
0.0
  0
INSERT
  5
1376E
330
13768
100
AcDbEntity
  8
寸法
 62
     0
 48
50.0
370
    -2
100
AcDbBlockReference
  2
_DOTSMALL
 10
5981.671157149674
 20
2272.319098397104
 30
0.0
 41
100.0
 42
100.0
 43
100.0
 50
270.0
  0
INSERT
  5
1376F
330
13768
100
AcDbEntity
  8
寸法
 62
     0
 48
50.0
370
    -2
100
AcDbBlockReference
  2
_DOTSMALL
 10
5981.671157149674
 20
2371.501958245591
 30
0.0
 41
100.0
 42
100.0
 43
100.0
 50
90.0
  0
MTEXT
  5
13770
330
13768
100
AcDbEntity
  8
寸法
 62
     7
 48
50.0
100
AcDbMText
 10
5875.671157149673
 20
2655.153871953134
 30
0.0
 40
120.0
 41
0.0
 71
     5
 72
     1
  1
\A1;(50)
  7
STYLE1
 11
0.0000000000000001
 21
1.0
 31
0.0
 73
     1
 44
1.0
1001
ACAD
1000
MTEXTBEGIN
1070
    73
1070
     1
1070
    44
1040
1.0
1070
    74
1070
     0
1000
MTEXTEND
  0
POINT
  5
13771
330
13768
100
AcDbEntity
  8
DEFPOINTS
 62
     0
 48
50.0
100
AcDbPoint
 10
6363.789827176105
 20
2272.319098397104
 30
0.0
  0
POINT
  5
13772
330
13768
100
AcDbEntity
  8
DEFPOINTS
 62
     0
 48
50.0
100
AcDbPoint
 10
9322.560497758518
 20
2371.50195824559
 30
0.0
  0
POINT
  5
13773
330
13768
100
AcDbEntity
  8
DEFPOINTS
 62
     0
 48
50.0
100
AcDbPoint
 10
5981.671157149674
 20
2371.501958245591
 30
0.0
  0
ENDBLK
  5
13774
330
13768
100
AcDbEntity
  8
0
 48
50.0
100
AcDbBlockEnd
  0
BLOCK
  5
13776
330
13775
100
AcDbEntity
  8
0
 48
50.0
100
AcDbBlockBegin
  2
*D61
 70
     1
 10
0.0
 20
0.0
 30
0.0
  3
*D61
  1

  0
LINE
  5
13777
330
13775
100
AcDbEntity
  8
寸法
 62
     0
 48
50.0
370
    -2
100
AcDbLine
 10
6343.789827176105
 20
2272.319098397104
 30
0.0
 11
6097.711804370892
 21
2272.319098397104
 31
0.0
  0
LINE
  5
13778
330
13775
100
AcDbEntity
  8
寸法
 62
     0
 48
50.0
370
    -2
100
AcDbLine
 10
6307.975533552198
 20
2171.778473397104
 30
0.0
 11
6097.711804370892
 21
2171.778473397104
 31
0.0
  0
LINE
  5
13779
330
13775
100
AcDbEntity
  8
寸法
 62
     0
 48
50.0
370
    -2
100
AcDbLine
 10
6157.711804370893
 20
2272.319098397104
 30
0.0
 11
6157.711804370893
 21
2171.778473397104
 31
0.0
  0
INSERT
  5
1377A
330
13775
100
AcDbEntity
  8
寸法
 62
     0
 48
50.0
370
    -2
100
AcDbBlockReference
  2
_DOTSMALL
 10
6157.711804370893
 20
2272.319098397104
 30
0.0
 41
100.0
 42
100.0
 43
100.0
 50
90.0
  0
INSERT
  5
1377B
330
13775
100
AcDbEntity
  8
寸法
 62
     0
 48
50.0
370
    -2
100
AcDbBlockReference
  2
_DOTSMALL
 10
6157.711804370893
 20
2171.778473397104
 30
0.0
 41
100.0
 42
100.0
 43
100.0
 50
270.0
  0
MTEXT
  5
1377C
330
13775
100
AcDbEntity
  8
寸法
 62
     7
 48
50.0
100
AcDbMText
 10
6057.711804370891
 20
2222.048785897105
 30
0.0
 40
120.0
 41
0.0
 71
     5
 72
     1
  1
\A1;50
  7
STYLE1
 11
0.0000000000000001
 21
1.0
 31
0.0
 73
     1
 44
1.0
1001
ACAD
1000
MTEXTBEGIN
1070
    73
1070
     1
1070
    44
1040
1.0
1070
    74
1070
     0
1000
MTEXTEND
  0
POINT
  5
1377D
330
13775
100
AcDbEntity
  8
DEFPOINTS
 62
     0
 48
50.0
100
AcDbPoint
 10
6363.789827176105
 20
2272.319098397104
 30
0.0
  0
POINT
  5
1377E
330
13775
100
AcDbEntity
  8
DEFPOINTS
 62
     0
 48
50.0
100
AcDbPoint
 10
6327.975533552198
 20
2171.778473397104
 30
0.0
  0
POINT
  5
1377F
330
13775
100
AcDbEntity
  8
DEFPOINTS
 62
     0
 48
50.0
100
AcDbPoint
 10
6157.711804370893
 20
2171.778473397104
 30
0.0
  0
ENDBLK
  5
13780
330
13775
100
AcDbEntity
  8
0
 48
50.0
100
AcDbBlockEnd
  0
BLOCK
  5
13902
330
138F7
100
AcDbEntity
  8
0
 48
50.0
100
AcDbBlockBegin
  2
*D63
 70
     1
 10
0.0
 20
0.0
 30
0.0
  3
*D63
  1

  0
LINE
  5
1394E
330
138F7
100
AcDbEntity
  8
寸法
 62
     0
 48
50.0
370
    -2
100
AcDbLine
 10
6343.789827176104
 20
2272.319098397104
 30
0.0
 11
5921.671157149674
 21
2272.319098397104
 31
0.0
  0
LINE
  5
1394F
330
138F7
100
AcDbEntity
  8
寸法
 62
     0
 48
50.0
370
    -2
100
AcDbLine
 10
9302.560497758518
 20
2371.50195824559
 30
0.0
 11
5921.671157149674
 21
2371.501958245591
 31
0.0
  0
LINE
  5
13950
330
138F7
100
AcDbEntity
  8
寸法
 62
     0
 48
50.0
370
    -2
100
AcDbLine
 10
5981.671157149674
 20
2272.319098397104
 30
0.0
 11
5981.671157149674
 21
2371.501958245591
 31
0.0
  0
LINE
  5
13951
330
138F7
100
AcDbEntity
  8
寸法
 62
     0
 48
50.0
370
    -2
100
AcDbLine
 10
5981.671157149674
 20
2371.501958245591
 30
0.0
 11
5981.671157149674
 21
2809.106627858645
 31
0.0
  0
INSERT
  5
13952
330
138F7
100
AcDbEntity
  8
寸法
 62
     0
 48
50.0
370
    -2
100
AcDbBlockReference
  2
_DOTSMALL
 10
5981.671157149674
 20
2272.319098397104
 30
0.0
 41
100.0
 42
100.0
 43
100.0
 50
270.0
  0
INSERT
  5
13953
330
138F7
100
AcDbEntity
  8
寸法
 62
     0
 48
50.0
370
    -2
100
AcDbBlockReference
  2
_DOTSMALL
 10
5981.671157149674
 20
2371.501958245591
 30
0.0
 41
100.0
 42
100.0
 43
100.0
 50
90.0
  0
MTEXT
  5
13954
330
138F7
100
AcDbEntity
  8
寸法
 62
     7
 48
50.0
100
AcDbMText
 10
5875.671157149673
 20
2655.153871953134
 30
0.0
 40
120.0
 41
0.0
 71
     5
 72
     1
  1
\A1;(50)
  7
STYLE1
 11
0.0000000000000001
 21
1.0
 31
0.0
 73
     1
 44
1.0
1001
ACAD
1000
MTEXTBEGIN
1070
    73
1070
     1
1070
    44
1040
1.0
1070
    74
1070
     0
1000
MTEXTEND
  0
POINT
  5
13955
330
138F7
100
AcDbEntity
  8
DEFPOINTS
 62
     0
 48
50.0
100
AcDbPoint
 10
6363.789827176105
 20
2272.319098397104
 30
0.0
  0
POINT
  5
13956
330
138F7
100
AcDbEntity
  8
DEFPOINTS
 62
     0
 48
50.0
100
AcDbPoint
 10
9322.560497758518
 20
2371.50195824559
 30
0.0
  0
POINT
  5
13957
330
138F7
100
AcDbEntity
  8
DEFPOINTS
 62
     0
 48
50.0
100
AcDbPoint
 10
5981.671157149674
 20
2371.501958245591
 30
0.0
  0
ENDBLK
  5
13903
330
138F7
100
AcDbEntity
  8
0
 48
50.0
100
AcDbBlockEnd
  0
BLOCK
  5
1390E
330
13904
100
AcDbEntity
  8
0
 48
50.0
100
AcDbBlockBegin
  2
*D64
 70
     1
 10
0.0
 20
0.0
 30
0.0
  3
*D64
  1

  0
LINE
  5
13958
330
13904
100
AcDbEntity
  8
寸法
 62
     0
 48
50.0
370
    -2
100
AcDbLine
 10
6343.789827176105
 20
2272.319098397104
 30
0.0
 11
6097.711804370892
 21
2272.319098397104
 31
0.0
  0
LINE
  5
13959
330
13904
100
AcDbEntity
  8
寸法
 62
     0
 48
50.0
370
    -2
100
AcDbLine
 10
6307.975533552198
 20
2171.778473397104
 30
0.0
 11
6097.711804370892
 21
2171.778473397104
 31
0.0
  0
LINE
  5
1395A
330
13904
100
AcDbEntity
  8
寸法
 62
     0
 48
50.0
370
    -2
100
AcDbLine
 10
6157.711804370893
 20
2272.319098397104
 30
0.0
 11
6157.711804370893
 21
2171.778473397104
 31
0.0
  0
INSERT
  5
1395B
330
13904
100
AcDbEntity
  8
寸法
 62
     0
 48
50.0
370
    -2
100
AcDbBlockReference
  2
_DOTSMALL
 10
6157.711804370893
 20
2272.319098397104
 30
0.0
 41
100.0
 42
100.0
 43
100.0
 50
90.0
  0
INSERT
  5
1395C
330
13904
100
AcDbEntity
  8
寸法
 62
     0
 48
50.0
370
    -2
100
AcDbBlockReference
  2
_DOTSMALL
 10
6157.711804370893
 20
2171.778473397104
 30
0.0
 41
100.0
 42
100.0
 43
100.0
 50
270.0
  0
MTEXT
  5
1395D
330
13904
100
AcDbEntity
  8
寸法
 62
     7
 48
50.0
100
AcDbMText
 10
6057.711804370891
 20
2222.048785897105
 30
0.0
 40
120.0
 41
0.0
 71
     5
 72
     1
  1
\A1;50
  7
STYLE1
 11
0.0000000000000001
 21
1.0
 31
0.0
 73
     1
 44
1.0
1001
ACAD
1000
MTEXTBEGIN
1070
    73
1070
     1
1070
    44
1040
1.0
1070
    74
1070
     0
1000
MTEXTEND
  0
POINT
  5
1395E
330
13904
100
AcDbEntity
  8
DEFPOINTS
 62
     0
 48
50.0
100
AcDbPoint
 10
6363.789827176105
 20
2272.319098397104
 30
0.0
  0
POINT
  5
1395F
330
13904
100
AcDbEntity
  8
DEFPOINTS
 62
     0
 48
50.0
100
AcDbPoint
 10
6327.975533552198
 20
2171.778473397104
 30
0.0
  0
POINT
  5
13960
330
13904
100
AcDbEntity
  8
DEFPOINTS
 62
     0
 48
50.0
100
AcDbPoint
 10
6157.711804370893
 20
2171.778473397104
 30
0.0
  0
ENDBLK
  5
1390F
330
13904
100
AcDbEntity
  8
0
 48
50.0
100
AcDbBlockEnd
  0
BLOCK
  5
1391A
330
13910
100
AcDbEntity
  8
0
 48
50.0
100
AcDbBlockBegin
  2
*D65
 70
     1
 10
0.0
 20
0.0
 30
0.0
  3
*D65
  1

  0
LINE
  5
13961
330
13910
100
AcDbEntity
  8
寸法
 62
     0
 48
50.0
370
    -2
100
AcDbLine
 10
6343.789827176105
 20
2272.319098397104
 30
0.0
 11
5921.671157149674
 21
2272.319098397104
 31
0.0
  0
LINE
  5
13962
330
13910
100
AcDbEntity
  8
寸法
 62
     0
 48
50.0
370
    -2
100
AcDbLine
 10
6851.142525974295
 20
1371.653473397103
 30
0.0
 11
5921.671157149674
 21
1371.653473397103
 31
0.0
  0
LINE
  5
13963
330
13910
100
AcDbEntity
  8
寸法
 62
     0
 48
50.0
370
    -2
100
AcDbLine
 10
5981.671157149675
 20
2272.319098397104
 30
0.0
 11
5981.671157149674
 21
1371.653473397103
 31
0.0
  0
INSERT
  5
13964
330
13910
100
AcDbEntity
  8
寸法
 62
     0
 48
50.0
370
    -2
100
AcDbBlockReference
  2
_DOTSMALL
 10
5981.671157149675
 20
2272.319098397104
 30
0.0
 41
100.0
 42
100.0
 43
100.0
 50
90.0
  0
INSERT
  5
13965
330
13910
100
AcDbEntity
  8
寸法
 62
     0
 48
50.0
370
    -2
100
AcDbBlockReference
  2
_DOTSMALL
 10
5981.671157149674
 20
1371.653473397103
 30
0.0
 41
100.0
 42
100.0
 43
100.0
 50
270.0
  0
MTEXT
  5
13966
330
13910
100
AcDbEntity
  8
寸法
 62
     7
 48
50.0
100
AcDbMText
 10
5881.671157149674
 20
1821.986285897105
 30
0.0
 40
120.0
 41
0.0
 71
     5
 72
     1
  1
\A1;450
  7
STYLE1
 11
0.0000000000000001
 21
1.0
 31
0.0
 73
     1
 44
1.0
1001
ACAD
1000
MTEXTBEGIN
1070
    73
1070
     1
1070
    44
1040
1.0
1070
    74
1070
     0
1000
MTEXTEND
  0
POINT
  5
13967
330
13910
100
AcDbEntity
  8
DEFPOINTS
 62
     0
 48
50.0
100
AcDbPoint
 10
6363.789827176105
 20
2272.319098397104
 30
0.0
  0
POINT
  5
13968
330
13910
100
AcDbEntity
  8
DEFPOINTS
 62
     0
 48
50.0
100
AcDbPoint
 10
6871.142525974295
 20
1371.653473397103
 30
0.0
  0
POINT
  5
13969
330
13910
100
AcDbEntity
  8
DEFPOINTS
 62
     0
 48
50.0
100
AcDbPoint
 10
5981.671157149674
 20
1371.653473397103
 30
0.0
  0
ENDBLK
  5
1391B
330
13910
100
AcDbEntity
  8
0
 48
50.0
100
AcDbBlockEnd
  0
BLOCK
  5
13926
330
1391C
100
AcDbEntity
  8
0
 48
50.0
100
AcDbBlockBegin
  2
*D66
 70
     1
 10
0.0
 20
0.0
 30
0.0
  3
*D66
  1

  0
LINE
  5
1396A
330
1391C
100
AcDbEntity
  8
寸法
 62
     0
 48
50.0
370
    -2
100
AcDbLine
 10
7487.206150475266
 20
1730.799723397104
 30
0.0
 11
6102.345878162889
 21
1730.799723397104
 31
0.0
  0
LINE
  5
1396B
330
1391C
100
AcDbEntity
  8
寸法
 62
     0
 48
50.0
370
    -2
100
AcDbLine
 10
6851.142525974295
 20
1371.653473397103
 30
0.0
 11
6102.345878162889
 21
1371.653473397103
 31
0.0
  0
LINE
  5
1396C
330
1391C
100
AcDbEntity
  8
寸法
 62
     0
 48
50.0
370
    -2
100
AcDbLine
 10
6162.34587816289
 20
1730.799723397104
 30
0.0
 11
6162.34587816289
 21
1371.653473397103
 31
0.0
  0
INSERT
  5
1396D
330
1391C
100
AcDbEntity
  8
寸法
 62
     0
 48
50.0
370
    -2
100
AcDbBlockReference
  2
_DOTSMALL
 10
6162.34587816289
 20
1730.799723397104
 30
0.0
 41
100.0
 42
100.0
 43
100.0
 50
90.0
  0
INSERT
  5
1396E
330
1391C
100
AcDbEntity
  8
寸法
 62
     0
 48
50.0
370
    -2
100
AcDbBlockReference
  2
_DOTSMALL
 10
6162.34587816289
 20
1371.653473397103
 30
0.0
 41
100.0
 42
100.0
 43
100.0
 50
270.0
  0
MTEXT
  5
1396F
330
1391C
100
AcDbEntity
  8
寸法
 62
     7
 48
50.0
100
AcDbMText
 10
6062.34587816289
 20
1515.026598397103
 30
0.0
 40
120.0
 41
0.0
 71
     5
 72
     1
  1
\A1;180
  7
STYLE1
 11
0.0000000000000001
 21
1.0
 31
0.0
 73
     1
 44
1.0
1001
ACAD
1000
MTEXTBEGIN
1070
    73
1070
     1
1070
    44
1040
1.0
1070
    74
1070
     0
1000
MTEXTEND
  0
POINT
  5
13970
330
1391C
100
AcDbEntity
  8
DEFPOINTS
 62
     0
 48
50.0
100
AcDbPoint
 10
7507.206150475266
 20
1730.799723397104
 30
0.0
  0
POINT
  5
13971
330
1391C
100
AcDbEntity
  8
DEFPOINTS
 62
     0
 48
50.0
100
AcDbPoint
 10
6871.142525974295
 20
1371.653473397103
 30
0.0
  0
POINT
  5
13972
330
1391C
100
AcDbEntity
  8
DEFPOINTS
 62
     0
 48
50.0
100
AcDbPoint
 10
6162.34587816289
 20
1371.653473397103
 30
0.0
  0
ENDBLK
  5
13927
330
1391C
100
AcDbEntity
  8
0
 48
50.0
100
AcDbBlockEnd
  0
BLOCK
  5
13932
330
13928
100
AcDbEntity
  8
0
 48
50.0
100
AcDbBlockBegin
  2
*D67
 70
     1
 10
0.0
 20
0.0
 30
0.0
  3
*D67
  1

  0
LINE
  5
13973
330
13928
100
AcDbEntity
  8
寸法
 62
     0
 48
50.0
370
    -2
100
AcDbLine
 10
6307.975533552198
 20
2171.778473397104
 30
0.0
 11
6102.34587816289
 21
2171.778473397104
 31
0.0
  0
LINE
  5
13974
330
13928
100
AcDbEntity
  8
寸法
 62
     0
 48
50.0
370
    -2
100
AcDbLine
 10
7502.206150475267
 20
1730.799723397104
 30
0.0
 11
6102.345878162889
 21
1730.799723397104
 31
0.0
  0
LINE
  5
13975
330
13928
100
AcDbEntity
  8
寸法
 62
     0
 48
50.0
370
    -2
100
AcDbLine
 10
6162.345878162891
 20
2171.778473397104
 30
0.0
 11
6162.34587816289
 21
1730.799723397104
 31
0.0
  0
INSERT
  5
13976
330
13928
100
AcDbEntity
  8
寸法
 62
     0
 48
50.0
370
    -2
100
AcDbBlockReference
  2
_DOTSMALL
 10
6162.345878162891
 20
2171.778473397104
 30
0.0
 41
100.0
 42
100.0
 43
100.0
 50
90.0
  0
INSERT
  5
13977
330
13928
100
AcDbEntity
  8
寸法
 62
     0
 48
50.0
370
    -2
100
AcDbBlockReference
  2
_DOTSMALL
 10
6162.34587816289
 20
1730.799723397104
 30
0.0
 41
100.0
 42
100.0
 43
100.0
 50
270.0
  0
MTEXT
  5
13978
330
13928
100
AcDbEntity
  8
寸法
 62
     7
 48
50.0
100
AcDbMText
 10
6062.334067139268
 20
1951.289098397104
 30
0.0
 40
120.0
 41
0.0
 71
     5
 72
     1
  1
\A1;220
  7
STYLE1
 11
0.0000000000000001
 21
1.0
 31
0.0
 73
     1
 44
1.0
1001
ACAD
1000
MTEXTBEGIN
1070
    73
1070
     1
1070
    44
1040
1.0
1070
    74
1070
     0
1000
MTEXTEND
  0
POINT
  5
13979
330
13928
100
AcDbEntity
  8
DEFPOINTS
 62
     0
 48
50.0
100
AcDbPoint
 10
6327.975533552198
 20
2171.778473397104
 30
0.0
  0
POINT
  5
1397A
330
13928
100
AcDbEntity
  8
DEFPOINTS
 62
     0
 48
50.0
100
AcDbPoint
 10
7522.206150475266
 20
1730.799723397104
 30
0.0
  0
POINT
  5
1397B
330
13928
100
AcDbEntity
  8
DEFPOINTS
 62
     0
 48
50.0
100
AcDbPoint
 10
6162.34587816289
 20
1730.799723397104
 30
0.0
  0
ENDBLK
  5
13933
330
13928
100
AcDbEntity
  8
0
 48
50.0
100
AcDbBlockEnd
  0
BLOCK
  5
1393E
330
13934
100
AcDbEntity
  8
0
 48
50.0
100
AcDbBlockBegin
  2
*D68
 70
     1
 10
0.0
 20
0.0
 30
0.0
  3
*D68
  1

  0
LINE
  5
1397C
330
13934
100
AcDbEntity
  8
寸法
 62
     0
 48
50.0
370
    -2
100
AcDbLine
 10
6967.356645224433
 20
1041.753473397105
 30
0.0
 11
6967.356645224433
 21
719.5662246076198
 31
0.0
  0
LINE
  5
1397D
330
13934
100
AcDbEntity
  8
寸法
 62
     0
 48
50.0
370
    -2
100
AcDbLine
 10
8167.356645224433
 20
1041.753473397105
 30
0.0
 11
8167.356645224433
 21
719.5662246076198
 31
0.0
  0
LINE
  5
1397E
330
13934
100
AcDbEntity
  8
寸法
 62
     0
 48
50.0
370
    -2
100
AcDbLine
 10
6967.356645224433
 20
779.5662246076199
 30
0.0
 11
8167.356645224433
 21
779.5662246076199
 31
0.0
  0
INSERT
  5
1397F
330
13934
100
AcDbEntity
  8
寸法
 62
     0
 48
50.0
370
    -2
100
AcDbBlockReference
  2
_DOTSMALL
 10
6967.356645224433
 20
779.5662246076199
 30
0.0
 41
100.0
 42
100.0
 43
100.0
 50
180.0
  0
INSERT
  5
13980
330
13934
100
AcDbEntity
  8
寸法
 62
     0
 48
50.0
370
    -2
100
AcDbBlockReference
  2
_DOTSMALL
 10
8167.356645224433
 20
779.5662246076199
 30
0.0
 41
100.0
 42
100.0
 43
100.0
  0
MTEXT
  5
13981
330
13934
100
AcDbEntity
  8
寸法
 62
     7
 48
50.0
100
AcDbMText
 10
7567.356645224433
 20
879.5662246076199
 30
0.0
 40
120.0
 41
0.0
 71
     5
 72
     1
  1
\A1;600
  7
STYLE1
 73
     1
 44
1.0
1001
ACAD
1000
MTEXTBEGIN
1070
    73
1070
     1
1070
    44
1040
1.0
1070
    74
1070
     0
1000
MTEXTEND
  0
POINT
  5
13982
330
13934
100
AcDbEntity
  8
DEFPOINTS
 62
     0
 48
50.0
100
AcDbPoint
 10
6967.356645224433
 20
1061.753473397105
 30
0.0
  0
POINT
  5
13983
330
13934
100
AcDbEntity
  8
DEFPOINTS
 62
     0
 48
50.0
100
AcDbPoint
 10
8167.356645224433
 20
1061.753473397105
 30
0.0
  0
POINT
  5
13984
330
13934
100
AcDbEntity
  8
DEFPOINTS
 62
     0
 48
50.0
100
AcDbPoint
 10
8167.356645224433
 20
779.5662246076199
 30
0.0
  0
ENDBLK
  5
1393F
330
13934
100
AcDbEntity
  8
0
 48
50.0
100
AcDbBlockEnd
  0
BLOCK
  5
1394C
330
13940
100
AcDbEntity
  8
0
 48
50.0
100
AcDbBlockBegin
  2
*D69
 70
     1
 10
0.0
 20
0.0
 30
0.0
  3
*D69
  1

  0
LINE
  5
13985
330
13940
100
AcDbEntity
  8
寸法
 62
     0
 48
50.0
370
    -2
100
AcDbLine
 10
6851.142525974303
 20
1371.653473397103
 30
0.0
 11
5921.671157149674
 21
1371.653473397103
 31
0.0
  0
LINE
  5
13986
330
13940
100
AcDbEntity
  8
寸法
 62
     0
 48
50.0
370
    -2
100
AcDbLine
 10
6851.142525974295
 20
1271.753473397105
 30
0.0
 11
5921.671157149674
 21
1271.753473397105
 31
0.0
  0
LINE
  5
13987
330
13940
100
AcDbEntity
  8
寸法
 62
     0
 48
50.0
370
    -2
100
AcDbLine
 10
5981.671157149674
 20
1371.653473397103
 30
0.0
 11
5981.671157149674
 21
1471.653473397103
 31
0.0
  0
LINE
  5
13988
330
13940
100
AcDbEntity
  8
寸法
 62
     0
 48
50.0
370
    -2
100
AcDbLine
 10
5981.671157149674
 20
1271.753473397105
 30
0.0
 11
5981.671157149674
 21
1171.753473397105
 31
0.0
  0
LINE
  5
13989
330
13940
100
AcDbEntity
  8
寸法
 62
     0
 48
50.0
370
    -2
100
AcDbLine
 10
5981.671157149674
 20
1371.653473397103
 30
0.0
 11
5981.671157149674
 21
1271.753473397105
 31
0.0
  0
INSERT
  5
1398A
330
13940
100
AcDbEntity
  8
寸法
 62
     0
 48
50.0
370
    -2
100
AcDbBlockReference
  2
_DOTSMALL
 10
5981.671157149674
 20
1371.653473397103
 30
0.0
 41
100.0
 42
100.0
 43
100.0
 50
270.0
  0
INSERT
  5
1398B
330
13940
100
AcDbEntity
  8
寸法
 62
     0
 48
50.0
370
    -2
100
AcDbBlockReference
  2
_DOTSMALL
 10
5981.671157149674
 20
1271.753473397105
 30
0.0
 41
100.0
 42
100.0
 43
100.0
 50
90.0
  0
MTEXT
  5
1398C
330
13940
100
AcDbEntity
  8
寸法
 62
     7
 48
50.0
100
AcDbMText
 10
5881.671157149674
 20
1321.703473397105
 30
0.0
 40
120.0
 41
0.0
 71
     5
 72
     1
  1
\A1;50
  7
STYLE1
 11
0.0000000000000001
 21
1.0
 31
0.0
 73
     1
 44
1.0
1001
ACAD
1000
MTEXTBEGIN
1070
    73
1070
     1
1070
    44
1040
1.0
1070
    74
1070
     0
1000
MTEXTEND
  0
POINT
  5
1398D
330
13940
100
AcDbEntity
  8
DEFPOINTS
 62
     0
 48
50.0
100
AcDbPoint
 10
6871.142525974303
 20
1371.653473397103
 30
0.0
  0
POINT
  5
1398E
330
13940
100
AcDbEntity
  8
DEFPOINTS
 62
     0
 48
50.0
100
AcDbPoint
 10
6871.142525974295
 20
1271.753473397105
 30
0.0
  0
POINT
  5
1398F
330
13940
100
AcDbEntity
  8
DEFPOINTS
 62
     0
 48
50.0
100
AcDbPoint
 10
5981.671157149674
 20
1271.753473397105
 30
0.0
  0
ENDBLK
  5
1394D
330
13940
100
AcDbEntity
  8
0
 48
50.0
100
AcDbBlockEnd
  0
ENDSEC
  0
SECTION
  2
ENTITIES
  0
LINE
  5
10B56
330
747D
100
AcDbEntity
  8
補助
  6
PHANTOM
 62
   230
 48
50.0
100
AcDbLine
 10
140.0
 20
0.0
 30
0.0
 11
139.9999999999995
 21
11409.6
 31
0.0
  0
LINE
  5
10B57
330
747D
100
AcDbEntity
  8
補助
  6
PHANTOM
 62
   230
 48
50.0
100
AcDbLine
 10
139.9999999999995
 20
11409.6
 30
0.0
 11
16307.2
 21
11409.6
 31
0.0
  0
LINE
  5
10B59
330
747D
100
AcDbEntity
  8
仕様書枠
  6
Continuous
 48
50.0
100
AcDbLine
 10
13107.2
 20
1200.0
 30
0.0
 11
13107.2
 21
-0.0000000000000729
 31
0.0
  0
LINE
  5
10B5C
330
747D
100
AcDbEntity
  8
仕様書枠
 48
50.0
100
AcDbLine
 10
16307.2
 20
1200.0
 30
0.0
 11
16307.2
 21
-0.0000000000000909
 31
0.0
  0
LINE
  5
10B5D
330
747D
100
AcDbEntity
  8
仕様書枠
 48
50.0
100
AcDbLine
 10
140.0
 20
0.0
 30
0.0
 11
16307.2
 21
-0.0000000000000909
 31
0.0
  0
LINE
  5
10B5E
330
747D
100
AcDbEntity
  8
補助
  6
PHANTOM
 62
   230
 48
50.0
100
AcDbLine
 10
16307.2
 20
11409.6
 30
0.0
 11
16307.2
 21
1200.0
 31
0.0
  0
LINE
  5
10B6C
330
747D
100
AcDbEntity
  8
仕様書枠
 48
50.0
100
AcDbLine
 10
13107.2
 20
1200.0
 30
0.0
 11
16307.2
 21
1200.0
 31
0.0
  0
LINE
  5
10B6D
330
747D
100
AcDbEntity
  8
補助
  6
PHANTOM
 62
   230
 48
50.0
100
AcDbLine
 10
13107.2
 20
11409.6
 30
0.0
 11
13107.2
 21
4800.0
 31
0.0
  0
LINE
  5
10B6F
330
747D
100
AcDbEntity
  8
補助
  6
PHANTOM
 62
   230
 48
50.0
100
AcDbLine
 10
13107.2
 20
4800.0
 30
0.0
 11
16307.2
 21
4800.0
 31
0.0
  0
LINE
  5
10B72
330
747D
100
AcDbEntity
  8
文字
 62
     7
 48
50.0
100
AcDbLine
 10
13187.2
 20
400.0
 30
0.0
 11
16227.2
 21
400.0
 31
0.0
  0
TEXT
  5
10B73
330
747D
100
AcDbEntity
  8
文字
 48
50.0
100
AcDbText
 10
13162.9790565769
 20
895.0906074299405
 30
0.0
 40
200.0
  1
基 礎 図
  7
STYLE2
100
AcDbText
  0
TEXT
  5
10B74
330
747D
100
AcDbEntity
  8
文字
 48
50.0
100
AcDbText
 10
13201.43669998441
 20
477.2740661031255
 30
0.0
 40
160.0
  1
機種名
  7
STYLE2
100
AcDbText
  0
TEXT
  5
10B75
330
747D
100
AcDbEntity
  8
文字
 48
50.0
100
AcDbText
 10
13209.4053442172
 20
228.5435242569016
 30
0.0
 40
100.0
  1
○間口奥行寸法は柱芯寸法です。
  7
STYLE2
100
AcDbText
  0
LINE
  5
10B7B
330
747D
100
AcDbEntity
  8
仕様書枠
 48
50.0
100
AcDbLine
 10
13107.2
 20
800.0
 30
0.0
 11
14251.2
 21
800.0
 31
0.0
  0
LINE
  5
10B88
330
747D
100
AcDbEntity
  8
仕様書枠
  6
Continuous
 48
50.0
100
AcDbLine
 10
14251.2
 20
1200.0
 30
0.0
 11
14251.2
 21
800.0
 31
0.0
  0
TEXT
  5
10EA8
330
747D
100
AcDbEntity
  8
文字
 48
50.0
100
AcDbText
 10
14846.19295660994
 20
838.2527270729188
 30
0.0
 40
100.0
  1
～一般型～
  7
STYLE2
100
AcDbText
  0
LINE
  5
11793
330
747D
100
AcDbEntity
  8
点線
 48
50.0
100
AcDbLine
 10
6833.600000000004
 20
10206.74038870937
 30
0.0
 11
6833.600000000004
 21
5066.740388709376
 31
0.0
  0
LINE
  5
11794
330
747D
100
AcDbEntity
  8
点線
 48
50.0
100
AcDbLine
 10
6833.600000000004
 20
5066.740388709376
 30
0.0
 11
9613.600000000005
 21
5066.740388709376
 31
0.0
  0
LINE
  5
11795
330
747D
100
AcDbEntity
  8
点線
 48
50.0
100
AcDbLine
 10
9613.600000000005
 20
5066.740388709376
 30
0.0
 11
9613.600000000005
 21
10206.74038870937
 31
0.0
  0
LINE
  5
11796
330
747D
100
AcDbEntity
  8
点線
 48
50.0
100
AcDbLine
 10
9613.600000000005
 20
10206.74038870937
 30
0.0
 11
6833.600000000004
 21
10206.74038870937
 31
0.0
  0
LINE
  5
1179D
330
747D
100
AcDbEntity
  8
センター
 48
50.0
100
AcDbLine
 10
9663.600000000002
 20
9286.740388709375
 30
0.0
 11
9163.600000000007
 21
9286.740388709375
 31
0.0
  0
LINE
  5
1179E
330
747D
100
AcDbEntity
  8
センター
 48
50.0
100
AcDbLine
 10
6783.600000000004
 20
5986.740388709378
 30
0.0
 11
7283.600000000004
 21
5986.740388709377
 31
0.0
  0
LINE
  5
117A1
330
747D
100
AcDbEntity
  8
センター
 48
50.0
100
AcDbLine
 10
6783.600000000004
 20
7636.740388709377
 30
0.0
 11
7283.600000000004
 21
7636.740388709377
 31
0.0
  0
LINE
  5
117A3
330
747D
100
AcDbEntity
  8
センター
 48
50.0
100
AcDbLine
 10
7033.600000000004
 20
9536.740388709375
 30
0.0
 11
7033.600000000004
 21
9036.740388709377
 31
0.0
  0
LINE
  5
117A5
330
747D
100
AcDbEntity
  8
センター
 48
50.0
100
AcDbLine
 10
9413.600000000004
 20
5736.740388709378
 30
0.0
 11
9413.600000000004
 21
6236.740388709378
 31
0.0
  0
LINE
  5
117C4
330
747D
100
AcDbEntity
  8
文字
 48
50.0
100
AcDbLine
 10
7063.600000000004
 20
9316.740388709375
 30
0.0
 11
7003.600000000004
 21
9316.740388709375
 31
0.0
  0
LINE
  5
117C5
330
747D
100
AcDbEntity
  8
文字
 48
50.0
100
AcDbLine
 10
7063.600000000004
 20
9256.740388709374
 30
0.0
 11
7003.600000000004
 21
9256.740388709374
 31
0.0
  0
LINE
  5
117C6
330
747D
100
AcDbEntity
  8
文字
 48
50.0
100
AcDbLine
 10
7003.600000000004
 20
9316.740388709376
 30
0.0
 11
7003.600000000004
 21
9256.740388709374
 31
0.0
  0
LINE
  5
117C7
330
747D
100
AcDbEntity
  8
文字
 48
50.0
100
AcDbLine
 10
7063.600000000004
 20
9316.740388709376
 30
0.0
 11
7063.600000000004
 21
9256.740388709374
 31
0.0
  0
LINE
  5
117C8
330
747D
100
AcDbEntity
  8
文字
 48
50.0
100
AcDbLine
 10
9443.600000000003
 20
9316.740388709376
 30
0.0
 11
9443.600000000003
 21
9256.740388709374
 31
0.0
  0
LINE
  5
117C9
330
747D
100
AcDbEntity
  8
文字
 48
50.0
100
AcDbLine
 10
9383.600000000004
 20
9316.740388709376
 30
0.0
 11
9383.600000000004
 21
9256.740388709374
 31
0.0
  0
LINE
  5
117CA
330
747D
100
AcDbEntity
  8
文字
 48
50.0
100
AcDbLine
 10
9443.600000000003
 20
9256.740388709374
 30
0.0
 11
9383.600000000004
 21
9256.740388709374
 31
0.0
  0
LINE
  5
117CB
330
747D
100
AcDbEntity
  8
文字
 48
50.0
100
AcDbLine
 10
9443.600000000003
 20
9316.740388709375
 30
0.0
 11
9383.600000000004
 21
9316.740388709375
 31
0.0
  0
LINE
  5
117CC
330
747D
100
AcDbEntity
  8
文字
 48
50.0
100
AcDbLine
 10
7063.600000000004
 20
7666.740388709375
 30
0.0
 11
7063.600000000004
 21
7606.740388709375
 31
0.0
  0
LINE
  5
117CD
330
747D
100
AcDbEntity
  8
文字
 48
50.0
100
AcDbLine
 10
7003.600000000004
 20
7666.740388709375
 30
0.0
 11
7003.600000000004
 21
7606.740388709375
 31
0.0
  0
LINE
  5
117CE
330
747D
100
AcDbEntity
  8
文字
 48
50.0
100
AcDbLine
 10
7063.600000000004
 20
7606.740388709375
 30
0.0
 11
7003.600000000004
 21
7606.740388709375
 31
0.0
  0
LINE
  5
117CF
330
747D
100
AcDbEntity
  8
文字
 48
50.0
100
AcDbLine
 10
7063.600000000004
 20
7666.740388709375
 30
0.0
 11
7003.600000000004
 21
7666.740388709375
 31
0.0
  0
LINE
  5
117D0
330
747D
100
AcDbEntity
  8
文字
 48
50.0
100
AcDbLine
 10
9443.600000000003
 20
7666.740388709377
 30
0.0
 11
9443.600000000003
 21
7606.740388709375
 31
0.0
  0
LINE
  5
117D1
330
747D
100
AcDbEntity
  8
文字
 48
50.0
100
AcDbLine
 10
9383.600000000004
 20
7666.740388709377
 30
0.0
 11
9383.600000000004
 21
7606.740388709375
 31
0.0
  0
LINE
  5
117D2
330
747D
100
AcDbEntity
  8
文字
 48
50.0
100
AcDbLine
 10
9443.600000000003
 20
7606.740388709375
 30
0.0
 11
9383.600000000004
 21
7606.740388709375
 31
0.0
  0
LINE
  5
117D3
330
747D
100
AcDbEntity
  8
文字
 48
50.0
100
AcDbLine
 10
9443.600000000003
 20
7666.740388709375
 30
0.0
 11
9383.600000000004
 21
7666.740388709375
 31
0.0
  0
LINE
  5
117D4
330
747D
100
AcDbEntity
  8
文字
 48
50.0
100
AcDbLine
 10
7063.600000000004
 20
6016.740388709377
 30
0.0
 11
7063.600000000004
 21
5956.740388709375
 31
0.0
  0
LINE
  5
117D5
330
747D
100
AcDbEntity
  8
文字
 48
50.0
100
AcDbLine
 10
7003.600000000004
 20
6016.740388709377
 30
0.0
 11
7003.600000000004
 21
5956.740388709375
 31
0.0
  0
LINE
  5
117D6
330
747D
100
AcDbEntity
  8
文字
 48
50.0
100
AcDbLine
 10
7063.600000000004
 20
5956.740388709375
 30
0.0
 11
7003.600000000004
 21
5956.740388709375
 31
0.0
  0
LINE
  5
117D7
330
747D
100
AcDbEntity
  8
文字
 48
50.0
100
AcDbLine
 10
7063.600000000004
 20
6016.740388709376
 30
0.0
 11
7003.600000000004
 21
6016.740388709376
 31
0.0
  0
LINE
  5
117D8
330
747D
100
AcDbEntity
  8
文字
 48
50.0
100
AcDbLine
 10
9443.600000000003
 20
6016.740388709377
 30
0.0
 11
9443.600000000003
 21
5956.740388709375
 31
0.0
  0
LINE
  5
117D9
330
747D
100
AcDbEntity
  8
文字
 48
50.0
100
AcDbLine
 10
9383.600000000004
 20
6016.740388709377
 30
0.0
 11
9383.600000000004
 21
5956.740388709375
 31
0.0
  0
LINE
  5
117DA
330
747D
100
AcDbEntity
  8
文字
 48
50.0
100
AcDbLine
 10
9443.600000000003
 20
5956.740388709375
 30
0.0
 11
9383.600000000004
 21
5956.740388709375
 31
0.0
  0
LINE
  5
117DB
330
747D
100
AcDbEntity
  8
文字
 48
50.0
100
AcDbLine
 10
9443.600000000003
 20
6016.740388709376
 30
0.0
 11
9383.600000000004
 21
6016.740388709376
 31
0.0
  0
LINE
  5
117F0
330
747D
100
AcDbEntity
  8
センター
 48
50.0
100
AcDbLine
 10
7283.600000000004
 20
9286.740388709375
 30
0.0
 11
6783.600000000004
 21
9286.740388709375
 31
0.0
  0
LINE
  5
117F1
330
747D
100
AcDbEntity
  8
センター
 48
50.0
100
AcDbLine
 10
9413.600000000007
 20
9036.740388709377
 30
0.0
 11
9413.600000000004
 21
9536.740388709379
 31
0.0
  0
LINE
  5
117F2
330
747D
100
AcDbEntity
  8
センター
 48
50.0
100
AcDbLine
 10
7033.600000000004
 20
7886.740388709377
 30
0.0
 11
7033.600000000004
 21
7386.740388709378
 31
0.0
  0
LINE
  5
117F3
330
747D
100
AcDbEntity
  8
センター
 48
50.0
100
AcDbLine
 10
9163.600000000002
 20
7636.740388709377
 30
0.0
 11
9663.600000000004
 21
7636.740388709378
 31
0.0
  0
LINE
  5
117F4
330
747D
100
AcDbEntity
  8
センター
 48
50.0
100
AcDbLine
 10
7033.600000000004
 20
6236.740388709377
 30
0.0
 11
7033.600000000004
 21
5736.740388709377
 31
0.0
  0
LINE
  5
117F5
330
747D
100
AcDbEntity
  8
センター
 48
50.0
100
AcDbLine
 10
9413.600000000007
 20
7386.740388709377
 30
0.0
 11
9413.600000000007
 21
7886.740388709378
 31
0.0
  0
LINE
  5
117F6
330
747D
100
AcDbEntity
  8
センター
 48
50.0
100
AcDbLine
 10
9163.600000000004
 20
5986.740388709378
 30
0.0
 11
9663.600000000004
 21
5986.740388709377
 31
0.0
  0
DIMENSION
  5
1187A
330
747D
100
AcDbEntity
  8
寸法
 48
50.0
100
AcDbDimension
  2
*D2
 10
6391.105727429238
 20
9286.740388709375
 30
0.0
 11
6291.064914864435
 21
9746.740388709376
 31
0.0
 12
5058.443425511845
 22
0.0
 32
0.0
 70
    32
 71
     5
 42
-1.0
  3
INABA_S40G
100
AcDbAlignedDimension
 13
6833.600000000004
 23
10206.74038870937
 33
0.0
 14
6783.600000000004
 24
9286.740388709375
 34
0.0
 50
90.0
100
AcDbRotatedDimension
  0
DIMENSION
  5
11886
330
747D
100
AcDbEntity
  8
寸法
 48
50.0
100
AcDbDimension
  2
*D3
 10
6391.105727429238
 20
7636.740388709377
 30
0.0
 11
6291.105727429238
 21
8461.740388709376
 31
0.0
 12
5058.443425511845
 22
0.0
 32
0.0
 70
    32
 71
     5
 42
-1.0
  3
INABA_S40G
100
AcDbAlignedDimension
 13
6783.600000000004
 23
9286.740388709375
 33
0.0
 14
6783.600000000004
 24
7636.740388709377
 34
0.0
 50
90.0
100
AcDbRotatedDimension
1001
ACAD
1000
DSTYLE
1002
{
1070
    75
1070
     1
1070
   279
1070
     1
1002
}
  0
DIMENSION
  5
11892
330
747D
100
AcDbEntity
  8
寸法
 48
50.0
100
AcDbDimension
  2
*D4
 10
6391.105727429238
 20
5986.740388709378
 30
0.0
 11
6291.105727429238
 21
6811.740388709377
 31
0.0
 12
5058.443425511845
 22
0.0
 32
0.0
 70
    32
 71
     5
 42
-1.0
  3
INABA_S40G
100
AcDbAlignedDimension
 13
6783.600000000004
 23
7636.740388709377
 33
0.0
 14
6783.600000000004
 24
5986.740388709378
 34
0.0
 50
90.0
100
AcDbRotatedDimension
1001
ACAD
1000
DSTYLE
1002
{
1070
    75
1070
     1
1070
   279
1070
     1
1002
}
  0
DIMENSION
  5
1189E
330
747D
100
AcDbEntity
  8
寸法
 48
50.0
100
AcDbDimension
  2
*D5
 10
6391.105727429238
 20
5066.740388709376
 30
0.0
 11
6291.064914864435
 21
5526.740388709377
 31
0.0
 12
5058.443425511845
 22
0.0
 32
0.0
 70
    32
 71
     5
 42
-1.0
  3
INABA_S40G
100
AcDbAlignedDimension
 13
6783.600000000004
 23
5986.740388709378
 33
0.0
 14
6833.600000000004
 24
5066.740388709376
 34
0.0
 50
90.0
100
AcDbRotatedDimension
1001
ACAD
1000
DSTYLE
1002
{
1070
    75
1070
     1
1070
   279
1070
     1
1002
}
  0
DIMENSION
  5
118AB
330
747D
100
AcDbEntity
  8
寸法
 48
50.0
100
AcDbDimension
  2
*D6
 10
5945.614843701702
 20
5066.740388709376
 30
0.0
 11
5845.614843701702
 21
7636.740388709377
 31
0.0
 12
5058.443425511845
 22
0.0
 32
0.0
 70
    32
  1
基礎寸法 <>
 71
     5
 42
-1.0
  3
INABA_S40G
100
AcDbAlignedDimension
 13
6833.600000000004
 23
10206.74038870937
 33
0.0
 14
6833.600000000004
 24
5066.740388709376
 34
0.0
 50
90.0
100
AcDbRotatedDimension
  0
DIMENSION
  5
118B8
330
747D
100
AcDbEntity
  8
寸法
 48
50.0
100
AcDbDimension
  2
*D7
 10
9713.600000000003
 20
8140.635297426983
 30
0.0
 11
9413.600000000002
 21
8240.635297426983
 31
0.0
 12
2380.0
 22
0.0
 32
0.0
 70
    32
 71
     5
 42
-1.0
  3
INABA_S40G
100
AcDbAlignedDimension
 13
9113.600000000003
 23
7936.740388709376
 33
0.0
 14
9713.600000000003
 24
7936.740388709376
 34
0.0
100
AcDbRotatedDimension
  0
DIMENSION
  5
118C5
330
747D
100
AcDbEntity
  8
寸法
 48
50.0
100
AcDbDimension
  2
*D8
 10
9987.461657003391
 20
7336.740388709376
 30
0.0
 11
9887.461657003392
 21
7636.740388709376
 31
0.0
 12
2380.0
 22
0.0
 32
0.0
 70
    32
 71
     5
 42
-1.0
  3
INABA_S40G
100
AcDbAlignedDimension
 13
9713.600000000003
 23
7936.740388709376
 33
0.0
 14
9713.600000000003
 24
7336.740388709376
 34
0.0
 50
90.0
100
AcDbRotatedDimension
  0
DIMENSION
  5
118DA
330
747D
100
AcDbEntity
  8
寸法
 48
50.0
100
AcDbDimension
  2
*D9
 10
7033.600000000004
 20
4699.427037335172
 30
0.0
 11
6584.029133858272
 21
4699.427037335172
 31
0.0
 12
5058.443425511845
 22
0.0
 32
0.0
 70
   160
 71
     5
 42
-1.0
  3
INABA_S40G
100
AcDbAlignedDimension
 13
6833.600000000004
 23
5066.740388709376
 33
0.0
 14
7033.600000000004
 24
5736.740388709377
 34
0.0
100
AcDbRotatedDimension
  0
DIMENSION
  5
118E6
330
747D
100
AcDbEntity
  8
寸法
 48
50.0
100
AcDbDimension
  2
*D10
 10
9413.600000000004
 20
4699.427037335172
 30
0.0
 11
8223.600000000004
 21
4799.438848358794
 31
0.0
 70
    32
 71
     5
 42
-1.0
  3
INABA_S40G
100
AcDbAlignedDimension
 13
7033.600000000004
 23
5736.740388709377
 33
0.0
 14
9413.600000000004
 24
5736.740388709378
 34
0.0
100
AcDbRotatedDimension
1001
ACAD
1000
DSTYLE
1002
{
1070
    75
1070
     1
1070
   279
1070
     1
1002
}
  0
DIMENSION
  5
1190F
330
747D
100
AcDbEntity
  8
寸法
 48
50.0
100
AcDbDimension
  2
*D11
 10
9613.600000000005
 20
4700.024272680079
 30
0.0
 11
9863.170866141736
 21
4700.024272680079
 31
0.0
 12
5058.443425511845
 22
0.0
 32
0.0
 70
   160
 71
     5
 42
-1.0
  3
INABA_S40G
100
AcDbAlignedDimension
 13
9413.600000000004
 23
5736.740388709378
 33
0.0
 14
9613.600000000005
 24
5066.740388709376
 34
0.0
100
AcDbRotatedDimension
  0
DIMENSION
  5
11934
330
747D
100
AcDbEntity
  8
寸法
 48
50.0
100
AcDbDimension
  2
*D12
 10
9613.600000000005
 20
4335.453801511459
 30
0.0
 11
8223.600000000004
 21
4435.465612535081
 31
0.0
 70
    32
  1
基礎寸法 <>
 71
     5
 42
-1.0
  3
INABA_S40G
100
AcDbAlignedDimension
 13
6833.600000000004
 23
5066.740388709376
 33
0.0
 14
9613.600000000005
 24
5066.740388709377
 34
0.0
100
AcDbRotatedDimension
  0
LEADER
  5
11935
330
747D
100
AcDbEntity
  8
寸法
 48
50.0
100
AcDbLeader
  3
INABA_S40
 73
     0
 75
     1
 40
120.0
 41
144.0
 76
     3
 10
9413.600000000002
 20
7636.740388709377
 30
0.0
 10
9037.164338860494
 20
7143.277037240911
 30
0.0
 10
8937.164338860494
 20
7143.277037240911
 30
0.0
340
11936
  0
MTEXT
  5
11936
102
{ACAD_REACTORS
330
11935
102
}
330
747D
100
AcDbEntity
  8
寸法
 62
     7
 48
50.0
100
AcDbMText
 10
8897.164338860493
 20
7243.277037240911
 30
0.0
 40
120.0
 41
0.0
 71
     6
 72
     1
  1
\A1;柱
  7
STYLE1
 73
     1
 44
1.0
1001
ACAD
1000
MTEXTBEGIN
1070
    73
1070
     1
1070
    44
1040
1.0
1070
    74
1070
     0
1000
MTEXTEND
  0
MTEXT
  5
11B0C
330
747D
100
AcDbEntity
  8
寸法
 62
     7
 48
50.0
100
AcDbMText
 10
7414.5775402372
 20
9753.355387444379
 30
0.0
 40
120.0
 41
0.0
 71
     4
 72
     1
  1
\A1;床コンクリート打コテ押エ
  7
STYLE1
 73
     1
 44
1.0
1001
ACAD
1000
MTEXTBEGIN
1070
    73
1070
     1
1070
    44
1040
1.0
1070
    74
1070
     0
1000
MTEXTEND
  0
LINE
  5
11B0E
330
747D
100
AcDbEntity
  8
文字
 48
50.0
100
AcDbLine
 10
8223.600000000004
 20
8173.244330328811
 30
0.0
 11
8223.600000000004
 21
9531.021536520398
 31
0.0
  0
LINE
  5
11B10
330
747D
100
AcDbEntity
  8
文字
 48
50.0
100
AcDbLine
 10
8223.600000000004
 20
7100.236447089942
 30
0.0
 11
8223.600000000004
 21
5742.459240898356
 31
0.0
  0
LINE
  5
11B12
330
747D
100
AcDbEntity
  8
文字
 48
50.0
100
AcDbLine
 10
8223.600000000004
 20
5742.459240898356
 30
0.0
 11
8267.397710443757
 21
5905.914521529627
 31
0.0
  0
LINE
  5
11B13
330
747D
100
AcDbEntity
  8
文字
 48
50.0
100
AcDbLine
 10
8223.600000000004
 20
5742.459240898356
 30
0.0
 11
8179.802289556253
 21
5905.914521529627
 31
0.0
  0
LINE
  5
11B14
330
747D
100
AcDbEntity
  8
文字
 48
50.0
100
AcDbLine
 10
8223.600000000004
 20
9531.021536520398
 30
0.0
 11
8267.397710443757
 21
9367.566255889128
 31
0.0
  0
LINE
  5
11B15
330
747D
100
AcDbEntity
  8
文字
 48
50.0
100
AcDbLine
 10
8223.600000000004
 20
9531.021536520398
 30
0.0
 11
8179.802289556253
 21
9367.566255889128
 31
0.0
  0
MTEXT
  5
11B41
330
747D
100
AcDbEntity
  8
寸法
 62
     7
 48
50.0
100
AcDbMText
 10
8105.038478816814
 20
8177.470253112604
 30
0.0
 40
120.0
 41
0.0
 71
     4
 72
     1
  1
\A1;水勾配１／１００ 
  7
STYLE1
 11
0.0000000000000001
 21
1.0
 31
0.0
 73
     1
 44
1.0
1001
ACAD
1000
MTEXTBEGIN
1070
    73
1070
     1
1070
    44
1040
1.0
1070
    74
1070
     0
1000
MTEXTEND
  0
MTEXT
  5
11B43
330
747D
100
AcDbEntity
  8
寸法
 62
     7
 48
50.0
100
AcDbMText
 10
8105.038478816814
 20
5964.486169097829
 30
0.0
 40
120.0
 41
0.0
 71
     4
 72
     1
  1
\A1;水勾配１／１００ 
  7
STYLE1
 11
0.0000000000000001
 21
1.0
 31
0.0
 73
     1
 44
1.0
1001
ACAD
1000
MTEXTBEGIN
1070
    73
1070
     1
1070
    44
1040
1.0
1070
    74
1070
     0
1000
MTEXTEND
  0
LINE
  5
11EDB
330
747D
100
AcDbEntity
  8
寸法
 48
50.0
100
AcDbLine
 10
7033.600000000004
 20
9036.740388709379
 30
0.0
 11
7033.600000000004
 21
7886.740388709377
 31
0.0
  0
LINE
  5
11EE0
330
747D
100
AcDbEntity
  8
寸法
 48
50.0
100
AcDbLine
 10
7033.600000000004
 20
7386.740388709378
 30
0.0
 11
7033.600000000004
 21
7037.984839121637
 31
0.0
  0
LINE
  5
11EE1
330
747D
100
AcDbEntity
  8
寸法
 48
50.0
100
AcDbLine
 10
7033.600000000004
 20
7037.984839121637
 30
0.0
 11
7636.712002219835
 21
7037.984839121637
 31
0.0
  0
LINE
  5
11EE2
330
747D
100
AcDbEntity
  8
寸法
 48
50.0
100
AcDbLine
 10
7636.712002219835
 20
7037.984839121637
 30
0.0
 11
7457.156384581537
 21
6989.873056378984
 31
0.0
  0
LINE
  5
11EE3
330
747D
100
AcDbEntity
  8
寸法
 48
50.0
100
AcDbLine
 10
7457.156384581537
 20
6989.873056378984
 30
0.0
 11
7457.156384581537
 21
7099.764087914905
 31
0.0
  0
LINE
  5
11EEC
330
747D
100
AcDbEntity
  8
寸法
 48
50.0
100
AcDbLine
 10
7033.600000000004
 20
9536.740388709375
 30
0.0
 11
7033.600000000003
 21
10427.32477625326
 31
0.0
  0
LINE
  5
11EED
330
747D
100
AcDbEntity
  8
寸法
 48
50.0
100
AcDbLine
 10
7033.600000000004
 20
10427.32477625326
 30
0.0
 11
7636.712002219835
 21
10427.32477625326
 31
0.0
  0
LINE
  5
11EEE
330
747D
100
AcDbEntity
  8
寸法
 48
50.0
100
AcDbLine
 10
7636.712002219835
 20
10427.32477625326
 30
0.0
 11
7457.156384581537
 21
10475.43655899591
 31
0.0
  0
LINE
  5
11EEF
330
747D
100
AcDbEntity
  8
寸法
 48
50.0
100
AcDbLine
 10
7457.156384581537
 20
10475.43655899591
 30
0.0
 11
7457.156384581537
 21
10365.54552745999
 31
0.0
  0
MTEXT
  5
11EF1
330
747D
100
AcDbEntity
  8
寸法
 62
     7
 48
50.0
100
AcDbMText
 10
7713.385222400479
 20
7051.535119830258
 30
0.0
 40
120.0
 41
0.0
 71
     4
 72
     1
  1
A'
  7
STYLE1
 73
     1
 44
1.0
1001
ACAD
1000
MTEXTBEGIN
1070
    73
1070
     1
1070
    44
1040
1.0
1070
    74
1070
     0
1000
MTEXTEND
  0
MTEXT
  5
11EF2
330
747D
100
AcDbEntity
  8
寸法
 62
     7
 48
50.0
100
AcDbMText
 10
7713.385222400479
 20
10440.87505696188
 30
0.0
 40
120.0
 41
0.0
 71
     4
 72
     1
  1
A
  7
STYLE1
 73
     1
 44
1.0
1001
ACAD
1000
MTEXTBEGIN
1070
    73
1070
     1
1070
    44
1040
1.0
1070
    74
1070
     0
1000
MTEXTEND
  0
TEXT
  5
11F11
330
747D
100
AcDbEntity
  8
仕様書枠
 62
     7
 48
50.0
100
AcDbText
 10
14518.37944936722
 20
1031.557706291228
 30
0.0
 40
100.0
  1
NO.1     <縮尺> S=1/40
  7
STYLE2
100
AcDbText
  0
DIMENSION
  5
121B8
330
747D
100
AcDbEntity
  8
寸法
 48
50.0
100
AcDbDimension
  2
*D14
 10
10132.77950873463
 20
5236.740388709375
 30
0.0
 11
10032.77950873463
 21
5611.740388709375
 31
0.0
 12
5236.781016968405
 22
-7509.353244367241
 32
0.0
 70
    32
 71
     5
 42
-1.0
  3
INABA_S40G
100
AcDbAlignedDimension
 13
9663.600000000002
 23
5986.740388709375
 33
0.0
 14
9663.600000000002
 24
5236.740388709375
 34
0.0
 50
90.0
100
AcDbRotatedDimension
1001
ACAD
1000
DSTYLE
1002
{
1002
}
  0
DIMENSION
  5
121B9
330
747D
100
AcDbEntity
  8
寸法
 48
50.0
100
AcDbDimension
  2
*D13
 10
10431.88737785239
 20
5236.740388709375
 30
0.0
 11
10331.88737785239
 21
7636.740388709377
 31
0.0
 12
5058.443425511845
 22
0.0
 32
0.0
 70
    32
  1
屋根寸法 <>
 71
     5
 42
-1.0
  3
INABA_S40G
100
AcDbAlignedDimension
 13
9663.600000000002
 23
10036.74038870938
 33
0.0
 14
9663.600000000002
 24
5236.740388709375
 34
0.0
 50
90.0
100
AcDbRotatedDimension
  0
LINE
  5
121BA
330
747D
100
AcDbEntity
  8
想像線
 48
50.0
100
AcDbLine
 10
9663.600000000002
 20
5236.740388709375
 30
0.0
 11
9663.600000000002
 21
10036.74038870938
 31
0.0
  0
LINE
  5
121BB
330
747D
100
AcDbEntity
  8
想像線
 48
50.0
100
AcDbLine
 10
8643.600000000002
 20
5236.740388709375
 30
0.0
 11
9663.600000000002
 21
5236.740388709375
 31
0.0
  0
DIMENSION
  5
12228
330
747D
100
AcDbEntity
  8
寸法
 48
50.0
100
AcDbDimension
  2
*D15
 10
9663.600000000002
 20
10902.80501405645
 30
0.0
 11
8223.600000000002
 21
11002.81682508007
 31
0.0
 70
    32
  1
屋根寸法 <>
 71
     5
 42
-1.0
  3
INABA_S40G
100
AcDbAlignedDimension
 13
6783.599999999999
 23
10036.74038870938
 33
0.0
 14
9663.600000000002
 24
10036.74038870938
 34
0.0
100
AcDbRotatedDimension
  0
LINE
  5
12229
330
747D
100
AcDbEntity
  8
想像線
 48
50.0
100
AcDbLine
 10
6783.599999999999
 20
10036.74038870938
 30
0.0
 11
9663.600000000002
 21
10036.74038870938
 31
0.0
  0
LINE
  5
1222A
330
747D
100
AcDbEntity
  8
想像線
 48
50.0
100
AcDbLine
 10
6783.599999999999
 20
9379.224908776665
 30
0.0
 11
6783.599999999999
 21
10036.74038870938
 31
0.0
  0
DIMENSION
  5
1222B
330
747D
100
AcDbEntity
  8
寸法
 48
50.0
100
AcDbDimension
  2
*D17
 10
7033.600000000004
 20
10609.69661180045
 30
0.0
 11
6908.600000000003
 21
10709.70842282407
 31
0.0
 70
    32
 71
     5
 42
-1.0
  3
INABA_S40G
100
AcDbAlignedDimension
 13
6783.599999999999
 23
10036.74038870938
 33
0.0
 14
7033.600000000004
 24
9536.740388709375
 34
0.0
100
AcDbRotatedDimension
  0
LEADER
  5
1222C
330
747D
100
AcDbEntity
  8
寸法
 48
50.0
100
AcDbLeader
  3
INABA_S50G
 73
     0
 74
     0
 75
     1
 40
120.0
 41
683.3137084989848
 76
     3
 10
8149.636065931419
 20
10036.74038870938
 30
0.0
 10
8272.798735823402
 20
10363.74901617458
 30
0.0
 10
8397.798735823402
 20
10363.74901617458
 30
0.0
340
1222D
1001
ACAD
1000
DSTYLE
1002
{
1070
   341
1005
0
1070
    40
1040
1.0
1070
   343
1005
0
1070
   344
1005
0
1002
}
  0
MTEXT
  5
1222D
102
{ACAD_REACTORS
330
1222C
102
}
330
747D
100
AcDbEntity
  8
部品1
 62
     7
 48
50.0
100
AcDbMText
 10
8422.798735823402
 20
10448.74901617458
 30
0.0
 40
120.0
 41
0.0
 71
     4
 72
     1
  1
\A1;屋根の外寸
  7
STYLE1
 73
     1
 44
1.0
1001
ACAD
1000
MTEXTBEGIN
1070
    73
1070
     1
1070
    44
1040
1.0
1070
    74
1070
     0
1000
MTEXTEND
  0
DIMENSION
  5
1222E
330
747D
100
AcDbEntity
  8
寸法
 48
50.0
100
AcDbDimension
  2
*D16
 10
9663.600000000002
 20
10609.69661180045
 30
0.0
 11
9538.600000000002
 21
10709.70842282407
 31
0.0
 70
    32
 71
     5
 42
-1.0
  3
INABA_S40G
100
AcDbAlignedDimension
 13
9413.600000000004
 23
9536.740388709379
 33
0.0
 14
9663.600000000002
 24
10036.74038870938
 34
0.0
100
AcDbRotatedDimension
1001
ACAD
1000
DSTYLE
1002
{
1002
}
  0
DIMENSION
  5
12291
330
747D
100
AcDbEntity
  8
寸法
 48
50.0
100
AcDbDimension
  2
*D18
 10
10132.77950873463
 20
10036.74038870938
 30
0.0
 11
10032.77950873463
 21
9661.740388709379
 31
0.0
 12
5058.443425511845
 22
0.0
 32
0.0
 70
    32
 71
     5
 42
-1.0
  3
INABA_S40G
100
AcDbAlignedDimension
 13
9663.600000000002
 23
9286.740388709379
 33
0.0
 14
9663.600000000002
 24
10036.74038870938
 34
0.0
 50
90.0
100
AcDbRotatedDimension
1001
ACAD
1000
DSTYLE
1002
{
1002
}
  0
TEXT
  5
12469
330
747D
100
AcDbEntity
  8
寸法
 62
     7
100
AcDbText
 10
12995.6997453858
 20
1973.585205285743
 30
0.0
 40
120.0
  1
（注意）
  7
STYLE1
100
AcDbText
  0
TEXT
  5
1246A
330
747D
100
AcDbEntity
  8
寸法
 62
     7
100
AcDbText
 10
12995.6997453858
 20
1773.585205285743
 30
0.0
 40
120.0
  1
   基礎寸法は標準施工を示します。
  7
STYLE1
100
AcDbText
  0
TEXT
  5
1246B
330
747D
100
AcDbEntity
  8
寸法
 62
     7
100
AcDbText
 10
12995.6997453858
 20
1573.585205285743
 30
0.0
 40
120.0
  1
   地域の実情に合わせて設計してください。 
  7
STYLE1
100
AcDbText
  0
LINE
  5
12BD6
330
747D
100
AcDbEntity
  8
部品1
 48
50.0
100
AcDbLine
 10
6733.600000000004
 20
6286.740388709377
 30
0.0
 11
6733.600000000004
 21
5686.740388709377
 31
0.0
  0
LINE
  5
12BD7
330
747D
100
AcDbEntity
  8
部品1
 48
50.0
100
AcDbLine
 10
6733.600000000004
 20
5686.740388709377
 30
0.0
 11
7333.600000000004
 21
5686.740388709377
 31
0.0
  0
LINE
  5
12BD8
330
747D
100
AcDbEntity
  8
部品1
 48
50.0
100
AcDbLine
 10
7333.600000000004
 20
5686.740388709377
 30
0.0
 11
7333.600000000004
 21
6286.740388709377
 31
0.0
  0
LINE
  5
12BD9
330
747D
100
AcDbEntity
  8
部品1
 48
50.0
100
AcDbLine
 10
7333.600000000004
 20
6286.740388709377
 30
0.0
 11
6733.600000000004
 21
6286.740388709377
 31
0.0
  0
LINE
  5
12BDB
330
747D
100
AcDbEntity
  8
部品1
 48
50.0
100
AcDbLine
 10
9113.600000000003
 20
6286.740388709377
 30
0.0
 11
9113.600000000003
 21
5686.740388709377
 31
0.0
  0
LINE
  5
12BDC
330
747D
100
AcDbEntity
  8
部品1
 48
50.0
100
AcDbLine
 10
9713.600000000004
 20
6286.740388709377
 30
0.0
 11
9113.600000000003
 21
6286.740388709377
 31
0.0
  0
LINE
  5
12BDD
330
747D
100
AcDbEntity
  8
部品1
 48
50.0
100
AcDbLine
 10
9713.600000000004
 20
5686.740388709377
 30
0.0
 11
9713.600000000004
 21
6286.740388709377
 31
0.0
  0
LINE
  5
12BDE
330
747D
100
AcDbEntity
  8
部品1
 48
50.0
100
AcDbLine
 10
9113.600000000003
 20
5686.740388709377
 30
0.0
 11
9713.600000000004
 21
5686.740388709377
 31
0.0
  0
LINE
  5
12BDF
330
747D
100
AcDbEntity
  8
部品1
 48
50.0
100
AcDbLine
 10
9113.600000000003
 20
7936.740388709376
 30
0.0
 11
9113.600000000003
 21
7336.740388709376
 31
0.0
  0
LINE
  5
12BE0
330
747D
100
AcDbEntity
  8
部品1
 48
50.0
100
AcDbLine
 10
9713.600000000003
 20
7936.740388709376
 30
0.0
 11
9113.600000000003
 21
7936.740388709376
 31
0.0
  0
LINE
  5
12BE1
330
747D
100
AcDbEntity
  8
部品1
 48
50.0
100
AcDbLine
 10
9713.600000000003
 20
7336.740388709376
 30
0.0
 11
9713.600000000003
 21
7936.740388709376
 31
0.0
  0
LINE
  5
12BE2
330
747D
100
AcDbEntity
  8
部品1
 48
50.0
100
AcDbLine
 10
9113.600000000003
 20
7336.740388709376
 30
0.0
 11
9713.600000000003
 21
7336.740388709376
 31
0.0
  0
LINE
  5
12BE3
330
747D
100
AcDbEntity
  8
部品1
 48
50.0
100
AcDbLine
 10
7333.600000000003
 20
7336.740388709376
 30
0.0
 11
7333.600000000003
 21
7936.740388709376
 31
0.0
  0
LINE
  5
12BE4
330
747D
100
AcDbEntity
  8
部品1
 48
50.0
100
AcDbLine
 10
7333.600000000003
 20
7936.740388709376
 30
0.0
 11
6733.600000000002
 21
7936.740388709376
 31
0.0
  0
LINE
  5
12BE5
330
747D
100
AcDbEntity
  8
部品1
 48
50.0
100
AcDbLine
 10
6733.600000000002
 20
7936.740388709376
 30
0.0
 11
6733.600000000002
 21
7336.740388709376
 31
0.0
  0
LINE
  5
12BE6
330
747D
100
AcDbEntity
  8
部品1
 48
50.0
100
AcDbLine
 10
6733.600000000002
 20
7336.740388709376
 30
0.0
 11
7333.600000000003
 21
7336.740388709376
 31
0.0
  0
LINE
  5
12BE7
330
747D
100
AcDbEntity
  8
部品1
 48
50.0
100
AcDbLine
 10
9713.600000000006
 20
8986.740388709376
 30
0.0
 11
9713.600000000006
 21
9586.740388709376
 31
0.0
  0
LINE
  5
12BE8
330
747D
100
AcDbEntity
  8
部品1
 48
50.0
100
AcDbLine
 10
9113.600000000007
 20
8986.740388709376
 30
0.0
 11
9713.600000000006
 21
8986.740388709376
 31
0.0
  0
LINE
  5
12BE9
330
747D
100
AcDbEntity
  8
部品1
 48
50.0
100
AcDbLine
 10
9713.600000000006
 20
9586.740388709376
 30
0.0
 11
9113.600000000007
 21
9586.740388709376
 31
0.0
  0
LINE
  5
12BEA
330
747D
100
AcDbEntity
  8
部品1
 48
50.0
100
AcDbLine
 10
9113.600000000007
 20
9586.740388709376
 30
0.0
 11
9113.600000000007
 21
8986.740388709376
 31
0.0
  0
LINE
  5
12BEB
330
747D
100
AcDbEntity
  8
部品1
 48
50.0
100
AcDbLine
 10
7333.600000000005
 20
8986.740388709376
 30
0.0
 11
7333.600000000005
 21
9586.740388709376
 31
0.0
  0
LINE
  5
12BEC
330
747D
100
AcDbEntity
  8
部品1
 48
50.0
100
AcDbLine
 10
7333.600000000005
 20
9586.740388709376
 30
0.0
 11
6733.600000000006
 21
9586.740388709376
 31
0.0
  0
LINE
  5
12BED
330
747D
100
AcDbEntity
  8
部品1
 48
50.0
100
AcDbLine
 10
6733.600000000006
 20
9586.740388709376
 30
0.0
 11
6733.600000000006
 21
8986.740388709376
 31
0.0
  0
LINE
  5
12BEE
330
747D
100
AcDbEntity
  8
部品1
 48
50.0
100
AcDbLine
 10
6733.600000000006
 20
8986.740388709376
 30
0.0
 11
7333.600000000005
 21
8986.740388709376
 31
0.0
  0
TEXT
  5
131A2
330
747D
100
AcDbEntity
  8
文字
 62
     7
 48
50.0
100
AcDbText
 10
14747.8113764045
 20
483.8967129911414
 30
0.0
 40
160.0
  1
BＦ-２４V
  7
STYLE2
100
AcDbText
  0
HATCH
  5
1383E
330
747D
100
AcDbEntity
  8
細線
 48
50.0
100
AcDbHatch
 10
0.0
 20
0.0
 30
0.0
210
0.0
220
0.0
230
1.0
  2
PLAST
 70
     0
 71
     0
 91
        5
 92
        7
 72
     0
 73
     1
 93
        6
 10
10354.9548933749
 20
2362.480397697104
 10
9563.586884749872
 20
2371.480910386698
 10
9533.313991906684
 20
2401.753803229881
 10
9503.213662073909
 20
2401.753803229882
 10
9503.213662073909
 20
2171.778473397103
 10
10354.95489337491
 20
2171.778473397103
 97
        0
 92
        7
 72
     0
 73
     1
 93
        6
 10
9382.912672575582
 20
2401.753803229882
 10
9352.81234274281
 20
2401.753803229881
 10
9322.560497758514
 20
2371.50195824559
 10
8531.17144127459
 20
2363.588067680751
 10
8531.171441274588
 20
2171.778473397103
 10
9382.912672575582
 20
2171.778473397103
 97
        0
 92
        7
 72
     0
 73
     1
 93
        6
 10
8479.248371274591
 20
2363.068836980751
 10
7687.593561154648
 20
2355.152288879551
 10
7657.607469806372
 20
2385.138380227838
 10
7627.507139973592
 20
2385.138380227838
 10
7627.507139973592
 20
2171.778473397104
 10
8479.248371274595
 20
2171.778473397104
 97
        0
 92
        7
 72
     0
 73
     1
 93
        6
 10
7507.206150475266
 20
2385.138380227838
 10
7477.105820642489
 20
2385.138380227838
 10
7444.690700689548
 20
2352.723260274901
 10
6800.550727849851
 20
2346.281860546503
 10
6800.550727849851
 20
2171.778473397103
 10
7507.206150475266
 20
2171.778473397104
 97
        0
 92
        7
 72
     0
 73
     1
 93
        5
 10
6748.627657849849
 20
2345.762629846503
 10
6435.610521715038
 20
2342.632458485155
 10
6363.789827176105
 20
2272.319098397103
 10
6363.789827176105
 20
2171.778473397104
 10
6748.627657849846
 20
2171.778473397104
 97
        0
 75
     0
 76
     1
 52
45.0
 41
60.0
 77
     0
 78
     3
 53
45.0
 43
0.0
 44
0.0
 45
-269.4076836320746
 46
269.4076836320746
 79
     0
 53
45.0
 43
-33.67596045400933
 44
33.67596045400933
 45
-269.4076836320746
 46
269.4076836320746
 79
     0
 53
45.0
 43
-67.35192090801866
 44
67.35192090801866
 45
-269.4076836320746
 46
269.4076836320746
 79
     0
 47
4.770536170264612
 98
        5
 10
9676.443011882701
 20
2249.655522388206
 10
9056.026287161541
 20
2278.278737214747
 10
8091.994110641818
 20
2259.1966118372
 10
7223.410664075069
 20
2278.278737214747
 10
6588.676583922584
 20
2249.655522388206
  0
LINE
  5
1383F
330
747D
100
AcDbEntity
  8
細線
 48
50.0
100
AcDbLine
 10
8396.813658530623
 20
1904.635869400447
 30
0.0
 11
8479.248371274596
 21
2131.123381243741
 31
0.0
  0
LINE
  5
13840
330
747D
100
AcDbEntity
  8
部品1
 48
50.0
100
AcDbLine
 10
7687.593561154651
 20
2355.152288879551
 30
0.0
 11
8479.248371274591
 21
2363.068836980751
 31
0.0
  0
LINE
  5
13841
330
747D
100
AcDbEntity
  8
部品1
 48
50.0
100
AcDbLine
 10
7627.507139973594
 20
2171.778473397103
 30
0.0
 11
8479.248371274591
 21
2171.778473397103
 31
0.0
  0
LINE
  5
13842
330
747D
100
AcDbEntity
  8
部品1
 48
50.0
100
AcDbLine
 10
9266.564750487665
 20
2531.099169784787
 30
0.0
 11
8146.139304852786
 21
2522.790247627517
 31
0.0
  0
MTEXT
  5
13843
330
747D
100
AcDbEntity
  8
寸法
 62
     7
 48
50.0
100
AcDbMText
 10
8167.134188600142
 20
2639.512223180492
 30
0.0
 40
120.0
 41
0.0
 71
     4
 72
     1
  1
\A1;水勾配１／１００ 
  7
STYLE1
 73
     1
 44
1.0
1001
ACAD
1000
MTEXTBEGIN
1070
    73
1070
     1
1070
    44
1040
1.0
1070
    74
1070
     0
1000
MTEXTEND
  0
DIMENSION
  5
13844
330
747D
100
AcDbEntity
  8
寸法
 48
50.0
100
AcDbDimension
  2
*D63
 10
5981.671157149674
 20
2371.501958245591
 30
0.0
 11
5981.671157149673
 21
2655.153871953134
 31
0.0
 70
   160
  1
(<>)
 71
     5
 42
49.59142992424358
  3
INABA_S40G詳細用20
100
AcDbAlignedDimension
 13
6363.789827176105
 23
2272.319098397104
 33
0.0
 14
9322.560497758518
 24
2371.50195824559
 34
0.0
 50
90.0
100
AcDbRotatedDimension
  0
LINE
  5
13845
330
747D
100
AcDbEntity
  8
部品1
 48
50.0
100
AcDbLine
 10
8167.356645224435
 20
1904.635869400447
 30
0.0
 11
8479.248371274591
 21
1904.635869400447
 31
0.0
  0
LEADER
  5
13846
330
747D
100
AcDbEntity
  8
寸法
 48
50.0
100
AcDbLeader
  3
INABA_S40G詳細用20
 71
     0
 73
     0
 74
     0
 75
     1
 40
120.0
 41
550.0
 76
     3
 10
7567.356645224437
 20
1791.000383062655
 30
0.0
 10
8042.039573354584
 20
1494.397056148721
 30
0.0
 10
8142.039573354585
 20
1494.397056148721
 30
0.0
  0
MTEXT
  5
13847
102
{ACAD_REACTORS
330
13846
102
}
330
747D
100
AcDbEntity
  8
寸法
 62
     7
 48
50.0
100
AcDbMText
 10
8182.039573354584
 20
1594.397056148721
 30
0.0
 40
120.0
 41
0.0
 71
     4
 72
     1
  1
\A1;カンザシ 
  7
STYLE1
 73
     1
 44
1.0
1001
ACAD
1000
MTEXTBEGIN
1070
    73
1070
     1
1070
    44
1040
1.0
1070
    74
1070
     0
1000
MTEXTEND
  0
LINE
  5
13848
330
747D
100
AcDbEntity
  8
部品1
 48
100.0
100
AcDbLine
 10
7430.882479959493
 20
3519.746835418324
 30
0.0
 11
9016.317520040507
 21
3519.746835418324
 31
0.0
  0
TEXT
  5
13849
330
747D
100
AcDbEntity
  8
部品1
 48
100.0
100
AcDbText
 10
7489.996858427514
 20
3239.473899836655
 30
0.0
 40
138.46152
  1
基礎断面図 1/20
  7
STYLE2
100
AcDbText
  0
LINE
  5
1384A
330
747D
100
AcDbEntity
  8
部品1
 48
100.0
100
AcDbLine
 10
7430.882479959493
 20
3127.439195418325
 30
0.0
 11
9016.317520040507
 21
3127.439195418325
 31
0.0
  0
TEXT
  5
1384B
330
747D
100
AcDbEntity
  8
部品1
 48
100.0
100
AcDbText
 10
7723.137946626582
 20
351.0056814446116
 30
0.0
 40
138.46152
  1
A-A'断面
  7
STYLE2
100
AcDbText
  0
LWPOLYLINE
  5
1384C
330
747D
100
AcDbEntity
  8
部品1
 48
100.0
100
AcDbPolyline
 90
        6
 70
     0
 43
0.0
 10
7430.882479959493
 20
3323.593015418325
 10
4479.038562473961
 20
3323.593015418325
 10
4479.038562473961
 20
238.9709770262789
 10
11968.16143752604
 20
238.9709770262789
 10
11968.16143752604
 20
3323.593015418325
 10
9016.317520040507
 20
3323.593015418325
  0
DIMENSION
  5
1384D
330
747D
100
AcDbEntity
  8
寸法
 48
50.0
100
AcDbDimension
  2
*D64
 10
6157.711804370893
 20
2171.778473397104
 30
0.0
 11
6157.711804370891
 21
2222.048785897105
 31
0.0
 70
   160
 71
     5
 42
50.27031250000004
  3
INABA_S40G詳細用20
100
AcDbAlignedDimension
 13
6363.789827176105
 23
2272.319098397104
 33
0.0
 14
6327.975533552198
 24
2171.778473397104
 34
0.0
 50
90.0
100
AcDbRotatedDimension
  0
LINE
  5
1384E
330
747D
100
AcDbEntity
  8
部品1
 48
50.0
100
AcDbLine
 10
6363.789827176103
 20
2171.778473397103
 30
0.0
 11
6363.789827176105
 21
2272.319098397104
 31
0.0
  0
DIMENSION
  5
1384F
330
747D
100
AcDbEntity
  8
寸法
 48
50.0
100
AcDbDimension
  2
*D65
 10
5981.671157149674
 20
1371.653473397103
 30
0.0
 11
5881.671157149674
 21
1821.986285897105
 31
0.0
 70
    32
 71
     5
 42
450.3328125000003
  3
INABA_S40G詳細用20
100
AcDbAlignedDimension
 13
6363.789827176105
 23
2272.319098397104
 33
0.0
 14
6871.142525974295
 24
1371.653473397103
 34
0.0
 50
90.0
100
AcDbRotatedDimension
  0
LINE
  5
13850
330
747D
100
AcDbEntity
  8
部品1
 48
50.0
100
AcDbLine
 10
6748.627657849846
 20
2421.939754832522
 30
0.0
 11
6748.627657849846
 21
1841.716830795493
 31
0.0
  0
LINE
  5
13851
330
747D
100
AcDbEntity
  8
部品1
 48
50.0
100
AcDbLine
 10
6800.550727849851
 20
2421.939754832522
 30
0.0
 11
6800.550727849851
 21
1841.716830795493
 31
0.0
  0
LINE
  5
13852
330
747D
100
AcDbEntity
  8
部品1
 48
50.0
100
AcDbLine
 10
7627.507139973592
 20
1730.799723397104
 30
0.0
 11
7627.507139973592
 21
2556.934212383462
 31
0.0
  0
LINE
  5
13853
330
747D
100
AcDbEntity
  8
部品1
 48
50.0
100
AcDbLine
 10
7507.206150475266
 20
2556.934212383462
 30
0.0
 11
7507.206150475266
 21
1730.799723397104
 31
0.0
  0
HATCH
  5
13854
330
747D
100
AcDbEntity
  8
細線
 48
50.0
100
AcDbHatch
 10
0.0
 20
0.0
 30
0.0
210
0.0
220
0.0
230
1.0
  2
PLAST
 70
     0
 71
     0
 91
        2
 92
        7
 72
     0
 73
     1
 93
        8
 10
8167.356645224433
 20
2171.778473397103
 10
7627.507139973594
 20
2171.778473397103
 10
7627.507139973592
 20
1730.799723397104
 10
7507.206150475266
 20
1730.799723397104
 10
7507.206150475266
 20
2171.778473397104
 10
6967.35664522443
 20
2171.778473397103
 10
6967.35664522443
 20
1371.653473397103
 10
8167.356645224433
 20
1371.653473397103
 97
        0
 92
       22
 72
     1
 73
     1
 93
       20
 10
7971.356645224422
 20
1537.253473397106
 42
-0.4142135623731332
 10
7957.356645224422
 20
1523.253473397105
 42
0.0
 10
7996.731645224421
 20
1523.253473397105
 42
0.0
 10
7996.731645224421
 20
1495.253473397103
 42
0.0
 10
7137.981645224423
 20
1495.253473397106
 42
0.0
 10
7137.98164522442
 20
1523.253473397106
 42
0.0
 10
7177.356645224422
 20
1523.253473397106
 42
-0.4142135623731046
 10
7163.356645224422
 20
1537.253473397106
 42
-1.0
 10
7191.356645224423
 20
1537.253473397106
 42
-0.4142135623730951
 10
7177.356645224422
 20
1523.253473397106
 42
0.0
 10
7437.356645224422
 20
1523.253473397106
 42
-0.4142135623731094
 10
7423.356645224422
 20
1537.253473397106
 42
-1.0
 10
7451.356645224421
 20
1537.253473397106
 42
-0.4142135623731094
 10
7437.356645224422
 20
1523.253473397106
 42
0.0
 10
7697.356645224423
 20
1523.253473397105
 42
-0.4142135623731189
 10
7683.356645224423
 20
1537.253473397106
 42
-1.0
 10
7711.356645224423
 20
1537.253473397106
 42
-0.4142135623731189
 10
7697.356645224423
 20
1523.253473397105
 42
0.0
 10
7957.356645224422
 20
1523.253473397105
 42
-0.4142135623731332
 10
7943.356645224422
 20
1537.253473397106
 42
-1.0
 97
        0
 75
     0
 76
     1
 52
315.0
 41
60.0
 77
     0
 78
     3
 53
315.0
 43
0.0
 44
0.0
 45
269.4076836320747
 46
269.4076836320746
 79
     0
 53
315.0
 43
33.67596045400933
 44
33.67596045400932
 45
269.4076836320747
 46
269.4076836320746
 79
     0
 53
315.0
 43
67.35192090801866
 44
67.35192090801864
 45
269.4076836320747
 46
269.4076836320746
 79
     0
 47
3.228008460117151
 98
        2
 10
7827.483671423215
 20
2033.438737927943
 10
7827.483671423215
 20
2033.438737927943
  0
HATCH
  5
13855
330
747D
100
AcDbEntity
  8
細線
 48
50.0
100
AcDbHatch
 10
0.0
 20
0.0
 30
0.0
210
0.0
220
0.0
230
1.0
  2
PLAST
 70
     0
 71
     0
 91
        1
 92
        7
 72
     0
 73
     1
 93
        4
 10
8263.570764474556
 20
1371.653473397103
 10
6871.142525974295
 20
1371.653473397103
 10
6871.142525974295
 20
1271.753473397105
 10
8263.570764474556
 20
1271.753473397105
 97
        0
 75
     0
 76
     1
 52
45.0
 41
60.0
 77
     0
 78
     3
 53
45.0
 43
0.0
 44
0.0
 45
-269.4076836320746
 46
269.4076836320746
 79
     0
 53
45.0
 43
-33.67596045400933
 44
33.67596045400933
 45
-269.4076836320746
 46
269.4076836320746
 79
     0
 53
45.0
 43
-67.35192090801866
 44
67.35192090801866
 45
-269.4076836320746
 46
269.4076836320746
 79
     0
 47
2.021456610930475
 98
        1
 10
8049.316621317405
 20
1348.963404449929
  0
LINE
  5
13856
330
747D
100
AcDbEntity
  8
部品1
 48
50.0
100
AcDbLine
 10
6800.55072784985
 20
2171.778473397103
 30
0.0
 11
7507.206150475268
 21
2171.778473397104
 31
0.0
  0
LINE
  5
13857
330
747D
100
AcDbEntity
  8
細線
 48
50.0
100
AcDbLine
 10
7024.856645224438
 20
1061.753473397105
 30
0.0
 11
7101.290394420338
 21
1271.753473397103
 31
0.0
  0
LINE
  5
13858
330
747D
100
AcDbEntity
  8
細線
 48
50.0
100
AcDbLine
 10
7073.290394420339
 20
1271.753473397103
 30
0.0
 11
7088.551436221019
 21
1236.753473397105
 31
0.0
  0
DIMENSION
  5
13859
330
747D
100
AcDbEntity
  8
寸法
 48
50.0
100
AcDbDimension
  2
*D66
 10
6162.34587816289
 20
1371.653473397103
 30
0.0
 11
6162.34587816289
 21
1515.026598397103
 31
0.0
 70
   160
 71
     5
 42
179.5731250000003
  3
INABA_S40G詳細用20
100
AcDbAlignedDimension
 13
7507.206150475266
 23
1730.799723397104
 33
0.0
 14
6871.142525974295
 24
1371.653473397103
 34
0.0
 50
90.0
100
AcDbRotatedDimension
  0
LINE
  5
1385A
330
747D
100
AcDbEntity
  8
部品1
 48
50.0
100
AcDbLine
 10
6871.142525974298
 20
1271.753473397105
 30
0.0
 11
8263.570764474556
 21
1271.753473397105
 31
0.0
  0
LINE
  5
1385B
330
747D
100
AcDbEntity
  8
部品1
 48
50.0
100
AcDbLine
 10
6871.142525974298
 20
1061.753473397105
 30
0.0
 11
8263.570764474556
 21
1061.753473397105
 31
0.0
  0
LINE
  5
1385C
330
747D
100
AcDbEntity
  8
部品1
 48
50.0
100
AcDbLine
 10
6871.142525974295
 20
1371.653473397103
 30
0.0
 11
8263.570764474556
 21
1371.653473397103
 31
0.0
  0
DIMENSION
  5
1385D
330
747D
100
AcDbEntity
  8
寸法
 48
50.0
100
AcDbDimension
  2
*D67
 10
6162.34587816289
 20
1730.799723397104
 30
0.0
 11
6062.334067139268
 21
1951.289098397104
 31
0.0
 70
    32
 71
     5
 42
220.489375
  3
INABA_S40G詳細用20
100
AcDbAlignedDimension
 13
6327.975533552198
 23
2171.778473397104
 33
0.0
 14
7522.206150475266
 24
1730.799723397104
 34
0.0
 50
90.0
100
AcDbRotatedDimension
  0
DIMENSION
  5
1385E
330
747D
100
AcDbEntity
  8
寸法
 48
50.0
100
AcDbDimension
  2
*D68
 10
8167.356645224433
 20
779.5662246076199
 30
0.0
 11
7567.356645224433
 21
879.5662246076199
 31
0.0
 70
    32
 71
     5
 42
600.0000000000004
  3
INABA_S40G詳細用20
100
AcDbAlignedDimension
 13
6967.356645224433
 23
1061.753473397105
 33
0.0
 14
8167.356645224433
 24
1061.753473397105
 34
0.0
100
AcDbRotatedDimension
  0
LINE
  5
1385F
330
747D
100
AcDbEntity
  8
部品1
 48
50.0
100
AcDbLine
 10
6871.142525974295
 20
1371.653473397103
 30
0.0
 11
6871.142525974295
 21
1061.753473397105
 31
0.0
  0
DIMENSION
  5
13860
330
747D
100
AcDbEntity
  8
寸法
 48
50.0
100
AcDbDimension
  2
*D69
 10
5981.671157149674
 20
1271.753473397105
 30
0.0
 11
5881.671157149674
 21
1321.703473397105
 31
0.0
 70
    32
 71
     5
 42
49.94999999999925
  3
INABA_S40G詳細用20
100
AcDbAlignedDimension
 13
6871.142525974303
 23
1371.653473397103
 33
0.0
 14
6871.142525974295
 24
1271.753473397105
 34
0.0
 50
90.0
100
AcDbRotatedDimension
  0
LINE
  5
13861
330
747D
100
AcDbEntity
  8
細線
 48
50.0
100
AcDbLine
 10
6897.595603423757
 20
1096.753473397105
 30
0.0
 11
6912.856645224438
 21
1061.753473397105
 31
0.0
  0
LINE
  5
13862
330
747D
100
AcDbEntity
  8
細線
 48
50.0
100
AcDbLine
 10
6884.856645224438
 20
1061.753473397105
 30
0.0
 11
6961.290394420339
 21
1271.753473397103
 31
0.0
  0
LINE
  5
13863
330
747D
100
AcDbEntity
  8
細線
 48
50.0
100
AcDbLine
 10
7037.595603423756
 20
1096.753473397105
 30
0.0
 11
7052.856645224436
 21
1061.753473397105
 31
0.0
  0
LINE
  5
13864
330
747D
100
AcDbEntity
  8
細線
 48
50.0
100
AcDbLine
 10
6933.290394420339
 20
1271.753473397103
 30
0.0
 11
6948.55143622102
 21
1236.753473397105
 31
0.0
  0
LINE
  5
13865
330
747D
100
AcDbEntity
  8
細線
 48
50.0
100
AcDbLine
 10
6369.555001964011
 20
1904.635869400448
 30
0.0
 11
6466.786958123155
 21
2171.778473397104
 31
0.0
  0
LINE
  5
13866
330
747D
100
AcDbEntity
  8
部品1
 48
50.0
100
AcDbLine
 10
6327.975533552186
 20
2171.778473397103
 30
0.0
 11
6748.627657849846
 21
2171.778473397103
 31
0.0
  0
LINE
  5
13867
330
747D
100
AcDbEntity
  8
部品1
 48
50.0
100
AcDbLine
 10
6327.975533552187
 20
1904.635869400447
 30
0.0
 11
6748.627657849846
 21
1904.635869400447
 31
0.0
  0
LINE
  5
13868
330
747D
100
AcDbEntity
  8
部品1
 48
50.0
100
AcDbLine
 10
6327.975533552198
 20
2171.778473397104
 30
0.0
 11
6327.975533552187
 21
1904.635869400447
 31
0.0
  0
LINE
  5
13869
330
747D
100
AcDbEntity
  8
細線
 48
50.0
100
AcDbLine
 10
6380.534997866067
 20
1934.736199233222
 30
0.0
 11
6393.659637631564
 21
1904.635869400447
 31
0.0
  0
LINE
  5
1386A
330
747D
100
AcDbEntity
  8
部品1
 48
50.0
100
AcDbLine
 10
6967.356645224433
 20
1371.653473397103
 30
0.0
 11
6967.356645224431
 21
2171.778473397103
 31
0.0
  0
LINE
  5
1386B
330
747D
100
AcDbEntity
  8
細線
 48
50.0
100
AcDbLine
 10
6572.280867620671
 20
1904.635869400448
 30
0.0
 11
6669.512823779817
 21
2171.778473397105
 31
0.0
  0
LINE
  5
1386C
330
747D
100
AcDbEntity
  8
細線
 48
50.0
100
AcDbLine
 10
6583.260863522728
 20
1934.736199233222
 30
0.0
 11
6596.385503288225
 21
1904.635869400447
 31
0.0
  0
LINE
  5
1386D
330
747D
100
AcDbEntity
  8
細線
 48
50.0
100
AcDbLine
 10
6442.645092865091
 20
2171.778473397104
 30
0.0
 11
6455.803307681155
 21
2141.601141824525
 31
0.0
  0
LINE
  5
1386E
330
747D
100
AcDbEntity
  8
細線
 48
50.0
100
AcDbLine
 10
6645.370958521751
 20
2171.778473397104
 30
0.0
 11
6658.529173337817
 21
2141.601141824525
 31
0.0
  0
LINE
  5
1386F
330
747D
100
AcDbEntity
  8
細線
 48
50.0
100
AcDbLine
 10
6800.550727849854
 20
1974.817417691123
 30
0.0
 11
6872.238689436478
 21
2171.778473397104
 31
0.0
  0
LINE
  5
13870
330
747D
100
AcDbEntity
  8
部品1
 48
50.0
100
AcDbLine
 10
6800.550727849851
 20
1904.635869400447
 30
0.0
 11
6967.356645224431
 21
1904.635869400447
 31
0.0
  0
LINE
  5
13871
330
747D
100
AcDbEntity
  8
細線
 48
50.0
100
AcDbLine
 10
6848.096824178414
 20
2171.778473397104
 30
0.0
 11
6861.255038994478
 21
2141.601141824525
 31
0.0
  0
LINE
  5
13872
330
747D
100
AcDbEntity
  8
部品1
 48
50.0
100
AcDbLine
 10
8263.570764474556
 20
1371.653473397103
 30
0.0
 11
8263.570764474556
 21
1061.753473397105
 31
0.0
  0
LINE
  5
13873
330
747D
100
AcDbEntity
  8
細線
 48
50.0
100
AcDbLine
 10
7724.856645224438
 20
1061.753473397105
 30
0.0
 11
7801.290394420338
 21
1271.753473397105
 31
0.0
  0
LINE
  5
13874
330
747D
100
AcDbEntity
  8
細線
 48
50.0
100
AcDbLine
 10
7737.595603423756
 20
1096.753473397105
 30
0.0
 11
7752.856645224436
 21
1061.753473397105
 31
0.0
  0
LINE
  5
13875
330
747D
100
AcDbEntity
  8
細線
 48
50.0
100
AcDbLine
 10
7164.856645224436
 20
1061.753473397105
 30
0.0
 11
7241.290394420338
 21
1271.753473397105
 31
0.0
  0
LINE
  5
13876
330
747D
100
AcDbEntity
  8
細線
 48
50.0
100
AcDbLine
 10
7177.595603423757
 20
1096.753473397105
 30
0.0
 11
7192.856645224437
 21
1061.753473397105
 31
0.0
  0
LINE
  5
13877
330
747D
100
AcDbEntity
  8
細線
 48
50.0
100
AcDbLine
 10
7304.856645224437
 20
1061.753473397105
 30
0.0
 11
7381.290394420338
 21
1271.753473397105
 31
0.0
  0
LINE
  5
13878
330
747D
100
AcDbEntity
  8
細線
 48
50.0
100
AcDbLine
 10
7317.595603423756
 20
1096.753473397105
 30
0.0
 11
7332.856645224437
 21
1061.753473397105
 31
0.0
  0
LINE
  5
13879
330
747D
100
AcDbEntity
  8
細線
 48
50.0
100
AcDbLine
 10
7213.290394420337
 20
1271.753473397105
 30
0.0
 11
7228.551436221019
 21
1236.753473397105
 31
0.0
  0
LINE
  5
1387A
330
747D
100
AcDbEntity
  8
細線
 48
50.0
100
AcDbLine
 10
7353.290394420338
 20
1271.753473397105
 30
0.0
 11
7368.551436221018
 21
1236.753473397105
 31
0.0
  0
LINE
  5
1387B
330
747D
100
AcDbEntity
  8
細線
 48
50.0
100
AcDbLine
 10
7584.856645224437
 20
1061.753473397106
 30
0.0
 11
7661.290394420338
 21
1271.753473397106
 31
0.0
  0
LINE
  5
1387C
330
747D
100
AcDbEntity
  8
細線
 48
50.0
100
AcDbLine
 10
7597.595603423757
 20
1096.753473397106
 30
0.0
 11
7612.856645224437
 21
1061.753473397106
 31
0.0
  0
LINE
  5
1387D
330
747D
100
AcDbEntity
  8
細線
 48
50.0
100
AcDbLine
 10
7444.856645224437
 20
1061.753473397106
 30
0.0
 11
7521.290394420337
 21
1271.753473397105
 31
0.0
  0
LINE
  5
1387E
330
747D
100
AcDbEntity
  8
細線
 48
50.0
100
AcDbLine
 10
7457.595603423756
 20
1096.753473397106
 30
0.0
 11
7472.856645224436
 21
1061.753473397106
 31
0.0
  0
LINE
  5
1387F
330
747D
100
AcDbEntity
  8
細線
 48
50.0
100
AcDbLine
 10
7493.290394420339
 20
1271.753473397105
 30
0.0
 11
7508.551436221019
 21
1236.753473397106
 31
0.0
  0
LINE
  5
13880
330
747D
100
AcDbEntity
  8
細線
 48
50.0
100
AcDbLine
 10
7633.290394420338
 20
1271.753473397106
 30
0.0
 11
7648.551436221019
 21
1236.753473397106
 31
0.0
  0
LINE
  5
13881
330
747D
100
AcDbEntity
  8
細線
 48
50.0
100
AcDbLine
 10
8004.856645224437
 20
1061.753473397106
 30
0.0
 11
8081.290394420339
 21
1271.753473397106
 31
0.0
  0
LINE
  5
13882
330
747D
100
AcDbEntity
  8
細線
 48
50.0
100
AcDbLine
 10
8017.595603423755
 20
1096.753473397106
 30
0.0
 11
8032.856645224438
 21
1061.753473397106
 31
0.0
  0
LINE
  5
13883
330
747D
100
AcDbEntity
  8
細線
 48
50.0
100
AcDbLine
 10
7864.856645224437
 20
1061.753473397106
 30
0.0
 11
7941.290394420338
 21
1271.753473397105
 31
0.0
  0
LINE
  5
13884
330
747D
100
AcDbEntity
  8
細線
 48
50.0
100
AcDbLine
 10
7877.595603423756
 20
1096.753473397106
 30
0.0
 11
7892.856645224437
 21
1061.753473397106
 31
0.0
  0
LINE
  5
13885
330
747D
100
AcDbEntity
  8
細線
 48
50.0
100
AcDbLine
 10
7773.290394420339
 20
1271.753473397105
 30
0.0
 11
7788.551436221019
 21
1236.753473397105
 31
0.0
  0
LINE
  5
13886
330
747D
100
AcDbEntity
  8
細線
 48
50.0
100
AcDbLine
 10
8053.290394420338
 20
1271.753473397106
 30
0.0
 11
8068.551436221019
 21
1236.753473397106
 31
0.0
  0
LINE
  5
13887
330
747D
100
AcDbEntity
  8
細線
 48
50.0
100
AcDbLine
 10
7913.290394420338
 20
1271.753473397105
 30
0.0
 11
7928.551436221019
 21
1236.753473397106
 31
0.0
  0
LINE
  5
13888
330
747D
100
AcDbEntity
  8
細線
 48
50.0
100
AcDbLine
 10
8144.856645224436
 20
1061.753473397105
 30
0.0
 11
8221.290394420323
 21
1271.753473397104
 31
0.0
  0
LINE
  5
13889
330
747D
100
AcDbEntity
  8
細線
 48
50.0
100
AcDbLine
 10
8157.595603423756
 20
1096.753473397105
 30
0.0
 11
8172.856645224436
 21
1061.753473397105
 31
0.0
  0
LINE
  5
1388A
330
747D
100
AcDbEntity
  8
細線
 48
50.0
100
AcDbLine
 10
8193.290394420325
 20
1271.753473397106
 30
0.0
 11
8208.551436221005
 21
1236.753473397106
 31
0.0
  0
LINE
  5
1388B
330
747D
100
AcDbEntity
  8
部品1
 48
50.0
100
AcDbLine
 10
7996.731645224421
 20
1495.253473397103
 30
0.0
 11
7137.981645224423
 21
1495.253473397106
 31
0.0
  0
LINE
  5
1388C
330
747D
100
AcDbEntity
  8
部品1
 48
50.0
100
AcDbLine
 10
7996.731645224421
 20
1523.253473397105
 30
0.0
 11
7137.981645224423
 21
1523.253473397106
 31
0.0
  0
CIRCLE
  5
1388D
330
747D
100
AcDbEntity
  8
部品1
 48
5.0
100
AcDbCircle
 10
7177.356645224422
 20
1537.253473397106
 30
0.0
 40
14.0
  0
LINE
  5
1388E
330
747D
100
AcDbEntity
  8
部品1
 48
50.0
100
AcDbLine
 10
7137.981645224423
 20
1495.253473397103
 30
0.0
 11
7137.981645224423
 21
1523.253473397106
 31
0.0
  0
CIRCLE
  5
1388F
330
747D
100
AcDbEntity
  8
部品1
 48
5.0
100
AcDbCircle
 10
7697.356645224423
 20
1537.253473397106
 30
0.0
 40
14.0
  0
CIRCLE
  5
13890
330
747D
100
AcDbEntity
  8
部品1
 48
5.0
100
AcDbCircle
 10
7437.356645224422
 20
1537.253473397106
 30
0.0
 40
14.0
  0
LINE
  5
13891
330
747D
100
AcDbEntity
  8
部品1
 48
5.0
100
AcDbLine
 10
7507.206150475266
 20
1730.799723397104
 30
0.0
 11
7627.507139973592
 21
1730.799723397104
 31
0.0
  0
CIRCLE
  5
13892
330
747D
100
AcDbEntity
  8
部品1
 48
50.0
100
AcDbCircle
 10
7567.356645224437
 20
1791.000383062655
 30
0.0
 40
12.0401319331104
  0
LINE
  5
13893
330
747D
100
AcDbEntity
  8
部品1
 48
50.0
100
AcDbLine
 10
8167.356645224433
 20
1371.653473397103
 30
0.0
 11
8167.356645224433
 21
2171.778473397103
 31
0.0
  0
CIRCLE
  5
13894
330
747D
100
AcDbEntity
  8
部品1
 48
5.0
100
AcDbCircle
 10
7957.356645224422
 20
1537.253473397106
 30
0.0
 40
14.0
  0
LINE
  5
13895
330
747D
100
AcDbEntity
  8
部品1
 48
50.0
100
AcDbLine
 10
7996.731645224421
 20
1495.253473397106
 30
0.0
 11
7996.731645224421
 21
1523.253473397105
 31
0.0
  0
LINE
  5
13896
330
747D
100
AcDbEntity
  8
細線
 48
50.0
100
AcDbLine
 10
8194.087792873961
 20
1904.635869400447
 30
0.0
 11
8291.319749033107
 21
2171.778473397104
 31
0.0
  0
LINE
  5
13897
330
747D
100
AcDbEntity
  8
細線
 48
50.0
100
AcDbLine
 10
8205.067788776018
 20
1934.736199233222
 30
0.0
 11
8218.192428541515
 21
1904.635869400447
 31
0.0
  0
LINE
  5
13898
330
747D
100
AcDbEntity
  8
細線
 48
50.0
100
AcDbLine
 10
8267.17788377504
 20
2171.778473397104
 30
0.0
 11
8280.336098591105
 21
2141.601141824525
 31
0.0
  0
LINE
  5
13899
330
747D
100
AcDbEntity
  8
Ｇ．Ｌ
 48
50.0
100
AcDbLine
 10
5506.227576651132
 20
2272.319098397104
 30
0.0
 11
6363.789827176102
 21
2272.319098397104
 31
0.0
  0
MTEXT
  5
1389A
330
747D
100
AcDbEntity
  8
寸法
 62
     7
 48
50.0
100
AcDbMText
 10
5522.027965284028
 20
2347.642611346253
 30
0.0
 40
120.0
 41
0.0
 71
     4
 72
     1
  1
▽G.L
  7
STYLE1
 73
     1
 44
1.0
1001
ACAD
1000
MTEXTBEGIN
1070
    73
1070
     1
1070
    44
1040
1.0
1070
    74
1070
     0
1000
MTEXTEND
  0
LINE
  5
1389B
330
747D
100
AcDbEntity
  8
部品1
 48
50.0
100
AcDbLine
 10
6800.550727849851
 20
2346.281860546504
 30
0.0
 11
7444.690700689548
 21
2352.723260274901
 31
0.0
  0
LINE
  5
1389C
330
747D
100
AcDbEntity
  8
部品1
 48
50.0
100
AcDbLine
 10
6363.789827176105
 20
2272.319098397104
 30
0.0
 11
6435.610521715038
 21
2342.632458485155
 31
0.0
  0
LINE
  5
1389D
330
747D
100
AcDbEntity
  8
部品1
 48
50.0
100
AcDbLine
 10
6435.610521715038
 20
2342.632458485155
 30
0.0
 11
6748.627657849848
 21
2345.762629846504
 31
0.0
  0
LINE
  5
1389E
330
747D
100
AcDbEntity
  8
部品1
 48
100.0
100
AcDbLine
 10
7430.882479959493
 20
3519.746835418326
 30
0.0
 11
7430.882479959493
 21
3127.439195418326
 31
0.0
  0
LINE
  5
1389F
330
747D
100
AcDbEntity
  8
部品1
 48
50.0
100
AcDbLine
 10
7477.105820642496
 20
2385.138380227838
 30
0.0
 11
7507.206150475266
 21
2385.138380227838
 31
0.0
  0
LINE
  5
138A0
330
747D
100
AcDbEntity
  8
部品1
 48
50.0
100
AcDbLine
 10
7477.105820642488
 20
2385.138380227838
 30
0.0
 11
7444.690700689548
 21
2352.723260274901
 31
0.0
  0
LINE
  5
138A1
330
747D
100
AcDbEntity
  8
部品1
 48
50.0
100
AcDbLine
 10
7627.507139973592
 20
2385.138380227838
 30
0.0
 11
7657.607469806364
 21
2385.138380227838
 31
0.0
  0
LINE
  5
138A2
330
747D
100
AcDbEntity
  8
部品1
 48
50.0
100
AcDbLine
 10
7657.607469806371
 20
2385.138380227838
 30
0.0
 11
7687.593561154648
 21
2355.15228887955
 31
0.0
  0
LINE
  5
138A3
330
747D
100
AcDbEntity
  8
部品1
 48
50.0
100
AcDbLine
 10
8146.139304852786
 20
2522.790247627517
 30
0.0
 11
8215.129189751021
 21
2533.941815635307
 31
0.0
  0
LINE
  5
138A4
330
747D
100
AcDbEntity
  8
部品1
 48
50.0
100
AcDbLine
 10
8146.139304852786
 20
2522.790247627517
 30
0.0
 11
8215.364972692066
 21
2513.210654759934
 31
0.0
  0
LINE
  5
138A5
330
747D
100
AcDbEntity
  8
部品1
 48
50.0
100
AcDbLine
 10
9382.912672575582
 20
2556.934212383462
 30
0.0
 11
9382.912672575582
 21
1730.799723397104
 31
0.0
  0
LINE
  5
138A6
330
747D
100
AcDbEntity
  8
部品1
 48
50.0
100
AcDbLine
 10
9503.213662073909
 20
1730.799723397104
 30
0.0
 11
9503.213662073909
 21
2556.934212383462
 31
0.0
  0
LINE
  5
138A7
330
747D
100
AcDbEntity
  8
部品1
 48
50.0
100
AcDbLine
 10
8479.248371274591
 20
2421.939754832522
 30
0.0
 11
8479.248371274591
 21
1841.716830795493
 31
0.0
  0
LINE
  5
138A8
330
747D
100
AcDbEntity
  8
部品1
 48
50.0
100
AcDbLine
 10
8531.17144127459
 20
2421.939754832522
 30
0.0
 11
8531.17144127459
 21
1841.716830795493
 31
0.0
  0
LEADER
  5
138A9
330
747D
100
AcDbEntity
  8
寸法
 48
5.0
100
AcDbLeader
  3
INABA_S40G詳細用20
 71
     0
 73
     0
 74
     0
 75
     1
 40
121.669047558312
 41
937.9999999999999
 76
     3
 10
9833.063167324738
 20
1537.253473397106
 30
0.0
 10
10078.9575592602
 20
1147.751905860606
 30
0.0
 10
10178.9575592602
 20
1147.751905860606
 30
0.0
  0
MTEXT
  5
138AA
102
{ACAD_REACTORS
330
138A9
102
}
330
747D
100
AcDbEntity
  8
部品1
 62
     7
 48
5.0
100
AcDbMText
 10
10218.9575592602
 20
1248.586429639761
 30
0.0
 40
120.0
 41
0.0
 71
     4
 72
     1
  1
\A1;4-D10両方向共
  7
STYLE1
 73
     1
 44
1.0
1001
ACAD
1000
MTEXTBEGIN
1070
    73
1070
     1
1070
    44
1040
1.0
1070
    74
1070
     0
1000
MTEXTEND
  0
HATCH
  5
138AB
330
747D
100
AcDbEntity
  8
細線
 48
50.0
100
AcDbHatch
 10
0.0
 20
0.0
 30
0.0
210
0.0
220
0.0
230
1.0
  2
PLAST
 70
     0
 71
     0
 91
        2
 92
        7
 72
     0
 73
     1
 93
        8
 10
10043.06316732474
 20
2171.778473397103
 10
9503.213662073905
 20
2171.778473397103
 10
9503.213662073909
 20
1730.799723397104
 10
9382.912672575582
 20
1730.799723397104
 10
9382.912672575582
 20
2171.778473397103
 10
8843.063167324746
 20
2171.778473397103
 10
8843.063167324746
 20
1371.653473397103
 10
10043.06316732475
 20
1371.653473397103
 97
        0
 92
       22
 72
     1
 73
     1
 93
       20
 10
9587.063167324737
 20
1537.253473397106
 42
-0.4142135623731189
 10
9573.063167324738
 20
1523.253473397105
 42
0.0
 10
9833.063167324738
 20
1523.253473397105
 42
-0.4142135623731332
 10
9819.063167324737
 20
1537.253473397106
 42
-1.0
 10
9847.063167324737
 20
1537.253473397106
 42
-0.4142135623731332
 10
9833.063167324738
 20
1523.253473397105
 42
0.0
 10
9872.438167324737
 20
1523.253473397105
 42
0.0
 10
9872.438167324737
 20
1495.253473397102
 42
0.0
 10
9013.688167324737
 20
1495.253473397106
 42
0.0
 10
9013.688167324737
 20
1523.253473397106
 42
0.0
 10
9053.063167324737
 20
1523.253473397106
 42
-0.4142135623731046
 10
9039.063167324737
 20
1537.253473397106
 42
-1.0
 10
9067.063167324738
 20
1537.253473397106
 42
-0.4142135623730951
 10
9053.063167324737
 20
1523.253473397106
 42
0.0
 10
9313.063167324738
 20
1523.253473397106
 42
-0.4142135623731094
 10
9299.063167324737
 20
1537.253473397106
 42
-1.0
 10
9327.063167324737
 20
1537.253473397106
 42
-0.4142135623731094
 10
9313.063167324738
 20
1523.253473397106
 42
0.0
 10
9573.063167324738
 20
1523.253473397105
 42
-0.4142135623731189
 10
9559.063167324737
 20
1537.253473397106
 42
-1.0
 97
        0
 75
     0
 76
     1
 52
315.0
 41
60.0
 77
     0
 78
     3
 53
315.0
 43
0.0
 44
0.0
 45
269.4076836320747
 46
269.4076836320746
 79
     0
 53
315.0
 43
33.67596045400933
 44
33.67596045400932
 45
269.4076836320747
 46
269.4076836320746
 79
     0
 53
315.0
 43
67.35192090801866
 44
67.35192090801864
 45
269.4076836320747
 46
269.4076836320746
 79
     0
 47
4.770536170264612
 98
        2
 10
9647.808420859298
 20
1925.259069847281
 10
9647.808420859298
 20
1925.259069847281
  0
LINE
  5
138AC
330
747D
100
AcDbEntity
  8
部品1
 48
50.0
100
AcDbLine
 10
9872.438167324737
 20
1523.253473397105
 30
0.0
 11
9013.688167324737
 21
1523.253473397106
 31
0.0
  0
LINE
  5
138AD
330
747D
100
AcDbEntity
  8
部品1
 48
50.0
100
AcDbLine
 10
9872.438167324737
 20
1495.253473397103
 30
0.0
 11
9013.688167324737
 21
1495.253473397106
 31
0.0
  0
LINE
  5
138AE
330
747D
100
AcDbEntity
  8
部品1
 48
50.0
100
AcDbLine
 10
8746.849048074611
 20
1371.653473397103
 30
0.0
 11
10139.27728657487
 21
1371.653473397103
 31
0.0
  0
LINE
  5
138AF
330
747D
100
AcDbEntity
  8
部品1
 48
50.0
100
AcDbLine
 10
8746.849048074611
 20
1061.753473397105
 30
0.0
 11
10139.27728657487
 21
1061.753473397105
 31
0.0
  0
LINE
  5
138B0
330
747D
100
AcDbEntity
  8
部品1
 48
50.0
100
AcDbLine
 10
8746.849048074611
 20
1271.753473397105
 30
0.0
 11
10139.27728657487
 21
1271.753473397105
 31
0.0
  0
HATCH
  5
138B1
330
747D
100
AcDbEntity
  8
細線
 48
50.0
100
AcDbHatch
 10
0.0
 20
0.0
 30
0.0
210
0.0
220
0.0
230
1.0
  2
PLAST
 70
     0
 71
     0
 91
        1
 92
        7
 72
     0
 73
     1
 93
        4
 10
10139.27728657487
 20
1371.653473397103
 10
8746.849048074611
 20
1371.653473397103
 10
8746.849048074611
 20
1271.753473397105
 10
10139.27728657487
 20
1271.753473397105
 97
        0
 75
     0
 76
     1
 52
45.0
 41
60.0
 77
     0
 78
     3
 53
45.0
 43
1875.706522100314
 44
0.0
 45
-269.4076836320746
 46
269.4076836320746
 79
     0
 53
45.0
 43
1842.030561646305
 44
33.67596045400933
 45
-269.4076836320746
 46
269.4076836320746
 79
     0
 53
45.0
 43
1808.354601192295
 44
67.35192090801866
 45
-269.4076836320746
 46
269.4076836320746
 79
     0
 47
2.021456610930475
 98
        1
 10
9925.023143417718
 20
1348.963404449929
  0
LINE
  5
138B2
330
747D
100
AcDbEntity
  8
部品1
 48
50.0
100
AcDbLine
 10
9503.213662073909
 20
2171.778473397103
 30
0.0
 11
10354.95489337491
 21
2171.778473397103
 31
0.0
  0
LINE
  5
138B3
330
747D
100
AcDbEntity
  8
部品1
 48
50.0
100
AcDbLine
 10
8746.849048074611
 20
1371.653473397103
 30
0.0
 11
8746.849048074611
 21
1061.753473397105
 31
0.0
  0
LINE
  5
138B4
330
747D
100
AcDbEntity
  8
細線
 48
50.0
100
AcDbLine
 10
9053.302125524071
 20
1096.753473397105
 30
0.0
 11
9068.563167324752
 21
1061.753473397105
 31
0.0
  0
LINE
  5
138B5
330
747D
100
AcDbEntity
  8
細線
 48
50.0
100
AcDbLine
 10
9040.563167324751
 20
1061.753473397105
 30
0.0
 11
9116.996916520653
 21
1271.753473397105
 31
0.0
  0
LINE
  5
138B6
330
747D
100
AcDbEntity
  8
細線
 48
50.0
100
AcDbLine
 10
8913.30212552407
 20
1096.753473397105
 30
0.0
 11
8928.563167324751
 21
1061.753473397105
 31
0.0
  0
LINE
  5
138B7
330
747D
100
AcDbEntity
  8
細線
 48
50.0
100
AcDbLine
 10
8760.563167324752
 20
1061.753473397105
 30
0.0
 11
8836.996916520652
 21
1271.753473397103
 31
0.0
  0
LINE
  5
138B8
330
747D
100
AcDbEntity
  8
細線
 48
50.0
100
AcDbLine
 10
8773.302125524072
 20
1096.753473397105
 30
0.0
 11
8788.563167324751
 21
1061.753473397105
 31
0.0
  0
LINE
  5
138B9
330
747D
100
AcDbEntity
  8
細線
 48
50.0
100
AcDbLine
 10
8900.563167324753
 20
1061.753473397105
 30
0.0
 11
8976.996916520652
 21
1271.753473397103
 31
0.0
  0
LINE
  5
138BA
330
747D
100
AcDbEntity
  8
細線
 48
50.0
100
AcDbLine
 10
8808.996916520653
 20
1271.753473397103
 30
0.0
 11
8824.257958321334
 21
1236.753473397105
 31
0.0
  0
LINE
  5
138BB
330
747D
100
AcDbEntity
  8
細線
 48
50.0
100
AcDbLine
 10
8948.996916520654
 20
1271.753473397103
 30
0.0
 11
8964.257958321333
 21
1236.753473397105
 31
0.0
  0
LINE
  5
138BC
330
747D
100
AcDbEntity
  8
細線
 48
50.0
100
AcDbLine
 10
9320.563167324753
 20
1061.753473397106
 30
0.0
 11
9396.996916520654
 21
1271.753473397105
 31
0.0
  0
LINE
  5
138BD
330
747D
100
AcDbEntity
  8
細線
 48
50.0
100
AcDbLine
 10
9333.30212552407
 20
1096.753473397106
 30
0.0
 11
9348.563167324753
 21
1061.753473397106
 31
0.0
  0
LINE
  5
138BE
330
747D
100
AcDbEntity
  8
細線
 48
50.0
100
AcDbLine
 10
9193.302125524072
 20
1096.753473397105
 30
0.0
 11
9208.563167324752
 21
1061.753473397105
 31
0.0
  0
LINE
  5
138BF
330
747D
100
AcDbEntity
  8
細線
 48
50.0
100
AcDbLine
 10
9180.563167324752
 20
1061.753473397105
 30
0.0
 11
9256.996916520654
 21
1271.753473397105
 31
0.0
  0
LINE
  5
138C0
330
747D
100
AcDbEntity
  8
細線
 48
50.0
100
AcDbLine
 10
9088.996916520654
 20
1271.753473397105
 30
0.0
 11
9104.257958321333
 21
1236.753473397105
 31
0.0
  0
LINE
  5
138C1
330
747D
100
AcDbEntity
  8
細線
 48
50.0
100
AcDbLine
 10
9368.996916520654
 20
1271.753473397105
 30
0.0
 11
9384.257958321333
 21
1236.753473397106
 31
0.0
  0
LINE
  5
138C2
330
747D
100
AcDbEntity
  8
細線
 48
50.0
100
AcDbLine
 10
9228.996916520653
 20
1271.753473397105
 30
0.0
 11
9244.257958321334
 21
1236.753473397105
 31
0.0
  0
LINE
  5
138C3
330
747D
100
AcDbEntity
  8
細線
 48
50.0
100
AcDbLine
 10
9473.302125524071
 20
1096.753473397106
 30
0.0
 11
9488.563167324752
 21
1061.753473397106
 31
0.0
  0
LINE
  5
138C4
330
747D
100
AcDbEntity
  8
細線
 48
50.0
100
AcDbLine
 10
9460.563167324751
 20
1061.753473397106
 30
0.0
 11
9536.996916520653
 21
1271.753473397106
 31
0.0
  0
LINE
  5
138C5
330
747D
100
AcDbEntity
  8
細線
 48
50.0
100
AcDbLine
 10
9613.302125524072
 20
1096.753473397105
 30
0.0
 11
9628.563167324752
 21
1061.753473397105
 31
0.0
  0
LINE
  5
138C6
330
747D
100
AcDbEntity
  8
細線
 48
50.0
100
AcDbLine
 10
9600.563167324752
 20
1061.753473397105
 30
0.0
 11
9676.996916520653
 21
1271.753473397105
 31
0.0
  0
LINE
  5
138C7
330
747D
100
AcDbEntity
  8
細線
 48
50.0
100
AcDbLine
 10
9508.996916520652
 20
1271.753473397106
 30
0.0
 11
9524.257958321333
 21
1236.753473397106
 31
0.0
  0
LINE
  5
138C8
330
747D
100
AcDbEntity
  8
細線
 48
50.0
100
AcDbLine
 10
9648.996916520653
 20
1271.753473397105
 30
0.0
 11
9664.257958321334
 21
1236.753473397105
 31
0.0
  0
CIRCLE
  5
138C9
330
747D
100
AcDbEntity
  8
部品1
 48
5.0
100
AcDbCircle
 10
9053.063167324737
 20
1537.253473397106
 30
0.0
 40
14.0
  0
LINE
  5
138CA
330
747D
100
AcDbEntity
  8
部品1
 48
50.0
100
AcDbLine
 10
9382.912672575582
 20
2171.778473397103
 30
0.0
 11
8531.17144127459
 21
2171.778473397103
 31
0.0
  0
LINE
  5
138CB
330
747D
100
AcDbEntity
  8
部品1
 48
50.0
100
AcDbLine
 10
8843.063167324748
 20
1371.653473397103
 30
0.0
 11
8843.063167324746
 21
2171.778473397103
 31
0.0
  0
LINE
  5
138CC
330
747D
100
AcDbEntity
  8
部品1
 48
50.0
100
AcDbLine
 10
9013.688167324737
 20
1495.253473397103
 30
0.0
 11
9013.688167324737
 21
1523.253473397106
 31
0.0
  0
LINE
  5
138CD
330
747D
100
AcDbEntity
  8
部品1
 48
50.0
100
AcDbLine
 10
8843.063167324746
 20
1904.635869400447
 30
0.0
 11
8531.17144127459
 21
1904.635869400447
 31
0.0
  0
LINE
  5
138CE
330
747D
100
AcDbEntity
  8
細線
 48
50.0
100
AcDbLine
 10
8599.539524187285
 20
1904.635869400448
 30
0.0
 11
8696.771480346431
 21
2171.778473397104
 31
0.0
  0
LINE
  5
138CF
330
747D
100
AcDbEntity
  8
細線
 48
50.0
100
AcDbLine
 10
8407.793654432678
 20
1934.736199233222
 30
0.0
 11
8420.918294198175
 21
1904.635869400447
 31
0.0
  0
LINE
  5
138D0
330
747D
100
AcDbEntity
  8
細線
 48
50.0
100
AcDbLine
 10
8610.519520089338
 20
1934.736199233222
 30
0.0
 11
8623.644159854837
 21
1904.635869400447
 31
0.0
  0
LINE
  5
138D1
330
747D
100
AcDbEntity
  8
細線
 48
50.0
100
AcDbLine
 10
8469.903749431702
 20
2171.778473397104
 30
0.0
 11
8479.248371274591
 21
2150.347317597077
 31
0.0
  0
LINE
  5
138D2
330
747D
100
AcDbEntity
  8
細線
 48
50.0
100
AcDbLine
 10
8672.629615088364
 20
2171.778473397104
 30
0.0
 11
8685.78782990443
 21
2141.601141824525
 31
0.0
  0
LINE
  5
138D3
330
747D
100
AcDbEntity
  8
細線
 48
50.0
100
AcDbLine
 10
8802.265389843945
 20
1904.635869400447
 30
0.0
 11
8843.063167324748
 21
2016.726841792887
 31
0.0
  0
LINE
  5
138D4
330
747D
100
AcDbEntity
  8
細線
 48
50.0
100
AcDbLine
 10
8813.245385746002
 20
1934.736199233222
 30
0.0
 11
8826.370025511499
 21
1904.635869400447
 31
0.0
  0
LINE
  5
138D5
330
747D
100
AcDbEntity
  8
部品1
 48
5.0
100
AcDbLine
 10
9382.91267257558
 20
1730.799723397104
 30
0.0
 11
9503.213662073909
 21
1730.799723397104
 31
0.0
  0
CIRCLE
  5
138D6
330
747D
100
AcDbEntity
  8
部品1
 48
5.0
100
AcDbCircle
 10
9313.063167324738
 20
1537.253473397106
 30
0.0
 40
14.0
  0
CIRCLE
  5
138D7
330
747D
100
AcDbEntity
  8
部品1
 48
5.0
100
AcDbCircle
 10
9573.063167324738
 20
1537.253473397106
 30
0.0
 40
14.0
  0
CIRCLE
  5
138D8
330
747D
100
AcDbEntity
  8
部品1
 48
50.0
100
AcDbCircle
 10
9443.063167324751
 20
1791.000383062655
 30
0.0
 40
12.0401319331104
  0
LINE
  5
138D9
330
747D
100
AcDbEntity
  8
部品1
 48
50.0
100
AcDbLine
 10
10139.27728657487
 20
1371.653473397103
 30
0.0
 11
10139.27728657487
 21
1061.753473397105
 31
0.0
  0
LINE
  5
138DA
330
747D
100
AcDbEntity
  8
細線
 48
50.0
100
AcDbLine
 10
10033.30212552407
 20
1096.753473397105
 30
0.0
 11
10048.56316732475
 21
1061.753473397105
 31
0.0
  0
LINE
  5
138DB
330
747D
100
AcDbEntity
  8
細線
 48
50.0
100
AcDbLine
 10
10020.56316732475
 20
1061.753473397105
 30
0.0
 11
10096.99691652064
 21
1271.753473397104
 31
0.0
  0
LINE
  5
138DC
330
747D
100
AcDbEntity
  8
細線
 48
50.0
100
AcDbLine
 10
9753.302125524072
 20
1096.753473397106
 30
0.0
 11
9768.563167324751
 21
1061.753473397106
 31
0.0
  0
LINE
  5
138DD
330
747D
100
AcDbEntity
  8
細線
 48
50.0
100
AcDbLine
 10
9740.563167324751
 20
1061.753473397106
 30
0.0
 11
9816.996916520654
 21
1271.753473397105
 31
0.0
  0
LINE
  5
138DE
330
747D
100
AcDbEntity
  8
細線
 48
50.0
100
AcDbLine
 10
9893.302125524073
 20
1096.753473397106
 30
0.0
 11
9908.563167324752
 21
1061.753473397106
 31
0.0
  0
LINE
  5
138DF
330
747D
100
AcDbEntity
  8
細線
 48
50.0
100
AcDbLine
 10
9880.563167324751
 20
1061.753473397106
 30
0.0
 11
9956.996916520653
 21
1271.753473397106
 31
0.0
  0
LINE
  5
138E0
330
747D
100
AcDbEntity
  8
細線
 48
50.0
100
AcDbLine
 10
9788.996916520654
 20
1271.753473397105
 30
0.0
 11
9804.257958321334
 21
1236.753473397106
 31
0.0
  0
LINE
  5
138E1
330
747D
100
AcDbEntity
  8
細線
 48
50.0
100
AcDbLine
 10
9928.996916520652
 20
1271.753473397106
 30
0.0
 11
9944.257958321335
 21
1236.753473397106
 31
0.0
  0
LINE
  5
138E2
330
747D
100
AcDbEntity
  8
細線
 48
50.0
100
AcDbLine
 10
10068.99691652064
 20
1271.753473397106
 30
0.0
 11
10084.25795832132
 21
1236.753473397106
 31
0.0
  0
LINE
  5
138E3
330
747D
100
AcDbEntity
  8
部品1
 48
50.0
100
AcDbLine
 10
10043.06316732475
 20
1371.653473397103
 30
0.0
 11
10043.06316732475
 21
2171.778473397103
 31
0.0
  0
CIRCLE
  5
138E4
330
747D
100
AcDbEntity
  8
部品1
 48
5.0
100
AcDbCircle
 10
9833.063167324738
 20
1537.253473397106
 30
0.0
 40
14.0
  0
LINE
  5
138E5
330
747D
100
AcDbEntity
  8
部品1
 48
50.0
100
AcDbLine
 10
9872.438167324737
 20
1495.253473397106
 30
0.0
 11
9872.438167324737
 21
1523.253473397105
 31
0.0
  0
LINE
  5
138E6
330
747D
100
AcDbEntity
  8
細線
 48
50.0
100
AcDbLine
 10
10221.34644944057
 20
1904.635869400448
 30
0.0
 11
10318.57840559972
 21
2171.778473397103
 31
0.0
  0
LINE
  5
138E7
330
747D
100
AcDbEntity
  8
細線
 48
50.0
100
AcDbLine
 10
10043.06316732475
 20
1971.791315752021
 30
0.0
 11
10115.85253994306
 21
2171.778473397104
 31
0.0
  0
LINE
  5
138E8
330
747D
100
AcDbEntity
  8
部品1
 48
50.0
100
AcDbLine
 10
10043.06316732474
 20
1904.635869400445
 30
0.0
 11
10354.95489337491
 21
1904.635869400447
 31
0.0
  0
LINE
  5
138E9
330
747D
100
AcDbEntity
  8
細線
 48
50.0
100
AcDbLine
 10
10232.32644534263
 20
1934.736199233222
 30
0.0
 11
10245.45108510813
 21
1904.635869400447
 31
0.0
  0
LINE
  5
138EA
330
747D
100
AcDbEntity
  8
細線
 48
50.0
100
AcDbLine
 10
10091.71067468499
 20
2171.778473397103
 30
0.0
 11
10104.86888950106
 21
2141.601141824525
 31
0.0
  0
LINE
  5
138EB
330
747D
100
AcDbEntity
  8
細線
 48
50.0
100
AcDbLine
 10
10294.43654034165
 20
2171.778473397103
 30
0.0
 11
10307.59475515772
 21
2141.601141824525
 31
0.0
  0
LINE
  5
138EC
330
747D
100
AcDbEntity
  8
部品1
 48
50.0
100
AcDbLine
 10
9563.586884749872
 20
2371.480910386697
 30
0.0
 11
10354.95489337491
 21
2362.480397697104
 31
0.0
  0
LINE
  5
138ED
330
747D
100
AcDbEntity
  8
部品1
 48
50.0
100
AcDbLine
 10
9619.561584161839
 20
2531.099169784787
 30
0.0
 11
10739.98702979672
 21
2522.790247627517
 31
0.0
  0
MTEXT
  5
138EE
330
747D
100
AcDbEntity
  8
寸法
 62
     7
 48
50.0
100
AcDbMText
 10
9628.612747611242
 20
2646.955097062761
 30
0.0
 40
120.0
 41
0.0
 71
     4
 72
     1
  1
\A1;水勾配１／１００ 
  7
STYLE1
 73
     1
 44
1.0
1001
ACAD
1000
MTEXTBEGIN
1070
    73
1070
     1
1070
    44
1040
1.0
1070
    74
1070
     0
1000
MTEXTEND
  0
LINE
  5
138EF
330
747D
100
AcDbEntity
  8
部品1
 48
100.0
100
AcDbLine
 10
9016.317520040507
 20
3519.746835418325
 30
0.0
 11
9016.317520040507
 21
3127.439195418324
 31
0.0
  0
LINE
  5
138F0
330
747D
100
AcDbEntity
  8
部品1
 48
50.0
100
AcDbLine
 10
8531.17144127459
 20
2363.588067680751
 30
0.0
 11
9322.560497758519
 21
2371.50195824559
 31
0.0
  0
LINE
  5
138F1
330
747D
100
AcDbEntity
  8
部品1
 48
50.0
100
AcDbLine
 10
9352.812342742812
 20
2401.753803229882
 30
0.0
 11
9322.560497758518
 21
2371.50195824559
 31
0.0
  0
LINE
  5
138F2
330
747D
100
AcDbEntity
  8
部品1
 48
50.0
100
AcDbLine
 10
9352.812342742812
 20
2401.753803229882
 30
0.0
 11
9382.912672575582
 21
2401.753803229882
 31
0.0
  0
LINE
  5
138F3
330
747D
100
AcDbEntity
  8
部品1
 48
50.0
100
AcDbLine
 10
9533.313991906686
 20
2401.753803229881
 30
0.0
 11
9563.586884749872
 21
2371.480910386697
 31
0.0
  0
LINE
  5
138F4
330
747D
100
AcDbEntity
  8
部品1
 48
50.0
100
AcDbLine
 10
9503.213662073909
 20
2401.753803229882
 30
0.0
 11
9533.313991906686
 21
2401.753803229882
 31
0.0
  0
LINE
  5
138F5
330
747D
100
AcDbEntity
  8
部品1
 48
50.0
100
AcDbLine
 10
10739.98702979672
 20
2522.790247627517
 30
0.0
 11
10670.76136195743
 21
2513.210654759934
 31
0.0
  0
LINE
  5
138F6
330
747D
100
AcDbEntity
  8
部品1
 48
50.0
100
AcDbLine
 10
10739.98702979672
 20
2522.790247627517
 30
0.0
 11
10670.99714489848
 21
2533.941815635307
 31
0.0
  0
ENDSEC
  0
SECTION
  2
OBJECTS
  0
DICTIONARY
  5
7471
330
0
100
AcDbDictionary
281
     1
  3
ACAD_COLOR
350
12F9C
  3
ACAD_GROUP
350
7472
  3
ACAD_LAYOUT
350
12F9D
  3
ACAD_MATERIAL
350
12F9B
  3
ACAD_MLINESTYLE
350
7473
  3
ACAD_PLOTSETTINGS
350
12F9E
  3
ACAD_PLOTSTYLENAME
350
12F99
  3
ACDBHEADERROUNDTRIPXREC
350
13994
  3
ACDBVARIABLEDICTIONARY
350
11B74
  3
CONTENTDICTIONARY
350
E71C
  3
DRAWINGVARIABLESDICT
350
F3B9
  0
DICTIONARY
  5
12F9C
102
{ACAD_REACTORS
330
7471
102
}
330
7471
100
AcDbDictionary
281
     1
  0
DICTIONARY
  5
7472
102
{ACAD_REACTORS
330
7471
102
}
330
7471
100
AcDbDictionary
281
     1
  0
DICTIONARY
  5
12F9D
102
{ACAD_REACTORS
330
7471
102
}
330
7471
100
AcDbDictionary
281
     1
  3
Model
350
12F9F
  3
レイアウト1
350
12FA0
  0
DICTIONARY
  5
12F9B
102
{ACAD_REACTORS
330
7471
102
}
330
7471
100
AcDbDictionary
281
     1
  0
DICTIONARY
  5
7473
102
{ACAD_REACTORS
330
7471
102
}
330
7471
100
AcDbDictionary
281
     1
  3
STANDARD
350
7480
  0
DICTIONARY
  5
12F9E
102
{ACAD_REACTORS
330
7471
102
}
330
7471
100
AcDbDictionary
281
     1
  0
ACDBDICTIONARYWDFLT
  5
12F99
102
{ACAD_REACTORS
330
7471
102
}
330
7471
100
AcDbDictionary
281
     1
  3
Normal
350
12F9A
100
AcDbDictionaryWithDefault
340
12F9A
  0
DICTIONARY
  5
13994
102
{ACAD_REACTORS
330
7471
102
}
330
7471
100
AcDbDictionary
281
     1
  3
COLORDICT
350
13996
  3
MATERIALDICT
350
13995
  0
DICTIONARY
  5
11B74
102
{ACAD_REACTORS
330
7471
102
}
330
7471
100
AcDbDictionary
281
     1
  3
DIMASSOC
350
13991
  3
PROJECTNAME
350
13992
  3
SORTENTS
350
11B75
  0
DICTIONARY
  5
E71C
102
{ACAD_REACTORS
330
7471
102
}
330
7471
100
AcDbDictionary
281
     1
  0
DICTIONARY
  5
F3B9
102
{ACAD_REACTORS
330
7471
102
}
330
7471
100
AcDbDictionary
281
     1
1001
DRAWINGVARIABLESXDATA
1000
POLARMODE
1000
1
  0
LAYOUT
  5
12F9F
102
{ACAD_XDICTIONARY
360
13997
102
}
102
{ACAD_REACTORS
330
12F9D
102
}
330
12F9D
100
AcDbPlotSettings
  1

  2
iR C3880
  4
A3
  6

 40
5.873749732971191
 41
5.873747825622558
 42
5.873748779296875
 43
5.873748779296875
 44
296.9259948730469
 45
419.9466552734374
 46
0.0
 47
0.0
 48
0.0
 49
0.0
140
0.0
141
0.0
142
1.0
143
41.65811991999086
 70
 11952
 72
     1
 73
     1
 74
     2
  7
inaba.ctb
 75
     0
147
0.0240049239360925
148
0.0
149
0.0
100
AcDbLayout
  1
Model
 70
     1
 71
     0
 10
0.0
 20
0.0
 11
12.0
 21
9.0
 12
0.0
 22
0.0
 32
0.0
 14
0.0
 24
0.0
 34
0.0
 15
0.0
 25
0.0
 35
0.0
146
0.0
 13
0.0
 23
0.0
 33
0.0
 16
1.0
 26
0.0
 36
0.0
 17
0.0
 27
1.0
 37
0.0
 76
     0
330
747D
  0
LAYOUT
  5
12FA0
102
{ACAD_XDICTIONARY
360
13999
102
}
102
{ACAD_REACTORS
330
12F9D
102
}
330
12F9D
100
AcDbPlotSettings
  1

  2
Microsoft XPS Document Writer
  4

  6

 40
0.0
 41
0.0
 42
0.0
 43
0.0
 44
0.0
 45
0.0
 46
0.0
 47
0.0
 48
0.0
 49
0.0
140
0.0
141
0.0
142
1.0
143
1.0
 70
   688
 72
     0
 73
     0
 74
     5
  7
inaba.ctb
 75
    16
147
1.0
148
0.0
149
0.0
100
AcDbLayout
  1
レイアウト1
 70
     0
 71
     1
 10
0.0
 20
0.0
 11
420.0
 21
297.0
 12
0.0
 22
0.0
 32
0.0
 14
1.000000000000000E+20
 24
1.000000000000000E+20
 34
1.000000000000000E+20
 15
-1.000000000000000E+20
 25
-1.000000000000000E+20
 35
-1.000000000000000E+20
146
0.0
 13
0.0
 23
0.0
 33
0.0
 16
1.0
 26
0.0
 36
0.0
 17
0.0
 27
1.0
 37
0.0
 76
     0
330
747A
  0
MLINESTYLE
  5
7480
102
{ACAD_REACTORS
330
7473
102
}
330
7473
100
AcDbMlineStyle
  2
STANDARD
 70
     0
  3

 62
     0
 51
90.0
 52
90.0
 71
     2
 49
0.5
 62
   256
  6
BYLAYER
 49
-0.5
 62
   256
  6
BYLAYER
  0
ACDBPLACEHOLDER
  5
12F9A
102
{ACAD_REACTORS
330
12F99
102
}
330
12F99
  0
XRECORD
  5
13996
102
{ACAD_REACTORS
330
13994
102
}
330
13994
100
AcDbXrecord
280
     1
340
12F9C
  0
XRECORD
  5
13995
102
{ACAD_REACTORS
330
13994
102
}
330
13994
100
AcDbXrecord
280
     1
340
12F9B
  0
DICTIONARYVAR
  5
13991
102
{ACAD_REACTORS
330
11B74
102
}
330
11B74
100
DictionaryVariables
280
     0
  1
1
  0
DICTIONARYVAR
  5
13992
102
{ACAD_REACTORS
330
11B74
102
}
330
11B74
100
DictionaryVariables
280
     0
  1

  0
DICTIONARYVAR
  5
11B75
102
{ACAD_REACTORS
330
11B74
102
}
330
11B74
100
DictionaryVariables
280
     0
  1
96
  0
DICTIONARY
  5
13997
330
12F9F
100
AcDbDictionary
280
     1
281
     1
  3
ACAD_XREC_ROUNDTRIP
360
13998
  0
DICTIONARY
  5
13999
330
12FA0
100
AcDbDictionary
280
     1
281
     1
  3
ACAD_XREC_ROUNDTRIP
360
1399A
  0
XRECORD
  5
13998
102
{ACAD_REACTORS
330
13997
102
}
330
13997
100
AcDbXrecord
280
     1
102
SHADEPLOT
 70
     0
102
SHADEPLOTRESLEVEL
 70
     2
102
SHADEPLOTCUSTOMDPI
 70
   300
  0
XRECORD
  5
1399A
102
{ACAD_REACTORS
330
13999
102
}
330
13999
100
AcDbXrecord
280
     1
102
SHADEPLOT
 70
     0
102
SHADEPLOTRESLEVEL
 70
     2
102
SHADEPLOTCUSTOMDPI
 70
   300
  0
ENDSEC
  0
EOF
