  0
SECTION
  2
HEADER
  9
$ACADVER
  1
AC1015
  9
$ACADMAINTVER
 70
    20
  9
$DWGCODEPAGE
  3
ANSI_932
  9
$INSBASE
 10
0.0
 20
0.0
 30
0.0
  9
$EXTMIN
 10
139.196816621341
 20
-0.3623413705354324
 30
-0.0000000000000053
  9
$EXTMAX
 10
16308.32523385566
 20
11409.91961536986
 30
0.0000000000000099
  9
$LIMMIN
 10
0.0
 20
0.0
  9
$LIMMAX
 10
16800.0
 20
11880.0
  9
$ORTHOMODE
 70
     0
  9
$REGENMODE
 70
     1
  9
$FILLMODE
 70
     1
  9
$QTEXTMODE
 70
     0
  9
$MIRRTEXT
 70
     1
  9
$LTSCALE
 40
5.0
  9
$ATTMODE
 70
     1
  9
$TEXTSIZE
 40
4.0
  9
$TRACEWID
 40
1.0
  9
$TEXTSTYLE
  7
STYLE1
  9
$CLAYER
  8
細線
  9
$CELTYPE
  6
BYLAYER
  9
$CECOLOR
 62
   256
  9
$CELTSCALE
 40
50.0
  9
$DISPSILH
 70
     0
  9
$DIMSCALE
 40
40.0
  9
$DIMASZ
 40
2.5
  9
$DIMEXO
 40
0.5
  9
$DIMDLI
 40
7.0
  9
$DIMRND
 40
0.0
  9
$DIMDLE
 40
0.0
  9
$DIMEXE
 40
1.5
  9
$DIMTP
 40
0.0
  9
$DIMTM
 40
0.0
  9
$DIMTXT
 40
3.0
  9
$DIMCEN
 40
0.0
  9
$DIMTSZ
 40
0.0
  9
$DIMTOL
 70
     0
  9
$DIMLIM
 70
     0
  9
$DIMTIH
 70
     0
  9
$DIMTOH
 70
     0
  9
$DIMSE1
 70
     0
  9
$DIMSE2
 70
     0
  9
$DIMTAD
 70
     3
  9
$DIMZIN
 70
     8
  9
$DIMBLK
  1

  9
$DIMASO
 70
     1
  9
$DIMSHO
 70
     1
  9
$DIMPOST
  1

  9
$DIMAPOST
  1

  9
$DIMALT
 70
     0
  9
$DIMALTD
 70
     2
  9
$DIMALTF
 40
0.0394
  9
$DIMLFAC
 40
0.5
  9
$DIMTOFL
 70
     1
  9
$DIMTVP
 40
0.0
  9
$DIMTIX
 70
     1
  9
$DIMSOXD
 70
     0
  9
$DIMSAH
 70
     1
  9
$DIMBLK1
  1
DOTSMALL
  9
$DIMBLK2
  1
DOTSMALL
  9
$DIMSTYLE
  2
INABA_S40G詳細用20
  9
$DIMCLRD
 70
     0
  9
$DIMCLRE
 70
     0
  9
$DIMCLRT
 70
     7
  9
$DIMTFAC
 40
1.0
  9
$DIMGAP
 40
1.0
  9
$DIMJUST
 70
     0
  9
$DIMSD1
 70
     0
  9
$DIMSD2
 70
     0
  9
$DIMTOLJ
 70
     1
  9
$DIMTZIN
 70
     0
  9
$DIMALTZ
 70
     0
  9
$DIMALTTZ
 70
     0
  9
$DIMUPT
 70
     0
  9
$DIMDEC
 70
     0
  9
$DIMTDEC
 70
     0
  9
$DIMALTU
 70
     2
  9
$DIMALTTD
 70
     2
  9
$DIMTXSTY
  7
STYLE1
  9
$DIMAUNIT
 70
     0
  9
$DIMADEC
 70
     0
  9
$DIMALTRND
 40
0.0
  9
$DIMAZIN
 70
     0
  9
$DIMDSEP
 70
    46
  9
$DIMATFIT
 70
     3
  9
$DIMFRAC
 70
     0
  9
$DIMLDRBLK
  1
DOTSMALL
  9
$DIMLUNIT
 70
     2
  9
$DIMLWD
 70
    -2
  9
$DIMLWE
 70
    -2
  9
$DIMTMOVE
 70
     0
  9
$LUNITS
 70
     2
  9
$LUPREC
 70
     1
  9
$SKETCHINC
 40
1.0
  9
$FILLETRAD
 40
5.0
  9
$AUNITS
 70
     0
  9
$AUPREC
 70
     0
  9
$MENU
  1
acad
  9
$ELEVATION
 40
0.0
  9
$PELEVATION
 40
0.0
  9
$THICKNESS
 40
0.0
  9
$LIMCHECK
 70
     0
  9
$CHAMFERA
 40
0.0
  9
$CHAMFERB
 40
0.0
  9
$CHAMFERC
 40
0.0
  9
$CHAMFERD
 40
0.0
  9
$SKPOLY
 70
     0
  9
$TDCREATE
 40
2451052.600153125
  9
$TDUCREATE
 40
2451052.225153125
  9
$TDUPDATE
 40
2455091.665740914
  9
$TDUUPDATE
 40
2455091.290740914
  9
$TDINDWG
 40
0.4397506134
  9
$TDUSRTIMER
 40
0.4397506134
  9
$USRTIMER
 70
     1
  9
$ANGBASE
 50
0.0
  9
$ANGDIR
 70
     0
  9
$PDMODE
 70
     3
  9
$PDSIZE
 40
2.0
  9
$PLINEWID
 40
0.0
  9
$SPLFRAME
 70
     0
  9
$SPLINETYPE
 70
     6
  9
$SPLINESEGS
 70
     8
  9
$HANDSEED
  5
13D9D
  9
$SURFTAB1
 70
     6
  9
$SURFTAB2
 70
     6
  9
$SURFTYPE
 70
     6
  9
$SURFU
 70
     6
  9
$SURFV
 70
     6
  9
$UCSBASE
  2

  9
$UCSNAME
  2

  9
$UCSORG
 10
0.0
 20
0.0
 30
0.0
  9
$UCSXDIR
 10
1.0
 20
0.0
 30
0.0
  9
$UCSYDIR
 10
0.0
 20
1.0
 30
0.0
  9
$UCSORTHOREF
  2

  9
$UCSORTHOVIEW
 70
     0
  9
$UCSORGTOP
 10
0.0
 20
0.0
 30
0.0
  9
$UCSORGBOTTOM
 10
0.0
 20
0.0
 30
0.0
  9
$UCSORGLEFT
 10
0.0
 20
0.0
 30
0.0
  9
$UCSORGRIGHT
 10
0.0
 20
0.0
 30
0.0
  9
$UCSORGFRONT
 10
0.0
 20
0.0
 30
0.0
  9
$UCSORGBACK
 10
0.0
 20
0.0
 30
0.0
  9
$PUCSBASE
  2

  9
$PUCSNAME
  2

  9
$PUCSORG
 10
0.0
 20
0.0
 30
0.0
  9
$PUCSXDIR
 10
1.0
 20
0.0
 30
0.0
  9
$PUCSYDIR
 10
0.0
 20
1.0
 30
0.0
  9
$PUCSORTHOREF
  2

  9
$PUCSORTHOVIEW
 70
     0
  9
$PUCSORGTOP
 10
0.0
 20
0.0
 30
0.0
  9
$PUCSORGBOTTOM
 10
0.0
 20
0.0
 30
0.0
  9
$PUCSORGLEFT
 10
0.0
 20
0.0
 30
0.0
  9
$PUCSORGRIGHT
 10
0.0
 20
0.0
 30
0.0
  9
$PUCSORGFRONT
 10
0.0
 20
0.0
 30
0.0
  9
$PUCSORGBACK
 10
0.0
 20
0.0
 30
0.0
  9
$USERI1
 70
     0
  9
$USERI2
 70
     0
  9
$USERI3
 70
     0
  9
$USERI4
 70
     0
  9
$USERI5
 70
     0
  9
$USERR1
 40
0.0
  9
$USERR2
 40
0.0
  9
$USERR3
 40
0.0
  9
$USERR4
 40
0.0
  9
$USERR5
 40
0.0
  9
$WORLDVIEW
 70
     1
  9
$SHADEDGE
 70
     3
  9
$SHADEDIF
 70
    70
  9
$TILEMODE
 70
     1
  9
$MAXACTVP
 70
    16
  9
$PINSBASE
 10
0.0
 20
0.0
 30
0.0
  9
$PLIMCHECK
 70
     0
  9
$PEXTMIN
 10
1.000000000000000E+20
 20
1.000000000000000E+20
 30
1.000000000000000E+20
  9
$PEXTMAX
 10
-1.000000000000000E+20
 20
-1.000000000000000E+20
 30
-1.000000000000000E+20
  9
$PLIMMIN
 10
0.0
 20
0.0
  9
$PLIMMAX
 10
420.0
 20
297.0
  9
$UNITMODE
 70
     0
  9
$VISRETAIN
 70
     0
  9
$PLINEGEN
 70
     0
  9
$PSLTSCALE
 70
     0
  9
$TREEDEPTH
 70
  3020
  9
$CMLSTYLE
  2
STANDARD
  9
$CMLJUST
 70
     0
  9
$CMLSCALE
 40
1.0
  9
$PROXYGRAPHICS
 70
     1
  9
$MEASUREMENT
 70
     1
  9
$CELWEIGHT
370
    -1
  9
$ENDCAPS
280
     0
  9
$JOINSTYLE
280
     0
  9
$LWDISPLAY
290
     0
  9
$INSUNITS
 70
     0
  9
$HYPERLINKBASE
  1

  9
$STYLESHEET
  1
inaba.ctb
  9
$XEDIT
290
     1
  9
$CEPSNTYPE
380
     0
  9
$PSTYLEMODE
290
     1
  9
$FINGERPRINTGUID
  2
{2FD1B8B9-6962-403A-9B81-D678F9CDE32E}
  9
$VERSIONGUID
  2
{84F88BA4-19DD-466B-9523-E3CF1A2F6E80}
  9
$EXTNAMES
290
     1
  9
$PSVPSCALE
 40
0.0
  9
$OLESTARTUP
290
     0
  0
ENDSEC
  0
SECTION
  2
CLASSES
  0
CLASS
  1
DICTIONARYVAR
  2
AcDbDictionaryVar
  3
ObjectDBX Classes
 90
        0
280
     0
281
     0
  0
CLASS
  1
ACDBDICTIONARYWDFLT
  2
AcDbDictionaryWithDefault
  3
ObjectDBX Classes
 90
        0
280
     0
281
     0
  0
CLASS
  1
ACDBPLACEHOLDER
  2
AcDbPlaceHolder
  3
ObjectDBX Classes
 90
        0
280
     0
281
     0
  0
CLASS
  1
LAYOUT
  2
AcDbLayout
  3
ObjectDBX Classes
 90
        0
280
     0
281
     0
  0
ENDSEC
  0
SECTION
  2
TABLES
  0
TABLE
  2
VPORT
  5
746D
330
0
100
AcDbSymbolTable
 70
     7
  0
VPORT
  5
13D95
330
746D
100
AcDbSymbolTableRecord
100
AcDbViewportTableRecord
  2
*Active
 70
     0
 10
0.0
 20
0.0
 11
1.0
 21
1.0
 12
8223.761025238504
 22
5704.77863699966
 13
0.0
 23
0.0
 14
10.0
 24
10.0
 15
10.0
 25
10.0
 16
0.0
 26
0.0
 36
1.0
 17
0.0
 27
0.0
 37
0.0
 40
11492.86542084225
 41
1.492753623188406
 42
50.0
 43
0.0
 44
0.0
 50
0.0
 51
0.0
 71
     0
 72
     0
 73
     1
 74
     0
 75
     0
 76
     0
 77
     0
 78
     0
281
     0
 65
     1
110
0.0
120
0.0
130
0.0
111
1.0
121
0.0
131
0.0
112
0.0
122
1.0
132
0.0
 79
     0
146
0.0
  0
ENDTAB
  0
TABLE
  2
LTYPE
  5
746A
330
0
100
AcDbSymbolTable
 70
     4
  0
LTYPE
  5
7477
330
746A
100
AcDbSymbolTableRecord
100
AcDbLinetypeTableRecord
  2
BYBLOCK
 70
     0
  3

 72
    65
 73
     0
 40
0.0
  0
LTYPE
  5
7478
330
746A
100
AcDbSymbolTableRecord
100
AcDbLinetypeTableRecord
  2
BYLAYER
 70
     0
  3

 72
    65
 73
     0
 40
0.0
  0
LTYPE
  5
7479
330
746A
100
AcDbSymbolTableRecord
100
AcDbLinetypeTableRecord
  2
CONTINUOUS
 70
     0
  3
Solid line
 72
    65
 73
     0
 40
0.0
  0
LTYPE
  5
7816
330
746A
100
AcDbSymbolTableRecord
100
AcDbLinetypeTableRecord
  2
CENTER
 70
     0
  3
____ _ ____ _ ____ _ ____ _ ____ _ ____ _ ____ 
 72
    65
 73
     4
 40
2.0
 49
1.25
 74
     0
 49
-0.25
 74
     0
 49
0.25
 74
     0
 49
-0.25
 74
     0
  0
LTYPE
  5
781A
330
746A
100
AcDbSymbolTableRecord
100
AcDbLinetypeTableRecord
  2
HIDDEN
 70
     0
  3
__ __ __ __ __ __ __ __ __ __ __ __ __ __ __ __
 72
    65
 73
     2
 40
0.375
 49
0.25
 74
     0
 49
-0.125
 74
     0
  0
LTYPE
  5
781B
330
746A
100
AcDbSymbolTableRecord
100
AcDbLinetypeTableRecord
  2
PHANTOM
 70
     0
  3
______  __  __  ______  __  __  ______  __  __ 
 72
    65
 73
     6
 40
2.5
 49
1.25
 74
     0
 49
-0.25
 74
     0
 49
0.25
 74
     0
 49
-0.25
 74
     0
 49
0.25
 74
     0
 49
-0.25
 74
     0
  0
ENDTAB
  0
TABLE
  2
LAYER
  5
7467
330
0
100
AcDbSymbolTable
 70
    12
  0
LAYER
  5
7474
330
7467
100
AcDbSymbolTableRecord
100
AcDbLayerTableRecord
  2
0
 70
     0
 62
     7
  6
CONTINUOUS
370
    -3
390
12F92
  0
LAYER
  5
DEB2
330
7467
100
AcDbSymbolTableRecord
100
AcDbLayerTableRecord
  2
センター
 70
     0
 62
     3
  6
CENTER
370
    -3
390
12F92
  0
LAYER
  5
DEB3
330
7467
100
AcDbSymbolTableRecord
100
AcDbLayerTableRecord
  2
寸法
 70
     0
 62
     4
  6
CONTINUOUS
370
    -3
390
12F92
  0
LAYER
  5
DEB4
330
7467
100
AcDbSymbolTableRecord
100
AcDbLayerTableRecord
  2
部品1
 70
     0
 62
     7
  6
CONTINUOUS
370
    -3
390
12F92
  0
LAYER
  5
DEB5
330
7467
100
AcDbSymbolTableRecord
100
AcDbLayerTableRecord
  2
補助
 70
     0
 62
    -1
  6
CONTINUOUS
370
    -3
390
12F92
  0
LAYER
  5
DEB6
330
7467
100
AcDbSymbolTableRecord
100
AcDbLayerTableRecord
  2
文字
 70
     0
 62
     7
  6
CONTINUOUS
370
    -3
390
12F92
  0
LAYER
  5
F255
330
7467
100
AcDbSymbolTableRecord
100
AcDbLayerTableRecord
  2
DEFPOINTS
 70
     0
 62
     7
  6
CONTINUOUS
290
     0
370
    -3
390
12F92
  0
LAYER
  5
10B54
330
7467
100
AcDbSymbolTableRecord
100
AcDbLayerTableRecord
  2
仕様書枠
 70
     0
 62
   230
  6
CONTINUOUS
370
    -3
390
12F92
  0
LAYER
  5
11729
330
7467
100
AcDbSymbolTableRecord
100
AcDbLayerTableRecord
  2
Ｇ．Ｌ
 70
     0
 62
   230
  6
CONTINUOUS
370
    -3
390
12F92
  0
LAYER
  5
1173F
330
7467
100
AcDbSymbolTableRecord
100
AcDbLayerTableRecord
  2
細線
 70
     0
 62
     6
  6
CONTINUOUS
370
    -3
390
12F92
  0
LAYER
  5
11740
330
7467
100
AcDbSymbolTableRecord
100
AcDbLayerTableRecord
  2
点線
 70
     0
 62
     2
  6
HIDDEN
370
    -3
390
12F92
  0
LAYER
  5
11FF2
330
7467
100
AcDbSymbolTableRecord
100
AcDbLayerTableRecord
  2
想像線
 70
     0
 62
     6
  6
PHANTOM
370
    -3
390
12F92
  0
ENDTAB
  0
TABLE
  2
STYLE
  5
7468
330
0
100
AcDbSymbolTable
 70
     5
  0
STYLE
  5
7475
330
7468
100
AcDbSymbolTableRecord
100
AcDbTextStyleTableRecord
  2
STANDARD
 70
     0
 40
0.0
 41
1.0
 50
0.0
 71
     0
 42
4.0
  3
txt
  4
C:\AutoCAD LT\bigfont.shx
  0
STYLE
  5
F706
330
7468
100
AcDbSymbolTableRecord
100
AcDbTextStyleTableRecord
  2
STYLE1
 70
     0
 40
0.0
 41
1.0
 50
0.0
 71
     0
 42
4.0
  3
isocp.shx
  4
bigfont.shx
  0
STYLE
  5
103BF
330
7468
100
AcDbSymbolTableRecord
100
AcDbTextStyleTableRecord
  2
STYLE2
 70
     0
 40
0.0
 41
1.0
 50
0.0
 71
     0
 42
100.0
  3
MS PGothic.ttf
  4

1001
ACAD
1000
MS PGothic
1071
    32818
  0
ENDTAB
  0
TABLE
  2
VIEW
  5
746B
330
0
100
AcDbSymbolTable
 70
     0
  0
ENDTAB
  0
TABLE
  2
UCS
  5
746C
330
0
100
AcDbSymbolTable
 70
     0
  0
ENDTAB
  0
TABLE
  2
APPID
  5
746E
330
0
100
AcDbSymbolTable
 70
     6
  0
APPID
  5
7476
330
746E
100
AcDbSymbolTableRecord
100
AcDbRegAppTableRecord
  2
ACAD
 70
     0
  0
APPID
  5
DEA9
330
746E
100
AcDbSymbolTableRecord
100
AcDbRegAppTableRecord
  2
CONTENTBLOCKICON
 70
     0
  0
APPID
  5
DEAA
330
746E
100
AcDbSymbolTableRecord
100
AcDbRegAppTableRecord
  2
CONTENTBLOCKDESCRIPTION
 70
     0
  0
APPID
  5
E71D
330
746E
100
AcDbSymbolTableRecord
100
AcDbRegAppTableRecord
  2
CONTENTTABDATA
 70
     0
  0
APPID
  5
E71E
330
746E
100
AcDbSymbolTableRecord
100
AcDbRegAppTableRecord
  2
CONTENTCURRENTTAB
 70
     0
  0
APPID
  5
F3BA
330
746E
100
AcDbSymbolTableRecord
100
AcDbRegAppTableRecord
  2
DRAWINGVARIABLESXDATA
 70
     0
  0
ENDTAB
  0
TABLE
  2
DIMSTYLE
  5
746F
330
0
100
AcDbSymbolTable
 70
     4
100
AcDbDimStyleTable
 71
     2
340
F71F
340
130D7
  0
DIMSTYLE
105
F71F
102
{ACAD_REACTORS
330
1222C
330
12228
330
118E6
330
118AB
330
1189E
330
118DA
330
1222B
330
1187A
330
11886
330
11892
330
121B9
330
121B8
330
1190F
330
12291
330
1222E
330
118C5
330
11935
330
118B8
330
11934
102
}
330
746F
100
AcDbSymbolTableRecord
100
AcDbDimStyleTableRecord
  2
INABA_S40G
 70
     0
 40
40.0
 41
2.5
 42
0.5
 43
7.0
 44
1.5
 73
     0
 74
     0
 77
     3
 78
     8
140
3.0
141
0.0
143
0.0394
147
1.0
172
     1
173
     1
174
     1
178
     7
271
     1
340
F706
341
F770
343
F770
344
F770
  0
DIMSTYLE
105
130D7
102
{ACAD_REACTORS
330
12E5F
330
12E8B
330
12EBD
330
12E12
330
12E07
330
12E11
330
12E08
330
12E80
330
12DE4
102
}
330
746F
100
AcDbSymbolTableRecord
100
AcDbDimStyleTableRecord
  2
INABA_S40G詳細用20
 70
     0
 40
40.0
 41
2.5
 42
0.5
 43
7.0
 44
1.5
 73
     0
 74
     0
 77
     3
 78
     8
140
3.0
141
0.0
143
0.0394
144
0.5
147
1.0
172
     1
173
     1
174
     1
178
     7
271
     0
272
     0
340
F706
341
F770
343
F770
344
F770
  0
ENDTAB
  0
TABLE
  2
BLOCK_RECORD
  5
7466
330
0
100
AcDbSymbolTable
 70
    28
  0
BLOCK_RECORD
  5
747D
330
7466
100
AcDbSymbolTableRecord
100
AcDbBlockTableRecord
  2
*MODEL_SPACE
340
12F97
  0
BLOCK_RECORD
  5
747A
330
7466
100
AcDbSymbolTableRecord
100
AcDbBlockTableRecord
  2
*PAPER_SPACE
340
12F98
  0
BLOCK_RECORD
  5
DEAC
330
7466
100
AcDbSymbolTableRecord
100
AcDbBlockTableRecord
  2
_OPEN
340
0
  0
BLOCK_RECORD
  5
F770
330
7466
100
AcDbSymbolTableRecord
100
AcDbBlockTableRecord
  2
_DOTSMALL
340
0
102
{BLKREFS
331
12FE4
331
12FE5
331
12FED
331
12FEE
331
12FF6
331
12FF7
331
12FFF
331
13000
331
13008
331
13009
331
13012
331
13013
331
1301D
331
1301E
331
13026
331
13027
331
1302F
331
13030
331
13038
331
13039
331
13041
331
13042
331
1304A
331
1304B
331
13054
331
13055
331
1305D
331
1305E
331
13068
331
13069
331
13071
331
13072
331
1307A
331
1307B
331
133E6
331
133E7
331
137DB
331
137DC
331
1388E
331
1388F
331
13897
331
13898
331
13C25
331
13C26
331
13CCE
331
13CCF
331
13CD7
331
13CD8
331
13D24
331
13D25
331
13D30
331
13D31
102
}
  0
BLOCK_RECORD
  5
1186E
330
7466
100
AcDbSymbolTableRecord
100
AcDbBlockTableRecord
  2
*D2
340
0
  0
BLOCK_RECORD
  5
1187B
330
7466
100
AcDbSymbolTableRecord
100
AcDbBlockTableRecord
  2
*D3
340
0
  0
BLOCK_RECORD
  5
11887
330
7466
100
AcDbSymbolTableRecord
100
AcDbBlockTableRecord
  2
*D4
340
0
  0
BLOCK_RECORD
  5
11893
330
7466
100
AcDbSymbolTableRecord
100
AcDbBlockTableRecord
  2
*D5
340
0
  0
BLOCK_RECORD
  5
1189F
330
7466
100
AcDbSymbolTableRecord
100
AcDbBlockTableRecord
  2
*D6
340
0
  0
BLOCK_RECORD
  5
118AC
330
7466
100
AcDbSymbolTableRecord
100
AcDbBlockTableRecord
  2
*D7
340
0
  0
BLOCK_RECORD
  5
118B9
330
7466
100
AcDbSymbolTableRecord
100
AcDbBlockTableRecord
  2
*D8
340
0
  0
BLOCK_RECORD
  5
118D1
330
7466
100
AcDbSymbolTableRecord
100
AcDbBlockTableRecord
  2
*D9
340
0
  0
BLOCK_RECORD
  5
118DB
330
7466
100
AcDbSymbolTableRecord
100
AcDbBlockTableRecord
  2
*D10
340
0
  0
BLOCK_RECORD
  5
11906
330
7466
100
AcDbSymbolTableRecord
100
AcDbBlockTableRecord
  2
*D11
340
0
  0
BLOCK_RECORD
  5
11928
330
7466
100
AcDbSymbolTableRecord
100
AcDbBlockTableRecord
  2
*D12
340
0
  0
BLOCK_RECORD
  5
121CB
330
7466
100
AcDbSymbolTableRecord
100
AcDbBlockTableRecord
  2
*D13
340
0
  0
BLOCK_RECORD
  5
121D7
330
7466
100
AcDbSymbolTableRecord
100
AcDbBlockTableRecord
  2
*D14
340
0
  0
BLOCK_RECORD
  5
1222F
330
7466
100
AcDbSymbolTableRecord
100
AcDbBlockTableRecord
  2
*D15
340
0
  0
BLOCK_RECORD
  5
1223B
330
7466
100
AcDbSymbolTableRecord
100
AcDbBlockTableRecord
  2
*D16
340
0
  0
BLOCK_RECORD
  5
12249
330
7466
100
AcDbSymbolTableRecord
100
AcDbBlockTableRecord
  2
*D17
340
0
  0
BLOCK_RECORD
  5
12292
330
7466
100
AcDbSymbolTableRecord
100
AcDbBlockTableRecord
  2
*D18
340
0
  0
BLOCK_RECORD
  5
12EE7
330
7466
100
AcDbSymbolTableRecord
100
AcDbBlockTableRecord
  2
*D19
340
0
  0
BLOCK_RECORD
  5
12EF3
330
7466
100
AcDbSymbolTableRecord
100
AcDbBlockTableRecord
  2
*D20
340
0
  0
BLOCK_RECORD
  5
12EFE
330
7466
100
AcDbSymbolTableRecord
100
AcDbBlockTableRecord
  2
*D21
340
0
  0
BLOCK_RECORD
  5
12F0A
330
7466
100
AcDbSymbolTableRecord
100
AcDbBlockTableRecord
  2
*D22
340
0
  0
BLOCK_RECORD
  5
12F16
330
7466
100
AcDbSymbolTableRecord
100
AcDbBlockTableRecord
  2
*D23
340
0
  0
BLOCK_RECORD
  5
12F24
330
7466
100
AcDbSymbolTableRecord
100
AcDbBlockTableRecord
  2
*D24
340
0
  0
BLOCK_RECORD
  5
12F31
330
7466
100
AcDbSymbolTableRecord
100
AcDbBlockTableRecord
  2
*D25
340
0
  0
BLOCK_RECORD
  5
13CA1
330
7466
100
AcDbSymbolTableRecord
100
AcDbBlockTableRecord
  2
*D26
340
0
  0
ENDTAB
  0
ENDSEC
  0
SECTION
  2
BLOCKS
  0
BLOCK
  5
7489
330
747D
100
AcDbEntity
  8
0
100
AcDbBlockBegin
  2
*MODEL_SPACE
 70
     0
 10
0.0
 20
0.0
 30
0.0
  3
*MODEL_SPACE
  1

  0
ENDBLK
  5
748A
330
747D
100
AcDbEntity
  8
0
100
AcDbBlockEnd
  0
BLOCK
  5
7487
330
747A
100
AcDbEntity
 67
     1
  8
0
100
AcDbBlockBegin
  2
*PAPER_SPACE
 70
     0
 10
0.0
 20
0.0
 30
0.0
  3
*PAPER_SPACE
  1

  0
ENDBLK
  5
7488
330
747A
100
AcDbEntity
 67
     1
  8
0
100
AcDbBlockEnd
  0
BLOCK
  5
DEAD
330
DEAC
100
AcDbEntity
  8
0
100
AcDbBlockBegin
  2
_OPEN
 70
     0
 10
0.0
 20
0.0
 30
0.0
  3
_OPEN
  1

  0
LINE
  5
DEAE
330
DEAC
100
AcDbEntity
  8
0
  6
ByBlock
 62
     0
100
AcDbLine
 10
-1.0
 20
0.1666666666666666
 30
0.0
 11
0.0
 21
0.0
 31
0.0
  0
LINE
  5
DEAF
330
DEAC
100
AcDbEntity
  8
0
  6
ByBlock
 62
     0
100
AcDbLine
 10
0.0
 20
0.0
 30
0.0
 11
-1.0
 21
-0.1666666666666666
 31
0.0
  0
LINE
  5
DEB0
330
DEAC
100
AcDbEntity
  8
0
  6
ByBlock
 62
     0
100
AcDbLine
 10
0.0
 20
0.0
 30
0.0
 11
-1.0
 21
0.0
 31
0.0
  0
ENDBLK
  5
DEB1
330
DEAC
100
AcDbEntity
  8
0
100
AcDbBlockEnd
  0
BLOCK
  5
F771
330
F770
100
AcDbEntity
  8
0
 48
50.0
100
AcDbBlockBegin
  2
_DOTSMALL
 70
     0
 10
0.0
 20
0.0
 30
0.0
  3
_DOTSMALL
  1

  0
LWPOLYLINE
  5
F772
330
F770
100
AcDbEntity
  8
0
  6
ByBlock
 62
     0
 48
50.0
100
AcDbPolyline
 90
        2
 70
     1
 43
0.5
 10
-0.0625
 20
0.0
 42
1.0
 10
0.0625
 20
0.0
 42
1.0
  0
ENDBLK
  5
F776
330
F770
100
AcDbEntity
  8
0
 48
50.0
100
AcDbBlockEnd
  0
BLOCK
  5
1240F
330
1186E
100
AcDbEntity
  8
0
 48
50.0
100
AcDbBlockBegin
  2
*D2
 70
     1
 10
0.0
 20
0.0
 30
0.0
  3
*D2
  1

  0
LINE
  5
13023
330
1186E
100
AcDbEntity
  8
寸法
 62
     0
 48
50.0
370
    -2
100
AcDbLine
 10
6813.600000000004
 20
10206.74038870937
 30
0.0
 11
6331.105727429238
 21
10206.74038870937
 31
0.0
  0
LINE
  5
13024
330
1186E
100
AcDbEntity
  8
寸法
 62
     0
 48
50.0
370
    -2
100
AcDbLine
 10
6763.600000000003
 20
9286.740388709375
 30
0.0
 11
6331.105727429238
 21
9286.740388709375
 31
0.0
  0
LINE
  5
13025
330
1186E
100
AcDbEntity
  8
寸法
 62
     0
 48
50.0
370
    -2
100
AcDbLine
 10
6391.105727429238
 20
10206.74038870937
 30
0.0
 11
6391.105727429238
 21
9286.740388709375
 31
0.0
  0
INSERT
  5
13026
330
1186E
100
AcDbEntity
  8
寸法
 62
     0
 48
50.0
370
    -2
100
AcDbBlockReference
  2
_DOTSMALL
 10
6391.105727429238
 20
10206.74038870937
 30
0.0
 41
100.0
 42
100.0
 43
100.0
 50
90.0
  0
INSERT
  5
13027
330
1186E
100
AcDbEntity
  8
寸法
 62
     0
 48
50.0
370
    -2
100
AcDbBlockReference
  2
_DOTSMALL
 10
6391.105727429238
 20
9286.740388709375
 30
0.0
 41
100.0
 42
100.0
 43
100.0
 50
270.0
  0
MTEXT
  5
13028
330
1186E
100
AcDbEntity
  8
寸法
 62
     7
 48
50.0
100
AcDbMText
 10
6291.064914864433
 20
9746.74038870938
 30
0.0
 40
120.0
 41
0.0
 71
     5
 72
     1
  1
\A1;920
  7
STYLE1
 11
0.0000000000000001
 21
1.0
 31
0.0
 73
     1
 44
1.0
1001
ACAD
1000
MTEXTBEGIN
1070
    73
1070
     1
1070
    44
1040
1.0
1070
    74
1070
     0
1000
MTEXTEND
  0
POINT
  5
13029
330
1186E
100
AcDbEntity
  8
DEFPOINTS
 62
     0
 48
50.0
100
AcDbPoint
 10
6833.600000000004
 20
10206.74038870937
 30
0.0
  0
POINT
  5
1302A
330
1186E
100
AcDbEntity
  8
DEFPOINTS
 62
     0
 48
50.0
100
AcDbPoint
 10
6783.600000000004
 20
9286.740388709375
 30
0.0
  0
POINT
  5
1302B
330
1186E
100
AcDbEntity
  8
DEFPOINTS
 62
     0
 48
50.0
100
AcDbPoint
 10
6391.105727429238
 20
9286.740388709375
 30
0.0
  0
ENDBLK
  5
12419
330
1186E
100
AcDbEntity
  8
0
 48
50.0
100
AcDbBlockEnd
  0
BLOCK
  5
12424
330
1187B
100
AcDbEntity
  8
0
 48
50.0
100
AcDbBlockBegin
  2
*D3
 70
     1
 10
0.0
 20
0.0
 30
0.0
  3
*D3
  1

  0
LINE
  5
1302C
330
1187B
100
AcDbEntity
  8
寸法
 62
     0
 48
50.0
370
    -2
100
AcDbLine
 10
6763.600000000003
 20
9286.740388709375
 30
0.0
 11
6331.105727429238
 21
9286.740388709375
 31
0.0
  0
LINE
  5
1302D
330
1187B
100
AcDbEntity
  8
寸法
 62
     0
 48
50.0
370
    -2
100
AcDbLine
 10
6763.600000000003
 20
7636.740388709377
 30
0.0
 11
6331.105727429238
 21
7636.740388709377
 31
0.0
  0
LINE
  5
1302E
330
1187B
100
AcDbEntity
  8
寸法
 62
     0
 48
50.0
370
    -2
100
AcDbLine
 10
6391.105727429238
 20
9286.740388709375
 30
0.0
 11
6391.105727429238
 21
7636.740388709377
 31
0.0
  0
INSERT
  5
1302F
330
1187B
100
AcDbEntity
  8
寸法
 62
     0
 48
50.0
370
    -2
100
AcDbBlockReference
  2
_DOTSMALL
 10
6391.105727429238
 20
9286.740388709375
 30
0.0
 41
100.0
 42
100.0
 43
100.0
 50
90.0
  0
INSERT
  5
13030
330
1187B
100
AcDbEntity
  8
寸法
 62
     0
 48
50.0
370
    -2
100
AcDbBlockReference
  2
_DOTSMALL
 10
6391.105727429238
 20
7636.740388709377
 30
0.0
 41
100.0
 42
100.0
 43
100.0
 50
270.0
  0
MTEXT
  5
13031
330
1187B
100
AcDbEntity
  8
寸法
 62
     7
 48
50.0
100
AcDbMText
 10
6291.105727429237
 20
8461.740388709378
 30
0.0
 40
120.0
 41
0.0
 71
     5
 72
     1
  1
\A1;1650
  7
STYLE1
 11
0.0000000000000001
 21
1.0
 31
0.0
 73
     1
 44
1.0
1001
ACAD
1000
MTEXTBEGIN
1070
    73
1070
     1
1070
    44
1040
1.0
1070
    74
1070
     0
1000
MTEXTEND
  0
POINT
  5
13032
330
1187B
100
AcDbEntity
  8
DEFPOINTS
 62
     0
 48
50.0
100
AcDbPoint
 10
6783.600000000004
 20
9286.740388709375
 30
0.0
  0
POINT
  5
13033
330
1187B
100
AcDbEntity
  8
DEFPOINTS
 62
     0
 48
50.0
100
AcDbPoint
 10
6783.600000000004
 20
7636.740388709377
 30
0.0
  0
POINT
  5
13034
330
1187B
100
AcDbEntity
  8
DEFPOINTS
 62
     0
 48
50.0
100
AcDbPoint
 10
6391.105727429238
 20
7636.740388709377
 30
0.0
  0
ENDBLK
  5
1242D
330
1187B
100
AcDbEntity
  8
0
 48
50.0
100
AcDbBlockEnd
  0
BLOCK
  5
1244C
330
11887
100
AcDbEntity
  8
0
 48
50.0
100
AcDbBlockBegin
  2
*D4
 70
     1
 10
0.0
 20
0.0
 30
0.0
  3
*D4
  1

  0
LINE
  5
13035
330
11887
100
AcDbEntity
  8
寸法
 62
     0
 48
50.0
370
    -2
100
AcDbLine
 10
6763.600000000003
 20
7636.740388709377
 30
0.0
 11
6331.105727429239
 21
7636.740388709377
 31
0.0
  0
LINE
  5
13036
330
11887
100
AcDbEntity
  8
寸法
 62
     0
 48
50.0
370
    -2
100
AcDbLine
 10
6763.600000000003
 20
5986.740388709378
 30
0.0
 11
6331.105727429238
 21
5986.740388709378
 31
0.0
  0
LINE
  5
13037
330
11887
100
AcDbEntity
  8
寸法
 62
     0
 48
50.0
370
    -2
100
AcDbLine
 10
6391.105727429239
 20
7636.740388709377
 30
0.0
 11
6391.105727429238
 21
5986.740388709378
 31
0.0
  0
INSERT
  5
13038
330
11887
100
AcDbEntity
  8
寸法
 62
     0
 48
50.0
370
    -2
100
AcDbBlockReference
  2
_DOTSMALL
 10
6391.105727429239
 20
7636.740388709377
 30
0.0
 41
100.0
 42
100.0
 43
100.0
 50
90.0
  0
INSERT
  5
13039
330
11887
100
AcDbEntity
  8
寸法
 62
     0
 48
50.0
370
    -2
100
AcDbBlockReference
  2
_DOTSMALL
 10
6391.105727429238
 20
5986.740388709378
 30
0.0
 41
100.0
 42
100.0
 43
100.0
 50
270.0
  0
MTEXT
  5
1303A
330
11887
100
AcDbEntity
  8
寸法
 62
     7
 48
50.0
100
AcDbMText
 10
6291.105727429237
 20
6811.740388709378
 30
0.0
 40
120.0
 41
0.0
 71
     5
 72
     1
  1
\A1;1650
  7
STYLE1
 11
0.0000000000000001
 21
1.0
 31
0.0
 73
     1
 44
1.0
1001
ACAD
1000
MTEXTBEGIN
1070
    73
1070
     1
1070
    44
1040
1.0
1070
    74
1070
     0
1000
MTEXTEND
  0
POINT
  5
1303B
330
11887
100
AcDbEntity
  8
DEFPOINTS
 62
     0
 48
50.0
100
AcDbPoint
 10
6783.600000000004
 20
7636.740388709377
 30
0.0
  0
POINT
  5
1303C
330
11887
100
AcDbEntity
  8
DEFPOINTS
 62
     0
 48
50.0
100
AcDbPoint
 10
6783.600000000004
 20
5986.740388709378
 30
0.0
  0
POINT
  5
1303D
330
11887
100
AcDbEntity
  8
DEFPOINTS
 62
     0
 48
50.0
100
AcDbPoint
 10
6391.105727429238
 20
5986.740388709378
 30
0.0
  0
ENDBLK
  5
12455
330
11887
100
AcDbEntity
  8
0
 48
50.0
100
AcDbBlockEnd
  0
BLOCK
  5
12442
330
11893
100
AcDbEntity
  8
0
 48
50.0
100
AcDbBlockBegin
  2
*D5
 70
     1
 10
0.0
 20
0.0
 30
0.0
  3
*D5
  1

  0
LINE
  5
13005
330
11893
100
AcDbEntity
  8
寸法
 62
     0
 48
50.0
370
    -2
100
AcDbLine
 10
6763.600000000003
 20
5986.740388709378
 30
0.0
 11
6331.105727429238
 21
5986.740388709378
 31
0.0
  0
LINE
  5
13006
330
11893
100
AcDbEntity
  8
寸法
 62
     0
 48
50.0
370
    -2
100
AcDbLine
 10
6813.600000000004
 20
5066.740388709376
 30
0.0
 11
6331.105727429238
 21
5066.740388709376
 31
0.0
  0
LINE
  5
13007
330
11893
100
AcDbEntity
  8
寸法
 62
     0
 48
50.0
370
    -2
100
AcDbLine
 10
6391.105727429238
 20
5986.740388709378
 30
0.0
 11
6391.105727429238
 21
5066.740388709376
 31
0.0
  0
INSERT
  5
13008
330
11893
100
AcDbEntity
  8
寸法
 62
     0
 48
50.0
370
    -2
100
AcDbBlockReference
  2
_DOTSMALL
 10
6391.105727429238
 20
5986.740388709378
 30
0.0
 41
100.0
 42
100.0
 43
100.0
 50
90.0
  0
INSERT
  5
13009
330
11893
100
AcDbEntity
  8
寸法
 62
     0
 48
50.0
370
    -2
100
AcDbBlockReference
  2
_DOTSMALL
 10
6391.105727429238
 20
5066.740388709376
 30
0.0
 41
100.0
 42
100.0
 43
100.0
 50
270.0
  0
MTEXT
  5
1300A
330
11893
100
AcDbEntity
  8
寸法
 62
     7
 48
50.0
100
AcDbMText
 10
6291.064914864433
 20
5526.740388709379
 30
0.0
 40
120.0
 41
0.0
 71
     5
 72
     1
  1
\A1;920
  7
STYLE1
 11
0.0000000000000001
 21
1.0
 31
0.0
 73
     1
 44
1.0
1001
ACAD
1000
MTEXTBEGIN
1070
    73
1070
     1
1070
    44
1040
1.0
1070
    74
1070
     0
1000
MTEXTEND
  0
POINT
  5
1300B
330
11893
100
AcDbEntity
  8
DEFPOINTS
 62
     0
 48
50.0
100
AcDbPoint
 10
6783.600000000004
 20
5986.740388709378
 30
0.0
  0
POINT
  5
1300C
330
11893
100
AcDbEntity
  8
DEFPOINTS
 62
     0
 48
50.0
100
AcDbPoint
 10
6833.600000000004
 20
5066.740388709376
 30
0.0
  0
POINT
  5
1300D
330
11893
100
AcDbEntity
  8
DEFPOINTS
 62
     0
 48
50.0
100
AcDbPoint
 10
6391.105727429238
 20
5066.740388709376
 30
0.0
  0
ENDBLK
  5
1244B
330
11893
100
AcDbEntity
  8
0
 48
50.0
100
AcDbBlockEnd
  0
BLOCK
  5
1227B
330
1189F
100
AcDbEntity
  8
0
 48
50.0
100
AcDbBlockBegin
  2
*D6
 70
     1
 10
0.0
 20
0.0
 30
0.0
  3
*D6
  1

  0
LINE
  5
12FFC
330
1189F
100
AcDbEntity
  8
寸法
 62
     0
 48
50.0
370
    -2
100
AcDbLine
 10
6813.600000000004
 20
10206.74038870937
 30
0.0
 11
5885.614843701702
 21
10206.74038870937
 31
0.0
  0
LINE
  5
12FFD
330
1189F
100
AcDbEntity
  8
寸法
 62
     0
 48
50.0
370
    -2
100
AcDbLine
 10
6813.600000000004
 20
5066.740388709376
 30
0.0
 11
5885.614843701702
 21
5066.740388709377
 31
0.0
  0
LINE
  5
12FFE
330
1189F
100
AcDbEntity
  8
寸法
 62
     0
 48
50.0
370
    -2
100
AcDbLine
 10
5945.614843701703
 20
10206.74038870937
 30
0.0
 11
5945.614843701702
 21
5066.740388709377
 31
0.0
  0
INSERT
  5
12FFF
330
1189F
100
AcDbEntity
  8
寸法
 62
     0
 48
50.0
370
    -2
100
AcDbBlockReference
  2
_DOTSMALL
 10
5945.614843701703
 20
10206.74038870937
 30
0.0
 41
100.0
 42
100.0
 43
100.0
 50
90.0
  0
INSERT
  5
13000
330
1189F
100
AcDbEntity
  8
寸法
 62
     0
 48
50.0
370
    -2
100
AcDbBlockReference
  2
_DOTSMALL
 10
5945.614843701702
 20
5066.740388709377
 30
0.0
 41
100.0
 42
100.0
 43
100.0
 50
270.0
  0
MTEXT
  5
13001
330
1189F
100
AcDbEntity
  8
寸法
 62
     7
 48
50.0
100
AcDbMText
 10
5845.614843701702
 20
7636.740388709378
 30
0.0
 40
120.0
 41
0.0
 71
     5
 72
     1
  1
\A1;基礎寸法 5140
  7
STYLE1
 11
0.0000000000000001
 21
1.0
 31
0.0
 73
     1
 44
1.0
1001
ACAD
1000
MTEXTBEGIN
1070
    73
1070
     1
1070
    44
1040
1.0
1070
    74
1070
     0
1000
MTEXTEND
  0
POINT
  5
13002
330
1189F
100
AcDbEntity
  8
DEFPOINTS
 62
     0
 48
50.0
100
AcDbPoint
 10
6833.600000000004
 20
10206.74038870937
 30
0.0
  0
POINT
  5
13003
330
1189F
100
AcDbEntity
  8
DEFPOINTS
 62
     0
 48
50.0
100
AcDbPoint
 10
6833.600000000004
 20
5066.740388709376
 30
0.0
  0
POINT
  5
13004
330
1189F
100
AcDbEntity
  8
DEFPOINTS
 62
     0
 48
50.0
100
AcDbPoint
 10
5945.614843701702
 20
5066.740388709377
 30
0.0
  0
ENDBLK
  5
12285
330
1189F
100
AcDbEntity
  8
0
 48
50.0
100
AcDbBlockEnd
  0
BLOCK
  5
12C1B
330
118AC
100
AcDbEntity
  8
0
 48
50.0
100
AcDbBlockBegin
  2
*D7
 70
     1
 10
0.0
 20
0.0
 30
0.0
  3
*D7
  1

  0
LINE
  5
13077
330
118AC
100
AcDbEntity
  8
寸法
 62
     0
 48
50.0
370
    -2
100
AcDbLine
 10
9113.600000000003
 20
7956.740388709376
 30
0.0
 11
9113.600000000003
 21
8200.635297426982
 31
0.0
  0
LINE
  5
13078
330
118AC
100
AcDbEntity
  8
寸法
 62
     0
 48
50.0
370
    -2
100
AcDbLine
 10
9713.600000000003
 20
7956.740388709376
 30
0.0
 11
9713.600000000003
 21
8200.635297426982
 31
0.0
  0
LINE
  5
13079
330
118AC
100
AcDbEntity
  8
寸法
 62
     0
 48
50.0
370
    -2
100
AcDbLine
 10
9113.600000000003
 20
8140.635297426983
 30
0.0
 11
9713.600000000003
 21
8140.635297426983
 31
0.0
  0
INSERT
  5
1307A
330
118AC
100
AcDbEntity
  8
寸法
 62
     0
 48
50.0
370
    -2
100
AcDbBlockReference
  2
_DOTSMALL
 10
9113.600000000003
 20
8140.635297426983
 30
0.0
 41
100.0
 42
100.0
 43
100.0
 50
180.0
  0
INSERT
  5
1307B
330
118AC
100
AcDbEntity
  8
寸法
 62
     0
 48
50.0
370
    -2
100
AcDbBlockReference
  2
_DOTSMALL
 10
9713.600000000003
 20
8140.635297426983
 30
0.0
 41
100.0
 42
100.0
 43
100.0
  0
MTEXT
  5
1307C
330
118AC
100
AcDbEntity
  8
寸法
 62
     7
 48
50.0
100
AcDbMText
 10
9413.600000000002
 20
8240.635297426983
 30
0.0
 40
120.0
 41
0.0
 71
     5
 72
     1
  1
\A1;600
  7
STYLE1
 73
     1
 44
1.0
1001
ACAD
1000
MTEXTBEGIN
1070
    73
1070
     1
1070
    44
1040
1.0
1070
    74
1070
     0
1000
MTEXTEND
  0
POINT
  5
1307D
330
118AC
100
AcDbEntity
  8
DEFPOINTS
 62
     0
 48
50.0
100
AcDbPoint
 10
9113.600000000003
 20
7936.740388709376
 30
0.0
  0
POINT
  5
1307E
330
118AC
100
AcDbEntity
  8
DEFPOINTS
 62
     0
 48
50.0
100
AcDbPoint
 10
9713.600000000003
 20
7936.740388709376
 30
0.0
  0
POINT
  5
1307F
330
118AC
100
AcDbEntity
  8
DEFPOINTS
 62
     0
 48
50.0
100
AcDbPoint
 10
9713.600000000003
 20
8140.635297426983
 30
0.0
  0
ENDBLK
  5
12C25
330
118AC
100
AcDbEntity
  8
0
 48
50.0
100
AcDbBlockEnd
  0
BLOCK
  5
12C31
330
118B9
100
AcDbEntity
  8
0
 48
50.0
100
AcDbBlockBegin
  2
*D8
 70
     1
 10
0.0
 20
0.0
 30
0.0
  3
*D8
  1

  0
LINE
  5
1306E
330
118B9
100
AcDbEntity
  8
寸法
 62
     0
 48
50.0
370
    -2
100
AcDbLine
 10
9733.600000000002
 20
7936.740388709376
 30
0.0
 11
10047.46165700339
 21
7936.740388709376
 31
0.0
  0
LINE
  5
1306F
330
118B9
100
AcDbEntity
  8
寸法
 62
     0
 48
50.0
370
    -2
100
AcDbLine
 10
9733.600000000002
 20
7336.740388709376
 30
0.0
 11
10047.46165700339
 21
7336.740388709376
 31
0.0
  0
LINE
  5
13070
330
118B9
100
AcDbEntity
  8
寸法
 62
     0
 48
50.0
370
    -2
100
AcDbLine
 10
9987.461657003391
 20
7936.740388709376
 30
0.0
 11
9987.461657003391
 21
7336.740388709376
 31
0.0
  0
INSERT
  5
13071
330
118B9
100
AcDbEntity
  8
寸法
 62
     0
 48
50.0
370
    -2
100
AcDbBlockReference
  2
_DOTSMALL
 10
9987.461657003391
 20
7936.740388709376
 30
0.0
 41
100.0
 42
100.0
 43
100.0
 50
90.0
  0
INSERT
  5
13072
330
118B9
100
AcDbEntity
  8
寸法
 62
     0
 48
50.0
370
    -2
100
AcDbBlockReference
  2
_DOTSMALL
 10
9987.461657003391
 20
7336.740388709376
 30
0.0
 41
100.0
 42
100.0
 43
100.0
 50
270.0
  0
MTEXT
  5
13073
330
118B9
100
AcDbEntity
  8
寸法
 62
     7
 48
50.0
100
AcDbMText
 10
9887.46165700339
 20
7636.740388709377
 30
0.0
 40
120.0
 41
0.0
 71
     5
 72
     1
  1
\A1;600
  7
STYLE1
 11
0.0000000000000001
 21
1.0
 31
0.0
 73
     1
 44
1.0
1001
ACAD
1000
MTEXTBEGIN
1070
    73
1070
     1
1070
    44
1040
1.0
1070
    74
1070
     0
1000
MTEXTEND
  0
POINT
  5
13074
330
118B9
100
AcDbEntity
  8
DEFPOINTS
 62
     0
 48
50.0
100
AcDbPoint
 10
9713.600000000003
 20
7936.740388709376
 30
0.0
  0
POINT
  5
13075
330
118B9
100
AcDbEntity
  8
DEFPOINTS
 62
     0
 48
50.0
100
AcDbPoint
 10
9713.600000000003
 20
7336.740388709376
 30
0.0
  0
POINT
  5
13076
330
118B9
100
AcDbEntity
  8
DEFPOINTS
 62
     0
 48
50.0
100
AcDbPoint
 10
9987.461657003391
 20
7336.740388709376
 30
0.0
  0
ENDBLK
  5
12C3B
330
118B9
100
AcDbEntity
  8
0
 48
50.0
100
AcDbBlockEnd
  0
BLOCK
  5
120D8
330
118D1
100
AcDbEntity
  8
0
 48
50.0
100
AcDbBlockBegin
  2
*D9
 70
     1
 10
0.0
 20
0.0
 30
0.0
  3
*D9
  1

  0
LINE
  5
1300E
330
118D1
100
AcDbEntity
  8
寸法
 62
     0
 48
50.0
370
    -2
100
AcDbLine
 10
6833.600000000004
 20
5046.740388709377
 30
0.0
 11
6833.600000000004
 21
4639.427037335172
 31
0.0
  0
LINE
  5
1300F
330
118D1
100
AcDbEntity
  8
寸法
 62
     0
 48
50.0
370
    -2
100
AcDbLine
 10
7033.600000000004
 20
5716.740388709377
 30
0.0
 11
7033.600000000004
 21
4639.427037335172
 31
0.0
  0
LINE
  5
13010
330
118D1
100
AcDbEntity
  8
寸法
 62
     0
 48
50.0
370
    -2
100
AcDbLine
 10
7033.600000000004
 20
4699.427037335172
 30
0.0
 11
6833.600000000004
 21
4699.427037335172
 31
0.0
  0
LINE
  5
13011
330
118D1
100
AcDbEntity
  8
寸法
 62
     0
 48
50.0
370
    -2
100
AcDbLine
 10
6833.600000000004
 20
4699.427037335172
 30
0.0
 11
6434.45826771654
 21
4699.427037335172
 31
0.0
  0
INSERT
  5
13012
330
118D1
100
AcDbEntity
  8
寸法
 62
     0
 48
50.0
370
    -2
100
AcDbBlockReference
  2
_DOTSMALL
 10
7033.600000000004
 20
4699.427037335172
 30
0.0
 41
100.0
 42
100.0
 43
100.0
  0
INSERT
  5
13013
330
118D1
100
AcDbEntity
  8
寸法
 62
     0
 48
50.0
370
    -2
100
AcDbBlockReference
  2
_DOTSMALL
 10
6833.600000000004
 20
4699.427037335172
 30
0.0
 41
100.0
 42
100.0
 43
100.0
 50
180.0
  0
MTEXT
  5
13014
330
118D1
100
AcDbEntity
  8
寸法
 62
     7
 48
50.0
100
AcDbMText
 10
6584.029133858272
 20
4799.438848358794
 30
0.0
 40
120.0
 41
0.0
 71
     5
 72
     1
  1
\A1;200
  7
STYLE1
 73
     1
 44
1.0
1001
ACAD
1000
MTEXTBEGIN
1070
    73
1070
     1
1070
    44
1040
1.0
1070
    74
1070
     0
1000
MTEXTEND
  0
POINT
  5
13015
330
118D1
100
AcDbEntity
  8
DEFPOINTS
 62
     0
 48
50.0
100
AcDbPoint
 10
6833.600000000004
 20
5066.740388709376
 30
0.0
  0
POINT
  5
13016
330
118D1
100
AcDbEntity
  8
DEFPOINTS
 62
     0
 48
50.0
100
AcDbPoint
 10
7033.600000000004
 20
5736.740388709377
 30
0.0
  0
POINT
  5
13017
330
118D1
100
AcDbEntity
  8
DEFPOINTS
 62
     0
 48
50.0
100
AcDbPoint
 10
7033.600000000004
 20
4699.427037335172
 30
0.0
  0
ENDBLK
  5
120E3
330
118D1
100
AcDbEntity
  8
0
 48
50.0
100
AcDbBlockEnd
  0
BLOCK
  5
1246D
330
118DB
100
AcDbEntity
  8
0
 48
50.0
100
AcDbBlockBegin
  2
*D10
 70
     1
 10
0.0
 20
0.0
 30
0.0
  3
*D10
  1

  0
LINE
  5
12FF3
330
118DB
100
AcDbEntity
  8
寸法
 62
     0
 48
50.0
370
    -2
100
AcDbLine
 10
7033.600000000004
 20
5716.740388709377
 30
0.0
 11
7033.600000000004
 21
4639.427037335172
 31
0.0
  0
LINE
  5
12FF4
330
118DB
100
AcDbEntity
  8
寸法
 62
     0
 48
50.0
370
    -2
100
AcDbLine
 10
9413.600000000004
 20
5716.740388709378
 30
0.0
 11
9413.600000000004
 21
4639.427037335172
 31
0.0
  0
LINE
  5
12FF5
330
118DB
100
AcDbEntity
  8
寸法
 62
     0
 48
50.0
370
    -2
100
AcDbLine
 10
7033.600000000004
 20
4699.427037335172
 30
0.0
 11
9413.600000000004
 21
4699.427037335172
 31
0.0
  0
INSERT
  5
12FF6
330
118DB
100
AcDbEntity
  8
寸法
 62
     0
 48
50.0
370
    -2
100
AcDbBlockReference
  2
_DOTSMALL
 10
7033.600000000004
 20
4699.427037335172
 30
0.0
 41
100.0
 42
100.0
 43
100.0
 50
180.0
  0
INSERT
  5
12FF7
330
118DB
100
AcDbEntity
  8
寸法
 62
     0
 48
50.0
370
    -2
100
AcDbBlockReference
  2
_DOTSMALL
 10
9413.600000000004
 20
4699.427037335172
 30
0.0
 41
100.0
 42
100.0
 43
100.0
  0
MTEXT
  5
12FF8
330
118DB
100
AcDbEntity
  8
寸法
 62
     7
 48
50.0
100
AcDbMText
 10
8223.600000000004
 20
4799.438848358794
 30
0.0
 40
120.0
 41
0.0
 71
     5
 72
     1
  1
\A1;2380
  7
STYLE1
 73
     1
 44
1.0
1001
ACAD
1000
MTEXTBEGIN
1070
    73
1070
     1
1070
    44
1040
1.0
1070
    74
1070
     0
1000
MTEXTEND
  0
POINT
  5
12FF9
330
118DB
100
AcDbEntity
  8
DEFPOINTS
 62
     0
 48
50.0
100
AcDbPoint
 10
7033.600000000004
 20
5736.740388709377
 30
0.0
  0
POINT
  5
12FFA
330
118DB
100
AcDbEntity
  8
DEFPOINTS
 62
     0
 48
50.0
100
AcDbPoint
 10
9413.600000000004
 20
5736.740388709378
 30
0.0
  0
POINT
  5
12FFB
330
118DB
100
AcDbEntity
  8
DEFPOINTS
 62
     0
 48
50.0
100
AcDbPoint
 10
9413.600000000004
 20
4699.427037335172
 30
0.0
  0
ENDBLK
  5
12476
330
118DB
100
AcDbEntity
  8
0
 48
50.0
100
AcDbBlockEnd
  0
BLOCK
  5
120EE
330
11906
100
AcDbEntity
  8
0
 48
50.0
100
AcDbBlockBegin
  2
*D11
 70
     1
 10
0.0
 20
0.0
 30
0.0
  3
*D11
  1

  0
LINE
  5
13050
330
11906
100
AcDbEntity
  8
寸法
 62
     0
 48
50.0
370
    -2
100
AcDbLine
 10
9413.600000000004
 20
5716.740388709378
 30
0.0
 11
9413.600000000004
 21
4640.024272680078
 31
0.0
  0
LINE
  5
13051
330
11906
100
AcDbEntity
  8
寸法
 62
     0
 48
50.0
370
    -2
100
AcDbLine
 10
9613.600000000005
 20
5046.740388709377
 30
0.0
 11
9613.600000000005
 21
4640.024272680078
 31
0.0
  0
LINE
  5
13052
330
11906
100
AcDbEntity
  8
寸法
 62
     0
 48
50.0
370
    -2
100
AcDbLine
 10
9413.600000000004
 20
4700.024272680079
 30
0.0
 11
9613.600000000005
 21
4700.024272680079
 31
0.0
  0
LINE
  5
13053
330
11906
100
AcDbEntity
  8
寸法
 62
     0
 48
50.0
370
    -2
100
AcDbLine
 10
9613.600000000005
 20
4700.024272680079
 30
0.0
 11
10012.74173228346
 21
4700.024272680079
 31
0.0
  0
INSERT
  5
13054
330
11906
100
AcDbEntity
  8
寸法
 62
     0
 48
50.0
370
    -2
100
AcDbBlockReference
  2
_DOTSMALL
 10
9413.600000000004
 20
4700.024272680079
 30
0.0
 41
100.0
 42
100.0
 43
100.0
 50
180.0
  0
INSERT
  5
13055
330
11906
100
AcDbEntity
  8
寸法
 62
     0
 48
50.0
370
    -2
100
AcDbBlockReference
  2
_DOTSMALL
 10
9613.600000000005
 20
4700.024272680079
 30
0.0
 41
100.0
 42
100.0
 43
100.0
  0
MTEXT
  5
13056
330
11906
100
AcDbEntity
  8
寸法
 62
     7
 48
50.0
100
AcDbMText
 10
9863.170866141736
 20
4800.036083703701
 30
0.0
 40
120.0
 41
0.0
 71
     5
 72
     1
  1
\A1;200
  7
STYLE1
 73
     1
 44
1.0
1001
ACAD
1000
MTEXTBEGIN
1070
    73
1070
     1
1070
    44
1040
1.0
1070
    74
1070
     0
1000
MTEXTEND
  0
POINT
  5
13057
330
11906
100
AcDbEntity
  8
DEFPOINTS
 62
     0
 48
50.0
100
AcDbPoint
 10
9413.600000000004
 20
5736.740388709378
 30
0.0
  0
POINT
  5
13058
330
11906
100
AcDbEntity
  8
DEFPOINTS
 62
     0
 48
50.0
100
AcDbPoint
 10
9613.600000000005
 20
5066.740388709376
 30
0.0
  0
POINT
  5
13059
330
11906
100
AcDbEntity
  8
DEFPOINTS
 62
     0
 48
50.0
100
AcDbPoint
 10
9613.600000000005
 20
4700.024272680079
 30
0.0
  0
ENDBLK
  5
120F9
330
11906
100
AcDbEntity
  8
0
 48
50.0
100
AcDbBlockEnd
  0
BLOCK
  5
12482
330
11928
100
AcDbEntity
  8
0
 48
50.0
100
AcDbBlockBegin
  2
*D12
 70
     1
 10
0.0
 20
0.0
 30
0.0
  3
*D12
  1

  0
LINE
  5
12FEA
330
11928
100
AcDbEntity
  8
寸法
 62
     0
 48
50.0
370
    -2
100
AcDbLine
 10
6833.600000000004
 20
5046.740388709377
 30
0.0
 11
6833.600000000004
 21
4275.453801511459
 31
0.0
  0
LINE
  5
12FEB
330
11928
100
AcDbEntity
  8
寸法
 62
     0
 48
50.0
370
    -2
100
AcDbLine
 10
9613.600000000005
 20
5046.740388709378
 30
0.0
 11
9613.600000000005
 21
4275.453801511459
 31
0.0
  0
LINE
  5
12FEC
330
11928
100
AcDbEntity
  8
寸法
 62
     0
 48
50.0
370
    -2
100
AcDbLine
 10
6833.600000000004
 20
4335.453801511459
 30
0.0
 11
9613.600000000005
 21
4335.453801511459
 31
0.0
  0
INSERT
  5
12FED
330
11928
100
AcDbEntity
  8
寸法
 62
     0
 48
50.0
370
    -2
100
AcDbBlockReference
  2
_DOTSMALL
 10
6833.600000000004
 20
4335.453801511459
 30
0.0
 41
100.0
 42
100.0
 43
100.0
 50
180.0
  0
INSERT
  5
12FEE
330
11928
100
AcDbEntity
  8
寸法
 62
     0
 48
50.0
370
    -2
100
AcDbBlockReference
  2
_DOTSMALL
 10
9613.600000000005
 20
4335.453801511459
 30
0.0
 41
100.0
 42
100.0
 43
100.0
  0
MTEXT
  5
12FEF
330
11928
100
AcDbEntity
  8
寸法
 62
     7
 48
50.0
100
AcDbMText
 10
8223.600000000004
 20
4435.465612535081
 30
0.0
 40
120.0
 41
0.0
 71
     5
 72
     1
  1
\A1;基礎寸法 2780
  7
STYLE1
 73
     1
 44
1.0
1001
ACAD
1000
MTEXTBEGIN
1070
    73
1070
     1
1070
    44
1040
1.0
1070
    74
1070
     0
1000
MTEXTEND
  0
POINT
  5
12FF0
330
11928
100
AcDbEntity
  8
DEFPOINTS
 62
     0
 48
50.0
100
AcDbPoint
 10
6833.600000000004
 20
5066.740388709376
 30
0.0
  0
POINT
  5
12FF1
330
11928
100
AcDbEntity
  8
DEFPOINTS
 62
     0
 48
50.0
100
AcDbPoint
 10
9613.600000000005
 20
5066.740388709377
 30
0.0
  0
POINT
  5
12FF2
330
11928
100
AcDbEntity
  8
DEFPOINTS
 62
     0
 48
50.0
100
AcDbPoint
 10
9613.600000000005
 20
4335.453801511459
 30
0.0
  0
ENDBLK
  5
1248C
330
11928
100
AcDbEntity
  8
0
 48
50.0
100
AcDbBlockEnd
  0
BLOCK
  5
121E3
330
121CB
100
AcDbEntity
  8
0
 48
50.0
100
AcDbBlockBegin
  2
*D13
 70
     1
 10
0.0
 20
0.0
 30
0.0
  3
*D13
  1

  0
LINE
  5
1303E
330
121CB
100
AcDbEntity
  8
寸法
 62
     0
 48
50.0
370
    -2
100
AcDbLine
 10
9683.600000000003
 20
10036.74038870938
 30
0.0
 11
10491.88737785239
 21
10036.74038870938
 31
0.0
  0
LINE
  5
1303F
330
121CB
100
AcDbEntity
  8
寸法
 62
     0
 48
50.0
370
    -2
100
AcDbLine
 10
9683.600000000001
 20
5236.740388709375
 30
0.0
 11
10491.88737785239
 21
5236.740388709374
 31
0.0
  0
LINE
  5
13040
330
121CB
100
AcDbEntity
  8
寸法
 62
     0
 48
50.0
370
    -2
100
AcDbLine
 10
10431.88737785239
 20
10036.74038870938
 30
0.0
 11
10431.88737785239
 21
5236.740388709374
 31
0.0
  0
INSERT
  5
13041
330
121CB
100
AcDbEntity
  8
寸法
 62
     0
 48
50.0
370
    -2
100
AcDbBlockReference
  2
_DOTSMALL
 10
10431.88737785239
 20
10036.74038870938
 30
0.0
 41
100.0
 42
100.0
 43
100.0
 50
90.0
  0
INSERT
  5
13042
330
121CB
100
AcDbEntity
  8
寸法
 62
     0
 48
50.0
370
    -2
100
AcDbBlockReference
  2
_DOTSMALL
 10
10431.88737785239
 20
5236.740388709374
 30
0.0
 41
100.0
 42
100.0
 43
100.0
 50
270.0
  0
MTEXT
  5
13043
330
121CB
100
AcDbEntity
  8
寸法
 62
     7
 48
50.0
100
AcDbMText
 10
10331.88737785238
 20
7636.740388709378
 30
0.0
 40
120.0
 41
0.0
 71
     5
 72
     1
  1
\A1;屋根寸法 4800
  7
STYLE1
 11
0.0000000000000001
 21
1.0
 31
0.0
 73
     1
 44
1.0
1001
ACAD
1000
MTEXTBEGIN
1070
    73
1070
     1
1070
    44
1040
1.0
1070
    74
1070
     0
1000
MTEXTEND
  0
POINT
  5
13044
330
121CB
100
AcDbEntity
  8
DEFPOINTS
 62
     0
 48
50.0
100
AcDbPoint
 10
9663.600000000002
 20
10036.74038870938
 30
0.0
  0
POINT
  5
13045
330
121CB
100
AcDbEntity
  8
DEFPOINTS
 62
     0
 48
50.0
100
AcDbPoint
 10
9663.600000000002
 20
5236.740388709375
 30
0.0
  0
POINT
  5
13046
330
121CB
100
AcDbEntity
  8
DEFPOINTS
 62
     0
 48
50.0
100
AcDbPoint
 10
10431.88737785239
 20
5236.740388709374
 30
0.0
  0
ENDBLK
  5
121ED
330
121CB
100
AcDbEntity
  8
0
 48
50.0
100
AcDbBlockEnd
  0
BLOCK
  5
121D8
330
121D7
100
AcDbEntity
  8
0
 48
50.0
100
AcDbBlockBegin
  2
*D14
 70
     1
 10
0.0
 20
0.0
 30
0.0
  3
*D14
  1

  0
LINE
  5
13047
330
121D7
100
AcDbEntity
  8
寸法
 62
     0
 48
50.0
370
    -2
100
AcDbLine
 10
9683.600000000003
 20
5986.740388709375
 30
0.0
 11
10192.77950873463
 21
5986.740388709375
 31
0.0
  0
LINE
  5
13048
330
121D7
100
AcDbEntity
  8
寸法
 62
     0
 48
50.0
370
    -2
100
AcDbLine
 10
9683.600000000003
 20
5236.740388709375
 30
0.0
 11
10192.77950873463
 21
5236.740388709375
 31
0.0
  0
LINE
  5
13049
330
121D7
100
AcDbEntity
  8
寸法
 62
     0
 48
50.0
370
    -2
100
AcDbLine
 10
10132.77950873463
 20
5986.740388709375
 30
0.0
 11
10132.77950873463
 21
5236.740388709375
 31
0.0
  0
INSERT
  5
1304A
330
121D7
100
AcDbEntity
  8
寸法
 62
     0
 48
50.0
370
    -2
100
AcDbBlockReference
  2
_DOTSMALL
 10
10132.77950873463
 20
5986.740388709375
 30
0.0
 41
100.0
 42
100.0
 43
100.0
 50
90.0
  0
INSERT
  5
1304B
330
121D7
100
AcDbEntity
  8
寸法
 62
     0
 48
50.0
370
    -2
100
AcDbBlockReference
  2
_DOTSMALL
 10
10132.77950873463
 20
5236.740388709375
 30
0.0
 41
100.0
 42
100.0
 43
100.0
 50
270.0
  0
MTEXT
  5
1304C
330
121D7
100
AcDbEntity
  8
寸法
 62
     7
 48
50.0
100
AcDbMText
 10
10032.77950873462
 20
5611.740388709375
 30
0.0
 40
120.0
 41
0.0
 71
     5
 72
     1
  1
\A1;750
  7
STYLE1
 11
0.0000000000000001
 21
1.0
 31
0.0
 73
     1
 44
1.0
1001
ACAD
1000
MTEXTBEGIN
1070
    73
1070
     1
1070
    44
1040
1.0
1070
    74
1070
     0
1000
MTEXTEND
  0
POINT
  5
1304D
330
121D7
100
AcDbEntity
  8
DEFPOINTS
 62
     0
 48
50.0
100
AcDbPoint
 10
9663.600000000002
 20
5986.740388709375
 30
0.0
  0
POINT
  5
1304E
330
121D7
100
AcDbEntity
  8
DEFPOINTS
 62
     0
 48
50.0
100
AcDbPoint
 10
9663.600000000002
 20
5236.740388709375
 30
0.0
  0
POINT
  5
1304F
330
121D7
100
AcDbEntity
  8
DEFPOINTS
 62
     0
 48
50.0
100
AcDbPoint
 10
10132.77950873463
 20
5236.740388709375
 30
0.0
  0
ENDBLK
  5
121E2
330
121D7
100
AcDbEntity
  8
0
 48
50.0
100
AcDbBlockEnd
  0
BLOCK
  5
12C3C
330
1222F
100
AcDbEntity
  8
0
 48
50.0
100
AcDbBlockBegin
  2
*D15
 70
     1
 10
0.0
 20
0.0
 30
0.0
  3
*D15
  1

  0
LINE
  5
12FE1
330
1222F
100
AcDbEntity
  8
寸法
 62
     0
 48
50.0
370
    -2
100
AcDbLine
 10
6783.599999999999
 20
10056.74038870938
 30
0.0
 11
6783.599999999999
 21
10962.80501405645
 31
0.0
  0
LINE
  5
12FE2
330
1222F
100
AcDbEntity
  8
寸法
 62
     0
 48
50.0
370
    -2
100
AcDbLine
 10
9663.600000000002
 20
10056.74038870938
 30
0.0
 11
9663.600000000002
 21
10962.80501405645
 31
0.0
  0
LINE
  5
12FE3
330
1222F
100
AcDbEntity
  8
寸法
 62
     0
 48
50.0
370
    -2
100
AcDbLine
 10
6783.599999999999
 20
10902.80501405645
 30
0.0
 11
9663.600000000002
 21
10902.80501405645
 31
0.0
  0
INSERT
  5
12FE4
330
1222F
100
AcDbEntity
  8
寸法
 62
     0
 48
50.0
370
    -2
100
AcDbBlockReference
  2
_DOTSMALL
 10
6783.599999999999
 20
10902.80501405645
 30
0.0
 41
100.0
 42
100.0
 43
100.0
 50
180.0
  0
INSERT
  5
12FE5
330
1222F
100
AcDbEntity
  8
寸法
 62
     0
 48
50.0
370
    -2
100
AcDbBlockReference
  2
_DOTSMALL
 10
9663.600000000002
 20
10902.80501405645
 30
0.0
 41
100.0
 42
100.0
 43
100.0
  0
MTEXT
  5
12FE6
330
1222F
100
AcDbEntity
  8
寸法
 62
     7
 48
50.0
100
AcDbMText
 10
8223.600000000002
 20
11002.81682508007
 30
0.0
 40
120.0
 41
0.0
 71
     5
 72
     1
  1
\A1;屋根寸法 2880
  7
STYLE1
 73
     1
 44
1.0
1001
ACAD
1000
MTEXTBEGIN
1070
    73
1070
     1
1070
    44
1040
1.0
1070
    74
1070
     0
1000
MTEXTEND
  0
POINT
  5
12FE7
330
1222F
100
AcDbEntity
  8
DEFPOINTS
 62
     0
 48
50.0
100
AcDbPoint
 10
6783.599999999999
 20
10036.74038870938
 30
0.0
  0
POINT
  5
12FE8
330
1222F
100
AcDbEntity
  8
DEFPOINTS
 62
     0
 48
50.0
100
AcDbPoint
 10
9663.600000000002
 20
10036.74038870938
 30
0.0
  0
POINT
  5
12FE9
330
1222F
100
AcDbEntity
  8
DEFPOINTS
 62
     0
 48
50.0
100
AcDbPoint
 10
9663.600000000002
 20
10902.80501405645
 30
0.0
  0
ENDBLK
  5
12C46
330
1222F
100
AcDbEntity
  8
0
 48
50.0
100
AcDbBlockEnd
  0
BLOCK
  5
12C54
330
1223B
100
AcDbEntity
  8
0
 48
50.0
100
AcDbBlockBegin
  2
*D16
 70
     1
 10
0.0
 20
0.0
 30
0.0
  3
*D16
  1

  0
LINE
  5
13063
330
1223B
100
AcDbEntity
  8
寸法
 62
     0
 48
50.0
370
    -2
100
AcDbLine
 10
9413.600000000004
 20
9556.740388709378
 30
0.0
 11
9413.600000000004
 21
10669.69661180045
 31
0.0
  0
LINE
  5
13064
330
1223B
100
AcDbEntity
  8
寸法
 62
     0
 48
50.0
370
    -2
100
AcDbLine
 10
9663.600000000002
 20
10056.74038870938
 30
0.0
 11
9663.600000000002
 21
10669.69661180045
 31
0.0
  0
LINE
  5
13065
330
1223B
100
AcDbEntity
  8
寸法
 62
     0
 48
50.0
370
    -2
100
AcDbLine
 10
9413.600000000004
 20
10609.69661180045
 30
0.0
 11
9313.600000000004
 21
10609.69661180045
 31
0.0
  0
LINE
  5
13066
330
1223B
100
AcDbEntity
  8
寸法
 62
     0
 48
50.0
370
    -2
100
AcDbLine
 10
9663.600000000002
 20
10609.69661180045
 30
0.0
 11
9763.600000000003
 21
10609.69661180045
 31
0.0
  0
LINE
  5
13067
330
1223B
100
AcDbEntity
  8
寸法
 62
     0
 48
50.0
370
    -2
100
AcDbLine
 10
9413.600000000004
 20
10609.69661180045
 30
0.0
 11
9663.600000000002
 21
10609.69661180045
 31
0.0
  0
INSERT
  5
13068
330
1223B
100
AcDbEntity
  8
寸法
 62
     0
 48
50.0
370
    -2
100
AcDbBlockReference
  2
_DOTSMALL
 10
9413.600000000004
 20
10609.69661180045
 30
0.0
 41
100.0
 42
100.0
 43
100.0
  0
INSERT
  5
13069
330
1223B
100
AcDbEntity
  8
寸法
 62
     0
 48
50.0
370
    -2
100
AcDbBlockReference
  2
_DOTSMALL
 10
9663.600000000002
 20
10609.69661180045
 30
0.0
 41
100.0
 42
100.0
 43
100.0
 50
180.0
  0
MTEXT
  5
1306A
330
1223B
100
AcDbEntity
  8
寸法
 62
     7
 48
50.0
100
AcDbMText
 10
9538.600000000002
 20
10709.70842282407
 30
0.0
 40
120.0
 41
0.0
 71
     5
 72
     1
  1
\A1;250
  7
STYLE1
 73
     1
 44
1.0
1001
ACAD
1000
MTEXTBEGIN
1070
    73
1070
     1
1070
    44
1040
1.0
1070
    74
1070
     0
1000
MTEXTEND
  0
POINT
  5
1306B
330
1223B
100
AcDbEntity
  8
DEFPOINTS
 62
     0
 48
50.0
100
AcDbPoint
 10
9413.600000000004
 20
9536.740388709379
 30
0.0
  0
POINT
  5
1306C
330
1223B
100
AcDbEntity
  8
DEFPOINTS
 62
     0
 48
50.0
100
AcDbPoint
 10
9663.600000000002
 20
10036.74038870938
 30
0.0
  0
POINT
  5
1306D
330
1223B
100
AcDbEntity
  8
DEFPOINTS
 62
     0
 48
50.0
100
AcDbPoint
 10
9663.600000000002
 20
10609.69661180045
 30
0.0
  0
ENDBLK
  5
12C60
330
1223B
100
AcDbEntity
  8
0
 48
50.0
100
AcDbBlockEnd
  0
BLOCK
  5
12C47
330
12249
100
AcDbEntity
  8
0
 48
50.0
100
AcDbBlockBegin
  2
*D17
 70
     1
 10
0.0
 20
0.0
 30
0.0
  3
*D17
  1

  0
LINE
  5
13018
330
12249
100
AcDbEntity
  8
寸法
 62
     0
 48
50.0
370
    -2
100
AcDbLine
 10
6783.599999999999
 20
10056.74038870938
 30
0.0
 11
6783.599999999999
 21
10669.69661180045
 31
0.0
  0
LINE
  5
13019
330
12249
100
AcDbEntity
  8
寸法
 62
     0
 48
50.0
370
    -2
100
AcDbLine
 10
7033.600000000004
 20
9556.740388709375
 30
0.0
 11
7033.600000000004
 21
10669.69661180045
 31
0.0
  0
LINE
  5
1301A
330
12249
100
AcDbEntity
  8
寸法
 62
     0
 48
50.0
370
    -2
100
AcDbLine
 10
6783.599999999999
 20
10609.69661180045
 30
0.0
 11
6683.6
 21
10609.69661180045
 31
0.0
  0
LINE
  5
1301B
330
12249
100
AcDbEntity
  8
寸法
 62
     0
 48
50.0
370
    -2
100
AcDbLine
 10
7033.600000000004
 20
10609.69661180045
 30
0.0
 11
7133.600000000004
 21
10609.69661180045
 31
0.0
  0
LINE
  5
1301C
330
12249
100
AcDbEntity
  8
寸法
 62
     0
 48
50.0
370
    -2
100
AcDbLine
 10
6783.599999999999
 20
10609.69661180045
 30
0.0
 11
7033.600000000004
 21
10609.69661180045
 31
0.0
  0
INSERT
  5
1301D
330
12249
100
AcDbEntity
  8
寸法
 62
     0
 48
50.0
370
    -2
100
AcDbBlockReference
  2
_DOTSMALL
 10
6783.599999999999
 20
10609.69661180045
 30
0.0
 41
100.0
 42
100.0
 43
100.0
  0
INSERT
  5
1301E
330
12249
100
AcDbEntity
  8
寸法
 62
     0
 48
50.0
370
    -2
100
AcDbBlockReference
  2
_DOTSMALL
 10
7033.600000000004
 20
10609.69661180045
 30
0.0
 41
100.0
 42
100.0
 43
100.0
 50
180.0
  0
MTEXT
  5
1301F
330
12249
100
AcDbEntity
  8
寸法
 62
     7
 48
50.0
100
AcDbMText
 10
6908.600000000003
 20
10709.70842282407
 30
0.0
 40
120.0
 41
0.0
 71
     5
 72
     1
  1
\A1;250
  7
STYLE1
 73
     1
 44
1.0
1001
ACAD
1000
MTEXTBEGIN
1070
    73
1070
     1
1070
    44
1040
1.0
1070
    74
1070
     0
1000
MTEXTEND
  0
POINT
  5
13020
330
12249
100
AcDbEntity
  8
DEFPOINTS
 62
     0
 48
50.0
100
AcDbPoint
 10
6783.599999999999
 20
10036.74038870938
 30
0.0
  0
POINT
  5
13021
330
12249
100
AcDbEntity
  8
DEFPOINTS
 62
     0
 48
50.0
100
AcDbPoint
 10
7033.600000000004
 20
9536.740388709375
 30
0.0
  0
POINT
  5
13022
330
12249
100
AcDbEntity
  8
DEFPOINTS
 62
     0
 48
50.0
100
AcDbPoint
 10
7033.600000000004
 20
10609.69661180045
 30
0.0
  0
ENDBLK
  5
12C53
330
12249
100
AcDbEntity
  8
0
 48
50.0
100
AcDbBlockEnd
  0
BLOCK
  5
1229E
330
12292
100
AcDbEntity
  8
0
 48
50.0
100
AcDbBlockBegin
  2
*D18
 70
     1
 10
0.0
 20
0.0
 30
0.0
  3
*D18
  1

  0
LINE
  5
1305A
330
12292
100
AcDbEntity
  8
寸法
 62
     0
 48
50.0
370
    -2
100
AcDbLine
 10
9683.600000000003
 20
9286.740388709379
 30
0.0
 11
10192.77950873463
 21
9286.740388709379
 31
0.0
  0
LINE
  5
1305B
330
12292
100
AcDbEntity
  8
寸法
 62
     0
 48
50.0
370
    -2
100
AcDbLine
 10
9683.600000000003
 20
10036.74038870938
 30
0.0
 11
10192.77950873463
 21
10036.74038870938
 31
0.0
  0
LINE
  5
1305C
330
12292
100
AcDbEntity
  8
寸法
 62
     0
 48
50.0
370
    -2
100
AcDbLine
 10
10132.77950873463
 20
9286.740388709379
 30
0.0
 11
10132.77950873463
 21
10036.74038870938
 31
0.0
  0
INSERT
  5
1305D
330
12292
100
AcDbEntity
  8
寸法
 62
     0
 48
50.0
370
    -2
100
AcDbBlockReference
  2
_DOTSMALL
 10
10132.77950873463
 20
9286.740388709379
 30
0.0
 41
100.0
 42
100.0
 43
100.0
 50
270.0
  0
INSERT
  5
1305E
330
12292
100
AcDbEntity
  8
寸法
 62
     0
 48
50.0
370
    -2
100
AcDbBlockReference
  2
_DOTSMALL
 10
10132.77950873463
 20
10036.74038870938
 30
0.0
 41
100.0
 42
100.0
 43
100.0
 50
90.0
  0
MTEXT
  5
1305F
330
12292
100
AcDbEntity
  8
寸法
 62
     7
 48
50.0
100
AcDbMText
 10
10032.77950873462
 20
9661.740388709382
 30
0.0
 40
120.0
 41
0.0
 71
     5
 72
     1
  1
\A1;750
  7
STYLE1
 11
0.0000000000000001
 21
1.0
 31
0.0
 73
     1
 44
1.0
1001
ACAD
1000
MTEXTBEGIN
1070
    73
1070
     1
1070
    44
1040
1.0
1070
    74
1070
     0
1000
MTEXTEND
  0
POINT
  5
13060
330
12292
100
AcDbEntity
  8
DEFPOINTS
 62
     0
 48
50.0
100
AcDbPoint
 10
9663.600000000002
 20
9286.740388709379
 30
0.0
  0
POINT
  5
13061
330
12292
100
AcDbEntity
  8
DEFPOINTS
 62
     0
 48
50.0
100
AcDbPoint
 10
9663.600000000002
 20
10036.74038870938
 30
0.0
  0
POINT
  5
13062
330
12292
100
AcDbEntity
  8
DEFPOINTS
 62
     0
 48
50.0
100
AcDbPoint
 10
10132.77950873463
 20
10036.74038870938
 30
0.0
  0
ENDBLK
  5
122A8
330
12292
100
AcDbEntity
  8
0
 48
50.0
100
AcDbBlockEnd
  0
BLOCK
  5
12F3D
330
12EE7
100
AcDbEntity
  8
0
 48
50.0
100
AcDbBlockBegin
  2
*D19
 70
     1
 10
0.0
 20
0.0
 30
0.0
  3
*D19
  1

  0
LINE
  5
133E3
330
12EE7
100
AcDbEntity
  8
寸法
 62
     0
 48
50.0
370
    -2
100
AcDbLine
 10
6967.356645224433
 20
1041.753473397105
 30
0.0
 11
6967.356645224433
 21
719.5662246076198
 31
0.0
  0
LINE
  5
133E4
330
12EE7
100
AcDbEntity
  8
寸法
 62
     0
 48
50.0
370
    -2
100
AcDbLine
 10
8167.356645224433
 20
1041.753473397105
 30
0.0
 11
8167.356645224433
 21
719.5662246076198
 31
0.0
  0
LINE
  5
133E5
330
12EE7
100
AcDbEntity
  8
寸法
 62
     0
 48
50.0
370
    -2
100
AcDbLine
 10
6967.356645224433
 20
779.5662246076199
 30
0.0
 11
8167.356645224433
 21
779.5662246076199
 31
0.0
  0
INSERT
  5
133E6
330
12EE7
100
AcDbEntity
  8
寸法
 62
     0
 48
50.0
370
    -2
100
AcDbBlockReference
  2
_DOTSMALL
 10
6967.356645224433
 20
779.5662246076199
 30
0.0
 41
100.0
 42
100.0
 43
100.0
 50
180.0
  0
INSERT
  5
133E7
330
12EE7
100
AcDbEntity
  8
寸法
 62
     0
 48
50.0
370
    -2
100
AcDbBlockReference
  2
_DOTSMALL
 10
8167.356645224433
 20
779.5662246076199
 30
0.0
 41
100.0
 42
100.0
 43
100.0
  0
MTEXT
  5
133E8
330
12EE7
100
AcDbEntity
  8
寸法
 62
     7
 48
50.0
100
AcDbMText
 10
7567.356645224433
 20
879.5662246076199
 30
0.0
 40
120.0
 41
0.0
 71
     5
 72
     1
  1
\A1;600
  7
STYLE1
 73
     1
 44
1.0
1001
ACAD
1000
MTEXTBEGIN
1070
    73
1070
     1
1070
    44
1040
1.0
1070
    74
1070
     0
1000
MTEXTEND
  0
POINT
  5
133E9
330
12EE7
100
AcDbEntity
  8
DEFPOINTS
 62
     0
 48
50.0
100
AcDbPoint
 10
6967.356645224433
 20
1061.753473397105
 30
0.0
  0
POINT
  5
133EA
330
12EE7
100
AcDbEntity
  8
DEFPOINTS
 62
     0
 48
50.0
100
AcDbPoint
 10
8167.356645224433
 20
1061.753473397105
 30
0.0
  0
POINT
  5
133EB
330
12EE7
100
AcDbEntity
  8
DEFPOINTS
 62
     0
 48
50.0
100
AcDbPoint
 10
8167.356645224433
 20
779.5662246076199
 30
0.0
  0
ENDBLK
  5
12F47
330
12EE7
100
AcDbEntity
  8
0
 48
50.0
100
AcDbBlockEnd
  0
BLOCK
  5
12F48
330
12EF3
100
AcDbEntity
  8
0
 48
50.0
100
AcDbBlockBegin
  2
*D20
 70
     1
 10
0.0
 20
0.0
 30
0.0
  3
*D20
  1

  0
LINE
  5
13894
330
12EF3
100
AcDbEntity
  8
寸法
 62
     0
 48
50.0
370
    -2
100
AcDbLine
 10
6307.975533552198
 20
2171.778473397104
 30
0.0
 11
6102.34587816289
 21
2171.778473397104
 31
0.0
  0
LINE
  5
13895
330
12EF3
100
AcDbEntity
  8
寸法
 62
     0
 48
50.0
370
    -2
100
AcDbLine
 10
7502.206150475267
 20
1730.799723397104
 30
0.0
 11
6102.345878162889
 21
1730.799723397104
 31
0.0
  0
LINE
  5
13896
330
12EF3
100
AcDbEntity
  8
寸法
 62
     0
 48
50.0
370
    -2
100
AcDbLine
 10
6162.345878162891
 20
2171.778473397104
 30
0.0
 11
6162.34587816289
 21
1730.799723397104
 31
0.0
  0
INSERT
  5
13897
330
12EF3
100
AcDbEntity
  8
寸法
 62
     0
 48
50.0
370
    -2
100
AcDbBlockReference
  2
_DOTSMALL
 10
6162.345878162891
 20
2171.778473397104
 30
0.0
 41
100.0
 42
100.0
 43
100.0
 50
90.0
  0
INSERT
  5
13898
330
12EF3
100
AcDbEntity
  8
寸法
 62
     0
 48
50.0
370
    -2
100
AcDbBlockReference
  2
_DOTSMALL
 10
6162.34587816289
 20
1730.799723397104
 30
0.0
 41
100.0
 42
100.0
 43
100.0
 50
270.0
  0
MTEXT
  5
13899
330
12EF3
100
AcDbEntity
  8
寸法
 62
     7
 48
50.0
100
AcDbMText
 10
6062.334067139268
 20
1951.289098397104
 30
0.0
 40
120.0
 41
0.0
 71
     5
 72
     1
  1
\A1;220
  7
STYLE1
 11
0.0000000000000001
 21
1.0
 31
0.0
 73
     1
 44
1.0
1001
ACAD
1000
MTEXTBEGIN
1070
    73
1070
     1
1070
    44
1040
1.0
1070
    74
1070
     0
1000
MTEXTEND
  0
POINT
  5
1389A
330
12EF3
100
AcDbEntity
  8
DEFPOINTS
 62
     0
 48
50.0
100
AcDbPoint
 10
6327.975533552198
 20
2171.778473397104
 30
0.0
  0
POINT
  5
1389B
330
12EF3
100
AcDbEntity
  8
DEFPOINTS
 62
     0
 48
50.0
100
AcDbPoint
 10
7522.206150475266
 20
1730.799723397104
 30
0.0
  0
POINT
  5
1389C
330
12EF3
100
AcDbEntity
  8
DEFPOINTS
 62
     0
 48
50.0
100
AcDbPoint
 10
6162.34587816289
 20
1730.799723397104
 30
0.0
  0
ENDBLK
  5
12F51
330
12EF3
100
AcDbEntity
  8
0
 48
50.0
100
AcDbBlockEnd
  0
BLOCK
  5
12F52
330
12EFE
100
AcDbEntity
  8
0
 48
50.0
100
AcDbBlockBegin
  2
*D21
 70
     1
 10
0.0
 20
0.0
 30
0.0
  3
*D21
  1

  0
LINE
  5
137D8
330
12EFE
100
AcDbEntity
  8
寸法
 62
     0
 48
50.0
370
    -2
100
AcDbLine
 10
6343.789827176105
 20
2272.319098397104
 30
0.0
 11
5921.671157149674
 21
2272.319098397104
 31
0.0
  0
LINE
  5
137D9
330
12EFE
100
AcDbEntity
  8
寸法
 62
     0
 48
50.0
370
    -2
100
AcDbLine
 10
6851.142525974295
 20
1371.653473397103
 30
0.0
 11
5921.671157149674
 21
1371.653473397103
 31
0.0
  0
LINE
  5
137DA
330
12EFE
100
AcDbEntity
  8
寸法
 62
     0
 48
50.0
370
    -2
100
AcDbLine
 10
5981.671157149675
 20
2272.319098397104
 30
0.0
 11
5981.671157149674
 21
1371.653473397103
 31
0.0
  0
INSERT
  5
137DB
330
12EFE
100
AcDbEntity
  8
寸法
 62
     0
 48
50.0
370
    -2
100
AcDbBlockReference
  2
_DOTSMALL
 10
5981.671157149675
 20
2272.319098397104
 30
0.0
 41
100.0
 42
100.0
 43
100.0
 50
90.0
  0
INSERT
  5
137DC
330
12EFE
100
AcDbEntity
  8
寸法
 62
     0
 48
50.0
370
    -2
100
AcDbBlockReference
  2
_DOTSMALL
 10
5981.671157149674
 20
1371.653473397103
 30
0.0
 41
100.0
 42
100.0
 43
100.0
 50
270.0
  0
MTEXT
  5
137DD
330
12EFE
100
AcDbEntity
  8
寸法
 62
     7
 48
50.0
100
AcDbMText
 10
5881.671157149674
 20
1821.986285897105
 30
0.0
 40
120.0
 41
0.0
 71
     5
 72
     1
  1
\A1;450
  7
STYLE1
 11
0.0000000000000001
 21
1.0
 31
0.0
 73
     1
 44
1.0
1001
ACAD
1000
MTEXTBEGIN
1070
    73
1070
     1
1070
    44
1040
1.0
1070
    74
1070
     0
1000
MTEXTEND
  0
POINT
  5
137DE
330
12EFE
100
AcDbEntity
  8
DEFPOINTS
 62
     0
 48
50.0
100
AcDbPoint
 10
6363.789827176105
 20
2272.319098397104
 30
0.0
  0
POINT
  5
137DF
330
12EFE
100
AcDbEntity
  8
DEFPOINTS
 62
     0
 48
50.0
100
AcDbPoint
 10
6871.142525974295
 20
1371.653473397103
 30
0.0
  0
POINT
  5
137E0
330
12EFE
100
AcDbEntity
  8
DEFPOINTS
 62
     0
 48
50.0
100
AcDbPoint
 10
5981.671157149674
 20
1371.653473397103
 30
0.0
  0
ENDBLK
  5
12F5C
330
12EFE
100
AcDbEntity
  8
0
 48
50.0
100
AcDbBlockEnd
  0
BLOCK
  5
12F5D
330
12F0A
100
AcDbEntity
  8
0
 48
50.0
100
AcDbBlockBegin
  2
*D22
 70
     1
 10
0.0
 20
0.0
 30
0.0
  3
*D22
  1

  0
LINE
  5
13CD4
330
12F0A
100
AcDbEntity
  8
寸法
 62
     0
 48
50.0
370
    -2
100
AcDbLine
 10
7487.206150475266
 20
1730.799723397104
 30
0.0
 11
6102.345878162889
 21
1730.799723397104
 31
0.0
  0
LINE
  5
13CD5
330
12F0A
100
AcDbEntity
  8
寸法
 62
     0
 48
50.0
370
    -2
100
AcDbLine
 10
6851.142525974295
 20
1371.653473397103
 30
0.0
 11
6102.345878162889
 21
1371.653473397103
 31
0.0
  0
LINE
  5
13CD6
330
12F0A
100
AcDbEntity
  8
寸法
 62
     0
 48
50.0
370
    -2
100
AcDbLine
 10
6162.34587816289
 20
1730.799723397104
 30
0.0
 11
6162.34587816289
 21
1371.653473397103
 31
0.0
  0
INSERT
  5
13CD7
330
12F0A
100
AcDbEntity
  8
寸法
 62
     0
 48
50.0
370
    -2
100
AcDbBlockReference
  2
_DOTSMALL
 10
6162.34587816289
 20
1730.799723397104
 30
0.0
 41
100.0
 42
100.0
 43
100.0
 50
90.0
  0
INSERT
  5
13CD8
330
12F0A
100
AcDbEntity
  8
寸法
 62
     0
 48
50.0
370
    -2
100
AcDbBlockReference
  2
_DOTSMALL
 10
6162.34587816289
 20
1371.653473397103
 30
0.0
 41
100.0
 42
100.0
 43
100.0
 50
270.0
  0
MTEXT
  5
13CD9
330
12F0A
100
AcDbEntity
  8
寸法
 62
     7
 48
50.0
100
AcDbMText
 10
6062.34587816289
 20
1515.026598397103
 30
0.0
 40
120.0
 41
0.0
 71
     5
 72
     1
  1
\A1;180
  7
STYLE1
 11
0.0000000000000001
 21
1.0
 31
0.0
 73
     1
 44
1.0
1001
ACAD
1000
MTEXTBEGIN
1070
    73
1070
     1
1070
    44
1040
1.0
1070
    74
1070
     0
1000
MTEXTEND
  0
POINT
  5
13CDA
330
12F0A
100
AcDbEntity
  8
DEFPOINTS
 62
     0
 48
50.0
100
AcDbPoint
 10
7507.206150475266
 20
1730.799723397104
 30
0.0
  0
POINT
  5
13CDB
330
12F0A
100
AcDbEntity
  8
DEFPOINTS
 62
     0
 48
50.0
100
AcDbPoint
 10
6871.142525974295
 20
1371.653473397103
 30
0.0
  0
POINT
  5
13CDC
330
12F0A
100
AcDbEntity
  8
DEFPOINTS
 62
     0
 48
50.0
100
AcDbPoint
 10
6162.34587816289
 20
1371.653473397103
 30
0.0
  0
ENDBLK
  5
12F67
330
12F0A
100
AcDbEntity
  8
0
 48
50.0
100
AcDbBlockEnd
  0
BLOCK
  5
12F68
330
12F16
100
AcDbEntity
  8
0
 48
50.0
100
AcDbBlockBegin
  2
*D23
 70
     1
 10
0.0
 20
0.0
 30
0.0
  3
*D23
  1

  0
LINE
  5
13C20
330
12F16
100
AcDbEntity
  8
寸法
 62
     0
 48
50.0
370
    -2
100
AcDbLine
 10
6851.142525974303
 20
1371.653473397103
 30
0.0
 11
5921.671157149674
 21
1371.653473397103
 31
0.0
  0
LINE
  5
13C21
330
12F16
100
AcDbEntity
  8
寸法
 62
     0
 48
50.0
370
    -2
100
AcDbLine
 10
6851.142525974295
 20
1271.753473397105
 30
0.0
 11
5921.671157149674
 21
1271.753473397105
 31
0.0
  0
LINE
  5
13C22
330
12F16
100
AcDbEntity
  8
寸法
 62
     0
 48
50.0
370
    -2
100
AcDbLine
 10
5981.671157149674
 20
1371.653473397103
 30
0.0
 11
5981.671157149674
 21
1471.653473397103
 31
0.0
  0
LINE
  5
13C23
330
12F16
100
AcDbEntity
  8
寸法
 62
     0
 48
50.0
370
    -2
100
AcDbLine
 10
5981.671157149674
 20
1271.753473397105
 30
0.0
 11
5981.671157149674
 21
1171.753473397105
 31
0.0
  0
LINE
  5
13C24
330
12F16
100
AcDbEntity
  8
寸法
 62
     0
 48
50.0
370
    -2
100
AcDbLine
 10
5981.671157149674
 20
1371.653473397103
 30
0.0
 11
5981.671157149674
 21
1271.753473397105
 31
0.0
  0
INSERT
  5
13C25
330
12F16
100
AcDbEntity
  8
寸法
 62
     0
 48
50.0
370
    -2
100
AcDbBlockReference
  2
_DOTSMALL
 10
5981.671157149674
 20
1371.653473397103
 30
0.0
 41
100.0
 42
100.0
 43
100.0
 50
270.0
  0
INSERT
  5
13C26
330
12F16
100
AcDbEntity
  8
寸法
 62
     0
 48
50.0
370
    -2
100
AcDbBlockReference
  2
_DOTSMALL
 10
5981.671157149674
 20
1271.753473397105
 30
0.0
 41
100.0
 42
100.0
 43
100.0
 50
90.0
  0
MTEXT
  5
13C27
330
12F16
100
AcDbEntity
  8
寸法
 62
     7
 48
50.0
100
AcDbMText
 10
5881.671157149674
 20
1321.703473397105
 30
0.0
 40
120.0
 41
0.0
 71
     5
 72
     1
  1
\A1;50
  7
STYLE1
 11
0.0000000000000001
 21
1.0
 31
0.0
 73
     1
 44
1.0
1001
ACAD
1000
MTEXTBEGIN
1070
    73
1070
     1
1070
    44
1040
1.0
1070
    74
1070
     0
1000
MTEXTEND
  0
POINT
  5
13C28
330
12F16
100
AcDbEntity
  8
DEFPOINTS
 62
     0
 48
50.0
100
AcDbPoint
 10
6871.142525974303
 20
1371.653473397103
 30
0.0
  0
POINT
  5
13C29
330
12F16
100
AcDbEntity
  8
DEFPOINTS
 62
     0
 48
50.0
100
AcDbPoint
 10
6871.142525974295
 20
1271.753473397105
 30
0.0
  0
POINT
  5
13C2A
330
12F16
100
AcDbEntity
  8
DEFPOINTS
 62
     0
 48
50.0
100
AcDbPoint
 10
5981.671157149674
 20
1271.753473397105
 30
0.0
  0
ENDBLK
  5
12F74
330
12F16
100
AcDbEntity
  8
0
 48
50.0
100
AcDbBlockEnd
  0
BLOCK
  5
12F75
330
12F24
100
AcDbEntity
  8
0
 48
50.0
100
AcDbBlockBegin
  2
*D24
 70
     1
 10
0.0
 20
0.0
 30
0.0
  3
*D24
  1

  0
LINE
  5
13D2C
330
12F24
100
AcDbEntity
  8
寸法
 62
     0
 48
50.0
370
    -2
100
AcDbLine
 10
6343.789827176104
 20
2272.319098397104
 30
0.0
 11
5921.671157149674
 21
2272.319098397104
 31
0.0
  0
LINE
  5
13D2D
330
12F24
100
AcDbEntity
  8
寸法
 62
     0
 48
50.0
370
    -2
100
AcDbLine
 10
9302.560497758518
 20
2371.50195824559
 30
0.0
 11
5921.671157149674
 21
2371.501958245591
 31
0.0
  0
LINE
  5
13D2E
330
12F24
100
AcDbEntity
  8
寸法
 62
     0
 48
50.0
370
    -2
100
AcDbLine
 10
5981.671157149674
 20
2272.319098397104
 30
0.0
 11
5981.671157149674
 21
2371.501958245591
 31
0.0
  0
LINE
  5
13D2F
330
12F24
100
AcDbEntity
  8
寸法
 62
     0
 48
50.0
370
    -2
100
AcDbLine
 10
5981.671157149674
 20
2371.501958245591
 30
0.0
 11
5981.671157149674
 21
2809.106627858645
 31
0.0
  0
INSERT
  5
13D30
330
12F24
100
AcDbEntity
  8
寸法
 62
     0
 48
50.0
370
    -2
100
AcDbBlockReference
  2
_DOTSMALL
 10
5981.671157149674
 20
2272.319098397104
 30
0.0
 41
100.0
 42
100.0
 43
100.0
 50
270.0
  0
INSERT
  5
13D31
330
12F24
100
AcDbEntity
  8
寸法
 62
     0
 48
50.0
370
    -2
100
AcDbBlockReference
  2
_DOTSMALL
 10
5981.671157149674
 20
2371.501958245591
 30
0.0
 41
100.0
 42
100.0
 43
100.0
 50
90.0
  0
MTEXT
  5
13D32
330
12F24
100
AcDbEntity
  8
寸法
 62
     7
 48
50.0
100
AcDbMText
 10
5875.671157149673
 20
2655.153871953134
 30
0.0
 40
120.0
 41
0.0
 71
     5
 72
     1
  1
\A1;(50)
  7
STYLE1
 11
0.0000000000000001
 21
1.0
 31
0.0
 73
     1
 44
1.0
1001
ACAD
1000
MTEXTBEGIN
1070
    73
1070
     1
1070
    44
1040
1.0
1070
    74
1070
     0
1000
MTEXTEND
  0
POINT
  5
13D33
330
12F24
100
AcDbEntity
  8
DEFPOINTS
 62
     0
 48
50.0
100
AcDbPoint
 10
6363.789827176105
 20
2272.319098397104
 30
0.0
  0
POINT
  5
13D34
330
12F24
100
AcDbEntity
  8
DEFPOINTS
 62
     0
 48
50.0
100
AcDbPoint
 10
9322.560497758518
 20
2371.50195824559
 30
0.0
  0
POINT
  5
13D35
330
12F24
100
AcDbEntity
  8
DEFPOINTS
 62
     0
 48
50.0
100
AcDbPoint
 10
5981.671157149674
 20
2371.501958245591
 30
0.0
  0
ENDBLK
  5
12F80
330
12F24
100
AcDbEntity
  8
0
 48
50.0
100
AcDbBlockEnd
  0
BLOCK
  5
12F81
330
12F31
100
AcDbEntity
  8
0
 48
50.0
100
AcDbBlockBegin
  2
*D25
 70
     1
 10
0.0
 20
0.0
 30
0.0
  3
*D25
  1

  0
LINE
  5
1388B
330
12F31
100
AcDbEntity
  8
寸法
 62
     0
 48
50.0
370
    -2
100
AcDbLine
 10
6343.789827176105
 20
2272.319098397104
 30
0.0
 11
6097.711804370892
 21
2272.319098397104
 31
0.0
  0
LINE
  5
1388C
330
12F31
100
AcDbEntity
  8
寸法
 62
     0
 48
50.0
370
    -2
100
AcDbLine
 10
6307.975533552198
 20
2171.778473397104
 30
0.0
 11
6097.711804370892
 21
2171.778473397104
 31
0.0
  0
LINE
  5
1388D
330
12F31
100
AcDbEntity
  8
寸法
 62
     0
 48
50.0
370
    -2
100
AcDbLine
 10
6157.711804370893
 20
2272.319098397104
 30
0.0
 11
6157.711804370893
 21
2171.778473397104
 31
0.0
  0
INSERT
  5
1388E
330
12F31
100
AcDbEntity
  8
寸法
 62
     0
 48
50.0
370
    -2
100
AcDbBlockReference
  2
_DOTSMALL
 10
6157.711804370893
 20
2272.319098397104
 30
0.0
 41
100.0
 42
100.0
 43
100.0
 50
90.0
  0
INSERT
  5
1388F
330
12F31
100
AcDbEntity
  8
寸法
 62
     0
 48
50.0
370
    -2
100
AcDbBlockReference
  2
_DOTSMALL
 10
6157.711804370893
 20
2171.778473397104
 30
0.0
 41
100.0
 42
100.0
 43
100.0
 50
270.0
  0
MTEXT
  5
13890
330
12F31
100
AcDbEntity
  8
寸法
 62
     7
 48
50.0
100
AcDbMText
 10
6057.711804370891
 20
2222.048785897105
 30
0.0
 40
120.0
 41
0.0
 71
     5
 72
     1
  1
\A1;50
  7
STYLE1
 11
0.0000000000000001
 21
1.0
 31
0.0
 73
     1
 44
1.0
1001
ACAD
1000
MTEXTBEGIN
1070
    73
1070
     1
1070
    44
1040
1.0
1070
    74
1070
     0
1000
MTEXTEND
  0
POINT
  5
13891
330
12F31
100
AcDbEntity
  8
DEFPOINTS
 62
     0
 48
50.0
100
AcDbPoint
 10
6363.789827176105
 20
2272.319098397104
 30
0.0
  0
POINT
  5
13892
330
12F31
100
AcDbEntity
  8
DEFPOINTS
 62
     0
 48
50.0
100
AcDbPoint
 10
6327.975533552198
 20
2171.778473397104
 30
0.0
  0
POINT
  5
13893
330
12F31
100
AcDbEntity
  8
DEFPOINTS
 62
     0
 48
50.0
100
AcDbPoint
 10
6157.711804370893
 20
2171.778473397104
 30
0.0
  0
ENDBLK
  5
12F8B
330
12F31
100
AcDbEntity
  8
0
 48
50.0
100
AcDbBlockEnd
  0
BLOCK
  5
13CAD
330
13CA1
100
AcDbEntity
  8
0
 48
50.0
100
AcDbBlockBegin
  2
*D26
 70
     1
 10
0.0
 20
0.0
 30
0.0
  3
*D26
  1

  0
LINE
  5
13D1F
330
13CA1
100
AcDbEntity
  8
細線
 62
     0
 48
50.0
370
    -2
100
AcDbLine
 10
7507.206150475266
 20
2576.934212383462
 30
0.0
 11
7507.206150475266
 21
2813.345353354846
 31
0.0
  0
LINE
  5
13D20
330
13CA1
100
AcDbEntity
  8
細線
 62
     0
 48
50.0
370
    -2
100
AcDbLine
 10
7627.507139973592
 20
2576.934212383462
 30
0.0
 11
7627.507139973592
 21
2813.345353354846
 31
0.0
  0
LINE
  5
13D21
330
13CA1
100
AcDbEntity
  8
細線
 62
     0
 48
50.0
370
    -2
100
AcDbLine
 10
7507.206150475266
 20
2753.345353354845
 30
0.0
 11
7407.206150475267
 21
2753.345353354845
 31
0.0
  0
LINE
  5
13D22
330
13CA1
100
AcDbEntity
  8
細線
 62
     0
 48
50.0
370
    -2
100
AcDbLine
 10
7627.507139973592
 20
2753.345353354845
 30
0.0
 11
7727.507139973592
 21
2753.345353354845
 31
0.0
  0
LINE
  5
13D23
330
13CA1
100
AcDbEntity
  8
細線
 62
     0
 48
50.0
370
    -2
100
AcDbLine
 10
7507.206150475266
 20
2753.345353354845
 30
0.0
 11
7627.507139973592
 21
2753.345353354845
 31
0.0
  0
INSERT
  5
13D24
330
13CA1
100
AcDbEntity
  8
細線
 62
     0
 48
50.0
370
    -2
100
AcDbBlockReference
  2
_DOTSMALL
 10
7507.206150475266
 20
2753.345353354845
 30
0.0
 41
100.0
 42
100.0
 43
100.0
  0
INSERT
  5
13D25
330
13CA1
100
AcDbEntity
  8
細線
 62
     0
 48
50.0
370
    -2
100
AcDbBlockReference
  2
_DOTSMALL
 10
7627.507139973592
 20
2753.345353354845
 30
0.0
 41
100.0
 42
100.0
 43
100.0
 50
180.0
  0
MTEXT
  5
13D26
330
13CA1
100
AcDbEntity
  8
細線
 62
     7
 48
50.0
100
AcDbMText
 10
7567.35664522443
 20
2853.345353354845
 30
0.0
 40
120.0
 41
0.0
 71
     5
 72
     1
  1
\A1;60
  7
STYLE1
 73
     1
 44
1.0
1001
ACAD
1000
MTEXTBEGIN
1070
    73
1070
     1
1070
    44
1040
1.0
1070
    74
1070
     0
1000
MTEXTEND
  0
POINT
  5
13D27
330
13CA1
100
AcDbEntity
  8
DEFPOINTS
 62
     0
 48
50.0
100
AcDbPoint
 10
7507.206150475266
 20
2556.934212383462
 30
0.0
  0
POINT
  5
13D28
330
13CA1
100
AcDbEntity
  8
DEFPOINTS
 62
     0
 48
50.0
100
AcDbPoint
 10
7627.507139973592
 20
2556.934212383462
 30
0.0
  0
POINT
  5
13D29
330
13CA1
100
AcDbEntity
  8
DEFPOINTS
 62
     0
 48
50.0
100
AcDbPoint
 10
7627.507139973592
 20
2753.345353354845
 30
0.0
  0
ENDBLK
  5
13CAE
330
13CA1
100
AcDbEntity
  8
0
 48
50.0
100
AcDbBlockEnd
  0
ENDSEC
  0
SECTION
  2
ENTITIES
  0
LINE
  5
10B56
330
747D
100
AcDbEntity
  8
補助
  6
PHANTOM
 62
   230
 48
50.0
100
AcDbLine
 10
140.0
 20
0.0
 30
0.0
 11
139.9999999999995
 21
11409.6
 31
0.0
  0
LINE
  5
10B57
330
747D
100
AcDbEntity
  8
補助
  6
PHANTOM
 62
   230
 48
50.0
100
AcDbLine
 10
139.9999999999995
 20
11409.6
 30
0.0
 11
16307.2
 21
11409.6
 31
0.0
  0
LINE
  5
10B59
330
747D
100
AcDbEntity
  8
仕様書枠
  6
Continuous
 48
50.0
100
AcDbLine
 10
13107.2
 20
1200.0
 30
0.0
 11
13107.2
 21
-0.0000000000000729
 31
0.0
  0
LINE
  5
10B5C
330
747D
100
AcDbEntity
  8
仕様書枠
 48
50.0
100
AcDbLine
 10
16307.2
 20
1200.0
 30
0.0
 11
16307.2
 21
-0.0000000000000909
 31
0.0
  0
LINE
  5
10B5D
330
747D
100
AcDbEntity
  8
仕様書枠
 48
50.0
100
AcDbLine
 10
140.0
 20
0.0
 30
0.0
 11
16307.2
 21
-0.0000000000000909
 31
0.0
  0
LINE
  5
10B5E
330
747D
100
AcDbEntity
  8
補助
  6
PHANTOM
 62
   230
 48
50.0
100
AcDbLine
 10
16307.2
 20
11409.6
 30
0.0
 11
16307.2
 21
1200.0
 31
0.0
  0
LINE
  5
10B6C
330
747D
100
AcDbEntity
  8
仕様書枠
 48
50.0
100
AcDbLine
 10
13107.2
 20
1200.0
 30
0.0
 11
16307.2
 21
1200.0
 31
0.0
  0
LINE
  5
10B6D
330
747D
100
AcDbEntity
  8
補助
  6
PHANTOM
 62
   230
 48
50.0
100
AcDbLine
 10
13107.2
 20
11409.6
 30
0.0
 11
13107.2
 21
4800.0
 31
0.0
  0
LINE
  5
10B6F
330
747D
100
AcDbEntity
  8
補助
  6
PHANTOM
 62
   230
 48
50.0
100
AcDbLine
 10
13107.2
 20
4800.0
 30
0.0
 11
16307.2
 21
4800.0
 31
0.0
  0
LINE
  5
10B72
330
747D
100
AcDbEntity
  8
文字
 62
     7
 48
50.0
100
AcDbLine
 10
13187.2
 20
400.0
 30
0.0
 11
16227.2
 21
400.0
 31
0.0
  0
TEXT
  5
10B73
330
747D
100
AcDbEntity
  8
文字
 48
50.0
100
AcDbText
 10
13162.9790565769
 20
895.0906074299405
 30
0.0
 40
200.0
  1
基 礎 図
  7
STYLE2
100
AcDbText
  0
TEXT
  5
10B74
330
747D
100
AcDbEntity
  8
文字
 48
50.0
100
AcDbText
 10
13201.43669998441
 20
477.2740661031255
 30
0.0
 40
160.0
  1
機種名
  7
STYLE2
100
AcDbText
  0
TEXT
  5
10B75
330
747D
100
AcDbEntity
  8
文字
 48
50.0
100
AcDbText
 10
13209.4053442172
 20
228.5435242569016
 30
0.0
 40
100.0
  1
○間口奥行寸法は柱芯寸法です。
  7
STYLE2
100
AcDbText
  0
LINE
  5
10B7B
330
747D
100
AcDbEntity
  8
仕様書枠
 48
50.0
100
AcDbLine
 10
13107.2
 20
800.0
 30
0.0
 11
14251.2
 21
800.0
 31
0.0
  0
LINE
  5
10B88
330
747D
100
AcDbEntity
  8
仕様書枠
  6
Continuous
 48
50.0
100
AcDbLine
 10
14251.2
 20
1200.0
 30
0.0
 11
14251.2
 21
800.0
 31
0.0
  0
TEXT
  5
10EA8
330
747D
100
AcDbEntity
  8
文字
 48
50.0
100
AcDbText
 10
14691.78908365521
 20
838.2527270729188
 30
0.0
 40
100.0
  1
～一般型･多雪地型～
  7
STYLE2
100
AcDbText
  0
LINE
  5
11793
330
747D
100
AcDbEntity
  8
点線
 48
50.0
100
AcDbLine
 10
6833.600000000004
 20
10206.74038870937
 30
0.0
 11
6833.600000000004
 21
5066.740388709376
 31
0.0
  0
LINE
  5
11794
330
747D
100
AcDbEntity
  8
点線
 48
50.0
100
AcDbLine
 10
6833.600000000004
 20
5066.740388709376
 30
0.0
 11
9613.600000000005
 21
5066.740388709376
 31
0.0
  0
LINE
  5
11795
330
747D
100
AcDbEntity
  8
点線
 48
50.0
100
AcDbLine
 10
9613.600000000005
 20
5066.740388709376
 30
0.0
 11
9613.600000000005
 21
10206.74038870937
 31
0.0
  0
LINE
  5
11796
330
747D
100
AcDbEntity
  8
点線
 48
50.0
100
AcDbLine
 10
9613.600000000005
 20
10206.74038870937
 30
0.0
 11
6833.600000000004
 21
10206.74038870937
 31
0.0
  0
LINE
  5
1179D
330
747D
100
AcDbEntity
  8
センター
 48
50.0
100
AcDbLine
 10
9663.600000000002
 20
9286.740388709375
 30
0.0
 11
9163.600000000007
 21
9286.740388709375
 31
0.0
  0
LINE
  5
1179E
330
747D
100
AcDbEntity
  8
センター
 48
50.0
100
AcDbLine
 10
6783.600000000004
 20
5986.740388709378
 30
0.0
 11
7283.600000000004
 21
5986.740388709377
 31
0.0
  0
LINE
  5
117A1
330
747D
100
AcDbEntity
  8
センター
 48
50.0
100
AcDbLine
 10
6783.600000000004
 20
7636.740388709377
 30
0.0
 11
7283.600000000004
 21
7636.740388709377
 31
0.0
  0
LINE
  5
117A3
330
747D
100
AcDbEntity
  8
センター
 48
50.0
100
AcDbLine
 10
7033.600000000004
 20
9536.740388709375
 30
0.0
 11
7033.600000000004
 21
9036.740388709377
 31
0.0
  0
LINE
  5
117A5
330
747D
100
AcDbEntity
  8
センター
 48
50.0
100
AcDbLine
 10
9413.600000000004
 20
5736.740388709378
 30
0.0
 11
9413.600000000004
 21
6236.740388709378
 31
0.0
  0
LINE
  5
117C4
330
747D
100
AcDbEntity
  8
文字
 48
50.0
100
AcDbLine
 10
7063.600000000004
 20
9316.740388709375
 30
0.0
 11
7003.600000000004
 21
9316.740388709375
 31
0.0
  0
LINE
  5
117C5
330
747D
100
AcDbEntity
  8
文字
 48
50.0
100
AcDbLine
 10
7063.600000000004
 20
9256.740388709374
 30
0.0
 11
7003.600000000004
 21
9256.740388709374
 31
0.0
  0
LINE
  5
117C6
330
747D
100
AcDbEntity
  8
文字
 48
50.0
100
AcDbLine
 10
7003.600000000004
 20
9316.740388709376
 30
0.0
 11
7003.600000000004
 21
9256.740388709374
 31
0.0
  0
LINE
  5
117C7
330
747D
100
AcDbEntity
  8
文字
 48
50.0
100
AcDbLine
 10
7063.600000000004
 20
9316.740388709376
 30
0.0
 11
7063.600000000004
 21
9256.740388709374
 31
0.0
  0
LINE
  5
117C8
330
747D
100
AcDbEntity
  8
文字
 48
50.0
100
AcDbLine
 10
9443.600000000003
 20
9316.740388709376
 30
0.0
 11
9443.600000000003
 21
9256.740388709374
 31
0.0
  0
LINE
  5
117C9
330
747D
100
AcDbEntity
  8
文字
 48
50.0
100
AcDbLine
 10
9383.600000000004
 20
9316.740388709376
 30
0.0
 11
9383.600000000004
 21
9256.740388709374
 31
0.0
  0
LINE
  5
117CA
330
747D
100
AcDbEntity
  8
文字
 48
50.0
100
AcDbLine
 10
9443.600000000003
 20
9256.740388709374
 30
0.0
 11
9383.600000000004
 21
9256.740388709374
 31
0.0
  0
LINE
  5
117CB
330
747D
100
AcDbEntity
  8
文字
 48
50.0
100
AcDbLine
 10
9443.600000000003
 20
9316.740388709375
 30
0.0
 11
9383.600000000004
 21
9316.740388709375
 31
0.0
  0
LINE
  5
117CC
330
747D
100
AcDbEntity
  8
文字
 48
50.0
100
AcDbLine
 10
7063.600000000004
 20
7666.740388709375
 30
0.0
 11
7063.600000000004
 21
7606.740388709375
 31
0.0
  0
LINE
  5
117CD
330
747D
100
AcDbEntity
  8
文字
 48
50.0
100
AcDbLine
 10
7003.600000000004
 20
7666.740388709375
 30
0.0
 11
7003.600000000004
 21
7606.740388709375
 31
0.0
  0
LINE
  5
117CE
330
747D
100
AcDbEntity
  8
文字
 48
50.0
100
AcDbLine
 10
7063.600000000004
 20
7606.740388709375
 30
0.0
 11
7003.600000000004
 21
7606.740388709375
 31
0.0
  0
LINE
  5
117CF
330
747D
100
AcDbEntity
  8
文字
 48
50.0
100
AcDbLine
 10
7063.600000000004
 20
7666.740388709375
 30
0.0
 11
7003.600000000004
 21
7666.740388709375
 31
0.0
  0
LINE
  5
117D0
330
747D
100
AcDbEntity
  8
文字
 48
50.0
100
AcDbLine
 10
9443.600000000003
 20
7666.740388709377
 30
0.0
 11
9443.600000000003
 21
7606.740388709375
 31
0.0
  0
LINE
  5
117D1
330
747D
100
AcDbEntity
  8
文字
 48
50.0
100
AcDbLine
 10
9383.600000000004
 20
7666.740388709377
 30
0.0
 11
9383.600000000004
 21
7606.740388709375
 31
0.0
  0
LINE
  5
117D2
330
747D
100
AcDbEntity
  8
文字
 48
50.0
100
AcDbLine
 10
9443.600000000003
 20
7606.740388709375
 30
0.0
 11
9383.600000000004
 21
7606.740388709375
 31
0.0
  0
LINE
  5
117D3
330
747D
100
AcDbEntity
  8
文字
 48
50.0
100
AcDbLine
 10
9443.600000000003
 20
7666.740388709375
 30
0.0
 11
9383.600000000004
 21
7666.740388709375
 31
0.0
  0
LINE
  5
117D4
330
747D
100
AcDbEntity
  8
文字
 48
50.0
100
AcDbLine
 10
7063.600000000004
 20
6016.740388709377
 30
0.0
 11
7063.600000000004
 21
5956.740388709375
 31
0.0
  0
LINE
  5
117D5
330
747D
100
AcDbEntity
  8
文字
 48
50.0
100
AcDbLine
 10
7003.600000000004
 20
6016.740388709377
 30
0.0
 11
7003.600000000004
 21
5956.740388709375
 31
0.0
  0
LINE
  5
117D6
330
747D
100
AcDbEntity
  8
文字
 48
50.0
100
AcDbLine
 10
7063.600000000004
 20
5956.740388709375
 30
0.0
 11
7003.600000000004
 21
5956.740388709375
 31
0.0
  0
LINE
  5
117D7
330
747D
100
AcDbEntity
  8
文字
 48
50.0
100
AcDbLine
 10
7063.600000000004
 20
6016.740388709376
 30
0.0
 11
7003.600000000004
 21
6016.740388709376
 31
0.0
  0
LINE
  5
117D8
330
747D
100
AcDbEntity
  8
文字
 48
50.0
100
AcDbLine
 10
9443.600000000003
 20
6016.740388709377
 30
0.0
 11
9443.600000000003
 21
5956.740388709375
 31
0.0
  0
LINE
  5
117D9
330
747D
100
AcDbEntity
  8
文字
 48
50.0
100
AcDbLine
 10
9383.600000000004
 20
6016.740388709377
 30
0.0
 11
9383.600000000004
 21
5956.740388709375
 31
0.0
  0
LINE
  5
117DA
330
747D
100
AcDbEntity
  8
文字
 48
50.0
100
AcDbLine
 10
9443.600000000003
 20
5956.740388709375
 30
0.0
 11
9383.600000000004
 21
5956.740388709375
 31
0.0
  0
LINE
  5
117DB
330
747D
100
AcDbEntity
  8
文字
 48
50.0
100
AcDbLine
 10
9443.600000000003
 20
6016.740388709376
 30
0.0
 11
9383.600000000004
 21
6016.740388709376
 31
0.0
  0
LINE
  5
117F0
330
747D
100
AcDbEntity
  8
センター
 48
50.0
100
AcDbLine
 10
7283.600000000004
 20
9286.740388709375
 30
0.0
 11
6783.600000000004
 21
9286.740388709375
 31
0.0
  0
LINE
  5
117F1
330
747D
100
AcDbEntity
  8
センター
 48
50.0
100
AcDbLine
 10
9413.600000000007
 20
9036.740388709377
 30
0.0
 11
9413.600000000004
 21
9536.740388709379
 31
0.0
  0
LINE
  5
117F2
330
747D
100
AcDbEntity
  8
センター
 48
50.0
100
AcDbLine
 10
7033.600000000004
 20
7886.740388709377
 30
0.0
 11
7033.600000000004
 21
7386.740388709378
 31
0.0
  0
LINE
  5
117F3
330
747D
100
AcDbEntity
  8
センター
 48
50.0
100
AcDbLine
 10
9163.600000000002
 20
7636.740388709377
 30
0.0
 11
9663.600000000004
 21
7636.740388709378
 31
0.0
  0
LINE
  5
117F4
330
747D
100
AcDbEntity
  8
センター
 48
50.0
100
AcDbLine
 10
7033.600000000004
 20
6236.740388709377
 30
0.0
 11
7033.600000000004
 21
5736.740388709377
 31
0.0
  0
LINE
  5
117F5
330
747D
100
AcDbEntity
  8
センター
 48
50.0
100
AcDbLine
 10
9413.600000000007
 20
7386.740388709377
 30
0.0
 11
9413.600000000007
 21
7886.740388709378
 31
0.0
  0
LINE
  5
117F6
330
747D
100
AcDbEntity
  8
センター
 48
50.0
100
AcDbLine
 10
9163.600000000004
 20
5986.740388709378
 30
0.0
 11
9663.600000000004
 21
5986.740388709377
 31
0.0
  0
DIMENSION
  5
1187A
330
747D
100
AcDbEntity
  8
寸法
 48
50.0
100
AcDbDimension
  2
*D2
 10
6391.105727429238
 20
9286.740388709375
 30
0.0
 11
6291.064914864433
 21
9746.74038870938
 31
0.0
 70
    32
 71
     5
 42
920.0000000000018
  3
INABA_S40G
100
AcDbAlignedDimension
 13
6833.600000000004
 23
10206.74038870937
 33
0.0
 14
6783.600000000004
 24
9286.740388709375
 34
0.0
 50
90.0
100
AcDbRotatedDimension
1001
ACAD
1000
DSTYLE
1002
{
1070
   341
1005
0
1002
}
  0
DIMENSION
  5
11886
330
747D
100
AcDbEntity
  8
寸法
 48
50.0
100
AcDbDimension
  2
*D3
 10
6391.105727429238
 20
7636.740388709377
 30
0.0
 11
6291.105727429237
 21
8461.740388709378
 31
0.0
 70
    32
 71
     5
 42
1649.999999999998
  3
INABA_S40G
100
AcDbAlignedDimension
 13
6783.600000000004
 23
9286.740388709375
 33
0.0
 14
6783.600000000004
 24
7636.740388709377
 34
0.0
 50
90.0
100
AcDbRotatedDimension
1001
ACAD
1000
DSTYLE
1002
{
1070
   341
1005
0
1002
}
  0
DIMENSION
  5
11892
330
747D
100
AcDbEntity
  8
寸法
 48
50.0
100
AcDbDimension
  2
*D4
 10
6391.105727429238
 20
5986.740388709378
 30
0.0
 11
6291.105727429237
 21
6811.740388709378
 31
0.0
 70
    32
 71
     5
 42
1649.999999999999
  3
INABA_S40G
100
AcDbAlignedDimension
 13
6783.600000000004
 23
7636.740388709377
 33
0.0
 14
6783.600000000004
 24
5986.740388709378
 34
0.0
 50
90.0
100
AcDbRotatedDimension
1001
ACAD
1000
DSTYLE
1002
{
1070
   341
1005
0
1002
}
  0
DIMENSION
  5
1189E
330
747D
100
AcDbEntity
  8
寸法
 48
50.0
100
AcDbDimension
  2
*D5
 10
6391.105727429238
 20
5066.740388709376
 30
0.0
 11
6291.064914864433
 21
5526.740388709379
 31
0.0
 70
    32
 71
     5
 42
920.0000000000009
  3
INABA_S40G
100
AcDbAlignedDimension
 13
6783.600000000004
 23
5986.740388709378
 33
0.0
 14
6833.600000000004
 24
5066.740388709376
 34
0.0
 50
90.0
100
AcDbRotatedDimension
1001
ACAD
1000
DSTYLE
1002
{
1070
   341
1005
0
1002
}
  0
DIMENSION
  5
118AB
330
747D
100
AcDbEntity
  8
寸法
 48
50.0
100
AcDbDimension
  2
*D6
 10
5945.614843701702
 20
5066.740388709377
 30
0.0
 11
5845.614843701702
 21
7636.740388709378
 31
0.0
 70
    32
  1
基礎寸法 <>
 71
     5
 42
5140.0
  3
INABA_S40G
100
AcDbAlignedDimension
 13
6833.600000000004
 23
10206.74038870937
 33
0.0
 14
6833.600000000004
 24
5066.740388709376
 34
0.0
 50
90.0
100
AcDbRotatedDimension
1001
ACAD
1000
DSTYLE
1002
{
1070
   341
1005
0
1002
}
  0
DIMENSION
  5
118B8
330
747D
100
AcDbEntity
  8
寸法
 48
50.0
100
AcDbDimension
  2
*D7
 10
9713.600000000003
 20
8140.635297426983
 30
0.0
 11
9413.600000000002
 21
8240.635297426983
 31
0.0
 70
    32
 71
     5
 42
600.0
  3
INABA_S40G
100
AcDbAlignedDimension
 13
9113.600000000003
 23
7936.740388709376
 33
0.0
 14
9713.600000000003
 24
7936.740388709376
 34
0.0
100
AcDbRotatedDimension
1001
ACAD
1000
DSTYLE
1002
{
1070
   341
1005
0
1002
}
  0
DIMENSION
  5
118C5
330
747D
100
AcDbEntity
  8
寸法
 48
50.0
100
AcDbDimension
  2
*D8
 10
9987.461657003391
 20
7336.740388709376
 30
0.0
 11
9887.46165700339
 21
7636.740388709377
 31
0.0
 70
    32
 71
     5
 42
600.0
  3
INABA_S40G
100
AcDbAlignedDimension
 13
9713.600000000003
 23
7936.740388709376
 33
0.0
 14
9713.600000000003
 24
7336.740388709376
 34
0.0
 50
90.0
100
AcDbRotatedDimension
1001
ACAD
1000
DSTYLE
1002
{
1070
   341
1005
0
1002
}
  0
DIMENSION
  5
118DA
330
747D
100
AcDbEntity
  8
寸法
 48
50.0
100
AcDbDimension
  2
*D9
 10
7033.600000000004
 20
4699.427037335172
 30
0.0
 11
6584.029133858272
 21
4699.427037335172
 31
0.0
 70
   160
 71
     5
 42
200.0
  3
INABA_S40G
100
AcDbAlignedDimension
 13
6833.600000000004
 23
5066.740388709376
 33
0.0
 14
7033.600000000004
 24
5736.740388709377
 34
0.0
100
AcDbRotatedDimension
1001
ACAD
1000
DSTYLE
1002
{
1070
   341
1005
0
1002
}
  0
DIMENSION
  5
118E6
330
747D
100
AcDbEntity
  8
寸法
 48
50.0
100
AcDbDimension
  2
*D10
 10
9413.600000000004
 20
4699.427037335172
 30
0.0
 11
8223.600000000004
 21
4799.438848358794
 31
0.0
 70
    32
 71
     5
 42
2380.0
  3
INABA_S40G
100
AcDbAlignedDimension
 13
7033.600000000004
 23
5736.740388709377
 33
0.0
 14
9413.600000000004
 24
5736.740388709378
 34
0.0
100
AcDbRotatedDimension
1001
ACAD
1000
DSTYLE
1002
{
1070
   341
1005
0
1002
}
  0
DIMENSION
  5
1190F
330
747D
100
AcDbEntity
  8
寸法
 48
50.0
100
AcDbDimension
  2
*D11
 10
9613.600000000005
 20
4700.024272680079
 30
0.0
 11
9863.170866141736
 21
4700.024272680079
 31
0.0
 70
   160
 71
     5
 42
200.0
  3
INABA_S40G
100
AcDbAlignedDimension
 13
9413.600000000004
 23
5736.740388709378
 33
0.0
 14
9613.600000000005
 24
5066.740388709376
 34
0.0
100
AcDbRotatedDimension
1001
ACAD
1000
DSTYLE
1002
{
1070
   341
1005
0
1002
}
  0
DIMENSION
  5
11934
330
747D
100
AcDbEntity
  8
寸法
 48
50.0
100
AcDbDimension
  2
*D12
 10
9613.600000000005
 20
4335.453801511459
 30
0.0
 11
8223.600000000004
 21
4435.465612535081
 31
0.0
 70
    32
  1
基礎寸法 <>
 71
     5
 42
2780.0
  3
INABA_S40G
100
AcDbAlignedDimension
 13
6833.600000000004
 23
5066.740388709376
 33
0.0
 14
9613.600000000005
 24
5066.740388709377
 34
0.0
100
AcDbRotatedDimension
1001
ACAD
1000
DSTYLE
1002
{
1070
   341
1005
0
1002
}
  0
LEADER
  5
11935
330
747D
100
AcDbEntity
  8
寸法
 48
50.0
100
AcDbLeader
  3
INABA_S40G
 73
     0
 75
     1
 40
120.0
 41
144.0
 76
     3
 10
9413.600000000002
 20
7636.740388709377
 30
0.0
 10
9037.164338860494
 20
7143.277037240911
 30
0.0
 10
8937.164338860494
 20
7143.277037240911
 30
0.0
340
11936
1001
ACAD
1000
DSTYLE
1002
{
1070
   341
1005
0
1002
}
  0
MTEXT
  5
11936
102
{ACAD_REACTORS
330
11935
102
}
330
747D
100
AcDbEntity
  8
寸法
 62
     7
 48
50.0
100
AcDbMText
 10
8897.164338860493
 20
7243.277037240911
 30
0.0
 40
120.0
 41
0.0
 71
     6
 72
     1
  1
\A1;柱
  7
STYLE1
 73
     1
 44
1.0
1001
ACAD
1000
MTEXTBEGIN
1070
    73
1070
     1
1070
    44
1040
1.0
1070
    74
1070
     0
1000
MTEXTEND
  0
MTEXT
  5
11B0C
330
747D
100
AcDbEntity
  8
寸法
 62
     7
 48
50.0
100
AcDbMText
 10
7414.5775402372
 20
9753.355387444379
 30
0.0
 40
120.0
 41
0.0
 71
     4
 72
     1
  1
\A1;床コンクリート打コテ押エ
  7
STYLE1
 73
     1
 44
1.0
1001
ACAD
1000
MTEXTBEGIN
1070
    73
1070
     1
1070
    44
1040
1.0
1070
    74
1070
     0
1000
MTEXTEND
  0
LINE
  5
11B0E
330
747D
100
AcDbEntity
  8
文字
 48
50.0
100
AcDbLine
 10
8223.600000000004
 20
8173.244330328811
 30
0.0
 11
8223.600000000004
 21
9531.021536520398
 31
0.0
  0
LINE
  5
11B10
330
747D
100
AcDbEntity
  8
文字
 48
50.0
100
AcDbLine
 10
8223.600000000004
 20
7100.236447089942
 30
0.0
 11
8223.600000000004
 21
5742.459240898356
 31
0.0
  0
LINE
  5
11B12
330
747D
100
AcDbEntity
  8
文字
 48
50.0
100
AcDbLine
 10
8223.600000000004
 20
5742.459240898356
 30
0.0
 11
8267.397710443757
 21
5905.914521529627
 31
0.0
  0
LINE
  5
11B13
330
747D
100
AcDbEntity
  8
文字
 48
50.0
100
AcDbLine
 10
8223.600000000004
 20
5742.459240898356
 30
0.0
 11
8179.802289556253
 21
5905.914521529627
 31
0.0
  0
LINE
  5
11B14
330
747D
100
AcDbEntity
  8
文字
 48
50.0
100
AcDbLine
 10
8223.600000000004
 20
9531.021536520398
 30
0.0
 11
8267.397710443757
 21
9367.566255889128
 31
0.0
  0
LINE
  5
11B15
330
747D
100
AcDbEntity
  8
文字
 48
50.0
100
AcDbLine
 10
8223.600000000004
 20
9531.021536520398
 30
0.0
 11
8179.802289556253
 21
9367.566255889128
 31
0.0
  0
MTEXT
  5
11B41
330
747D
100
AcDbEntity
  8
寸法
 62
     7
 48
50.0
100
AcDbMText
 10
8105.038478816814
 20
8177.470253112604
 30
0.0
 40
120.0
 41
0.0
 71
     4
 72
     1
  1
\A1;水勾配１／１００ 
  7
STYLE1
 11
0.0000000000000001
 21
1.0
 31
0.0
 73
     1
 44
1.0
1001
ACAD
1000
MTEXTBEGIN
1070
    73
1070
     1
1070
    44
1040
1.0
1070
    74
1070
     0
1000
MTEXTEND
  0
MTEXT
  5
11B43
330
747D
100
AcDbEntity
  8
寸法
 62
     7
 48
50.0
100
AcDbMText
 10
8105.038478816814
 20
5964.486169097829
 30
0.0
 40
120.0
 41
0.0
 71
     4
 72
     1
  1
\A1;水勾配１／１００ 
  7
STYLE1
 11
0.0000000000000001
 21
1.0
 31
0.0
 73
     1
 44
1.0
1001
ACAD
1000
MTEXTBEGIN
1070
    73
1070
     1
1070
    44
1040
1.0
1070
    74
1070
     0
1000
MTEXTEND
  0
LINE
  5
11EDB
330
747D
100
AcDbEntity
  8
寸法
 48
50.0
100
AcDbLine
 10
7033.600000000004
 20
9036.740388709379
 30
0.0
 11
7033.600000000004
 21
7886.740388709377
 31
0.0
  0
LINE
  5
11EE0
330
747D
100
AcDbEntity
  8
寸法
 48
50.0
100
AcDbLine
 10
7033.600000000004
 20
7386.740388709378
 30
0.0
 11
7033.600000000004
 21
7037.984839121637
 31
0.0
  0
LINE
  5
11EE1
330
747D
100
AcDbEntity
  8
寸法
 48
50.0
100
AcDbLine
 10
7033.600000000004
 20
7037.984839121637
 30
0.0
 11
7636.712002219835
 21
7037.984839121637
 31
0.0
  0
LINE
  5
11EE2
330
747D
100
AcDbEntity
  8
寸法
 48
50.0
100
AcDbLine
 10
7636.712002219835
 20
7037.984839121637
 30
0.0
 11
7457.156384581537
 21
6989.873056378984
 31
0.0
  0
LINE
  5
11EE3
330
747D
100
AcDbEntity
  8
寸法
 48
50.0
100
AcDbLine
 10
7457.156384581537
 20
6989.873056378984
 30
0.0
 11
7457.156384581537
 21
7099.764087914905
 31
0.0
  0
LINE
  5
11EEC
330
747D
100
AcDbEntity
  8
寸法
 48
50.0
100
AcDbLine
 10
7033.600000000004
 20
9536.740388709375
 30
0.0
 11
7033.600000000003
 21
10427.32477625326
 31
0.0
  0
LINE
  5
11EED
330
747D
100
AcDbEntity
  8
寸法
 48
50.0
100
AcDbLine
 10
7033.600000000004
 20
10427.32477625326
 30
0.0
 11
7636.712002219835
 21
10427.32477625326
 31
0.0
  0
LINE
  5
11EEE
330
747D
100
AcDbEntity
  8
寸法
 48
50.0
100
AcDbLine
 10
7636.712002219835
 20
10427.32477625326
 30
0.0
 11
7457.156384581537
 21
10475.43655899591
 31
0.0
  0
LINE
  5
11EEF
330
747D
100
AcDbEntity
  8
寸法
 48
50.0
100
AcDbLine
 10
7457.156384581537
 20
10475.43655899591
 30
0.0
 11
7457.156384581537
 21
10365.54552745999
 31
0.0
  0
MTEXT
  5
11EF1
330
747D
100
AcDbEntity
  8
寸法
 62
     7
 48
50.0
100
AcDbMText
 10
7713.385222400479
 20
7051.535119830258
 30
0.0
 40
120.0
 41
0.0
 71
     4
 72
     1
  1
A'
  7
STYLE1
 73
     1
 44
1.0
1001
ACAD
1000
MTEXTBEGIN
1070
    73
1070
     1
1070
    44
1040
1.0
1070
    74
1070
     0
1000
MTEXTEND
  0
MTEXT
  5
11EF2
330
747D
100
AcDbEntity
  8
寸法
 62
     7
 48
50.0
100
AcDbMText
 10
7713.385222400479
 20
10440.87505696188
 30
0.0
 40
120.0
 41
0.0
 71
     4
 72
     1
  1
A
  7
STYLE1
 73
     1
 44
1.0
1001
ACAD
1000
MTEXTBEGIN
1070
    73
1070
     1
1070
    44
1040
1.0
1070
    74
1070
     0
1000
MTEXTEND
  0
TEXT
  5
11F11
330
747D
100
AcDbEntity
  8
仕様書枠
 62
     7
 48
50.0
100
AcDbText
 10
14518.37944936722
 20
1031.557706291228
 30
0.0
 40
100.0
  1
NO.1     <縮尺> S=1/40
  7
STYLE2
100
AcDbText
  0
DIMENSION
  5
121B8
330
747D
100
AcDbEntity
  8
寸法
 48
50.0
100
AcDbDimension
  2
*D14
 10
10132.77950873463
 20
5236.740388709375
 30
0.0
 11
10032.77950873462
 21
5611.740388709375
 31
0.0
 70
    32
 71
     5
 42
750.0000000000018
  3
INABA_S40G
100
AcDbAlignedDimension
 13
9663.600000000002
 23
5986.740388709375
 33
0.0
 14
9663.600000000002
 24
5236.740388709375
 34
0.0
 50
90.0
100
AcDbRotatedDimension
1001
ACAD
1000
DSTYLE
1002
{
1070
   341
1005
0
1002
}
  0
DIMENSION
  5
121B9
330
747D
100
AcDbEntity
  8
寸法
 48
50.0
100
AcDbDimension
  2
*D13
 10
10431.88737785239
 20
5236.740388709374
 30
0.0
 11
10331.88737785238
 21
7636.740388709378
 31
0.0
 70
    32
  1
屋根寸法 <>
 71
     5
 42
4800.000000000005
  3
INABA_S40G
100
AcDbAlignedDimension
 13
9663.600000000002
 23
10036.74038870938
 33
0.0
 14
9663.600000000002
 24
5236.740388709375
 34
0.0
 50
90.0
100
AcDbRotatedDimension
1001
ACAD
1000
DSTYLE
1002
{
1070
   341
1005
0
1002
}
  0
LINE
  5
121BA
330
747D
100
AcDbEntity
  8
想像線
 48
50.0
100
AcDbLine
 10
9663.600000000002
 20
5236.740388709375
 30
0.0
 11
9663.600000000002
 21
10036.74038870938
 31
0.0
  0
LINE
  5
121BB
330
747D
100
AcDbEntity
  8
想像線
 48
50.0
100
AcDbLine
 10
8643.600000000002
 20
5236.740388709375
 30
0.0
 11
9663.600000000002
 21
5236.740388709375
 31
0.0
  0
DIMENSION
  5
12228
330
747D
100
AcDbEntity
  8
寸法
 48
50.0
100
AcDbDimension
  2
*D15
 10
9663.600000000002
 20
10902.80501405645
 30
0.0
 11
8223.600000000002
 21
11002.81682508007
 31
0.0
 70
    32
  1
屋根寸法 <>
 71
     5
 42
2880.000000000002
  3
INABA_S40G
100
AcDbAlignedDimension
 13
6783.599999999999
 23
10036.74038870938
 33
0.0
 14
9663.600000000002
 24
10036.74038870938
 34
0.0
100
AcDbRotatedDimension
1001
ACAD
1000
DSTYLE
1002
{
1070
   341
1005
0
1002
}
  0
LINE
  5
12229
330
747D
100
AcDbEntity
  8
想像線
 48
50.0
100
AcDbLine
 10
6783.599999999999
 20
10036.74038870938
 30
0.0
 11
9663.600000000002
 21
10036.74038870938
 31
0.0
  0
LINE
  5
1222A
330
747D
100
AcDbEntity
  8
想像線
 48
50.0
100
AcDbLine
 10
6783.599999999999
 20
9379.224908776665
 30
0.0
 11
6783.599999999999
 21
10036.74038870938
 31
0.0
  0
DIMENSION
  5
1222B
330
747D
100
AcDbEntity
  8
寸法
 48
50.0
100
AcDbDimension
  2
*D17
 10
7033.600000000004
 20
10609.69661180045
 30
0.0
 11
6908.600000000003
 21
10709.70842282407
 31
0.0
 70
    32
 71
     5
 42
250.0000000000036
  3
INABA_S40G
100
AcDbAlignedDimension
 13
6783.599999999999
 23
10036.74038870938
 33
0.0
 14
7033.600000000004
 24
9536.740388709375
 34
0.0
100
AcDbRotatedDimension
1001
ACAD
1000
DSTYLE
1002
{
1070
   341
1005
0
1002
}
  0
LEADER
  5
1222C
330
747D
100
AcDbEntity
  8
寸法
 48
50.0
100
AcDbLeader
  3
INABA_S40G
 73
     0
 74
     0
 75
     1
 40
120.0
 41
672.0
 76
     3
 10
8149.636065931419
 20
10036.74038870938
 30
0.0
 10
8282.798735823403
 20
10348.74901617458
 30
0.0
 10
8382.798735823403
 20
10348.74901617458
 30
0.0
340
1222D
1001
ACAD
1000
DSTYLE
1002
{
1070
   341
1005
0
1002
}
  0
MTEXT
  5
1222D
102
{ACAD_REACTORS
330
1222C
102
}
330
747D
100
AcDbEntity
  8
部品1
 62
     7
 48
50.0
100
AcDbMText
 10
8422.798735823402
 20
10448.74901617458
 30
0.0
 40
120.0
 41
0.0
 71
     4
 72
     1
  1
\A1;屋根の外寸
  7
STYLE1
 73
     1
 44
1.0
1001
ACAD
1000
MTEXTBEGIN
1070
    73
1070
     1
1070
    44
1040
1.0
1070
    74
1070
     0
1000
MTEXTEND
  0
DIMENSION
  5
1222E
330
747D
100
AcDbEntity
  8
寸法
 48
50.0
100
AcDbDimension
  2
*D16
 10
9663.600000000002
 20
10609.69661180045
 30
0.0
 11
9538.600000000002
 21
10709.70842282407
 31
0.0
 70
    32
 71
     5
 42
249.9999999999982
  3
INABA_S40G
100
AcDbAlignedDimension
 13
9413.600000000004
 23
9536.740388709379
 33
0.0
 14
9663.600000000002
 24
10036.74038870938
 34
0.0
100
AcDbRotatedDimension
1001
ACAD
1000
DSTYLE
1002
{
1070
   341
1005
0
1002
}
  0
DIMENSION
  5
12291
330
747D
100
AcDbEntity
  8
寸法
 48
50.0
100
AcDbDimension
  2
*D18
 10
10132.77950873463
 20
10036.74038870938
 30
0.0
 11
10032.77950873462
 21
9661.740388709382
 31
0.0
 70
    32
 71
     5
 42
750.0
  3
INABA_S40G
100
AcDbAlignedDimension
 13
9663.600000000002
 23
9286.740388709379
 33
0.0
 14
9663.600000000002
 24
10036.74038870938
 34
0.0
 50
90.0
100
AcDbRotatedDimension
1001
ACAD
1000
DSTYLE
1002
{
1070
   341
1005
0
1002
}
  0
TEXT
  5
12469
330
747D
100
AcDbEntity
  8
寸法
 62
     7
100
AcDbText
 10
12995.6997453858
 20
1973.585205285743
 30
0.0
 40
120.0
  1
（注意）
  7
STYLE1
100
AcDbText
  0
TEXT
  5
1246A
330
747D
100
AcDbEntity
  8
寸法
 62
     7
100
AcDbText
 10
12995.6997453858
 20
1773.585205285743
 30
0.0
 40
120.0
  1
   基礎寸法は標準施工を示します。
  7
STYLE1
100
AcDbText
  0
TEXT
  5
1246B
330
747D
100
AcDbEntity
  8
寸法
 62
     7
100
AcDbText
 10
12995.6997453858
 20
1573.585205285743
 30
0.0
 40
120.0
  1
   地域の実情に合わせて設計してください。 
  7
STYLE1
100
AcDbText
  0
LWPOLYLINE
  5
12613
330
747D
100
AcDbEntity
  8
部品1
 48
100.0
100
AcDbPolyline
 90
        6
 70
     0
 43
0.0
 10
7430.882479959493
 20
3323.593015418325
 10
4479.038562473962
 20
3323.593015418325
 10
4479.038562473962
 20
238.9709770262789
 10
11968.16143752604
 20
238.9709770262789
 10
11968.16143752604
 20
3323.593015418325
 10
9016.317520040507
 20
3323.593015418325
  0
TEXT
  5
1265A
330
747D
100
AcDbEntity
  8
部品1
 48
100.0
100
AcDbText
 10
7723.137946626582
 20
351.0056814446116
 30
0.0
 40
138.46152
  1
A-A'断面
  7
STYLE2
100
AcDbText
  0
LINE
  5
126A1
330
747D
100
AcDbEntity
  8
部品1
 48
100.0
100
AcDbLine
 10
7430.882479959493
 20
3127.439195418325
 30
0.0
 11
9016.317520040507
 21
3127.439195418325
 31
0.0
  0
TEXT
  5
126A2
330
747D
100
AcDbEntity
  8
部品1
 48
100.0
100
AcDbText
 10
7489.996858427514
 20
3239.473899836655
 30
0.0
 40
138.46152
  1
基礎断面図 1/20
  7
STYLE2
100
AcDbText
  0
LINE
  5
126A3
330
747D
100
AcDbEntity
  8
部品1
 48
100.0
100
AcDbLine
 10
7430.882479959493
 20
3519.746835418324
 30
0.0
 11
9016.317520040507
 21
3519.746835418324
 31
0.0
  0
LINE
  5
126A4
330
747D
100
AcDbEntity
  8
部品1
 48
100.0
100
AcDbLine
 10
7430.882479959493
 20
3519.746835418326
 30
0.0
 11
7430.882479959493
 21
3127.439195418326
 31
0.0
  0
LINE
  5
126A7
330
747D
100
AcDbEntity
  8
部品1
 48
100.0
100
AcDbLine
 10
9016.317520040507
 20
3519.746835418325
 30
0.0
 11
9016.317520040507
 21
3127.439195418324
 31
0.0
  0
LINE
  5
12BD6
330
747D
100
AcDbEntity
  8
部品1
 48
50.0
100
AcDbLine
 10
6733.600000000004
 20
6286.740388709377
 30
0.0
 11
6733.600000000004
 21
5686.740388709377
 31
0.0
  0
LINE
  5
12BD7
330
747D
100
AcDbEntity
  8
部品1
 48
50.0
100
AcDbLine
 10
6733.600000000004
 20
5686.740388709377
 30
0.0
 11
7333.600000000004
 21
5686.740388709377
 31
0.0
  0
LINE
  5
12BD8
330
747D
100
AcDbEntity
  8
部品1
 48
50.0
100
AcDbLine
 10
7333.600000000004
 20
5686.740388709377
 30
0.0
 11
7333.600000000004
 21
6286.740388709377
 31
0.0
  0
LINE
  5
12BD9
330
747D
100
AcDbEntity
  8
部品1
 48
50.0
100
AcDbLine
 10
7333.600000000004
 20
6286.740388709377
 30
0.0
 11
6733.600000000004
 21
6286.740388709377
 31
0.0
  0
LINE
  5
12BDB
330
747D
100
AcDbEntity
  8
部品1
 48
50.0
100
AcDbLine
 10
9113.600000000003
 20
6286.740388709377
 30
0.0
 11
9113.600000000003
 21
5686.740388709377
 31
0.0
  0
LINE
  5
12BDC
330
747D
100
AcDbEntity
  8
部品1
 48
50.0
100
AcDbLine
 10
9713.600000000004
 20
6286.740388709377
 30
0.0
 11
9113.600000000003
 21
6286.740388709377
 31
0.0
  0
LINE
  5
12BDD
330
747D
100
AcDbEntity
  8
部品1
 48
50.0
100
AcDbLine
 10
9713.600000000004
 20
5686.740388709377
 30
0.0
 11
9713.600000000004
 21
6286.740388709377
 31
0.0
  0
LINE
  5
12BDE
330
747D
100
AcDbEntity
  8
部品1
 48
50.0
100
AcDbLine
 10
9113.600000000003
 20
5686.740388709377
 30
0.0
 11
9713.600000000004
 21
5686.740388709377
 31
0.0
  0
LINE
  5
12BDF
330
747D
100
AcDbEntity
  8
部品1
 48
50.0
100
AcDbLine
 10
9113.600000000003
 20
7936.740388709376
 30
0.0
 11
9113.600000000003
 21
7336.740388709376
 31
0.0
  0
LINE
  5
12BE0
330
747D
100
AcDbEntity
  8
部品1
 48
50.0
100
AcDbLine
 10
9713.600000000003
 20
7936.740388709376
 30
0.0
 11
9113.600000000003
 21
7936.740388709376
 31
0.0
  0
LINE
  5
12BE1
330
747D
100
AcDbEntity
  8
部品1
 48
50.0
100
AcDbLine
 10
9713.600000000003
 20
7336.740388709376
 30
0.0
 11
9713.600000000003
 21
7936.740388709376
 31
0.0
  0
LINE
  5
12BE2
330
747D
100
AcDbEntity
  8
部品1
 48
50.0
100
AcDbLine
 10
9113.600000000003
 20
7336.740388709376
 30
0.0
 11
9713.600000000003
 21
7336.740388709376
 31
0.0
  0
LINE
  5
12BE3
330
747D
100
AcDbEntity
  8
部品1
 48
50.0
100
AcDbLine
 10
7333.600000000003
 20
7336.740388709376
 30
0.0
 11
7333.600000000003
 21
7936.740388709376
 31
0.0
  0
LINE
  5
12BE4
330
747D
100
AcDbEntity
  8
部品1
 48
50.0
100
AcDbLine
 10
7333.600000000003
 20
7936.740388709376
 30
0.0
 11
6733.600000000002
 21
7936.740388709376
 31
0.0
  0
LINE
  5
12BE5
330
747D
100
AcDbEntity
  8
部品1
 48
50.0
100
AcDbLine
 10
6733.600000000002
 20
7936.740388709376
 30
0.0
 11
6733.600000000002
 21
7336.740388709376
 31
0.0
  0
LINE
  5
12BE6
330
747D
100
AcDbEntity
  8
部品1
 48
50.0
100
AcDbLine
 10
6733.600000000002
 20
7336.740388709376
 30
0.0
 11
7333.600000000003
 21
7336.740388709376
 31
0.0
  0
LINE
  5
12BE7
330
747D
100
AcDbEntity
  8
部品1
 48
50.0
100
AcDbLine
 10
9713.600000000006
 20
8986.740388709376
 30
0.0
 11
9713.600000000006
 21
9586.740388709376
 31
0.0
  0
LINE
  5
12BE8
330
747D
100
AcDbEntity
  8
部品1
 48
50.0
100
AcDbLine
 10
9113.600000000007
 20
8986.740388709376
 30
0.0
 11
9713.600000000006
 21
8986.740388709376
 31
0.0
  0
LINE
  5
12BE9
330
747D
100
AcDbEntity
  8
部品1
 48
50.0
100
AcDbLine
 10
9713.600000000006
 20
9586.740388709376
 30
0.0
 11
9113.600000000007
 21
9586.740388709376
 31
0.0
  0
LINE
  5
12BEA
330
747D
100
AcDbEntity
  8
部品1
 48
50.0
100
AcDbLine
 10
9113.600000000007
 20
9586.740388709376
 30
0.0
 11
9113.600000000007
 21
8986.740388709376
 31
0.0
  0
LINE
  5
12BEB
330
747D
100
AcDbEntity
  8
部品1
 48
50.0
100
AcDbLine
 10
7333.600000000005
 20
8986.740388709376
 30
0.0
 11
7333.600000000005
 21
9586.740388709376
 31
0.0
  0
LINE
  5
12BEC
330
747D
100
AcDbEntity
  8
部品1
 48
50.0
100
AcDbLine
 10
7333.600000000005
 20
9586.740388709376
 30
0.0
 11
6733.600000000006
 21
9586.740388709376
 31
0.0
  0
LINE
  5
12BED
330
747D
100
AcDbEntity
  8
部品1
 48
50.0
100
AcDbLine
 10
6733.600000000006
 20
9586.740388709376
 30
0.0
 11
6733.600000000006
 21
8986.740388709376
 31
0.0
  0
LINE
  5
12BEE
330
747D
100
AcDbEntity
  8
部品1
 48
50.0
100
AcDbLine
 10
6733.600000000006
 20
8986.740388709376
 30
0.0
 11
7333.600000000005
 21
8986.740388709376
 31
0.0
  0
LINE
  5
12DE2
330
747D
100
AcDbEntity
  8
部品1
 48
50.0
100
AcDbLine
 10
9533.313991906686
 20
2401.753803229881
 30
0.0
 11
9563.586884749872
 21
2371.480910386697
 31
0.0
  0
LINE
  5
12DE3
330
747D
100
AcDbEntity
  8
部品1
 48
50.0
100
AcDbLine
 10
9503.213662073909
 20
2171.778473397103
 30
0.0
 11
10354.95489337491
 21
2171.778473397103
 31
0.0
  0
DIMENSION
  5
12DE4
330
747D
100
AcDbEntity
  8
寸法
 48
50.0
100
AcDbDimension
  2
*D19
 10
8167.356645224433
 20
779.5662246076199
 30
0.0
 11
7567.356645224433
 21
879.5662246076199
 31
0.0
 70
    32
 71
     5
 42
600.0000000000004
  3
INABA_S40G詳細用20
100
AcDbAlignedDimension
 13
6967.356645224433
 23
1061.753473397105
 33
0.0
 14
8167.356645224433
 24
1061.753473397105
 34
0.0
100
AcDbRotatedDimension
  0
LINE
  5
12DEA
330
747D
100
AcDbEntity
  8
部品1
 48
50.0
100
AcDbLine
 10
6967.356645224433
 20
1371.653473397103
 30
0.0
 11
6967.356645224431
 21
2171.778473397103
 31
0.0
  0
LINE
  5
12DED
330
747D
100
AcDbEntity
  8
部品1
 48
50.0
100
AcDbLine
 10
8167.356645224433
 20
1371.653473397103
 30
0.0
 11
8167.356645224433
 21
2171.778473397103
 31
0.0
  0
LINE
  5
12DF4
330
747D
100
AcDbEntity
  8
部品1
 48
50.0
100
AcDbLine
 10
8531.17144127459
 20
2421.939754832522
 30
0.0
 11
8531.17144127459
 21
1841.716830795493
 31
0.0
  0
LINE
  5
12DF5
330
747D
100
AcDbEntity
  8
部品1
 48
50.0
100
AcDbLine
 10
8479.248371274591
 20
2421.939754832522
 30
0.0
 11
8479.248371274591
 21
1841.716830795493
 31
0.0
  0
LINE
  5
12DFE
330
747D
100
AcDbEntity
  8
部品1
 48
50.0
100
AcDbLine
 10
7507.206150475266
 20
2556.934212383462
 30
0.0
 11
7507.206150475266
 21
1730.799723397104
 31
0.0
  0
LINE
  5
12DFF
330
747D
100
AcDbEntity
  8
部品1
 48
50.0
100
AcDbLine
 10
7627.507139973592
 20
1730.799723397104
 30
0.0
 11
7627.507139973592
 21
2556.934212383462
 31
0.0
  0
LINE
  5
12E00
330
747D
100
AcDbEntity
  8
部品1
 48
50.0
100
AcDbLine
 10
6800.550727849851
 20
2421.939754832522
 30
0.0
 11
6800.550727849851
 21
1841.716830795493
 31
0.0
  0
LINE
  5
12E01
330
747D
100
AcDbEntity
  8
部品1
 48
50.0
100
AcDbLine
 10
6748.627657849846
 20
2421.939754832522
 30
0.0
 11
6748.627657849846
 21
1841.716830795493
 31
0.0
  0
LINE
  5
12E02
330
747D
100
AcDbEntity
  8
部品1
 48
50.0
100
AcDbLine
 10
6327.975533552198
 20
2171.778473397104
 30
0.0
 11
6327.975533552187
 21
1904.635869400447
 31
0.0
  0
DIMENSION
  5
12E07
330
747D
100
AcDbEntity
  8
寸法
 48
50.0
100
AcDbDimension
  2
*D20
 10
6162.34587816289
 20
1730.799723397104
 30
0.0
 11
6062.334067139268
 21
1951.289098397104
 31
0.0
 70
    32
 71
     5
 42
220.489375
  3
INABA_S40G詳細用20
100
AcDbAlignedDimension
 13
6327.975533552198
 23
2171.778473397104
 33
0.0
 14
7522.206150475266
 24
1730.799723397104
 34
0.0
 50
90.0
100
AcDbRotatedDimension
  0
DIMENSION
  5
12E08
330
747D
100
AcDbEntity
  8
寸法
 48
50.0
100
AcDbDimension
  2
*D21
 10
5981.671157149674
 20
1371.653473397103
 30
0.0
 11
5881.671157149674
 21
1821.986285897105
 31
0.0
 70
    32
 71
     5
 42
450.3328125000003
  3
INABA_S40G詳細用20
100
AcDbAlignedDimension
 13
6363.789827176105
 23
2272.319098397104
 33
0.0
 14
6871.142525974295
 24
1371.653473397103
 34
0.0
 50
90.0
100
AcDbRotatedDimension
  0
LINE
  5
12E0A
330
747D
100
AcDbEntity
  8
細線
 48
50.0
100
AcDbLine
 10
7457.595603423756
 20
1096.753473397106
 30
0.0
 11
7472.856645224436
 21
1061.753473397106
 31
0.0
  0
LINE
  5
12E0B
330
747D
100
AcDbEntity
  8
細線
 48
50.0
100
AcDbLine
 10
7444.856645224437
 20
1061.753473397106
 30
0.0
 11
7521.290394420337
 21
1271.753473397105
 31
0.0
  0
LINE
  5
12E0C
330
747D
100
AcDbEntity
  8
部品1
 48
50.0
100
AcDbLine
 10
6871.142525974295
 20
1371.653473397103
 30
0.0
 11
8263.570764474556
 21
1371.653473397103
 31
0.0
  0
LINE
  5
12E0D
330
747D
100
AcDbEntity
  8
部品1
 48
50.0
100
AcDbLine
 10
6871.142525974298
 20
1061.753473397105
 30
0.0
 11
8263.570764474556
 21
1061.753473397105
 31
0.0
  0
LINE
  5
12E0E
330
747D
100
AcDbEntity
  8
部品1
 48
50.0
100
AcDbLine
 10
6871.142525974298
 20
1271.753473397105
 30
0.0
 11
8263.570764474556
 21
1271.753473397105
 31
0.0
  0
LINE
  5
12E0F
330
747D
100
AcDbEntity
  8
部品1
 48
50.0
100
AcDbLine
 10
7996.731645224421
 20
1523.253473397105
 30
0.0
 11
7137.981645224423
 21
1523.253473397106
 31
0.0
  0
LINE
  5
12E10
330
747D
100
AcDbEntity
  8
部品1
 48
50.0
100
AcDbLine
 10
7996.731645224421
 20
1495.253473397103
 30
0.0
 11
7137.981645224423
 21
1495.253473397106
 31
0.0
  0
DIMENSION
  5
12E11
330
747D
100
AcDbEntity
  8
寸法
 48
50.0
100
AcDbDimension
  2
*D22
 10
6162.34587816289
 20
1371.653473397103
 30
0.0
 11
6162.34587816289
 21
1515.026598397103
 31
0.0
 70
   160
 71
     5
 42
179.5731250000003
  3
INABA_S40G詳細用20
100
AcDbAlignedDimension
 13
7507.206150475266
 23
1730.799723397104
 33
0.0
 14
6871.142525974295
 24
1371.653473397103
 34
0.0
 50
90.0
100
AcDbRotatedDimension
  0
DIMENSION
  5
12E12
330
747D
100
AcDbEntity
  8
寸法
 48
50.0
100
AcDbDimension
  2
*D23
 10
5981.671157149674
 20
1271.753473397105
 30
0.0
 11
5881.671157149674
 21
1321.703473397105
 31
0.0
 70
    32
 71
     5
 42
49.94999999999925
  3
INABA_S40G詳細用20
100
AcDbAlignedDimension
 13
6871.142525974303
 23
1371.653473397103
 33
0.0
 14
6871.142525974295
 24
1271.753473397105
 34
0.0
 50
90.0
100
AcDbRotatedDimension
  0
LINE
  5
12E18
330
747D
100
AcDbEntity
  8
部品1
 48
50.0
100
AcDbLine
 10
6871.142525974295
 20
1371.653473397103
 30
0.0
 11
6871.142525974295
 21
1061.753473397105
 31
0.0
  0
LINE
  5
12E19
330
747D
100
AcDbEntity
  8
細線
 48
50.0
100
AcDbLine
 10
7213.290394420337
 20
1271.753473397105
 30
0.0
 11
7228.551436221019
 21
1236.753473397105
 31
0.0
  0
LINE
  5
12E1A
330
747D
100
AcDbEntity
  8
細線
 48
50.0
100
AcDbLine
 10
7353.290394420338
 20
1271.753473397105
 30
0.0
 11
7368.551436221018
 21
1236.753473397105
 31
0.0
  0
LINE
  5
12E1B
330
747D
100
AcDbEntity
  8
細線
 48
50.0
100
AcDbLine
 10
7317.595603423756
 20
1096.753473397105
 30
0.0
 11
7332.856645224437
 21
1061.753473397105
 31
0.0
  0
LINE
  5
12E1C
330
747D
100
AcDbEntity
  8
細線
 48
50.0
100
AcDbLine
 10
7304.856645224437
 20
1061.753473397105
 30
0.0
 11
7381.290394420338
 21
1271.753473397105
 31
0.0
  0
LINE
  5
12E1D
330
747D
100
AcDbEntity
  8
細線
 48
50.0
100
AcDbLine
 10
7073.290394420339
 20
1271.753473397103
 30
0.0
 11
7088.551436221019
 21
1236.753473397105
 31
0.0
  0
LINE
  5
12E1E
330
747D
100
AcDbEntity
  8
細線
 48
50.0
100
AcDbLine
 10
7037.595603423756
 20
1096.753473397105
 30
0.0
 11
7052.856645224436
 21
1061.753473397105
 31
0.0
  0
LINE
  5
12E20
330
747D
100
AcDbEntity
  8
細線
 48
50.0
100
AcDbLine
 10
7024.856645224438
 20
1061.753473397105
 30
0.0
 11
7101.290394420338
 21
1271.753473397103
 31
0.0
  0
LINE
  5
12E21
330
747D
100
AcDbEntity
  8
細線
 48
50.0
100
AcDbLine
 10
7177.595603423757
 20
1096.753473397105
 30
0.0
 11
7192.856645224437
 21
1061.753473397105
 31
0.0
  0
LINE
  5
12E22
330
747D
100
AcDbEntity
  8
細線
 48
50.0
100
AcDbLine
 10
7164.856645224436
 20
1061.753473397105
 30
0.0
 11
7241.290394420338
 21
1271.753473397105
 31
0.0
  0
LINE
  5
12E24
330
747D
100
AcDbEntity
  8
部品1
 48
50.0
100
AcDbLine
 10
6327.975533552187
 20
1904.635869400447
 30
0.0
 11
6748.627657849846
 21
1904.635869400447
 31
0.0
  0
CIRCLE
  5
12E28
330
747D
100
AcDbEntity
  8
部品1
 48
5.0
100
AcDbCircle
 10
7177.356645224422
 20
1537.253473397106
 30
0.0
 40
14.0
  0
LINE
  5
12E29
330
747D
100
AcDbEntity
  8
部品1
 48
50.0
100
AcDbLine
 10
7137.981645224423
 20
1495.253473397103
 30
0.0
 11
7137.981645224423
 21
1523.253473397106
 31
0.0
  0
CIRCLE
  5
12E2B
330
747D
100
AcDbEntity
  8
部品1
 48
5.0
100
AcDbCircle
 10
7437.356645224422
 20
1537.253473397106
 30
0.0
 40
14.0
  0
LINE
  5
12E2F
330
747D
100
AcDbEntity
  8
部品1
 48
50.0
100
AcDbLine
 10
6800.550727849851
 20
1904.635869400447
 30
0.0
 11
6967.356645224431
 21
1904.635869400447
 31
0.0
  0
LINE
  5
12E3D
330
747D
100
AcDbEntity
  8
部品1
 48
50.0
100
AcDbLine
 10
8263.570764474556
 20
1371.653473397103
 30
0.0
 11
8263.570764474556
 21
1061.753473397105
 31
0.0
  0
LINE
  5
12E41
330
747D
100
AcDbEntity
  8
細線
 48
50.0
100
AcDbLine
 10
7913.290394420338
 20
1271.753473397105
 30
0.0
 11
7928.551436221019
 21
1236.753473397106
 31
0.0
  0
LINE
  5
12E42
330
747D
100
AcDbEntity
  8
細線
 48
50.0
100
AcDbLine
 10
7773.290394420339
 20
1271.753473397105
 30
0.0
 11
7788.551436221019
 21
1236.753473397105
 31
0.0
  0
LINE
  5
12E43
330
747D
100
AcDbEntity
  8
細線
 48
50.0
100
AcDbLine
 10
7633.290394420338
 20
1271.753473397106
 30
0.0
 11
7648.551436221019
 21
1236.753473397106
 31
0.0
  0
LINE
  5
12E44
330
747D
100
AcDbEntity
  8
細線
 48
50.0
100
AcDbLine
 10
7493.290394420339
 20
1271.753473397105
 30
0.0
 11
7508.551436221019
 21
1236.753473397106
 31
0.0
  0
LINE
  5
12E45
330
747D
100
AcDbEntity
  8
細線
 48
50.0
100
AcDbLine
 10
7877.595603423756
 20
1096.753473397106
 30
0.0
 11
7892.856645224437
 21
1061.753473397106
 31
0.0
  0
LINE
  5
12E46
330
747D
100
AcDbEntity
  8
細線
 48
50.0
100
AcDbLine
 10
7737.595603423756
 20
1096.753473397105
 30
0.0
 11
7752.856645224436
 21
1061.753473397105
 31
0.0
  0
LINE
  5
12E47
330
747D
100
AcDbEntity
  8
細線
 48
50.0
100
AcDbLine
 10
7597.595603423757
 20
1096.753473397106
 30
0.0
 11
7612.856645224437
 21
1061.753473397106
 31
0.0
  0
LINE
  5
12E48
330
747D
100
AcDbEntity
  8
細線
 48
50.0
100
AcDbLine
 10
7864.856645224437
 20
1061.753473397106
 30
0.0
 11
7941.290394420338
 21
1271.753473397105
 31
0.0
  0
LINE
  5
12E49
330
747D
100
AcDbEntity
  8
細線
 48
50.0
100
AcDbLine
 10
7724.856645224438
 20
1061.753473397105
 30
0.0
 11
7801.290394420338
 21
1271.753473397105
 31
0.0
  0
LINE
  5
12E4A
330
747D
100
AcDbEntity
  8
細線
 48
50.0
100
AcDbLine
 10
7584.856645224437
 20
1061.753473397106
 30
0.0
 11
7661.290394420338
 21
1271.753473397106
 31
0.0
  0
LINE
  5
12E4B
330
747D
100
AcDbEntity
  8
細線
 48
50.0
100
AcDbLine
 10
8053.290394420338
 20
1271.753473397106
 30
0.0
 11
8068.551436221019
 21
1236.753473397106
 31
0.0
  0
LINE
  5
12E4C
330
747D
100
AcDbEntity
  8
細線
 48
50.0
100
AcDbLine
 10
8017.595603423755
 20
1096.753473397106
 30
0.0
 11
8032.856645224438
 21
1061.753473397106
 31
0.0
  0
LINE
  5
12E4D
330
747D
100
AcDbEntity
  8
細線
 48
50.0
100
AcDbLine
 10
8157.595603423756
 20
1096.753473397105
 30
0.0
 11
8172.856645224436
 21
1061.753473397105
 31
0.0
  0
LINE
  5
12E4E
330
747D
100
AcDbEntity
  8
細線
 48
50.0
100
AcDbLine
 10
8004.856645224437
 20
1061.753473397106
 30
0.0
 11
8081.290394420339
 21
1271.753473397106
 31
0.0
  0
LINE
  5
12E4F
330
747D
100
AcDbEntity
  8
細線
 48
50.0
100
AcDbLine
 10
8144.856645224436
 20
1061.753473397105
 30
0.0
 11
8221.290394420323
 21
1271.753473397104
 31
0.0
  0
MTEXT
  5
12E5E
102
{ACAD_REACTORS
330
12E5F
102
}
330
747D
100
AcDbEntity
  8
寸法
 62
     7
 48
50.0
100
AcDbMText
 10
8182.039573354584
 20
1594.397056148721
 30
0.0
 40
120.0
 41
0.0
 71
     4
 72
     1
  1
\A1;カンザシ 
  7
STYLE1
 73
     1
 44
1.0
1001
ACAD
1000
MTEXTBEGIN
1070
    73
1070
     1
1070
    44
1040
1.0
1070
    74
1070
     0
1000
MTEXTEND
  0
LEADER
  5
12E5F
330
747D
100
AcDbEntity
  8
寸法
 48
50.0
100
AcDbLeader
  3
INABA_S40G詳細用20
 71
     0
 73
     0
 74
     0
 75
     1
 40
120.0
 41
550.0
 76
     3
 10
7567.356645224437
 20
1791.000383062655
 30
0.0
 10
8042.039573354584
 20
1494.397056148721
 30
0.0
 10
8142.039573354585
 20
1494.397056148721
 30
0.0
340
12E5E
  0
CIRCLE
  5
12E61
330
747D
100
AcDbEntity
  8
部品1
 48
5.0
100
AcDbCircle
 10
7697.356645224423
 20
1537.253473397106
 30
0.0
 40
14.0
  0
CIRCLE
  5
12E65
330
747D
100
AcDbEntity
  8
部品1
 48
5.0
100
AcDbCircle
 10
7957.356645224422
 20
1537.253473397106
 30
0.0
 40
14.0
  0
LINE
  5
12E66
330
747D
100
AcDbEntity
  8
部品1
 48
50.0
100
AcDbLine
 10
7996.731645224421
 20
1495.253473397106
 30
0.0
 11
7996.731645224421
 21
1523.253473397105
 31
0.0
  0
LINE
  5
12E67
330
747D
100
AcDbEntity
  8
部品1
 48
5.0
100
AcDbLine
 10
7507.206150475266
 20
1730.799723397104
 30
0.0
 11
7627.507139973592
 21
1730.799723397104
 31
0.0
  0
CIRCLE
  5
12E68
330
747D
100
AcDbEntity
  8
部品1
 48
50.0
100
AcDbCircle
 10
7567.356645224437
 20
1791.000383062655
 30
0.0
 40
12.0401319331104
  0
LINE
  5
12E6C
330
747D
100
AcDbEntity
  8
部品1
 48
50.0
100
AcDbLine
 10
8167.356645224435
 20
1904.635869400447
 30
0.0
 11
8479.248371274591
 21
1904.635869400447
 31
0.0
  0
LINE
  5
12E7B
330
747D
100
AcDbEntity
  8
部品1
 48
50.0
100
AcDbLine
 10
8843.063167324746
 20
1904.635869400447
 30
0.0
 11
8531.17144127459
 21
1904.635869400447
 31
0.0
  0
LINE
  5
12E7C
330
747D
100
AcDbEntity
  8
部品1
 48
5.0
100
AcDbLine
 10
9382.91267257558
 20
1730.799723397104
 30
0.0
 11
9503.213662073909
 21
1730.799723397104
 31
0.0
  0
CIRCLE
  5
12E7D
330
747D
100
AcDbEntity
  8
部品1
 48
50.0
100
AcDbCircle
 10
9443.063167324751
 20
1791.000383062655
 30
0.0
 40
12.0401319331104
  0
LINE
  5
12E7E
330
747D
100
AcDbEntity
  8
部品1
 48
50.0
100
AcDbLine
 10
7477.105820642488
 20
2385.138380227838
 30
0.0
 11
7444.690700689548
 21
2352.723260274901
 31
0.0
  0
LINE
  5
12E7F
330
747D
100
AcDbEntity
  8
部品1
 48
50.0
100
AcDbLine
 10
6800.55072784985
 20
2171.778473397103
 30
0.0
 11
7507.206150475268
 21
2171.778473397104
 31
0.0
  0
DIMENSION
  5
12E80
330
747D
100
AcDbEntity
  8
寸法
 48
50.0
100
AcDbDimension
  2
*D24
 10
5981.671157149674
 20
2371.501958245591
 30
0.0
 11
5981.671157149673
 21
2655.153871953134
 31
0.0
 70
   160
  1
(<>)
 71
     5
 42
49.59142992424358
  3
INABA_S40G詳細用20
100
AcDbAlignedDimension
 13
6363.789827176105
 23
2272.319098397104
 33
0.0
 14
9322.560497758518
 24
2371.50195824559
 34
0.0
 50
90.0
100
AcDbRotatedDimension
  0
LINE
  5
12E85
330
747D
100
AcDbEntity
  8
部品1
 48
50.0
100
AcDbLine
 10
6327.975533552186
 20
2171.778473397103
 30
0.0
 11
6748.627657849846
 21
2171.778473397103
 31
0.0
  0
MTEXT
  5
12E86
330
747D
100
AcDbEntity
  8
寸法
 62
     7
 48
50.0
100
AcDbMText
 10
5522.027965284028
 20
2347.642611346253
 30
0.0
 40
120.0
 41
0.0
 71
     4
 72
     1
  1
▽G.L
  7
STYLE1
 73
     1
 44
1.0
1001
ACAD
1000
MTEXTBEGIN
1070
    73
1070
     1
1070
    44
1040
1.0
1070
    74
1070
     0
1000
MTEXTEND
  0
LINE
  5
12E87
330
747D
100
AcDbEntity
  8
Ｇ．Ｌ
 48
50.0
100
AcDbLine
 10
5506.227576651132
 20
2272.319098397104
 30
0.0
 11
6363.789827176102
 21
2272.319098397104
 31
0.0
  0
LINE
  5
12E88
330
747D
100
AcDbEntity
  8
部品1
 48
50.0
100
AcDbLine
 10
6363.789827176103
 20
2171.778473397103
 30
0.0
 11
6363.789827176105
 21
2272.319098397104
 31
0.0
  0
LINE
  5
12E8A
330
747D
100
AcDbEntity
  8
部品1
 48
50.0
100
AcDbLine
 10
6363.789827176105
 20
2272.319098397104
 30
0.0
 11
6435.610521715038
 21
2342.632458485155
 31
0.0
  0
DIMENSION
  5
12E8B
330
747D
100
AcDbEntity
  8
寸法
 48
50.0
100
AcDbDimension
  2
*D25
 10
6157.711804370893
 20
2171.778473397104
 30
0.0
 11
6157.711804370891
 21
2222.048785897105
 31
0.0
 70
   160
 71
     5
 42
50.27031250000004
  3
INABA_S40G詳細用20
100
AcDbAlignedDimension
 13
6363.789827176105
 23
2272.319098397104
 33
0.0
 14
6327.975533552198
 24
2171.778473397104
 34
0.0
 50
90.0
100
AcDbRotatedDimension
  0
MTEXT
  5
12E97
330
747D
100
AcDbEntity
  8
寸法
 62
     7
 48
50.0
100
AcDbMText
 10
8167.134188600142
 20
2639.512223180492
 30
0.0
 40
120.0
 41
0.0
 71
     4
 72
     1
  1
\A1;水勾配１／１００ 
  7
STYLE1
 73
     1
 44
1.0
1001
ACAD
1000
MTEXTBEGIN
1070
    73
1070
     1
1070
    44
1040
1.0
1070
    74
1070
     0
1000
MTEXTEND
  0
LINE
  5
12E98
330
747D
100
AcDbEntity
  8
部品1
 48
50.0
100
AcDbLine
 10
9266.564750487665
 20
2531.099169784787
 30
0.0
 11
8146.139304852786
 21
2522.790247627517
 31
0.0
  0
LINE
  5
12E99
330
747D
100
AcDbEntity
  8
部品1
 48
50.0
100
AcDbLine
 10
7657.607469806371
 20
2385.138380227838
 30
0.0
 11
7687.593561154648
 21
2355.15228887955
 31
0.0
  0
LINE
  5
12E9D
330
747D
100
AcDbEntity
  8
部品1
 48
50.0
100
AcDbLine
 10
7627.507139973594
 20
2171.778473397103
 30
0.0
 11
8479.248371274591
 21
2171.778473397103
 31
0.0
  0
LINE
  5
12EA5
330
747D
100
AcDbEntity
  8
部品1
 48
50.0
100
AcDbLine
 10
7627.507139973592
 20
2385.138380227838
 30
0.0
 11
7657.607469806364
 21
2385.138380227838
 31
0.0
  0
LINE
  5
12EA6
330
747D
100
AcDbEntity
  8
部品1
 48
50.0
100
AcDbLine
 10
7477.105820642496
 20
2385.138380227838
 30
0.0
 11
7507.206150475266
 21
2385.138380227838
 31
0.0
  0
LINE
  5
12EA7
330
747D
100
AcDbEntity
  8
部品1
 48
50.0
100
AcDbLine
 10
8146.139304852786
 20
2522.790247627517
 30
0.0
 11
8215.364972692066
 21
2513.210654759934
 31
0.0
  0
LINE
  5
12EA8
330
747D
100
AcDbEntity
  8
部品1
 48
50.0
100
AcDbLine
 10
8146.139304852786
 20
2522.790247627517
 30
0.0
 11
8215.129189751021
 21
2533.941815635307
 31
0.0
  0
LINE
  5
12EAC
330
747D
100
AcDbEntity
  8
部品1
 48
50.0
100
AcDbLine
 10
9382.912672575582
 20
2171.778473397103
 30
0.0
 11
8531.17144127459
 21
2171.778473397103
 31
0.0
  0
LINE
  5
12EB2
330
747D
100
AcDbEntity
  8
部品1
 48
50.0
100
AcDbLine
 10
9503.213662073909
 20
2401.753803229882
 30
0.0
 11
9533.313991906686
 21
2401.753803229882
 31
0.0
  0
LINE
  5
12EB3
330
747D
100
AcDbEntity
  8
部品1
 48
50.0
100
AcDbLine
 10
9352.812342742812
 20
2401.753803229882
 30
0.0
 11
9382.912672575582
 21
2401.753803229882
 31
0.0
  0
LINE
  5
12EB4
330
747D
100
AcDbEntity
  8
部品1
 48
50.0
100
AcDbLine
 10
9352.812342742812
 20
2401.753803229882
 30
0.0
 11
9322.560497758518
 21
2371.50195824559
 31
0.0
  0
MTEXT
  5
12EBC
102
{ACAD_REACTORS
330
12EBD
102
}
330
747D
100
AcDbEntity
  8
部品1
 62
     7
 48
5.0
100
AcDbMText
 10
10218.9575592602
 20
1248.586429639761
 30
0.0
 40
120.0
 41
0.0
 71
     4
 72
     1
  1
\A1;4-D10両方向共
  7
STYLE1
 73
     1
 44
1.0
1001
ACAD
1000
MTEXTBEGIN
1070
    73
1070
     1
1070
    44
1040
1.0
1070
    74
1070
     0
1000
MTEXTEND
  0
LEADER
  5
12EBD
330
747D
100
AcDbEntity
  8
寸法
 48
5.0
100
AcDbLeader
  3
INABA_S40G詳細用20
 71
     0
 73
     0
 74
     0
 75
     1
 40
121.669047558312
 41
937.9999999999999
 76
     3
 10
9833.063167324738
 20
1537.253473397106
 30
0.0
 10
10078.9575592602
 20
1147.751905860606
 30
0.0
 10
10178.9575592602
 20
1147.751905860606
 30
0.0
340
12EBC
  0
LINE
  5
12ED6
330
747D
100
AcDbEntity
  8
部品1
 48
50.0
100
AcDbLine
 10
10043.06316732474
 20
1904.635869400445
 30
0.0
 11
10354.95489337491
 21
1904.635869400447
 31
0.0
  0
MTEXT
  5
12EDA
330
747D
100
AcDbEntity
  8
寸法
 62
     7
 48
50.0
100
AcDbMText
 10
9628.612747611242
 20
2646.955097062761
 30
0.0
 40
120.0
 41
0.0
 71
     4
 72
     1
  1
\A1;水勾配１／１００ 
  7
STYLE1
 73
     1
 44
1.0
1001
ACAD
1000
MTEXTBEGIN
1070
    73
1070
     1
1070
    44
1040
1.0
1070
    74
1070
     0
1000
MTEXTEND
  0
LINE
  5
12EDB
330
747D
100
AcDbEntity
  8
部品1
 48
50.0
100
AcDbLine
 10
9619.561584161839
 20
2531.099169784787
 30
0.0
 11
10739.98702979672
 21
2522.790247627517
 31
0.0
  0
LINE
  5
12EE4
330
747D
100
AcDbEntity
  8
部品1
 48
50.0
100
AcDbLine
 10
9563.586884749872
 20
2371.480910386697
 30
0.0
 11
10354.95489337491
 21
2362.480397697104
 31
0.0
  0
LINE
  5
12EE5
330
747D
100
AcDbEntity
  8
部品1
 48
50.0
100
AcDbLine
 10
10739.98702979672
 20
2522.790247627517
 30
0.0
 11
10670.99714489848
 21
2533.941815635307
 31
0.0
  0
LINE
  5
12EE6
330
747D
100
AcDbEntity
  8
部品1
 48
50.0
100
AcDbLine
 10
10739.98702979672
 20
2522.790247627517
 30
0.0
 11
10670.76136195743
 21
2513.210654759934
 31
0.0
  0
LINE
  5
137EE
330
747D
100
AcDbEntity
  8
部品1
 48
50.0
100
AcDbLine
 10
6435.610521715038
 20
2342.632458485155
 30
0.0
 11
6748.627657849848
 21
2345.762629846504
 31
0.0
  0
LINE
  5
137F1
330
747D
100
AcDbEntity
  8
部品1
 48
50.0
100
AcDbLine
 10
8531.17144127459
 20
2363.588067680751
 30
0.0
 11
9322.560497758519
 21
2371.50195824559
 31
0.0
  0
LINE
  5
137F2
330
747D
100
AcDbEntity
  8
部品1
 48
50.0
100
AcDbLine
 10
7687.593561154651
 20
2355.152288879551
 30
0.0
 11
8479.248371274591
 21
2363.068836980751
 31
0.0
  0
LINE
  5
137F3
330
747D
100
AcDbEntity
  8
部品1
 48
50.0
100
AcDbLine
 10
6800.550727849851
 20
2346.281860546504
 30
0.0
 11
7444.690700689548
 21
2352.723260274901
 31
0.0
  0
HATCH
  5
1386B
330
747D
100
AcDbEntity
  8
細線
 48
50.0
100
AcDbHatch
 10
0.0
 20
0.0
 30
0.0
210
0.0
220
0.0
230
1.0
  2
PLAST
 70
     0
 71
     0
 91
        1
 92
        7
 72
     0
 73
     1
 93
        4
 10
8263.570764474556
 20
1371.653473397103
 10
6871.142525974295
 20
1371.653473397103
 10
6871.142525974295
 20
1271.753473397105
 10
8263.570764474556
 20
1271.753473397105
 97
        0
 75
     0
 76
     1
 52
45.0
 41
60.0
 77
     0
 78
     3
 53
45.0
 43
0.0
 44
0.0
 45
-269.4076836320746
 46
269.4076836320746
 79
     0
 53
45.0
 43
-33.67596045400932
 44
33.67596045400933
 45
-269.4076836320746
 46
269.4076836320746
 79
     0
 53
45.0
 43
-67.35192090801864
 44
67.35192090801866
 45
-269.4076836320746
 46
269.4076836320746
 79
     0
 47
2.021456610930475
 98
        1
 10
8049.316621317405
 20
1348.963404449929
  0
LINE
  5
138D8
330
747D
100
AcDbEntity
  8
細線
 48
50.0
100
AcDbLine
 10
6380.534997866067
 20
1934.736199233222
 30
0.0
 11
6393.659637631564
 21
1904.635869400447
 31
0.0
  0
LINE
  5
138D9
330
747D
100
AcDbEntity
  8
細線
 48
50.0
100
AcDbLine
 10
6442.645092865091
 20
2171.778473397104
 30
0.0
 11
6455.803307681155
 21
2141.601141824525
 31
0.0
  0
LINE
  5
138DD
330
747D
100
AcDbEntity
  8
細線
 48
50.0
100
AcDbLine
 10
6583.260863522728
 20
1934.736199233222
 30
0.0
 11
6596.385503288225
 21
1904.635869400447
 31
0.0
  0
LINE
  5
138DE
330
747D
100
AcDbEntity
  8
細線
 48
50.0
100
AcDbLine
 10
6645.370958521751
 20
2171.778473397104
 30
0.0
 11
6658.529173337817
 21
2141.601141824525
 31
0.0
  0
LINE
  5
138DF
330
747D
100
AcDbEntity
  8
細線
 48
50.0
100
AcDbLine
 10
6848.096824178414
 20
2171.778473397104
 30
0.0
 11
6861.255038994478
 21
2141.601141824525
 31
0.0
  0
LINE
  5
138E0
330
747D
100
AcDbEntity
  8
細線
 48
50.0
100
AcDbLine
 10
8267.17788377504
 20
2171.778473397104
 30
0.0
 11
8280.336098591105
 21
2141.601141824525
 31
0.0
  0
LINE
  5
138E1
330
747D
100
AcDbEntity
  8
細線
 48
50.0
100
AcDbLine
 10
8205.067788776018
 20
1934.736199233222
 30
0.0
 11
8218.192428541515
 21
1904.635869400447
 31
0.0
  0
LINE
  5
138E2
330
747D
100
AcDbEntity
  8
細線
 48
50.0
100
AcDbLine
 10
8407.793654432678
 20
1934.736199233222
 30
0.0
 11
8420.918294198175
 21
1904.635869400447
 31
0.0
  0
LINE
  5
138E3
330
747D
100
AcDbEntity
  8
細線
 48
50.0
100
AcDbLine
 10
8469.903749431702
 20
2171.778473397104
 30
0.0
 11
8479.248371274591
 21
2150.347317597077
 31
0.0
  0
LINE
  5
138E4
330
747D
100
AcDbEntity
  8
細線
 48
50.0
100
AcDbLine
 10
8672.629615088364
 20
2171.778473397104
 30
0.0
 11
8685.78782990443
 21
2141.601141824525
 31
0.0
  0
LINE
  5
138E5
330
747D
100
AcDbEntity
  8
細線
 48
50.0
100
AcDbLine
 10
8610.519520089338
 20
1934.736199233222
 30
0.0
 11
8623.644159854837
 21
1904.635869400447
 31
0.0
  0
LINE
  5
138E6
330
747D
100
AcDbEntity
  8
細線
 48
50.0
100
AcDbLine
 10
8813.245385746002
 20
1934.736199233222
 30
0.0
 11
8826.370025511499
 21
1904.635869400447
 31
0.0
  0
LINE
  5
138E8
330
747D
100
AcDbEntity
  8
細線
 48
50.0
100
AcDbLine
 10
10091.71067468499
 20
2171.778473397103
 30
0.0
 11
10104.86888950106
 21
2141.601141824525
 31
0.0
  0
LINE
  5
138EA
330
747D
100
AcDbEntity
  8
細線
 48
50.0
100
AcDbLine
 10
10232.32644534263
 20
1934.736199233222
 30
0.0
 11
10245.45108510813
 21
1904.635869400447
 31
0.0
  0
LINE
  5
138EB
330
747D
100
AcDbEntity
  8
細線
 48
50.0
100
AcDbLine
 10
10294.43654034165
 20
2171.778473397103
 30
0.0
 11
10307.59475515772
 21
2141.601141824525
 31
0.0
  0
TEXT
  5
13C09
330
747D
100
AcDbEntity
  8
文字
 62
     7
 48
50.0
100
AcDbText
 10
14747.8113764045
 20
483.8967129911414
 30
0.0
 40
160.0
  1
BＦ-２４A
  7
STYLE2
100
AcDbText
  0
LINE
  5
13C2B
330
747D
100
AcDbEntity
  8
細線
 48
50.0
100
AcDbLine
 10
8193.290394420325
 20
1271.753473397106
 30
0.0
 11
8208.551436221005
 21
1236.753473397106
 31
0.0
  0
LINE
  5
13C2C
330
747D
100
AcDbEntity
  8
細線
 48
50.0
100
AcDbLine
 10
6884.856645224438
 20
1061.753473397105
 30
0.0
 11
6961.290394420339
 21
1271.753473397103
 31
0.0
  0
LINE
  5
13C2D
330
747D
100
AcDbEntity
  8
細線
 48
50.0
100
AcDbLine
 10
6933.290394420339
 20
1271.753473397103
 30
0.0
 11
6948.55143622102
 21
1236.753473397105
 31
0.0
  0
LINE
  5
13C2E
330
747D
100
AcDbEntity
  8
細線
 48
50.0
100
AcDbLine
 10
6897.595603423757
 20
1096.753473397105
 30
0.0
 11
6912.856645224438
 21
1061.753473397105
 31
0.0
  0
LINE
  5
13C2F
330
747D
100
AcDbEntity
  8
細線
 48
50.0
100
AcDbLine
 10
8900.563167324753
 20
1061.753473397105
 30
0.0
 11
8976.996916520652
 21
1271.753473397103
 31
0.0
  0
LINE
  5
13C30
330
747D
100
AcDbEntity
  8
細線
 48
50.0
100
AcDbLine
 10
8948.996916520654
 20
1271.753473397103
 30
0.0
 11
8964.257958321333
 21
1236.753473397105
 31
0.0
  0
HATCH
  5
13C31
330
747D
100
AcDbEntity
  8
細線
 48
50.0
100
AcDbHatch
 10
0.0
 20
0.0
 30
0.0
210
0.0
220
0.0
230
1.0
  2
PLAST
 70
     0
 71
     0
 91
        1
 92
        7
 72
     0
 73
     1
 93
        4
 10
10139.27728657487
 20
1371.653473397103
 10
8746.849048074611
 20
1371.653473397103
 10
8746.849048074611
 20
1271.753473397105
 10
10139.27728657487
 20
1271.753473397105
 97
        0
 75
     0
 76
     1
 52
45.0
 41
60.0
 77
     0
 78
     3
 53
45.0
 43
1875.706522100315
 44
0.0
 45
-269.4076836320746
 46
269.4076836320746
 79
     0
 53
45.0
 43
1842.030561646305
 44
33.67596045400933
 45
-269.4076836320746
 46
269.4076836320746
 79
     0
 53
45.0
 43
1808.354601192296
 44
67.35192090801866
 45
-269.4076836320746
 46
269.4076836320746
 79
     0
 47
2.021456610930475
 98
        1
 10
9925.023143417718
 20
1348.963404449929
  0
LINE
  5
13C32
330
747D
100
AcDbEntity
  8
部品1
 48
50.0
100
AcDbLine
 10
8746.849048074611
 20
1271.753473397105
 30
0.0
 11
10139.27728657487
 21
1271.753473397105
 31
0.0
  0
LINE
  5
13C33
330
747D
100
AcDbEntity
  8
部品1
 48
50.0
100
AcDbLine
 10
8746.849048074611
 20
1061.753473397105
 30
0.0
 11
10139.27728657487
 21
1061.753473397105
 31
0.0
  0
LINE
  5
13C34
330
747D
100
AcDbEntity
  8
部品1
 48
50.0
100
AcDbLine
 10
8746.849048074611
 20
1371.653473397103
 30
0.0
 11
10139.27728657487
 21
1371.653473397103
 31
0.0
  0
LINE
  5
13C35
330
747D
100
AcDbEntity
  8
部品1
 48
50.0
100
AcDbLine
 10
8746.849048074611
 20
1371.653473397103
 30
0.0
 11
8746.849048074611
 21
1061.753473397105
 31
0.0
  0
LINE
  5
13C36
330
747D
100
AcDbEntity
  8
細線
 48
50.0
100
AcDbLine
 10
8773.302125524072
 20
1096.753473397105
 30
0.0
 11
8788.563167324751
 21
1061.753473397105
 31
0.0
  0
LINE
  5
13C37
330
747D
100
AcDbEntity
  8
細線
 48
50.0
100
AcDbLine
 10
8760.563167324752
 20
1061.753473397105
 30
0.0
 11
8836.996916520652
 21
1271.753473397103
 31
0.0
  0
LINE
  5
13C38
330
747D
100
AcDbEntity
  8
細線
 48
50.0
100
AcDbLine
 10
8913.30212552407
 20
1096.753473397105
 30
0.0
 11
8928.563167324751
 21
1061.753473397105
 31
0.0
  0
LINE
  5
13C39
330
747D
100
AcDbEntity
  8
細線
 48
50.0
100
AcDbLine
 10
8808.996916520653
 20
1271.753473397103
 30
0.0
 11
8824.257958321334
 21
1236.753473397105
 31
0.0
  0
LINE
  5
13C3A
330
747D
100
AcDbEntity
  8
部品1
 48
50.0
100
AcDbLine
 10
8843.063167324748
 20
1371.653473397103
 30
0.0
 11
8843.063167324746
 21
2171.778473397103
 31
0.0
  0
LINE
  5
13C3B
330
747D
100
AcDbEntity
  8
部品1
 48
50.0
100
AcDbLine
 10
10139.27728657487
 20
1371.653473397103
 30
0.0
 11
10139.27728657487
 21
1061.753473397105
 31
0.0
  0
LINE
  5
13C3C
330
747D
100
AcDbEntity
  8
細線
 48
50.0
100
AcDbLine
 10
9600.563167324752
 20
1061.753473397105
 30
0.0
 11
9676.996916520653
 21
1271.753473397105
 31
0.0
  0
LINE
  5
13C3D
330
747D
100
AcDbEntity
  8
細線
 48
50.0
100
AcDbLine
 10
9613.302125524072
 20
1096.753473397105
 30
0.0
 11
9628.563167324752
 21
1061.753473397105
 31
0.0
  0
LINE
  5
13C3E
330
747D
100
AcDbEntity
  8
細線
 48
50.0
100
AcDbLine
 10
9040.563167324751
 20
1061.753473397105
 30
0.0
 11
9116.996916520653
 21
1271.753473397105
 31
0.0
  0
LINE
  5
13C3F
330
747D
100
AcDbEntity
  8
細線
 48
50.0
100
AcDbLine
 10
9053.302125524071
 20
1096.753473397105
 30
0.0
 11
9068.563167324752
 21
1061.753473397105
 31
0.0
  0
LINE
  5
13C40
330
747D
100
AcDbEntity
  8
細線
 48
50.0
100
AcDbLine
 10
9180.563167324752
 20
1061.753473397105
 30
0.0
 11
9256.996916520654
 21
1271.753473397105
 31
0.0
  0
LINE
  5
13C41
330
747D
100
AcDbEntity
  8
細線
 48
50.0
100
AcDbLine
 10
9193.302125524072
 20
1096.753473397105
 30
0.0
 11
9208.563167324752
 21
1061.753473397105
 31
0.0
  0
LINE
  5
13C42
330
747D
100
AcDbEntity
  8
細線
 48
50.0
100
AcDbLine
 10
9088.996916520654
 20
1271.753473397105
 30
0.0
 11
9104.257958321333
 21
1236.753473397105
 31
0.0
  0
LINE
  5
13C43
330
747D
100
AcDbEntity
  8
細線
 48
50.0
100
AcDbLine
 10
9228.996916520653
 20
1271.753473397105
 30
0.0
 11
9244.257958321334
 21
1236.753473397105
 31
0.0
  0
LINE
  5
13C44
330
747D
100
AcDbEntity
  8
細線
 48
50.0
100
AcDbLine
 10
9460.563167324751
 20
1061.753473397106
 30
0.0
 11
9536.996916520653
 21
1271.753473397106
 31
0.0
  0
LINE
  5
13C45
330
747D
100
AcDbEntity
  8
細線
 48
50.0
100
AcDbLine
 10
9473.302125524071
 20
1096.753473397106
 30
0.0
 11
9488.563167324752
 21
1061.753473397106
 31
0.0
  0
LINE
  5
13C46
330
747D
100
AcDbEntity
  8
細線
 48
50.0
100
AcDbLine
 10
9320.563167324753
 20
1061.753473397106
 30
0.0
 11
9396.996916520654
 21
1271.753473397105
 31
0.0
  0
LINE
  5
13C47
330
747D
100
AcDbEntity
  8
細線
 48
50.0
100
AcDbLine
 10
9333.30212552407
 20
1096.753473397106
 30
0.0
 11
9348.563167324753
 21
1061.753473397106
 31
0.0
  0
LINE
  5
13C48
330
747D
100
AcDbEntity
  8
細線
 48
50.0
100
AcDbLine
 10
9368.996916520654
 20
1271.753473397105
 30
0.0
 11
9384.257958321333
 21
1236.753473397106
 31
0.0
  0
LINE
  5
13C49
330
747D
100
AcDbEntity
  8
細線
 48
50.0
100
AcDbLine
 10
9508.996916520652
 20
1271.753473397106
 30
0.0
 11
9524.257958321333
 21
1236.753473397106
 31
0.0
  0
LINE
  5
13C4A
330
747D
100
AcDbEntity
  8
細線
 48
50.0
100
AcDbLine
 10
9880.563167324751
 20
1061.753473397106
 30
0.0
 11
9956.996916520653
 21
1271.753473397106
 31
0.0
  0
LINE
  5
13C4B
330
747D
100
AcDbEntity
  8
細線
 48
50.0
100
AcDbLine
 10
9893.302125524073
 20
1096.753473397106
 30
0.0
 11
9908.563167324752
 21
1061.753473397106
 31
0.0
  0
LINE
  5
13C4C
330
747D
100
AcDbEntity
  8
細線
 48
50.0
100
AcDbLine
 10
9740.563167324751
 20
1061.753473397106
 30
0.0
 11
9816.996916520654
 21
1271.753473397105
 31
0.0
  0
LINE
  5
13C4D
330
747D
100
AcDbEntity
  8
細線
 48
50.0
100
AcDbLine
 10
9753.302125524072
 20
1096.753473397106
 30
0.0
 11
9768.563167324751
 21
1061.753473397106
 31
0.0
  0
LINE
  5
13C4E
330
747D
100
AcDbEntity
  8
細線
 48
50.0
100
AcDbLine
 10
9648.996916520653
 20
1271.753473397105
 30
0.0
 11
9664.257958321334
 21
1236.753473397105
 31
0.0
  0
LINE
  5
13C4F
330
747D
100
AcDbEntity
  8
細線
 48
50.0
100
AcDbLine
 10
9928.996916520652
 20
1271.753473397106
 30
0.0
 11
9944.257958321335
 21
1236.753473397106
 31
0.0
  0
LINE
  5
13C50
330
747D
100
AcDbEntity
  8
細線
 48
50.0
100
AcDbLine
 10
9788.996916520654
 20
1271.753473397105
 30
0.0
 11
9804.257958321334
 21
1236.753473397106
 31
0.0
  0
LINE
  5
13C51
330
747D
100
AcDbEntity
  8
細線
 48
50.0
100
AcDbLine
 10
10020.56316732475
 20
1061.753473397105
 30
0.0
 11
10096.99691652064
 21
1271.753473397104
 31
0.0
  0
LINE
  5
13C52
330
747D
100
AcDbEntity
  8
細線
 48
50.0
100
AcDbLine
 10
10033.30212552407
 20
1096.753473397105
 30
0.0
 11
10048.56316732475
 21
1061.753473397105
 31
0.0
  0
LINE
  5
13C53
330
747D
100
AcDbEntity
  8
細線
 48
50.0
100
AcDbLine
 10
10068.99691652064
 20
1271.753473397106
 30
0.0
 11
10084.25795832132
 21
1236.753473397106
 31
0.0
  0
LINE
  5
13C54
330
747D
100
AcDbEntity
  8
部品1
 48
50.0
100
AcDbLine
 10
9872.438167324737
 20
1495.253473397103
 30
0.0
 11
9013.688167324737
 21
1495.253473397106
 31
0.0
  0
LINE
  5
13C55
330
747D
100
AcDbEntity
  8
部品1
 48
50.0
100
AcDbLine
 10
9872.438167324737
 20
1523.253473397105
 30
0.0
 11
9013.688167324737
 21
1523.253473397106
 31
0.0
  0
CIRCLE
  5
13C56
330
747D
100
AcDbEntity
  8
部品1
 48
5.0
100
AcDbCircle
 10
9053.063167324737
 20
1537.253473397106
 30
0.0
 40
14.0
  0
LINE
  5
13C57
330
747D
100
AcDbEntity
  8
部品1
 48
50.0
100
AcDbLine
 10
9013.688167324737
 20
1495.253473397103
 30
0.0
 11
9013.688167324737
 21
1523.253473397106
 31
0.0
  0
CIRCLE
  5
13C58
330
747D
100
AcDbEntity
  8
部品1
 48
5.0
100
AcDbCircle
 10
9573.063167324738
 20
1537.253473397106
 30
0.0
 40
14.0
  0
CIRCLE
  5
13C59
330
747D
100
AcDbEntity
  8
部品1
 48
5.0
100
AcDbCircle
 10
9313.063167324738
 20
1537.253473397106
 30
0.0
 40
14.0
  0
LINE
  5
13C5A
330
747D
100
AcDbEntity
  8
部品1
 48
50.0
100
AcDbLine
 10
10043.06316732475
 20
1371.653473397103
 30
0.0
 11
10043.06316732475
 21
2171.778473397103
 31
0.0
  0
CIRCLE
  5
13C5B
330
747D
100
AcDbEntity
  8
部品1
 48
5.0
100
AcDbCircle
 10
9833.063167324738
 20
1537.253473397106
 30
0.0
 40
14.0
  0
LINE
  5
13C5C
330
747D
100
AcDbEntity
  8
部品1
 48
50.0
100
AcDbLine
 10
9872.438167324737
 20
1495.253473397106
 30
0.0
 11
9872.438167324737
 21
1523.253473397105
 31
0.0
  0
LINE
  5
13C5D
330
747D
100
AcDbEntity
  8
細線
 48
50.0
100
AcDbLine
 10
6369.555001964011
 20
1904.635869400448
 30
0.0
 11
6466.786958123155
 21
2171.778473397104
 31
0.0
  0
LINE
  5
13C5E
330
747D
100
AcDbEntity
  8
細線
 48
50.0
100
AcDbLine
 10
6572.280867620671
 20
1904.635869400448
 30
0.0
 11
6669.512823779817
 21
2171.778473397105
 31
0.0
  0
LINE
  5
13C5F
330
747D
100
AcDbEntity
  8
細線
 48
50.0
100
AcDbLine
 10
6800.550727849854
 20
1974.817417691123
 30
0.0
 11
6872.238689436478
 21
2171.778473397104
 31
0.0
  0
LINE
  5
13C60
330
747D
100
AcDbEntity
  8
細線
 48
50.0
100
AcDbLine
 10
8194.087792873961
 20
1904.635869400447
 30
0.0
 11
8291.319749033107
 21
2171.778473397104
 31
0.0
  0
LINE
  5
13C61
330
747D
100
AcDbEntity
  8
細線
 48
50.0
100
AcDbLine
 10
8396.813658530623
 20
1904.635869400447
 30
0.0
 11
8479.248371274596
 21
2131.123381243741
 31
0.0
  0
LINE
  5
13C62
330
747D
100
AcDbEntity
  8
細線
 48
50.0
100
AcDbLine
 10
8599.539524187285
 20
1904.635869400448
 30
0.0
 11
8696.771480346431
 21
2171.778473397104
 31
0.0
  0
LINE
  5
13C63
330
747D
100
AcDbEntity
  8
細線
 48
50.0
100
AcDbLine
 10
8802.265389843945
 20
1904.635869400447
 30
0.0
 11
8843.063167324748
 21
2016.726841792887
 31
0.0
  0
LINE
  5
13C64
330
747D
100
AcDbEntity
  8
細線
 48
50.0
100
AcDbLine
 10
10043.06316732475
 20
1971.791315752021
 30
0.0
 11
10115.85253994306
 21
2171.778473397104
 31
0.0
  0
LINE
  5
13C65
330
747D
100
AcDbEntity
  8
細線
 48
50.0
100
AcDbLine
 10
10221.34644944057
 20
1904.635869400448
 30
0.0
 11
10318.57840559972
 21
2171.778473397103
 31
0.0
  0
HATCH
  5
13D13
330
747D
100
AcDbEntity
  8
細線
 48
50.0
100
AcDbHatch
 10
0.0
 20
0.0
 30
0.0
210
0.0
220
0.0
230
1.0
  2
PLAST
 70
     0
 71
     0
 91
        2
 92
        7
 72
     0
 73
     1
 93
        8
 10
8167.356645224433
 20
2171.778473397103
 10
7627.507139973594
 20
2171.778473397103
 10
7627.507139973592
 20
1730.799723397104
 10
7507.206150475266
 20
1730.799723397104
 10
7507.206150475266
 20
2171.778473397104
 10
6967.35664522443
 20
2171.778473397103
 10
6967.35664522443
 20
1371.653473397103
 10
8167.356645224433
 20
1371.653473397103
 97
        0
 92
       22
 72
     1
 73
     1
 93
       20
 10
7971.356645224422
 20
1537.253473397106
 42
-0.4142135623731332
 10
7957.356645224422
 20
1523.253473397105
 42
0.0
 10
7996.731645224421
 20
1523.253473397105
 42
0.0
 10
7996.731645224421
 20
1495.253473397103
 42
0.0
 10
7137.981645224423
 20
1495.253473397106
 42
0.0
 10
7137.98164522442
 20
1523.253473397106
 42
0.0
 10
7177.356645224422
 20
1523.253473397106
 42
-0.4142135623731046
 10
7163.356645224422
 20
1537.253473397106
 42
-1.0
 10
7191.356645224423
 20
1537.253473397106
 42
-0.4142135623730951
 10
7177.356645224422
 20
1523.253473397106
 42
0.0
 10
7437.356645224422
 20
1523.253473397106
 42
-0.4142135623731094
 10
7423.356645224422
 20
1537.253473397106
 42
-1.0
 10
7451.356645224421
 20
1537.253473397106
 42
-0.4142135623731094
 10
7437.356645224422
 20
1523.253473397106
 42
0.0
 10
7697.356645224423
 20
1523.253473397105
 42
-0.4142135623731189
 10
7683.356645224423
 20
1537.253473397106
 42
-1.0
 10
7711.356645224423
 20
1537.253473397106
 42
-0.4142135623731189
 10
7697.356645224423
 20
1523.253473397105
 42
0.0
 10
7957.356645224422
 20
1523.253473397105
 42
-0.4142135623731332
 10
7943.356645224422
 20
1537.253473397106
 42
-1.0
 97
        0
 75
     0
 76
     1
 52
315.0
 41
60.0
 77
     0
 78
     3
 53
315.0
 43
0.0
 44
0.0
 45
269.4076836320747
 46
269.4076836320746
 79
     0
 53
315.0
 43
33.67596045400933
 44
33.67596045400932
 45
269.4076836320747
 46
269.4076836320746
 79
     0
 53
315.0
 43
67.35192090801866
 44
67.35192090801864
 45
269.4076836320747
 46
269.4076836320746
 79
     0
 47
3.228008460117151
 98
        2
 10
7827.483671423215
 20
2033.438737927943
 10
7827.483671423215
 20
2033.438737927943
  0
LINE
  5
13D2A
330
747D
100
AcDbEntity
  8
部品1
 48
50.0
100
AcDbLine
 10
9503.213662073909
 20
1730.799723397104
 30
0.0
 11
9503.213662073909
 21
2556.934212383462
 31
0.0
  0
LINE
  5
13D2B
330
747D
100
AcDbEntity
  8
部品1
 48
50.0
100
AcDbLine
 10
9382.912672575582
 20
2556.934212383462
 30
0.0
 11
9382.912672575582
 21
1730.799723397104
 31
0.0
  0
HATCH
  5
13D5D
330
747D
100
AcDbEntity
  8
細線
 48
50.0
100
AcDbHatch
 10
0.0
 20
0.0
 30
0.0
210
0.0
220
0.0
230
1.0
  2
PLAST
 70
     0
 71
     0
 91
        2
 92
        7
 72
     0
 73
     1
 93
        8
 10
10043.06316732474
 20
2171.778473397103
 10
9503.213662073905
 20
2171.778473397103
 10
9503.213662073909
 20
1730.799723397104
 10
9382.912672575582
 20
1730.799723397104
 10
9382.912672575582
 20
2171.778473397103
 10
8843.063167324746
 20
2171.778473397103
 10
8843.063167324746
 20
1371.653473397103
 10
10043.06316732475
 20
1371.653473397103
 97
        0
 92
       22
 72
     1
 73
     1
 93
       20
 10
9587.063167324737
 20
1537.253473397106
 42
-0.4142135623731189
 10
9573.063167324738
 20
1523.253473397105
 42
0.0
 10
9833.063167324738
 20
1523.253473397105
 42
-0.4142135623731332
 10
9819.063167324737
 20
1537.253473397106
 42
-1.0
 10
9847.063167324737
 20
1537.253473397106
 42
-0.4142135623731332
 10
9833.063167324738
 20
1523.253473397105
 42
0.0
 10
9872.438167324737
 20
1523.253473397105
 42
0.0
 10
9872.438167324737
 20
1495.253473397102
 42
0.0
 10
9013.688167324737
 20
1495.253473397106
 42
0.0
 10
9013.688167324737
 20
1523.253473397106
 42
0.0
 10
9053.063167324737
 20
1523.253473397106
 42
-0.4142135623731046
 10
9039.063167324737
 20
1537.253473397106
 42
-1.0
 10
9067.063167324738
 20
1537.253473397106
 42
-0.4142135623730951
 10
9053.063167324737
 20
1523.253473397106
 42
0.0
 10
9313.063167324738
 20
1523.253473397106
 42
-0.4142135623731094
 10
9299.063167324737
 20
1537.253473397106
 42
-1.0
 10
9327.063167324737
 20
1537.253473397106
 42
-0.4142135623731094
 10
9313.063167324738
 20
1523.253473397106
 42
0.0
 10
9573.063167324738
 20
1523.253473397105
 42
-0.4142135623731189
 10
9559.063167324737
 20
1537.253473397106
 42
-1.0
 97
        0
 75
     0
 76
     1
 52
315.0
 41
60.0
 77
     0
 78
     3
 53
315.0
 43
0.0
 44
0.0
 45
269.4076836320747
 46
269.4076836320746
 79
     0
 53
315.0
 43
33.67596045400933
 44
33.67596045400932
 45
269.4076836320747
 46
269.4076836320746
 79
     0
 53
315.0
 43
67.35192090801866
 44
67.35192090801864
 45
269.4076836320747
 46
269.4076836320746
 79
     0
 47
4.770536170264612
 98
        2
 10
9647.808420859298
 20
1925.259069847281
 10
9647.808420859298
 20
1925.259069847281
  0
HATCH
  5
13D86
330
747D
100
AcDbEntity
  8
細線
 48
50.0
100
AcDbHatch
 10
0.0
 20
0.0
 30
0.0
210
0.0
220
0.0
230
1.0
  2
PLAST
 70
     0
 71
     0
 91
        5
 92
        7
 72
     0
 73
     1
 93
        6
 10
10354.9548933749
 20
2362.480397697104
 10
9563.586884749872
 20
2371.480910386698
 10
9533.313991906684
 20
2401.753803229881
 10
9503.213662073909
 20
2401.753803229882
 10
9503.213662073909
 20
2171.778473397103
 10
10354.95489337491
 20
2171.778473397103
 97
        0
 92
        7
 72
     0
 73
     1
 93
        6
 10
9382.912672575582
 20
2401.753803229882
 10
9352.81234274281
 20
2401.753803229881
 10
9322.560497758514
 20
2371.50195824559
 10
8531.17144127459
 20
2363.588067680751
 10
8531.171441274588
 20
2171.778473397103
 10
9382.912672575582
 20
2171.778473397103
 97
        0
 92
        7
 72
     0
 73
     1
 93
        6
 10
8479.248371274591
 20
2363.068836980751
 10
7687.593561154648
 20
2355.152288879551
 10
7657.607469806372
 20
2385.138380227838
 10
7627.507139973592
 20
2385.138380227838
 10
7627.507139973592
 20
2171.778473397104
 10
8479.248371274595
 20
2171.778473397104
 97
        0
 92
        7
 72
     0
 73
     1
 93
        6
 10
7507.206150475266
 20
2385.138380227838
 10
7477.105820642489
 20
2385.138380227838
 10
7444.690700689548
 20
2352.723260274901
 10
6800.550727849851
 20
2346.281860546503
 10
6800.550727849851
 20
2171.778473397103
 10
7507.206150475266
 20
2171.778473397104
 97
        0
 92
        7
 72
     0
 73
     1
 93
        5
 10
6748.627657849849
 20
2345.762629846503
 10
6435.610521715038
 20
2342.632458485155
 10
6363.789827176105
 20
2272.319098397103
 10
6363.789827176105
 20
2171.778473397104
 10
6748.627657849846
 20
2171.778473397104
 97
        0
 75
     0
 76
     1
 52
45.0
 41
60.0
 77
     0
 78
     3
 53
45.0
 43
0.0
 44
0.0
 45
-269.4076836320746
 46
269.4076836320746
 79
     0
 53
45.0
 43
-33.67596045400932
 44
33.67596045400933
 45
-269.4076836320746
 46
269.4076836320746
 79
     0
 53
45.0
 43
-67.35192090801864
 44
67.35192090801866
 45
-269.4076836320746
 46
269.4076836320746
 79
     0
 47
4.770536170264612
 98
        5
 10
9676.443011882701
 20
2249.655522388206
 10
9056.026287161541
 20
2278.278737214747
 10
8091.994110641818
 20
2259.1966118372
 10
7223.410664075069
 20
2278.278737214747
 10
6588.676583922584
 20
2249.655522388206
  0
ENDSEC
  0
SECTION
  2
OBJECTS
  0
DICTIONARY
  5
7471
330
0
100
AcDbDictionary
281
     1
  3
ACAD_COLOR
350
12F94
  3
ACAD_GROUP
350
7472
  3
ACAD_LAYOUT
350
12F95
  3
ACAD_MATERIAL
350
12F93
  3
ACAD_MLINESTYLE
350
7473
  3
ACAD_PLOTSETTINGS
350
12F96
  3
ACAD_PLOTSTYLENAME
350
12F91
  3
ACDBHEADERROUNDTRIPXREC
350
13D96
  3
ACDBVARIABLEDICTIONARY
350
11B74
  3
CONTENTDICTIONARY
350
E71C
  3
DRAWINGVARIABLESDICT
350
F3B9
  0
DICTIONARY
  5
12F94
102
{ACAD_REACTORS
330
7471
102
}
330
7471
100
AcDbDictionary
281
     1
  0
DICTIONARY
  5
7472
102
{ACAD_REACTORS
330
7471
102
}
330
7471
100
AcDbDictionary
281
     1
  0
DICTIONARY
  5
12F95
102
{ACAD_REACTORS
330
7471
102
}
330
7471
100
AcDbDictionary
281
     1
  3
Model
350
12F97
  3
レイアウト1
350
12F98
  0
DICTIONARY
  5
12F93
102
{ACAD_REACTORS
330
7471
102
}
330
7471
100
AcDbDictionary
281
     1
  0
DICTIONARY
  5
7473
102
{ACAD_REACTORS
330
7471
102
}
330
7471
100
AcDbDictionary
281
     1
  3
STANDARD
350
7480
  0
DICTIONARY
  5
12F96
102
{ACAD_REACTORS
330
7471
102
}
330
7471
100
AcDbDictionary
281
     1
  0
ACDBDICTIONARYWDFLT
  5
12F91
102
{ACAD_REACTORS
330
7471
102
}
330
7471
100
AcDbDictionary
281
     1
  3
Normal
350
12F92
100
AcDbDictionaryWithDefault
340
12F92
  0
DICTIONARY
  5
13D96
102
{ACAD_REACTORS
330
7471
102
}
330
7471
100
AcDbDictionary
281
     1
  3
COLORDICT
350
13D98
  3
MATERIALDICT
350
13D97
  0
DICTIONARY
  5
11B74
102
{ACAD_REACTORS
330
7471
102
}
330
7471
100
AcDbDictionary
281
     1
  3
DIMASSOC
350
13D88
  3
PROJECTNAME
350
13D89
  3
SORTENTS
350
11B75
  0
DICTIONARY
  5
E71C
102
{ACAD_REACTORS
330
7471
102
}
330
7471
100
AcDbDictionary
281
     1
  0
DICTIONARY
  5
F3B9
102
{ACAD_REACTORS
330
7471
102
}
330
7471
100
AcDbDictionary
281
     1
1001
DRAWINGVARIABLESXDATA
1000
POLARMODE
1000
1
  0
LAYOUT
  5
12F97
102
{ACAD_XDICTIONARY
360
13D99
102
}
102
{ACAD_REACTORS
330
12F95
102
}
330
12F95
100
AcDbPlotSettings
  1

  2
iR C3880
  4
A3
  6

 40
5.873749732971191
 41
5.873747825622558
 42
5.873748779296875
 43
5.873748779296875
 44
296.9259948730469
 45
419.9466552734374
 46
0.0
 47
0.0
 48
0.0
 49
0.0
140
0.0
141
0.0
142
1.0
143
41.65811991999086
 70
 11952
 72
     1
 73
     1
 74
     2
  7
inaba.ctb
 75
     0
147
0.0240049239360925
148
0.0
149
0.0
100
AcDbLayout
  1
Model
 70
     1
 71
     0
 10
0.0
 20
0.0
 11
12.0
 21
9.0
 12
0.0
 22
0.0
 32
0.0
 14
0.0
 24
0.0
 34
0.0
 15
0.0
 25
0.0
 35
0.0
146
0.0
 13
0.0
 23
0.0
 33
0.0
 16
1.0
 26
0.0
 36
0.0
 17
0.0
 27
1.0
 37
0.0
 76
     0
330
747D
  0
LAYOUT
  5
12F98
102
{ACAD_XDICTIONARY
360
13D9B
102
}
102
{ACAD_REACTORS
330
12F95
102
}
330
12F95
100
AcDbPlotSettings
  1

  2
Microsoft XPS Document Writer
  4

  6

 40
0.0
 41
0.0
 42
0.0
 43
0.0
 44
0.0
 45
0.0
 46
0.0
 47
0.0
 48
0.0
 49
0.0
140
0.0
141
0.0
142
1.0
143
1.0
 70
   688
 72
     0
 73
     0
 74
     5
  7
inaba.ctb
 75
    16
147
1.0
148
0.0
149
0.0
100
AcDbLayout
  1
レイアウト1
 70
     0
 71
     1
 10
0.0
 20
0.0
 11
420.0
 21
297.0
 12
0.0
 22
0.0
 32
0.0
 14
1.000000000000000E+20
 24
1.000000000000000E+20
 34
1.000000000000000E+20
 15
-1.000000000000000E+20
 25
-1.000000000000000E+20
 35
-1.000000000000000E+20
146
0.0
 13
0.0
 23
0.0
 33
0.0
 16
1.0
 26
0.0
 36
0.0
 17
0.0
 27
1.0
 37
0.0
 76
     0
330
747A
  0
MLINESTYLE
  5
7480
102
{ACAD_REACTORS
330
7473
102
}
330
7473
100
AcDbMlineStyle
  2
STANDARD
 70
     0
  3

 62
     0
 51
90.0
 52
90.0
 71
     2
 49
0.5
 62
   256
  6
BYLAYER
 49
-0.5
 62
   256
  6
BYLAYER
  0
ACDBPLACEHOLDER
  5
12F92
102
{ACAD_REACTORS
330
12F91
102
}
330
12F91
  0
XRECORD
  5
13D98
102
{ACAD_REACTORS
330
13D96
102
}
330
13D96
100
AcDbXrecord
280
     1
340
12F94
  0
XRECORD
  5
13D97
102
{ACAD_REACTORS
330
13D96
102
}
330
13D96
100
AcDbXrecord
280
     1
340
12F93
  0
DICTIONARYVAR
  5
13D88
102
{ACAD_REACTORS
330
11B74
102
}
330
11B74
100
DictionaryVariables
280
     0
  1
1
  0
DICTIONARYVAR
  5
13D89
102
{ACAD_REACTORS
330
11B74
102
}
330
11B74
100
DictionaryVariables
280
     0
  1

  0
DICTIONARYVAR
  5
11B75
102
{ACAD_REACTORS
330
11B74
102
}
330
11B74
100
DictionaryVariables
280
     0
  1
96
  0
DICTIONARY
  5
13D99
330
12F97
100
AcDbDictionary
280
     1
281
     1
  3
ACAD_XREC_ROUNDTRIP
360
13D9A
  0
DICTIONARY
  5
13D9B
330
12F98
100
AcDbDictionary
280
     1
281
     1
  3
ACAD_XREC_ROUNDTRIP
360
13D9C
  0
XRECORD
  5
13D9A
102
{ACAD_REACTORS
330
13D99
102
}
330
13D99
100
AcDbXrecord
280
     1
102
SHADEPLOT
 70
     0
102
SHADEPLOTRESLEVEL
 70
     2
102
SHADEPLOTCUSTOMDPI
 70
   300
  0
XRECORD
  5
13D9C
102
{ACAD_REACTORS
330
13D9B
102
}
330
13D9B
100
AcDbXrecord
280
     1
102
SHADEPLOT
 70
     0
102
SHADEPLOTRESLEVEL
 70
     2
102
SHADEPLOTCUSTOMDPI
 70
   300
  0
ENDSEC
  0
EOF
