  0
SECTION
  2
HEADER
  9
$ACADVER
  1
AC1015
  9
$ACADMAINTVER
 70
    20
  9
$DWGCODEPAGE
  3
ANSI_932
  9
$INSBASE
 10
0.0
 20
0.0
 30
0.0
  9
$EXTMIN
 10
139.196816621341
 20
-0.1809895088663325
 30
-0.0000000000000053
  9
$EXTMAX
 10
16308.32523385566
 20
11409.92679107295
 30
0.0000000000000099
  9
$LIMMIN
 10
0.0
 20
0.0
  9
$LIMMAX
 10
16800.0
 20
11880.0
  9
$ORTHOMODE
 70
     0
  9
$REGENMODE
 70
     1
  9
$FILLMODE
 70
     1
  9
$QTEXTMODE
 70
     0
  9
$MIRRTEXT
 70
     1
  9
$LTSCALE
 40
5.0
  9
$ATTMODE
 70
     1
  9
$TEXTSIZE
 40
100.0
  9
$TRACEWID
 40
1.0
  9
$TEXTSTYLE
  7
STYLE2
  9
$CLAYER
  8
部品1
  9
$CELTYPE
  6
BYLAYER
  9
$CECOLOR
 62
   256
  9
$CELTSCALE
 40
50.0
  9
$DISPSILH
 70
     0
  9
$DIMSCALE
 40
40.0
  9
$DIMASZ
 40
2.5
  9
$DIMEXO
 40
0.5
  9
$DIMDLI
 40
7.0
  9
$DIMRND
 40
0.0
  9
$DIMDLE
 40
0.0
  9
$DIMEXE
 40
1.5
  9
$DIMTP
 40
0.0
  9
$DIMTM
 40
0.0
  9
$DIMTXT
 40
3.0
  9
$DIMCEN
 40
0.0
  9
$DIMTSZ
 40
0.0
  9
$DIMTOL
 70
     0
  9
$DIMLIM
 70
     0
  9
$DIMTIH
 70
     0
  9
$DIMTOH
 70
     0
  9
$DIMSE1
 70
     0
  9
$DIMSE2
 70
     0
  9
$DIMTAD
 70
     3
  9
$DIMZIN
 70
     8
  9
$DIMBLK
  1

  9
$DIMASO
 70
     1
  9
$DIMSHO
 70
     1
  9
$DIMPOST
  1

  9
$DIMAPOST
  1

  9
$DIMALT
 70
     0
  9
$DIMALTD
 70
     2
  9
$DIMALTF
 40
0.0394
  9
$DIMLFAC
 40
1.0
  9
$DIMTOFL
 70
     1
  9
$DIMTVP
 40
0.0
  9
$DIMTIX
 70
     1
  9
$DIMSOXD
 70
     0
  9
$DIMSAH
 70
     1
  9
$DIMBLK1
  1
DOTSMALL
  9
$DIMBLK2
  1
DOTSMALL
  9
$DIMSTYLE
  2
INABA_S40G
  9
$DIMCLRD
 70
     0
  9
$DIMCLRE
 70
     0
  9
$DIMCLRT
 70
     7
  9
$DIMTFAC
 40
1.0
  9
$DIMGAP
 40
1.0
  9
$DIMJUST
 70
     0
  9
$DIMSD1
 70
     0
  9
$DIMSD2
 70
     0
  9
$DIMTOLJ
 70
     1
  9
$DIMTZIN
 70
     0
  9
$DIMALTZ
 70
     0
  9
$DIMALTTZ
 70
     0
  9
$DIMUPT
 70
     0
  9
$DIMDEC
 70
     1
  9
$DIMTDEC
 70
     4
  9
$DIMALTU
 70
     2
  9
$DIMALTTD
 70
     2
  9
$DIMTXSTY
  7
STYLE1
  9
$DIMAUNIT
 70
     0
  9
$DIMADEC
 70
     0
  9
$DIMALTRND
 40
0.0
  9
$DIMAZIN
 70
     0
  9
$DIMDSEP
 70
    46
  9
$DIMATFIT
 70
     3
  9
$DIMFRAC
 70
     0
  9
$DIMLDRBLK
  1
DOTSMALL
  9
$DIMLUNIT
 70
     2
  9
$DIMLWD
 70
    -2
  9
$DIMLWE
 70
    -2
  9
$DIMTMOVE
 70
     0
  9
$LUNITS
 70
     2
  9
$LUPREC
 70
     1
  9
$SKETCHINC
 40
1.0
  9
$FILLETRAD
 40
0.0
  9
$AUNITS
 70
     0
  9
$AUPREC
 70
     0
  9
$MENU
  1
acad
  9
$ELEVATION
 40
0.0
  9
$PELEVATION
 40
0.0
  9
$THICKNESS
 40
0.0
  9
$LIMCHECK
 70
     0
  9
$CHAMFERA
 40
0.0
  9
$CHAMFERB
 40
0.0
  9
$CHAMFERC
 40
0.0
  9
$CHAMFERD
 40
0.0
  9
$SKPOLY
 70
     0
  9
$TDCREATE
 40
2451052.600153125
  9
$TDUCREATE
 40
2451052.225153125
  9
$TDUPDATE
 40
2456251.904997639
  9
$TDUUPDATE
 40
2456251.529997639
  9
$TDINDWG
 40
0.6188025116
  9
$TDUSRTIMER
 40
0.6188025116
  9
$USRTIMER
 70
     1
  9
$ANGBASE
 50
0.0
  9
$ANGDIR
 70
     0
  9
$PDMODE
 70
     3
  9
$PDSIZE
 40
2.0
  9
$PLINEWID
 40
20.0
  9
$SPLFRAME
 70
     0
  9
$SPLINETYPE
 70
     6
  9
$SPLINESEGS
 70
     8
  9
$HANDSEED
  5
14307
  9
$SURFTAB1
 70
     6
  9
$SURFTAB2
 70
     6
  9
$SURFTYPE
 70
     6
  9
$SURFU
 70
     6
  9
$SURFV
 70
     6
  9
$UCSBASE
  2

  9
$UCSNAME
  2

  9
$UCSORG
 10
0.0
 20
0.0
 30
0.0
  9
$UCSXDIR
 10
1.0
 20
0.0
 30
0.0
  9
$UCSYDIR
 10
0.0
 20
1.0
 30
0.0
  9
$UCSORTHOREF
  2

  9
$UCSORTHOVIEW
 70
     0
  9
$UCSORGTOP
 10
0.0
 20
0.0
 30
0.0
  9
$UCSORGBOTTOM
 10
0.0
 20
0.0
 30
0.0
  9
$UCSORGLEFT
 10
0.0
 20
0.0
 30
0.0
  9
$UCSORGRIGHT
 10
0.0
 20
0.0
 30
0.0
  9
$UCSORGFRONT
 10
0.0
 20
0.0
 30
0.0
  9
$UCSORGBACK
 10
0.0
 20
0.0
 30
0.0
  9
$PUCSBASE
  2

  9
$PUCSNAME
  2

  9
$PUCSORG
 10
0.0
 20
0.0
 30
0.0
  9
$PUCSXDIR
 10
1.0
 20
0.0
 30
0.0
  9
$PUCSYDIR
 10
0.0
 20
1.0
 30
0.0
  9
$PUCSORTHOREF
  2

  9
$PUCSORTHOVIEW
 70
     0
  9
$PUCSORGTOP
 10
0.0
 20
0.0
 30
0.0
  9
$PUCSORGBOTTOM
 10
0.0
 20
0.0
 30
0.0
  9
$PUCSORGLEFT
 10
0.0
 20
0.0
 30
0.0
  9
$PUCSORGRIGHT
 10
0.0
 20
0.0
 30
0.0
  9
$PUCSORGFRONT
 10
0.0
 20
0.0
 30
0.0
  9
$PUCSORGBACK
 10
0.0
 20
0.0
 30
0.0
  9
$USERI1
 70
     0
  9
$USERI2
 70
     0
  9
$USERI3
 70
     0
  9
$USERI4
 70
     0
  9
$USERI5
 70
     0
  9
$USERR1
 40
0.0
  9
$USERR2
 40
0.0
  9
$USERR3
 40
0.0
  9
$USERR4
 40
0.0
  9
$USERR5
 40
0.0
  9
$WORLDVIEW
 70
     1
  9
$SHADEDGE
 70
     3
  9
$SHADEDIF
 70
    70
  9
$TILEMODE
 70
     1
  9
$MAXACTVP
 70
    16
  9
$PINSBASE
 10
0.0
 20
0.0
 30
0.0
  9
$PLIMCHECK
 70
     0
  9
$PEXTMIN
 10
1.000000000000000E+20
 20
1.000000000000000E+20
 30
1.000000000000000E+20
  9
$PEXTMAX
 10
-1.000000000000000E+20
 20
-1.000000000000000E+20
 30
-1.000000000000000E+20
  9
$PLIMMIN
 10
0.0
 20
0.0
  9
$PLIMMAX
 10
420.0
 20
297.0
  9
$UNITMODE
 70
     0
  9
$VISRETAIN
 70
     0
  9
$PLINEGEN
 70
     0
  9
$PSLTSCALE
 70
     0
  9
$TREEDEPTH
 70
  3020
  9
$CMLSTYLE
  2
STANDARD
  9
$CMLJUST
 70
     0
  9
$CMLSCALE
 40
1.0
  9
$PROXYGRAPHICS
 70
     1
  9
$MEASUREMENT
 70
     1
  9
$CELWEIGHT
370
    -1
  9
$ENDCAPS
280
     0
  9
$JOINSTYLE
280
     0
  9
$LWDISPLAY
290
     0
  9
$INSUNITS
 70
     0
  9
$HYPERLINKBASE
  1

  9
$STYLESHEET
  1
inaba.ctb
  9
$XEDIT
290
     1
  9
$CEPSNTYPE
380
     0
  9
$PSTYLEMODE
290
     1
  9
$FINGERPRINTGUID
  2
{8F24B9EB-7DC6-42A1-8E64-07F49DD13974}
  9
$VERSIONGUID
  2
{2C6E7E96-361B-4793-9279-BFBA436D1484}
  9
$EXTNAMES
290
     1
  9
$PSVPSCALE
 40
0.0
  9
$OLESTARTUP
290
     0
  0
ENDSEC
  0
SECTION
  2
CLASSES
  0
CLASS
  1
DICTIONARYVAR
  2
AcDbDictionaryVar
  3
ObjectDBX Classes
 90
        0
280
     0
281
     0
  0
CLASS
  1
ACDBDICTIONARYWDFLT
  2
AcDbDictionaryWithDefault
  3
ObjectDBX Classes
 90
        0
280
     0
281
     0
  0
CLASS
  1
ACDBPLACEHOLDER
  2
AcDbPlaceHolder
  3
ObjectDBX Classes
 90
        0
280
     0
281
     0
  0
CLASS
  1
LAYOUT
  2
AcDbLayout
  3
ObjectDBX Classes
 90
        0
280
     0
281
     0
  0
ENDSEC
  0
SECTION
  2
TABLES
  0
TABLE
  2
VPORT
  5
746D
330
0
100
AcDbSymbolTable
 70
     3
  0
VPORT
  5
142FF
330
746D
100
AcDbSymbolTableRecord
100
AcDbViewportTableRecord
  2
*Active
 70
     0
 10
0.0
 20
0.0
 11
1.0
 21
1.0
 12
8223.761025238502
 22
5704.872900782046
 13
0.0
 23
0.0
 14
10.0
 24
10.0
 15
10.0
 25
10.0
 16
0.0
 26
0.0
 36
1.0
 17
0.0
 27
0.0
 37
0.0
 40
11503.25151756616
 41
1.643051771117166
 42
50.0
 43
0.0
 44
0.0
 50
0.0
 51
0.0
 71
     0
 72
     0
 73
     1
 74
     0
 75
     0
 76
     0
 77
     0
 78
     0
281
     0
 65
     1
110
0.0
120
0.0
130
0.0
111
1.0
121
0.0
131
0.0
112
0.0
122
1.0
132
0.0
 79
     0
146
0.0
  0
ENDTAB
  0
TABLE
  2
LTYPE
  5
746A
330
0
100
AcDbSymbolTable
 70
     4
  0
LTYPE
  5
7477
330
746A
100
AcDbSymbolTableRecord
100
AcDbLinetypeTableRecord
  2
BYBLOCK
 70
     0
  3

 72
    65
 73
     0
 40
0.0
  0
LTYPE
  5
7478
330
746A
100
AcDbSymbolTableRecord
100
AcDbLinetypeTableRecord
  2
BYLAYER
 70
     0
  3

 72
    65
 73
     0
 40
0.0
  0
LTYPE
  5
7479
330
746A
100
AcDbSymbolTableRecord
100
AcDbLinetypeTableRecord
  2
CONTINUOUS
 70
     0
  3
Solid line
 72
    65
 73
     0
 40
0.0
  0
LTYPE
  5
7816
330
746A
100
AcDbSymbolTableRecord
100
AcDbLinetypeTableRecord
  2
CENTER
 70
     0
  3
____ _ ____ _ ____ _ ____ _ ____ _ ____ _ ____ 
 72
    65
 73
     4
 40
2.0
 49
1.25
 74
     0
 49
-0.25
 74
     0
 49
0.25
 74
     0
 49
-0.25
 74
     0
  0
LTYPE
  5
781A
330
746A
100
AcDbSymbolTableRecord
100
AcDbLinetypeTableRecord
  2
HIDDEN
 70
     0
  3
__ __ __ __ __ __ __ __ __ __ __ __ __ __ __ __
 72
    65
 73
     2
 40
0.375
 49
0.25
 74
     0
 49
-0.125
 74
     0
  0
LTYPE
  5
781B
330
746A
100
AcDbSymbolTableRecord
100
AcDbLinetypeTableRecord
  2
PHANTOM
 70
     0
  3
______  __  __  ______  __  __  ______  __  __ 
 72
    65
 73
     6
 40
2.5
 49
1.25
 74
     0
 49
-0.25
 74
     0
 49
0.25
 74
     0
 49
-0.25
 74
     0
 49
0.25
 74
     0
 49
-0.25
 74
     0
  0
ENDTAB
  0
TABLE
  2
LAYER
  5
7467
102
{ACAD_XDICTIONARY
360
14233
102
}
330
0
100
AcDbSymbolTable
 70
    12
  0
LAYER
  5
7474
330
7467
100
AcDbSymbolTableRecord
100
AcDbLayerTableRecord
  2
0
 70
     0
 62
     7
  6
CONTINUOUS
370
    -3
390
1397D
  0
LAYER
  5
DEB2
330
7467
100
AcDbSymbolTableRecord
100
AcDbLayerTableRecord
  2
センター
 70
     0
 62
     3
  6
CENTER
370
    -3
390
1397D
  0
LAYER
  5
DEB3
330
7467
100
AcDbSymbolTableRecord
100
AcDbLayerTableRecord
  2
寸法
 70
     0
 62
     4
  6
CONTINUOUS
370
    -3
390
1397D
  0
LAYER
  5
DEB4
330
7467
100
AcDbSymbolTableRecord
100
AcDbLayerTableRecord
  2
部品1
 70
     0
 62
     7
  6
CONTINUOUS
370
    -3
390
1397D
  0
LAYER
  5
DEB5
330
7467
100
AcDbSymbolTableRecord
100
AcDbLayerTableRecord
  2
補助
 70
     0
 62
    -1
  6
CONTINUOUS
370
    -3
390
1397D
  0
LAYER
  5
DEB6
330
7467
100
AcDbSymbolTableRecord
100
AcDbLayerTableRecord
  2
文字
 70
     0
 62
     7
  6
CONTINUOUS
370
    -3
390
1397D
  0
LAYER
  5
F255
330
7467
100
AcDbSymbolTableRecord
100
AcDbLayerTableRecord
  2
DEFPOINTS
 70
     0
 62
     7
  6
CONTINUOUS
290
     0
370
    -3
390
1397D
  0
LAYER
  5
10B54
330
7467
100
AcDbSymbolTableRecord
100
AcDbLayerTableRecord
  2
仕様書枠
 70
     0
 62
   230
  6
CONTINUOUS
370
    -3
390
1397D
  0
LAYER
  5
11729
330
7467
100
AcDbSymbolTableRecord
100
AcDbLayerTableRecord
  2
Ｇ．Ｌ
 70
     0
 62
   230
  6
CONTINUOUS
370
    -3
390
1397D
  0
LAYER
  5
1173F
330
7467
100
AcDbSymbolTableRecord
100
AcDbLayerTableRecord
  2
細線
 70
     0
 62
     6
  6
CONTINUOUS
370
    -3
390
1397D
  0
LAYER
  5
11740
330
7467
100
AcDbSymbolTableRecord
100
AcDbLayerTableRecord
  2
点線
 70
     0
 62
     2
  6
HIDDEN
370
    -3
390
1397D
  0
LAYER
  5
12296
330
7467
100
AcDbSymbolTableRecord
100
AcDbLayerTableRecord
  2
想像線
 70
     0
 62
     6
  6
PHANTOM
370
    -3
390
1397D
  0
ENDTAB
  0
TABLE
  2
STYLE
  5
7468
330
0
100
AcDbSymbolTable
 70
     5
  0
STYLE
  5
7475
330
7468
100
AcDbSymbolTableRecord
100
AcDbTextStyleTableRecord
  2
STANDARD
 70
     0
 40
0.0
 41
1.0
 50
0.0
 71
     0
 42
4.0
  3
txt
  4
C:\AutoCAD LT\bigfont.shx
  0
STYLE
  5
F706
330
7468
100
AcDbSymbolTableRecord
100
AcDbTextStyleTableRecord
  2
STYLE1
 70
     0
 40
0.0
 41
1.0
 50
0.0
 71
     0
 42
4.0
  3
isocp.shx
  4
bigfont.shx
  0
STYLE
  5
103BF
330
7468
100
AcDbSymbolTableRecord
100
AcDbTextStyleTableRecord
  2
STYLE2
 70
     0
 40
0.0
 41
1.0
 50
0.0
 71
     0
 42
100.0
  3
MS PGothic.ttf
  4

1001
ACAD
1000
MS PGothic
1071
    32818
  0
STYLE
  5
10BAA
330
7468
100
AcDbSymbolTableRecord
100
AcDbTextStyleTableRecord
  2
STYLE3
 70
     0
 40
0.0
 41
1.0
 50
0.0
 71
     0
 42
100.0
  3
DFPGothic-EB.ttf
  4

1001
ACAD
1000
DFPGothic-EB
1071
    32818
  0
STYLE
  5
132C9
330
7468
100
AcDbSymbolTableRecord
100
AcDbTextStyleTableRecord
  2
ISOCP
 70
     0
 40
0.0
 41
1.0
 50
0.0
 71
     0
 42
120.0
  3
isocp.shx
  4
bigfont.shx
  0
ENDTAB
  0
TABLE
  2
VIEW
  5
746B
330
0
100
AcDbSymbolTable
 70
     0
  0
ENDTAB
  0
TABLE
  2
UCS
  5
746C
330
0
100
AcDbSymbolTable
 70
     0
  0
ENDTAB
  0
TABLE
  2
APPID
  5
746E
330
0
100
AcDbSymbolTable
 70
     6
  0
APPID
  5
7476
330
746E
100
AcDbSymbolTableRecord
100
AcDbRegAppTableRecord
  2
ACAD
 70
     0
  0
APPID
  5
DEA9
330
746E
100
AcDbSymbolTableRecord
100
AcDbRegAppTableRecord
  2
CONTENTBLOCKICON
 70
     0
  0
APPID
  5
DEAA
330
746E
100
AcDbSymbolTableRecord
100
AcDbRegAppTableRecord
  2
CONTENTBLOCKDESCRIPTION
 70
     0
  0
APPID
  5
E71D
330
746E
100
AcDbSymbolTableRecord
100
AcDbRegAppTableRecord
  2
CONTENTTABDATA
 70
     0
  0
APPID
  5
E71E
330
746E
100
AcDbSymbolTableRecord
100
AcDbRegAppTableRecord
  2
CONTENTCURRENTTAB
 70
     0
  0
APPID
  5
F3BA
330
746E
100
AcDbSymbolTableRecord
100
AcDbRegAppTableRecord
  2
DRAWINGVARIABLESXDATA
 70
     0
  0
ENDTAB
  0
TABLE
  2
DIMSTYLE
  5
746F
330
0
100
AcDbSymbolTable
 70
     2
100
AcDbDimStyleTable
 71
     2
340
F71F
340
13B67
  0
DIMSTYLE
105
F71F
102
{ACAD_REACTORS
330
12C3E
330
11934
330
118E6
330
12469
330
118C5
330
118AB
330
11892
330
11935
330
118DA
330
1189E
330
11886
330
118B8
330
12328
330
1231E
330
1190F
330
12688
330
12670
330
1233D
102
}
330
746F
100
AcDbSymbolTableRecord
100
AcDbDimStyleTableRecord
  2
INABA_S40G
 70
     0
 40
40.0
 41
2.5
 42
0.5
 43
7.0
 44
1.5
 73
     0
 74
     0
 77
     3
 78
     8
140
3.0
141
0.0
143
0.0394
147
1.0
172
     1
173
     1
174
     1
178
     7
271
     1
340
F706
341
F770
343
F770
344
F770
  0
DIMSTYLE
105
13B67
102
{ACAD_REACTORS
330
13B90
330
13B8A
330
13B99
330
13B9A
330
13BA1
330
13BB2
330
13BD1
330
13BD3
330
13BE3
102
}
330
746F
100
AcDbSymbolTableRecord
100
AcDbDimStyleTableRecord
  2
INABA_S40G詳細用20
 70
     0
 40
40.0
 41
2.5
 42
0.5
 43
7.0
 44
1.5
 73
     0
 74
     0
 77
     3
 78
     8
140
3.0
141
0.0
143
0.0394
144
0.5
147
1.0
172
     1
173
     1
174
     1
178
     7
271
     0
272
     0
340
F706
341
F770
343
F770
344
F770
  0
ENDTAB
  0
TABLE
  2
BLOCK_RECORD
  5
7466
330
0
100
AcDbSymbolTable
 70
    25
  0
BLOCK_RECORD
  5
747D
330
7466
100
AcDbSymbolTableRecord
100
AcDbBlockTableRecord
  2
*MODEL_SPACE
340
13982
  0
BLOCK_RECORD
  5
747A
330
7466
100
AcDbSymbolTableRecord
100
AcDbBlockTableRecord
  2
*PAPER_SPACE
340
13983
  0
BLOCK_RECORD
  5
DEAC
330
7466
100
AcDbSymbolTableRecord
100
AcDbBlockTableRecord
  2
_OPEN
340
0
  0
BLOCK_RECORD
  5
F770
330
7466
100
AcDbSymbolTableRecord
100
AcDbBlockTableRecord
  2
_DOTSMALL
340
0
102
{BLKREFS
331
14059
331
1405A
331
1406B
331
1406C
331
14076
331
14077
331
1407F
331
14080
331
14088
331
14089
331
1409C
331
1409D
331
140AF
331
140B0
331
140B8
331
140B9
331
1415F
331
14160
331
14168
331
14169
331
141FF
331
14200
331
14269
331
1426A
331
14272
331
14273
331
1427B
331
1427C
331
14285
331
14286
331
1428E
331
1428F
331
14298
331
14299
331
142A3
331
142A4
331
142AC
331
142AD
331
142B5
331
142B6
331
142C7
331
142C8
331
142D9
331
142DA
331
142E2
331
142E3
102
}
  0
BLOCK_RECORD
  5
1187B
330
7466
100
AcDbSymbolTableRecord
100
AcDbBlockTableRecord
  2
*D2
340
0
  0
BLOCK_RECORD
  5
11887
330
7466
100
AcDbSymbolTableRecord
100
AcDbBlockTableRecord
  2
*D3
340
0
  0
BLOCK_RECORD
  5
11893
330
7466
100
AcDbSymbolTableRecord
100
AcDbBlockTableRecord
  2
*D4
340
0
  0
BLOCK_RECORD
  5
1189F
330
7466
100
AcDbSymbolTableRecord
100
AcDbBlockTableRecord
  2
*D5
340
0
  0
BLOCK_RECORD
  5
118AC
330
7466
100
AcDbSymbolTableRecord
100
AcDbBlockTableRecord
  2
*D6
340
0
  0
BLOCK_RECORD
  5
118B9
330
7466
100
AcDbSymbolTableRecord
100
AcDbBlockTableRecord
  2
*D7
340
0
  0
BLOCK_RECORD
  5
118D1
330
7466
100
AcDbSymbolTableRecord
100
AcDbBlockTableRecord
  2
*D8
340
0
  0
BLOCK_RECORD
  5
118DB
330
7466
100
AcDbSymbolTableRecord
100
AcDbBlockTableRecord
  2
*D9
340
0
  0
BLOCK_RECORD
  5
11906
330
7466
100
AcDbSymbolTableRecord
100
AcDbBlockTableRecord
  2
*D10
340
0
  0
BLOCK_RECORD
  5
11928
330
7466
100
AcDbSymbolTableRecord
100
AcDbBlockTableRecord
  2
*D11
340
0
  0
BLOCK_RECORD
  5
12312
330
7466
100
AcDbSymbolTableRecord
100
AcDbBlockTableRecord
  2
*D12
340
0
  0
BLOCK_RECORD
  5
1231F
330
7466
100
AcDbSymbolTableRecord
100
AcDbBlockTableRecord
  2
*D13
340
0
  0
BLOCK_RECORD
  5
12335
330
7466
100
AcDbSymbolTableRecord
100
AcDbBlockTableRecord
  2
*D14
340
0
  0
BLOCK_RECORD
  5
1245D
330
7466
100
AcDbSymbolTableRecord
100
AcDbBlockTableRecord
  2
*D15
340
0
  0
BLOCK_RECORD
  5
12664
330
7466
100
AcDbSymbolTableRecord
100
AcDbBlockTableRecord
  2
*D16
340
0
  0
BLOCK_RECORD
  5
1267D
330
7466
100
AcDbSymbolTableRecord
100
AcDbBlockTableRecord
  2
*D17
340
0
  0
BLOCK_RECORD
  5
13C17
330
7466
100
AcDbSymbolTableRecord
100
AcDbBlockTableRecord
  2
*D18
340
0
  0
BLOCK_RECORD
  5
13C23
330
7466
100
AcDbSymbolTableRecord
100
AcDbBlockTableRecord
  2
*D19
340
0
  0
BLOCK_RECORD
  5
13C2F
330
7466
100
AcDbSymbolTableRecord
100
AcDbBlockTableRecord
  2
*D20
340
0
  0
BLOCK_RECORD
  5
13C3B
330
7466
100
AcDbSymbolTableRecord
100
AcDbBlockTableRecord
  2
*D21
340
0
  0
BLOCK_RECORD
  5
13C47
330
7466
100
AcDbSymbolTableRecord
100
AcDbBlockTableRecord
  2
*D22
340
0
  0
BLOCK_RECORD
  5
13C55
330
7466
100
AcDbSymbolTableRecord
100
AcDbBlockTableRecord
  2
*D23
340
0
  0
BLOCK_RECORD
  5
13C62
330
7466
100
AcDbSymbolTableRecord
100
AcDbBlockTableRecord
  2
*D24
340
0
  0
ENDTAB
  0
ENDSEC
  0
SECTION
  2
BLOCKS
  0
BLOCK
  5
7489
330
747D
100
AcDbEntity
  8
0
100
AcDbBlockBegin
  2
*MODEL_SPACE
 70
     0
 10
0.0
 20
0.0
 30
0.0
  3
*MODEL_SPACE
  1

  0
ENDBLK
  5
748A
330
747D
100
AcDbEntity
  8
0
100
AcDbBlockEnd
  0
BLOCK
  5
7487
330
747A
100
AcDbEntity
 67
     1
  8
0
100
AcDbBlockBegin
  2
*PAPER_SPACE
 70
     0
 10
0.0
 20
0.0
 30
0.0
  3
*PAPER_SPACE
  1

  0
ENDBLK
  5
7488
330
747A
100
AcDbEntity
 67
     1
  8
0
100
AcDbBlockEnd
  0
BLOCK
  5
DEAD
330
DEAC
100
AcDbEntity
  8
0
100
AcDbBlockBegin
  2
_OPEN
 70
     0
 10
0.0
 20
0.0
 30
0.0
  3
_OPEN
  1

  0
LINE
  5
DEAE
330
DEAC
100
AcDbEntity
  8
0
  6
ByBlock
 62
     0
100
AcDbLine
 10
-1.0
 20
0.1666666666666666
 30
0.0
 11
0.0
 21
0.0
 31
0.0
  0
LINE
  5
DEAF
330
DEAC
100
AcDbEntity
  8
0
  6
ByBlock
 62
     0
100
AcDbLine
 10
0.0
 20
0.0
 30
0.0
 11
-1.0
 21
-0.1666666666666666
 31
0.0
  0
LINE
  5
DEB0
330
DEAC
100
AcDbEntity
  8
0
  6
ByBlock
 62
     0
100
AcDbLine
 10
0.0
 20
0.0
 30
0.0
 11
-1.0
 21
0.0
 31
0.0
  0
ENDBLK
  5
DEB1
330
DEAC
100
AcDbEntity
  8
0
100
AcDbBlockEnd
  0
BLOCK
  5
F771
330
F770
100
AcDbEntity
  8
0
 48
50.0
100
AcDbBlockBegin
  2
_DOTSMALL
 70
     0
 10
0.0
 20
0.0
 30
0.0
  3
_DOTSMALL
  1

  0
LWPOLYLINE
  5
F772
330
F770
100
AcDbEntity
  8
0
  6
ByBlock
 62
     0
 48
50.0
100
AcDbPolyline
 90
        2
 70
     1
 43
0.5
 10
-0.0625
 20
0.0
 42
1.0
 10
0.0625
 20
0.0
 42
1.0
  0
ENDBLK
  5
F776
330
F770
100
AcDbEntity
  8
0
 48
50.0
100
AcDbBlockEnd
  0
BLOCK
  5
1233E
330
1187B
100
AcDbEntity
  8
0
 48
50.0
100
AcDbBlockBegin
  2
*D2
 70
     1
 10
0.0
 20
0.0
 30
0.0
  3
*D2
  1

  0
LINE
  5
14294
330
1187B
100
AcDbEntity
  8
寸法
 62
     0
 48
50.0
370
    -2
100
AcDbLine
 10
6813.6
 20
7729.785662218297
 30
0.0
 11
6331.105727429235
 21
7729.785662218297
 31
0.0
  0
LINE
  5
14295
330
1187B
100
AcDbEntity
  8
寸法
 62
     0
 48
50.0
370
    -2
100
AcDbLine
 10
6763.600000000001
 20
7529.785662218298
 30
0.0
 11
6331.105727429235
 21
7529.785662218298
 31
0.0
  0
LINE
  5
14296
330
1187B
100
AcDbEntity
  8
寸法
 62
     0
 48
50.0
370
    -2
100
AcDbLine
 10
6391.105727429235
 20
7529.785662218298
 30
0.0
 11
6391.105727429235
 21
7729.785662218297
 31
0.0
  0
LINE
  5
14297
330
1187B
100
AcDbEntity
  8
寸法
 62
     0
 48
50.0
370
    -2
100
AcDbLine
 10
6391.105727429235
 20
7729.785662218297
 30
0.0
 11
6391.105727429235
 21
8128.927394501761
 31
0.0
  0
INSERT
  5
14298
330
1187B
100
AcDbEntity
  8
寸法
 62
     0
 48
50.0
370
    -2
100
AcDbBlockReference
  2
_DOTSMALL
 10
6391.105727429235
 20
7529.785662218298
 30
0.0
 41
100.0
 42
100.0
 43
100.0
 50
270.0
  0
INSERT
  5
14299
330
1187B
100
AcDbEntity
  8
寸法
 62
     0
 48
50.0
370
    -2
100
AcDbBlockReference
  2
_DOTSMALL
 10
6391.105727429235
 20
7729.785662218297
 30
0.0
 41
100.0
 42
100.0
 43
100.0
 50
90.0
  0
MTEXT
  5
1429A
330
1187B
100
AcDbEntity
  8
寸法
 62
     7
 48
50.0
100
AcDbMText
 10
6291.093916405612
 20
7979.356528360032
 30
0.0
 40
120.0
 41
0.0
 71
     5
 72
     1
  1
\A1;200
  7
STYLE1
 11
0.0000000000000001
 21
1.0
 31
0.0
 73
     1
 44
1.0
1001
ACAD
1000
MTEXTBEGIN
1070
    73
1070
     1
1070
    44
1040
1.0
1070
    74
1070
     0
1000
MTEXTEND
  0
POINT
  5
1429B
330
1187B
100
AcDbEntity
  8
DEFPOINTS
 62
     0
 48
50.0
100
AcDbPoint
 10
6833.6
 20
7729.785662218297
 30
0.0
  0
POINT
  5
1429C
330
1187B
100
AcDbEntity
  8
DEFPOINTS
 62
     0
 48
50.0
100
AcDbPoint
 10
6783.599999999999
 20
7529.785662218298
 30
0.0
  0
POINT
  5
1429D
330
1187B
100
AcDbEntity
  8
DEFPOINTS
 62
     0
 48
50.0
100
AcDbPoint
 10
6391.105727429235
 20
7529.785662218298
 30
0.0
  0
ENDBLK
  5
12349
330
1187B
100
AcDbEntity
  8
0
 48
50.0
100
AcDbBlockEnd
  0
BLOCK
  5
125F8
330
11887
100
AcDbEntity
  8
0
 48
50.0
100
AcDbBlockBegin
  2
*D3
 70
     1
 10
0.0
 20
0.0
 30
0.0
  3
*D3
  1

  0
LINE
  5
14278
330
11887
100
AcDbEntity
  8
寸法
 62
     0
 48
50.0
370
    -2
100
AcDbLine
 10
6763.600000000001
 20
7529.785662218298
 30
0.0
 11
6331.105727429235
 21
7529.785662218298
 31
0.0
  0
LINE
  5
14279
330
11887
100
AcDbEntity
  8
寸法
 62
     0
 48
50.0
370
    -2
100
AcDbLine
 10
6763.600000000001
 20
5879.785662218298
 30
0.0
 11
6331.105727429235
 21
5879.785662218298
 31
0.0
  0
LINE
  5
1427A
330
11887
100
AcDbEntity
  8
寸法
 62
     0
 48
50.0
370
    -2
100
AcDbLine
 10
6391.105727429235
 20
7529.785662218298
 30
0.0
 11
6391.105727429234
 21
5879.785662218298
 31
0.0
  0
INSERT
  5
1427B
330
11887
100
AcDbEntity
  8
寸法
 62
     0
 48
50.0
370
    -2
100
AcDbBlockReference
  2
_DOTSMALL
 10
6391.105727429235
 20
7529.785662218298
 30
0.0
 41
100.0
 42
100.0
 43
100.0
 50
90.0
  0
INSERT
  5
1427C
330
11887
100
AcDbEntity
  8
寸法
 62
     0
 48
50.0
370
    -2
100
AcDbBlockReference
  2
_DOTSMALL
 10
6391.105727429234
 20
5879.785662218298
 30
0.0
 41
100.0
 42
100.0
 43
100.0
 50
270.0
  0
MTEXT
  5
1427D
330
11887
100
AcDbEntity
  8
寸法
 62
     7
 48
50.0
100
AcDbMText
 10
6291.105727429233
 20
6704.785662218299
 30
0.0
 40
120.0
 41
0.0
 71
     5
 72
     1
  1
\A1;1650
  7
STYLE1
 11
0.0000000000000001
 21
1.0
 31
0.0
 73
     1
 44
1.0
1001
ACAD
1000
MTEXTBEGIN
1070
    73
1070
     1
1070
    44
1040
1.0
1070
    74
1070
     0
1000
MTEXTEND
  0
POINT
  5
1427E
330
11887
100
AcDbEntity
  8
DEFPOINTS
 62
     0
 48
50.0
100
AcDbPoint
 10
6783.599999999999
 20
7529.785662218298
 30
0.0
  0
POINT
  5
1427F
330
11887
100
AcDbEntity
  8
DEFPOINTS
 62
     0
 48
50.0
100
AcDbPoint
 10
6783.599999999999
 20
5879.785662218298
 30
0.0
  0
POINT
  5
14280
330
11887
100
AcDbEntity
  8
DEFPOINTS
 62
     0
 48
50.0
100
AcDbPoint
 10
6391.105727429234
 20
5879.785662218298
 30
0.0
  0
ENDBLK
  5
12601
330
11887
100
AcDbEntity
  8
0
 48
50.0
100
AcDbBlockEnd
  0
BLOCK
  5
12354
330
11893
100
AcDbEntity
  8
0
 48
50.0
100
AcDbBlockBegin
  2
*D4
 70
     1
 10
0.0
 20
0.0
 30
0.0
  3
*D4
  1

  0
LINE
  5
1428B
330
11893
100
AcDbEntity
  8
寸法
 62
     0
 48
50.0
370
    -2
100
AcDbLine
 10
6763.600000000001
 20
5879.785662218298
 30
0.0
 11
6331.105727429235
 21
5879.785662218298
 31
0.0
  0
LINE
  5
1428C
330
11893
100
AcDbEntity
  8
寸法
 62
     0
 48
50.0
370
    -2
100
AcDbLine
 10
6813.6
 20
4959.785662218298
 30
0.0
 11
6331.105727429235
 21
4959.785662218298
 31
0.0
  0
LINE
  5
1428D
330
11893
100
AcDbEntity
  8
寸法
 62
     0
 48
50.0
370
    -2
100
AcDbLine
 10
6391.105727429234
 20
5879.785662218298
 30
0.0
 11
6391.105727429234
 21
4959.785662218298
 31
0.0
  0
INSERT
  5
1428E
330
11893
100
AcDbEntity
  8
寸法
 62
     0
 48
50.0
370
    -2
100
AcDbBlockReference
  2
_DOTSMALL
 10
6391.105727429234
 20
5879.785662218298
 30
0.0
 41
100.0
 42
100.0
 43
100.0
 50
90.0
  0
INSERT
  5
1428F
330
11893
100
AcDbEntity
  8
寸法
 62
     0
 48
50.0
370
    -2
100
AcDbBlockReference
  2
_DOTSMALL
 10
6391.105727429234
 20
4959.785662218298
 30
0.0
 41
100.0
 42
100.0
 43
100.0
 50
270.0
  0
MTEXT
  5
14290
330
11893
100
AcDbEntity
  8
寸法
 62
     7
 48
50.0
100
AcDbMText
 10
6291.064914864429
 20
5419.785662218298
 30
0.0
 40
120.0
 41
0.0
 71
     5
 72
     1
  1
\A1;920
  7
STYLE1
 11
0.0000000000000001
 21
1.0
 31
0.0
 73
     1
 44
1.0
1001
ACAD
1000
MTEXTBEGIN
1070
    73
1070
     1
1070
    44
1040
1.0
1070
    74
1070
     0
1000
MTEXTEND
  0
POINT
  5
14291
330
11893
100
AcDbEntity
  8
DEFPOINTS
 62
     0
 48
50.0
100
AcDbPoint
 10
6783.599999999999
 20
5879.785662218298
 30
0.0
  0
POINT
  5
14292
330
11893
100
AcDbEntity
  8
DEFPOINTS
 62
     0
 48
50.0
100
AcDbPoint
 10
6833.6
 20
4959.785662218298
 30
0.0
  0
POINT
  5
14293
330
11893
100
AcDbEntity
  8
DEFPOINTS
 62
     0
 48
50.0
100
AcDbPoint
 10
6391.105727429234
 20
4959.785662218298
 30
0.0
  0
ENDBLK
  5
1235D
330
11893
100
AcDbEntity
  8
0
 48
50.0
100
AcDbBlockEnd
  0
BLOCK
  5
12C94
330
1189F
100
AcDbEntity
  8
0
 48
50.0
100
AcDbBlockBegin
  2
*D5
 70
     1
 10
0.0
 20
0.0
 30
0.0
  3
*D5
  1

  0
LINE
  5
1426F
330
1189F
100
AcDbEntity
  8
寸法
 62
     0
 48
50.0
370
    -2
100
AcDbLine
 10
6813.6
 20
7729.785662218297
 30
0.0
 11
5993.812491819076
 21
7729.785662218297
 31
0.0
  0
LINE
  5
14270
330
1189F
100
AcDbEntity
  8
寸法
 62
     0
 48
50.0
370
    -2
100
AcDbLine
 10
6813.6
 20
4959.785662218298
 30
0.0
 11
5993.812491819075
 21
4959.785662218298
 31
0.0
  0
LINE
  5
14271
330
1189F
100
AcDbEntity
  8
寸法
 62
     0
 48
50.0
370
    -2
100
AcDbLine
 10
6053.812491819076
 20
7729.785662218297
 30
0.0
 11
6053.812491819075
 21
4959.785662218298
 31
0.0
  0
INSERT
  5
14272
330
1189F
100
AcDbEntity
  8
寸法
 62
     0
 48
50.0
370
    -2
100
AcDbBlockReference
  2
_DOTSMALL
 10
6053.812491819076
 20
7729.785662218297
 30
0.0
 41
100.0
 42
100.0
 43
100.0
 50
90.0
  0
INSERT
  5
14273
330
1189F
100
AcDbEntity
  8
寸法
 62
     0
 48
50.0
370
    -2
100
AcDbBlockReference
  2
_DOTSMALL
 10
6053.812491819075
 20
4959.785662218298
 30
0.0
 41
100.0
 42
100.0
 43
100.0
 50
270.0
  0
MTEXT
  5
14274
330
1189F
100
AcDbEntity
  8
寸法
 62
     7
 48
50.0
100
AcDbMText
 10
5953.800680795453
 20
6344.785662218299
 30
0.0
 40
120.0
 41
0.0
 71
     5
 72
     1
  1
\A1;基礎寸法 2770
  7
STYLE1
 11
0.0000000000000001
 21
1.0
 31
0.0
 73
     1
 44
1.0
1001
ACAD
1000
MTEXTBEGIN
1070
    73
1070
     1
1070
    44
1040
1.0
1070
    74
1070
     0
1000
MTEXTEND
  0
POINT
  5
14275
330
1189F
100
AcDbEntity
  8
DEFPOINTS
 62
     0
 48
50.0
100
AcDbPoint
 10
6833.6
 20
7729.785662218297
 30
0.0
  0
POINT
  5
14276
330
1189F
100
AcDbEntity
  8
DEFPOINTS
 62
     0
 48
50.0
100
AcDbPoint
 10
6833.6
 20
4959.785662218298
 30
0.0
  0
POINT
  5
14277
330
1189F
100
AcDbEntity
  8
DEFPOINTS
 62
     0
 48
50.0
100
AcDbPoint
 10
6053.812491819075
 20
4959.785662218298
 30
0.0
  0
ENDBLK
  5
12C9E
330
1189F
100
AcDbEntity
  8
0
 48
50.0
100
AcDbBlockEnd
  0
BLOCK
  5
13017
330
118AC
100
AcDbEntity
  8
0
 48
50.0
100
AcDbBlockBegin
  2
*D6
 70
     1
 10
0.0
 20
0.0
 30
0.0
  3
*D6
  1

  0
LINE
  5
142B2
330
118AC
100
AcDbEntity
  8
寸法
 62
     0
 48
50.0
370
    -2
100
AcDbLine
 10
6683.600000000001
 20
6249.785662218298
 30
0.0
 11
6683.600000000001
 21
6443.680570935905
 31
0.0
  0
LINE
  5
142B3
330
118AC
100
AcDbEntity
  8
寸法
 62
     0
 48
50.0
370
    -2
100
AcDbLine
 10
7383.600000000001
 20
6249.785662218298
 30
0.0
 11
7383.600000000001
 21
6443.680570935905
 31
0.0
  0
LINE
  5
142B4
330
118AC
100
AcDbEntity
  8
寸法
 62
     0
 48
50.0
370
    -2
100
AcDbLine
 10
6683.600000000001
 20
6383.680570935904
 30
0.0
 11
7383.600000000001
 21
6383.680570935904
 31
0.0
  0
INSERT
  5
142B5
330
118AC
100
AcDbEntity
  8
寸法
 62
     0
 48
50.0
370
    -2
100
AcDbBlockReference
  2
_DOTSMALL
 10
6683.600000000001
 20
6383.680570935904
 30
0.0
 41
100.0
 42
100.0
 43
100.0
 50
180.0
  0
INSERT
  5
142B6
330
118AC
100
AcDbEntity
  8
寸法
 62
     0
 48
50.0
370
    -2
100
AcDbBlockReference
  2
_DOTSMALL
 10
7383.600000000001
 20
6383.680570935904
 30
0.0
 41
100.0
 42
100.0
 43
100.0
  0
MTEXT
  5
142B7
330
118AC
100
AcDbEntity
  8
寸法
 62
     7
 48
50.0
100
AcDbMText
 10
7033.600000000001
 20
6483.680570935904
 30
0.0
 40
120.0
 41
0.0
 71
     5
 72
     1
  1
\A1;700
  7
STYLE1
 73
     1
 44
1.0
1001
ACAD
1000
MTEXTBEGIN
1070
    73
1070
     1
1070
    44
1040
1.0
1070
    74
1070
     0
1000
MTEXTEND
  0
POINT
  5
142B8
330
118AC
100
AcDbEntity
  8
DEFPOINTS
 62
     0
 48
50.0
100
AcDbPoint
 10
6683.600000000001
 20
6229.785662218298
 30
0.0
  0
POINT
  5
142B9
330
118AC
100
AcDbEntity
  8
DEFPOINTS
 62
     0
 48
50.0
100
AcDbPoint
 10
7383.600000000001
 20
6229.785662218298
 30
0.0
  0
POINT
  5
142BA
330
118AC
100
AcDbEntity
  8
DEFPOINTS
 62
     0
 48
50.0
100
AcDbPoint
 10
7383.600000000001
 20
6383.680570935904
 30
0.0
  0
ENDBLK
  5
13021
330
118AC
100
AcDbEntity
  8
0
 48
50.0
100
AcDbBlockEnd
  0
BLOCK
  5
13061
330
118B9
100
AcDbEntity
  8
0
 48
50.0
100
AcDbBlockBegin
  2
*D7
 70
     1
 10
0.0
 20
0.0
 30
0.0
  3
*D7
  1

  0
LINE
  5
142A9
330
118B9
100
AcDbEntity
  8
寸法
 62
     0
 48
50.0
370
    -2
100
AcDbLine
 10
7403.600000000001
 20
6229.785662218298
 30
0.0
 11
7721.59866659393
 21
6229.785662218298
 31
0.0
  0
LINE
  5
142AA
330
118B9
100
AcDbEntity
  8
寸法
 62
     0
 48
50.0
370
    -2
100
AcDbLine
 10
7403.600000000001
 20
5529.785662218298
 30
0.0
 11
7721.598666593928
 21
5529.785662218298
 31
0.0
  0
LINE
  5
142AB
330
118B9
100
AcDbEntity
  8
寸法
 62
     0
 48
50.0
370
    -2
100
AcDbLine
 10
7661.598666593929
 20
6229.785662218298
 30
0.0
 11
7661.598666593929
 21
5529.785662218298
 31
0.0
  0
INSERT
  5
142AC
330
118B9
100
AcDbEntity
  8
寸法
 62
     0
 48
50.0
370
    -2
100
AcDbBlockReference
  2
_DOTSMALL
 10
7661.598666593929
 20
6229.785662218298
 30
0.0
 41
100.0
 42
100.0
 43
100.0
 50
90.0
  0
INSERT
  5
142AD
330
118B9
100
AcDbEntity
  8
寸法
 62
     0
 48
50.0
370
    -2
100
AcDbBlockReference
  2
_DOTSMALL
 10
7661.598666593929
 20
5529.785662218298
 30
0.0
 41
100.0
 42
100.0
 43
100.0
 50
270.0
  0
MTEXT
  5
142AE
330
118B9
100
AcDbEntity
  8
寸法
 62
     7
 48
50.0
100
AcDbMText
 10
7561.598666593927
 20
5879.785662218299
 30
0.0
 40
120.0
 41
0.0
 71
     5
 72
     1
  1
\A1;700
  7
STYLE1
 11
0.0000000000000001
 21
1.0
 31
0.0
 73
     1
 44
1.0
1001
ACAD
1000
MTEXTBEGIN
1070
    73
1070
     1
1070
    44
1040
1.0
1070
    74
1070
     0
1000
MTEXTEND
  0
POINT
  5
142AF
330
118B9
100
AcDbEntity
  8
DEFPOINTS
 62
     0
 48
50.0
100
AcDbPoint
 10
7383.600000000001
 20
6229.785662218298
 30
0.0
  0
POINT
  5
142B0
330
118B9
100
AcDbEntity
  8
DEFPOINTS
 62
     0
 48
50.0
100
AcDbPoint
 10
7383.600000000001
 20
5529.785662218298
 30
0.0
  0
POINT
  5
142B1
330
118B9
100
AcDbEntity
  8
DEFPOINTS
 62
     0
 48
50.0
100
AcDbPoint
 10
7661.598666593929
 20
5529.785662218298
 30
0.0
  0
ENDBLK
  5
1306B
330
118B9
100
AcDbEntity
  8
0
 48
50.0
100
AcDbBlockEnd
  0
BLOCK
  5
1272D
330
118D1
100
AcDbEntity
  8
0
 48
50.0
100
AcDbBlockBegin
  2
*D8
 70
     1
 10
0.0
 20
0.0
 30
0.0
  3
*D8
  1

  0
LINE
  5
14281
330
118D1
100
AcDbEntity
  8
寸法
 62
     0
 48
50.0
370
    -2
100
AcDbLine
 10
6833.6
 20
4939.785662218297
 30
0.0
 11
6833.6
 21
4583.212687273764
 31
0.0
  0
LINE
  5
14282
330
118D1
100
AcDbEntity
  8
寸法
 62
     0
 48
50.0
370
    -2
100
AcDbLine
 10
7033.599999999999
 20
5609.785662218297
 30
0.0
 11
7033.599999999999
 21
4583.212687273764
 31
0.0
  0
LINE
  5
14283
330
118D1
100
AcDbEntity
  8
寸法
 62
     0
 48
50.0
370
    -2
100
AcDbLine
 10
7033.599999999999
 20
4643.212687273765
 30
0.0
 11
6833.6
 21
4643.212687273765
 31
0.0
  0
LINE
  5
14284
330
118D1
100
AcDbEntity
  8
寸法
 62
     0
 48
50.0
370
    -2
100
AcDbLine
 10
6833.6
 20
4643.212687273765
 30
0.0
 11
6434.458267716536
 21
4643.212687273765
 31
0.0
  0
INSERT
  5
14285
330
118D1
100
AcDbEntity
  8
寸法
 62
     0
 48
50.0
370
    -2
100
AcDbBlockReference
  2
_DOTSMALL
 10
7033.599999999999
 20
4643.212687273765
 30
0.0
 41
100.0
 42
100.0
 43
100.0
  0
INSERT
  5
14286
330
118D1
100
AcDbEntity
  8
寸法
 62
     0
 48
50.0
370
    -2
100
AcDbBlockReference
  2
_DOTSMALL
 10
6833.6
 20
4643.212687273765
 30
0.0
 41
100.0
 42
100.0
 43
100.0
 50
180.0
  0
MTEXT
  5
14287
330
118D1
100
AcDbEntity
  8
寸法
 62
     7
 48
50.0
100
AcDbMText
 10
6584.029133858269
 20
4743.224498297386
 30
0.0
 40
120.0
 41
0.0
 71
     5
 72
     1
  1
\A1;200
  7
STYLE1
 73
     1
 44
1.0
1001
ACAD
1000
MTEXTBEGIN
1070
    73
1070
     1
1070
    44
1040
1.0
1070
    74
1070
     0
1000
MTEXTEND
  0
POINT
  5
14288
330
118D1
100
AcDbEntity
  8
DEFPOINTS
 62
     0
 48
50.0
100
AcDbPoint
 10
6833.6
 20
4959.785662218298
 30
0.0
  0
POINT
  5
14289
330
118D1
100
AcDbEntity
  8
DEFPOINTS
 62
     0
 48
50.0
100
AcDbPoint
 10
7033.599999999999
 20
5629.785662218297
 30
0.0
  0
POINT
  5
1428A
330
118D1
100
AcDbEntity
  8
DEFPOINTS
 62
     0
 48
50.0
100
AcDbPoint
 10
7033.599999999999
 20
4643.212687273765
 30
0.0
  0
ENDBLK
  5
12738
330
118D1
100
AcDbEntity
  8
0
 48
50.0
100
AcDbBlockEnd
  0
BLOCK
  5
1309B
330
118DB
100
AcDbEntity
  8
0
 48
50.0
100
AcDbBlockBegin
  2
*D9
 70
     1
 10
0.0
 20
0.0
 30
0.0
  3
*D9
  1

  0
LINE
  5
14266
330
118DB
100
AcDbEntity
  8
寸法
 62
     0
 48
50.0
370
    -2
100
AcDbLine
 10
7033.599999999999
 20
5609.785662218297
 30
0.0
 11
7033.599999999999
 21
4583.212687273764
 31
0.0
  0
LINE
  5
14267
330
118DB
100
AcDbEntity
  8
寸法
 62
     0
 48
50.0
370
    -2
100
AcDbLine
 10
9413.6
 20
5609.785662218298
 30
0.0
 11
9413.6
 21
4583.212687273764
 31
0.0
  0
LINE
  5
14268
330
118DB
100
AcDbEntity
  8
寸法
 62
     0
 48
50.0
370
    -2
100
AcDbLine
 10
7033.599999999999
 20
4643.212687273765
 30
0.0
 11
9413.6
 21
4643.212687273765
 31
0.0
  0
INSERT
  5
14269
330
118DB
100
AcDbEntity
  8
寸法
 62
     0
 48
50.0
370
    -2
100
AcDbBlockReference
  2
_DOTSMALL
 10
7033.599999999999
 20
4643.212687273765
 30
0.0
 41
100.0
 42
100.0
 43
100.0
 50
180.0
  0
INSERT
  5
1426A
330
118DB
100
AcDbEntity
  8
寸法
 62
     0
 48
50.0
370
    -2
100
AcDbBlockReference
  2
_DOTSMALL
 10
9413.6
 20
4643.212687273765
 30
0.0
 41
100.0
 42
100.0
 43
100.0
  0
MTEXT
  5
1426B
330
118DB
100
AcDbEntity
  8
寸法
 62
     7
 48
50.0
100
AcDbMText
 10
8223.600000000001
 20
4743.224498297386
 30
0.0
 40
120.0
 41
0.0
 71
     5
 72
     1
  1
\A1;2380
  7
STYLE1
 73
     1
 44
1.0
1001
ACAD
1000
MTEXTBEGIN
1070
    73
1070
     1
1070
    44
1040
1.0
1070
    74
1070
     0
1000
MTEXTEND
  0
POINT
  5
1426C
330
118DB
100
AcDbEntity
  8
DEFPOINTS
 62
     0
 48
50.0
100
AcDbPoint
 10
7033.599999999999
 20
5629.785662218297
 30
0.0
  0
POINT
  5
1426D
330
118DB
100
AcDbEntity
  8
DEFPOINTS
 62
     0
 48
50.0
100
AcDbPoint
 10
9413.6
 20
5629.785662218298
 30
0.0
  0
POINT
  5
1426E
330
118DB
100
AcDbEntity
  8
DEFPOINTS
 62
     0
 48
50.0
100
AcDbPoint
 10
9413.6
 20
4643.212687273765
 30
0.0
  0
ENDBLK
  5
130A4
330
118DB
100
AcDbEntity
  8
0
 48
50.0
100
AcDbBlockEnd
  0
BLOCK
  5
1275B
330
11906
100
AcDbEntity
  8
0
 48
50.0
100
AcDbBlockBegin
  2
*D10
 70
     1
 10
0.0
 20
0.0
 30
0.0
  3
*D10
  1

  0
LINE
  5
14055
330
11906
100
AcDbEntity
  8
寸法
 62
     0
 48
50.0
370
    -2
100
AcDbLine
 10
9413.6
 20
5609.785662218298
 30
0.0
 11
9413.6
 21
4583.212687273764
 31
0.0
  0
LINE
  5
14056
330
11906
100
AcDbEntity
  8
寸法
 62
     0
 48
50.0
370
    -2
100
AcDbLine
 10
9613.600000000001
 20
4939.785662218297
 30
0.0
 11
9613.600000000001
 21
4583.212687273764
 31
0.0
  0
LINE
  5
14057
330
11906
100
AcDbEntity
  8
寸法
 62
     0
 48
50.0
370
    -2
100
AcDbLine
 10
9413.6
 20
4643.212687273765
 30
0.0
 11
9613.600000000001
 21
4643.212687273765
 31
0.0
  0
LINE
  5
14058
330
11906
100
AcDbEntity
  8
寸法
 62
     0
 48
50.0
370
    -2
100
AcDbLine
 10
9613.600000000001
 20
4643.212687273765
 30
0.0
 11
10012.74173228346
 21
4643.212687273765
 31
0.0
  0
INSERT
  5
14059
330
11906
100
AcDbEntity
  8
寸法
 62
     0
 48
50.0
370
    -2
100
AcDbBlockReference
  2
_DOTSMALL
 10
9413.6
 20
4643.212687273765
 30
0.0
 41
100.0
 42
100.0
 43
100.0
 50
180.0
  0
INSERT
  5
1405A
330
11906
100
AcDbEntity
  8
寸法
 62
     0
 48
50.0
370
    -2
100
AcDbBlockReference
  2
_DOTSMALL
 10
9613.600000000001
 20
4643.212687273765
 30
0.0
 41
100.0
 42
100.0
 43
100.0
  0
MTEXT
  5
1405B
330
11906
100
AcDbEntity
  8
寸法
 62
     7
 48
50.0
100
AcDbMText
 10
9863.170866141732
 20
4743.224498297386
 30
0.0
 40
120.0
 41
0.0
 71
     5
 72
     1
  1
\A1;200
  7
STYLE1
 73
     1
 44
1.0
1001
ACAD
1000
MTEXTBEGIN
1070
    73
1070
     1
1070
    44
1040
1.0
1070
    74
1070
     0
1000
MTEXTEND
  0
POINT
  5
1405C
330
11906
100
AcDbEntity
  8
DEFPOINTS
 62
     0
 48
50.0
100
AcDbPoint
 10
9413.6
 20
5629.785662218298
 30
0.0
  0
POINT
  5
1405D
330
11906
100
AcDbEntity
  8
DEFPOINTS
 62
     0
 48
50.0
100
AcDbPoint
 10
9613.600000000001
 20
4959.785662218298
 30
0.0
  0
POINT
  5
1405E
330
11906
100
AcDbEntity
  8
DEFPOINTS
 62
     0
 48
50.0
100
AcDbPoint
 10
9613.600000000001
 20
4643.212687273765
 30
0.0
  0
ENDBLK
  5
12766
330
11906
100
AcDbEntity
  8
0
 48
50.0
100
AcDbBlockEnd
  0
BLOCK
  5
130C6
330
11928
100
AcDbEntity
  8
0
 48
50.0
100
AcDbBlockBegin
  2
*D11
 70
     1
 10
0.0
 20
0.0
 30
0.0
  3
*D11
  1

  0
LINE
  5
142DF
330
11928
100
AcDbEntity
  8
寸法
 62
     0
 48
50.0
370
    -2
100
AcDbLine
 10
6833.6
 20
4939.785662218297
 30
0.0
 11
6833.6
 21
4251.259653382771
 31
0.0
  0
LINE
  5
142E0
330
11928
100
AcDbEntity
  8
寸法
 62
     0
 48
50.0
370
    -2
100
AcDbLine
 10
9613.600000000001
 20
4939.785662218297
 30
0.0
 11
9613.600000000001
 21
4251.259653382771
 31
0.0
  0
LINE
  5
142E1
330
11928
100
AcDbEntity
  8
寸法
 62
     0
 48
50.0
370
    -2
100
AcDbLine
 10
6833.6
 20
4311.259653382771
 30
0.0
 11
9613.600000000001
 21
4311.259653382771
 31
0.0
  0
INSERT
  5
142E2
330
11928
100
AcDbEntity
  8
寸法
 62
     0
 48
50.0
370
    -2
100
AcDbBlockReference
  2
_DOTSMALL
 10
6833.6
 20
4311.259653382771
 30
0.0
 41
100.0
 42
100.0
 43
100.0
 50
180.0
  0
INSERT
  5
142E3
330
11928
100
AcDbEntity
  8
寸法
 62
     0
 48
50.0
370
    -2
100
AcDbBlockReference
  2
_DOTSMALL
 10
9613.600000000001
 20
4311.259653382771
 30
0.0
 41
100.0
 42
100.0
 43
100.0
  0
MTEXT
  5
142E4
330
11928
100
AcDbEntity
  8
寸法
 62
     7
 48
50.0
100
AcDbMText
 10
8223.600000000001
 20
4411.271464406392
 30
0.0
 40
120.0
 41
0.0
 71
     5
 72
     1
  1
\A1;基礎寸法 2780
  7
STYLE1
 73
     1
 44
1.0
1001
ACAD
1000
MTEXTBEGIN
1070
    73
1070
     1
1070
    44
1040
1.0
1070
    74
1070
     0
1000
MTEXTEND
  0
POINT
  5
142E5
330
11928
100
AcDbEntity
  8
DEFPOINTS
 62
     0
 48
50.0
100
AcDbPoint
 10
6833.6
 20
4959.785662218298
 30
0.0
  0
POINT
  5
142E6
330
11928
100
AcDbEntity
  8
DEFPOINTS
 62
     0
 48
50.0
100
AcDbPoint
 10
9613.600000000001
 20
4959.785662218298
 30
0.0
  0
POINT
  5
142E7
330
11928
100
AcDbEntity
  8
DEFPOINTS
 62
     0
 48
50.0
100
AcDbPoint
 10
9613.600000000001
 20
4311.259653382771
 30
0.0
  0
ENDBLK
  5
130D0
330
11928
100
AcDbEntity
  8
0
 48
50.0
100
AcDbBlockEnd
  0
BLOCK
  5
1296E
330
12312
100
AcDbEntity
  8
0
 48
50.0
100
AcDbBlockBegin
  2
*D12
 70
     1
 10
0.0
 20
0.0
 30
0.0
  3
*D12
  1

  0
LINE
  5
141FC
330
12312
100
AcDbEntity
  8
寸法
 62
     0
 48
50.0
370
    -2
100
AcDbLine
 10
9683.600000000001
 20
7829.785662218299
 30
0.0
 11
10696.60034245212
 21
7829.785662218298
 31
0.0
  0
LINE
  5
141FD
330
12312
100
AcDbEntity
  8
寸法
 62
     0
 48
50.0
370
    -2
100
AcDbLine
 10
9683.599999999998
 20
5129.785662218296
 30
0.0
 11
10696.60034245212
 21
5129.785662218295
 31
0.0
  0
LINE
  5
141FE
330
12312
100
AcDbEntity
  8
寸法
 62
     0
 48
50.0
370
    -2
100
AcDbLine
 10
10636.60034245212
 20
7829.785662218298
 30
0.0
 11
10636.60034245212
 21
5129.785662218295
 31
0.0
  0
INSERT
  5
141FF
330
12312
100
AcDbEntity
  8
寸法
 62
     0
 48
50.0
370
    -2
100
AcDbBlockReference
  2
_DOTSMALL
 10
10636.60034245212
 20
7829.785662218298
 30
0.0
 41
100.0
 42
100.0
 43
100.0
 50
90.0
  0
INSERT
  5
14200
330
12312
100
AcDbEntity
  8
寸法
 62
     0
 48
50.0
370
    -2
100
AcDbBlockReference
  2
_DOTSMALL
 10
10636.60034245212
 20
5129.785662218295
 30
0.0
 41
100.0
 42
100.0
 43
100.0
 50
270.0
  0
MTEXT
  5
14201
330
12312
100
AcDbEntity
  8
寸法
 62
     7
 48
50.0
100
AcDbMText
 10
10536.58853142849
 20
6479.785662218297
 30
0.0
 40
120.0
 41
0.0
 71
     5
 72
     1
  1
\A1;屋根寸法 2700
  7
STYLE1
 11
0.0000000000000001
 21
1.0
 31
0.0
 73
     1
 44
1.0
1001
ACAD
1000
MTEXTBEGIN
1070
    73
1070
     1
1070
    44
1040
1.0
1070
    74
1070
     0
1000
MTEXTEND
  0
POINT
  5
14202
330
12312
100
AcDbEntity
  8
DEFPOINTS
 62
     0
 48
50.0
100
AcDbPoint
 10
9663.600000000002
 20
7829.785662218299
 30
0.0
  0
POINT
  5
14203
330
12312
100
AcDbEntity
  8
DEFPOINTS
 62
     0
 48
50.0
100
AcDbPoint
 10
9663.599999999998
 20
5129.785662218296
 30
0.0
  0
POINT
  5
14204
330
12312
100
AcDbEntity
  8
DEFPOINTS
 62
     0
 48
50.0
100
AcDbPoint
 10
10636.60034245212
 20
5129.785662218295
 30
0.0
  0
ENDBLK
  5
12978
330
12312
100
AcDbEntity
  8
0
 48
50.0
100
AcDbBlockEnd
  0
BLOCK
  5
13077
330
1231F
100
AcDbEntity
  8
0
 48
50.0
100
AcDbBlockBegin
  2
*D13
 70
     1
 10
0.0
 20
0.0
 30
0.0
  3
*D13
  1

  0
LINE
  5
1429E
330
1231F
100
AcDbEntity
  8
寸法
 62
     0
 48
50.0
370
    -2
100
AcDbLine
 10
6783.599999999999
 20
7849.785662218299
 30
0.0
 11
6783.599999999999
 21
8220.859626484438
 31
0.0
  0
LINE
  5
1429F
330
1231F
100
AcDbEntity
  8
寸法
 62
     0
 48
50.0
370
    -2
100
AcDbLine
 10
7033.599999999999
 20
7999.785662218297
 30
0.0
 11
7033.599999999999
 21
8220.859626484438
 31
0.0
  0
LINE
  5
142A0
330
1231F
100
AcDbEntity
  8
寸法
 62
     0
 48
50.0
370
    -2
100
AcDbLine
 10
6783.599999999999
 20
8160.859626484437
 30
0.0
 11
6683.6
 21
8160.859626484437
 31
0.0
  0
LINE
  5
142A1
330
1231F
100
AcDbEntity
  8
寸法
 62
     0
 48
50.0
370
    -2
100
AcDbLine
 10
7033.599999999999
 20
8160.859626484437
 30
0.0
 11
7133.6
 21
8160.859626484437
 31
0.0
  0
LINE
  5
142A2
330
1231F
100
AcDbEntity
  8
寸法
 62
     0
 48
50.0
370
    -2
100
AcDbLine
 10
6783.599999999999
 20
8160.859626484437
 30
0.0
 11
7033.599999999999
 21
8160.859626484437
 31
0.0
  0
INSERT
  5
142A3
330
1231F
100
AcDbEntity
  8
寸法
 62
     0
 48
50.0
370
    -2
100
AcDbBlockReference
  2
_DOTSMALL
 10
6783.599999999999
 20
8160.859626484437
 30
0.0
 41
100.0
 42
100.0
 43
100.0
  0
INSERT
  5
142A4
330
1231F
100
AcDbEntity
  8
寸法
 62
     0
 48
50.0
370
    -2
100
AcDbBlockReference
  2
_DOTSMALL
 10
7033.599999999999
 20
8160.859626484437
 30
0.0
 41
100.0
 42
100.0
 43
100.0
 50
180.0
  0
MTEXT
  5
142A5
330
1231F
100
AcDbEntity
  8
寸法
 62
     7
 48
50.0
100
AcDbMText
 10
6908.599999999999
 20
8260.871437508059
 30
0.0
 40
120.0
 41
0.0
 71
     5
 72
     1
  1
\A1;250
  7
STYLE1
 73
     1
 44
1.0
1001
ACAD
1000
MTEXTBEGIN
1070
    73
1070
     1
1070
    44
1040
1.0
1070
    74
1070
     0
1000
MTEXTEND
  0
POINT
  5
142A6
330
1231F
100
AcDbEntity
  8
DEFPOINTS
 62
     0
 48
50.0
100
AcDbPoint
 10
6783.599999999999
 20
7829.785662218299
 30
0.0
  0
POINT
  5
142A7
330
1231F
100
AcDbEntity
  8
DEFPOINTS
 62
     0
 48
50.0
100
AcDbPoint
 10
7033.599999999999
 20
7979.785662218296
 30
0.0
  0
POINT
  5
142A8
330
1231F
100
AcDbEntity
  8
DEFPOINTS
 62
     0
 48
50.0
100
AcDbPoint
 10
7033.599999999999
 20
8160.859626484437
 30
0.0
  0
ENDBLK
  5
13083
330
1231F
100
AcDbEntity
  8
0
 48
50.0
100
AcDbBlockEnd
  0
BLOCK
  5
127FB
330
12335
100
AcDbEntity
  8
0
 48
50.0
100
AcDbBlockBegin
  2
*D14
 70
     1
 10
0.0
 20
0.0
 30
0.0
  3
*D14
  1

  0
LINE
  5
14071
330
12335
100
AcDbEntity
  8
寸法
 62
     0
 48
50.0
370
    -2
100
AcDbLine
 10
9413.600000000002
 20
7799.785662218297
 30
0.0
 11
9413.600000000002
 21
8220.859626484438
 31
0.0
  0
LINE
  5
14072
330
12335
100
AcDbEntity
  8
寸法
 62
     0
 48
50.0
370
    -2
100
AcDbLine
 10
9663.600000000002
 20
7849.785662218299
 30
0.0
 11
9663.600000000002
 21
8220.859626484438
 31
0.0
  0
LINE
  5
14073
330
12335
100
AcDbEntity
  8
寸法
 62
     0
 48
50.0
370
    -2
100
AcDbLine
 10
9413.600000000002
 20
8160.859626484437
 30
0.0
 11
9313.600000000002
 21
8160.859626484437
 31
0.0
  0
LINE
  5
14074
330
12335
100
AcDbEntity
  8
寸法
 62
     0
 48
50.0
370
    -2
100
AcDbLine
 10
9663.600000000002
 20
8160.859626484437
 30
0.0
 11
9763.600000000002
 21
8160.859626484437
 31
0.0
  0
LINE
  5
14075
330
12335
100
AcDbEntity
  8
寸法
 62
     0
 48
50.0
370
    -2
100
AcDbLine
 10
9413.600000000002
 20
8160.859626484437
 30
0.0
 11
9663.600000000002
 21
8160.859626484437
 31
0.0
  0
INSERT
  5
14076
330
12335
100
AcDbEntity
  8
寸法
 62
     0
 48
50.0
370
    -2
100
AcDbBlockReference
  2
_DOTSMALL
 10
9413.600000000002
 20
8160.859626484437
 30
0.0
 41
100.0
 42
100.0
 43
100.0
  0
INSERT
  5
14077
330
12335
100
AcDbEntity
  8
寸法
 62
     0
 48
50.0
370
    -2
100
AcDbBlockReference
  2
_DOTSMALL
 10
9663.600000000002
 20
8160.859626484437
 30
0.0
 41
100.0
 42
100.0
 43
100.0
 50
180.0
  0
MTEXT
  5
14078
330
12335
100
AcDbEntity
  8
寸法
 62
     7
 48
50.0
100
AcDbMText
 10
9538.600000000002
 20
8260.871437508059
 30
0.0
 40
120.0
 41
0.0
 71
     5
 72
     1
  1
\A1;250
  7
STYLE1
 73
     1
 44
1.0
1001
ACAD
1000
MTEXTBEGIN
1070
    73
1070
     1
1070
    44
1040
1.0
1070
    74
1070
     0
1000
MTEXTEND
  0
POINT
  5
14079
330
12335
100
AcDbEntity
  8
DEFPOINTS
 62
     0
 48
50.0
100
AcDbPoint
 10
9413.600000000002
 20
7779.785662218298
 30
0.0
  0
POINT
  5
1407A
330
12335
100
AcDbEntity
  8
DEFPOINTS
 62
     0
 48
50.0
100
AcDbPoint
 10
9663.600000000002
 20
7829.785662218299
 30
0.0
  0
POINT
  5
1407B
330
12335
100
AcDbEntity
  8
DEFPOINTS
 62
     0
 48
50.0
100
AcDbPoint
 10
9663.600000000002
 20
8160.859626484437
 30
0.0
  0
ENDBLK
  5
12807
330
12335
100
AcDbEntity
  8
0
 48
50.0
100
AcDbBlockEnd
  0
BLOCK
  5
130BB
330
1245D
100
AcDbEntity
  8
0
 48
50.0
100
AcDbBlockBegin
  2
*D15
 70
     1
 10
0.0
 20
0.0
 30
0.0
  3
*D15
  1

  0
LINE
  5
142D6
330
1245D
100
AcDbEntity
  8
寸法
 62
     0
 48
50.0
370
    -2
100
AcDbLine
 10
6783.599999999999
 20
7849.785662218299
 30
0.0
 11
6783.599999999999
 21
8592.241501310899
 31
0.0
  0
LINE
  5
142D7
330
1245D
100
AcDbEntity
  8
寸法
 62
     0
 48
50.0
370
    -2
100
AcDbLine
 10
9663.600000000002
 20
7849.785662218299
 30
0.0
 11
9663.600000000002
 21
8592.241501310899
 31
0.0
  0
LINE
  5
142D8
330
1245D
100
AcDbEntity
  8
寸法
 62
     0
 48
50.0
370
    -2
100
AcDbLine
 10
6783.599999999999
 20
8532.241501310897
 30
0.0
 11
9663.600000000002
 21
8532.241501310897
 31
0.0
  0
INSERT
  5
142D9
330
1245D
100
AcDbEntity
  8
寸法
 62
     0
 48
50.0
370
    -2
100
AcDbBlockReference
  2
_DOTSMALL
 10
6783.599999999999
 20
8532.241501310897
 30
0.0
 41
100.0
 42
100.0
 43
100.0
 50
180.0
  0
INSERT
  5
142DA
330
1245D
100
AcDbEntity
  8
寸法
 62
     0
 48
50.0
370
    -2
100
AcDbBlockReference
  2
_DOTSMALL
 10
9663.600000000002
 20
8532.241501310897
 30
0.0
 41
100.0
 42
100.0
 43
100.0
  0
MTEXT
  5
142DB
330
1245D
100
AcDbEntity
  8
寸法
 62
     7
 48
50.0
100
AcDbMText
 10
8223.600000000001
 20
8632.253312334521
 30
0.0
 40
120.0
 41
0.0
 71
     5
 72
     1
  1
\A1;屋根寸法 2880
  7
STYLE1
 73
     1
 44
1.0
1001
ACAD
1000
MTEXTBEGIN
1070
    73
1070
     1
1070
    44
1040
1.0
1070
    74
1070
     0
1000
MTEXTEND
  0
POINT
  5
142DC
330
1245D
100
AcDbEntity
  8
DEFPOINTS
 62
     0
 48
50.0
100
AcDbPoint
 10
6783.599999999999
 20
7829.785662218299
 30
0.0
  0
POINT
  5
142DD
330
1245D
100
AcDbEntity
  8
DEFPOINTS
 62
     0
 48
50.0
100
AcDbPoint
 10
9663.600000000002
 20
7829.785662218299
 30
0.0
  0
POINT
  5
142DE
330
1245D
100
AcDbEntity
  8
DEFPOINTS
 62
     0
 48
50.0
100
AcDbPoint
 10
9663.600000000002
 20
8532.241501310897
 30
0.0
  0
ENDBLK
  5
130C5
330
1245D
100
AcDbEntity
  8
0
 48
50.0
100
AcDbBlockEnd
  0
BLOCK
  5
12665
330
12664
100
AcDbEntity
  8
0
 48
50.0
100
AcDbBlockBegin
  2
*D16
 70
     1
 10
0.0
 20
0.0
 30
0.0
  3
*D16
  1

  0
LINE
  5
14068
330
12664
100
AcDbEntity
  8
寸法
 62
     0
 48
50.0
370
    -2
100
AcDbLine
 10
9683.600000000003
 20
7529.785662218298
 30
0.0
 11
10192.77950873463
 21
7529.785662218298
 31
0.0
  0
LINE
  5
14069
330
12664
100
AcDbEntity
  8
寸法
 62
     0
 48
50.0
370
    -2
100
AcDbLine
 10
9683.600000000001
 20
7829.785662218299
 30
0.0
 11
10192.77950873463
 21
7829.785662218299
 31
0.0
  0
LINE
  5
1406A
330
12664
100
AcDbEntity
  8
寸法
 62
     0
 48
50.0
370
    -2
100
AcDbLine
 10
10132.77950873463
 20
7529.785662218298
 30
0.0
 11
10132.77950873463
 21
7829.785662218299
 31
0.0
  0
INSERT
  5
1406B
330
12664
100
AcDbEntity
  8
寸法
 62
     0
 48
50.0
370
    -2
100
AcDbBlockReference
  2
_DOTSMALL
 10
10132.77950873463
 20
7529.785662218298
 30
0.0
 41
100.0
 42
100.0
 43
100.0
 50
270.0
  0
INSERT
  5
1406C
330
12664
100
AcDbEntity
  8
寸法
 62
     0
 48
50.0
370
    -2
100
AcDbBlockReference
  2
_DOTSMALL
 10
10132.77950873463
 20
7829.785662218299
 30
0.0
 41
100.0
 42
100.0
 43
100.0
 50
90.0
  0
MTEXT
  5
1406D
330
12664
100
AcDbEntity
  8
寸法
 62
     7
 48
50.0
100
AcDbMText
 10
10032.77950873462
 20
7679.7856622183
 30
0.0
 40
120.0
 41
0.0
 71
     5
 72
     1
  1
\A1;300
  7
STYLE1
 11
0.0000000000000001
 21
1.0
 31
0.0
 73
     1
 44
1.0
1001
ACAD
1000
MTEXTBEGIN
1070
    73
1070
     1
1070
    44
1040
1.0
1070
    74
1070
     0
1000
MTEXTEND
  0
POINT
  5
1406E
330
12664
100
AcDbEntity
  8
DEFPOINTS
 62
     0
 48
50.0
100
AcDbPoint
 10
9663.600000000002
 20
7529.785662218298
 30
0.0
  0
POINT
  5
1406F
330
12664
100
AcDbEntity
  8
DEFPOINTS
 62
     0
 48
50.0
100
AcDbPoint
 10
9663.600000000002
 20
7829.785662218299
 30
0.0
  0
POINT
  5
14070
330
12664
100
AcDbEntity
  8
DEFPOINTS
 62
     0
 48
50.0
100
AcDbPoint
 10
10132.77950873463
 20
7829.785662218299
 30
0.0
  0
ENDBLK
  5
1266F
330
12664
100
AcDbEntity
  8
0
 48
50.0
100
AcDbBlockEnd
  0
BLOCK
  5
127BF
330
1267D
100
AcDbEntity
  8
0
 48
50.0
100
AcDbBlockBegin
  2
*D17
 70
     1
 10
0.0
 20
0.0
 30
0.0
  3
*D17
  1

  0
LINE
  5
142C4
330
1267D
100
AcDbEntity
  8
寸法
 62
     0
 48
50.0
370
    -2
100
AcDbLine
 10
9683.600000000001
 20
5879.785662218297
 30
0.0
 11
10144.76580351061
 21
5879.785662218297
 31
0.0
  0
LINE
  5
142C5
330
1267D
100
AcDbEntity
  8
寸法
 62
     0
 48
50.0
370
    -2
100
AcDbLine
 10
9683.600000000001
 20
5129.785662218296
 30
0.0
 11
10144.76580351061
 21
5129.785662218296
 31
0.0
  0
LINE
  5
142C6
330
1267D
100
AcDbEntity
  8
寸法
 62
     0
 48
50.0
370
    -2
100
AcDbLine
 10
10084.76580351061
 20
5879.785662218297
 30
0.0
 11
10084.76580351061
 21
5129.785662218296
 31
0.0
  0
INSERT
  5
142C7
330
1267D
100
AcDbEntity
  8
寸法
 62
     0
 48
50.0
370
    -2
100
AcDbBlockReference
  2
_DOTSMALL
 10
10084.76580351061
 20
5879.785662218297
 30
0.0
 41
100.0
 42
100.0
 43
100.0
 50
90.0
  0
INSERT
  5
142C8
330
1267D
100
AcDbEntity
  8
寸法
 62
     0
 48
50.0
370
    -2
100
AcDbBlockReference
  2
_DOTSMALL
 10
10084.76580351061
 20
5129.785662218296
 30
0.0
 41
100.0
 42
100.0
 43
100.0
 50
270.0
  0
MTEXT
  5
142C9
330
1267D
100
AcDbEntity
  8
寸法
 62
     7
 48
50.0
100
AcDbMText
 10
9984.765803510606
 20
5504.785662218297
 30
0.0
 40
120.0
 41
0.0
 71
     5
 72
     1
  1
\A1;750
  7
STYLE1
 11
0.0000000000000001
 21
1.0
 31
0.0
 73
     1
 44
1.0
1001
ACAD
1000
MTEXTBEGIN
1070
    73
1070
     1
1070
    44
1040
1.0
1070
    74
1070
     0
1000
MTEXTEND
  0
POINT
  5
142CA
330
1267D
100
AcDbEntity
  8
DEFPOINTS
 62
     0
 48
50.0
100
AcDbPoint
 10
9663.600000000002
 20
5879.785662218297
 30
0.0
  0
POINT
  5
142CB
330
1267D
100
AcDbEntity
  8
DEFPOINTS
 62
     0
 48
50.0
100
AcDbPoint
 10
9663.600000000002
 20
5129.785662218296
 30
0.0
  0
POINT
  5
142CC
330
1267D
100
AcDbEntity
  8
DEFPOINTS
 62
     0
 48
50.0
100
AcDbPoint
 10
10084.76580351061
 20
5129.785662218296
 30
0.0
  0
ENDBLK
  5
127C9
330
1267D
100
AcDbEntity
  8
0
 48
50.0
100
AcDbBlockEnd
  0
BLOCK
  5
13C21
330
13C17
100
AcDbEntity
  8
0
 48
50.0
100
AcDbBlockBegin
  2
*D18
 70
     1
 10
0.0
 20
0.0
 30
0.0
  3
*D18
  1

  0
LINE
  5
1415C
330
13C17
100
AcDbEntity
  8
寸法
 62
     0
 48
50.0
370
    -2
100
AcDbLine
 10
7496.834122857979
 20
2306.090215385921
 30
0.0
 11
7225.939971462299
 21
2306.090215385921
 31
0.0
  0
LINE
  5
1415D
330
13C17
100
AcDbEntity
  8
寸法
 62
     0
 48
50.0
370
    -2
100
AcDbLine
 10
8133.334122857986
 20
1866.015215385921
 30
0.0
 11
7225.939971462297
 21
1866.015215385921
 31
0.0
  0
LINE
  5
1415E
330
13C17
100
AcDbEntity
  8
寸法
 62
     0
 48
50.0
370
    -2
100
AcDbLine
 10
7285.939971462299
 20
2306.090215385921
 30
0.0
 11
7285.939971462298
 21
1866.015215385921
 31
0.0
  0
INSERT
  5
1415F
330
13C17
100
AcDbEntity
  8
寸法
 62
     0
 48
50.0
370
    -2
100
AcDbBlockReference
  2
_DOTSMALL
 10
7285.939971462299
 20
2306.090215385921
 30
0.0
 41
100.0
 42
100.0
 43
100.0
 50
90.0
  0
INSERT
  5
14160
330
13C17
100
AcDbEntity
  8
寸法
 62
     0
 48
50.0
370
    -2
100
AcDbBlockReference
  2
_DOTSMALL
 10
7285.939971462298
 20
1866.015215385921
 30
0.0
 41
100.0
 42
100.0
 43
100.0
 50
270.0
  0
MTEXT
  5
14161
330
13C17
100
AcDbEntity
  8
寸法
 62
     7
 48
50.0
100
AcDbMText
 10
7185.928160438677
 20
2086.052715385923
 30
0.0
 40
120.0
 41
0.0
 71
     5
 72
     1
  1
\A1;220
  7
STYLE1
 11
0.0000000000000001
 21
1.0
 31
0.0
 73
     1
 44
1.0
1001
ACAD
1000
MTEXTBEGIN
1070
    73
1070
     1
1070
    44
1040
1.0
1070
    74
1070
     0
1000
MTEXTEND
  0
POINT
  5
14162
330
13C17
100
AcDbEntity
  8
DEFPOINTS
 62
     0
 48
50.0
100
AcDbPoint
 10
7516.834122857979
 20
2306.090215385921
 30
0.0
  0
POINT
  5
14163
330
13C17
100
AcDbEntity
  8
DEFPOINTS
 62
     0
 48
50.0
100
AcDbPoint
 10
8153.334122857987
 20
1866.015215385921
 30
0.0
  0
POINT
  5
14164
330
13C17
100
AcDbEntity
  8
DEFPOINTS
 62
     0
 48
50.0
100
AcDbPoint
 10
7285.939971462298
 20
1866.015215385921
 30
0.0
  0
ENDBLK
  5
13C22
330
13C17
100
AcDbEntity
  8
0
 48
50.0
100
AcDbBlockEnd
  0
BLOCK
  5
13C2D
330
13C23
100
AcDbEntity
  8
0
 48
50.0
100
AcDbBlockBegin
  2
*D19
 70
     1
 10
0.0
 20
0.0
 30
0.0
  3
*D19
  1

  0
LINE
  5
14085
330
13C23
100
AcDbEntity
  8
寸法
 62
     0
 48
50.0
370
    -2
100
AcDbLine
 10
7794.334122857981
 20
2405.965215385921
 30
0.0
 11
7004.024205957946
 21
2405.965215385922
 31
0.0
  0
LINE
  5
14086
330
13C23
100
AcDbEntity
  8
寸法
 62
     0
 48
50.0
370
    -2
100
AcDbLine
 10
7366.415342356841
 20
1505.965215385921
 30
0.0
 11
7004.024205957946
 21
1505.965215385921
 31
0.0
  0
LINE
  5
14087
330
13C23
100
AcDbEntity
  8
寸法
 62
     0
 48
50.0
370
    -2
100
AcDbLine
 10
7064.024205957946
 20
2405.965215385922
 30
0.0
 11
7064.024205957945
 21
1505.965215385921
 31
0.0
  0
INSERT
  5
14088
330
13C23
100
AcDbEntity
  8
寸法
 62
     0
 48
50.0
370
    -2
100
AcDbBlockReference
  2
_DOTSMALL
 10
7064.024205957946
 20
2405.965215385922
 30
0.0
 41
100.0
 42
100.0
 43
100.0
 50
90.0
  0
INSERT
  5
14089
330
13C23
100
AcDbEntity
  8
寸法
 62
     0
 48
50.0
370
    -2
100
AcDbBlockReference
  2
_DOTSMALL
 10
7064.024205957945
 20
1505.965215385921
 30
0.0
 41
100.0
 42
100.0
 43
100.0
 50
270.0
  0
MTEXT
  5
1408A
330
13C23
100
AcDbEntity
  8
寸法
 62
     7
 48
50.0
100
AcDbMText
 10
6964.024205957945
 20
1955.965215385922
 30
0.0
 40
120.0
 41
0.0
 71
     5
 72
     1
  1
\A1;450
  7
STYLE1
 11
0.0000000000000001
 21
1.0
 31
0.0
 73
     1
 44
1.0
1001
ACAD
1000
MTEXTBEGIN
1070
    73
1070
     1
1070
    44
1040
1.0
1070
    74
1070
     0
1000
MTEXTEND
  0
POINT
  5
1408B
330
13C23
100
AcDbEntity
  8
DEFPOINTS
 62
     0
 48
50.0
100
AcDbPoint
 10
7814.334122857982
 20
2405.965215385921
 30
0.0
  0
POINT
  5
1408C
330
13C23
100
AcDbEntity
  8
DEFPOINTS
 62
     0
 48
50.0
100
AcDbPoint
 10
7386.415342356841
 20
1505.965215385921
 30
0.0
  0
POINT
  5
1408D
330
13C23
100
AcDbEntity
  8
DEFPOINTS
 62
     0
 48
50.0
100
AcDbPoint
 10
7064.024205957945
 20
1505.965215385921
 30
0.0
  0
ENDBLK
  5
13C2E
330
13C23
100
AcDbEntity
  8
0
 48
50.0
100
AcDbBlockEnd
  0
BLOCK
  5
13C39
330
13C2F
100
AcDbEntity
  8
0
 48
50.0
100
AcDbBlockBegin
  2
*D20
 70
     1
 10
0.0
 20
0.0
 30
0.0
  3
*D20
  1

  0
LINE
  5
14165
330
13C2F
100
AcDbEntity
  8
寸法
 62
     0
 48
50.0
370
    -2
100
AcDbLine
 10
8133.334122857986
 20
1866.015215385921
 30
0.0
 11
7225.939971462297
 21
1866.015215385921
 31
0.0
  0
LINE
  5
14166
330
13C2F
100
AcDbEntity
  8
寸法
 62
     0
 48
50.0
370
    -2
100
AcDbLine
 10
7366.415342356841
 20
1505.965215385921
 30
0.0
 11
7225.939971462297
 21
1505.965215385921
 31
0.0
  0
LINE
  5
14167
330
13C2F
100
AcDbEntity
  8
寸法
 62
     0
 48
50.0
370
    -2
100
AcDbLine
 10
7285.939971462298
 20
1866.015215385921
 30
0.0
 11
7285.939971462298
 21
1505.965215385921
 31
0.0
  0
INSERT
  5
14168
330
13C2F
100
AcDbEntity
  8
寸法
 62
     0
 48
50.0
370
    -2
100
AcDbBlockReference
  2
_DOTSMALL
 10
7285.939971462298
 20
1866.015215385921
 30
0.0
 41
100.0
 42
100.0
 43
100.0
 50
90.0
  0
INSERT
  5
14169
330
13C2F
100
AcDbEntity
  8
寸法
 62
     0
 48
50.0
370
    -2
100
AcDbBlockReference
  2
_DOTSMALL
 10
7285.939971462298
 20
1505.965215385921
 30
0.0
 41
100.0
 42
100.0
 43
100.0
 50
270.0
  0
MTEXT
  5
1416A
330
13C2F
100
AcDbEntity
  8
寸法
 62
     7
 48
50.0
100
AcDbMText
 10
7185.939971462298
 20
1687.090215385921
 30
0.0
 40
120.0
 41
0.0
 71
     5
 72
     1
  1
\A1;180
  7
STYLE1
 11
0.0000000000000001
 21
1.0
 31
0.0
 73
     1
 44
1.0
1001
ACAD
1000
MTEXTBEGIN
1070
    73
1070
     1
1070
    44
1040
1.0
1070
    74
1070
     0
1000
MTEXTEND
  0
POINT
  5
1416B
330
13C2F
100
AcDbEntity
  8
DEFPOINTS
 62
     0
 48
50.0
100
AcDbPoint
 10
8153.334122857987
 20
1866.015215385921
 30
0.0
  0
POINT
  5
1416C
330
13C2F
100
AcDbEntity
  8
DEFPOINTS
 62
     0
 48
50.0
100
AcDbPoint
 10
7386.415342356841
 20
1505.965215385921
 30
0.0
  0
POINT
  5
1416D
330
13C2F
100
AcDbEntity
  8
DEFPOINTS
 62
     0
 48
50.0
100
AcDbPoint
 10
7285.939971462298
 20
1505.965215385921
 30
0.0
  0
ENDBLK
  5
13C3A
330
13C2F
100
AcDbEntity
  8
0
 48
50.0
100
AcDbBlockEnd
  0
BLOCK
  5
13C45
330
13C3B
100
AcDbEntity
  8
0
 48
50.0
100
AcDbBlockBegin
  2
*D21
 70
     1
 10
0.0
 20
0.0
 30
0.0
  3
*D21
  1

  0
LINE
  5
1407C
330
13C3B
100
AcDbEntity
  8
寸法
 62
     0
 48
50.0
370
    -2
100
AcDbLine
 10
7516.834122857979
 20
1176.065215385921
 30
0.0
 11
7516.834122857979
 21
807.9441030093548
 31
0.0
  0
LINE
  5
1407D
330
13C3B
100
AcDbEntity
  8
寸法
 62
     0
 48
50.0
370
    -2
100
AcDbLine
 10
8916.834122857979
 20
1176.065215385921
 30
0.0
 11
8916.834122857979
 21
807.9441030093548
 31
0.0
  0
LINE
  5
1407E
330
13C3B
100
AcDbEntity
  8
寸法
 62
     0
 48
50.0
370
    -2
100
AcDbLine
 10
7516.834122857979
 20
867.9441030093549
 30
0.0
 11
8916.834122857979
 21
867.9441030093549
 31
0.0
  0
INSERT
  5
1407F
330
13C3B
100
AcDbEntity
  8
寸法
 62
     0
 48
50.0
370
    -2
100
AcDbBlockReference
  2
_DOTSMALL
 10
7516.834122857979
 20
867.9441030093549
 30
0.0
 41
100.0
 42
100.0
 43
100.0
 50
180.0
  0
INSERT
  5
14080
330
13C3B
100
AcDbEntity
  8
寸法
 62
     0
 48
50.0
370
    -2
100
AcDbBlockReference
  2
_DOTSMALL
 10
8916.834122857979
 20
867.9441030093549
 30
0.0
 41
100.0
 42
100.0
 43
100.0
  0
MTEXT
  5
14081
330
13C3B
100
AcDbEntity
  8
寸法
 62
     7
 48
50.0
100
AcDbMText
 10
8216.83412285798
 20
967.9441030093549
 30
0.0
 40
120.0
 41
0.0
 71
     5
 72
     1
  1
\A1;700
  7
STYLE1
 73
     1
 44
1.0
1001
ACAD
1000
MTEXTBEGIN
1070
    73
1070
     1
1070
    44
1040
1.0
1070
    74
1070
     0
1000
MTEXTEND
  0
POINT
  5
14082
330
13C3B
100
AcDbEntity
  8
DEFPOINTS
 62
     0
 48
50.0
100
AcDbPoint
 10
7516.834122857979
 20
1196.065215385921
 30
0.0
  0
POINT
  5
14083
330
13C3B
100
AcDbEntity
  8
DEFPOINTS
 62
     0
 48
50.0
100
AcDbPoint
 10
8916.834122857979
 20
1196.065215385921
 30
0.0
  0
POINT
  5
14084
330
13C3B
100
AcDbEntity
  8
DEFPOINTS
 62
     0
 48
50.0
100
AcDbPoint
 10
8916.834122857979
 20
867.9441030093549
 30
0.0
  0
ENDBLK
  5
13C46
330
13C3B
100
AcDbEntity
  8
0
 48
50.0
100
AcDbBlockEnd
  0
BLOCK
  5
13C53
330
13C47
100
AcDbEntity
  8
0
 48
50.0
100
AcDbBlockBegin
  2
*D22
 70
     1
 10
0.0
 20
0.0
 30
0.0
  3
*D22
  1

  0
LINE
  5
14097
330
13C47
100
AcDbEntity
  8
寸法
 62
     0
 48
50.0
370
    -2
100
AcDbLine
 10
7366.415342356834
 20
1505.965215385921
 30
0.0
 11
7004.024205957946
 21
1505.965215385921
 31
0.0
  0
LINE
  5
14098
330
13C47
100
AcDbEntity
  8
寸法
 62
     0
 48
50.0
370
    -2
100
AcDbLine
 10
7366.415342356835
 20
1406.065215385921
 30
0.0
 11
7004.024205957946
 21
1406.065215385921
 31
0.0
  0
LINE
  5
14099
330
13C47
100
AcDbEntity
  8
寸法
 62
     0
 48
50.0
370
    -2
100
AcDbLine
 10
7064.024205957945
 20
1505.965215385921
 30
0.0
 11
7064.024205957945
 21
1605.965215385921
 31
0.0
  0
LINE
  5
1409A
330
13C47
100
AcDbEntity
  8
寸法
 62
     0
 48
50.0
370
    -2
100
AcDbLine
 10
7064.024205957945
 20
1406.065215385921
 30
0.0
 11
7064.024205957945
 21
1306.065215385921
 31
0.0
  0
LINE
  5
1409B
330
13C47
100
AcDbEntity
  8
寸法
 62
     0
 48
50.0
370
    -2
100
AcDbLine
 10
7064.024205957945
 20
1505.965215385921
 30
0.0
 11
7064.024205957945
 21
1406.065215385921
 31
0.0
  0
INSERT
  5
1409C
330
13C47
100
AcDbEntity
  8
寸法
 62
     0
 48
50.0
370
    -2
100
AcDbBlockReference
  2
_DOTSMALL
 10
7064.024205957945
 20
1505.965215385921
 30
0.0
 41
100.0
 42
100.0
 43
100.0
 50
270.0
  0
INSERT
  5
1409D
330
13C47
100
AcDbEntity
  8
寸法
 62
     0
 48
50.0
370
    -2
100
AcDbBlockReference
  2
_DOTSMALL
 10
7064.024205957945
 20
1406.065215385921
 30
0.0
 41
100.0
 42
100.0
 43
100.0
 50
90.0
  0
MTEXT
  5
1409E
330
13C47
100
AcDbEntity
  8
寸法
 62
     7
 48
50.0
100
AcDbMText
 10
6964.024205957945
 20
1456.015215385922
 30
0.0
 40
120.0
 41
0.0
 71
     5
 72
     1
  1
\A1;50
  7
STYLE1
 11
0.0000000000000001
 21
1.0
 31
0.0
 73
     1
 44
1.0
1001
ACAD
1000
MTEXTBEGIN
1070
    73
1070
     1
1070
    44
1040
1.0
1070
    74
1070
     0
1000
MTEXTEND
  0
POINT
  5
1409F
330
13C47
100
AcDbEntity
  8
DEFPOINTS
 62
     0
 48
50.0
100
AcDbPoint
 10
7386.415342356833
 20
1505.965215385921
 30
0.0
  0
POINT
  5
140A0
330
13C47
100
AcDbEntity
  8
DEFPOINTS
 62
     0
 48
50.0
100
AcDbPoint
 10
7386.415342356835
 20
1406.065215385921
 30
0.0
  0
POINT
  5
140A1
330
13C47
100
AcDbEntity
  8
DEFPOINTS
 62
     0
 48
50.0
100
AcDbPoint
 10
7064.024205957945
 20
1406.065215385921
 30
0.0
  0
ENDBLK
  5
13C54
330
13C47
100
AcDbEntity
  8
0
 48
50.0
100
AcDbBlockEnd
  0
BLOCK
  5
13C60
330
13C55
100
AcDbEntity
  8
0
 48
50.0
100
AcDbBlockBegin
  2
*D23
 70
     1
 10
0.0
 20
0.0
 30
0.0
  3
*D23
  1

  0
LINE
  5
140AB
330
13C55
100
AcDbEntity
  8
寸法
 62
     0
 48
50.0
370
    -2
100
AcDbLine
 10
7794.334122857981
 20
2405.965215385921
 30
0.0
 11
7004.024205957946
 21
2405.965215385922
 31
0.0
  0
LINE
  5
140AC
330
13C55
100
AcDbEntity
  8
寸法
 62
     0
 48
50.0
370
    -2
100
AcDbLine
 10
7843.209122857981
 20
2505.965215385921
 30
0.0
 11
7004.024205957946
 21
2505.965215385922
 31
0.0
  0
LINE
  5
140AD
330
13C55
100
AcDbEntity
  8
寸法
 62
     0
 48
50.0
370
    -2
100
AcDbLine
 10
7064.024205957946
 20
2405.965215385922
 30
0.0
 11
7064.024205957946
 21
2505.965215385922
 31
0.0
  0
LINE
  5
140AE
330
13C55
100
AcDbEntity
  8
寸法
 62
     0
 48
50.0
370
    -2
100
AcDbLine
 10
7064.024205957946
 20
2505.965215385922
 30
0.0
 11
7064.024205957946
 21
2913.870727196945
 31
0.0
  0
INSERT
  5
140AF
330
13C55
100
AcDbEntity
  8
寸法
 62
     0
 48
50.0
370
    -2
100
AcDbBlockReference
  2
_DOTSMALL
 10
7064.024205957946
 20
2405.965215385922
 30
0.0
 41
100.0
 42
100.0
 43
100.0
 50
270.0
  0
INSERT
  5
140B0
330
13C55
100
AcDbEntity
  8
寸法
 62
     0
 48
50.0
370
    -2
100
AcDbBlockReference
  2
_DOTSMALL
 10
7064.024205957946
 20
2505.965215385922
 30
0.0
 41
100.0
 42
100.0
 43
100.0
 50
90.0
  0
MTEXT
  5
140B1
330
13C55
100
AcDbEntity
  8
寸法
 62
     7
 48
50.0
100
AcDbMText
 10
6958.024205957944
 20
2759.917971291435
 30
0.0
 40
120.0
 41
0.0
 71
     5
 72
     1
  1
\A1;(50)
  7
STYLE1
 11
0.0000000000000001
 21
1.0
 31
0.0
 73
     1
 44
1.0
1001
ACAD
1000
MTEXTBEGIN
1070
    73
1070
     1
1070
    44
1040
1.0
1070
    74
1070
     0
1000
MTEXTEND
  0
POINT
  5
140B2
330
13C55
100
AcDbEntity
  8
DEFPOINTS
 62
     0
 48
50.0
100
AcDbPoint
 10
7814.334122857982
 20
2405.965215385921
 30
0.0
  0
POINT
  5
140B3
330
13C55
100
AcDbEntity
  8
DEFPOINTS
 62
     0
 48
50.0
100
AcDbPoint
 10
7863.209122857981
 20
2505.965215385921
 30
0.0
  0
POINT
  5
140B4
330
13C55
100
AcDbEntity
  8
DEFPOINTS
 62
     0
 48
50.0
100
AcDbPoint
 10
7064.024205957946
 20
2505.965215385922
 30
0.0
  0
ENDBLK
  5
13C61
330
13C55
100
AcDbEntity
  8
0
 48
50.0
100
AcDbBlockEnd
  0
BLOCK
  5
13C6C
330
13C62
100
AcDbEntity
  8
0
 48
50.0
100
AcDbBlockBegin
  2
*D24
 70
     1
 10
0.0
 20
0.0
 30
0.0
  3
*D24
  1

  0
LINE
  5
140B5
330
13C62
100
AcDbEntity
  8
寸法
 62
     0
 48
50.0
370
    -2
100
AcDbLine
 10
7794.334122857981
 20
2405.965215385921
 30
0.0
 11
7225.939971462299
 21
2405.965215385921
 31
0.0
  0
LINE
  5
140B6
330
13C62
100
AcDbEntity
  8
寸法
 62
     0
 48
50.0
370
    -2
100
AcDbLine
 10
7496.834122857977
 20
2306.090215385921
 30
0.0
 11
7225.939971462299
 21
2306.090215385921
 31
0.0
  0
LINE
  5
140B7
330
13C62
100
AcDbEntity
  8
寸法
 62
     0
 48
50.0
370
    -2
100
AcDbLine
 10
7285.939971462299
 20
2405.965215385921
 30
0.0
 11
7285.939971462299
 21
2306.090215385921
 31
0.0
  0
INSERT
  5
140B8
330
13C62
100
AcDbEntity
  8
寸法
 62
     0
 48
50.0
370
    -2
100
AcDbBlockReference
  2
_DOTSMALL
 10
7285.939971462299
 20
2405.965215385921
 30
0.0
 41
100.0
 42
100.0
 43
100.0
 50
90.0
  0
INSERT
  5
140B9
330
13C62
100
AcDbEntity
  8
寸法
 62
     0
 48
50.0
370
    -2
100
AcDbBlockReference
  2
_DOTSMALL
 10
7285.939971462299
 20
2306.090215385921
 30
0.0
 41
100.0
 42
100.0
 43
100.0
 50
270.0
  0
MTEXT
  5
140BA
330
13C62
100
AcDbEntity
  8
寸法
 62
     7
 48
50.0
100
AcDbMText
 10
7185.939971462298
 20
2356.027715385923
 30
0.0
 40
120.0
 41
0.0
 71
     5
 72
     1
  1
\A1;50
  7
STYLE1
 11
0.0000000000000001
 21
1.0
 31
0.0
 73
     1
 44
1.0
1001
ACAD
1000
MTEXTBEGIN
1070
    73
1070
     1
1070
    44
1040
1.0
1070
    74
1070
     0
1000
MTEXTEND
  0
POINT
  5
140BB
330
13C62
100
AcDbEntity
  8
DEFPOINTS
 62
     0
 48
50.0
100
AcDbPoint
 10
7814.334122857982
 20
2405.965215385921
 30
0.0
  0
POINT
  5
140BC
330
13C62
100
AcDbEntity
  8
DEFPOINTS
 62
     0
 48
50.0
100
AcDbPoint
 10
7516.834122857978
 20
2306.090215385921
 30
0.0
  0
POINT
  5
140BD
330
13C62
100
AcDbEntity
  8
DEFPOINTS
 62
     0
 48
50.0
100
AcDbPoint
 10
7285.939971462299
 20
2306.090215385921
 30
0.0
  0
ENDBLK
  5
13C6D
330
13C62
100
AcDbEntity
  8
0
 48
50.0
100
AcDbBlockEnd
  0
ENDSEC
  0
SECTION
  2
ENTITIES
  0
LINE
  5
10B56
330
747D
100
AcDbEntity
  8
補助
  6
PHANTOM
 62
   230
 48
50.0
100
AcDbLine
 10
140.0
 20
0.0
 30
0.0
 11
139.9999999999995
 21
11409.6
 31
0.0
  0
LINE
  5
10B57
330
747D
100
AcDbEntity
  8
補助
  6
PHANTOM
 62
   230
 48
50.0
100
AcDbLine
 10
139.9999999999995
 20
11409.6
 30
0.0
 11
16307.2
 21
11409.6
 31
0.0
  0
LINE
  5
10B59
330
747D
100
AcDbEntity
  8
仕様書枠
  6
Continuous
 48
50.0
100
AcDbLine
 10
13107.2
 20
1200.0
 30
0.0
 11
13107.2
 21
-0.0000000000000729
 31
0.0
  0
LINE
  5
10B5C
330
747D
100
AcDbEntity
  8
仕様書枠
 48
50.0
100
AcDbLine
 10
16307.2
 20
1200.0
 30
0.0
 11
16307.2
 21
-0.0000000000000909
 31
0.0
  0
LINE
  5
10B5D
330
747D
100
AcDbEntity
  8
仕様書枠
 48
50.0
100
AcDbLine
 10
140.0
 20
0.0
 30
0.0
 11
16307.2
 21
-0.0000000000000909
 31
0.0
  0
LINE
  5
10B5E
330
747D
100
AcDbEntity
  8
補助
  6
PHANTOM
 62
   230
 48
50.0
100
AcDbLine
 10
16307.2
 20
11409.6
 30
0.0
 11
16307.2
 21
1200.0
 31
0.0
  0
LINE
  5
10B6C
330
747D
100
AcDbEntity
  8
仕様書枠
 48
50.0
100
AcDbLine
 10
13107.2
 20
1200.0
 30
0.0
 11
16307.2
 21
1200.0
 31
0.0
  0
LINE
  5
10B72
330
747D
100
AcDbEntity
  8
文字
 62
     7
 48
50.0
100
AcDbLine
 10
13187.2
 20
400.0
 30
0.0
 11
16227.2
 21
400.0
 31
0.0
  0
TEXT
  5
10B73
330
747D
100
AcDbEntity
  8
文字
 48
50.0
100
AcDbText
 10
13162.9790565769
 20
895.0906074299405
 30
0.0
 40
200.0
  1
基 礎 図
  7
STYLE2
100
AcDbText
  0
TEXT
  5
10B74
330
747D
100
AcDbEntity
  8
文字
 48
50.0
100
AcDbText
 10
13201.43669998441
 20
477.2740661031255
 30
0.0
 40
160.0
  1
機種名
  7
STYLE2
100
AcDbText
  0
TEXT
  5
10B75
330
747D
100
AcDbEntity
  8
文字
 48
50.0
100
AcDbText
 10
13209.4053442172
 20
228.5435242569016
 30
0.0
 40
100.0
  1
○間口奥行寸法は柱芯寸法です。
  7
STYLE2
100
AcDbText
  0
LINE
  5
10B7B
330
747D
100
AcDbEntity
  8
仕様書枠
 48
50.0
100
AcDbLine
 10
13107.2
 20
800.0
 30
0.0
 11
14251.2
 21
800.0
 31
0.0
  0
LINE
  5
10B88
330
747D
100
AcDbEntity
  8
仕様書枠
  6
Continuous
 48
50.0
100
AcDbLine
 10
14251.2
 20
1200.0
 30
0.0
 11
14251.2
 21
800.0
 31
0.0
  0
TEXT
  5
10EA8
330
747D
100
AcDbEntity
  8
文字
 48
50.0
100
AcDbText
 10
14654.95645840324
 20
838.2527270729188
 30
0.0
 40
100.0
  1
～一般型・豪雪地型～
  7
STYLE2
100
AcDbText
  0
LINE
  5
11794
330
747D
100
AcDbEntity
  8
点線
 48
50.0
100
AcDbLine
 10
6833.6
 20
4959.785662218298
 30
0.0
 11
9613.600000000001
 21
4959.785662218298
 31
0.0
  0
LINE
  5
11795
330
747D
100
AcDbEntity
  8
点線
 48
50.0
100
AcDbLine
 10
9613.600000000001
 20
4959.785662218298
 30
0.0
 11
9613.600000000001
 21
7729.785662218297
 31
0.0
  0
LINE
  5
11796
330
747D
100
AcDbEntity
  8
点線
 48
50.0
100
AcDbLine
 10
9613.600000000001
 20
7729.785662218297
 30
0.0
 11
6833.6
 21
7729.785662218297
 31
0.0
  0
LINE
  5
1179E
330
747D
100
AcDbEntity
  8
センター
 48
50.0
100
AcDbLine
 10
6783.599999999999
 20
5879.785662218298
 30
0.0
 11
7283.599999999999
 21
5879.785662218297
 31
0.0
  0
LINE
  5
117A1
330
747D
100
AcDbEntity
  8
センター
 48
50.0
100
AcDbLine
 10
6783.599999999999
 20
7529.785662218298
 30
0.0
 11
7283.599999999999
 21
7529.785662218298
 31
0.0
  0
LINE
  5
117A5
330
747D
100
AcDbEntity
  8
センター
 48
50.0
100
AcDbLine
 10
9413.6
 20
5629.785662218298
 30
0.0
 11
9413.6
 21
6129.785662218299
 31
0.0
  0
LINE
  5
117CC
330
747D
100
AcDbEntity
  8
文字
 48
50.0
100
AcDbLine
 10
7063.6
 20
7559.785662218295
 30
0.0
 11
7063.6
 21
7499.785662218295
 31
0.0
  0
LINE
  5
117CD
330
747D
100
AcDbEntity
  8
文字
 48
50.0
100
AcDbLine
 10
7003.6
 20
7559.785662218295
 30
0.0
 11
7003.6
 21
7499.785662218295
 31
0.0
  0
LINE
  5
117CE
330
747D
100
AcDbEntity
  8
文字
 48
50.0
100
AcDbLine
 10
7063.6
 20
7499.785662218295
 30
0.0
 11
7003.6
 21
7499.785662218295
 31
0.0
  0
LINE
  5
117CF
330
747D
100
AcDbEntity
  8
文字
 48
50.0
100
AcDbLine
 10
7063.6
 20
7559.785662218295
 30
0.0
 11
7003.6
 21
7559.785662218295
 31
0.0
  0
LINE
  5
117D0
330
747D
100
AcDbEntity
  8
文字
 48
50.0
100
AcDbLine
 10
9443.600000000001
 20
7559.785662218297
 30
0.0
 11
9443.600000000001
 21
7499.785662218295
 31
0.0
  0
LINE
  5
117D1
330
747D
100
AcDbEntity
  8
文字
 48
50.0
100
AcDbLine
 10
9383.599999999999
 20
7559.785662218297
 30
0.0
 11
9383.599999999999
 21
7499.785662218295
 31
0.0
  0
LINE
  5
117D2
330
747D
100
AcDbEntity
  8
文字
 48
50.0
100
AcDbLine
 10
9443.600000000001
 20
7499.785662218295
 30
0.0
 11
9383.599999999999
 21
7499.785662218295
 31
0.0
  0
LINE
  5
117D3
330
747D
100
AcDbEntity
  8
文字
 48
50.0
100
AcDbLine
 10
9443.600000000001
 20
7559.785662218295
 30
0.0
 11
9383.599999999999
 21
7559.785662218295
 31
0.0
  0
LINE
  5
117D4
330
747D
100
AcDbEntity
  8
文字
 48
50.0
100
AcDbLine
 10
7063.6
 20
5909.785662218297
 30
0.0
 11
7063.6
 21
5849.785662218295
 31
0.0
  0
LINE
  5
117D5
330
747D
100
AcDbEntity
  8
文字
 48
50.0
100
AcDbLine
 10
7003.6
 20
5909.785662218297
 30
0.0
 11
7003.6
 21
5849.785662218295
 31
0.0
  0
LINE
  5
117D6
330
747D
100
AcDbEntity
  8
文字
 48
50.0
100
AcDbLine
 10
7063.6
 20
5849.785662218295
 30
0.0
 11
7003.6
 21
5849.785662218295
 31
0.0
  0
LINE
  5
117D7
330
747D
100
AcDbEntity
  8
文字
 48
50.0
100
AcDbLine
 10
7063.6
 20
5909.785662218297
 30
0.0
 11
7003.6
 21
5909.785662218297
 31
0.0
  0
LINE
  5
117D8
330
747D
100
AcDbEntity
  8
文字
 48
50.0
100
AcDbLine
 10
9443.600000000001
 20
5909.785662218297
 30
0.0
 11
9443.600000000001
 21
5849.785662218295
 31
0.0
  0
LINE
  5
117D9
330
747D
100
AcDbEntity
  8
文字
 48
50.0
100
AcDbLine
 10
9383.599999999999
 20
5909.785662218297
 30
0.0
 11
9383.599999999999
 21
5849.785662218295
 31
0.0
  0
LINE
  5
117DA
330
747D
100
AcDbEntity
  8
文字
 48
50.0
100
AcDbLine
 10
9443.600000000001
 20
5849.785662218295
 30
0.0
 11
9383.599999999999
 21
5849.785662218295
 31
0.0
  0
LINE
  5
117DB
330
747D
100
AcDbEntity
  8
文字
 48
50.0
100
AcDbLine
 10
9443.600000000001
 20
5909.785662218297
 30
0.0
 11
9383.599999999999
 21
5909.785662218297
 31
0.0
  0
LINE
  5
117F2
330
747D
100
AcDbEntity
  8
センター
 48
50.0
100
AcDbLine
 10
7033.599999999999
 20
7779.785662218298
 30
0.0
 11
7033.599999999999
 21
7279.785662218298
 31
0.0
  0
LINE
  5
117F3
330
747D
100
AcDbEntity
  8
センター
 48
50.0
100
AcDbLine
 10
9163.599999999998
 20
7529.785662218298
 30
0.0
 11
9663.600000000002
 21
7529.785662218298
 31
0.0
  0
LINE
  5
117F4
330
747D
100
AcDbEntity
  8
センター
 48
50.0
100
AcDbLine
 10
7033.599999999999
 20
6129.785662218297
 30
0.0
 11
7033.599999999999
 21
5629.785662218297
 31
0.0
  0
LINE
  5
117F5
330
747D
100
AcDbEntity
  8
センター
 48
50.0
100
AcDbLine
 10
9413.600000000002
 20
7279.785662218298
 30
0.0
 11
9413.600000000002
 21
7779.785662218298
 31
0.0
  0
LINE
  5
117F6
330
747D
100
AcDbEntity
  8
センター
 48
50.0
100
AcDbLine
 10
9163.6
 20
5879.785662218298
 30
0.0
 11
9663.600000000002
 21
5879.785662218297
 31
0.0
  0
DIMENSION
  5
11886
330
747D
100
AcDbEntity
  8
寸法
 48
50.0
100
AcDbDimension
  2
*D2
 10
6391.105727429235
 20
7529.785662218298
 30
0.0
 11
6391.105727429234
 21
7979.356528360032
 31
0.0
 70
   160
 71
     5
 42
200.0
  3
INABA_S40G
100
AcDbAlignedDimension
 13
6833.6
 23
7729.785662218297
 33
0.0
 14
6783.599999999999
 24
7529.785662218298
 34
0.0
 50
90.0
100
AcDbRotatedDimension
  0
DIMENSION
  5
11892
330
747D
100
AcDbEntity
  8
寸法
 48
50.0
100
AcDbDimension
  2
*D3
 10
6391.105727429234
 20
5879.785662218298
 30
0.0
 11
6291.105727429233
 21
6704.785662218299
 31
0.0
 70
    32
 71
     5
 42
1649.999999999999
  3
INABA_S40G
100
AcDbAlignedDimension
 13
6783.599999999999
 23
7529.785662218298
 33
0.0
 14
6783.599999999999
 24
5879.785662218298
 34
0.0
 50
90.0
100
AcDbRotatedDimension
  0
DIMENSION
  5
1189E
330
747D
100
AcDbEntity
  8
寸法
 48
50.0
100
AcDbDimension
  2
*D4
 10
6391.105727429234
 20
4959.785662218298
 30
0.0
 11
6291.064914864429
 21
5419.785662218298
 31
0.0
 70
    32
 71
     5
 42
920.0000000000009
  3
INABA_S40G
100
AcDbAlignedDimension
 13
6783.599999999999
 23
5879.785662218298
 33
0.0
 14
6833.6
 24
4959.785662218298
 34
0.0
 50
90.0
100
AcDbRotatedDimension
  0
DIMENSION
  5
118AB
330
747D
100
AcDbEntity
  8
寸法
 48
50.0
100
AcDbDimension
  2
*D5
 10
6053.812491819075
 20
4959.785662218298
 30
0.0
 11
5953.800680795453
 21
6344.785662218299
 31
0.0
 70
    32
  1
基礎寸法 <>
 71
     5
 42
2770.0
  3
INABA_S40G
100
AcDbAlignedDimension
 13
6833.6
 23
7729.785662218297
 33
0.0
 14
6833.6
 24
4959.785662218298
 34
0.0
 50
90.0
100
AcDbRotatedDimension
  0
DIMENSION
  5
118B8
330
747D
100
AcDbEntity
  8
寸法
 48
50.0
100
AcDbDimension
  2
*D6
 10
7383.600000000001
 20
6383.680570935904
 30
0.0
 11
7033.600000000001
 21
6483.680570935904
 31
0.0
 70
    32
 71
     5
 42
700.0
  3
INABA_S40G
100
AcDbAlignedDimension
 13
6683.600000000001
 23
6229.785662218298
 33
0.0
 14
7383.600000000001
 24
6229.785662218298
 34
0.0
100
AcDbRotatedDimension
  0
DIMENSION
  5
118C5
330
747D
100
AcDbEntity
  8
寸法
 48
50.0
100
AcDbDimension
  2
*D7
 10
7661.598666593929
 20
5529.785662218298
 30
0.0
 11
7561.598666593927
 21
5879.785662218299
 31
0.0
 70
    32
 71
     5
 42
700.0
  3
INABA_S40G
100
AcDbAlignedDimension
 13
7383.600000000001
 23
6229.785662218298
 33
0.0
 14
7383.600000000001
 24
5529.785662218298
 34
0.0
 50
90.0
100
AcDbRotatedDimension
  0
DIMENSION
  5
118DA
330
747D
100
AcDbEntity
  8
寸法
 48
50.0
100
AcDbDimension
  2
*D8
 10
7033.599999999999
 20
4643.212687273765
 30
0.0
 11
6584.029133858269
 21
4643.212687273765
 31
0.0
 70
   160
 71
     5
 42
200.0
  3
INABA_S40G
100
AcDbAlignedDimension
 13
6833.6
 23
4959.785662218298
 33
0.0
 14
7033.599999999999
 24
5629.785662218297
 34
0.0
100
AcDbRotatedDimension
  0
DIMENSION
  5
118E6
330
747D
100
AcDbEntity
  8
寸法
 48
50.0
100
AcDbDimension
  2
*D9
 10
9413.6
 20
4643.212687273765
 30
0.0
 11
8223.600000000001
 21
4743.224498297386
 31
0.0
 70
    32
 71
     5
 42
2380.0
  3
INABA_S40G
100
AcDbAlignedDimension
 13
7033.599999999999
 23
5629.785662218297
 33
0.0
 14
9413.6
 24
5629.785662218298
 34
0.0
100
AcDbRotatedDimension
  0
DIMENSION
  5
1190F
330
747D
100
AcDbEntity
  8
寸法
 48
50.0
100
AcDbDimension
  2
*D10
 10
9613.600000000001
 20
4643.212687273765
 30
0.0
 11
9863.170866141732
 21
4643.212687273765
 31
0.0
 70
   160
 71
     5
 42
200.0
  3
INABA_S40G
100
AcDbAlignedDimension
 13
9413.6
 23
5629.785662218298
 33
0.0
 14
9613.600000000001
 24
4959.785662218298
 34
0.0
100
AcDbRotatedDimension
  0
DIMENSION
  5
11934
330
747D
100
AcDbEntity
  8
寸法
 48
50.0
100
AcDbDimension
  2
*D11
 10
9613.600000000001
 20
4311.259653382771
 30
0.0
 11
8223.600000000001
 21
4311.259653382771
 31
0.0
 70
   160
  1
基礎寸法 <>
 71
     5
 42
2780.0
  3
INABA_S40G
100
AcDbAlignedDimension
 13
6833.6
 23
4959.785662218298
 33
0.0
 14
9613.600000000001
 24
4959.785662218298
 34
0.0
100
AcDbRotatedDimension
  0
LEADER
  5
11935
330
747D
100
AcDbEntity
  8
寸法
 48
50.0
100
AcDbLeader
  3
INABA_S40G
 73
     0
 74
     0
 75
     1
 40
120.0
 41
144.0
 76
     3
 10
7033.599999999999
 20
5879.785662218297
 30
0.0
 10
7219.567328914769
 20
5293.820296107689
 30
0.0
 10
7319.567328914769
 20
5293.820296107689
 30
0.0
340
11936
  0
MTEXT
  5
11936
102
{ACAD_REACTORS
330
11935
102
}
330
747D
100
AcDbEntity
  8
寸法
 62
     7
 48
50.0
100
AcDbMText
 10
7359.56732891477
 20
5393.82029610769
 30
0.0
 40
120.0
 41
0.0
 71
     4
 72
     1
  1
\A1;柱
  7
STYLE1
 73
     1
 44
1.0
1001
ACAD
1000
MTEXTBEGIN
1070
    73
1070
     1
1070
    44
1040
1.0
1070
    74
1070
     0
1000
MTEXTEND
  0
MTEXT
  5
11B0C
330
747D
100
AcDbEntity
  8
寸法
 62
     7
 48
50.0
100
AcDbMText
 10
7189.76368710948
 20
6767.188671714579
 30
0.0
 40
120.0
 41
0.0
 71
     4
 72
     1
  1
床コンクリート打コテ押エ
  7
STYLE1
 73
     1
 44
1.0
1001
ACAD
1000
MTEXTBEGIN
1070
    73
1070
     1
1070
    44
1040
1.0
1070
    74
1070
     0
1000
MTEXTEND
  0
LINE
  5
11B10
330
747D
100
AcDbEntity
  8
文字
 48
50.0
100
AcDbLine
 10
8328.953833759792
 20
6542.506454877592
 30
0.0
 11
8328.953833759792
 21
5184.729248686006
 31
0.0
  0
LINE
  5
11B12
330
747D
100
AcDbEntity
  8
文字
 48
50.0
100
AcDbLine
 10
8328.953833759792
 20
5184.729248686006
 30
0.0
 11
8372.751544203543
 21
5348.184529317277
 31
0.0
  0
LINE
  5
11B13
330
747D
100
AcDbEntity
  8
文字
 48
50.0
100
AcDbLine
 10
8328.953833759792
 20
5184.729248686006
 30
0.0
 11
8285.15612331604
 21
5348.184529317277
 31
0.0
  0
MTEXT
  5
11B43
330
747D
100
AcDbEntity
  8
寸法
 62
     7
 48
50.0
100
AcDbMText
 10
8210.392312576601
 20
5406.75617688548
 30
0.0
 40
120.0
 41
0.0
 71
     4
 72
     1
  1
\A1;水勾配１／１００ 
  7
STYLE1
 11
0.0000000000000001
 21
1.0
 31
0.0
 73
     1
 44
1.0
1001
ACAD
1000
MTEXTBEGIN
1070
    73
1070
     1
1070
    44
1040
1.0
1070
    74
1070
     0
1000
MTEXTEND
  0
TEXT
  5
11F11
330
747D
100
AcDbEntity
  8
仕様書枠
 62
     7
 48
50.0
100
AcDbText
 10
14518.37944936722
 20
1031.557706291228
 30
0.0
 40
100.0
  1
NO.1     <縮尺> S=1/40
  7
STYLE2
100
AcDbText
  0
LINE
  5
11F1F
330
747D
100
AcDbEntity
  8
点線
 48
50.0
100
AcDbLine
 10
6833.6
 20
7729.785662218297
 30
0.0
 11
6833.6
 21
4959.785662218298
 31
0.0
  0
LINE
  5
11F89
330
747D
100
AcDbEntity
  8
寸法
 48
50.0
100
AcDbLine
 10
7033.599999999999
 20
7979.785662218297
 30
0.0
 11
7457.156384581534
 21
7979.785662218297
 31
0.0
  0
LINE
  5
11F8A
330
747D
100
AcDbEntity
  8
寸法
 48
50.0
100
AcDbLine
 10
7457.156384581534
 20
7979.785662218297
 30
0.0
 11
7277.600766943239
 21
8027.897444960951
 31
0.0
  0
LINE
  5
11F8B
330
747D
100
AcDbEntity
  8
寸法
 48
50.0
100
AcDbLine
 10
7277.600766943239
 20
8027.897444960951
 30
0.0
 11
7277.600766943239
 21
7918.00641342503
 31
0.0
  0
MTEXT
  5
11F8C
330
747D
100
AcDbEntity
  8
寸法
 62
     7
 48
50.0
100
AcDbMText
 10
7483.761133069726
 20
7993.335942926918
 30
0.0
 40
120.0
 41
0.0
 71
     4
 72
     1
  1
A
  7
STYLE1
 73
     1
 44
1.0
1001
ACAD
1000
MTEXTBEGIN
1070
    73
1070
     1
1070
    44
1040
1.0
1070
    74
1070
     0
1000
MTEXTEND
  0
LINE
  5
11F8D
330
747D
100
AcDbEntity
  8
寸法
 48
50.0
100
AcDbLine
 10
7033.599999999999
 20
7079.785662218298
 30
0.0
 11
7457.156384581534
 21
7079.785662218298
 31
0.0
  0
LINE
  5
11F8E
330
747D
100
AcDbEntity
  8
寸法
 48
50.0
100
AcDbLine
 10
7457.156384581534
 20
7079.785662218298
 30
0.0
 11
7277.600766943239
 21
7031.673879475646
 31
0.0
  0
LINE
  5
11F8F
330
747D
100
AcDbEntity
  8
寸法
 48
50.0
100
AcDbLine
 10
7277.600766943239
 20
7031.673879475646
 30
0.0
 11
7277.600766943239
 21
7141.564911011565
 31
0.0
  0
MTEXT
  5
11F90
330
747D
100
AcDbEntity
  8
寸法
 62
     7
 48
50.0
100
AcDbMText
 10
7489.484675553154
 20
7093.33594292692
 30
0.0
 40
120.0
 41
0.0
 71
     4
 72
     1
  1
A'
  7
STYLE1
 73
     1
 44
1.0
1001
ACAD
1000
MTEXTBEGIN
1070
    73
1070
     1
1070
    44
1040
1.0
1070
    74
1070
     0
1000
MTEXTEND
  0
LINE
  5
120A0
330
747D
100
AcDbEntity
  8
文字
 48
50.0
100
AcDbLine
 10
7729.267327271163
 20
183.222831790903
 30
0.0
 11
8864.436144981754
 21
183.2228317909029
 31
0.0
  0
TEXT
  5
120A1
330
747D
100
AcDbEntity
  8
文字
 62
     7
 48
50.0
100
AcDbText
 10
7800.291121844726
 20
249.7862569918616
 30
0.0
 40
105.0
  1
A-A' 断面 1/20
  7
STYLE2
100
AcDbText
  0
LINE
  5
120A2
330
747D
100
AcDbEntity
  8
文字
 48
50.0
100
AcDbLine
 10
7729.267327271163
 20
421.222831790903
 30
0.0
 11
8864.436144981754
 21
421.222831790903
 31
0.0
  0
LINE
  5
120A4
330
747D
100
AcDbEntity
  8
文字
 48
50.0
100
AcDbLine
 10
7729.267327271163
 20
421.222831790903
 30
0.0
 11
7729.267327271163
 21
183.222831790903
 31
0.0
  0
LINE
  5
120BC
330
747D
100
AcDbEntity
  8
文字
 48
50.0
100
AcDbLine
 10
8864.436144981752
 20
421.222831790903
 30
0.0
 11
8864.436144981752
 21
183.222831790903
 31
0.0
  0
LINE
  5
12295
330
747D
100
AcDbEntity
  8
想像線
 48
50.0
100
AcDbLine
 10
9663.599999999998
 20
5129.785662218296
 30
0.0
 11
9663.600000000002
 21
7829.785662218299
 31
0.0
  0
LINE
  5
122E1
330
747D
100
AcDbEntity
  8
寸法
 48
50.0
100
AcDbLine
 10
7033.599999999999
 20
7279.785662218298
 30
0.0
 11
7033.599999999999
 21
7079.785662218298
 31
0.0
  0
LINE
  5
122E2
330
747D
100
AcDbEntity
  8
寸法
 48
50.0
100
AcDbLine
 10
7033.599999999999
 20
7979.785662218296
 30
0.0
 11
7033.599999999999
 21
7779.785662218298
 31
0.0
  0
DIMENSION
  5
1231E
330
747D
100
AcDbEntity
  8
寸法
 48
50.0
100
AcDbDimension
  2
*D12
 10
10636.60034245212
 20
5129.785662218295
 30
0.0
 11
10636.60034245212
 21
6479.785662218297
 31
0.0
 70
   160
  1
屋根寸法 <>
 71
     5
 42
2700.000000000004
  3
INABA_S40G
100
AcDbAlignedDimension
 13
9663.600000000002
 23
7829.785662218299
 33
0.0
 14
9663.599999999998
 24
5129.785662218296
 34
0.0
 50
90.0
100
AcDbRotatedDimension
  0
DIMENSION
  5
12328
330
747D
100
AcDbEntity
  8
寸法
 48
50.0
100
AcDbDimension
  2
*D13
 10
7033.599999999999
 20
8160.859626484437
 30
0.0
 11
6908.599999999999
 21
8260.871437508059
 31
0.0
 70
    32
 71
     5
 42
250.0000000000009
  3
INABA_S40G
100
AcDbAlignedDimension
 13
6783.599999999999
 23
7829.785662218299
 33
0.0
 14
7033.599999999999
 24
7979.785662218296
 34
0.0
100
AcDbRotatedDimension
  0
DIMENSION
  5
1233D
330
747D
100
AcDbEntity
  8
寸法
 48
50.0
100
AcDbDimension
  2
*D14
 10
9663.600000000002
 20
8160.859626484437
 30
0.0
 11
9538.600000000002
 21
8260.871437508059
 31
0.0
 70
    32
 71
     5
 42
249.9999999999982
  3
INABA_S40G
100
AcDbAlignedDimension
 13
9413.600000000002
 23
7779.785662218298
 33
0.0
 14
9663.600000000002
 24
7829.785662218299
 34
0.0
100
AcDbRotatedDimension
  0
DIMENSION
  5
12469
330
747D
100
AcDbEntity
  8
寸法
 48
50.0
100
AcDbDimension
  2
*D15
 10
9663.600000000002
 20
8532.241501310897
 30
0.0
 11
8223.600000000001
 21
8532.241501310897
 31
0.0
 70
   160
  1
屋根寸法 <>
 71
     5
 42
2880.000000000001
  3
INABA_S40G
100
AcDbAlignedDimension
 13
6783.599999999999
 23
7829.785662218299
 33
0.0
 14
9663.600000000002
 24
7829.785662218299
 34
0.0
100
AcDbRotatedDimension
  0
LINE
  5
12566
330
747D
100
AcDbEntity
  8
想像線
 48
50.0
100
AcDbLine
 10
6783.599999999998
 20
7829.785662218299
 30
0.0
 11
9663.600000000002
 21
7829.785662218299
 31
0.0
  0
DIMENSION
  5
12670
330
747D
100
AcDbEntity
  8
寸法
 48
50.0
100
AcDbDimension
  2
*D16
 10
10132.77950873463
 20
7829.785662218299
 30
0.0
 11
10032.77950873462
 21
7679.7856622183
 31
0.0
 70
    32
 71
     5
 42
300.0000000000009
  3
INABA_S40G
100
AcDbAlignedDimension
 13
9663.600000000002
 23
7529.785662218298
 33
0.0
 14
9663.600000000002
 24
7829.785662218299
 34
0.0
 50
90.0
100
AcDbRotatedDimension
  0
DIMENSION
  5
12688
330
747D
100
AcDbEntity
  8
寸法
 48
50.0
100
AcDbDimension
  2
*D17
 10
10084.76580351061
 20
5129.785662218296
 30
0.0
 11
10084.7658035106
 21
5504.785662218297
 31
0.0
 70
   160
 71
     5
 42
750.0000000000018
  3
INABA_S40G
100
AcDbAlignedDimension
 13
9663.600000000002
 23
5879.785662218297
 33
0.0
 14
9663.600000000002
 24
5129.785662218296
 34
0.0
 50
90.0
100
AcDbRotatedDimension
  0
LINE
  5
12985
330
747D
100
AcDbEntity
  8
想像線
 48
50.0
100
AcDbLine
 10
6783.599999999999
 20
7172.270182285584
 30
0.0
 11
6783.599999999999
 21
7829.785662218299
 31
0.0
  0
MTEXT
  5
12C3D
102
{ACAD_REACTORS
330
12C3E
102
}
330
747D
100
AcDbEntity
  8
部品1
 62
     7
 48
50.0
100
AcDbMText
 10
9106.435101556519
 20
8145.882166798063
 30
0.0
 40
120.0
 41
0.0
 71
     6
 72
     1
  1
\A1;屋根の外寸
  7
STYLE1
 73
     1
 44
1.0
1001
ACAD
1000
MTEXTBEGIN
1070
    73
1070
     1
1070
    44
1040
1.0
1070
    74
1070
     0
1000
MTEXTEND
  0
LEADER
  5
12C3E
330
747D
100
AcDbEntity
  8
寸法
 48
50.0
100
AcDbLeader
  3
INABA_S40G
 73
     0
 74
     0
 75
     1
 40
120.0
 41
672.0
 76
     3
 10
8223.599999999999
 20
7829.785662218299
 30
0.0
 10
8380.694883712697
 20
8045.882166798064
 30
0.0
 10
8480.694883712699
 20
8045.882166798064
 30
0.0
340
12C3D
213
86.25978215617942
223
0.0
233
0.0
  0
LINE
  5
12C3F
330
747D
100
AcDbEntity
  8
想像線
 48
50.0
100
AcDbLine
 10
7483.6
 20
5129.785662218296
 30
0.0
 11
9663.599999999998
 21
5129.785662218296
 31
0.0
  0
LINE
  5
12FDB
330
747D
100
AcDbEntity
  8
部品1
 48
50.0
100
AcDbLine
 10
9063.600000000002
 20
7879.785662218298
 30
0.0
 11
9763.600000000003
 21
7879.785662218298
 31
0.0
  0
LINE
  5
12FDC
330
747D
100
AcDbEntity
  8
部品1
 48
50.0
100
AcDbLine
 10
9763.600000000003
 20
7879.785662218298
 30
0.0
 11
9763.600000000003
 21
7179.785662218297
 31
0.0
  0
LINE
  5
12FDD
330
747D
100
AcDbEntity
  8
部品1
 48
50.0
100
AcDbLine
 10
9763.600000000003
 20
7179.785662218297
 30
0.0
 11
9063.600000000002
 21
7179.785662218297
 31
0.0
  0
LINE
  5
12FDE
330
747D
100
AcDbEntity
  8
部品1
 48
50.0
100
AcDbLine
 10
9063.600000000002
 20
7179.785662218297
 30
0.0
 11
9063.600000000002
 21
7879.785662218298
 31
0.0
  0
LINE
  5
12FDF
330
747D
100
AcDbEntity
  8
部品1
 48
50.0
100
AcDbLine
 10
9063.600000000002
 20
6229.785662218298
 30
0.0
 11
9763.600000000003
 21
6229.785662218298
 31
0.0
  0
LINE
  5
12FE0
330
747D
100
AcDbEntity
  8
部品1
 48
50.0
100
AcDbLine
 10
9063.600000000002
 20
5529.785662218298
 30
0.0
 11
9063.600000000002
 21
6229.785662218298
 31
0.0
  0
LINE
  5
12FE1
330
747D
100
AcDbEntity
  8
部品1
 48
50.0
100
AcDbLine
 10
9763.600000000003
 20
5529.785662218298
 30
0.0
 11
9063.600000000002
 21
5529.785662218298
 31
0.0
  0
LINE
  5
12FE2
330
747D
100
AcDbEntity
  8
部品1
 48
50.0
100
AcDbLine
 10
9763.600000000003
 20
6229.785662218298
 30
0.0
 11
9763.600000000003
 21
5529.785662218298
 31
0.0
  0
LINE
  5
12FE3
330
747D
100
AcDbEntity
  8
部品1
 48
50.0
100
AcDbLine
 10
7383.600000000003
 20
7179.785662218297
 30
0.0
 11
6683.600000000001
 21
7179.785662218297
 31
0.0
  0
LINE
  5
12FE4
330
747D
100
AcDbEntity
  8
部品1
 48
50.0
100
AcDbLine
 10
6683.600000000001
 20
7179.785662218297
 30
0.0
 11
6683.600000000001
 21
7879.785662218298
 31
0.0
  0
LINE
  5
12FE5
330
747D
100
AcDbEntity
  8
部品1
 48
50.0
100
AcDbLine
 10
6683.600000000001
 20
5529.785662218298
 30
0.0
 11
6683.600000000001
 21
6229.785662218298
 31
0.0
  0
LINE
  5
12FE6
330
747D
100
AcDbEntity
  8
部品1
 48
50.0
100
AcDbLine
 10
6683.600000000001
 20
6229.785662218298
 30
0.0
 11
7383.600000000003
 21
6229.785662218298
 31
0.0
  0
LINE
  5
12FE7
330
747D
100
AcDbEntity
  8
部品1
 48
50.0
100
AcDbLine
 10
7383.600000000003
 20
6229.785662218298
 30
0.0
 11
7383.600000000003
 21
5529.785662218298
 31
0.0
  0
LINE
  5
12FE8
330
747D
100
AcDbEntity
  8
部品1
 48
50.0
100
AcDbLine
 10
7383.600000000003
 20
5529.785662218298
 30
0.0
 11
6683.600000000001
 21
5529.785662218298
 31
0.0
  0
LINE
  5
12FE9
330
747D
100
AcDbEntity
  8
部品1
 48
50.0
100
AcDbLine
 10
6683.600000000001
 20
7879.785662218298
 30
0.0
 11
7383.600000000003
 21
7879.785662218298
 31
0.0
  0
LINE
  5
12FEA
330
747D
100
AcDbEntity
  8
部品1
 48
50.0
100
AcDbLine
 10
7383.600000000003
 20
7879.785662218298
 30
0.0
 11
7383.600000000003
 21
7179.785662218297
 31
0.0
  0
TEXT
  5
130D2
330
747D
100
AcDbEntity
  8
部品1
 62
     7
100
AcDbText
 10
9911.509990148013
 20
862.9564973948063
 30
0.0
 40
120.0
  1
（注意）
  7
STYLE1
100
AcDbText
  0
TEXT
  5
130D3
330
747D
100
AcDbEntity
  8
部品1
 62
     7
100
AcDbText
 10
9911.509990148013
 20
662.9564973948063
 30
0.0
 40
120.0
  1
   基礎寸法は標準施工を示します。
  7
STYLE1
100
AcDbText
  0
TEXT
  5
130D4
330
747D
100
AcDbEntity
  8
部品1
 62
     7
100
AcDbText
 10
9911.509990148013
 20
462.9564973948062
 30
0.0
 40
120.0
  1
   地域の実情に合わせて設計してください。 
  7
STYLE1
100
AcDbText
  0
TEXT
  5
13992
330
747D
100
AcDbEntity
  8
文字
 62
     7
 48
50.0
100
AcDbText
 10
14747.8113764045
 20
483.8967129911414
 30
0.0
 40
160.0
  1
BＦ-24
  7
STYLE2
100
AcDbText
  0
LINE
  5
13B7B
330
747D
100
AcDbEntity
  8
部品1
 48
50.0
100
AcDbLine
 10
8344.209122857987
 20
2505.965215385923
 30
0.0
 11
9278.036720232091
 21
2505.965215385921
 31
0.0
  0
LINE
  5
13B7C
330
747D
100
AcDbEntity
  8
部品1
 48
50.0
100
AcDbLine
 10
8273.334122857987
 20
2306.090215385921
 30
0.0
 11
9277.161720232092
 21
2306.090215385919
 31
0.0
  0
LINE
  5
13B7D
330
747D
100
AcDbEntity
  8
細線
 48
50.0
100
AcDbLine
 10
8494.150909667789
 20
2306.090215385921
 30
0.0
 11
8273.334122857987
 21
2526.907002195727
 31
0.0
  0
LINE
  5
13B7E
330
747D
100
AcDbEntity
  8
細線
 48
50.0
100
AcDbLine
 10
8464.452424857954
 20
2306.090215385921
 30
0.0
 11
8273.334122857987
 21
2497.208517385891
 31
0.0
  0
LINE
  5
13B7F
330
747D
100
AcDbEntity
  8
細線
 48
50.0
100
AcDbLine
 10
8523.849394477627
 20
2306.090215385921
 30
0.0
 11
8288.974394477618
 21
2540.965215385922
 31
0.0
  0
LINE
  5
13B80
330
747D
100
AcDbEntity
  8
細線
 48
50.0
100
AcDbLine
 10
8407.111250544437
 20
1505.965215385921
 30
0.0
 11
8507.01125054444
 21
1406.065215385921
 31
0.0
  0
LINE
  5
13B81
330
747D
100
AcDbEntity
  8
細線
 48
50.0
100
AcDbLine
 10
8377.412765734602
 20
1505.965215385921
 30
0.0
 11
8477.312765734593
 21
1406.065215385921
 31
0.0
  0
LINE
  5
13B82
330
747D
100
AcDbEntity
  8
細線
 48
50.0
100
AcDbLine
 10
8436.809735354275
 20
1505.965215385921
 30
0.0
 11
8536.709735354282
 21
1406.065215385921
 31
0.0
  0
LINE
  5
13B83
330
747D
100
AcDbEntity
  8
細線
 48
50.0
100
AcDbLine
 10
8388.847000061227
 20
1505.965215385921
 30
0.0
 11
8524.847000061219
 21
1641.965215385923
 31
0.0
  0
LINE
  5
13B84
330
747D
100
AcDbEntity
  8
細線
 48
50.0
100
AcDbLine
 10
8329.450030441568
 20
1505.965215385919
 30
0.0
 11
8465.450030441569
 21
1641.965215385921
 31
0.0
  0
LINE
  5
13B85
330
747D
100
AcDbEntity
  8
細線
 48
50.0
100
AcDbLine
 10
8359.148515251391
 20
1505.965215385921
 30
0.0
 11
8495.148515251385
 21
1641.965215385921
 31
0.0
  0
LINE
  5
13B86
330
747D
100
AcDbEntity
  8
細線
 48
50.0
100
AcDbLine
 10
8374.334122857979
 20
1196.065215385921
 30
0.0
 11
8450.76787205388
 21
1406.065215385921
 31
0.0
  0
LINE
  5
13B87
330
747D
100
AcDbEntity
  8
部品1
 48
50.0
100
AcDbLine
 10
7386.415342356841
 20
1505.965215385921
 30
0.0
 11
9047.252903359126
 21
1505.965215385921
 31
0.0
  0
LINE
  5
13B88
330
747D
100
AcDbEntity
  8
部品1
 48
50.0
100
AcDbLine
 10
7386.415342356841
 20
1406.065215385921
 30
0.0
 11
9047.252903359126
 21
1406.065215385921
 31
0.0
  0
LINE
  5
13B89
330
747D
100
AcDbEntity
  8
部品1
 48
50.0
100
AcDbLine
 10
7386.415342356841
 20
1196.065215385921
 30
0.0
 11
9047.252903359126
 21
1196.065215385921
 31
0.0
  0
DIMENSION
  5
13B8A
330
747D
100
AcDbEntity
  8
寸法
 48
50.0
100
AcDbDimension
  2
*D21
 10
8916.834122857979
 20
867.9441030093549
 30
0.0
 11
8216.83412285798
 21
967.9441030093549
 31
0.0
 70
    32
 71
     5
 42
700.0
  3
INABA_S40G詳細用20
100
AcDbAlignedDimension
 13
7516.834122857979
 23
1196.065215385921
 33
0.0
 14
8916.834122857979
 24
1196.065215385921
 34
0.0
100
AcDbRotatedDimension
  0
LINE
  5
13B8B
330
747D
100
AcDbEntity
  8
部品1
 48
50.0
100
AcDbLine
 10
7637.459122857979
 20
1641.965215385919
 30
0.0
 11
8796.209122857979
 21
1641.965215385923
 31
0.0
  0
LINE
  5
13B8C
330
747D
100
AcDbEntity
  8
部品1
 48
50.0
100
AcDbLine
 10
7637.459122857979
 20
1669.965215385921
 30
0.0
 11
8796.209122857979
 21
1669.965215385923
 31
0.0
  0
LINE
  5
13B8D
330
747D
100
AcDbEntity
  8
細線
 48
50.0
100
AcDbLine
 10
8156.867202596759
 20
1669.965215385923
 30
0.0
 11
8792.992202596755
 21
2306.090215385919
 31
0.0
  0
LINE
  5
13B8E
330
747D
100
AcDbEntity
  8
細線
 48
50.0
100
AcDbLine
 10
8127.168717786929
 20
1669.965215385923
 30
0.0
 11
8763.293717786915
 21
2306.09021538592
 31
0.0
  0
LINE
  5
13B8F
330
747D
100
AcDbEntity
  8
細線
 48
50.0
100
AcDbLine
 10
8097.470232977093
 20
1669.965215385923
 30
0.0
 11
8733.595232977078
 21
2306.09021538592
 31
0.0
  0
LEADER
  5
13B90
330
747D
100
AcDbEntity
  8
寸法
 48
50.0
100
AcDbLeader
  3
INABA_S40G詳細用20
 71
     0
 73
     0
 74
     0
 75
     1
 40
120.0
 41
550.0
 76
     3
 10
8216.834122857987
 20
1937.865480438106
 30
0.0
 10
8919.622150538181
 20
1709.700360505096
 30
0.0
 10
9019.622150538181
 20
1709.700360505096
 30
0.0
340
13BEF
  0
MTEXT
  5
13B91
330
747D
100
AcDbEntity
  8
寸法
 62
     7
 48
50.0
100
AcDbMText
 10
8375.419039390143
 20
2690.985081338464
 30
0.0
 40
120.0
 41
0.0
 71
     4
 72
     1
  1
\A1;水勾配１／１００ 
  7
STYLE1
 73
     1
 44
1.0
1001
ACAD
1000
MTEXTBEGIN
1070
    73
1070
     1
1070
    44
1040
1.0
1070
    74
1070
     0
1000
MTEXTEND
  0
LINE
  5
13B92
330
747D
100
AcDbEntity
  8
文字
 48
50.0
100
AcDbLine
 10
8372.460893441484
 20
2607.992016510231
 30
0.0
 11
9654.291270162152
 21
2607.992016510231
 31
0.0
  0
LINE
  5
13B93
330
747D
100
AcDbEntity
  8
細線
 48
50.0
100
AcDbLine
 10
8273.334122857985
 20
2212.110417921454
 30
0.0
 11
8367.313920322452
 21
2306.090215385921
 31
0.0
  0
LINE
  5
13B94
330
747D
100
AcDbEntity
  8
細線
 48
50.0
100
AcDbLine
 10
8273.334122857985
 20
2241.808902731287
 30
0.0
 11
8337.615435512619
 21
2306.090215385921
 31
0.0
  0
LINE
  5
13B95
330
747D
100
AcDbEntity
  8
細線
 48
50.0
100
AcDbLine
 10
8273.334122857985
 20
2182.411933111618
 30
0.0
 11
8397.012405132292
 21
2306.090215385921
 31
0.0
  0
LINE
  5
13B96
330
747D
100
AcDbEntity
  8
細線
 48
50.0
100
AcDbLine
 10
7516.834122857979
 20
2217.871528040552
 30
0.0
 11
7605.052810203351
 21
2306.090215385921
 31
0.0
  0
LINE
  5
13B97
330
747D
100
AcDbEntity
  8
細線
 48
50.0
100
AcDbLine
 10
7516.834122857978
 20
2247.570012850383
 30
0.0
 11
7575.354325393519
 21
2306.090215385921
 31
0.0
  0
LINE
  5
13B98
330
747D
100
AcDbEntity
  8
細線
 48
50.0
100
AcDbLine
 10
7516.834122857978
 20
2277.268497660219
 30
0.0
 11
7545.655840583679
 21
2306.090215385921
 31
0.0
  0
DIMENSION
  5
13B99
330
747D
100
AcDbEntity
  8
寸法
 48
50.0
100
AcDbDimension
  2
*D19
 10
7064.024205957945
 20
1505.965215385921
 30
0.0
 11
6964.024205957945
 21
1955.965215385922
 31
0.0
 70
    32
 71
     5
 42
450.0
  3
INABA_S40G詳細用20
100
AcDbAlignedDimension
 13
7814.334122857982
 23
2405.965215385921
 33
0.0
 14
7386.415342356841
 24
1505.965215385921
 34
0.0
 50
90.0
100
AcDbRotatedDimension
  0
DIMENSION
  5
13B9A
330
747D
100
AcDbEntity
  8
寸法
 48
50.0
100
AcDbDimension
  2
*D18
 10
7285.939971462298
 20
1866.015215385921
 30
0.0
 11
7185.928160438677
 21
2086.052715385923
 31
0.0
 70
    32
 71
     5
 42
220.0375
  3
INABA_S40G詳細用20
100
AcDbAlignedDimension
 13
7516.834122857979
 23
2306.090215385921
 33
0.0
 14
8153.334122857987
 24
1866.015215385921
 34
0.0
 50
90.0
100
AcDbRotatedDimension
  0
LINE
  5
13B9B
330
747D
100
AcDbEntity
  8
部品1
 48
50.0
100
AcDbLine
 10
7516.834122857979
 20
1505.965215385921
 30
0.0
 11
7516.834122857978
 21
2306.090215385921
 31
0.0
  0
LINE
  5
13B9C
330
747D
100
AcDbEntity
  8
部品1
 48
50.0
100
AcDbLine
 10
8153.334122857987
 20
2885.451666543815
 30
0.0
 11
8153.334122857987
 21
1866.015215385921
 31
0.0
  0
LINE
  5
13B9D
330
747D
100
AcDbEntity
  8
部品1
 48
50.0
100
AcDbLine
 10
8273.334122857987
 20
1866.01521538592
 30
0.0
 11
8273.334122857987
 21
2885.451666543815
 31
0.0
  0
LINE
  5
13B9E
330
747D
100
AcDbEntity
  8
細線
 48
50.0
100
AcDbLine
 10
7516.834122857978
 20
1821.891730576083
 30
0.0
 11
8001.032607667822
 21
2306.090215385921
 31
0.0
  0
LINE
  5
13B9F
330
747D
100
AcDbEntity
  8
細線
 48
50.0
100
AcDbLine
 10
7516.834122857979
 20
1851.590215385914
 30
0.0
 11
7971.334122857989
 21
2306.090215385921
 31
0.0
  0
LINE
  5
13BA0
330
747D
100
AcDbEntity
  8
細線
 48
50.0
100
AcDbLine
 10
7516.834122857979
 20
1881.288700195758
 30
0.0
 11
7941.63563804815
 21
2306.090215385921
 31
0.0
  0
DIMENSION
  5
13BA1
330
747D
100
AcDbEntity
  8
寸法
 48
50.0
100
AcDbDimension
  2
*D22
 10
7064.024205957945
 20
1406.065215385921
 30
0.0
 11
6964.024205957945
 21
1456.015215385922
 31
0.0
 70
    32
 71
     5
 42
49.95000000000004
  3
INABA_S40G詳細用20
100
AcDbAlignedDimension
 13
7386.415342356833
 23
1505.965215385921
 33
0.0
 14
7386.415342356835
 24
1406.065215385921
 34
0.0
 50
90.0
100
AcDbRotatedDimension
  0
LINE
  5
13BA2
330
747D
100
AcDbEntity
  8
細線
 48
50.0
100
AcDbLine
 10
7954.334122857979
 20
1196.065215385921
 30
0.0
 11
8030.76787205388
 21
1406.065215385921
 31
0.0
  0
LINE
  5
13BA3
330
747D
100
AcDbEntity
  8
細線
 48
50.0
100
AcDbLine
 10
8094.334122857979
 20
1196.065215385923
 30
0.0
 11
8170.767872053881
 21
1406.065215385921
 31
0.0
  0
LINE
  5
13BA4
330
747D
100
AcDbEntity
  8
細線
 48
50.0
100
AcDbLine
 10
8234.334122857978
 20
1196.065215385923
 30
0.0
 11
8310.767872053881
 21
1406.065215385923
 31
0.0
  0
LINE
  5
13BA5
330
747D
100
AcDbEntity
  8
部品1
 48
50.0
100
AcDbLine
 10
7386.415342356833
 20
1505.965215385919
 30
0.0
 11
7386.415342356842
 21
1196.065215385921
 31
0.0
  0
LINE
  5
13BA6
330
747D
100
AcDbEntity
  8
細線
 48
50.0
100
AcDbLine
 10
7394.33412285798
 20
1196.065215385919
 30
0.0
 11
7470.767872053881
 21
1406.065215385919
 31
0.0
  0
LINE
  5
13BA7
330
747D
100
AcDbEntity
  8
細線
 48
50.0
100
AcDbLine
 10
7674.334122857979
 20
1196.065215385921
 30
0.0
 11
7750.767872053881
 21
1406.065215385919
 31
0.0
  0
LINE
  5
13BA8
330
747D
100
AcDbEntity
  8
細線
 48
50.0
100
AcDbLine
 10
7534.334122857979
 20
1196.065215385919
 30
0.0
 11
7610.767872053881
 21
1406.065215385919
 31
0.0
  0
LINE
  5
13BA9
330
747D
100
AcDbEntity
  8
細線
 48
50.0
100
AcDbLine
 10
7814.33412285798
 20
1196.065215385921
 30
0.0
 11
7890.767872053881
 21
1406.065215385921
 31
0.0
  0
LINE
  5
13BAA
330
747D
100
AcDbEntity
  8
細線
 48
50.0
100
AcDbLine
 10
7407.073081057298
 20
1231.065215385919
 30
0.0
 11
7422.334122857979
 21
1196.065215385919
 31
0.0
  0
LINE
  5
13BAB
330
747D
100
AcDbEntity
  8
細線
 48
50.0
100
AcDbLine
 10
7547.073081057298
 20
1231.065215385919
 30
0.0
 11
7562.334122857979
 21
1196.065215385919
 31
0.0
  0
LINE
  5
13BAC
330
747D
100
AcDbEntity
  8
細線
 48
50.0
100
AcDbLine
 10
7687.073081057299
 20
1231.065215385921
 30
0.0
 11
7702.33412285798
 21
1196.065215385921
 31
0.0
  0
LINE
  5
13BAD
330
747D
100
AcDbEntity
  8
細線
 48
50.0
100
AcDbLine
 10
8107.073081057299
 20
1231.065215385923
 30
0.0
 11
8122.33412285798
 21
1196.065215385923
 31
0.0
  0
LINE
  5
13BAE
330
747D
100
AcDbEntity
  8
細線
 48
50.0
100
AcDbLine
 10
7827.073081057299
 20
1231.065215385921
 30
0.0
 11
7842.33412285798
 21
1196.065215385921
 31
0.0
  0
LINE
  5
13BAF
330
747D
100
AcDbEntity
  8
細線
 48
50.0
100
AcDbLine
 10
7967.073081057299
 20
1231.065215385921
 30
0.0
 11
7982.334122857979
 21
1196.065215385921
 31
0.0
  0
LINE
  5
13BB0
330
747D
100
AcDbEntity
  8
細線
 48
50.0
100
AcDbLine
 10
8247.073081057299
 20
1231.065215385923
 30
0.0
 11
8262.334122857978
 21
1196.065215385923
 31
0.0
  0
LINE
  5
13BB1
330
747D
100
AcDbEntity
  8
細線
 48
50.0
100
AcDbLine
 10
8387.0730810573
 20
1231.065215385921
 30
0.0
 11
8402.334122857979
 21
1196.065215385921
 31
0.0
  0
DIMENSION
  5
13BB2
330
747D
100
AcDbEntity
  8
寸法
 48
50.0
100
AcDbDimension
  2
*D20
 10
7285.939971462298
 20
1505.965215385921
 30
0.0
 11
7285.939971462298
 21
1687.090215385921
 31
0.0
 70
   160
 71
     5
 42
180.0250000000001
  3
INABA_S40G詳細用20
100
AcDbAlignedDimension
 13
8153.334122857987
 23
1866.015215385921
 33
0.0
 14
7386.415342356841
 24
1505.965215385921
 34
0.0
 50
90.0
100
AcDbRotatedDimension
  0
LINE
  5
13BB3
330
747D
100
AcDbEntity
  8
細線
 48
50.0
100
AcDbLine
 10
7760.887405132298
 20
1669.965215385921
 30
0.0
 11
8153.334122857987
 21
2062.411933111622
 31
0.0
  0
LINE
  5
13BB4
330
747D
100
AcDbEntity
  8
細線
 48
50.0
100
AcDbLine
 10
7731.188920322463
 20
1669.965215385923
 30
0.0
 11
8153.334122857987
 21
2092.110417921455
 31
0.0
  0
LINE
  5
13BB5
330
747D
100
AcDbEntity
  8
細線
 48
50.0
100
AcDbLine
 10
7701.49043551261
 20
1669.965215385923
 30
0.0
 11
8153.334122857987
 21
2121.808902731288
 31
0.0
  0
LINE
  5
13BB6
330
747D
100
AcDbEntity
  8
細線
 48
50.0
100
AcDbLine
 10
7442.767872053881
 20
1406.065215385919
 30
0.0
 11
7458.028913854561
 21
1371.065215385919
 31
0.0
  0
LINE
  5
13BB7
330
747D
100
AcDbEntity
  8
細線
 48
50.0
100
AcDbLine
 10
7596.887405132291
 20
1505.965215385923
 30
0.0
 11
7732.887405132299
 21
1641.965215385919
 31
0.0
  0
LINE
  5
13BB8
330
747D
100
AcDbEntity
  8
細線
 48
50.0
100
AcDbLine
 10
7567.188920322462
 20
1505.965215385921
 30
0.0
 11
7703.188920322469
 21
1641.965215385919
 31
0.0
  0
LINE
  5
13BB9
330
747D
100
AcDbEntity
  8
細線
 48
50.0
100
AcDbLine
 10
7537.49043551261
 20
1505.965215385921
 30
0.0
 11
7673.490435512619
 21
1641.965215385919
 31
0.0
  0
LINE
  5
13BBA
330
747D
100
AcDbEntity
  8
細線
 48
50.0
100
AcDbLine
 10
7615.15165561551
 20
1505.965215385921
 30
0.0
 11
7715.05165561551
 21
1406.065215385921
 31
0.0
  0
LINE
  5
13BBB
330
747D
100
AcDbEntity
  8
細線
 48
50.0
100
AcDbLine
 10
7585.453170805672
 20
1505.965215385919
 30
0.0
 11
7685.353170805672
 21
1406.065215385921
 31
0.0
  0
LINE
  5
13BBC
330
747D
100
AcDbEntity
  8
細線
 48
50.0
100
AcDbLine
 10
7582.767872053882
 20
1406.065215385919
 30
0.0
 11
7598.028913854562
 21
1371.065215385919
 31
0.0
  0
LINE
  5
13BBD
330
747D
100
AcDbEntity
  8
細線
 48
50.0
100
AcDbLine
 10
7644.850140425339
 20
1505.965215385921
 30
0.0
 11
7744.750140425345
 21
1406.065215385921
 31
0.0
  0
LINE
  5
13BBE
330
747D
100
AcDbEntity
  8
細線
 48
50.0
100
AcDbLine
 10
7722.76787205388
 20
1406.065215385919
 30
0.0
 11
7738.028913854562
 21
1371.065215385921
 31
0.0
  0
LINE
  5
13BBF
330
747D
100
AcDbEntity
  8
部品1
 48
50.0
100
AcDbLine
 10
7637.459122857979
 20
1641.965215385923
 30
0.0
 11
7637.459122857979
 21
1669.965215385921
 31
0.0
  0
CIRCLE
  5
13BC0
330
747D
100
AcDbEntity
  8
部品1
 48
5.0
100
AcDbCircle
 10
7676.834122857987
 20
1683.965215385923
 30
0.0
 40
14.0
  0
LINE
  5
13BC1
330
747D
100
AcDbEntity
  8
細線
 48
50.0
100
AcDbLine
 10
8040.829937889814
 20
1505.965215385921
 30
0.0
 11
8140.729937889814
 21
1406.065215385921
 31
0.0
  0
LINE
  5
13BC2
330
747D
100
AcDbEntity
  8
細線
 48
50.0
100
AcDbLine
 10
7992.867202596759
 20
1505.965215385921
 30
0.0
 11
8128.867202596758
 21
1641.965215385921
 31
0.0
  0
LINE
  5
13BC3
330
747D
100
AcDbEntity
  8
細線
 48
50.0
100
AcDbLine
 10
7933.470232977093
 20
1505.965215385921
 30
0.0
 11
8069.470232977108
 21
1641.965215385919
 31
0.0
  0
LINE
  5
13BC4
330
747D
100
AcDbEntity
  8
細線
 48
50.0
100
AcDbLine
 10
7963.168717786929
 20
1505.965215385921
 30
0.0
 11
8099.168717786936
 21
1641.965215385919
 31
0.0
  0
LINE
  5
13BC5
330
747D
100
AcDbEntity
  8
細線
 48
50.0
100
AcDbLine
 10
7862.767872053881
 20
1406.065215385921
 30
0.0
 11
7878.028913854561
 21
1371.065215385921
 31
0.0
  0
LINE
  5
13BC6
330
747D
100
AcDbEntity
  8
細線
 48
50.0
100
AcDbLine
 10
8011.131453079977
 20
1505.965215385921
 30
0.0
 11
8111.031453079979
 21
1406.065215385921
 31
0.0
  0
LINE
  5
13BC7
330
747D
100
AcDbEntity
  8
細線
 48
50.0
100
AcDbLine
 10
7981.432968270141
 20
1505.965215385921
 30
0.0
 11
8081.332968270137
 21
1406.065215385921
 31
0.0
  0
LINE
  5
13BC8
330
747D
100
AcDbEntity
  8
細線
 48
50.0
100
AcDbLine
 10
8002.76787205388
 20
1406.065215385921
 30
0.0
 11
8018.028913854562
 21
1371.065215385921
 31
0.0
  0
CIRCLE
  5
13BC9
330
747D
100
AcDbEntity
  8
部品1
 48
5.0
100
AcDbCircle
 10
8036.834122857987
 20
1683.965215385923
 30
0.0
 40
14.0
  0
LINE
  5
13BCA
330
747D
100
AcDbEntity
  8
細線
 48
50.0
100
AcDbLine
 10
8142.76787205388
 20
1406.065215385921
 30
0.0
 11
8158.028913854561
 21
1371.065215385923
 31
0.0
  0
LINE
  5
13BCB
330
747D
100
AcDbEntity
  8
細線
 48
50.0
100
AcDbLine
 10
8282.767872053881
 20
1406.065215385923
 30
0.0
 11
8298.028913854562
 21
1371.065215385923
 31
0.0
  0
LINE
  5
13BCC
330
747D
100
AcDbEntity
  8
細線
 48
50.0
100
AcDbLine
 10
8422.76787205388
 20
1406.065215385921
 30
0.0
 11
8438.028913854562
 21
1371.065215385921
 31
0.0
  0
CIRCLE
  5
13BCD
330
747D
100
AcDbEntity
  8
部品1
 48
5.0
100
AcDbCircle
 10
8396.834122857987
 20
1683.965215385923
 30
0.0
 40
14.0
  0
CIRCLE
  5
13BCE
330
747D
100
AcDbEntity
  8
部品1
 48
50.0
100
AcDbCircle
 10
8216.834122857987
 20
1938.215215385921
 30
0.0
 40
14.0
  0
LINE
  5
13BCF
330
747D
100
AcDbEntity
  8
部品1
 48
5.0
100
AcDbLine
 10
8153.334122857986
 20
1866.01521538592
 30
0.0
 11
8273.334122857987
 21
1866.01521538592
 31
0.0
  0
LINE
  5
13BD0
330
747D
100
AcDbEntity
  8
Ｇ．Ｌ
 48
50.0
100
AcDbLine
 10
6403.714289057905
 20
2405.965215385923
 30
0.0
 11
7814.334122857982
 21
2405.965215385921
 31
0.0
  0
DIMENSION
  5
13BD1
330
747D
100
AcDbEntity
  8
寸法
 48
50.0
100
AcDbDimension
  2
*D23
 10
7064.024205957946
 20
2505.965215385922
 30
0.0
 11
7064.024205957945
 21
2759.917971291435
 31
0.0
 70
   160
  1
(<>)
 71
     5
 42
50.0
  3
INABA_S40G詳細用20
100
AcDbAlignedDimension
 13
7814.334122857982
 23
2405.965215385921
 33
0.0
 14
7863.209122857981
 24
2505.965215385921
 34
0.0
 50
90.0
100
AcDbRotatedDimension
  0
MTEXT
  5
13BD2
330
747D
100
AcDbEntity
  8
寸法
 62
     7
 48
50.0
100
AcDbMText
 10
6412.025854145432
 20
2483.011753821337
 30
0.0
 40
120.0
 41
0.0
 71
     4
 72
     1
  1
▽G.L
  7
STYLE1
 73
     1
 44
1.0
1001
ACAD
1000
MTEXTBEGIN
1070
    73
1070
     1
1070
    44
1040
1.0
1070
    74
1070
     0
1000
MTEXTEND
  0
DIMENSION
  5
13BD3
330
747D
100
AcDbEntity
  8
寸法
 48
50.0
100
AcDbDimension
  2
*D24
 10
7285.939971462299
 20
2306.090215385921
 30
0.0
 11
7285.939971462298
 21
2356.027715385923
 31
0.0
 70
   160
 71
     5
 42
49.9375
  3
INABA_S40G詳細用20
100
AcDbAlignedDimension
 13
7814.334122857982
 23
2405.965215385921
 33
0.0
 14
7516.834122857978
 24
2306.090215385921
 34
0.0
 50
90.0
100
AcDbRotatedDimension
  0
LINE
  5
13BD4
330
747D
100
AcDbEntity
  8
部品1
 48
50.0
100
AcDbLine
 10
7516.834122857979
 20
2306.090215385921
 30
0.0
 11
8153.334122857987
 21
2306.090215385921
 31
0.0
  0
LINE
  5
13BD5
330
747D
100
AcDbEntity
  8
部品1
 48
50.0
100
AcDbLine
 10
8119.209122857986
 20
2540.965215385921
 30
0.0
 11
8084.209122857986
 21
2505.965215385921
 31
0.0
  0
LINE
  5
13BD6
330
747D
100
AcDbEntity
  8
部品1
 48
50.0
100
AcDbLine
 10
7863.209122857981
 20
2505.965215385921
 30
0.0
 11
8084.209122857986
 21
2505.965215385921
 31
0.0
  0
LINE
  5
13BD7
330
747D
100
AcDbEntity
  8
細線
 48
50.0
100
AcDbLine
 10
8068.472627393488
 20
2306.090215385921
 30
0.0
 11
7868.597627393492
 21
2505.965215385921
 31
0.0
  0
LINE
  5
13BD8
330
747D
100
AcDbEntity
  8
細線
 48
50.0
100
AcDbLine
 10
8098.171112203322
 20
2306.090215385921
 30
0.0
 11
7898.296112203322
 21
2505.965215385921
 31
0.0
  0
LINE
  5
13BD9
330
747D
100
AcDbEntity
  8
細線
 48
50.0
100
AcDbLine
 10
8127.869597013152
 20
2306.090215385921
 30
0.0
 11
7927.994597013159
 21
2505.965215385921
 31
0.0
  0
LINE
  5
13BDA
330
747D
100
AcDbEntity
  8
部品1
 48
50.0
100
AcDbLine
 10
7814.33412285798
 20
2457.09021538592
 30
0.0
 11
7814.334122857987
 21
2306.090215385921
 31
0.0
  0
LINE
  5
13BDB
330
747D
100
AcDbEntity
  8
部品1
 48
50.0
100
AcDbLine
 10
7814.33412285798
 20
2457.090215385921
 30
0.0
 11
7863.209122857981
 21
2505.965215385921
 31
0.0
  0
LINE
  5
13BDC
330
747D
100
AcDbEntity
  8
部品1
 48
50.0
100
AcDbLine
 10
8309.209122857986
 20
2540.965215385921
 30
0.0
 11
8344.209122857987
 21
2505.965215385921
 31
0.0
  0
LINE
  5
13BDD
330
747D
100
AcDbEntity
  8
部品1
 48
50.0
100
AcDbLine
 10
8273.334122857987
 20
2540.965215385921
 30
0.0
 11
8309.209122857986
 21
2540.965215385921
 31
0.0
  0
LINE
  5
13BDE
330
747D
100
AcDbEntity
  8
部品1
 48
50.0
100
AcDbLine
 10
8119.209122857986
 20
2540.965215385921
 30
0.0
 11
8153.334122857987
 21
2540.965215385921
 31
0.0
  0
LINE
  5
13BDF
330
747D
100
AcDbEntity
  8
細線
 48
50.0
100
AcDbLine
 10
8918.467356348029
 20
2096.09021538592
 30
0.0
 11
8994.901105543931
 21
2306.090215385921
 31
0.0
  0
LINE
  5
13BE0
330
747D
100
AcDbEntity
  8
細線
 48
50.0
100
AcDbLine
 10
9058.46735634803
 20
2096.090215385923
 30
0.0
 11
9134.901105543931
 21
2306.090215385923
 31
0.0
  0
LINE
  5
13BE1
330
747D
100
AcDbEntity
  8
細線
 48
50.0
100
AcDbLine
 10
9198.467356348031
 20
2096.090215385921
 30
0.0
 11
9274.90110554393
 21
2306.090215385919
 31
0.0
  0
LINE
  5
13BE2
330
747D
100
AcDbEntity
  8
部品1
 48
50.0
100
AcDbLine
 10
8916.834122857979
 20
1505.965215385921
 30
0.0
 11
8916.834122857979
 21
2306.090215385919
 31
0.0
  0
LEADER
  5
13BE3
330
747D
100
AcDbEntity
  8
寸法
 48
5.0
100
AcDbLeader
  3
INABA_S40G詳細用20
 71
     0
 73
     0
 74
     0
 75
     1
 40
121.669047558312
 41
937.9999999999999
 76
     3
 10
8756.834122857986
 20
1683.965215385923
 30
0.0
 10
9118.4878213756
 20
1223.253656269678
 30
0.0
 10
9218.487821375601
 20
1223.253656269678
 30
0.0
340
13BE4
  0
MTEXT
  5
13BE4
102
{ACAD_REACTORS
330
13BE3
102
}
330
747D
100
AcDbEntity
  8
部品1
 62
     7
 48
5.0
100
AcDbMText
 10
9258.487821375601
 20
1324.088180048833
 30
0.0
 40
120.0
 41
0.0
 71
     4
 72
     1
  1
\A1;4-D10両方向共
  7
STYLE1
 73
     1
 44
1.0
1001
ACAD
1000
MTEXTBEGIN
1070
    73
1070
     1
1070
    44
1040
1.0
1070
    74
1070
     0
1000
MTEXTEND
  0
LINE
  5
13BE5
330
747D
100
AcDbEntity
  8
細線
 48
50.0
100
AcDbLine
 10
8794.33412285798
 20
1196.065215385921
 30
0.0
 11
8870.76787205388
 21
1406.065215385921
 31
0.0
  0
LINE
  5
13BE6
330
747D
100
AcDbEntity
  8
細線
 48
50.0
100
AcDbLine
 10
8654.33412285798
 20
1196.065215385923
 30
0.0
 11
8730.767872053879
 21
1406.065215385923
 31
0.0
  0
LINE
  5
13BE7
330
747D
100
AcDbEntity
  8
細線
 48
50.0
100
AcDbLine
 10
8514.334122857979
 20
1196.065215385923
 30
0.0
 11
8590.767872053881
 21
1406.065215385921
 31
0.0
  0
LINE
  5
13BE8
330
747D
100
AcDbEntity
  8
部品1
 48
50.0
100
AcDbLine
 10
9047.252903359126
 20
1505.965215385919
 30
0.0
 11
9047.252903359128
 21
1196.065215385921
 31
0.0
  0
LINE
  5
13BE9
330
747D
100
AcDbEntity
  8
細線
 48
50.0
100
AcDbLine
 10
8934.334122857979
 20
1196.065215385923
 30
0.0
 11
9010.767872053881
 21
1406.065215385921
 31
0.0
  0
LINE
  5
13BEA
330
747D
100
AcDbEntity
  8
細線
 48
50.0
100
AcDbLine
 10
8527.073081057299
 20
1231.065215385923
 30
0.0
 11
8542.33412285798
 21
1196.065215385923
 31
0.0
  0
LINE
  5
13BEB
330
747D
100
AcDbEntity
  8
細線
 48
50.0
100
AcDbLine
 10
8667.073081057299
 20
1231.065215385923
 30
0.0
 11
8682.334122857978
 21
1196.065215385923
 31
0.0
  0
LINE
  5
13BEC
330
747D
100
AcDbEntity
  8
細線
 48
50.0
100
AcDbLine
 10
8807.073081057298
 20
1231.065215385921
 30
0.0
 11
8822.334122857979
 21
1196.065215385921
 31
0.0
  0
LINE
  5
13BED
330
747D
100
AcDbEntity
  8
細線
 48
50.0
100
AcDbLine
 10
8947.073081057299
 20
1231.065215385923
 30
0.0
 11
8962.33412285798
 21
1196.065215385923
 31
0.0
  0
LINE
  5
13BEE
330
747D
100
AcDbEntity
  8
部品1
 48
50.0
100
AcDbLine
 10
8916.834122857979
 20
2096.090215385921
 30
0.0
 11
9277.161720232092
 21
2096.090215385921
 31
0.0
  0
MTEXT
  5
13BEF
102
{ACAD_REACTORS
330
13B90
102
}
330
747D
100
AcDbEntity
  8
寸法
 62
     7
 48
50.0
100
AcDbMText
 10
9059.622150538181
 20
1809.700360505096
 30
0.0
 40
120.0
 41
0.0
 71
     4
 72
     1
  1
\A1;カンザシ 
  7
STYLE1
 73
     1
 44
1.0
1001
ACAD
1000
MTEXTBEGIN
1070
    73
1070
     1
1070
    44
1040
1.0
1070
    74
1070
     0
1000
MTEXTEND
  0
LINE
  5
13BF0
330
747D
100
AcDbEntity
  8
細線
 48
50.0
100
AcDbLine
 10
8552.84700006122
 20
1669.965215385921
 30
0.0
 11
8916.834122857979
 21
2033.952338182696
 31
0.0
  0
LINE
  5
13BF1
330
747D
100
AcDbEntity
  8
細線
 48
50.0
100
AcDbLine
 10
8523.148515251383
 20
1669.965215385923
 30
0.0
 11
8916.834122857983
 21
2063.650822992527
 31
0.0
  0
LINE
  5
13BF2
330
747D
100
AcDbEntity
  8
細線
 48
50.0
100
AcDbLine
 10
8493.450030441563
 20
1669.965215385925
 30
0.0
 11
8916.834122857979
 21
2093.349307802363
 31
0.0
  0
CIRCLE
  5
13BF3
330
747D
100
AcDbEntity
  8
部品1
 48
5.0
100
AcDbCircle
 10
8756.834122857986
 20
1683.965215385923
 30
0.0
 40
14.0
  0
LINE
  5
13BF4
330
747D
100
AcDbEntity
  8
細線
 48
50.0
100
AcDbLine
 10
8725.429827906044
 20
1505.965215385917
 30
0.0
 11
8921.209122857979
 21
1701.744510337867
 31
0.0
  0
LINE
  5
13BF5
330
747D
100
AcDbEntity
  8
細線
 48
50.0
100
AcDbLine
 10
8755.128312715866
 20
1505.965215385919
 30
0.0
 11
8921.209122857979
 21
1672.046025528038
 31
0.0
  0
LINE
  5
13BF6
330
747D
100
AcDbEntity
  8
細線
 48
50.0
100
AcDbLine
 10
8562.76787205388
 20
1406.065215385921
 30
0.0
 11
8578.028913854561
 21
1371.065215385923
 31
0.0
  0
LINE
  5
13BF7
330
747D
100
AcDbEntity
  8
細線
 48
50.0
100
AcDbLine
 10
8702.767872053881
 20
1406.065215385923
 30
0.0
 11
8718.028913854562
 21
1371.065215385923
 31
0.0
  0
LINE
  5
13BF8
330
747D
100
AcDbEntity
  8
細線
 48
50.0
100
AcDbLine
 10
8784.826797525703
 20
1505.965215385919
 30
0.0
 11
8921.209122857979
 21
1642.347540718201
 31
0.0
  0
LINE
  5
13BF9
330
747D
100
AcDbEntity
  8
細線
 48
50.0
100
AcDbLine
 10
8832.789532818742
 20
1505.965215385921
 30
0.0
 11
8932.689532818743
 21
1406.065215385921
 31
0.0
  0
LINE
  5
13BFA
330
747D
100
AcDbEntity
  8
細線
 48
50.0
100
AcDbLine
 10
8803.0910480089
 20
1505.965215385921
 30
0.0
 11
8902.991048008907
 21
1406.065215385921
 31
0.0
  0
LINE
  5
13BFB
330
747D
100
AcDbEntity
  8
細線
 48
50.0
100
AcDbLine
 10
8773.39256319907
 20
1505.965215385921
 30
0.0
 11
8873.292563199063
 21
1406.065215385921
 31
0.0
  0
LINE
  5
13BFC
330
747D
100
AcDbEntity
  8
細線
 48
50.0
100
AcDbLine
 10
8842.767872053881
 20
1406.065215385921
 30
0.0
 11
8858.02891385456
 21
1371.065215385921
 31
0.0
  0
LINE
  5
13BFD
330
747D
100
AcDbEntity
  8
細線
 48
50.0
100
AcDbLine
 10
8982.767872053882
 20
1406.065215385921
 30
0.0
 11
8998.028913854561
 21
1371.065215385923
 31
0.0
  0
LINE
  5
13BFE
330
747D
100
AcDbEntity
  8
部品1
 48
50.0
100
AcDbLine
 10
8796.209122857979
 20
1641.965215385919
 30
0.0
 11
8796.209122857979
 21
1669.965215385923
 31
0.0
  0
LINE
  5
13BFF
330
747D
100
AcDbEntity
  8
細線
 48
50.0
100
AcDbLine
 10
9071.20631454735
 20
2131.090215385923
 30
0.0
 11
9086.46735634803
 21
2096.090215385923
 31
0.0
  0
LINE
  5
13C00
330
747D
100
AcDbEntity
  8
細線
 48
50.0
100
AcDbLine
 10
8931.206314547351
 20
2131.090215385921
 30
0.0
 11
8946.46735634803
 21
2096.090215385923
 31
0.0
  0
LINE
  5
13C01
330
747D
100
AcDbEntity
  8
細線
 48
50.0
100
AcDbLine
 10
9211.20631454735
 20
2131.090215385921
 30
0.0
 11
9226.467356348029
 21
2096.090215385921
 31
0.0
  0
LINE
  5
13C02
330
747D
100
AcDbEntity
  8
細線
 48
50.0
100
AcDbLine
 10
9277.161720232092
 20
2315.038999750557
 30
0.0
 11
9086.235504596725
 21
2505.965215385922
 31
0.0
  0
LINE
  5
13C03
330
747D
100
AcDbEntity
  8
細線
 48
50.0
100
AcDbLine
 10
9256.412019786893
 20
2306.090215385919
 30
0.0
 11
9056.537019786887
 21
2505.965215385922
 31
0.0
  0
LINE
  5
13C04
330
747D
100
AcDbEntity
  8
細線
 48
50.0
100
AcDbLine
 10
8890.130707132257
 20
2306.090215385919
 30
0.0
 11
8690.255707132257
 21
2505.965215385923
 31
0.0
  0
LINE
  5
13C05
330
747D
100
AcDbEntity
  8
細線
 48
50.0
100
AcDbLine
 10
8860.432222322419
 20
2306.090215385919
 30
0.0
 11
8660.557222322422
 21
2505.965215385923
 31
0.0
  0
LINE
  5
13C06
330
747D
100
AcDbEntity
  8
細線
 48
50.0
100
AcDbLine
 10
8919.829191942096
 20
2306.090215385919
 30
0.0
 11
8719.954191942084
 21
2505.965215385922
 31
0.0
  0
LINE
  5
13C07
330
747D
100
AcDbEntity
  8
細線
 48
50.0
100
AcDbLine
 10
8966.90110554393
 20
2306.090215385921
 30
0.0
 11
8982.162147344613
 21
2271.090215385923
 31
0.0
  0
LINE
  5
13C08
330
747D
100
AcDbEntity
  8
細線
 48
50.0
100
AcDbLine
 10
9246.901105543932
 20
2306.090215385919
 30
0.0
 11
9262.162147344612
 21
2271.090215385921
 31
0.0
  0
LINE
  5
13C09
330
747D
100
AcDbEntity
  8
細線
 48
50.0
100
AcDbLine
 10
9277.161720232092
 20
2344.737484560387
 30
0.0
 11
9115.933989406556
 21
2505.965215385922
 31
0.0
  0
LINE
  5
13C0A
330
747D
100
AcDbEntity
  8
細線
 48
50.0
100
AcDbLine
 10
9106.901105543931
 20
2306.090215385923
 30
0.0
 11
9122.162147344619
 21
2271.090215385923
 31
0.0
  0
LINE
  5
13FD8
330
747D
100
AcDbEntity
  8
文字
 48
50.0
100
AcDbLine
 10
9654.291270162152
 20
2607.992016510231
 30
0.0
 11
9539.872573720261
 21
2638.650413820857
 31
0.0
  0
LINE
  5
13FD9
330
747D
100
AcDbEntity
  8
文字
 48
50.0
100
AcDbLine
 10
9654.291270162152
 20
2607.992016510231
 30
0.0
 11
9539.872573720261
 21
2577.333619199605
 31
0.0
  0
ENDSEC
  0
SECTION
  2
OBJECTS
  0
DICTIONARY
  5
7471
330
0
100
AcDbDictionary
281
     1
  3
ACAD_COLOR
350
1397F
  3
ACAD_GROUP
350
7472
  3
ACAD_LAYOUT
350
13980
  3
ACAD_MATERIAL
350
1397E
  3
ACAD_MLINESTYLE
350
7473
  3
ACAD_PLOTSETTINGS
350
13981
  3
ACAD_PLOTSTYLENAME
350
1397C
  3
ACDBHEADERROUNDTRIPXREC
350
14300
  3
ACDBVARIABLEDICTIONARY
350
11B74
  3
CONTENTDICTIONARY
350
E71C
  3
DRAWINGVARIABLESDICT
350
F3B9
  0
DICTIONARY
  5
14233
330
7467
100
AcDbDictionary
280
     1
281
     1
  3
ACAD_LAYERSTATES
360
14234
  0
DICTIONARY
  5
1397F
102
{ACAD_REACTORS
330
7471
102
}
330
7471
100
AcDbDictionary
281
     1
  0
DICTIONARY
  5
7472
102
{ACAD_REACTORS
330
7471
102
}
330
7471
100
AcDbDictionary
281
     1
  0
DICTIONARY
  5
13980
102
{ACAD_REACTORS
330
7471
102
}
330
7471
100
AcDbDictionary
281
     1
  3
Model
350
13982
  3
レイアウト1
350
13983
  0
DICTIONARY
  5
1397E
102
{ACAD_REACTORS
330
7471
102
}
330
7471
100
AcDbDictionary
281
     1
  0
DICTIONARY
  5
7473
102
{ACAD_REACTORS
330
7471
102
}
330
7471
100
AcDbDictionary
281
     1
  3
STANDARD
350
7480
  0
DICTIONARY
  5
13981
102
{ACAD_REACTORS
330
7471
102
}
330
7471
100
AcDbDictionary
281
     1
  0
ACDBDICTIONARYWDFLT
  5
1397C
102
{ACAD_REACTORS
330
7471
102
}
330
7471
100
AcDbDictionary
281
     1
  3
Normal
350
1397D
100
AcDbDictionaryWithDefault
340
1397D
  0
DICTIONARY
  5
14300
102
{ACAD_REACTORS
330
7471
102
}
330
7471
100
AcDbDictionary
281
     1
  3
COLORDICT
350
14302
  3
MATERIALDICT
350
14301
  0
DICTIONARY
  5
11B74
102
{ACAD_REACTORS
330
7471
102
}
330
7471
100
AcDbDictionary
281
     1
  3
DIMASSOC
350
142FD
  3
PROJECTNAME
350
142FE
  3
SORTENTS
350
11B75
  0
DICTIONARY
  5
E71C
102
{ACAD_REACTORS
330
7471
102
}
330
7471
100
AcDbDictionary
281
     1
  0
DICTIONARY
  5
F3B9
102
{ACAD_REACTORS
330
7471
102
}
330
7471
100
AcDbDictionary
281
     1
1001
DRAWINGVARIABLESXDATA
1000
POLARMODE
1000
1
  0
DICTIONARY
  5
14234
102
{ACAD_REACTORS
330
14233
102
}
330
14233
100
AcDbDictionary
281
     1
  0
LAYOUT
  5
13982
102
{ACAD_XDICTIONARY
360
14303
102
}
102
{ACAD_REACTORS
330
13980
102
}
330
13980
100
AcDbPlotSettings
  1

  2
iR C3880
  4
A3
  6

 40
5.873749732971191
 41
5.873747825622558
 42
5.873748779296875
 43
5.873748779296875
 44
296.9259948730469
 45
419.9466552734374
 46
0.0
 47
0.0
 48
0.0
 49
0.0
140
0.0
141
0.0
142
1.0
143
41.65811991999086
 70
 11952
 72
     1
 73
     1
 74
     2
  7
inaba.ctb
 75
     0
147
0.0240049239360925
148
0.0
149
0.0
100
AcDbLayout
  1
Model
 70
     1
 71
     0
 10
0.0
 20
0.0
 11
12.0
 21
9.0
 12
0.0
 22
0.0
 32
0.0
 14
0.0
 24
0.0
 34
0.0
 15
0.0
 25
0.0
 35
0.0
146
0.0
 13
0.0
 23
0.0
 33
0.0
 16
1.0
 26
0.0
 36
0.0
 17
0.0
 27
1.0
 37
0.0
 76
     0
330
747D
  0
LAYOUT
  5
13983
102
{ACAD_XDICTIONARY
360
14305
102
}
102
{ACAD_REACTORS
330
13980
102
}
330
13980
100
AcDbPlotSettings
  1

  2
Microsoft XPS Document Writer
  4

  6

 40
0.0
 41
0.0
 42
0.0
 43
0.0
 44
0.0
 45
0.0
 46
0.0
 47
0.0
 48
0.0
 49
0.0
140
0.0
141
0.0
142
1.0
143
1.0
 70
   688
 72
     0
 73
     0
 74
     5
  7
inaba.ctb
 75
    16
147
1.0
148
0.0
149
0.0
100
AcDbLayout
  1
レイアウト1
 70
     0
 71
     1
 10
0.0
 20
0.0
 11
420.0
 21
297.0
 12
0.0
 22
0.0
 32
0.0
 14
1.000000000000000E+20
 24
1.000000000000000E+20
 34
1.000000000000000E+20
 15
-1.000000000000000E+20
 25
-1.000000000000000E+20
 35
-1.000000000000000E+20
146
0.0
 13
0.0
 23
0.0
 33
0.0
 16
1.0
 26
0.0
 36
0.0
 17
0.0
 27
1.0
 37
0.0
 76
     0
330
747A
  0
MLINESTYLE
  5
7480
102
{ACAD_REACTORS
330
7473
102
}
330
7473
100
AcDbMlineStyle
  2
STANDARD
 70
     0
  3

 62
     0
 51
90.0
 52
90.0
 71
     2
 49
0.5
 62
   256
  6
BYLAYER
 49
-0.5
 62
   256
  6
BYLAYER
  0
ACDBPLACEHOLDER
  5
1397D
102
{ACAD_REACTORS
330
1397C
102
}
330
1397C
  0
XRECORD
  5
14302
102
{ACAD_REACTORS
330
14300
102
}
330
14300
100
AcDbXrecord
280
     1
340
1397F
  0
XRECORD
  5
14301
102
{ACAD_REACTORS
330
14300
102
}
330
14300
100
AcDbXrecord
280
     1
340
1397E
  0
DICTIONARYVAR
  5
142FD
102
{ACAD_REACTORS
330
11B74
102
}
330
11B74
100
DictionaryVariables
280
     0
  1
1
  0
DICTIONARYVAR
  5
142FE
102
{ACAD_REACTORS
330
11B74
102
}
330
11B74
100
DictionaryVariables
280
     0
  1

  0
DICTIONARYVAR
  5
11B75
102
{ACAD_REACTORS
330
11B74
102
}
330
11B74
100
DictionaryVariables
280
     0
  1
96
  0
DICTIONARY
  5
14303
330
13982
100
AcDbDictionary
280
     1
281
     1
  3
ACAD_XREC_ROUNDTRIP
360
14304
  0
DICTIONARY
  5
14305
330
13983
100
AcDbDictionary
280
     1
281
     1
  3
ACAD_XREC_ROUNDTRIP
360
14306
  0
XRECORD
  5
14304
102
{ACAD_REACTORS
330
14303
102
}
330
14303
100
AcDbXrecord
280
     1
102
SHADEPLOT
 70
     0
102
SHADEPLOTRESLEVEL
 70
     2
102
SHADEPLOTCUSTOMDPI
 70
   300
  0
XRECORD
  5
14306
102
{ACAD_REACTORS
330
14305
102
}
330
14305
100
AcDbXrecord
280
     1
102
SHADEPLOT
 70
     0
102
SHADEPLOTRESLEVEL
 70
     2
102
SHADEPLOTCUSTOMDPI
 70
   300
  0
ENDSEC
  0
EOF
