  0
SECTION
  2
HEADER
  9
$ACADVER
  1
AC1015
  9
$ACADMAINTVER
 70
    20
  9
$DWGCODEPAGE
  3
ANSI_932
  9
$INSBASE
 10
0.0
 20
0.0
 30
0.0
  9
$EXTMIN
 10
3647.506767007886
 20
-33327.60697397364
 30
-0.0000000000000053
  9
$EXTMAX
 10
15774.35307015473
 20
-24766.60363984089
 30
0.0000000000000099
  9
$LIMMIN
 10
0.0
 20
0.0
  9
$LIMMAX
 10
21000.0
 20
14850.0
  9
$ORTHOMODE
 70
     0
  9
$REGENMODE
 70
     1
  9
$FILLMODE
 70
     1
  9
$QTEXTMODE
 70
     0
  9
$MIRRTEXT
 70
     1
  9
$LTSCALE
 40
20.0
  9
$ATTMODE
 70
     1
  9
$TEXTSIZE
 40
100.0
  9
$TRACEWID
 40
1.0
  9
$TEXTSTYLE
  7
STYLE3
  9
$CLAYER
  8
寸法
  9
$CELTYPE
  6
BYLAYER
  9
$CECOLOR
 62
   256
  9
$CELTSCALE
 40
50.0
  9
$DISPSILH
 70
     0
  9
$DIMSCALE
 40
30.0
  9
$DIMASZ
 40
2.5
  9
$DIMEXO
 40
0.5
  9
$DIMDLI
 40
7.0
  9
$DIMRND
 40
0.0
  9
$DIMDLE
 40
0.0
  9
$DIMEXE
 40
1.5
  9
$DIMTP
 40
0.0
  9
$DIMTM
 40
0.0
  9
$DIMTXT
 40
3.0
  9
$DIMCEN
 40
0.0
  9
$DIMTSZ
 40
0.0
  9
$DIMTOL
 70
     0
  9
$DIMLIM
 70
     0
  9
$DIMTIH
 70
     0
  9
$DIMTOH
 70
     0
  9
$DIMSE1
 70
     0
  9
$DIMSE2
 70
     0
  9
$DIMTAD
 70
     3
  9
$DIMZIN
 70
     8
  9
$DIMBLK
  1

  9
$DIMASO
 70
     1
  9
$DIMSHO
 70
     1
  9
$DIMPOST
  1

  9
$DIMAPOST
  1

  9
$DIMALT
 70
     0
  9
$DIMALTD
 70
     2
  9
$DIMALTF
 40
0.0394
  9
$DIMLFAC
 40
1.0
  9
$DIMTOFL
 70
     1
  9
$DIMTVP
 40
0.0
  9
$DIMTIX
 70
     1
  9
$DIMSOXD
 70
     1
  9
$DIMSAH
 70
     1
  9
$DIMBLK1
  1
DOTSMALL
  9
$DIMBLK2
  1
DOTSMALL
  9
$DIMSTYLE
  2
INABA_S30G
  9
$DIMCLRD
 70
     0
  9
$DIMCLRE
 70
     0
  9
$DIMCLRT
 70
     7
  9
$DIMTFAC
 40
1.0
  9
$DIMGAP
 40
1.0
  9
$DIMJUST
 70
     0
  9
$DIMSD1
 70
     0
  9
$DIMSD2
 70
     0
  9
$DIMTOLJ
 70
     1
  9
$DIMTZIN
 70
     0
  9
$DIMALTZ
 70
     0
  9
$DIMALTTZ
 70
     0
  9
$DIMUPT
 70
     0
  9
$DIMDEC
 70
     1
  9
$DIMTDEC
 70
     4
  9
$DIMALTU
 70
     2
  9
$DIMALTTD
 70
     2
  9
$DIMTXSTY
  7
STYLE1
  9
$DIMAUNIT
 70
     0
  9
$DIMADEC
 70
     0
  9
$DIMALTRND
 40
0.0
  9
$DIMAZIN
 70
     0
  9
$DIMDSEP
 70
    46
  9
$DIMATFIT
 70
     3
  9
$DIMFRAC
 70
     0
  9
$DIMLDRBLK
  1
DOTSMALL
  9
$DIMLUNIT
 70
     2
  9
$DIMLWD
 70
    -2
  9
$DIMLWE
 70
    -2
  9
$DIMTMOVE
 70
     0
  9
$LUNITS
 70
     2
  9
$LUPREC
 70
     1
  9
$SKETCHINC
 40
1.0
  9
$FILLETRAD
 40
0.0
  9
$AUNITS
 70
     0
  9
$AUPREC
 70
     0
  9
$MENU
  1
acad
  9
$ELEVATION
 40
0.0
  9
$PELEVATION
 40
0.0
  9
$THICKNESS
 40
0.0
  9
$LIMCHECK
 70
     0
  9
$CHAMFERA
 40
0.0
  9
$CHAMFERB
 40
0.0
  9
$CHAMFERC
 40
0.0
  9
$CHAMFERD
 40
0.0
  9
$SKPOLY
 70
     0
  9
$TDCREATE
 40
2451802.696345833
  9
$TDUCREATE
 40
2451802.321345833
  9
$TDUPDATE
 40
2455813.722701273
  9
$TDUUPDATE
 40
2455813.347701273
  9
$TDINDWG
 40
1.6593794676
  9
$TDUSRTIMER
 40
1.6593794676
  9
$USRTIMER
 70
     1
  9
$ANGBASE
 50
0.0
  9
$ANGDIR
 70
     0
  9
$PDMODE
 70
     3
  9
$PDSIZE
 40
2.0
  9
$PLINEWID
 40
0.0
  9
$SPLFRAME
 70
     0
  9
$SPLINETYPE
 70
     6
  9
$SPLINESEGS
 70
     8
  9
$HANDSEED
  5
35B84
  9
$SURFTAB1
 70
     6
  9
$SURFTAB2
 70
     6
  9
$SURFTYPE
 70
     6
  9
$SURFU
 70
     6
  9
$SURFV
 70
     6
  9
$UCSBASE
  2

  9
$UCSNAME
  2

  9
$UCSORG
 10
0.0
 20
0.0
 30
0.0
  9
$UCSXDIR
 10
1.0
 20
0.0
 30
0.0
  9
$UCSYDIR
 10
0.0
 20
1.0
 30
0.0
  9
$UCSORTHOREF
  2

  9
$UCSORTHOVIEW
 70
     0
  9
$UCSORGTOP
 10
0.0
 20
0.0
 30
0.0
  9
$UCSORGBOTTOM
 10
0.0
 20
0.0
 30
0.0
  9
$UCSORGLEFT
 10
0.0
 20
0.0
 30
0.0
  9
$UCSORGRIGHT
 10
0.0
 20
0.0
 30
0.0
  9
$UCSORGFRONT
 10
0.0
 20
0.0
 30
0.0
  9
$UCSORGBACK
 10
0.0
 20
0.0
 30
0.0
  9
$PUCSBASE
  2

  9
$PUCSNAME
  2

  9
$PUCSORG
 10
0.0
 20
0.0
 30
0.0
  9
$PUCSXDIR
 10
1.0
 20
0.0
 30
0.0
  9
$PUCSYDIR
 10
0.0
 20
1.0
 30
0.0
  9
$PUCSORTHOREF
  2

  9
$PUCSORTHOVIEW
 70
     0
  9
$PUCSORGTOP
 10
0.0
 20
0.0
 30
0.0
  9
$PUCSORGBOTTOM
 10
0.0
 20
0.0
 30
0.0
  9
$PUCSORGLEFT
 10
0.0
 20
0.0
 30
0.0
  9
$PUCSORGRIGHT
 10
0.0
 20
0.0
 30
0.0
  9
$PUCSORGFRONT
 10
0.0
 20
0.0
 30
0.0
  9
$PUCSORGBACK
 10
0.0
 20
0.0
 30
0.0
  9
$USERI1
 70
     0
  9
$USERI2
 70
     0
  9
$USERI3
 70
     0
  9
$USERI4
 70
     0
  9
$USERI5
 70
     0
  9
$USERR1
 40
0.0
  9
$USERR2
 40
0.0
  9
$USERR3
 40
0.0
  9
$USERR4
 40
0.0
  9
$USERR5
 40
0.0
  9
$WORLDVIEW
 70
     1
  9
$SHADEDGE
 70
     3
  9
$SHADEDIF
 70
    70
  9
$TILEMODE
 70
     1
  9
$MAXACTVP
 70
    16
  9
$PINSBASE
 10
0.0
 20
0.0
 30
0.0
  9
$PLIMCHECK
 70
     0
  9
$PEXTMIN
 10
1.000000000000000E+20
 20
1.000000000000000E+20
 30
1.000000000000000E+20
  9
$PEXTMAX
 10
-1.000000000000000E+20
 20
-1.000000000000000E+20
 30
-1.000000000000000E+20
  9
$PLIMMIN
 10
0.0
 20
0.0
  9
$PLIMMAX
 10
420.0
 20
297.0
  9
$UNITMODE
 70
     0
  9
$VISRETAIN
 70
     0
  9
$PLINEGEN
 70
     0
  9
$PSLTSCALE
 70
     0
  9
$TREEDEPTH
 70
  3020
  9
$CMLSTYLE
  2
STANDARD
  9
$CMLJUST
 70
     0
  9
$CMLSCALE
 40
1.0
  9
$PROXYGRAPHICS
 70
     1
  9
$MEASUREMENT
 70
     1
  9
$CELWEIGHT
370
    -1
  9
$ENDCAPS
280
     0
  9
$JOINSTYLE
280
     0
  9
$LWDISPLAY
290
     0
  9
$INSUNITS
 70
     0
  9
$HYPERLINKBASE
  1

  9
$STYLESHEET
  1
ACA3.ctb
  9
$XEDIT
290
     1
  9
$CEPSNTYPE
380
     0
  9
$PSTYLEMODE
290
     1
  9
$FINGERPRINTGUID
  2
{DAFEAD6E-FF36-46F8-92D6-F05F9FF2CF3B}
  9
$VERSIONGUID
  2
{D11B5652-CE26-48F4-9EB5-AEF1D46B002B}
  9
$EXTNAMES
290
     1
  9
$PSVPSCALE
 40
0.0
  9
$OLESTARTUP
290
     0
  0
ENDSEC
  0
SECTION
  2
CLASSES
  0
CLASS
  1
ACDBDICTIONARYWDFLT
  2
AcDbDictionaryWithDefault
  3
ObjectDBX Classes
 90
        0
280
     0
281
     0
  0
CLASS
  1
DICTIONARYVAR
  2
AcDbDictionaryVar
  3
ObjectDBX Classes
 90
        0
280
     0
281
     0
  0
CLASS
  1
ACDBPLACEHOLDER
  2
AcDbPlaceHolder
  3
ObjectDBX Classes
 90
        0
280
     0
281
     0
  0
CLASS
  1
LAYOUT
  2
AcDbLayout
  3
ObjectDBX Classes
 90
        0
280
     0
281
     0
  0
ENDSEC
  0
SECTION
  2
TABLES
  0
TABLE
  2
VPORT
  5
746D
330
0
100
AcDbSymbolTable
 70
     2
  0
VPORT
  5
35B7C
330
746D
100
AcDbSymbolTableRecord
100
AcDbViewportTableRecord
  2
*Active
 70
     0
 10
0.0
 20
0.0
 11
1.0
 21
1.0
 12
10797.6139455437
 22
-29047.60367455847
 13
0.0
 23
0.0
 14
10.0
 24
10.0
 15
10.0
 25
10.0
 16
0.0
 26
0.0
 36
1.0
 17
0.0
 27
0.0
 37
0.0
 40
8627.314398047612
 41
1.778877887788778
 42
50.0
 43
0.0
 44
0.0
 50
0.0
 51
0.0
 71
     0
 72
     0
 73
     1
 74
     0
 75
     0
 76
     0
 77
     0
 78
     1
281
     0
 65
     1
110
0.0
120
0.0
130
0.0
111
1.0
121
0.0
131
0.0
112
0.0
122
1.0
132
0.0
 79
     0
146
0.0
  0
ENDTAB
  0
TABLE
  2
LTYPE
  5
746A
330
0
100
AcDbSymbolTable
 70
     3
  0
LTYPE
  5
7477
330
746A
100
AcDbSymbolTableRecord
100
AcDbLinetypeTableRecord
  2
BYBLOCK
 70
     0
  3

 72
    65
 73
     0
 40
0.0
  0
LTYPE
  5
7478
330
746A
100
AcDbSymbolTableRecord
100
AcDbLinetypeTableRecord
  2
BYLAYER
 70
     0
  3

 72
    65
 73
     0
 40
0.0
  0
LTYPE
  5
7479
330
746A
100
AcDbSymbolTableRecord
100
AcDbLinetypeTableRecord
  2
CONTINUOUS
 70
     0
  3
Solid line
 72
    65
 73
     0
 40
0.0
  0
LTYPE
  5
7816
330
746A
100
AcDbSymbolTableRecord
100
AcDbLinetypeTableRecord
  2
CENTER
 70
     0
  3
____ _ ____ _ ____ _ ____ _ ____ _ ____ _ ____ 
 72
    65
 73
     4
 40
2.0
 49
1.25
 74
     0
 49
-0.25
 74
     0
 49
0.25
 74
     0
 49
-0.25
 74
     0
  0
LTYPE
  5
781B
330
746A
100
AcDbSymbolTableRecord
100
AcDbLinetypeTableRecord
  2
PHANTOM
 70
     0
  3
______  __  __  ______  __  __  ______  __  __ 
 72
    65
 73
     6
 40
2.5
 49
1.25
 74
     0
 49
-0.25
 74
     0
 49
0.25
 74
     0
 49
-0.25
 74
     0
 49
0.25
 74
     0
 49
-0.25
 74
     0
  0
ENDTAB
  0
TABLE
  2
LAYER
  5
7467
102
{ACAD_XDICTIONARY
360
11827
102
}
330
0
100
AcDbSymbolTable
 70
    14
  0
LAYER
  5
7474
330
7467
100
AcDbSymbolTableRecord
100
AcDbLayerTableRecord
  2
0
 70
     0
 62
     7
  6
CONTINUOUS
370
    -3
390
11752
  0
LAYER
  5
DEB2
330
7467
100
AcDbSymbolTableRecord
100
AcDbLayerTableRecord
  2
センター
 70
     0
 62
     3
  6
CENTER
370
    -3
390
11752
  0
LAYER
  5
DEB3
330
7467
100
AcDbSymbolTableRecord
100
AcDbLayerTableRecord
  2
寸法
 70
     0
 62
     4
  6
CONTINUOUS
370
    -3
390
11752
  0
LAYER
  5
DEB4
330
7467
100
AcDbSymbolTableRecord
100
AcDbLayerTableRecord
  2
部品1
 70
     0
 62
     7
  6
CONTINUOUS
370
    -3
390
11752
  0
LAYER
  5
DEB5
330
7467
100
AcDbSymbolTableRecord
100
AcDbLayerTableRecord
  2
補助
 70
     0
 62
    -1
  6
CONTINUOUS
370
    -3
390
11752
  0
LAYER
  5
DEB6
330
7467
100
AcDbSymbolTableRecord
100
AcDbLayerTableRecord
  2
文字
 70
     0
 62
     7
  6
CONTINUOUS
370
    -3
390
11752
  0
LAYER
  5
F255
330
7467
100
AcDbSymbolTableRecord
100
AcDbLayerTableRecord
  2
DEFPOINTS
 70
     0
 62
     7
  6
CONTINUOUS
290
     0
370
    -3
390
11752
  0
LAYER
  5
10B54
330
7467
100
AcDbSymbolTableRecord
100
AcDbLayerTableRecord
  2
仕様書枠
 70
     0
 62
   230
  6
CONTINUOUS
370
    -3
390
11752
  0
LAYER
  5
11729
330
7467
100
AcDbSymbolTableRecord
100
AcDbLayerTableRecord
  2
Ｇ．Ｌ
 70
     0
 62
    30
  6
CONTINUOUS
370
    -3
390
11752
  0
LAYER
  5
1173F
330
7467
100
AcDbSymbolTableRecord
100
AcDbLayerTableRecord
  2
細線
 70
     0
 62
     5
  6
CONTINUOUS
370
    -3
390
11752
  0
LAYER
  5
1F38A
330
7467
100
AcDbSymbolTableRecord
100
AcDbLayerTableRecord
  2
U7
 70
     0
 62
     2
  6
CONTINUOUS
370
    -3
390
11752
  0
LAYER
  5
20750
330
7467
100
AcDbSymbolTableRecord
100
AcDbLayerTableRecord
  2
KIN-T
 70
     0
 62
     3
  6
CONTINUOUS
370
    -3
390
11752
  0
LAYER
  5
23C1A
330
7467
100
AcDbSymbolTableRecord
100
AcDbLayerTableRecord
  2
CSLAYER17
 70
     0
 62
     7
  6
CONTINUOUS
370
    -3
390
11752
  0
LAYER
  5
35B05
330
7467
100
AcDbSymbolTableRecord
100
AcDbLayerTableRecord
  2
想像線
 70
     0
 62
     6
  6
PHANTOM
370
    -3
390
11752
  0
ENDTAB
  0
TABLE
  2
STYLE
  5
7468
330
0
100
AcDbSymbolTable
 70
     4
  0
STYLE
  5
7475
330
7468
100
AcDbSymbolTableRecord
100
AcDbTextStyleTableRecord
  2
STANDARD
 70
     0
 40
0.0
 41
1.0
 50
0.0
 71
     0
 42
4.0
  3
txt
  4
C:\AutoCAD LT\bigfont.shx
  0
STYLE
  5
F706
330
7468
100
AcDbSymbolTableRecord
100
AcDbTextStyleTableRecord
  2
STYLE1
 70
     0
 40
0.0
 41
1.0
 50
0.0
 71
     0
 42
4.0
  3
isocp.shx
  4
bigfont.shx
  0
STYLE
  5
103BF
330
7468
100
AcDbSymbolTableRecord
100
AcDbTextStyleTableRecord
  2
STYLE2
 70
     0
 40
0.0
 41
1.0
 50
0.0
 71
     0
 42
100.0
  3
MS PGothic.ttf
  4

1001
ACAD
1000
MS PGothic
1071
    32818
  0
STYLE
  5
10BAA
330
7468
100
AcDbSymbolTableRecord
100
AcDbTextStyleTableRecord
  2
STYLE3
 70
     0
 40
0.0
 41
1.0
 50
0.0
 71
     0
 42
100.0
  3
DFPGothic-EB.ttf
  4

1001
ACAD
1000
DFPGothic-EB
1071
    32818
  0
ENDTAB
  0
TABLE
  2
VIEW
  5
746B
330
0
100
AcDbSymbolTable
 70
     0
  0
ENDTAB
  0
TABLE
  2
UCS
  5
746C
330
0
100
AcDbSymbolTable
 70
     0
  0
ENDTAB
  0
TABLE
  2
APPID
  5
746E
330
0
100
AcDbSymbolTable
 70
     8
  0
APPID
  5
7476
330
746E
100
AcDbSymbolTableRecord
100
AcDbRegAppTableRecord
  2
ACAD
 70
     0
  0
APPID
  5
DEA9
330
746E
100
AcDbSymbolTableRecord
100
AcDbRegAppTableRecord
  2
CONTENTBLOCKICON
 70
     0
  0
APPID
  5
DEAA
330
746E
100
AcDbSymbolTableRecord
100
AcDbRegAppTableRecord
  2
CONTENTBLOCKDESCRIPTION
 70
     0
  0
APPID
  5
E71D
330
746E
100
AcDbSymbolTableRecord
100
AcDbRegAppTableRecord
  2
CONTENTTABDATA
 70
     0
  0
APPID
  5
E71E
330
746E
100
AcDbSymbolTableRecord
100
AcDbRegAppTableRecord
  2
CONTENTCURRENTTAB
 70
     0
  0
APPID
  5
F3BA
330
746E
100
AcDbSymbolTableRecord
100
AcDbRegAppTableRecord
  2
DRAWINGVARIABLESXDATA
 70
     0
  0
APPID
  5
1F3A5
330
746E
100
AcDbSymbolTableRecord
100
AcDbRegAppTableRecord
  2
AUTOCAD_POSTSCRIPT_FIGURE
 70
     0
  0
APPID
  5
27B11
330
746E
100
AcDbSymbolTableRecord
100
AcDbRegAppTableRecord
  2
AcDbBlockRepETag
 70
     0
  0
ENDTAB
  0
TABLE
  2
DIMSTYLE
  5
746F
330
0
100
AcDbSymbolTable
 70
     3
100
AcDbDimStyleTable
 71
     2
340
13D04
340
F71F
  0
DIMSTYLE
105
F71F
330
746F
100
AcDbSymbolTableRecord
100
AcDbDimStyleTableRecord
  2
INABA_S50G
 70
     0
 41
125.0
 42
25.0
 43
7.0
 44
75.0
 73
     0
 74
     0
 77
     3
 78
     8
140
150.0
141
0.0
143
0.0394
147
25.0
172
     1
173
     1
174
     1
178
     7
271
     1
340
F706
341
F770
343
F770
344
F770
  0
DIMSTYLE
105
13D04
102
{ACAD_REACTORS
330
2B922
330
2B921
330
2B920
330
2B911
330
2B910
330
2B90F
330
2B90D
330
2B90C
330
2B90B
330
2B90A
330
2B909
330
2B908
330
2B907
330
2B906
330
2B905
330
2B904
330
2B903
330
2B8DD
330
2B8DC
330
2CA79
330
2B912
330
3513B
330
35197
330
351EB
330
351EC
330
351ED
330
351EE
330
351EF
330
351F0
330
3529E
330
3529F
330
352A0
330
35B4F
102
}
330
746F
100
AcDbSymbolTableRecord
100
AcDbDimStyleTableRecord
  2
INABA_S30G
 70
     0
 40
30.0
 41
2.5
 42
0.5
 43
7.0
 44
1.5
 73
     0
 74
     0
 77
     3
 78
     8
140
3.0
141
0.0
143
0.0394
147
1.0
172
     1
173
     1
174
     1
175
     1
178
     7
271
     1
340
F706
341
F770
343
F770
344
F770
  0
DIMSTYLE
105
2503A
330
746F
100
AcDbSymbolTableRecord
100
AcDbDimStyleTableRecord
  2
Standard
 70
     0
340
7475
  0
ENDTAB
  0
TABLE
  2
BLOCK_RECORD
  5
7466
330
0
100
AcDbSymbolTable
 70
    34
  0
BLOCK_RECORD
  5
747D
330
7466
100
AcDbSymbolTableRecord
100
AcDbBlockTableRecord
  2
*MODEL_SPACE
340
11757
  0
BLOCK_RECORD
  5
747A
330
7466
100
AcDbSymbolTableRecord
100
AcDbBlockTableRecord
  2
*PAPER_SPACE
340
11758
  0
BLOCK_RECORD
  5
F770
330
7466
100
AcDbSymbolTableRecord
100
AcDbBlockTableRecord
  2
_DOTSMALL
340
0
102
{BLKREFS
331
35982
331
35983
331
3598D
331
3598E
331
3599E
331
3599F
331
359A8
331
359A9
331
359B1
331
359B2
331
359BA
331
359BB
331
359C5
331
359C6
331
359CE
331
359CF
331
359D9
331
359DA
331
359E3
331
359E4
331
359EC
331
359ED
331
359F6
331
359F7
331
359FF
331
35A00
331
35A09
331
35A0A
331
35A12
331
35A13
331
35A1B
331
35A1C
331
35A24
331
35A25
331
35A2D
331
35A2E
331
35A36
331
35A37
331
35A3F
331
35A40
331
35A48
331
35A49
331
35A51
331
35A52
331
35A5A
331
35A5B
331
35A6A
331
35A6B
331
35A73
331
35A74
331
35A7C
331
35A7D
331
35B68
331
35B69
102
}
  0
BLOCK_RECORD
  5
2B941
330
7466
100
AcDbSymbolTableRecord
100
AcDbBlockTableRecord
  2
*D1
340
0
  0
BLOCK_RECORD
  5
2B94E
330
7466
100
AcDbSymbolTableRecord
100
AcDbBlockTableRecord
  2
*D2
340
0
  0
BLOCK_RECORD
  5
2B95A
330
7466
100
AcDbSymbolTableRecord
100
AcDbBlockTableRecord
  2
*D3
340
0
  0
BLOCK_RECORD
  5
2B98D
330
7466
100
AcDbSymbolTableRecord
100
AcDbBlockTableRecord
  2
*D4
340
0
  0
BLOCK_RECORD
  5
2B999
330
7466
100
AcDbSymbolTableRecord
100
AcDbBlockTableRecord
  2
*D5
340
0
  0
BLOCK_RECORD
  5
2B9A5
330
7466
100
AcDbSymbolTableRecord
100
AcDbBlockTableRecord
  2
*D6
340
0
  0
BLOCK_RECORD
  5
2B9B1
330
7466
100
AcDbSymbolTableRecord
100
AcDbBlockTableRecord
  2
*D7
340
0
  0
BLOCK_RECORD
  5
2B9BD
330
7466
100
AcDbSymbolTableRecord
100
AcDbBlockTableRecord
  2
*D8
340
0
  0
BLOCK_RECORD
  5
2B9C9
330
7466
100
AcDbSymbolTableRecord
100
AcDbBlockTableRecord
  2
*D9
340
0
  0
BLOCK_RECORD
  5
2B9D5
330
7466
100
AcDbSymbolTableRecord
100
AcDbBlockTableRecord
  2
*D10
340
0
  0
BLOCK_RECORD
  5
2B9E1
330
7466
100
AcDbSymbolTableRecord
100
AcDbBlockTableRecord
  2
*D11
340
0
  0
BLOCK_RECORD
  5
2B9ED
330
7466
100
AcDbSymbolTableRecord
100
AcDbBlockTableRecord
  2
*D12
340
0
  0
BLOCK_RECORD
  5
2B9F9
330
7466
100
AcDbSymbolTableRecord
100
AcDbBlockTableRecord
  2
*D13
340
0
  0
BLOCK_RECORD
  5
2BA03
330
7466
100
AcDbSymbolTableRecord
100
AcDbBlockTableRecord
  2
*D14
340
0
  0
BLOCK_RECORD
  5
2BA0F
330
7466
100
AcDbSymbolTableRecord
100
AcDbBlockTableRecord
  2
*D15
340
0
  0
BLOCK_RECORD
  5
2BA1B
330
7466
100
AcDbSymbolTableRecord
100
AcDbBlockTableRecord
  2
*D16
340
0
  0
BLOCK_RECORD
  5
2BA27
330
7466
100
AcDbSymbolTableRecord
100
AcDbBlockTableRecord
  2
*D17
340
0
  0
BLOCK_RECORD
  5
2BA31
330
7466
100
AcDbSymbolTableRecord
100
AcDbBlockTableRecord
  2
*D18
340
0
  0
BLOCK_RECORD
  5
2BA3B
330
7466
100
AcDbSymbolTableRecord
100
AcDbBlockTableRecord
  2
*D19
340
0
  0
BLOCK_RECORD
  5
2BA45
330
7466
100
AcDbSymbolTableRecord
100
AcDbBlockTableRecord
  2
*D20
340
0
  0
BLOCK_RECORD
  5
2CA7A
330
7466
100
AcDbSymbolTableRecord
100
AcDbBlockTableRecord
  2
*D21
340
0
  0
BLOCK_RECORD
  5
35379
330
7466
100
AcDbSymbolTableRecord
100
AcDbBlockTableRecord
  2
*D22
340
0
  0
BLOCK_RECORD
  5
35386
330
7466
100
AcDbSymbolTableRecord
100
AcDbBlockTableRecord
  2
*D23
340
0
  0
BLOCK_RECORD
  5
35394
330
7466
100
AcDbSymbolTableRecord
100
AcDbBlockTableRecord
  2
*D24
340
0
  0
BLOCK_RECORD
  5
353A0
330
7466
100
AcDbSymbolTableRecord
100
AcDbBlockTableRecord
  2
*D25
340
0
  0
BLOCK_RECORD
  5
353AE
330
7466
100
AcDbSymbolTableRecord
100
AcDbBlockTableRecord
  2
*D26
340
0
  0
BLOCK_RECORD
  5
353BA
330
7466
100
AcDbSymbolTableRecord
100
AcDbBlockTableRecord
  2
*D27
340
0
  0
BLOCK_RECORD
  5
353C6
330
7466
100
AcDbSymbolTableRecord
100
AcDbBlockTableRecord
  2
*D28
340
0
  0
BLOCK_RECORD
  5
353D3
330
7466
100
AcDbSymbolTableRecord
100
AcDbBlockTableRecord
  2
*D29
340
0
  0
BLOCK_RECORD
  5
353E0
330
7466
100
AcDbSymbolTableRecord
100
AcDbBlockTableRecord
  2
*D30
340
0
  0
BLOCK_RECORD
  5
353EA
330
7466
100
AcDbSymbolTableRecord
100
AcDbBlockTableRecord
  2
*D31
340
0
  0
BLOCK_RECORD
  5
353F8
330
7466
100
AcDbSymbolTableRecord
100
AcDbBlockTableRecord
  2
*D32
340
0
  0
BLOCK_RECORD
  5
35B50
330
7466
100
AcDbSymbolTableRecord
100
AcDbBlockTableRecord
  2
*D33
340
0
  0
ENDTAB
  0
ENDSEC
  0
SECTION
  2
BLOCKS
  0
BLOCK
  5
7489
330
747D
100
AcDbEntity
  8
0
100
AcDbBlockBegin
  2
*MODEL_SPACE
 70
     0
 10
0.0
 20
0.0
 30
0.0
  3
*MODEL_SPACE
  1

  0
ENDBLK
  5
748A
330
747D
100
AcDbEntity
  8
0
100
AcDbBlockEnd
  0
BLOCK
  5
7487
330
747A
100
AcDbEntity
 67
     1
  8
0
100
AcDbBlockBegin
  2
*PAPER_SPACE
 70
     0
 10
0.0
 20
0.0
 30
0.0
  3
*PAPER_SPACE
  1

  0
ENDBLK
  5
7488
330
747A
100
AcDbEntity
 67
     1
  8
0
100
AcDbBlockEnd
  0
BLOCK
  5
F771
330
F770
100
AcDbEntity
  8
0
 48
50.0
100
AcDbBlockBegin
  2
_DOTSMALL
 70
     0
 10
0.0
 20
0.0
 30
0.0
  3
_DOTSMALL
  1

  0
LWPOLYLINE
  5
F772
330
F770
100
AcDbEntity
  8
0
  6
ByBlock
 62
     0
 48
50.0
100
AcDbPolyline
 90
        2
 70
     1
 43
0.5
 10
-0.0625
 20
0.0
 42
1.0
 10
0.0625
 20
0.0
 42
1.0
  0
ENDBLK
  5
F776
330
F770
100
AcDbEntity
  8
0
 48
50.0
100
AcDbBlockEnd
  0
BLOCK
  5
2B94C
330
2B941
100
AcDbEntity
  8
0
 48
50.0
100
AcDbBlockBegin
  2
*D1
 70
     1
 10
0.0
 20
0.0
 30
0.0
  3
*D1
  1

  0
LINE
  5
359F2
330
2B941
100
AcDbEntity
  8
寸法
 62
     0
 48
50.0
370
    -2
100
AcDbLine
 10
10586.47640783829
 20
-30035.25458912248
 30
0.0
 11
11168.75063020195
 21
-30035.25458912248
 31
0.0
  0
LINE
  5
359F3
330
2B941
100
AcDbEntity
  8
寸法
 62
     0
 48
50.0
370
    -2
100
AcDbLine
 10
10756.47640783834
 20
-30172.25458912248
 30
0.0
 11
11168.75063020195
 21
-30172.25458912248
 31
0.0
  0
LINE
  5
359F4
330
2B941
100
AcDbEntity
  8
寸法
 62
     0
 48
50.0
370
    -2
100
AcDbLine
 10
11123.75063020195
 20
-30035.25458912248
 30
0.0
 11
11123.75063020195
 21
-30172.25458912248
 31
0.0
  0
LINE
  5
359F5
330
2B941
100
AcDbEntity
  8
寸法
 62
     0
 48
50.0
370
    -2
100
AcDbLine
 10
11123.75063020195
 20
-30172.25458912248
 30
0.0
 11
11123.75063020195
 21
-30451.25458912249
 31
0.0
  0
INSERT
  5
359F6
330
2B941
100
AcDbEntity
  8
寸法
 62
     0
 48
50.0
370
    -2
100
AcDbBlockReference
  2
_DOTSMALL
 10
11123.75063020195
 20
-30035.25458912248
 30
0.0
 41
75.0
 42
75.0
 43
75.0
 50
90.0
  0
INSERT
  5
359F7
330
2B941
100
AcDbEntity
  8
寸法
 62
     0
 48
50.0
370
    -2
100
AcDbBlockReference
  2
_DOTSMALL
 10
11123.75063020195
 20
-30172.25458912248
 30
0.0
 41
75.0
 42
75.0
 43
75.0
 50
270.0
  0
MTEXT
  5
359F8
330
2B941
100
AcDbEntity
  8
寸法
 62
     7
 48
50.0
100
AcDbMText
 10
11048.75063020195
 20
-30349.25458912248
 30
0.0
 40
90.0
 41
0.0
 71
     5
 72
     1
  1
\A1;137
  7
STYLE1
 11
0.0000000000000001
 21
1.0
 31
0.0
 73
     1
 44
1.0
1001
ACAD
1000
MTEXTBEGIN
1070
    73
1070
     1
1070
    44
1040
1.0
1070
    74
1070
     0
1000
MTEXTEND
  0
POINT
  5
359F9
330
2B941
100
AcDbEntity
  8
DEFPOINTS
 62
     0
 48
50.0
100
AcDbPoint
 10
10571.47640783829
 20
-30035.25458912248
 30
0.0
  0
POINT
  5
359FA
330
2B941
100
AcDbEntity
  8
DEFPOINTS
 62
     0
 48
50.0
100
AcDbPoint
 10
10741.47640783833
 20
-30172.25458912248
 30
0.0
  0
POINT
  5
359FB
330
2B941
100
AcDbEntity
  8
DEFPOINTS
 62
     0
 48
50.0
100
AcDbPoint
 10
11123.75063020195
 20
-30172.25458912248
 30
0.0
  0
ENDBLK
  5
2B94D
330
2B941
100
AcDbEntity
  8
0
 48
50.0
100
AcDbBlockEnd
  0
BLOCK
  5
2B958
330
2B94E
100
AcDbEntity
  8
0
 48
50.0
100
AcDbBlockBegin
  2
*D2
 70
     1
 10
0.0
 20
0.0
 30
0.0
  3
*D2
  1

  0
LINE
  5
359FC
330
2B94E
100
AcDbEntity
  8
寸法
 62
     0
 48
50.0
370
    -2
100
AcDbLine
 10
10586.47640783829
 20
-28015.25458912248
 30
0.0
 11
11168.75063020195
 21
-28015.25458912248
 31
0.0
  0
LINE
  5
359FD
330
2B94E
100
AcDbEntity
  8
寸法
 62
     0
 48
50.0
370
    -2
100
AcDbLine
 10
10586.47640783829
 20
-30035.25458912248
 30
0.0
 11
11168.75063020195
 21
-30035.25458912248
 31
0.0
  0
LINE
  5
359FE
330
2B94E
100
AcDbEntity
  8
寸法
 62
     0
 48
50.0
370
    -2
100
AcDbLine
 10
11123.75063020195
 20
-28015.25458912248
 30
0.0
 11
11123.75063020195
 21
-30035.25458912248
 31
0.0
  0
INSERT
  5
359FF
330
2B94E
100
AcDbEntity
  8
寸法
 62
     0
 48
50.0
370
    -2
100
AcDbBlockReference
  2
_DOTSMALL
 10
11123.75063020195
 20
-28015.25458912248
 30
0.0
 41
75.0
 42
75.0
 43
75.0
 50
90.0
  0
INSERT
  5
35A00
330
2B94E
100
AcDbEntity
  8
寸法
 62
     0
 48
50.0
370
    -2
100
AcDbBlockReference
  2
_DOTSMALL
 10
11123.75063020195
 20
-30035.25458912248
 30
0.0
 41
75.0
 42
75.0
 43
75.0
 50
270.0
  0
MTEXT
  5
35A01
330
2B94E
100
AcDbEntity
  8
寸法
 62
     7
 48
50.0
100
AcDbMText
 10
11048.74177193424
 20
-29025.25458912248
 30
0.0
 40
90.0
 41
0.0
 71
     5
 72
     1
  1
\A1;屋根寸法 2020
  7
STYLE1
 11
0.0000000000000001
 21
1.0
 31
0.0
 73
     1
 44
1.0
1001
ACAD
1000
MTEXTBEGIN
1070
    73
1070
     1
1070
    44
1040
1.0
1070
    74
1070
     0
1000
MTEXTEND
  0
POINT
  5
35A02
330
2B94E
100
AcDbEntity
  8
DEFPOINTS
 62
     0
 48
50.0
100
AcDbPoint
 10
10571.47640783829
 20
-28015.25458912248
 30
0.0
  0
POINT
  5
35A03
330
2B94E
100
AcDbEntity
  8
DEFPOINTS
 62
     0
 48
50.0
100
AcDbPoint
 10
10571.47640783829
 20
-30035.25458912248
 30
0.0
  0
POINT
  5
35A04
330
2B94E
100
AcDbEntity
  8
DEFPOINTS
 62
     0
 48
50.0
100
AcDbPoint
 10
11123.75063020195
 20
-30035.25458912248
 30
0.0
  0
ENDBLK
  5
2B959
330
2B94E
100
AcDbEntity
  8
0
 48
50.0
100
AcDbBlockEnd
  0
BLOCK
  5
2B965
330
2B95A
100
AcDbEntity
  8
0
 48
50.0
100
AcDbBlockBegin
  2
*D3
 70
     1
 10
0.0
 20
0.0
 30
0.0
  3
*D3
  1

  0
LINE
  5
35A05
330
2B95A
100
AcDbEntity
  8
寸法
 62
     0
 48
50.0
370
    -2
100
AcDbLine
 10
10586.47640783829
 20
-28015.25458912248
 30
0.0
 11
11168.75063020196
 21
-28015.25458912248
 31
0.0
  0
LINE
  5
35A06
330
2B95A
100
AcDbEntity
  8
寸法
 62
     0
 48
50.0
370
    -2
100
AcDbLine
 10
10756.47640783834
 20
-27872.25458912249
 30
0.0
 11
11168.75063020196
 21
-27872.25458912249
 31
0.0
  0
LINE
  5
35A07
330
2B95A
100
AcDbEntity
  8
寸法
 62
     0
 48
50.0
370
    -2
100
AcDbLine
 10
11123.75063020196
 20
-28015.25458912248
 30
0.0
 11
11123.75063020196
 21
-27872.25458912249
 31
0.0
  0
LINE
  5
35A08
330
2B95A
100
AcDbEntity
  8
寸法
 62
     0
 48
50.0
370
    -2
100
AcDbLine
 10
11123.75063020196
 20
-27872.25458912249
 30
0.0
 11
11123.75063020196
 21
-27580.52666706114
 31
0.0
  0
INSERT
  5
35A09
330
2B95A
100
AcDbEntity
  8
寸法
 62
     0
 48
50.0
370
    -2
100
AcDbBlockReference
  2
_DOTSMALL
 10
11123.75063020196
 20
-28015.25458912248
 30
0.0
 41
75.0
 42
75.0
 43
75.0
 50
270.0
  0
INSERT
  5
35A0A
330
2B95A
100
AcDbEntity
  8
寸法
 62
     0
 48
50.0
370
    -2
100
AcDbBlockReference
  2
_DOTSMALL
 10
11123.75063020196
 20
-27872.25458912249
 30
0.0
 41
75.0
 42
75.0
 43
75.0
 50
90.0
  0
MTEXT
  5
35A0B
330
2B95A
100
AcDbEntity
  8
寸法
 62
     7
 48
50.0
100
AcDbMText
 10
11048.75063020197
 20
-27688.89062809181
 30
0.0
 40
90.0
 41
0.0
 71
     5
 72
     1
  1
\A1;143
  7
STYLE1
 11
0.0000000000000001
 21
1.0
 31
0.0
 73
     1
 44
1.0
1001
ACAD
1000
MTEXTBEGIN
1070
    73
1070
     1
1070
    44
1040
1.0
1070
    74
1070
     0
1000
MTEXTEND
  0
POINT
  5
35A0C
330
2B95A
100
AcDbEntity
  8
DEFPOINTS
 62
     0
 48
50.0
100
AcDbPoint
 10
10571.47640783829
 20
-28015.25458912248
 30
0.0
  0
POINT
  5
35A0D
330
2B95A
100
AcDbEntity
  8
DEFPOINTS
 62
     0
 48
50.0
100
AcDbPoint
 10
10741.47640783833
 20
-27872.25458912249
 30
0.0
  0
POINT
  5
35A0E
330
2B95A
100
AcDbEntity
  8
DEFPOINTS
 62
     0
 48
50.0
100
AcDbPoint
 10
11123.75063020196
 20
-27872.25458912249
 30
0.0
  0
ENDBLK
  5
2B966
330
2B95A
100
AcDbEntity
  8
0
 48
50.0
100
AcDbBlockEnd
  0
BLOCK
  5
2B997
330
2B98D
100
AcDbEntity
  8
0
 48
50.0
100
AcDbBlockBegin
  2
*D4
 70
     1
 10
0.0
 20
0.0
 30
0.0
  3
*D4
  1

  0
LINE
  5
35A0F
330
2B98D
100
AcDbEntity
  8
寸法
 62
     0
 48
50.0
370
    -2
100
AcDbLine
 10
5541.476407838338
 20
-27907.25458912248
 30
0.0
 11
5541.476407838338
 21
-27517.80229499138
 31
0.0
  0
LINE
  5
35A10
330
2B98D
100
AcDbEntity
  8
寸法
 62
     0
 48
50.0
370
    -2
100
AcDbLine
 10
7941.476407838338
 20
-27907.25458912248
 30
0.0
 11
7941.476407838338
 21
-27517.80229499138
 31
0.0
  0
LINE
  5
35A11
330
2B98D
100
AcDbEntity
  8
寸法
 62
     0
 48
50.0
370
    -2
100
AcDbLine
 10
5541.476407838338
 20
-27562.80229499138
 30
0.0
 11
7941.476407838338
 21
-27562.80229499138
 31
0.0
  0
INSERT
  5
35A12
330
2B98D
100
AcDbEntity
  8
寸法
 62
     0
 48
50.0
370
    -2
100
AcDbBlockReference
  2
_DOTSMALL
 10
5541.476407838338
 20
-27562.80229499138
 30
0.0
 41
75.0
 42
75.0
 43
75.0
 50
180.0
  0
INSERT
  5
35A13
330
2B98D
100
AcDbEntity
  8
寸法
 62
     0
 48
50.0
370
    -2
100
AcDbBlockReference
  2
_DOTSMALL
 10
7941.476407838338
 20
-27562.80229499138
 30
0.0
 41
75.0
 42
75.0
 43
75.0
  0
MTEXT
  5
35A14
330
2B98D
100
AcDbEntity
  8
寸法
 62
     7
 48
50.0
100
AcDbMText
 10
6741.476407838338
 20
-27487.79343672366
 30
0.0
 40
90.0
 41
0.0
 71
     5
 72
     1
  1
\A1;2400
  7
STYLE1
 73
     1
 44
1.0
1001
ACAD
1000
MTEXTBEGIN
1070
    73
1070
     1
1070
    44
1040
1.0
1070
    74
1070
     0
1000
MTEXTEND
  0
POINT
  5
35A15
330
2B98D
100
AcDbEntity
  8
DEFPOINTS
 62
     0
 48
50.0
100
AcDbPoint
 10
5541.476407838338
 20
-27922.25458912248
 30
0.0
  0
POINT
  5
35A16
330
2B98D
100
AcDbEntity
  8
DEFPOINTS
 62
     0
 48
50.0
100
AcDbPoint
 10
7941.476407838338
 20
-27922.25458912248
 30
0.0
  0
POINT
  5
35A17
330
2B98D
100
AcDbEntity
  8
DEFPOINTS
 62
     0
 48
50.0
100
AcDbPoint
 10
7941.476407838338
 20
-27562.80229499138
 30
0.0
  0
ENDBLK
  5
2B998
330
2B98D
100
AcDbEntity
  8
0
 48
50.0
100
AcDbBlockEnd
  0
BLOCK
  5
2B9A3
330
2B999
100
AcDbEntity
  8
0
 48
50.0
100
AcDbBlockBegin
  2
*D5
 70
     1
 10
0.0
 20
0.0
 30
0.0
  3
*D5
  1

  0
LINE
  5
35A18
330
2B999
100
AcDbEntity
  8
寸法
 62
     0
 48
50.0
370
    -2
100
AcDbLine
 10
10341.47640783834
 20
-27907.25458912248
 30
0.0
 11
10341.47640783834
 21
-27517.80229499138
 31
0.0
  0
LINE
  5
35A19
330
2B999
100
AcDbEntity
  8
寸法
 62
     0
 48
50.0
370
    -2
100
AcDbLine
 10
10741.47640783833
 20
-27857.25458912249
 30
0.0
 11
10741.47640783833
 21
-27517.80229499138
 31
0.0
  0
LINE
  5
35A1A
330
2B999
100
AcDbEntity
  8
寸法
 62
     0
 48
50.0
370
    -2
100
AcDbLine
 10
10341.47640783834
 20
-27562.80229499138
 30
0.0
 11
10741.47640783833
 21
-27562.80229499138
 31
0.0
  0
INSERT
  5
35A1B
330
2B999
100
AcDbEntity
  8
寸法
 62
     0
 48
50.0
370
    -2
100
AcDbBlockReference
  2
_DOTSMALL
 10
10341.47640783834
 20
-27562.80229499138
 30
0.0
 41
75.0
 42
75.0
 43
75.0
 50
180.0
  0
INSERT
  5
35A1C
330
2B999
100
AcDbEntity
  8
寸法
 62
     0
 48
50.0
370
    -2
100
AcDbBlockReference
  2
_DOTSMALL
 10
10741.47640783833
 20
-27562.80229499138
 30
0.0
 41
75.0
 42
75.0
 43
75.0
  0
MTEXT
  5
35A1D
330
2B999
100
AcDbEntity
  8
寸法
 62
     7
 48
50.0
100
AcDbMText
 10
10541.47640783833
 20
-27487.80229499138
 30
0.0
 40
90.0
 41
0.0
 71
     5
 72
     1
  1
\A1;400
  7
STYLE1
 73
     1
 44
1.0
1001
ACAD
1000
MTEXTBEGIN
1070
    73
1070
     1
1070
    44
1040
1.0
1070
    74
1070
     0
1000
MTEXTEND
  0
POINT
  5
35A1E
330
2B999
100
AcDbEntity
  8
DEFPOINTS
 62
     0
 48
50.0
100
AcDbPoint
 10
10341.47640783834
 20
-27922.25458912248
 30
0.0
  0
POINT
  5
35A1F
330
2B999
100
AcDbEntity
  8
DEFPOINTS
 62
     0
 48
50.0
100
AcDbPoint
 10
10741.47640783833
 20
-27872.25458912249
 30
0.0
  0
POINT
  5
35A20
330
2B999
100
AcDbEntity
  8
DEFPOINTS
 62
     0
 48
50.0
100
AcDbPoint
 10
10741.47640783833
 20
-27562.80229499138
 30
0.0
  0
ENDBLK
  5
2B9A4
330
2B999
100
AcDbEntity
  8
0
 48
50.0
100
AcDbBlockEnd
  0
BLOCK
  5
2B9AF
330
2B9A5
100
AcDbEntity
  8
0
 48
50.0
100
AcDbBlockBegin
  2
*D6
 70
     1
 10
0.0
 20
0.0
 30
0.0
  3
*D6
  1

  0
LINE
  5
35A21
330
2B9A5
100
AcDbEntity
  8
寸法
 62
     0
 48
50.0
370
    -2
100
AcDbLine
 10
5141.476407838338
 20
-27857.25458912249
 30
0.0
 11
5141.476407838338
 21
-27323.76525601706
 31
0.0
  0
LINE
  5
35A22
330
2B9A5
100
AcDbEntity
  8
寸法
 62
     0
 48
50.0
370
    -2
100
AcDbLine
 10
10741.47640783833
 20
-27857.25458912249
 30
0.0
 11
10741.47640783833
 21
-27323.76525601706
 31
0.0
  0
LINE
  5
35A23
330
2B9A5
100
AcDbEntity
  8
寸法
 62
     0
 48
50.0
370
    -2
100
AcDbLine
 10
5141.476407838338
 20
-27368.76525601706
 30
0.0
 11
10741.47640783833
 21
-27368.76525601706
 31
0.0
  0
INSERT
  5
35A24
330
2B9A5
100
AcDbEntity
  8
寸法
 62
     0
 48
50.0
370
    -2
100
AcDbBlockReference
  2
_DOTSMALL
 10
5141.476407838338
 20
-27368.76525601706
 30
0.0
 41
75.0
 42
75.0
 43
75.0
 50
180.0
  0
INSERT
  5
35A25
330
2B9A5
100
AcDbEntity
  8
寸法
 62
     0
 48
50.0
370
    -2
100
AcDbBlockReference
  2
_DOTSMALL
 10
10741.47640783833
 20
-27368.76525601706
 30
0.0
 41
75.0
 42
75.0
 43
75.0
  0
MTEXT
  5
35A26
330
2B9A5
100
AcDbEntity
  8
寸法
 62
     7
 48
50.0
100
AcDbMText
 10
7941.476407838338
 20
-27293.76525601706
 30
0.0
 40
90.0
 41
0.0
 71
     5
 72
     1
  1
\A1;基礎土間寸法 5600
  7
STYLE1
 73
     1
 44
1.0
1001
ACAD
1000
MTEXTBEGIN
1070
    73
1070
     1
1070
    44
1040
1.0
1070
    74
1070
     0
1000
MTEXTEND
  0
POINT
  5
35A27
330
2B9A5
100
AcDbEntity
  8
DEFPOINTS
 62
     0
 48
50.0
100
AcDbPoint
 10
5141.476407838338
 20
-27872.25458912249
 30
0.0
  0
POINT
  5
35A28
330
2B9A5
100
AcDbEntity
  8
DEFPOINTS
 62
     0
 48
50.0
100
AcDbPoint
 10
10741.47640783833
 20
-27872.25458912249
 30
0.0
  0
POINT
  5
35A29
330
2B9A5
100
AcDbEntity
  8
DEFPOINTS
 62
     0
 48
50.0
100
AcDbPoint
 10
10741.47640783833
 20
-27368.76525601706
 30
0.0
  0
ENDBLK
  5
2B9B0
330
2B9A5
100
AcDbEntity
  8
0
 48
50.0
100
AcDbBlockEnd
  0
BLOCK
  5
2B9BB
330
2B9B1
100
AcDbEntity
  8
0
 48
50.0
100
AcDbBlockBegin
  2
*D7
 70
     1
 10
0.0
 20
0.0
 30
0.0
  3
*D7
  1

  0
LINE
  5
35A2A
330
2B9B1
100
AcDbEntity
  8
寸法
 62
     0
 48
50.0
370
    -2
100
AcDbLine
 10
5141.476407838338
 20
-27857.2545891225
 30
0.0
 11
5141.476407838338
 21
-27517.80229499138
 31
0.0
  0
LINE
  5
35A2B
330
2B9B1
100
AcDbEntity
  8
寸法
 62
     0
 48
50.0
370
    -2
100
AcDbLine
 10
5541.476407838338
 20
-27907.25458912248
 30
0.0
 11
5541.476407838338
 21
-27517.80229499138
 31
0.0
  0
LINE
  5
35A2C
330
2B9B1
100
AcDbEntity
  8
寸法
 62
     0
 48
50.0
370
    -2
100
AcDbLine
 10
5141.476407838338
 20
-27562.80229499138
 30
0.0
 11
5541.476407838338
 21
-27562.80229499138
 31
0.0
  0
INSERT
  5
35A2D
330
2B9B1
100
AcDbEntity
  8
寸法
 62
     0
 48
50.0
370
    -2
100
AcDbBlockReference
  2
_DOTSMALL
 10
5141.476407838338
 20
-27562.80229499138
 30
0.0
 41
75.0
 42
75.0
 43
75.0
 50
180.0
  0
INSERT
  5
35A2E
330
2B9B1
100
AcDbEntity
  8
寸法
 62
     0
 48
50.0
370
    -2
100
AcDbBlockReference
  2
_DOTSMALL
 10
5541.476407838338
 20
-27562.80229499138
 30
0.0
 41
75.0
 42
75.0
 43
75.0
  0
MTEXT
  5
35A2F
330
2B9B1
100
AcDbEntity
  8
寸法
 62
     7
 48
50.0
100
AcDbMText
 10
5341.476407838338
 20
-27487.80229499138
 30
0.0
 40
90.0
 41
0.0
 71
     5
 72
     1
  1
\A1;400
  7
STYLE1
 73
     1
 44
1.0
1001
ACAD
1000
MTEXTBEGIN
1070
    73
1070
     1
1070
    44
1040
1.0
1070
    74
1070
     0
1000
MTEXTEND
  0
POINT
  5
35A30
330
2B9B1
100
AcDbEntity
  8
DEFPOINTS
 62
     0
 48
50.0
100
AcDbPoint
 10
5141.476407838338
 20
-27872.2545891225
 30
0.0
  0
POINT
  5
35A31
330
2B9B1
100
AcDbEntity
  8
DEFPOINTS
 62
     0
 48
50.0
100
AcDbPoint
 10
5541.476407838338
 20
-27922.25458912248
 30
0.0
  0
POINT
  5
35A32
330
2B9B1
100
AcDbEntity
  8
DEFPOINTS
 62
     0
 48
50.0
100
AcDbPoint
 10
5541.476407838338
 20
-27562.80229499138
 30
0.0
  0
ENDBLK
  5
2B9BC
330
2B9B1
100
AcDbEntity
  8
0
 48
50.0
100
AcDbBlockEnd
  0
BLOCK
  5
2B9C7
330
2B9BD
100
AcDbEntity
  8
0
 48
50.0
100
AcDbBlockBegin
  2
*D8
 70
     1
 10
0.0
 20
0.0
 30
0.0
  3
*D8
  1

  0
LINE
  5
35A33
330
2B9BD
100
AcDbEntity
  8
寸法
 62
     0
 48
50.0
370
    -2
100
AcDbLine
 10
9941.476407838338
 20
-28987.25458912248
 30
0.0
 11
9941.476407838338
 21
-29493.52702119665
 31
0.0
  0
LINE
  5
35A34
330
2B9BD
100
AcDbEntity
  8
寸法
 62
     0
 48
50.0
370
    -2
100
AcDbLine
 10
10741.47640783833
 20
-28987.25458912248
 30
0.0
 11
10741.47640783833
 21
-29493.52702119665
 31
0.0
  0
LINE
  5
35A35
330
2B9BD
100
AcDbEntity
  8
寸法
 62
     0
 48
50.0
370
    -2
100
AcDbLine
 10
9941.476407838338
 20
-29448.52702119665
 30
0.0
 11
10741.47640783833
 21
-29448.52702119665
 31
0.0
  0
INSERT
  5
35A36
330
2B9BD
100
AcDbEntity
  8
寸法
 62
     0
 48
50.0
370
    -2
100
AcDbBlockReference
  2
_DOTSMALL
 10
9941.476407838338
 20
-29448.52702119665
 30
0.0
 41
75.0
 42
75.0
 43
75.0
 50
180.0
  0
INSERT
  5
35A37
330
2B9BD
100
AcDbEntity
  8
寸法
 62
     0
 48
50.0
370
    -2
100
AcDbBlockReference
  2
_DOTSMALL
 10
10741.47640783833
 20
-29448.52702119665
 30
0.0
 41
75.0
 42
75.0
 43
75.0
  0
MTEXT
  5
35A38
330
2B9BD
100
AcDbEntity
  8
寸法
 62
     7
 48
50.0
100
AcDbMText
 10
10341.47640783834
 20
-29373.52702119665
 30
0.0
 40
90.0
 41
0.0
 71
     5
 72
     1
  1
\A1;800
  7
STYLE1
 73
     1
 44
1.0
1001
ACAD
1000
MTEXTBEGIN
1070
    73
1070
     1
1070
    44
1040
1.0
1070
    74
1070
     0
1000
MTEXTEND
  0
POINT
  5
35A39
330
2B9BD
100
AcDbEntity
  8
DEFPOINTS
 62
     0
 48
50.0
100
AcDbPoint
 10
9941.476407838338
 20
-28972.25458912248
 30
0.0
  0
POINT
  5
35A3A
330
2B9BD
100
AcDbEntity
  8
DEFPOINTS
 62
     0
 48
50.0
100
AcDbPoint
 10
10741.47640783833
 20
-28972.25458912248
 30
0.0
  0
POINT
  5
35A3B
330
2B9BD
100
AcDbEntity
  8
DEFPOINTS
 62
     0
 48
50.0
100
AcDbPoint
 10
10741.47640783833
 20
-29448.52702119665
 30
0.0
  0
ENDBLK
  5
2B9C8
330
2B9BD
100
AcDbEntity
  8
0
 48
50.0
100
AcDbBlockEnd
  0
BLOCK
  5
2B9D3
330
2B9C9
100
AcDbEntity
  8
0
 48
50.0
100
AcDbBlockBegin
  2
*D9
 70
     1
 10
0.0
 20
0.0
 30
0.0
  3
*D9
  1

  0
LINE
  5
35A3C
330
2B9C9
100
AcDbEntity
  8
寸法
 62
     0
 48
50.0
370
    -2
100
AcDbLine
 10
10341.47640783834
 20
-28437.25458912248
 30
0.0
 11
10341.47640783834
 21
-29255.39080515957
 31
0.0
  0
LINE
  5
35A3D
330
2B9C9
100
AcDbEntity
  8
寸法
 62
     0
 48
50.0
370
    -2
100
AcDbLine
 10
9941.476407838338
 20
-28987.25458912248
 30
0.0
 11
9941.476407838338
 21
-29255.39080515957
 31
0.0
  0
LINE
  5
35A3E
330
2B9C9
100
AcDbEntity
  8
寸法
 62
     0
 48
50.0
370
    -2
100
AcDbLine
 10
10341.47640783834
 20
-29210.39080515957
 30
0.0
 11
9941.476407838338
 21
-29210.39080515957
 31
0.0
  0
INSERT
  5
35A3F
330
2B9C9
100
AcDbEntity
  8
寸法
 62
     0
 48
50.0
370
    -2
100
AcDbBlockReference
  2
_DOTSMALL
 10
10341.47640783834
 20
-29210.39080515957
 30
0.0
 41
75.0
 42
75.0
 43
75.0
  0
INSERT
  5
35A40
330
2B9C9
100
AcDbEntity
  8
寸法
 62
     0
 48
50.0
370
    -2
100
AcDbBlockReference
  2
_DOTSMALL
 10
9941.476407838338
 20
-29210.39080515957
 30
0.0
 41
75.0
 42
75.0
 43
75.0
 50
180.0
  0
MTEXT
  5
35A41
330
2B9C9
100
AcDbEntity
  8
寸法
 62
     7
 48
50.0
100
AcDbMText
 10
10141.47640783834
 20
-29135.39080515957
 30
0.0
 40
90.0
 41
0.0
 71
     5
 72
     1
  1
\A1;400
  7
STYLE1
 73
     1
 44
1.0
1001
ACAD
1000
MTEXTBEGIN
1070
    73
1070
     1
1070
    44
1040
1.0
1070
    74
1070
     0
1000
MTEXTEND
  0
POINT
  5
35A42
330
2B9C9
100
AcDbEntity
  8
DEFPOINTS
 62
     0
 48
50.0
100
AcDbPoint
 10
10341.47640783834
 20
-28422.25458912248
 30
0.0
  0
POINT
  5
35A43
330
2B9C9
100
AcDbEntity
  8
DEFPOINTS
 62
     0
 48
50.0
100
AcDbPoint
 10
9941.476407838338
 20
-28972.25458912248
 30
0.0
  0
POINT
  5
35A44
330
2B9C9
100
AcDbEntity
  8
DEFPOINTS
 62
     0
 48
50.0
100
AcDbPoint
 10
9941.476407838338
 20
-29210.39080515957
 30
0.0
  0
ENDBLK
  5
2B9D4
330
2B9C9
100
AcDbEntity
  8
0
 48
50.0
100
AcDbBlockEnd
  0
BLOCK
  5
2B9DF
330
2B9D5
100
AcDbEntity
  8
0
 48
50.0
100
AcDbBlockBegin
  2
*D10
 70
     1
 10
0.0
 20
0.0
 30
0.0
  3
*D10
  1

  0
LINE
  5
35A45
330
2B9D5
100
AcDbEntity
  8
寸法
 62
     0
 48
50.0
370
    -2
100
AcDbLine
 10
9926.476407838338
 20
-27872.25458912248
 30
0.0
 11
9541.847401269983
 21
-27872.25458912248
 31
0.0
  0
LINE
  5
35A46
330
2B9D5
100
AcDbEntity
  8
寸法
 62
     0
 48
50.0
370
    -2
100
AcDbLine
 10
9926.476407838338
 20
-28972.25458912248
 30
0.0
 11
9541.847401269981
 21
-28972.25458912248
 31
0.0
  0
LINE
  5
35A47
330
2B9D5
100
AcDbEntity
  8
寸法
 62
     0
 48
50.0
370
    -2
100
AcDbLine
 10
9586.847401269983
 20
-27872.25458912248
 30
0.0
 11
9586.847401269981
 21
-28972.25458912248
 31
0.0
  0
INSERT
  5
35A48
330
2B9D5
100
AcDbEntity
  8
寸法
 62
     0
 48
50.0
370
    -2
100
AcDbBlockReference
  2
_DOTSMALL
 10
9586.847401269983
 20
-27872.25458912248
 30
0.0
 41
75.0
 42
75.0
 43
75.0
 50
90.0
  0
INSERT
  5
35A49
330
2B9D5
100
AcDbEntity
  8
寸法
 62
     0
 48
50.0
370
    -2
100
AcDbBlockReference
  2
_DOTSMALL
 10
9586.847401269981
 20
-28972.25458912248
 30
0.0
 41
75.0
 42
75.0
 43
75.0
 50
270.0
  0
MTEXT
  5
35A4A
330
2B9D5
100
AcDbEntity
  8
寸法
 62
     7
 48
50.0
100
AcDbMText
 10
9511.847401269987
 20
-28422.25458912247
 30
0.0
 40
90.0
 41
0.0
 71
     5
 72
     1
  1
\A1;1100
  7
STYLE1
 11
0.0000000000000001
 21
1.0
 31
0.0
 73
     1
 44
1.0
1001
ACAD
1000
MTEXTBEGIN
1070
    73
1070
     1
1070
    44
1040
1.0
1070
    74
1070
     0
1000
MTEXTEND
  0
POINT
  5
35A4B
330
2B9D5
100
AcDbEntity
  8
DEFPOINTS
 62
     0
 48
50.0
100
AcDbPoint
 10
9941.476407838338
 20
-27872.25458912248
 30
0.0
  0
POINT
  5
35A4C
330
2B9D5
100
AcDbEntity
  8
DEFPOINTS
 62
     0
 48
50.0
100
AcDbPoint
 10
9941.476407838338
 20
-28972.25458912248
 30
0.0
  0
POINT
  5
35A4D
330
2B9D5
100
AcDbEntity
  8
DEFPOINTS
 62
     0
 48
50.0
100
AcDbPoint
 10
9586.847401269981
 20
-28972.25458912248
 30
0.0
  0
ENDBLK
  5
2B9E0
330
2B9D5
100
AcDbEntity
  8
0
 48
50.0
100
AcDbBlockEnd
  0
BLOCK
  5
2B9EB
330
2B9E1
100
AcDbEntity
  8
0
 48
50.0
100
AcDbBlockBegin
  2
*D11
 70
     1
 10
0.0
 20
0.0
 30
0.0
  3
*D11
  1

  0
LINE
  5
35A4E
330
2B9E1
100
AcDbEntity
  8
寸法
 62
     0
 48
50.0
370
    -2
100
AcDbLine
 10
9926.476407838338
 20
-28172.25458912248
 30
0.0
 11
9719.161904554155
 21
-28172.25458912248
 31
0.0
  0
LINE
  5
35A4F
330
2B9E1
100
AcDbEntity
  8
寸法
 62
     0
 48
50.0
370
    -2
100
AcDbLine
 10
9926.476407838338
 20
-28972.25458912248
 30
0.0
 11
9719.161904554153
 21
-28972.25458912248
 31
0.0
  0
LINE
  5
35A50
330
2B9E1
100
AcDbEntity
  8
寸法
 62
     0
 48
50.0
370
    -2
100
AcDbLine
 10
9764.161904554155
 20
-28172.25458912248
 30
0.0
 11
9764.161904554152
 21
-28972.25458912248
 31
0.0
  0
INSERT
  5
35A51
330
2B9E1
100
AcDbEntity
  8
寸法
 62
     0
 48
50.0
370
    -2
100
AcDbBlockReference
  2
_DOTSMALL
 10
9764.161904554155
 20
-28172.25458912248
 30
0.0
 41
75.0
 42
75.0
 43
75.0
 50
90.0
  0
INSERT
  5
35A52
330
2B9E1
100
AcDbEntity
  8
寸法
 62
     0
 48
50.0
370
    -2
100
AcDbBlockReference
  2
_DOTSMALL
 10
9764.161904554152
 20
-28972.25458912248
 30
0.0
 41
75.0
 42
75.0
 43
75.0
 50
270.0
  0
MTEXT
  5
35A53
330
2B9E1
100
AcDbEntity
  8
寸法
 62
     7
 48
50.0
100
AcDbMText
 10
9689.161904554158
 20
-28572.25458912247
 30
0.0
 40
90.0
 41
0.0
 71
     5
 72
     1
  1
\A1;800
  7
STYLE1
 11
0.0000000000000001
 21
1.0
 31
0.0
 73
     1
 44
1.0
1001
ACAD
1000
MTEXTBEGIN
1070
    73
1070
     1
1070
    44
1040
1.0
1070
    74
1070
     0
1000
MTEXTEND
  0
POINT
  5
35A54
330
2B9E1
100
AcDbEntity
  8
DEFPOINTS
 62
     0
 48
50.0
100
AcDbPoint
 10
9941.476407838338
 20
-28172.25458912248
 30
0.0
  0
POINT
  5
35A55
330
2B9E1
100
AcDbEntity
  8
DEFPOINTS
 62
     0
 48
50.0
100
AcDbPoint
 10
9941.476407838338
 20
-28972.25458912248
 30
0.0
  0
POINT
  5
35A56
330
2B9E1
100
AcDbEntity
  8
DEFPOINTS
 62
     0
 48
50.0
100
AcDbPoint
 10
9764.161904554152
 20
-28972.25458912248
 30
0.0
  0
ENDBLK
  5
2B9EC
330
2B9E1
100
AcDbEntity
  8
0
 48
50.0
100
AcDbBlockEnd
  0
BLOCK
  5
2B9F7
330
2B9ED
100
AcDbEntity
  8
0
 48
50.0
100
AcDbBlockBegin
  2
*D12
 70
     1
 10
0.0
 20
0.0
 30
0.0
  3
*D12
  1

  0
LINE
  5
35A57
330
2B9ED
100
AcDbEntity
  8
寸法
 62
     0
 48
50.0
370
    -2
100
AcDbLine
 10
9926.476407838338
 20
-27872.25458912248
 30
0.0
 11
9719.161904554161
 21
-27872.25458912248
 31
0.0
  0
LINE
  5
35A58
330
2B9ED
100
AcDbEntity
  8
寸法
 62
     0
 48
50.0
370
    -2
100
AcDbLine
 10
9926.476407838338
 20
-28172.25458912248
 30
0.0
 11
9719.161904554161
 21
-28172.25458912248
 31
0.0
  0
LINE
  5
35A59
330
2B9ED
100
AcDbEntity
  8
寸法
 62
     0
 48
50.0
370
    -2
100
AcDbLine
 10
9764.161904554159
 20
-27872.25458912248
 30
0.0
 11
9764.161904554159
 21
-28172.25458912248
 31
0.0
  0
INSERT
  5
35A5A
330
2B9ED
100
AcDbEntity
  8
寸法
 62
     0
 48
50.0
370
    -2
100
AcDbBlockReference
  2
_DOTSMALL
 10
9764.161904554159
 20
-27872.25458912248
 30
0.0
 41
75.0
 42
75.0
 43
75.0
 50
90.0
  0
INSERT
  5
35A5B
330
2B9ED
100
AcDbEntity
  8
寸法
 62
     0
 48
50.0
370
    -2
100
AcDbBlockReference
  2
_DOTSMALL
 10
9764.161904554159
 20
-28172.25458912248
 30
0.0
 41
75.0
 42
75.0
 43
75.0
 50
270.0
  0
MTEXT
  5
35A5C
330
2B9ED
100
AcDbEntity
  8
寸法
 62
     7
 48
50.0
100
AcDbMText
 10
9689.161904554163
 20
-28022.25458912247
 30
0.0
 40
90.0
 41
0.0
 71
     5
 72
     1
  1
\A1;300
  7
STYLE1
 11
0.0000000000000001
 21
1.0
 31
0.0
 73
     1
 44
1.0
1001
ACAD
1000
MTEXTBEGIN
1070
    73
1070
     1
1070
    44
1040
1.0
1070
    74
1070
     0
1000
MTEXTEND
  0
POINT
  5
35A5D
330
2B9ED
100
AcDbEntity
  8
DEFPOINTS
 62
     0
 48
50.0
100
AcDbPoint
 10
9941.476407838338
 20
-27872.25458912248
 30
0.0
  0
POINT
  5
35A5E
330
2B9ED
100
AcDbEntity
  8
DEFPOINTS
 62
     0
 48
50.0
100
AcDbPoint
 10
9941.476407838338
 20
-28172.25458912248
 30
0.0
  0
POINT
  5
35A5F
330
2B9ED
100
AcDbEntity
  8
DEFPOINTS
 62
     0
 48
50.0
100
AcDbPoint
 10
9764.161904554159
 20
-28172.25458912248
 30
0.0
  0
ENDBLK
  5
2B9F8
330
2B9ED
100
AcDbEntity
  8
0
 48
50.0
100
AcDbBlockEnd
  0
BLOCK
  5
2BA01
330
2B9F9
100
AcDbEntity
  8
0
 48
50.0
100
AcDbBlockBegin
  2
*D13
 70
     1
 10
0.0
 20
0.0
 30
0.0
  3
*D13
  1

  0
LINE
  5
35A60
330
2B9F9
100
AcDbEntity
  8
寸法
 62
     0
 48
50.0
370
    -2
100
AcDbLine
 10
5126.476407838334
 20
-27972.25458912248
 30
0.0
 11
4755.604571127103
 21
-27972.25458912248
 31
0.0
  0
LINE
  5
35A61
330
2B9F9
100
AcDbEntity
  8
寸法
 62
     0
 48
50.0
370
    -2
100
AcDbLine
 10
5276.476407838337
 20
-28172.25458912248
 30
0.0
 11
4755.604571127103
 21
-28172.25458912248
 31
0.0
  0
LINE
  5
35A62
330
2B9F9
100
AcDbEntity
  8
寸法
 62
     0
 48
50.0
370
    -2
100
AcDbLine
 10
4800.604571127103
 20
-27972.25458912248
 30
0.0
 11
4800.604571127103
 21
-28172.25458912248
 31
0.0
  0
MTEXT
  5
35A63
330
2B9F9
100
AcDbEntity
  8
寸法
 62
     7
 48
50.0
100
AcDbMText
 10
4725.595712859392
 20
-28072.25458912247
 30
0.0
 40
90.0
 41
0.0
 71
     5
 72
     1
  1
\A1;200
  7
STYLE1
 11
0.0000000000000001
 21
1.0
 31
0.0
 73
     1
 44
1.0
1001
ACAD
1000
MTEXTBEGIN
1070
    73
1070
     1
1070
    44
1040
1.0
1070
    74
1070
     0
1000
MTEXTEND
  0
POINT
  5
35A64
330
2B9F9
100
AcDbEntity
  8
DEFPOINTS
 62
     0
 48
50.0
100
AcDbPoint
 10
5141.476407838334
 20
-27972.25458912248
 30
0.0
  0
POINT
  5
35A65
330
2B9F9
100
AcDbEntity
  8
DEFPOINTS
 62
     0
 48
50.0
100
AcDbPoint
 10
5291.476407838338
 20
-28172.25458912248
 30
0.0
  0
POINT
  5
35A66
330
2B9F9
100
AcDbEntity
  8
DEFPOINTS
 62
     0
 48
50.0
100
AcDbPoint
 10
4800.604571127103
 20
-28172.25458912248
 30
0.0
  0
ENDBLK
  5
2BA02
330
2B9F9
100
AcDbEntity
  8
0
 48
50.0
100
AcDbBlockEnd
  0
BLOCK
  5
2BA0D
330
2BA03
100
AcDbEntity
  8
0
 48
50.0
100
AcDbBlockBegin
  2
*D14
 70
     1
 10
0.0
 20
0.0
 30
0.0
  3
*D14
  1

  0
LINE
  5
35A67
330
2BA03
100
AcDbEntity
  8
寸法
 62
     0
 48
50.0
370
    -2
100
AcDbLine
 10
5276.476407838337
 20
-28172.25458912248
 30
0.0
 11
4755.604571127103
 21
-28172.25458912248
 31
0.0
  0
LINE
  5
35A68
330
2BA03
100
AcDbEntity
  8
寸法
 62
     0
 48
50.0
370
    -2
100
AcDbLine
 10
5126.476407838338
 20
-30172.25458912248
 30
0.0
 11
4755.604571127103
 21
-30172.25458912248
 31
0.0
  0
LINE
  5
35A69
330
2BA03
100
AcDbEntity
  8
寸法
 62
     0
 48
50.0
370
    -2
100
AcDbLine
 10
4800.604571127103
 20
-28172.25458912248
 30
0.0
 11
4800.604571127103
 21
-30172.25458912248
 31
0.0
  0
INSERT
  5
35A6A
330
2BA03
100
AcDbEntity
  8
寸法
 62
     0
 48
50.0
370
    -2
100
AcDbBlockReference
  2
_DOTSMALL
 10
4800.604571127103
 20
-28172.25458912248
 30
0.0
 41
75.0
 42
75.0
 43
75.0
 50
90.0
  0
INSERT
  5
35A6B
330
2BA03
100
AcDbEntity
  8
寸法
 62
     0
 48
50.0
370
    -2
100
AcDbBlockReference
  2
_DOTSMALL
 10
4800.604571127103
 20
-30172.25458912248
 30
0.0
 41
75.0
 42
75.0
 43
75.0
 50
270.0
  0
MTEXT
  5
35A6C
330
2BA03
100
AcDbEntity
  8
寸法
 62
     7
 48
50.0
100
AcDbMText
 10
4725.595712859392
 20
-29172.25458912248
 30
0.0
 40
90.0
 41
0.0
 71
     5
 72
     1
  1
\A1;2000
  7
STYLE1
 11
0.0000000000000001
 21
1.0
 31
0.0
 73
     1
 44
1.0
1001
ACAD
1000
MTEXTBEGIN
1070
    73
1070
     1
1070
    44
1040
1.0
1070
    74
1070
     0
1000
MTEXTEND
  0
POINT
  5
35A6D
330
2BA03
100
AcDbEntity
  8
DEFPOINTS
 62
     0
 48
50.0
100
AcDbPoint
 10
5291.476407838338
 20
-28172.25458912248
 30
0.0
  0
POINT
  5
35A6E
330
2BA03
100
AcDbEntity
  8
DEFPOINTS
 62
     0
 48
50.0
100
AcDbPoint
 10
5141.476407838338
 20
-30172.25458912248
 30
0.0
  0
POINT
  5
35A6F
330
2BA03
100
AcDbEntity
  8
DEFPOINTS
 62
     0
 48
50.0
100
AcDbPoint
 10
4800.604571127103
 20
-30172.25458912248
 30
0.0
  0
ENDBLK
  5
2BA0E
330
2BA03
100
AcDbEntity
  8
0
 48
50.0
100
AcDbBlockEnd
  0
BLOCK
  5
2BA19
330
2BA0F
100
AcDbEntity
  8
0
 48
50.0
100
AcDbBlockBegin
  2
*D15
 70
     1
 10
0.0
 20
0.0
 30
0.0
  3
*D15
  1

  0
LINE
  5
35A70
330
2BA0F
100
AcDbEntity
  8
寸法
 62
     0
 48
50.0
370
    -2
100
AcDbLine
 10
5126.476407838334
 20
-27972.25458912248
 30
0.0
 11
4532.855209110643
 21
-27972.25458912248
 31
0.0
  0
LINE
  5
35A71
330
2BA0F
100
AcDbEntity
  8
寸法
 62
     0
 48
50.0
370
    -2
100
AcDbLine
 10
5126.476407838338
 20
-30172.25458912248
 30
0.0
 11
4532.855209110643
 21
-30172.25458912248
 31
0.0
  0
LINE
  5
35A72
330
2BA0F
100
AcDbEntity
  8
寸法
 62
     0
 48
50.0
370
    -2
100
AcDbLine
 10
4577.855209110643
 20
-27972.25458912248
 30
0.0
 11
4577.855209110643
 21
-30172.25458912248
 31
0.0
  0
INSERT
  5
35A73
330
2BA0F
100
AcDbEntity
  8
寸法
 62
     0
 48
50.0
370
    -2
100
AcDbBlockReference
  2
_DOTSMALL
 10
4577.855209110643
 20
-27972.25458912248
 30
0.0
 41
75.0
 42
75.0
 43
75.0
 50
90.0
  0
INSERT
  5
35A74
330
2BA0F
100
AcDbEntity
  8
寸法
 62
     0
 48
50.0
370
    -2
100
AcDbBlockReference
  2
_DOTSMALL
 10
4577.855209110643
 20
-30172.25458912248
 30
0.0
 41
75.0
 42
75.0
 43
75.0
 50
270.0
  0
MTEXT
  5
35A75
330
2BA0F
100
AcDbEntity
  8
寸法
 62
     7
 48
50.0
100
AcDbMText
 10
4502.846350842931
 20
-29072.25458912248
 30
0.0
 40
90.0
 41
0.0
 71
     5
 72
     1
  1
\A1;基礎土間寸法 2200
  7
STYLE1
 11
0.0000000000000001
 21
1.0
 31
0.0
 73
     1
 44
1.0
1001
ACAD
1000
MTEXTBEGIN
1070
    73
1070
     1
1070
    44
1040
1.0
1070
    74
1070
     0
1000
MTEXTEND
  0
POINT
  5
35A76
330
2BA0F
100
AcDbEntity
  8
DEFPOINTS
 62
     0
 48
50.0
100
AcDbPoint
 10
5141.476407838334
 20
-27972.25458912248
 30
0.0
  0
POINT
  5
35A77
330
2BA0F
100
AcDbEntity
  8
DEFPOINTS
 62
     0
 48
50.0
100
AcDbPoint
 10
5141.476407838338
 20
-30172.25458912248
 30
0.0
  0
POINT
  5
35A78
330
2BA0F
100
AcDbEntity
  8
DEFPOINTS
 62
     0
 48
50.0
100
AcDbPoint
 10
4577.855209110643
 20
-30172.25458912248
 30
0.0
  0
ENDBLK
  5
2BA1A
330
2BA0F
100
AcDbEntity
  8
0
 48
50.0
100
AcDbBlockEnd
  0
BLOCK
  5
2BA25
330
2BA1B
100
AcDbEntity
  8
0
 48
50.0
100
AcDbBlockBegin
  2
*D16
 70
     1
 10
0.0
 20
0.0
 30
0.0
  3
*D16
  1

  0
LINE
  5
35A79
330
2BA1B
100
AcDbEntity
  8
寸法
 62
     0
 48
50.0
370
    -2
100
AcDbLine
 10
5311.476407838381
 20
-30050.25458912248
 30
0.0
 11
5311.476407838381
 21
-30545.74230745901
 31
0.0
  0
LINE
  5
35A7A
330
2BA1B
100
AcDbEntity
  8
寸法
 62
     0
 48
50.0
370
    -2
100
AcDbLine
 10
10571.47640783829
 20
-30050.25458912248
 30
0.0
 11
10571.47640783829
 21
-30545.74230745901
 31
0.0
  0
LINE
  5
35A7B
330
2BA1B
100
AcDbEntity
  8
寸法
 62
     0
 48
50.0
370
    -2
100
AcDbLine
 10
5311.476407838381
 20
-30500.74230745901
 30
0.0
 11
10571.47640783829
 21
-30500.74230745901
 31
0.0
  0
INSERT
  5
35A7C
330
2BA1B
100
AcDbEntity
  8
寸法
 62
     0
 48
50.0
370
    -2
100
AcDbBlockReference
  2
_DOTSMALL
 10
5311.476407838381
 20
-30500.74230745901
 30
0.0
 41
75.0
 42
75.0
 43
75.0
 50
180.0
  0
INSERT
  5
35A7D
330
2BA1B
100
AcDbEntity
  8
寸法
 62
     0
 48
50.0
370
    -2
100
AcDbBlockReference
  2
_DOTSMALL
 10
10571.47640783829
 20
-30500.74230745901
 30
0.0
 41
75.0
 42
75.0
 43
75.0
  0
MTEXT
  5
35A7E
330
2BA1B
100
AcDbEntity
  8
寸法
 62
     7
 48
50.0
100
AcDbMText
 10
7941.476407838338
 20
-30425.73344919129
 30
0.0
 40
90.0
 41
0.0
 71
     5
 72
     1
  1
\A1;屋根寸法 5260
  7
STYLE1
 73
     1
 44
1.0
1001
ACAD
1000
MTEXTBEGIN
1070
    73
1070
     1
1070
    44
1040
1.0
1070
    74
1070
     0
1000
MTEXTEND
  0
POINT
  5
35A7F
330
2BA1B
100
AcDbEntity
  8
DEFPOINTS
 62
     0
 48
50.0
100
AcDbPoint
 10
5311.476407838381
 20
-30035.25458912248
 30
0.0
  0
POINT
  5
35A80
330
2BA1B
100
AcDbEntity
  8
DEFPOINTS
 62
     0
 48
50.0
100
AcDbPoint
 10
10571.47640783829
 20
-30035.25458912248
 30
0.0
  0
POINT
  5
35A81
330
2BA1B
100
AcDbEntity
  8
DEFPOINTS
 62
     0
 48
50.0
100
AcDbPoint
 10
10571.47640783829
 20
-30500.74230745901
 30
0.0
  0
ENDBLK
  5
2BA26
330
2BA1B
100
AcDbEntity
  8
0
 48
50.0
100
AcDbBlockEnd
  0
BLOCK
  5
2BA2F
330
2BA27
100
AcDbEntity
  8
0
 48
50.0
100
AcDbBlockBegin
  2
*D17
 70
     1
 10
0.0
 20
0.0
 30
0.0
  3
*D17
  1

  0
LINE
  5
35A82
330
2BA27
100
AcDbEntity
  8
寸法
 62
     0
 48
50.0
370
    -2
100
AcDbLine
 10
5311.476407838381
 20
-30050.25458912248
 30
0.0
 11
5311.476407838381
 21
-30545.74230745901
 31
0.0
  0
LINE
  5
35A83
330
2BA27
100
AcDbEntity
  8
寸法
 62
     0
 48
50.0
370
    -2
100
AcDbLine
 10
5141.476407838338
 20
-30187.25458912248
 30
0.0
 11
5141.476407838338
 21
-30545.74230745901
 31
0.0
  0
LINE
  5
35A84
330
2BA27
100
AcDbEntity
  8
寸法
 62
     0
 48
50.0
370
    -2
100
AcDbLine
 10
5311.476407838381
 20
-30500.74230745901
 30
0.0
 11
5141.476407838338
 21
-30500.74230745901
 31
0.0
  0
MTEXT
  5
35A85
330
2BA27
100
AcDbEntity
  8
寸法
 62
     7
 48
50.0
100
AcDbMText
 10
5226.47640783836
 20
-30425.74230745901
 30
0.0
 40
90.0
 41
0.0
 71
     5
 72
     1
  1
\A1;170
  7
STYLE1
 73
     1
 44
1.0
1001
ACAD
1000
MTEXTBEGIN
1070
    73
1070
     1
1070
    44
1040
1.0
1070
    74
1070
     0
1000
MTEXTEND
  0
POINT
  5
35A86
330
2BA27
100
AcDbEntity
  8
DEFPOINTS
 62
     0
 48
50.0
100
AcDbPoint
 10
5311.476407838381
 20
-30035.25458912248
 30
0.0
  0
POINT
  5
35A87
330
2BA27
100
AcDbEntity
  8
DEFPOINTS
 62
     0
 48
50.0
100
AcDbPoint
 10
5141.476407838338
 20
-30172.25458912248
 30
0.0
  0
POINT
  5
35A88
330
2BA27
100
AcDbEntity
  8
DEFPOINTS
 62
     0
 48
50.0
100
AcDbPoint
 10
5141.476407838338
 20
-30500.74230745901
 30
0.0
  0
ENDBLK
  5
2BA30
330
2BA27
100
AcDbEntity
  8
0
 48
50.0
100
AcDbBlockEnd
  0
BLOCK
  5
2BA39
330
2BA31
100
AcDbEntity
  8
0
 48
50.0
100
AcDbBlockBegin
  2
*D18
 70
     1
 10
0.0
 20
0.0
 30
0.0
  3
*D18
  1

  0
LINE
  5
35A89
330
2BA31
100
AcDbEntity
  8
寸法
 62
     0
 48
50.0
370
    -2
100
AcDbLine
 10
10571.47640783829
 20
-30050.25458912248
 30
0.0
 11
10571.47640783829
 21
-30545.74230745901
 31
0.0
  0
LINE
  5
35A8A
330
2BA31
100
AcDbEntity
  8
寸法
 62
     0
 48
50.0
370
    -2
100
AcDbLine
 10
10741.47640783833
 20
-30187.25458912248
 30
0.0
 11
10741.47640783833
 21
-30545.74230745901
 31
0.0
  0
LINE
  5
35A8B
330
2BA31
100
AcDbEntity
  8
寸法
 62
     0
 48
50.0
370
    -2
100
AcDbLine
 10
10571.47640783829
 20
-30500.74230745901
 30
0.0
 11
10741.47640783833
 21
-30500.74230745901
 31
0.0
  0
MTEXT
  5
35A8C
330
2BA31
100
AcDbEntity
  8
寸法
 62
     7
 48
50.0
100
AcDbMText
 10
10656.47640783831
 20
-30425.74230745901
 30
0.0
 40
90.0
 41
0.0
 71
     5
 72
     1
  1
\A1;170
  7
STYLE1
 73
     1
 44
1.0
1001
ACAD
1000
MTEXTBEGIN
1070
    73
1070
     1
1070
    44
1040
1.0
1070
    74
1070
     0
1000
MTEXTEND
  0
POINT
  5
35A8D
330
2BA31
100
AcDbEntity
  8
DEFPOINTS
 62
     0
 48
50.0
100
AcDbPoint
 10
10571.47640783829
 20
-30035.25458912248
 30
0.0
  0
POINT
  5
35A8E
330
2BA31
100
AcDbEntity
  8
DEFPOINTS
 62
     0
 48
50.0
100
AcDbPoint
 10
10741.47640783833
 20
-30172.25458912248
 30
0.0
  0
POINT
  5
35A8F
330
2BA31
100
AcDbEntity
  8
DEFPOINTS
 62
     0
 48
50.0
100
AcDbPoint
 10
10741.47640783833
 20
-30500.74230745901
 30
0.0
  0
ENDBLK
  5
2BA3A
330
2BA31
100
AcDbEntity
  8
0
 48
50.0
100
AcDbBlockEnd
  0
BLOCK
  5
2BA43
330
2BA3B
100
AcDbEntity
  8
0
 48
50.0
100
AcDbBlockBegin
  2
*D19
 70
     1
 10
0.0
 20
0.0
 30
0.0
  3
*D19
  1

  0
LINE
  5
35A90
330
2BA3B
100
AcDbEntity
  8
寸法
 62
     0
 48
50.0
370
    -2
100
AcDbLine
 10
10531.47640783834
 20
-28272.25458912248
 30
0.0
 11
10948.06383497591
 21
-28272.25458912248
 31
0.0
  0
LINE
  5
35A91
330
2BA3B
100
AcDbEntity
  8
寸法
 62
     0
 48
50.0
370
    -2
100
AcDbLine
 10
10531.47640783834
 20
-28072.25458912247
 30
0.0
 11
10948.06383497591
 21
-28072.25458912247
 31
0.0
  0
LINE
  5
35A92
330
2BA3B
100
AcDbEntity
  8
寸法
 62
     0
 48
50.0
370
    -2
100
AcDbLine
 10
10903.06383497591
 20
-28272.25458912248
 30
0.0
 11
10903.06383497591
 21
-28072.25458912247
 31
0.0
  0
MTEXT
  5
35A93
330
2BA3B
100
AcDbEntity
  8
寸法
 62
     7
 48
50.0
100
AcDbMText
 10
10828.0549767082
 20
-28172.25458912247
 30
0.0
 40
90.0
 41
0.0
 71
     5
 72
     1
  1
\A1;200
  7
STYLE1
 11
0.0000000000000001
 21
1.0
 31
0.0
 73
     1
 44
1.0
1001
ACAD
1000
MTEXTBEGIN
1070
    73
1070
     1
1070
    44
1040
1.0
1070
    74
1070
     0
1000
MTEXTEND
  0
POINT
  5
35A94
330
2BA3B
100
AcDbEntity
  8
DEFPOINTS
 62
     0
 48
50.0
100
AcDbPoint
 10
10516.47640783833
 20
-28272.25458912248
 30
0.0
  0
POINT
  5
35A95
330
2BA3B
100
AcDbEntity
  8
DEFPOINTS
 62
     0
 48
50.0
100
AcDbPoint
 10
10516.47640783833
 20
-28072.25458912247
 30
0.0
  0
POINT
  5
35A96
330
2BA3B
100
AcDbEntity
  8
DEFPOINTS
 62
     0
 48
50.0
100
AcDbPoint
 10
10903.06383497591
 20
-28072.25458912247
 30
0.0
  0
ENDBLK
  5
2BA44
330
2BA3B
100
AcDbEntity
  8
0
 48
50.0
100
AcDbBlockEnd
  0
BLOCK
  5
2BA4D
330
2BA45
100
AcDbEntity
  8
0
 48
50.0
100
AcDbBlockBegin
  2
*D20
 70
     1
 10
0.0
 20
0.0
 30
0.0
  3
*D20
  1

  0
LINE
  5
35A97
330
2BA45
100
AcDbEntity
  8
寸法
 62
     0
 48
50.0
370
    -2
100
AcDbLine
 10
10441.47640783834
 20
-28362.25458912248
 30
0.0
 11
10441.47640783834
 21
-28786.77587243528
 31
0.0
  0
LINE
  5
35A98
330
2BA45
100
AcDbEntity
  8
寸法
 62
     0
 48
50.0
370
    -2
100
AcDbLine
 10
10241.47640783834
 20
-28362.25458912248
 30
0.0
 11
10241.47640783834
 21
-28786.77587243528
 31
0.0
  0
LINE
  5
35A99
330
2BA45
100
AcDbEntity
  8
寸法
 62
     0
 48
50.0
370
    -2
100
AcDbLine
 10
10441.47640783834
 20
-28741.77587243528
 30
0.0
 11
10241.47640783834
 21
-28741.77587243528
 31
0.0
  0
MTEXT
  5
35A9A
330
2BA45
100
AcDbEntity
  8
寸法
 62
     7
 48
50.0
100
AcDbMText
 10
10341.47640783834
 20
-28666.76701416756
 30
0.0
 40
90.0
 41
0.0
 71
     5
 72
     1
  1
\A1;200
  7
STYLE1
 73
     1
 44
1.0
1001
ACAD
1000
MTEXTBEGIN
1070
    73
1070
     1
1070
    44
1040
1.0
1070
    74
1070
     0
1000
MTEXTEND
  0
POINT
  5
35A9B
330
2BA45
100
AcDbEntity
  8
DEFPOINTS
 62
     0
 48
50.0
100
AcDbPoint
 10
10441.47640783834
 20
-28347.25458912248
 30
0.0
  0
POINT
  5
35A9C
330
2BA45
100
AcDbEntity
  8
DEFPOINTS
 62
     0
 48
50.0
100
AcDbPoint
 10
10241.47640783834
 20
-28347.25458912248
 30
0.0
  0
POINT
  5
35A9D
330
2BA45
100
AcDbEntity
  8
DEFPOINTS
 62
     0
 48
50.0
100
AcDbPoint
 10
10241.47640783834
 20
-28741.77587243528
 30
0.0
  0
ENDBLK
  5
2BA4E
330
2BA45
100
AcDbEntity
  8
0
 48
50.0
100
AcDbBlockEnd
  0
BLOCK
  5
2CA84
330
2CA7A
100
AcDbEntity
  8
0
 48
50.0
100
AcDbBlockBegin
  2
*D21
 70
     1
 10
0.0
 20
0.0
 30
0.0
  3
*D21
  1

  0
LINE
  5
359E9
330
2CA7A
100
AcDbEntity
  8
寸法
 62
     0
 48
50.0
370
    -2
100
AcDbLine
 10
7941.476407838338
 20
-27907.25458912248
 30
0.0
 11
7941.476407838338
 21
-27517.80229499138
 31
0.0
  0
LINE
  5
359EA
330
2CA7A
100
AcDbEntity
  8
寸法
 62
     0
 48
50.0
370
    -2
100
AcDbLine
 10
10341.47640783834
 20
-27907.25458912248
 30
0.0
 11
10341.47640783834
 21
-27517.80229499138
 31
0.0
  0
LINE
  5
359EB
330
2CA7A
100
AcDbEntity
  8
寸法
 62
     0
 48
50.0
370
    -2
100
AcDbLine
 10
7941.476407838338
 20
-27562.80229499138
 30
0.0
 11
10341.47640783834
 21
-27562.80229499138
 31
0.0
  0
INSERT
  5
359EC
330
2CA7A
100
AcDbEntity
  8
寸法
 62
     0
 48
50.0
370
    -2
100
AcDbBlockReference
  2
_DOTSMALL
 10
7941.476407838338
 20
-27562.80229499138
 30
0.0
 41
75.0
 42
75.0
 43
75.0
 50
180.0
  0
INSERT
  5
359ED
330
2CA7A
100
AcDbEntity
  8
寸法
 62
     0
 48
50.0
370
    -2
100
AcDbBlockReference
  2
_DOTSMALL
 10
10341.47640783834
 20
-27562.80229499138
 30
0.0
 41
75.0
 42
75.0
 43
75.0
  0
MTEXT
  5
359EE
330
2CA7A
100
AcDbEntity
  8
寸法
 62
     7
 48
50.0
100
AcDbMText
 10
9141.476407838338
 20
-27487.79343672366
 30
0.0
 40
90.0
 41
0.0
 71
     5
 72
     1
  1
\A1;2400
  7
STYLE1
 73
     1
 44
1.0
1001
ACAD
1000
MTEXTBEGIN
1070
    73
1070
     1
1070
    44
1040
1.0
1070
    74
1070
     0
1000
MTEXTEND
  0
POINT
  5
359EF
330
2CA7A
100
AcDbEntity
  8
DEFPOINTS
 62
     0
 48
50.0
100
AcDbPoint
 10
7941.476407838338
 20
-27922.25458912248
 30
0.0
  0
POINT
  5
359F0
330
2CA7A
100
AcDbEntity
  8
DEFPOINTS
 62
     0
 48
50.0
100
AcDbPoint
 10
10341.47640783834
 20
-27922.25458912248
 30
0.0
  0
POINT
  5
359F1
330
2CA7A
100
AcDbEntity
  8
DEFPOINTS
 62
     0
 48
50.0
100
AcDbPoint
 10
10341.47640783834
 20
-27562.80229499138
 30
0.0
  0
ENDBLK
  5
2CA85
330
2CA7A
100
AcDbEntity
  8
0
 48
50.0
100
AcDbBlockEnd
  0
BLOCK
  5
35384
330
35379
100
AcDbEntity
  8
0
 48
50.0
100
AcDbBlockBegin
  2
*D22
 70
     1
 10
0.0
 20
0.0
 30
0.0
  3
*D22
  1

  0
LINE
  5
359DF
330
35379
100
AcDbEntity
  8
寸法
 62
     0
 48
50.0
370
    -2
100
AcDbLine
 10
12837.3468860296
 20
-29175.46023004438
 30
0.0
 11
12449.85178134987
 21
-29175.46023004438
 31
0.0
  0
LINE
  5
359E0
330
35379
100
AcDbEntity
  8
寸法
 62
     0
 48
50.0
370
    -2
100
AcDbLine
 10
13596.64388821442
 20
-29115.46023004437
 30
0.0
 11
12449.85178134987
 21
-29115.46023004437
 31
0.0
  0
LINE
  5
359E1
330
35379
100
AcDbEntity
  8
寸法
 62
     0
 48
50.0
370
    -2
100
AcDbLine
 10
12494.85178134987
 20
-29115.46023004437
 30
0.0
 11
12494.85178134987
 21
-29175.46023004438
 31
0.0
  0
LINE
  5
359E2
330
35379
100
AcDbEntity
  8
寸法
 62
     0
 48
50.0
370
    -2
100
AcDbLine
 10
12494.85178134987
 20
-29175.46023004438
 30
0.0
 11
12494.85178134987
 21
-29414.91692295776
 31
0.0
  0
INSERT
  5
359E3
330
35379
100
AcDbEntity
  8
寸法
 62
     0
 48
50.0
370
    -2
100
AcDbBlockReference
  2
_DOTSMALL
 10
12494.85178134987
 20
-29115.46023004437
 30
0.0
 41
75.0
 42
75.0
 43
75.0
 50
90.0
  0
INSERT
  5
359E4
330
35379
100
AcDbEntity
  8
寸法
 62
     0
 48
50.0
370
    -2
100
AcDbBlockReference
  2
_DOTSMALL
 10
12494.85178134987
 20
-29175.46023004438
 30
0.0
 41
75.0
 42
75.0
 43
75.0
 50
270.0
  0
MTEXT
  5
359E5
330
35379
100
AcDbEntity
  8
寸法
 62
     7
 48
50.0
100
AcDbMText
 10
12419.85178134987
 20
-29332.68857650107
 30
0.0
 40
90.0
 41
0.0
 71
     5
 72
     1
  1
\A1;60
  7
STYLE1
 11
0.0000000000000001
 21
1.0
 31
0.0
 73
     1
 44
1.0
1001
ACAD
1000
MTEXTBEGIN
1070
    73
1070
     1
1070
    44
1040
1.0
1070
    74
1070
     0
1000
MTEXTEND
  0
POINT
  5
359E6
330
35379
100
AcDbEntity
  8
DEFPOINTS
 62
     0
 48
50.0
100
AcDbPoint
 10
12852.34688602959
 20
-29175.46023004438
 30
0.0
  0
POINT
  5
359E7
330
35379
100
AcDbEntity
  8
DEFPOINTS
 62
     0
 48
50.0
100
AcDbPoint
 10
13611.64388821442
 20
-29115.46023004437
 30
0.0
  0
POINT
  5
359E8
330
35379
100
AcDbEntity
  8
DEFPOINTS
 62
     0
 48
50.0
100
AcDbPoint
 10
12494.85178134987
 20
-29115.46023004437
 30
0.0
  0
ENDBLK
  5
35385
330
35379
100
AcDbEntity
  8
0
 48
50.0
100
AcDbBlockEnd
  0
BLOCK
  5
35392
330
35386
100
AcDbEntity
  8
0
 48
50.0
100
AcDbBlockBegin
  2
*D23
 70
     1
 10
0.0
 20
0.0
 30
0.0
  3
*D23
  1

  0
LINE
  5
359D4
330
35386
100
AcDbEntity
  8
寸法
 62
     0
 48
50.0
370
    -2
100
AcDbLine
 10
12837.3468860296
 20
-29175.46023004438
 30
0.0
 11
12650.02768474312
 21
-29175.46023004438
 31
0.0
  0
LINE
  5
359D5
330
35386
100
AcDbEntity
  8
寸法
 62
     0
 48
50.0
370
    -2
100
AcDbLine
 10
13562.64388821442
 20
-29145.46023004437
 30
0.0
 11
12650.02768474312
 21
-29145.46023004437
 31
0.0
  0
LINE
  5
359D6
330
35386
100
AcDbEntity
  8
寸法
 62
     0
 48
50.0
370
    -2
100
AcDbLine
 10
12695.02768474312
 20
-29145.46023004437
 30
0.0
 11
12695.02768474312
 21
-29070.46023004437
 31
0.0
  0
LINE
  5
359D7
330
35386
100
AcDbEntity
  8
寸法
 62
     0
 48
50.0
370
    -2
100
AcDbLine
 10
12695.02768474312
 20
-29175.46023004438
 30
0.0
 11
12695.02768474312
 21
-29484.53109618611
 31
0.0
  0
LINE
  5
359D8
330
35386
100
AcDbEntity
  8
寸法
 62
     0
 48
50.0
370
    -2
100
AcDbLine
 10
12695.02768474312
 20
-29145.46023004437
 30
0.0
 11
12695.02768474312
 21
-29175.46023004438
 31
0.0
  0
INSERT
  5
359D9
330
35386
100
AcDbEntity
  8
寸法
 62
     0
 48
50.0
370
    -2
100
AcDbBlockReference
  2
_DOTSMALL
 10
12695.02768474312
 20
-29145.46023004437
 30
0.0
 41
75.0
 42
75.0
 43
75.0
 50
270.0
  0
INSERT
  5
359DA
330
35386
100
AcDbEntity
  8
寸法
 62
     0
 48
50.0
370
    -2
100
AcDbBlockReference
  2
_DOTSMALL
 10
12695.02768474312
 20
-29175.46023004438
 30
0.0
 41
75.0
 42
75.0
 43
75.0
 50
90.0
  0
MTEXT
  5
359DB
330
35386
100
AcDbEntity
  8
寸法
 62
     7
 48
50.0
100
AcDbMText
 10
12620.02768474312
 20
-29404.99566311523
 30
0.0
 40
90.0
 41
0.0
 71
     5
 72
     1
  1
\A1;30
  7
STYLE1
 11
0.0000000000000001
 21
1.0
 31
0.0
 73
     1
 44
1.0
1001
ACAD
1000
MTEXTBEGIN
1070
    73
1070
     1
1070
    44
1040
1.0
1070
    74
1070
     0
1000
MTEXTEND
  0
POINT
  5
359DC
330
35386
100
AcDbEntity
  8
DEFPOINTS
 62
     0
 48
50.0
100
AcDbPoint
 10
12852.34688602959
 20
-29175.46023004438
 30
0.0
  0
POINT
  5
359DD
330
35386
100
AcDbEntity
  8
DEFPOINTS
 62
     0
 48
50.0
100
AcDbPoint
 10
13577.64388821442
 20
-29145.46023004437
 30
0.0
  0
POINT
  5
359DE
330
35386
100
AcDbEntity
  8
DEFPOINTS
 62
     0
 48
50.0
100
AcDbPoint
 10
12695.02768474312
 20
-29145.46023004437
 30
0.0
  0
ENDBLK
  5
35393
330
35386
100
AcDbEntity
  8
0
 48
50.0
100
AcDbBlockEnd
  0
BLOCK
  5
3539E
330
35394
100
AcDbEntity
  8
0
 48
50.0
100
AcDbBlockBegin
  2
*D24
 70
     1
 10
0.0
 20
0.0
 30
0.0
  3
*D24
  1

  0
LINE
  5
359CB
330
35394
100
AcDbEntity
  8
寸法
 62
     0
 48
50.0
370
    -2
100
AcDbLine
 10
14017.64388821441
 20
-29640.46023004438
 30
0.0
 11
14017.64388821441
 21
-30342.16242077716
 31
0.0
  0
LINE
  5
359CC
330
35394
100
AcDbEntity
  8
寸法
 62
     0
 48
50.0
370
    -2
100
AcDbLine
 10
12917.64388821441
 20
-29640.46023004438
 30
0.0
 11
12917.64388821441
 21
-30342.16242077716
 31
0.0
  0
LINE
  5
359CD
330
35394
100
AcDbEntity
  8
寸法
 62
     0
 48
50.0
370
    -2
100
AcDbLine
 10
14017.64388821441
 20
-30297.16242077716
 30
0.0
 11
12917.64388821441
 21
-30297.16242077716
 31
0.0
  0
INSERT
  5
359CE
330
35394
100
AcDbEntity
  8
寸法
 62
     0
 48
50.0
370
    -2
100
AcDbBlockReference
  2
_DOTSMALL
 10
14017.64388821441
 20
-30297.16242077716
 30
0.0
 41
75.0
 42
75.0
 43
75.0
  0
INSERT
  5
359CF
330
35394
100
AcDbEntity
  8
寸法
 62
     0
 48
50.0
370
    -2
100
AcDbBlockReference
  2
_DOTSMALL
 10
12917.64388821441
 20
-30297.16242077716
 30
0.0
 41
75.0
 42
75.0
 43
75.0
 50
180.0
  0
MTEXT
  5
359D0
330
35394
100
AcDbEntity
  8
寸法
 62
     7
 48
50.0
100
AcDbMText
 10
13467.64388821441
 20
-30222.16242077716
 30
0.0
 40
90.0
 41
0.0
 71
     5
 72
     1
  1
\A1;1100
  7
STYLE1
 73
     1
 44
1.0
1001
ACAD
1000
MTEXTBEGIN
1070
    73
1070
     1
1070
    44
1040
1.0
1070
    74
1070
     0
1000
MTEXTEND
  0
POINT
  5
359D1
330
35394
100
AcDbEntity
  8
DEFPOINTS
 62
     0
 48
50.0
100
AcDbPoint
 10
14017.64388821441
 20
-29625.46023004438
 30
0.0
  0
POINT
  5
359D2
330
35394
100
AcDbEntity
  8
DEFPOINTS
 62
     0
 48
50.0
100
AcDbPoint
 10
12917.64388821441
 20
-29625.46023004438
 30
0.0
  0
POINT
  5
359D3
330
35394
100
AcDbEntity
  8
DEFPOINTS
 62
     0
 48
50.0
100
AcDbPoint
 10
12917.64388821441
 20
-30297.16242077716
 30
0.0
  0
ENDBLK
  5
3539F
330
35394
100
AcDbEntity
  8
0
 48
50.0
100
AcDbBlockEnd
  0
BLOCK
  5
353AC
330
353A0
100
AcDbEntity
  8
0
 48
50.0
100
AcDbBlockBegin
  2
*D25
 70
     1
 10
0.0
 20
0.0
 30
0.0
  3
*D25
  1

  0
LINE
  5
359C0
330
353A0
100
AcDbEntity
  8
寸法
 62
     0
 48
50.0
370
    -2
100
AcDbLine
 10
14112.64388821441
 20
-29625.46023004438
 30
0.0
 11
14355.08525281512
 21
-29625.46023004438
 31
0.0
  0
LINE
  5
359C1
330
353A0
100
AcDbEntity
  8
寸法
 62
     0
 48
50.0
370
    -2
100
AcDbLine
 10
14112.64388821441
 20
-29675.46023004437
 30
0.0
 11
14355.08525281512
 21
-29675.46023004437
 31
0.0
  0
LINE
  5
359C2
330
353A0
100
AcDbEntity
  8
寸法
 62
     0
 48
50.0
370
    -2
100
AcDbLine
 10
14310.08525281511
 20
-29625.46023004438
 30
0.0
 11
14310.08525281511
 21
-29550.46023004437
 31
0.0
  0
LINE
  5
359C3
330
353A0
100
AcDbEntity
  8
寸法
 62
     0
 48
50.0
370
    -2
100
AcDbLine
 10
14310.08525281511
 20
-29675.46023004437
 30
0.0
 11
14310.08525281511
 21
-29987.55471823336
 31
0.0
  0
LINE
  5
359C4
330
353A0
100
AcDbEntity
  8
寸法
 62
     0
 48
50.0
370
    -2
100
AcDbLine
 10
14310.08525281511
 20
-29625.46023004438
 30
0.0
 11
14310.08525281511
 21
-29675.46023004437
 31
0.0
  0
INSERT
  5
359C5
330
353A0
100
AcDbEntity
  8
寸法
 62
     0
 48
50.0
370
    -2
100
AcDbBlockReference
  2
_DOTSMALL
 10
14310.08525281511
 20
-29625.46023004438
 30
0.0
 41
75.0
 42
75.0
 43
75.0
 50
270.0
  0
INSERT
  5
359C6
330
353A0
100
AcDbEntity
  8
寸法
 62
     0
 48
50.0
370
    -2
100
AcDbBlockReference
  2
_DOTSMALL
 10
14310.08525281511
 20
-29675.46023004437
 30
0.0
 41
75.0
 42
75.0
 43
75.0
 50
90.0
  0
MTEXT
  5
359C7
330
353A0
100
AcDbEntity
  8
寸法
 62
     7
 48
50.0
100
AcDbMText
 10
14235.08525281512
 20
-29908.01928516248
 30
0.0
 40
90.0
 41
0.0
 71
     5
 72
     1
  1
\A1;50
  7
STYLE1
 11
0.0000000000000001
 21
1.0
 31
0.0
 73
     1
 44
1.0
1001
ACAD
1000
MTEXTBEGIN
1070
    73
1070
     1
1070
    44
1040
1.0
1070
    74
1070
     0
1000
MTEXTEND
  0
POINT
  5
359C8
330
353A0
100
AcDbEntity
  8
DEFPOINTS
 62
     0
 48
50.0
100
AcDbPoint
 10
14097.64388821441
 20
-29625.46023004438
 30
0.0
  0
POINT
  5
359C9
330
353A0
100
AcDbEntity
  8
DEFPOINTS
 62
     0
 48
50.0
100
AcDbPoint
 10
14097.64388821441
 20
-29675.46023004437
 30
0.0
  0
POINT
  5
359CA
330
353A0
100
AcDbEntity
  8
DEFPOINTS
 62
     0
 48
50.0
100
AcDbPoint
 10
14310.08525281511
 20
-29675.46023004437
 30
0.0
  0
ENDBLK
  5
353AD
330
353A0
100
AcDbEntity
  8
0
 48
50.0
100
AcDbBlockEnd
  0
BLOCK
  5
353B8
330
353AE
100
AcDbEntity
  8
0
 48
50.0
100
AcDbBlockBegin
  2
*D26
 70
     1
 10
0.0
 20
0.0
 30
0.0
  3
*D26
  1

  0
LINE
  5
359B7
330
353AE
100
AcDbEntity
  8
寸法
 62
     0
 48
50.0
370
    -2
100
AcDbLine
 10
12917.64388821441
 20
-29640.46023004438
 30
0.0
 11
12917.64388821441
 21
-30112.07685968841
 31
0.0
  0
LINE
  5
359B8
330
353AE
100
AcDbEntity
  8
寸法
 62
     0
 48
50.0
370
    -2
100
AcDbLine
 10
13717.64388821442
 20
-29211.51806187424
 30
0.0
 11
13717.64388821442
 21
-30112.07685968841
 31
0.0
  0
LINE
  5
359B9
330
353AE
100
AcDbEntity
  8
寸法
 62
     0
 48
50.0
370
    -2
100
AcDbLine
 10
12917.64388821441
 20
-30067.07685968842
 30
0.0
 11
13717.64388821442
 21
-30067.07685968842
 31
0.0
  0
INSERT
  5
359BA
330
353AE
100
AcDbEntity
  8
寸法
 62
     0
 48
50.0
370
    -2
100
AcDbBlockReference
  2
_DOTSMALL
 10
12917.64388821441
 20
-30067.07685968842
 30
0.0
 41
75.0
 42
75.0
 43
75.0
 50
180.0
  0
INSERT
  5
359BB
330
353AE
100
AcDbEntity
  8
寸法
 62
     0
 48
50.0
370
    -2
100
AcDbBlockReference
  2
_DOTSMALL
 10
13717.64388821442
 20
-30067.07685968842
 30
0.0
 41
75.0
 42
75.0
 43
75.0
  0
MTEXT
  5
359BC
330
353AE
100
AcDbEntity
  8
寸法
 62
     7
 48
50.0
100
AcDbMText
 10
13317.64388821442
 20
-29992.07685968842
 30
0.0
 40
90.0
 41
0.0
 71
     5
 72
     1
  1
\A1;800
  7
STYLE1
 73
     1
 44
1.0
1001
ACAD
1000
MTEXTBEGIN
1070
    73
1070
     1
1070
    44
1040
1.0
1070
    74
1070
     0
1000
MTEXTEND
  0
POINT
  5
359BD
330
353AE
100
AcDbEntity
  8
DEFPOINTS
 62
     0
 48
50.0
100
AcDbPoint
 10
12917.64388821441
 20
-29625.46023004438
 30
0.0
  0
POINT
  5
359BE
330
353AE
100
AcDbEntity
  8
DEFPOINTS
 62
     0
 48
50.0
100
AcDbPoint
 10
13717.64388821442
 20
-29196.51806187424
 30
0.0
  0
POINT
  5
359BF
330
353AE
100
AcDbEntity
  8
DEFPOINTS
 62
     0
 48
50.0
100
AcDbPoint
 10
13717.64388821442
 20
-30067.07685968842
 30
0.0
  0
ENDBLK
  5
353B9
330
353AE
100
AcDbEntity
  8
0
 48
50.0
100
AcDbBlockEnd
  0
BLOCK
  5
353C4
330
353BA
100
AcDbEntity
  8
0
 48
50.0
100
AcDbBlockBegin
  2
*D27
 70
     1
 10
0.0
 20
0.0
 30
0.0
  3
*D27
  1

  0
LINE
  5
359AE
330
353BA
100
AcDbEntity
  8
寸法
 62
     0
 48
50.0
370
    -2
100
AcDbLine
 10
13717.64388821442
 20
-29211.51806187424
 30
0.0
 11
13717.64388821442
 21
-30112.07685968841
 31
0.0
  0
LINE
  5
359AF
330
353BA
100
AcDbEntity
  8
寸法
 62
     0
 48
50.0
370
    -2
100
AcDbLine
 10
14017.64388821441
 20
-29640.46023004438
 30
0.0
 11
14017.64388821441
 21
-30112.07685968841
 31
0.0
  0
LINE
  5
359B0
330
353BA
100
AcDbEntity
  8
寸法
 62
     0
 48
50.0
370
    -2
100
AcDbLine
 10
13717.64388821442
 20
-30067.07685968842
 30
0.0
 11
14017.64388821441
 21
-30067.07685968842
 31
0.0
  0
INSERT
  5
359B1
330
353BA
100
AcDbEntity
  8
寸法
 62
     0
 48
50.0
370
    -2
100
AcDbBlockReference
  2
_DOTSMALL
 10
13717.64388821442
 20
-30067.07685968842
 30
0.0
 41
75.0
 42
75.0
 43
75.0
 50
180.0
  0
INSERT
  5
359B2
330
353BA
100
AcDbEntity
  8
寸法
 62
     0
 48
50.0
370
    -2
100
AcDbBlockReference
  2
_DOTSMALL
 10
14017.64388821441
 20
-30067.07685968842
 30
0.0
 41
75.0
 42
75.0
 43
75.0
  0
MTEXT
  5
359B3
330
353BA
100
AcDbEntity
  8
寸法
 62
     7
 48
50.0
100
AcDbMText
 10
13867.64388821441
 20
-29992.07685968842
 30
0.0
 40
90.0
 41
0.0
 71
     5
 72
     1
  1
\A1;300
  7
STYLE1
 73
     1
 44
1.0
1001
ACAD
1000
MTEXTBEGIN
1070
    73
1070
     1
1070
    44
1040
1.0
1070
    74
1070
     0
1000
MTEXTEND
  0
POINT
  5
359B4
330
353BA
100
AcDbEntity
  8
DEFPOINTS
 62
     0
 48
50.0
100
AcDbPoint
 10
13717.64388821442
 20
-29196.51806187424
 30
0.0
  0
POINT
  5
359B5
330
353BA
100
AcDbEntity
  8
DEFPOINTS
 62
     0
 48
50.0
100
AcDbPoint
 10
14017.64388821441
 20
-29625.46023004438
 30
0.0
  0
POINT
  5
359B6
330
353BA
100
AcDbEntity
  8
DEFPOINTS
 62
     0
 48
50.0
100
AcDbPoint
 10
14017.64388821441
 20
-30067.07685968842
 30
0.0
  0
ENDBLK
  5
353C5
330
353BA
100
AcDbEntity
  8
0
 48
50.0
100
AcDbBlockEnd
  0
BLOCK
  5
353D1
330
353C6
100
AcDbEntity
  8
0
 48
50.0
100
AcDbBlockBegin
  2
*D28
 70
     1
 10
0.0
 20
0.0
 30
0.0
  3
*D28
  1

  0
LINE
  5
359A4
330
353C6
100
AcDbEntity
  8
寸法
 62
     0
 48
50.0
370
    -2
100
AcDbLine
 10
12400.52807711474
 20
-29075.46023004437
 30
0.0
 11
12219.94695001284
 21
-29075.46023004437
 31
0.0
  0
LINE
  5
359A5
330
353C6
100
AcDbEntity
  8
寸法
 62
     0
 48
50.0
370
    -2
100
AcDbLine
 10
12400.52807711474
 20
-29175.46023004438
 30
0.0
 11
12219.94695001284
 21
-29175.46023004438
 31
0.0
  0
LINE
  5
359A6
330
353C6
100
AcDbEntity
  8
寸法
 62
     0
 48
50.0
370
    -2
100
AcDbLine
 10
12264.94695001284
 20
-29075.46023004437
 30
0.0
 11
12264.94695001284
 21
-29175.46023004438
 31
0.0
  0
LINE
  5
359A7
330
353C6
100
AcDbEntity
  8
寸法
 62
     0
 48
50.0
370
    -2
100
AcDbLine
 10
12264.94695001284
 20
-29175.46023004438
 30
0.0
 11
12264.94695001284
 21
-29454.53109618611
 31
0.0
  0
INSERT
  5
359A8
330
353C6
100
AcDbEntity
  8
寸法
 62
     0
 48
50.0
370
    -2
100
AcDbBlockReference
  2
_DOTSMALL
 10
12264.94695001284
 20
-29075.46023004437
 30
0.0
 41
75.0
 42
75.0
 43
75.0
 50
90.0
  0
INSERT
  5
359A9
330
353C6
100
AcDbEntity
  8
寸法
 62
     0
 48
50.0
370
    -2
100
AcDbBlockReference
  2
_DOTSMALL
 10
12264.94695001284
 20
-29175.46023004438
 30
0.0
 41
75.0
 42
75.0
 43
75.0
 50
270.0
  0
MTEXT
  5
359AA
330
353C6
100
AcDbEntity
  8
寸法
 62
     7
 48
50.0
100
AcDbMText
 10
12189.94695001284
 20
-29352.49566311524
 30
0.0
 40
90.0
 41
0.0
 71
     5
 72
     1
  1
\A1;100
  7
STYLE1
 11
0.0000000000000001
 21
1.0
 31
0.0
 73
     1
 44
1.0
1001
ACAD
1000
MTEXTBEGIN
1070
    73
1070
     1
1070
    44
1040
1.0
1070
    74
1070
     0
1000
MTEXTEND
  0
POINT
  5
359AB
330
353C6
100
AcDbEntity
  8
DEFPOINTS
 62
     0
 48
50.0
100
AcDbPoint
 10
12415.52807711473
 20
-29075.46023004437
 30
0.0
  0
POINT
  5
359AC
330
353C6
100
AcDbEntity
  8
DEFPOINTS
 62
     0
 48
50.0
100
AcDbPoint
 10
12415.52807711473
 20
-29175.46023004438
 30
0.0
  0
POINT
  5
359AD
330
353C6
100
AcDbEntity
  8
DEFPOINTS
 62
     0
 48
50.0
100
AcDbPoint
 10
12264.94695001284
 20
-29175.46023004438
 30
0.0
  0
ENDBLK
  5
353D2
330
353C6
100
AcDbEntity
  8
0
 48
50.0
100
AcDbBlockEnd
  0
BLOCK
  5
353DE
330
353D3
100
AcDbEntity
  8
0
 48
50.0
100
AcDbBlockBegin
  2
*D29
 70
     1
 10
0.0
 20
0.0
 30
0.0
  3
*D29
  1

  0
LINE
  5
3599A
330
353D3
100
AcDbEntity
  8
寸法
 62
     0
 48
50.0
370
    -2
100
AcDbLine
 10
12400.52807711474
 20
-29075.46023004437
 30
0.0
 11
12219.94695001284
 21
-29075.46023004437
 31
0.0
  0
LINE
  5
3599B
330
353D3
100
AcDbEntity
  8
寸法
 62
     0
 48
50.0
370
    -2
100
AcDbLine
 10
12400.52807711474
 20
-28975.46023004437
 30
0.0
 11
12219.94695001284
 21
-28975.46023004437
 31
0.0
  0
LINE
  5
3599C
330
353D3
100
AcDbEntity
  8
寸法
 62
     0
 48
50.0
370
    -2
100
AcDbLine
 10
12264.94695001284
 20
-29075.46023004437
 30
0.0
 11
12264.94695001284
 21
-28975.46023004437
 31
0.0
  0
LINE
  5
3599D
330
353D3
100
AcDbEntity
  8
寸法
 62
     0
 48
50.0
370
    -2
100
AcDbLine
 10
12264.94695001284
 20
-28975.46023004437
 30
0.0
 11
12264.94695001284
 21
-28696.38936390263
 31
0.0
  0
INSERT
  5
3599E
330
353D3
100
AcDbEntity
  8
寸法
 62
     0
 48
50.0
370
    -2
100
AcDbBlockReference
  2
_DOTSMALL
 10
12264.94695001284
 20
-29075.46023004437
 30
0.0
 41
75.0
 42
75.0
 43
75.0
 50
270.0
  0
INSERT
  5
3599F
330
353D3
100
AcDbEntity
  8
寸法
 62
     0
 48
50.0
370
    -2
100
AcDbBlockReference
  2
_DOTSMALL
 10
12264.94695001284
 20
-28975.46023004437
 30
0.0
 41
75.0
 42
75.0
 43
75.0
 50
90.0
  0
MTEXT
  5
359A0
330
353D3
100
AcDbEntity
  8
寸法
 62
     7
 48
50.0
100
AcDbMText
 10
12189.94695001284
 20
-28798.4247969735
 30
0.0
 40
90.0
 41
0.0
 71
     5
 72
     1
  1
\A1;100
  7
STYLE1
 11
0.0000000000000001
 21
1.0
 31
0.0
 73
     1
 44
1.0
1001
ACAD
1000
MTEXTBEGIN
1070
    73
1070
     1
1070
    44
1040
1.0
1070
    74
1070
     0
1000
MTEXTEND
  0
POINT
  5
359A1
330
353D3
100
AcDbEntity
  8
DEFPOINTS
 62
     0
 48
50.0
100
AcDbPoint
 10
12415.52807711473
 20
-29075.46023004437
 30
0.0
  0
POINT
  5
359A2
330
353D3
100
AcDbEntity
  8
DEFPOINTS
 62
     0
 48
50.0
100
AcDbPoint
 10
12415.52807711473
 20
-28975.46023004437
 30
0.0
  0
POINT
  5
359A3
330
353D3
100
AcDbEntity
  8
DEFPOINTS
 62
     0
 48
50.0
100
AcDbPoint
 10
12264.94695001284
 20
-28975.46023004437
 30
0.0
  0
ENDBLK
  5
353DF
330
353D3
100
AcDbEntity
  8
0
 48
50.0
100
AcDbBlockEnd
  0
BLOCK
  5
353E8
330
353E0
100
AcDbEntity
  8
0
 48
50.0
100
AcDbBlockBegin
  2
*D30
 70
     1
 10
0.0
 20
0.0
 30
0.0
  3
*D30
  1

  0
LINE
  5
35993
330
353E0
100
AcDbEntity
  8
寸法
 62
     0
 48
50.0
370
    -2
100
AcDbLine
 10
13717.64388821442
 20
-28535.98739718933
 30
0.0
 11
13717.64388821442
 21
-28217.68233074935
 31
0.0
  0
LINE
  5
35994
330
353E0
100
AcDbEntity
  8
寸法
 62
     0
 48
50.0
370
    -2
100
AcDbLine
 10
13917.64388821442
 20
-28970.46023004437
 30
0.0
 11
13917.64388821442
 21
-28217.68233074935
 31
0.0
  0
LINE
  5
35995
330
353E0
100
AcDbEntity
  8
寸法
 62
     0
 48
50.0
370
    -2
100
AcDbLine
 10
13717.64388821442
 20
-28262.68233074936
 30
0.0
 11
13917.64388821442
 21
-28262.68233074936
 31
0.0
  0
MTEXT
  5
35996
330
353E0
100
AcDbEntity
  8
寸法
 62
     7
 48
50.0
100
AcDbMText
 10
13817.64388821442
 20
-28187.67347248164
 30
0.0
 40
90.0
 41
0.0
 71
     5
 72
     1
  1
\A1;200
  7
STYLE1
 73
     1
 44
1.0
1001
ACAD
1000
MTEXTBEGIN
1070
    73
1070
     1
1070
    44
1040
1.0
1070
    74
1070
     0
1000
MTEXTEND
  0
POINT
  5
35997
330
353E0
100
AcDbEntity
  8
DEFPOINTS
 62
     0
 48
50.0
100
AcDbPoint
 10
13717.64388821442
 20
-28550.98739718933
 30
0.0
  0
POINT
  5
35998
330
353E0
100
AcDbEntity
  8
DEFPOINTS
 62
     0
 48
50.0
100
AcDbPoint
 10
13917.64388821442
 20
-28985.46023004437
 30
0.0
  0
POINT
  5
35999
330
353E0
100
AcDbEntity
  8
DEFPOINTS
 62
     0
 48
50.0
100
AcDbPoint
 10
13917.64388821442
 20
-28262.68233074936
 30
0.0
  0
ENDBLK
  5
353E9
330
353E0
100
AcDbEntity
  8
0
 48
50.0
100
AcDbBlockEnd
  0
BLOCK
  5
353F6
330
353EA
100
AcDbEntity
  8
0
 48
50.0
100
AcDbBlockBegin
  2
*D31
 70
     1
 10
0.0
 20
0.0
 30
0.0
  3
*D31
  1

  0
LINE
  5
35988
330
353EA
100
AcDbEntity
  8
寸法
 62
     0
 48
50.0
370
    -2
100
AcDbLine
 10
14097.44176577793
 20
-29025.46023004438
 30
0.0
 11
14355.08525281512
 21
-29025.46023004438
 31
0.0
  0
LINE
  5
35989
330
353EA
100
AcDbEntity
  8
寸法
 62
     0
 48
50.0
370
    -2
100
AcDbLine
 10
13922.64388821442
 20
-28975.46023004437
 30
0.0
 11
14355.08525281512
 21
-28975.46023004437
 31
0.0
  0
LINE
  5
3598A
330
353EA
100
AcDbEntity
  8
寸法
 62
     0
 48
50.0
370
    -2
100
AcDbLine
 10
14310.08525281511
 20
-29025.46023004438
 30
0.0
 11
14310.08525281511
 21
-29100.46023004437
 31
0.0
  0
LINE
  5
3598B
330
353EA
100
AcDbEntity
  8
寸法
 62
     0
 48
50.0
370
    -2
100
AcDbLine
 10
14310.08525281511
 20
-28975.46023004437
 30
0.0
 11
14310.08525281512
 21
-28666.38936390263
 31
0.0
  0
LINE
  5
3598C
330
353EA
100
AcDbEntity
  8
寸法
 62
     0
 48
50.0
370
    -2
100
AcDbLine
 10
14310.08525281511
 20
-29025.46023004438
 30
0.0
 11
14310.08525281511
 21
-28975.46023004437
 31
0.0
  0
INSERT
  5
3598D
330
353EA
100
AcDbEntity
  8
寸法
 62
     0
 48
50.0
370
    -2
100
AcDbBlockReference
  2
_DOTSMALL
 10
14310.08525281511
 20
-29025.46023004438
 30
0.0
 41
75.0
 42
75.0
 43
75.0
 50
90.0
  0
INSERT
  5
3598E
330
353EA
100
AcDbEntity
  8
寸法
 62
     0
 48
50.0
370
    -2
100
AcDbBlockReference
  2
_DOTSMALL
 10
14310.08525281511
 20
-28975.46023004437
 30
0.0
 41
75.0
 42
75.0
 43
75.0
 50
270.0
  0
MTEXT
  5
3598F
330
353EA
100
AcDbEntity
  8
寸法
 62
     7
 48
50.0
100
AcDbMText
 10
14235.08525281512
 20
-28745.9247969735
 30
0.0
 40
90.0
 41
0.0
 71
     5
 72
     1
  1
\A1;50
  7
STYLE1
 11
0.0000000000000001
 21
1.0
 31
0.0
 73
     1
 44
1.0
1001
ACAD
1000
MTEXTBEGIN
1070
    73
1070
     1
1070
    44
1040
1.0
1070
    74
1070
     0
1000
MTEXTEND
  0
POINT
  5
35990
330
353EA
100
AcDbEntity
  8
DEFPOINTS
 62
     0
 48
50.0
100
AcDbPoint
 10
14082.44176577793
 20
-29025.46023004438
 30
0.0
  0
POINT
  5
35991
330
353EA
100
AcDbEntity
  8
DEFPOINTS
 62
     0
 48
50.0
100
AcDbPoint
 10
13907.64388821442
 20
-28975.46023004437
 30
0.0
  0
POINT
  5
35992
330
353EA
100
AcDbEntity
  8
DEFPOINTS
 62
     0
 48
50.0
100
AcDbPoint
 10
14310.08525281511
 20
-28975.46023004437
 30
0.0
  0
ENDBLK
  5
353F7
330
353EA
100
AcDbEntity
  8
0
 48
50.0
100
AcDbBlockEnd
  0
BLOCK
  5
35402
330
353F8
100
AcDbEntity
  8
0
 48
50.0
100
AcDbBlockBegin
  2
*D32
 70
     1
 10
0.0
 20
0.0
 30
0.0
  3
*D32
  1

  0
LINE
  5
3597F
330
353F8
100
AcDbEntity
  8
寸法
 62
     0
 48
50.0
370
    -2
100
AcDbLine
 10
14097.44176577793
 20
-29025.46023004438
 30
0.0
 11
14355.08525281512
 21
-29025.46023004438
 31
0.0
  0
LINE
  5
35980
330
353F8
100
AcDbEntity
  8
寸法
 62
     0
 48
50.0
370
    -2
100
AcDbLine
 10
14112.64388821441
 20
-29625.46023004438
 30
0.0
 11
14355.08525281512
 21
-29625.46023004438
 31
0.0
  0
LINE
  5
35981
330
353F8
100
AcDbEntity
  8
寸法
 62
     0
 48
50.0
370
    -2
100
AcDbLine
 10
14310.08525281512
 20
-29025.46023004438
 30
0.0
 11
14310.08525281512
 21
-29625.46023004438
 31
0.0
  0
INSERT
  5
35982
330
353F8
100
AcDbEntity
  8
寸法
 62
     0
 48
50.0
370
    -2
100
AcDbBlockReference
  2
_DOTSMALL
 10
14310.08525281512
 20
-29025.46023004438
 30
0.0
 41
75.0
 42
75.0
 43
75.0
 50
90.0
  0
INSERT
  5
35983
330
353F8
100
AcDbEntity
  8
寸法
 62
     0
 48
50.0
370
    -2
100
AcDbBlockReference
  2
_DOTSMALL
 10
14310.08525281512
 20
-29625.46023004438
 30
0.0
 41
75.0
 42
75.0
 43
75.0
 50
270.0
  0
MTEXT
  5
35984
330
353F8
100
AcDbEntity
  8
寸法
 62
     7
 48
50.0
100
AcDbMText
 10
14235.08525281513
 20
-29325.46023004437
 30
0.0
 40
90.0
 41
0.0
 71
     5
 72
     1
  1
\A1;600
  7
STYLE1
 11
0.0000000000000001
 21
1.0
 31
0.0
 73
     1
 44
1.0
1001
ACAD
1000
MTEXTBEGIN
1070
    73
1070
     1
1070
    44
1040
1.0
1070
    74
1070
     0
1000
MTEXTEND
  0
POINT
  5
35985
330
353F8
100
AcDbEntity
  8
DEFPOINTS
 62
     0
 48
50.0
100
AcDbPoint
 10
14082.44176577793
 20
-29025.46023004438
 30
0.0
  0
POINT
  5
35986
330
353F8
100
AcDbEntity
  8
DEFPOINTS
 62
     0
 48
50.0
100
AcDbPoint
 10
14097.64388821441
 20
-29625.46023004438
 30
0.0
  0
POINT
  5
35987
330
353F8
100
AcDbEntity
  8
DEFPOINTS
 62
     0
 48
50.0
100
AcDbPoint
 10
14310.08525281512
 20
-29625.46023004438
 30
0.0
  0
ENDBLK
  5
35403
330
353F8
100
AcDbEntity
  8
0
 48
50.0
100
AcDbBlockEnd
  0
BLOCK
  5
35B58
330
35B50
100
AcDbEntity
  8
0
 48
50.0
100
AcDbBlockBegin
  2
*D33
 70
     1
 10
0.0
 20
0.0
 30
0.0
  3
*D33
  1

  0
LINE
  5
35B64
330
35B50
100
AcDbEntity
  8
寸法
 62
     0
 48
50.0
370
    -2
100
AcDbLine
 10
5126.476407838334
 20
-27972.25458912248
 30
0.0
 11
4755.604571127103
 21
-27972.25458912248
 31
0.0
  0
LINE
  5
35B65
330
35B50
100
AcDbEntity
  8
寸法
 62
     0
 48
50.0
370
    -2
100
AcDbLine
 10
5126.476407838331
 20
-27872.25458912248
 30
0.0
 11
4755.604571127103
 21
-27872.25458912248
 31
0.0
  0
LINE
  5
35B66
330
35B50
100
AcDbEntity
  8
寸法
 62
     0
 48
50.0
370
    -2
100
AcDbLine
 10
4800.604571127103
 20
-27972.25458912248
 30
0.0
 11
4800.604571127103
 21
-27872.25458912248
 31
0.0
  0
LINE
  5
35B67
330
35B50
100
AcDbEntity
  8
寸法
 62
     0
 48
50.0
370
    -2
100
AcDbLine
 10
4800.604571127103
 20
-27872.25458912248
 30
0.0
 11
4800.604571127103
 21
-27593.18372298075
 31
0.0
  0
INSERT
  5
35B68
330
35B50
100
AcDbEntity
  8
寸法
 62
     0
 48
50.0
370
    -2
100
AcDbBlockReference
  2
_DOTSMALL
 10
4800.604571127103
 20
-27972.25458912248
 30
0.0
 41
75.0
 42
75.0
 43
75.0
 50
270.0
  0
INSERT
  5
35B69
330
35B50
100
AcDbEntity
  8
寸法
 62
     0
 48
50.0
370
    -2
100
AcDbBlockReference
  2
_DOTSMALL
 10
4800.604571127103
 20
-27872.25458912248
 30
0.0
 41
75.0
 42
75.0
 43
75.0
 50
90.0
  0
MTEXT
  5
35B6A
330
35B50
100
AcDbEntity
  8
寸法
 62
     7
 48
50.0
100
AcDbMText
 10
4725.604571127108
 20
-27695.21915605162
 30
0.0
 40
90.0
 41
0.0
 71
     5
 72
     1
  1
\A1;100
  7
STYLE1
 11
0.0000000000000001
 21
1.0
 31
0.0
 73
     1
 44
1.0
1001
ACAD
1000
MTEXTBEGIN
1070
    73
1070
     1
1070
    44
1040
1.0
1070
    74
1070
     0
1000
MTEXTEND
  0
POINT
  5
35B6B
330
35B50
100
AcDbEntity
  8
DEFPOINTS
 62
     0
 48
50.0
100
AcDbPoint
 10
5141.476407838334
 20
-27972.25458912248
 30
0.0
  0
POINT
  5
35B6C
330
35B50
100
AcDbEntity
  8
DEFPOINTS
 62
     0
 48
50.0
100
AcDbPoint
 10
5141.476407838331
 20
-27872.25458912248
 30
0.0
  0
POINT
  5
35B6D
330
35B50
100
AcDbEntity
  8
DEFPOINTS
 62
     0
 48
50.0
100
AcDbPoint
 10
4800.604571127103
 20
-27872.25458912248
 30
0.0
  0
ENDBLK
  5
35B59
330
35B50
100
AcDbEntity
  8
0
 48
50.0
100
AcDbBlockEnd
  0
ENDSEC
  0
SECTION
  2
ENTITIES
  0
LINE
  5
2B8BA
330
747D
100
AcDbEntity
  8
寸法
 48
50.0
100
AcDbLine
 10
8853.098444507814
 20
-29080.10403085278
 30
0.0
 11
8820.250161675001
 21
-28957.51257037932
 31
0.0
  0
LINE
  5
2B8BB
330
747D
100
AcDbEntity
  8
寸法
 48
50.0
100
AcDbLine
 10
8853.098444507814
 20
-29080.10403085278
 30
0.0
 11
8885.946727340627
 21
-28957.51257037932
 31
0.0
  0
LINE
  5
2B8BC
330
747D
100
AcDbEntity
  8
寸法
 48
50.0
100
AcDbLine
 10
8853.098444507814
 20
-28279.75719262317
 30
0.0
 11
8853.098444507814
 21
-29080.10403085278
 31
0.0
  0
MTEXT
  5
2B8BD
330
747D
100
AcDbEntity
  8
寸法
 62
     7
 48
50.0
100
AcDbMText
 10
8758.660508442009
 20
-28925.96741102769
 30
0.0
 40
90.0
 41
0.0
 71
     4
 72
     1
  1
\A1;水勾配 1/100 
  7
STYLE1
 11
0.0000000000000001
 21
1.0
 31
0.0
 73
     1
 44
1.0
1001
ACAD
1000
MTEXTBEGIN
1070
    73
1070
     1
1070
    44
1040
1.0
1070
    74
1070
     0
1000
MTEXTEND
  0
LINE
  5
2B8BE
330
747D
100
AcDbEntity
  8
寸法
 48
50.0
100
AcDbLine
 10
5541.476407838338
 20
-29051.15355160261
 30
0.0
 11
5541.476407838338
 21
-28422.25458912248
 31
0.0
  0
MTEXT
  5
2B8C7
330
747D
100
AcDbEntity
  8
寸法
 62
     7
 48
50.0
100
AcDbMText
 10
5367.468292620528
 20
-29917.97454325499
 30
0.0
 40
90.0
 41
0.0
 71
     4
 72
     1
  1
\A1;床コンクリート打コテ押エ
  7
STYLE1
 73
     1
 44
1.0
1001
ACAD
1000
MTEXTBEGIN
1070
    73
1070
     1
1070
    44
1040
1.0
1070
    74
1070
     0
1000
MTEXTEND
  0
LINE
  5
2B8C8
330
747D
100
AcDbEntity
  8
部品1
 48
50.0
100
AcDbLine
 10
10741.47640783833
 20
-27872.25458912248
 30
0.0
 11
10741.47640783833
 21
-30172.25458912248
 31
0.0
  0
LINE
  5
2B8C9
330
747D
100
AcDbEntity
  8
部品1
 48
50.0
100
AcDbLine
 10
5141.476407838331
 20
-27872.25458912248
 30
0.0
 11
5141.476407838338
 21
-30172.25458912248
 31
0.0
  0
LINE
  5
2B8CA
330
747D
100
AcDbEntity
  8
部品1
 48
30.0
100
AcDbLine
 10
5141.476407838338
 20
-30172.25458912248
 30
0.0
 11
10741.47640783833
 21
-30172.25458912248
 31
0.0
  0
LINE
  5
2B8CD
330
747D
100
AcDbEntity
  8
文字
 48
50.0
100
AcDbLine
 10
5141.476407838334
 20
-27972.25458912248
 30
0.0
 11
10741.47640783833
 21
-27972.25458912248
 31
0.0
  0
CIRCLE
  5
2B8CE
330
747D
100
AcDbEntity
  8
部品1
 48
50.0
100
AcDbCircle
 10
5641.476407838338
 20
-28072.25458912247
 30
0.0
 40
15.0
  0
LINE
  5
2B8CF
330
747D
100
AcDbEntity
  8
センター
 48
3.0
100
AcDbLine
 10
5641.476407838338
 20
-27997.25458912248
 30
0.0
 11
5641.476407838338
 21
-28147.25458912248
 31
0.0
  0
LINE
  5
2B8D0
330
747D
100
AcDbEntity
  8
センター
 48
3.0
100
AcDbLine
 10
5566.476407838337
 20
-28072.25458912247
 30
0.0
 11
5716.476407838338
 21
-28072.25458912247
 31
0.0
  0
LINE
  5
2B8D1
330
747D
100
AcDbEntity
  8
センター
 48
3.0
100
AcDbLine
 10
5641.476407838338
 20
-28197.25458912248
 30
0.0
 11
5641.476407838338
 21
-28347.25458912248
 31
0.0
  0
CIRCLE
  5
2B8D2
330
747D
100
AcDbEntity
  8
部品1
 48
50.0
100
AcDbCircle
 10
5641.476407838338
 20
-28272.25458912248
 30
0.0
 40
15.0
  0
LINE
  5
2B8D3
330
747D
100
AcDbEntity
  8
センター
 48
3.0
100
AcDbLine
 10
5566.476407838337
 20
-28272.25458912248
 30
0.0
 11
5716.476407838338
 21
-28272.25458912248
 31
0.0
  0
LINE
  5
2B8D4
330
747D
100
AcDbEntity
  8
センター
 48
10.0
100
AcDbLine
 10
5541.476407838338
 20
-28422.25458912248
 30
0.0
 11
5541.476407838338
 21
-27922.25458912248
 31
0.0
  0
CIRCLE
  5
2B8D5
330
747D
100
AcDbEntity
  8
部品1
 48
50.0
100
AcDbCircle
 10
5441.476407838337
 20
-28072.25458912247
 30
0.0
 40
15.0
  0
LINE
  5
2B8D6
330
747D
100
AcDbEntity
  8
センター
 48
3.0
100
AcDbLine
 10
5441.476407838337
 20
-27997.25458912248
 30
0.0
 11
5441.476407838337
 21
-28147.25458912248
 31
0.0
  0
LINE
  5
2B8D7
330
747D
100
AcDbEntity
  8
センター
 48
3.0
100
AcDbLine
 10
5441.476407838337
 20
-28197.25458912248
 30
0.0
 11
5441.476407838337
 21
-28347.25458912248
 31
0.0
  0
CIRCLE
  5
2B8D8
330
747D
100
AcDbEntity
  8
部品1
 48
50.0
100
AcDbCircle
 10
5441.476407838337
 20
-28272.25458912248
 30
0.0
 40
15.0
  0
LINE
  5
2B8D9
330
747D
100
AcDbEntity
  8
センター
 48
10.0
100
AcDbLine
 10
5291.476407838338
 20
-28172.25458912248
 30
0.0
 11
5791.476407838338
 21
-28172.25458912248
 31
0.0
  0
LINE
  5
2B8DA
330
747D
100
AcDbEntity
  8
センター
 48
3.0
100
AcDbLine
 10
5366.476407838337
 20
-28072.25458912247
 30
0.0
 11
5516.476407838338
 21
-28072.25458912247
 31
0.0
  0
LINE
  5
2B8DB
330
747D
100
AcDbEntity
  8
センター
 48
3.0
100
AcDbLine
 10
5366.476407838337
 20
-28272.25458912248
 30
0.0
 11
5516.476407838338
 21
-28272.25458912248
 31
0.0
  0
DIMENSION
  5
2B8DC
330
747D
100
AcDbEntity
  8
寸法
 48
50.0
100
AcDbDimension
  2
*D20
 10
10241.47640783834
 20
-28741.77587243528
 30
0.0
 11
10341.47640783834
 21
-28666.76701416756
 31
0.0
 70
    32
 71
     5
 42
200.0
  3
INABA_S30G
100
AcDbAlignedDimension
 13
10441.47640783834
 23
-28347.25458912248
 33
0.0
 14
10241.47640783834
 24
-28347.25458912248
 34
0.0
100
AcDbRotatedDimension
  0
DIMENSION
  5
2B8DD
330
747D
100
AcDbEntity
  8
寸法
 48
50.0
100
AcDbDimension
  2
*D19
 10
10903.06383497591
 20
-28072.25458912247
 30
0.0
 11
10828.0549767082
 21
-28172.25458912247
 31
0.0
 70
    32
 71
     5
 42
200.0
  3
INABA_S30G
100
AcDbAlignedDimension
 13
10516.47640783833
 23
-28272.25458912248
 33
0.0
 14
10516.47640783833
 24
-28072.25458912247
 34
0.0
 50
90.0
100
AcDbRotatedDimension
  0
LINE
  5
2B8DE
330
747D
100
AcDbEntity
  8
センター
 48
3.0
100
AcDbLine
 10
10166.47640783834
 20
-28272.25458912248
 30
0.0
 11
10316.47640783833
 21
-28272.25458912248
 31
0.0
  0
LINE
  5
2B8DF
330
747D
100
AcDbEntity
  8
センター
 48
3.0
100
AcDbLine
 10
10166.47640783834
 20
-28072.25458912247
 30
0.0
 11
10316.47640783833
 21
-28072.25458912247
 31
0.0
  0
LINE
  5
2B8E0
330
747D
100
AcDbEntity
  8
センター
 48
10.0
100
AcDbLine
 10
10091.47640783834
 20
-28172.25458912248
 30
0.0
 11
10591.47640783834
 21
-28172.25458912248
 31
0.0
  0
CIRCLE
  5
2B8E1
330
747D
100
AcDbEntity
  8
部品1
 48
50.0
100
AcDbCircle
 10
10241.47640783834
 20
-28272.25458912248
 30
0.0
 40
15.0
  0
LINE
  5
2B8E2
330
747D
100
AcDbEntity
  8
センター
 48
3.0
100
AcDbLine
 10
10241.47640783834
 20
-28197.25458912248
 30
0.0
 11
10241.47640783834
 21
-28347.25458912248
 31
0.0
  0
LINE
  5
2B8E3
330
747D
100
AcDbEntity
  8
センター
 48
3.0
100
AcDbLine
 10
10241.47640783834
 20
-27997.25458912248
 30
0.0
 11
10241.47640783834
 21
-28147.25458912248
 31
0.0
  0
CIRCLE
  5
2B8E4
330
747D
100
AcDbEntity
  8
部品1
 48
50.0
100
AcDbCircle
 10
10241.47640783834
 20
-28072.25458912247
 30
0.0
 40
15.0
  0
LINE
  5
2B8E5
330
747D
100
AcDbEntity
  8
センター
 48
10.0
100
AcDbLine
 10
10341.47640783834
 20
-28422.25458912248
 30
0.0
 11
10341.47640783834
 21
-27922.25458912248
 31
0.0
  0
LINE
  5
2B8E6
330
747D
100
AcDbEntity
  8
センター
 48
3.0
100
AcDbLine
 10
10366.47640783834
 20
-28272.25458912248
 30
0.0
 11
10516.47640783833
 21
-28272.25458912248
 31
0.0
  0
CIRCLE
  5
2B8E7
330
747D
100
AcDbEntity
  8
部品1
 48
50.0
100
AcDbCircle
 10
10441.47640783834
 20
-28272.25458912248
 30
0.0
 40
15.0
  0
LINE
  5
2B8E8
330
747D
100
AcDbEntity
  8
センター
 48
3.0
100
AcDbLine
 10
10441.47640783834
 20
-28197.25458912248
 30
0.0
 11
10441.47640783834
 21
-28347.25458912248
 31
0.0
  0
LINE
  5
2B8E9
330
747D
100
AcDbEntity
  8
センター
 48
3.0
100
AcDbLine
 10
10366.47640783834
 20
-28072.25458912247
 30
0.0
 11
10516.47640783833
 21
-28072.25458912247
 31
0.0
  0
LINE
  5
2B8EA
330
747D
100
AcDbEntity
  8
センター
 48
3.0
100
AcDbLine
 10
10441.47640783834
 20
-27997.25458912248
 30
0.0
 11
10441.47640783834
 21
-28147.25458912248
 31
0.0
  0
CIRCLE
  5
2B8EB
330
747D
100
AcDbEntity
  8
部品1
 48
50.0
100
AcDbCircle
 10
10441.47640783834
 20
-28072.25458912247
 30
0.0
 40
15.0
  0
DIMENSION
  5
2B903
330
747D
100
AcDbEntity
  8
寸法
 48
50.0
100
AcDbDimension
  2
*D18
 10
10741.47640783833
 20
-30500.74230745901
 30
0.0
 11
10656.47640783831
 21
-30425.74230745901
 31
0.0
 70
    32
 71
     5
 42
170.0000000000436
  3
INABA_S30G
100
AcDbAlignedDimension
 13
10571.47640783829
 23
-30035.25458912248
 33
0.0
 14
10741.47640783833
 24
-30172.25458912248
 34
0.0
100
AcDbRotatedDimension
  0
DIMENSION
  5
2B904
330
747D
100
AcDbEntity
  8
寸法
 48
50.0
100
AcDbDimension
  2
*D17
 10
5141.476407838338
 20
-30500.74230745901
 30
0.0
 11
5226.47640783836
 21
-30425.74230745901
 31
0.0
 70
    32
 71
     5
 42
170.0000000000436
  3
INABA_S30G
100
AcDbAlignedDimension
 13
5311.476407838381
 23
-30035.25458912248
 33
0.0
 14
5141.476407838338
 24
-30172.25458912248
 34
0.0
100
AcDbRotatedDimension
  0
DIMENSION
  5
2B905
330
747D
100
AcDbEntity
  8
寸法
 48
50.0
100
AcDbDimension
  2
*D16
 10
10571.47640783829
 20
-30500.74230745901
 30
0.0
 11
7941.476407838338
 21
-30425.73344919129
 31
0.0
 70
    32
  1
屋根寸法 <>
 71
     5
 42
5259.999999999912
  3
INABA_S30G
100
AcDbAlignedDimension
 13
5311.476407838381
 23
-30035.25458912248
 33
0.0
 14
10571.47640783829
 24
-30035.25458912248
 34
0.0
100
AcDbRotatedDimension
  0
DIMENSION
  5
2B906
330
747D
100
AcDbEntity
  8
寸法
 48
50.0
100
AcDbDimension
  2
*D15
 10
4577.855209110643
 20
-30172.25458912248
 30
0.0
 11
4502.846350842931
 21
-29072.25458912248
 31
0.0
 70
    32
  1
基礎土間寸法 <>
 71
     5
 42
2200.0
  3
INABA_S30G
100
AcDbAlignedDimension
 13
5141.476407838334
 23
-27972.25458912248
 33
0.0
 14
5141.476407838338
 24
-30172.25458912248
 34
0.0
 50
90.0
100
AcDbRotatedDimension
  0
DIMENSION
  5
2B907
330
747D
100
AcDbEntity
  8
寸法
 48
50.0
100
AcDbDimension
  2
*D14
 10
4800.604571127103
 20
-30172.25458912248
 30
0.0
 11
4725.595712859392
 21
-29172.25458912248
 31
0.0
 70
    32
 71
     5
 42
2000.0
  3
INABA_S30G
100
AcDbAlignedDimension
 13
5291.476407838338
 23
-28172.25458912248
 33
0.0
 14
5141.476407838338
 24
-30172.25458912248
 34
0.0
 50
90.0
100
AcDbRotatedDimension
  0
DIMENSION
  5
2B908
330
747D
100
AcDbEntity
  8
寸法
 48
50.0
100
AcDbDimension
  2
*D13
 10
4800.604571127103
 20
-28172.25458912248
 30
0.0
 11
4725.595712859392
 21
-28072.25458912247
 31
0.0
 70
    32
 71
     5
 42
200.0
  3
INABA_S30G
100
AcDbAlignedDimension
 13
5141.476407838334
 23
-27972.25458912248
 33
0.0
 14
5291.476407838338
 24
-28172.25458912248
 34
0.0
 50
90.0
100
AcDbRotatedDimension
  0
DIMENSION
  5
2B909
330
747D
100
AcDbEntity
  8
寸法
 48
50.0
100
AcDbDimension
  2
*D12
 10
9764.161904554159
 20
-28172.25458912248
 30
0.0
 11
9689.161904554163
 21
-28022.25458912247
 31
0.0
 70
    32
 71
     5
 42
300.0
  3
INABA_S30G
100
AcDbAlignedDimension
 13
9941.476407838338
 23
-27872.25458912248
 33
0.0
 14
9941.476407838338
 24
-28172.25458912248
 34
0.0
 50
90.0
100
AcDbRotatedDimension
  0
DIMENSION
  5
2B90A
330
747D
100
AcDbEntity
  8
寸法
 48
50.0
100
AcDbDimension
  2
*D11
 10
9764.161904554152
 20
-28972.25458912248
 30
0.0
 11
9689.161904554158
 21
-28572.25458912247
 31
0.0
 70
    32
 71
     5
 42
800.0
  3
INABA_S30G
100
AcDbAlignedDimension
 13
9941.476407838338
 23
-28172.25458912248
 33
0.0
 14
9941.476407838338
 24
-28972.25458912248
 34
0.0
 50
90.0
100
AcDbRotatedDimension
  0
DIMENSION
  5
2B90B
330
747D
100
AcDbEntity
  8
寸法
 48
50.0
100
AcDbDimension
  2
*D10
 10
9586.847401269981
 20
-28972.25458912248
 30
0.0
 11
9511.847401269987
 21
-28422.25458912247
 31
0.0
 70
    32
 71
     5
 42
1100.0
  3
INABA_S30G
100
AcDbAlignedDimension
 13
9941.476407838338
 23
-27872.25458912248
 33
0.0
 14
9941.476407838338
 24
-28972.25458912248
 34
0.0
 50
90.0
100
AcDbRotatedDimension
  0
DIMENSION
  5
2B90C
330
747D
100
AcDbEntity
  8
寸法
 48
50.0
100
AcDbDimension
  2
*D9
 10
9941.476407838338
 20
-29210.39080515957
 30
0.0
 11
10141.47640783834
 21
-29135.39080515957
 31
0.0
 70
    32
 71
     5
 42
400.0
  3
INABA_S30G
100
AcDbAlignedDimension
 13
10341.47640783834
 23
-28422.25458912248
 33
0.0
 14
9941.476407838338
 24
-28972.25458912248
 34
0.0
100
AcDbRotatedDimension
  0
DIMENSION
  5
2B90D
330
747D
100
AcDbEntity
  8
寸法
 48
50.0
100
AcDbDimension
  2
*D8
 10
10741.47640783833
 20
-29448.52702119665
 30
0.0
 11
10341.47640783834
 21
-29448.52702119665
 31
0.0
 70
   160
 71
     5
 42
800.0
  3
INABA_S30G
100
AcDbAlignedDimension
 13
9941.476407838338
 23
-28972.25458912248
 33
0.0
 14
10741.47640783833
 24
-28972.25458912248
 34
0.0
100
AcDbRotatedDimension
  0
LINE
  5
2B90E
330
747D
100
AcDbEntity
  8
センター
 48
10.0
100
AcDbLine
 10
5291.476407838338
 20
-28172.25458912248
 30
0.0
 11
10591.47640783834
 21
-28172.25458912248
 31
0.0
  0
DIMENSION
  5
2B90F
330
747D
100
AcDbEntity
  8
寸法
 48
50.0
100
AcDbDimension
  2
*D7
 10
5541.476407838338
 20
-27562.80229499138
 30
0.0
 11
5341.476407838338
 21
-27487.80229499138
 31
0.0
 70
    32
 71
     5
 42
400.0
  3
INABA_S30G
100
AcDbAlignedDimension
 13
5141.476407838338
 23
-27872.2545891225
 33
0.0
 14
5541.476407838338
 24
-27922.25458912248
 34
0.0
100
AcDbRotatedDimension
  0
DIMENSION
  5
2B910
330
747D
100
AcDbEntity
  8
寸法
 48
50.0
100
AcDbDimension
  2
*D6
 10
10741.47640783833
 20
-27368.76525601706
 30
0.0
 11
7941.476407838338
 21
-27293.76525601706
 31
0.0
 70
    32
  1
基礎土間寸法 <>
 71
     5
 42
5600.0
  3
INABA_S30G
100
AcDbAlignedDimension
 13
5141.476407838338
 23
-27872.25458912249
 33
0.0
 14
10741.47640783833
 24
-27872.25458912249
 34
0.0
100
AcDbRotatedDimension
  0
DIMENSION
  5
2B911
330
747D
100
AcDbEntity
  8
寸法
 48
50.0
100
AcDbDimension
  2
*D5
 10
10741.47640783833
 20
-27562.80229499138
 30
0.0
 11
10541.47640783833
 21
-27487.80229499138
 31
0.0
 70
    32
 71
     5
 42
400.0
  3
INABA_S30G
100
AcDbAlignedDimension
 13
10341.47640783834
 23
-27922.25458912248
 33
0.0
 14
10741.47640783833
 24
-27872.25458912249
 34
0.0
100
AcDbRotatedDimension
  0
DIMENSION
  5
2B912
330
747D
100
AcDbEntity
  8
寸法
 48
50.0
100
AcDbDimension
  2
*D4
 10
7941.476407838338
 20
-27562.80229499138
 30
0.0
 11
6741.476407838338
 21
-27487.79343672366
 31
0.0
 70
    32
 71
     5
 42
2400.0
  3
INABA_S30G
100
AcDbAlignedDimension
 13
5541.476407838338
 23
-27922.25458912248
 33
0.0
 14
7941.476407838338
 24
-27922.25458912248
 34
0.0
100
AcDbRotatedDimension
  0
LINE
  5
2B913
330
747D
100
AcDbEntity
  8
想像線
 48
10.0
100
AcDbLine
 10
5311.476407838381
 20
-30035.25458912248
 30
0.0
 11
5311.476407838381
 21
-28015.25458912248
 31
0.0
  0
LINE
  5
2B914
330
747D
100
AcDbEntity
  8
想像線
 48
10.0
100
AcDbLine
 10
10571.47640783829
 20
-28015.25458912248
 30
0.0
 11
5311.476407838381
 21
-28015.25458912248
 31
0.0
  0
LINE
  5
2B915
330
747D
100
AcDbEntity
  8
想像線
 48
10.0
100
AcDbLine
 10
10571.47640783829
 20
-30035.25458912248
 30
0.0
 11
10571.47640783829
 21
-28015.25458912248
 31
0.0
  0
LINE
  5
2B916
330
747D
100
AcDbEntity
  8
想像線
 48
10.0
100
AcDbLine
 10
5311.476407838381
 20
-30035.25458912248
 30
0.0
 11
10571.47640783829
 21
-30035.25458912248
 31
0.0
  0
LINE
  5
2B917
330
747D
100
AcDbEntity
  8
部品1
 48
50.0
100
AcDbLine
 10
5941.476407838337
 20
-27872.25458912249
 30
0.0
 11
5141.476407838338
 21
-27872.25458912249
 31
0.0
  0
LINE
  5
2B918
330
747D
100
AcDbEntity
  8
部品1
 48
50.0
100
AcDbLine
 10
5941.476407838337
 20
-27872.25458912249
 30
0.0
 11
5941.476407838337
 21
-28972.25458912248
 31
0.0
  0
LINE
  5
2B919
330
747D
100
AcDbEntity
  8
部品1
 48
50.0
100
AcDbLine
 10
5141.476407838338
 20
-28972.25458912248
 30
0.0
 11
5941.476407838337
 21
-28972.25458912248
 31
0.0
  0
LINE
  5
2B91A
330
747D
100
AcDbEntity
  8
部品1
 48
50.0
100
AcDbLine
 10
9941.476407838331
 20
-27872.25458912249
 30
0.0
 11
9941.476407838338
 21
-28972.25458912248
 31
0.0
  0
LINE
  5
2B91B
330
747D
100
AcDbEntity
  8
部品1
 48
50.0
100
AcDbLine
 10
9941.476407838338
 20
-28972.25458912248
 30
0.0
 11
10741.47640783833
 21
-28972.25458912248
 31
0.0
  0
LINE
  5
2B91C
330
747D
100
AcDbEntity
  8
部品1
 48
50.0
100
AcDbLine
 10
10741.47640783833
 20
-27872.25458912249
 30
0.0
 11
9941.476407838338
 21
-27872.25458912249
 31
0.0
  0
DIMENSION
  5
2B920
330
747D
100
AcDbEntity
  8
寸法
 48
50.0
100
AcDbDimension
  2
*D3
 10
11123.75063020196
 20
-27872.25458912249
 30
0.0
 11
11123.75063020197
 21
-27688.89062809181
 31
0.0
 70
   160
 71
     5
 42
142.9999999999927
  3
INABA_S30G
100
AcDbAlignedDimension
 13
10571.47640783829
 23
-28015.25458912248
 33
0.0
 14
10741.47640783833
 24
-27872.25458912249
 34
0.0
 50
90.0
100
AcDbRotatedDimension
  0
DIMENSION
  5
2B921
330
747D
100
AcDbEntity
  8
寸法
 48
50.0
100
AcDbDimension
  2
*D2
 10
11123.75063020195
 20
-30035.25458912248
 30
0.0
 11
11048.74177193424
 21
-29025.25458912248
 31
0.0
 70
    32
  1
屋根寸法 <>
 71
     5
 42
2020.0
  3
INABA_S30G
100
AcDbAlignedDimension
 13
10571.47640783829
 23
-28015.25458912248
 33
0.0
 14
10571.47640783829
 24
-30035.25458912248
 34
0.0
 50
90.0
100
AcDbRotatedDimension
  0
DIMENSION
  5
2B922
330
747D
100
AcDbEntity
  8
寸法
 48
50.0
100
AcDbDimension
  2
*D1
 10
11123.75063020195
 20
-30172.25458912248
 30
0.0
 11
11123.75063020195
 21
-30349.25458912248
 31
0.0
 70
   160
 71
     5
 42
137.0
  3
INABA_S30G
100
AcDbAlignedDimension
 13
10571.47640783829
 23
-30035.25458912248
 33
0.0
 14
10741.47640783833
 24
-30172.25458912248
 34
0.0
 50
90.0
100
AcDbRotatedDimension
  0
TEXT
  5
2B924
330
747D
100
AcDbEntity
  8
文字
 62
     7
 48
50.0
100
AcDbText
 10
14436.32872282268
 20
-32552.46931115722
 30
0.0
 40
75.0
  1
             <縮尺> S=1/30
  7
STYLE2
100
AcDbText
  0
TEXT
  5
2B925
330
747D
100
AcDbEntity
  8
文字
 62
     7
 48
50.0
100
AcDbText
 10
14681.94723720305
 20
-32697.44804557095
 30
0.0
 40
75.0
  1
～一般型～
  7
STYLE2
100
AcDbText
  0
TEXT
  5
2B926
330
747D
100
AcDbEntity
  8
文字
 62
     7
 48
50.0
100
AcDbText
 10
14495.21336087738
 20
-32963.21505613229
 30
0.0
 40
120.0
  1
BP-24PL-2
  7
STYLE3
100
AcDbText
  0
LINE
  5
2B927
330
747D
100
AcDbEntity
  8
仕様書枠
  6
Continuous
 48
50.0
100
AcDbLine
 10
14231.62984490618
 20
-32426.13759087564
 30
0.0
 11
14231.62984490618
 21
-32726.13759087564
 31
0.0
  0
LINE
  5
2B928
330
747D
100
AcDbEntity
  8
仕様書枠
 48
50.0
100
AcDbLine
 10
13373.62984490618
 20
-32726.13759087564
 30
0.0
 11
14231.62984490618
 21
-32726.13759087564
 31
0.0
  0
TEXT
  5
2B929
330
747D
100
AcDbEntity
  8
文字
 62
     7
 48
50.0
100
AcDbText
 10
13450.28385306908
 20
-33269.06683056828
 30
0.0
 40
60.0
  1
○寒冷地等は、地域の実情に合わせた基礎にしてください。
  7
STYLE2
100
AcDbText
  0
TEXT
  5
2B92A
330
747D
100
AcDbEntity
  8
文字
 62
     7
 48
50.0
100
AcDbText
 10
13450.28385306908
 20
-33154.72994768297
 30
0.0
 40
60.0
  1
○間口寸法は柱芯寸法です。
  7
STYLE2
100
AcDbText
  0
TEXT
  5
2B92B
330
747D
100
AcDbEntity
  8
文字
 62
     7
 48
50.0
100
AcDbText
 10
13444.3073698945
 20
-32968.18204129829
 30
0.0
 40
120.0
  1
機種名
  7
STYLE2
100
AcDbText
  0
TEXT
  5
2B92C
330
747D
100
AcDbEntity
  8
文字
 62
     7
 48
50.0
100
AcDbText
 10
13415.46413733886
 20
-32654.81963530318
 30
0.0
 40
150.0
  1
基 礎 図
  7
STYLE2
100
AcDbText
  0
LINE
  5
2B92D
330
747D
100
AcDbEntity
  8
文字
 62
     7
 48
50.0
100
AcDbLine
 10
13433.62984490618
 20
-33026.13759087565
 30
0.0
 11
15713.62984490618
 21
-33026.13759087565
 31
0.0
  0
LINE
  5
2B92E
330
747D
100
AcDbEntity
  8
仕様書枠
 48
50.0
100
AcDbLine
 10
13373.62984490618
 20
-32426.13759087564
 30
0.0
 11
15773.62984490618
 21
-32426.13759087564
 31
0.0
  0
LINE
  5
2B92F
330
747D
100
AcDbEntity
  8
仕様書枠
 48
50.0
100
AcDbLine
 10
3648.229844906184
 20
-33326.13759087565
 30
0.0
 11
15773.62984490618
 21
-33326.13759087565
 31
0.0
  0
LINE
  5
2B930
330
747D
100
AcDbEntity
  8
仕様書枠
 48
50.0
100
AcDbLine
 10
15773.62984490618
 20
-32426.13759087564
 30
0.0
 11
15773.62984490618
 21
-33326.13759087565
 31
0.0
  0
LINE
  5
2B931
330
747D
100
AcDbEntity
  8
仕様書枠
  6
Continuous
 48
50.0
100
AcDbLine
 10
13373.62984490618
 20
-32426.13759087564
 30
0.0
 11
13373.62984490618
 21
-33326.13759087565
 31
0.0
  0
LINE
  5
2B932
330
747D
100
AcDbEntity
  8
補助
  6
PHANTOM
 62
   230
 48
50.0
100
AcDbLine
 10
13373.62983762337
 20
-24768.9375962191
 30
0.0
 11
13373.62983762337
 21
-29726.1375962191
 31
0.0
  0
LINE
  5
2B933
330
747D
100
AcDbEntity
  8
補助
  6
PHANTOM
 62
   230
 48
50.0
100
AcDbLine
 10
15773.62983762337
 20
-24768.9375962191
 30
0.0
 11
15773.62983762337
 21
-32426.1375962191
 31
0.0
  0
LINE
  5
2B934
330
747D
100
AcDbEntity
  8
補助
  6
PHANTOM
 62
   230
 48
50.0
100
AcDbLine
 10
3648.229837623372
 20
-24768.9375962191
 30
0.0
 11
15773.62983762337
 21
-24768.9375962191
 31
0.0
  0
LINE
  5
2B935
330
747D
100
AcDbEntity
  8
補助
  6
PHANTOM
 62
   230
 48
50.0
100
AcDbLine
 10
13373.62983762337
 20
-29726.1375962191
 30
0.0
 11
15773.62983762337
 21
-29726.1375962191
 31
0.0
  0
LINE
  5
2B936
330
747D
100
AcDbEntity
  8
補助
  6
PHANTOM
 62
   230
 48
50.0
100
AcDbLine
 10
3648.229837623372
 20
-33326.1375962191
 30
0.0
 11
3648.229837623372
 21
-24768.9375962191
 31
0.0
  0
LINE
  5
2BD35
330
747D
100
AcDbEntity
  8
部品1
 48
50.0
100
AcDbLine
 10
7541.476407838338
 20
-28972.25458912248
 30
0.0
 11
8341.476407838339
 21
-28972.25458912248
 31
0.0
  0
LINE
  5
2BD36
330
747D
100
AcDbEntity
  8
部品1
 48
50.0
100
AcDbLine
 10
8341.476407838339
 20
-27872.25458912249
 30
0.0
 11
8341.476407838339
 21
-28972.25458912248
 31
0.0
  0
LINE
  5
2BD37
330
747D
100
AcDbEntity
  8
部品1
 48
50.0
100
AcDbLine
 10
8341.476407838339
 20
-27872.25458912249
 30
0.0
 11
7541.476407838338
 21
-27872.25458912249
 31
0.0
  0
LINE
  5
2BD38
330
747D
100
AcDbEntity
  8
センター
 48
3.0
100
AcDbLine
 10
7766.476407838339
 20
-28272.25458912248
 30
0.0
 11
7916.476407838338
 21
-28272.25458912248
 31
0.0
  0
LINE
  5
2BD39
330
747D
100
AcDbEntity
  8
センター
 48
3.0
100
AcDbLine
 10
7766.476407838339
 20
-28072.25458912247
 30
0.0
 11
7916.476407838338
 21
-28072.25458912247
 31
0.0
  0
LINE
  5
2BD3A
330
747D
100
AcDbEntity
  8
センター
 48
10.0
100
AcDbLine
 10
7691.476407838338
 20
-28172.25458912248
 30
0.0
 11
8191.476407838338
 21
-28172.25458912248
 31
0.0
  0
CIRCLE
  5
2BD3B
330
747D
100
AcDbEntity
  8
部品1
 48
50.0
100
AcDbCircle
 10
7841.476407838339
 20
-28272.25458912248
 30
0.0
 40
15.0
  0
LINE
  5
2BD3C
330
747D
100
AcDbEntity
  8
センター
 48
3.0
100
AcDbLine
 10
7841.476407838339
 20
-28197.25458912248
 30
0.0
 11
7841.476407838339
 21
-28347.25458912248
 31
0.0
  0
LINE
  5
2BD3D
330
747D
100
AcDbEntity
  8
センター
 48
3.0
100
AcDbLine
 10
7841.476407838339
 20
-27997.25458912248
 30
0.0
 11
7841.476407838339
 21
-28147.25458912248
 31
0.0
  0
CIRCLE
  5
2BD3E
330
747D
100
AcDbEntity
  8
部品1
 48
50.0
100
AcDbCircle
 10
7841.476407838339
 20
-28072.25458912247
 30
0.0
 40
15.0
  0
LINE
  5
2BD3F
330
747D
100
AcDbEntity
  8
センター
 48
10.0
100
AcDbLine
 10
7941.476407838338
 20
-28422.25458912248
 30
0.0
 11
7941.476407838338
 21
-27922.25458912248
 31
0.0
  0
LINE
  5
2BD40
330
747D
100
AcDbEntity
  8
センター
 48
3.0
100
AcDbLine
 10
7966.476407838339
 20
-28272.25458912248
 30
0.0
 11
8116.476407838339
 21
-28272.25458912248
 31
0.0
  0
CIRCLE
  5
2BD41
330
747D
100
AcDbEntity
  8
部品1
 48
50.0
100
AcDbCircle
 10
8041.476407838338
 20
-28272.25458912248
 30
0.0
 40
15.0
  0
LINE
  5
2BD42
330
747D
100
AcDbEntity
  8
センター
 48
3.0
100
AcDbLine
 10
8041.476407838338
 20
-28197.25458912248
 30
0.0
 11
8041.476407838338
 21
-28347.25458912248
 31
0.0
  0
LINE
  5
2BD43
330
747D
100
AcDbEntity
  8
センター
 48
3.0
100
AcDbLine
 10
7966.476407838339
 20
-28072.25458912247
 30
0.0
 11
8116.476407838339
 21
-28072.25458912247
 31
0.0
  0
LINE
  5
2BD44
330
747D
100
AcDbEntity
  8
センター
 48
3.0
100
AcDbLine
 10
8041.476407838338
 20
-27997.25458912248
 30
0.0
 11
8041.476407838338
 21
-28147.25458912248
 31
0.0
  0
CIRCLE
  5
2BD45
330
747D
100
AcDbEntity
  8
部品1
 48
50.0
100
AcDbCircle
 10
8041.476407838338
 20
-28072.25458912247
 30
0.0
 40
15.0
  0
LINE
  5
2BD46
330
747D
100
AcDbEntity
  8
部品1
 48
50.0
100
AcDbLine
 10
7541.476407838338
 20
-27872.25458912249
 30
0.0
 11
7541.476407838338
 21
-28972.25458912248
 31
0.0
  0
DIMENSION
  5
2CA79
330
747D
100
AcDbEntity
  8
寸法
 48
50.0
100
AcDbDimension
  2
*D21
 10
10341.47640783834
 20
-27562.80229499138
 30
0.0
 11
9141.476407838338
 21
-27487.79343672366
 31
0.0
 70
    32
 71
     5
 42
2400.0
  3
INABA_S30G
100
AcDbAlignedDimension
 13
7941.476407838338
 23
-27922.25458912248
 33
0.0
 14
10341.47640783834
 24
-27922.25458912248
 34
0.0
100
AcDbRotatedDimension
  0
DIMENSION
  5
3513B
330
747D
100
AcDbEntity
  8
寸法
 48
50.0
100
AcDbDimension
  2
*D22
 10
12494.85178134987
 20
-29115.46023004437
 30
0.0
 11
12494.85178134987
 21
-29332.68857650107
 31
0.0
 70
   160
 71
     5
 42
60.0
  3
INABA_S30G
100
AcDbAlignedDimension
 13
12852.34688602959
 23
-29175.46023004438
 33
0.0
 14
13611.64388821442
 24
-29115.46023004437
 34
0.0
 50
90.0
100
AcDbRotatedDimension
  0
LINE
  5
3516C
102
{ACAD_REACTORS
330
3553D
330
3553E
330
3553F
102
}
330
747D
100
AcDbEntity
  8
KIN-T
100
AcDbLine
 10
13342.19388821443
 20
-29500.46023004437
 30
0.0
 11
13487.64388821443
 21
-29500.46023004437
 31
0.0
  0
LINE
  5
3516D
102
{ACAD_REACTORS
330
3553D
330
3553E
330
3553F
102
}
330
747D
100
AcDbEntity
  8
KIN-T
100
AcDbLine
 10
13517.64388821443
 20
-29130.46023004437
 30
0.0
 11
13517.64388821443
 21
-29470.46023004437
 31
0.0
  0
ARC
  5
3516E
102
{ACAD_REACTORS
330
3553D
330
3553E
330
3553F
102
}
330
747D
100
AcDbEntity
  8
KIN-T
100
AcDbCircle
 10
13487.64388821443
 20
-29470.46023004437
 30
0.0
 40
30.0
100
AcDbArc
 50
270.0
 51
0.0
  0
LINE
  5
3516F
102
{ACAD_REACTORS
330
3553D
330
3553E
102
}
330
747D
100
AcDbEntity
  8
KIN-T
100
AcDbLine
 10
13517.64388821443
 20
-29130.46023004437
 30
0.0
 11
13530.64388821443
 21
-29130.46023004437
 31
0.0
  0
LINE
  5
35170
102
{ACAD_REACTORS
330
3553D
330
3553E
102
}
330
747D
100
AcDbEntity
  8
KIN-T
100
AcDbLine
 10
13530.64388821443
 20
-29130.46023004437
 30
0.0
 11
13530.64388821443
 21
-29470.46023004437
 31
0.0
  0
ARC
  5
35171
102
{ACAD_REACTORS
330
3553D
330
3553E
102
}
330
747D
100
AcDbEntity
  8
KIN-T
100
AcDbCircle
 10
13487.64388821443
 20
-29470.46023004437
 30
0.0
 40
43.0
100
AcDbArc
 50
270.0
 51
0.0
  0
LINE
  5
35172
102
{ACAD_REACTORS
330
3553D
330
3553E
102
}
330
747D
100
AcDbEntity
  8
KIN-T
100
AcDbLine
 10
13342.19388821443
 20
-29513.46023004438
 30
0.0
 11
13487.64388821443
 21
-29513.46023004438
 31
0.0
  0
LINE
  5
35173
102
{ACAD_REACTORS
330
3553D
330
3553E
102
}
330
747D
100
AcDbEntity
  8
KIN-T
100
AcDbLine
 10
13342.19388821443
 20
-29500.46023004437
 30
0.0
 11
13342.19388821443
 21
-29513.46023004438
 31
0.0
  0
LINE
  5
35174
102
{ACAD_REACTORS
330
3553D
330
35540
330
35541
102
}
330
747D
100
AcDbEntity
  8
KIN-T
100
AcDbLine
 10
13729.19388821443
 20
-29500.46023004437
 30
0.0
 11
13874.64388821443
 21
-29500.46023004437
 31
0.0
  0
LINE
  5
35175
102
{ACAD_REACTORS
330
3553D
330
35540
330
35541
102
}
330
747D
100
AcDbEntity
  8
KIN-T
100
AcDbLine
 10
13904.64388821443
 20
-29130.46023004437
 30
0.0
 11
13904.64388821443
 21
-29470.46023004437
 31
0.0
  0
ARC
  5
35176
102
{ACAD_REACTORS
330
3553D
330
35540
330
35541
102
}
330
747D
100
AcDbEntity
  8
KIN-T
100
AcDbCircle
 10
13874.64388821443
 20
-29470.46023004437
 30
0.0
 40
30.0
100
AcDbArc
 50
270.0
 51
0.0
  0
LINE
  5
35177
102
{ACAD_REACTORS
330
3553D
330
35540
102
}
330
747D
100
AcDbEntity
  8
KIN-T
100
AcDbLine
 10
13904.64388821443
 20
-29130.46023004437
 30
0.0
 11
13917.64388821443
 21
-29130.46023004437
 31
0.0
  0
LINE
  5
35178
102
{ACAD_REACTORS
330
3553D
330
35540
102
}
330
747D
100
AcDbEntity
  8
KIN-T
100
AcDbLine
 10
13917.64388821443
 20
-29130.46023004437
 30
0.0
 11
13917.64388821443
 21
-29470.46023004437
 31
0.0
  0
ARC
  5
35179
102
{ACAD_REACTORS
330
3553D
330
35540
102
}
330
747D
100
AcDbEntity
  8
KIN-T
100
AcDbCircle
 10
13874.64388821443
 20
-29470.46023004437
 30
0.0
 40
43.0
100
AcDbArc
 50
270.0
 51
0.0
  0
LINE
  5
3517A
102
{ACAD_REACTORS
330
3553D
330
35540
102
}
330
747D
100
AcDbEntity
  8
KIN-T
100
AcDbLine
 10
13729.19388821443
 20
-29500.46023004437
 30
0.0
 11
13729.19388821443
 21
-29513.46023004438
 31
0.0
  0
LINE
  5
3517B
102
{ACAD_REACTORS
330
3553D
330
35542
102
}
330
747D
100
AcDbEntity
  8
U7
100
AcDbLine
 10
13512.64388821443
 20
-29440.46023004437
 30
0.0
 11
13922.64388821443
 21
-29440.46023004437
 31
0.0
  0
LINE
  5
3517C
102
{ACAD_REACTORS
330
3553D
330
35542
102
}
330
747D
100
AcDbEntity
  8
U7
100
AcDbLine
 10
13512.64388821443
 20
-29430.46023004437
 30
0.0
 11
13922.64388821443
 21
-29430.46023004437
 31
0.0
  0
CIRCLE
  5
3517D
102
{ACAD_REACTORS
330
3553D
330
35542
102
}
330
747D
100
AcDbEntity
  8
U7
100
AcDbCircle
 10
13922.64388821443
 20
-29435.46023004437
 30
0.0
 40
5.0
  0
CIRCLE
  5
3517E
102
{ACAD_REACTORS
330
3553D
330
35542
102
}
330
747D
100
AcDbEntity
  8
U7
100
AcDbCircle
 10
13512.64388821443
 20
-29435.46023004437
 30
0.0
 40
5.0
  0
LINE
  5
3517F
102
{ACAD_REACTORS
330
3553D
330
35543
102
}
330
747D
100
AcDbEntity
  8
U7
100
AcDbLine
 10
13512.64388821443
 20
-29330.46023004438
 30
0.0
 11
13922.64388821443
 21
-29330.46023004438
 31
0.0
  0
LINE
  5
35180
102
{ACAD_REACTORS
330
3553D
330
35543
102
}
330
747D
100
AcDbEntity
  8
U7
100
AcDbLine
 10
13512.64388821443
 20
-29340.46023004437
 30
0.0
 11
13922.64388821443
 21
-29340.46023004436
 31
0.0
  0
CIRCLE
  5
35181
102
{ACAD_REACTORS
330
3553D
330
35543
102
}
330
747D
100
AcDbEntity
  8
U7
100
AcDbCircle
 10
13922.64388821443
 20
-29335.46023004437
 30
0.0
 40
5.0
  0
CIRCLE
  5
35182
102
{ACAD_REACTORS
330
3553D
330
35543
102
}
330
747D
100
AcDbEntity
  8
U7
100
AcDbCircle
 10
13512.64388821443
 20
-29335.46023004437
 30
0.0
 40
5.0
  0
LINE
  5
35183
102
{ACAD_REACTORS
330
3553D
330
35544
102
}
330
747D
100
AcDbEntity
  8
U7
100
AcDbLine
 10
13512.64388821443
 20
-29240.46023004438
 30
0.0
 11
13922.64388821443
 21
-29240.46023004437
 31
0.0
  0
LINE
  5
35184
102
{ACAD_REACTORS
330
3553D
330
35544
102
}
330
747D
100
AcDbEntity
  8
U7
100
AcDbLine
 10
13512.64388821443
 20
-29230.46023004437
 30
0.0
 11
13922.64388821443
 21
-29230.46023004437
 31
0.0
  0
CIRCLE
  5
35185
102
{ACAD_REACTORS
330
3553D
330
35544
102
}
330
747D
100
AcDbEntity
  8
U7
100
AcDbCircle
 10
13922.64388821443
 20
-29235.46023004437
 30
0.0
 40
5.0
  0
CIRCLE
  5
35186
102
{ACAD_REACTORS
330
3553D
330
35544
102
}
330
747D
100
AcDbEntity
  8
U7
100
AcDbCircle
 10
13512.64388821443
 20
-29235.46023004437
 30
0.0
 40
5.0
  0
LINE
  5
35187
102
{ACAD_REACTORS
330
3553D
330
35545
102
}
330
747D
100
AcDbEntity
  8
U7
100
AcDbLine
 10
13512.64388821443
 20
-29130.46023004437
 30
0.0
 11
13922.64388821443
 21
-29130.46023004437
 31
0.0
  0
LINE
  5
35188
102
{ACAD_REACTORS
330
3553D
330
35545
102
}
330
747D
100
AcDbEntity
  8
U7
100
AcDbLine
 10
13512.64388821443
 20
-29140.46023004437
 30
0.0
 11
13922.64388821443
 21
-29140.46023004437
 31
0.0
  0
CIRCLE
  5
35189
102
{ACAD_REACTORS
330
3553D
330
35545
102
}
330
747D
100
AcDbEntity
  8
U7
100
AcDbCircle
 10
13922.64388821443
 20
-29135.46023004438
 30
0.0
 40
5.0
  0
CIRCLE
  5
3518A
102
{ACAD_REACTORS
330
3553D
330
35545
102
}
330
747D
100
AcDbEntity
  8
U7
100
AcDbCircle
 10
13512.64388821443
 20
-29135.46023004438
 30
0.0
 40
5.0
  0
LINE
  5
3518B
102
{ACAD_REACTORS
330
3553D
330
35540
102
}
330
747D
100
AcDbEntity
  8
KIN-T
100
AcDbLine
 10
13729.19388821443
 20
-29513.46023004438
 30
0.0
 11
13874.64388821443
 21
-29513.46023004438
 31
0.0
  0
LINE
  5
3518C
102
{ACAD_REACTORS
330
35546
102
}
330
747D
100
AcDbEntity
  8
部品1
 48
50.0
100
AcDbLine
 10
13001.89388821442
 20
-29550.46023004438
 30
0.0
 11
13001.89388821442
 21
-29560.46023004438
 31
0.0
  0
LINE
  5
3518D
102
{ACAD_REACTORS
330
35546
102
}
330
747D
100
AcDbEntity
  8
部品1
 48
50.0
100
AcDbLine
 10
13001.89388821442
 20
-29560.46023004438
 30
0.0
 11
13833.36343665233
 21
-29560.46023004438
 31
0.0
  0
LINE
  5
3518E
102
{ACAD_REACTORS
330
35546
102
}
330
747D
100
AcDbEntity
  8
部品1
 48
50.0
100
AcDbLine
 10
13833.36343665233
 20
-29550.46023004438
 30
0.0
 11
13833.36343665233
 21
-29560.46023004438
 31
0.0
  0
CIRCLE
  5
3518F
102
{ACAD_REACTORS
330
35546
102
}
330
747D
100
AcDbEntity
  8
部品1
 48
50.0
100
AcDbCircle
 10
13017.64388821442
 20
-29545.46023004438
 30
0.0
 40
5.0
  0
CIRCLE
  5
35190
102
{ACAD_REACTORS
330
35546
102
}
330
747D
100
AcDbEntity
  8
部品1
 48
50.0
100
AcDbCircle
 10
13217.64388821442
 20
-29545.46023004438
 30
0.0
 40
5.0
  0
CIRCLE
  5
35191
102
{ACAD_REACTORS
330
35546
102
}
330
747D
100
AcDbEntity
  8
部品1
 48
50.0
100
AcDbCircle
 10
13417.64388821442
 20
-29545.46023004438
 30
0.0
 40
5.0
  0
CIRCLE
  5
35192
102
{ACAD_REACTORS
330
35546
102
}
330
747D
100
AcDbEntity
  8
部品1
 48
50.0
100
AcDbCircle
 10
13617.64388821442
 20
-29545.46023004438
 30
0.0
 40
5.0
  0
CIRCLE
  5
35193
102
{ACAD_REACTORS
330
35546
102
}
330
747D
100
AcDbEntity
  8
部品1
 48
50.0
100
AcDbCircle
 10
13817.64388821442
 20
-29545.46023004438
 30
0.0
 40
5.0
  0
LINE
  5
35194
102
{ACAD_REACTORS
330
35546
102
}
330
747D
100
AcDbEntity
  8
部品1
 48
50.0
100
AcDbLine
 10
13001.89388821442
 20
-29550.46023004438
 30
0.0
 11
13833.36343665233
 21
-29550.46023004438
 31
0.0
  0
TEXT
  5
35195
330
747D
100
AcDbEntity
  8
寸法
 62
     7
100
AcDbText
 10
11766.35135729324
 20
-29804.91724875703
 30
0.0
 40
90.0
  1
ベース筋
  7
STYLE1
100
AcDbText
  0
TEXT
  5
35196
330
747D
100
AcDbEntity
  8
寸法
 62
     7
100
AcDbText
 10
11766.35135729324
 20
-29919.39016948165
 30
0.0
 40
90.0
  1
4-D10X5-D10以上
  7
STYLE1
100
AcDbText
  0
DIMENSION
  5
35197
330
747D
100
AcDbEntity
  8
寸法
 48
50.0
100
AcDbDimension
  2
*D23
 10
12695.02768474312
 20
-29145.46023004437
 30
0.0
 11
12695.02768474312
 21
-29404.99566311523
 31
0.0
 70
   160
 71
     5
 42
30.0
  3
INABA_S30G
100
AcDbAlignedDimension
 13
12852.34688602959
 23
-29175.46023004438
 33
0.0
 14
13577.64388821442
 24
-29145.46023004437
 34
0.0
 50
90.0
100
AcDbRotatedDimension
  0
LINE
  5
351A1
330
747D
100
AcDbEntity
  8
部品1
 48
50.0
100
AcDbLine
 10
12917.64388821441
 20
-29075.46023004437
 30
0.0
 11
12415.52807711474
 21
-29075.46023004437
 31
0.0
  0
LINE
  5
351A2
330
747D
100
AcDbEntity
  8
部品1
 48
50.0
100
AcDbLine
 10
13823.64388821442
 20
-29175.46023004437
 30
0.0
 11
14017.64388821441
 21
-29175.46023004437
 31
0.0
  0
LINE
  5
351A3
330
747D
100
AcDbEntity
  8
部品1
 48
50.0
100
AcDbLine
 10
12917.64388821442
 20
-29175.46023004438
 30
0.0
 11
13611.64388821442
 21
-29175.46023004437
 31
0.0
  0
LINE
  5
351A4
330
747D
100
AcDbEntity
  8
部品1
 48
50.0
100
AcDbLine
 10
13623.64388821442
 20
-29175.46023004437
 30
0.0
 11
13811.64388821442
 21
-29175.46023004437
 31
0.0
  0
ARC
  5
351A5
330
747D
100
AcDbEntity
  8
部品1
 48
50.0
100
AcDbCircle
 10
13717.64388821442
 20
-29193.68023131503
 30
0.0
 40
48.22000127066345
100
AcDbArc
 50
22.20066484131572
 51
157.7993351586842
  0
LINE
  5
351A8
330
747D
100
AcDbEntity
  8
寸法
 48
50.0
100
AcDbLine
 10
13908.85709165002
 20
-29491.67343347997
 30
0.0
 11
14491.82735427243
 21
-30074.64369610238
 31
0.0
  0
TEXT
  5
351AF
330
747D
100
AcDbEntity
  8
寸法
 62
     7
 48
50.0
100
AcDbText
 10
12003.9660783708
 20
-30305.82540322494
 30
0.0
 40
90.0
  1
帯筋D10＠100
  7
STYLE1
100
AcDbText
  0
LINE
  5
351B0
330
747D
100
AcDbEntity
  8
寸法
 48
50.0
100
AcDbLine
 10
12678.72447463486
 20
-30320.1083307142
 30
0.0
 11
11979.87866069067
 21
-30320.1083307142
 31
0.0
  0
LINE
  5
351B1
330
747D
100
AcDbEntity
  8
寸法
 48
50.0
100
AcDbLine
 10
13563.37257530471
 20
-29435.46023004437
 30
0.0
 11
12678.72447463486
 21
-30320.1083307142
 31
0.0
  0
LINE
  5
351B2
330
747D
100
AcDbEntity
  8
寸法
 48
50.0
100
AcDbLine
 10
14491.82735427243
 20
-29660.23613404103
 30
0.0
 11
13823.64388821442
 21
-29274.46023004437
 31
0.0
  0
LINE
  5
351B3
330
747D
100
AcDbEntity
  8
寸法
 48
50.0
100
AcDbLine
 10
14491.82735427243
 20
-30074.64369610239
 30
0.0
 11
15079.00759010429
 21
-30074.64369610239
 31
0.0
  0
TEXT
  5
351B4
330
747D
100
AcDbEntity
  8
寸法
 62
     7
 48
50.0
100
AcDbText
 10
14529.5727203546
 20
-30053.3613108116
 30
0.0
 40
90.0
  1
主筋4-D13
  7
STYLE1
100
AcDbText
  0
TEXT
  5
351B5
330
747D
100
AcDbEntity
  8
寸法
 62
     7
 48
50.0
100
AcDbText
 10
14529.5727203546
 20
-29767.51450902533
 30
0.0
 40
90.0
  1
M12X350（市販品）
  7
STYLE1
100
AcDbText
  0
LWPOLYLINE
  5
351B6
330
747D
100
AcDbEntity
  8
寸法
 48
5.0
100
AcDbPolyline
 90
        3
 70
     0
 43
0.0
 10
13017.64388821442
 20
-29544.26023004438
 10
12678.72447463486
 20
-29939.91117448
 10
11761.21491948991
 20
-29939.91117448
1001
ACAD
1000
DSTYLE
1002
{
1070
   341
1005
0
1002
}
  0
TEXT
  5
351B7
330
747D
100
AcDbEntity
  8
寸法
 62
     7
 48
50.0
100
AcDbText
 10
14529.5727203546
 20
-29647.96823050889
 30
0.0
 40
90.0
  1
アンカーボルト
  7
STYLE1
100
AcDbText
  0
LINE
  5
351B8
330
747D
100
AcDbEntity
  8
寸法
 48
50.0
100
AcDbLine
 10
14491.82735427243
 20
-29660.23613404103
 30
0.0
 11
15484.75468079308
 21
-29660.23613404103
 31
0.0
  0
LINE
  5
351B9
102
{ACAD_REACTORS
330
35547
102
}
330
747D
100
AcDbEntity
  8
部品1
100
AcDbLine
 10
13848.64388821442
 20
-29424.46023004437
 30
0.0
 11
13867.64388821442
 21
-29424.46023004437
 31
0.0
  0
LINE
  5
351BA
102
{ACAD_REACTORS
330
35547
102
}
330
747D
100
AcDbEntity
  8
部品1
100
AcDbLine
 10
13848.64388821442
 20
-29436.46023004437
 30
0.0
 11
13867.64388821442
 21
-29436.46023004437
 31
0.0
  0
LINE
  5
351BB
102
{ACAD_REACTORS
330
35547
102
}
330
747D
100
AcDbEntity
  8
部品1
100
AcDbLine
 10
13867.64388821442
 20
-29424.46023004437
 30
0.0
 11
13867.64388821442
 21
-29436.46023004437
 31
0.0
  0
ARC
  5
351BC
102
{ACAD_REACTORS
330
35547
102
}
330
747D
100
AcDbEntity
  8
部品1
100
AcDbCircle
 10
13848.64388821442
 20
-29399.46023004437
 30
0.0
 40
25.0
100
AcDbArc
 50
180.0
 51
270.0
  0
ARC
  5
351BD
102
{ACAD_REACTORS
330
35547
102
}
330
747D
100
AcDbEntity
  8
部品1
100
AcDbCircle
 10
13848.64388821442
 20
-29399.46023004437
 30
0.0
 40
37.0
100
AcDbArc
 50
180.0
 51
270.0
  0
LINE
  5
351BE
102
{ACAD_REACTORS
330
35547
102
}
330
747D
100
AcDbEntity
  8
部品1
100
AcDbLine
 10
13811.64388821442
 20
-29145.46023004437
 30
0.0
 11
13811.64388821442
 21
-29399.46023004437
 31
0.0
  0
LINE
  5
351BF
102
{ACAD_REACTORS
330
35547
102
}
330
747D
100
AcDbEntity
  8
部品1
100
AcDbLine
 10
13823.64388821442
 20
-29115.46023004437
 30
0.0
 11
13811.64388821442
 21
-29115.46023004437
 31
0.0
  0
LINE
  5
351C0
102
{ACAD_REACTORS
330
35547
102
}
330
747D
100
AcDbEntity
  8
部品1
100
AcDbLine
 10
13823.64388821442
 20
-29115.46023004437
 30
0.0
 11
13823.64388821442
 21
-29123.46023004437
 31
0.0
  0
LINE
  5
351C1
102
{ACAD_REACTORS
330
35547
102
}
330
747D
100
AcDbEntity
  8
部品1
100
AcDbLine
 10
13811.64388821442
 20
-29115.46023004437
 30
0.0
 11
13811.64388821442
 21
-29123.46023004438
 31
0.0
  0
LINE
  5
351C2
102
{ACAD_REACTORS
330
35547
102
}
330
747D
100
AcDbEntity
  8
部品1
100
AcDbLine
 10
13828.61354332902
 20
-29123.46023004437
 30
0.0
 11
13806.67423309982
 21
-29123.46023004437
 31
0.0
  0
LINE
  5
351C3
102
{ACAD_REACTORS
330
35547
102
}
330
747D
100
AcDbEntity
  8
部品1
100
AcDbLine
 10
13806.67423309982
 20
-29133.46023004437
 30
0.0
 11
13806.67423309982
 21
-29123.46023004437
 31
0.0
  0
LINE
  5
351C4
102
{ACAD_REACTORS
330
35547
102
}
330
747D
100
AcDbEntity
  8
部品1
100
AcDbLine
 10
13812.15906065712
 20
-29133.46023004437
 30
0.0
 11
13812.15906065712
 21
-29123.46023004437
 31
0.0
  0
LINE
  5
351C5
102
{ACAD_REACTORS
330
35547
102
}
330
747D
100
AcDbEntity
  8
部品1
100
AcDbLine
 10
13823.12871577172
 20
-29133.46023004437
 30
0.0
 11
13823.12871577172
 21
-29123.46023004437
 31
0.0
  0
LINE
  5
351C6
102
{ACAD_REACTORS
330
35547
102
}
330
747D
100
AcDbEntity
  8
部品1
100
AcDbLine
 10
13828.61354332902
 20
-29133.46023004437
 30
0.0
 11
13828.61354332902
 21
-29123.46023004437
 31
0.0
  0
LINE
  5
351C7
102
{ACAD_REACTORS
330
35547
102
}
330
747D
100
AcDbEntity
  8
部品1
100
AcDbLine
 10
13828.61354332902
 20
-29133.46023004437
 30
0.0
 11
13806.67423309982
 21
-29133.46023004437
 31
0.0
  0
LINE
  5
351C8
102
{ACAD_REACTORS
330
35547
102
}
330
747D
100
AcDbEntity
  8
部品1
100
AcDbLine
 10
13823.64388821442
 20
-29145.46023004437
 30
0.0
 11
13823.64388821442
 21
-29399.46023004437
 31
0.0
  0
LINE
  5
351C9
102
{ACAD_REACTORS
330
35548
102
}
330
747D
100
AcDbEntity
  8
部品1
100
AcDbLine
 10
13623.64388821442
 20
-29145.46023004437
 30
0.0
 11
13623.64388821442
 21
-29399.46023004437
 31
0.0
  0
LINE
  5
351CA
102
{ACAD_REACTORS
330
35548
102
}
330
747D
100
AcDbEntity
  8
部品1
100
AcDbLine
 10
13611.64388821442
 20
-29145.46023004437
 30
0.0
 11
13611.64388821442
 21
-29399.46023004437
 31
0.0
  0
LINE
  5
351CB
102
{ACAD_REACTORS
330
35548
102
}
330
747D
100
AcDbEntity
  8
部品1
100
AcDbLine
 10
13606.67423309982
 20
-29133.46023004437
 30
0.0
 11
13628.61354332902
 21
-29133.46023004437
 31
0.0
  0
LINE
  5
351CC
102
{ACAD_REACTORS
330
35548
102
}
330
747D
100
AcDbEntity
  8
部品1
100
AcDbLine
 10
13606.67423309982
 20
-29133.46023004437
 30
0.0
 11
13606.67423309982
 21
-29123.46023004437
 31
0.0
  0
LINE
  5
351CD
102
{ACAD_REACTORS
330
35548
102
}
330
747D
100
AcDbEntity
  8
部品1
100
AcDbLine
 10
13612.15906065712
 20
-29133.46023004437
 30
0.0
 11
13612.15906065712
 21
-29123.46023004437
 31
0.0
  0
LINE
  5
351CE
102
{ACAD_REACTORS
330
35548
102
}
330
747D
100
AcDbEntity
  8
部品1
100
AcDbLine
 10
13623.12871577172
 20
-29133.46023004437
 30
0.0
 11
13623.12871577172
 21
-29123.46023004437
 31
0.0
  0
LINE
  5
351CF
102
{ACAD_REACTORS
330
35548
102
}
330
747D
100
AcDbEntity
  8
部品1
100
AcDbLine
 10
13628.61354332902
 20
-29133.46023004437
 30
0.0
 11
13628.61354332902
 21
-29123.46023004437
 31
0.0
  0
LINE
  5
351D0
102
{ACAD_REACTORS
330
35548
102
}
330
747D
100
AcDbEntity
  8
部品1
100
AcDbLine
 10
13606.67423309982
 20
-29123.46023004437
 30
0.0
 11
13628.61354332902
 21
-29123.46023004437
 31
0.0
  0
ARC
  5
351D1
102
{ACAD_REACTORS
330
35548
102
}
330
747D
100
AcDbEntity
  8
部品1
100
AcDbCircle
 10
13586.64388821442
 20
-29399.46023004437
 30
0.0
 40
37.0
100
AcDbArc
 50
270.0
 51
0.0
  0
ARC
  5
351D2
102
{ACAD_REACTORS
330
35548
102
}
330
747D
100
AcDbEntity
  8
部品1
100
AcDbCircle
 10
13586.64388821442
 20
-29399.46023004437
 30
0.0
 40
25.0
100
AcDbArc
 50
270.0
 51
0.0
  0
LINE
  5
351D3
102
{ACAD_REACTORS
330
35548
102
}
330
747D
100
AcDbEntity
  8
部品1
100
AcDbLine
 10
13567.64388821442
 20
-29424.46023004437
 30
0.0
 11
13567.64388821442
 21
-29436.46023004437
 31
0.0
  0
LINE
  5
351D4
102
{ACAD_REACTORS
330
35548
102
}
330
747D
100
AcDbEntity
  8
部品1
100
AcDbLine
 10
13586.64388821442
 20
-29436.46023004437
 30
0.0
 11
13567.64388821442
 21
-29436.46023004437
 31
0.0
  0
LINE
  5
351D5
102
{ACAD_REACTORS
330
35548
102
}
330
747D
100
AcDbEntity
  8
部品1
100
AcDbLine
 10
13586.64388821442
 20
-29424.46023004437
 30
0.0
 11
13567.64388821442
 21
-29424.46023004437
 31
0.0
  0
LINE
  5
351D6
102
{ACAD_REACTORS
330
35548
102
}
330
747D
100
AcDbEntity
  8
部品1
100
AcDbLine
 10
13623.64388821442
 20
-29115.46023004437
 30
0.0
 11
13623.64388821442
 21
-29123.46023004438
 31
0.0
  0
LINE
  5
351D7
102
{ACAD_REACTORS
330
35548
102
}
330
747D
100
AcDbEntity
  8
部品1
100
AcDbLine
 10
13611.64388821442
 20
-29115.46023004437
 30
0.0
 11
13611.64388821442
 21
-29123.46023004437
 31
0.0
  0
LINE
  5
351D8
102
{ACAD_REACTORS
330
35548
102
}
330
747D
100
AcDbEntity
  8
部品1
100
AcDbLine
 10
13611.64388821442
 20
-29115.46023004437
 30
0.0
 11
13623.64388821442
 21
-29115.46023004437
 31
0.0
  0
LINE
  5
351D9
330
747D
100
AcDbEntity
  8
CSLAYER17
  6
Continuous
 62
     7
100
AcDbLine
 10
13841.19388821442
 20
-29083.46023004437
 30
0.0
 11
13851.19388821442
 21
-29093.46023004437
 31
0.0
  0
LINE
  5
351DA
330
747D
100
AcDbEntity
  8
CSLAYER17
  6
Continuous
 62
     7
100
AcDbLine
 10
13594.09388821442
 20
-29083.46023004437
 30
0.0
 11
13584.09388821442
 21
-29093.46023004437
 31
0.0
  0
LINE
  5
351DB
330
747D
100
AcDbEntity
  8
CSLAYER17
  6
Continuous
 62
     7
100
AcDbLine
 10
13672.59388821442
 20
-29123.46023004437
 30
0.0
 11
13662.59388821442
 21
-29133.46023004437
 31
0.0
  0
LINE
  5
351DC
330
747D
100
AcDbEntity
  8
部品1
100
AcDbLine
 10
13672.59388821442
 20
-29083.46023004437
 30
0.0
 11
13672.59388821442
 21
-29123.46023004437
 31
0.0
  0
LINE
  5
351DD
330
747D
100
AcDbEntity
  8
部品1
100
AcDbLine
 10
13762.69388821442
 20
-29083.46023004437
 30
0.0
 11
13762.69388821442
 21
-29123.46023004437
 31
0.0
  0
LINE
  5
351DE
330
747D
100
AcDbEntity
  8
CSLAYER17
  6
Continuous
 62
     7
100
AcDbLine
 10
13762.69388821442
 20
-29123.46023004437
 30
0.0
 11
13772.69388821442
 21
-29133.46023004437
 31
0.0
  0
LINE
  5
351DF
330
747D
100
AcDbEntity
  8
CSLAYER17
  6
Continuous
 62
     7
100
AcDbLine
 10
13762.69388821442
 20
-29083.46023004437
 30
0.0
 11
13841.19388821442
 21
-29083.46023004437
 31
0.0
  0
LINE
  5
351E0
330
747D
100
AcDbEntity
  8
CSLAYER17
  6
Continuous
 62
     7
100
AcDbLine
 10
13584.09388821442
 20
-29093.46023004437
 30
0.0
 11
13584.09388821442
 21
-29133.46023004437
 31
0.0
  0
LINE
  5
351E1
330
747D
100
AcDbEntity
  8
CSLAYER17
  6
Continuous
 62
     7
100
AcDbLine
 10
13851.19388821442
 20
-29093.46023004437
 30
0.0
 11
13851.19388821442
 21
-29133.46023004437
 31
0.0
  0
LINE
  5
351E2
330
747D
100
AcDbEntity
  8
CSLAYER17
  6
Continuous
 62
     7
100
AcDbLine
 10
13594.09388821442
 20
-29083.46023004437
 30
0.0
 11
13672.59388821442
 21
-29083.46023004437
 31
0.0
  0
LINE
  5
351E3
330
747D
100
AcDbEntity
  8
CSLAYER17
  6
Continuous
 62
     7
100
AcDbLine
 10
13715.39388821442
 20
-29083.46023004437
 30
0.0
 11
13719.89388821442
 21
-29083.46023004437
 31
0.0
  0
LINE
  5
351E4
330
747D
100
AcDbEntity
  8
CSLAYER17
  6
Continuous
 62
     7
100
AcDbLine
 10
13719.89388821442
 20
-29083.46023004437
 30
0.0
 11
13719.89388821442
 21
-29133.46023004437
 31
0.0
  0
LINE
  5
351E5
330
747D
100
AcDbEntity
  8
CSLAYER17
  6
Continuous
 62
     7
100
AcDbLine
 10
13715.39388821442
 20
-29083.46023004437
 30
0.0
 11
13715.39388821442
 21
-29133.46023004437
 31
0.0
  0
LINE
  5
351E6
330
747D
100
AcDbEntity
  8
CSLAYER17
  6
Continuous
 62
     7
100
AcDbLine
 10
13857.64388821442
 20
-29133.46023004437
 30
0.0
 11
13857.64388821442
 21
-29145.46023004437
 31
0.0
  0
LINE
  5
351E7
330
747D
100
AcDbEntity
  8
CSLAYER17
  6
Continuous
 62
     7
100
AcDbLine
 10
13577.64388821442
 20
-29145.46023004437
 30
0.0
 11
13577.64388821442
 21
-29133.46023004437
 31
0.0
  0
LINE
  5
351E8
330
747D
100
AcDbEntity
  8
CSLAYER17
  6
Continuous
 62
     7
100
AcDbLine
 10
13577.64388821442
 20
-29133.46023004437
 30
0.0
 11
13857.64388821442
 21
-29133.46023004437
 31
0.0
  0
LINE
  5
351E9
330
747D
100
AcDbEntity
  8
CSLAYER17
  6
Continuous
 62
     7
100
AcDbLine
 10
13577.64388821442
 20
-29145.46023004437
 30
0.0
 11
13857.64388821442
 21
-29145.46023004437
 31
0.0
  0
LINE
  5
351EA
330
747D
100
AcDbEntity
  8
部品1
 48
50.0
100
AcDbLine
 10
13762.30712010994
 20
-29133.46023004437
 30
0.0
 11
13673.09388821442
 21
-29133.46023004437
 31
0.0
  0
DIMENSION
  5
351EB
330
747D
100
AcDbEntity
  8
寸法
 48
50.0
100
AcDbDimension
  2
*D24
 10
12917.64388821441
 20
-30297.16242077716
 30
0.0
 11
13467.64388821441
 21
-30222.16242077716
 31
0.0
 70
    32
 71
     5
 42
1099.999999999992
  3
INABA_S30G
100
AcDbAlignedDimension
 13
14017.64388821441
 23
-29625.46023004438
 33
0.0
 14
12917.64388821441
 24
-29625.46023004438
 34
0.0
100
AcDbRotatedDimension
  0
DIMENSION
  5
351EC
330
747D
100
AcDbEntity
  8
寸法
 48
50.0
100
AcDbDimension
  2
*D25
 10
14310.08525281511
 20
-29675.46023004437
 30
0.0
 11
14310.08525281512
 21
-29908.01928516248
 31
0.0
 70
   160
 71
     5
 42
50.0
  3
INABA_S30G
100
AcDbAlignedDimension
 13
14097.64388821441
 23
-29625.46023004438
 33
0.0
 14
14097.64388821441
 24
-29675.46023004437
 34
0.0
 50
90.0
100
AcDbRotatedDimension
  0
DIMENSION
  5
351ED
330
747D
100
AcDbEntity
  8
寸法
 48
50.0
100
AcDbDimension
  2
*D26
 10
13717.64388821442
 20
-30067.07685968842
 30
0.0
 11
13317.64388821442
 21
-29992.07685968842
 31
0.0
 70
    32
 71
     5
 42
800.0000000000072
  3
INABA_S30G
100
AcDbAlignedDimension
 13
12917.64388821441
 23
-29625.46023004438
 33
0.0
 14
13717.64388821442
 24
-29196.51806187424
 34
0.0
100
AcDbRotatedDimension
  0
DIMENSION
  5
351EE
330
747D
100
AcDbEntity
  8
寸法
 48
50.0
100
AcDbDimension
  2
*D27
 10
14017.64388821441
 20
-30067.07685968842
 30
0.0
 11
13867.64388821441
 21
-29992.07685968842
 31
0.0
 70
    32
 71
     5
 42
299.9999999999854
  3
INABA_S30G
100
AcDbAlignedDimension
 13
13717.64388821442
 23
-29196.51806187424
 33
0.0
 14
14017.64388821441
 24
-29625.46023004438
 34
0.0
100
AcDbRotatedDimension
  0
DIMENSION
  5
351EF
330
747D
100
AcDbEntity
  8
寸法
 48
50.0
100
AcDbDimension
  2
*D28
 10
12264.94695001284
 20
-29175.46023004438
 30
0.0
 11
12264.94695001284
 21
-29352.49566311524
 31
0.0
 70
   160
 71
     5
 42
100.0
  3
INABA_S30G
100
AcDbAlignedDimension
 13
12415.52807711473
 23
-29075.46023004437
 33
0.0
 14
12415.52807711473
 24
-29175.46023004438
 34
0.0
 50
90.0
100
AcDbRotatedDimension
  0
DIMENSION
  5
351F0
330
747D
100
AcDbEntity
  8
寸法
 48
50.0
100
AcDbDimension
  2
*D29
 10
12264.94695001284
 20
-28975.46023004437
 30
0.0
 11
12264.94695001284
 21
-28798.4247969735
 31
0.0
 70
   160
 71
     5
 42
100.0
  3
INABA_S30G
100
AcDbAlignedDimension
 13
12415.52807711473
 23
-29075.46023004437
 33
0.0
 14
12415.52807711473
 24
-28975.46023004437
 34
0.0
 50
90.0
100
AcDbRotatedDimension
  0
LINE
  5
3524A
330
747D
100
AcDbEntity
  8
部品1
 48
50.0
100
AcDbLine
 10
12837.64388821442
 20
-29625.46023004438
 30
0.0
 11
12837.64388821442
 21
-29775.46023004437
 31
0.0
  0
LINE
  5
3524B
330
747D
100
AcDbEntity
  8
部品1
 48
50.0
100
AcDbLine
 10
14097.64388821441
 20
-29625.46023004438
 30
0.0
 11
14097.64388821441
 21
-29775.46023004437
 31
0.0
  0
LINE
  5
35255
330
747D
100
AcDbEntity
  8
部品1
 48
50.0
100
AcDbLine
 10
13645.09388821443
 20
-28975.46023004437
 30
0.0
 11
12415.52807711474
 21
-28975.46023004437
 31
0.0
  0
LINE
  5
35256
330
747D
100
AcDbEntity
  8
部品1
 48
50.0
100
AcDbLine
 10
13776.19388821442
 20
-28961.46023004437
 30
0.0
 11
13790.19388821442
 21
-28975.46023004437
 31
0.0
  0
LINE
  5
35257
330
747D
100
AcDbEntity
  8
部品1
 48
50.0
100
AcDbLine
 10
13762.19388821442
 20
-28961.46023004437
 30
0.0
 11
13776.19388821442
 21
-28961.46023004437
 31
0.0
  0
LINE
  5
35258
330
747D
100
AcDbEntity
  8
部品1
 48
50.0
100
AcDbLine
 10
13659.09388821442
 20
-28961.46023004437
 30
0.0
 11
13673.09388821442
 21
-28961.46023004437
 31
0.0
  0
LINE
  5
35259
330
747D
100
AcDbEntity
  8
部品1
 48
50.0
100
AcDbLine
 10
13659.09388821442
 20
-28961.46023004437
 30
0.0
 11
13645.09388821442
 21
-28975.46023004437
 31
0.0
  0
TEXT
  5
35293
330
747D
100
AcDbEntity
  8
寸法
 62
     7
 48
50.0
100
AcDbText
 10
13024.19805308986
 20
-28715.46577820023
 30
0.0
 40
90.0
  1
水勾配
 41
0.8
  7
STYLE1
100
AcDbText
  0
TEXT
  5
35294
330
747D
100
AcDbEntity
  8
寸法
 62
     7
 48
50.0
100
AcDbText
 10
12990.93456011854
 20
-28863.80429032233
 30
0.0
 40
90.0
  1
１／１００
 41
0.8
  7
STYLE1
100
AcDbText
  0
LINE
  5
35295
330
747D
100
AcDbEntity
  8
寸法
 48
50.0
100
AcDbLine
 10
12925.96461209022
 20
-28900.85281384222
 30
0.0
 11
12994.61582995536
 21
-28919.24785222859
 31
0.0
  0
LINE
  5
35296
330
747D
100
AcDbEntity
  8
寸法
 48
50.0
100
AcDbLine
 10
12925.96461209022
 20
-28900.85281384222
 30
0.0
 11
12994.61582995536
 21
-28882.45777545583
 31
0.0
  0
LINE
  5
35297
330
747D
100
AcDbEntity
  8
寸法
 48
50.0
100
AcDbLine
 10
12925.96461209022
 20
-28900.85281384222
 30
0.0
 11
13555.21710767806
 21
-28900.85281384222
 31
0.0
  0
LINE
  5
35298
330
747D
100
AcDbEntity
  8
部品1
 48
50.0
100
AcDbLine
 10
14097.64388821441
 20
-29775.46023004437
 30
0.0
 11
12837.64388821442
 21
-29775.46023004437
 31
0.0
  0
LINE
  5
35299
330
747D
100
AcDbEntity
  8
部品1
 48
50.0
100
AcDbLine
 10
12917.64388821442
 20
-29175.46023004438
 30
0.0
 11
12415.52807711474
 21
-29175.46023004438
 31
0.0
  0
LINE
  5
3529A
330
747D
100
AcDbEntity
  8
部品1
 48
50.0
100
AcDbLine
 10
14017.64388821441
 20
-29075.46023004437
 30
0.0
 11
13917.64388821442
 21
-29075.46023004437
 31
0.0
  0
LINE
  5
3529B
330
747D
100
AcDbEntity
  8
部品1
 48
50.0
100
AcDbLine
 10
13907.64388821442
 20
-28975.46023004437
 30
0.0
 11
13917.64388821442
 21
-28985.46023004437
 31
0.0
  0
LINE
  5
3529C
330
747D
100
AcDbEntity
  8
部品1
 48
50.0
100
AcDbLine
 10
13907.64388821442
 20
-28975.46023004437
 30
0.0
 11
13790.19388821442
 21
-28975.46023004437
 31
0.0
  0
LINE
  5
3529D
330
747D
100
AcDbEntity
  8
部品1
 48
50.0
100
AcDbLine
 10
13917.64388821442
 20
-29075.46023004437
 30
0.0
 11
13917.64388821442
 21
-28985.46023004437
 31
0.0
  0
DIMENSION
  5
3529E
330
747D
100
AcDbEntity
  8
寸法
 48
50.0
100
AcDbDimension
  2
*D30
 10
13917.64388821442
 20
-28262.68233074936
 30
0.0
 11
13817.64388821442
 21
-28187.67347248164
 31
0.0
 70
    32
 71
     5
 42
200.0
  3
INABA_S30G
100
AcDbAlignedDimension
 13
13717.64388821442
 23
-28550.98739718933
 33
0.0
 14
13917.64388821442
 24
-28985.46023004437
 34
0.0
100
AcDbRotatedDimension
  0
DIMENSION
  5
3529F
330
747D
100
AcDbEntity
  8
寸法
 48
50.0
100
AcDbDimension
  2
*D31
 10
14310.08525281511
 20
-28975.46023004437
 30
0.0
 11
14310.08525281512
 21
-28745.9247969735
 31
0.0
 70
   160
 71
     5
 42
50.0
  3
INABA_S30G
100
AcDbAlignedDimension
 13
14082.44176577793
 23
-29025.46023004438
 33
0.0
 14
13907.64388821442
 24
-28975.46023004437
 34
0.0
 50
90.0
100
AcDbRotatedDimension
  0
DIMENSION
  5
352A0
330
747D
100
AcDbEntity
  8
寸法
 48
50.0
100
AcDbDimension
  2
*D32
 10
14310.08525281512
 20
-29625.46023004438
 30
0.0
 11
14235.08525281513
 21
-29325.46023004437
 31
0.0
 70
    32
 71
     5
 42
600.0
  3
INABA_S30G
100
AcDbAlignedDimension
 13
14082.44176577793
 23
-29025.46023004438
 33
0.0
 14
14097.64388821441
 24
-29625.46023004438
 34
0.0
 50
90.0
100
AcDbRotatedDimension
  0
LINE
  5
352A1
330
747D
100
AcDbEntity
  8
部品1
 48
50.0
100
AcDbLine
 10
14097.64388821441
 20
-29625.46023004438
 30
0.0
 11
12837.64388821442
 21
-29625.46023004438
 31
0.0
  0
LINE
  5
352A2
330
747D
100
AcDbEntity
  8
部品1
 48
50.0
100
AcDbLine
 10
13673.09388821442
 20
-28629.52713409946
 30
0.0
 11
13673.09388821442
 21
-29133.46023004437
 31
0.0
  0
LINE
  5
352A3
330
747D
100
AcDbEntity
  8
部品1
 48
50.0
100
AcDbLine
 10
13762.19388821442
 20
-28629.52713409946
 30
0.0
 11
13762.19388821442
 21
-29133.46023004437
 31
0.0
  0
LINE
  5
352A4
330
747D
100
AcDbEntity
  8
Ｇ．Ｌ
 48
50.0
100
AcDbLine
 10
13917.64388821442
 20
-29025.46023004438
 30
0.0
 11
14971.75783871921
 21
-29025.46023004438
 31
0.0
  0
MTEXT
  5
352A5
330
747D
100
AcDbEntity
  8
寸法
 62
     7
 48
50.0
100
AcDbMText
 10
14438.56448002897
 20
-28973.18750277165
 30
0.0
 40
100.0
 41
1.0
 71
     4
 72
     1
  1
▽G.L
  7
STYLE2
 73
     1
 44
1.0
1001
ACAD
1000
MTEXTBEGIN
1070
    73
1070
     1
1070
    44
1040
1.0
1070
    74
1070
     0
1000
MTEXTEND
  0
LINE
  5
352A6
330
747D
100
AcDbEntity
  8
部品1
 48
50.0
100
AcDbLine
 10
12917.64388821442
 20
-29075.46023004437
 30
0.0
 11
12917.64388821442
 21
-29625.46023004438
 31
0.0
  0
LINE
  5
352A7
330
747D
100
AcDbEntity
  8
センター
 48
10.0
100
AcDbLine
 10
13717.64388821442
 20
-28550.98739718933
 30
0.0
 11
13717.64388821442
 21
-29196.51806187424
 31
0.0
  0
LINE
  5
352A8
330
747D
100
AcDbEntity
  8
部品1
 48
50.0
100
AcDbLine
 10
14017.64388821441
 20
-29625.46023004438
 30
0.0
 11
14017.64388821441
 21
-29075.46023004437
 31
0.0
  0
LINE
  5
352AA
330
747D
100
AcDbEntity
  8
文字
 48
50.0
100
AcDbLine
 10
13071.76981800939
 20
-30688.64810221616
 30
0.0
 11
13906.94907035777
 21
-30688.64810221616
 31
0.0
  0
LINE
  5
352AB
330
747D
100
AcDbEntity
  8
文字
 48
50.0
100
AcDbLine
 10
13071.76981800939
 20
-30911.77310221616
 30
0.0
 11
13906.94907035777
 21
-30911.77310221616
 31
0.0
  0
TEXT
  5
352AC
330
747D
100
AcDbEntity
  8
文字
 62
     7
 48
50.0
100
AcDbText
 10
13138.3546254221
 20
-30854.28956124278
 30
0.0
 40
112.5
  1
A-A' 断面
  7
STYLE2
100
AcDbText
  0
LINE
  5
352AD
330
747D
100
AcDbEntity
  8
文字
 48
50.0
100
AcDbLine
 10
13071.76981800939
 20
-30688.64810221616
 30
0.0
 11
13071.76981800939
 21
-30911.77310221616
 31
0.0
  0
LINE
  5
352AE
330
747D
100
AcDbEntity
  8
文字
 48
50.0
100
AcDbLine
 10
13906.94907035777
 20
-30688.64810221616
 30
0.0
 11
13906.94907035777
 21
-30911.77310221616
 31
0.0
  0
LINE
  5
352AF
330
747D
100
AcDbEntity
  8
部品1
 48
50.0
100
AcDbLine
 10
14097.64388821441
 20
-29675.46023004437
 30
0.0
 11
12837.64388821442
 21
-29675.46023004437
 31
0.0
  0
HATCH
  5
35ACF
102
{ACAD_REACTORS
330
35AF0
102
}
330
747D
100
AcDbEntity
  8
細線
 48
50.0
100
AcDbHatch
 10
0.0
 20
0.0
 30
0.0
210
0.0
220
0.0
230
1.0
  2
LINE
 70
     0
 71
     0
 91
        4
 92
        7
 72
     0
 73
     1
 93
        5
 10
12837.64388821442
 20
-29754.39032925069
 10
12837.64388821442
 20
-29775.46023004438
 10
13223.3725753047
 20
-29775.46023004437
 10
13323.37257530469
 20
-29675.46023004438
 10
12905.25637167489
 20
-29675.46023004438
 97
        0
 92
       23
 72
     0
 73
     1
 93
        3
 10
12905.2563716749
 20
-29675.46023004437
 10
12837.64388821442
 20
-29675.46023004437
 10
12837.64388821442
 20
-29754.39032925068
 97
        0
 92
        7
 72
     0
 73
     1
 93
        4
 10
13885.18412755439
 20
-29775.46023004437
 10
13794.62183601927
 20
-29675.46023004438
 10
13323.37257530471
 20
-29675.46023004437
 10
13223.3725753047
 20
-29775.46023004438
 97
        0
 92
        7
 72
     0
 73
     1
 93
        4
 10
13885.18412755438
 20
-29775.46023004437
 10
14097.64388821441
 20
-29775.46023004437
 10
14097.64388821441
 20
-29675.46023004438
 10
13794.62183601927
 20
-29675.46023004437
 97
        0
 75
     0
 76
     1
 52
75.0
 41
37.5
 77
     0
 78
     1
 53
75.0
 43
10086.47367408899
 44
-841.3565322801151
 45
-115.0055436925422
 46
30.81564255751887
 79
     0
 47
3.330068210733803
 98
        4
 10
12877.83273090187
 20
-29736.56391258523
 10
12861.1703572004
 20
-29696.60309156941
 10
13421.02566241874
 20
-29726.57371236333
 10
13897.56917074101
 20
-29729.90378581337
  0
LINE
  5
35AD0
102
{ACAD_REACTORS
330
35AF0
102
}
330
747D
100
AcDbEntity
  8
細線
 48
50.0
100
AcDbLine
 10
12947.58245396276
 20
-29775.46023004437
 30
0.0
 11
12940.88372415197
 21
-29750.46023004437
 31
0.0
  0
LINE
  5
35AD1
102
{ACAD_REACTORS
330
35AF0
102
}
330
747D
100
AcDbEntity
  8
細線
 48
50.0
100
AcDbLine
 10
13070.84502419283
 20
-29775.46023004437
 30
0.0
 11
13064.14629438205
 21
-29750.46023004437
 31
0.0
  0
LINE
  5
35AD2
102
{ACAD_REACTORS
330
35AF0
102
}
330
747D
100
AcDbEntity
  8
細線
 48
50.0
100
AcDbLine
 10
13194.10759442291
 20
-29775.46023004437
 30
0.0
 11
13187.40886461212
 21
-29750.46023004437
 31
0.0
  0
LINE
  5
35AD3
102
{ACAD_REACTORS
330
35AF0
102
}
330
747D
100
AcDbEntity
  8
細線
 48
50.0
100
AcDbLine
 10
13317.37016465298
 20
-29775.46023004437
 30
0.0
 11
13310.6714348422
 21
-29750.46023004437
 31
0.0
  0
LINE
  5
35AD4
102
{ACAD_REACTORS
330
35AF0
102
}
330
747D
100
AcDbEntity
  8
細線
 48
50.0
100
AcDbLine
 10
13440.63273488306
 20
-29775.46023004437
 30
0.0
 11
13433.93400507228
 21
-29750.46023004437
 31
0.0
  0
LINE
  5
35AD5
102
{ACAD_REACTORS
330
35AF0
102
}
330
747D
100
AcDbEntity
  8
細線
 48
50.0
100
AcDbLine
 10
13563.89530511313
 20
-29775.46023004438
 30
0.0
 11
13557.19657530235
 21
-29750.46023004438
 31
0.0
  0
LINE
  5
35AD6
102
{ACAD_REACTORS
330
35AF0
102
}
330
747D
100
AcDbEntity
  8
細線
 48
50.0
100
AcDbLine
 10
13687.15787534321
 20
-29775.46023004437
 30
0.0
 11
13680.45914553243
 21
-29750.46023004437
 31
0.0
  0
LINE
  5
35AD7
102
{ACAD_REACTORS
330
35AF0
102
}
330
747D
100
AcDbEntity
  8
細線
 48
50.0
100
AcDbLine
 10
13810.42044557329
 20
-29775.46023004437
 30
0.0
 11
13803.7217157625
 21
-29750.46023004437
 31
0.0
  0
LINE
  5
35AD8
102
{ACAD_REACTORS
330
35AF0
102
}
330
747D
100
AcDbEntity
  8
細線
 48
50.0
100
AcDbLine
 10
13933.68301580336
 20
-29775.46023004437
 30
0.0
 11
13926.98428599258
 21
-29750.46023004437
 31
0.0
  0
LINE
  5
35AD9
102
{ACAD_REACTORS
330
35AF0
102
}
330
747D
100
AcDbEntity
  8
細線
 48
50.0
100
AcDbLine
 10
14056.94558603343
 20
-29775.46023004438
 30
0.0
 11
14050.24685622265
 21
-29750.46023004438
 31
0.0
  0
LINE
  5
35ADA
102
{ACAD_REACTORS
330
35AF0
102
}
330
747D
100
AcDbEntity
  8
細線
 48
50.0
100
AcDbLine
 10
14063.64431584421
 20
-29700.46023004437
 30
0.0
 11
14056.94558603343
 21
-29675.46023004437
 31
0.0
  0
LINE
  5
35ADB
102
{ACAD_REACTORS
330
35AF0
102
}
330
747D
100
AcDbEntity
  8
細線
 48
50.0
100
AcDbLine
 10
13940.38174561413
 20
-29700.46023004437
 30
0.0
 11
13933.68301580335
 21
-29675.46023004437
 31
0.0
  0
LINE
  5
35ADC
102
{ACAD_REACTORS
330
35AF0
102
}
330
747D
100
AcDbEntity
  8
細線
 48
50.0
100
AcDbLine
 10
13817.11917538406
 20
-29700.46023004437
 30
0.0
 11
13810.42044557328
 21
-29675.46023004437
 31
0.0
  0
LINE
  5
35ADD
102
{ACAD_REACTORS
330
35AF0
102
}
330
747D
100
AcDbEntity
  8
細線
 48
50.0
100
AcDbLine
 10
13693.85660515398
 20
-29700.46023004437
 30
0.0
 11
13687.1578753432
 21
-29675.46023004437
 31
0.0
  0
LINE
  5
35ADE
102
{ACAD_REACTORS
330
35AF0
102
}
330
747D
100
AcDbEntity
  8
細線
 48
50.0
100
AcDbLine
 10
13570.5940349239
 20
-29700.46023004438
 30
0.0
 11
13563.89530511313
 21
-29675.46023004438
 31
0.0
  0
LINE
  5
35ADF
102
{ACAD_REACTORS
330
35AF0
102
}
330
747D
100
AcDbEntity
  8
細線
 48
50.0
100
AcDbLine
 10
13447.33146469383
 20
-29700.46023004437
 30
0.0
 11
13440.63273488306
 21
-29675.46023004437
 31
0.0
  0
LINE
  5
35AE0
102
{ACAD_REACTORS
330
35AF0
102
}
330
747D
100
AcDbEntity
  8
細線
 48
50.0
100
AcDbLine
 10
13324.06889446375
 20
-29700.46023004438
 30
0.0
 11
13317.37016465297
 21
-29675.46023004438
 31
0.0
  0
LINE
  5
35AE1
102
{ACAD_REACTORS
330
35AF0
102
}
330
747D
100
AcDbEntity
  8
細線
 48
50.0
100
AcDbLine
 10
12954.28118377353
 20
-29700.46023004437
 30
0.0
 11
12947.58245396275
 21
-29675.46023004437
 31
0.0
  0
LINE
  5
35AE2
102
{ACAD_REACTORS
330
35AF0
102
}
330
747D
100
AcDbEntity
  8
細線
 48
50.0
100
AcDbLine
 10
13077.5437540036
 20
-29700.46023004437
 30
0.0
 11
13070.84502419282
 21
-29675.46023004437
 31
0.0
  0
LINE
  5
35AE3
102
{ACAD_REACTORS
330
35AF0
102
}
330
747D
100
AcDbEntity
  8
細線
 48
50.0
100
AcDbLine
 10
13200.80632423368
 20
-29700.46023004437
 30
0.0
 11
13194.1075944229
 21
-29675.46023004437
 31
0.0
  0
HATCH
  5
35AE4
102
{ACAD_REACTORS
330
35AF0
102
}
330
747D
100
AcDbEntity
  8
細線
 48
50.0
100
AcDbHatch
 10
0.0
 20
0.0
 30
0.0
210
0.0
220
0.0
230
1.0
  2
PLAST
 70
     0
 71
     0
 91
        5
 92
        7
 72
     0
 73
     1
 93
        4
 10
13323.37257530471
 20
-29675.46023004437
 10
13373.3725753047
 20
-29625.46023004438
 10
12948.08698011222
 20
-29625.46023004438
 10
12905.2563716749
 20
-29675.46023004438
 97
        0
 92
        7
 72
     0
 73
     1
 93
        4
 10
12905.2563716749
 20
-29675.46023004437
 10
12948.08698011221
 20
-29625.46023004438
 10
12837.64388821442
 20
-29625.46023004438
 10
12837.64388821442
 20
-29675.46023004438
 97
        0
 92
        7
 72
     0
 73
     1
 93
        5
 10
13717.64388821442
 20
-29675.46023004437
 10
13717.64388821442
 20
-29625.46023004437
 10
13673.09388821442
 20
-29625.46023004437
 10
13373.3725753047
 20
-29625.46023004437
 10
13323.3725753047
 20
-29675.46023004438
 97
        0
 92
        7
 72
     0
 73
     1
 93
        4
 10
13717.64388821442
 20
-29675.46023004437
 10
13794.62183601927
 20
-29675.46023004437
 10
13749.34069025171
 20
-29625.46023004438
 10
13717.64388821442
 20
-29625.46023004438
 97
        0
 92
        7
 72
     0
 73
     1
 93
        4
 10
13749.34069025172
 20
-29625.46023004438
 10
13794.62183601927
 20
-29675.46023004438
 10
14097.64388821441
 20
-29675.46023004437
 10
14097.64388821441
 20
-29625.46023004438
 97
        0
 75
     0
 76
     1
 52
45.0
 41
37.5
 77
     0
 78
     3
 53
45.0
 43
10086.47367408899
 44
-841.3565322801151
 45
-168.3798022700466
 46
168.3798022700466
 79
     0
 53
45.0
 43
10065.42619880524
 44
-820.3090569963606
 45
-168.3798022700466
 46
168.3798022700466
 79
     0
 53
45.0
 43
10044.37872352148
 44
-799.2615817126025
 45
-168.3798022700466
 46
168.3798022700466
 79
     0
 47
2.357055197808914
 98
        5
 10
13134.29638658532
 20
-29652.25258710718
 10
12881.90941890021
 20
-29652.25258710718
 10
13429.14097701029
 20
-29654.60964217235
 10
13735.77933959445
 20
-29652.25258710718
 10
13820.69458507418
 20
-29647.53847697684
  0
HATCH
  5
35AE5
102
{ACAD_REACTORS
330
35AF0
102
}
330
747D
100
AcDbEntity
  8
細線
 48
50.0
100
AcDbHatch
 10
0.0
 20
0.0
 30
0.0
210
0.0
220
0.0
230
1.0
  2
PLAST
 70
     0
 71
     0
 91
       15
 92
        7
 72
     1
 73
     1
 93
       43
 10
13222.64388821442
 20
-29545.46023004438
 42
-0.4142135623735213
 10
13217.64388821442
 20
-29550.46023004438
 42
0.0
 10
13417.64388821442
 20
-29550.46023004438
 42
-0.4142135623735213
 10
13412.64388821442
 20
-29545.46023004438
 42
-1.0
 10
13422.64388821442
 20
-29545.46023004438
 42
-0.4142135623735213
 10
13417.64388821442
 20
-29550.46023004438
 42
0.0
 10
13448.3725753047
 20
-29550.46023004438
 42
0.0
 10
13485.37257530471
 20
-29513.46023004438
 42
0.0
 10
13342.19388821443
 20
-29513.46023004438
 42
0.0
 10
13342.19388821443
 20
-29500.46023004438
 42
0.0
 10
13487.64388821443
 20
-29500.46023004437
 42
0.1260483184576957
 10
13502.06739747678
 20
-29496.76540787231
 42
0.0
 10
13513.94906604236
 20
-29484.88373930672
 42
0.1260483184577314
 10
13517.64388821443
 20
-29470.46023004437
 42
0.0
 10
13517.64388821443
 20
-29440.46023004437
 42
0.0
 10
13512.64388821443
 20
-29440.46023004437
 42
-0.4142135623730951
 10
13507.64388821443
 20
-29435.46023004437
 42
-0.4142135623730951
 10
13512.64388821443
 20
-29430.46023004437
 42
0.0
 10
13517.64388821443
 20
-29430.46023004438
 42
0.0
 10
13517.64388821443
 20
-29340.46023004437
 42
0.0
 10
13512.64388821443
 20
-29340.46023004437
 42
-0.4142135623733081
 10
13507.64388821443
 20
-29335.46023004437
 42
-0.4142135623730951
 10
13512.64388821443
 20
-29330.46023004438
 42
0.0
 10
13517.64388821443
 20
-29330.46023004438
 42
0.0
 10
13517.64388821443
 20
-29240.46023004438
 42
0.0
 10
13512.64388821443
 20
-29240.46023004438
 42
-0.4142135623730951
 10
13507.64388821443
 20
-29235.46023004437
 42
-0.4142135623730951
 10
13512.64388821443
 20
-29230.46023004437
 42
0.0
 10
13517.64388821443
 20
-29230.46023004438
 42
0.0
 10
13517.64388821443
 20
-29175.46023004437
 42
0.0
 10
12917.64388821442
 20
-29175.46023004438
 42
0.0
 10
12917.64388821442
 20
-29625.46023004438
 42
0.0
 10
12948.08698011221
 20
-29625.46023004438
 42
0.0
 10
13003.76677108072
 20
-29560.46023004438
 42
0.0
 10
13001.89388821442
 20
-29560.46023004438
 42
0.0
 10
13001.89388821442
 20
-29550.46023004438
 42
0.0
 10
13012.33289276819
 20
-29550.46023004437
 42
0.0
 10
13013.83810102506
 20
-29548.70306582026
 42
-0.1782786565740319
 10
13012.64388821442
 20
-29545.46023004438
 42
-1.0
 10
13022.64388821442
 20
-29545.46023004438
 42
-0.4142135623730951
 10
13017.64388821442
 20
-29550.46023004438
 42
0.0
 10
13217.64388821442
 20
-29550.46023004438
 42
-0.4142135623735213
 10
13212.64388821442
 20
-29545.46023004438
 42
-1.0
 97
        0
 92
       23
 72
     0
 73
     1
 93
        4
 10
13003.76677108072
 20
-29560.46023004438
 10
12948.08698011221
 20
-29625.46023004438
 10
13373.3725753047
 20
-29625.46023004438
 10
13438.3725753047
 20
-29560.46023004438
 97
        0
 92
        7
 72
     1
 73
     1
 93
       27
 10
13438.3725753047
 20
-29560.46023004438
 42
0.0
 10
13373.3725753047
 20
-29625.46023004437
 42
0.0
 10
14017.64388821441
 20
-29625.46023004437
 42
0.0
 10
14017.64388821441
 20
-29600.46023004435
 42
0.0
 10
13910.84658169499
 20
-29493.66292352494
 42
-0.2555649155476994
 10
13874.64388821443
 20
-29513.46023004438
 42
0.0
 10
13729.19388821443
 20
-29513.46023004437
 42
0.0
 10
13729.19388821443
 20
-29500.46023004438
 42
0.0
 10
13874.64388821443
 20
-29500.46023004437
 42
0.4142135623730951
 10
13904.64388821443
 20
-29470.46023004437
 42
0.0
 10
13904.64388821443
 20
-29440.46023004437
 42
0.0
 10
13558.37257530471
 20
-29440.46023004437
 42
0.0
 10
13530.64388821443
 20
-29468.18891713465
 42
0.0
 10
13530.64388821443
 20
-29470.46023004437
 42
-0.4142135623730951
 10
13487.64388821443
 20
-29513.46023004438
 42
0.0
 10
13485.37257530471
 20
-29513.46023004438
 42
0.0
 10
13448.37257530471
 20
-29550.46023004438
 42
0.0
 10
13617.64388821442
 20
-29550.46023004438
 42
-0.4142135623733081
 10
13612.64388821442
 20
-29545.46023004438
 42
-1.0
 10
13622.64388821442
 20
-29545.46023004438
 42
-0.4142135623735213
 10
13617.64388821442
 20
-29550.46023004438
 42
0.0
 10
13817.64388821442
 20
-29550.46023004438
 42
-0.4142135623735213
 10
13812.64388821442
 20
-29545.46023004438
 42
-1.0
 10
13822.64388821442
 20
-29545.46023004438
 42
-0.4142135623735213
 10
13817.64388821442
 20
-29550.46023004438
 42
0.0
 10
13833.36343665233
 20
-29550.46023004438
 42
0.0
 10
13833.36343665233
 20
-29560.46023004438
 42
0.0
 97
        0
 92
        7
 72
     1
 73
     1
 93
       13
 10
14017.64388821441
 20
-29386.46618226716
 42
0.0
 10
13927.53962220204
 20
-29334.44446002978
 42
-0.051189146983264
 10
13927.64388821443
 20
-29335.46023004437
 42
-0.4142135623726688
 10
13922.64388821443
 20
-29340.46023004436
 42
0.0
 10
13917.64388821443
 20
-29340.46023004436
 42
0.0
 10
13917.64388821443
 20
-29430.46023004437
 42
0.0
 10
13922.64388821443
 20
-29430.46023004437
 42
-0.414213562372882
 10
13927.64388821443
 20
-29435.46023004437
 42
-0.4142135623726688
 10
13922.64388821443
 20
-29440.46023004437
 42
0.0
 10
13917.64388821443
 20
-29440.46023004437
 42
0.0
 10
13917.64388821443
 20
-29470.46023004437
 42
-0.1434619830766963
 10
13910.84658169499
 20
-29493.66292352494
 42
0.0
 10
14017.64388821441
 20
-29600.46023004434
 42
0.0
 97
        0
 92
        7
 72
     1
 73
     1
 93
       12
 10
13917.64388821443
 20
-29328.73115534821
 42
0.0
 10
13920.63873343827
 20
-29330.46023004438
 42
0.0
 10
13922.64388821443
 20
-29330.46023004438
 42
-0.3554869408474657
 10
13927.53962220204
 20
-29334.44446002978
 42
0.0
 10
14017.64388821441
 20
-29386.46618226716
 42
0.0
 10
14017.64388821441
 20
-29175.46023004437
 42
0.0
 10
13917.64388821443
 20
-29175.46023004437
 42
0.0
 10
13917.64388821443
 20
-29230.46023004437
 42
0.0
 10
13922.64388821443
 20
-29230.46023004437
 42
-0.414213562372882
 10
13927.64388821443
 20
-29235.46023004437
 42
-0.4142135623726688
 10
13922.64388821443
 20
-29240.46023004437
 42
0.0
 10
13917.64388821443
 20
-29240.46023004437
 42
0.0
 97
        0
 92
        7
 72
     0
 73
     1
 93
        4
 10
13611.64388821442
 20
-29175.46023004437
 10
13530.64388821443
 20
-29175.46023004438
 10
13530.64388821443
 20
-29230.46023004437
 10
13611.64388821442
 20
-29230.46023004437
 97
        0
 92
        7
 72
     0
 73
     1
 93
        4
 10
13611.64388821442
 20
-29240.46023004438
 10
13530.64388821443
 20
-29240.46023004438
 10
13530.64388821443
 20
-29330.46023004438
 10
13611.64388821442
 20
-29330.46023004438
 97
        0
 92
        7
 72
     1
 73
     1
 93
        7
 10
13530.64388821443
 20
-29430.46023004437
 42
0.0
 10
13567.64388821442
 20
-29430.46023004437
 42
0.0
 10
13567.64388821442
 20
-29424.46023004437
 42
0.0
 10
13586.64388821442
 20
-29424.46023004437
 42
0.4142135623730951
 10
13611.64388821442
 20
-29399.46023004437
 42
0.0
 10
13611.64388821442
 20
-29340.46023004437
 42
0.0
 10
13530.64388821443
 20
-29340.46023004437
 42
0.0
 97
        0
 92
        7
 72
     1
 73
     1
 93
        6
 10
13623.64388821442
 20
-29340.46023004437
 42
0.0
 10
13623.64388821442
 20
-29399.46023004437
 42
-0.2535612698375804
 10
13606.84289809114
 20
-29430.46023004437
 42
0.0
 10
13828.4448783377
 20
-29430.46023004437
 42
-0.2535612698375804
 10
13811.64388821442
 20
-29399.46023004437
 42
0.0
 10
13811.64388821442
 20
-29340.46023004437
 42
0.0
 97
        0
 92
        7
 72
     0
 73
     1
 93
        4
 10
13811.64388821442
 20
-29330.46023004438
 10
13811.64388821442
 20
-29240.46023004437
 10
13623.64388821442
 20
-29240.46023004438
 10
13623.64388821442
 20
-29330.46023004437
 97
        0
 92
        7
 72
     0
 73
     1
 93
        4
 10
13811.64388821442
 20
-29230.46023004437
 10
13811.64388821442
 20
-29175.46023004437
 10
13623.64388821442
 20
-29175.46023004437
 10
13623.64388821442
 20
-29230.46023004437
 97
        0
 92
        7
 72
     0
 73
     1
 93
        4
 10
13823.64388821442
 20
-29175.46023004436
 10
13823.64388821442
 20
-29230.46023004437
 10
13904.64388821443
 20
-29230.46023004438
 10
13904.64388821443
 20
-29175.46023004437
 97
        0
 92
        7
 72
     0
 73
     1
 93
        4
 10
13904.64388821443
 20
-29240.46023004437
 10
13823.64388821442
 20
-29240.46023004437
 10
13823.64388821442
 20
-29274.46023004437
 10
13904.64388821443
 20
-29321.22560184875
 97
        0
 92
        7
 72
     0
 73
     1
 93
        4
 10
13904.64388821443
 20
-29330.46023004438
 10
13904.64388821443
 20
-29321.22560184874
 10
13823.64388821442
 20
-29274.46023004438
 10
13823.64388821442
 20
-29330.46023004438
 97
        0
 92
        7
 72
     1
 73
     1
 93
        7
 10
13823.64388821442
 20
-29399.46023004437
 42
0.4142135623730951
 10
13848.64388821442
 20
-29424.46023004437
 42
0.0
 10
13867.64388821442
 20
-29424.46023004437
 42
0.0
 10
13867.64388821442
 20
-29430.46023004437
 42
0.0
 10
13904.64388821443
 20
-29430.46023004438
 42
0.0
 10
13904.64388821443
 20
-29340.46023004436
 42
0.0
 10
13823.64388821442
 20
-29340.46023004436
 42
0.0
 97
        0
 75
     0
 76
     1
 52
135.0
 41
37.5
 77
     0
 78
     3
 53
135.0
 43
9890.952437576197
 44
0.000000000007276
 45
-168.3798022700466
 46
-168.3798022700466
 79
     0
 53
135.0
 43
9869.904962292443
 44
-21.04747528374719
 45
-168.3798022700466
 46
-168.3798022700466
 79
     0
 53
135.0
 43
9848.857487008686
 44
-42.09495056750529
 45
-168.3798022700466
 46
-168.3798022700466
 79
     0
 47
2.111092722313636
 98
       15
 10
13215.68062129262
 20
-29360.74713884569
 10
13203.00492725931
 20
-29588.74515952096
 10
13642.42916611466
 20
-29584.52297507117
 10
13984.6730840479
 20
-29481.07943592243
 10
13963.54689151898
 20
-29293.19218764902
 10
13587.50115863695
 20
-29204.52627394572
 10
13574.82542879689
 20
-29278.41452194591
 10
13560.03713699473
 20
-29371.30262009901
 10
13663.55535864359
 20
-29369.19150774528
 10
13672.00582133246
 20
-29295.30327987392
 10
13661.442725068
 20
-29204.52627394572
 10
13862.1413034457
 20
-29202.41518172082
 10
13885.38009374348
 20
-29272.08124527123
 10
13849.46560941238
 20
-29320.63638657267
 10
13855.80347433241
 20
-29381.85808122349
  0
LINE
  5
35AE6
102
{ACAD_REACTORS
330
35AF0
102
}
330
747D
100
AcDbEntity
  8
細線
 48
50.0
100
AcDbLine
 10
12861.82682896128
 20
-29175.46023004437
 30
0.0
 11
12855.1280991505
 21
-29150.46023004437
 31
0.0
  0
LINE
  5
35AE7
102
{ACAD_REACTORS
330
35AF0
102
}
330
747D
100
AcDbEntity
  8
細線
 48
50.0
100
AcDbLine
 10
12738.5642587312
 20
-29175.46023004437
 30
0.0
 11
12731.86552892042
 21
-29150.46023004437
 31
0.0
  0
LINE
  5
35AE8
102
{ACAD_REACTORS
330
35AF0
102
}
330
747D
100
AcDbEntity
  8
細線
 48
50.0
100
AcDbLine
 10
12615.30168850113
 20
-29175.46023004437
 30
0.0
 11
12608.60295869035
 21
-29150.46023004437
 31
0.0
  0
LINE
  5
35AE9
102
{ACAD_REACTORS
330
35AF0
102
}
330
747D
100
AcDbEntity
  8
細線
 48
50.0
100
AcDbLine
 10
12492.03911827105
 20
-29175.46023004437
 30
0.0
 11
12485.34038846027
 21
-29150.46023004437
 31
0.0
  0
LINE
  5
35AEA
102
{ACAD_REACTORS
330
35AF0
102
}
330
747D
100
AcDbEntity
  8
細線
 48
50.0
100
AcDbLine
 10
12868.52555877205
 20
-29100.46023004437
 30
0.0
 11
12861.82682896127
 21
-29075.46023004437
 31
0.0
  0
LINE
  5
35AEB
102
{ACAD_REACTORS
330
35AF0
102
}
330
747D
100
AcDbEntity
  8
細線
 48
50.0
100
AcDbLine
 10
12745.26298854198
 20
-29100.46023004437
 30
0.0
 11
12738.5642587312
 21
-29075.46023004437
 31
0.0
  0
LINE
  5
35AEC
102
{ACAD_REACTORS
330
35AF0
102
}
330
747D
100
AcDbEntity
  8
細線
 48
50.0
100
AcDbLine
 10
12498.73784808183
 20
-29100.46023004437
 30
0.0
 11
12492.03911827105
 21
-29075.46023004437
 31
0.0
  0
LINE
  5
35AED
102
{ACAD_REACTORS
330
35AF0
102
}
330
747D
100
AcDbEntity
  8
細線
 48
50.0
100
AcDbLine
 10
12622.0004183119
 20
-29100.46023004437
 30
0.0
 11
12615.30168850112
 21
-29075.46023004437
 31
0.0
  0
HATCH
  5
35AEE
102
{ACAD_REACTORS
330
35AF0
102
}
330
747D
100
AcDbEntity
  8
細線
 48
50.0
100
AcDbHatch
 10
0.0
 20
0.0
 30
0.0
210
0.0
220
0.0
230
1.0
  2
LINE
 70
     0
 71
     0
 91
        1
 92
        7
 72
     0
 73
     1
 93
        4
 10
12917.64388821442
 20
-29175.46023004437
 10
12917.64388821442
 20
-29075.46023004437
 10
12415.52807711474
 20
-29075.46023004437
 10
12415.52807711474
 20
-29175.46023004438
 97
        0
 75
     0
 76
     1
 52
75.0
 41
37.5
 77
     0
 78
     1
 53
75.0
 43
10086.47367408899
 44
-841.3565322801151
 45
-115.0055436925422
 46
30.81564255751887
 79
     0
 47
1.008020268830581
 98
        1
 10
12716.5686341029
 20
-29125.47807391125
  0
HATCH
  5
35AEF
102
{ACAD_REACTORS
330
35AF0
102
}
330
747D
100
AcDbEntity
  8
細線
 48
50.0
100
AcDbHatch
 10
0.0
 20
0.0
 30
0.0
210
0.0
220
0.0
230
1.0
  2
PLAST
 70
     0
 71
     0
 91
        6
 92
        7
 72
     1
 73
     1
 93
       16
 10
12415.52807711474
 20
-28975.46023004437
 42
0.0
 10
12415.52807711474
 20
-29075.46023004437
 42
0.0
 10
12917.64388821442
 20
-29075.46023004438
 42
0.0
 10
12917.64388821442
 20
-29175.46023004438
 42
0.0
 10
13517.64388821443
 20
-29175.46023004437
 42
0.0
 10
13517.64388821443
 20
-29140.46023004437
 42
0.0
 10
13512.64388821443
 20
-29140.46023004437
 42
-0.4142135623730951
 10
13507.64388821443
 20
-29135.46023004438
 42
-0.4142135623730951
 10
13512.64388821443
 20
-29130.46023004437
 42
0.0
 10
13584.09388821442
 20
-29130.46023004437
 42
0.0
 10
13584.09388821442
 20
-29093.46023004437
 42
0.0
 10
13594.09388821442
 20
-29083.46023004437
 42
0.0
 10
13673.09388821442
 20
-29083.46023004437
 42
0.0
 10
13673.09388821442
 20
-28961.46023004437
 42
0.0
 10
13659.09388821442
 20
-28961.46023004437
 42
0.0
 10
13645.09388821442
 20
-28975.46023004437
 42
0.0
 97
        0
 92
        7
 72
     1
 73
     1
 93
       17
 10
13762.19388821442
 20
-29083.46023004437
 42
0.0
 10
13841.19388821442
 20
-29083.46023004437
 42
0.0
 10
13851.19388821442
 20
-29093.46023004437
 42
0.0
 10
13851.19388821442
 20
-29130.46023004437
 42
0.0
 10
13922.64388821443
 20
-29130.46023004437
 42
-0.4142135623730951
 10
13927.64388821443
 20
-29135.46023004438
 42
-0.4142135623726688
 10
13922.64388821443
 20
-29140.46023004437
 42
0.0
 10
13917.64388821443
 20
-29140.46023004437
 42
0.0
 10
13917.64388821444
 20
-29175.46023004437
 42
0.0
 10
14017.64388821441
 20
-29175.46023004437
 42
0.0
 10
14017.64388821441
 20
-29075.46023004437
 42
0.0
 10
13917.64388821442
 20
-29075.46023004437
 42
0.0
 10
13917.64388821442
 20
-28985.46023004437
 42
0.0
 10
13907.64388821442
 20
-28975.46023004437
 42
0.0
 10
13790.19388821443
 20
-28975.46023004437
 42
0.0
 10
13776.19388821442
 20
-28961.46023004437
 42
0.0
 10
13762.19388821442
 20
-28961.46023004438
 42
0.0
 97
        0
 92
       22
 72
     0
 73
     1
 93
        6
 10
13577.64388821442
 20
-29145.46023004438
 10
13577.64388821442
 20
-29140.46023004437
 10
13530.64388821443
 20
-29140.46023004437
 10
13530.64388821443
 20
-29175.46023004437
 10
13611.64388821442
 20
-29175.46023004436
 10
13611.64388821442
 20
-29145.46023004437
 97
        0
 92
        7
 72
     1
 73
     1
 93
        4
 10
13623.64388821442
 20
-29145.46023004437
 42
0.0
 10
13623.64388821442
 20
-29175.46023004437
 42
0.0
 10
13672.99861885428
 20
-29175.46023004437
 42
-0.3047735316820737
 10
13717.64388821442
 20
-29145.46023004437
 42
0.0
 97
        0
 92
        7
 72
     1
 73
     1
 93
        4
 10
13717.64388821442
 20
-29145.46023004438
 42
-0.3047735316820574
 10
13762.28915757456
 20
-29175.46023004437
 42
0.0
 10
13811.64388821442
 20
-29175.46023004437
 42
0.0
 10
13811.64388821442
 20
-29145.46023004437
 42
0.0
 97
        0
 92
        7
 72
     0
 73
     1
 93
        6
 10
13823.64388821442
 20
-29145.46023004438
 10
13823.64388821442
 20
-29175.46023004436
 10
13904.64388821443
 20
-29175.46023004437
 10
13904.64388821443
 20
-29140.46023004437
 10
13857.64388821442
 20
-29140.46023004437
 10
13857.64388821442
 20
-29145.46023004437
 97
        0
 75
     0
 76
     1
 52
45.0
 41
37.5
 77
     0
 78
     3
 53
45.0
 43
9890.952437576197
 44
0.000000000007276
 45
-168.3798022700466
 46
168.3798022700466
 79
     0
 53
45.0
 43
9869.904962292443
 44
21.04747528376174
 45
-168.3798022700466
 46
168.3798022700466
 79
     0
 53
45.0
 43
9848.857487008686
 44
42.09495056751984
 45
-168.3798022700466
 46
168.3798022700466
 79
     0
 47
1.886419326983969
 98
        6
 10
13505.21189486611
 20
-29043.15051470718
 10
13791.72133007509
 20
-29031.69839443978
 10
13576.92391870946
 20
-29158.93035338772
 10
13635.44513273129
 20
-29157.04391910504
 10
13777.02871388714
 20
-29157.04391910504
 10
13852.53997626719
 20
-29158.93035338772
  0
TEXT
  5
35B22
330
747D
100
AcDbEntity
  8
寸法
 62
     7
100
AcDbText
 10
5177.840927675869
 20
-27821.42109944413
 30
0.0
 40
90.0
  1
A'
  7
STYLE1
100
AcDbText
  0
LINE
  5
35B23
330
747D
100
AcDbEntity
  8
寸法
 48
50.0
100
AcDbLine
 10
5541.476407838338
 20
-27793.35562664236
 30
0.0
 11
5287.342577089417
 21
-27793.35562664236
 31
0.0
  0
LINE
  5
35B24
330
747D
100
AcDbEntity
  8
寸法
 48
50.0
100
AcDbLine
 10
5395.075947672398
 20
-27764.48855699676
 30
0.0
 11
5395.075947672398
 21
-27830.42317591831
 31
0.0
  0
LINE
  5
35B25
330
747D
100
AcDbEntity
  8
寸法
 48
50.0
100
AcDbLine
 10
5287.342577089417
 20
-27793.35562664236
 30
0.0
 11
5395.075947672398
 21
-27764.48855699676
 31
0.0
  0
TEXT
  5
35B26
330
747D
100
AcDbEntity
  8
寸法
 62
     7
100
AcDbText
 10
5176.582298817178
 20
-29093.38075461053
 30
0.0
 40
90.0
  1
A
  7
STYLE1
100
AcDbText
  0
LINE
  5
35B27
330
747D
100
AcDbEntity
  8
寸法
 48
50.0
100
AcDbLine
 10
5395.075947672398
 20
-29080.0206212482
 30
0.0
 11
5395.075947672398
 21
-29014.08600232665
 31
0.0
  0
LINE
  5
35B28
330
747D
100
AcDbEntity
  8
寸法
 48
50.0
100
AcDbLine
 10
5287.342577089417
 20
-29051.15355160261
 30
0.0
 11
5395.075947672398
 21
-29080.0206212482
 31
0.0
  0
LINE
  5
35B29
330
747D
100
AcDbEntity
  8
寸法
 48
50.0
100
AcDbLine
 10
5541.476407838338
 20
-29051.15355160261
 30
0.0
 11
5287.342577089417
 21
-29051.15355160261
 31
0.0
  0
TEXT
  5
35B35
330
747D
100
AcDbEntity
  8
寸法
 62
     7
100
AcDbText
 10
8799.62030846713
 20
-29296.92832058838
 30
0.0
 40
90.0
  1
ｱﾝｶｰﾎﾞﾙﾄ(市販品)
  7
STYLE1
100
AcDbText
  0
LEADER
  5
35B36
330
747D
100
AcDbEntity
  8
寸法
 48
50.0
100
AcDbLeader
  3
INABA_S50G
 76
     3
 10
10241.47640783834
 20
-28272.25458912248
 30
0.0
 10
9629.962168857922
 20
-29331.42832058837
 30
0.0
 10
8777.073759890775
 20
-29331.42832058837
 30
0.0
1001
ACAD
1000
DSTYLE
1002
{
1070
    41
1040
80.0
1070
   147
1040
25.0
1070
    77
1070
     0
1002
}
  0
DIMENSION
  5
35B4F
330
747D
100
AcDbEntity
  8
寸法
 48
50.0
100
AcDbDimension
  2
*D33
 10
4800.604571127103
 20
-27872.25458912248
 30
0.0
 11
4800.604571127109
 21
-27695.21915605162
 31
0.0
 70
   160
 71
     5
 42
99.99999999999273
  3
INABA_S30G
100
AcDbAlignedDimension
 13
5141.476407838334
 23
-27972.25458912248
 33
0.0
 14
5141.476407838331
 24
-27872.25458912248
 34
0.0
 50
90.0
100
AcDbRotatedDimension
  0
ENDSEC
  0
SECTION
  2
OBJECTS
  0
DICTIONARY
  5
7471
330
0
100
AcDbDictionary
281
     1
  3
ACAD_COLOR
350
11754
  3
ACAD_GROUP
350
7472
  3
ACAD_LAYOUT
350
11755
  3
ACAD_MATERIAL
350
11753
  3
ACAD_MLINESTYLE
350
7473
  3
ACAD_PLOTSETTINGS
350
11756
  3
ACAD_PLOTSTYLENAME
350
11751
  3
ACDBHEADERROUNDTRIPXREC
350
35B7D
  3
AcDbVariableDictionary
350
35B79
  3
CONTENTDICTIONARY
350
E71C
  3
DRAWINGVARIABLESDICT
350
F3B9
  0
DICTIONARY
  5
11827
330
7467
100
AcDbDictionary
280
     1
281
     1
  3
ACAD_LAYERFILTERS
360
135F4
  3
ACAD_LAYERSTATES
360
11828
  0
DICTIONARY
  5
11754
102
{ACAD_REACTORS
330
7471
102
}
330
7471
100
AcDbDictionary
281
     1
  0
DICTIONARY
  5
7472
102
{ACAD_REACTORS
330
7471
102
}
330
7471
100
AcDbDictionary
281
     1
  3
*A1
350
154E2
  3
*A10
350
32DF3
  3
*A100
350
32DF2
  3
*A101
350
3553E
  3
*A102
350
3206D
  3
*A103
350
329A4
  3
*A104
350
32951
  3
*A105
350
32DEE
  3
*A106
350
33316
  3
*A107
350
33317
  3
*A108
350
344A8
  3
*A109
350
32674
  3
*A11
350
32073
  3
*A110
350
33318
  3
*A111
350
35071
  3
*A112
350
32962
  3
*A113
350
3553F
  3
*A114
350
33734
  3
*A115
350
3408E
  3
*A116
350
34497
  3
*A117
350
32956
  3
*A118
350
34498
  3
*A119
350
3206E
  3
*A12
350
33B96
  3
*A120
350
35948
  3
*A121
350
34499
  3
*A122
350
35077
  3
*A123
350
3206F
  3
*A124
350
3449F
  3
*A125
350
3449A
  3
*A126
350
3507A
  3
*A127
350
35944
  3
*A128
350
3449B
  3
*A129
350
3206C
  3
*A13
350
3372A
  3
*A130
350
3449C
  3
*A131
350
3449D
  3
*A132
350
3449E
  3
*A133
350
33AFD
  3
*A134
350
29263
  3
*A135
350
3331D
  3
*A136
350
3331A
  3
*A137
350
344A9
  3
*A138
350
27416
  3
*A139
350
3594A
  3
*A14
350
32677
  3
*A140
350
32DF1
  3
*A141
350
2925D
  3
*A142
350
32675
  3
*A143
350
344AA
  3
*A144
350
344AB
  3
*A145
350
33311
  3
*A146
350
32DE1
  3
*A147
350
344AC
  3
*A148
350
329A6
  3
*A149
350
35945
  3
*A15
350
272B4
  3
*A150
350
35067
  3
*A151
350
35068
  3
*A152
350
35069
  3
*A153
350
3295B
  3
*A154
350
33315
  3
*A155
350
35534
  3
*A156
350
35949
  3
*A157
350
33313
  3
*A158
350
35535
  3
*A159
350
3594B
  3
*A16
350
33731
  3
*A160
350
275D6
  3
*A161
350
35536
  3
*A162
350
35537
  3
*A163
350
3506A
  3
*A164
350
32070
  3
*A165
350
33AFF
  3
*A166
350
3331B
  3
*A167
350
35540
  3
*A168
350
32DE4
  3
*A169
350
3506B
  3
*A17
350
3299D
  3
*A170
350
27417
  3
*A171
350
35541
  3
*A172
350
35542
  3
*A173
350
33AFB
  3
*A174
350
35543
  3
*A175
350
329A5
  3
*A176
350
33B8F
  3
*A177
350
35544
  3
*A178
350
35545
  3
*A179
350
32678
  3
*A18
350
344A5
  3
*A180
350
35546
  3
*A181
350
33735
  3
*A182
350
3594C
  3
*A183
350
3506F
  3
*A184
350
3594D
  3
*A185
350
3594E
  3
*A186
350
3594F
  3
*A187
350
33B8D
  3
*A188
350
3296C
  3
*A189
350
32673
  3
*A19
350
273ED
  3
*A190
350
344A0
  3
*A191
350
35547
  3
*A192
350
32DE0
  3
*A193
350
35950
  3
*A194
350
3267A
  3
*A195
350
35951
  3
*A196
350
290DD
  3
*A197
350
3506D
  3
*A198
350
35952
  3
*A199
350
33AFC
  3
*A2
350
3553B
  3
*A20
350
273F2
  3
*A200
350
3296D
  3
*A201
350
35953
  3
*A202
350
35954
  3
*A203
350
35538
  3
*A204
350
35955
  3
*A205
350
344A1
  3
*A206
350
32071
  3
*A207
350
3372B
  3
*A208
350
33B5F
  3
*A209
350
344A3
  3
*A21
350
3372F
  3
*A210
350
35956
  3
*A211
350
33B8E
  3
*A212
350
275D5
  3
*A213
350
3372C
  3
*A214
350
33319
  3
*A215
350
3372D
  3
*A216
350
32DEF
  3
*A217
350
3267B
  3
*A218
350
2925F
  3
*A219
350
32DF0
  3
*A22
350
2925A
  3
*A220
350
33737
  3
*A221
350
33738
  3
*A222
350
35072
  3
*A223
350
33310
  3
*A224
350
344A7
  3
*A225
350
35539
  3
*A226
350
3506E
  3
*A227
350
33739
  3
*A228
350
3373A
  3
*A229
350
24FDC
  3
*A23
350
35943
  3
*A230
350
24FE6
  3
*A231
350
33729
  3
*A232
350
2925B
  3
*A233
350
3373B
  3
*A234
350
3373C
  3
*A235
350
3373D
  3
*A236
350
3553A
  3
*A237
350
32679
  3
*A238
350
33B90
  3
*A239
350
32072
  3
*A24
350
3553C
  3
*A240
350
33B91
  3
*A241
350
15535
  3
*A242
350
33B92
  3
*A243
350
27401
  3
*A244
350
275D4
  3
*A245
350
33AF6
  3
*A246
350
344A4
  3
*A25
350
32DE5
  3
*A26
350
3267C
  3
*A27
350
273F7
  3
*A28
350
35946
  3
*A29
350
33AF7
  3
*A3
350
35078
  3
*A30
350
2925C
  3
*A31
350
30D61
  3
*A32
350
32DE2
  3
*A33
350
30D65
  3
*A34
350
35548
  3
*A35
350
32DE9
  3
*A36
350
275D7
  3
*A37
350
3206A
  3
*A38
350
35073
  3
*A39
350
32DF4
  3
*A4
350
3297C
  3
*A40
350
32074
  3
*A41
350
33AFA
  3
*A42
350
32075
  3
*A43
350
2926A
  3
*A44
350
32076
  3
*A45
350
32DE7
  3
*A46
350
33312
  3
*A47
350
3506C
  3
*A48
350
33730
  3
*A49
350
3206B
  3
*A5
350
35942
  3
*A50
350
27412
  3
*A51
350
3331C
  3
*A52
350
273FC
  3
*A53
350
35076
  3
*A54
350
33AF8
  3
*A55
350
32077
  3
*A56
350
32DE3
  3
*A57
350
3553D
  3
*A58
350
3266F
  3
*A59
350
32670
  3
*A6
350
33B93
  3
*A60
350
290EE
  3
*A61
350
2926B
  3
*A62
350
33AFE
  3
*A63
350
29246
  3
*A64
350
32DE6
  3
*A65
350
33732
  3
*A66
350
29247
  3
*A67
350
32DE8
  3
*A68
350
344A2
  3
*A69
350
3293D
  3
*A7
350
3372E
  3
*A70
350
32947
  3
*A71
350
32671
  3
*A72
350
35075
  3
*A73
350
35947
  3
*A74
350
32672
  3
*A75
350
3299E
  3
*A76
350
3299F
  3
*A77
350
272AF
  3
*A78
350
275D8
  3
*A79
350
33736
  3
*A8
350
33B94
  3
*A80
350
33AF9
  3
*A81
350
329A0
  3
*A82
350
329A1
  3
*A83
350
35070
  3
*A84
350
2925E
  3
*A85
350
2740E
  3
*A86
350
3507B
  3
*A87
350
329A2
  3
*A88
350
33314
  3
*A89
350
329A3
  3
*A9
350
33B95
  3
*A90
350
35074
  3
*A91
350
35AF0
  3
*A92
350
344A6
  3
*A93
350
32DEA
  3
*A94
350
32676
  3
*A95
350
32DEB
  3
*A96
350
32DEC
  3
*A97
350
32DED
  3
*A98
350
35079
  3
*A99
350
33733
  0
DICTIONARY
  5
11755
102
{ACAD_REACTORS
330
7471
102
}
330
7471
100
AcDbDictionary
281
     1
  3
Model
350
11757
  3
レイアウト1
350
11758
  0
DICTIONARY
  5
11753
102
{ACAD_REACTORS
330
7471
102
}
330
7471
100
AcDbDictionary
281
     1
  0
DICTIONARY
  5
7473
102
{ACAD_REACTORS
330
7471
102
}
330
7471
100
AcDbDictionary
281
     1
  3
STANDARD
350
7480
  0
DICTIONARY
  5
11756
102
{ACAD_REACTORS
330
7471
102
}
330
7471
100
AcDbDictionary
281
     1
  0
ACDBDICTIONARYWDFLT
  5
11751
102
{ACAD_REACTORS
330
7471
102
}
330
7471
100
AcDbDictionary
281
     1
  3
Normal
350
11752
100
AcDbDictionaryWithDefault
340
11752
  0
DICTIONARY
  5
35B7D
102
{ACAD_REACTORS
330
7471
102
}
330
7471
100
AcDbDictionary
281
     1
  3
COLORDICT
350
35B7F
  3
MATERIALDICT
350
35B7E
  0
DICTIONARY
  5
35B79
102
{ACAD_REACTORS
330
7471
102
}
330
7471
100
AcDbDictionary
281
     1
  3
DIMASSOC
350
35B7A
  3
PROJECTNAME
350
35B7B
  0
DICTIONARY
  5
E71C
102
{ACAD_REACTORS
330
7471
102
}
330
7471
100
AcDbDictionary
281
     1
  0
DICTIONARY
  5
F3B9
102
{ACAD_REACTORS
330
7471
102
}
330
7471
100
AcDbDictionary
281
     1
1001
DRAWINGVARIABLESXDATA
1000
POLARMODE
1000
1
  0
DICTIONARY
  5
135F4
102
{ACAD_REACTORS
330
11827
102
}
330
11827
100
AcDbDictionary
281
     1
  0
DICTIONARY
  5
11828
102
{ACAD_REACTORS
330
11827
102
}
330
11827
100
AcDbDictionary
281
     1
  0
GROUP
  5
154E2
102
{ACAD_REACTORS
330
7472
102
}
330
7472
100
AcDbGroup
300

 70
     1
 71
     1
  0
GROUP
  5
32DF3
102
{ACAD_REACTORS
330
7472
102
}
330
7472
100
AcDbGroup
300

 70
     1
 71
     1
  0
GROUP
  5
32DF2
102
{ACAD_REACTORS
330
7472
102
}
330
7472
100
AcDbGroup
300

 70
     1
 71
     1
  0
GROUP
  5
3553E
102
{ACAD_REACTORS
330
7472
102
}
330
7472
100
AcDbGroup
300

 70
     1
 71
     1
340
3516F
340
35170
340
3516D
340
3516E
340
3516C
340
35171
340
35172
340
35173
  0
GROUP
  5
3206D
102
{ACAD_REACTORS
330
7472
102
}
330
7472
100
AcDbGroup
300

 70
     1
 71
     1
  0
GROUP
  5
329A4
102
{ACAD_REACTORS
330
7472
102
}
330
7472
100
AcDbGroup
300

 70
     1
 71
     1
  0
GROUP
  5
32951
102
{ACAD_REACTORS
330
7472
102
}
330
7472
100
AcDbGroup
300

 70
     1
 71
     1
  0
GROUP
  5
32DEE
102
{ACAD_REACTORS
330
7472
102
}
330
7472
100
AcDbGroup
300

 70
     1
 71
     1
  0
GROUP
  5
33316
102
{ACAD_REACTORS
330
7472
102
}
330
7472
100
AcDbGroup
300

 70
     1
 71
     1
  0
GROUP
  5
33317
102
{ACAD_REACTORS
330
7472
102
}
330
7472
100
AcDbGroup
300

 70
     1
 71
     1
  0
GROUP
  5
344A8
102
{ACAD_REACTORS
330
7472
102
}
330
7472
100
AcDbGroup
300

 70
     1
 71
     1
  0
GROUP
  5
32674
102
{ACAD_REACTORS
330
7472
102
}
330
7472
100
AcDbGroup
300

 70
     1
 71
     1
  0
GROUP
  5
32073
102
{ACAD_REACTORS
330
7472
102
}
330
7472
100
AcDbGroup
300

 70
     1
 71
     1
  0
GROUP
  5
33318
102
{ACAD_REACTORS
330
7472
102
}
330
7472
100
AcDbGroup
300

 70
     1
 71
     1
  0
GROUP
  5
35071
102
{ACAD_REACTORS
330
7472
102
}
330
7472
100
AcDbGroup
300

 70
     1
 71
     1
  0
GROUP
  5
32962
102
{ACAD_REACTORS
330
7472
102
}
330
7472
100
AcDbGroup
300

 70
     1
 71
     1
  0
GROUP
  5
3553F
102
{ACAD_REACTORS
330
7472
102
}
330
7472
100
AcDbGroup
300

 70
     1
 71
     1
340
3516D
340
3516E
340
3516C
  0
GROUP
  5
33734
102
{ACAD_REACTORS
330
7472
102
}
330
7472
100
AcDbGroup
300

 70
     1
 71
     1
  0
GROUP
  5
3408E
102
{ACAD_REACTORS
330
7472
102
}
330
7472
100
AcDbGroup
300

 70
     1
 71
     1
  0
GROUP
  5
34497
102
{ACAD_REACTORS
330
7472
102
}
330
7472
100
AcDbGroup
300

 70
     1
 71
     1
  0
GROUP
  5
32956
102
{ACAD_REACTORS
330
7472
102
}
330
7472
100
AcDbGroup
300

 70
     1
 71
     1
  0
GROUP
  5
34498
102
{ACAD_REACTORS
330
7472
102
}
330
7472
100
AcDbGroup
300

 70
     1
 71
     1
  0
GROUP
  5
3206E
102
{ACAD_REACTORS
330
7472
102
}
330
7472
100
AcDbGroup
300

 70
     1
 71
     1
  0
GROUP
  5
33B96
102
{ACAD_REACTORS
330
7472
102
}
330
7472
100
AcDbGroup
300

 70
     1
 71
     1
  0
GROUP
  5
35948
102
{ACAD_REACTORS
330
7472
102
}
330
7472
100
AcDbGroup
300

 70
     1
 71
     1
  0
GROUP
  5
34499
102
{ACAD_REACTORS
330
7472
102
}
330
7472
100
AcDbGroup
300

 70
     1
 71
     1
  0
GROUP
  5
35077
102
{ACAD_REACTORS
330
7472
102
}
330
7472
100
AcDbGroup
300

 70
     1
 71
     1
  0
GROUP
  5
3206F
102
{ACAD_REACTORS
330
7472
102
}
330
7472
100
AcDbGroup
300

 70
     1
 71
     1
  0
GROUP
  5
3449F
102
{ACAD_REACTORS
330
7472
102
}
330
7472
100
AcDbGroup
300

 70
     1
 71
     1
  0
GROUP
  5
3449A
102
{ACAD_REACTORS
330
7472
102
}
330
7472
100
AcDbGroup
300

 70
     1
 71
     1
  0
GROUP
  5
3507A
102
{ACAD_REACTORS
330
7472
102
}
330
7472
100
AcDbGroup
300

 70
     1
 71
     1
  0
GROUP
  5
35944
102
{ACAD_REACTORS
330
7472
102
}
330
7472
100
AcDbGroup
300

 70
     1
 71
     1
  0
GROUP
  5
3449B
102
{ACAD_REACTORS
330
7472
102
}
330
7472
100
AcDbGroup
300

 70
     1
 71
     1
  0
GROUP
  5
3206C
102
{ACAD_REACTORS
330
7472
102
}
330
7472
100
AcDbGroup
300

 70
     1
 71
     1
  0
GROUP
  5
3372A
102
{ACAD_REACTORS
330
7472
102
}
330
7472
100
AcDbGroup
300

 70
     1
 71
     1
  0
GROUP
  5
3449C
102
{ACAD_REACTORS
330
7472
102
}
330
7472
100
AcDbGroup
300

 70
     1
 71
     1
  0
GROUP
  5
3449D
102
{ACAD_REACTORS
330
7472
102
}
330
7472
100
AcDbGroup
300

 70
     1
 71
     1
  0
GROUP
  5
3449E
102
{ACAD_REACTORS
330
7472
102
}
330
7472
100
AcDbGroup
300

 70
     1
 71
     1
  0
GROUP
  5
33AFD
102
{ACAD_REACTORS
330
7472
102
}
330
7472
100
AcDbGroup
300

 70
     1
 71
     1
  0
GROUP
  5
29263
102
{ACAD_REACTORS
330
7472
102
}
330
7472
100
AcDbGroup
300

 70
     1
 71
     1
  0
GROUP
  5
3331D
102
{ACAD_REACTORS
330
7472
102
}
330
7472
100
AcDbGroup
300

 70
     1
 71
     1
  0
GROUP
  5
3331A
102
{ACAD_REACTORS
330
7472
102
}
330
7472
100
AcDbGroup
300

 70
     1
 71
     1
  0
GROUP
  5
344A9
102
{ACAD_REACTORS
330
7472
102
}
330
7472
100
AcDbGroup
300

 70
     1
 71
     1
  0
GROUP
  5
27416
102
{ACAD_REACTORS
330
7472
102
}
330
7472
100
AcDbGroup
300

 70
     1
 71
     1
  0
GROUP
  5
3594A
102
{ACAD_REACTORS
330
7472
102
}
330
7472
100
AcDbGroup
300

 70
     1
 71
     1
  0
GROUP
  5
32677
102
{ACAD_REACTORS
330
7472
102
}
330
7472
100
AcDbGroup
300

 70
     1
 71
     1
  0
GROUP
  5
32DF1
102
{ACAD_REACTORS
330
7472
102
}
330
7472
100
AcDbGroup
300

 70
     1
 71
     1
  0
GROUP
  5
2925D
102
{ACAD_REACTORS
330
7472
102
}
330
7472
100
AcDbGroup
300

 70
     1
 71
     1
  0
GROUP
  5
32675
102
{ACAD_REACTORS
330
7472
102
}
330
7472
100
AcDbGroup
300

 70
     1
 71
     1
  0
GROUP
  5
344AA
102
{ACAD_REACTORS
330
7472
102
}
330
7472
100
AcDbGroup
300

 70
     1
 71
     1
  0
GROUP
  5
344AB
102
{ACAD_REACTORS
330
7472
102
}
330
7472
100
AcDbGroup
300

 70
     1
 71
     1
  0
GROUP
  5
33311
102
{ACAD_REACTORS
330
7472
102
}
330
7472
100
AcDbGroup
300

 70
     1
 71
     1
  0
GROUP
  5
32DE1
102
{ACAD_REACTORS
330
7472
102
}
330
7472
100
AcDbGroup
300

 70
     1
 71
     1
  0
GROUP
  5
344AC
102
{ACAD_REACTORS
330
7472
102
}
330
7472
100
AcDbGroup
300

 70
     1
 71
     1
  0
GROUP
  5
329A6
102
{ACAD_REACTORS
330
7472
102
}
330
7472
100
AcDbGroup
300

 70
     1
 71
     1
  0
GROUP
  5
35945
102
{ACAD_REACTORS
330
7472
102
}
330
7472
100
AcDbGroup
300

 70
     1
 71
     1
  0
GROUP
  5
272B4
102
{ACAD_REACTORS
330
7472
102
}
330
7472
100
AcDbGroup
300

 70
     1
 71
     1
  0
GROUP
  5
35067
102
{ACAD_REACTORS
330
7472
102
}
330
7472
100
AcDbGroup
300

 70
     1
 71
     1
  0
GROUP
  5
35068
102
{ACAD_REACTORS
330
7472
102
}
330
7472
100
AcDbGroup
300

 70
     1
 71
     1
  0
GROUP
  5
35069
102
{ACAD_REACTORS
330
7472
102
}
330
7472
100
AcDbGroup
300

 70
     1
 71
     1
  0
GROUP
  5
3295B
102
{ACAD_REACTORS
330
7472
102
}
330
7472
100
AcDbGroup
300

 70
     1
 71
     1
  0
GROUP
  5
33315
102
{ACAD_REACTORS
330
7472
102
}
330
7472
100
AcDbGroup
300

 70
     1
 71
     1
  0
GROUP
  5
35534
102
{ACAD_REACTORS
330
7472
102
}
330
7472
100
AcDbGroup
300

 70
     1
 71
     1
  0
GROUP
  5
35949
102
{ACAD_REACTORS
330
7472
102
}
330
7472
100
AcDbGroup
300

 70
     1
 71
     1
  0
GROUP
  5
33313
102
{ACAD_REACTORS
330
7472
102
}
330
7472
100
AcDbGroup
300

 70
     1
 71
     1
  0
GROUP
  5
35535
102
{ACAD_REACTORS
330
7472
102
}
330
7472
100
AcDbGroup
300

 70
     1
 71
     1
  0
GROUP
  5
3594B
102
{ACAD_REACTORS
330
7472
102
}
330
7472
100
AcDbGroup
300

 70
     1
 71
     1
  0
GROUP
  5
33731
102
{ACAD_REACTORS
330
7472
102
}
330
7472
100
AcDbGroup
300

 70
     1
 71
     1
  0
GROUP
  5
275D6
102
{ACAD_REACTORS
330
7472
102
}
330
7472
100
AcDbGroup
300

 70
     1
 71
     1
  0
GROUP
  5
35536
102
{ACAD_REACTORS
330
7472
102
}
330
7472
100
AcDbGroup
300

 70
     1
 71
     1
  0
GROUP
  5
35537
102
{ACAD_REACTORS
330
7472
102
}
330
7472
100
AcDbGroup
300

 70
     1
 71
     1
  0
GROUP
  5
3506A
102
{ACAD_REACTORS
330
7472
102
}
330
7472
100
AcDbGroup
300

 70
     1
 71
     1
  0
GROUP
  5
32070
102
{ACAD_REACTORS
330
7472
102
}
330
7472
100
AcDbGroup
300

 70
     1
 71
     1
  0
GROUP
  5
33AFF
102
{ACAD_REACTORS
330
7472
102
}
330
7472
100
AcDbGroup
300

 70
     1
 71
     1
  0
GROUP
  5
3331B
102
{ACAD_REACTORS
330
7472
102
}
330
7472
100
AcDbGroup
300

 70
     1
 71
     1
  0
GROUP
  5
35540
102
{ACAD_REACTORS
330
7472
102
}
330
7472
100
AcDbGroup
300

 70
     1
 71
     1
340
35177
340
35178
340
35175
340
35176
340
35174
340
35179
340
3518B
340
3517A
  0
GROUP
  5
32DE4
102
{ACAD_REACTORS
330
7472
102
}
330
7472
100
AcDbGroup
300

 70
     1
 71
     1
  0
GROUP
  5
3506B
102
{ACAD_REACTORS
330
7472
102
}
330
7472
100
AcDbGroup
300

 70
     1
 71
     1
  0
GROUP
  5
3299D
102
{ACAD_REACTORS
330
7472
102
}
330
7472
100
AcDbGroup
300

 70
     1
 71
     1
  0
GROUP
  5
27417
102
{ACAD_REACTORS
330
7472
102
}
330
7472
100
AcDbGroup
300

 70
     1
 71
     1
  0
GROUP
  5
35541
102
{ACAD_REACTORS
330
7472
102
}
330
7472
100
AcDbGroup
300

 70
     1
 71
     1
340
35175
340
35176
340
35174
  0
GROUP
  5
35542
102
{ACAD_REACTORS
330
7472
102
}
330
7472
100
AcDbGroup
300

 70
     1
 71
     1
340
3517B
340
3517C
340
3517D
340
3517E
  0
GROUP
  5
33AFB
102
{ACAD_REACTORS
330
7472
102
}
330
7472
100
AcDbGroup
300

 70
     1
 71
     1
  0
GROUP
  5
35543
102
{ACAD_REACTORS
330
7472
102
}
330
7472
100
AcDbGroup
300

 70
     1
 71
     1
340
35180
340
3517F
340
35181
340
35182
  0
GROUP
  5
329A5
102
{ACAD_REACTORS
330
7472
102
}
330
7472
100
AcDbGroup
300

 70
     1
 71
     1
  0
GROUP
  5
33B8F
102
{ACAD_REACTORS
330
7472
102
}
330
7472
100
AcDbGroup
300

 70
     1
 71
     1
  0
GROUP
  5
35544
102
{ACAD_REACTORS
330
7472
102
}
330
7472
100
AcDbGroup
300

 70
     1
 71
     1
340
35183
340
35184
340
35185
340
35186
  0
GROUP
  5
35545
102
{ACAD_REACTORS
330
7472
102
}
330
7472
100
AcDbGroup
300

 70
     1
 71
     1
340
35188
340
35187
340
35189
340
3518A
  0
GROUP
  5
32678
102
{ACAD_REACTORS
330
7472
102
}
330
7472
100
AcDbGroup
300

 70
     1
 71
     1
  0
GROUP
  5
344A5
102
{ACAD_REACTORS
330
7472
102
}
330
7472
100
AcDbGroup
300

 70
     1
 71
     1
  0
GROUP
  5
35546
102
{ACAD_REACTORS
330
7472
102
}
330
7472
100
AcDbGroup
300

 70
     1
 71
     1
340
35193
340
35192
340
35191
340
35190
340
3518F
340
3518E
340
35194
340
3518D
340
3518C
  0
GROUP
  5
33735
102
{ACAD_REACTORS
330
7472
102
}
330
7472
100
AcDbGroup
300

 70
     1
 71
     1
  0
GROUP
  5
3594C
102
{ACAD_REACTORS
330
7472
102
}
330
7472
100
AcDbGroup
300

 70
     1
 71
     1
  0
GROUP
  5
3506F
102
{ACAD_REACTORS
330
7472
102
}
330
7472
100
AcDbGroup
300

 70
     1
 71
     1
  0
GROUP
  5
3594D
102
{ACAD_REACTORS
330
7472
102
}
330
7472
100
AcDbGroup
300

 70
     1
 71
     1
  0
GROUP
  5
3594E
102
{ACAD_REACTORS
330
7472
102
}
330
7472
100
AcDbGroup
300

 70
     1
 71
     1
  0
GROUP
  5
3594F
102
{ACAD_REACTORS
330
7472
102
}
330
7472
100
AcDbGroup
300

 70
     1
 71
     1
  0
GROUP
  5
33B8D
102
{ACAD_REACTORS
330
7472
102
}
330
7472
100
AcDbGroup
300

 70
     1
 71
     1
  0
GROUP
  5
3296C
102
{ACAD_REACTORS
330
7472
102
}
330
7472
100
AcDbGroup
300

 70
     1
 71
     1
  0
GROUP
  5
32673
102
{ACAD_REACTORS
330
7472
102
}
330
7472
100
AcDbGroup
300

 70
     1
 71
     1
  0
GROUP
  5
273ED
102
{ACAD_REACTORS
330
7472
102
}
330
7472
100
AcDbGroup
300

 70
     1
 71
     1
  0
GROUP
  5
344A0
102
{ACAD_REACTORS
330
7472
102
}
330
7472
100
AcDbGroup
300

 70
     1
 71
     1
  0
GROUP
  5
35547
102
{ACAD_REACTORS
330
7472
102
}
330
7472
100
AcDbGroup
300

 70
     1
 71
     1
340
351C7
340
351C6
340
351C5
340
351C4
340
351C3
340
351C2
340
351C1
340
351C0
340
351BF
340
351BE
340
351C8
340
351BD
340
351BC
340
351BB
340
351BA
340
351B9
  0
GROUP
  5
32DE0
102
{ACAD_REACTORS
330
7472
102
}
330
7472
100
AcDbGroup
300

 70
     1
 71
     1
  0
GROUP
  5
35950
102
{ACAD_REACTORS
330
7472
102
}
330
7472
100
AcDbGroup
300

 70
     1
 71
     1
  0
GROUP
  5
3267A
102
{ACAD_REACTORS
330
7472
102
}
330
7472
100
AcDbGroup
300

 70
     1
 71
     1
  0
GROUP
  5
35951
102
{ACAD_REACTORS
330
7472
102
}
330
7472
100
AcDbGroup
300

 70
     1
 71
     1
  0
GROUP
  5
290DD
102
{ACAD_REACTORS
330
7472
102
}
330
7472
100
AcDbGroup
300

 70
     1
 71
     1
  0
GROUP
  5
3506D
102
{ACAD_REACTORS
330
7472
102
}
330
7472
100
AcDbGroup
300

 70
     1
 71
     1
  0
GROUP
  5
35952
102
{ACAD_REACTORS
330
7472
102
}
330
7472
100
AcDbGroup
300

 70
     1
 71
     1
  0
GROUP
  5
33AFC
102
{ACAD_REACTORS
330
7472
102
}
330
7472
100
AcDbGroup
300

 70
     1
 71
     1
  0
GROUP
  5
3553B
102
{ACAD_REACTORS
330
7472
102
}
330
7472
100
AcDbGroup
300

 70
     1
 71
     1
  0
GROUP
  5
273F2
102
{ACAD_REACTORS
330
7472
102
}
330
7472
100
AcDbGroup
300

 70
     1
 71
     1
  0
GROUP
  5
3296D
102
{ACAD_REACTORS
330
7472
102
}
330
7472
100
AcDbGroup
300

 70
     1
 71
     1
  0
GROUP
  5
35953
102
{ACAD_REACTORS
330
7472
102
}
330
7472
100
AcDbGroup
300

 70
     1
 71
     1
  0
GROUP
  5
35954
102
{ACAD_REACTORS
330
7472
102
}
330
7472
100
AcDbGroup
300

 70
     1
 71
     1
  0
GROUP
  5
35538
102
{ACAD_REACTORS
330
7472
102
}
330
7472
100
AcDbGroup
300

 70
     1
 71
     1
  0
GROUP
  5
35955
102
{ACAD_REACTORS
330
7472
102
}
330
7472
100
AcDbGroup
300

 70
     1
 71
     1
  0
GROUP
  5
344A1
102
{ACAD_REACTORS
330
7472
102
}
330
7472
100
AcDbGroup
300

 70
     1
 71
     1
  0
GROUP
  5
32071
102
{ACAD_REACTORS
330
7472
102
}
330
7472
100
AcDbGroup
300

 70
     1
 71
     1
  0
GROUP
  5
3372B
102
{ACAD_REACTORS
330
7472
102
}
330
7472
100
AcDbGroup
300

 70
     1
 71
     1
  0
GROUP
  5
33B5F
102
{ACAD_REACTORS
330
7472
102
}
330
7472
100
AcDbGroup
300

 70
     1
 71
     1
  0
GROUP
  5
344A3
102
{ACAD_REACTORS
330
7472
102
}
330
7472
100
AcDbGroup
300

 70
     1
 71
     1
  0
GROUP
  5
3372F
102
{ACAD_REACTORS
330
7472
102
}
330
7472
100
AcDbGroup
300

 70
     1
 71
     1
  0
GROUP
  5
35956
102
{ACAD_REACTORS
330
7472
102
}
330
7472
100
AcDbGroup
300

 70
     1
 71
     1
  0
GROUP
  5
33B8E
102
{ACAD_REACTORS
330
7472
102
}
330
7472
100
AcDbGroup
300

 70
     1
 71
     1
  0
GROUP
  5
275D5
102
{ACAD_REACTORS
330
7472
102
}
330
7472
100
AcDbGroup
300

 70
     1
 71
     1
  0
GROUP
  5
3372C
102
{ACAD_REACTORS
330
7472
102
}
330
7472
100
AcDbGroup
300

 70
     1
 71
     1
  0
GROUP
  5
33319
102
{ACAD_REACTORS
330
7472
102
}
330
7472
100
AcDbGroup
300

 70
     1
 71
     1
  0
GROUP
  5
3372D
102
{ACAD_REACTORS
330
7472
102
}
330
7472
100
AcDbGroup
300

 70
     1
 71
     1
  0
GROUP
  5
32DEF
102
{ACAD_REACTORS
330
7472
102
}
330
7472
100
AcDbGroup
300

 70
     1
 71
     1
  0
GROUP
  5
3267B
102
{ACAD_REACTORS
330
7472
102
}
330
7472
100
AcDbGroup
300

 70
     1
 71
     1
  0
GROUP
  5
2925F
102
{ACAD_REACTORS
330
7472
102
}
330
7472
100
AcDbGroup
300

 70
     1
 71
     1
  0
GROUP
  5
32DF0
102
{ACAD_REACTORS
330
7472
102
}
330
7472
100
AcDbGroup
300

 70
     1
 71
     1
  0
GROUP
  5
2925A
102
{ACAD_REACTORS
330
7472
102
}
330
7472
100
AcDbGroup
300

 70
     1
 71
     1
  0
GROUP
  5
33737
102
{ACAD_REACTORS
330
7472
102
}
330
7472
100
AcDbGroup
300

 70
     1
 71
     1
  0
GROUP
  5
33738
102
{ACAD_REACTORS
330
7472
102
}
330
7472
100
AcDbGroup
300

 70
     1
 71
     1
  0
GROUP
  5
35072
102
{ACAD_REACTORS
330
7472
102
}
330
7472
100
AcDbGroup
300

 70
     1
 71
     1
  0
GROUP
  5
33310
102
{ACAD_REACTORS
330
7472
102
}
330
7472
100
AcDbGroup
300

 70
     1
 71
     1
  0
GROUP
  5
344A7
102
{ACAD_REACTORS
330
7472
102
}
330
7472
100
AcDbGroup
300

 70
     1
 71
     1
  0
GROUP
  5
35539
102
{ACAD_REACTORS
330
7472
102
}
330
7472
100
AcDbGroup
300

 70
     1
 71
     1
  0
GROUP
  5
3506E
102
{ACAD_REACTORS
330
7472
102
}
330
7472
100
AcDbGroup
300

 70
     1
 71
     1
  0
GROUP
  5
33739
102
{ACAD_REACTORS
330
7472
102
}
330
7472
100
AcDbGroup
300

 70
     1
 71
     1
  0
GROUP
  5
3373A
102
{ACAD_REACTORS
330
7472
102
}
330
7472
100
AcDbGroup
300

 70
     1
 71
     1
  0
GROUP
  5
24FDC
102
{ACAD_REACTORS
330
7472
102
}
330
7472
100
AcDbGroup
300

 70
     1
 71
     1
  0
GROUP
  5
35943
102
{ACAD_REACTORS
330
7472
102
}
330
7472
100
AcDbGroup
300

 70
     1
 71
     1
  0
GROUP
  5
24FE6
102
{ACAD_REACTORS
330
7472
102
}
330
7472
100
AcDbGroup
300

 70
     1
 71
     1
  0
GROUP
  5
33729
102
{ACAD_REACTORS
330
7472
102
}
330
7472
100
AcDbGroup
300

 70
     1
 71
     1
  0
GROUP
  5
2925B
102
{ACAD_REACTORS
330
7472
102
}
330
7472
100
AcDbGroup
300

 70
     1
 71
     1
  0
GROUP
  5
3373B
102
{ACAD_REACTORS
330
7472
102
}
330
7472
100
AcDbGroup
300

 70
     1
 71
     1
  0
GROUP
  5
3373C
102
{ACAD_REACTORS
330
7472
102
}
330
7472
100
AcDbGroup
300

 70
     1
 71
     1
  0
GROUP
  5
3373D
102
{ACAD_REACTORS
330
7472
102
}
330
7472
100
AcDbGroup
300

 70
     1
 71
     1
  0
GROUP
  5
3553A
102
{ACAD_REACTORS
330
7472
102
}
330
7472
100
AcDbGroup
300

 70
     1
 71
     1
  0
GROUP
  5
32679
102
{ACAD_REACTORS
330
7472
102
}
330
7472
100
AcDbGroup
300

 70
     1
 71
     1
  0
GROUP
  5
33B90
102
{ACAD_REACTORS
330
7472
102
}
330
7472
100
AcDbGroup
300

 70
     1
 71
     1
  0
GROUP
  5
32072
102
{ACAD_REACTORS
330
7472
102
}
330
7472
100
AcDbGroup
300

 70
     1
 71
     1
  0
GROUP
  5
3553C
102
{ACAD_REACTORS
330
7472
102
}
330
7472
100
AcDbGroup
300

 70
     1
 71
     1
  0
GROUP
  5
33B91
102
{ACAD_REACTORS
330
7472
102
}
330
7472
100
AcDbGroup
300

 70
     1
 71
     1
  0
GROUP
  5
15535
102
{ACAD_REACTORS
330
7472
102
}
330
7472
100
AcDbGroup
300

 70
     1
 71
     1
  0
GROUP
  5
33B92
102
{ACAD_REACTORS
330
7472
102
}
330
7472
100
AcDbGroup
300

 70
     1
 71
     1
  0
GROUP
  5
27401
102
{ACAD_REACTORS
330
7472
102
}
330
7472
100
AcDbGroup
300

 70
     1
 71
     1
  0
GROUP
  5
275D4
102
{ACAD_REACTORS
330
7472
102
}
330
7472
100
AcDbGroup
300

 70
     1
 71
     1
  0
GROUP
  5
33AF6
102
{ACAD_REACTORS
330
7472
102
}
330
7472
100
AcDbGroup
300

 70
     1
 71
     1
  0
GROUP
  5
344A4
102
{ACAD_REACTORS
330
7472
102
}
330
7472
100
AcDbGroup
300

 70
     1
 71
     1
  0
GROUP
  5
32DE5
102
{ACAD_REACTORS
330
7472
102
}
330
7472
100
AcDbGroup
300

 70
     1
 71
     1
  0
GROUP
  5
3267C
102
{ACAD_REACTORS
330
7472
102
}
330
7472
100
AcDbGroup
300

 70
     1
 71
     1
  0
GROUP
  5
273F7
102
{ACAD_REACTORS
330
7472
102
}
330
7472
100
AcDbGroup
300

 70
     1
 71
     1
  0
GROUP
  5
35946
102
{ACAD_REACTORS
330
7472
102
}
330
7472
100
AcDbGroup
300

 70
     1
 71
     1
  0
GROUP
  5
33AF7
102
{ACAD_REACTORS
330
7472
102
}
330
7472
100
AcDbGroup
300

 70
     1
 71
     1
  0
GROUP
  5
35078
102
{ACAD_REACTORS
330
7472
102
}
330
7472
100
AcDbGroup
300

 70
     1
 71
     1
  0
GROUP
  5
2925C
102
{ACAD_REACTORS
330
7472
102
}
330
7472
100
AcDbGroup
300

 70
     1
 71
     1
  0
GROUP
  5
30D61
102
{ACAD_REACTORS
330
7472
102
}
330
7472
100
AcDbGroup
300

 70
     1
 71
     1
  0
GROUP
  5
32DE2
102
{ACAD_REACTORS
330
7472
102
}
330
7472
100
AcDbGroup
300

 70
     1
 71
     1
  0
GROUP
  5
30D65
102
{ACAD_REACTORS
330
7472
102
}
330
7472
100
AcDbGroup
300

 70
     1
 71
     1
  0
GROUP
  5
35548
102
{ACAD_REACTORS
330
7472
102
}
330
7472
100
AcDbGroup
300

 70
     1
 71
     1
340
351CB
340
351CC
340
351CD
340
351CE
340
351CF
340
351D0
340
351D6
340
351D7
340
351D8
340
351C9
340
351CA
340
351D1
340
351D2
340
351D3
340
351D4
340
351D5
  0
GROUP
  5
32DE9
102
{ACAD_REACTORS
330
7472
102
}
330
7472
100
AcDbGroup
300

 70
     1
 71
     1
  0
GROUP
  5
275D7
102
{ACAD_REACTORS
330
7472
102
}
330
7472
100
AcDbGroup
300

 70
     1
 71
     1
  0
GROUP
  5
3206A
102
{ACAD_REACTORS
330
7472
102
}
330
7472
100
AcDbGroup
300

 70
     1
 71
     1
  0
GROUP
  5
35073
102
{ACAD_REACTORS
330
7472
102
}
330
7472
100
AcDbGroup
300

 70
     1
 71
     1
  0
GROUP
  5
32DF4
102
{ACAD_REACTORS
330
7472
102
}
330
7472
100
AcDbGroup
300

 70
     1
 71
     1
  0
GROUP
  5
3297C
102
{ACAD_REACTORS
330
7472
102
}
330
7472
100
AcDbGroup
300

 70
     1
 71
     1
  0
GROUP
  5
32074
102
{ACAD_REACTORS
330
7472
102
}
330
7472
100
AcDbGroup
300

 70
     1
 71
     1
  0
GROUP
  5
33AFA
102
{ACAD_REACTORS
330
7472
102
}
330
7472
100
AcDbGroup
300

 70
     1
 71
     1
  0
GROUP
  5
32075
102
{ACAD_REACTORS
330
7472
102
}
330
7472
100
AcDbGroup
300

 70
     1
 71
     1
  0
GROUP
  5
2926A
102
{ACAD_REACTORS
330
7472
102
}
330
7472
100
AcDbGroup
300

 70
     1
 71
     1
  0
GROUP
  5
32076
102
{ACAD_REACTORS
330
7472
102
}
330
7472
100
AcDbGroup
300

 70
     1
 71
     1
  0
GROUP
  5
32DE7
102
{ACAD_REACTORS
330
7472
102
}
330
7472
100
AcDbGroup
300

 70
     1
 71
     1
  0
GROUP
  5
33312
102
{ACAD_REACTORS
330
7472
102
}
330
7472
100
AcDbGroup
300

 70
     1
 71
     1
  0
GROUP
  5
3506C
102
{ACAD_REACTORS
330
7472
102
}
330
7472
100
AcDbGroup
300

 70
     1
 71
     1
  0
GROUP
  5
33730
102
{ACAD_REACTORS
330
7472
102
}
330
7472
100
AcDbGroup
300

 70
     1
 71
     1
  0
GROUP
  5
3206B
102
{ACAD_REACTORS
330
7472
102
}
330
7472
100
AcDbGroup
300

 70
     1
 71
     1
  0
GROUP
  5
35942
102
{ACAD_REACTORS
330
7472
102
}
330
7472
100
AcDbGroup
300

 70
     1
 71
     1
  0
GROUP
  5
27412
102
{ACAD_REACTORS
330
7472
102
}
330
7472
100
AcDbGroup
300

 70
     1
 71
     1
  0
GROUP
  5
3331C
102
{ACAD_REACTORS
330
7472
102
}
330
7472
100
AcDbGroup
300

 70
     1
 71
     1
  0
GROUP
  5
273FC
102
{ACAD_REACTORS
330
7472
102
}
330
7472
100
AcDbGroup
300

 70
     1
 71
     1
  0
GROUP
  5
35076
102
{ACAD_REACTORS
330
7472
102
}
330
7472
100
AcDbGroup
300

 70
     1
 71
     1
  0
GROUP
  5
33AF8
102
{ACAD_REACTORS
330
7472
102
}
330
7472
100
AcDbGroup
300

 70
     1
 71
     1
  0
GROUP
  5
32077
102
{ACAD_REACTORS
330
7472
102
}
330
7472
100
AcDbGroup
300

 70
     1
 71
     1
  0
GROUP
  5
32DE3
102
{ACAD_REACTORS
330
7472
102
}
330
7472
100
AcDbGroup
300

 70
     1
 71
     1
  0
GROUP
  5
3553D
102
{ACAD_REACTORS
330
7472
102
}
330
7472
100
AcDbGroup
300

 70
     1
 71
     1
340
3518A
340
35189
340
35188
340
35187
340
35186
340
35185
340
35184
340
35183
340
35182
340
35181
340
35180
340
3517F
340
3517E
340
3517D
340
3517C
340
3517B
340
3517A
340
3518B
340
35179
340
35178
340
35177
340
35176
340
35175
340
35174
340
35173
340
35172
340
35171
340
35170
340
3516F
340
3516E
340
3516D
340
3516C
  0
GROUP
  5
3266F
102
{ACAD_REACTORS
330
7472
102
}
330
7472
100
AcDbGroup
300

 70
     1
 71
     1
  0
GROUP
  5
32670
102
{ACAD_REACTORS
330
7472
102
}
330
7472
100
AcDbGroup
300

 70
     1
 71
     1
  0
GROUP
  5
33B93
102
{ACAD_REACTORS
330
7472
102
}
330
7472
100
AcDbGroup
300

 70
     1
 71
     1
  0
GROUP
  5
290EE
102
{ACAD_REACTORS
330
7472
102
}
330
7472
100
AcDbGroup
300

 70
     1
 71
     1
  0
GROUP
  5
2926B
102
{ACAD_REACTORS
330
7472
102
}
330
7472
100
AcDbGroup
300

 70
     1
 71
     1
  0
GROUP
  5
33AFE
102
{ACAD_REACTORS
330
7472
102
}
330
7472
100
AcDbGroup
300

 70
     1
 71
     1
  0
GROUP
  5
29246
102
{ACAD_REACTORS
330
7472
102
}
330
7472
100
AcDbGroup
300

 70
     1
 71
     1
  0
GROUP
  5
32DE6
102
{ACAD_REACTORS
330
7472
102
}
330
7472
100
AcDbGroup
300

 70
     1
 71
     1
  0
GROUP
  5
33732
102
{ACAD_REACTORS
330
7472
102
}
330
7472
100
AcDbGroup
300

 70
     1
 71
     1
  0
GROUP
  5
29247
102
{ACAD_REACTORS
330
7472
102
}
330
7472
100
AcDbGroup
300

 70
     1
 71
     1
  0
GROUP
  5
32DE8
102
{ACAD_REACTORS
330
7472
102
}
330
7472
100
AcDbGroup
300

 70
     1
 71
     1
  0
GROUP
  5
344A2
102
{ACAD_REACTORS
330
7472
102
}
330
7472
100
AcDbGroup
300

 70
     1
 71
     1
  0
GROUP
  5
3293D
102
{ACAD_REACTORS
330
7472
102
}
330
7472
100
AcDbGroup
300

 70
     1
 71
     1
  0
GROUP
  5
3372E
102
{ACAD_REACTORS
330
7472
102
}
330
7472
100
AcDbGroup
300

 70
     1
 71
     1
  0
GROUP
  5
32947
102
{ACAD_REACTORS
330
7472
102
}
330
7472
100
AcDbGroup
300

 70
     1
 71
     1
  0
GROUP
  5
32671
102
{ACAD_REACTORS
330
7472
102
}
330
7472
100
AcDbGroup
300

 70
     1
 71
     1
  0
GROUP
  5
35075
102
{ACAD_REACTORS
330
7472
102
}
330
7472
100
AcDbGroup
300

 70
     1
 71
     1
  0
GROUP
  5
35947
102
{ACAD_REACTORS
330
7472
102
}
330
7472
100
AcDbGroup
300

 70
     1
 71
     1
  0
GROUP
  5
32672
102
{ACAD_REACTORS
330
7472
102
}
330
7472
100
AcDbGroup
300

 70
     1
 71
     1
  0
GROUP
  5
3299E
102
{ACAD_REACTORS
330
7472
102
}
330
7472
100
AcDbGroup
300

 70
     1
 71
     1
  0
GROUP
  5
3299F
102
{ACAD_REACTORS
330
7472
102
}
330
7472
100
AcDbGroup
300

 70
     1
 71
     1
  0
GROUP
  5
272AF
102
{ACAD_REACTORS
330
7472
102
}
330
7472
100
AcDbGroup
300

 70
     1
 71
     1
  0
GROUP
  5
275D8
102
{ACAD_REACTORS
330
7472
102
}
330
7472
100
AcDbGroup
300

 70
     1
 71
     1
  0
GROUP
  5
33736
102
{ACAD_REACTORS
330
7472
102
}
330
7472
100
AcDbGroup
300

 70
     1
 71
     1
  0
GROUP
  5
33B94
102
{ACAD_REACTORS
330
7472
102
}
330
7472
100
AcDbGroup
300

 70
     1
 71
     1
  0
GROUP
  5
33AF9
102
{ACAD_REACTORS
330
7472
102
}
330
7472
100
AcDbGroup
300

 70
     1
 71
     1
  0
GROUP
  5
329A0
102
{ACAD_REACTORS
330
7472
102
}
330
7472
100
AcDbGroup
300

 70
     1
 71
     1
  0
GROUP
  5
329A1
102
{ACAD_REACTORS
330
7472
102
}
330
7472
100
AcDbGroup
300

 70
     1
 71
     1
  0
GROUP
  5
35070
102
{ACAD_REACTORS
330
7472
102
}
330
7472
100
AcDbGroup
300

 70
     1
 71
     1
  0
GROUP
  5
2925E
102
{ACAD_REACTORS
330
7472
102
}
330
7472
100
AcDbGroup
300

 70
     1
 71
     1
  0
GROUP
  5
2740E
102
{ACAD_REACTORS
330
7472
102
}
330
7472
100
AcDbGroup
300

 70
     1
 71
     1
  0
GROUP
  5
3507B
102
{ACAD_REACTORS
330
7472
102
}
330
7472
100
AcDbGroup
300

 70
     1
 71
     1
  0
GROUP
  5
329A2
102
{ACAD_REACTORS
330
7472
102
}
330
7472
100
AcDbGroup
300

 70
     1
 71
     1
  0
GROUP
  5
33314
102
{ACAD_REACTORS
330
7472
102
}
330
7472
100
AcDbGroup
300

 70
     1
 71
     1
  0
GROUP
  5
329A3
102
{ACAD_REACTORS
330
7472
102
}
330
7472
100
AcDbGroup
300

 70
     1
 71
     1
  0
GROUP
  5
33B95
102
{ACAD_REACTORS
330
7472
102
}
330
7472
100
AcDbGroup
300

 70
     1
 71
     1
  0
GROUP
  5
35074
102
{ACAD_REACTORS
330
7472
102
}
330
7472
100
AcDbGroup
300

 70
     1
 71
     1
  0
GROUP
  5
35AF0
102
{ACAD_REACTORS
330
7472
102
}
330
7472
100
AcDbGroup
300

 70
     1
 71
     1
340
35AEF
340
35AEE
340
35AED
340
35AEC
340
35AEB
340
35AEA
340
35AE9
340
35AE8
340
35AE7
340
35AE6
340
35AE5
340
35AE4
340
35AE3
340
35AE2
340
35AE1
340
35AE0
340
35ADF
340
35ADE
340
35ADD
340
35ADC
340
35ADB
340
35ADA
340
35AD9
340
35AD8
340
35AD7
340
35AD6
340
35AD5
340
35AD4
340
35AD3
340
35AD2
340
35AD1
340
35AD0
340
35ACF
  0
GROUP
  5
344A6
102
{ACAD_REACTORS
330
7472
102
}
330
7472
100
AcDbGroup
300

 70
     1
 71
     1
  0
GROUP
  5
32DEA
102
{ACAD_REACTORS
330
7472
102
}
330
7472
100
AcDbGroup
300

 70
     1
 71
     1
  0
GROUP
  5
32676
102
{ACAD_REACTORS
330
7472
102
}
330
7472
100
AcDbGroup
300

 70
     1
 71
     1
  0
GROUP
  5
32DEB
102
{ACAD_REACTORS
330
7472
102
}
330
7472
100
AcDbGroup
300

 70
     1
 71
     1
  0
GROUP
  5
32DEC
102
{ACAD_REACTORS
330
7472
102
}
330
7472
100
AcDbGroup
300

 70
     1
 71
     1
  0
GROUP
  5
32DED
102
{ACAD_REACTORS
330
7472
102
}
330
7472
100
AcDbGroup
300

 70
     1
 71
     1
  0
GROUP
  5
35079
102
{ACAD_REACTORS
330
7472
102
}
330
7472
100
AcDbGroup
300

 70
     1
 71
     1
  0
GROUP
  5
33733
102
{ACAD_REACTORS
330
7472
102
}
330
7472
100
AcDbGroup
300

 70
     1
 71
     1
  0
LAYOUT
  5
11757
102
{ACAD_XDICTIONARY
360
35B80
102
}
102
{ACAD_REACTORS
330
11755
102
}
330
11755
100
AcDbPlotSettings
  1

  2
Microsoft Office Document Image Writer
  4
A4
  6

 40
3.174999952316284
 41
3.174999952316284
 42
3.175003051757812
 43
3.17498779296875
 44
209.9733276367187
 45
297.0106506347656
 46
0.0
 47
0.0
 48
0.0
 49
0.0
140
0.0
141
0.0
142
1.0
143
1.0
 70
 11952
 72
     1
 73
     1
 74
     0
  7

 75
     0
147
1.0
148
-3096.011834229277
149
52.59843815948716
100
AcDbLayout
  1
Model
 70
     1
 71
     0
 10
0.0
 20
0.0
 11
12.0
 21
9.0
 12
0.0
 22
0.0
 32
0.0
 14
0.0
 24
0.0
 34
0.0
 15
0.0
 25
0.0
 35
0.0
146
0.0
 13
0.0
 23
0.0
 33
0.0
 16
1.0
 26
0.0
 36
0.0
 17
0.0
 27
1.0
 37
0.0
 76
     0
330
747D
  0
LAYOUT
  5
11758
102
{ACAD_XDICTIONARY
360
35B82
102
}
102
{ACAD_REACTORS
330
11755
102
}
330
11755
100
AcDbPlotSettings
  1

  2
Microsoft Office Document Image Writer
  4

  6

 40
0.0
 41
0.0
 42
0.0
 43
0.0
 44
0.0
 45
0.0
 46
0.0
 47
0.0
 48
0.0
 49
0.0
140
0.0
141
0.0
142
1.0
143
1.0
 70
   688
 72
     0
 73
     0
 74
     5
  7
inaba.ctb
 75
    16
147
1.0
148
0.0
149
0.0
100
AcDbLayout
  1
レイアウト1
 70
     0
 71
     1
 10
0.0
 20
0.0
 11
420.0
 21
297.0
 12
0.0
 22
0.0
 32
0.0
 14
1.000000000000000E+20
 24
1.000000000000000E+20
 34
1.000000000000000E+20
 15
-1.000000000000000E+20
 25
-1.000000000000000E+20
 35
-1.000000000000000E+20
146
0.0
 13
0.0
 23
0.0
 33
0.0
 16
1.0
 26
0.0
 36
0.0
 17
0.0
 27
1.0
 37
0.0
 76
     0
330
747A
  0
MLINESTYLE
  5
7480
102
{ACAD_REACTORS
330
7473
102
}
330
7473
100
AcDbMlineStyle
  2
STANDARD
 70
     0
  3

 62
     0
 51
90.0
 52
90.0
 71
     2
 49
0.5
 62
   256
  6
BYLAYER
 49
-0.5
 62
   256
  6
BYLAYER
  0
ACDBPLACEHOLDER
  5
11752
102
{ACAD_REACTORS
330
11751
102
}
330
11751
  0
XRECORD
  5
35B7F
102
{ACAD_REACTORS
330
35B7D
102
}
330
35B7D
100
AcDbXrecord
280
     1
340
11754
  0
XRECORD
  5
35B7E
102
{ACAD_REACTORS
330
35B7D
102
}
330
35B7D
100
AcDbXrecord
280
     1
340
11753
  0
DICTIONARYVAR
  5
35B7A
102
{ACAD_REACTORS
330
35B79
102
}
330
35B79
100
DictionaryVariables
280
     0
  1
1
  0
DICTIONARYVAR
  5
35B7B
102
{ACAD_REACTORS
330
35B79
102
}
330
35B79
100
DictionaryVariables
280
     0
  1

  0
DICTIONARY
  5
35B80
330
11757
100
AcDbDictionary
280
     1
281
     1
  3
ACAD_XREC_ROUNDTRIP
360
35B81
  0
DICTIONARY
  5
35B82
330
11758
100
AcDbDictionary
280
     1
281
     1
  3
ACAD_XREC_ROUNDTRIP
360
35B83
  0
XRECORD
  5
35B81
102
{ACAD_REACTORS
330
35B80
102
}
330
35B80
100
AcDbXrecord
280
     1
102
SHADEPLOT
 70
     0
102
SHADEPLOTRESLEVEL
 70
     2
102
SHADEPLOTCUSTOMDPI
 70
   300
  0
XRECORD
  5
35B83
102
{ACAD_REACTORS
330
35B82
102
}
330
35B82
100
AcDbXrecord
280
     1
102
SHADEPLOT
 70
     0
102
SHADEPLOTRESLEVEL
 70
     2
102
SHADEPLOTCUSTOMDPI
 70
   300
  0
ENDSEC
  0
EOF
